  0
SECTION
  2
HEADER
  9
$ACADVER
  1
AC1015
  9
$ACADMAINTVER
 70
    20
  9
$DWGCODEPAGE
  3
ANSI_950
  9
$INSBASE
 10
0.0
 20
0.0
 30
0.0
  9
$EXTMIN
 10
173.1743658117827
 20
-44.43876716088584
 30
-0.0096755164683486
  9
$EXTMAX
 10
433.3855786488234
 20
138.6990821909271
 30
140.9181045447138
  9
$LIMMIN
 10
0.0
 20
0.0
  9
$LIMMAX
 10
420.0
 20
297.0
  9
$ORTHOMODE
 70
     1
  9
$REGENMODE
 70
     1
  9
$FILLMODE
 70
     1
  9
$QTEXTMODE
 70
     0
  9
$MIRRTEXT
 70
     1
  9
$LTSCALE
 40
1.0
  9
$ATTMODE
 70
     1
  9
$TEXTSIZE
 40
3.0
  9
$TRACEWID
 40
1.0
  9
$TEXTSTYLE
  7
STANDARD
  9
$CLAYER
  8
0
  9
$CELTYPE
  6
ByLayer
  9
$CECOLOR
 62
   256
  9
$CELTSCALE
 40
1.0
  9
$DISPSILH
 70
     0
  9
$DIMSCALE
 40
1.0
  9
$DIMASZ
 40
3.0
  9
$DIMEXO
 40
1.5
  9
$DIMDLI
 40
5.0
  9
$DIMRND
 40
0.0
  9
$DIMDLE
 40
0.0
  9
$DIMEXE
 40
1.5
  9
$DIMTP
 40
0.1
  9
$DIMTM
 40
0.1
  9
$DIMTXT
 40
3.5
  9
$DIMCEN
 40
0.0
  9
$DIMTSZ
 40
0.0
  9
$DIMTOL
 70
     0
  9
$DIMLIM
 70
     0
  9
$DIMTIH
 70
     0
  9
$DIMTOH
 70
     0
  9
$DIMSE1
 70
     0
  9
$DIMSE2
 70
     0
  9
$DIMTAD
 70
     1
  9
$DIMZIN
 70
     8
  9
$DIMBLK
  1

  9
$DIMASO
 70
     1
  9
$DIMSHO
 70
     1
  9
$DIMPOST
  1

  9
$DIMAPOST
  1
"
  9
$DIMALT
 70
     0
  9
$DIMALTD
 70
     2
  9
$DIMALTF
 40
0.0393701
  9
$DIMLFAC
 40
1.0
  9
$DIMTOFL
 70
     1
  9
$DIMTVP
 40
0.0
  9
$DIMTIX
 70
     0
  9
$DIMSOXD
 70
     0
  9
$DIMSAH
 70
     0
  9
$DIMBLK1
  1

  9
$DIMBLK2
  1

  9
$DIMSTYLE
  2
AM_ISO
  9
$DIMCLRD
 70
   256
  9
$DIMCLRE
 70
   256
  9
$DIMCLRT
 70
   256
  9
$DIMTFAC
 40
0.6
  9
$DIMGAP
 40
1.0
  9
$DIMJUST
 70
     0
  9
$DIMSD1
 70
     0
  9
$DIMSD2
 70
     0
  9
$DIMTOLJ
 70
     0
  9
$DIMTZIN
 70
     8
  9
$DIMALTZ
 70
     0
  9
$DIMALTTZ
 70
     0
  9
$DIMUPT
 70
     0
  9
$DIMDEC
 70
     2
  9
$DIMTDEC
 70
     8
  9
$DIMALTU
 70
     2
  9
$DIMALTTD
 70
     2
  9
$DIMTXSTY
  7
STANDARD
  9
$DIMAUNIT
 70
     0
  9
$DIMADEC
 70
     0
  9
$DIMALTRND
 40
0.0
  9
$DIMAZIN
 70
     2
  9
$DIMDSEP
 70
    46
  9
$DIMATFIT
 70
     3
  9
$DIMFRAC
 70
     0
  9
$DIMLDRBLK
  1

  9
$DIMLUNIT
 70
     2
  9
$DIMLWD
 70
    -1
  9
$DIMLWE
 70
    -1
  9
$DIMTMOVE
 70
     0
  9
$LUNITS
 70
     2
  9
$LUPREC
 70
     2
  9
$SKETCHINC
 40
1.0
  9
$FILLETRAD
 40
2.5
  9
$AUNITS
 70
     0
  9
$AUPREC
 70
     0
  9
$MENU
  1
.
  9
$ELEVATION
 40
0.0
  9
$PELEVATION
 40
0.0
  9
$THICKNESS
 40
0.0
  9
$LIMCHECK
 70
     0
  9
$CHAMFERA
 40
2.5
  9
$CHAMFERB
 40
2.5
  9
$CHAMFERC
 40
20.0
  9
$CHAMFERD
 40
0.0
  9
$SKPOLY
 70
     0
  9
$TDCREATE
 40
2454580.691861609
  9
$TDUCREATE
 40
2454580.358528275
  9
$TDUPDATE
 40
2454585.544176794
  9
$TDUUPDATE
 40
2454585.210843461
  9
$TDINDWG
 40
0.1604962384
  9
$TDUSRTIMER
 40
0.1604962384
  9
$USRTIMER
 70
     1
  9
$ANGBASE
 50
0.0
  9
$ANGDIR
 70
     0
  9
$PDMODE
 70
     0
  9
$PDSIZE
 40
0.0
  9
$PLINEWID
 40
0.0
  9
$SPLFRAME
 70
     0
  9
$SPLINETYPE
 70
     6
  9
$SPLINESEGS
 70
     8
  9
$HANDSEED
  5
46CC
  9
$SURFTAB1
 70
     6
  9
$SURFTAB2
 70
     6
  9
$SURFTYPE
 70
     6
  9
$SURFU
 70
     6
  9
$SURFV
 70
     6
  9
$UCSBASE
  2

  9
$UCSNAME
  2

  9
$UCSORG
 10
0.0
 20
0.0
 30
0.0
  9
$UCSXDIR
 10
1.0
 20
0.0
 30
0.0
  9
$UCSYDIR
 10
0.0
 20
1.0
 30
0.0
  9
$UCSORTHOREF
  2

  9
$UCSORTHOVIEW
 70
     0
  9
$UCSORGTOP
 10
0.0
 20
0.0
 30
0.0
  9
$UCSORGBOTTOM
 10
0.0
 20
0.0
 30
0.0
  9
$UCSORGLEFT
 10
0.0
 20
0.0
 30
0.0
  9
$UCSORGRIGHT
 10
0.0
 20
0.0
 30
0.0
  9
$UCSORGFRONT
 10
0.0
 20
0.0
 30
0.0
  9
$UCSORGBACK
 10
0.0
 20
0.0
 30
0.0
  9
$PUCSBASE
  2

  9
$PUCSNAME
  2

  9
$PUCSORG
 10
0.0
 20
0.0
 30
0.0
  9
$PUCSXDIR
 10
1.0
 20
0.0
 30
0.0
  9
$PUCSYDIR
 10
0.0
 20
1.0
 30
0.0
  9
$PUCSORTHOREF
  2

  9
$PUCSORTHOVIEW
 70
     0
  9
$PUCSORGTOP
 10
0.0
 20
0.0
 30
0.0
  9
$PUCSORGBOTTOM
 10
0.0
 20
0.0
 30
0.0
  9
$PUCSORGLEFT
 10
0.0
 20
0.0
 30
0.0
  9
$PUCSORGRIGHT
 10
0.0
 20
0.0
 30
0.0
  9
$PUCSORGFRONT
 10
0.0
 20
0.0
 30
0.0
  9
$PUCSORGBACK
 10
0.0
 20
0.0
 30
0.0
  9
$USERI1
 70
     0
  9
$USERI2
 70
     0
  9
$USERI3
 70
     0
  9
$USERI4
 70
     0
  9
$USERI5
 70
     0
  9
$USERR1
 40
0.0
  9
$USERR2
 40
0.0
  9
$USERR3
 40
0.0
  9
$USERR4
 40
0.0
  9
$USERR5
 40
0.0
  9
$WORLDVIEW
 70
     1
  9
$SHADEDGE
 70
     3
  9
$SHADEDIF
 70
    70
  9
$TILEMODE
 70
     1
  9
$MAXACTVP
 70
    64
  9
$PINSBASE
 10
0.0
 20
0.0
 30
0.0
  9
$PLIMCHECK
 70
     0
  9
$PEXTMIN
 10
1.000000000000000E+20
 20
1.000000000000000E+20
 30
1.000000000000000E+20
  9
$PEXTMAX
 10
-1.000000000000000E+20
 20
-1.000000000000000E+20
 30
-1.000000000000000E+20
  9
$PLIMMIN
 10
0.0
 20
0.0
  9
$PLIMMAX
 10
420.0
 20
297.0
  9
$UNITMODE
 70
     0
  9
$VISRETAIN
 70
     1
  9
$PLINEGEN
 70
     0
  9
$PSLTSCALE
 70
     1
  9
$TREEDEPTH
 70
  3020
  9
$CMLSTYLE
  2
Standard
  9
$CMLJUST
 70
     0
  9
$CMLSCALE
 40
20.0
  9
$PROXYGRAPHICS
 70
     1
  9
$MEASUREMENT
 70
     1
  9
$CELWEIGHT
370
    -1
  9
$ENDCAPS
280
     0
  9
$JOINSTYLE
280
     0
  9
$LWDISPLAY
290
     0
  9
$INSUNITS
 70
     4
  9
$HYPERLINKBASE
  1

  9
$STYLESHEET
  1
彩色出圖.ctb
  9
$XEDIT
290
     1
  9
$CEPSNTYPE
380
     0
  9
$PSTYLEMODE
290
     1
  9
$FINGERPRINTGUID
  2
{600CDA41-CE12-4F2A-897E-A5B372702EEE}
  9
$VERSIONGUID
  2
{7424082E-E1C3-4A62-8306-CDE0E7E2F57C}
  9
$EXTNAMES
290
     1
  9
$PSVPSCALE
 40
0.0
  9
$OLESTARTUP
290
     0
  0
ENDSEC
  0
SECTION
  2
CLASSES
  0
CLASS
  1
ACDBDICTIONARYWDFLT
  2
AcDbDictionaryWithDefault
  3
ObjectDBX Classes
 90
        0
280
     0
281
     0
  0
CLASS
  1
ACDBPLACEHOLDER
  2
AcDbPlaceHolder
  3
ObjectDBX Classes
 90
        0
280
     0
281
     0
  0
CLASS
  1
LAYOUT
  2
AcDbLayout
  3
ObjectDBX Classes
 90
        0
280
     0
281
     0
  0
CLASS
  1
ACME_DOCUMENT
  2
AcMeDbDoc
  3
AcMeServices
 90
        0
280
     0
281
     0
  0
CLASS
  1
AMGSETTINGSOBJ
  2
AmgSettingsObj
  3
"AcadM|Product Description: AutoCAD Mechanical 2000|Company: Autodesk"
 90
        0
280
     0
281
     0
  0
CLASS
  1
ACMESCOPE
  2
AcMeScope
  3
AcMeServices
 90
        0
280
     0
281
     0
  0
CLASS
  1
ACMECOMMANDHISTORY
  2
AcMeCommandHistory
  3
AcMeServices
 90
        0
280
     0
281
     0
  0
CLASS
  1
ACIMSYSVARMAN
  2
AcImSysVarManager
  3
AcMeServices
 90
        0
280
     0
281
     0
  0
CLASS
  1
ACIMREALSYSVAR
  2
AcImRealSysVar
  3
AcMeServices
 90
        0
280
     0
281
     0
  0
CLASS
  1
ACIMINTSYSVAR
  2
AcImIntSysVar
  3
AcMeServices
 90
        0
280
     0
281
     0
  0
CLASS
  1
ACMEDRAWINGMAN
  2
AcMeDrawingMan
  3
AcMeServices
 90
        0
280
     0
281
     0
  0
CLASS
  1
ACMEVIEW
  2
AcMeView
  3
AcMeServices
 90
        0
280
     0
281
     0
  0
CLASS
  1
ACDBENTITYCACHE
  2
AcMeEntityCache
  3
AcMeServices
 90
        0
280
     0
281
     0
  0
CLASS
  1
GSMANAGER
  2
AcMeGSManager
  3
AcMeServices
 90
        0
280
     0
281
     0
  0
CLASS
  1
AMDTINTERNALREACTOR
  2
AmdtInternalReactor
  3
AcMeServices
 90
        0
280
     0
281
     0
  0
CLASS
  1
ACMESTATEMGR
  2
AcMeStateMgr
  3
AcMeServices
 90
        0
280
     0
281
     0
  0
CLASS
  1
ACGREFMASTER
  2
AcGrefMaster
  3
AcAttribServices
 90
        0
280
     0
281
     0
  0
CLASS
  1
ACME_DATABASE
  2
AcMeDbDatabase
  3
AcMeServices
 90
        0
280
     0
281
     0
  0
CLASS
  1
ACRFINSADJUSTERMGR
  2
AcRfInsAdjusterMgr
  3
AcMeServices
 90
        0
280
     0
281
     0
  0
CLASS
  1
ACGREFACADMASTER
  2
AcGrefacadMaster
  3
AcGrefServices
 90
        0
280
     0
281
     0
  0
CLASS
  1
AMIMASTER
  2
AmiMaster
  3
AmiServices
 90
        0
280
     0
281
     0
  0
CLASS
  1
ACMDATADICTIONARY
  2
AcmDataDictionary
  3
"AcmSymBB|Product Description: AutoCAD Mechanical 2004 DX|Company: Autodesk"
 90
        0
280
     0
281
     0
  0
CLASS
  1
ACMDATAENTRYBLOCK
  2
AcmDataEntryBlock
  3
"AcmSymBB|Product Description: AutoCAD Mechanical 2004 DX|Company: Autodesk"
 90
        0
280
     0
281
     0
  0
CLASS
  1
ACIMSTRSYSVAR
  2
AcImStrSysVar
  3
AcMeServices
 90
        0
280
     0
281
     0
  0
CLASS
  1
ACMSTANDARDISO
  2
AcmStandardISO
  3
"Amdt_StdImp|Product Description: AutoCAD Mechanical 2004 DX|Company: Autodesk"
 90
        0
280
     0
281
     0
  0
CLASS
  1
AMGOBJPROPCFG
  2
AmgObjPropCfg
  3
"AmgLay|Product Description: AutoCAD Mechanical 2000|Company: Autodesk"
 90
        1
280
     0
281
     0
  0
CLASS
  1
AMDTEDGESTANDARDISO
  2
AmdtEdgeStdISO
  3
"Amdt_StdImp|Product Description: AutoCAD Mechanical 2004 DX|Company: Autodesk"
 90
        0
280
     0
281
     0
  0
CLASS
  1
ACMSURFSTANDARDISO
  2
AcmSurfTextStdISO
  3
"Amdt_StdImp|Product Description: AutoCAD Mechanical 2004 DX|Company: Autodesk"
 90
        0
280
     0
281
     0
  0
CLASS
  1
ACMFCFSTANDARDISO
  2
AcmFCFStdISO
  3
"Amdt_StdImp|Product Description: AutoCAD Mechanical 2004 DX|Company: Autodesk"
 90
        0
280
     0
281
     0
  0
CLASS
  1
ACMWELDSTANDARDISO
  2
AcmWeldingStdISO
  3
"Amdt_StdImp|Product Description: AutoCAD Mechanical 2004 DX|Company: Autodesk"
 90
        0
280
     0
281
     0
  0
CLASS
  1
ACMIDSTANDARDISO
  2
AcmIdStdISO
  3
"Amdt_StdImp|Product Description: AutoCAD Mechanical 2004 DX|Company: Autodesk"
 90
        0
280
     0
281
     0
  0
CLASS
  1
ACMDATUMSTANDARDISO
  2
AcmDatumStdISO
  3
"Amdt_StdImp|Product Description: AutoCAD Mechanical 2004 DX|Company: Autodesk"
 90
        0
280
     0
281
     0
  0
CLASS
  1
ACMBOMSTANDARDISO
  2
AcmBOMStdISO
  3
"Amdt_StdImp|Product Description: AutoCAD Mechanical 2004 DX|Company: Autodesk"
 90
        0
280
     0
281
     0
  0
CLASS
  1
ACMDETAILSTANDARDISO
  2
AmdtDetailSymStdISO
  3
"Amdt_StdImp|Product Description: AutoCAD Mechanical 2004 DX|Company: Autodesk"
 90
        0
280
     0
281
     0
  0
CLASS
  1
ACMSECTIONSTANDARDISO
  2
AmdtSectionSymStdISO
  3
"Amdt_StdImp|Product Description: AutoCAD Mechanical 2004 DX|Company: Autodesk"
 90
        0
280
     0
281
     0
  0
CLASS
  1
ACMCENTERLINESTANDARDISO
  2
AmdtCenterLineStdISO
  3
"Amdt_StdImp|Product Description: AutoCAD Mechanical 2004 DX|Company: Autodesk"
 90
        0
280
     0
281
     0
  0
CLASS
  1
ACMNOTESTANDARDISO
  2
AmdtNoteStdISO
  3
"Amdt_StdImp|Product Description: AutoCAD Mechanical 2004 DX|Company: Autodesk"
 90
        0
280
     0
281
     0
  0
CLASS
  1
ACAMGLAYSTD
  2
AcAmgLayStd
  3
"AcAmgLayStd|Product Description: AutoCAD Mechanical 2000|Company: Autodesk"
 90
        0
280
     0
281
     0
  0
CLASS
  1
ACAMGDIMSTD
  2
AcAmgDimStd
  3
"AcAmgDimStd|Product Description: AutoCAD Mechanical 2000|Company: Autodesk"
 90
        0
280
     0
281
     0
  0
CLASS
  1
ACAMGHOLECHARTSTDISO
  2
AcAmgHoleChartStdISO
  3
ACMSYMBB_MODULE_NAME
 90
        0
280
     0
281
     0
  0
CLASS
  1
ACAMGTITLESTD
  2
AcAmgTitleStd
  3
"TITLEAPP"
 90
        0
280
     0
281
     0
  0
CLASS
  1
LAYER_INDEX
  2
AcDbLayerIndex
  3
ObjectDBX Classes
 90
    32768
280
     0
281
     0
  0
CLASS
  1
IDBUFFER
  2
AcDbIdBuffer
  3
ObjectDBX Classes
 90
    32768
280
     0
281
     0
  0
CLASS
  1
DICTIONARYVAR
  2
AcDbDictionaryVar
  3
ObjectDBX Classes
 90
        0
280
     0
281
     0
  0
CLASS
  1
AM_DRAWING_MGR
  2
AcDmDwgMgr
  3
AcMechDwgViewMgmt
 90
        0
280
     0
281
     0
  0
CLASS
  1
AM_DWG_DOCUMENT
  2
AcDmDwgDocument
  3
AcMechDwgViewMgmt
 90
        0
280
     0
281
     0
  0
CLASS
  1
AM_DWG_SHEET
  2
AcDmSheet
  3
AcMechDwgViewMgmt
 90
        0
280
     0
281
     0
  0
CLASS
  1
AM_VIEWDIMPARMAP
  2
AcDmViewDimParMap
  3
AcMechDwgViewMgmt
 90
        0
280
     0
281
     0
  0
CLASS
  1
AM_DWGMGR_NAME
  2
AcDmDwgMgrName
  3
AcMechDwgViewMgmt
 90
        0
280
     0
281
     0
  0
CLASS
  1
AMDTMENUSTATEMGR
  2
AmdtMenuStateMgr
  3
McadcomServices
 90
        0
280
     0
281
     0
  0
CLASS
  1
AMDTMCOMMENUSTATE
  2
AmdtMcomMenuState
  3
McadcomServices
 90
        0
280
     0
281
     0
  0
CLASS
  1
MAPIAMMOUDLE
  2
MApiAmModule
  3
MApiAmServices
 90
        0
280
     0
281
     0
  0
CLASS
  1
AMDTADMENUSTATE
  2
AmdtAdMenuState
  3
DesignerServices
 90
        0
280
     0
281
     0
  0
CLASS
  1
ADAPPL
  2
AcAdAppl
  3
DesignerServices
 90
        0
280
     0
281
     0
  0
CLASS
  1
DEPMGR
  2
AcAdDepMgr
  3
DesignerServices
 90
        0
280
     0
281
     0
  0
CLASS
  1
PARAMMGR
  2
AcAdParamMgr
  3
DesignerServices
 90
        0
280
     0
281
     0
  0
CLASS
  1
PARAMSCOPE
  2
AcAdParamScope
  3
DesignerServices
 90
        0
280
     0
281
     0
  0
CLASS
  1
NAMEDAPPL
  2
AcAdNamedAppl
  3
DesignerServices
 90
        0
280
     0
281
     0
  0
CLASS
  1
AMDTDMMENUSTATE
  2
AmdtDmMenuState
  3
AcMechDwgViewMgmt
 90
        0
280
     0
281
     0
  0
CLASS
  1
AMDTAMMENUSTATE
  2
AmdtAmMenuState
  3
DesignerAssemblies
 90
        0
280
     0
281
     0
  0
CLASS
  1
ACAMPROJECT
  2
AcAmProject
  3
DesignerAssemblies
 90
        0
280
     0
281
     0
  0
CLASS
  1
ACAMGRCOMPDEF
  2
AcAmGrCompDef
  3
DesignerAssemblies
 90
        0
280
     0
281
     0
  0
CLASS
  1
ACCMCONTEXT
  2
AcCmContext
  3
DesignerAssemblies
 90
        0
280
     0
281
     0
  0
CLASS
  1
ACAMCOMPDEF
  2
AcAmCompDef
  3
DesignerAssemblies
 90
        0
280
     0
281
     0
  0
CLASS
  1
ACAMCOMPDEFMGR
  2
AcAmCompDefMgr
  3
DesignerAssemblies
 90
        0
280
     0
281
     0
  0
CLASS
  1
AMCONTEXTMGR
  2
AcAmContextMgr
  3
DesignerAssemblies
 90
        0
280
     0
281
     0
  0
CLASS
  1
ACAMCONTEXTMODELER
  2
AcAmContextModeler
  3
DesignerAssemblies
 90
        0
280
     0
281
     0
  0
CLASS
  1
ACMTHREADLINESTANDARDISO
  2
AmdtThreadLineStdISO
  3
"Amdt_StdImp|Product Description: AutoCAD Mechanical 2004 DX|Company: Autodesk"
 90
        0
280
     0
281
     0
  0
CLASS
  1
CATALOGSTATE
  2
AcAmCatalogState
  3
DesignerAssemblies
 90
        0
280
     0
281
     0
  0
CLASS
  1
ACAMGRCOMPDEFSET
  2
AcAmGrCompDefSet
  3
DesignerAssemblies
 90
        0
280
     0
281
     0
  0
CLASS
  1
AMDTBROWSERDBTAB
  2
AmdtBrowserDbTab
  3
McadcomServices
 90
        0
280
     0
281
     0
  0
CLASS
  1
CBROWSERAPPOBJECT
  2
CBrowserAppObject
  3
McadcomServices
 90
        0
280
     0
281
     0
  0
CLASS
  1
DM_PLACEHOLDER
  2
AcDmSelsetPlaceholder
  3
AcMechDwgViewMgmt
 90
        0
280
     0
281
     0
  0
CLASS
  1
TABLESTYLE
  2
AcDbTableStyle
  3
ObjectDBX Classes
 90
     2047
280
     0
281
     0
  0
CLASS
  1
VAACXREFPANELOBJECT
  2
VaAcXREFPanelObject
  3
VAAC_ADDIN
 90
    32768
280
     0
281
     0
  0
CLASS
  1
VAACIMAGEINVENTORY
  2
VaAcImageInventory
  3
VAAC_ADDIN
 90
    32768
280
     0
281
     0
  0
CLASS
  1
AMDTNOTETEMPLATEDB
  2
AmdtNoteTemplateDB
  3
AMDT_STDIMP_MODULE_NAME
 90
        0
280
     0
281
     0
  0
CLASS
  1
ACMBOM
  2
AcmBom
  3
"AcmSymBB|Product Description: AutoCAD Mechanical 2004 DX|Company: Autodesk"
 90
    32768
280
     0
281
     0
  0
CLASS
  1
AMDTFORMULAUPDATEDISPATCHER
  2
AmdtFormulaUpdateDispatcher
  3
AcMeServices
 90
    32768
280
     0
281
     0
  0
CLASS
  1
ACMPARTLIST
  2
AcmPartList
  3
"AcmSymBB|Product Description: AutoCAD Mechanical 2004 DX|Company: Autodesk"
 90
    33791
280
     0
281
     1
  0
CLASS
  1
ACAMGFILTERDAT
  2
AcAmgFilterDat
  3
"AcadM|Product Description: AutoCAD Mechanical 2000|Company: Autodesk"
 90
        0
280
     0
281
     0
  0
CLASS
  1
DIMASSOC
  2
AcDbDimAssoc
  3
"AcDbDimAssoc|Product Desc:     AcDim ARX App For Dimension|Company:          Autodesk, Inc.|WEB Address:      www.autodesk.com"
 90
    32768
280
     0
281
     0
  0
CLASS
  1
AMDTNOTE
  2
AmdtNote
  3
"AcmSymBB|Product Description: AutoCAD Mechanical 2004 DX|Company: Autodesk"
 90
    33791
280
     0
281
     1
  0
CLASS
  1
SORTENTSTABLE
  2
AcDbSortentsTable
  3
ObjectDBX Classes
 90
        0
280
     0
281
     0
  0
CLASS
  1
ACRFATTGENMGR
  2
AcRfAttGeneralMgr
  3
AcAttribServices
 90
        0
280
     0
281
     0
  0
ENDSEC
  0
SECTION
  2
TABLES
  0
TABLE
  2
VPORT
  5
8
330
0
100
AcDbSymbolTable
 70
     3
  0
VPORT
  5
46C3
330
8
100
AcDbSymbolTableRecord
100
AcDbViewportTableRecord
  2
*Active
 70
     0
 10
0.0
 20
0.0
 11
1.0
 21
1.0
 12
303.2603592468295
 22
47.13086725076487
 13
0.0
 23
0.0
 14
2.5
 24
2.5
 15
10.0
 25
10.0
 16
0.0
 26
0.0
 36
1.0
 17
0.0
 27
0.0
 37
0.0
 40
187.0167021488878
 41
1.399725274725274
 42
50.0
 43
0.0
 44
0.0
 50
0.0
 51
0.0
 71
     0
 72
   100
 73
     1
 74
     3
 75
     0
 76
     0
 77
     0
 78
     0
281
     0
 65
     1
110
0.0
120
0.0
130
0.0
111
1.0
121
0.0
131
0.0
112
0.0
122
1.0
132
0.0
 79
     0
146
0.0
  0
ENDTAB
  0
TABLE
  2
LTYPE
  5
5
330
0
100
AcDbSymbolTable
 70
    14
  0
LTYPE
  5
14
330
5
100
AcDbSymbolTableRecord
100
AcDbLinetypeTableRecord
  2
ByBlock
 70
     0
  3

 72
    65
 73
     0
 40
0.0
  0
LTYPE
  5
15
330
5
100
AcDbSymbolTableRecord
100
AcDbLinetypeTableRecord
  2
ByLayer
 70
     0
  3

 72
    65
 73
     0
 40
0.0
  0
LTYPE
  5
16
330
5
100
AcDbSymbolTableRecord
100
AcDbLinetypeTableRecord
  2
Continuous
 70
     0
  3
Solid line
 72
    65
 73
     0
 40
0.0
  0
LTYPE
  5
64
330
5
100
AcDbSymbolTableRecord
100
AcDbLinetypeTableRecord
  2
AM_ISO02W050
 70
     0
  3
__ __ __ __ __ __ __ __ __ __ __ __ __ __ __
 72
    65
 73
     2
 40
7.5
 49
6.0
 74
     0
 49
-1.5
 74
     0
  0
LTYPE
  5
65
330
5
100
AcDbSymbolTableRecord
100
AcDbLinetypeTableRecord
  2
AM_ISO08W050
 70
     0
  3
____ . ____ . ____ . ____ . ____ . ____ . ____
 72
    65
 73
     4
 40
18.0
 49
12.0
 74
     0
 49
-1.5
 74
     0
 49
3.0
 74
     0
 49
-1.5
 74
     0
  0
LTYPE
  5
66
330
5
100
AcDbSymbolTableRecord
100
AcDbLinetypeTableRecord
  2
AM_ISO09W050
 70
     0
  3
_____ . . _____ . . _____ . . ____ .. ____
 72
    65
 73
     6
 40
22.5
 49
12.0
 74
     0
 49
-1.5
 74
     0
 49
3.0
 74
     0
 49
-1.5
 74
     0
 49
3.0
 74
     0
 49
-1.5
 74
     0
  0
LTYPE
  5
67
330
5
100
AcDbSymbolTableRecord
100
AcDbLinetypeTableRecord
  2
Amconstr
 70
     0
  3
_______________________
 72
    65
 73
     2
 40
9999.0
 49
9999.0
 74
     0
 49
0.0
 74
     0
  0
LTYPE
  5
68
330
5
100
AcDbSymbolTableRecord
100
AcDbLinetypeTableRecord
  2
AM_ISO08W050x2
 70
     0
  3
__ . __ . __ . __ . __ . __
 72
    65
 73
     4
 40
9.0
 49
6.0
 74
     0
 49
-0.75
 74
     0
 49
1.5
 74
     0
 49
-0.75
 74
     0
  0
LTYPE
  5
69
330
5
100
AcDbSymbolTableRecord
100
AcDbLinetypeTableRecord
  2
AM_ISO02W050x2
 70
     0
  3
 _ _ _ _ _ _ _ _ _ _ _ _
 72
    65
 73
     2
 40
3.75
 49
3.0
 74
     0
 49
-0.75
 74
     0
  0
LTYPE
  5
6C
330
5
100
AcDbSymbolTableRecord
100
AcDbLinetypeTableRecord
  2
Amzigzag
 70
     0
  3
/\/-/\/-/\/-/\/-/\/-/\/
 72
    65
 73
     2
 40
11.0001
 49
0.0001
 74
     4
 75
   135
340
6B
 46
0.04
 50
0.0
 44
0.0
 45
0.0
 49
-11.0
 74
     0
  0
LTYPE
  5
7A
330
5
100
AcDbSymbolTableRecord
100
AcDbLinetypeTableRecord
  2
ACISOWELD
 70
     0
  3
_ _ _ _ _
 72
    65
 73
     2
 40
2.0
 49
2.0
 74
     0
 49
-1.0
 74
     0
  0
LTYPE
  5
7B
330
5
100
AcDbSymbolTableRecord
100
AcDbLinetypeTableRecord
  2
ACISOTGB
 70
     0
  3
__ . . __ . .
 72
    65
 73
     6
 40
9.0
 49
4.0
 74
     0
 49
-1.0
 74
     0
 49
1.0
 74
     0
 49
-1.0
 74
     0
 49
1.0
 74
     0
 49
-1.0
 74
     0
  0
LTYPE
  5
7C
330
5
100
AcDbSymbolTableRecord
100
AcDbLinetypeTableRecord
  2
ACISOTGL
 70
     0
  3
_ _ _ _ _
 72
    65
 73
     2
 40
3.0
 49
2.0
 74
     0
 49
-1.0
 74
     0
  0
LTYPE
  5
7E
330
5
100
AcDbSymbolTableRecord
100
AcDbLinetypeTableRecord
  2
CENTER
 70
     0
  3
__ . __
 72
    65
 73
     4
 40
7.0
 49
4.0
 74
     0
 49
-1.0
 74
     0
 49
1.0
 74
     0
 49
-1.0
 74
     0
  0
LTYPE
  5
D8
330
5
100
AcDbSymbolTableRecord
100
AcDbLinetypeTableRecord
  2
HIDDEN
 70
     0
  3
Hidden __ __ __ __ __ __ __ __ __ __ __ __ __ _
 72
    65
 73
     2
 40
9.524999999999998
 49
6.349999999999999
 74
     0
 49
-3.174999999999999
 74
     0
  0
LTYPE
  5
D9
330
5
100
AcDbSymbolTableRecord
100
AcDbLinetypeTableRecord
  2
PHANTOM2
 70
     0
  3
Phantom (.5x) ___ _ _ ___ _ _ ___ _ _ ___ _ _
 72
    65
 73
     6
 40
31.75
 49
15.875
 74
     0
 49
-3.174999999999999
 74
     0
 49
3.174999999999999
 74
     0
 49
-3.174999999999999
 74
     0
 49
3.174999999999999
 74
     0
 49
-3.174999999999999
 74
     0
  0
ENDTAB
  0
TABLE
  2
LAYER
  5
2
102
{ACAD_XDICTIONARY
360
3F9
102
}
330
0
100
AcDbSymbolTable
 70
     5
  0
LAYER
  5
10
330
2
100
AcDbSymbolTableRecord
100
AcDbLayerTableRecord
  2
0
 70
     0
 62
     7
  6
Continuous
370
    -3
390
F
  0
LAYER
  5
AEE
330
2
100
AcDbSymbolTableRecord
100
AcDbLayerTableRecord
  2
DEFPOINTS
 70
     0
 62
     7
  6
Continuous
290
     0
370
    -3
390
F
  0
LAYER
  5
F62
330
2
100
AcDbSymbolTableRecord
100
AcDbLayerTableRecord
  2
AM_5
 70
     0
 62
     5
  6
Continuous
370
    50
390
F
  0
LAYER
  5
2D25
330
2
100
AcDbSymbolTableRecord
100
AcDbLayerTableRecord
  2
實体
 70
     0
 62
     7
  6
Continuous
370
    -3
390
2D26
  0
LAYER
  5
4457
330
2
100
AcDbSymbolTableRecord
100
AcDbLayerTableRecord
  2
LOGO
 70
     0
 62
     7
  6
Continuous
370
    -3
390
F
  0
ENDTAB
  0
TABLE
  2
STYLE
  5
3
330
0
100
AcDbSymbolTable
 70
     6
  0
STYLE
  5
11
330
3
100
AcDbSymbolTableRecord
100
AcDbTextStyleTableRecord
  2
STANDARD
 70
     0
 40
0.0
 41
1.0
 50
0.0
 71
     0
 42
3.0
  3
ISOCP.SHX
  4
CHINESET.SHX
  0
STYLE
  5
6B
330
3
100
AcDbSymbolTableRecord
100
AcDbTextStyleTableRecord
  2

 70
     1
 40
0.0
 41
1.0
 50
0.0
 71
     0
 42
2.5
  3
ltypeshp.shx
  4

  0
STYLE
  5
6D
330
3
100
AcDbSymbolTableRecord
100
AcDbTextStyleTableRecord
  2
ACISOTS
 70
     0
 40
1.0
 41
1.0
 50
0.0
 71
     0
 42
1.0
  3
isocp.shx
  4
chineset.shx
  0
STYLE
  5
79
330
3
100
AcDbSymbolTableRecord
100
AcDbTextStyleTableRecord
  2
ACISOGDT
 70
     0
 40
0.0
 41
1.0
 50
0.0
 71
     0
 42
2.5
  3
amgdt.shx
  4
chineset.shx
  0
STYLE
  5
4458
330
3
100
AcDbSymbolTableRecord
100
AcDbTextStyleTableRecord
  2
CHINESET
 70
     0
 40
0.0
 41
0.8
 50
0.0
 71
     0
 42
1.0
  3
simplex.shx
  4
CHINESET.SHX
  0
ENDTAB
  0
TABLE
  2
VIEW
  5
6
330
0
100
AcDbSymbolTable
 70
     0
  0
ENDTAB
  0
TABLE
  2
UCS
  5
7
330
0
100
AcDbSymbolTable
 70
     0
  0
ENDTAB
  0
TABLE
  2
APPID
  5
9
330
0
100
AcDbSymbolTable
 70
    21
  0
APPID
  5
12
330
9
100
AcDbSymbolTableRecord
100
AcDbRegAppTableRecord
  2
ACAD
 70
     0
  0
APPID
  5
46
330
9
100
AcDbSymbolTableRecord
100
AcDbRegAppTableRecord
  2
MCAD_NO_VIS
 70
     0
  0
APPID
  5
47
330
9
100
AcDbSymbolTableRecord
100
AcDbRegAppTableRecord
  2
ACAD_TEMP_GRAPHIC
 70
     0
  0
APPID
  5
58
330
9
100
AcDbSymbolTableRecord
100
AcDbRegAppTableRecord
  2
ACATTRIBSERVICES
 70
     0
  0
APPID
  5
EE
330
9
100
AcDbSymbolTableRecord
100
AcDbRegAppTableRecord
  2
AD_DRAW
 70
     0
  0
APPID
  5
10C
330
9
100
AcDbSymbolTableRecord
100
AcDbRegAppTableRecord
  2
DESIGNERASSEMBLIES
 70
     0
  0
APPID
  5
111
330
9
100
AcDbSymbolTableRecord
100
AcDbRegAppTableRecord
  2
ACADM_DIM_EDIT
 70
     0
  0
APPID
  5
112
330
9
100
AcDbSymbolTableRecord
100
AcDbRegAppTableRecord
  2
AMDT_DM_ADJ
 70
     0
  0
APPID
  5
22C
330
9
100
AcDbSymbolTableRecord
100
AcDbRegAppTableRecord
  2
ACAD_DSTYLE_DIMTEXT_FILL
 70
     0
  0
APPID
  5
452
330
9
100
AcDbSymbolTableRecord
100
AcDbRegAppTableRecord
  2
GENIUS_GENOENT_13
 70
     0
  0
APPID
  5
453
330
9
100
AcDbSymbolTableRecord
100
AcDbRegAppTableRecord
  2
GENIUS_GENOBJ-N-CRS_13
 70
     0
  0
APPID
  5
454
330
9
100
AcDbSymbolTableRecord
100
AcDbRegAppTableRecord
  2
GENIUS_GENOLIS_13
 70
     0
  0
APPID
  5
455
330
9
100
AcDbSymbolTableRecord
100
AcDbRegAppTableRecord
  2
GENIUS_GENODEF_13
 70
     0
  0
APPID
  5
456
330
9
100
AcDbSymbolTableRecord
100
AcDbRegAppTableRecord
  2
GENIUS_GENOREF_13
 70
     0
  0
APPID
  5
6F3
330
9
100
AcDbSymbolTableRecord
100
AcDbRegAppTableRecord
  2
ACAD_PSEXT
 70
     0
  0
APPID
  5
808
330
9
100
AcDbSymbolTableRecord
100
AcDbRegAppTableRecord
  2
GENIUS_GENDTOL_13
 70
     0
  0
APPID
  5
1157
330
9
100
AcDbSymbolTableRecord
100
AcDbRegAppTableRecord
  2
GENIUS_GENOBJ-N-HTC_13
 70
     0
  0
APPID
  5
1158
330
9
100
AcDbSymbolTableRecord
100
AcDbRegAppTableRecord
  2
GENIUS_GENHATCH_13
 70
     0
  0
APPID
  5
1930
330
9
100
AcDbSymbolTableRecord
100
AcDbRegAppTableRecord
  2
AcAecLayerStandard
 70
     0
  0
APPID
  5
42FB
330
9
100
AcDbSymbolTableRecord
100
AcDbRegAppTableRecord
  2
GENIUS_GENREC_14
 70
     0
  0
APPID
  5
42FC
330
9
100
AcDbSymbolTableRecord
100
AcDbRegAppTableRecord
  2
GENIUS_GENOBJ-N-REC_13
 70
     0
  0
ENDTAB
  0
TABLE
  2
DIMSTYLE
  5
A
330
0
100
AcDbSymbolTable
 70
     9
100
AcDbDimStyleTable
 71
     3
340
81
340
8B
340
86
  0
DIMSTYLE
105
81
330
A
100
AcDbSymbolTableRecord
100
AcDbDimStyleTableRecord
  2
AM_ISO
 70
     0
  4
"
 41
3.0
 42
1.5
 43
5.0
 44
1.5
 47
0.1
 48
0.1
 73
     0
 74
     0
 77
     1
 78
     8
 79
     2
140
3.5
141
0.0
143
0.0393701
146
0.6
147
1.0
172
     1
176
   256
177
   256
178
   256
271
     2
272
     2
283
     0
284
     8
340
11
371
    -1
372
    -1
  0
DIMSTYLE
105
82
330
A
100
AcDbSymbolTableRecord
100
AcDbDimStyleTableRecord
  2
AM_ISO$3
 70
     0
  4
"
 41
3.0
 42
1.5
 43
5.0
 44
1.5
 47
0.1
 48
0.1
 73
     0
 77
     1
 78
     8
 79
     2
140
3.5
141
0.0
143
0.0393701
146
0.6
147
1.0
176
   256
177
   256
178
   256
271
     2
272
     2
283
     0
284
     8
288
     1
289
     0
340
11
371
    -1
372
    -1
  0
DIMSTYLE
105
83
330
A
100
AcDbSymbolTableRecord
100
AcDbDimStyleTableRecord
  2
AM_ISO$4
 70
     0
  4
"
 41
3.0
 42
1.5
 43
5.0
 44
1.5
 47
0.1
 48
0.1
 73
     0
 77
     1
 78
     8
 79
     2
140
3.5
141
0.0
143
0.0393701
146
0.6
147
1.0
176
   256
177
   256
178
   256
271
     2
272
     2
283
     0
284
     8
288
     1
289
     0
340
11
371
    -1
372
    -1
  0
DIMSTYLE
105
84
330
A
100
AcDbSymbolTableRecord
100
AcDbDimStyleTableRecord
  2
AM_ISO$6
 70
     0
  4
"
 41
3.0
 42
1.5
 43
5.0
 44
1.5
 47
0.1
 48
0.1
 73
     0
 74
     0
 78
     8
 79
     2
140
3.5
141
0.0
143
0.0393701
146
0.6
147
1.0
172
     1
176
   256
177
   256
178
   256
271
     2
272
     2
283
     0
284
     8
340
11
371
    -1
372
    -1
  0
DIMSTYLE
105
85
330
A
100
AcDbSymbolTableRecord
100
AcDbDimStyleTableRecord
  2
AM_ISO$7
 70
     0
  4
"
 41
3.0
 42
1.5
 43
5.0
 44
1.5
 47
0.1
 48
0.1
 73
     0
 74
     0
 77
     1
 78
     8
 79
     2
140
5.0
141
0.0
143
0.0393701
146
0.6
147
1.0
172
     1
176
   256
177
   256
178
   256
271
     2
272
     2
283
     0
284
     8
340
11
371
    -1
372
    -1
  0
DIMSTYLE
105
86
330
A
100
AcDbSymbolTableRecord
100
AcDbDimStyleTableRecord
  2
AM_ISO$SF
 70
     0
  4
"
 41
2.5
 42
1.0
 43
10.0
 44
1.0
 47
0.1
 48
0.1
 73
     0
 74
     0
 75
     1
 76
     1
 77
     1
 78
     8
 79
     2
140
3.5
141
0.0
143
0.0393701
146
0.71
147
1.5
172
     1
176
   256
177
   256
178
     2
271
     2
272
     3
274
     4
283
     0
284
     8
340
11
371
    -1
372
    -1
  0
DIMSTYLE
105
8B
330
A
100
AcDbSymbolTableRecord
100
AcDbDimStyleTableRecord
  2
AM_ISO$SH
 70
     0
  4
"
 41
2.5
 42
1.0
 43
10.0
 44
1.0
 47
0.1
 48
0.1
 73
     0
 74
     0
 75
     1
 76
     1
 77
     1
 78
     8
 79
     2
140
3.5
141
0.0
143
0.0393701
144
2.0
146
0.71
147
1.5
172
     1
173
     1
176
   256
177
   256
178
     2
271
     2
272
     3
274
     4
283
     0
284
     8
340
11
343
87
371
    -1
372
    -1
  0
DIMSTYLE
105
40B
102
{ACAD_REACTORS
330
3072
330
3073
330
3074
330
3088
330
3089
330
309B
330
30C2
330
30C9
330
30A8
330
30AD
330
30B6
330
30A2
330
37E9
330
37E6
330
37E7
330
3898
330
3899
330
389A
330
3869
330
35D3
330
35D4
330
35D2
330
35F6
330
35AE
102
}
330
A
100
AcDbSymbolTableRecord
100
AcDbDimStyleTableRecord
  2
AM_ISO$0
 70
     0
  4
"
 41
3.0
 42
1.5
 43
5.0
 44
1.5
 47
0.1
 48
0.1
 73
     0
 74
     0
 77
     1
 78
     8
 79
     2
140
3.5
141
0.0
143
0.0393701
146
0.6
147
1.0
172
     1
176
   256
177
   256
178
   256
271
     2
272
     2
283
     0
284
     8
340
11
371
    -1
372
    -1
  0
ENDTAB
  0
TABLE
  2
BLOCK_RECORD
  5
1
330
0
100
AcDbSymbolTable
 70
    28
  0
BLOCK_RECORD
  5
1F
102
{ACAD_XDICTIONARY
360
8F
102
}
330
1
100
AcDbSymbolTableRecord
100
AcDbBlockTableRecord
  2
*Model_Space
340
22
  0
BLOCK_RECORD
  5
1B
330
1
100
AcDbSymbolTableRecord
100
AcDbBlockTableRecord
  2
*Paper_Space
340
1E
  0
BLOCK_RECORD
  5
23
330
1
100
AcDbSymbolTableRecord
100
AcDbBlockTableRecord
  2
*Paper_Space0
340
26
  0
BLOCK_RECORD
  5
87
330
1
100
AcDbSymbolTableRecord
100
AcDbBlockTableRecord
  2
GENAXEH
340
0
  0
BLOCK_RECORD
  5
30EC
330
1
100
AcDbSymbolTableRecord
100
AcDbBlockTableRecord
  2
*D3
340
0
  0
BLOCK_RECORD
  5
30FA
330
1
100
AcDbSymbolTableRecord
100
AcDbBlockTableRecord
  2
*D4
340
0
  0
BLOCK_RECORD
  5
3106
330
1
100
AcDbSymbolTableRecord
100
AcDbBlockTableRecord
  2
*D5
340
0
  0
BLOCK_RECORD
  5
3120
330
1
100
AcDbSymbolTableRecord
100
AcDbBlockTableRecord
  2
*D6
340
0
  0
BLOCK_RECORD
  5
312E
330
1
100
AcDbSymbolTableRecord
100
AcDbBlockTableRecord
  2
*D7
340
0
  0
BLOCK_RECORD
  5
313A
330
1
100
AcDbSymbolTableRecord
100
AcDbBlockTableRecord
  2
*D8
340
0
  0
BLOCK_RECORD
  5
315E
330
1
100
AcDbSymbolTableRecord
100
AcDbBlockTableRecord
  2
*D9
340
0
  0
BLOCK_RECORD
  5
316A
330
1
100
AcDbSymbolTableRecord
100
AcDbBlockTableRecord
  2
*D10
340
0
  0
BLOCK_RECORD
  5
3176
330
1
100
AcDbSymbolTableRecord
100
AcDbBlockTableRecord
  2
*D11
340
0
  0
BLOCK_RECORD
  5
3184
330
1
100
AcDbSymbolTableRecord
100
AcDbBlockTableRecord
  2
*D12
340
0
  0
BLOCK_RECORD
  5
3190
330
1
100
AcDbSymbolTableRecord
100
AcDbBlockTableRecord
  2
*D13
340
0
  0
BLOCK_RECORD
  5
319E
330
1
100
AcDbSymbolTableRecord
100
AcDbBlockTableRecord
  2
*D14
340
0
  0
BLOCK_RECORD
  5
3610
330
1
100
AcDbSymbolTableRecord
100
AcDbBlockTableRecord
  2
*D15
340
0
  0
BLOCK_RECORD
  5
3628
330
1
100
AcDbSymbolTableRecord
100
AcDbBlockTableRecord
  2
*D16
340
0
  0
BLOCK_RECORD
  5
3635
330
1
100
AcDbSymbolTableRecord
100
AcDbBlockTableRecord
  2
*D17
340
0
  0
BLOCK_RECORD
  5
3642
330
1
100
AcDbSymbolTableRecord
100
AcDbBlockTableRecord
  2
*D18
340
0
  0
BLOCK_RECORD
  5
364F
330
1
100
AcDbSymbolTableRecord
100
AcDbBlockTableRecord
  2
*D19
340
0
  0
BLOCK_RECORD
  5
380B
330
1
100
AcDbSymbolTableRecord
100
AcDbBlockTableRecord
  2
*D20
340
0
  0
BLOCK_RECORD
  5
3817
330
1
100
AcDbSymbolTableRecord
100
AcDbBlockTableRecord
  2
*D21
340
0
  0
BLOCK_RECORD
  5
3832
330
1
100
AcDbSymbolTableRecord
100
AcDbBlockTableRecord
  2
*D22
340
0
  0
BLOCK_RECORD
  5
38D5
330
1
100
AcDbSymbolTableRecord
100
AcDbBlockTableRecord
  2
*D23
340
0
  0
BLOCK_RECORD
  5
38ED
330
1
100
AcDbSymbolTableRecord
100
AcDbBlockTableRecord
  2
*D24
340
0
  0
BLOCK_RECORD
  5
38FA
330
1
100
AcDbSymbolTableRecord
100
AcDbBlockTableRecord
  2
*D25
340
0
  0
BLOCK_RECORD
  5
3907
330
1
100
AcDbSymbolTableRecord
100
AcDbBlockTableRecord
  2
*D26
340
0
  0
ENDTAB
  0
ENDSEC
  0
SECTION
  2
BLOCKS
  0
BLOCK
  5
20
330
1F
100
AcDbEntity
  8
0
100
AcDbBlockBegin
  2
*Model_Space
 70
     0
 10
0.0
 20
0.0
 30
0.0
  3
*Model_Space
  1

  0
ENDBLK
  5
21
330
1F
100
AcDbEntity
  8
0
100
AcDbBlockEnd
  0
BLOCK
  5
1C
330
1B
100
AcDbEntity
 67
     1
  8
0
100
AcDbBlockBegin
  2
*Paper_Space
 70
     0
 10
0.0
 20
0.0
 30
0.0
  3
*Paper_Space
  1

  0
ENDBLK
  5
1D
330
1B
100
AcDbEntity
 67
     1
  8
0
100
AcDbBlockEnd
  0
BLOCK
  5
24
330
23
100
AcDbEntity
  8
0
100
AcDbBlockBegin
  2
*Paper_Space0
 70
     0
 10
0.0
 20
0.0
 30
0.0
  3
*Paper_Space0
  1

  0
ENDBLK
  5
25
330
23
100
AcDbEntity
  8
0
100
AcDbBlockEnd
  0
BLOCK
  5
89
330
87
100
AcDbEntity
  8
0
100
AcDbBlockBegin
  2
GENAXEH
 70
     0
 10
0.0
 20
0.0
 30
0.0
  3
GENAXEH
  1

  0
LINE
  5
88
330
87
100
AcDbEntity
  8
0
100
AcDbLine
 10
-1.0
 20
0.0
 30
0.0
 11
1.0
 21
0.0
 31
0.0
  0
ENDBLK
  5
8A
330
87
100
AcDbEntity
  8
0
100
AcDbBlockEnd
  0
BLOCK
  5
30F8
330
30EC
100
AcDbEntity
  8
0
100
AcDbBlockBegin
  2
*D3
 70
     1
 10
0.0
 20
0.0
 30
0.0
  3
*D3
  1

  0
LINE
  5
4528
330
30EC
100
AcDbEntity
  8
AM_5
100
AcDbLine
 10
225.2882141618769
 20
39.20525583175074
 30
0.0
 11
225.2882141618769
 21
34.20525583175074
 31
0.0
  0
LINE
  5
4529
330
30EC
100
AcDbEntity
  8
AM_5
100
AcDbLine
 10
229.8882141618769
 20
39.20525583175074
 30
0.0
 11
229.8882141618769
 21
34.20525583175074
 31
0.0
  0
LINE
  5
452A
330
30EC
100
AcDbEntity
  8
AM_5
100
AcDbLine
 10
223.1882141618769
 20
35.25525583175073
 30
0.0
 11
221.0882141618769
 21
35.25525583175073
 31
0.0
  0
LINE
  5
452B
330
30EC
100
AcDbEntity
  8
AM_5
100
AcDbLine
 10
231.9882141618769
 20
35.25525583175073
 30
0.0
 11
234.0882141618769
 21
35.25525583175073
 31
0.0
  0
LINE
  5
452C
330
30EC
100
AcDbEntity
  8
AM_5
100
AcDbLine
 10
225.2882141618769
 20
35.25525583175073
 30
0.0
 11
229.8882141618769
 21
35.25525583175073
 31
0.0
  0
SOLID
  5
452D
330
30EC
100
AcDbEntity
  8
AM_5
100
AcDbTrace
 10
223.1882141618769
 20
35.60525583175073
 30
0.0
 11
223.1882141618769
 21
34.90525583175073
 31
0.0
 12
225.2882141618769
 22
35.25525583175073
 32
0.0
 13
225.2882141618769
 23
35.25525583175073
 33
0.0
  0
SOLID
  5
452E
330
30EC
100
AcDbEntity
  8
AM_5
100
AcDbTrace
 10
231.9882141618769
 20
35.60525583175073
 30
0.0
 11
231.9882141618769
 21
34.90525583175073
 31
0.0
 12
229.8882141618769
 22
35.25525583175073
 32
0.0
 13
229.8882141618769
 23
35.25525583175073
 33
0.0
  0
MTEXT
  5
452F
330
30EC
100
AcDbEntity
  8
AM_5
100
AcDbMText
 10
227.5882141618769
 20
37.18025583175073
 30
0.0
 40
2.449999999999999
 41
0.0
 71
     5
 72
     1
  1
4.6
 73
     1
 44
1.0
1001
ACAD
1000
MTEXTBEGIN
1070
    73
1070
     1
1070
    44
1040
1.0
1070
    74
1070
     0
1000
MTEXTEND
  0
POINT
  5
4530
330
30EC
100
AcDbEntity
  8
DEFPOINTS
 62
     0
100
AcDbPoint
 10
225.2882141618769
 20
40.25525583175073
 30
0.0
  0
POINT
  5
4531
330
30EC
100
AcDbEntity
  8
DEFPOINTS
 62
     0
100
AcDbPoint
 10
229.8882141618769
 20
40.25525583175073
 30
0.0
  0
POINT
  5
4532
330
30EC
100
AcDbEntity
  8
DEFPOINTS
 62
     0
100
AcDbPoint
 10
229.8882141618769
 20
35.25525583175073
 30
0.0
  0
ENDBLK
  5
30F9
330
30EC
100
AcDbEntity
  8
0
100
AcDbBlockEnd
  0
BLOCK
  5
3104
330
30FA
100
AcDbEntity
  8
0
100
AcDbBlockBegin
  2
*D4
 70
     1
 10
0.0
 20
0.0
 30
0.0
  3
*D4
  1

  0
LINE
  5
4533
330
30FA
100
AcDbEntity
  8
AM_5
100
AcDbLine
 10
224.538214161877
 20
62.75525583175073
 30
0.0
 11
219.2382141618769
 21
62.75525583175073
 31
0.0
  0
LINE
  5
4534
330
30FA
100
AcDbEntity
  8
AM_5
100
AcDbLine
 10
224.2382141618769
 20
40.25525583175073
 30
0.0
 11
219.2382141618769
 21
40.25525583175073
 31
0.0
  0
LINE
  5
4535
330
30FA
100
AcDbEntity
  8
AM_5
100
AcDbLine
 10
220.2882141618769
 20
60.65525583175073
 30
0.0
 11
220.2882141618769
 21
42.35525583175073
 31
0.0
  0
SOLID
  5
4536
330
30FA
100
AcDbEntity
  8
AM_5
100
AcDbTrace
 10
219.9382141618769
 20
60.65525583175073
 30
0.0
 11
220.6382141618769
 21
60.65525583175073
 31
0.0
 12
220.2882141618769
 22
62.75525583175073
 32
0.0
 13
220.2882141618769
 23
62.75525583175073
 33
0.0
  0
SOLID
  5
4537
330
30FA
100
AcDbEntity
  8
AM_5
100
AcDbTrace
 10
219.9382141618769
 20
42.35525583175073
 30
0.0
 11
220.6382141618769
 21
42.35525583175073
 31
0.0
 12
220.2882141618769
 22
40.25525583175073
 32
0.0
 13
220.2882141618769
 23
40.25525583175073
 33
0.0
  0
MTEXT
  5
4538
330
30FA
100
AcDbEntity
  8
AM_5
100
AcDbMText
 10
218.3629730201446
 20
51.50525583175077
 30
0.0
 40
2.449999999999999
 41
0.0
 71
     5
 72
     1
  1
22.5
 11
0.0000000000000001
 21
1.0
 31
0.0
 73
     1
 44
1.0
1001
ACAD
1000
MTEXTBEGIN
1070
    73
1070
     1
1070
    44
1040
1.0
1070
    74
1070
     0
1000
MTEXTEND
  0
POINT
  5
4539
330
30FA
100
AcDbEntity
  8
DEFPOINTS
 62
     0
100
AcDbPoint
 10
225.588214161877
 20
62.75525583175073
 30
0.0
  0
POINT
  5
453A
330
30FA
100
AcDbEntity
  8
DEFPOINTS
 62
     0
100
AcDbPoint
 10
225.2882141618769
 20
40.25525583175073
 30
0.0
  0
POINT
  5
453B
330
30FA
100
AcDbEntity
  8
DEFPOINTS
 62
     0
100
AcDbPoint
 10
220.2882141618769
 20
40.25525583175073
 30
0.0
  0
ENDBLK
  5
3105
330
30FA
100
AcDbEntity
  8
0
100
AcDbBlockEnd
  0
BLOCK
  5
3112
330
3106
100
AcDbEntity
  8
0
100
AcDbBlockBegin
  2
*D5
 70
     1
 10
0.0
 20
0.0
 30
0.0
  3
*D5
  1

  0
LINE
  5
453C
330
3106
100
AcDbEntity
  8
AM_5
100
AcDbLine
 10
225.588214161877
 20
63.80525583175073
 30
0.0
 11
225.588214161877
 21
68.80525583175073
 31
0.0
  0
LINE
  5
453D
330
3106
100
AcDbEntity
  8
AM_5
100
AcDbLine
 10
229.588214161877
 20
63.80525583175073
 30
0.0
 11
229.588214161877
 21
68.80525583175073
 31
0.0
  0
LINE
  5
453E
330
3106
100
AcDbEntity
  8
AM_5
100
AcDbLine
 10
223.488214161877
 20
67.75525583175073
 30
0.0
 11
221.388214161877
 21
67.75525583175073
 31
0.0
  0
LINE
  5
453F
330
3106
100
AcDbEntity
  8
AM_5
100
AcDbLine
 10
231.688214161877
 20
67.75525583175073
 30
0.0
 11
233.788214161877
 21
67.75525583175073
 31
0.0
  0
LINE
  5
4540
330
3106
100
AcDbEntity
  8
AM_5
100
AcDbLine
 10
225.588214161877
 20
67.75525583175073
 30
0.0
 11
229.588214161877
 21
67.75525583175073
 31
0.0
  0
SOLID
  5
4541
330
3106
100
AcDbEntity
  8
AM_5
100
AcDbTrace
 10
223.488214161877
 20
68.10525583175072
 30
0.0
 11
223.488214161877
 21
67.40525583175074
 31
0.0
 12
225.588214161877
 22
67.75525583175073
 32
0.0
 13
225.588214161877
 23
67.75525583175073
 33
0.0
  0
SOLID
  5
4542
330
3106
100
AcDbEntity
  8
AM_5
100
AcDbTrace
 10
231.688214161877
 20
68.10525583175072
 30
0.0
 11
231.688214161877
 21
67.40525583175074
 31
0.0
 12
229.588214161877
 22
67.75525583175073
 32
0.0
 13
229.588214161877
 23
67.75525583175073
 33
0.0
  0
MTEXT
  5
4543
330
3106
100
AcDbEntity
  8
AM_5
100
AcDbMText
 10
227.588214161877
 20
69.68025583175073
 30
0.0
 40
2.449999999999999
 41
0.0
 71
     5
 72
     1
  1
4
 73
     1
 44
1.0
1001
ACAD
1000
MTEXTBEGIN
1070
    73
1070
     1
1070
    44
1040
1.0
1070
    74
1070
     0
1000
MTEXTEND
  0
POINT
  5
4544
330
3106
100
AcDbEntity
  8
DEFPOINTS
 62
     0
100
AcDbPoint
 10
225.588214161877
 20
62.75525583175073
 30
0.0
  0
POINT
  5
4545
330
3106
100
AcDbEntity
  8
DEFPOINTS
 62
     0
100
AcDbPoint
 10
229.588214161877
 20
62.75525583175073
 30
0.0
  0
POINT
  5
4546
330
3106
100
AcDbEntity
  8
DEFPOINTS
 62
     0
100
AcDbPoint
 10
229.588214161877
 20
67.75525583175073
 30
0.0
  0
ENDBLK
  5
3113
330
3106
100
AcDbEntity
  8
0
100
AcDbBlockEnd
  0
BLOCK
  5
312C
330
3120
100
AcDbEntity
  8
0
100
AcDbBlockBegin
  2
*D6
 70
     1
 10
0.0
 20
0.0
 30
0.0
  3
*D6
  1

  0
LINE
  5
4547
330
3120
100
AcDbEntity
  8
AM_5
100
AcDbLine
 10
240.4612841005617
 20
63.80525583175073
 30
0.0
 11
240.4612841005617
 21
68.80525583175073
 31
0.0
  0
LINE
  5
4548
330
3120
100
AcDbEntity
  8
AM_5
100
AcDbLine
 10
244.5612841005616
 20
63.80525583175073
 30
0.0
 11
244.5612841005616
 21
68.80525583175073
 31
0.0
  0
LINE
  5
4549
330
3120
100
AcDbEntity
  8
AM_5
100
AcDbLine
 10
238.3612841005617
 20
67.75525583175073
 30
0.0
 11
236.2612841005617
 21
67.75525583175073
 31
0.0
  0
LINE
  5
454A
330
3120
100
AcDbEntity
  8
AM_5
100
AcDbLine
 10
246.6612841005616
 20
67.75525583175073
 30
0.0
 11
248.7612841005616
 21
67.75525583175073
 31
0.0
  0
LINE
  5
454B
330
3120
100
AcDbEntity
  8
AM_5
100
AcDbLine
 10
240.4612841005617
 20
67.75525583175073
 30
0.0
 11
244.5612841005616
 21
67.75525583175073
 31
0.0
  0
SOLID
  5
454C
330
3120
100
AcDbEntity
  8
AM_5
100
AcDbTrace
 10
238.3612841005617
 20
68.10525583175072
 30
0.0
 11
238.3612841005617
 21
67.40525583175074
 31
0.0
 12
240.4612841005617
 22
67.75525583175073
 32
0.0
 13
240.4612841005617
 23
67.75525583175073
 33
0.0
  0
SOLID
  5
454D
330
3120
100
AcDbEntity
  8
AM_5
100
AcDbTrace
 10
246.6612841005616
 20
68.10525583175072
 30
0.0
 11
246.6612841005616
 21
67.40525583175074
 31
0.0
 12
244.5612841005616
 22
67.75525583175073
 32
0.0
 13
244.5612841005616
 23
67.75525583175073
 33
0.0
  0
MTEXT
  5
454E
330
3120
100
AcDbEntity
  8
AM_5
100
AcDbMText
 10
242.5112841005616
 20
69.68025583175073
 30
0.0
 40
2.449999999999999
 41
0.0
 71
     5
 72
     1
  1
4.1
 73
     1
 44
1.0
1001
ACAD
1000
MTEXTBEGIN
1070
    73
1070
     1
1070
    44
1040
1.0
1070
    74
1070
     0
1000
MTEXTEND
  0
POINT
  5
454F
330
3120
100
AcDbEntity
  8
DEFPOINTS
 62
     0
100
AcDbPoint
 10
240.4612841005617
 20
62.75525583175073
 30
0.0
  0
POINT
  5
4550
330
3120
100
AcDbEntity
  8
DEFPOINTS
 62
     0
100
AcDbPoint
 10
244.5612841005616
 20
62.75525583175073
 30
0.0
  0
POINT
  5
4551
330
3120
100
AcDbEntity
  8
DEFPOINTS
 62
     0
100
AcDbPoint
 10
244.5612841005616
 20
67.75525583175073
 30
0.0
  0
ENDBLK
  5
312D
330
3120
100
AcDbEntity
  8
0
100
AcDbBlockEnd
  0
BLOCK
  5
3138
330
312E
100
AcDbEntity
  8
0
100
AcDbBlockBegin
  2
*D7
 70
     1
 10
0.0
 20
0.0
 30
0.0
  3
*D7
  1

  0
LINE
  5
4552
330
312E
100
AcDbEntity
  8
AM_5
100
AcDbLine
 10
240.4612841005617
 20
39.20525583175074
 30
0.0
 11
240.4612841005617
 21
34.20525583175074
 31
0.0
  0
LINE
  5
4553
330
312E
100
AcDbEntity
  8
AM_5
100
AcDbLine
 10
247.0612841005616
 20
40.02525583175073
 30
0.0
 11
247.0612841005616
 21
34.20525583175074
 31
0.0
  0
LINE
  5
4554
330
312E
100
AcDbEntity
  8
AM_5
100
AcDbLine
 10
242.5612841005617
 20
35.25525583175073
 30
0.0
 11
244.9612841005616
 21
35.25525583175073
 31
0.0
  0
SOLID
  5
4555
330
312E
100
AcDbEntity
  8
AM_5
100
AcDbTrace
 10
242.5612841005617
 20
35.60525583175073
 30
0.0
 11
242.5612841005617
 21
34.90525583175073
 31
0.0
 12
240.4612841005617
 22
35.25525583175073
 32
0.0
 13
240.4612841005617
 23
35.25525583175073
 33
0.0
  0
SOLID
  5
4556
330
312E
100
AcDbEntity
  8
AM_5
100
AcDbTrace
 10
244.9612841005616
 20
35.60525583175073
 30
0.0
 11
244.9612841005616
 21
34.90525583175073
 31
0.0
 12
247.0612841005616
 22
35.25525583175073
 32
0.0
 13
247.0612841005616
 23
35.25525583175073
 33
0.0
  0
MTEXT
  5
4557
330
312E
100
AcDbEntity
  8
AM_5
100
AcDbMText
 10
243.7612841005616
 20
37.18025583175073
 30
0.0
 40
2.449999999999999
 41
0.0
 71
     5
 72
     1
  1
6.6
 73
     1
 44
1.0
1001
ACAD
1000
MTEXTBEGIN
1070
    73
1070
     1
1070
    44
1040
1.0
1070
    74
1070
     0
1000
MTEXTEND
  0
POINT
  5
4558
330
312E
100
AcDbEntity
  8
DEFPOINTS
 62
     0
100
AcDbPoint
 10
240.4612841005617
 20
40.25525583175073
 30
0.0
  0
POINT
  5
4559
330
312E
100
AcDbEntity
  8
DEFPOINTS
 62
     0
100
AcDbPoint
 10
247.0612841005616
 20
41.07525583175072
 30
0.0
  0
POINT
  5
455A
330
312E
100
AcDbEntity
  8
DEFPOINTS
 62
     0
100
AcDbPoint
 10
247.0612841005616
 20
35.25525583175073
 30
0.0
  0
ENDBLK
  5
3139
330
312E
100
AcDbEntity
  8
0
100
AcDbBlockEnd
  0
BLOCK
  5
3144
330
313A
100
AcDbEntity
  8
0
100
AcDbBlockBegin
  2
*D8
 70
     1
 10
0.0
 20
0.0
 30
0.0
  3
*D8
  1

  0
LINE
  5
455B
330
313A
100
AcDbEntity
  8
AM_5
100
AcDbLine
 10
247.8312841005616
 20
40.02525583175073
 30
0.0
 11
247.8312841005616
 21
34.20525583175074
 31
0.0
  0
LINE
  5
455C
330
313A
100
AcDbEntity
  8
AM_5
100
AcDbLine
 10
289.960969680156
 20
40.80505359409194
 30
0.0
 11
289.960969680156
 21
34.20525583175074
 31
0.0
  0
LINE
  5
455D
330
313A
100
AcDbEntity
  8
AM_5
100
AcDbLine
 10
249.9312841005616
 20
35.25525583175073
 30
0.0
 11
287.860969680156
 21
35.25525583175073
 31
0.0
  0
SOLID
  5
455E
330
313A
100
AcDbEntity
  8
AM_5
100
AcDbTrace
 10
249.9312841005616
 20
35.60525583175073
 30
0.0
 11
249.9312841005616
 21
34.90525583175073
 31
0.0
 12
247.8312841005616
 22
35.25525583175073
 32
0.0
 13
247.8312841005616
 23
35.25525583175073
 33
0.0
  0
SOLID
  5
455F
330
313A
100
AcDbEntity
  8
AM_5
100
AcDbTrace
 10
287.860969680156
 20
35.60525583175073
 30
0.0
 11
287.860969680156
 21
34.90525583175073
 31
0.0
 12
289.960969680156
 22
35.25525583175073
 32
0.0
 13
289.960969680156
 23
35.25525583175073
 33
0.0
  0
MTEXT
  5
4560
330
313A
100
AcDbEntity
  8
AM_5
100
AcDbMText
 10
268.8961268903588
 20
37.18049697348302
 30
0.0
 40
2.449999999999999
 41
0.0
 71
     5
 72
     1
  1
1000%%p20
 73
     1
 44
1.0
1001
ACAD
1000
MTEXTBEGIN
1070
    73
1070
     1
1070
    44
1040
1.0
1070
    74
1070
     0
1000
MTEXTEND
  0
POINT
  5
4561
330
313A
100
AcDbEntity
  8
DEFPOINTS
 62
     0
100
AcDbPoint
 10
247.8312841005616
 20
41.07525583175072
 30
0.0
  0
POINT
  5
4562
330
313A
100
AcDbEntity
  8
DEFPOINTS
 62
     0
100
AcDbPoint
 10
289.960969680156
 20
41.85505359409193
 30
0.0
  0
POINT
  5
4563
330
313A
100
AcDbEntity
  8
DEFPOINTS
 62
     0
100
AcDbPoint
 10
289.960969680156
 20
35.25525583175073
 30
0.0
  0
ENDBLK
  5
3145
330
313A
100
AcDbEntity
  8
0
100
AcDbBlockEnd
  0
BLOCK
  5
3168
330
315E
100
AcDbEntity
  8
0
100
AcDbBlockBegin
  2
*D9
 70
     1
 10
0.0
 20
0.0
 30
0.0
  3
*D9
  1

  0
LINE
  5
4564
330
315E
100
AcDbEntity
  8
AM_5
100
AcDbLine
 10
360.3795057746459
 20
44.52525583175073
 30
0.0
 11
360.3795057746459
 21
38.70525583175073
 31
0.0
  0
LINE
  5
4565
330
315E
100
AcDbEntity
  8
AM_5
100
AcDbLine
 10
402.5091913542403
 20
45.33578242724688
 30
0.0
 11
402.5091913542403
 21
38.70525583175073
 31
0.0
  0
LINE
  5
4566
330
315E
100
AcDbEntity
  8
AM_5
100
AcDbLine
 10
362.4795057746459
 20
39.75525583175073
 30
0.0
 11
400.4091913542403
 21
39.75525583175073
 31
0.0
  0
SOLID
  5
4567
330
315E
100
AcDbEntity
  8
AM_5
100
AcDbTrace
 10
362.4795057746459
 20
40.10525583175073
 30
0.0
 11
362.4795057746459
 21
39.40525583175073
 31
0.0
 12
360.3795057746459
 22
39.75525583175073
 32
0.0
 13
360.3795057746459
 23
39.75525583175073
 33
0.0
  0
SOLID
  5
4568
330
315E
100
AcDbEntity
  8
AM_5
100
AcDbTrace
 10
400.4091913542403
 20
40.10525583175073
 30
0.0
 11
400.4091913542403
 21
39.40525583175073
 31
0.0
 12
402.5091913542403
 22
39.75525583175073
 32
0.0
 13
402.5091913542403
 23
39.75525583175073
 33
0.0
  0
MTEXT
  5
4569
330
315E
100
AcDbEntity
  8
AM_5
100
AcDbMText
 10
381.4443485644431
 20
41.68049697348301
 30
0.0
 40
2.449999999999999
 41
0.0
 71
     5
 72
     1
  1
1000%%p20
 73
     1
 44
1.0
1001
ACAD
1000
MTEXTBEGIN
1070
    73
1070
     1
1070
    44
1040
1.0
1070
    74
1070
     0
1000
MTEXTEND
  0
POINT
  5
456A
330
315E
100
AcDbEntity
  8
DEFPOINTS
 62
     0
100
AcDbPoint
 10
360.3795057746459
 20
45.57525583175072
 30
0.0
  0
POINT
  5
456B
330
315E
100
AcDbEntity
  8
DEFPOINTS
 62
     0
100
AcDbPoint
 10
402.5091913542403
 20
46.38578242724688
 30
0.0
  0
POINT
  5
456C
330
315E
100
AcDbEntity
  8
DEFPOINTS
 62
     0
100
AcDbPoint
 10
402.5091913542403
 20
39.75525583175073
 30
0.0
  0
ENDBLK
  5
3169
330
315E
100
AcDbEntity
  8
0
100
AcDbBlockEnd
  0
BLOCK
  5
3174
330
316A
100
AcDbEntity
  8
0
100
AcDbBlockBegin
  2
*D10
 70
     1
 10
0.0
 20
0.0
 30
0.0
  3
*D10
  1

  0
LINE
  5
456D
330
316A
100
AcDbEntity
  8
AM_5
100
AcDbLine
 10
337.0864358359613
 20
62.75525583175073
 30
0.0
 11
331.7864358359612
 21
62.75525583175074
 31
0.0
  0
LINE
  5
456E
330
316A
100
AcDbEntity
  8
AM_5
100
AcDbLine
 10
336.7864358359612
 20
44.75525583175072
 30
0.0
 11
331.7864358359612
 21
44.75525583175073
 31
0.0
  0
LINE
  5
456F
330
316A
100
AcDbEntity
  8
AM_5
100
AcDbLine
 10
332.8364358359612
 20
60.65525583175073
 30
0.0
 11
332.8364358359612
 21
46.85525583175073
 31
0.0
  0
SOLID
  5
4570
330
316A
100
AcDbEntity
  8
AM_5
100
AcDbTrace
 10
332.4864358359612
 20
60.65525583175073
 30
0.0
 11
333.1864358359612
 21
60.65525583175073
 31
0.0
 12
332.8364358359612
 22
62.75525583175074
 32
0.0
 13
332.8364358359612
 23
62.75525583175074
 33
0.0
  0
SOLID
  5
4571
330
316A
100
AcDbEntity
  8
AM_5
100
AcDbTrace
 10
332.4864358359612
 20
46.85525583175073
 30
0.0
 11
333.1864358359612
 21
46.85525583175073
 31
0.0
 12
332.8364358359612
 22
44.75525583175073
 32
0.0
 13
332.8364358359612
 23
44.75525583175073
 33
0.0
  0
MTEXT
  5
4572
330
316A
100
AcDbEntity
  8
AM_5
100
AcDbMText
 10
330.9114358359612
 20
53.75525583175079
 30
0.0
 40
2.449999999999999
 41
0.0
 71
     5
 72
     1
  1
18
 11
0.0000000000000001
 21
1.0
 31
0.0
 73
     1
 44
1.0
1001
ACAD
1000
MTEXTBEGIN
1070
    73
1070
     1
1070
    44
1040
1.0
1070
    74
1070
     0
1000
MTEXTEND
  0
POINT
  5
4573
330
316A
100
AcDbEntity
  8
DEFPOINTS
 62
     0
100
AcDbPoint
 10
338.1364358359613
 20
62.75525583175073
 30
0.0
  0
POINT
  5
4574
330
316A
100
AcDbEntity
  8
DEFPOINTS
 62
     0
100
AcDbPoint
 10
337.8364358359612
 20
44.75525583175072
 30
0.0
  0
POINT
  5
4575
330
316A
100
AcDbEntity
  8
DEFPOINTS
 62
     0
100
AcDbPoint
 10
332.8364358359612
 20
44.75525583175073
 30
0.0
  0
ENDBLK
  5
3175
330
316A
100
AcDbEntity
  8
0
100
AcDbBlockEnd
  0
BLOCK
  5
3182
330
3176
100
AcDbEntity
  8
0
100
AcDbBlockBegin
  2
*D11
 70
     1
 10
0.0
 20
0.0
 30
0.0
  3
*D11
  1

  0
LINE
  5
4576
330
3176
100
AcDbEntity
  8
AM_5
100
AcDbLine
 10
337.8364358359612
 20
43.70525583175073
 30
0.0
 11
337.8364358359612
 21
38.70525583175073
 31
0.0
  0
LINE
  5
4577
330
3176
100
AcDbEntity
  8
AM_5
100
AcDbLine
 10
342.4364358359612
 20
43.70525583175073
 30
0.0
 11
342.4364358359612
 21
38.70525583175073
 31
0.0
  0
LINE
  5
4578
330
3176
100
AcDbEntity
  8
AM_5
100
AcDbLine
 10
335.7364358359612
 20
39.75525583175073
 30
0.0
 11
333.6364358359612
 21
39.75525583175073
 31
0.0
  0
LINE
  5
4579
330
3176
100
AcDbEntity
  8
AM_5
100
AcDbLine
 10
344.5364358359612
 20
39.75525583175073
 30
0.0
 11
346.6364358359612
 21
39.75525583175073
 31
0.0
  0
LINE
  5
457A
330
3176
100
AcDbEntity
  8
AM_5
100
AcDbLine
 10
337.8364358359612
 20
39.75525583175073
 30
0.0
 11
342.4364358359612
 21
39.75525583175073
 31
0.0
  0
SOLID
  5
457B
330
3176
100
AcDbEntity
  8
AM_5
100
AcDbTrace
 10
335.7364358359612
 20
40.10525583175073
 30
0.0
 11
335.7364358359612
 21
39.40525583175073
 31
0.0
 12
337.8364358359612
 22
39.75525583175073
 32
0.0
 13
337.8364358359612
 23
39.75525583175073
 33
0.0
  0
SOLID
  5
457C
330
3176
100
AcDbEntity
  8
AM_5
100
AcDbTrace
 10
344.5364358359612
 20
40.10525583175073
 30
0.0
 11
344.5364358359612
 21
39.40525583175073
 31
0.0
 12
342.4364358359612
 22
39.75525583175073
 32
0.0
 13
342.4364358359612
 23
39.75525583175073
 33
0.0
  0
MTEXT
  5
457D
330
3176
100
AcDbEntity
  8
AM_5
100
AcDbMText
 10
340.1364358359612
 20
41.68025583175072
 30
0.0
 40
2.449999999999999
 41
0.0
 71
     5
 72
     1
  1
4.6
 73
     1
 44
1.0
1001
ACAD
1000
MTEXTBEGIN
1070
    73
1070
     1
1070
    44
1040
1.0
1070
    74
1070
     0
1000
MTEXTEND
  0
POINT
  5
457E
330
3176
100
AcDbEntity
  8
DEFPOINTS
 62
     0
100
AcDbPoint
 10
337.8364358359612
 20
44.75525583175072
 30
0.0
  0
POINT
  5
457F
330
3176
100
AcDbEntity
  8
DEFPOINTS
 62
     0
100
AcDbPoint
 10
342.4364358359612
 20
44.75525583175072
 30
0.0
  0
POINT
  5
4580
330
3176
100
AcDbEntity
  8
DEFPOINTS
 62
     0
100
AcDbPoint
 10
342.4364358359612
 20
39.75525583175073
 30
0.0
  0
ENDBLK
  5
3183
330
3176
100
AcDbEntity
  8
0
100
AcDbBlockEnd
  0
BLOCK
  5
318E
330
3184
100
AcDbEntity
  8
0
100
AcDbBlockBegin
  2
*D12
 70
     1
 10
0.0
 20
0.0
 30
0.0
  3
*D12
  1

  0
LINE
  5
4581
330
3184
100
AcDbEntity
  8
AM_5
100
AcDbLine
 10
353.009505774646
 20
43.70525583175073
 30
0.0
 11
353.009505774646
 21
38.70525583175073
 31
0.0
  0
LINE
  5
4582
330
3184
100
AcDbEntity
  8
AM_5
100
AcDbLine
 10
359.6095057746459
 20
44.52525583175073
 30
0.0
 11
359.6095057746459
 21
38.70525583175073
 31
0.0
  0
LINE
  5
4583
330
3184
100
AcDbEntity
  8
AM_5
100
AcDbLine
 10
355.109505774646
 20
39.75525583175073
 30
0.0
 11
357.5095057746458
 21
39.75525583175073
 31
0.0
  0
SOLID
  5
4584
330
3184
100
AcDbEntity
  8
AM_5
100
AcDbTrace
 10
355.109505774646
 20
40.10525583175073
 30
0.0
 11
355.109505774646
 21
39.40525583175073
 31
0.0
 12
353.009505774646
 22
39.75525583175073
 32
0.0
 13
353.009505774646
 23
39.75525583175073
 33
0.0
  0
SOLID
  5
4585
330
3184
100
AcDbEntity
  8
AM_5
100
AcDbTrace
 10
357.5095057746458
 20
40.10525583175073
 30
0.0
 11
357.5095057746458
 21
39.40525583175073
 31
0.0
 12
359.6095057746459
 22
39.75525583175073
 32
0.0
 13
359.6095057746459
 23
39.75525583175073
 33
0.0
  0
MTEXT
  5
4586
330
3184
100
AcDbEntity
  8
AM_5
100
AcDbMText
 10
356.3095057746459
 20
41.68025583175072
 30
0.0
 40
2.449999999999999
 41
0.0
 71
     5
 72
     1
  1
6.6
 73
     1
 44
1.0
1001
ACAD
1000
MTEXTBEGIN
1070
    73
1070
     1
1070
    44
1040
1.0
1070
    74
1070
     0
1000
MTEXTEND
  0
POINT
  5
4587
330
3184
100
AcDbEntity
  8
DEFPOINTS
 62
     0
100
AcDbPoint
 10
353.009505774646
 20
44.75525583175072
 30
0.0
  0
POINT
  5
4588
330
3184
100
AcDbEntity
  8
DEFPOINTS
 62
     0
100
AcDbPoint
 10
359.6095057746459
 20
45.57525583175072
 30
0.0
  0
POINT
  5
4589
330
3184
100
AcDbEntity
  8
DEFPOINTS
 62
     0
100
AcDbPoint
 10
359.6095057746459
 20
39.75525583175073
 30
0.0
  0
ENDBLK
  5
318F
330
3184
100
AcDbEntity
  8
0
100
AcDbBlockEnd
  0
BLOCK
  5
319C
330
3190
100
AcDbEntity
  8
0
100
AcDbBlockBegin
  2
*D13
 70
     1
 10
0.0
 20
0.0
 30
0.0
  3
*D13
  1

  0
LINE
  5
458A
330
3190
100
AcDbEntity
  8
AM_5
100
AcDbLine
 10
338.1364358359613
 20
63.80525583175073
 30
0.0
 11
338.1364358359613
 21
68.80525583175073
 31
0.0
  0
LINE
  5
458B
330
3190
100
AcDbEntity
  8
AM_5
100
AcDbLine
 10
342.1364358359613
 20
63.80525583175073
 30
0.0
 11
342.1364358359613
 21
68.80525583175073
 31
0.0
  0
LINE
  5
458C
330
3190
100
AcDbEntity
  8
AM_5
100
AcDbLine
 10
336.0364358359612
 20
67.75525583175073
 30
0.0
 11
333.9364358359613
 21
67.75525583175073
 31
0.0
  0
LINE
  5
458D
330
3190
100
AcDbEntity
  8
AM_5
100
AcDbLine
 10
344.2364358359613
 20
67.75525583175073
 30
0.0
 11
346.3364358359612
 21
67.75525583175073
 31
0.0
  0
LINE
  5
458E
330
3190
100
AcDbEntity
  8
AM_5
100
AcDbLine
 10
338.1364358359613
 20
67.75525583175073
 30
0.0
 11
342.1364358359613
 21
67.75525583175073
 31
0.0
  0
SOLID
  5
458F
330
3190
100
AcDbEntity
  8
AM_5
100
AcDbTrace
 10
336.0364358359612
 20
68.10525583175072
 30
0.0
 11
336.0364358359612
 21
67.40525583175074
 31
0.0
 12
338.1364358359613
 22
67.75525583175073
 32
0.0
 13
338.1364358359613
 23
67.75525583175073
 33
0.0
  0
SOLID
  5
4590
330
3190
100
AcDbEntity
  8
AM_5
100
AcDbTrace
 10
344.2364358359613
 20
68.10525583175072
 30
0.0
 11
344.2364358359613
 21
67.40525583175074
 31
0.0
 12
342.1364358359613
 22
67.75525583175073
 32
0.0
 13
342.1364358359613
 23
67.75525583175073
 33
0.0
  0
MTEXT
  5
4591
330
3190
100
AcDbEntity
  8
AM_5
100
AcDbMText
 10
340.1364358359613
 20
69.68025583175073
 30
0.0
 40
2.449999999999999
 41
0.0
 71
     5
 72
     1
  1
4
 73
     1
 44
1.0
1001
ACAD
1000
MTEXTBEGIN
1070
    73
1070
     1
1070
    44
1040
1.0
1070
    74
1070
     0
1000
MTEXTEND
  0
POINT
  5
4592
330
3190
100
AcDbEntity
  8
DEFPOINTS
 62
     0
100
AcDbPoint
 10
338.1364358359613
 20
62.75525583175073
 30
0.0
  0
POINT
  5
4593
330
3190
100
AcDbEntity
  8
DEFPOINTS
 62
     0
100
AcDbPoint
 10
342.1364358359613
 20
62.75525583175073
 30
0.0
  0
POINT
  5
4594
330
3190
100
AcDbEntity
  8
DEFPOINTS
 62
     0
100
AcDbPoint
 10
342.1364358359613
 20
67.75525583175073
 30
0.0
  0
ENDBLK
  5
319D
330
3190
100
AcDbEntity
  8
0
100
AcDbBlockEnd
  0
BLOCK
  5
31AA
330
319E
100
AcDbEntity
  8
0
100
AcDbBlockBegin
  2
*D14
 70
     1
 10
0.0
 20
0.0
 30
0.0
  3
*D14
  1

  0
LINE
  5
4595
330
319E
100
AcDbEntity
  8
AM_5
100
AcDbLine
 10
353.009505774646
 20
63.80525583175073
 30
0.0
 11
353.009505774646
 21
68.80525583175073
 31
0.0
  0
LINE
  5
4596
330
319E
100
AcDbEntity
  8
AM_5
100
AcDbLine
 10
357.1095057746459
 20
63.80525583175073
 30
0.0
 11
357.1095057746459
 21
68.80525583175073
 31
0.0
  0
LINE
  5
4597
330
319E
100
AcDbEntity
  8
AM_5
100
AcDbLine
 10
350.9095057746459
 20
67.75525583175073
 30
0.0
 11
348.809505774646
 21
67.75525583175073
 31
0.0
  0
LINE
  5
4598
330
319E
100
AcDbEntity
  8
AM_5
100
AcDbLine
 10
359.2095057746459
 20
67.75525583175073
 30
0.0
 11
361.3095057746459
 21
67.75525583175073
 31
0.0
  0
LINE
  5
4599
330
319E
100
AcDbEntity
  8
AM_5
100
AcDbLine
 10
353.009505774646
 20
67.75525583175073
 30
0.0
 11
357.1095057746459
 21
67.75525583175073
 31
0.0
  0
SOLID
  5
459A
330
319E
100
AcDbEntity
  8
AM_5
100
AcDbTrace
 10
350.9095057746459
 20
68.10525583175072
 30
0.0
 11
350.9095057746459
 21
67.40525583175074
 31
0.0
 12
353.009505774646
 22
67.75525583175073
 32
0.0
 13
353.009505774646
 23
67.75525583175073
 33
0.0
  0
SOLID
  5
459B
330
319E
100
AcDbEntity
  8
AM_5
100
AcDbTrace
 10
359.2095057746459
 20
68.10525583175072
 30
0.0
 11
359.2095057746459
 21
67.40525583175074
 31
0.0
 12
357.1095057746459
 22
67.75525583175073
 32
0.0
 13
357.1095057746459
 23
67.75525583175073
 33
0.0
  0
MTEXT
  5
459C
330
319E
100
AcDbEntity
  8
AM_5
100
AcDbMText
 10
355.0595057746459
 20
69.68025583175073
 30
0.0
 40
2.449999999999999
 41
0.0
 71
     5
 72
     1
  1
4.1
 73
     1
 44
1.0
1001
ACAD
1000
MTEXTBEGIN
1070
    73
1070
     1
1070
    44
1040
1.0
1070
    74
1070
     0
1000
MTEXTEND
  0
POINT
  5
459D
330
319E
100
AcDbEntity
  8
DEFPOINTS
 62
     0
100
AcDbPoint
 10
353.009505774646
 20
62.75525583175073
 30
0.0
  0
POINT
  5
459E
330
319E
100
AcDbEntity
  8
DEFPOINTS
 62
     0
100
AcDbPoint
 10
357.1095057746459
 20
62.75525583175073
 30
0.0
  0
POINT
  5
459F
330
319E
100
AcDbEntity
  8
DEFPOINTS
 62
     0
100
AcDbPoint
 10
357.1095057746459
 20
67.75525583175073
 30
0.0
  0
ENDBLK
  5
31AB
330
319E
100
AcDbEntity
  8
0
100
AcDbBlockEnd
  0
BLOCK
  5
361A
330
3610
100
AcDbEntity
  8
0
100
AcDbBlockBegin
  2
*D15
 70
     1
 10
0.0
 20
0.0
 30
0.0
  3
*D15
  1

  0
LINE
  5
4636
330
3610
100
AcDbEntity
  8
AM_5
100
AcDbLine
 10
376.7167342953962
 20
109.530731338438
 30
0.0
 11
376.7167342953962
 21
104.530731338438
 31
0.0
  0
LINE
  5
4637
330
3610
100
AcDbEntity
  8
AM_5
100
AcDbLine
 10
404.7278457713129
 20
110.7340813764293
 30
0.0
 11
404.7278457713129
 21
104.530731338438
 31
0.0
  0
LINE
  5
4638
330
3610
100
AcDbEntity
  8
AM_5
100
AcDbLine
 10
378.8167342953963
 20
105.580731338438
 30
0.0
 11
402.627845771313
 21
105.580731338438
 31
0.0
  0
SOLID
  5
4639
330
3610
100
AcDbEntity
  8
AM_5
100
AcDbTrace
 10
378.8167342953963
 20
105.930731338438
 30
0.0
 11
378.8167342953963
 21
105.230731338438
 31
0.0
 12
376.7167342953962
 22
105.580731338438
 32
0.0
 13
376.7167342953962
 23
105.580731338438
 33
0.0
  0
SOLID
  5
463A
330
3610
100
AcDbEntity
  8
AM_5
100
AcDbTrace
 10
402.627845771313
 20
105.930731338438
 30
0.0
 11
402.627845771313
 21
105.230731338438
 31
0.0
 12
404.7278457713129
 22
105.580731338438
 32
0.0
 13
404.7278457713129
 23
105.580731338438
 33
0.0
  0
MTEXT
  5
463B
330
3610
100
AcDbEntity
  8
AM_5
100
AcDbMText
 10
390.7222900333546
 20
107.5059724801703
 30
0.0
 40
2.449999999999999
 41
0.0
 71
     5
 72
     1
  1
1000%%P20
 73
     1
 44
1.0
1001
ACAD
1000
MTEXTBEGIN
1070
    73
1070
     1
1070
    44
1040
1.0
1070
    74
1070
     0
1000
MTEXTEND
  0
POINT
  5
463C
330
3610
100
AcDbEntity
  8
DEFPOINTS
 62
     0
100
AcDbPoint
 10
376.7167342953962
 20
110.580731338438
 30
0.0
  0
POINT
  5
463D
330
3610
100
AcDbEntity
  8
DEFPOINTS
 62
     0
100
AcDbPoint
 10
404.7278457713129
 20
111.7840813764293
 30
0.0
  0
POINT
  5
463E
330
3610
100
AcDbEntity
  8
DEFPOINTS
 62
     0
100
AcDbPoint
 10
404.7278457713129
 20
105.580731338438
 30
0.0
  0
ENDBLK
  5
361B
330
3610
100
AcDbEntity
  8
0
100
AcDbBlockEnd
  0
BLOCK
  5
3633
330
3628
100
AcDbEntity
  8
0
100
AcDbBlockBegin
  2
*D16
 70
     1
 10
0.0
 20
0.0
 30
0.0
  3
*D16
  1

  0
LINE
  5
463F
330
3628
100
AcDbEntity
  8
AM_5
100
AcDbLine
 10
351.2167342953965
 20
109.530731338438
 30
0.0
 11
351.2167342953965
 21
104.530731338438
 31
0.0
  0
LINE
  5
4640
330
3628
100
AcDbEntity
  8
AM_5
100
AcDbLine
 10
376.7167342953964
 20
109.530731338438
 30
0.0
 11
376.7167342953964
 21
104.530731338438
 31
0.0
  0
LINE
  5
4641
330
3628
100
AcDbEntity
  8
AM_5
100
AcDbLine
 10
353.3167342953965
 20
105.580731338438
 30
0.0
 11
374.6167342953965
 21
105.580731338438
 31
0.0
  0
SOLID
  5
4642
330
3628
100
AcDbEntity
  8
AM_5
100
AcDbTrace
 10
353.3167342953965
 20
105.930731338438
 30
0.0
 11
353.3167342953965
 21
105.230731338438
 31
0.0
 12
351.2167342953965
 22
105.580731338438
 32
0.0
 13
351.2167342953965
 23
105.580731338438
 33
0.0
  0
SOLID
  5
4643
330
3628
100
AcDbEntity
  8
AM_5
100
AcDbTrace
 10
374.6167342953965
 20
105.930731338438
 30
0.0
 11
374.6167342953965
 21
105.230731338438
 31
0.0
 12
376.7167342953964
 22
105.580731338438
 32
0.0
 13
376.7167342953964
 23
105.580731338438
 33
0.0
  0
MTEXT
  5
4644
330
3628
100
AcDbEntity
  8
AM_5
100
AcDbMText
 10
363.9667342953964
 20
107.5059724801703
 30
0.0
 40
2.449999999999999
 41
0.0
 71
     5
 72
     1
  1
25.5
 73
     1
 44
1.0
1001
ACAD
1000
MTEXTBEGIN
1070
    73
1070
     1
1070
    44
1040
1.0
1070
    74
1070
     0
1000
MTEXTEND
  0
POINT
  5
4645
330
3628
100
AcDbEntity
  8
DEFPOINTS
 62
     0
100
AcDbPoint
 10
351.2167342953965
 20
110.580731338438
 30
0.0
  0
POINT
  5
4646
330
3628
100
AcDbEntity
  8
DEFPOINTS
 62
     0
100
AcDbPoint
 10
376.7167342953964
 20
110.580731338438
 30
0.0
  0
POINT
  5
4647
330
3628
100
AcDbEntity
  8
DEFPOINTS
 62
     0
100
AcDbPoint
 10
376.7167342953964
 20
105.580731338438
 30
0.0
  0
ENDBLK
  5
3634
330
3628
100
AcDbEntity
  8
0
100
AcDbBlockEnd
  0
BLOCK
  5
3640
330
3635
100
AcDbEntity
  8
0
100
AcDbBlockBegin
  2
*D17
 70
     1
 10
0.0
 20
0.0
 30
0.0
  3
*D17
  1

  0
LINE
  5
4648
330
3635
100
AcDbEntity
  8
AM_5
100
AcDbLine
 10
339.6078051910733
 20
99.86623211231666
 30
0.0
 11
334.0078051910731
 21
99.86623211231666
 31
0.0
  0
LINE
  5
4649
330
3635
100
AcDbEntity
  8
AM_5
100
AcDbLine
 10
341.0078051910732
 20
95.36623211231665
 30
0.0
 11
334.0078051910731
 21
95.36623211231665
 31
0.0
  0
LINE
  5
464A
330
3635
100
AcDbEntity
  8
AM_5
100
AcDbLine
 10
335.0578051910732
 20
101.9662321123166
 30
0.0
 11
335.0578051910732
 21
104.0662321123166
 31
0.0
  0
LINE
  5
464B
330
3635
100
AcDbEntity
  8
AM_5
100
AcDbLine
 10
335.0578051910732
 20
93.26623211231666
 30
0.0
 11
335.0578051910732
 21
91.16623211231665
 31
0.0
  0
LINE
  5
464C
330
3635
100
AcDbEntity
  8
AM_5
100
AcDbLine
 10
335.0578051910732
 20
99.86623211231666
 30
0.0
 11
335.0578051910732
 21
95.36623211231665
 31
0.0
  0
SOLID
  5
464D
330
3635
100
AcDbEntity
  8
AM_5
100
AcDbTrace
 10
334.7078051910731
 20
101.9662321123166
 30
0.0
 11
335.4078051910732
 21
101.9662321123166
 31
0.0
 12
335.0578051910732
 22
99.86623211231666
 32
0.0
 13
335.0578051910732
 23
99.86623211231666
 33
0.0
  0
SOLID
  5
464E
330
3635
100
AcDbEntity
  8
AM_5
100
AcDbTrace
 10
334.7078051910731
 20
93.26623211231666
 30
0.0
 11
335.4078051910732
 21
93.26623211231666
 31
0.0
 12
335.0578051910732
 22
95.36623211231665
 32
0.0
 13
335.0578051910732
 23
95.36623211231665
 33
0.0
  0
MTEXT
  5
464F
330
3635
100
AcDbEntity
  8
AM_5
100
AcDbMText
 10
333.1328051910731
 20
97.61623211231672
 30
0.0
 40
2.449999999999999
 41
0.0
 71
     5
 72
     1
  1
4.5
 11
0.0000000000000001
 21
1.0
 31
0.0
 73
     1
 44
1.0
1001
ACAD
1000
MTEXTBEGIN
1070
    73
1070
     1
1070
    44
1040
1.0
1070
    74
1070
     0
1000
MTEXTEND
  0
POINT
  5
4650
330
3635
100
AcDbEntity
  8
DEFPOINTS
 62
     0
100
AcDbPoint
 10
340.6578051910733
 20
99.86623211231666
 30
0.0
  0
POINT
  5
4651
330
3635
100
AcDbEntity
  8
DEFPOINTS
 62
     0
100
AcDbPoint
 10
342.0578051910732
 20
95.36623211231665
 30
0.0
  0
POINT
  5
4652
330
3635
100
AcDbEntity
  8
DEFPOINTS
 62
     0
100
AcDbPoint
 10
335.0578051910732
 20
95.36623211231665
 30
0.0
  0
ENDBLK
  5
3641
330
3635
100
AcDbEntity
  8
0
100
AcDbBlockEnd
  0
BLOCK
  5
364D
330
3642
100
AcDbEntity
  8
0
100
AcDbBlockBegin
  2
*D18
 70
     1
 10
0.0
 20
0.0
 30
0.0
  3
*D18
  1

  0
LINE
  5
4653
330
3642
100
AcDbEntity
  8
AM_5
100
AcDbLine
 10
340.6578051910733
 20
100.9162321123166
 30
0.0
 11
340.6578051910733
 21
105.9162321123166
 31
0.0
  0
LINE
  5
4654
330
3642
100
AcDbEntity
  8
AM_5
100
AcDbLine
 10
343.4578051910733
 20
100.9162321123166
 30
0.0
 11
343.4578051910733
 21
105.9162321123166
 31
0.0
  0
LINE
  5
4655
330
3642
100
AcDbEntity
  8
AM_5
100
AcDbLine
 10
338.5578051910733
 20
104.8662321123166
 30
0.0
 11
336.4578051910733
 21
104.8662321123166
 31
0.0
  0
LINE
  5
4656
330
3642
100
AcDbEntity
  8
AM_5
100
AcDbLine
 10
345.5578051910733
 20
104.8662321123166
 30
0.0
 11
347.6578051910732
 21
104.8662321123166
 31
0.0
  0
LINE
  5
4657
330
3642
100
AcDbEntity
  8
AM_5
100
AcDbLine
 10
340.6578051910733
 20
104.8662321123166
 30
0.0
 11
343.4578051910733
 21
104.8662321123166
 31
0.0
  0
SOLID
  5
4658
330
3642
100
AcDbEntity
  8
AM_5
100
AcDbTrace
 10
338.5578051910733
 20
105.2162321123166
 30
0.0
 11
338.5578051910733
 21
104.5162321123166
 31
0.0
 12
340.6578051910733
 22
104.8662321123166
 32
0.0
 13
340.6578051910733
 23
104.8662321123166
 33
0.0
  0
SOLID
  5
4659
330
3642
100
AcDbEntity
  8
AM_5
100
AcDbTrace
 10
345.5578051910733
 20
105.2162321123166
 30
0.0
 11
345.5578051910733
 21
104.5162321123166
 31
0.0
 12
343.4578051910733
 22
104.8662321123166
 32
0.0
 13
343.4578051910733
 23
104.8662321123166
 33
0.0
  0
MTEXT
  5
465A
330
3642
100
AcDbEntity
  8
AM_5
100
AcDbMText
 10
342.0578051910733
 20
106.7914732540489
 30
0.0
 40
2.449999999999999
 41
0.0
 71
     5
 72
     1
  1
2.8
 73
     1
 44
1.0
1001
ACAD
1000
MTEXTBEGIN
1070
    73
1070
     1
1070
    44
1040
1.0
1070
    74
1070
     0
1000
MTEXTEND
  0
POINT
  5
465B
330
3642
100
AcDbEntity
  8
DEFPOINTS
 62
     0
100
AcDbPoint
 10
340.6578051910733
 20
99.86623211231666
 30
0.0
  0
POINT
  5
465C
330
3642
100
AcDbEntity
  8
DEFPOINTS
 62
     0
100
AcDbPoint
 10
343.4578051910733
 20
99.86623211231666
 30
0.0
  0
POINT
  5
465D
330
3642
100
AcDbEntity
  8
DEFPOINTS
 62
     0
100
AcDbPoint
 10
343.4578051910733
 20
104.8662321123166
 30
0.0
  0
ENDBLK
  5
364E
330
3642
100
AcDbEntity
  8
0
100
AcDbBlockEnd
  0
BLOCK
  5
365A
330
364F
100
AcDbEntity
  8
0
100
AcDbBlockBegin
  2
*D19
 70
     1
 10
0.0
 20
0.0
 30
0.0
  3
*D19
  1

  0
LINE
  5
465E
330
364F
100
AcDbEntity
  8
AM_5
100
AcDbLine
 10
350.1667342953965
 20
114.580731338438
 30
0.0
 11
345.1667342953964
 21
114.580731338438
 31
0.0
  0
LINE
  5
465F
330
364F
100
AcDbEntity
  8
AM_5
100
AcDbLine
 10
350.1667342953965
 20
110.580731338438
 30
0.0
 11
345.1667342953964
 21
110.580731338438
 31
0.0
  0
LINE
  5
4660
330
364F
100
AcDbEntity
  8
AM_5
100
AcDbLine
 10
346.2167342953965
 20
116.680731338438
 30
0.0
 11
346.2167342953965
 21
118.780731338438
 31
0.0
  0
LINE
  5
4661
330
364F
100
AcDbEntity
  8
AM_5
100
AcDbLine
 10
346.2167342953965
 20
108.480731338438
 30
0.0
 11
346.2167342953965
 21
106.380731338438
 31
0.0
  0
LINE
  5
4662
330
364F
100
AcDbEntity
  8
AM_5
100
AcDbLine
 10
346.2167342953965
 20
114.580731338438
 30
0.0
 11
346.2167342953965
 21
110.580731338438
 31
0.0
  0
SOLID
  5
4663
330
364F
100
AcDbEntity
  8
AM_5
100
AcDbTrace
 10
345.8667342953964
 20
116.680731338438
 30
0.0
 11
346.5667342953965
 21
116.680731338438
 31
0.0
 12
346.2167342953965
 22
114.580731338438
 32
0.0
 13
346.2167342953965
 23
114.580731338438
 33
0.0
  0
SOLID
  5
4664
330
364F
100
AcDbEntity
  8
AM_5
100
AcDbTrace
 10
345.8667342953964
 20
108.480731338438
 30
0.0
 11
346.5667342953965
 21
108.480731338438
 31
0.0
 12
346.2167342953965
 22
110.580731338438
 32
0.0
 13
346.2167342953965
 23
110.580731338438
 33
0.0
  0
MTEXT
  5
4665
330
364F
100
AcDbEntity
  8
AM_5
100
AcDbMText
 10
344.2917342953965
 20
112.580731338438
 30
0.0
 40
2.449999999999999
 41
0.0
 71
     5
 72
     1
  1
4
 11
0.0000000000000001
 21
1.0
 31
0.0
 73
     1
 44
1.0
1001
ACAD
1000
MTEXTBEGIN
1070
    73
1070
     1
1070
    44
1040
1.0
1070
    74
1070
     0
1000
MTEXTEND
  0
POINT
  5
4666
330
364F
100
AcDbEntity
  8
DEFPOINTS
 62
     0
100
AcDbPoint
 10
351.2167342953965
 20
114.580731338438
 30
0.0
  0
POINT
  5
4667
330
364F
100
AcDbEntity
  8
DEFPOINTS
 62
     0
100
AcDbPoint
 10
351.2167342953965
 20
110.580731338438
 30
0.0
  0
POINT
  5
4668
330
364F
100
AcDbEntity
  8
DEFPOINTS
 62
     0
100
AcDbPoint
 10
346.2167342953965
 20
110.580731338438
 30
0.0
  0
ENDBLK
  5
365B
330
364F
100
AcDbEntity
  8
0
100
AcDbBlockEnd
  0
BLOCK
  5
3815
330
380B
100
AcDbEntity
  8
0
100
AcDbBlockBegin
  2
*D20
 70
     1
 10
0.0
 20
0.0
 30
0.0
  3
*D20
  1

  0
LINE
  5
4619
330
380B
100
AcDbEntity
  8
AM_5
100
AcDbLine
 10
250.7882141618768
 20
11.13613738700756
 30
0.0
 11
250.7882141618768
 21
6.136137387007562
 31
0.0
  0
LINE
  5
461A
330
380B
100
AcDbEntity
  8
AM_5
100
AcDbLine
 10
284.7737620790045
 20
11.15613738700751
 30
0.0
 11
284.7737620790045
 21
6.136137387007562
 31
0.0
  0
LINE
  5
461B
330
380B
100
AcDbEntity
  8
AM_5
100
AcDbLine
 10
252.8882141618768
 20
7.186137387007562
 30
0.0
 11
282.6737620790045
 21
7.186137387007562
 31
0.0
  0
SOLID
  5
461C
330
380B
100
AcDbEntity
  8
AM_5
100
AcDbTrace
 10
252.8882141618768
 20
7.536137387007562
 30
0.0
 11
252.8882141618768
 21
6.836137387007562
 31
0.0
 12
250.7882141618768
 22
7.186137387007562
 32
0.0
 13
250.7882141618768
 23
7.186137387007562
 33
0.0
  0
SOLID
  5
461D
330
380B
100
AcDbEntity
  8
AM_5
100
AcDbTrace
 10
282.6737620790045
 20
7.536137387007562
 30
0.0
 11
282.6737620790045
 21
6.836137387007562
 31
0.0
 12
284.7737620790045
 22
7.186137387007562
 32
0.0
 13
284.7737620790045
 23
7.186137387007562
 33
0.0
  0
MTEXT
  5
461E
330
380B
100
AcDbEntity
  8
AM_5
100
AcDbMText
 10
267.7809881204407
 20
9.111137387007563
 30
0.0
 40
2.449999999999999
 41
0.0
 71
     5
 72
     1
  1
165
 73
     1
 44
1.0
1001
ACAD
1000
MTEXTBEGIN
1070
    73
1070
     1
1070
    44
1040
1.0
1070
    74
1070
     0
1000
MTEXTEND
  0
POINT
  5
461F
330
380B
100
AcDbEntity
  8
DEFPOINTS
 62
     0
100
AcDbPoint
 10
250.7882141618768
 20
12.18613738700756
 30
0.0
  0
POINT
  5
4620
330
380B
100
AcDbEntity
  8
DEFPOINTS
 62
     0
100
AcDbPoint
 10
284.7737620790045
 20
12.20613738700751
 30
0.0
  0
POINT
  5
4621
330
380B
100
AcDbEntity
  8
DEFPOINTS
 62
     0
100
AcDbPoint
 10
284.7737620790045
 20
7.186137387007562
 30
0.0
  0
ENDBLK
  5
3816
330
380B
100
AcDbEntity
  8
0
100
AcDbBlockEnd
  0
BLOCK
  5
3822
330
3817
100
AcDbEntity
  8
0
100
AcDbBlockBegin
  2
*D21
 70
     1
 10
0.0
 20
0.0
 30
0.0
  3
*D21
  1

  0
LINE
  5
4622
330
3817
100
AcDbEntity
  8
AM_5
100
AcDbLine
 10
214.7292850575537
 20
0.4972744534432421
 30
0.0
 11
214.7292850575537
 21
5.497274453443242
 31
0.0
  0
LINE
  5
4623
330
3817
100
AcDbEntity
  8
AM_5
100
AcDbLine
 10
217.5292850575537
 20
0.4972744534432421
 30
0.0
 11
217.5292850575537
 21
5.497274453443242
 31
0.0
  0
LINE
  5
4624
330
3817
100
AcDbEntity
  8
AM_5
100
AcDbLine
 10
212.6292850575537
 20
4.447274453443242
 30
0.0
 11
210.5292850575537
 21
4.447274453443242
 31
0.0
  0
LINE
  5
4625
330
3817
100
AcDbEntity
  8
AM_5
100
AcDbLine
 10
219.6292850575537
 20
4.447274453443242
 30
0.0
 11
221.7292850575537
 21
4.447274453443242
 31
0.0
  0
LINE
  5
4626
330
3817
100
AcDbEntity
  8
AM_5
100
AcDbLine
 10
214.7292850575537
 20
4.447274453443242
 30
0.0
 11
217.5292850575537
 21
4.447274453443242
 31
0.0
  0
SOLID
  5
4627
330
3817
100
AcDbEntity
  8
AM_5
100
AcDbTrace
 10
212.6292850575537
 20
4.797274453443241
 30
0.0
 11
212.6292850575537
 21
4.097274453443242
 31
0.0
 12
214.7292850575537
 22
4.447274453443242
 32
0.0
 13
214.7292850575537
 23
4.447274453443242
 33
0.0
  0
SOLID
  5
4628
330
3817
100
AcDbEntity
  8
AM_5
100
AcDbTrace
 10
219.6292850575537
 20
4.797274453443241
 30
0.0
 11
219.6292850575537
 21
4.097274453443242
 31
0.0
 12
217.5292850575537
 22
4.447274453443242
 32
0.0
 13
217.5292850575537
 23
4.447274453443242
 33
0.0
  0
MTEXT
  5
4629
330
3817
100
AcDbEntity
  8
AM_5
100
AcDbMText
 10
216.1292850575537
 20
6.372515595175525
 30
0.0
 40
2.449999999999999
 41
0.0
 71
     5
 72
     1
  1
2.8
 73
     1
 44
1.0
1001
ACAD
1000
MTEXTBEGIN
1070
    73
1070
     1
1070
    44
1040
1.0
1070
    74
1070
     0
1000
MTEXTEND
  0
POINT
  5
462A
330
3817
100
AcDbEntity
  8
DEFPOINTS
 62
     0
100
AcDbPoint
 10
214.7292850575537
 20
-0.5527255465567578
 30
0.0
  0
POINT
  5
462B
330
3817
100
AcDbEntity
  8
DEFPOINTS
 62
     0
100
AcDbPoint
 10
217.5292850575537
 20
-0.5527255465567578
 30
0.0
  0
POINT
  5
462C
330
3817
100
AcDbEntity
  8
DEFPOINTS
 62
     0
100
AcDbPoint
 10
217.5292850575537
 20
4.447274453443242
 30
0.0
  0
ENDBLK
  5
3823
330
3817
100
AcDbEntity
  8
0
100
AcDbBlockEnd
  0
BLOCK
  5
383D
330
3832
100
AcDbEntity
  8
0
100
AcDbBlockBegin
  2
*D22
 70
     1
 10
0.0
 20
0.0
 30
0.0
  3
*D22
  1

  0
LINE
  5
462D
330
3832
100
AcDbEntity
  8
AM_5
100
AcDbLine
 10
225.2882141618769
 20
11.13613738700756
 30
0.0
 11
225.2882141618769
 21
6.136137387007562
 31
0.0
  0
LINE
  5
462E
330
3832
100
AcDbEntity
  8
AM_5
100
AcDbLine
 10
250.7882141618769
 20
11.13613738700756
 30
0.0
 11
250.7882141618769
 21
6.136137387007562
 31
0.0
  0
LINE
  5
462F
330
3832
100
AcDbEntity
  8
AM_5
100
AcDbLine
 10
227.3882141618769
 20
7.186137387007562
 30
0.0
 11
248.6882141618769
 21
7.186137387007562
 31
0.0
  0
SOLID
  5
4630
330
3832
100
AcDbEntity
  8
AM_5
100
AcDbTrace
 10
227.3882141618769
 20
7.536137387007562
 30
0.0
 11
227.3882141618769
 21
6.836137387007562
 31
0.0
 12
225.2882141618769
 22
7.186137387007562
 32
0.0
 13
225.2882141618769
 23
7.186137387007562
 33
0.0
  0
SOLID
  5
4631
330
3832
100
AcDbEntity
  8
AM_5
100
AcDbTrace
 10
248.6882141618769
 20
7.536137387007562
 30
0.0
 11
248.6882141618769
 21
6.836137387007562
 31
0.0
 12
250.7882141618769
 22
7.186137387007562
 32
0.0
 13
250.7882141618769
 23
7.186137387007562
 33
0.0
  0
MTEXT
  5
4632
330
3832
100
AcDbEntity
  8
AM_5
100
AcDbMText
 10
238.0382141618769
 20
9.111378528739844
 30
0.0
 40
2.449999999999999
 41
0.0
 71
     5
 72
     1
  1
25.5
 73
     1
 44
1.0
1001
ACAD
1000
MTEXTBEGIN
1070
    73
1070
     1
1070
    44
1040
1.0
1070
    74
1070
     0
1000
MTEXTEND
  0
POINT
  5
4633
330
3832
100
AcDbEntity
  8
DEFPOINTS
 62
     0
100
AcDbPoint
 10
225.2882141618769
 20
12.18613738700756
 30
0.0
  0
POINT
  5
4634
330
3832
100
AcDbEntity
  8
DEFPOINTS
 62
     0
100
AcDbPoint
 10
250.7882141618769
 20
12.18613738700756
 30
0.0
  0
POINT
  5
4635
330
3832
100
AcDbEntity
  8
DEFPOINTS
 62
     0
100
AcDbPoint
 10
250.7882141618769
 20
7.186137387007562
 30
0.0
  0
ENDBLK
  5
383E
330
3832
100
AcDbEntity
  8
0
100
AcDbBlockEnd
  0
BLOCK
  5
38DF
330
38D5
100
AcDbEntity
  8
0
100
AcDbBlockBegin
  2
*D23
 70
     1
 10
0.0
 20
0.0
 30
0.0
  3
*D23
  1

  0
LINE
  5
4669
330
38D5
100
AcDbEntity
  8
AM_5
100
AcDbLine
 10
251.088214161877
 20
109.530731338438
 30
0.0
 11
251.088214161877
 21
104.530731338438
 31
0.0
  0
LINE
  5
466A
330
38D5
100
AcDbEntity
  8
AM_5
100
AcDbLine
 10
279.0993256377936
 20
110.7340813764293
 30
0.0
 11
279.0993256377936
 21
104.530731338438
 31
0.0
  0
LINE
  5
466B
330
38D5
100
AcDbEntity
  8
AM_5
100
AcDbLine
 10
253.188214161877
 20
105.580731338438
 30
0.0
 11
276.9993256377936
 21
105.580731338438
 31
0.0
  0
SOLID
  5
466C
330
38D5
100
AcDbEntity
  8
AM_5
100
AcDbTrace
 10
253.188214161877
 20
105.930731338438
 30
0.0
 11
253.188214161877
 21
105.230731338438
 31
0.0
 12
251.088214161877
 22
105.580731338438
 32
0.0
 13
251.088214161877
 23
105.580731338438
 33
0.0
  0
SOLID
  5
466D
330
38D5
100
AcDbEntity
  8
AM_5
100
AcDbTrace
 10
276.9993256377936
 20
105.930731338438
 30
0.0
 11
276.9993256377936
 21
105.230731338438
 31
0.0
 12
279.0993256377936
 22
105.580731338438
 32
0.0
 13
279.0993256377936
 23
105.580731338438
 33
0.0
  0
MTEXT
  5
466E
330
38D5
100
AcDbEntity
  8
AM_5
100
AcDbMText
 10
265.0937698998353
 20
107.5059724801703
 30
0.0
 40
2.449999999999999
 41
0.0
 71
     5
 72
     1
  1
1000%%P20
 73
     1
 44
1.0
1001
ACAD
1000
MTEXTBEGIN
1070
    73
1070
     1
1070
    44
1040
1.0
1070
    74
1070
     0
1000
MTEXTEND
  0
POINT
  5
466F
330
38D5
100
AcDbEntity
  8
DEFPOINTS
 62
     0
100
AcDbPoint
 10
251.088214161877
 20
110.580731338438
 30
0.0
  0
POINT
  5
4670
330
38D5
100
AcDbEntity
  8
DEFPOINTS
 62
     0
100
AcDbPoint
 10
279.0993256377936
 20
111.7840813764293
 30
0.0
  0
POINT
  5
4671
330
38D5
100
AcDbEntity
  8
DEFPOINTS
 62
     0
100
AcDbPoint
 10
279.0993256377936
 20
105.580731338438
 30
0.0
  0
ENDBLK
  5
38E0
330
38D5
100
AcDbEntity
  8
0
100
AcDbBlockEnd
  0
BLOCK
  5
38F8
330
38ED
100
AcDbEntity
  8
0
100
AcDbBlockBegin
  2
*D24
 70
     1
 10
0.0
 20
0.0
 30
0.0
  3
*D24
  1

  0
LINE
  5
4672
330
38ED
100
AcDbEntity
  8
AM_5
100
AcDbLine
 10
216.1498666898431
 20
100.9162321123166
 30
0.0
 11
216.1498666898431
 21
105.9162321123166
 31
0.0
  0
LINE
  5
4673
330
38ED
100
AcDbEntity
  8
AM_5
100
AcDbLine
 10
218.949866689843
 20
100.9162321123166
 30
0.0
 11
218.949866689843
 21
105.9162321123166
 31
0.0
  0
LINE
  5
4674
330
38ED
100
AcDbEntity
  8
AM_5
100
AcDbLine
 10
214.0498666898431
 20
104.8662321123166
 30
0.0
 11
211.9498666898431
 21
104.8662321123166
 31
0.0
  0
LINE
  5
4675
330
38ED
100
AcDbEntity
  8
AM_5
100
AcDbLine
 10
221.049866689843
 20
104.8662321123166
 30
0.0
 11
223.149866689843
 21
104.8662321123166
 31
0.0
  0
LINE
  5
4676
330
38ED
100
AcDbEntity
  8
AM_5
100
AcDbLine
 10
216.1498666898431
 20
104.8662321123166
 30
0.0
 11
218.949866689843
 21
104.8662321123166
 31
0.0
  0
SOLID
  5
4677
330
38ED
100
AcDbEntity
  8
AM_5
100
AcDbTrace
 10
214.0498666898431
 20
105.2162321123166
 30
0.0
 11
214.0498666898431
 21
104.5162321123166
 31
0.0
 12
216.1498666898431
 22
104.8662321123166
 32
0.0
 13
216.1498666898431
 23
104.8662321123166
 33
0.0
  0
SOLID
  5
4678
330
38ED
100
AcDbEntity
  8
AM_5
100
AcDbTrace
 10
221.049866689843
 20
105.2162321123166
 30
0.0
 11
221.049866689843
 21
104.5162321123166
 31
0.0
 12
218.949866689843
 22
104.8662321123166
 32
0.0
 13
218.949866689843
 23
104.8662321123166
 33
0.0
  0
MTEXT
  5
4679
330
38ED
100
AcDbEntity
  8
AM_5
100
AcDbMText
 10
217.549866689843
 20
106.7914732540489
 30
0.0
 40
2.449999999999999
 41
0.0
 71
     5
 72
     1
  1
2.8
 73
     1
 44
1.0
1001
ACAD
1000
MTEXTBEGIN
1070
    73
1070
     1
1070
    44
1040
1.0
1070
    74
1070
     0
1000
MTEXTEND
  0
POINT
  5
467A
330
38ED
100
AcDbEntity
  8
DEFPOINTS
 62
     0
100
AcDbPoint
 10
216.1498666898431
 20
99.86623211231666
 30
0.0
  0
POINT
  5
467B
330
38ED
100
AcDbEntity
  8
DEFPOINTS
 62
     0
100
AcDbPoint
 10
218.949866689843
 20
99.86623211231666
 30
0.0
  0
POINT
  5
467C
330
38ED
100
AcDbEntity
  8
DEFPOINTS
 62
     0
100
AcDbPoint
 10
218.949866689843
 20
104.8662321123166
 30
0.0
  0
ENDBLK
  5
38F9
330
38ED
100
AcDbEntity
  8
0
100
AcDbBlockEnd
  0
BLOCK
  5
3905
330
38FA
100
AcDbEntity
  8
0
100
AcDbBlockBegin
  2
*D25
 70
     1
 10
0.0
 20
0.0
 30
0.0
  3
*D25
  1

  0
LINE
  5
467D
330
38FA
100
AcDbEntity
  8
AM_5
100
AcDbLine
 10
215.0998666898431
 20
99.86623211231666
 30
0.0
 11
209.4998666898432
 21
99.86623211231666
 31
0.0
  0
LINE
  5
467E
330
38FA
100
AcDbEntity
  8
AM_5
100
AcDbLine
 10
216.4998666898431
 20
95.36623211231665
 30
0.0
 11
209.4998666898432
 21
95.36623211231665
 31
0.0
  0
LINE
  5
467F
330
38FA
100
AcDbEntity
  8
AM_5
100
AcDbLine
 10
210.5498666898432
 20
101.9662321123166
 30
0.0
 11
210.5498666898432
 21
104.0662321123166
 31
0.0
  0
LINE
  5
4680
330
38FA
100
AcDbEntity
  8
AM_5
100
AcDbLine
 10
210.5498666898432
 20
93.26623211231666
 30
0.0
 11
210.5498666898432
 21
91.16623211231665
 31
0.0
  0
LINE
  5
4681
330
38FA
100
AcDbEntity
  8
AM_5
100
AcDbLine
 10
210.5498666898432
 20
99.86623211231666
 30
0.0
 11
210.5498666898432
 21
95.36623211231665
 31
0.0
  0
SOLID
  5
4682
330
38FA
100
AcDbEntity
  8
AM_5
100
AcDbTrace
 10
210.1998666898432
 20
101.9662321123166
 30
0.0
 11
210.8998666898432
 21
101.9662321123166
 31
0.0
 12
210.5498666898432
 22
99.86623211231666
 32
0.0
 13
210.5498666898432
 23
99.86623211231666
 33
0.0
  0
SOLID
  5
4683
330
38FA
100
AcDbEntity
  8
AM_5
100
AcDbTrace
 10
210.1998666898432
 20
93.26623211231666
 30
0.0
 11
210.8998666898432
 21
93.26623211231666
 31
0.0
 12
210.5498666898432
 22
95.36623211231665
 32
0.0
 13
210.5498666898432
 23
95.36623211231665
 33
0.0
  0
MTEXT
  5
4684
330
38FA
100
AcDbEntity
  8
AM_5
100
AcDbMText
 10
208.6248666898431
 20
97.61623211231668
 30
0.0
 40
2.449999999999999
 41
0.0
 71
     5
 72
     1
  1
4.5
 11
0.0000000000000001
 21
1.0
 31
0.0
 73
     1
 44
1.0
1001
ACAD
1000
MTEXTBEGIN
1070
    73
1070
     1
1070
    44
1040
1.0
1070
    74
1070
     0
1000
MTEXTEND
  0
POINT
  5
4685
330
38FA
100
AcDbEntity
  8
DEFPOINTS
 62
     0
100
AcDbPoint
 10
216.1498666898431
 20
99.86623211231666
 30
0.0
  0
POINT
  5
4686
330
38FA
100
AcDbEntity
  8
DEFPOINTS
 62
     0
100
AcDbPoint
 10
217.5498666898432
 20
95.36623211231665
 30
0.0
  0
POINT
  5
4687
330
38FA
100
AcDbEntity
  8
DEFPOINTS
 62
     0
100
AcDbPoint
 10
210.5498666898432
 20
95.36623211231665
 30
0.0
  0
ENDBLK
  5
3906
330
38FA
100
AcDbEntity
  8
0
100
AcDbBlockEnd
  0
BLOCK
  5
3911
330
3907
100
AcDbEntity
  8
0
100
AcDbBlockBegin
  2
*D26
 70
     1
 10
0.0
 20
0.0
 30
0.0
  3
*D26
  1

  0
LINE
  5
4688
330
3907
100
AcDbEntity
  8
AM_5
100
AcDbLine
 10
225.588214161877
 20
109.530731338438
 30
0.0
 11
225.588214161877
 21
104.530731338438
 31
0.0
  0
LINE
  5
4689
330
3907
100
AcDbEntity
  8
AM_5
100
AcDbLine
 10
251.088214161877
 20
109.530731338438
 30
0.0
 11
251.088214161877
 21
104.530731338438
 31
0.0
  0
LINE
  5
468A
330
3907
100
AcDbEntity
  8
AM_5
100
AcDbLine
 10
227.688214161877
 20
105.580731338438
 30
0.0
 11
248.988214161877
 21
105.580731338438
 31
0.0
  0
SOLID
  5
468B
330
3907
100
AcDbEntity
  8
AM_5
100
AcDbTrace
 10
227.688214161877
 20
105.930731338438
 30
0.0
 11
227.688214161877
 21
105.230731338438
 31
0.0
 12
225.588214161877
 22
105.580731338438
 32
0.0
 13
225.588214161877
 23
105.580731338438
 33
0.0
  0
SOLID
  5
468C
330
3907
100
AcDbEntity
  8
AM_5
100
AcDbTrace
 10
248.988214161877
 20
105.930731338438
 30
0.0
 11
248.988214161877
 21
105.230731338438
 31
0.0
 12
251.088214161877
 22
105.580731338438
 32
0.0
 13
251.088214161877
 23
105.580731338438
 33
0.0
  0
MTEXT
  5
468D
330
3907
100
AcDbEntity
  8
AM_5
100
AcDbMText
 10
237.8156299736418
 20
107.5059724801703
 30
0.0
 40
2.449999999999999
 41
0.0
 71
     5
 72
     1
  1
25.5
 73
     1
 44
1.0
1001
ACAD
1000
MTEXTBEGIN
1070
    73
1070
     1
1070
    44
1040
1.0
1070
    74
1070
     0
1000
MTEXTEND
  0
POINT
  5
468E
330
3907
100
AcDbEntity
  8
DEFPOINTS
 62
     0
100
AcDbPoint
 10
225.588214161877
 20
110.580731338438
 30
0.0
  0
POINT
  5
468F
330
3907
100
AcDbEntity
  8
DEFPOINTS
 62
     0
100
AcDbPoint
 10
251.088214161877
 20
110.580731338438
 30
0.0
  0
POINT
  5
4690
330
3907
100
AcDbEntity
  8
DEFPOINTS
 62
     0
100
AcDbPoint
 10
251.088214161877
 20
105.580731338438
 30
0.0
  0
ENDBLK
  5
3912
330
3907
100
AcDbEntity
  8
0
100
AcDbBlockEnd
  0
ENDSEC
  0
SECTION
  2
ENTITIES
  0
LINE
  5
305D
330
1F
100
AcDbEntity
  8
0
100
AcDbLine
 10
225.2882141618769
 20
40.25525583175073
 30
0.0
 11
229.8882141618769
 21
40.25525583175073
 31
0.0
  0
LINE
  5
305E
330
1F
100
AcDbEntity
  8
0
100
AcDbLine
 10
229.588214161877
 20
45.25525583175073
 30
0.0
 11
229.588214161877
 21
62.75525583175073
 31
0.0
  0
LINE
  5
305F
330
1F
100
AcDbEntity
  8
0
100
AcDbLine
 10
229.588214161877
 20
62.75525583175073
 30
0.0
 11
225.588214161877
 21
62.75525583175073
 31
0.0
  0
LINE
  5
3060
330
1F
100
AcDbEntity
  8
0
100
AcDbLine
 10
225.588214161877
 20
62.75525583175073
 30
0.0
 11
225.588214161877
 21
45.25525583175073
 31
0.0
  0
LINE
  5
3061
330
1F
100
AcDbEntity
  8
0
100
AcDbLine
 10
228.9882141618768
 20
62.75525583175073
 30
0.0
 11
228.9882141618768
 21
45.75525583175076
 31
0.0
  0
LINE
  5
3062
330
1F
100
AcDbEntity
  8
0
100
AcDbLine
 10
226.1882141618769
 20
62.75525583175073
 30
0.0
 11
226.1882141618769
 21
45.75525583175073
 31
0.0
  0
LINE
  5
3063
330
1F
100
AcDbEntity
  8
0
100
AcDbLine
 10
228.9882141618768
 20
57.75525583175073
 30
0.0
 11
226.1882141618769
 21
57.75525583175073
 31
0.0
  0
CIRCLE
  5
3064
330
1F
100
AcDbEntity
  8
0
100
AcDbCircle
 10
227.588214161877
 20
60.25525583175073
 30
0.0
 40
1.400000000000005
  0
LINE
  5
3065
330
1F
100
AcDbEntity
  8
0
100
AcDbLine
 10
228.0882141618769
 20
61.56292551481294
 30
0.0
 11
228.088214161877
 21
58.94758614868852
 31
0.0
  0
LINE
  5
3066
330
1F
100
AcDbEntity
  8
0
100
AcDbLine
 10
228.0882141618769
 20
61.56292551481294
 30
0.0
 11
228.088214161877
 21
58.94758614868852
 31
0.0
  0
LINE
  5
3067
330
1F
100
AcDbEntity
  8
0
100
AcDbLine
 10
227.0882141618769
 20
61.56292551481294
 30
0.0
 11
227.088214161877
 21
58.94758614868852
 31
0.0
  0
LINE
  5
3068
330
1F
100
AcDbEntity
  8
0
100
AcDbLine
 10
225.2882141618769
 20
45.25525583175073
 30
0.0
 11
229.8882141618769
 21
45.25525583175073
 31
0.0
  0
LINE
  5
3069
330
1F
100
AcDbEntity
  8
0
100
AcDbLine
 10
226.1882141618769
 20
45.75525583175073
 30
0.0
 11
228.9882141618768
 21
45.75525583175073
 31
0.0
  0
LINE
  5
306A
330
1F
100
AcDbEntity
  8
0
100
AcDbLine
 10
228.9882141618768
 20
45.75525583175073
 30
0.0
 11
229.588214161877
 21
45.25525583175073
 31
0.0
  0
LINE
  5
306B
330
1F
100
AcDbEntity
  8
0
100
AcDbLine
 10
226.1882141618769
 20
45.75525583175073
 30
0.0
 11
225.588214161877
 21
45.25525583175073
 31
0.0
  0
CIRCLE
  5
306C
330
1F
100
AcDbEntity
  8
0
100
AcDbCircle
 10
227.588214161877
 20
42.75525583175073
 30
0.0
 40
1.680000000000006
  0
CIRCLE
  5
306D
330
1F
100
AcDbEntity
  8
0
100
AcDbCircle
 10
227.588214161877
 20
42.75525583175073
 30
0.0
 40
1.199999999999999
  0
CIRCLE
  5
306E
330
1F
100
AcDbEntity
  8
0
100
AcDbCircle
 10
226.9882141618769
 20
42.75525583175073
 30
0.0
 40
0.6
  0
CIRCLE
  5
306F
330
1F
100
AcDbEntity
  8
0
100
AcDbCircle
 10
228.1882141618769
 20
42.75525583175073
 30
0.0
 40
0.6
  0
LINE
  5
3070
330
1F
100
AcDbEntity
  8
0
100
AcDbLine
 10
229.8882141618769
 20
45.25525583175073
 30
0.0
 11
229.8882141618769
 21
40.25525583175073
 31
0.0
  0
LINE
  5
3071
330
1F
100
AcDbEntity
  8
0
100
AcDbLine
 10
225.2882141618769
 20
45.25525583175073
 30
0.0
 11
225.2882141618769
 21
40.25525583175073
 31
0.0
  0
DIMENSION
  5
3072
330
1F
100
AcDbEntity
  8
AM_5
100
AcDbDimension
  2
*D3
 10
229.8882141618769
 20
35.25525583175073
 30
0.0
 11
227.5882141618769
 21
35.25525583175073
 31
0.0
 70
   160
 71
     5
 42
4.600000000000022
  3
AM_ISO$0
100
AcDbAlignedDimension
 13
225.2882141618769
 23
40.25525583175073
 33
0.0
 14
229.8882141618769
 24
40.25525583175073
 34
0.0
100
AcDbRotatedDimension
1001
ACAD
1000
DSTYLE
1002
{
1070
    40
1040
0.7
1070
   272
1070
     8
1002
}
  0
DIMENSION
  5
3073
330
1F
100
AcDbEntity
  8
AM_5
100
AcDbDimension
  2
*D4
 10
220.2882141618769
 20
40.25525583175073
 30
0.0
 11
218.3629730201446
 21
51.50525583175077
 31
0.0
 70
    32
 71
     5
 42
22.5
  3
AM_ISO$0
100
AcDbAlignedDimension
 13
225.588214161877
 23
62.75525583175073
 33
0.0
 14
225.2882141618769
 24
40.25525583175073
 34
0.0
 50
90.0
100
AcDbRotatedDimension
1001
ACAD
1000
DSTYLE
1002
{
1070
    40
1040
0.7
1070
   272
1070
     8
1002
}
  0
DIMENSION
  5
3074
330
1F
100
AcDbEntity
  8
AM_5
100
AcDbDimension
  2
*D5
 10
229.588214161877
 20
67.75525583175073
 30
0.0
 11
227.588214161877
 21
69.68025583175073
 31
0.0
 70
    32
 71
     5
 42
4.0
  3
AM_ISO$0
100
AcDbAlignedDimension
 13
225.588214161877
 23
62.75525583175073
 33
0.0
 14
229.588214161877
 24
62.75525583175073
 34
0.0
100
AcDbRotatedDimension
1001
ACAD
1000
DSTYLE
1002
{
1070
    40
1040
0.7
1070
   272
1070
     8
1002
}
  0
LINE
  5
3075
330
1F
100
AcDbEntity
  8
0
100
AcDbLine
 10
240.4612841005617
 20
62.75525583175073
 30
0.0
 11
244.5612841005616
 21
62.75525583175073
 31
0.0
  0
LINE
  5
3076
330
1F
100
AcDbEntity
  8
0
100
AcDbLine
 10
240.4612841005617
 20
40.25525583175073
 30
0.0
 11
246.0024959418784
 21
40.25525583175073
 31
0.0
  0
LINE
  5
3077
330
1F
100
AcDbEntity
  8
0
100
AcDbLine
 10
245.3112841005616
 20
45.75525583175073
 30
0.0
 11
244.5612841005616
 21
45.75525583175073
 31
0.0
  0
LINE
  5
3078
330
1F
100
AcDbEntity
  8
0
100
AcDbLine
 10
244.5612841005616
 20
57.75525583175073
 30
0.0
 11
245.3112841005616
 21
57.75525583175073
 31
0.0
  0
LINE
  5
3079
330
1F
100
AcDbEntity
  8
0
100
AcDbLine
 10
240.4612841005617
 20
62.75525583175073
 30
0.0
 11
240.4612841005617
 21
61.65525583175071
 31
0.0
  0
LINE
  5
307A
330
1F
100
AcDbEntity
  8
0
100
AcDbLine
 10
244.5612841005616
 20
62.75525583175073
 30
0.0
 11
244.5612841005616
 21
57.75525583175073
 31
0.0
  0
LINE
  5
307B
330
1F
100
AcDbEntity
  8
0
100
AcDbLine
 10
247.8312841005616
 20
44.43525583175073
 30
0.0
 11
247.8312841005616
 21
41.07525583175072
 31
0.0
  0
LINE
  5
307C
330
1F
100
AcDbEntity
  8
0
100
AcDbLine
 10
247.0617743874423
 20
45.43525583175074
 30
0.0
 11
244.5612841005616
 21
45.75525583175073
 31
0.0
  0
LINE
  5
307D
330
1F
100
AcDbEntity
  8
0
100
AcDbLine
 10
245.3112841005616
 20
57.75525583175073
 30
0.0
 11
245.3112841005616
 21
45.75525583175073
 31
0.0
  0
LINE
  5
307E
330
1F
100
AcDbEntity
  8
0
100
AcDbLine
 10
243.8612841005615
 20
62.75525583175073
 30
0.0
 11
243.8612841005615
 21
40.25525583175073
 31
0.0
  0
LINE
  5
307F
330
1F
100
AcDbEntity
  8
0
100
AcDbLine
 10
247.0617743874423
 20
40.57525583175072
 30
0.0
 11
246.0024959418784
 21
40.2552558317507
 31
0.0
  0
LINE
  5
3080
330
1F
100
AcDbEntity
  8
0
100
AcDbLine
 10
247.8312841005616
 20
44.43525583175073
 30
0.0
 11
247.0617743874423
 21
44.43525583175073
 31
0.0
  0
LINE
  5
3081
330
1F
100
AcDbEntity
  8
0
100
AcDbLine
 10
247.8312841005616
 20
41.07525583175072
 30
0.0
 11
247.0617743874423
 21
41.07525583175072
 31
0.0
  0
LINE
  5
3082
330
1F
100
AcDbEntity
  8
0
100
AcDbLine
 10
247.8312841005616
 20
43.95525583175071
 30
0.0
 11
257.0345853366132
 21
43.95525583175071
 31
0.0
  0
LINE
  5
3083
330
1F
100
AcDbEntity
  8
0
100
AcDbLine
 10
247.8312841005616
 20
41.55525583175074
 30
0.0
 11
257.1283834034488
 21
41.55525583175074
 31
0.0
  0
LINE
  5
3084
330
1F
100
AcDbEntity
  8
0
100
AcDbLine
 10
247.0617743874423
 20
40.57525583175072
 30
0.0
 11
247.0617743874423
 21
45.43525583175074
 31
0.0
  0
ARC
  5
3085
330
1F
100
AcDbEntity
  8
0
100
AcDbCircle
 10
238.162038086449
 20
60.25525583175073
 30
0.0
 40
2.69193837845759
100
AcDbArc
 50
328.6629630270268
 51
31.33703697297316
  0
LINE
  5
3086
330
1F
100
AcDbEntity
  8
0
100
AcDbLine
 10
240.4612841005617
 20
58.85525583175075
 30
0.0
 11
240.4612841005617
 21
40.25525583175073
 31
0.0
  0
DIMENSION
  5
3088
330
1F
100
AcDbEntity
  8
AM_5
100
AcDbDimension
  2
*D6
 10
244.5612841005616
 20
67.75525583175073
 30
0.0
 11
242.5112841005616
 21
67.75525583175073
 31
0.0
 70
   160
 71
     5
 42
4.099999999999909
  3
AM_ISO$0
100
AcDbAlignedDimension
 13
240.4612841005617
 23
62.75525583175073
 33
0.0
 14
244.5612841005616
 24
62.75525583175073
 34
0.0
100
AcDbRotatedDimension
1001
ACAD
1000
DSTYLE
1002
{
1070
    40
1040
0.7
1070
   272
1070
     8
1002
}
  0
DIMENSION
  5
3089
330
1F
100
AcDbEntity
  8
AM_5
100
AcDbDimension
  2
*D7
 10
247.0612841005616
 20
35.25525583175073
 30
0.0
 11
243.7612841005616
 21
37.18025583175073
 31
0.0
 70
    32
 71
     5
 42
6.599999999999909
  3
AM_ISO$0
100
AcDbAlignedDimension
 13
240.4612841005617
 23
40.25525583175073
 33
0.0
 14
247.0612841005616
 24
41.07525583175072
 34
0.0
100
AcDbRotatedDimension
1001
ACAD
1000
DSTYLE
1002
{
1070
    40
1040
0.7
1070
   272
1070
     8
1002
}
  0
LINE
  5
308A
330
1F
100
AcDbEntity
  8
0
100
AcDbLine
 10
269.9609696801561
 20
43.95525583175071
 30
0.0
 11
269.9609696801561
 21
41.55525583175074
 31
0.0
  0
LINE
  5
308B
330
1F
100
AcDbEntity
  8
0
100
AcDbLine
 10
289.960969680156
 20
43.65525583175073
 30
0.0
 11
289.960969680156
 21
43.05525583175074
 31
0.0
  0
LINE
  5
308C
330
1F
100
AcDbEntity
  8
0
100
AcDbLine
 10
282.960969680156
 20
43.85525583175075
 30
0.0
 11
282.9609696801559
 21
42.85525583175075
 31
0.0
  0
LINE
  5
308D
330
1F
100
AcDbEntity
  8
0
100
AcDbLine
 10
269.9609696801561
 20
42.85525583175072
 30
0.0
 11
282.960969680156
 21
42.85525583175075
 31
0.0
  0
LINE
  5
308E
330
1F
100
AcDbEntity
  8
0
100
AcDbLine
 10
269.9546130590654
 20
42.65505359409192
 30
0.0
 11
282.960969680156
 21
42.65505359409192
 31
0.0
  0
LINE
  5
308F
330
1F
100
AcDbEntity
  8
0
100
AcDbLine
 10
269.9609696801561
 20
43.85525583175073
 30
0.0
 11
282.960969680156
 21
43.85525583175075
 31
0.0
  0
LINE
  5
3090
330
1F
100
AcDbEntity
  8
0
100
AcDbLine
 10
269.9546130590654
 20
41.65505359409192
 30
0.0
 11
282.960969680156
 21
41.65505359409192
 31
0.0
  0
LINE
  5
3091
330
1F
100
AcDbEntity
  8
0
100
AcDbLine
 10
282.960969680156
 20
43.05525583175074
 30
0.0
 11
289.960969680156
 21
43.05525583175074
 31
0.0
  0
LINE
  5
3092
330
1F
100
AcDbEntity
  8
0
100
AcDbLine
 10
282.960969680156
 20
43.65525583175073
 30
0.0
 11
289.960969680156
 21
43.65525583175073
 31
0.0
  0
LINE
  5
3093
330
1F
100
AcDbEntity
  8
0
100
AcDbLine
 10
282.960969680156
 20
42.45505359409193
 30
0.0
 11
289.960969680156
 21
42.45505359409193
 31
0.0
  0
LINE
  5
3094
330
1F
100
AcDbEntity
  8
0
100
AcDbLine
 10
282.960969680156
 20
41.85505359409193
 30
0.0
 11
289.960969680156
 21
41.85505359409193
 31
0.0
  0
LINE
  5
3095
330
1F
100
AcDbEntity
  8
0
100
AcDbLine
 10
289.960969680156
 20
42.45505359409193
 30
0.0
 11
289.960969680156
 21
41.85505359409193
 31
0.0
  0
LINE
  5
3096
330
1F
100
AcDbEntity
  8
0
100
AcDbLine
 10
282.960969680156
 20
42.65505359409195
 30
0.0
 11
282.960969680156
 21
41.65505359409192
 31
0.0
  0
LINE
  5
3099
330
1F
100
AcDbEntity
  8
0
100
AcDbLine
 10
257.9625903611137
 20
41.55525583175074
 30
0.0
 11
269.9609696801561
 21
41.55525583175074
 31
0.0
  0
LINE
  5
309A
330
1F
100
AcDbEntity
  8
0
100
AcDbLine
 10
257.8687922942782
 20
43.95525583175071
 30
0.0
 11
269.9609696801561
 21
43.95525583175071
 31
0.0
  0
DIMENSION
  5
309B
330
1F
100
AcDbEntity
  8
AM_5
100
AcDbDimension
  2
*D8
 10
289.960969680156
 20
35.25525583175073
 30
0.0
 11
268.8961268903588
 21
37.18049697348302
 31
0.0
 70
    32
  1
1000%%p20
 71
     5
 42
42.12968557959448
  3
AM_ISO$0
100
AcDbAlignedDimension
 13
247.8312841005616
 23
41.07525583175072
 33
0.0
 14
289.960969680156
 24
41.85505359409193
 34
0.0
100
AcDbRotatedDimension
1001
ACAD
1000
DSTYLE
1002
{
1070
    40
1040
0.7
1070
   272
1070
     8
1002
}
  0
DIMENSION
  5
30A2
330
1F
100
AcDbEntity
  8
AM_5
100
AcDbDimension
  2
*D9
 10
402.5091913542403
 20
39.75525583175073
 30
0.0
 11
381.4443485644431
 21
41.68049697348301
 31
0.0
 70
    32
  1
1000%%p20
 71
     5
 42
42.12968557959448
  3
AM_ISO$0
100
AcDbAlignedDimension
 13
360.3795057746459
 23
45.57525583175072
 33
0.0
 14
402.5091913542403
 24
46.38578242724688
 34
0.0
100
AcDbRotatedDimension
1001
ACAD
1000
DSTYLE
1002
{
1070
    40
1040
0.7
1070
   272
1070
     8
1002
}
  0
LINE
  5
30A5
330
1F
100
AcDbEntity
  8
0
100
AcDbLine
 10
353.009505774646
 20
58.85525583175075
 30
0.0
 11
353.009505774646
 21
44.75525583175072
 31
0.0
  0
LINE
  5
30A6
330
1F
100
AcDbEntity
  8
0
100
AcDbLine
 10
357.8595057746459
 20
57.75525583175073
 30
0.0
 11
357.8595057746459
 21
50.25525583175073
 31
0.0
  0
LINE
  5
30A7
330
1F
100
AcDbEntity
  8
0
100
AcDbLine
 10
356.4095057746458
 20
62.75525583175073
 30
0.0
 11
356.4095057746458
 21
44.75525583175072
 31
0.0
  0
DIMENSION
  5
30A8
330
1F
100
AcDbEntity
  8
AM_5
100
AcDbDimension
  2
*D10
 10
332.8364358359612
 20
44.75525583175073
 30
0.0
 11
330.9114358359612
 21
53.75525583175079
 31
0.0
 70
    32
 71
     5
 42
18.0
  3
AM_ISO$0
100
AcDbAlignedDimension
 13
338.1364358359613
 23
62.75525583175073
 33
0.0
 14
337.8364358359612
 24
44.75525583175072
 34
0.0
 50
90.0
100
AcDbRotatedDimension
1001
ACAD
1000
DSTYLE
1002
{
1070
    40
1040
0.7
1070
   272
1070
     8
1002
}
  0
LINE
  5
30A9
330
1F
100
AcDbEntity
  8
0
100
AcDbLine
 10
338.1364358359613
 20
62.75525583175073
 30
0.0
 11
338.1364358359613
 21
45.25525583175073
 31
0.0
  0
LINE
  5
30AA
330
1F
100
AcDbEntity
  8
0
100
AcDbLine
 10
342.1364358359613
 20
45.25525583175073
 30
0.0
 11
342.1364358359613
 21
62.75525583175073
 31
0.0
  0
LINE
  5
30AB
330
1F
100
AcDbEntity
  8
0
100
AcDbLine
 10
341.5364358359611
 20
62.75525583175073
 30
0.0
 11
341.5364358359611
 21
50.25525583175073
 31
0.0
  0
LINE
  5
30AC
330
1F
100
AcDbEntity
  8
0
100
AcDbLine
 10
338.7364358359612
 20
62.75525583175073
 30
0.0
 11
338.7364358359612
 21
50.25525583175073
 31
0.0
  0
DIMENSION
  5
30AD
330
1F
100
AcDbEntity
  8
AM_5
100
AcDbDimension
  2
*D11
 10
342.4364358359612
 20
39.75525583175073
 30
0.0
 11
340.1364358359612
 21
39.75525583175073
 31
0.0
 70
   160
 71
     5
 42
4.600000000000022
  3
AM_ISO$0
100
AcDbAlignedDimension
 13
337.8364358359612
 23
44.75525583175072
 33
0.0
 14
342.4364358359612
 24
44.75525583175072
 34
0.0
100
AcDbRotatedDimension
1001
ACAD
1000
DSTYLE
1002
{
1070
    40
1040
0.7
1070
   272
1070
     8
1002
}
  0
LINE
  5
30AE
330
1F
100
AcDbEntity
  8
0
100
AcDbLine
 10
337.8364358359612
 20
49.75525583175073
 30
0.0
 11
342.4364358359612
 21
49.75525583175073
 31
0.0
  0
LINE
  5
30AF
330
1F
100
AcDbEntity
  8
0
100
AcDbLine
 10
337.8364358359612
 20
44.75525583175072
 30
0.0
 11
342.4364358359612
 21
44.75525583175072
 31
0.0
  0
CIRCLE
  5
30B0
330
1F
100
AcDbEntity
  8
0
100
AcDbCircle
 10
340.1364358359613
 20
47.25525583175072
 30
0.0
 40
1.199999999999999
  0
CIRCLE
  5
30B1
330
1F
100
AcDbEntity
  8
0
100
AcDbCircle
 10
340.1364358359613
 20
47.25525583175072
 30
0.0
 40
1.680000000000006
  0
LINE
  5
30B2
330
1F
100
AcDbEntity
  8
0
100
AcDbLine
 10
337.8364358359612
 20
49.75525583175073
 30
0.0
 11
337.8364358359612
 21
44.75525583175072
 31
0.0
  0
LINE
  5
30B3
330
1F
100
AcDbEntity
  8
0
100
AcDbLine
 10
338.7364358359612
 20
50.25525583175073
 30
0.0
 11
341.5364358359611
 21
50.25525583175073
 31
0.0
  0
LINE
  5
30B4
330
1F
100
AcDbEntity
  8
0
100
AcDbLine
 10
338.7364358359612
 20
50.25525583175073
 30
0.0
 11
338.1364358359613
 21
49.75525583175073
 31
0.0
  0
LINE
  5
30B5
330
1F
100
AcDbEntity
  8
0
100
AcDbLine
 10
341.5364358359611
 20
50.25525583175073
 30
0.0
 11
342.1364358359613
 21
49.75525583175073
 31
0.0
  0
DIMENSION
  5
30B6
330
1F
100
AcDbEntity
  8
AM_5
100
AcDbDimension
  2
*D12
 10
359.6095057746459
 20
39.75525583175073
 30
0.0
 11
356.3095057746459
 21
41.68025583175072
 31
0.0
 70
    32
 71
     5
 42
6.599999999999909
  3
AM_ISO$0
100
AcDbAlignedDimension
 13
353.009505774646
 23
44.75525583175072
 33
0.0
 14
359.6095057746459
 24
45.57525583175072
 34
0.0
100
AcDbRotatedDimension
1001
ACAD
1000
DSTYLE
1002
{
1070
    40
1040
0.7
1070
   272
1070
     8
1002
}
  0
LINE
  5
30B7
330
1F
100
AcDbEntity
  8
0
100
AcDbLine
 10
353.009505774646
 20
44.75525583175072
 30
0.0
 11
358.5507176159627
 21
44.75525583175072
 31
0.0
  0
LINE
  5
30B8
330
1F
100
AcDbEntity
  8
0
100
AcDbLine
 10
342.4364358359612
 20
49.75525583175073
 30
0.0
 11
342.4364358359612
 21
44.75525583175072
 31
0.0
  0
LINE
  5
30B9
330
1F
100
AcDbEntity
  8
0
100
AcDbLine
 10
360.3795057746459
 20
48.45525583175072
 30
0.0
 11
369.5828070106975
 21
48.45525583175072
 31
0.0
  0
LINE
  5
30BA
330
1F
100
AcDbEntity
  8
0
100
AcDbLine
 10
360.3795057746459
 20
46.05525583175074
 30
0.0
 11
369.6766050775331
 21
46.05525583175074
 31
0.0
  0
LINE
  5
30BB
330
1F
100
AcDbEntity
  8
0
100
AcDbLine
 10
360.3795057746459
 20
48.93525583175073
 30
0.0
 11
360.3795057746459
 21
45.57525583175072
 31
0.0
  0
LINE
  5
30BC
330
1F
100
AcDbEntity
  8
0
100
AcDbLine
 10
359.6099960615266
 20
45.07525583175072
 30
0.0
 11
359.6099960615266
 21
49.93525583175074
 31
0.0
  0
LINE
  5
30BD
330
1F
100
AcDbEntity
  8
0
100
AcDbLine
 10
359.6099960615266
 20
45.07525583175072
 30
0.0
 11
358.5507176159627
 21
44.7552558317507
 31
0.0
  0
LINE
  5
30BE
330
1F
100
AcDbEntity
  8
0
100
AcDbLine
 10
360.3795057746459
 20
45.57525583175072
 30
0.0
 11
359.6099960615266
 21
45.57525583175072
 31
0.0
  0
LINE
  5
30BF
330
1F
100
AcDbEntity
  8
0
100
AcDbLine
 10
359.6099960615266
 20
49.93525583175074
 30
0.0
 11
357.1095057746459
 21
50.25525583175073
 31
0.0
  0
LINE
  5
30C0
330
1F
100
AcDbEntity
  8
0
100
AcDbLine
 10
357.8595057746459
 20
50.25525583175073
 30
0.0
 11
357.1095057746459
 21
50.25525583175073
 31
0.0
  0
LINE
  5
30C1
330
1F
100
AcDbEntity
  8
0
100
AcDbLine
 10
360.3795057746459
 20
48.93525583175073
 30
0.0
 11
359.6099960615266
 21
48.93525583175073
 31
0.0
  0
DIMENSION
  5
30C2
330
1F
100
AcDbEntity
  8
AM_5
100
AcDbDimension
  2
*D13
 10
342.1364358359613
 20
67.75525583175073
 30
0.0
 11
340.1364358359613
 21
69.68025583175073
 31
0.0
 70
    32
 71
     5
 42
4.0
  3
AM_ISO$0
100
AcDbAlignedDimension
 13
338.1364358359613
 23
62.75525583175073
 33
0.0
 14
342.1364358359613
 24
62.75525583175073
 34
0.0
100
AcDbRotatedDimension
1001
ACAD
1000
DSTYLE
1002
{
1070
    40
1040
0.7
1070
   272
1070
     8
1002
}
  0
LINE
  5
30C3
330
1F
100
AcDbEntity
  8
0
100
AcDbLine
 10
340.6364358359613
 20
61.56292551481294
 30
0.0
 11
340.6364358359613
 21
58.94758614868852
 31
0.0
  0
LINE
  5
30C4
330
1F
100
AcDbEntity
  8
0
100
AcDbLine
 10
340.6364358359613
 20
61.56292551481294
 30
0.0
 11
340.6364358359613
 21
58.94758614868852
 31
0.0
  0
LINE
  5
30C5
330
1F
100
AcDbEntity
  8
0
100
AcDbLine
 10
339.6364358359613
 20
61.56292551481294
 30
0.0
 11
339.6364358359613
 21
58.94758614868852
 31
0.0
  0
CIRCLE
  5
30C6
330
1F
100
AcDbEntity
  8
0
100
AcDbCircle
 10
340.1364358359613
 20
60.25525583175073
 30
0.0
 40
1.400000000000005
  0
LINE
  5
30C7
330
1F
100
AcDbEntity
  8
0
100
AcDbLine
 10
341.5364358359611
 20
57.75525583175073
 30
0.0
 11
338.7364358359612
 21
57.75525583175073
 31
0.0
  0
LINE
  5
30C8
330
1F
100
AcDbEntity
  8
0
100
AcDbLine
 10
342.1364358359613
 20
62.75525583175073
 30
0.0
 11
338.1364358359613
 21
62.75525583175073
 31
0.0
  0
DIMENSION
  5
30C9
330
1F
100
AcDbEntity
  8
AM_5
100
AcDbDimension
  2
*D14
 10
357.1095057746459
 20
67.75525583175073
 30
0.0
 11
355.0595057746459
 21
67.75525583175073
 31
0.0
 70
   160
 71
     5
 42
4.099999999999909
  3
AM_ISO$0
100
AcDbAlignedDimension
 13
353.009505774646
 23
62.75525583175073
 33
0.0
 14
357.1095057746459
 24
62.75525583175073
 34
0.0
100
AcDbRotatedDimension
1001
ACAD
1000
DSTYLE
1002
{
1070
    40
1040
0.7
1070
   272
1070
     8
1002
}
  0
LINE
  5
30CA
330
1F
100
AcDbEntity
  8
0
100
AcDbLine
 10
353.009505774646
 20
62.75525583175073
 30
0.0
 11
357.1095057746459
 21
62.75525583175073
 31
0.0
  0
ARC
  5
30CB
330
1F
100
AcDbEntity
  8
0
100
AcDbCircle
 10
350.7102597605333
 20
60.25525583175073
 30
0.0
 40
2.69193837845759
100
AcDbArc
 50
328.6629630270268
 51
31.33703697297316
  0
LINE
  5
30CC
330
1F
100
AcDbEntity
  8
0
100
AcDbLine
 10
353.009505774646
 20
62.75525583175073
 30
0.0
 11
353.009505774646
 21
61.65525583175071
 31
0.0
  0
LINE
  5
30CD
330
1F
100
AcDbEntity
  8
0
100
AcDbLine
 10
357.1095057746459
 20
62.75525583175073
 30
0.0
 11
357.1095057746459
 21
57.75525583175073
 31
0.0
  0
LINE
  5
30CE
330
1F
100
AcDbEntity
  8
0
100
AcDbLine
 10
357.1095057746459
 20
57.75525583175073
 30
0.0
 11
357.8595057746459
 21
57.75525583175073
 31
0.0
  0
LINE
  5
30D1
330
1F
100
AcDbEntity
  8
0
100
AcDbLine
 10
395.5091913542403
 20
48.40525583175073
 30
0.0
 11
402.5091913542403
 21
48.40525583175073
 31
0.0
  0
LINE
  5
30D2
330
1F
100
AcDbEntity
  8
0
100
AcDbLine
 10
382.5028347331497
 20
47.03578242724688
 30
0.0
 11
395.5091913542403
 21
47.03578242724688
 31
0.0
  0
LINE
  5
30D3
330
1F
100
AcDbEntity
  8
0
100
AcDbLine
 10
382.5091913542403
 20
48.45525583175072
 30
0.0
 11
395.5091913542403
 21
48.45525583175074
 31
0.0
  0
LINE
  5
30D4
330
1F
100
AcDbEntity
  8
0
100
AcDbLine
 10
382.5028347331497
 20
47.63578242724688
 30
0.0
 11
395.5091913542403
 21
47.6357824272469
 31
0.0
  0
LINE
  5
30D5
330
1F
100
AcDbEntity
  8
0
100
AcDbLine
 10
382.5091913542403
 20
47.85525583175075
 30
0.0
 11
395.5091913542403
 21
47.85525583175075
 31
0.0
  0
LINE
  5
30D6
330
1F
100
AcDbEntity
  8
0
100
AcDbLine
 10
370.4170139683624
 20
48.45525583175072
 30
0.0
 11
382.5091913542403
 21
48.45525583175072
 31
0.0
  0
LINE
  5
30D7
330
1F
100
AcDbEntity
  8
0
100
AcDbLine
 10
370.5108120351979
 20
46.05525583175074
 30
0.0
 11
382.5091913542403
 21
46.05525583175074
 31
0.0
  0
LINE
  5
30D8
330
1F
100
AcDbEntity
  8
0
100
AcDbLine
 10
382.5091913542403
 20
48.45525583175072
 30
0.0
 11
382.5091913542403
 21
46.05525583175074
 31
0.0
  0
LINE
  5
30D9
330
1F
100
AcDbEntity
  8
0
100
AcDbLine
 10
395.5091913542403
 20
48.45525583175074
 30
0.0
 11
395.5091913542403
 21
47.85525583175075
 31
0.0
  0
LINE
  5
30DA
330
1F
100
AcDbEntity
  8
0
100
AcDbLine
 10
402.5091913542403
 20
48.40525583175073
 30
0.0
 11
402.5091913542403
 21
47.90525583175074
 31
0.0
  0
CIRCLE
  5
30DC
330
1F
100
AcDbEntity
  8
0
100
AcDbCircle
 10
339.5795138977959
 20
47.57679486266809
 30
0.0
 40
0.556921938165301
  0
CIRCLE
  5
30DD
330
1F
100
AcDbEntity
  8
0
100
AcDbCircle
 10
340.1364358359613
 20
46.61217776991608
 30
0.0
 40
0.556921938165301
  0
CIRCLE
  5
30DE
330
1F
100
AcDbEntity
  8
0
100
AcDbCircle
 10
340.6933577741265
 20
47.57679486266801
 30
0.0
 40
0.556921938165301
  0
LINE
  5
30DF
330
1F
100
AcDbEntity
  8
0
100
AcDbLine
 10
382.5028347331497
 20
46.3357824272469
 30
0.0
 11
395.5091913542403
 21
46.3357824272469
 31
0.0
  0
LINE
  5
30E0
330
1F
100
AcDbEntity
  8
0
100
AcDbLine
 10
382.5028347331497
 20
46.93578242724689
 30
0.0
 11
395.5091913542403
 21
46.93578242724689
 31
0.0
  0
LINE
  5
30E1
330
1F
100
AcDbEntity
  8
0
100
AcDbLine
 10
395.5091913542403
 20
47.90525583175074
 30
0.0
 11
402.5091913542403
 21
47.90525583175074
 31
0.0
  0
LINE
  5
30E2
330
1F
100
AcDbEntity
  8
0
100
AcDbLine
 10
395.5091913542403
 20
47.5857824272469
 30
0.0
 11
402.5091913542403
 21
47.5857824272469
 31
0.0
  0
LINE
  5
30E3
330
1F
100
AcDbEntity
  8
0
100
AcDbLine
 10
395.5091913542403
 20
47.0857824272469
 30
0.0
 11
402.5091913542403
 21
47.0857824272469
 31
0.0
  0
LINE
  5
30E4
330
1F
100
AcDbEntity
  8
0
100
AcDbLine
 10
402.5091913542403
 20
47.5857824272469
 30
0.0
 11
402.5091913542403
 21
47.0857824272469
 31
0.0
  0
LINE
  5
30E5
330
1F
100
AcDbEntity
  8
0
100
AcDbLine
 10
395.5091913542403
 20
46.88578242724688
 30
0.0
 11
402.5091913542403
 21
46.88578242724688
 31
0.0
  0
LINE
  5
30E6
330
1F
100
AcDbEntity
  8
0
100
AcDbLine
 10
395.5091913542403
 20
46.38578242724688
 30
0.0
 11
402.5091913542403
 21
46.38578242724688
 31
0.0
  0
LINE
  5
30E7
330
1F
100
AcDbEntity
  8
0
100
AcDbLine
 10
402.5091913542403
 20
46.88578242724688
 30
0.0
 11
402.5091913542403
 21
46.38578242724688
 31
0.0
  0
LINE
  5
30E8
330
1F
100
AcDbEntity
  8
0
100
AcDbLine
 10
395.5091913542403
 20
47.6357824272469
 30
0.0
 11
395.5091913542403
 21
47.03578242724688
 31
0.0
  0
LINE
  5
30E9
330
1F
100
AcDbEntity
  8
0
100
AcDbLine
 10
395.5091913542403
 20
46.93578242724689
 30
0.0
 11
395.5091913542403
 21
46.3357824272469
 31
0.0
  0
LINE
  5
3594
330
1F
100
AcDbEntity
  8
0
100
AcDbLine
 10
393.3329568401002
 20
98.12821619161201
 30
0.0
 11
401.3789766376537
 21
98.12821619161201
 31
0.0
  0
LINE
  5
3595
330
1F
100
AcDbEntity
  8
0
100
AcDbLine
 10
393.3329568401002
 20
98.89780402669448
 30
0.0
 11
401.3789766376537
 21
98.89780402669448
 31
0.0
  0
LINE
  5
3596
330
1F
100
AcDbEntity
  8
0
100
AcDbLine
 10
401.3789766376537
 20
98.89780402669448
 30
0.0
 11
401.3789766376537
 21
98.12821619161198
 31
0.0
  0
LINE
  5
3597
330
1F
100
AcDbEntity
  8
0
100
AcDbLine
 10
401.3789766376537
 20
98.70498421138586
 30
0.0
 11
404.7278457713129
 21
98.70498421138586
 31
0.0
  0
LINE
  5
3598
330
1F
100
AcDbEntity
  8
0
100
AcDbLine
 10
401.3789766376537
 20
98.32103600692063
 30
0.0
 11
404.7278457713129
 21
98.32103600692063
 31
0.0
  0
LINE
  5
3599
330
1F
100
AcDbEntity
  8
0
100
AcDbLine
 10
404.7278457713129
 20
98.70498421138586
 30
0.0
 11
404.7278457713129
 21
98.32103600692063
 31
0.0
  0
LINE
  5
359A
330
1F
100
AcDbEntity
  8
0
100
AcDbLine
 10
404.7278457713129
 20
96.67590071726181
 30
0.0
 11
404.7278457713129
 21
97.05984892172706
 31
0.0
  0
LINE
  5
359B
330
1F
100
AcDbEntity
  8
0
100
AcDbLine
 10
401.3789766376537
 20
97.05984892172706
 30
0.0
 11
404.7278457713129
 21
97.05984892172706
 31
0.0
  0
LINE
  5
359C
330
1F
100
AcDbEntity
  8
0
100
AcDbLine
 10
401.3789766376537
 20
96.67590071726181
 30
0.0
 11
404.7278457713129
 21
96.67590071726181
 31
0.0
  0
LINE
  5
359D
330
1F
100
AcDbEntity
  8
0
100
AcDbLine
 10
401.3789766376537
 20
96.48308090195321
 30
0.0
 11
401.3789766376537
 21
97.25266873703569
 31
0.0
  0
LINE
  5
359E
330
1F
100
AcDbEntity
  8
0
100
AcDbLine
 10
393.3329568401002
 20
96.48308090195321
 30
0.0
 11
401.3789766376537
 21
96.48308090195321
 31
0.0
  0
LINE
  5
359F
330
1F
100
AcDbEntity
  8
0
100
AcDbLine
 10
393.3329568401002
 20
97.25266873703567
 30
0.0
 11
401.3789766376537
 21
97.25266873703567
 31
0.0
  0
LINE
  5
35A0
330
1F
100
AcDbEntity
  8
0
100
AcDbLine
 10
404.7278457713129
 20
97.88406097023155
 30
0.0
 11
404.7278457713129
 21
97.50011276576632
 31
0.0
  0
LINE
  5
35A1
330
1F
100
AcDbEntity
  8
0
100
AcDbLine
 10
401.3789766376537
 20
97.50011276576632
 30
0.0
 11
404.7278457713129
 21
97.50011276576632
 31
0.0
  0
LINE
  5
35A2
330
1F
100
AcDbEntity
  8
0
100
AcDbLine
 10
401.3789766376537
 20
97.88406097023155
 30
0.0
 11
404.7278457713129
 21
97.88406097023155
 31
0.0
  0
LINE
  5
35A3
330
1F
100
AcDbEntity
  8
0
100
AcDbLine
 10
401.3789766376537
 20
98.07688078554017
 30
0.0
 11
401.3789766376537
 21
97.30729295045769
 31
0.0
  0
LINE
  5
35A4
330
1F
100
AcDbEntity
  8
0
100
AcDbLine
 10
393.3329568401002
 20
98.08349020956377
 30
0.0
 11
401.3789766376537
 21
98.08349020956377
 31
0.0
  0
LINE
  5
35A5
330
1F
100
AcDbEntity
  8
0
100
AcDbLine
 10
393.3329568401002
 20
97.30729295045769
 30
0.0
 11
401.3789766376537
 21
97.30729295045769
 31
0.0
  0
LINE
  5
35A6
330
1F
100
AcDbEntity
  8
0
100
AcDbLine
 10
393.3329568401002
 20
112.2217921765793
 30
0.0
 11
401.3789766376537
 21
112.2217921765793
 31
0.0
  0
LINE
  5
35A7
330
1F
100
AcDbEntity
  8
0
100
AcDbLine
 10
393.3329568401002
 20
112.9979894356853
 30
0.0
 11
401.3789766376537
 21
112.9979894356853
 31
0.0
  0
LINE
  5
35A8
330
1F
100
AcDbEntity
  8
0
100
AcDbLine
 10
401.3789766376537
 20
112.9913800116618
 30
0.0
 11
401.3789766376537
 21
112.2217921765793
 31
0.0
  0
LINE
  5
35A9
330
1F
100
AcDbEntity
  8
0
100
AcDbLine
 10
401.3789766376537
 20
112.7985601963532
 30
0.0
 11
404.7278457713129
 21
112.7985601963532
 31
0.0
  0
LINE
  5
35AA
330
1F
100
AcDbEntity
  8
0
100
AcDbLine
 10
401.3789766376537
 20
112.4146119918879
 30
0.0
 11
404.7278457713129
 21
112.4146119918879
 31
0.0
  0
LINE
  5
35AB
330
1F
100
AcDbEntity
  8
0
100
AcDbLine
 10
404.7278457713129
 20
112.7985601963532
 30
0.0
 11
404.7278457713129
 21
112.4146119918879
 31
0.0
  0
DIMENSION
  5
35AE
330
1F
100
AcDbEntity
  8
AM_5
100
AcDbDimension
  2
*D15
 10
404.7278457713129
 20
105.580731338438
 30
0.0
 11
390.7222900333546
 21
107.5059724801703
 31
0.0
 70
    32
  1
1000%%P20
 71
     5
 42
28.01111147591678
  3
AM_ISO$0
100
AcDbAlignedDimension
 13
376.7167342953962
 23
110.580731338438
 33
0.0
 14
404.7278457713129
 24
111.7840813764293
 34
0.0
100
AcDbRotatedDimension
1001
ACAD
1000
DSTYLE
1002
{
1070
    40
1040
0.7
1070
   272
1070
     8
1002
}
  0
LINE
  5
35AF
330
1F
100
AcDbEntity
  8
0
100
AcDbLine
 10
376.7167342953964
 20
98.96623211230332
 30
0.0
 11
388.1615569736721
 21
98.96623211230343
 31
0.0
  0
LINE
  5
35B0
330
1F
100
AcDbEntity
  8
0
100
AcDbLine
 10
376.7167342953964
 20
96.36623211232933
 30
0.0
 11
388.1615569736721
 21
96.36623211232937
 31
0.0
  0
ARC
  5
35B1
330
1F
100
AcDbEntity
  8
0
100
AcDbCircle
 10
390.6876198406024
 20
98.31623211230983
 30
0.0
 40
1.299999999986999
100
AcDbArc
 50
149.9999999999987
 51
210.0000000000012
  0
ARC
  5
35B2
330
1F
100
AcDbEntity
  8
0
100
AcDbCircle
 10
388.4359537907853
 20
97.01623211232282
 30
0.0
 40
1.299999999986999
100
AcDbArc
 50
329.9999999999987
 51
30.00000000000125
  0
ARC
  5
35B3
330
1F
100
AcDbEntity
  8
0
100
AcDbCircle
 10
387.0357239487635
 20
97.01623211232282
 30
0.0
 40
1.299999999986999
100
AcDbArc
 50
329.9999999999987
 51
30.00000000000125
  0
ARC
  5
35B4
330
1F
100
AcDbEntity
  8
0
100
AcDbCircle
 10
389.2873899985805
 20
98.31623211230983
 30
0.0
 40
1.299999999986999
100
AcDbArc
 50
149.9999999999987
 51
210.0000000000012
  0
LINE
  5
35B5
330
1F
100
AcDbEntity
  8
0
100
AcDbLine
 10
389.561786815694
 20
98.96623211230334
 30
0.0
 11
393.3329568401002
 21
98.96623211230332
 31
0.0
  0
LINE
  5
35B6
330
1F
100
AcDbEntity
  8
0
100
AcDbLine
 10
389.561786815694
 20
96.36623211232937
 30
0.0
 11
393.3329568401002
 21
96.36623211232937
 31
0.0
  0
LINE
  5
35B7
330
1F
100
AcDbEntity
  8
0
100
AcDbLine
 10
393.3329568401002
 20
98.96623211230332
 30
0.0
 11
393.3329568401002
 21
96.36623211232937
 31
0.0
  0
LINE
  5
35B8
330
1F
100
AcDbEntity
  8
0
100
AcDbLine
 10
393.3329568401002
 20
112.1671679631573
 30
0.0
 11
401.3789766376537
 21
112.1671679631573
 31
0.0
  0
LINE
  5
35B9
330
1F
100
AcDbEntity
  8
0
100
AcDbLine
 10
393.3329568401002
 20
111.3975801280748
 30
0.0
 11
401.3789766376537
 21
111.3975801280748
 31
0.0
  0
LINE
  5
35BA
330
1F
100
AcDbEntity
  8
0
100
AcDbLine
 10
401.3789766376537
 20
111.3975801280748
 30
0.0
 11
401.3789766376537
 21
112.1671679631573
 31
0.0
  0
LINE
  5
35BB
330
1F
100
AcDbEntity
  8
0
100
AcDbLine
 10
401.3789766376537
 20
111.5903999433834
 30
0.0
 11
404.7278457713129
 21
111.5903999433834
 31
0.0
  0
LINE
  5
35BC
330
1F
100
AcDbEntity
  8
0
100
AcDbLine
 10
401.3789766376537
 20
111.9743481478487
 30
0.0
 11
404.7278457713129
 21
111.9743481478487
 31
0.0
  0
LINE
  5
35BD
330
1F
100
AcDbEntity
  8
0
100
AcDbLine
 10
404.7278457713129
 20
111.5903999433834
 30
0.0
 11
404.7278457713129
 21
111.9743481478487
 31
0.0
  0
LINE
  5
35BE
330
1F
100
AcDbEntity
  8
0
100
AcDbLine
 10
404.7278457713129
 20
113.6194834375075
 30
0.0
 11
404.7278457713129
 21
113.2355352330422
 31
0.0
  0
LINE
  5
35BF
330
1F
100
AcDbEntity
  8
0
100
AcDbLine
 10
401.3789766376537
 20
113.2355352330422
 30
0.0
 11
404.7278457713129
 21
113.2355352330422
 31
0.0
  0
LINE
  5
35C0
330
1F
100
AcDbEntity
  8
0
100
AcDbLine
 10
401.3789766376537
 20
113.6194834375075
 30
0.0
 11
404.7278457713129
 21
113.6194834375075
 31
0.0
  0
LINE
  5
35C1
330
1F
100
AcDbEntity
  8
0
100
AcDbLine
 10
401.3789766376537
 20
113.8123032528161
 30
0.0
 11
401.3789766376537
 21
113.0427154177336
 31
0.0
  0
LINE
  5
35C2
330
1F
100
AcDbEntity
  8
0
100
AcDbLine
 10
393.3329568401002
 20
113.8123032528161
 30
0.0
 11
401.3789766376537
 21
113.8123032528161
 31
0.0
  0
LINE
  5
35C3
330
1F
100
AcDbEntity
  8
0
100
AcDbLine
 10
393.3329568401002
 20
113.0427154177336
 30
0.0
 11
401.3789766376537
 21
113.0427154177336
 31
0.0
  0
LINE
  5
35C4
330
1F
100
AcDbEntity
  8
0
100
AcDbLine
 10
393.3329568401002
 20
113.8807313384249
 30
0.0
 11
393.3329568401002
 21
111.2807313384509
 31
0.0
  0
LINE
  5
35C5
330
1F
100
AcDbEntity
  8
0
100
AcDbLine
 10
389.5617868156938
 20
111.2807313384509
 30
0.0
 11
393.3329568401002
 21
111.2807313384509
 31
0.0
  0
LINE
  5
35C6
330
1F
100
AcDbEntity
  8
0
100
AcDbLine
 10
389.5617868156938
 20
113.880731338425
 30
0.0
 11
393.3329568401002
 21
113.8807313384249
 31
0.0
  0
ARC
  5
35C7
330
1F
100
AcDbEntity
  8
0
100
AcDbCircle
 10
389.2873899985805
 20
113.2307313384314
 30
0.0
 40
1.299999999986999
100
AcDbArc
 50
149.9999999999987
 51
210.0000000000012
  0
ARC
  5
35C8
330
1F
100
AcDbEntity
  8
0
100
AcDbCircle
 10
387.0357239487635
 20
111.9307313384444
 30
0.0
 40
1.299999999986999
100
AcDbArc
 50
329.9999999999987
 51
30.00000000000125
  0
ARC
  5
35CC
330
1F
100
AcDbEntity
  8
0
100
AcDbCircle
 10
388.4359537907853
 20
111.9307313384444
 30
0.0
 40
1.299999999986999
100
AcDbArc
 50
329.9999999999987
 51
30.00000000000125
  0
ARC
  5
35CD
330
1F
100
AcDbEntity
  8
0
100
AcDbCircle
 10
390.6876198406024
 20
113.2307313384314
 30
0.0
 40
1.299999999986999
100
AcDbArc
 50
149.9999999999987
 51
210.0000000000012
  0
LINE
  5
35CE
330
1F
100
AcDbEntity
  8
0
100
AcDbLine
 10
376.7167342953964
 20
110.580731338438
 30
0.0
 11
376.7167342953962
 21
114.580731338438
 31
0.0
  0
LINE
  5
35CF
330
1F
100
AcDbEntity
  8
0
100
AcDbLine
 10
376.7167342953964
 20
95.36623211231637
 30
0.0
 11
376.7167342953964
 21
99.86623211231666
 31
0.0
  0
LINE
  5
35D0
330
1F
100
AcDbEntity
  8
0
100
AcDbLine
 10
376.7167342953962
 20
111.2807313384509
 30
0.0
 11
388.161556973672
 21
111.2807313384509
 31
0.0
  0
LINE
  5
35D1
330
1F
100
AcDbEntity
  8
0
100
AcDbLine
 10
376.7167342953962
 20
113.8807313384249
 30
0.0
 11
388.1615569736721
 21
113.880731338425
 31
0.0
  0
DIMENSION
  5
35D2
330
1F
100
AcDbEntity
  8
AM_5
100
AcDbDimension
  2
*D16
 10
376.7167342953964
 20
105.580731338438
 30
0.0
 11
363.9667342953964
 21
107.5059724801703
 31
0.0
 70
    32
 71
     5
 42
25.5
  3
AM_ISO$0
100
AcDbAlignedDimension
 13
351.2167342953965
 23
110.580731338438
 33
0.0
 14
376.7167342953964
 24
110.580731338438
 34
0.0
100
AcDbRotatedDimension
1001
ACAD
1000
DSTYLE
1002
{
1070
    40
1040
0.7
1070
   272
1070
     8
1002
}
  0
DIMENSION
  5
35D3
330
1F
100
AcDbEntity
  8
AM_5
100
AcDbDimension
  2
*D17
 10
335.0578051910732
 20
95.36623211231665
 30
0.0
 11
335.0578051910732
 21
97.61623211231672
 31
0.0
 70
   160
  1
4.5
 71
     5
 42
4.5
  3
AM_ISO$0
100
AcDbAlignedDimension
 13
340.6578051910733
 23
99.86623211231666
 33
0.0
 14
342.0578051910732
 24
95.36623211231665
 34
0.0
 50
90.0
100
AcDbRotatedDimension
1001
ACAD
1000
DSTYLE
1002
{
1070
    40
1040
0.7
1070
   272
1070
     8
1002
}
  0
DIMENSION
  5
35D4
330
1F
100
AcDbEntity
  8
AM_5
100
AcDbDimension
  2
*D18
 10
343.4578051910733
 20
104.8662321123166
 30
0.0
 11
342.0578051910733
 21
104.8662321123166
 31
0.0
 70
   160
 71
     5
 42
2.799999999999954
  3
AM_ISO$0
100
AcDbAlignedDimension
 13
340.6578051910733
 23
99.86623211231666
 33
0.0
 14
343.4578051910733
 24
99.86623211231666
 34
0.0
100
AcDbRotatedDimension
1001
ACAD
1000
DSTYLE
1002
{
1070
    40
1040
0.7
1070
   272
1070
     8
1002
}
  0
LINE
  5
35D5
330
1F
100
AcDbEntity
  8
0
 62
     7
100
AcDbLine
 10
355.2167342953965
 20
99.86623211231666
 30
0.0
 11
376.7167342953964
 21
99.86623211231666
 31
0.0
  0
LINE
  5
35D6
330
1F
100
AcDbEntity
  8
0
 62
     7
100
AcDbLine
 10
354.4167342953965
 20
95.36623211231665
 30
0.0
 11
376.7167342953964
 21
95.36623211231665
 31
0.0
  0
LINE
  5
35D7
330
1F
100
AcDbEntity
  8
0
 62
     7
100
AcDbLine
 10
351.2167342953965
 20
98.7945177980252
 30
0.0
 11
376.7167342953964
 21
98.79451779802526
 31
0.0
  0
ARC
  5
35D8
330
1F
100
AcDbEntity
  8
0
  6
Continuous
 62
     7
100
AcDbCircle
 10
342.0578051910732
 20
97.36623211231666
 30
0.0
 40
2.0
100
AcDbArc
 50
134.4270040008075
 51
45.57299599919249
  0
LINE
  5
35D9
330
1F
100
AcDbEntity
  8
0
  6
Continuous
 62
     7
100
AcDbLine
 10
340.6578051910733
 20
99.86623211231666
 30
0.0
 11
343.4578051910733
 21
99.86623211231666
 31
0.0
  0
LINE
  5
35DA
330
1F
100
AcDbEntity
  8
0
  6
Continuous
 62
     7
100
AcDbLine
 10
340.6578051910733
 20
99.36623211231665
 30
0.0
 11
343.4578051910733
 21
99.36623211231665
 31
0.0
  0
LINE
  5
35DB
330
1F
100
AcDbEntity
  8
0
  6
Continuous
 62
     7
100
AcDbLine
 10
343.4578051910733
 20
98.7945177980252
 30
0.0
 11
343.4578051910733
 21
99.86623211231666
 31
0.0
  0
LINE
  5
35DC
330
1F
100
AcDbEntity
  8
0
  6
Continuous
 62
     7
100
AcDbLine
 10
340.6578051910733
 20
98.79451779802526
 30
0.0
 11
340.6578051910733
 21
99.86623211231666
 31
0.0
  0
LINE
  5
35DD
330
1F
100
AcDbEntity
  8
0
 62
     7
100
AcDbLine
 10
355.2167342953965
 20
99.36623211231665
 30
0.0
 11
355.2167342953965
 21
99.86623211231666
 31
0.0
  0
LINE
  5
35DE
330
1F
100
AcDbEntity
  8
0
 62
     7
100
AcDbLine
 10
351.2167342953965
 20
99.36623211231665
 30
0.0
 11
355.2167342953965
 21
99.36623211231665
 31
0.0
  0
LINE
  5
35DF
330
1F
100
AcDbEntity
  8
0
 62
     7
100
AcDbLine
 10
351.2167342953965
 20
95.36623211231665
 30
0.0
 11
352.0167342953964
 21
95.36623211231665
 31
0.0
  0
ARC
  5
35E0
330
1F
100
AcDbEntity
  8
0
 62
     7
100
AcDbCircle
 10
353.2167342953965
 20
93.11623211231665
 30
0.0
 40
2.549999999999997
100
AcDbArc
 50
61.9275130641455
 51
118.0724869358545
  0
LINE
  5
35E1
330
1F
100
AcDbEntity
  8
0
 62
     7
100
AcDbLine
 10
351.2167342953965
 20
95.36623211231665
 30
0.0
 11
351.2167342953965
 21
99.36623211231665
 31
0.0
  0
LINE
  5
35E2
330
1F
100
AcDbEntity
  8
0
 62
     7
100
AcDbLine
 10
376.7167342953964
 20
95.36623211231637
 30
0.0
 11
376.7167342953964
 21
99.86623211231654
 31
0.0
  0
LINE
  5
35E3
330
1F
100
AcDbEntity
  8
0
  6
Continuous
 62
     7
100
AcDbLine
 10
351.2167342953965
 20
111.180731338438
 30
0.0
 11
376.7167342953964
 21
111.1807313384379
 31
0.0
  0
LINE
  5
35E4
330
1F
100
AcDbEntity
  8
0
  6
Continuous
 62
     7
100
AcDbLine
 10
351.2167342953965
 20
110.580731338438
 30
0.0
 11
376.7167342953964
 21
110.580731338438
 31
0.0
  0
ARC
  5
35E5
330
1F
100
AcDbEntity
  8
0
  6
Continuous
 62
     7
100
AcDbCircle
 10
363.8167342953964
 20
112.380731338438
 30
0.0
 40
0.5
100
AcDbArc
 50
180.0
 51
270.0
  0
ARC
  5
35E6
330
1F
100
AcDbEntity
  8
0
  6
Continuous
 62
     7
100
AcDbCircle
 10
363.8167342953964
 20
112.780731338438
 30
0.0
 40
0.5
100
AcDbArc
 50
90.0
 51
180.0
  0
LINE
  5
35E7
330
1F
100
AcDbEntity
  8
0
  6
Continuous
 62
     7
100
AcDbLine
 10
351.2167342953965
 20
113.980731338438
 30
0.0
 11
376.7167342953964
 21
113.980731338438
 31
0.0
  0
LINE
  5
35E8
330
1F
100
AcDbEntity
  8
0
  6
Continuous
 62
     7
100
AcDbLine
 10
351.2167342953965
 20
114.580731338438
 30
0.0
 11
376.7167342953964
 21
114.580731338438
 31
0.0
  0
LINE
  5
35E9
330
1F
100
AcDbEntity
  8
0
  6
Continuous
 62
     7
100
AcDbLine
 10
355.2167342953965
 20
111.180731338438
 30
0.0
 11
355.2167342953965
 21
113.980731338438
 31
0.0
  0
LINE
  5
35EA
330
1F
100
AcDbEntity
  8
0
  6
Continuous
 62
     7
100
AcDbLine
 10
351.2167342953965
 20
110.580731338438
 30
0.0
 11
351.2167342953965
 21
114.580731338438
 31
0.0
  0
CIRCLE
  5
35EB
330
1F
100
AcDbEntity
  8
0
  6
Continuous
 62
     7
100
AcDbCircle
 10
353.2167342953965
 20
112.580731338438
 30
0.0
 40
1.25
  0
LINE
  5
35EC
330
1F
100
AcDbEntity
  8
0
100
AcDbLine
 10
351.2167342953965
 20
110.580731338438
 30
0.0
 11
351.2167342953965
 21
114.580731338438
 31
0.0
  0
LINE
  5
35ED
330
1F
100
AcDbEntity
  8
0
  6
Continuous
 62
     7
100
AcDbLine
 10
354.2595363944774
 20
113.2699800469258
 30
0.0
 11
352.5274855869086
 21
111.5379292393569
 31
0.0
  0
LINE
  5
35EE
330
1F
100
AcDbEntity
  8
0
  6
Continuous
 62
     7
100
AcDbLine
 10
353.9059830038843
 20
113.6235334375191
 30
0.0
 11
352.1739321963155
 21
111.8914826299502
 31
0.0
  0
LINE
  5
35EF
330
1F
100
AcDbEntity
  8
0
  6
Continuous
 62
     7
100
AcDbLine
 10
363.3167342953964
 20
112.380731338438
 30
0.0
 11
363.3167342953964
 21
112.780731338438
 31
0.0
  0
ARC
  5
35F0
330
1F
100
AcDbEntity
  8
0
  6
Continuous
 62
     7
100
AcDbCircle
 10
365.6167342953963
 20
112.380731338438
 30
0.0
 40
0.5
100
AcDbArc
 50
270.0
 51
0.0
  0
LINE
  5
35F1
330
1F
100
AcDbEntity
  8
0
  6
Continuous
 62
     7
100
AcDbLine
 10
366.1167342953963
 20
112.380731338438
 30
0.0
 11
366.1167342953963
 21
112.780731338438
 31
0.0
  0
ARC
  5
35F2
330
1F
100
AcDbEntity
  8
0
  6
Continuous
 62
     7
100
AcDbCircle
 10
365.6167342953963
 20
112.780731338438
 30
0.0
 40
0.5
100
AcDbArc
 50
0.0
 51
90.0
  0
LINE
  5
35F3
330
1F
100
AcDbEntity
  8
0
  6
Continuous
 62
     7
100
AcDbLine
 10
363.8167342953964
 20
113.280731338438
 30
0.0
 11
365.6167342953963
 21
113.280731338438
 31
0.0
  0
LINE
  5
35F4
330
1F
100
AcDbEntity
  8
0
  6
Continuous
 62
     7
100
AcDbLine
 10
363.8167342953964
 20
111.880731338438
 30
0.0
 11
365.6167342953963
 21
111.880731338438
 31
0.0
  0
LINE
  5
35F5
330
1F
100
AcDbEntity
  8
0
  6
Continuous
 62
     7
100
AcDbLine
 10
376.7167342953964
 20
110.580731338438
 30
0.0
 11
376.7167342953964
 21
114.580731338438
 31
0.0
  0
DIMENSION
  5
35F6
330
1F
100
AcDbEntity
  8
AM_5
100
AcDbDimension
  2
*D19
 10
346.2167342953965
 20
110.580731338438
 30
0.0
 11
344.2917342953965
 21
112.580731338438
 31
0.0
 70
    32
  1
4
 71
     5
 42
4.0
  3
AM_ISO$0
100
AcDbAlignedDimension
 13
351.2167342953965
 23
114.580731338438
 33
0.0
 14
351.2167342953965
 24
110.580731338438
 34
0.0
 50
90.0
100
AcDbRotatedDimension
1001
ACAD
1000
DSTYLE
1002
{
1070
    40
1040
0.7
1070
   272
1070
     8
1002
}
  0
ARC
  5
36F6
330
1F
100
AcDbEntity
  8
0
370
    30
100
AcDbCircle
 10
276.7337620790046
 20
14.18613738700753
 30
0.0
 40
0.3600000000000023
100
AcDbArc
 50
270.0
 51
90.0
  0
LINE
  5
36F7
330
1F
100
AcDbEntity
  8
實体
370
    30
100
AcDbLine
 10
277.4537620790046
 20
16.61610935503245
 30
0.0
 11
276.7339361978383
 21
16.60434754529319
 31
0.0
  0
LINE
  5
36F8
330
1F
100
AcDbEntity
  8
實体
370
    30
100
AcDbLine
 10
277.4537669196626
 20
11.75616541898745
 30
0.0
 11
276.7339410150674
 21
11.76792579478783
 31
0.0
  0
LINE
  5
36F9
330
1F
100
AcDbEntity
  8
實体
370
    30
100
AcDbLine
 10
277.4537620790046
 20
14.90613738700756
 30
0.0
 11
276.7338898025381
 21
14.90613738700756
 31
0.0
  0
LINE
  5
36FA
330
1F
100
AcDbEntity
  8
實体
370
    30
100
AcDbLine
 10
277.4537620790046
 20
13.46613738700751
 30
0.0
 11
276.7338898025381
 21
13.46613738700751
 31
0.0
  0
LINE
  5
36FB
330
1F
100
AcDbEntity
  8
實体
370
    30
100
AcDbLine
 10
277.4537620790046
 20
16.82613738700752
 30
0.0
 11
273.1337620790045
 21
16.75554945817282
 31
0.0
  0
LINE
  5
36FC
330
1F
100
AcDbEntity
  8
實体
370
    30
100
AcDbLine
 10
277.4537620790046
 20
11.54613738700755
 30
0.0
 11
273.1337620790045
 21
11.61672388145257
 31
0.0
  0
ARC
  5
36FD
330
1F
100
AcDbEntity
  8
0
370
    30
100
AcDbCircle
 10
280.9337620790045
 20
16.70613738700751
 30
0.0
 40
0.12
100
AcDbArc
 50
0.0
 51
90.0
  0
LINE
  5
36FE
330
1F
100
AcDbEntity
  8
0
370
    30
100
AcDbLine
 10
277.4537620790046
 20
11.54613738700755
 30
0.0
 11
277.4537620790046
 21
16.82613738700752
 31
0.0
  0
LINE
  5
36FF
330
1F
100
AcDbEntity
  8
0
370
    30
100
AcDbLine
 10
281.7137620790046
 20
16.06113738700753
 30
0.0
 11
281.0537620790045
 21
16.06113738700753
 31
0.0
  0
LINE
  5
3700
330
1F
100
AcDbEntity
  8
0
370
    30
100
AcDbLine
 10
281.5037620790046
 20
12.3111373870075
 30
0.0
 11
281.0537620790045
 21
12.31113738700753
 31
0.0
  0
LINE
  5
3701
330
1F
100
AcDbEntity
  8
0
370
    30
100
AcDbLine
 10
284.7737620790045
 20
12.20613738700751
 30
0.0
 11
284.7737620790045
 21
16.16613738700755
 31
0.0
  0
LINE
  5
3702
330
1F
100
AcDbEntity
  8
0
370
    30
100
AcDbLine
 10
283.5737620790045
 20
16.22613738700761
 30
0.0
 11
283.5737620790045
 21
12.14613738700751
 31
0.0
  0
LINE
  5
3703
330
1F
100
AcDbEntity
  8
0
370
    30
100
AcDbLine
 10
282.9737620790046
 20
16.06113738700753
 30
0.0
 11
282.7637620790046
 21
12.3111373870075
 31
0.0
  0
LINE
  5
3704
330
1F
100
AcDbEntity
  8
0
370
    30
100
AcDbLine
 10
282.5537620790045
 20
16.06113738700753
 30
0.0
 11
282.3437620790046
 21
12.3111373870075
 31
0.0
  0
LINE
  5
3705
330
1F
100
AcDbEntity
  8
0
370
    30
100
AcDbLine
 10
282.1337620790046
 20
16.06113738700753
 30
0.0
 11
281.9237620790046
 21
12.3111373870075
 31
0.0
  0
LINE
  5
3706
330
1F
100
AcDbEntity
  8
0
370
    30
100
AcDbLine
 10
281.7137620790046
 20
16.06113738700753
 30
0.0
 11
281.5037620790046
 21
12.3111373870075
 31
0.0
  0
LINE
  5
3707
330
1F
100
AcDbEntity
  8
0
370
    30
100
AcDbLine
 10
282.7637620790046
 20
16.57113738700752
 30
0.0
 11
282.5537620790045
 21
11.80113738700751
 31
0.0
  0
LINE
  5
3708
330
1F
100
AcDbEntity
  8
0
370
    30
100
AcDbLine
 10
282.3437620790046
 20
16.57113738700752
 30
0.0
 11
282.1337620790046
 21
11.80113738700751
 31
0.0
  0
LINE
  5
3709
330
1F
100
AcDbEntity
  8
0
370
    30
100
AcDbLine
 10
281.9237620790045
 20
16.57113738700752
 30
0.0
 11
281.7137620790046
 21
11.80113738700751
 31
0.0
  0
LINE
  5
370A
330
1F
100
AcDbEntity
  8
0
370
    30
100
AcDbLine
 10
284.7737620790045
 20
12.20613738700751
 30
0.0
 11
283.5737620790045
 21
12.14613738700748
 31
0.0
  0
LINE
  5
370B
330
1F
100
AcDbEntity
  8
0
370
    30
100
AcDbLine
 10
281.7137620790046
 20
11.80113738700751
 30
0.0
 11
281.5037620790046
 21
12.3111373870075
 31
0.0
  0
LINE
  5
370C
330
1F
100
AcDbEntity
  8
0
370
    30
100
AcDbLine
 10
282.7637620790046
 20
12.3111373870075
 30
0.0
 11
282.5537620790045
 21
11.80113738700751
 31
0.0
  0
LINE
  5
370D
330
1F
100
AcDbEntity
  8
0
370
    30
100
AcDbLine
 10
282.5537620790045
 20
11.80113738700751
 30
0.0
 11
282.3437620790046
 21
12.3111373870075
 31
0.0
  0
LINE
  5
370E
330
1F
100
AcDbEntity
  8
0
370
    30
100
AcDbLine
 10
282.3437620790046
 20
12.3111373870075
 30
0.0
 11
282.1337620790046
 21
11.80113738700751
 31
0.0
  0
LINE
  5
370F
330
1F
100
AcDbEntity
  8
0
370
    30
100
AcDbLine
 10
282.1337620790046
 20
11.80113738700751
 30
0.0
 11
281.9237620790046
 21
12.3111373870075
 31
0.0
  0
LINE
  5
3710
330
1F
100
AcDbEntity
  8
0
370
    30
100
AcDbLine
 10
281.9237620790046
 20
12.3111373870075
 30
0.0
 11
281.7137620790046
 21
11.80113738700751
 31
0.0
  0
LINE
  5
3711
330
1F
100
AcDbEntity
  8
0
370
    30
100
AcDbLine
 10
283.4913455854975
 20
12.3111373870075
 30
0.0
 11
282.7637620790046
 21
12.3111373870075
 31
0.0
  0
LINE
  5
3712
330
1F
100
AcDbEntity
  8
0
370
    30
100
AcDbLine
 10
283.5737620790045
 20
12.14613738700748
 30
0.0
 11
283.4913455854975
 21
12.3111373870075
 31
0.0
  0
LINE
  5
3713
330
1F
100
AcDbEntity
  8
0
370
    30
100
AcDbLine
 10
284.7737620790045
 20
16.16613738700755
 30
0.0
 11
283.5737620790045
 21
16.22613738700761
 31
0.0
  0
LINE
  5
3714
330
1F
100
AcDbEntity
  8
0
370
    30
100
AcDbLine
 10
282.7637620790046
 20
16.57113738700752
 30
0.0
 11
282.5537620790045
 21
16.06113738700753
 31
0.0
  0
LINE
  5
3715
330
1F
100
AcDbEntity
  8
0
370
    30
100
AcDbLine
 10
283.4913455854975
 20
16.06113738700753
 30
0.0
 11
282.9737620790046
 21
16.06113738700753
 31
0.0
  0
LINE
  5
3716
330
1F
100
AcDbEntity
  8
0
370
    30
100
AcDbLine
 10
283.5737620790045
 20
16.22613738700761
 30
0.0
 11
283.4913455854975
 21
16.06113738700753
 31
0.0
  0
LINE
  5
3717
330
1F
100
AcDbEntity
  8
0
370
    30
100
AcDbLine
 10
282.9737620790046
 20
16.06113738700753
 30
0.0
 11
282.7637620790046
 21
16.57113738700752
 31
0.0
  0
LINE
  5
3718
330
1F
100
AcDbEntity
  8
0
370
    30
100
AcDbLine
 10
282.5537620790045
 20
16.06113738700753
 30
0.0
 11
282.3437620790046
 21
16.57113738700752
 31
0.0
  0
LINE
  5
3719
330
1F
100
AcDbEntity
  8
0
370
    30
100
AcDbLine
 10
282.3437620790046
 20
16.57113738700752
 30
0.0
 11
282.1337620790046
 21
16.06113738700753
 31
0.0
  0
LINE
  5
371A
330
1F
100
AcDbEntity
  8
0
370
    30
100
AcDbLine
 10
282.1337620790046
 20
16.06113738700753
 30
0.0
 11
281.9237620790045
 21
16.57113738700752
 31
0.0
  0
LINE
  5
371B
330
1F
100
AcDbEntity
  8
0
370
    30
100
AcDbLine
 10
281.9237620790045
 20
16.57113738700752
 30
0.0
 11
281.7137620790046
 21
16.06113738700753
 31
0.0
  0
LINE
  5
371C
330
1F
100
AcDbEntity
  8
0
370
    30
100
AcDbLine
 10
281.0537620790045
 20
11.66613738700752
 30
0.0
 11
281.0537620790045
 21
16.70613738700751
 31
0.0
  0
LINE
  5
371D
330
1F
100
AcDbEntity
  8
0
370
    30
100
AcDbLine
 10
277.4537620790046
 20
11.54613738700755
 30
0.0
 11
280.9337620790045
 21
11.54613738700755
 31
0.0
  0
ARC
  5
371E
330
1F
100
AcDbEntity
  8
0
370
    30
100
AcDbCircle
 10
280.9337620790045
 20
11.66613738700752
 30
0.0
 40
0.12
100
AcDbArc
 50
270.0
 51
0.0
  0
LINE
  5
371F
330
1F
100
AcDbEntity
  8
0
370
    30
100
AcDbLine
 10
280.9337620790045
 20
16.82613738700752
 30
0.0
 11
277.4537620790046
 21
16.82613738700752
 31
0.0
  0
LINE
  5
3720
330
1F
100
AcDbEntity
  8
0
370
    30
100
AcDbLine
 10
276.7338898025381
 20
14.90613738700756
 30
0.0
 11
276.7339434392061
 21
16.81471169431233
 31
0.0
  0
LINE
  5
3721
330
1F
100
AcDbEntity
  8
0
370
    30
100
AcDbLine
 10
276.0137620790045
 20
14.90613738700756
 30
0.0
 11
276.0137620790045
 21
16.80328024415041
 31
0.0
  0
LINE
  5
3722
330
1F
100
AcDbEntity
  8
0
370
    30
100
AcDbLine
 10
275.2937620790045
 20
14.90613738700756
 30
0.0
 11
275.2937620790045
 21
16.7918516727218
 31
0.0
  0
LINE
  5
3723
330
1F
100
AcDbEntity
  8
0
370
    30
100
AcDbLine
 10
274.5737620790046
 20
14.90613738700756
 30
0.0
 11
274.5737620790045
 21
16.78042310129319
 31
0.0
  0
LINE
  5
3724
330
1F
100
AcDbEntity
  8
0
370
    30
100
AcDbLine
 10
273.8537620790046
 20
11.60328024415042
 30
0.0
 11
273.8537620790046
 21
16.76899452986458
 31
0.0
  0
LINE
  5
3725
330
1F
100
AcDbEntity
  8
實体
370
    30
100
AcDbLine
 10
267.7937620790046
 20
16.51328024415034
 30
0.0
 11
266.1737620790046
 21
16.39756595843607
 31
0.0
  0
LINE
  5
3726
330
1F
100
AcDbEntity
  8
實体
370
    30
100
AcDbLine
 10
267.7937620790046
 20
11.8589945298647
 30
0.0
 11
266.1737620790046
 21
11.97470881557896
 31
0.0
  0
LINE
  5
3727
330
1F
100
AcDbEntity
  8
0
370
    30
100
AcDbLine
 10
272.41387148267
 20
16.74378659100091
 30
0.0
 11
270.4937620790046
 21
16.70613738700751
 31
0.0
  0
LINE
  5
3728
330
1F
100
AcDbEntity
  8
0
370
    30
100
AcDbLine
 10
272.4143834855099
 20
11.62847814374277
 30
0.0
 11
270.4937620790046
 21
11.66613738700755
 31
0.0
  0
LINE
  5
3729
330
1F
100
AcDbEntity
  8
0
370
    30
100
AcDbLine
 10
273.1337620790045
 20
11.61470881557898
 30
0.0
 11
273.1337620790045
 21
16.75756595843609
 31
0.0
  0
LINE
  5
372A
330
1F
100
AcDbEntity
  8
0
370
    30
100
AcDbLine
 10
272.4143834855099
 20
11.62847814374277
 30
0.0
 11
272.41387148267
 21
16.74378659100091
 31
0.0
  0
LINE
  5
372B
330
1F
100
AcDbEntity
  8
實体
370
    30
100
AcDbLine
 10
273.8537620790046
 20
13.46613738700751
 30
0.0
 11
274.5737620790046
 21
13.46613738700751
 31
0.0
  0
LINE
  5
372C
330
1F
100
AcDbEntity
  8
實体
370
    30
100
AcDbLine
 10
274.5737668259246
 20
11.803218301068
 30
0.0
 11
273.8537668024901
 21
11.81498152158815
 31
0.0
  0
LINE
  5
372D
330
1F
100
AcDbEntity
  8
0
370
    30
100
AcDbLine
 10
274.5737620790045
 20
13.46613738700751
 30
0.0
 11
274.5737620790045
 21
11.59319504997089
 31
0.0
  0
LINE
  5
372E
330
1F
100
AcDbEntity
  8
0
370
    30
100
AcDbLine
 10
275.2937620790045
 20
13.46613738700751
 30
0.0
 11
275.2937620790045
 21
11.58042310129326
 31
0.0
  0
LINE
  5
372F
330
1F
100
AcDbEntity
  8
0
370
    30
100
AcDbLine
 10
276.0137620790045
 20
13.46613738700751
 30
0.0
 11
276.0137620790045
 21
11.56899452986468
 31
0.0
  0
LINE
  5
3730
330
1F
100
AcDbEntity
  8
0
370
    30
100
AcDbLine
 10
276.7338898025381
 20
13.46613738700751
 30
0.0
 11
276.7339434297702
 21
11.55789883957365
 31
0.0
  0
LINE
  5
3731
330
1F
100
AcDbEntity
  8
實体
370
    30
100
AcDbLine
 10
276.0137668727937
 20
11.77969186002772
 30
0.0
 11
275.2937668493591
 21
11.79145508054787
 31
0.0
  0
LINE
  5
3732
330
1F
100
AcDbEntity
  8
實体
370
    30
100
AcDbLine
 10
276.0137620790045
 20
13.46613738700751
 30
0.0
 11
275.2937620790045
 21
13.46613738700751
 31
0.0
  0
LINE
  5
3733
330
1F
100
AcDbEntity
  8
實体
370
    30
100
AcDbLine
 10
273.1337667790556
 20
11.8267447421083
 30
0.0
 11
272.4173070590776
 21
11.83845012183826
 31
0.0
  0
LINE
  5
3734
330
1F
100
AcDbEntity
  8
實体
370
    30
100
AcDbLine
 10
274.5737620790045
 20
16.56905073580924
 30
0.0
 11
273.8537620790046
 21
16.55728608100355
 31
0.0
  0
LINE
  5
3735
330
1F
100
AcDbEntity
  8
實体
370
    30
100
AcDbLine
 10
273.8537620790046
 20
14.90613738700756
 30
0.0
 11
274.5737620790046
 21
14.90613738700756
 31
0.0
  0
ARC
  5
3736
330
1F
100
AcDbEntity
  8
0
370
    30
100
AcDbCircle
 10
274.5737620790046
 20
14.18613738700753
 30
0.0
 40
0.3600000000000023
100
AcDbArc
 50
90.0
 51
270.0
  0
LINE
  5
3737
330
1F
100
AcDbEntity
  8
實体
370
    30
100
AcDbLine
 10
276.0137620790045
 20
14.90613738700756
 30
0.0
 11
275.2937620790045
 21
14.90613738700756
 31
0.0
  0
LINE
  5
3738
330
1F
100
AcDbEntity
  8
0
370
    30
100
AcDbLine
 10
276.7337620790046
 20
14.54613738700755
 30
0.0
 11
274.5737620790046
 21
14.54613738700755
 31
0.0
  0
LINE
  5
3739
330
1F
100
AcDbEntity
  8
0
370
    30
100
AcDbLine
 10
276.7337620790046
 20
13.82613738700749
 30
0.0
 11
274.5737620790046
 21
13.82613738700749
 31
0.0
  0
LINE
  5
373A
330
1F
100
AcDbEntity
  8
實体
370
    30
100
AcDbLine
 10
276.0137620790045
 20
16.59258004542084
 30
0.0
 11
275.2937620790045
 21
16.58081539061504
 31
0.0
  0
LINE
  5
373B
330
1F
100
AcDbEntity
  8
實体
370
    30
100
AcDbLine
 10
273.1337620790045
 20
16.54552142619775
 30
0.0
 11
272.417302382346
 21
16.53381461923459
 31
0.0
  0
LINE
  5
373C
330
1F
100
AcDbEntity
  8
0
370
    30
100
AcDbLine
 10
267.7937620790046
 20
11.8589945298647
 30
0.0
 11
267.7937620790046
 21
13.76613738700752
 31
0.0
  0
LINE
  5
373D
330
1F
100
AcDbEntity
  8
0
370
    30
100
AcDbLine
 10
270.4937620790046
 20
11.66613738700755
 30
0.0
 11
270.4937620790046
 21
13.76613738700752
 31
0.0
  0
LINE
  5
373E
330
1F
100
AcDbEntity
  8
0
370
    30
100
AcDbLine
 10
269.9537620790046
 20
11.70470881557901
 30
0.0
 11
269.9537620790046
 21
13.76613738700752
 31
0.0
  0
LINE
  5
373F
330
1F
100
AcDbEntity
  8
0
370
    30
100
AcDbLine
 10
268.3337620790047
 20
11.82042310129327
 30
0.0
 11
268.3337620790047
 21
13.76613738700752
 31
0.0
  0
LINE
  5
3740
330
1F
100
AcDbEntity
  8
0
370
    30
100
AcDbLine
 10
269.4137620790046
 20
11.74328024415044
 30
0.0
 11
269.4137620790046
 21
16.6289945298646
 31
0.0
  0
LINE
  5
3741
330
1F
100
AcDbEntity
  8
0
370
    30
100
AcDbLine
 10
268.8737620790047
 20
11.78185167272184
 30
0.0
 11
268.8737620790047
 21
16.59042310129314
 31
0.0
  0
LINE
  5
3742
330
1F
100
AcDbEntity
  8
實体
370
    30
100
AcDbLine
 10
269.9537620790046
 20
11.70470881557901
 30
0.0
 11
268.3337620790046
 21
11.82042310129327
 31
0.0
  0
LINE
  5
3743
330
1F
100
AcDbEntity
  8
實体
370
    30
100
AcDbLine
 10
269.9537620790046
 20
16.66756595843606
 30
0.0
 11
268.3337620790046
 21
16.55185167272179
 31
0.0
  0
LINE
  5
3744
330
1F
100
AcDbEntity
  8
0
370
    30
100
AcDbLine
 10
270.4937620790046
 20
14.60613738700749
 30
0.0
 11
270.4937620790046
 21
16.70613738700751
 31
0.0
  0
LINE
  5
3745
330
1F
100
AcDbEntity
  8
0
370
    30
100
AcDbLine
 10
269.9537620790046
 20
14.60613738700749
 30
0.0
 11
269.9537620790046
 21
16.66756595843606
 31
0.0
  0
LINE
  5
3746
330
1F
100
AcDbEntity
  8
0
370
    30
100
AcDbLine
 10
270.4937620790046
 20
14.60613738700749
 30
0.0
 11
269.9537620790046
 21
14.60613738700749
 31
0.0
  0
LINE
  5
3747
330
1F
100
AcDbEntity
  8
0
370
    30
100
AcDbLine
 10
270.4937620790046
 20
13.76613738700752
 30
0.0
 11
269.9537620790046
 21
13.76613738700752
 31
0.0
  0
LINE
  5
3748
330
1F
100
AcDbEntity
  8
0
370
    30
100
AcDbLine
 10
267.7937620790046
 20
14.60613738700749
 30
0.0
 11
267.7937620790046
 21
16.51328024415034
 31
0.0
  0
LINE
  5
3749
330
1F
100
AcDbEntity
  8
0
370
    30
100
AcDbLine
 10
268.3337620790047
 20
14.60613738700749
 30
0.0
 11
268.3337620790047
 21
16.55185167272179
 31
0.0
  0
LINE
  5
374A
330
1F
100
AcDbEntity
  8
0
370
    30
100
AcDbLine
 10
268.3337620790047
 20
14.60613738700749
 30
0.0
 11
267.7937620790046
 21
14.60613738700749
 31
0.0
  0
LINE
  5
374B
330
1F
100
AcDbEntity
  8
0
370
    30
100
AcDbLine
 10
268.3337620790047
 20
13.76613738700752
 30
0.0
 11
267.7937620790046
 21
13.76613738700752
 31
0.0
  0
LINE
  5
374C
330
1F
100
AcDbEntity
  8
0
370
    30
100
AcDbLine
 10
266.1737620790046
 20
11.97470881557896
 30
0.0
 11
266.1737620790046
 21
13.76613738700752
 31
0.0
  0
LINE
  5
374D
330
1F
100
AcDbEntity
  8
0
370
    30
100
AcDbLine
 10
265.6337620790047
 20
12.01328024415039
 30
0.0
 11
265.6337620790047
 21
13.76613738700752
 31
0.0
  0
LINE
  5
374E
330
1F
100
AcDbEntity
  8
0
370
    30
100
AcDbLine
 10
263.7737620790046
 20
12.14616651546356
 30
0.0
 11
263.7737620790046
 21
16.22613738700749
 31
0.0
  0
LINE
  5
374F
330
1F
100
AcDbEntity
  8
0
370
    30
100
AcDbLine
 10
267.2537620790046
 20
11.8975659584361
 30
0.0
 11
267.2537620790046
 21
16.47470881557888
 31
0.0
  0
LINE
  5
3750
330
1F
100
AcDbEntity
  8
0
370
    30
100
AcDbLine
 10
266.7137620790046
 20
11.93613738700753
 30
0.0
 11
266.7137620790046
 21
16.43613738700753
 31
0.0
  0
LINE
  5
3751
330
1F
100
AcDbEntity
  8
0
370
    30
100
AcDbLine
 10
265.0937620790047
 20
12.05185167272179
 30
0.0
 11
265.0937620790047
 21
16.32042310129327
 31
0.0
  0
LINE
  5
3752
330
1F
100
AcDbEntity
  8
0
370
    30
100
AcDbLine
 10
264.5537620790047
 20
12.09042310129325
 30
0.0
 11
264.5537620790046
 21
16.28185167272181
 31
0.0
  0
LINE
  5
3753
330
1F
100
AcDbEntity
  8
實体
370
    30
100
AcDbLine
 10
265.6337620790047
 20
12.01328024415036
 30
0.0
 11
263.7737620790046
 21
12.14613738700751
 31
0.0
  0
LINE
  5
3754
330
1F
100
AcDbEntity
  8
實体
370
    30
100
AcDbLine
 10
265.6337620790047
 20
16.35899452986473
 30
0.0
 11
263.7737620790046
 21
16.22613738700749
 31
0.0
  0
LINE
  5
3755
330
1F
100
AcDbEntity
  8
0
370
    30
100
AcDbLine
 10
266.1737620790046
 20
14.60613738700749
 30
0.0
 11
266.1737620790046
 21
16.39756595843607
 31
0.0
  0
LINE
  5
3756
330
1F
100
AcDbEntity
  8
0
370
    30
100
AcDbLine
 10
265.6337620790047
 20
14.60613738700749
 30
0.0
 11
265.6337620790047
 21
16.35899452986473
 31
0.0
  0
LINE
  5
3757
330
1F
100
AcDbEntity
  8
0
370
    30
100
AcDbLine
 10
266.1737620790046
 20
14.60613738700749
 30
0.0
 11
265.6337620790047
 21
14.60613738700749
 31
0.0
  0
LINE
  5
3758
330
1F
100
AcDbEntity
  8
0
370
    30
100
AcDbLine
 10
266.1737620790046
 20
13.76613738700752
 30
0.0
 11
265.6337620790047
 21
13.76613738700752
 31
0.0
  0
LINE
  5
3759
330
1F
100
AcDbEntity
  8
0
370
    30
100
AcDbLine
 10
270.4937620790046
 20
15.08615195123559
 30
0.0
 11
269.9537620790046
 21
15.08615195123559
 31
0.0
  0
LINE
  5
375A
330
1F
100
AcDbEntity
  8
0
370
    30
100
AcDbLine
 10
270.4937620790046
 20
13.28615195123552
 30
0.0
 11
269.9537620790046
 21
13.28615195123552
 31
0.0
  0
LINE
  5
375B
330
1F
100
AcDbEntity
  8
0
370
    30
100
AcDbLine
 10
265.0937620790047
 20
13.28615195123552
 30
0.0
 11
264.5537620790047
 21
13.28615195123552
 31
0.0
  0
LINE
  5
375C
330
1F
100
AcDbEntity
  8
0
370
    30
100
AcDbLine
 10
265.0937620790047
 20
15.08615195123559
 30
0.0
 11
264.5537620790047
 21
15.08615195123559
 31
0.0
  0
LINE
  5
375D
330
1F
100
AcDbEntity
  8
0
370
    30
100
AcDbLine
 10
266.1737620790046
 20
13.28615195123552
 30
0.0
 11
265.6337620790047
 21
13.28615195123552
 31
0.0
  0
LINE
  5
375E
330
1F
100
AcDbEntity
  8
0
370
    30
100
AcDbLine
 10
266.1737620790046
 20
15.08615195123559
 30
0.0
 11
265.6337620790047
 21
15.08615195123559
 31
0.0
  0
LINE
  5
375F
330
1F
100
AcDbEntity
  8
0
370
    30
100
AcDbLine
 10
267.2537620790047
 20
13.28615195123552
 30
0.0
 11
266.7137620790046
 21
13.28615195123552
 31
0.0
  0
LINE
  5
3760
330
1F
100
AcDbEntity
  8
0
370
    30
100
AcDbLine
 10
267.2537620790046
 20
15.08615195123559
 30
0.0
 11
266.7137620790046
 21
15.08615195123559
 31
0.0
  0
LINE
  5
3761
330
1F
100
AcDbEntity
  8
0
370
    30
100
AcDbLine
 10
268.3337620790047
 20
13.28615195123552
 30
0.0
 11
267.7937620790046
 21
13.28615195123555
 31
0.0
  0
LINE
  5
3762
330
1F
100
AcDbEntity
  8
0
370
    30
100
AcDbLine
 10
268.3337620790047
 20
15.08615195123559
 30
0.0
 11
267.7937620790046
 21
15.08615195123559
 31
0.0
  0
LINE
  5
3763
330
1F
100
AcDbEntity
  8
0
370
    30
100
AcDbLine
 10
269.4137620790046
 20
13.28615195123552
 30
0.0
 11
268.8737620790047
 21
13.28615195123555
 31
0.0
  0
LINE
  5
3764
330
1F
100
AcDbEntity
  8
0
370
    30
100
AcDbLine
 10
269.4137620790046
 20
15.08615195123559
 30
0.0
 11
268.8737620790047
 21
15.08615195123559
 31
0.0
  0
ARC
  5
3765
330
1F
100
AcDbEntity
  8
0
100
AcDbCircle
 10
262.2632986545854
 20
14.83613738700103
 30
0.0
 40
1.299999999986999
100
AcDbArc
 50
149.9999999999991
 51
210.0000000000009
  0
ARC
  5
3766
330
1F
100
AcDbEntity
  8
0
100
AcDbCircle
 10
260.0116326047683
 20
13.53613738701404
 30
0.0
 40
1.299999999986999
100
AcDbArc
 50
329.9999999999991
 51
30.0000000000009
  0
LINE
  5
3767
330
1F
100
AcDbEntity
  8
0
100
AcDbLine
 10
284.7737620790045
 20
12.88613738702054
 30
0.0
 11
284.7737620790045
 21
15.48613738699447
 31
0.0
  0
LINE
  5
3768
330
1F
100
AcDbEntity
  8
0
100
AcDbLine
 10
261.137465629677
 20
15.48613738699453
 30
0.0
 11
263.7737620790048
 21
15.48613738699458
 31
0.0
  0
LINE
  5
3769
330
1F
100
AcDbEntity
  8
0
100
AcDbLine
 10
261.137465629677
 20
12.88613738702051
 30
0.0
 11
263.7737620790046
 21
12.88613738702051
 31
0.0
  0
ARC
  5
376A
330
1F
100
AcDbEntity
  8
0
100
AcDbCircle
 10
259.1774256471034
 20
13.53613738701398
 30
0.0
 40
1.299999999986999
100
AcDbArc
 50
329.9999999999991
 51
30.0000000000009
  0
ARC
  5
376B
330
1F
100
AcDbEntity
  8
0
100
AcDbCircle
 10
261.4290916969204
 20
14.83613738700097
 30
0.0
 40
1.299999999986999
100
AcDbArc
 50
149.9999999999991
 51
210.0000000000009
  0
ARC
  5
376C
330
1F
100
AcDbEntity
  8
0
100
AcDbCircle
 10
261.4290916969205
 20
-2.402725546563544
 30
0.0
 40
1.299999999986999
100
AcDbArc
 50
149.9999999999991
 51
210.0000000000009
  0
ARC
  5
376D
330
1F
100
AcDbEntity
  8
0
100
AcDbCircle
 10
259.1774256471034
 20
-3.702725546550539
 30
0.0
 40
1.299999999986999
100
AcDbArc
 50
329.9999999999991
 51
30.0000000000009
  0
LINE
  5
376E
330
1F
100
AcDbEntity
  8
0
100
AcDbLine
 10
250.7882141618768
 20
12.88613738702048
 30
0.0
 11
260.3032586720111
 21
12.88613738702048
 31
0.0
  0
LINE
  5
376F
330
1F
100
AcDbEntity
  8
0
100
AcDbLine
 10
250.7882141618768
 20
15.48613738699447
 30
0.0
 11
260.3032586720118
 21
15.48613738699447
 31
0.0
  0
LINE
  5
3770
330
1F
100
AcDbEntity
  8
0
100
AcDbLine
 10
250.7882141618769
 20
-1.752725546570047
 30
0.0
 11
260.3032586720125
 21
-1.752725546570047
 31
0.0
  0
LINE
  5
3771
330
1F
100
AcDbEntity
  8
0
100
AcDbLine
 10
250.7882141618769
 20
-4.352725546544036
 30
0.0
 11
260.3032586720114
 21
-4.352725546544036
 31
0.0
  0
LINE
  5
3772
330
1F
100
AcDbEntity
  8
0
100
AcDbLine
 10
261.1374656296769
 20
-4.352725546544036
 30
0.0
 11
263.7737620790046
 21
-4.352725546544036
 31
0.0
  0
LINE
  5
3773
330
1F
100
AcDbEntity
  8
0
100
AcDbLine
 10
261.1374656296769
 20
-1.752725546570019
 30
0.0
 11
263.7737620790046
 21
-1.752725546569962
 31
0.0
  0
LINE
  5
3774
330
1F
100
AcDbEntity
  8
0
100
AcDbLine
 10
284.7737620790045
 20
-4.352725546544007
 30
0.0
 11
284.7737620790045
 21
-1.752725546570076
 31
0.0
  0
ARC
  5
3775
330
1F
100
AcDbEntity
  8
0
100
AcDbCircle
 10
260.0116326047683
 20
-3.70272554655051
 30
0.0
 40
1.299999999986999
100
AcDbArc
 50
329.9999999999991
 51
30.0000000000009
  0
ARC
  5
3776
330
1F
100
AcDbEntity
  8
0
100
AcDbCircle
 10
262.2632986545854
 20
-2.402725546563516
 30
0.0
 40
1.299999999986999
100
AcDbArc
 50
149.9999999999991
 51
210.0000000000009
  0
LINE
  5
3777
330
1F
100
AcDbEntity
  8
0
370
    30
100
AcDbLine
 10
269.4137620790045
 20
-2.152710982328983
 30
0.0
 11
268.8737620790046
 21
-2.152710982328983
 31
0.0
  0
LINE
  5
3778
330
1F
100
AcDbEntity
  8
0
370
    30
100
AcDbLine
 10
269.4137620790045
 20
-3.952710982329023
 30
0.0
 11
268.8737620790046
 21
-3.952710982328994
 31
0.0
  0
LINE
  5
3779
330
1F
100
AcDbEntity
  8
0
370
    30
100
AcDbLine
 10
268.3337620790046
 20
-2.152710982328983
 30
0.0
 11
267.7937620790045
 21
-2.152710982328983
 31
0.0
  0
LINE
  5
377A
330
1F
100
AcDbEntity
  8
0
370
    30
100
AcDbLine
 10
268.3337620790046
 20
-3.952710982329023
 30
0.0
 11
267.7937620790045
 21
-3.952710982328994
 31
0.0
  0
LINE
  5
377B
330
1F
100
AcDbEntity
  8
0
370
    30
100
AcDbLine
 10
267.2537620790046
 20
-2.152710982328983
 30
0.0
 11
266.7137620790046
 21
-2.152710982328983
 31
0.0
  0
LINE
  5
377C
330
1F
100
AcDbEntity
  8
0
370
    30
100
AcDbLine
 10
267.2537620790046
 20
-3.952710982329023
 30
0.0
 11
266.7137620790046
 21
-3.952710982329023
 31
0.0
  0
LINE
  5
377D
330
1F
100
AcDbEntity
  8
0
370
    30
100
AcDbLine
 10
266.1737620790046
 20
-2.152710982328983
 30
0.0
 11
265.6337620790046
 21
-2.152710982328983
 31
0.0
  0
LINE
  5
377E
330
1F
100
AcDbEntity
  8
0
370
    30
100
AcDbLine
 10
266.1737620790046
 20
-3.952710982329023
 30
0.0
 11
265.6337620790046
 21
-3.952710982329023
 31
0.0
  0
LINE
  5
377F
330
1F
100
AcDbEntity
  8
0
370
    30
100
AcDbLine
 10
265.0937620790046
 20
-2.152710982328983
 30
0.0
 11
264.5537620790046
 21
-2.152710982328983
 31
0.0
  0
LINE
  5
3780
330
1F
100
AcDbEntity
  8
0
370
    30
100
AcDbLine
 10
265.0937620790046
 20
-3.952710982329023
 30
0.0
 11
264.5537620790046
 21
-3.952710982329023
 31
0.0
  0
LINE
  5
3781
330
1F
100
AcDbEntity
  8
0
370
    30
100
AcDbLine
 10
270.4937620790044
 20
-3.952710982329023
 30
0.0
 11
269.9537620790045
 21
-3.952710982329023
 31
0.0
  0
LINE
  5
3782
330
1F
100
AcDbEntity
  8
0
370
    30
100
AcDbLine
 10
270.4937620790046
 20
-2.152710982328983
 30
0.0
 11
269.9537620790045
 21
-2.152710982328983
 31
0.0
  0
LINE
  5
3783
330
1F
100
AcDbEntity
  8
0
370
    30
100
AcDbLine
 10
266.1737620790046
 20
-3.472725546557029
 30
0.0
 11
265.6337620790046
 21
-3.472725546557029
 31
0.0
  0
LINE
  5
3784
330
1F
100
AcDbEntity
  8
0
370
    30
100
AcDbLine
 10
266.1737620790046
 20
-2.632725546557082
 30
0.0
 11
265.6337620790046
 21
-2.632725546557082
 31
0.0
  0
LINE
  5
3785
330
1F
100
AcDbEntity
  8
0
370
    30
100
AcDbLine
 10
265.6337620790046
 20
-2.632725546557082
 30
0.0
 11
265.6337620790046
 21
-0.8798684036998452
 31
0.0
  0
LINE
  5
3786
330
1F
100
AcDbEntity
  8
0
370
    30
100
AcDbLine
 10
266.1737620790046
 20
-2.632725546557082
 30
0.0
 11
266.1737620790046
 21
-0.8412969751284435
 31
0.0
  0
LINE
  5
3787
330
1F
100
AcDbEntity
  8
實体
370
    30
100
AcDbLine
 10
265.6337620790046
 20
-0.8798684036998452
 30
0.0
 11
263.7737620790046
 21
-1.012725546557021
 31
0.0
  0
LINE
  5
3788
330
1F
100
AcDbEntity
  8
實体
370
    30
100
AcDbLine
 10
265.6337620790046
 20
-5.225582689414181
 30
0.0
 11
263.7737620790046
 21
-5.092725546557034
 31
0.0
  0
LINE
  5
3789
330
1F
100
AcDbEntity
  8
0
370
    30
100
AcDbLine
 10
264.5537620790046
 20
-5.148439832271293
 30
0.0
 11
264.5537620790045
 21
-0.9570112608427621
 31
0.0
  0
LINE
  5
378A
330
1F
100
AcDbEntity
  8
0
370
    30
100
AcDbLine
 10
265.0937620790046
 20
-5.187011260842751
 30
0.0
 11
265.0937620790046
 21
-0.9184398322713036
 31
0.0
  0
LINE
  5
378B
330
1F
100
AcDbEntity
  8
0
370
    30
100
AcDbLine
 10
266.7137620790046
 20
-5.302725546557013
 30
0.0
 11
266.7137620790046
 21
-0.8027255465570419
 31
0.0
  0
LINE
  5
378C
330
1F
100
AcDbEntity
  8
0
370
    30
100
AcDbLine
 10
267.2537620790046
 20
-5.341296975128443
 30
0.0
 11
267.2537620790046
 21
-0.7641541179856404
 31
0.0
  0
LINE
  5
378D
330
1F
100
AcDbEntity
  8
0
370
    30
100
AcDbLine
 10
263.7737620790046
 20
-5.092696418100985
 30
0.0
 11
263.7737620790046
 21
-1.012725546557021
 31
0.0
  0
LINE
  5
378E
330
1F
100
AcDbEntity
  8
0
370
    30
100
AcDbLine
 10
265.6337620790046
 20
-5.225582689414153
 30
0.0
 11
265.6337620790046
 21
-3.472725546557029
 31
0.0
  0
LINE
  5
378F
330
1F
100
AcDbEntity
  8
0
370
    30
100
AcDbLine
 10
266.1737620790046
 20
-5.264154117985583
 30
0.0
 11
266.1737620790046
 21
-3.472725546557029
 31
0.0
  0
LINE
  5
3790
330
1F
100
AcDbEntity
  8
0
370
    30
100
AcDbLine
 10
268.3337620790046
 20
-3.472725546557029
 30
0.0
 11
267.7937620790045
 21
-3.472725546557029
 31
0.0
  0
LINE
  5
3791
330
1F
100
AcDbEntity
  8
0
370
    30
100
AcDbLine
 10
268.3337620790046
 20
-2.632725546557082
 30
0.0
 11
267.7937620790045
 21
-2.632725546557082
 31
0.0
  0
LINE
  5
3792
330
1F
100
AcDbEntity
  8
0
370
    30
100
AcDbLine
 10
268.3337620790046
 20
-2.632725546557082
 30
0.0
 11
268.3337620790046
 21
-0.6870112608427803
 31
0.0
  0
LINE
  5
3793
330
1F
100
AcDbEntity
  8
0
370
    30
100
AcDbLine
 10
267.7937620790045
 20
-2.632725546557082
 30
0.0
 11
267.7937620790045
 21
-0.7255826894142388
 31
0.0
  0
LINE
  5
3794
330
1F
100
AcDbEntity
  8
0
370
    30
100
AcDbLine
 10
270.4937620790046
 20
-3.472725546557029
 30
0.0
 11
269.9537620790045
 21
-3.472725546557029
 31
0.0
  0
LINE
  5
3795
330
1F
100
AcDbEntity
  8
0
370
    30
100
AcDbLine
 10
270.4937620790046
 20
-2.632725546557082
 30
0.0
 11
269.9537620790045
 21
-2.632725546557082
 31
0.0
  0
LINE
  5
3796
330
1F
100
AcDbEntity
  8
0
370
    30
100
AcDbLine
 10
269.9537620790045
 20
-2.632725546557082
 30
0.0
 11
269.9537620790045
 21
-0.5712969751285187
 31
0.0
  0
LINE
  5
3797
330
1F
100
AcDbEntity
  8
0
370
    30
100
AcDbLine
 10
270.4937620790046
 20
-2.632725546557026
 30
0.0
 11
270.4937620790046
 21
-0.5327255465570602
 31
0.0
  0
LINE
  5
3798
330
1F
100
AcDbEntity
  8
實体
370
    30
100
AcDbLine
 10
269.9537620790045
 20
-0.5712969751285187
 30
0.0
 11
268.3337620790045
 21
-0.6870112608427803
 31
0.0
  0
LINE
  5
3799
330
1F
100
AcDbEntity
  8
實体
370
    30
100
AcDbLine
 10
269.9537620790045
 20
-5.534154117985536
 30
0.0
 11
268.3337620790045
 21
-5.418439832271275
 31
0.0
  0
LINE
  5
379A
330
1F
100
AcDbEntity
  8
0
370
    30
100
AcDbLine
 10
268.8737620790046
 20
-5.457011260842705
 30
0.0
 11
268.8737620790046
 21
-0.6484398322713787
 31
0.0
  0
LINE
  5
379B
330
1F
100
AcDbEntity
  8
0
370
    30
100
AcDbLine
 10
269.4137620790045
 20
-5.495582689414106
 30
0.0
 11
269.4137620790045
 21
-0.6098684036999203
 31
0.0
  0
LINE
  5
379C
330
1F
100
AcDbEntity
  8
0
370
    30
100
AcDbLine
 10
268.3337620790046
 20
-5.418439832271275
 30
0.0
 11
268.3337620790046
 21
-3.472725546557029
 31
0.0
  0
LINE
  5
379D
330
1F
100
AcDbEntity
  8
0
370
    30
100
AcDbLine
 10
269.9537620790045
 20
-5.534154117985536
 30
0.0
 11
269.9537620790045
 21
-3.472725546557029
 31
0.0
  0
LINE
  5
379E
330
1F
100
AcDbEntity
  8
0
370
    30
100
AcDbLine
 10
270.4937620790046
 20
-5.572725546556995
 30
0.0
 11
270.4937620790046
 21
-3.472725546557029
 31
0.0
  0
LINE
  5
379F
330
1F
100
AcDbEntity
  8
0
370
    30
100
AcDbLine
 10
267.7937620790045
 20
-5.379868403699845
 30
0.0
 11
267.7937620790045
 21
-3.472725546557029
 31
0.0
  0
LINE
  5
37A0
330
1F
100
AcDbEntity
  8
實体
370
    30
100
AcDbLine
 10
273.1337620790045
 20
-0.6933415073667675
 30
0.0
 11
272.4173023823458
 21
-0.7050483143299289
 31
0.0
  0
LINE
  5
37A1
330
1F
100
AcDbEntity
  8
實体
370
    30
100
AcDbLine
 10
276.0137620790045
 20
-0.6462828881436736
 30
0.0
 11
275.2937620790045
 21
-0.6580475429494755
 31
0.0
  0
LINE
  5
37A2
330
1F
100
AcDbEntity
  8
0
370
    30
100
AcDbLine
 10
276.7337620790045
 20
-3.412725546557055
 30
0.0
 11
274.5737620790045
 21
-3.412725546557055
 31
0.0
  0
LINE
  5
37A3
330
1F
100
AcDbEntity
  8
0
370
    30
100
AcDbLine
 10
276.7337620790045
 20
-2.692725546557028
 30
0.0
 11
274.5737620790045
 21
-2.692725546557028
 31
0.0
  0
LINE
  5
37A4
330
1F
100
AcDbEntity
  8
實体
370
    30
100
AcDbLine
 10
276.0137620790045
 20
-2.332725546557014
 30
0.0
 11
275.2937620790045
 21
-2.332725546557014
 31
0.0
  0
ARC
  5
37A5
330
1F
100
AcDbEntity
  8
0
370
    30
100
AcDbCircle
 10
274.5737620790045
 20
-3.052725546557041
 30
0.0
 40
0.3600000000000023
100
AcDbArc
 50
90.0
 51
270.0
  0
LINE
  5
37A6
330
1F
100
AcDbEntity
  8
實体
370
    30
100
AcDbLine
 10
273.8537620790045
 20
-2.332725546557014
 30
0.0
 11
274.5737620790045
 21
-2.332725546557014
 31
0.0
  0
LINE
  5
37A7
330
1F
100
AcDbEntity
  8
實体
370
    30
100
AcDbLine
 10
274.5737620790045
 20
-0.6698121977552774
 30
0.0
 11
273.8537620790045
 21
-0.6815768525610224
 31
0.0
  0
LINE
  5
37A8
330
1F
100
AcDbEntity
  8
實体
370
    30
100
AcDbLine
 10
273.1337667790555
 20
-5.412118191456244
 30
0.0
 11
272.4173070590776
 21
-5.400412811726283
 31
0.0
  0
LINE
  5
37A9
330
1F
100
AcDbEntity
  8
實体
370
    30
100
AcDbLine
 10
276.0137620790045
 20
-3.77272554655704
 30
0.0
 11
275.2937620790045
 21
-3.77272554655704
 31
0.0
  0
LINE
  5
37AA
330
1F
100
AcDbEntity
  8
實体
370
    30
100
AcDbLine
 10
276.0137668727935
 20
-5.459171073536822
 30
0.0
 11
275.293766849359
 21
-5.44740785301667
 31
0.0
  0
LINE
  5
37AB
330
1F
100
AcDbEntity
  8
0
370
    30
100
AcDbLine
 10
276.7338898025381
 20
-3.77272554655704
 30
0.0
 11
276.7339434297702
 21
-5.680964093990894
 31
0.0
  0
LINE
  5
37AC
330
1F
100
AcDbEntity
  8
0
370
    30
100
AcDbLine
 10
276.0137620790045
 20
-3.77272554655704
 30
0.0
 11
276.0137620790045
 21
-5.669868403699865
 31
0.0
  0
LINE
  5
37AD
330
1F
100
AcDbEntity
  8
0
370
    30
100
AcDbLine
 10
275.2937620790045
 20
-3.77272554655704
 30
0.0
 11
275.2937620790045
 21
-5.658439832271284
 31
0.0
  0
LINE
  5
37AE
330
1F
100
AcDbEntity
  8
0
370
    30
100
AcDbLine
 10
274.5737620790045
 20
-3.77272554655704
 30
0.0
 11
274.5737620790045
 21
-5.64566788359366
 31
0.0
  0
LINE
  5
37AF
330
1F
100
AcDbEntity
  8
實体
370
    30
100
AcDbLine
 10
274.5737668259245
 20
-5.435644632496547
 30
0.0
 11
273.85376680249
 21
-5.423881411976395
 31
0.0
  0
LINE
  5
37B0
330
1F
100
AcDbEntity
  8
實体
370
    30
100
AcDbLine
 10
273.8537620790045
 20
-3.77272554655704
 30
0.0
 11
274.5737620790045
 21
-3.77272554655704
 31
0.0
  0
LINE
  5
37B1
330
1F
100
AcDbEntity
  8
0
370
    30
100
AcDbLine
 10
272.4143834855098
 20
-5.610384789821779
 30
0.0
 11
272.4138714826698
 21
-0.4950763425636069
 31
0.0
  0
LINE
  5
37B2
330
1F
100
AcDbEntity
  8
0
370
    30
100
AcDbLine
 10
273.1337620790045
 20
-5.624154117985568
 30
0.0
 11
273.1337620790045
 21
-0.4833134753916966
 31
0.0
  0
LINE
  5
37B3
330
1F
100
AcDbEntity
  8
0
370
    30
100
AcDbLine
 10
272.4143834855098
 20
-5.610384789821779
 30
0.0
 11
270.4937620790046
 21
-5.572725546556995
 31
0.0
  0
LINE
  5
37B4
330
1F
100
AcDbEntity
  8
0
370
    30
100
AcDbLine
 10
272.4138714826698
 20
-0.4950763425636069
 30
0.0
 11
270.4937620790046
 21
-0.5327255465570602
 31
0.0
  0
LINE
  5
37B5
330
1F
100
AcDbEntity
  8
實体
370
    30
100
AcDbLine
 10
267.7937620790045
 20
-5.379868403699845
 30
0.0
 11
266.1737620790046
 21
-5.264154117985583
 31
0.0
  0
LINE
  5
37B6
330
1F
100
AcDbEntity
  8
實体
370
    30
100
AcDbLine
 10
267.7937620790045
 20
-0.7255826894142388
 30
0.0
 11
266.1737620790046
 21
-0.8412969751284435
 31
0.0
  0
LINE
  5
37B7
330
1F
100
AcDbEntity
  8
0
370
    30
100
AcDbLine
 10
273.8537620790045
 20
-5.635582689414121
 30
0.0
 11
273.8537620790045
 21
-0.4698684036999339
 31
0.0
  0
LINE
  5
37B8
330
1F
100
AcDbEntity
  8
0
370
    30
100
AcDbLine
 10
274.5737620790045
 20
-2.332725546557014
 30
0.0
 11
274.5737620790045
 21
-0.4584398322713242
 31
0.0
  0
LINE
  5
37B9
330
1F
100
AcDbEntity
  8
0
370
    30
100
AcDbLine
 10
275.2937620790045
 20
-2.332725546557014
 30
0.0
 11
275.2937620790045
 21
-0.4470112608427712
 31
0.0
  0
LINE
  5
37BA
330
1F
100
AcDbEntity
  8
0
370
    30
100
AcDbLine
 10
276.0137620790045
 20
-2.332725546557014
 30
0.0
 11
276.0137620790045
 21
-0.4355826894141615
 31
0.0
  0
LINE
  5
37BB
330
1F
100
AcDbEntity
  8
0
370
    30
100
AcDbLine
 10
276.7338898025381
 20
-2.332725546557014
 30
0.0
 11
276.733943439206
 21
-0.4241512392522396
 31
0.0
  0
LINE
  5
37BC
330
1F
100
AcDbEntity
  8
0
370
    30
100
AcDbLine
 10
280.9337620790044
 20
-0.4127255465570557
 30
0.0
 11
277.4537620790045
 21
-0.4127255465570557
 31
0.0
  0
ARC
  5
37BD
330
1F
100
AcDbEntity
  8
0
370
    30
100
AcDbCircle
 10
280.9337620790044
 20
-5.572725546557023
 30
0.0
 40
0.12
100
AcDbArc
 50
270.0
 51
0.0
  0
LINE
  5
37BE
330
1F
100
AcDbEntity
  8
0
370
    30
100
AcDbLine
 10
277.4537620790045
 20
-5.692725546556999
 30
0.0
 11
280.9337620790044
 21
-5.692725546556999
 31
0.0
  0
LINE
  5
37BF
330
1F
100
AcDbEntity
  8
0
370
    30
100
AcDbLine
 10
281.0537620790045
 20
-5.572725546557023
 30
0.0
 11
281.0537620790045
 21
-0.5327255465570602
 31
0.0
  0
LINE
  5
37C0
330
1F
100
AcDbEntity
  8
0
370
    30
100
AcDbLine
 10
281.9237620790044
 20
-0.6677255465569943
 30
0.0
 11
281.7137620790045
 21
-1.177725546557041
 31
0.0
  0
LINE
  5
37C1
330
1F
100
AcDbEntity
  8
0
370
    30
100
AcDbLine
 10
282.1337620790044
 20
-1.177725546557041
 30
0.0
 11
281.9237620790044
 21
-0.6677255465569943
 31
0.0
  0
LINE
  5
37C2
330
1F
100
AcDbEntity
  8
0
370
    30
100
AcDbLine
 10
282.3437620790045
 20
-0.6677255465569943
 30
0.0
 11
282.1337620790044
 21
-1.177725546557041
 31
0.0
  0
LINE
  5
37C3
330
1F
100
AcDbEntity
  8
0
370
    30
100
AcDbLine
 10
282.5537620790045
 20
-1.177725546557041
 30
0.0
 11
282.3437620790045
 21
-0.6677255465569943
 31
0.0
  0
LINE
  5
37C4
330
1F
100
AcDbEntity
  8
0
370
    30
100
AcDbLine
 10
282.9737620790045
 20
-1.177725546557041
 30
0.0
 11
282.7637620790046
 21
-0.6677255465569943
 31
0.0
  0
LINE
  5
37C5
330
1F
100
AcDbEntity
  8
0
370
    30
100
AcDbLine
 10
283.5737620790045
 20
-1.012725546556964
 30
0.0
 11
283.4913455854973
 21
-1.177725546557041
 31
0.0
  0
LINE
  5
37C6
330
1F
100
AcDbEntity
  8
0
370
    30
100
AcDbLine
 10
283.4913455854973
 20
-1.177725546557041
 30
0.0
 11
282.9737620790045
 21
-1.177725546557041
 31
0.0
  0
LINE
  5
37C7
330
1F
100
AcDbEntity
  8
0
370
    30
100
AcDbLine
 10
282.7637620790046
 20
-0.6677255465569943
 30
0.0
 11
282.5537620790045
 21
-1.177725546557041
 31
0.0
  0
LINE
  5
37C8
330
1F
100
AcDbEntity
  8
0
370
    30
100
AcDbLine
 10
284.7737620790045
 20
-1.072725546557023
 30
0.0
 11
283.5737620790045
 21
-1.012725546556964
 31
0.0
  0
LINE
  5
37C9
330
1F
100
AcDbEntity
  8
0
370
    30
100
AcDbLine
 10
283.5737620790045
 20
-5.092725546557062
 30
0.0
 11
283.4913455854973
 21
-4.927725546557041
 31
0.0
  0
LINE
  5
37CA
330
1F
100
AcDbEntity
  8
0
370
    30
100
AcDbLine
 10
283.4913455854973
 20
-4.927725546557041
 30
0.0
 11
282.7637620790046
 21
-4.927725546557041
 31
0.0
  0
LINE
  5
37CB
330
1F
100
AcDbEntity
  8
0
370
    30
100
AcDbLine
 10
281.9237620790045
 20
-4.927725546557041
 30
0.0
 11
281.7137620790045
 21
-5.437725546557032
 31
0.0
  0
LINE
  5
37CC
330
1F
100
AcDbEntity
  8
0
370
    30
100
AcDbLine
 10
282.1337620790044
 20
-5.437725546557032
 30
0.0
 11
281.9237620790045
 21
-4.927725546557041
 31
0.0
  0
LINE
  5
37CD
330
1F
100
AcDbEntity
  8
0
370
    30
100
AcDbLine
 10
282.3437620790045
 20
-4.927725546557041
 30
0.0
 11
282.1337620790044
 21
-5.437725546557032
 31
0.0
  0
LINE
  5
37CE
330
1F
100
AcDbEntity
  8
0
370
    30
100
AcDbLine
 10
282.5537620790045
 20
-5.437725546557032
 30
0.0
 11
282.3437620790045
 21
-4.927725546557041
 31
0.0
  0
LINE
  5
37CF
330
1F
100
AcDbEntity
  8
0
370
    30
100
AcDbLine
 10
282.7637620790046
 20
-4.927725546557041
 30
0.0
 11
282.5537620790045
 21
-5.437725546557032
 31
0.0
  0
LINE
  5
37D0
330
1F
100
AcDbEntity
  8
0
370
    30
100
AcDbLine
 10
281.7137620790045
 20
-5.437725546557032
 30
0.0
 11
281.5037620790046
 21
-4.927725546557041
 31
0.0
  0
LINE
  5
37D1
330
1F
100
AcDbEntity
  8
0
370
    30
100
AcDbLine
 10
284.7737620790045
 20
-5.032725546557031
 30
0.0
 11
283.5737620790045
 21
-5.092725546557062
 31
0.0
  0
LINE
  5
37D2
330
1F
100
AcDbEntity
  8
0
370
    30
100
AcDbLine
 10
281.9237620790044
 20
-0.6677255465569943
 30
0.0
 11
281.7137620790045
 21
-5.437725546557032
 31
0.0
  0
LINE
  5
37D3
330
1F
100
AcDbEntity
  8
0
370
    30
100
AcDbLine
 10
282.3437620790045
 20
-0.6677255465569943
 30
0.0
 11
282.1337620790044
 21
-5.437725546557032
 31
0.0
  0
LINE
  5
37D4
330
1F
100
AcDbEntity
  8
0
370
    30
100
AcDbLine
 10
282.7637620790046
 20
-0.6677255465569943
 30
0.0
 11
282.5537620790045
 21
-5.437725546557032
 31
0.0
  0
LINE
  5
37D5
330
1F
100
AcDbEntity
  8
0
370
    30
100
AcDbLine
 10
281.7137620790045
 20
-1.177725546557041
 30
0.0
 11
281.5037620790046
 21
-4.927725546557041
 31
0.0
  0
LINE
  5
37D6
330
1F
100
AcDbEntity
  8
0
370
    30
100
AcDbLine
 10
282.1337620790044
 20
-1.177725546557041
 30
0.0
 11
281.9237620790045
 21
-4.927725546557041
 31
0.0
  0
LINE
  5
37D7
330
1F
100
AcDbEntity
  8
0
370
    30
100
AcDbLine
 10
282.5537620790045
 20
-1.177725546557041
 30
0.0
 11
282.3437620790045
 21
-4.927725546557041
 31
0.0
  0
LINE
  5
37D8
330
1F
100
AcDbEntity
  8
0
370
    30
100
AcDbLine
 10
282.9737620790045
 20
-1.177725546557041
 30
0.0
 11
282.7637620790046
 21
-4.927725546557041
 31
0.0
  0
LINE
  5
37D9
330
1F
100
AcDbEntity
  8
0
370
    30
100
AcDbLine
 10
283.5737620790045
 20
-1.012725546556964
 30
0.0
 11
283.5737620790045
 21
-5.092725546557034
 31
0.0
  0
LINE
  5
37DA
330
1F
100
AcDbEntity
  8
0
370
    30
100
AcDbLine
 10
284.7737620790045
 20
-5.032725546557031
 30
0.0
 11
284.7737620790045
 21
-1.072725546557023
 31
0.0
  0
LINE
  5
37DB
330
1F
100
AcDbEntity
  8
0
370
    30
100
AcDbLine
 10
281.5037620790046
 20
-4.927725546557041
 30
0.0
 11
281.0537620790045
 21
-4.927725546557013
 31
0.0
  0
LINE
  5
37DC
330
1F
100
AcDbEntity
  8
0
370
    30
100
AcDbLine
 10
281.7137620790045
 20
-1.177725546557041
 30
0.0
 11
281.0537620790045
 21
-1.177725546557041
 31
0.0
  0
LINE
  5
37DD
330
1F
100
AcDbEntity
  8
0
370
    30
100
AcDbLine
 10
277.4537620790045
 20
-5.692725546556999
 30
0.0
 11
277.4537620790045
 21
-0.4127255465570557
 31
0.0
  0
ARC
  5
37DE
330
1F
100
AcDbEntity
  8
0
370
    30
100
AcDbCircle
 10
280.9337620790044
 20
-0.5327255465570602
 30
0.0
 40
0.12
100
AcDbArc
 50
0.0
 51
90.0
  0
LINE
  5
37DF
330
1F
100
AcDbEntity
  8
實体
370
    30
100
AcDbLine
 10
277.4537620790045
 20
-5.692725546556999
 30
0.0
 11
273.1337620790045
 21
-5.622139052111975
 31
0.0
  0
LINE
  5
37E0
330
1F
100
AcDbEntity
  8
實体
370
    30
100
AcDbLine
 10
277.4537620790045
 20
-0.4127255465570557
 30
0.0
 11
273.1337620790045
 21
-0.4833134753916966
 31
0.0
  0
LINE
  5
37E1
330
1F
100
AcDbEntity
  8
實体
370
    30
100
AcDbLine
 10
277.4537620790045
 20
-3.77272554655704
 30
0.0
 11
276.7338898025381
 21
-3.77272554655704
 31
0.0
  0
LINE
  5
37E2
330
1F
100
AcDbEntity
  8
實体
370
    30
100
AcDbLine
 10
277.4537620790045
 20
-2.332725546557014
 30
0.0
 11
276.7338898025381
 21
-2.332725546557014
 31
0.0
  0
LINE
  5
37E3
330
1F
100
AcDbEntity
  8
實体
370
    30
100
AcDbLine
 10
277.4537669196626
 20
-5.482697514577097
 30
0.0
 11
276.7339410150674
 21
-5.470937138776719
 31
0.0
  0
LINE
  5
37E4
330
1F
100
AcDbEntity
  8
實体
370
    30
100
AcDbLine
 10
277.4537620790045
 20
-0.6227535785321266
 30
0.0
 11
276.7339361978383
 21
-0.6345153882713248
 31
0.0
  0
ARC
  5
37E5
330
1F
100
AcDbEntity
  8
0
370
    30
100
AcDbCircle
 10
276.7337620790045
 20
-3.052725546557041
 30
0.0
 40
0.3600000000000023
100
AcDbArc
 50
270.0
 51
90.0
  0
DIMENSION
  5
37E6
330
1F
100
AcDbEntity
  8
AM_5
100
AcDbDimension
  2
*D20
 10
284.7737620790045
 20
7.186137387007562
 30
0.0
 11
267.7809881204407
 21
7.186137387007562
 31
0.0
 70
   160
  1
165
 71
     5
 42
33.98554791712775
  3
AM_ISO$0
100
AcDbAlignedDimension
 13
250.7882141618768
 23
12.18613738700756
 33
0.0
 14
284.7737620790045
 24
12.20613738700751
 34
0.0
100
AcDbRotatedDimension
1001
ACAD
1000
DSTYLE
1002
{
1070
    40
1040
0.7
1070
   272
1070
     8
1002
}
  0
DIMENSION
  5
37E7
330
1F
100
AcDbEntity
  8
AM_5
100
AcDbDimension
  2
*D21
 10
217.5292850575537
 20
4.447274453443242
 30
0.0
 11
216.1292850575537
 21
4.447274453443242
 31
0.0
 70
   160
 71
     5
 42
2.799999999999954
  3
AM_ISO$0
100
AcDbAlignedDimension
 13
214.7292850575537
 23
-0.5527255465567578
 33
0.0
 14
217.5292850575537
 24
-0.5527255465567578
 34
0.0
100
AcDbRotatedDimension
1001
ACAD
1000
DSTYLE
1002
{
1070
    40
1040
0.7
1070
   272
1070
     8
1002
}
  0
DIMENSION
  5
37E9
330
1F
100
AcDbEntity
  8
AM_5
100
AcDbDimension
  2
*D22
 10
250.7882141618769
 20
7.186137387007562
 30
0.0
 11
238.0382141618769
 21
9.111378528739844
 31
0.0
 70
    32
 71
     5
 42
25.5
  3
AM_ISO$0
100
AcDbAlignedDimension
 13
225.2882141618769
 23
12.18613738700756
 33
0.0
 14
250.7882141618769
 24
12.18613738700756
 34
0.0
100
AcDbRotatedDimension
1001
ACAD
1000
DSTYLE
1002
{
1070
    40
1040
0.7
1070
   272
1070
     8
1002
}
  0
LINE
  5
37EA
330
1F
100
AcDbEntity
  8
0
  6
Continuous
 62
     7
100
AcDbLine
 10
250.7882141618769
 20
12.18613738700756
 30
0.0
 11
250.7882141618769
 21
16.18613738700753
 31
0.0
  0
LINE
  5
37EB
330
1F
100
AcDbEntity
  8
0
 62
     7
100
AcDbLine
 10
250.7882141618769
 20
-5.052725546557041
 30
0.0
 11
250.7882141618769
 21
-0.5527255465568715
 31
0.0
  0
ARC
  5
37EC
330
1F
100
AcDbEntity
  8
0
  6
Continuous
 62
     7
100
AcDbCircle
 10
239.6882141618768
 20
13.9861373870076
 30
0.0
 40
0.5
100
AcDbArc
 50
270.0
 51
0.0
  0
LINE
  5
37ED
330
1F
100
AcDbEntity
  8
0
  6
Continuous
 62
     7
100
AcDbLine
 10
240.1882141618768
 20
13.9861373870076
 30
0.0
 11
240.1882141618768
 21
14.38613738700758
 31
0.0
  0
ARC
  5
37EE
330
1F
100
AcDbEntity
  8
0
  6
Continuous
 62
     7
100
AcDbCircle
 10
239.6882141618768
 20
14.38613738700758
 30
0.0
 40
0.5
100
AcDbArc
 50
0.0
 51
90.0
  0
LINE
  5
37EF
330
1F
100
AcDbEntity
  8
0
  6
Continuous
 62
     7
100
AcDbLine
 10
237.3882141618768
 20
13.9861373870076
 30
0.0
 11
237.3882141618768
 21
14.38613738700758
 31
0.0
  0
ARC
  5
37F0
330
1F
100
AcDbEntity
  8
0
  6
Continuous
 62
     7
100
AcDbCircle
 10
237.8882141618768
 20
13.9861373870076
 30
0.0
 40
0.5
100
AcDbArc
 50
180.0
 51
270.0
  0
ARC
  5
37F1
330
1F
100
AcDbEntity
  8
0
  6
Continuous
 62
     7
100
AcDbCircle
 10
237.8882141618768
 20
14.38613738700758
 30
0.0
 40
0.5
100
AcDbArc
 50
90.0
 51
180.0
  0
LINE
  5
37F2
330
1F
100
AcDbEntity
  8
0
  6
Continuous
 62
     7
100
AcDbLine
 10
229.2882141618769
 20
12.78613738700758
 30
0.0
 11
229.2882141618769
 21
15.58613738700762
 31
0.0
  0
LINE
  5
37F3
330
1F
100
AcDbEntity
  8
0
  6
Continuous
 62
     7
100
AcDbLine
 10
237.8882141618768
 20
14.88613738700758
 30
0.0
 11
239.6882141618768
 21
14.88613738700758
 31
0.0
  0
LINE
  5
37F4
330
1F
100
AcDbEntity
  8
0
  6
Continuous
 62
     7
100
AcDbLine
 10
237.8882141618768
 20
13.48613738700757
 30
0.0
 11
239.6882141618768
 21
13.48613738700757
 31
0.0
  0
LINE
  5
37F5
330
1F
100
AcDbEntity
  8
0
  6
Continuous
 62
     7
100
AcDbLine
 10
225.2882141618769
 20
12.18613738700756
 30
0.0
 11
225.2882141618769
 21
16.18613738700753
 31
0.0
  0
LINE
  5
37F6
330
1F
100
AcDbEntity
  8
0
  6
Continuous
 62
     7
100
AcDbLine
 10
228.3310162609579
 20
14.8753860954954
 30
0.0
 11
226.598965453389
 21
13.14333528792653
 31
0.0
  0
CIRCLE
  5
37F7
330
1F
100
AcDbEntity
  8
0
  6
Continuous
 62
     7
100
AcDbCircle
 10
227.2882141618769
 20
14.18613738700753
 30
0.0
 40
1.25
  0
LINE
  5
37F8
330
1F
100
AcDbEntity
  8
0
  6
Continuous
 62
     7
100
AcDbLine
 10
227.9774628703648
 20
15.22893948608862
 30
0.0
 11
226.245412062796
 21
13.49688867851975
 31
0.0
  0
LINE
  5
37F9
330
1F
100
AcDbEntity
  8
0
 62
     7
100
AcDbLine
 10
229.2882141618769
 20
-1.052725546556757
 30
0.0
 11
229.2882141618769
 21
-0.5527255465567578
 31
0.0
  0
LINE
  5
37FA
330
1F
100
AcDbEntity
  8
0
 62
     7
100
AcDbLine
 10
225.2882141618769
 20
-5.052725546556757
 30
0.0
 11
226.0882141618769
 21
-5.052725546556757
 31
0.0
  0
LINE
  5
37FB
330
1F
100
AcDbEntity
  8
0
 62
     7
100
AcDbLine
 10
225.2882141618769
 20
-5.052725546556757
 30
0.0
 11
225.2882141618769
 21
-1.052725546556757
 31
0.0
  0
LINE
  5
37FC
330
1F
100
AcDbEntity
  8
0
  6
Continuous
 62
     7
100
AcDbLine
 10
217.5292850575537
 20
-1.624439860848212
 30
0.0
 11
217.5292850575537
 21
-0.5527255465567578
 31
0.0
  0
LINE
  5
37FD
330
1F
100
AcDbEntity
  8
0
  6
Continuous
 62
     7
100
AcDbLine
 10
214.7292850575537
 20
-1.624439860848156
 30
0.0
 11
214.7292850575537
 21
-0.5527255465567578
 31
0.0
  0
ARC
  5
37FE
330
1F
100
AcDbEntity
  8
0
  6
Continuous
 62
     7
100
AcDbCircle
 10
216.1292850575536
 20
-3.052725546556757
 30
0.0
 40
2.0
100
AcDbArc
 50
134.4270040008075
 51
45.57299599919249
  0
LINE
  5
37FF
330
1F
100
AcDbEntity
  8
0
  6
Continuous
 62
     7
100
AcDbLine
 10
214.7292850575537
 20
-0.5527255465567578
 30
0.0
 11
217.5292850575537
 21
-0.5527255465567578
 31
0.0
  0
LINE
  5
3800
330
1F
100
AcDbEntity
  8
0
  6
Continuous
 62
     7
100
AcDbLine
 10
214.7292850575537
 20
-1.052725546556757
 30
0.0
 11
217.5292850575537
 21
-1.052725546556757
 31
0.0
  0
LINE
  5
3801
330
1F
100
AcDbEntity
  8
0
 62
     7
100
AcDbLine
 10
225.2882141618769
 20
-1.052725546556757
 30
0.0
 11
229.2882141618769
 21
-1.052725546556757
 31
0.0
  0
ARC
  5
3802
330
1F
100
AcDbEntity
  8
0
 62
     7
100
AcDbCircle
 10
227.2882141618769
 20
-7.302725546556757
 30
0.0
 40
2.549999999999997
100
AcDbArc
 50
61.92751306414532
 51
118.0724869358547
  0
LINE
  5
3803
330
1F
100
AcDbEntity
  8
0
 62
     7
100
AcDbLine
 10
229.2882141618769
 20
-0.5527255465567578
 30
0.0
 11
250.7882141618769
 21
-0.5527255465567578
 31
0.0
  0
LINE
  5
3804
330
1F
100
AcDbEntity
  8
0
 62
     7
100
AcDbLine
 10
228.488214161877
 20
-5.052725546556757
 30
0.0
 11
250.7882141618769
 21
-5.052725546556757
 31
0.0
  0
LINE
  5
3805
330
1F
100
AcDbEntity
  8
0
 62
     7
100
AcDbLine
 10
225.2882141618769
 20
-1.624439860848212
 30
0.0
 11
250.7882141618769
 21
-1.624439860848156
 31
0.0
  0
LINE
  5
3806
330
1F
100
AcDbEntity
  8
0
  6
Continuous
 62
     7
100
AcDbLine
 10
225.2882141618769
 20
15.58613738700762
 30
0.0
 11
250.7882141618769
 21
15.58613738700762
 31
0.0
  0
LINE
  5
3807
330
1F
100
AcDbEntity
  8
0
  6
Continuous
 62
     7
100
AcDbLine
 10
225.2882141618769
 20
12.78613738700758
 30
0.0
 11
250.7882141618769
 21
12.78613738700753
 31
0.0
  0
LINE
  5
3808
330
1F
100
AcDbEntity
  8
0
  6
Continuous
 62
     7
100
AcDbLine
 10
225.2882141618769
 20
16.18613738700753
 30
0.0
 11
250.7882141618769
 21
16.18613738700753
 31
0.0
  0
LINE
  5
3809
330
1F
100
AcDbEntity
  8
0
  6
Continuous
 62
     7
100
AcDbLine
 10
225.2882141618769
 20
12.18613738700756
 30
0.0
 11
250.7882141618769
 21
12.18613738700756
 31
0.0
  0
LINE
  5
380A
330
1F
100
AcDbEntity
  8
0
100
AcDbLine
 10
225.2882141618769
 20
12.18613738700762
 30
0.0
 11
225.2882141618769
 21
16.18613738700753
 31
0.0
  0
DIMENSION
  5
3869
330
1F
100
AcDbEntity
  8
AM_5
100
AcDbDimension
  2
*D23
 10
279.0993256377936
 20
105.580731338438
 30
0.0
 11
265.0937698998353
 21
107.5059724801703
 31
0.0
 70
    32
  1
1000%%P20
 71
     5
 42
28.01111147591667
  3
AM_ISO$0
100
AcDbAlignedDimension
 13
251.088214161877
 23
110.580731338438
 33
0.0
 14
279.0993256377936
 24
111.7840813764293
 34
0.0
100
AcDbRotatedDimension
1001
ACAD
1000
DSTYLE
1002
{
1070
    40
1040
0.7
1070
   272
1070
     8
1002
}
  0
LINE
  5
386A
330
1F
100
AcDbEntity
  8
0
100
AcDbLine
 10
251.088214161877
 20
98.96623211230332
 30
0.0
 11
262.5330368401527
 21
98.96623211230343
 31
0.0
  0
LINE
  5
386B
330
1F
100
AcDbEntity
  8
0
100
AcDbLine
 10
251.088214161877
 20
96.36623211232933
 30
0.0
 11
262.5330368401526
 21
96.36623211232937
 31
0.0
  0
ARC
  5
386C
330
1F
100
AcDbEntity
  8
0
100
AcDbCircle
 10
265.0590997070831
 20
98.31623211230983
 30
0.0
 40
1.299999999986999
100
AcDbArc
 50
149.9999999999991
 51
210.0000000000009
  0
ARC
  5
386D
330
1F
100
AcDbEntity
  8
0
100
AcDbCircle
 10
262.8074336572661
 20
97.01623211232282
 30
0.0
 40
1.299999999986999
100
AcDbArc
 50
329.9999999999991
 51
30.0000000000009
  0
ARC
  5
386E
330
1F
100
AcDbEntity
  8
0
100
AcDbCircle
 10
261.4072038152442
 20
97.01623211232282
 30
0.0
 40
1.299999999986999
100
AcDbArc
 50
329.9999999999991
 51
30.0000000000009
  0
ARC
  5
386F
330
1F
100
AcDbEntity
  8
0
100
AcDbCircle
 10
263.6588698650612
 20
98.31623211230983
 30
0.0
 40
1.299999999986999
100
AcDbArc
 50
149.9999999999991
 51
210.0000000000009
  0
LINE
  5
3870
330
1F
100
AcDbEntity
  8
0
100
AcDbLine
 10
263.9332666821744
 20
98.96623211230334
 30
0.0
 11
267.704436706581
 21
98.96623211230332
 31
0.0
  0
LINE
  5
3871
330
1F
100
AcDbEntity
  8
0
100
AcDbLine
 10
263.9332666821744
 20
96.36623211232937
 30
0.0
 11
267.704436706581
 21
96.36623211232937
 31
0.0
  0
LINE
  5
3872
330
1F
100
AcDbEntity
  8
0
100
AcDbLine
 10
267.704436706581
 20
98.96623211230332
 30
0.0
 11
267.7044367065808
 21
96.36623211232937
 31
0.0
  0
LINE
  5
3873
330
1F
100
AcDbEntity
  8
0
100
AcDbLine
 10
267.704436706581
 20
97.88611405455112
 30
0.0
 11
275.7504565041344
 21
97.88611405455112
 31
0.0
  0
LINE
  5
3874
330
1F
100
AcDbEntity
  8
0
100
AcDbLine
 10
267.704436706581
 20
98.65570188963358
 30
0.0
 11
275.7504565041344
 21
98.65570188963358
 31
0.0
  0
LINE
  5
3875
330
1F
100
AcDbEntity
  8
0
100
AcDbLine
 10
275.7504565041344
 20
98.65570188963358
 30
0.0
 11
275.7504565041344
 21
97.88611405455108
 31
0.0
  0
LINE
  5
3876
330
1F
100
AcDbEntity
  8
0
100
AcDbLine
 10
275.7504565041344
 20
98.46288207432497
 30
0.0
 11
279.0993256377937
 21
98.46288207432497
 31
0.0
  0
LINE
  5
3877
330
1F
100
AcDbEntity
  8
0
100
AcDbLine
 10
275.7504565041344
 20
98.07893386985973
 30
0.0
 11
279.0993256377937
 21
98.07893386985973
 31
0.0
  0
LINE
  5
3878
330
1F
100
AcDbEntity
  8
0
100
AcDbLine
 10
279.0993256377937
 20
98.46288207432497
 30
0.0
 11
279.0993256377937
 21
98.07893386985973
 31
0.0
  0
LINE
  5
3879
330
1F
100
AcDbEntity
  8
0
100
AcDbLine
 10
279.0993256377937
 20
96.86958215030768
 30
0.0
 11
279.0993256377937
 21
97.25353035477292
 31
0.0
  0
LINE
  5
387A
330
1F
100
AcDbEntity
  8
0
100
AcDbLine
 10
275.7504565041344
 20
97.25353035477292
 30
0.0
 11
279.0993256377937
 21
97.25353035477292
 31
0.0
  0
LINE
  5
387B
330
1F
100
AcDbEntity
  8
0
100
AcDbLine
 10
275.7504565041344
 20
96.86958215030768
 30
0.0
 11
279.0993256377937
 21
96.86958215030768
 31
0.0
  0
LINE
  5
387C
330
1F
100
AcDbEntity
  8
0
100
AcDbLine
 10
275.7504565041344
 20
96.67676233499907
 30
0.0
 11
275.7504565041344
 21
97.44635017008157
 31
0.0
  0
LINE
  5
387D
330
1F
100
AcDbEntity
  8
0
100
AcDbLine
 10
267.704436706581
 20
96.67676233499907
 30
0.0
 11
275.7504565041344
 21
96.67676233499907
 31
0.0
  0
LINE
  5
387E
330
1F
100
AcDbEntity
  8
0
100
AcDbLine
 10
267.704436706581
 20
97.44635017008153
 30
0.0
 11
275.7504565041344
 21
97.44635017008153
 31
0.0
  0
LINE
  5
387F
330
1F
100
AcDbEntity
  8
0
100
AcDbLine
 10
267.7044367065808
 20
112.3608493962031
 30
0.0
 11
275.7504565041343
 21
112.3608493962031
 31
0.0
  0
LINE
  5
3880
330
1F
100
AcDbEntity
  8
0
100
AcDbLine
 10
267.7044367065808
 20
111.5912615611207
 30
0.0
 11
275.7504565041343
 21
111.5912615611207
 31
0.0
  0
LINE
  5
3881
330
1F
100
AcDbEntity
  8
0
100
AcDbLine
 10
275.7504565041343
 20
111.5912615611207
 30
0.0
 11
275.7504565041343
 21
112.3608493962032
 31
0.0
  0
LINE
  5
3882
330
1F
100
AcDbEntity
  8
0
100
AcDbLine
 10
275.7504565041343
 20
111.7840813764293
 30
0.0
 11
279.0993256377936
 21
111.7840813764293
 31
0.0
  0
LINE
  5
3883
330
1F
100
AcDbEntity
  8
0
100
AcDbLine
 10
275.7504565041343
 20
112.1680295808945
 30
0.0
 11
279.0993256377936
 21
112.1680295808945
 31
0.0
  0
LINE
  5
3884
330
1F
100
AcDbEntity
  8
0
100
AcDbLine
 10
279.0993256377936
 20
111.7840813764293
 30
0.0
 11
279.0993256377936
 21
112.1680295808945
 31
0.0
  0
LINE
  5
3885
330
1F
100
AcDbEntity
  8
0
100
AcDbLine
 10
279.0993256377936
 20
113.3773813004466
 30
0.0
 11
279.0993256377936
 21
112.9934330959813
 31
0.0
  0
LINE
  5
3886
330
1F
100
AcDbEntity
  8
0
100
AcDbLine
 10
275.7504565041343
 20
112.9934330959813
 30
0.0
 11
279.0993256377936
 21
112.9934330959813
 31
0.0
  0
LINE
  5
3887
330
1F
100
AcDbEntity
  8
0
100
AcDbLine
 10
275.7504565041343
 20
113.3773813004466
 30
0.0
 11
279.0993256377936
 21
113.3773813004466
 31
0.0
  0
LINE
  5
3888
330
1F
100
AcDbEntity
  8
0
100
AcDbLine
 10
275.7504565041343
 20
113.5702011157552
 30
0.0
 11
275.7504565041343
 21
112.8006132806727
 31
0.0
  0
LINE
  5
3889
330
1F
100
AcDbEntity
  8
0
100
AcDbLine
 10
267.7044367065808
 20
113.5702011157552
 30
0.0
 11
275.7504565041343
 21
113.5702011157552
 31
0.0
  0
LINE
  5
388A
330
1F
100
AcDbEntity
  8
0
100
AcDbLine
 10
267.7044367065808
 20
112.8006132806727
 30
0.0
 11
275.7504565041343
 21
112.8006132806727
 31
0.0
  0
LINE
  5
388B
330
1F
100
AcDbEntity
  8
0
100
AcDbLine
 10
267.7044367065808
 20
113.8807313384249
 30
0.0
 11
267.7044367065807
 21
111.2807313384509
 31
0.0
  0
LINE
  5
388C
330
1F
100
AcDbEntity
  8
0
100
AcDbLine
 10
263.9332666821744
 20
111.2807313384509
 30
0.0
 11
267.7044367065808
 21
111.2807313384509
 31
0.0
  0
LINE
  5
388D
330
1F
100
AcDbEntity
  8
0
100
AcDbLine
 10
263.9332666821744
 20
113.880731338425
 30
0.0
 11
267.7044367065808
 21
113.8807313384249
 31
0.0
  0
ARC
  5
388E
330
1F
100
AcDbEntity
  8
0
100
AcDbCircle
 10
263.6588698650611
 20
113.2307313384314
 30
0.0
 40
1.299999999986999
100
AcDbArc
 50
149.9999999999991
 51
210.0000000000009
  0
ARC
  5
388F
330
1F
100
AcDbEntity
  8
0
100
AcDbCircle
 10
261.4072038152441
 20
111.9307313384444
 30
0.0
 40
1.299999999986999
100
AcDbArc
 50
329.9999999999991
 51
30.0000000000009
  0
ARC
  5
3893
330
1F
100
AcDbEntity
  8
0
100
AcDbCircle
 10
262.807433657266
 20
111.9307313384444
 30
0.0
 40
1.299999999986999
100
AcDbArc
 50
329.9999999999991
 51
30.0000000000009
  0
ARC
  5
3894
330
1F
100
AcDbEntity
  8
0
100
AcDbCircle
 10
265.059099707083
 20
113.2307313384314
 30
0.0
 40
1.299999999986999
100
AcDbArc
 50
149.9999999999991
 51
210.0000000000009
  0
LINE
  5
3895
330
1F
100
AcDbEntity
  8
0
100
AcDbLine
 10
251.088214161877
 20
110.580731338438
 30
0.0
 11
251.088214161877
 21
114.580731338438
 31
0.0
  0
LINE
  5
3896
330
1F
100
AcDbEntity
  8
0
100
AcDbLine
 10
251.088214161877
 20
111.2807313384509
 30
0.0
 11
262.5330368401526
 21
111.2807313384509
 31
0.0
  0
LINE
  5
3897
330
1F
100
AcDbEntity
  8
0
100
AcDbLine
 10
251.088214161877
 20
113.8807313384249
 30
0.0
 11
262.5330368401526
 21
113.880731338425
 31
0.0
  0
DIMENSION
  5
3898
330
1F
100
AcDbEntity
  8
AM_5
100
AcDbDimension
  2
*D24
 10
218.949866689843
 20
104.8662321123166
 30
0.0
 11
217.549866689843
 21
104.8662321123166
 31
0.0
 70
   160
 71
     5
 42
2.799999999999954
  3
AM_ISO$0
100
AcDbAlignedDimension
 13
216.1498666898431
 23
99.86623211231666
 33
0.0
 14
218.949866689843
 24
99.86623211231666
 34
0.0
100
AcDbRotatedDimension
1001
ACAD
1000
DSTYLE
1002
{
1070
    40
1040
0.7
1070
   272
1070
     8
1002
}
  0
DIMENSION
  5
3899
330
1F
100
AcDbEntity
  8
AM_5
100
AcDbDimension
  2
*D25
 10
210.5498666898432
 20
95.36623211231665
 30
0.0
 11
210.5498666898431
 21
97.61623211231668
 31
0.0
 70
   160
  1
4.5
 71
     5
 42
4.5
  3
AM_ISO$0
100
AcDbAlignedDimension
 13
216.1498666898431
 23
99.86623211231666
 33
0.0
 14
217.5498666898432
 24
95.36623211231665
 34
0.0
 50
90.0
100
AcDbRotatedDimension
1001
ACAD
1000
DSTYLE
1002
{
1070
    40
1040
0.7
1070
   272
1070
     8
1002
}
  0
DIMENSION
  5
389A
330
1F
100
AcDbEntity
  8
AM_5
100
AcDbDimension
  2
*D26
 10
251.088214161877
 20
105.580731338438
 30
0.0
 11
237.8156299736418
 21
105.580731338438
 31
0.0
 70
   160
 71
     5
 42
25.5
  3
AM_ISO$0
100
AcDbAlignedDimension
 13
225.588214161877
 23
110.580731338438
 33
0.0
 14
251.088214161877
 24
110.580731338438
 34
0.0
100
AcDbRotatedDimension
1001
ACAD
1000
DSTYLE
1002
{
1070
    40
1040
0.7
1070
   272
1070
     8
1002
}
  0
LINE
  5
389B
330
1F
100
AcDbEntity
  8
0
  6
Continuous
 62
     7
100
AcDbLine
 10
251.088214161877
 20
110.580731338438
 30
0.0
 11
251.088214161877
 21
114.580731338438
 31
0.0
  0
ARC
  5
389C
330
1F
100
AcDbEntity
  8
0
  6
Continuous
 62
     7
100
AcDbCircle
 10
239.9882141618769
 20
112.380731338438
 30
0.0
 40
0.5
100
AcDbArc
 50
270.0
 51
0.0
  0
LINE
  5
389D
330
1F
100
AcDbEntity
  8
0
  6
Continuous
 62
     7
100
AcDbLine
 10
240.488214161877
 20
112.380731338438
 30
0.0
 11
240.488214161877
 21
112.780731338438
 31
0.0
  0
ARC
  5
389E
330
1F
100
AcDbEntity
  8
0
  6
Continuous
 62
     7
100
AcDbCircle
 10
239.9882141618769
 20
112.780731338438
 30
0.0
 40
0.5
100
AcDbArc
 50
0.0
 51
90.0
  0
LINE
  5
389F
330
1F
100
AcDbEntity
  8
0
  6
Continuous
 62
     7
100
AcDbLine
 10
237.688214161877
 20
112.380731338438
 30
0.0
 11
237.688214161877
 21
112.780731338438
 31
0.0
  0
ARC
  5
38A0
330
1F
100
AcDbEntity
  8
0
  6
Continuous
 62
     7
100
AcDbCircle
 10
238.188214161877
 20
112.380731338438
 30
0.0
 40
0.5
100
AcDbArc
 50
180.0
 51
270.0
  0
ARC
  5
38A1
330
1F
100
AcDbEntity
  8
0
  6
Continuous
 62
     7
100
AcDbCircle
 10
238.188214161877
 20
112.780731338438
 30
0.0
 40
0.5
100
AcDbArc
 50
90.0
 51
180.0
  0
LINE
  5
38A2
330
1F
100
AcDbEntity
  8
0
  6
Continuous
 62
     7
100
AcDbLine
 10
229.588214161877
 20
111.180731338438
 30
0.0
 11
229.588214161877
 21
113.980731338438
 31
0.0
  0
LINE
  5
38A3
330
1F
100
AcDbEntity
  8
0
  6
Continuous
 62
     7
100
AcDbLine
 10
238.188214161877
 20
113.280731338438
 30
0.0
 11
239.9882141618769
 21
113.280731338438
 31
0.0
  0
LINE
  5
38A4
330
1F
100
AcDbEntity
  8
0
  6
Continuous
 62
     7
100
AcDbLine
 10
238.188214161877
 20
111.880731338438
 30
0.0
 11
239.9882141618769
 21
111.880731338438
 31
0.0
  0
LINE
  5
38A5
330
1F
100
AcDbEntity
  8
0
  6
Continuous
 62
     7
100
AcDbLine
 10
225.588214161877
 20
110.580731338438
 30
0.0
 11
225.588214161877
 21
114.580731338438
 31
0.0
  0
LINE
  5
38A6
330
1F
100
AcDbEntity
  8
0
  6
Continuous
 62
     7
100
AcDbLine
 10
228.6310162609581
 20
113.2699800469258
 30
0.0
 11
226.8989654533892
 21
111.5379292393569
 31
0.0
  0
CIRCLE
  5
38A7
330
1F
100
AcDbEntity
  8
0
  6
Continuous
 62
     7
100
AcDbCircle
 10
227.588214161877
 20
112.580731338438
 30
0.0
 40
1.25
  0
LINE
  5
38A8
330
1F
100
AcDbEntity
  8
0
  6
Continuous
 62
     7
100
AcDbLine
 10
228.2774628703649
 20
113.6235334375191
 30
0.0
 11
226.545412062796
 21
111.8914826299502
 31
0.0
  0
LINE
  5
38A9
330
1F
100
AcDbEntity
  8
0
 62
     7
100
AcDbLine
 10
229.588214161877
 20
99.36623211231665
 30
0.0
 11
229.588214161877
 21
99.86623211231666
 31
0.0
  0
LINE
  5
38AA
330
1F
100
AcDbEntity
  8
0
 62
     7
100
AcDbLine
 10
225.588214161877
 20
95.36623211231665
 30
0.0
 11
226.3882141618771
 21
95.36623211231665
 31
0.0
  0
LINE
  5
38AB
330
1F
100
AcDbEntity
  8
0
 62
     7
100
AcDbLine
 10
225.588214161877
 20
95.36623211231665
 30
0.0
 11
225.5882141618772
 21
99.36623211231665
 31
0.0
  0
LINE
  5
38AC
330
1F
100
AcDbEntity
  8
0
  6
Continuous
 62
     7
100
AcDbLine
 10
218.949866689843
 20
98.7945177980252
 30
0.0
 11
218.949866689843
 21
99.86623211231666
 31
0.0
  0
LINE
  5
38AD
330
1F
100
AcDbEntity
  8
0
  6
Continuous
 62
     7
100
AcDbLine
 10
216.1498666898431
 20
98.79451779802526
 30
0.0
 11
216.1498666898431
 21
99.86623211231666
 31
0.0
  0
ARC
  5
38AE
330
1F
100
AcDbEntity
  8
0
  6
Continuous
 62
     7
100
AcDbCircle
 10
217.5498666898432
 20
97.36623211231666
 30
0.0
 40
2.0
100
AcDbArc
 50
134.4270040008076
 51
45.57299599919235
  0
LINE
  5
38AF
330
1F
100
AcDbEntity
  8
0
  6
Continuous
 62
     7
100
AcDbLine
 10
216.1498666898431
 20
99.86623211231666
 30
0.0
 11
218.949866689843
 21
99.86623211231666
 31
0.0
  0
LINE
  5
38B0
330
1F
100
AcDbEntity
  8
0
  6
Continuous
 62
     7
100
AcDbLine
 10
216.1498666898431
 20
99.36623211231665
 30
0.0
 11
218.949866689843
 21
99.36623211231665
 31
0.0
  0
LINE
  5
38B1
330
1F
100
AcDbEntity
  8
0
 62
     7
100
AcDbLine
 10
225.5882141618772
 20
99.36623211231665
 30
0.0
 11
229.588214161877
 21
99.36623211231665
 31
0.0
  0
ARC
  5
38B2
330
1F
100
AcDbEntity
  8
0
 62
     7
100
AcDbCircle
 10
227.588214161877
 20
93.11623211231665
 30
0.0
 40
2.549999999999997
100
AcDbArc
 50
61.92751306414532
 51
118.0724869358547
  0
LINE
  5
38B3
330
1F
100
AcDbEntity
  8
0
 62
     7
100
AcDbLine
 10
229.588214161877
 20
99.86623211231666
 30
0.0
 11
251.088214161877
 21
99.86623211231666
 31
0.0
  0
LINE
  5
38B4
330
1F
100
AcDbEntity
  8
0
 62
     7
100
AcDbLine
 10
228.788214161877
 20
95.36623211231665
 30
0.0
 11
251.088214161877
 21
95.36623211231665
 31
0.0
  0
LINE
  5
38B5
330
1F
100
AcDbEntity
  8
0
 62
     7
100
AcDbLine
 10
225.5882141618772
 20
98.7945177980252
 30
0.0
 11
251.088214161877
 21
98.79451779802526
 31
0.0
  0
LINE
  5
38B6
330
1F
100
AcDbEntity
  8
0
  6
Continuous
 62
     7
100
AcDbLine
 10
225.588214161877
 20
113.980731338438
 30
0.0
 11
251.088214161877
 21
113.980731338438
 31
0.0
  0
LINE
  5
38B7
330
1F
100
AcDbEntity
  8
0
  6
Continuous
 62
     7
100
AcDbLine
 10
225.588214161877
 20
111.180731338438
 30
0.0
 11
251.088214161877
 21
111.1807313384379
 31
0.0
  0
LINE
  5
38B8
330
1F
100
AcDbEntity
  8
0
  6
Continuous
 62
     7
100
AcDbLine
 10
225.588214161877
 20
114.580731338438
 30
0.0
 11
251.088214161877
 21
114.580731338438
 31
0.0
  0
LINE
  5
38B9
330
1F
100
AcDbEntity
  8
0
  6
Continuous
 62
     7
100
AcDbLine
 10
225.588214161877
 20
110.580731338438
 30
0.0
 11
251.088214161877
 21
110.580731338438
 31
0.0
  0
LINE
  5
38BA
330
1F
100
AcDbEntity
  8
0
100
AcDbLine
 10
225.5882141618771
 20
110.580731338438
 30
0.0
 11
225.588214161877
 21
114.580731338438
 31
0.0
  0
LINE
  5
38BB
330
1F
100
AcDbEntity
  8
0
100
AcDbLine
 10
251.088214161877
 20
99.86623211231666
 30
0.0
 11
251.088214161877
 21
95.36623211231637
 31
0.0
  0
TEXT
  5
4051
330
1F
100
AcDbEntity
  8
0
100
AcDbText
 10
186.6252725541054
 20
122.040257905394
 30
0.0
 40
4.5
  1
RT
100
AcDbText
  0
TEXT
  5
4053
330
1F
100
AcDbEntity
  8
0
100
AcDbText
 10
311.0459300911863
 20
122.040257905394
 30
0.0
 40
4.5
  1
RTN,RTP
100
AcDbText
  0
TEXT
  5
4055
330
1F
100
AcDbEntity
  8
0
100
AcDbText
 10
186.6252725541054
 20
73.54818235989103
 30
0.0
 40
4.5
  1
RTV
100
AcDbText
  0
TEXT
  5
4056
330
1F
100
AcDbEntity
  8
0
100
AcDbText
 10
311.0459300911863
 20
73.54818235989103
 30
0.0
 40
4.5
  1
RTN-V,RTP-V
100
AcDbText
  0
TEXT
  5
4059
330
1F
100
AcDbEntity
  8
0
100
AcDbText
 10
186.6252725541054
 20
21.2551146798636
 30
0.0
 40
4.5
  1
RT-QD
100
AcDbText
  0
ARC
  5
42D3
330
1F
100
AcDbEntity
  8
0
100
AcDbCircle
 10
258.9946253191868
 20
43.30525583175727
 30
0.0
 40
1.299999999986999
100
AcDbArc
 50
149.9999999999991
 51
210.0000000000009
  0
ARC
  5
42D4
330
1F
100
AcDbEntity
  8
0
100
AcDbCircle
 10
256.7429592693699
 20
42.00525583177032
 30
0.0
 40
1.29999999998689
100
AcDbArc
 50
339.7477532566794
 51
30.00000000000181
  0
ARC
  5
42D5
330
1F
100
AcDbEntity
  8
0
100
AcDbCircle
 10
255.9087523117046
 20
42.00525583177018
 30
0.0
 40
1.299999999987243
100
AcDbArc
 50
339.7477532566915
 51
29.99999999999691
  0
ARC
  5
42D6
330
1F
100
AcDbEntity
  8
0
100
AcDbCircle
 10
258.1604183615218
 20
43.30525583175722
 30
0.0
 40
1.299999999986999
100
AcDbArc
 50
149.9999999999991
 51
210.0000000000009
  0
ARC
  5
42D7
330
1F
100
AcDbEntity
  8
0
100
AcDbCircle
 10
371.5428469932709
 20
47.80525583175726
 30
0.0
 40
1.299999999986999
100
AcDbArc
 50
149.9999999999991
 51
210.0000000000009
  0
ARC
  5
42D8
330
1F
100
AcDbEntity
  8
0
100
AcDbCircle
 10
369.291180943454
 20
46.50525583177031
 30
0.0
 40
1.29999999998689
100
AcDbArc
 50
339.7477532566794
 51
30.00000000000181
  0
ARC
  5
42D9
330
1F
100
AcDbEntity
  8
0
100
AcDbCircle
 10
368.4569739857888
 20
46.50525583177016
 30
0.0
 40
1.299999999987243
100
AcDbArc
 50
339.7477532566915
 51
29.99999999999691
  0
ARC
  5
42DA
330
1F
100
AcDbEntity
  8
0
100
AcDbCircle
 10
370.708640035606
 20
47.8052558317572
 30
0.0
 40
1.299999999986999
100
AcDbArc
 50
149.9999999999991
 51
210.0000000000009
  0
TEXT
  5
44C3
330
1F
100
AcDbEntity
  8
LOGO
 62
     7
100
AcDbText
 10
221.7321129677492
 20
-32.34797115980264
 30
0.0
 40
2.866784839819004
  1
Order example:
 41
0.8
  7
CHINESET
100
AcDbText
  0
TEXT
  5
44C4
330
1F
100
AcDbEntity
  8
LOGO
 62
     7
100
AcDbText
 10
222.2464378753589
 20
-28.3121316807125
 30
0.0
 40
4.300177259728505
  1
訂購代號：
  7
CHINESET
100
AcDbText
  0
LINE
  5
44C5
330
1F
100
AcDbEntity
  8
LOGO
 62
     4
100
AcDbLine
 10
220.4864852312728
 20
-44.42968503985381
 30
0.0
 11
220.4864852312728
 21
-22.92879874121114
 31
0.0
  0
TEXT
  5
44C6
330
1F
100
AcDbEntity
  8
LOGO
  6
Continuous
100
AcDbText
 10
180.9077503810854
 20
-40.205868374152
 30
0.0
 40
3.22513294479638
  1
金器工業股份有限公司
  7
CHINESET
100
AcDbText
  0
TEXT
  5
44C7
330
1F
100
AcDbEntity
  8
LOGO
  6
Continuous
100
AcDbText
 10
174.9838192225817
 20
-43.43163319214531
 30
0.0
 40
2.150088629864252
  1
MINDMAN INDUSTRIAL CO., LTD.
 41
0.85
  7
CHINESET
100
AcDbText
  0
LINE
  5
44C8
330
1F
100
AcDbEntity
  8
LOGO
 62
     4
100
AcDbLine
 10
220.4864852312728
 20
-27.22897600093968
 30
0.0
 11
188.9518519932635
 21
-27.22897600093968
 31
0.0
  0
LINE
  5
44C9
330
1F
100
AcDbEntity
  8
LOGO
 62
     4
100
AcDbLine
 10
220.4864852312728
 20
-31.52915326066823
 30
0.0
 11
188.9518519932635
 21
-31.52915326066823
 31
0.0
  0
LINE
  5
44CA
330
1F
100
AcDbEntity
  8
LOGO
 62
     4
100
AcDbLine
 10
220.4864852312728
 20
-35.82933052039648
 30
0.0
 11
173.1845353742591
 21
-35.82933052039648
 31
0.0
  0
LINE
  5
44CB
330
1F
100
AcDbEntity
  8
LOGO
 62
     4
100
AcDbLine
 10
188.9518519932635
 20
-35.82933052039648
 30
0.0
 11
188.9518519932635
 21
-22.92879874121114
 31
0.0
  0
TEXT
  5
44CC
330
1F
100
AcDbEntity
  8
LOGO
100
AcDbText
 10
210.5042853994252
 20
-34.75428620546474
 30
0.0
 40
2.150088629864252
  1
mm
  7
CHINESET
 72
     1
 11
213.1662998935429
 21
-33.67924189053261
 31
0.0
100
AcDbText
 73
     2
  0
TEXT
  5
44CD
330
1F
100
AcDbEntity
  8
LOGO
100
AcDbText
 10
209.3780484980678
 20
-26.15393168600764
 30
0.0
 40
2.150088629864252
  1
1 : 1
  7
CHINESET
 72
     1
 11
213.1662998935429
 21
-25.07888737107551
 31
0.0
100
AcDbText
 73
     2
  0
LINE
  5
44CE
330
1F
100
AcDbEntity
  8
LOGO
 62
     4
100
AcDbLine
 10
206.1525610321776
 20
-35.82933052039648
 30
0.0
 11
206.1525610321776
 21
-22.92879874121114
 31
0.0
  0
TEXT
  5
44CF
330
1F
100
AcDbEntity
  8
LOGO
100
AcDbText
 10
190.7247152519061
 20
-26.15287357152443
 30
140.9132667372055
 40
2.150088629864252
  1
比例 Scale:
 41
0.9
  7
CHINESET
 72
     4
 11
197.5522065127206
 21
-25.07888737107551
 31
140.9132667372055
100
AcDbText
  0
TEXT
  5
44D0
330
1F
100
AcDbEntity
  8
LOGO
100
AcDbText
 10
190.6008931834898
 20
-30.42386450675802
 30
140.9132667372055
 40
2.150088629864252
  1
投影  View:
 41
0.9
  7
CHINESET
 72
     4
 11
197.5522065127206
 21
-29.37906463080405
 31
140.9132667372055
100
AcDbText
  0
TEXT
  5
44D1
330
1F
100
AcDbEntity
  8
LOGO
100
AcDbText
 10
190.8111027414989
 20
-34.75428620546474
 30
140.9132667372055
 40
2.150088629864252
  1
單位  Unit:
 41
0.9
  7
CHINESET
 72
     4
 11
197.5522065127206
 21
-33.67924189053261
 31
140.9132667372055
100
AcDbText
  0
LWPOLYLINE
  5
44D2
330
1F
100
AcDbEntity
  8
LOGO
 62
     4
100
AcDbPolyline
 90
        4
 70
     1
 43
0.0
 10
173.1845353742591
 20
-22.92879874121116
 10
433.3551430520318
 20
-22.92879874121116
 10
433.3551430520318
 20
138.6890072151809
 10
173.1845353742591
 20
138.6890072151809
1001
GENIUS_GENREC_14
1002
{
1000
PYDIR
1011
173.1845353742591
1021
138.6890072151809
1031
0.0
1002
}
1002
{
1000
PXDIR
1011
433.3551430520318
1021
-22.92879874121116
1031
0.0
1002
}
1002
{
1000
PORI
1011
173.1845353742591
1021
-22.92879874121116
1031
0.0
1002
}
1002
{
1000
PINS
1011
173.1845353742591
1021
-22.92879874121116
1031
0.0
1002
}
1002
{
1000
PINS2
1011
433.3551430520318
1021
138.6890072151809
1031
0.0
1002
}
1002
{
1000
C
1070
     1
1002
}
1001
GENIUS_GENODEF_13
1002
{
1000
HIER
1070
     0
1002
}
1002
{
1000
MANEDIT
1070
     0
1002
}
1002
{
1000
NOSEL
1070
     0
1002
}
1002
{
1000
BEHIND
1070
     0
1002
}
1002
{
1000
OTHER
1070
     0
1002
}
1002
{
1000
REACTOR
1002
}
1001
GENIUS_GENOBJ-N-REC_13
1002
{
1000
OWNER
1000
GEN
1002
}
  0
SOLID
  5
44D3
330
1F
100
AcDbEntity
  8
LOGO
 62
     5
100
AcDbTrace
 10
175.4152868340411
 20
-32.25511421426445
 30
0.0
 11
176.3449287392687
 21
-32.25511421426468
 31
0.0
 12
180.2237794472874
 22
-23.43954442331237
 32
0.0
 13
181.1534213525154
 23
-23.43954442331282
 33
0.0
  0
SOLID
  5
44D4
330
1F
100
AcDbEntity
  8
LOGO
 62
     5
100
AcDbTrace
 10
176.7296081483294
 20
-32.25511421426445
 30
0.0
 11
177.659250053557
 21
-32.25511421426445
 31
0.0
 12
181.1534213525154
 22
-24.14479000658885
 32
0.0
 13
180.2237794472874
 23
-27.55347699242364
 33
0.0
  0
SOLID
  5
44D5
330
1F
100
AcDbEntity
  8
LOGO
 62
     2
100
AcDbTrace
 10
176.3449287392687
 20
-32.25511421426468
 30
0.0
 11
176.7296081483294
 21
-32.25511421426445
 31
0.0
 12
181.1534213525154
 22
-23.43954442331282
 32
0.0
 13
181.5381007615756
 23
-23.43954442331282
 33
0.0
  0
SOLID
  5
44D6
330
1F
100
AcDbEntity
  8
LOGO
 62
     5
100
AcDbTrace
 10
173.9248428838404
 20
-35.46077595642855
 30
0.0
 11
174.2454090580572
 21
-35.46077595642855
 31
0.0
 12
175.1481483555276
 22
-33.85794508534664
 32
0.0
 13
175.4687145297435
 23
-33.85794508534664
 33
0.0
  0
SOLID
  5
44D7
330
1F
100
AcDbEntity
  8
LOGO
 62
     5
100
AcDbTrace
 10
175.1481483555276
 20
-33.85794508534664
 30
0.0
 11
175.4687145297435
 21
-33.85794508534664
 31
0.0
 12
175.1481483555276
 22
-35.46077595642855
 32
0.0
 13
175.4687145297435
 23
-35.46077595642855
 33
0.0
  0
SOLID
  5
44D8
330
1F
100
AcDbEntity
  8
LOGO
 62
     5
100
AcDbTrace
 10
175.1481483555276
 20
-35.46077595642855
 30
0.0
 11
175.4687145297435
 21
-35.46077595642855
 31
0.0
 12
176.3714538272154
 22
-33.85794508534664
 32
0.0
 13
176.6920200014316
 23
-33.85794508534664
 33
0.0
  0
SOLID
  5
44D9
330
1F
100
AcDbEntity
  8
LOGO
 62
     5
100
AcDbTrace
 10
176.3714538272154
 20
-33.85794508534664
 30
0.0
 11
176.6920200014316
 21
-33.85794508534664
 31
0.0
 12
176.3714538272154
 22
-35.46077595642855
 32
0.0
 13
176.6920200014316
 23
-35.46077595642855
 33
0.0
  0
POLYLINE
  5
44DA
330
1F
100
AcDbEntity
  8
LOGO
 62
     5
100
AcDb2dPolyline
 66
     1
 10
0.0
 20
0.0
 30
0.0
 40
0.3210799020597284
 41
0.3210799020597284
  0
VERTEX
  5
44DB
330
44DA
100
AcDbEntity
  8
LOGO
 62
     5
100
AcDbVertex
100
AcDb2dVertex
 10
187.1167227847065
 20
-34.49907743377942
 30
0.0
 42
1.0
  0
VERTEX
  5
44DC
330
44DA
100
AcDbEntity
  8
LOGO
 62
     5
100
AcDbVertex
100
AcDb2dVertex
 10
186.1534830785271
 20
-34.49907743377942
 30
0.0
 42
1.0
  0
SEQEND
  5
44DD
330
44DA
100
AcDbEntity
  8
LOGO
 62
     5
  0
POLYLINE
  5
44DE
330
1F
100
AcDbEntity
  8
LOGO
 62
     5
100
AcDb2dPolyline
 66
     1
 10
0.0
 20
0.0
 30
0.0
 70
     1
  0
VERTEX
  5
44DF
330
44DE
100
AcDbEntity
  8
LOGO
 62
     5
100
AcDbVertex
100
AcDb2dVertex
 10
184.3377333874767
 20
-34.65936052088782
 30
0.0
 42
1.000000057330635
  0
VERTEX
  5
44E0
330
44DE
100
AcDbEntity
  8
LOGO
 62
     5
100
AcDbVertex
100
AcDb2dVertex
 10
185.299431910126
 20
-34.65936052088782
 30
0.0
 42
1.000000057330635
  0
SEQEND
  5
44E1
330
44DE
100
AcDbEntity
  8
LOGO
 62
     5
  0
CIRCLE
  5
44E2
330
1F
100
AcDbEntity
  8
LOGO
 62
     5
100
AcDbCircle
 10
184.8185826488021
 20
-34.65936052088782
 30
0.0
 40
0.4808492613246494
  0
POLYLINE
  5
44E3
330
1F
100
AcDbEntity
  8
LOGO
 62
     5
100
AcDb2dPolyline
 66
     1
 10
0.0
 20
0.0
 30
0.0
 70
     1
 40
0.3210799020597284
 41
0.3210799020597284
  0
VERTEX
  5
44E4
330
44E3
100
AcDbEntity
  8
LOGO
 62
     5
100
AcDbVertex
100
AcDb2dVertex
 10
184.1764228446822
 20
-34.65936052088782
 30
0.0
 42
1.0
  0
VERTEX
  5
44E5
330
44E3
100
AcDbEntity
  8
LOGO
 62
     5
100
AcDbVertex
100
AcDb2dVertex
 10
185.460742452921
 20
-34.65936052088782
 30
0.0
 42
1.0
  0
SEQEND
  5
44E6
330
44E3
100
AcDbEntity
  8
LOGO
 62
     5
  0
LINE
  5
44E7
330
1F
100
AcDbEntity
  8
LOGO
100
AcDbLine
 10
187.2762352800491
 20
-35.46077595642855
 30
0.0
 11
187.2762352800491
 21
-34.49907743377942
 31
0.0
  0
SOLID
  5
44E8
330
1F
100
AcDbEntity
  8
LOGO
 62
     5
100
AcDbTrace
 10
185.29939985351
 20
-33.85794508534664
 30
0.0
 11
185.6199660277258
 21
-33.85794508534664
 31
0.0
 12
185.29939985351
 22
-35.46077595642855
 32
0.0
 13
185.6199660277258
 23
-35.46077595642855
 33
0.0
  0
SOLID
  5
44E9
330
1F
100
AcDbEntity
  8
LOGO
 62
     5
100
AcDbTrace
 10
185.9939705831835
 20
-35.46077595642855
 30
0.0
 11
186.3145367574002
 21
-35.46077595642855
 31
0.0
 12
185.9939705831835
 22
-33.85794508534664
 32
0.0
 13
186.3145367574002
 23
-33.85794508534664
 33
0.0
  0
SOLID
  5
44EA
330
1F
100
AcDbEntity
  8
LOGO
 62
     5
100
AcDbTrace
 10
186.9556691058333
 20
-34.49907743377942
 30
0.0
 11
187.2762352800491
 21
-34.49907743377942
 31
0.0
 12
186.9556691058333
 22
-35.46077595642855
 32
0.0
 13
187.2762352800491
 23
-35.46077595642855
 33
0.0
  0
SOLID
  5
44EB
330
1F
100
AcDbEntity
  8
LOGO
 62
     5
100
AcDbTrace
 10
185.9619139657617
 20
-24.14479000658885
 30
0.0
 11
185.0322720605346
 21
-27.55347699242364
 31
0.0
 12
185.9619139657617
 22
-32.25511421426468
 32
0.0
 13
185.0322720605346
 23
-32.25511421426468
 33
0.0
  0
SOLID
  5
44EC
330
1F
100
AcDbEntity
  8
LOGO
 62
     5
100
AcDbTrace
 10
186.346593374822
 20
-32.25511421426468
 30
0.0
 11
187.2762352800491
 21
-32.25511421426468
 31
0.0
 12
186.346593374822
 22
-23.43954442331282
 32
0.0
 13
187.2762352800491
 23
-23.43954442331237
 33
0.0
  0
SOLID
  5
44ED
330
1F
100
AcDbEntity
  8
LOGO
 62
     2
100
AcDbTrace
 10
185.9619139657617
 20
-23.43954442331237
 30
0.0
 11
186.346593374822
 21
-23.43954442331282
 31
0.0
 12
185.9619139657617
 22
-32.25511421426468
 32
0.0
 13
186.346593374822
 23
-32.25511421426468
 33
0.0
  0
POLYLINE
  5
44EE
330
1F
100
AcDbEntity
  8
LOGO
 62
     5
100
AcDb2dPolyline
 66
     1
 10
0.0
 20
0.0
 30
0.0
 40
0.3210799020597284
 41
0.3210799020597284
  0
VERTEX
  5
44EF
330
44EE
100
AcDbEntity
  8
LOGO
 62
     5
100
AcDbVertex
100
AcDb2dVertex
 10
182.5219195831928
 20
-34.49907743377942
 30
0.0
 42
1.0
  0
VERTEX
  5
44F0
330
44EE
100
AcDbEntity
  8
LOGO
 62
     5
100
AcDbVertex
100
AcDb2dVertex
 10
181.5586798770134
 20
-34.49907743377942
 30
0.0
 42
1.0
  0
SEQEND
  5
44F1
330
44EE
100
AcDbEntity
  8
LOGO
 62
     5
  0
POLYLINE
  5
44F2
330
1F
100
AcDbEntity
  8
LOGO
 62
     5
100
AcDb2dPolyline
 66
     1
 10
0.0
 20
0.0
 30
0.0
 40
0.3210799020597284
 41
0.3210799020597284
  0
VERTEX
  5
44F3
330
44F2
100
AcDbEntity
  8
LOGO
 62
     5
100
AcDbVertex
100
AcDb2dVertex
 10
183.4836181058411
 20
-34.49907743377942
 30
0.0
 42
1.0
  0
VERTEX
  5
44F4
330
44F2
100
AcDbEntity
  8
LOGO
 62
     5
100
AcDbVertex
100
AcDb2dVertex
 10
182.5203783996623
 20
-34.49907743377942
 30
0.0
 42
1.0
  0
SEQEND
  5
44F5
330
44F2
100
AcDbEntity
  8
LOGO
 62
     5
  0
POLYLINE
  5
44F6
330
1F
100
AcDbEntity
  8
LOGO
 62
     5
100
AcDb2dPolyline
 66
     1
 10
0.0
 20
0.0
 30
0.0
 40
0.3210799020597284
 41
0.3210799020597284
  0
VERTEX
  5
44F7
330
44F6
100
AcDbEntity
  8
LOGO
 62
     5
100
AcDbVertex
100
AcDb2dVertex
 10
178.8888149043273
 20
-34.49907743377942
 30
0.0
 42
1.0
  0
VERTEX
  5
44F8
330
44F6
100
AcDbEntity
  8
LOGO
 62
     5
100
AcDbVertex
100
AcDb2dVertex
 10
177.9255751981485
 20
-34.49907743377942
 30
0.0
 42
1.0
  0
SEQEND
  5
44F9
330
44F6
100
AcDbEntity
  8
LOGO
 62
     5
  0
SOLID
  5
44FA
330
1F
100
AcDbEntity
  8
LOGO
 62
     5
100
AcDbTrace
 10
177.7660627028054
 20
-33.85794508534664
 30
0.0
 11
178.0866288770212
 21
-33.85794508534664
 31
0.0
 12
177.7660627028054
 22
-35.46077595642855
 32
0.0
 13
178.0866288770212
 23
-35.46077595642855
 33
0.0
  0
SOLID
  5
44FB
330
1F
100
AcDbEntity
  8
LOGO
 62
     5
100
AcDbTrace
 10
178.7277612254547
 20
-34.49907743377942
 30
0.0
 11
179.0483273996715
 21
-34.49907743377942
 31
0.0
 12
178.7277612254547
 22
-35.46077595642855
 32
0.0
 13
179.0483273996715
 23
-35.46077595642855
 33
0.0
  0
POLYLINE
  5
44FC
330
1F
100
AcDbEntity
  8
LOGO
 62
     5
100
AcDb2dPolyline
 66
     1
 10
0.0
 20
0.0
 30
0.0
 70
     1
 40
0.3210799020597284
 41
0.3210799020597284
  0
VERTEX
  5
44FD
330
44FC
100
AcDbEntity
  8
LOGO
 62
     5
100
AcDbVertex
100
AcDb2dVertex
 10
179.5816196431679
 20
-34.65936052088782
 30
0.0
 42
1.0
  0
VERTEX
  5
44FE
330
44FC
100
AcDbEntity
  8
LOGO
 62
     5
100
AcDbVertex
100
AcDb2dVertex
 10
180.8659392514073
 20
-34.65936052088782
 30
0.0
 42
1.0
  0
SEQEND
  5
44FF
330
44FC
100
AcDbEntity
  8
LOGO
 62
     5
  0
SOLID
  5
4500
330
1F
100
AcDbEntity
  8
LOGO
 62
     5
100
AcDbTrace
 10
180.7045966519953
 20
-33.37709582402167
 30
0.0
 11
181.0251628262116
 21
-33.37709582402167
 31
0.0
 12
180.7045966519953
 22
-35.46077595642855
 32
0.0
 13
181.0251628262116
 23
-35.46077595642855
 33
0.0
  0
SOLID
  5
4501
330
1F
100
AcDbEntity
  8
LOGO
 62
     5
100
AcDbTrace
 10
181.3991673816707
 20
-33.85794508534664
 30
0.0
 11
181.7197335558866
 21
-33.85794508534664
 31
0.0
 12
181.3991673816707
 22
-35.46077595642855
 32
0.0
 13
181.7197335558866
 23
-35.46077595642855
 33
0.0
  0
SOLID
  5
4502
330
1F
100
AcDbEntity
  8
LOGO
 62
     5
100
AcDbTrace
 10
182.3608659043191
 20
-34.49907743377942
 30
0.0
 11
182.6814320785359
 21
-34.49907743377942
 31
0.0
 12
182.3608659043191
 22
-35.46077595642855
 32
0.0
 13
182.6814320785359
 23
-35.46077595642855
 33
0.0
  0
SOLID
  5
4503
330
1F
100
AcDbEntity
  8
LOGO
 62
     5
100
AcDbTrace
 10
183.3225644269684
 20
-34.49907743377942
 30
0.0
 11
183.6431306011847
 21
-34.49907743377942
 31
0.0
 12
183.3225644269684
 22
-35.46077595642901
 32
0.0
 13
183.6431306011847
 23
-35.46077595642901
 33
0.0
  0
SOLID
  5
4504
330
1F
100
AcDbEntity
  8
LOGO
 62
     5
100
AcDbTrace
 10
177.0714919731304
 20
-33.633548763395
 30
0.0
 11
177.3920581473477
 21
-33.633548763395
 31
0.0
 12
177.0714919731304
 22
-33.37709582402167
 32
0.0
 13
177.3920581473477
 23
-33.37709582402167
 33
0.0
  0
SOLID
  5
4505
330
1F
100
AcDbEntity
  8
LOGO
 62
     5
100
AcDbTrace
 10
177.0714919731304
 20
-33.85794508534664
 30
0.0
 11
177.3920581473477
 21
-33.85794508534664
 31
0.0
 12
177.0714919731304
 22
-35.46077595642901
 32
0.0
 13
177.3920581473477
 23
-35.46077595642855
 33
0.0
  0
SOLID
  5
4506
330
1F
100
AcDbEntity
  8
LOGO
 62
     5
100
AcDbTrace
 10
180.2237794472874
 20
-32.25511421426445
 30
0.0
 11
181.1534213525154
 21
-32.25511421426445
 31
0.0
 12
180.2237794472874
 22
-27.55347699242364
 32
0.0
 13
181.1534213525154
 23
-24.14479000658885
 33
0.0
  0
SOLID
  5
4507
330
1F
100
AcDbEntity
  8
LOGO
 62
     5
100
AcDbTrace
 10
181.5381007615756
 20
-23.43954442331282
 30
0.0
 11
182.4677426668028
 21
-23.43954442331237
 31
0.0
 12
181.5381007615756
 22
-31.54986863098839
 32
0.0
 13
182.4677426668028
 23
-28.14118164515362
 33
0.0
  0
SOLID
  5
4508
330
1F
100
AcDbEntity
  8
LOGO
 62
     2
100
AcDbTrace
 10
181.1534213525154
 20
-23.43954442331282
 30
0.0
 11
181.5381007615756
 21
-23.43954442331282
 31
0.0
 12
181.1534213525154
 22
-32.25511421426445
 32
0.0
 13
181.5381007615756
 23
-32.25511421426445
 33
0.0
  0
SOLID
  5
4509
330
1F
100
AcDbEntity
  8
LOGO
 62
     5
100
AcDbTrace
 10
181.5381007615756
 20
-31.54986863098839
 30
0.0
 11
182.4677426668028
 21
-28.14118164515362
 31
0.0
 12
185.9619139657617
 22
-23.43954442331237
 32
0.0
 13
185.0322720605346
 23
-23.43954442331237
 33
0.0
  0
SOLID
  5
450A
330
1F
100
AcDbEntity
  8
LOGO
 62
     5
100
AcDbTrace
 10
181.5381007615756
 20
-32.25511421426445
 30
0.0
 11
182.4677426668028
 21
-32.25511421426445
 31
0.0
 12
185.9619139657617
 22
-24.14479000658885
 32
0.0
 13
185.0322720605346
 23
-27.55347699242364
 33
0.0
  0
SOLID
  5
450B
330
1F
100
AcDbEntity
  8
LOGO
 62
     2
100
AcDbTrace
 10
181.1534213525154
 20
-32.25511421426445
 30
0.0
 11
181.5381007615756
 21
-32.25511421426445
 31
0.0
 12
185.9619139657617
 22
-23.43954442331237
 32
0.0
 13
186.346593374822
 23
-23.43954442331282
 33
0.0
  0
LWPOLYLINE
  5
450C
330
1F
100
AcDbEntity
  8
LOGO
 62
     4
100
AcDbPolyline
 90
        4
 70
     1
 43
0.0
 10
173.1845353742591
 20
-22.92879874121116
 10
433.3551430520318
 20
-22.92879874121116
 10
433.3551430520318
 20
-44.42968503985403
 10
173.1845353742591
 20
-44.42968503985403
1001
GENIUS_GENREC_14
1002
{
1000
PYDIR
1011
173.1845353742591
1021
-44.42968503985403
1031
0.0
1002
}
1002
{
1000
PXDIR
1011
433.3551430520318
1021
-22.92879874121116
1031
0.0
1002
}
1002
{
1000
PORI
1011
173.1845353742591
1021
-22.92879874121116
1031
0.0
1002
}
1002
{
1000
PINS
1011
173.1845353742591
1021
-22.92879874121116
1031
0.0
1002
}
1002
{
1000
PINS2
1011
433.3551430520318
1021
-44.42968503985403
1031
0.0
1002
}
1002
{
1000
C
1070
     1
1002
}
1001
GENIUS_GENOBJ-N-REC_13
1002
{
1000
OWNER
1000
GEN
1002
}
1001
GENIUS_GENODEF_13
1002
{
1000
HIER
1070
     0
1002
}
1002
{
1000
MANEDIT
1070
     0
1002
}
1002
{
1000
NOSEL
1070
     0
1002
}
1002
{
1000
BEHIND
1070
     0
1002
}
1002
{
1000
OTHER
1070
     0
1002
}
1002
{
1000
REACTOR
1002
}
  0
LINE
  5
450D
330
1F
100
AcDbEntity
  8
LOGO
 62
     4
100
AcDbLine
 10
264.3939242763736
 20
-34.75428620546427
 30
0.0
 11
264.3939242763736
 21
-42.63794451496699
 31
0.0
  0
LINE
  5
450E
330
1F
100
AcDbEntity
  8
LOGO
 62
     4
100
AcDbLine
 10
250.0600000772786
 20
-34.75428620546427
 30
0.0
 11
250.0600000772786
 21
-42.63794451496699
 31
0.0
  0
LINE
  5
450F
330
1F
100
AcDbEntity
  8
LOGO
 62
     4
100
AcDbLine
 10
264.3939242763736
 20
-42.63794451496699
 30
0.0
 11
250.0600000772786
 21
-42.63794451496699
 31
0.0
  0
LINE
  5
4510
330
1F
100
AcDbEntity
  8
LOGO
 62
     4
100
AcDbLine
 10
266.9648659153334
 20
-25.07888737107551
 30
0.0
 11
250.0600000772786
 21
-25.07888737107551
 31
0.0
  0
LINE
  5
4511
330
1F
100
AcDbEntity
  8
LOGO
 62
     4
100
AcDbLine
 10
266.9648659153334
 20
-31.52915326066823
 30
0.0
 11
250.0600000772786
 21
-31.52915326066823
 31
0.0
  0
LINE
  5
4512
330
1F
100
AcDbEntity
  8
LOGO
 62
     4
100
AcDbLine
 10
250.0600000772786
 20
-25.07888737107551
 30
0.0
 11
250.0600000772786
 21
-31.52915326066823
 31
0.0
  0
LINE
  5
4513
330
1F
100
AcDbEntity
  8
LOGO
 62
     4
100
AcDbLine
 10
266.9648659153334
 20
-25.07888737107551
 30
0.0
 11
266.9648659153334
 21
-31.52915326066823
 31
0.0
  0
LINE
  5
4514
330
1F
100
AcDbEntity
  8
LOGO
 62
     4
100
AcDbLine
 10
257.9748329963059
 20
-31.52915326066823
 30
0.0
 11
257.9748329963059
 21
-34.75428620546427
 31
0.0
  0
TEXT
  5
4515
330
1F
100
AcDbEntity
  8
LOGO
  6
Continuous
 62
     7
100
AcDbText
 10
253.1743294555624
 20
-30.18266968650349
 30
0.0
 40
3.763199999999999
  1
RT*
  7
CHINESET
100
AcDbText
  0
LINE
  5
4516
330
1F
100
AcDbEntity
  8
LOGO
 62
     4
100
AcDbLine
 10
264.3939242763736
 20
-34.75428620546427
 30
0.0
 11
250.0600000772786
 21
-34.75428620546427
 31
0.0
  0
TEXT
  5
4517
330
1F
100
AcDbEntity
  8
LOGO
  6
Continuous
100
AcDbText
 10
254.6597109722548
 20
-41.5251828622665
 30
140.9132667372055
 40
1.6128
  1
Model
 41
0.8
  7
CHINESET
100
AcDbText
  0
TEXT
  5
4518
330
1F
100
AcDbEntity
  8
LOGO
100
AcDbText
 10
254.2304360411582
 20
-38.53539924547419
 30
140.9132667372055
 40
2.688
  1
型號
  7
CHINESET
100
AcDbText
  0
TEXT
  5
4519
330
1F
100
AcDbEntity
  8
LOGO
100
AcDbText
 10
221.3393362989715
 20
-43.28584637502951
 30
0.0
 40
2.150399999999999
  1
10804280
 41
0.7
  7
CHINESET
 72
     1
 11
226.7153362989715
 21
-43.28584637502951
 31
0.0
100
AcDbText
  0
LINE
  5
451A
330
1F
100
AcDbEntity
  8
LOGO
 62
     4
100
AcDbLine
 10
233.3888852312718
 20
-40.12950778012478
 30
0.0
 11
233.3888852312728
 21
-44.42968503985357
 31
0.0
  0
LINE
  5
451B
330
1F
100
AcDbEntity
  8
LOGO
 62
     4
100
AcDbLine
 10
233.3888852312718
 20
-40.12950778012478
 30
0.0
 11
220.4864852312728
 21
-40.12950778012478
 31
0.0
  0
CIRCLE
  5
451C
330
1F
100
AcDbEntity
  8
LOGO
  6
Continuous
100
AcDbCircle
 10
210.1337190592059
 20
-29.37446557549063
 30
0.0
 40
1.248392065880743
  0
CIRCLE
  5
451D
330
1F
100
AcDbEntity
  8
LOGO
  6
Continuous
100
AcDbCircle
 10
210.1337190592059
 20
-29.37446557549063
 30
0.0
 40
0.7314472367092502
  0
LINE
  5
451E
330
1F
100
AcDbEntity
  8
LOGO
100
AcDbLine
 10
217.97875965849
 20
-30.62285764137161
 30
0.0
 11
217.97875965849
 21
-28.12607350960961
 31
0.0
  0
LINE
  5
451F
330
1F
100
AcDbEntity
  8
LOGO
100
AcDbLine
 10
214.0651221930778
 20
-30.10591281219972
 30
0.0
 11
214.0651221930778
 21
-28.64301833878126
 31
0.0
  0
LINE
  5
4520
330
1F
100
AcDbEntity
  8
LOGO
  6
Continuous
100
AcDbLine
 10
214.0651221930778
 20
-28.64301833878126
 30
0.0
 11
217.97875965849
 21
-28.12607350960961
 31
0.0
  0
LINE
  5
4521
330
1F
100
AcDbEntity
  8
LOGO
  6
Continuous
100
AcDbLine
 10
214.0651221930778
 20
-30.10591281219972
 30
0.0
 11
217.97875965849
 21
-30.62285764137161
 31
0.0
  0
LINE
  5
4522
330
1F
100
AcDbEntity
  8
LOGO
  6
AM_ISO08W050x2
 48
0.3
100
AcDbLine
 10
208.41279190319
 20
-29.37446557549063
 30
0.0
 11
211.8546462152216
 21
-29.37446557549063
 31
0.0
1001
GENIUS_GENOREF_13
1005
4527
  0
LINE
  5
4523
330
1F
100
AcDbEntity
  8
LOGO
  6
AM_ISO08W050x2
 48
0.3
100
AcDbLine
 10
210.1337190592059
 20
-31.09539273150645
 30
0.0
 11
210.1337190592059
 21
-27.65353841947486
 31
0.0
1001
GENIUS_GENOREF_13
1005
4526
  0
LINE
  5
4524
330
1F
100
AcDbEntity
  8
LOGO
  6
CENTER
 48
0.5
100
AcDbLine
 10
213.7521399748893
 20
-29.37446557549063
 30
0.0
 11
218.3728502821593
 21
-29.37446557549063
 31
0.0
1001
GENIUS_GENOREF_13
1005
4525
  0
POINT
  5
4525
330
1F
100
AcDbEntity
  8
0
 60
     1
100
AcDbPoint
 10
-1583.818285472652
 20
-1044.253289532635
 30
0.0
1001
GENIUS_GENOBJ-N-CRS_13
1002
{
1000
OWNER
1000
GEN
1002
}
1001
GENIUS_GENOLIS_13
1002
{
1000
ENT
1005
0
1005
0
1005
0
1005
4524
1002
}
1001
GENIUS_GENOENT_13
1002
{
1000
MYREF
1005
4525
1002
}
1002
{
1000
GRP
1005
0
1002
}
1001
GENIUS_GENODEF_13
1002
{
1000
HIER
1070
    10
1002
}
1002
{
1000
MANEDIT
1070
     1
1002
}
1002
{
1000
NOSEL
1070
     0
1002
}
1002
{
1000
BEHIND
1070
     0
1002
}
1002
{
1000
OTHER
1070
     0
1002
}
1002
{
1000
REACTOR
1002
}
  0
POINT
  5
4526
330
1F
100
AcDbEntity
  8
0
 60
     1
100
AcDbPoint
 10
-1595.142870695507
 20
-1035.377703053999
 30
0.0
1001
GENIUS_GENOBJ-N-CRS_13
1002
{
1000
OWNER
1000
GEN
1002
}
1001
GENIUS_GENOLIS_13
1002
{
1000
ENT
1005
0
1005
0
1005
0
1005
4523
1002
}
1001
GENIUS_GENOENT_13
1002
{
1000
MYREF
1005
4526
1002
}
1002
{
1000
GRP
1005
0
1002
}
1001
GENIUS_GENODEF_13
1002
{
1000
HIER
1070
    10
1002
}
1002
{
1000
MANEDIT
1070
     1
1002
}
1002
{
1000
NOSEL
1070
     0
1002
}
1002
{
1000
BEHIND
1070
     0
1002
}
1002
{
1000
OTHER
1070
     0
1002
}
1002
{
1000
REACTOR
1002
}
  0
POINT
  5
4527
330
1F
100
AcDbEntity
  8
0
 60
     1
100
AcDbPoint
 10
-1588.78419699767
 20
-1044.253289532635
 30
0.0
1001
GENIUS_GENOBJ-N-CRS_13
1002
{
1000
OWNER
1000
GEN
1002
}
1001
GENIUS_GENOLIS_13
1002
{
1000
ENT
1005
0
1005
0
1005
0
1005
4522
1002
}
1001
GENIUS_GENOENT_13
1002
{
1000
MYREF
1005
4527
1002
}
1002
{
1000
GRP
1005
0
1002
}
1001
GENIUS_GENODEF_13
1002
{
1000
HIER
1070
    10
1002
}
1002
{
1000
MANEDIT
1070
     1
1002
}
1002
{
1000
NOSEL
1070
     0
1002
}
1002
{
1000
BEHIND
1070
     0
1002
}
1002
{
1000
OTHER
1070
     0
1002
}
1002
{
1000
REACTOR
1002
}
  0
ENDSEC
  0
SECTION
  2
OBJECTS
  0
DICTIONARY
  5
C
330
0
100
AcDbDictionary
281
     1
  3
ACAD_COLOR
350
BE
  3
ACAD_GROUP
350
D
  3
ACAD_LAYOUT
350
1A
  3
ACAD_MATERIAL
350
BD
  3
ACAD_MLINESTYLE
350
17
  3
ACAD_PLOTSETTINGS
350
19
  3
ACAD_PLOTSTYLENAME
350
E
  3
ACAD_TABLESTYLE
350
11A
  3
ACDBHEADERROUNDTRIPXREC
350
46C5
  3
AcDbVariableDictionary
350
94
  3
AcmDictionary
350
5B
  3
AMG
350
41
  3
AMGSNAPSETTINGS
350
1B8
  3
DWGPROPS
350
46C4
  0
DICTIONARY
  5
3F9
330
2
100
AcDbDictionary
280
     1
281
     1
  3
ACAD_LAYERFILTERS
360
1934
  3
ACAD_LAYERSTATES
360
1991
  3
ACLYDICTIONARY
360
1933
  0
DICTIONARY
  5
8F
330
1F
100
AcDbDictionary
280
     1
281
     1
  3
ACAD_SORTENTS
360
441C
  0
DICTIONARY
  5
BE
102
{ACAD_REACTORS
330
C
102
}
330
C
100
AcDbDictionary
281
     1
  0
DICTIONARY
  5
D
102
{ACAD_REACTORS
330
C
102
}
330
C
100
AcDbDictionary
281
     1
  0
DICTIONARY
  5
1A
102
{ACAD_REACTORS
330
C
102
}
330
C
100
AcDbDictionary
281
     1
  3
Model
350
22
  3
配置1
350
1E
  3
配置2
350
26
  0
DICTIONARY
  5
BD
102
{ACAD_REACTORS
330
C
102
}
330
C
100
AcDbDictionary
281
     1
  0
DICTIONARY
  5
17
102
{ACAD_REACTORS
330
C
102
}
330
C
100
AcDbDictionary
281
     1
  3
Standard
350
18
  0
DICTIONARY
  5
19
102
{ACAD_REACTORS
330
C
102
}
330
C
100
AcDbDictionary
281
     1
  0
ACDBDICTIONARYWDFLT
  5
E
102
{ACAD_REACTORS
330
C
102
}
330
C
100
AcDbDictionary
281
     1
  3
Color_7
350
2D26
  3
Normal
350
F
100
AcDbDictionaryWithDefault
340
F
  0
DICTIONARY
  5
11A
102
{ACAD_REACTORS
330
C
102
}
330
C
100
AcDbDictionary
281
     1
  3
Standard
350
11B
  0
DICTIONARY
  5
46C5
102
{ACAD_REACTORS
330
C
102
}
330
C
100
AcDbDictionary
281
     1
  0
DICTIONARY
  5
94
102
{ACAD_REACTORS
330
C
102
}
330
C
100
AcDbDictionary
281
     1
  3
CTABLESTYLE
350
138
  3
DIMASSOC
350
96
  3
INDEXCTL
350
95
  3
PROJECTNAME
350
46C2
  0
DICTIONARY
  5
5B
102
{ACAD_REACTORS
330
C
102
}
330
C
100
AcDbDictionary
281
     1
  3
AcmBOM
350
1B5
  3
AcmStdDictionary
350
61
  3
AMDTSECTSYM_ARROWCOLOR
350
123
  0
DICTIONARY
  5
41
102
{ACAD_REACTORS
330
C
102
}
330
C
100
AcDbDictionary
281
     1
  0
DICTIONARY
  5
1B8
102
{ACAD_REACTORS
330
C
102
}
330
C
100
AcDbDictionary
281
     1
  0
XRECORD
  5
46C4
102
{ACAD_REACTORS
330
C
102
}
330
C
100
AcDbXrecord
280
     1
  1
DWGPROPS COOKIE
  2

  3

  4

  6

  7

  8

  9

300
AmdtFileType=84
301
=
302
=
303
=
304
=
305
=
306
=
307
=
308
=
309
=
 40
0.1604960648148148
 41
2454580.691861609
 42
2454585.544176794
  1

 90
        1
  0
DICTIONARY
  5
1934
102
{ACAD_REACTORS
330
3F9
102
}
330
3F9
100
AcDbDictionary
281
     1
  0
DICTIONARY
  5
1991
102
{ACAD_REACTORS
330
3F9
102
}
330
3F9
100
AcDbDictionary
281
     1
  0
DICTIONARY
  5
1933
102
{ACAD_REACTORS
330
3F9
102
}
330
3F9
100
AcDbDictionary
281
     1
1001
ACAD
1000
<All
  0
SORTENTSTABLE
  5
441C
102
{ACAD_REACTORS
330
8F
102
}
330
8F
100
AcDbSortentsTable
330
1F
331
305E
  5
305E
331
30D4
  5
30D4
331
3066
  5
3066
331
30A5
  5
30A5
331
30DC
  5
30DC
331
30AD
  5
30AD
331
306E
  5
306E
331
30E4
  5
30E4
331
3076
  5
3076
331
386C
  5
386C
331
37F5
  5
37F5
331
38A3
  5
38A3
331
37BC
  5
37BC
331
3746
  5
3746
331
377D
  5
377D
331
35D1
  5
35D1
331
38AB
  5
38AB
331
37FD
  5
37FD
331
3874
  5
3874
331
359A
  5
359A
331
3707
  5
3707
331
37C4
  5
37C4
331
3785
  5
3785
331
370F
  5
370F
331
38B3
  5
38B3
331
387C
  5
387C
331
3805
  5
3805
331
35A2
  5
35A2
331
35D9
  5
35D9
331
374E
  5
374E
331
37CC
  5
37CC
331
378D
  5
378D
331
3756
  5
3756
331
35E1
  5
35E1
331
38BB
  5
38BB
331
3884
  5
3884
331
35AA
  5
35AA
331
3717
  5
3717
331
3795
  5
3795
331
37D4
  5
37D4
331
375E
  5
375E
331
371F
  5
371F
331
307E
  5
307E
331
30B5
  5
30B5
331
3086
  5
3086
331
30BD
  5
30BD
331
308E
  5
308E
331
30C5
  5
30C5
331
3096
  5
3096
331
30CD
  5
30CD
331
35E9
  5
35E9
331
388C
  5
388C
331
35B2
  5
35B2
331
379D
  5
379D
331
37DC
  5
37DC
331
3766
  5
3766
331
35F1
  5
35F1
331
3894
  5
3894
331
35BA
  5
35BA
331
3727
  5
3727
331
37E4
  5
37E4
331
37A5
  5
37A5
331
372F
  5
372F
331
36F8
  5
36F8
331
376E
  5
376E
331
389C
  5
389C
331
35C2
  5
35C2
331
42DA
  5
42DA
331
37EC
  5
37EC
331
37AD
  5
37AD
331
3776
  5
3776
331
3737
  5
3737
331
37B5
  5
37B5
331
373F
  5
373F
331
305F
  5
305F
331
30D5
  5
30D5
331
30A6
  5
30A6
331
3067
  5
3067
331
30DD
  5
30DD
331
30AE
  5
30AE
331
306F
  5
306F
331
30E5
  5
30E5
331
3077
  5
3077
331
386D
  5
386D
331
38A4
  5
38A4
331
37F6
  5
37F6
331
3700
  5
3700
331
37BD
  5
37BD
331
35D2
  5
35D2
331
38AC
  5
38AC
331
3875
  5
3875
331
37FE
  5
37FE
331
359B
  5
359B
331
3708
  5
3708
331
3747
  5
3747
331
377E
  5
377E
331
3786
  5
3786
331
37C5
  5
37C5
331
374F
  5
374F
331
35DA
  5
35DA
331
387D
  5
387D
331
3806
  5
3806
331
38B4
  5
38B4
331
35A3
  5
35A3
331
3710
  5
3710
331
378E
  5
378E
331
37CD
  5
37CD
331
4053
  5
4053
331
35E2
  5
35E2
331
3885
  5
3885
331
35AB
  5
35AB
331
3718
  5
3718
331
3757
  5
3757
331
37D5
  5
37D5
331
3796
  5
3796
331
375F
  5
375F
331
307F
  5
307F
331
30B6
  5
30B6
331
30BE
  5
30BE
331
308F
  5
308F
331
30C6
  5
30C6
331
30CE
  5
30CE
331
3720
  5
3720
331
388D
  5
388D
331
35B3
  5
35B3
331
35EA
  5
35EA
331
37DD
  5
37DD
331
379E
  5
379E
331
35F2
  5
35F2
331
3728
  5
3728
331
3767
  5
3767
331
3895
  5
3895
331
35BB
  5
35BB
331
42D3
  5
42D3
331
37A6
  5
37A6
331
37E5
  5
37E5
331
376F
  5
376F
331
3730
  5
3730
331
389D
  5
389D
331
35C3
  5
35C3
331
36F9
  5
36F9
331
37AE
  5
37AE
331
37ED
  5
37ED
331
3777
  5
3777
331
3738
  5
3738
331
37B6
  5
37B6
331
3060
  5
3060
331
30D6
  5
30D6
331
3068
  5
3068
331
30A7
  5
30A7
331
30DE
  5
30DE
331
30AF
  5
30AF
331
3070
  5
3070
331
30E6
  5
30E6
331
3740
  5
3740
331
386E
  5
386E
331
37F7
  5
37F7
331
38A5
  5
38A5
331
3594
  5
3594
331
3701
  5
3701
331
37BE
  5
37BE
331
35D3
  5
35D3
331
38AD
  5
38AD
331
3876
  5
3876
331
37FF
  5
37FF
331
359C
  5
359C
331
3709
  5
3709
331
3748
  5
3748
331
377F
  5
377F
331
37C6
  5
37C6
331
3787
  5
3787
331
3711
  5
3711
331
35DB
  5
35DB
331
38B5
  5
38B5
331
387E
  5
387E
331
3807
  5
3807
331
35A4
  5
35A4
331
3750
  5
3750
331
37CE
  5
37CE
331
378F
  5
378F
331
3758
  5
3758
331
3886
  5
3886
331
35E3
  5
35E3
331
3719
  5
3719
331
3797
  5
3797
331
37D6
  5
37D6
331
3078
  5
3078
331
3080
  5
3080
331
30B7
  5
30B7
331
3088
  5
3088
331
30BF
  5
30BF
331
3090
  5
3090
331
30C7
  5
30C7
331
3760
  5
3760
331
35EB
  5
35EB
331
388E
  5
388E
331
35B4
  5
35B4
331
3721
  5
3721
331
35F3
  5
35F3
331
3729
  5
3729
331
3768
  5
3768
331
379F
  5
379F
331
37DE
  5
37DE
331
3896
  5
3896
331
35BC
  5
35BC
331
42D4
  5
42D4
331
37E6
  5
37E6
331
37A7
  5
37A7
331
3731
  5
3731
331
389E
  5
389E
331
35C4
  5
35C4
331
36FA
  5
36FA
331
3770
  5
3770
331
37AF
  5
37AF
331
37EE
  5
37EE
331
3739
  5
3739
331
37B7
  5
37B7
331
3061
  5
3061
331
30D7
  5
30D7
331
30A8
  5
30A8
331
3069
  5
3069
331
30DF
  5
30DF
331
3071
  5
3071
331
30E7
  5
30E7
331
37F0
  5
37F0
331
3741
  5
3741
331
3778
  5
3778
331
37F8
  5
37F8
331
386F
  5
386F
331
38A6
  5
38A6
331
3595
  5
3595
331
35CC
  5
35CC
331
3702
  5
3702
331
3780
  5
3780
331
3749
  5
3749
331
35D4
  5
35D4
331
38AE
  5
38AE
331
3877
  5
3877
331
3800
  5
3800
331
359D
  5
359D
331
370A
  5
370A
331
37BF
  5
37BF
331
3788
  5
3788
331
37C7
  5
37C7
331
3751
  5
3751
331
35DC
  5
35DC
331
38B6
  5
38B6
331
3808
  5
3808
331
387F
  5
387F
331
35A5
  5
35A5
331
3712
  5
3712
331
37CF
  5
37CF
331
3790
  5
3790
331
4055
  5
4055
331
3887
  5
3887
331
35E4
  5
35E4
331
371A
  5
371A
331
3759
  5
3759
331
37D7
  5
37D7
331
3079
  5
3079
331
30B0
  5
30B0
331
3081
  5
3081
331
30B8
  5
30B8
331
3089
  5
3089
331
30C0
  5
30C0
331
3091
  5
3091
331
30C8
  5
30C8
331
3798
  5
3798
331
3722
  5
3722
331
35EC
  5
35EC
331
388F
  5
388F
331
35B5
  5
35B5
331
3761
  5
3761
331
37A0
  5
37A0
331
3769
  5
3769
331
35F4
  5
35F4
331
372A
  5
372A
331
37DF
  5
37DF
331
3897
  5
3897
331
35BD
  5
35BD
331
42D5
  5
42D5
331
37A8
  5
37A8
331
37E7
  5
37E7
331
3771
  5
3771
331
3732
  5
3732
331
389F
  5
389F
331
35C5
  5
35C5
331
36FB
  5
36FB
331
37B0
  5
37B0
331
37EF
  5
37EF
331
373A
  5
373A
331
3099
  5
3099
331
3062
  5
3062
331
30D8
  5
30D8
331
306A
  5
306A
331
30A9
  5
30A9
331
30E0
  5
30E0
331
3072
  5
3072
331
30E8
  5
30E8
331
37F1
  5
37F1
331
37B8
  5
37B8
331
3742
  5
3742
331
3779
  5
3779
331
38A7
  5
38A7
331
3596
  5
3596
331
35CD
  5
35CD
331
3703
  5
3703
331
37F9
  5
37F9
331
3870
  5
3870
331
37C0
  5
37C0
331
3781
  5
3781
331
35D5
  5
35D5
331
359E
  5
359E
331
370B
  5
370B
331
374A
  5
374A
331
38AF
  5
38AF
331
3878
  5
3878
331
3801
  5
3801
331
37C8
  5
37C8
331
3789
  5
3789
331
3752
  5
3752
331
35DD
  5
35DD
331
35A6
  5
35A6
331
3713
  5
3713
331
38B7
  5
38B7
331
3880
  5
3880
331
3809
  5
3809
331
37D0
  5
37D0
331
3791
  5
3791
331
375A
  5
375A
331
35E5
  5
35E5
331
371B
  5
371B
331
35AE
  5
35AE
331
4056
  5
4056
331
307A
  5
307A
331
30B1
  5
30B1
331
3082
  5
3082
331
30B9
  5
30B9
331
308A
  5
308A
331
30C1
  5
30C1
331
3092
  5
3092
331
30C9
  5
30C9
331
3888
  5
3888
331
3799
  5
3799
331
37D8
  5
37D8
331
3762
  5
3762
331
35ED
  5
35ED
331
35B6
  5
35B6
331
3723
  5
3723
331
37E0
  5
37E0
331
37A1
  5
37A1
331
35F5
  5
35F5
331
372B
  5
372B
331
376A
  5
376A
331
35BE
  5
35BE
331
42D6
  5
42D6
331
3898
  5
3898
331
37A9
  5
37A9
331
3733
  5
3733
331
36FC
  5
36FC
331
35C6
  5
35C6
331
3772
  5
3772
331
37B1
  5
37B1
331
373B
  5
373B
331
309A
  5
309A
331
30D1
  5
30D1
331
30A2
  5
30A2
331
3063
  5
3063
331
30D9
  5
30D9
331
30AA
  5
30AA
331
306B
  5
306B
331
30E1
  5
30E1
331
3073
  5
3073
331
30E9
  5
30E9
331
3869
  5
3869
331
38A0
  5
38A0
331
37F2
  5
37F2
331
37B9
  5
37B9
331
3743
  5
3743
331
377A
  5
377A
331
3597
  5
3597
331
35CE
  5
35CE
331
3704
  5
3704
331
38A8
  5
38A8
331
3871
  5
3871
331
37FA
  5
37FA
331
37C1
  5
37C1
331
3782
  5
3782
331
374B
  5
374B
331
35D6
  5
35D6
331
359F
  5
359F
331
370C
  5
370C
331
38B0
  5
38B0
331
3879
  5
3879
331
3802
  5
3802
331
378A
  5
378A
331
37C9
  5
37C9
331
3753
  5
3753
331
35DE
  5
35DE
331
35A7
  5
35A7
331
3714
  5
3714
331
38B8
  5
38B8
331
380A
  5
380A
331
3881
  5
3881
331
37D1
  5
37D1
331
3792
  5
3792
331
35E6
  5
35E6
331
35AF
  5
35AF
331
371C
  5
371C
331
375B
  5
375B
331
307B
  5
307B
331
30B2
  5
30B2
331
3083
  5
3083
331
30BA
  5
30BA
331
308B
  5
308B
331
30C2
  5
30C2
331
3093
  5
3093
331
30CA
  5
30CA
331
3889
  5
3889
331
37D9
  5
37D9
331
379A
  5
379A
331
3763
  5
3763
331
35EE
  5
35EE
331
35B7
  5
35B7
331
3724
  5
3724
331
37E1
  5
37E1
331
37A2
  5
37A2
331
376B
  5
376B
331
35F6
  5
35F6
331
372C
  5
372C
331
35BF
  5
35BF
331
42D7
  5
42D7
331
3899
  5
3899
331
37AA
  5
37AA
331
37E9
  5
37E9
331
3773
  5
3773
331
3734
  5
3734
331
35C7
  5
35C7
331
36FD
  5
36FD
331
37B2
  5
37B2
331
373C
  5
373C
331
309B
  5
309B
331
30D2
  5
30D2
331
3064
  5
3064
331
30DA
  5
30DA
331
30AB
  5
30AB
331
306C
  5
306C
331
30E2
  5
30E2
331
3074
  5
3074
331
386A
  5
386A
331
37F3
  5
37F3
331
38A1
  5
38A1
331
37BA
  5
37BA
331
3744
  5
3744
331
377B
  5
377B
331
35CF
  5
35CF
331
3705
  5
3705
331
38A9
  5
38A9
331
37FB
  5
37FB
331
3872
  5
3872
331
3598
  5
3598
331
37C2
  5
37C2
331
3783
  5
3783
331
370D
  5
370D
331
38B1
  5
38B1
331
387A
  5
387A
331
3803
  5
3803
331
35A0
  5
35A0
331
35D7
  5
35D7
331
374C
  5
374C
331
37CA
  5
37CA
331
378B
  5
378B
331
3754
  5
3754
331
35DF
  5
35DF
331
38B9
  5
38B9
331
3882
  5
3882
331
35A8
  5
35A8
331
3715
  5
3715
331
37D2
  5
37D2
331
3793
  5
3793
331
375C
  5
375C
331
35E7
  5
35E7
331
371D
  5
371D
331
307C
  5
307C
331
30B3
  5
30B3
331
3084
  5
3084
331
30BB
  5
30BB
331
308C
  5
308C
331
30C3
  5
30C3
331
3094
  5
3094
331
30CB
  5
30CB
331
388A
  5
388A
331
35B0
  5
35B0
331
379B
  5
379B
331
37DA
  5
37DA
331
3764
  5
3764
331
35B8
  5
35B8
331
35EF
  5
35EF
331
3725
  5
3725
331
37E2
  5
37E2
331
37A3
  5
37A3
331
372D
  5
372D
331
42D8
  5
42D8
331
389A
  5
389A
331
35C0
  5
35C0
331
36F6
  5
36F6
331
376C
  5
376C
331
37EA
  5
37EA
331
37AB
  5
37AB
331
3774
  5
3774
331
36FE
  5
36FE
331
3735
  5
3735
331
37B3
  5
37B3
331
373D
  5
373D
331
305D
  5
305D
331
30D3
  5
30D3
331
3065
  5
3065
331
30AC
  5
30AC
331
306D
  5
306D
331
30E3
  5
30E3
331
3075
  5
3075
331
386B
  5
386B
331
38A2
  5
38A2
331
37F4
  5
37F4
331
35C8
  5
35C8
331
37BB
  5
37BB
331
3745
  5
3745
331
377C
  5
377C
331
35D0
  5
35D0
331
38AA
  5
38AA
331
3873
  5
3873
331
37FC
  5
37FC
331
3599
  5
3599
331
3706
  5
3706
331
3784
  5
3784
331
37C3
  5
37C3
331
374D
  5
374D
331
35D8
  5
35D8
331
387B
  5
387B
331
3804
  5
3804
331
38B2
  5
38B2
331
35A1
  5
35A1
331
370E
  5
370E
331
378C
  5
378C
331
37CB
  5
37CB
331
3755
  5
3755
331
4051
  5
4051
331
35E0
  5
35E0
331
38BA
  5
38BA
331
3883
  5
3883
331
35A9
  5
35A9
331
3716
  5
3716
331
37D3
  5
37D3
331
3794
  5
3794
331
371E
  5
371E
331
375D
  5
375D
331
307D
  5
307D
331
30B4
  5
30B4
331
3085
  5
3085
331
30BC
  5
30BC
331
308D
  5
308D
331
30C4
  5
30C4
331
3095
  5
3095
331
30CC
  5
30CC
331
4059
  5
4059
331
388B
  5
388B
331
35B1
  5
35B1
331
35E8
  5
35E8
331
37DB
  5
37DB
331
379C
  5
379C
331
3765
  5
3765
331
35F0
  5
35F0
331
3893
  5
3893
331
35B9
  5
35B9
331
3726
  5
3726
331
37E3
  5
37E3
331
37A4
  5
37A4
331
376D
  5
376D
331
36F7
  5
36F7
331
372E
  5
372E
331
389B
  5
389B
331
35C1
  5
35C1
331
42D9
  5
42D9
331
37AC
  5
37AC
331
37EB
  5
37EB
331
3775
  5
3775
331
3736
  5
3736
331
36FF
  5
36FF
331
37B4
  5
37B4
331
373E
  5
373E
  0
LAYOUT
  5
22
102
{ACAD_XDICTIONARY
360
46C8
102
}
102
{ACAD_REACTORS
330
1A
102
}
330
1A
100
AcDbPlotSettings
  1

  2
\\RD\EPSON Stylus C63 Series單色
  4
A4
  6

 40
3.757083177566528
 41
3.757076978683471
 42
3.757080078125
 43
3.757080078125
 44
209.9733276367187
 45
296.9683227539062
 46
0.0
 47
0.0
 48
0.0
 49
0.0
140
0.0
141
0.0
142
1.0
143
0.3405120737814363
 70
 11952
 72
     1
 73
     0
 74
     0
  7
單色出圖.ctb
 75
     0
147
2.936753428137963
148
-2047.07469463503
149
-1261.649717473083
100
AcDbLayout
  1
Model
 70
     1
 71
     0
 10
0.0
 20
0.0
 11
12.0
 21
9.0
 12
0.0
 22
0.0
 32
0.0
 14
0.0
 24
0.0
 34
0.0
 15
0.0
 25
0.0
 35
0.0
146
0.0
 13
0.0
 23
0.0
 33
0.0
 16
1.0
 26
0.0
 36
0.0
 17
0.0
 27
1.0
 37
0.0
 76
     0
330
1F
1001
ACAD_PSEXT
1000
\\RD\EPSON Stylus C63 Series單色
1000
EPSON Stylus C63 Series
1000
\\RD
1000

1070
     0
  0
LAYOUT
  5
1E
102
{ACAD_XDICTIONARY
360
46C6
102
}
102
{ACAD_REACTORS
330
1A
102
}
330
1A
100
AcDbPlotSettings
  1

  2

  4

  6

 40
0.0
 41
0.0
 42
0.0
 43
0.0
 44
0.0
 45
0.0
 46
0.0
 47
0.0
 48
0.0
 49
0.0
140
0.0
141
0.0
142
1.0
143
1.0
 70
   688
 72
     0
 73
     0
 74
     5
  7
單色出圖.ctb
 75
    16
147
1.0
148
0.0
149
0.0
100
AcDbLayout
  1
配置1
 70
     1
 71
     1
 10
0.0
 20
0.0
 11
420.0
 21
297.0
 12
0.0
 22
0.0
 32
0.0
 14
1.000000000000000E+20
 24
1.000000000000000E+20
 34
1.000000000000000E+20
 15
-1.000000000000000E+20
 25
-1.000000000000000E+20
 35
-1.000000000000000E+20
146
0.0
 13
0.0
 23
0.0
 33
0.0
 16
1.0
 26
0.0
 36
0.0
 17
0.0
 27
1.0
 37
0.0
 76
     0
330
1B
  0
LAYOUT
  5
26
102
{ACAD_XDICTIONARY
360
46CA
102
}
102
{ACAD_REACTORS
330
1A
102
}
330
1A
100
AcDbPlotSettings
  1

  2

  4

  6

 40
0.0
 41
0.0
 42
0.0
 43
0.0
 44
0.0
 45
0.0
 46
0.0
 47
0.0
 48
0.0
 49
0.0
140
0.0
141
0.0
142
1.0
143
1.0
 70
   688
 72
     0
 73
     0
 74
     5
  7
單色出圖.ctb
 75
    16
147
1.0
148
0.0
149
0.0
100
AcDbLayout
  1
配置2
 70
     1
 71
     2
 10
0.0
 20
0.0
 11
12.0
 21
9.0
 12
0.0
 22
0.0
 32
0.0
 14
0.0
 24
0.0
 34
0.0
 15
0.0
 25
0.0
 35
0.0
146
0.0
 13
0.0
 23
0.0
 33
0.0
 16
1.0
 26
0.0
 36
0.0
 17
0.0
 27
1.0
 37
0.0
 76
     0
330
23
  0
MLINESTYLE
  5
18
102
{ACAD_REACTORS
330
17
102
}
330
17
100
AcDbMlineStyle
  2
STANDARD
 70
     0
  3

 62
   256
 51
90.0
 52
90.0
 71
     2
 49
0.5
 62
   256
  6
BYLAYER
 49
-0.5
 62
   256
  6
BYLAYER
  0
ACDBPLACEHOLDER
  5
2D26
102
{ACAD_REACTORS
330
E
102
}
330
E
  0
ACDBPLACEHOLDER
  5
F
102
{ACAD_REACTORS
330
E
102
}
330
E
  0
TABLESTYLE
  5
11B
102
{ACAD_REACTORS
330
11A
102
}
330
11A
100
AcDbTableStyle
  3
Standard
 70
     0
 71
     0
 40
1.5
 41
1.5
280
     0
281
     0
  7
STANDARD
140
4.5
170
     2
 62
     0
 63
     7
283
     0
274
    -2
284
     1
 64
     0
275
    -2
285
     1
 65
     0
276
    -2
286
     1
 66
     0
277
    -2
287
     1
 67
     0
278
    -2
288
     1
 68
     0
279
    -2
289
     1
 69
     0
  7
STANDARD
140
6.0
170
     5
 62
     0
 63
     7
283
     0
274
    -2
284
     1
 64
     0
275
    -2
285
     1
 65
     0
276
    -2
286
     1
 66
     0
277
    -2
287
     1
 67
     0
278
    -2
288
     1
 68
     0
279
    -2
289
     1
 69
     0
  7
STANDARD
140
4.5
170
     5
 62
     0
 63
     7
283
     0
274
    -2
284
     1
 64
     0
275
    -2
285
     1
 65
     0
276
    -2
286
     1
 66
     0
277
    -2
287
     1
 67
     0
278
    -2
288
     1
 68
     0
279
    -2
289
     1
 69
     0
  0
DICTIONARYVAR
  5
138
102
{ACAD_REACTORS
330
94
102
}
330
94
100
DictionaryVariables
280
     0
  1
STANDARD
  0
DICTIONARYVAR
  5
96
102
{ACAD_REACTORS
330
94
102
}
330
94
100
DictionaryVariables
280
     0
  1
2
  0
DICTIONARYVAR
  5
95
102
{ACAD_REACTORS
330
94
102
}
330
94
100
DictionaryVariables
280
     0
  1
0
  0
DICTIONARYVAR
  5
46C2
102
{ACAD_REACTORS
330
94
102
}
330
94
100
DictionaryVariables
280
     0
  1

  0
DICTIONARY
  5
1B5
102
{ACAD_REACTORS
330
5B
102
}
330
5B
100
AcDbDictionary
281
     1
  0
DICTIONARY
  5
61
102
{ACAD_REACTORS
330
5B
102
}
330
5B
100
AcDbDictionary
281
     1
  0
XRECORD
  5
123
102
{ACAD_REACTORS
330
5B
102
}
330
5B
100
AcDbXrecord
280
     1
 90
-1023410169
  0
DICTIONARY
  5
46C8
330
22
100
AcDbDictionary
280
     1
281
     1
  3
ACAD_XREC_ROUNDTRIP
360
46C9
  0
DICTIONARY
  5
46C6
330
1E
100
AcDbDictionary
280
     1
281
     1
  3
ACAD_XREC_ROUNDTRIP
360
46C7
  0
DICTIONARY
  5
46CA
330
26
100
AcDbDictionary
280
     1
281
     1
  3
ACAD_XREC_ROUNDTRIP
360
46CB
  0
XRECORD
  5
46C9
102
{ACAD_REACTORS
330
46C8
102
}
330
46C8
100
AcDbXrecord
280
     1
102
SHADEPLOT
 70
     0
102
SHADEPLOTRESLEVEL
 70
     2
102
SHADEPLOTCUSTOMDPI
 70
   300
  0
XRECORD
  5
46C7
102
{ACAD_REACTORS
330
46C6
102
}
330
46C6
100
AcDbXrecord
280
     1
102
SHADEPLOT
 70
     0
102
SHADEPLOTRESLEVEL
 70
     2
102
SHADEPLOTCUSTOMDPI
 70
   300
  0
XRECORD
  5
46CB
102
{ACAD_REACTORS
330
46CA
102
}
330
46CA
100
AcDbXrecord
280
     1
102
SHADEPLOT
 70
     0
102
SHADEPLOTRESLEVEL
 70
     2
102
SHADEPLOTCUSTOMDPI
 70
   300
  0
ENDSEC
  0
EOF
