  0
SECTION
  2
HEADER
  9
$ACADVER
  1
AC1015
  9
$ACADMAINTVER
 70
    20
  9
$DWGCODEPAGE
  3
ANSI_950
  9
$INSBASE
 10
0.0
 20
0.0
 30
0.0
  9
$EXTMIN
 10
97.14294542691551
 20
280.8283143332756
 30
-0.0036857173219289
  9
$EXTMAX
 10
254.9249275435286
 20
485.9001534415021
 30
120.7864863402225
  9
$LIMMIN
 10
0.0
 20
0.0
  9
$LIMMAX
 10
420.0
 20
297.0
  9
$ORTHOMODE
 70
     1
  9
$REGENMODE
 70
     1
  9
$FILLMODE
 70
     1
  9
$QTEXTMODE
 70
     0
  9
$MIRRTEXT
 70
     1
  9
$LTSCALE
 40
1.0
  9
$ATTMODE
 70
     1
  9
$TEXTSIZE
 40
3.0
  9
$TRACEWID
 40
1.0
  9
$TEXTSTYLE
  7
STANDARD
  9
$CLAYER
  8
0
  9
$CELTYPE
  6
ByLayer
  9
$CECOLOR
 62
   256
  9
$CELTSCALE
 40
1.0
  9
$DISPSILH
 70
     0
  9
$DIMSCALE
 40
1.0
  9
$DIMASZ
 40
3.0
  9
$DIMEXO
 40
1.0
  9
$DIMDLI
 40
8.0
  9
$DIMRND
 40
0.0
  9
$DIMDLE
 40
0.0
  9
$DIMEXE
 40
1.5
  9
$DIMTP
 40
0.1
  9
$DIMTM
 40
0.1
  9
$DIMTXT
 40
3.5
  9
$DIMCEN
 40
0.0
  9
$DIMTSZ
 40
0.0
  9
$DIMTOL
 70
     0
  9
$DIMLIM
 70
     0
  9
$DIMTIH
 70
     0
  9
$DIMTOH
 70
     0
  9
$DIMSE1
 70
     0
  9
$DIMSE2
 70
     0
  9
$DIMTAD
 70
     1
  9
$DIMZIN
 70
     8
  9
$DIMBLK
  1

  9
$DIMASO
 70
     1
  9
$DIMSHO
 70
     1
  9
$DIMPOST
  1

  9
$DIMAPOST
  1
"
  9
$DIMALT
 70
     0
  9
$DIMALTD
 70
     2
  9
$DIMALTF
 40
0.0393701
  9
$DIMLFAC
 40
1.0
  9
$DIMTOFL
 70
     1
  9
$DIMTVP
 40
0.0
  9
$DIMTIX
 70
     0
  9
$DIMSOXD
 70
     0
  9
$DIMSAH
 70
     0
  9
$DIMBLK1
  1

  9
$DIMBLK2
  1

  9
$DIMSTYLE
  2
AM_ISO
  9
$DIMCLRD
 70
   256
  9
$DIMCLRE
 70
   256
  9
$DIMCLRT
 70
   256
  9
$DIMTFAC
 40
0.6
  9
$DIMGAP
 40
0.7
  9
$DIMJUST
 70
     0
  9
$DIMSD1
 70
     0
  9
$DIMSD2
 70
     0
  9
$DIMTOLJ
 70
     0
  9
$DIMTZIN
 70
     8
  9
$DIMALTZ
 70
     0
  9
$DIMALTTZ
 70
     0
  9
$DIMUPT
 70
     0
  9
$DIMDEC
 70
     2
  9
$DIMTDEC
 70
     8
  9
$DIMALTU
 70
     2
  9
$DIMALTTD
 70
     2
  9
$DIMTXSTY
  7
STANDARD
  9
$DIMAUNIT
 70
     0
  9
$DIMADEC
 70
     0
  9
$DIMALTRND
 40
0.0
  9
$DIMAZIN
 70
     2
  9
$DIMDSEP
 70
    46
  9
$DIMATFIT
 70
     3
  9
$DIMFRAC
 70
     0
  9
$DIMLDRBLK
  1

  9
$DIMLUNIT
 70
     2
  9
$DIMLWD
 70
    -1
  9
$DIMLWE
 70
    -1
  9
$DIMTMOVE
 70
     0
  9
$LUNITS
 70
     2
  9
$LUPREC
 70
     2
  9
$SKETCHINC
 40
1.0
  9
$FILLETRAD
 40
2.5
  9
$AUNITS
 70
     0
  9
$AUPREC
 70
     0
  9
$MENU
  1
.
  9
$ELEVATION
 40
0.0
  9
$PELEVATION
 40
0.0
  9
$THICKNESS
 40
0.0
  9
$LIMCHECK
 70
     0
  9
$CHAMFERA
 40
2.5
  9
$CHAMFERB
 40
2.5
  9
$CHAMFERC
 40
20.0
  9
$CHAMFERD
 40
0.0
  9
$SKPOLY
 70
     0
  9
$TDCREATE
 40
2453965.689012037
  9
$TDUCREATE
 40
2453965.355678704
  9
$TDUPDATE
 40
2455322.497836192
  9
$TDUUPDATE
 40
2455322.164502859
  9
$TDINDWG
 40
0.0969444676
  9
$TDUSRTIMER
 40
0.0969444676
  9
$USRTIMER
 70
     1
  9
$ANGBASE
 50
0.0
  9
$ANGDIR
 70
     0
  9
$PDMODE
 70
     0
  9
$PDSIZE
 40
0.0
  9
$PLINEWID
 40
0.0
  9
$SPLFRAME
 70
     0
  9
$SPLINETYPE
 70
     6
  9
$SPLINESEGS
 70
     8
  9
$HANDSEED
  5
306F
  9
$SURFTAB1
 70
     6
  9
$SURFTAB2
 70
     6
  9
$SURFTYPE
 70
     6
  9
$SURFU
 70
     6
  9
$SURFV
 70
     6
  9
$UCSBASE
  2

  9
$UCSNAME
  2

  9
$UCSORG
 10
0.0
 20
0.0
 30
0.0
  9
$UCSXDIR
 10
1.0
 20
0.0
 30
0.0
  9
$UCSYDIR
 10
0.0
 20
1.0
 30
0.0
  9
$UCSORTHOREF
  2

  9
$UCSORTHOVIEW
 70
     0
  9
$UCSORGTOP
 10
0.0
 20
0.0
 30
0.0
  9
$UCSORGBOTTOM
 10
0.0
 20
0.0
 30
0.0
  9
$UCSORGLEFT
 10
0.0
 20
0.0
 30
0.0
  9
$UCSORGRIGHT
 10
0.0
 20
0.0
 30
0.0
  9
$UCSORGFRONT
 10
0.0
 20
0.0
 30
0.0
  9
$UCSORGBACK
 10
0.0
 20
0.0
 30
0.0
  9
$PUCSBASE
  2

  9
$PUCSNAME
  2

  9
$PUCSORG
 10
0.0
 20
0.0
 30
0.0
  9
$PUCSXDIR
 10
1.0
 20
0.0
 30
0.0
  9
$PUCSYDIR
 10
0.0
 20
1.0
 30
0.0
  9
$PUCSORTHOREF
  2

  9
$PUCSORTHOVIEW
 70
     0
  9
$PUCSORGTOP
 10
0.0
 20
0.0
 30
0.0
  9
$PUCSORGBOTTOM
 10
0.0
 20
0.0
 30
0.0
  9
$PUCSORGLEFT
 10
0.0
 20
0.0
 30
0.0
  9
$PUCSORGRIGHT
 10
0.0
 20
0.0
 30
0.0
  9
$PUCSORGFRONT
 10
0.0
 20
0.0
 30
0.0
  9
$PUCSORGBACK
 10
0.0
 20
0.0
 30
0.0
  9
$USERI1
 70
     0
  9
$USERI2
 70
     0
  9
$USERI3
 70
     0
  9
$USERI4
 70
     0
  9
$USERI5
 70
     0
  9
$USERR1
 40
0.0
  9
$USERR2
 40
0.0
  9
$USERR3
 40
0.0
  9
$USERR4
 40
0.0
  9
$USERR5
 40
0.0
  9
$WORLDVIEW
 70
     1
  9
$SHADEDGE
 70
     3
  9
$SHADEDIF
 70
    70
  9
$TILEMODE
 70
     1
  9
$MAXACTVP
 70
    64
  9
$PINSBASE
 10
0.0
 20
0.0
 30
0.0
  9
$PLIMCHECK
 70
     0
  9
$PEXTMIN
 10
1.000000000000000E+20
 20
1.000000000000000E+20
 30
1.000000000000000E+20
  9
$PEXTMAX
 10
-1.000000000000000E+20
 20
-1.000000000000000E+20
 30
-1.000000000000000E+20
  9
$PLIMMIN
 10
0.0
 20
0.0
  9
$PLIMMAX
 10
420.0
 20
297.0
  9
$UNITMODE
 70
     0
  9
$VISRETAIN
 70
     1
  9
$PLINEGEN
 70
     0
  9
$PSLTSCALE
 70
     1
  9
$TREEDEPTH
 70
  3020
  9
$CMLSTYLE
  2
Standard
  9
$CMLJUST
 70
     0
  9
$CMLSCALE
 40
20.0
  9
$PROXYGRAPHICS
 70
     1
  9
$MEASUREMENT
 70
     1
  9
$CELWEIGHT
370
    -1
  9
$ENDCAPS
280
     0
  9
$JOINSTYLE
280
     0
  9
$LWDISPLAY
290
     0
  9
$INSUNITS
 70
     4
  9
$HYPERLINKBASE
  1

  9
$STYLESHEET
  1
acad.ctb
  9
$XEDIT
290
     1
  9
$CEPSNTYPE
380
     0
  9
$PSTYLEMODE
290
     1
  9
$FINGERPRINTGUID
  2
{8012A336-B5C9-4CB1-A428-E581F243F217}
  9
$VERSIONGUID
  2
{84E5B29C-7859-4A86-AD14-09C895B9314B}
  9
$EXTNAMES
290
     1
  9
$PSVPSCALE
 40
0.0
  9
$OLESTARTUP
290
     0
  0
ENDSEC
  0
SECTION
  2
CLASSES
  0
CLASS
  1
ACDBDICTIONARYWDFLT
  2
AcDbDictionaryWithDefault
  3
ObjectDBX Classes
 90
        0
280
     0
281
     0
  0
CLASS
  1
ACDBPLACEHOLDER
  2
AcDbPlaceHolder
  3
ObjectDBX Classes
 90
        0
280
     0
281
     0
  0
CLASS
  1
LAYOUT
  2
AcDbLayout
  3
ObjectDBX Classes
 90
        0
280
     0
281
     0
  0
CLASS
  1
ACME_DOCUMENT
  2
AcMeDbDoc
  3
AcMeServices
 90
        0
280
     0
281
     0
  0
CLASS
  1
AMGSETTINGSOBJ
  2
AmgSettingsObj
  3
"AcadM|Product Description: AutoCAD Mechanical 2000|Company: Autodesk"
 90
        0
280
     0
281
     0
  0
CLASS
  1
ACMESCOPE
  2
AcMeScope
  3
AcMeServices
 90
        0
280
     0
281
     0
  0
CLASS
  1
ACMECOMMANDHISTORY
  2
AcMeCommandHistory
  3
AcMeServices
 90
        0
280
     0
281
     0
  0
CLASS
  1
ACIMSYSVARMAN
  2
AcImSysVarManager
  3
AcMeServices
 90
        0
280
     0
281
     0
  0
CLASS
  1
ACIMREALSYSVAR
  2
AcImRealSysVar
  3
AcMeServices
 90
        0
280
     0
281
     0
  0
CLASS
  1
ACIMINTSYSVAR
  2
AcImIntSysVar
  3
AcMeServices
 90
        0
280
     0
281
     0
  0
CLASS
  1
ACMEDRAWINGMAN
  2
AcMeDrawingMan
  3
AcMeServices
 90
        0
280
     0
281
     0
  0
CLASS
  1
ACMEVIEW
  2
AcMeView
  3
AcMeServices
 90
        0
280
     0
281
     0
  0
CLASS
  1
ACDBENTITYCACHE
  2
AcMeEntityCache
  3
AcMeServices
 90
        0
280
     0
281
     0
  0
CLASS
  1
GSMANAGER
  2
AcMeGSManager
  3
AcMeServices
 90
        0
280
     0
281
     0
  0
CLASS
  1
AMDTINTERNALREACTOR
  2
AmdtInternalReactor
  3
AcMeServices
 90
        0
280
     0
281
     0
  0
CLASS
  1
ACMESTATEMGR
  2
AcMeStateMgr
  3
AcMeServices
 90
        0
280
     0
281
     0
  0
CLASS
  1
ACGREFMASTER
  2
AcGrefMaster
  3
AcAttribServices
 90
        0
280
     0
281
     0
  0
CLASS
  1
ACME_DATABASE
  2
AcMeDbDatabase
  3
AcMeServices
 90
        0
280
     0
281
     0
  0
CLASS
  1
ACRFINSADJUSTERMGR
  2
AcRfInsAdjusterMgr
  3
AcMeServices
 90
        0
280
     0
281
     0
  0
CLASS
  1
ACGREFACADMASTER
  2
AcGrefacadMaster
  3
AcGrefServices
 90
        0
280
     0
281
     0
  0
CLASS
  1
AMIMASTER
  2
AmiMaster
  3
AmiServices
 90
        0
280
     0
281
     0
  0
CLASS
  1
ACMDATADICTIONARY
  2
AcmDataDictionary
  3
"AcmSymBB|Product Description: AutoCAD Mechanical 2004 DX|Company: Autodesk"
 90
        0
280
     0
281
     0
  0
CLASS
  1
ACMDATAENTRYBLOCK
  2
AcmDataEntryBlock
  3
"AcmSymBB|Product Description: AutoCAD Mechanical 2004 DX|Company: Autodesk"
 90
        0
280
     0
281
     0
  0
CLASS
  1
ACIMSTRSYSVAR
  2
AcImStrSysVar
  3
AcMeServices
 90
        0
280
     0
281
     0
  0
CLASS
  1
ACMSTANDARDISO
  2
AcmStandardISO
  3
"Amdt_StdImp|Product Description: AutoCAD Mechanical 2004 DX|Company: Autodesk"
 90
        0
280
     0
281
     0
  0
CLASS
  1
AMGOBJPROPCFG
  2
AmgObjPropCfg
  3
"AmgLay|Product Description: AutoCAD Mechanical 2000|Company: Autodesk"
 90
        1
280
     0
281
     0
  0
CLASS
  1
AMDTEDGESTANDARDISO
  2
AmdtEdgeStdISO
  3
"Amdt_StdImp|Product Description: AutoCAD Mechanical 2004 DX|Company: Autodesk"
 90
    32768
280
     0
281
     0
  0
CLASS
  1
ACMSURFSTANDARDISO
  2
AcmSurfTextStdISO
  3
"Amdt_StdImp|Product Description: AutoCAD Mechanical 2004 DX|Company: Autodesk"
 90
        0
280
     0
281
     0
  0
CLASS
  1
ACMFCFSTANDARDISO
  2
AcmFCFStdISO
  3
"Amdt_StdImp|Product Description: AutoCAD Mechanical 2004 DX|Company: Autodesk"
 90
        0
280
     0
281
     0
  0
CLASS
  1
ACMWELDSTANDARDISO
  2
AcmWeldingStdISO
  3
"Amdt_StdImp|Product Description: AutoCAD Mechanical 2004 DX|Company: Autodesk"
 90
        0
280
     0
281
     0
  0
CLASS
  1
ACMIDSTANDARDISO
  2
AcmIdStdISO
  3
"Amdt_StdImp|Product Description: AutoCAD Mechanical 2004 DX|Company: Autodesk"
 90
        0
280
     0
281
     0
  0
CLASS
  1
ACMDATUMSTANDARDISO
  2
AcmDatumStdISO
  3
"Amdt_StdImp|Product Description: AutoCAD Mechanical 2004 DX|Company: Autodesk"
 90
        0
280
     0
281
     0
  0
CLASS
  1
ACMBOMSTANDARDISO
  2
AcmBOMStdISO
  3
"Amdt_StdImp|Product Description: AutoCAD Mechanical 2004 DX|Company: Autodesk"
 90
        0
280
     0
281
     0
  0
CLASS
  1
ACMDETAILSTANDARDISO
  2
AmdtDetailSymStdISO
  3
"Amdt_StdImp|Product Description: AutoCAD Mechanical 2004 DX|Company: Autodesk"
 90
        0
280
     0
281
     0
  0
CLASS
  1
ACMSECTIONSTANDARDISO
  2
AmdtSectionSymStdISO
  3
"Amdt_StdImp|Product Description: AutoCAD Mechanical 2004 DX|Company: Autodesk"
 90
        0
280
     0
281
     0
  0
CLASS
  1
ACMCENTERLINESTANDARDISO
  2
AmdtCenterLineStdISO
  3
"Amdt_StdImp|Product Description: AutoCAD Mechanical 2004 DX|Company: Autodesk"
 90
        0
280
     0
281
     0
  0
CLASS
  1
ACMNOTESTANDARDISO
  2
AmdtNoteStdISO
  3
"Amdt_StdImp|Product Description: AutoCAD Mechanical 2004 DX|Company: Autodesk"
 90
        0
280
     0
281
     0
  0
CLASS
  1
ACAMGLAYSTD
  2
AcAmgLayStd
  3
"AcAmgLayStd|Product Description: AutoCAD Mechanical 2000|Company: Autodesk"
 90
        0
280
     0
281
     0
  0
CLASS
  1
ACAMGDIMSTD
  2
AcAmgDimStd
  3
"AcAmgDimStd|Product Description: AutoCAD Mechanical 2000|Company: Autodesk"
 90
        0
280
     0
281
     0
  0
CLASS
  1
ACAMGHOLECHARTSTDISO
  2
AcAmgHoleChartStdISO
  3
ACMSYMBB_MODULE_NAME
 90
        0
280
     0
281
     0
  0
CLASS
  1
ACAMGTITLESTD
  2
AcAmgTitleStd
  3
"TITLEAPP"
 90
        0
280
     0
281
     0
  0
CLASS
  1
LAYER_INDEX
  2
AcDbLayerIndex
  3
ObjectDBX Classes
 90
        0
280
     0
281
     0
  0
CLASS
  1
IDBUFFER
  2
AcDbIdBuffer
  3
ObjectDBX Classes
 90
        0
280
     0
281
     0
  0
CLASS
  1
DICTIONARYVAR
  2
AcDbDictionaryVar
  3
ObjectDBX Classes
 90
        0
280
     0
281
     0
  0
CLASS
  1
AM_DRAWING_MGR
  2
AcDmDwgMgr
  3
AcMechDwgViewMgmt
 90
        0
280
     0
281
     0
  0
CLASS
  1
AM_DWG_DOCUMENT
  2
AcDmDwgDocument
  3
AcMechDwgViewMgmt
 90
        0
280
     0
281
     0
  0
CLASS
  1
AM_DWG_SHEET
  2
AcDmSheet
  3
AcMechDwgViewMgmt
 90
        0
280
     0
281
     0
  0
CLASS
  1
AM_VIEWDIMPARMAP
  2
AcDmViewDimParMap
  3
AcMechDwgViewMgmt
 90
        0
280
     0
281
     0
  0
CLASS
  1
AM_DWGMGR_NAME
  2
AcDmDwgMgrName
  3
AcMechDwgViewMgmt
 90
        0
280
     0
281
     0
  0
CLASS
  1
AMDTMENUSTATEMGR
  2
AmdtMenuStateMgr
  3
McadcomServices
 90
        0
280
     0
281
     0
  0
CLASS
  1
AMDTMCOMMENUSTATE
  2
AmdtMcomMenuState
  3
McadcomServices
 90
        0
280
     0
281
     0
  0
CLASS
  1
MAPIAMMOUDLE
  2
MApiAmModule
  3
MApiAmServices
 90
        0
280
     0
281
     0
  0
CLASS
  1
AMDTADMENUSTATE
  2
AmdtAdMenuState
  3
DesignerServices
 90
        0
280
     0
281
     0
  0
CLASS
  1
ADAPPL
  2
AcAdAppl
  3
DesignerServices
 90
        0
280
     0
281
     0
  0
CLASS
  1
DEPMGR
  2
AcAdDepMgr
  3
DesignerServices
 90
        0
280
     0
281
     0
  0
CLASS
  1
PARAMMGR
  2
AcAdParamMgr
  3
DesignerServices
 90
        0
280
     0
281
     0
  0
CLASS
  1
PARAMSCOPE
  2
AcAdParamScope
  3
DesignerServices
 90
        0
280
     0
281
     0
  0
CLASS
  1
NAMEDAPPL
  2
AcAdNamedAppl
  3
DesignerServices
 90
        0
280
     0
281
     0
  0
CLASS
  1
AMDTDMMENUSTATE
  2
AmdtDmMenuState
  3
AcMechDwgViewMgmt
 90
        0
280
     0
281
     0
  0
CLASS
  1
AMDTAMMENUSTATE
  2
AmdtAmMenuState
  3
DesignerAssemblies
 90
        0
280
     0
281
     0
  0
CLASS
  1
ACAMPROJECT
  2
AcAmProject
  3
DesignerAssemblies
 90
        0
280
     0
281
     0
  0
CLASS
  1
ACAMGRCOMPDEF
  2
AcAmGrCompDef
  3
DesignerAssemblies
 90
        0
280
     0
281
     0
  0
CLASS
  1
ACCMCONTEXT
  2
AcCmContext
  3
DesignerAssemblies
 90
        0
280
     0
281
     0
  0
CLASS
  1
ACAMCOMPDEF
  2
AcAmCompDef
  3
DesignerAssemblies
 90
        0
280
     0
281
     0
  0
CLASS
  1
ACAMCOMPDEFMGR
  2
AcAmCompDefMgr
  3
DesignerAssemblies
 90
        0
280
     0
281
     0
  0
CLASS
  1
AMCONTEXTMGR
  2
AcAmContextMgr
  3
DesignerAssemblies
 90
        0
280
     0
281
     0
  0
CLASS
  1
ACAMCONTEXTMODELER
  2
AcAmContextModeler
  3
DesignerAssemblies
 90
        0
280
     0
281
     0
  0
CLASS
  1
ACMTHREADLINESTANDARDISO
  2
AmdtThreadLineStdISO
  3
"Amdt_StdImp|Product Description: AutoCAD Mechanical 2004 DX|Company: Autodesk"
 90
        0
280
     0
281
     0
  0
CLASS
  1
CATALOGSTATE
  2
AcAmCatalogState
  3
DesignerAssemblies
 90
        0
280
     0
281
     0
  0
CLASS
  1
ACAMGRCOMPDEFSET
  2
AcAmGrCompDefSet
  3
DesignerAssemblies
 90
        0
280
     0
281
     0
  0
CLASS
  1
AMDTBROWSERDBTAB
  2
AmdtBrowserDbTab
  3
McadcomServices
 90
        0
280
     0
281
     0
  0
CLASS
  1
CBROWSERAPPOBJECT
  2
CBrowserAppObject
  3
McadcomServices
 90
        0
280
     0
281
     0
  0
CLASS
  1
DM_PLACEHOLDER
  2
AcDmSelsetPlaceholder
  3
AcMechDwgViewMgmt
 90
        0
280
     0
281
     0
  0
CLASS
  1
TABLESTYLE
  2
AcDbTableStyle
  3
ObjectDBX Classes
 90
     2047
280
     0
281
     0
  0
CLASS
  1
VAACXREFPANELOBJECT
  2
VaAcXREFPanelObject
  3
VAAC_ADDIN
 90
    32768
280
     0
281
     0
  0
CLASS
  1
VAACIMAGEINVENTORY
  2
VaAcImageInventory
  3
VAAC_ADDIN
 90
    32768
280
     0
281
     0
  0
CLASS
  1
AMDTNOTETEMPLATEDB
  2
AmdtNoteTemplateDB
  3
AMDT_STDIMP_MODULE_NAME
 90
        0
280
     0
281
     0
  0
CLASS
  1
ACMBOM
  2
AcmBom
  3
"AcmSymBB|Product Description: AutoCAD Mechanical 2004 DX|Company: Autodesk"
 90
    32768
280
     0
281
     0
  0
CLASS
  1
AMDTFORMULAUPDATEDISPATCHER
  2
AmdtFormulaUpdateDispatcher
  3
AcMeServices
 90
    32768
280
     0
281
     0
  0
CLASS
  1
ACMPARTLIST
  2
AcmPartList
  3
"AcmSymBB|Product Description: AutoCAD Mechanical 2004 DX|Company: Autodesk"
 90
    33791
280
     0
281
     1
  0
CLASS
  1
ACAMGFILTERDAT
  2
AcAmgFilterDat
  3
"AcadM|Product Description: AutoCAD Mechanical 2000|Company: Autodesk"
 90
    32768
280
     0
281
     0
  0
CLASS
  1
DIMASSOC
  2
AcDbDimAssoc
  3
"AcDbDimAssoc|Product Desc:     AcDim ARX App For Dimension|Company:          Autodesk, Inc.|WEB Address:      www.autodesk.com"
 90
        0
280
     0
281
     0
  0
CLASS
  1
SORTENTSTABLE
  2
AcDbSortentsTable
  3
ObjectDBX Classes
 90
        0
280
     0
281
     0
  0
CLASS
  1
STDPART2D
  2
AmgStdPart
  3
"AmgStdPart|Product Description: AutoCAD Mechanical 2000|Company: Autodesk"
 90
    33791
280
     0
281
     1
  0
CLASS
  1
ACAMSTDPCOMPDEF
  2
AcAmStdpCompDef
  3
DesignerAssemblies
 90
    32768
280
     0
281
     0
  0
CLASS
  1
ACRFATTGENMGR
  2
AcRfAttGeneralMgr
  3
AcAttribServices
 90
    32768
280
     0
281
     0
  0
CLASS
  1
ACRFOBJATTMGR
  2
AcRfObjAttGroupMgr
  3
AcAttribServices
 90
    32768
280
     0
281
     0
  0
CLASS
  1
ACRFMCADAPIATTHOLDER
  2
AcRfMCADAPIAttHolder
  3
AcAttribServices
 90
    32768
280
     0
281
     0
  0
CLASS
  1
AMDTSYSATTR
  2
AmdtSystemAttribute
  3
AcAttribServices
 90
    32768
280
     0
281
     0
  0
CLASS
  1
ACAMCOMP
  2
AcAmComp
  3
DesignerAssemblies
 90
    32768
280
     0
281
     0
  0
CLASS
  1
AC_AM_STDP_VIEW_DEF
  2
AcAmStdpViewDef
  3
DesignerAssemblies
 90
    32768
280
     0
281
     0
  0
CLASS
  1
AC_AM_MVD_DEP_MGR
  2
AcAmMVDdepMgr
  3
DesignerAssemblies
 90
    32768
280
     0
281
     0
  0
CLASS
  1
AC_AM_MASTER_VIEW_DEF
  2
AcAmMasterViewDef
  3
DesignerAssemblies
 90
    32768
280
     0
281
     0
  0
CLASS
  1
AC_AM_DIRTY_NODES
  2
AcAmDirtyNodes
  3
DesignerAssemblies
 90
    32768
280
     0
281
     0
  0
CLASS
  1
AC_AM_MAPPER_CACHE
  2
AcAmMapperCache
  3
DesignerAssemblies
 90
    32768
280
     0
281
     0
  0
CLASS
  1
ACAMMVDBACKUPOBJECT
  2
AcAmMVDBackupObject
  3
DesignerAssemblies
 90
    32768
280
     0
281
     0
  0
CLASS
  1
AC_AM_COMP_VIEW_INST
  2
AcAmCompView
  3
DesignerAssemblies
 90
    32768
280
     0
281
     0
  0
CLASS
  1
AC_AM_2D_XREF_MGR
  2
AcAmXrefMgr2d
  3
DesignerAssemblies
 90
    32768
280
     0
281
     0
  0
CLASS
  1
AMDTEDGESTANDARDISO13715
  2
AmdtEdgeStdISO13715
  3
"Amdt_StdImp|Product Description: AutoCAD Mechanical 2004 DX|Company: Autodesk"
 90
        0
280
     0
281
     0
  0
CLASS
  1
ASAPP
  2
AcAsAppObject
  3
AutoSurfServices
 90
        0
280
     0
281
     0
  0
CLASS
  1
IM_STATIC_MAN
  2
AcImStaticVarManager
  3
AcMeServices
 90
        0
280
     0
281
     0
  0
CLASS
  1
ACIMDBLSTATICVAR
  2
AcImDblStaticVar
  3
AcMeServices
 90
        0
280
     0
281
     0
  0
CLASS
  1
ACIMSTRSTATICVAR
  2
AcImStrStaticVar
  3
AcMeServices
 90
        0
280
     0
281
     0
  0
CLASS
  1
ACIMINTSTATICVAR
  2
AcImIntStaticVar
  3
AcMeServices
 90
        0
280
     0
281
     0
  0
CLASS
  1
ACASGREFMASTER
  2
AcAsGrefMaster
  3
AutoSurfResolverServices
 90
        0
280
     0
281
     0
  0
CLASS
  1
ACADGREFMODULE
  2
AcAdGrefModule
  3
AdGrefServices
 90
        0
280
     0
281
     0
  0
CLASS
  1
AMDTMAPISURFMOUDULE
  2
AmdtMApiSurfModule
  3
MApiSurfServices
 90
        0
280
     0
281
     0
  0
CLASS
  1
MAPIADMODULE
  2
MApiAdModule
  3
MApiAdServices
 90
        0
280
     0
281
     0
  0
ENDSEC
  0
SECTION
  2
TABLES
  0
TABLE
  2
VPORT
  5
8
330
0
100
AcDbSymbolTable
 70
     5
  0
VPORT
  5
3066
330
8
100
AcDbSymbolTableRecord
100
AcDbViewportTableRecord
  2
*Active
 70
     0
 10
0.0
 20
0.0
 11
1.0
 21
1.0
 12
-17.20733644581321
 22
15.67766309823014
 13
0.0
 23
0.0
 14
2.5
 24
2.5
 15
10.0
 25
10.0
 16
0.0
 26
0.0
 36
1.0
 17
193.2412729310352
 27
367.6865707891587
 37
0.0
 40
206.8146592706195
 41
0.9815602836879431
 42
50.0
 43
0.0
 44
0.0
 50
0.0
 51
0.0
 71
     0
 72
   100
 73
     1
 74
     3
 75
     0
 76
     0
 77
     0
 78
     0
281
     0
 65
     0
110
0.0
120
0.0
130
0.0
111
1.0
121
0.0
131
0.0
112
0.0
122
1.0
132
0.0
 79
     0
146
0.0
  0
ENDTAB
  0
TABLE
  2
LTYPE
  5
5
330
0
100
AcDbSymbolTable
 70
    16
  0
LTYPE
  5
14
330
5
100
AcDbSymbolTableRecord
100
AcDbLinetypeTableRecord
  2
ByBlock
 70
     0
  3

 72
    65
 73
     0
 40
0.0
  0
LTYPE
  5
15
330
5
100
AcDbSymbolTableRecord
100
AcDbLinetypeTableRecord
  2
ByLayer
 70
     0
  3

 72
    65
 73
     0
 40
0.0
  0
LTYPE
  5
16
330
5
100
AcDbSymbolTableRecord
100
AcDbLinetypeTableRecord
  2
Continuous
 70
     0
  3
Solid line
 72
    65
 73
     0
 40
0.0
  0
LTYPE
  5
64
330
5
100
AcDbSymbolTableRecord
100
AcDbLinetypeTableRecord
  2
AM_ISO02W050
 70
     0
  3
__ __ __ __ __ __ __ __ __ __ __ __ __ __ __
 72
    65
 73
     2
 40
7.5
 49
6.0
 74
     0
 49
-1.5
 74
     0
  0
LTYPE
  5
65
330
5
100
AcDbSymbolTableRecord
100
AcDbLinetypeTableRecord
  2
AM_ISO08W050
 70
     0
  3
____ . ____ . ____ . ____ . ____ . ____ . ____
 72
    65
 73
     4
 40
18.0
 49
12.0
 74
     0
 49
-1.5
 74
     0
 49
3.0
 74
     0
 49
-1.5
 74
     0
  0
LTYPE
  5
66
330
5
100
AcDbSymbolTableRecord
100
AcDbLinetypeTableRecord
  2
AM_ISO09W050
 70
     0
  3
_____ . . _____ . . _____ . . ____ .. ____
 72
    65
 73
     6
 40
22.5
 49
12.0
 74
     0
 49
-1.5
 74
     0
 49
3.0
 74
     0
 49
-1.5
 74
     0
 49
3.0
 74
     0
 49
-1.5
 74
     0
  0
LTYPE
  5
67
330
5
100
AcDbSymbolTableRecord
100
AcDbLinetypeTableRecord
  2
Amconstr
 70
     0
  3
_______________________
 72
    65
 73
     2
 40
9999.0
 49
9999.0
 74
     0
 49
0.0
 74
     0
  0
LTYPE
  5
68
330
5
100
AcDbSymbolTableRecord
100
AcDbLinetypeTableRecord
  2
AM_ISO08W050x2
 70
     0
  3
__ . __ . __ . __ . __ . __
 72
    65
 73
     4
 40
9.0
 49
6.0
 74
     0
 49
-0.75
 74
     0
 49
1.5
 74
     0
 49
-0.75
 74
     0
  0
LTYPE
  5
69
330
5
100
AcDbSymbolTableRecord
100
AcDbLinetypeTableRecord
  2
AM_ISO02W050x2
 70
     0
  3
 _ _ _ _ _ _ _ _ _ _ _ _
 72
    65
 73
     2
 40
3.75
 49
3.0
 74
     0
 49
-0.75
 74
     0
  0
LTYPE
  5
6C
330
5
100
AcDbSymbolTableRecord
100
AcDbLinetypeTableRecord
  2
Amzigzag
 70
     0
  3
/\/-/\/-/\/-/\/-/\/-/\/
 72
    65
 73
     2
 40
11.0001
 49
0.0001
 74
     4
 75
   135
340
6B
 46
0.04
 50
0.0
 44
0.0
 45
0.0
 49
-11.0
 74
     0
  0
LTYPE
  5
7A
330
5
100
AcDbSymbolTableRecord
100
AcDbLinetypeTableRecord
  2
ACISOWELD
 70
     0
  3
_ _ _ _ _
 72
    65
 73
     2
 40
2.0
 49
2.0
 74
     0
 49
-1.0
 74
     0
  0
LTYPE
  5
7B
330
5
100
AcDbSymbolTableRecord
100
AcDbLinetypeTableRecord
  2
ACISOTGB
 70
     0
  3
__ . . __ . .
 72
    65
 73
     6
 40
9.0
 49
4.0
 74
     0
 49
-1.0
 74
     0
 49
1.0
 74
     0
 49
-1.0
 74
     0
 49
1.0
 74
     0
 49
-1.0
 74
     0
  0
LTYPE
  5
7C
330
5
100
AcDbSymbolTableRecord
100
AcDbLinetypeTableRecord
  2
ACISOTGL
 70
     0
  3
_ _ _ _ _
 72
    65
 73
     2
 40
3.0
 49
2.0
 74
     0
 49
-1.0
 74
     0
  0
LTYPE
  5
7E
330
5
100
AcDbSymbolTableRecord
100
AcDbLinetypeTableRecord
  2
CENTER
 70
     0
  3
__ . __
 72
    65
 73
     4
 40
7.0
 49
4.0
 74
     0
 49
-1.0
 74
     0
 49
1.0
 74
     0
 49
-1.0
 74
     0
  0
LTYPE
  5
D8
330
5
100
AcDbSymbolTableRecord
100
AcDbLinetypeTableRecord
  2
HIDDEN
 70
     0
  3
Hidden __ __ __ __ __ __ __ __ __ __ __ __ __ _
 72
    65
 73
     2
 40
9.524999999999998
 49
6.349999999999999
 74
     0
 49
-3.174999999999999
 74
     0
  0
LTYPE
  5
D9
330
5
100
AcDbSymbolTableRecord
100
AcDbLinetypeTableRecord
  2
PHANTOM2
 70
     0
  3
Phantom (.5x) ___ _ _ ___ _ _ ___ _ _ ___ _ _
 72
    65
 73
     6
 40
31.75
 49
15.875
 74
     0
 49
-3.174999999999999
 74
     0
 49
3.174999999999999
 74
     0
 49
-3.174999999999999
 74
     0
 49
3.174999999999999
 74
     0
 49
-3.174999999999999
 74
     0
  0
ENDTAB
  0
TABLE
  2
LAYER
  5
2
102
{ACAD_XDICTIONARY
360
3F9
102
}
330
0
100
AcDbSymbolTable
 70
     6
  0
LAYER
  5
10
330
2
100
AcDbSymbolTableRecord
100
AcDbLayerTableRecord
  2
0
 70
     0
 62
     7
  6
Continuous
370
    -3
390
F
  0
LAYER
  5
B0C
330
2
100
AcDbSymbolTableRecord
100
AcDbLayerTableRecord
  2
AM_5
 70
     0
 62
     5
  6
Continuous
370
    50
390
F
  0
LAYER
  5
B0D
330
2
100
AcDbSymbolTableRecord
100
AcDbLayerTableRecord
  2
Defpoints
 70
     0
 62
     7
  6
Continuous
290
     0
370
    -3
390
F
  0
LAYER
  5
1774
330
2
100
AcDbSymbolTableRecord
100
AcDbLayerTableRecord
  2
LOGO
 70
     0
 62
     7
  6
Continuous
370
    -3
390
F
  0
ENDTAB
  0
TABLE
  2
STYLE
  5
3
330
0
100
AcDbSymbolTable
 70
     5
  0
STYLE
  5
11
330
3
100
AcDbSymbolTableRecord
100
AcDbTextStyleTableRecord
  2
STANDARD
 70
     0
 40
0.0
 41
1.0
 50
0.0
 71
     0
 42
3.0
  3
ISOCP.SHX
  4
CHINESET.SHX
  0
STYLE
  5
6B
330
3
100
AcDbSymbolTableRecord
100
AcDbTextStyleTableRecord
  2

 70
     1
 40
0.0
 41
1.0
 50
0.0
 71
     0
 42
2.5
  3
ltypeshp.shx
  4

  0
STYLE
  5
6D
330
3
100
AcDbSymbolTableRecord
100
AcDbTextStyleTableRecord
  2
ACISOTS
 70
     0
 40
1.0
 41
1.0
 50
0.0
 71
     0
 42
1.0
  3
isocp.shx
  4
chineset.shx
  0
STYLE
  5
79
330
3
100
AcDbSymbolTableRecord
100
AcDbTextStyleTableRecord
  2
ACISOGDT
 70
     0
 40
0.0
 41
1.0
 50
0.0
 71
     0
 42
2.5
  3
amgdt.shx
  4
chineset.shx
  0
STYLE
  5
F5C
330
3
100
AcDbSymbolTableRecord
100
AcDbTextStyleTableRecord
  2
CHINESET
 70
     0
 40
0.0
 41
1.0
 50
0.0
 71
     0
 42
2.5
  3
simplex.shx
  4
chineset.shx
  0
ENDTAB
  0
TABLE
  2
VIEW
  5
6
330
0
100
AcDbSymbolTable
 70
     0
  0
ENDTAB
  0
TABLE
  2
UCS
  5
7
330
0
100
AcDbSymbolTable
 70
     0
  0
ENDTAB
  0
TABLE
  2
APPID
  5
9
330
0
100
AcDbSymbolTable
 70
    32
  0
APPID
  5
12
330
9
100
AcDbSymbolTableRecord
100
AcDbRegAppTableRecord
  2
ACAD
 70
     0
  0
APPID
  5
46
330
9
100
AcDbSymbolTableRecord
100
AcDbRegAppTableRecord
  2
MCAD_NO_VIS
 70
     0
  0
APPID
  5
47
330
9
100
AcDbSymbolTableRecord
100
AcDbRegAppTableRecord
  2
ACAD_TEMP_GRAPHIC
 70
     0
  0
APPID
  5
58
330
9
100
AcDbSymbolTableRecord
100
AcDbRegAppTableRecord
  2
ACATTRIBSERVICES
 70
     0
  0
APPID
  5
EE
330
9
100
AcDbSymbolTableRecord
100
AcDbRegAppTableRecord
  2
AD_DRAW
 70
     0
  0
APPID
  5
10C
330
9
100
AcDbSymbolTableRecord
100
AcDbRegAppTableRecord
  2
DESIGNERASSEMBLIES
 70
     0
  0
APPID
  5
111
330
9
100
AcDbSymbolTableRecord
100
AcDbRegAppTableRecord
  2
ACADM_DIM_EDIT
 70
     0
  0
APPID
  5
112
330
9
100
AcDbSymbolTableRecord
100
AcDbRegAppTableRecord
  2
AMDT_DM_ADJ
 70
     0
  0
APPID
  5
22C
330
9
100
AcDbSymbolTableRecord
100
AcDbRegAppTableRecord
  2
ACAD_DSTYLE_DIMTEXT_FILL
 70
     0
  0
APPID
  5
452
330
9
100
AcDbSymbolTableRecord
100
AcDbRegAppTableRecord
  2
GENIUS_GENOENT_13
 70
     0
  0
APPID
  5
453
330
9
100
AcDbSymbolTableRecord
100
AcDbRegAppTableRecord
  2
GENIUS_GENOBJ-N-CRS_13
 70
     0
  0
APPID
  5
454
330
9
100
AcDbSymbolTableRecord
100
AcDbRegAppTableRecord
  2
GENIUS_GENOLIS_13
 70
     0
  0
APPID
  5
455
330
9
100
AcDbSymbolTableRecord
100
AcDbRegAppTableRecord
  2
GENIUS_GENODEF_13
 70
     0
  0
APPID
  5
456
330
9
100
AcDbSymbolTableRecord
100
AcDbRegAppTableRecord
  2
GENIUS_GENOREF_13
 70
     0
  0
APPID
  5
6F3
330
9
100
AcDbSymbolTableRecord
100
AcDbRegAppTableRecord
  2
ACAD_PSEXT
 70
     0
  0
APPID
  5
808
330
9
100
AcDbSymbolTableRecord
100
AcDbRegAppTableRecord
  2
GENIUS_GENDTOL_13
 70
     0
  0
APPID
  5
B11
330
9
100
AcDbSymbolTableRecord
100
AcDbRegAppTableRecord
  2
GENIUS_GENOBJ-N-CEN_13
 70
     0
  0
APPID
  5
B12
330
9
100
AcDbSymbolTableRecord
100
AcDbRegAppTableRecord
  2
GENIUS_GENCEN_19
 70
     0
  0
APPID
  5
166E
330
9
100
AcDbSymbolTableRecord
100
AcDbRegAppTableRecord
  2
GEVID1155862074
 70
     0
  0
APPID
  5
166F
330
9
100
AcDbSymbolTableRecord
100
AcDbRegAppTableRecord
  2
GEVDC
 70
     0
  0
APPID
  5
1686
330
9
100
AcDbSymbolTableRecord
100
AcDbRegAppTableRecord
  2
AMG_2DHIDE
 70
     0
  0
APPID
  5
1687
330
9
100
AcDbSymbolTableRecord
100
AcDbRegAppTableRecord
  2
AMG_2DSTRUCT_BTR
 70
     0
  0
APPID
  5
1698
330
9
100
AcDbSymbolTableRecord
100
AcDbRegAppTableRecord
  2
ACADM_2DVIEW_IGN_NOTIFY
 70
     0
  0
APPID
  5
16CC
330
9
100
AcDbSymbolTableRecord
100
AcDbRegAppTableRecord
  2
GEVID1155862075
 70
     0
  0
APPID
  5
16CD
330
9
100
AcDbSymbolTableRecord
100
AcDbRegAppTableRecord
  2
GEVRADREF
 70
     0
  0
APPID
  5
1775
330
9
100
AcDbSymbolTableRecord
100
AcDbRegAppTableRecord
  2
GENIUS_GENREC_14
 70
     0
  0
APPID
  5
1776
330
9
100
AcDbSymbolTableRecord
100
AcDbRegAppTableRecord
  2
GENIUS_GENOBJ-N-REC_13
 70
     0
  0
APPID
  5
1CDE
330
9
100
AcDbSymbolTableRecord
100
AcDbRegAppTableRecord
  2
AcAecLayerStandard
 70
     0
  0
APPID
  5
23E5
330
9
100
AcDbSymbolTableRecord
100
AcDbRegAppTableRecord
  2
GENIUS_GENDIM_13
 70
     0
  0
APPID
  5
23E6
330
9
100
AcDbSymbolTableRecord
100
AcDbRegAppTableRecord
  2
GENIUS_GE3DTOL_13
 70
     0
  0
APPID
  5
2466
330
9
100
AcDbSymbolTableRecord
100
AcDbRegAppTableRecord
  2
ASURF_PCURVE_APPNAME
 70
     0
  0
APPID
  5
246B
330
9
100
AcDbSymbolTableRecord
100
AcDbRegAppTableRecord
  2
AMG_3D2D_5.0
 70
     0
  0
ENDTAB
  0
TABLE
  2
DIMSTYLE
  5
A
330
0
100
AcDbSymbolTable
 70
     8
100
AcDbDimStyleTable
 71
     3
340
81
340
8B
340
86
  0
DIMSTYLE
105
81
330
A
100
AcDbSymbolTableRecord
100
AcDbDimStyleTableRecord
  2
AM_ISO
 70
     0
  4
"
 41
3.0
 42
1.0
 43
8.0
 44
1.5
 47
0.1
 48
0.1
 73
     0
 74
     0
 77
     1
 78
     8
 79
     2
140
3.5
141
0.0
143
0.0393701
146
0.6
147
0.7
172
     1
176
   256
177
   256
178
   256
271
     2
272
     2
283
     0
284
     8
340
11
371
    -1
372
    -1
  0
DIMSTYLE
105
82
330
A
100
AcDbSymbolTableRecord
100
AcDbDimStyleTableRecord
  2
AM_ISO$3
 70
     0
  4
"
 41
3.0
 42
1.0
 43
8.0
 44
1.5
 47
0.1
 48
0.1
 73
     0
 77
     1
 78
     8
 79
     2
140
3.5
141
0.0
143
0.0393701
146
0.6
147
0.7
176
   256
177
   256
178
   256
271
     2
272
     2
283
     0
284
     8
288
     1
289
     0
340
11
371
    -1
372
    -1
  0
DIMSTYLE
105
83
330
A
100
AcDbSymbolTableRecord
100
AcDbDimStyleTableRecord
  2
AM_ISO$4
 70
     0
  4
"
 41
3.0
 42
1.0
 43
8.0
 44
1.5
 47
0.1
 48
0.1
 73
     0
 77
     1
 78
     8
 79
     2
140
3.5
141
0.0
143
0.0393701
146
0.6
147
0.7
176
   256
177
   256
178
   256
271
     2
272
     2
283
     0
284
     8
288
     1
289
     0
340
11
371
    -1
372
    -1
  0
DIMSTYLE
105
84
330
A
100
AcDbSymbolTableRecord
100
AcDbDimStyleTableRecord
  2
AM_ISO$6
 70
     0
  4
"
 41
3.0
 42
1.0
 43
8.0
 44
1.5
 47
0.1
 48
0.1
 73
     0
 74
     0
 78
     8
 79
     2
140
3.5
141
0.0
143
0.0393701
146
0.6
147
0.7
172
     1
176
   256
177
   256
178
   256
271
     2
272
     2
283
     0
284
     8
340
11
371
    -1
372
    -1
  0
DIMSTYLE
105
85
330
A
100
AcDbSymbolTableRecord
100
AcDbDimStyleTableRecord
  2
AM_ISO$7
 70
     0
  4
"
 41
3.0
 42
1.0
 43
8.0
 44
1.5
 47
0.1
 48
0.1
 73
     0
 74
     0
 77
     1
 78
     8
 79
     2
140
5.0
141
0.0
143
0.0393701
146
0.6
147
0.7
172
     1
176
   256
177
   256
178
   256
271
     2
272
     2
283
     0
284
     8
340
11
371
    -1
372
    -1
  0
DIMSTYLE
105
86
330
A
100
AcDbSymbolTableRecord
100
AcDbDimStyleTableRecord
  2
AM_ISO$SF
 70
     0
  4
"
 41
2.5
 42
1.0
 43
10.0
 44
1.0
 47
0.1
 48
0.1
 73
     0
 74
     0
 75
     1
 76
     1
 77
     1
 78
     8
 79
     2
140
3.5
141
0.0
143
0.0393701
146
0.71
147
1.5
172
     1
176
   256
177
   256
178
     2
271
     2
272
     3
274
     4
283
     0
284
     8
340
11
371
    -1
372
    -1
  0
DIMSTYLE
105
8B
330
A
100
AcDbSymbolTableRecord
100
AcDbDimStyleTableRecord
  2
AM_ISO$SH
 70
     0
  4
"
 41
2.5
 42
1.0
 43
10.0
 44
1.0
 47
0.1
 48
0.1
 73
     0
 74
     0
 75
     1
 76
     1
 77
     1
 78
     8
 79
     2
140
3.5
141
0.0
143
0.0393701
144
2.0
146
0.71
147
1.5
172
     1
173
     1
176
   256
177
   256
178
     2
271
     2
272
     3
274
     4
283
     0
284
     8
340
11
343
87
371
    -1
372
    -1
  0
DIMSTYLE
105
40B
102
{ACAD_REACTORS
330
2D93
330
2D96
330
2D99
330
2D9C
330
2DA1
330
2DA4
330
2DA7
330
2DAA
330
2DAB
330
2DCC
330
2DD1
330
2DD4
330
2DD7
330
2DDA
330
2DDB
330
2DDC
330
2DDF
330
2E5A
102
}
330
A
100
AcDbSymbolTableRecord
100
AcDbDimStyleTableRecord
  2
AM_ISO$0
 70
     0
  4
"
 41
3.0
 42
1.0
 43
8.0
 44
1.5
 47
0.1
 48
0.1
 73
     0
 74
     0
 77
     1
 78
     8
 79
     2
140
3.5
141
0.0
143
0.0393701
146
0.6
147
0.7
172
     1
176
   256
177
   256
178
   256
271
     2
272
     2
283
     0
284
     8
340
11
371
    -1
372
    -1
  0
ENDTAB
  0
TABLE
  2
BLOCK_RECORD
  5
1
330
0
100
AcDbSymbolTable
 70
    52
  0
BLOCK_RECORD
  5
1F
102
{ACAD_XDICTIONARY
360
8F
102
}
330
1
100
AcDbSymbolTableRecord
100
AcDbBlockTableRecord
  2
*Model_Space
340
22
  0
BLOCK_RECORD
  5
1B
330
1
100
AcDbSymbolTableRecord
100
AcDbBlockTableRecord
  2
*Paper_Space
340
1E
  0
BLOCK_RECORD
  5
23
330
1
100
AcDbSymbolTableRecord
100
AcDbBlockTableRecord
  2
*Paper_Space0
340
26
  0
BLOCK_RECORD
  5
87
330
1
100
AcDbSymbolTableRecord
100
AcDbBlockTableRecord
  2
GENAXEH
340
0
  0
BLOCK_RECORD
  5
2EA2
330
1
100
AcDbSymbolTableRecord
100
AcDbBlockTableRecord
  2
*D34
340
0
  0
BLOCK_RECORD
  5
2EB0
330
1
100
AcDbSymbolTableRecord
100
AcDbBlockTableRecord
  2
*D35
340
0
  0
BLOCK_RECORD
  5
2EBC
330
1
100
AcDbSymbolTableRecord
100
AcDbBlockTableRecord
  2
*D36
340
0
  0
BLOCK_RECORD
  5
2ECA
330
1
100
AcDbSymbolTableRecord
100
AcDbBlockTableRecord
  2
*D37
340
0
  0
BLOCK_RECORD
  5
2ED6
330
1
100
AcDbSymbolTableRecord
100
AcDbBlockTableRecord
  2
*D38
340
0
  0
BLOCK_RECORD
  5
2EE4
330
1
100
AcDbSymbolTableRecord
100
AcDbBlockTableRecord
  2
*D39
340
0
  0
BLOCK_RECORD
  5
2EF2
330
1
100
AcDbSymbolTableRecord
100
AcDbBlockTableRecord
  2
*D40
340
0
  0
BLOCK_RECORD
  5
2EFE
330
1
100
AcDbSymbolTableRecord
100
AcDbBlockTableRecord
  2
*D41
340
0
  0
BLOCK_RECORD
  5
2F0A
330
1
100
AcDbSymbolTableRecord
100
AcDbBlockTableRecord
  2
*D42
340
0
  0
BLOCK_RECORD
  5
2F18
330
1
100
AcDbSymbolTableRecord
100
AcDbBlockTableRecord
  2
*D43
340
0
  0
BLOCK_RECORD
  5
2F24
330
1
100
AcDbSymbolTableRecord
100
AcDbBlockTableRecord
  2
*D44
340
0
  0
BLOCK_RECORD
  5
2F44
330
1
100
AcDbSymbolTableRecord
100
AcDbBlockTableRecord
  2
*D45
340
0
  0
BLOCK_RECORD
  5
2F50
330
1
100
AcDbSymbolTableRecord
100
AcDbBlockTableRecord
  2
*D46
340
0
  0
BLOCK_RECORD
  5
2F5E
330
1
100
AcDbSymbolTableRecord
100
AcDbBlockTableRecord
  2
*D47
340
0
  0
BLOCK_RECORD
  5
2F6A
330
1
100
AcDbSymbolTableRecord
100
AcDbBlockTableRecord
  2
*D48
340
0
  0
BLOCK_RECORD
  5
2F8A
330
1
100
AcDbSymbolTableRecord
100
AcDbBlockTableRecord
  2
*D49
340
0
  0
BLOCK_RECORD
  5
2F98
330
1
100
AcDbSymbolTableRecord
100
AcDbBlockTableRecord
  2
*D50
340
0
  0
BLOCK_RECORD
  5
2FA6
330
1
100
AcDbSymbolTableRecord
100
AcDbBlockTableRecord
  2
*D51
340
0
  0
ENDTAB
  0
ENDSEC
  0
SECTION
  2
BLOCKS
  0
BLOCK
  5
20
330
1F
100
AcDbEntity
  8
0
100
AcDbBlockBegin
  2
*Model_Space
 70
     0
 10
0.0
 20
0.0
 30
0.0
  3
*Model_Space
  1

  0
ENDBLK
  5
21
330
1F
100
AcDbEntity
  8
0
100
AcDbBlockEnd
  0
BLOCK
  5
1C
330
1B
100
AcDbEntity
 67
     1
  8
0
100
AcDbBlockBegin
  2
*Paper_Space
 70
     0
 10
0.0
 20
0.0
 30
0.0
  3
*Paper_Space
  1

  0
ENDBLK
  5
1D
330
1B
100
AcDbEntity
 67
     1
  8
0
100
AcDbBlockEnd
  0
BLOCK
  5
24
330
23
100
AcDbEntity
  8
0
100
AcDbBlockBegin
  2
*Paper_Space0
 70
     0
 10
0.0
 20
0.0
 30
0.0
  3
*Paper_Space0
  1

  0
ENDBLK
  5
25
330
23
100
AcDbEntity
  8
0
100
AcDbBlockEnd
  0
BLOCK
  5
89
330
87
100
AcDbEntity
  8
0
100
AcDbBlockBegin
  2
GENAXEH
 70
     0
 10
0.0
 20
0.0
 30
0.0
  3
GENAXEH
  1

  0
LINE
  5
88
330
87
100
AcDbEntity
  8
0
100
AcDbLine
 10
-1.0
 20
0.0
 30
0.0
 11
1.0
 21
0.0
 31
0.0
  0
ENDBLK
  5
8A
330
87
100
AcDbEntity
  8
0
100
AcDbBlockEnd
  0
BLOCK
  5
2EAE
330
2EA2
100
AcDbEntity
  8
0
100
AcDbBlockBegin
  2
*D34
 70
     1
 10
0.0
 20
0.0
 30
0.0
  3
*D34
  1

  0
LINE
  5
2FF8
330
2EA2
100
AcDbEntity
  8
AM_5
100
AcDbLine
 10
202.5471508957267
 20
404.4868970483762
 30
0.0
 11
202.5471508957267
 21
408.8156911155033
 31
0.0
  0
LINE
  5
2FF9
330
2EA2
100
AcDbEntity
  8
AM_5
100
AcDbLine
 10
199.1982817620675
 20
404.6797168636849
 30
0.0
 11
199.1982817620675
 21
408.8156911155033
 31
0.0
  0
LINE
  5
2FFA
330
2EA2
100
AcDbEntity
  8
AM_5
100
AcDbLine
 10
205.5471508957268
 20
407.3156911155033
 30
0.0
 11
208.5471508957267
 21
407.3156911155033
 31
0.0
  0
LINE
  5
2FFB
330
2EA2
100
AcDbEntity
  8
AM_5
100
AcDbLine
 10
196.1982817620675
 20
407.3156911155033
 30
0.0
 11
193.1982817620675
 21
407.3156911155033
 31
0.0
  0
LINE
  5
2FFC
330
2EA2
100
AcDbEntity
  8
AM_5
100
AcDbLine
 10
202.5471508957267
 20
407.3156911155033
 30
0.0
 11
199.1982817620675
 21
407.3156911155033
 31
0.0
  0
SOLID
  5
2FFD
330
2EA2
100
AcDbEntity
  8
AM_5
100
AcDbTrace
 10
205.5471508957268
 20
407.8156911155033
 30
0.0
 11
205.5471508957268
 21
406.8156911155033
 31
0.0
 12
202.5471508957267
 22
407.3156911155033
 32
0.0
 13
202.5471508957267
 23
407.3156911155033
 33
0.0
  0
SOLID
  5
2FFE
330
2EA2
100
AcDbEntity
  8
AM_5
100
AcDbTrace
 10
196.1982817620675
 20
407.8156911155033
 30
0.0
 11
196.1982817620675
 21
406.8156911155033
 31
0.0
 12
199.1982817620675
 22
407.3156911155033
 32
0.0
 13
199.1982817620675
 23
407.3156911155033
 33
0.0
  0
MTEXT
  5
2FFF
330
2EA2
100
AcDbEntity
  8
AM_5
100
AcDbMText
 10
200.8727163288971
 20
409.7656911155032
 30
0.0
 40
3.5
 41
0.0
 71
     5
 72
     1
  1
7%%p1
 73
     1
 44
1.0
1001
ACAD
1000
MTEXTBEGIN
1070
    73
1070
     1
1070
    44
1040
1.0
1070
    74
1070
     0
1000
MTEXTEND
  0
POINT
  5
3000
330
2EA2
100
AcDbEntity
  8
Defpoints
 62
     0
100
AcDbPoint
 10
202.5471508957267
 20
403.4868970483762
 30
0.0
  0
POINT
  5
3001
330
2EA2
100
AcDbEntity
  8
Defpoints
 62
     0
100
AcDbPoint
 10
199.1982817620675
 20
403.6797168636849
 30
0.0
  0
POINT
  5
3002
330
2EA2
100
AcDbEntity
  8
Defpoints
 62
     0
100
AcDbPoint
 10
199.1982817620675
 20
407.3156911155033
 30
0.0
  0
ENDBLK
  5
2EAF
330
2EA2
100
AcDbEntity
  8
0
100
AcDbBlockEnd
  0
BLOCK
  5
2EBA
330
2EB0
100
AcDbEntity
  8
0
100
AcDbBlockBegin
  2
*D35
 70
     1
 10
0.0
 20
0.0
 30
0.0
  3
*D35
  1

  0
LINE
  5
3003
330
2EB0
100
AcDbEntity
  8
AM_5
100
AcDbLine
 10
202.5471508957267
 20
400.8935971243588
 30
0.0
 11
202.5471508957267
 21
395.4666056292829
 31
0.0
  0
LINE
  5
3004
330
2EB0
100
AcDbEntity
  8
AM_5
100
AcDbLine
 10
191.152261964514
 20
400.3902470863806
 30
0.0
 11
191.152261964514
 21
395.4666056292829
 31
0.0
  0
LINE
  5
3005
330
2EB0
100
AcDbEntity
  8
AM_5
100
AcDbLine
 10
199.5471508957267
 20
396.9666056292829
 30
0.0
 11
194.1522619645139
 21
396.9666056292829
 31
0.0
  0
SOLID
  5
3006
330
2EB0
100
AcDbEntity
  8
AM_5
100
AcDbTrace
 10
199.5471508957267
 20
397.4666056292829
 30
0.0
 11
199.5471508957267
 21
396.4666056292829
 31
0.0
 12
202.5471508957267
 22
396.9666056292829
 32
0.0
 13
202.5471508957267
 23
396.9666056292829
 33
0.0
  0
SOLID
  5
3007
330
2EB0
100
AcDbEntity
  8
AM_5
100
AcDbTrace
 10
194.1522619645139
 20
397.4666056292829
 30
0.0
 11
194.1522619645139
 21
396.4666056292829
 31
0.0
 12
191.152261964514
 22
396.9666056292829
 32
0.0
 13
191.152261964514
 23
396.9666056292829
 33
0.0
  0
MTEXT
  5
3008
330
2EB0
100
AcDbEntity
  8
AM_5
100
AcDbMText
 10
196.8216127640015
 20
399.4169501174718
 30
0.0
 40
3.5
 41
0.0
 71
     5
 72
     1
  1
25%%p2
 73
     1
 44
1.0
1001
ACAD
1000
MTEXTBEGIN
1070
    73
1070
     1
1070
    44
1040
1.0
1070
    74
1070
     0
1000
MTEXTEND
  0
POINT
  5
3009
330
2EB0
100
AcDbEntity
  8
Defpoints
 62
     0
100
AcDbPoint
 10
202.5471508957267
 20
401.8935971243588
 30
0.0
  0
POINT
  5
300A
330
2EB0
100
AcDbEntity
  8
Defpoints
 62
     0
100
AcDbPoint
 10
191.152261964514
 20
401.3902470863806
 30
0.0
  0
POINT
  5
300B
330
2EB0
100
AcDbEntity
  8
Defpoints
 62
     0
100
AcDbPoint
 10
191.152261964514
 20
396.9666056292829
 30
0.0
  0
ENDBLK
  5
2EBB
330
2EB0
100
AcDbEntity
  8
0
100
AcDbBlockEnd
  0
BLOCK
  5
2EC8
330
2EBC
100
AcDbEntity
  8
0
100
AcDbBlockBegin
  2
*D36
 70
     1
 10
0.0
 20
0.0
 30
0.0
  3
*D36
  1

  0
LINE
  5
3032
330
2EBC
100
AcDbEntity
  8
AM_5
100
AcDbLine
 10
202.5471508957267
 20
462.3649690297624
 30
0.0
 11
202.5471508957267
 21
466.6937630968895
 31
0.0
  0
LINE
  5
3033
330
2EBC
100
AcDbEntity
  8
AM_5
100
AcDbLine
 10
199.1982817620675
 20
462.5577888450711
 30
0.0
 11
199.1982817620675
 21
466.6937630968895
 31
0.0
  0
LINE
  5
3034
330
2EBC
100
AcDbEntity
  8
AM_5
100
AcDbLine
 10
205.5471508957268
 20
465.1937630968896
 30
0.0
 11
208.5471508957267
 21
465.1937630968896
 31
0.0
  0
LINE
  5
3035
330
2EBC
100
AcDbEntity
  8
AM_5
100
AcDbLine
 10
196.1982817620675
 20
465.1937630968896
 30
0.0
 11
193.1982817620675
 21
465.1937630968896
 31
0.0
  0
LINE
  5
3036
330
2EBC
100
AcDbEntity
  8
AM_5
100
AcDbLine
 10
202.5471508957267
 20
465.1937630968896
 30
0.0
 11
199.1982817620675
 21
465.1937630968896
 31
0.0
  0
SOLID
  5
3037
330
2EBC
100
AcDbEntity
  8
AM_5
100
AcDbTrace
 10
205.5471508957268
 20
465.6937630968895
 30
0.0
 11
205.5471508957268
 21
464.6937630968896
 31
0.0
 12
202.5471508957267
 22
465.1937630968896
 32
0.0
 13
202.5471508957267
 23
465.1937630968896
 33
0.0
  0
SOLID
  5
3038
330
2EBC
100
AcDbEntity
  8
AM_5
100
AcDbTrace
 10
196.1982817620675
 20
465.6937630968895
 30
0.0
 11
196.1982817620675
 21
464.6937630968896
 31
0.0
 12
199.1982817620675
 22
465.1937630968896
 32
0.0
 13
199.1982817620675
 23
465.1937630968896
 33
0.0
  0
MTEXT
  5
3039
330
2EBC
100
AcDbEntity
  8
AM_5
100
AcDbMText
 10
200.8727163288971
 20
467.6437630968895
 30
0.0
 40
3.5
 41
0.0
 71
     5
 72
     1
  1
7%%p1
 73
     1
 44
1.0
1001
ACAD
1000
MTEXTBEGIN
1070
    73
1070
     1
1070
    44
1040
1.0
1070
    74
1070
     0
1000
MTEXTEND
  0
POINT
  5
303A
330
2EBC
100
AcDbEntity
  8
Defpoints
 62
     0
100
AcDbPoint
 10
202.5471508957267
 20
461.3649690297624
 30
0.0
  0
POINT
  5
303B
330
2EBC
100
AcDbEntity
  8
Defpoints
 62
     0
100
AcDbPoint
 10
199.1982817620675
 20
461.5577888450712
 30
0.0
  0
POINT
  5
303C
330
2EBC
100
AcDbEntity
  8
Defpoints
 62
     0
100
AcDbPoint
 10
199.1982817620675
 20
465.1937630968896
 30
0.0
  0
ENDBLK
  5
2EC9
330
2EBC
100
AcDbEntity
  8
0
100
AcDbBlockEnd
  0
BLOCK
  5
2ED4
330
2ECA
100
AcDbEntity
  8
0
100
AcDbBlockBegin
  2
*D37
 70
     1
 10
0.0
 20
0.0
 30
0.0
  3
*D37
  1

  0
LINE
  5
303D
330
2ECA
100
AcDbEntity
  8
AM_5
100
AcDbLine
 10
202.5471508957267
 20
458.771669105745
 30
0.0
 11
202.5471508957267
 21
453.3446776106691
 31
0.0
  0
LINE
  5
303E
330
2ECA
100
AcDbEntity
  8
AM_5
100
AcDbLine
 10
191.152261964514
 20
458.2683190677669
 30
0.0
 11
191.152261964514
 21
453.3446776106691
 31
0.0
  0
LINE
  5
303F
330
2ECA
100
AcDbEntity
  8
AM_5
100
AcDbLine
 10
199.5471508957267
 20
454.8446776106691
 30
0.0
 11
194.1522619645139
 21
454.8446776106691
 31
0.0
  0
SOLID
  5
3040
330
2ECA
100
AcDbEntity
  8
AM_5
100
AcDbTrace
 10
199.5471508957267
 20
455.3446776106691
 30
0.0
 11
199.5471508957267
 21
454.3446776106691
 31
0.0
 12
202.5471508957267
 22
454.8446776106691
 32
0.0
 13
202.5471508957267
 23
454.8446776106691
 33
0.0
  0
SOLID
  5
3041
330
2ECA
100
AcDbEntity
  8
AM_5
100
AcDbTrace
 10
194.1522619645139
 20
455.3446776106691
 30
0.0
 11
194.1522619645139
 21
454.3446776106691
 31
0.0
 12
191.152261964514
 22
454.8446776106691
 32
0.0
 13
191.152261964514
 23
454.8446776106691
 33
0.0
  0
MTEXT
  5
3042
330
2ECA
100
AcDbEntity
  8
AM_5
100
AcDbMText
 10
196.8216127640015
 20
457.295022098858
 30
0.0
 40
3.5
 41
0.0
 71
     5
 72
     1
  1
25%%p2
 73
     1
 44
1.0
1001
ACAD
1000
MTEXTBEGIN
1070
    73
1070
     1
1070
    44
1040
1.0
1070
    74
1070
     0
1000
MTEXTEND
  0
POINT
  5
3043
330
2ECA
100
AcDbEntity
  8
Defpoints
 62
     0
100
AcDbPoint
 10
202.5471508957267
 20
459.7716691057451
 30
0.0
  0
POINT
  5
3044
330
2ECA
100
AcDbEntity
  8
Defpoints
 62
     0
100
AcDbPoint
 10
191.152261964514
 20
459.2683190677669
 30
0.0
  0
POINT
  5
3045
330
2ECA
100
AcDbEntity
  8
Defpoints
 62
     0
100
AcDbPoint
 10
191.152261964514
 20
454.8446776106691
 30
0.0
  0
ENDBLK
  5
2ED5
330
2ECA
100
AcDbEntity
  8
0
100
AcDbBlockEnd
  0
BLOCK
  5
2EE2
330
2ED6
100
AcDbEntity
  8
0
100
AcDbBlockBegin
  2
*D38
 70
     1
 10
0.0
 20
0.0
 30
0.0
  3
*D38
  1

  0
LINE
  5
2FB3
330
2ED6
100
AcDbEntity
  8
AM_5
100
AcDbLine
 10
140.5651207250918
 20
326.2004962894666
 30
0.0
 11
136.7501847092043
 21
326.2004962894666
 31
0.0
  0
LINE
  5
2FB4
330
2ED6
100
AcDbEntity
  8
AM_5
100
AcDbLine
 10
139.9651207250916
 20
322.2004962894664
 30
0.0
 11
136.7501847092043
 21
322.2004962894664
 31
0.0
  0
LINE
  5
2FB5
330
2ED6
100
AcDbEntity
  8
AM_5
100
AcDbLine
 10
138.2501847092043
 20
329.2004962894666
 30
0.0
 11
138.2501847092043
 21
332.2004962894666
 31
0.0
  0
LINE
  5
2FB6
330
2ED6
100
AcDbEntity
  8
AM_5
100
AcDbLine
 10
138.2501847092043
 20
319.2004962894664
 30
0.0
 11
138.2501847092043
 21
316.2004962894664
 31
0.0
  0
LINE
  5
2FB7
330
2ED6
100
AcDbEntity
  8
AM_5
100
AcDbLine
 10
138.2501847092043
 20
326.2004962894666
 30
0.0
 11
138.2501847092043
 21
322.2004962894664
 31
0.0
  0
SOLID
  5
2FB8
330
2ED6
100
AcDbEntity
  8
AM_5
100
AcDbTrace
 10
137.7501847092043
 20
329.2004962894666
 30
0.0
 11
138.7501847092043
 21
329.2004962894666
 31
0.0
 12
138.2501847092043
 22
326.2004962894666
 32
0.0
 13
138.2501847092043
 23
326.2004962894666
 33
0.0
  0
SOLID
  5
2FB9
330
2ED6
100
AcDbEntity
  8
AM_5
100
AcDbTrace
 10
137.7501847092043
 20
319.2004962894664
 30
0.0
 11
138.7501847092043
 21
319.2004962894664
 31
0.0
 12
138.2501847092043
 22
322.2004962894664
 32
0.0
 13
138.2501847092043
 23
322.2004962894664
 33
0.0
  0
MTEXT
  5
2FBA
330
2ED6
100
AcDbEntity
  8
AM_5
100
AcDbMText
 10
135.8001847092043
 20
324.2004962894666
 30
0.0
 40
3.5
 41
0.0
 71
     5
 72
     1
  1
4
 11
0.0000000000000001
 21
1.0
 31
0.0
 73
     1
 44
1.0
1001
ACAD
1000
MTEXTBEGIN
1070
    73
1070
     1
1070
    44
1040
1.0
1070
    74
1070
     0
1000
MTEXTEND
  0
POINT
  5
2FBB
330
2ED6
100
AcDbEntity
  8
Defpoints
 62
     0
100
AcDbPoint
 10
141.5651207250918
 20
326.2004962894666
 30
0.0
  0
POINT
  5
2FBC
330
2ED6
100
AcDbEntity
  8
Defpoints
 62
     0
100
AcDbPoint
 10
140.9651207250916
 20
322.2004962894664
 30
0.0
  0
POINT
  5
2FBD
330
2ED6
100
AcDbEntity
  8
Defpoints
 62
     0
100
AcDbPoint
 10
138.2501847092043
 20
322.2004962894664
 30
0.0
  0
ENDBLK
  5
2EE3
330
2ED6
100
AcDbEntity
  8
0
100
AcDbBlockEnd
  0
BLOCK
  5
2EF0
330
2EE4
100
AcDbEntity
  8
0
100
AcDbBlockBegin
  2
*D39
 70
     1
 10
0.0
 20
0.0
 30
0.0
  3
*D39
  1

  0
LINE
  5
2FBE
330
2EE4
100
AcDbEntity
  8
AM_5
100
AcDbLine
 10
148.03603941981
 20
343.9323382567052
 30
0.0
 11
144.3250314036779
 21
343.9323382567052
 31
0.0
  0
LINE
  5
2FBF
330
2EE4
100
AcDbEntity
  8
AM_5
100
AcDbLine
 10
148.0360394198102
 20
339.9323382567052
 30
0.0
 11
144.3250314036779
 21
339.9323382567052
 31
0.0
  0
LINE
  5
2FC0
330
2EE4
100
AcDbEntity
  8
AM_5
100
AcDbLine
 10
145.8250314036779
 20
346.9323382567052
 30
0.0
 11
145.8250314036779
 21
349.9323382567052
 31
0.0
  0
LINE
  5
2FC1
330
2EE4
100
AcDbEntity
  8
AM_5
100
AcDbLine
 10
145.8250314036779
 20
336.9323382567052
 30
0.0
 11
145.8250314036779
 21
333.9323382567052
 31
0.0
  0
LINE
  5
2FC2
330
2EE4
100
AcDbEntity
  8
AM_5
100
AcDbLine
 10
145.8250314036779
 20
343.9323382567052
 30
0.0
 11
145.8250314036779
 21
339.9323382567052
 31
0.0
  0
SOLID
  5
2FC3
330
2EE4
100
AcDbEntity
  8
AM_5
100
AcDbTrace
 10
145.3250314036779
 20
346.9323382567052
 30
0.0
 11
146.3250314036779
 21
346.9323382567052
 31
0.0
 12
145.8250314036779
 22
343.9323382567052
 32
0.0
 13
145.8250314036779
 23
343.9323382567052
 33
0.0
  0
SOLID
  5
2FC4
330
2EE4
100
AcDbEntity
  8
AM_5
100
AcDbTrace
 10
145.3250314036779
 20
336.9323382567052
 30
0.0
 11
146.3250314036779
 21
336.9323382567052
 31
0.0
 12
145.8250314036779
 22
339.9323382567052
 32
0.0
 13
145.8250314036779
 23
339.9323382567052
 33
0.0
  0
MTEXT
  5
2FC5
330
2EE4
100
AcDbEntity
  8
AM_5
100
AcDbMText
 10
143.3750314036778
 20
341.9323382567053
 30
0.0
 40
3.5
 41
0.0
 71
     5
 72
     1
  1
4
 11
0.0000000000000001
 21
1.0
 31
0.0
 73
     1
 44
1.0
1001
ACAD
1000
MTEXTBEGIN
1070
    73
1070
     1
1070
    44
1040
1.0
1070
    74
1070
     0
1000
MTEXTEND
  0
POINT
  5
2FC6
330
2EE4
100
AcDbEntity
  8
Defpoints
 62
     0
100
AcDbPoint
 10
149.03603941981
 20
343.9323382567052
 30
0.0
  0
POINT
  5
2FC7
330
2EE4
100
AcDbEntity
  8
Defpoints
 62
     0
100
AcDbPoint
 10
149.0360394198102
 20
339.9323382567052
 30
0.0
  0
POINT
  5
2FC8
330
2EE4
100
AcDbEntity
  8
Defpoints
 62
     0
100
AcDbPoint
 10
145.8250314036779
 20
339.9323382567052
 30
0.0
  0
ENDBLK
  5
2EF1
330
2EE4
100
AcDbEntity
  8
0
100
AcDbBlockEnd
  0
BLOCK
  5
2EFC
330
2EF2
100
AcDbEntity
  8
0
100
AcDbBlockBegin
  2
*D40
 70
     1
 10
0.0
 20
0.0
 30
0.0
  3
*D40
  1

  0
LINE
  5
2FC9
330
2EF2
100
AcDbEntity
  8
AM_5
100
AcDbLine
 10
149.03603941981
 20
338.9323382567052
 30
0.0
 11
149.03603941981
 21
332.8621799757193
 31
0.0
  0
LINE
  5
2FCA
330
2EF2
100
AcDbEntity
  8
AM_5
100
AcDbLine
 10
174.5360394198099
 20
338.9323382567052
 30
0.0
 11
174.5360394198099
 21
332.8621799757193
 31
0.0
  0
LINE
  5
2FCB
330
2EF2
100
AcDbEntity
  8
AM_5
100
AcDbLine
 10
152.03603941981
 20
334.3621799757193
 30
0.0
 11
171.53603941981
 21
334.3621799757193
 31
0.0
  0
SOLID
  5
2FCC
330
2EF2
100
AcDbEntity
  8
AM_5
100
AcDbTrace
 10
152.03603941981
 20
334.8621799757193
 30
0.0
 11
152.03603941981
 21
333.8621799757193
 31
0.0
 12
149.03603941981
 22
334.3621799757193
 32
0.0
 13
149.03603941981
 23
334.3621799757193
 33
0.0
  0
SOLID
  5
2FCD
330
2EF2
100
AcDbEntity
  8
AM_5
100
AcDbTrace
 10
171.53603941981
 20
334.8621799757193
 30
0.0
 11
171.53603941981
 21
333.8621799757193
 31
0.0
 12
174.5360394198099
 22
334.3621799757193
 32
0.0
 13
174.5360394198099
 23
334.3621799757193
 33
0.0
  0
MTEXT
  5
2FCE
330
2EF2
100
AcDbEntity
  8
AM_5
100
AcDbMText
 10
161.78603941981
 20
336.8125244639083
 30
0.0
 40
3.5
 41
0.0
 71
     5
 72
     1
  1
25.5
 73
     1
 44
1.0
1001
ACAD
1000
MTEXTBEGIN
1070
    73
1070
     1
1070
    44
1040
1.0
1070
    74
1070
     0
1000
MTEXTEND
  0
POINT
  5
2FCF
330
2EF2
100
AcDbEntity
  8
Defpoints
 62
     0
100
AcDbPoint
 10
149.03603941981
 20
339.9323382567052
 30
0.0
  0
POINT
  5
2FD0
330
2EF2
100
AcDbEntity
  8
Defpoints
 62
     0
100
AcDbPoint
 10
174.5360394198099
 20
339.9323382567052
 30
0.0
  0
POINT
  5
2FD1
330
2EF2
100
AcDbEntity
  8
Defpoints
 62
     0
100
AcDbPoint
 10
174.5360394198099
 20
334.3621799757193
 30
0.0
  0
ENDBLK
  5
2EFD
330
2EF2
100
AcDbEntity
  8
0
100
AcDbBlockEnd
  0
BLOCK
  5
2F08
330
2EFE
100
AcDbEntity
  8
0
100
AcDbBlockBegin
  2
*D41
 70
     1
 10
0.0
 20
0.0
 30
0.0
  3
*D41
  1

  0
LINE
  5
2FD2
330
2EFE
100
AcDbEntity
  8
AM_5
100
AcDbLine
 10
149.03603941981
 20
377.2133285141938
 30
0.0
 11
149.03603941981
 21
369.2804427713395
 31
0.0
  0
LINE
  5
2FD3
330
2EFE
100
AcDbEntity
  8
AM_5
100
AcDbLine
 10
156.53603941981
 20
377.2133285141938
 30
0.0
 11
156.53603941981
 21
369.2804427713395
 31
0.0
  0
LINE
  5
2FD4
330
2EFE
100
AcDbEntity
  8
AM_5
100
AcDbLine
 10
152.03603941981
 20
370.7804427713395
 30
0.0
 11
153.5360394198099
 21
370.7804427713395
 31
0.0
  0
SOLID
  5
2FD5
330
2EFE
100
AcDbEntity
  8
AM_5
100
AcDbTrace
 10
152.03603941981
 20
371.2804427713395
 30
0.0
 11
152.03603941981
 21
370.2804427713395
 31
0.0
 12
149.03603941981
 22
370.7804427713395
 32
0.0
 13
149.03603941981
 23
370.7804427713395
 33
0.0
  0
SOLID
  5
2FD6
330
2EFE
100
AcDbEntity
  8
AM_5
100
AcDbTrace
 10
153.5360394198099
 20
371.2804427713395
 30
0.0
 11
153.5360394198099
 21
370.2804427713395
 31
0.0
 12
156.53603941981
 22
370.7804427713395
 32
0.0
 13
156.53603941981
 23
370.7804427713395
 33
0.0
  0
MTEXT
  5
2FD7
330
2EFE
100
AcDbEntity
  8
AM_5
100
AcDbMText
 10
152.78603941981
 20
373.2304427713395
 30
0.0
 40
3.5
 41
0.0
 71
     5
 72
     1
  1
7.5
 73
     1
 44
1.0
1001
ACAD
1000
MTEXTBEGIN
1070
    73
1070
     1
1070
    44
1040
1.0
1070
    74
1070
     0
1000
MTEXTEND
  0
POINT
  5
2FD8
330
2EFE
100
AcDbEntity
  8
Defpoints
 62
     0
100
AcDbPoint
 10
149.03603941981
 20
378.2133285141938
 30
0.0
  0
POINT
  5
2FD9
330
2EFE
100
AcDbEntity
  8
Defpoints
 62
     0
100
AcDbPoint
 10
156.53603941981
 20
378.2133285141938
 30
0.0
  0
POINT
  5
2FDA
330
2EFE
100
AcDbEntity
  8
Defpoints
 62
     0
100
AcDbPoint
 10
156.53603941981
 20
370.7804427713395
 30
0.0
  0
ENDBLK
  5
2F09
330
2EFE
100
AcDbEntity
  8
0
100
AcDbBlockEnd
  0
BLOCK
  5
2F16
330
2F0A
100
AcDbEntity
  8
0
100
AcDbBlockBegin
  2
*D42
 70
     1
 10
0.0
 20
0.0
 30
0.0
  3
*D42
  1

  0
LINE
  5
2FDB
330
2F0A
100
AcDbEntity
  8
AM_5
100
AcDbLine
 10
139.9651207250916
 20
378.2133285141938
 30
0.0
 11
134.782103894658
 21
378.2133285141938
 31
0.0
  0
LINE
  5
2FDC
330
2F0A
100
AcDbEntity
  8
AM_5
100
AcDbLine
 10
140.5651207250915
 20
382.213328514194
 30
0.0
 11
134.782103894658
 21
382.213328514194
 31
0.0
  0
LINE
  5
2FDD
330
2F0A
100
AcDbEntity
  8
AM_5
100
AcDbLine
 10
136.282103894658
 20
375.2133285141938
 30
0.0
 11
136.282103894658
 21
372.2133285141938
 31
0.0
  0
LINE
  5
2FDE
330
2F0A
100
AcDbEntity
  8
AM_5
100
AcDbLine
 10
136.282103894658
 20
385.213328514194
 30
0.0
 11
136.282103894658
 21
388.213328514194
 31
0.0
  0
LINE
  5
2FDF
330
2F0A
100
AcDbEntity
  8
AM_5
100
AcDbLine
 10
136.282103894658
 20
378.2133285141938
 30
0.0
 11
136.282103894658
 21
382.213328514194
 31
0.0
  0
SOLID
  5
2FE0
330
2F0A
100
AcDbEntity
  8
AM_5
100
AcDbTrace
 10
135.782103894658
 20
375.2133285141938
 30
0.0
 11
136.782103894658
 21
375.2133285141938
 31
0.0
 12
136.282103894658
 22
378.2133285141938
 32
0.0
 13
136.282103894658
 23
378.2133285141938
 33
0.0
  0
SOLID
  5
2FE1
330
2F0A
100
AcDbEntity
  8
AM_5
100
AcDbTrace
 10
135.782103894658
 20
385.213328514194
 30
0.0
 11
136.782103894658
 21
385.213328514194
 31
0.0
 12
136.282103894658
 22
382.213328514194
 32
0.0
 13
136.282103894658
 23
382.213328514194
 33
0.0
  0
MTEXT
  5
2FE2
330
2F0A
100
AcDbEntity
  8
AM_5
100
AcDbMText
 10
133.8321038946579
 20
380.213328514194
 30
0.0
 40
3.5
 41
0.0
 71
     5
 72
     1
  1
4
 11
0.0000000000000001
 21
1.0
 31
0.0
 73
     1
 44
1.0
1001
ACAD
1000
MTEXTBEGIN
1070
    73
1070
     1
1070
    44
1040
1.0
1070
    74
1070
     0
1000
MTEXTEND
  0
POINT
  5
2FE3
330
2F0A
100
AcDbEntity
  8
Defpoints
 62
     0
100
AcDbPoint
 10
140.9651207250916
 20
378.2133285141938
 30
0.0
  0
POINT
  5
2FE4
330
2F0A
100
AcDbEntity
  8
Defpoints
 62
     0
100
AcDbPoint
 10
141.5651207250915
 20
382.213328514194
 30
0.0
  0
POINT
  5
2FE5
330
2F0A
100
AcDbEntity
  8
Defpoints
 62
     0
100
AcDbPoint
 10
136.282103894658
 20
382.213328514194
 30
0.0
  0
ENDBLK
  5
2F17
330
2F0A
100
AcDbEntity
  8
0
100
AcDbBlockEnd
  0
BLOCK
  5
2F22
330
2F18
100
AcDbEntity
  8
0
100
AcDbBlockBegin
  2
*D43
 70
     1
 10
0.0
 20
0.0
 30
0.0
  3
*D43
  1

  0
LINE
  5
2FE6
330
2F18
100
AcDbEntity
  8
AM_5
100
AcDbLine
 10
149.0360394198102
 20
399.6902470863677
 30
0.0
 11
149.0360394198102
 21
390.3538494911954
 31
0.0
  0
LINE
  5
2FE7
330
2F18
100
AcDbEntity
  8
AM_5
100
AcDbLine
 10
174.5360394198099
 20
399.6902470863677
 30
0.0
 11
174.5360394198099
 21
390.3538494911954
 31
0.0
  0
LINE
  5
2FE8
330
2F18
100
AcDbEntity
  8
AM_5
100
AcDbLine
 10
152.0360394198102
 20
391.8538494911954
 30
0.0
 11
171.53603941981
 21
391.8538494911954
 31
0.0
  0
SOLID
  5
2FE9
330
2F18
100
AcDbEntity
  8
AM_5
100
AcDbTrace
 10
152.0360394198102
 20
392.3538494911954
 30
0.0
 11
152.0360394198102
 21
391.3538494911954
 31
0.0
 12
149.0360394198102
 22
391.8538494911954
 32
0.0
 13
149.0360394198102
 23
391.8538494911954
 33
0.0
  0
SOLID
  5
2FEA
330
2F18
100
AcDbEntity
  8
AM_5
100
AcDbTrace
 10
171.53603941981
 20
392.3538494911954
 30
0.0
 11
171.53603941981
 21
391.3538494911954
 31
0.0
 12
174.5360394198099
 22
391.8538494911954
 32
0.0
 13
174.5360394198099
 23
391.8538494911954
 33
0.0
  0
MTEXT
  5
2FEB
330
2F18
100
AcDbEntity
  8
AM_5
100
AcDbMText
 10
161.78603941981
 20
394.3041939793844
 30
0.0
 40
3.5
 41
0.0
 71
     5
 72
     1
  1
25.5
 73
     1
 44
1.0
1001
ACAD
1000
MTEXTBEGIN
1070
    73
1070
     1
1070
    44
1040
1.0
1070
    74
1070
     0
1000
MTEXTEND
  0
POINT
  5
2FEC
330
2F18
100
AcDbEntity
  8
Defpoints
 62
     0
100
AcDbPoint
 10
149.0360394198102
 20
400.6902470863677
 30
0.0
  0
POINT
  5
2FED
330
2F18
100
AcDbEntity
  8
Defpoints
 62
     0
100
AcDbPoint
 10
174.5360394198099
 20
400.6902470863677
 30
0.0
  0
POINT
  5
2FEE
330
2F18
100
AcDbEntity
  8
Defpoints
 62
     0
100
AcDbPoint
 10
174.5360394198099
 20
391.8538494911954
 30
0.0
  0
ENDBLK
  5
2F23
330
2F18
100
AcDbEntity
  8
0
100
AcDbBlockEnd
  0
BLOCK
  5
2F2E
330
2F24
100
AcDbEntity
  8
0
100
AcDbBlockBegin
  2
*D44
 70
     1
 10
0.0
 20
0.0
 30
0.0
  3
*D44
  1

  0
LINE
  5
2FEF
330
2F24
100
AcDbEntity
  8
AM_5
100
AcDbLine
 10
174.5360394198099
 20
399.6902470863677
 30
0.0
 11
174.5360394198099
 21
390.3538494911954
 31
0.0
  0
LINE
  5
2FF0
330
2F24
100
AcDbEntity
  8
AM_5
100
AcDbLine
 10
202.5471508957267
 20
400.893597124359
 30
0.0
 11
202.5471508957267
 21
390.3538494911954
 31
0.0
  0
LINE
  5
2FF1
330
2F24
100
AcDbEntity
  8
AM_5
100
AcDbLine
 10
177.5360394198099
 20
391.8538494911954
 30
0.0
 11
199.5471508957267
 21
391.8538494911954
 31
0.0
  0
SOLID
  5
2FF2
330
2F24
100
AcDbEntity
  8
AM_5
100
AcDbTrace
 10
177.5360394198099
 20
392.3538494911954
 30
0.0
 11
177.5360394198099
 21
391.3538494911954
 31
0.0
 12
174.5360394198099
 22
391.8538494911954
 32
0.0
 13
174.5360394198099
 23
391.8538494911954
 33
0.0
  0
SOLID
  5
2FF3
330
2F24
100
AcDbEntity
  8
AM_5
100
AcDbTrace
 10
199.5471508957267
 20
392.3538494911954
 30
0.0
 11
199.5471508957267
 21
391.3538494911954
 31
0.0
 12
202.5471508957267
 22
391.8538494911954
 32
0.0
 13
202.5471508957267
 23
391.8538494911954
 33
0.0
  0
MTEXT
  5
2FF4
330
2F24
100
AcDbEntity
  8
AM_5
100
AcDbMText
 10
188.6742090172232
 20
394.3041939793844
 30
0.0
 40
3.5
 41
0.0
 71
     5
 72
     1
  1
1000%%p20
 73
     1
 44
1.0
1001
ACAD
1000
MTEXTBEGIN
1070
    73
1070
     1
1070
    44
1040
1.0
1070
    74
1070
     0
1000
MTEXTEND
  0
POINT
  5
2FF5
330
2F24
100
AcDbEntity
  8
Defpoints
 62
     0
100
AcDbPoint
 10
174.5360394198099
 20
400.6902470863677
 30
0.0
  0
POINT
  5
2FF6
330
2F24
100
AcDbEntity
  8
Defpoints
 62
     0
100
AcDbPoint
 10
202.5471508957267
 20
401.8935971243591
 30
0.0
  0
POINT
  5
2FF7
330
2F24
100
AcDbEntity
  8
Defpoints
 62
     0
100
AcDbPoint
 10
202.5471508957267
 20
391.8538494911954
 30
0.0
  0
ENDBLK
  5
2F2F
330
2F24
100
AcDbEntity
  8
0
100
AcDbBlockEnd
  0
BLOCK
  5
2F4E
330
2F44
100
AcDbEntity
  8
0
100
AcDbBlockBegin
  2
*D45
 70
     1
 10
0.0
 20
0.0
 30
0.0
  3
*D45
  1

  0
LINE
  5
300C
330
2F44
100
AcDbEntity
  8
AM_5
100
AcDbLine
 10
149.03603941981
 20
435.09140049558
 30
0.0
 11
149.03603941981
 21
427.1585147527257
 31
0.0
  0
LINE
  5
300D
330
2F44
100
AcDbEntity
  8
AM_5
100
AcDbLine
 10
162.0360394198099
 20
435.09140049558
 30
0.0
 11
162.0360394198099
 21
427.1585147527257
 31
0.0
  0
LINE
  5
300E
330
2F44
100
AcDbEntity
  8
AM_5
100
AcDbLine
 10
152.03603941981
 20
428.6585147527257
 30
0.0
 11
159.03603941981
 21
428.6585147527257
 31
0.0
  0
SOLID
  5
300F
330
2F44
100
AcDbEntity
  8
AM_5
100
AcDbTrace
 10
152.03603941981
 20
429.1585147527257
 30
0.0
 11
152.03603941981
 21
428.1585147527257
 31
0.0
 12
149.03603941981
 22
428.6585147527257
 32
0.0
 13
149.03603941981
 23
428.6585147527257
 33
0.0
  0
SOLID
  5
3010
330
2F44
100
AcDbEntity
  8
AM_5
100
AcDbTrace
 10
159.03603941981
 20
429.1585147527257
 30
0.0
 11
159.03603941981
 21
428.1585147527257
 31
0.0
 12
162.0360394198099
 22
428.6585147527257
 32
0.0
 13
162.0360394198099
 23
428.6585147527257
 33
0.0
  0
MTEXT
  5
3011
330
2F44
100
AcDbEntity
  8
AM_5
100
AcDbMText
 10
155.4734450971927
 20
431.1085147527257
 30
0.0
 40
3.5
 41
0.0
 71
     5
 72
     1
  1
13
 73
     1
 44
1.0
1001
ACAD
1000
MTEXTBEGIN
1070
    73
1070
     1
1070
    44
1040
1.0
1070
    74
1070
     0
1000
MTEXTEND
  0
POINT
  5
3012
330
2F44
100
AcDbEntity
  8
Defpoints
 62
     0
100
AcDbPoint
 10
149.03603941981
 20
436.09140049558
 30
0.0
  0
POINT
  5
3013
330
2F44
100
AcDbEntity
  8
Defpoints
 62
     0
100
AcDbPoint
 10
162.0360394198099
 20
436.09140049558
 30
0.0
  0
POINT
  5
3014
330
2F44
100
AcDbEntity
  8
Defpoints
 62
     0
100
AcDbPoint
 10
162.0360394198099
 20
428.6585147527257
 30
0.0
  0
ENDBLK
  5
2F4F
330
2F44
100
AcDbEntity
  8
0
100
AcDbBlockEnd
  0
BLOCK
  5
2F5C
330
2F50
100
AcDbEntity
  8
0
100
AcDbBlockBegin
  2
*D46
 70
     1
 10
0.0
 20
0.0
 30
0.0
  3
*D46
  1

  0
LINE
  5
3015
330
2F50
100
AcDbEntity
  8
AM_5
100
AcDbLine
 10
139.9651207250916
 20
436.09140049558
 30
0.0
 11
134.782103894658
 21
436.09140049558
 31
0.0
  0
LINE
  5
3016
330
2F50
100
AcDbEntity
  8
AM_5
100
AcDbLine
 10
140.5651207250915
 20
440.0914004955803
 30
0.0
 11
134.782103894658
 21
440.0914004955803
 31
0.0
  0
LINE
  5
3017
330
2F50
100
AcDbEntity
  8
AM_5
100
AcDbLine
 10
136.282103894658
 20
433.09140049558
 30
0.0
 11
136.282103894658
 21
430.09140049558
 31
0.0
  0
LINE
  5
3018
330
2F50
100
AcDbEntity
  8
AM_5
100
AcDbLine
 10
136.282103894658
 20
443.0914004955802
 30
0.0
 11
136.282103894658
 21
446.0914004955802
 31
0.0
  0
LINE
  5
3019
330
2F50
100
AcDbEntity
  8
AM_5
100
AcDbLine
 10
136.282103894658
 20
436.09140049558
 30
0.0
 11
136.282103894658
 21
440.0914004955803
 31
0.0
  0
SOLID
  5
301A
330
2F50
100
AcDbEntity
  8
AM_5
100
AcDbTrace
 10
135.782103894658
 20
433.09140049558
 30
0.0
 11
136.782103894658
 21
433.09140049558
 31
0.0
 12
136.282103894658
 22
436.09140049558
 32
0.0
 13
136.282103894658
 23
436.09140049558
 33
0.0
  0
SOLID
  5
301B
330
2F50
100
AcDbEntity
  8
AM_5
100
AcDbTrace
 10
135.782103894658
 20
443.0914004955802
 30
0.0
 11
136.782103894658
 21
443.0914004955802
 31
0.0
 12
136.282103894658
 22
440.0914004955803
 32
0.0
 13
136.282103894658
 23
440.0914004955803
 33
0.0
  0
MTEXT
  5
301C
330
2F50
100
AcDbEntity
  8
AM_5
100
AcDbMText
 10
133.8321038946579
 20
438.0914004955802
 30
0.0
 40
3.5
 41
0.0
 71
     5
 72
     1
  1
4
 11
0.0000000000000001
 21
1.0
 31
0.0
 73
     1
 44
1.0
1001
ACAD
1000
MTEXTBEGIN
1070
    73
1070
     1
1070
    44
1040
1.0
1070
    74
1070
     0
1000
MTEXTEND
  0
POINT
  5
301D
330
2F50
100
AcDbEntity
  8
Defpoints
 62
     0
100
AcDbPoint
 10
140.9651207250916
 20
436.09140049558
 30
0.0
  0
POINT
  5
301E
330
2F50
100
AcDbEntity
  8
Defpoints
 62
     0
100
AcDbPoint
 10
141.5651207250915
 20
440.0914004955803
 30
0.0
  0
POINT
  5
301F
330
2F50
100
AcDbEntity
  8
Defpoints
 62
     0
100
AcDbPoint
 10
136.282103894658
 20
440.0914004955803
 30
0.0
  0
ENDBLK
  5
2F5D
330
2F50
100
AcDbEntity
  8
0
100
AcDbBlockEnd
  0
BLOCK
  5
2F68
330
2F5E
100
AcDbEntity
  8
0
100
AcDbBlockBegin
  2
*D47
 70
     1
 10
0.0
 20
0.0
 30
0.0
  3
*D47
  1

  0
LINE
  5
3020
330
2F5E
100
AcDbEntity
  8
AM_5
100
AcDbLine
 10
149.0360394198102
 20
457.5683190677539
 30
0.0
 11
149.0360394198102
 21
448.2319214725817
 31
0.0
  0
LINE
  5
3021
330
2F5E
100
AcDbEntity
  8
AM_5
100
AcDbLine
 10
174.5360394198099
 20
457.5683190677539
 30
0.0
 11
174.5360394198099
 21
448.2319214725817
 31
0.0
  0
LINE
  5
3022
330
2F5E
100
AcDbEntity
  8
AM_5
100
AcDbLine
 10
152.0360394198102
 20
449.7319214725816
 30
0.0
 11
171.53603941981
 21
449.7319214725816
 31
0.0
  0
SOLID
  5
3023
330
2F5E
100
AcDbEntity
  8
AM_5
100
AcDbTrace
 10
152.0360394198102
 20
450.2319214725816
 30
0.0
 11
152.0360394198102
 21
449.2319214725816
 31
0.0
 12
149.0360394198102
 22
449.7319214725816
 32
0.0
 13
149.0360394198102
 23
449.7319214725816
 33
0.0
  0
SOLID
  5
3024
330
2F5E
100
AcDbEntity
  8
AM_5
100
AcDbTrace
 10
171.53603941981
 20
450.2319214725816
 30
0.0
 11
171.53603941981
 21
449.2319214725816
 31
0.0
 12
174.5360394198099
 22
449.7319214725816
 32
0.0
 13
174.5360394198099
 23
449.7319214725816
 33
0.0
  0
MTEXT
  5
3025
330
2F5E
100
AcDbEntity
  8
AM_5
100
AcDbMText
 10
161.78603941981
 20
452.1822659607706
 30
0.0
 40
3.5
 41
0.0
 71
     5
 72
     1
  1
25.5
 73
     1
 44
1.0
1001
ACAD
1000
MTEXTBEGIN
1070
    73
1070
     1
1070
    44
1040
1.0
1070
    74
1070
     0
1000
MTEXTEND
  0
POINT
  5
3026
330
2F5E
100
AcDbEntity
  8
Defpoints
 62
     0
100
AcDbPoint
 10
149.0360394198102
 20
458.5683190677539
 30
0.0
  0
POINT
  5
3027
330
2F5E
100
AcDbEntity
  8
Defpoints
 62
     0
100
AcDbPoint
 10
174.5360394198099
 20
458.5683190677539
 30
0.0
  0
POINT
  5
3028
330
2F5E
100
AcDbEntity
  8
Defpoints
 62
     0
100
AcDbPoint
 10
174.5360394198099
 20
449.7319214725816
 30
0.0
  0
ENDBLK
  5
2F69
330
2F5E
100
AcDbEntity
  8
0
100
AcDbBlockEnd
  0
BLOCK
  5
2F74
330
2F6A
100
AcDbEntity
  8
0
100
AcDbBlockBegin
  2
*D48
 70
     1
 10
0.0
 20
0.0
 30
0.0
  3
*D48
  1

  0
LINE
  5
3029
330
2F6A
100
AcDbEntity
  8
AM_5
100
AcDbLine
 10
174.5360394198099
 20
457.5683190677539
 30
0.0
 11
174.5360394198099
 21
448.2319214725817
 31
0.0
  0
LINE
  5
302A
330
2F6A
100
AcDbEntity
  8
AM_5
100
AcDbLine
 10
202.5471508957267
 20
458.7716691057453
 30
0.0
 11
202.5471508957267
 21
448.2319214725817
 31
0.0
  0
LINE
  5
302B
330
2F6A
100
AcDbEntity
  8
AM_5
100
AcDbLine
 10
177.5360394198099
 20
449.7319214725816
 30
0.0
 11
199.5471508957267
 21
449.7319214725816
 31
0.0
  0
SOLID
  5
302C
330
2F6A
100
AcDbEntity
  8
AM_5
100
AcDbTrace
 10
177.5360394198099
 20
450.2319214725816
 30
0.0
 11
177.5360394198099
 21
449.2319214725816
 31
0.0
 12
174.5360394198099
 22
449.7319214725816
 32
0.0
 13
174.5360394198099
 23
449.7319214725816
 33
0.0
  0
SOLID
  5
302D
330
2F6A
100
AcDbEntity
  8
AM_5
100
AcDbTrace
 10
199.5471508957267
 20
450.2319214725816
 30
0.0
 11
199.5471508957267
 21
449.2319214725816
 31
0.0
 12
202.5471508957267
 22
449.7319214725816
 32
0.0
 13
202.5471508957267
 23
449.7319214725816
 33
0.0
  0
MTEXT
  5
302E
330
2F6A
100
AcDbEntity
  8
AM_5
100
AcDbMText
 10
188.6742090172232
 20
452.1822659607706
 30
0.0
 40
3.5
 41
0.0
 71
     5
 72
     1
  1
1000%%p20
 73
     1
 44
1.0
1001
ACAD
1000
MTEXTBEGIN
1070
    73
1070
     1
1070
    44
1040
1.0
1070
    74
1070
     0
1000
MTEXTEND
  0
POINT
  5
302F
330
2F6A
100
AcDbEntity
  8
Defpoints
 62
     0
100
AcDbPoint
 10
174.5360394198099
 20
458.5683190677539
 30
0.0
  0
POINT
  5
3030
330
2F6A
100
AcDbEntity
  8
Defpoints
 62
     0
100
AcDbPoint
 10
202.5471508957267
 20
459.7716691057453
 30
0.0
  0
POINT
  5
3031
330
2F6A
100
AcDbEntity
  8
Defpoints
 62
     0
100
AcDbPoint
 10
202.5471508957267
 20
449.7319214725816
 30
0.0
  0
ENDBLK
  5
2F75
330
2F6A
100
AcDbEntity
  8
0
100
AcDbBlockEnd
  0
BLOCK
  5
2F96
330
2F8A
100
AcDbEntity
  8
0
100
AcDbBlockBegin
  2
*D49
 70
     1
 10
0.0
 20
0.0
 30
0.0
  3
*D49
  1

  0
LINE
  5
3046
330
2F8A
100
AcDbEntity
  8
AM_5
100
AcDbLine
 10
148.0360394198102
 20
400.6902470863677
 30
0.0
 11
143.0500898403936
 21
400.6902470863677
 31
0.0
  0
LINE
  5
3047
330
2F8A
100
AcDbEntity
  8
AM_5
100
AcDbLine
 10
148.03603941981
 20
404.6902470863676
 30
0.0
 11
143.0500898403936
 21
404.6902470863676
 31
0.0
  0
LINE
  5
3048
330
2F8A
100
AcDbEntity
  8
AM_5
100
AcDbLine
 10
144.5500898403936
 20
397.6902470863677
 30
0.0
 11
144.5500898403936
 21
394.6902470863676
 31
0.0
  0
LINE
  5
3049
330
2F8A
100
AcDbEntity
  8
AM_5
100
AcDbLine
 10
144.5500898403936
 20
407.6902470863676
 30
0.0
 11
144.5500898403936
 21
410.6902470863676
 31
0.0
  0
LINE
  5
304A
330
2F8A
100
AcDbEntity
  8
AM_5
100
AcDbLine
 10
144.5500898403936
 20
400.6902470863677
 30
0.0
 11
144.5500898403936
 21
404.6902470863676
 31
0.0
  0
SOLID
  5
304B
330
2F8A
100
AcDbEntity
  8
AM_5
100
AcDbTrace
 10
144.0500898403936
 20
397.6902470863677
 30
0.0
 11
145.0500898403936
 21
397.6902470863677
 31
0.0
 12
144.5500898403936
 22
400.6902470863677
 32
0.0
 13
144.5500898403936
 23
400.6902470863677
 33
0.0
  0
SOLID
  5
304C
330
2F8A
100
AcDbEntity
  8
AM_5
100
AcDbTrace
 10
144.0500898403936
 20
407.6902470863676
 30
0.0
 11
145.0500898403936
 21
407.6902470863676
 31
0.0
 12
144.5500898403936
 22
404.6902470863676
 32
0.0
 13
144.5500898403936
 23
404.6902470863676
 33
0.0
  0
MTEXT
  5
304D
330
2F8A
100
AcDbEntity
  8
AM_5
100
AcDbMText
 10
142.1000898403935
 20
402.6902470863677
 30
0.0
 40
3.5
 41
0.0
 71
     5
 72
     1
  1
4
 11
0.0000000000000001
 21
1.0
 31
0.0
 73
     1
 44
1.0
1001
ACAD
1000
MTEXTBEGIN
1070
    73
1070
     1
1070
    44
1040
1.0
1070
    74
1070
     0
1000
MTEXTEND
  0
POINT
  5
304E
330
2F8A
100
AcDbEntity
  8
Defpoints
 62
     0
100
AcDbPoint
 10
149.0360394198102
 20
400.6902470863677
 30
0.0
  0
POINT
  5
304F
330
2F8A
100
AcDbEntity
  8
Defpoints
 62
     0
100
AcDbPoint
 10
149.03603941981
 20
404.6902470863676
 30
0.0
  0
POINT
  5
3050
330
2F8A
100
AcDbEntity
  8
Defpoints
 62
     0
100
AcDbPoint
 10
144.5500898403936
 20
404.6902470863676
 30
0.0
  0
ENDBLK
  5
2F97
330
2F8A
100
AcDbEntity
  8
0
100
AcDbBlockEnd
  0
BLOCK
  5
2FA4
330
2F98
100
AcDbEntity
  8
0
100
AcDbBlockBegin
  2
*D50
 70
     1
 10
0.0
 20
0.0
 30
0.0
  3
*D50
  1

  0
LINE
  5
3051
330
2F98
100
AcDbEntity
  8
AM_5
100
AcDbLine
 10
148.03603941981
 20
458.5683190677539
 30
0.0
 11
143.0500898403937
 21
458.5683190677539
 31
0.0
  0
LINE
  5
3052
330
2F98
100
AcDbEntity
  8
AM_5
100
AcDbLine
 10
148.03603941981
 20
462.5683190677539
 30
0.0
 11
143.0500898403937
 21
462.5683190677539
 31
0.0
  0
LINE
  5
3053
330
2F98
100
AcDbEntity
  8
AM_5
100
AcDbLine
 10
144.5500898403937
 20
455.5683190677539
 30
0.0
 11
144.5500898403937
 21
452.5683190677539
 31
0.0
  0
LINE
  5
3054
330
2F98
100
AcDbEntity
  8
AM_5
100
AcDbLine
 10
144.5500898403937
 20
465.5683190677539
 30
0.0
 11
144.5500898403937
 21
468.5683190677539
 31
0.0
  0
LINE
  5
3055
330
2F98
100
AcDbEntity
  8
AM_5
100
AcDbLine
 10
144.5500898403937
 20
458.5683190677539
 30
0.0
 11
144.5500898403937
 21
462.5683190677539
 31
0.0
  0
SOLID
  5
3056
330
2F98
100
AcDbEntity
  8
AM_5
100
AcDbTrace
 10
144.0500898403937
 20
455.5683190677539
 30
0.0
 11
145.0500898403937
 21
455.5683190677539
 31
0.0
 12
144.5500898403937
 22
458.5683190677539
 32
0.0
 13
144.5500898403937
 23
458.5683190677539
 33
0.0
  0
SOLID
  5
3057
330
2F98
100
AcDbEntity
  8
AM_5
100
AcDbTrace
 10
144.0500898403937
 20
465.5683190677539
 30
0.0
 11
145.0500898403937
 21
465.5683190677539
 31
0.0
 12
144.5500898403937
 22
462.5683190677539
 32
0.0
 13
144.5500898403937
 23
462.5683190677539
 33
0.0
  0
MTEXT
  5
3058
330
2F98
100
AcDbEntity
  8
AM_5
100
AcDbMText
 10
142.1000898403937
 20
460.5683190677539
 30
0.0
 40
3.5
 41
0.0
 71
     5
 72
     1
  1
4
 11
0.0000000000000001
 21
1.0
 31
0.0
 73
     1
 44
1.0
1001
ACAD
1000
MTEXTBEGIN
1070
    73
1070
     1
1070
    44
1040
1.0
1070
    74
1070
     0
1000
MTEXTEND
  0
POINT
  5
3059
330
2F98
100
AcDbEntity
  8
Defpoints
 62
     0
100
AcDbPoint
 10
149.03603941981
 20
458.5683190677539
 30
0.0
  0
POINT
  5
305A
330
2F98
100
AcDbEntity
  8
Defpoints
 62
     0
100
AcDbPoint
 10
149.03603941981
 20
462.5683190677539
 30
0.0
  0
POINT
  5
305B
330
2F98
100
AcDbEntity
  8
Defpoints
 62
     0
100
AcDbPoint
 10
144.5500898403937
 20
462.5683190677539
 30
0.0
  0
ENDBLK
  5
2FA5
330
2F98
100
AcDbEntity
  8
0
100
AcDbBlockEnd
  0
BLOCK
  5
2FB0
330
2FA6
100
AcDbEntity
  8
0
100
AcDbBlockBegin
  2
*D51
 70
     1
 10
0.0
 20
0.0
 30
0.0
  3
*D51
  1

  0
LINE
  5
305C
330
2FA6
100
AcDbEntity
  8
AM_5
100
AcDbLine
 10
174.5360394198099
 20
338.9323382567052
 30
0.0
 11
174.5360394198099
 21
332.8621799757197
 31
0.0
  0
LINE
  5
305D
330
2FA6
100
AcDbEntity
  8
AM_5
100
AcDbLine
 10
217.9180550887346
 20
338.2794389292858
 30
0.0
 11
217.9180550887346
 21
332.8621799757197
 31
0.0
  0
LINE
  5
305E
330
2FA6
100
AcDbEntity
  8
AM_5
100
AcDbLine
 10
177.5360394198099
 20
334.3621799757197
 30
0.0
 11
214.9180550887346
 21
334.3621799757197
 31
0.0
  0
SOLID
  5
305F
330
2FA6
100
AcDbEntity
  8
AM_5
100
AcDbTrace
 10
177.5360394198099
 20
334.8621799757197
 30
0.0
 11
177.5360394198099
 21
333.8621799757198
 31
0.0
 12
174.5360394198099
 22
334.3621799757197
 32
0.0
 13
174.5360394198099
 23
334.3621799757197
 33
0.0
  0
SOLID
  5
3060
330
2FA6
100
AcDbEntity
  8
AM_5
100
AcDbTrace
 10
214.9180550887346
 20
334.8621799757197
 30
0.0
 11
214.9180550887346
 21
333.8621799757198
 31
0.0
 12
217.9180550887346
 22
334.3621799757197
 32
0.0
 13
217.9180550887346
 23
334.3621799757197
 33
0.0
  0
MTEXT
  5
3061
330
2FA6
100
AcDbEntity
  8
AM_5
100
AcDbMText
 10
196.2270472542723
 20
336.8121799757198
 30
0.0
 40
3.5
 41
0.0
 71
     5
 72
     1
  1
165
 73
     1
 44
1.0
1001
ACAD
1000
MTEXTBEGIN
1070
    73
1070
     1
1070
    44
1040
1.0
1070
    74
1070
     0
1000
MTEXTEND
  0
POINT
  5
3062
330
2FA6
100
AcDbEntity
  8
Defpoints
 62
     0
100
AcDbPoint
 10
174.5360394198099
 20
339.9323382567052
 30
0.0
  0
POINT
  5
3063
330
2FA6
100
AcDbEntity
  8
Defpoints
 62
     0
100
AcDbPoint
 10
217.9180550887346
 20
339.2794389292858
 30
0.0
  0
POINT
  5
3064
330
2FA6
100
AcDbEntity
  8
Defpoints
 62
     0
100
AcDbPoint
 10
217.9180550887346
 20
334.3621799757197
 30
0.0
  0
ENDBLK
  5
2FB1
330
2FA6
100
AcDbEntity
  8
0
100
AcDbBlockEnd
  0
ENDSEC
  0
SECTION
  2
ENTITIES
  0
TEXT
  5
28C3
330
1F
100
AcDbEntity
  8
LOGO
 62
     7
100
AcDbText
 10
138.7643301104959
 20
291.184745410322
 30
0.0
 40
2.457244148416289
  1
Order example:
 41
0.8
  7
CHINESET
100
AcDbText
  0
TEXT
  5
28C4
330
1F
100
AcDbEntity
  8
LOGO
 62
     7
100
AcDbText
 10
139.2051800313042
 20
294.6440363923992
 30
0.0
 40
3.685866222624433
  1
訂購代號：
  7
CHINESET
100
AcDbText
  0
LINE
  5
28C5
330
1F
100
AcDbEntity
  8
LOGO
 62
     4
100
AcDbLine
 10
137.696649193516
 20
280.8289906559925
 30
0.0
 11
137.696649193516
 21
299.2583217691148
 31
0.0
  0
TEXT
  5
28C6
330
1F
100
AcDbEntity
  8
LOGO
  6
Continuous
100
AcDbText
 10
103.7720193219269
 20
284.4494049408797
 30
0.0
 40
2.764399666968325
  1
金器工業股份有限公司
  7
CHINESET
100
AcDbText
  0
TEXT
  5
28C7
330
1F
100
AcDbEntity
  8
LOGO
  6
Continuous
100
AcDbText
 10
98.6943640432095
 20
281.684463668314
 30
0.0
 40
1.842933111312216
  1
MINDMAN INDUSTRIAL CO., LTD.
 41
0.85
  7
CHINESET
100
AcDbText
  0
LINE
  5
28C8
330
1F
100
AcDbEntity
  8
LOGO
 62
     4
100
AcDbLine
 10
137.696649193516
 20
295.5724555464902
 30
0.0
 11
110.6669635609367
 21
295.5724555464902
 31
0.0
  0
LINE
  5
28C9
330
1F
100
AcDbEntity
  8
LOGO
 62
     4
100
AcDbLine
 10
137.696649193516
 20
291.8865893238658
 30
0.0
 11
110.6669635609367
 21
291.8865893238658
 31
0.0
  0
LINE
  5
28CA
330
1F
100
AcDbEntity
  8
LOGO
 62
     4
100
AcDbLine
 10
137.696649193516
 20
288.2007231012415
 30
0.0
 11
97.15212074464725
 21
288.2007231012415
 31
0.0
  0
LINE
  5
28CB
330
1F
100
AcDbEntity
  8
LOGO
 62
     4
100
AcDbLine
 10
110.6669635609367
 20
288.2007231012415
 30
0.0
 11
110.6669635609367
 21
299.2583217691148
 31
0.0
  0
TEXT
  5
28CC
330
1F
100
AcDbEntity
  8
LOGO
100
AcDbText
 10
129.1404779090754
 20
289.1221896568974
 30
0.0
 40
1.842933111312216
  1
mm
  7
CHINESET
 72
     1
 11
131.4222046183191
 21
290.0436562125534
 31
0.0
100
AcDbText
 73
     2
  0
TEXT
  5
28CD
330
1F
100
AcDbEntity
  8
LOGO
100
AcDbText
 10
128.1751319936262
 20
296.4939221021463
 30
0.0
 40
1.842933111312216
  1
1 : 1
  7
CHINESET
 72
     1
 11
131.4222046183191
 21
297.4153886578024
 31
0.0
100
AcDbText
 73
     2
  0
LINE
  5
28CE
330
1F
100
AcDbEntity
  8
LOGO
 62
     4
100
AcDbLine
 10
125.4104284514345
 20
288.2007231012415
 30
0.0
 11
125.4104284514345
 21
299.2583217691148
 31
0.0
  0
TEXT
  5
28CF
330
1F
100
AcDbEntity
  8
LOGO
100
AcDbText
 10
112.1865606397732
 20
296.4948290574176
 30
120.7828000604619
 40
1.842933111312216
  1
比例 Scale:
 41
0.9
  7
CHINESET
 72
     4
 11
118.0386960061856
 21
297.4153886578024
 31
120.7828000604619
100
AcDbText
  0
TEXT
  5
28D0
330
1F
100
AcDbEntity
  8
LOGO
100
AcDbText
 10
112.0804274382735
 20
292.8339796843602
 30
120.7828000604619
 40
1.842933111312216
  1
投影  View:
 41
0.9
  7
CHINESET
 72
     4
 11
118.0386960061856
 21
293.7295224351779
 31
120.7828000604619
100
AcDbText
  0
TEXT
  5
28D1
330
1F
100
AcDbEntity
  8
LOGO
100
AcDbText
 10
112.2606070594241
 20
289.1221896568974
 30
120.7828000604619
 40
1.842933111312216
  1
單位  Unit:
 41
0.9
  7
CHINESET
 72
     4
 11
118.0386960061856
 21
290.0436562125534
 31
120.7828000604619
100
AcDbText
  0
LWPOLYLINE
  5
28D2
330
1F
100
AcDbEntity
  8
LOGO
 62
     4
100
AcDbPolyline
 90
        4
 70
     1
 43
0.0
 10
97.15212074464725
 20
299.2583217691148
 10
254.9114377594459
 20
299.2583217691148
 10
254.9114377594459
 20
485.8853242668518
 10
97.15212074464725
 20
485.8853242668518
1001
GENIUS_GENREC_14
1002
{
1000
PYDIR
1011
97.15212074464725
1021
485.8853242668518
1031
0.0
1002
}
1002
{
1000
PXDIR
1011
254.9114377594459
1021
299.2583217691148
1031
0.0
1002
}
1002
{
1000
PORI
1011
97.15212074464725
1021
299.2583217691148
1031
0.0
1002
}
1002
{
1000
PINS
1011
97.15212074464725
1021
299.2583217691148
1031
0.0
1002
}
1002
{
1000
PINS2
1011
254.9114377594459
1021
485.8853242668518
1031
0.0
1002
}
1002
{
1000
C
1070
     1
1002
}
1001
GENIUS_GENODEF_13
1002
{
1000
HIER
1070
     0
1002
}
1002
{
1000
MANEDIT
1070
     0
1002
}
1002
{
1000
NOSEL
1070
     0
1002
}
1002
{
1000
BEHIND
1070
     0
1002
}
1002
{
1000
OTHER
1070
     0
1002
}
1002
{
1000
REACTOR
1002
}
1001
GENIUS_GENOBJ-N-REC_13
1002
{
1000
OWNER
1000
GEN
1002
}
  0
SOLID
  5
28D3
330
1F
100
AcDbEntity
  8
LOGO
 62
     5
100
AcDbTrace
 10
99.06419342446035
 20
291.2643370779262
 30
0.0
 11
99.86102934322687
 21
291.264337077926
 31
0.0
 12
103.1857585215286
 22
298.8205397558851
 32
0.0
 13
103.9825944402955
 23
298.8205397558847
 33
0.0
  0
SOLID
  5
28D4
330
1F
100
AcDbEntity
  8
LOGO
 62
     5
100
AcDbTrace
 10
100.1907545509931
 20
291.2643370779262
 30
0.0
 11
100.9875904697597
 21
291.2643370779262
 31
0.0
 12
103.9825944402955
 22
298.2160435416481
 32
0.0
 13
103.1857585215286
 23
295.294311839504
 33
0.0
  0
SOLID
  5
28D5
330
1F
100
AcDbEntity
  8
LOGO
 62
     2
100
AcDbTrace
 10
99.86102934322687
 20
291.264337077926
 30
0.0
 11
100.1907545509931
 21
291.2643370779262
 31
0.0
 12
103.9825944402955
 22
298.8205397558847
 32
0.0
 13
104.3123196480614
 23
298.8205397558847
 33
0.0
  0
SOLID
  5
28D6
330
1F
100
AcDbEntity
  8
LOGO
 62
     5
100
AcDbTrace
 10
97.78667003857414
 20
288.5166270132141
 30
0.0
 11
98.06144104504562
 21
288.5166270132141
 31
0.0
 12
98.83521758573458
 22
289.89048204557
 32
0.0
 13
99.10998859220525
 23
289.89048204557
 33
0.0
  0
SOLID
  5
28D7
330
1F
100
AcDbEntity
  8
LOGO
 62
     5
100
AcDbTrace
 10
98.83521758573458
 20
289.89048204557
 30
0.0
 11
99.10998859220525
 21
289.89048204557
 31
0.0
 12
98.83521758573458
 22
288.5166270132141
 32
0.0
 13
99.10998859220525
 23
288.5166270132141
 33
0.0
  0
SOLID
  5
28D8
330
1F
100
AcDbEntity
  8
LOGO
 62
     5
100
AcDbTrace
 10
98.83521758573458
 20
288.5166270132141
 30
0.0
 11
99.10998859220525
 21
288.5166270132141
 31
0.0
 12
99.88376513289544
 22
289.89048204557
 32
0.0
 13
100.1585361393665
 23
289.89048204557
 33
0.0
  0
SOLID
  5
28D9
330
1F
100
AcDbEntity
  8
LOGO
 62
     5
100
AcDbTrace
 10
99.88376513289544
 20
289.89048204557
 30
0.0
 11
100.1585361393665
 21
289.89048204557
 31
0.0
 12
99.88376513289544
 22
288.5166270132141
 32
0.0
 13
100.1585361393665
 23
288.5166270132141
 33
0.0
  0
POLYLINE
  5
28DA
330
1F
100
AcDbEntity
  8
LOGO
 62
     5
100
AcDb2dPolyline
 66
     1
 10
0.0
 20
0.0
 30
0.0
 40
0.2752113446226243
 41
0.2752113446226243
  0
VERTEX
  5
28DB
330
28DA
100
AcDbEntity
  8
LOGO
 62
     5
100
AcDbVertex
100
AcDb2dVertex
 10
109.0939956678878
 20
289.3409400326276
 30
0.0
 42
1.0
  0
VERTEX
  5
28DC
330
28DA
100
AcDbEntity
  8
LOGO
 62
     5
100
AcDbVertex
100
AcDb2dVertex
 10
108.2683616340198
 20
289.3409400326276
 30
0.0
 42
1.0
  0
SEQEND
  5
28DD
330
28DA
100
AcDbEntity
  8
LOGO
 62
     5
  0
POLYLINE
  5
28DE
330
1F
100
AcDbEntity
  8
LOGO
 62
     5
100
AcDb2dPolyline
 66
     1
 10
0.0
 20
0.0
 30
0.0
 70
     1
  0
VERTEX
  5
28DF
330
28DE
100
AcDbEntity
  8
LOGO
 62
     5
100
AcDbVertex
100
AcDb2dVertex
 10
106.7120047559765
 20
289.2035545293918
 30
0.0
 42
1.000000057330635
  0
VERTEX
  5
28E0
330
28DE
100
AcDbEntity
  8
LOGO
 62
     5
100
AcDbVertex
100
AcDb2dVertex
 10
107.5363177753903
 20
289.2035545293918
 30
0.0
 42
1.000000057330635
  0
SEQEND
  5
28E1
330
28DE
100
AcDbEntity
  8
LOGO
 62
     5
  0
CIRCLE
  5
28E2
330
1F
100
AcDbEntity
  8
LOGO
 62
     5
100
AcDbCircle
 10
107.124161265684
 20
289.2035545293918
 30
0.0
 40
0.4121565097068424
  0
POLYLINE
  5
28E3
330
1F
100
AcDbEntity
  8
LOGO
 62
     5
100
AcDb2dPolyline
 66
     1
 10
0.0
 20
0.0
 30
0.0
 70
     1
 40
0.2752113446226243
 41
0.2752113446226243
  0
VERTEX
  5
28E4
330
28E3
100
AcDbEntity
  8
LOGO
 62
     5
100
AcDbVertex
100
AcDb2dVertex
 10
106.5737385764384
 20
289.2035545293918
 30
0.0
 42
1.0
  0
VERTEX
  5
28E5
330
28E3
100
AcDbEntity
  8
LOGO
 62
     5
100
AcDbVertex
100
AcDb2dVertex
 10
107.6745839549288
 20
289.2035545293918
 30
0.0
 42
1.0
  0
SEQEND
  5
28E6
330
28E3
100
AcDbEntity
  8
LOGO
 62
     5
  0
LINE
  5
28E7
330
1F
100
AcDbEntity
  8
LOGO
100
AcDbLine
 10
109.2307206638958
 20
288.5166270132141
 30
0.0
 11
109.2307206638958
 21
289.3409400326276
 31
0.0
  0
SOLID
  5
28E8
330
1F
100
AcDbEntity
  8
LOGO
 62
     5
100
AcDbTrace
 10
107.5362902982908
 20
289.89048204557
 30
0.0
 11
107.8110613047615
 21
289.89048204557
 31
0.0
 12
107.5362902982908
 22
288.5166270132141
 32
0.0
 13
107.8110613047615
 23
288.5166270132141
 33
0.0
  0
SOLID
  5
28E9
330
1F
100
AcDbEntity
  8
LOGO
 62
     5
100
AcDbTrace
 10
108.131636638011
 20
288.5166270132141
 30
0.0
 11
108.4064076444825
 21
288.5166270132141
 31
0.0
 12
108.131636638011
 22
289.89048204557
 32
0.0
 13
108.4064076444825
 23
289.89048204557
 33
0.0
  0
SOLID
  5
28EA
330
1F
100
AcDbEntity
  8
LOGO
 62
     5
100
AcDbTrace
 10
108.9559496574251
 20
289.3409400326276
 30
0.0
 11
109.2307206638958
 21
289.3409400326276
 31
0.0
 12
108.9559496574251
 22
288.5166270132141
 32
0.0
 13
109.2307206638958
 23
288.5166270132141
 33
0.0
  0
SOLID
  5
28EB
330
1F
100
AcDbEntity
  8
LOGO
 62
     5
100
AcDbTrace
 10
108.1041595373638
 20
298.2160435416481
 30
0.0
 11
107.3073236185977
 21
295.294311839504
 31
0.0
 12
108.1041595373638
 22
291.264337077926
 32
0.0
 13
107.3073236185977
 23
291.264337077926
 33
0.0
  0
SOLID
  5
28EC
330
1F
100
AcDbEntity
  8
LOGO
 62
     5
100
AcDbTrace
 10
108.4338847451297
 20
291.264337077926
 30
0.0
 11
109.2307206638958
 21
291.264337077926
 31
0.0
 12
108.4338847451297
 22
298.8205397558847
 32
0.0
 13
109.2307206638958
 23
298.8205397558851
 33
0.0
  0
SOLID
  5
28ED
330
1F
100
AcDbEntity
  8
LOGO
 62
     2
100
AcDbTrace
 10
108.1041595373638
 20
298.8205397558851
 30
0.0
 11
108.4338847451297
 21
298.8205397558847
 31
0.0
 12
108.1041595373638
 22
291.264337077926
 32
0.0
 13
108.4338847451297
 23
291.264337077926
 33
0.0
  0
POLYLINE
  5
28EE
330
1F
100
AcDbEntity
  8
LOGO
 62
     5
100
AcDb2dPolyline
 66
     1
 10
0.0
 20
0.0
 30
0.0
 40
0.2752113446226243
 41
0.2752113446226243
  0
VERTEX
  5
28EF
330
28EE
100
AcDbEntity
  8
LOGO
 62
     5
100
AcDbVertex
100
AcDb2dVertex
 10
105.1555929237332
 20
289.3409400326276
 30
0.0
 42
1.0
  0
VERTEX
  5
28F0
330
28EE
100
AcDbEntity
  8
LOGO
 62
     5
100
AcDbVertex
100
AcDb2dVertex
 10
104.3299588898651
 20
289.3409400326276
 30
0.0
 42
1.0
  0
SEQEND
  5
28F1
330
28EE
100
AcDbEntity
  8
LOGO
 62
     5
  0
POLYLINE
  5
28F2
330
1F
100
AcDbEntity
  8
LOGO
 62
     5
100
AcDb2dPolyline
 66
     1
 10
0.0
 20
0.0
 30
0.0
 40
0.2752113446226243
 41
0.2752113446226243
  0
VERTEX
  5
28F3
330
28F2
100
AcDbEntity
  8
LOGO
 62
     5
100
AcDbVertex
100
AcDb2dVertex
 10
105.9799059431461
 20
289.3409400326276
 30
0.0
 42
1.0
  0
VERTEX
  5
28F4
330
28F2
100
AcDbEntity
  8
LOGO
 62
     5
100
AcDbVertex
100
AcDb2dVertex
 10
105.1542719092785
 20
289.3409400326276
 30
0.0
 42
1.0
  0
SEQEND
  5
28F5
330
28F2
100
AcDbEntity
  8
LOGO
 62
     5
  0
POLYLINE
  5
28F6
330
1F
100
AcDbEntity
  8
LOGO
 62
     5
100
AcDb2dPolyline
 66
     1
 10
0.0
 20
0.0
 30
0.0
 40
0.2752113446226243
 41
0.2752113446226243
  0
VERTEX
  5
28F7
330
28F6
100
AcDbEntity
  8
LOGO
 62
     5
100
AcDbVertex
100
AcDb2dVertex
 10
102.0415031989915
 20
289.3409400326276
 30
0.0
 42
1.0
  0
VERTEX
  5
28F8
330
28F6
100
AcDbEntity
  8
LOGO
 62
     5
100
AcDbVertex
100
AcDb2dVertex
 10
101.2158691651239
 20
289.3409400326276
 30
0.0
 42
1.0
  0
SEQEND
  5
28F9
330
28F6
100
AcDbEntity
  8
LOGO
 62
     5
  0
SOLID
  5
28FA
330
1F
100
AcDbEntity
  8
LOGO
 62
     5
100
AcDbTrace
 10
101.0791441691155
 20
289.89048204557
 30
0.0
 11
101.3539151755861
 21
289.89048204557
 31
0.0
 12
101.0791441691155
 22
288.5166270132141
 32
0.0
 13
101.3539151755861
 23
288.5166270132141
 33
0.0
  0
SOLID
  5
28FB
330
1F
100
AcDbEntity
  8
LOGO
 62
     5
100
AcDbTrace
 10
101.9034571885292
 20
289.3409400326276
 30
0.0
 11
102.1782281950007
 21
289.3409400326276
 31
0.0
 12
101.9034571885292
 22
288.5166270132141
 32
0.0
 13
102.1782281950007
 23
288.5166270132141
 33
0.0
  0
POLYLINE
  5
28FC
330
1F
100
AcDbEntity
  8
LOGO
 62
     5
100
AcDb2dPolyline
 66
     1
 10
0.0
 20
0.0
 30
0.0
 70
     1
 40
0.2752113446226243
 41
0.2752113446226243
  0
VERTEX
  5
28FD
330
28FC
100
AcDbEntity
  8
LOGO
 62
     5
100
AcDbVertex
100
AcDb2dVertex
 10
102.6353358322833
 20
289.2035545293918
 30
0.0
 42
1.0
  0
VERTEX
  5
28FE
330
28FC
100
AcDbEntity
  8
LOGO
 62
     5
100
AcDbVertex
100
AcDb2dVertex
 10
103.7361812107742
 20
289.2035545293918
 30
0.0
 42
1.0
  0
SEQEND
  5
28FF
330
28FC
100
AcDbEntity
  8
LOGO
 62
     5
  0
SOLID
  5
2900
330
1F
100
AcDbEntity
  8
LOGO
 62
     5
100
AcDbTrace
 10
103.5978875541354
 20
290.302638555277
 30
0.0
 11
103.8726585606065
 21
290.302638555277
 31
0.0
 12
103.5978875541354
 22
288.5166270132141
 32
0.0
 13
103.8726585606065
 23
288.5166270132141
 33
0.0
  0
SOLID
  5
2901
330
1F
100
AcDbEntity
  8
LOGO
 62
     5
100
AcDbTrace
 10
104.1932338938572
 20
289.89048204557
 30
0.0
 11
104.4680049003279
 21
289.89048204557
 31
0.0
 12
104.1932338938572
 22
288.5166270132141
 32
0.0
 13
104.4680049003279
 23
288.5166270132141
 33
0.0
  0
SOLID
  5
2902
330
1F
100
AcDbEntity
  8
LOGO
 62
     5
100
AcDbTrace
 10
105.0175469132701
 20
289.3409400326276
 30
0.0
 11
105.2923179197416
 21
289.3409400326276
 31
0.0
 12
105.0175469132701
 22
288.5166270132141
 32
0.0
 13
105.2923179197416
 23
288.5166270132141
 33
0.0
  0
SOLID
  5
2903
330
1F
100
AcDbEntity
  8
LOGO
 62
     5
100
AcDbTrace
 10
105.8418599326838
 20
289.3409400326276
 30
0.0
 11
106.1166309391549
 21
289.3409400326276
 31
0.0
 12
105.8418599326838
 22
288.5166270132137
 32
0.0
 13
106.1166309391549
 23
288.5166270132137
 33
0.0
  0
SOLID
  5
2904
330
1F
100
AcDbEntity
  8
LOGO
 62
     5
100
AcDbTrace
 10
100.4837978293941
 20
290.0828217501
 30
0.0
 11
100.758568835866
 21
290.0828217501
 31
0.0
 12
100.4837978293941
 22
290.302638555277
 32
0.0
 13
100.758568835866
 23
290.302638555277
 33
0.0
  0
SOLID
  5
2905
330
1F
100
AcDbEntity
  8
LOGO
 62
     5
100
AcDbTrace
 10
100.4837978293941
 20
289.89048204557
 30
0.0
 11
100.758568835866
 21
289.89048204557
 31
0.0
 12
100.4837978293941
 22
288.5166270132137
 32
0.0
 13
100.758568835866
 23
288.5166270132141
 33
0.0
  0
SOLID
  5
2906
330
1F
100
AcDbEntity
  8
LOGO
 62
     5
100
AcDbTrace
 10
103.1857585215286
 20
291.2643370779262
 30
0.0
 11
103.9825944402955
 21
291.2643370779262
 31
0.0
 12
103.1857585215286
 22
295.294311839504
 32
0.0
 13
103.9825944402955
 23
298.2160435416481
 33
0.0
  0
SOLID
  5
2907
330
1F
100
AcDbEntity
  8
LOGO
 62
     5
100
AcDbTrace
 10
104.3123196480614
 20
298.8205397558847
 30
0.0
 11
105.1091555668276
 21
298.8205397558851
 31
0.0
 12
104.3123196480614
 22
291.8688332921628
 32
0.0
 13
105.1091555668276
 23
294.7905649943069
 33
0.0
  0
SOLID
  5
2908
330
1F
100
AcDbEntity
  8
LOGO
 62
     2
100
AcDbTrace
 10
103.9825944402955
 20
298.8205397558847
 30
0.0
 11
104.3123196480614
 21
298.8205397558847
 31
0.0
 12
103.9825944402955
 22
291.2643370779262
 32
0.0
 13
104.3123196480614
 23
291.2643370779262
 33
0.0
  0
SOLID
  5
2909
330
1F
100
AcDbEntity
  8
LOGO
 62
     5
100
AcDbTrace
 10
104.3123196480614
 20
291.8688332921628
 30
0.0
 11
105.1091555668276
 21
294.7905649943069
 31
0.0
 12
108.1041595373638
 22
298.8205397558851
 32
0.0
 13
107.3073236185977
 23
298.8205397558851
 33
0.0
  0
SOLID
  5
290A
330
1F
100
AcDbEntity
  8
LOGO
 62
     5
100
AcDbTrace
 10
104.3123196480614
 20
291.2643370779262
 30
0.0
 11
105.1091555668276
 21
291.2643370779262
 31
0.0
 12
108.1041595373638
 22
298.2160435416481
 32
0.0
 13
107.3073236185977
 23
295.294311839504
 33
0.0
  0
SOLID
  5
290B
330
1F
100
AcDbEntity
  8
LOGO
 62
     2
100
AcDbTrace
 10
103.9825944402955
 20
291.2643370779262
 30
0.0
 11
104.3123196480614
 21
291.2643370779262
 31
0.0
 12
108.1041595373638
 22
298.8205397558851
 32
0.0
 13
108.4338847451297
 23
298.8205397558847
 33
0.0
  0
LWPOLYLINE
  5
290C
330
1F
100
AcDbEntity
  8
LOGO
 62
     4
100
AcDbPolyline
 90
        4
 70
     1
 43
0.0
 10
97.15212074464725
 20
299.2583217691148
 10
254.9114377594459
 20
299.2583217691148
 10
254.9114377594459
 20
280.8289906559922
 10
97.15212074464725
 20
280.8289906559922
1001
GENIUS_GENREC_14
1002
{
1000
PYDIR
1011
97.15212074464725
1021
280.8289906559922
1031
0.0
1002
}
1002
{
1000
PXDIR
1011
254.9114377594459
1021
299.2583217691148
1031
0.0
1002
}
1002
{
1000
PORI
1011
97.15212074464725
1021
299.2583217691148
1031
0.0
1002
}
1002
{
1000
PINS
1011
97.15212074464725
1021
299.2583217691148
1031
0.0
1002
}
1002
{
1000
PINS2
1011
254.9114377594459
1021
280.8289906559922
1031
0.0
1002
}
1002
{
1000
C
1070
     1
1002
}
1001
GENIUS_GENOBJ-N-REC_13
1002
{
1000
OWNER
1000
GEN
1002
}
1001
GENIUS_GENODEF_13
1002
{
1000
HIER
1070
     0
1002
}
1002
{
1000
MANEDIT
1070
     0
1002
}
1002
{
1000
NOSEL
1070
     0
1002
}
1002
{
1000
BEHIND
1070
     0
1002
}
1002
{
1000
OTHER
1070
     0
1002
}
1002
{
1000
REACTOR
1002
}
  0
LINE
  5
290D
330
1F
100
AcDbEntity
  8
LOGO
 62
     4
100
AcDbLine
 10
176.5894225801785
 20
289.1221896568978
 30
0.0
 11
176.5894225801785
 21
282.3647682487526
 31
0.0
  0
LINE
  5
290E
330
1F
100
AcDbEntity
  8
LOGO
 62
     4
100
AcDbLine
 10
164.303201838097
 20
289.1221896568978
 30
0.0
 11
164.303201838097
 21
282.3647682487526
 31
0.0
  0
LINE
  5
290F
330
1F
100
AcDbEntity
  8
LOGO
 62
     4
100
AcDbLine
 10
176.5894225801785
 20
282.3647682487526
 30
0.0
 11
164.303201838097
 21
282.3647682487526
 31
0.0
  0
LINE
  5
2910
330
1F
100
AcDbEntity
  8
LOGO
 62
     4
100
AcDbLine
 10
177.5352612084251
 20
297.4153886578024
 30
0.0
 11
163.0453762043782
 21
297.4153886578024
 31
0.0
  0
LINE
  5
2911
330
1F
100
AcDbEntity
  8
LOGO
 62
     4
100
AcDbLine
 10
177.5352612084251
 20
291.8865893238658
 30
0.0
 11
163.0453762043782
 21
291.8865893238658
 31
0.0
  0
LINE
  5
2912
330
1F
100
AcDbEntity
  8
LOGO
 62
     4
100
AcDbLine
 10
163.0453762043782
 20
297.4153886578024
 30
0.0
 11
163.0453762043782
 21
291.8865893238658
 31
0.0
  0
LINE
  5
2913
330
1F
100
AcDbEntity
  8
LOGO
 62
     4
100
AcDbLine
 10
177.5352612084251
 20
297.4153886578024
 30
0.0
 11
177.5352612084251
 21
291.8865893238658
 31
0.0
  0
LINE
  5
2914
330
1F
100
AcDbEntity
  8
LOGO
 62
     4
100
AcDbLine
 10
169.8295187064016
 20
291.8865893238658
 30
0.0
 11
169.8295187064016
 21
289.1221896568978
 31
0.0
  0
TEXT
  5
2915
330
1F
100
AcDbEntity
  8
LOGO
  6
Continuous
 62
     7
100
AcDbText
 10
166.9726270194833
 20
293.0407181017213
 30
0.0
 40
3.2256
  1
RH
  7
CHINESET
100
AcDbText
  0
LINE
  5
2916
330
1F
100
AcDbEntity
  8
LOGO
 62
     4
100
AcDbLine
 10
176.5894225801785
 20
289.1221896568978
 30
0.0
 11
164.303201838097
 21
289.1221896568978
 31
0.0
  0
TEXT
  5
2917
330
1F
100
AcDbEntity
  8
LOGO
  6
Continuous
100
AcDbText
 10
168.245811176648
 20
283.3185639510672
 30
120.7828000604619
 40
1.3824
  1
Model
 41
0.8
  7
CHINESET
100
AcDbText
  0
TEXT
  5
2918
330
1F
100
AcDbEntity
  8
LOGO
100
AcDbText
 10
167.877861235708
 20
285.8812356226035
 30
120.7828000604619
 40
2.303999999999999
  1
型號
  7
CHINESET
100
AcDbText
  0
TEXT
  5
2919
330
1F
100
AcDbEntity
  8
LOGO
100
AcDbText
 10
138.7041443944007
 20
281.8094237972704
 30
0.0
 40
1.843199999999999
  1
01005051
 41
0.7
  7
CHINESET
 72
     1
 11
143.0356643944007
 21
281.8094237972704
 31
0.0
100
AcDbText
  0
LINE
  5
291A
330
1F
100
AcDbEntity
  8
LOGO
 62
     4
100
AcDbLine
 10
148.7558491935152
 20
284.5148568786173
 30
0.0
 11
148.755849193516
 21
280.8289906559926
 31
0.0
  0
LINE
  5
291B
330
1F
100
AcDbEntity
  8
LOGO
 62
     4
100
AcDbLine
 10
148.7558491935152
 20
284.5148568786173
 30
0.0
 11
137.696649193516
 21
284.5148568786173
 31
0.0
  0
CIRCLE
  5
291C
330
1F
100
AcDbEntity
  8
LOGO
  6
Continuous
100
AcDbCircle
 10
128.8228496174587
 20
293.7334644825894
 30
0.0
 40
1.070050342183493
  0
CIRCLE
  5
291D
330
1F
100
AcDbEntity
  8
LOGO
  6
Continuous
100
AcDbCircle
 10
128.8228496174587
 20
293.7334644825894
 30
0.0
 40
0.6269547743222144
  0
LINE
  5
291E
330
1F
100
AcDbEntity
  8
LOGO
100
AcDbLine
 10
135.5471701311308
 20
292.6634141404057
 30
0.0
 11
135.5471701311308
 21
294.8035148247732
 31
0.0
  0
LINE
  5
291F
330
1F
100
AcDbEntity
  8
LOGO
100
AcDbLine
 10
132.1926237322061
 20
293.1065097082674
 30
0.0
 11
132.1926237322061
 21
294.3604192569117
 31
0.0
  0
LINE
  5
2920
330
1F
100
AcDbEntity
  8
LOGO
  6
Continuous
100
AcDbLine
 10
132.1926237322061
 20
294.3604192569117
 30
0.0
 11
135.5471701311308
 21
294.8035148247732
 31
0.0
  0
LINE
  5
2921
330
1F
100
AcDbEntity
  8
LOGO
  6
Continuous
100
AcDbLine
 10
132.1926237322061
 20
293.1065097082674
 30
0.0
 11
135.5471701311308
 21
292.6634141404057
 31
0.0
  0
LINE
  5
2922
330
1F
100
AcDbEntity
  8
LOGO
  6
AM_ISO08W050x2
 48
0.3
100
AcDbLine
 10
127.3477691980166
 20
293.7334644825894
 30
0.0
 11
130.2979300369008
 21
293.7334644825894
 31
0.0
1001
GENIUS_GENOREF_13
1005
2927
  0
LINE
  5
2923
330
1F
100
AcDbEntity
  8
LOGO
  6
AM_ISO08W050x2
 48
0.3
100
AcDbLine
 10
128.8228496174587
 20
292.2583840631473
 30
0.0
 11
128.8228496174587
 21
295.2085449020315
 31
0.0
1001
GENIUS_GENOREF_13
1005
2926
  0
LINE
  5
2924
330
1F
100
AcDbEntity
  8
LOGO
  6
CENTER
 48
0.5
100
AcDbLine
 10
131.924353259473
 20
293.7334644825894
 30
0.0
 11
135.8849620942759
 21
293.7334644825894
 31
0.0
1001
GENIUS_GENOREF_13
1005
2925
  0
POINT
  5
2925
330
1F
100
AcDbEntity
  8
0
 60
     1
100
AcDbPoint
 10
-1949.639111438457
 20
-649.6689424179721
 30
0.0
1001
GENIUS_GENOBJ-N-CRS_13
1002
{
1000
OWNER
1000
GEN
1002
}
1001
GENIUS_GENOLIS_13
1002
{
1000
ENT
1005
0
1005
0
1005
0
1005
2924
1002
}
1001
GENIUS_GENOENT_13
1002
{
1000
MYREF
1005
2925
1002
}
1002
{
1000
GRP
1005
0
1002
}
1001
GENIUS_GENODEF_13
1002
{
1000
HIER
1070
    10
1002
}
1002
{
1000
MANEDIT
1070
     1
1002
}
1002
{
1000
NOSEL
1070
     0
1002
}
1002
{
1000
BEHIND
1070
     0
1002
}
1002
{
1000
OTHER
1070
     0
1002
}
1002
{
1000
REACTOR
1002
}
  0
POINT
  5
2926
330
1F
100
AcDbEntity
  8
0
 60
     1
100
AcDbPoint
 10
-1960.963696661312
 20
-640.7933559393359
 30
0.0
1001
GENIUS_GENOBJ-N-CRS_13
1002
{
1000
OWNER
1000
GEN
1002
}
1001
GENIUS_GENOLIS_13
1002
{
1000
ENT
1005
0
1005
0
1005
0
1005
2923
1002
}
1001
GENIUS_GENOENT_13
1002
{
1000
MYREF
1005
2926
1002
}
1002
{
1000
GRP
1005
0
1002
}
1001
GENIUS_GENODEF_13
1002
{
1000
HIER
1070
    10
1002
}
1002
{
1000
MANEDIT
1070
     1
1002
}
1002
{
1000
NOSEL
1070
     0
1002
}
1002
{
1000
BEHIND
1070
     0
1002
}
1002
{
1000
OTHER
1070
     0
1002
}
1002
{
1000
REACTOR
1002
}
  0
POINT
  5
2927
330
1F
100
AcDbEntity
  8
0
 60
     1
100
AcDbPoint
 10
-1954.605022963475
 20
-649.6689424179721
 30
0.0
1001
GENIUS_GENOBJ-N-CRS_13
1002
{
1000
OWNER
1000
GEN
1002
}
1001
GENIUS_GENOLIS_13
1002
{
1000
ENT
1005
0
1005
0
1005
0
1005
2922
1002
}
1001
GENIUS_GENOENT_13
1002
{
1000
MYREF
1005
2927
1002
}
1002
{
1000
GRP
1005
0
1002
}
1001
GENIUS_GENODEF_13
1002
{
1000
HIER
1070
    10
1002
}
1002
{
1000
MANEDIT
1070
     1
1002
}
1002
{
1000
NOSEL
1070
     0
1002
}
1002
{
1000
BEHIND
1070
     0
1002
}
1002
{
1000
OTHER
1070
     0
1002
}
1002
{
1000
REACTOR
1002
}
  0
LINE
  5
2D44
330
1F
100
AcDbEntity
  8
0
100
AcDbLine
 10
186.9059924032386
 20
381.6321612894171
 30
0.0
 11
191.152261964514
 21
381.6321612894171
 31
0.0
  0
LINE
  5
2D45
330
1F
100
AcDbEntity
  8
0
100
AcDbLine
 10
185.4866160463531
 20
379.0821612894169
 30
0.0
 11
191.152261964514
 21
379.0821612894169
 31
0.0
  0
LINE
  5
2D46
330
1F
100
AcDbEntity
  8
0
100
AcDbLine
 10
191.152261964514
 20
381.6321612894171
 30
0.0
 11
191.152261964514
 21
379.0821612894169
 31
0.0
  0
LINE
  5
2D47
330
1F
100
AcDbEntity
  8
0
100
AcDbLine
 10
191.152261964514
 20
380.5775734543347
 30
0.0
 11
199.1982817620675
 21
380.5775734543347
 31
0.0
  0
LINE
  5
2D48
330
1F
100
AcDbEntity
  8
0
100
AcDbLine
 10
191.152261964514
 20
381.347161289417
 30
0.0
 11
199.1982817620675
 21
381.347161289417
 31
0.0
  0
LINE
  5
2D49
330
1F
100
AcDbEntity
  8
0
100
AcDbLine
 10
199.1982817620675
 20
381.347161289417
 30
0.0
 11
199.1982817620675
 21
380.5775734543345
 31
0.0
  0
LINE
  5
2D4A
330
1F
100
AcDbEntity
  8
0
100
AcDbLine
 10
199.1982817620675
 20
381.1543414741086
 30
0.0
 11
202.5471508957267
 21
381.1543414741086
 31
0.0
  0
LINE
  5
2D4B
330
1F
100
AcDbEntity
  8
0
100
AcDbLine
 10
199.1982817620675
 20
380.7703932696431
 30
0.0
 11
202.5471508957267
 21
380.7703932696431
 31
0.0
  0
LINE
  5
2D4C
330
1F
100
AcDbEntity
  8
0
100
AcDbLine
 10
202.5471508957267
 20
381.1543414741086
 30
0.0
 11
202.5471508957267
 21
380.7703932696431
 31
0.0
  0
LINE
  5
2D4D
330
1F
100
AcDbEntity
  8
0
100
AcDbLine
 10
202.5471508957267
 20
379.5599811047257
 30
0.0
 11
202.5471508957267
 21
379.9439293091909
 31
0.0
  0
LINE
  5
2D4E
330
1F
100
AcDbEntity
  8
0
100
AcDbLine
 10
199.1982817620675
 20
379.9439293091909
 30
0.0
 11
202.5471508957267
 21
379.9439293091909
 31
0.0
  0
LINE
  5
2D4F
330
1F
100
AcDbEntity
  8
0
100
AcDbLine
 10
199.1982817620675
 20
379.5599811047257
 30
0.0
 11
202.5471508957267
 21
379.5599811047257
 31
0.0
  0
LINE
  5
2D50
330
1F
100
AcDbEntity
  8
0
100
AcDbLine
 10
199.1982817620675
 20
379.367161289417
 30
0.0
 11
199.1982817620675
 21
380.1367491244996
 31
0.0
  0
LINE
  5
2D51
330
1F
100
AcDbEntity
  8
0
100
AcDbLine
 10
191.152261964514
 20
379.367161289417
 30
0.0
 11
199.1982817620675
 21
379.367161289417
 31
0.0
  0
LINE
  5
2D52
330
1F
100
AcDbEntity
  8
0
100
AcDbLine
 10
191.152261964514
 20
380.1367491244996
 30
0.0
 11
199.1982817620675
 21
380.1367491244996
 31
0.0
  0
LINE
  5
2D53
330
1F
100
AcDbEntity
  8
0
100
AcDbLine
 10
174.5360394198102
 20
400.6902470863677
 30
0.0
 11
174.5360394198099
 21
404.6902470863676
 31
0.0
  0
LINE
  5
2D54
330
1F
100
AcDbEntity
  8
0
100
AcDbLine
 10
161.6360394198101
 20
403.3902470863677
 30
0.0
 11
163.4360394198101
 21
403.3902470863677
 31
0.0
  0
LINE
  5
2D55
330
1F
100
AcDbEntity
  8
0
100
AcDbLine
 10
163.93603941981
 20
402.4902470863676
 30
0.0
 11
163.93603941981
 21
402.8902470863677
 31
0.0
  0
ARC
  5
2D56
330
1F
100
AcDbEntity
  8
0
100
AcDbCircle
 10
163.4360394198101
 20
402.4902470863676
 30
0.0
 40
0.5
100
AcDbArc
 50
270.0
 51
0.0
  0
LINE
  5
2D57
330
1F
100
AcDbEntity
  8
0
100
AcDbLine
 10
161.1360394198101
 20
402.4902470863676
 30
0.0
 11
161.1360394198101
 21
402.8902470863677
 31
0.0
  0
ARC
  5
2D58
330
1F
100
AcDbEntity
  8
0
100
AcDbCircle
 10
161.6360394198101
 20
402.4902470863676
 30
0.0
 40
0.5
100
AcDbArc
 50
180.0
 51
270.0
  0
LINE
  5
2D59
330
1F
100
AcDbEntity
  8
0
100
AcDbLine
 10
161.6360394198101
 20
401.9902470863676
 30
0.0
 11
163.4360394198101
 21
401.9902470863676
 31
0.0
  0
ARC
  5
2D5A
330
1F
100
AcDbEntity
  8
0
100
AcDbCircle
 10
163.4360394198101
 20
402.8902470863677
 30
0.0
 40
0.5
100
AcDbArc
 50
0.0
 51
90.0
  0
ARC
  5
2D5B
330
1F
100
AcDbEntity
  8
0
100
AcDbCircle
 10
161.6360394198101
 20
402.8902470863677
 30
0.0
 40
0.5
100
AcDbArc
 50
90.0
 51
180.0
  0
LINE
  5
2D5C
330
1F
100
AcDbEntity
  8
0
100
AcDbLine
 10
174.5360394198102
 20
378.2133285141938
 30
0.0
 11
174.5360394198102
 21
382.213328514194
 31
0.0
  0
LINE
  5
2D5D
102
{ACAD_REACTORS
330
2DA6
330
2DDE
102
}
330
1F
100
AcDbEntity
  8
0
100
AcDbLine
 10
149.0360394198102
 20
400.6902470863677
 30
0.0
 11
149.03603941981
 21
404.6902470863676
 31
0.0
  0
LINE
  5
2D5E
330
1F
100
AcDbEntity
  8
0
100
AcDbLine
 10
153.0360394198102
 20
401.2902470863675
 30
0.0
 11
153.03603941981
 21
404.0902470863677
 31
0.0
  0
LINE
  5
2D5F
330
1F
100
AcDbEntity
  8
0
100
AcDbLine
 10
151.7252881282978
 20
403.7330491854486
 30
0.0
 11
149.993237320729
 21
402.0009983778797
 31
0.0
  0
LINE
  5
2D60
330
1F
100
AcDbEntity
  8
0
100
AcDbLine
 10
152.0788415188912
 20
403.3794957948555
 30
0.0
 11
150.3467907113223
 21
401.6474449872864
 31
0.0
  0
CIRCLE
  5
2D61
330
1F
100
AcDbEntity
  8
0
100
AcDbCircle
 10
151.0360394198102
 20
402.6902470863676
 30
0.0
 40
1.25
  0
LINE
  5
2D62
330
1F
100
AcDbEntity
  8
0
100
AcDbLine
 10
153.0360394198102
 20
381.6133285141939
 30
0.0
 11
153.0360394198102
 21
382.213328514194
 31
0.0
  0
LINE
  5
2D63
330
1F
100
AcDbEntity
  8
0
100
AcDbLine
 10
149.03603941981
 20
378.2133285141938
 30
0.0
 11
149.0360394198102
 21
381.6133285141939
 31
0.0
  0
LINE
  5
2D64
330
1F
100
AcDbEntity
  8
0
100
AcDbLine
 10
144.3651207250917
 20
381.6133285141939
 30
0.0
 11
144.3651207250917
 21
382.213328514194
 31
0.0
  0
LINE
  5
2D65
330
1F
100
AcDbEntity
  8
0
100
AcDbLine
 10
141.5651207250915
 20
381.6133285141939
 30
0.0
 11
141.5651207250915
 21
382.213328514194
 31
0.0
  0
LINE
  5
2D66
330
1F
100
AcDbEntity
  8
0
100
AcDbLine
 10
140.9651207250916
 20
381.6133285141939
 30
0.0
 11
144.9651207250916
 21
381.6133285141939
 31
0.0
  0
LINE
  5
2D67
102
{ACAD_REACTORS
330
2DA3
102
}
330
1F
100
AcDbEntity
  8
0
100
AcDbLine
 10
141.5651207250915
 20
382.213328514194
 30
0.0
 11
144.3651207250917
 21
382.213328514194
 31
0.0
  0
LINE
  5
2D68
330
1F
100
AcDbEntity
  8
0
100
AcDbLine
 10
140.9651207250916
 20
378.2133285141938
 30
0.0
 11
144.9651207250916
 21
378.2133285141938
 31
0.0
  0
LINE
  5
2D69
330
1F
100
AcDbEntity
  8
0
100
AcDbLine
 10
144.9651207250916
 20
378.2133285141938
 30
0.0
 11
144.9651207250916
 21
381.6133285141939
 31
0.0
  0
LINE
  5
2D6A
102
{ACAD_REACTORS
330
2DA3
102
}
330
1F
100
AcDbEntity
  8
0
100
AcDbLine
 10
140.9651207250916
 20
378.2133285141938
 30
0.0
 11
140.9651207250916
 21
381.6133285141939
 31
0.0
  0
LINE
  5
2D6B
102
{ACAD_REACTORS
330
2DA6
330
2DA9
102
}
330
1F
100
AcDbEntity
  8
0
100
AcDbLine
 10
149.03603941981
 20
400.6902470863677
 30
0.0
 11
174.5360394198099
 21
400.6902470863677
 31
0.0
  0
LINE
  5
2D6C
102
{ACAD_REACTORS
330
2DDE
102
}
330
1F
100
AcDbEntity
  8
0
100
AcDbLine
 10
149.03603941981
 20
404.6902470863676
 30
0.0
 11
174.5360394198099
 21
404.6902470863676
 31
0.0
  0
LINE
  5
2D6D
330
1F
100
AcDbEntity
  8
0
100
AcDbLine
 10
153.0360394198102
 20
382.213328514194
 30
0.0
 11
174.5360394198099
 21
382.213328514194
 31
0.0
  0
LINE
  5
2D6E
330
1F
100
AcDbEntity
  8
0
100
AcDbLine
 10
149.03603941981
 20
381.6133285141939
 30
0.0
 11
174.5360394198099
 21
381.6133285141939
 31
0.0
  0
LINE
  5
2D6F
102
{ACAD_REACTORS
330
2D9E
102
}
330
1F
100
AcDbEntity
  8
0
100
AcDbLine
 10
149.03603941981
 20
378.2133285141938
 30
0.0
 11
174.5360394198099
 21
378.2133285141938
 31
0.0
  0
LINE
  5
2D70
330
1F
100
AcDbEntity
  8
0
100
AcDbLine
 10
153.0360394198102
 20
401.2902470863675
 30
0.0
 11
174.5360394198099
 21
401.2902470863675
 31
0.0
  0
LINE
  5
2D71
330
1F
100
AcDbEntity
  8
0
100
AcDbLine
 10
153.03603941981
 20
404.0902470863677
 30
0.0
 11
174.5360394198099
 21
404.0902470863677
 31
0.0
  0
LINE
  5
2D72
330
1F
100
AcDbEntity
  8
0
100
AcDbLine
 10
153.03603941981
 20
343.3323382567053
 30
0.0
 11
174.5360394198099
 21
343.3323382567053
 31
0.0
  0
LINE
  5
2D73
330
1F
100
AcDbEntity
  8
0
100
AcDbLine
 10
153.0360394198102
 20
340.5323382567051
 30
0.0
 11
174.5360394198099
 21
340.5323382567051
 31
0.0
  0
LINE
  5
2D74
330
1F
100
AcDbEntity
  8
0
100
AcDbLine
 10
149.03603941981
 20
322.2004962894664
 30
0.0
 11
174.5360394198099
 21
322.2004962894664
 31
0.0
  0
LINE
  5
2D75
330
1F
100
AcDbEntity
  8
0
100
AcDbLine
 10
149.03603941981
 20
325.6004962894665
 30
0.0
 11
174.5360394198099
 21
325.6004962894665
 31
0.0
  0
LINE
  5
2D76
330
1F
100
AcDbEntity
  8
0
100
AcDbLine
 10
153.0360394198102
 20
326.2004962894666
 30
0.0
 11
174.5360394198099
 21
326.2004962894666
 31
0.0
  0
LINE
  5
2D77
330
1F
100
AcDbEntity
  8
0
100
AcDbLine
 10
149.03603941981
 20
343.9323382567052
 30
0.0
 11
174.5360394198099
 21
343.9323382567052
 31
0.0
  0
LINE
  5
2D78
102
{ACAD_REACTORS
330
2D9B
330
2E5C
102
}
330
1F
100
AcDbEntity
  8
0
100
AcDbLine
 10
149.03603941981
 20
339.9323382567052
 30
0.0
 11
174.5360394198099
 21
339.9323382567052
 31
0.0
  0
LINE
  5
2D79
330
1F
100
AcDbEntity
  8
0
100
AcDbLine
 10
140.9651207250916
 20
322.2004962894664
 30
0.0
 11
140.9651207250916
 21
325.6004962894665
 31
0.0
  0
LINE
  5
2D7A
330
1F
100
AcDbEntity
  8
0
100
AcDbLine
 10
144.9651207250916
 20
322.2004962894664
 30
0.0
 11
144.9651207250916
 21
325.6004962894665
 31
0.0
  0
LINE
  5
2D7B
102
{ACAD_REACTORS
330
2D95
102
}
330
1F
100
AcDbEntity
  8
0
100
AcDbLine
 10
140.9651207250916
 20
322.2004962894664
 30
0.0
 11
144.9651207250916
 21
322.2004962894664
 31
0.0
  0
LINE
  5
2D7C
330
1F
100
AcDbEntity
  8
0
100
AcDbLine
 10
141.5651207250918
 20
326.2004962894666
 30
0.0
 11
144.3651207250917
 21
326.2004962894666
 31
0.0
  0
LINE
  5
2D7D
330
1F
100
AcDbEntity
  8
0
100
AcDbLine
 10
140.9651207250916
 20
325.6004962894665
 30
0.0
 11
144.9651207250916
 21
325.6004962894665
 31
0.0
  0
LINE
  5
2D7E
102
{ACAD_REACTORS
330
2D95
102
}
330
1F
100
AcDbEntity
  8
0
100
AcDbLine
 10
141.5651207250918
 20
325.6004962894665
 30
0.0
 11
141.5651207250918
 21
326.2004962894666
 31
0.0
  0
LINE
  5
2D7F
330
1F
100
AcDbEntity
  8
0
100
AcDbLine
 10
144.3651207250917
 20
325.6004962894665
 30
0.0
 11
144.3651207250917
 21
326.2004962894666
 31
0.0
  0
LINE
  5
2D80
330
1F
100
AcDbEntity
  8
0
100
AcDbLine
 10
149.03603941981
 20
322.2004962894664
 30
0.0
 11
149.0360394198102
 21
325.6004962894665
 31
0.0
  0
LINE
  5
2D81
330
1F
100
AcDbEntity
  8
0
100
AcDbLine
 10
153.0360394198102
 20
325.6004962894665
 30
0.0
 11
153.0360394198102
 21
326.2004962894666
 31
0.0
  0
CIRCLE
  5
2D82
330
1F
100
AcDbEntity
  8
0
100
AcDbCircle
 10
151.0360394198102
 20
341.9323382567052
 30
0.0
 40
1.25
  0
LINE
  5
2D83
330
1F
100
AcDbEntity
  8
0
100
AcDbLine
 10
152.0788415188912
 20
342.621586965193
 30
0.0
 11
150.3467907113223
 21
340.8895361576242
 31
0.0
  0
LINE
  5
2D84
330
1F
100
AcDbEntity
  8
0
100
AcDbLine
 10
151.7252881282978
 20
342.9751403557864
 30
0.0
 11
149.993237320729
 21
341.2430895482173
 31
0.0
  0
LINE
  5
2D85
330
1F
100
AcDbEntity
  8
0
100
AcDbLine
 10
153.0360394198102
 20
340.5323382567051
 30
0.0
 11
153.03603941981
 21
343.3323382567053
 31
0.0
  0
LINE
  5
2D86
102
{ACAD_REACTORS
330
2D98
102
}
330
1F
100
AcDbEntity
  8
0
100
AcDbLine
 10
149.0360394198102
 20
339.9323382567052
 30
0.0
 11
149.03603941981
 21
343.9323382567052
 31
0.0
  0
LINE
  5
2D87
330
1F
100
AcDbEntity
  8
0
100
AcDbLine
 10
174.5360394198102
 20
322.2004962894664
 30
0.0
 11
174.5360394198102
 21
326.2004962894666
 31
0.0
  0
ARC
  5
2D88
330
1F
100
AcDbEntity
  8
0
100
AcDbCircle
 10
161.6360394198101
 20
342.1323382567052
 30
0.0
 40
0.5
100
AcDbArc
 50
90.0
 51
180.0
  0
ARC
  5
2D89
330
1F
100
AcDbEntity
  8
0
100
AcDbCircle
 10
163.4360394198101
 20
342.1323382567052
 30
0.0
 40
0.5
100
AcDbArc
 50
0.0
 51
90.0
  0
LINE
  5
2D8A
330
1F
100
AcDbEntity
  8
0
100
AcDbLine
 10
161.6360394198101
 20
341.2323382567054
 30
0.0
 11
163.4360394198101
 21
341.2323382567054
 31
0.0
  0
ARC
  5
2D8B
330
1F
100
AcDbEntity
  8
0
100
AcDbCircle
 10
161.6360394198101
 20
341.7323382567054
 30
0.0
 40
0.5
100
AcDbArc
 50
180.0
 51
270.0
  0
LINE
  5
2D8C
330
1F
100
AcDbEntity
  8
0
100
AcDbLine
 10
161.1360394198101
 20
341.7323382567054
 30
0.0
 11
161.1360394198101
 21
342.1323382567052
 31
0.0
  0
ARC
  5
2D8D
330
1F
100
AcDbEntity
  8
0
100
AcDbCircle
 10
163.4360394198101
 20
341.7323382567054
 30
0.0
 40
0.5
100
AcDbArc
 50
270.0
 51
0.0
  0
LINE
  5
2D8E
330
1F
100
AcDbEntity
  8
0
100
AcDbLine
 10
163.93603941981
 20
341.7323382567054
 30
0.0
 11
163.93603941981
 21
342.1323382567052
 31
0.0
  0
LINE
  5
2D8F
330
1F
100
AcDbEntity
  8
0
100
AcDbLine
 10
161.6360394198101
 20
342.6323382567052
 30
0.0
 11
163.4360394198101
 21
342.6323382567052
 31
0.0
  0
LINE
  5
2D90
330
1F
100
AcDbEntity
  8
0
100
AcDbLine
 10
174.5360394198102
 20
339.9323382567052
 30
0.0
 11
174.5360394198099
 21
343.9323382567052
 31
0.0
  0
MTEXT
  5
2D91
330
1F
100
AcDbEntity
  8
0
100
AcDbMText
 10
140.9406362114404
 20
355.3868895591397
 30
0.0
 40
3.5
 41
17.75833333333333
 71
     1
 72
     5
  1
{\Fsimplex.shx,dayus.shx|c136;RH-QD}
 73
     1
 44
1.0
1001
ACAD
1000
MTEXTBEGIN
1070
    73
1070
     1
1070
    44
1040
1.0
1070
    74
1070
     0
1000
MTEXTEND
  0
MTEXT
  5
2D92
330
1F
100
AcDbEntity
  8
0
100
AcDbMText
 10
137.9048610938236
 20
415.2206921278889
 30
0.0
 40
3.5
 41
17.75833333333333
 71
     1
 72
     5
  1
{\Fsimplex.shx,dayus.shx|c136;RHN,RHP}
 73
     1
 44
1.0
1001
ACAD
1000
MTEXTBEGIN
1070
    73
1070
     1
1070
    44
1040
1.0
1070
    74
1070
     0
1000
MTEXTEND
  0
DIMENSION
  5
2D93
102
{ACAD_XDICTIONARY
360
2D94
102
}
102
{ACAD_REACTORS
330
2D95
102
}
330
1F
100
AcDbEntity
  8
AM_5
100
AcDbDimension
  2
*D38
 10
138.2501847092043
 20
322.2004962894664
 30
0.0
 11
138.2501847092043
 21
324.2004962894666
 31
0.0
 70
   160
 71
     5
 42
4.000000000000227
  3
AM_ISO$0
100
AcDbAlignedDimension
 13
141.5651207250918
 23
326.2004962894666
 33
0.0
 14
140.9651207250916
 24
322.2004962894664
 34
0.0
 50
90.0
100
AcDbRotatedDimension
  0
DIMENSION
  5
2D96
102
{ACAD_XDICTIONARY
360
2D97
102
}
102
{ACAD_REACTORS
330
2D98
102
}
330
1F
100
AcDbEntity
  8
AM_5
100
AcDbDimension
  2
*D39
 10
145.8250314036779
 20
339.9323382567052
 30
0.0
 11
145.8250314036778
 21
341.9323382567053
 31
0.0
 70
   160
 71
     5
 42
4.0
  3
AM_ISO$0
100
AcDbAlignedDimension
 13
149.03603941981
 23
343.9323382567052
 33
0.0
 14
149.0360394198102
 24
339.9323382567052
 34
0.0
 50
90.0
100
AcDbRotatedDimension
  0
DIMENSION
  5
2D99
102
{ACAD_XDICTIONARY
360
2D9A
102
}
102
{ACAD_REACTORS
330
2D9B
102
}
330
1F
100
AcDbEntity
  8
AM_5
100
AcDbDimension
  2
*D40
 10
174.5360394198099
 20
334.3621799757193
 30
0.0
 11
161.78603941981
 21
336.8125244639083
 31
0.0
 70
    32
 71
     5
 42
25.5
  3
AM_ISO$0
100
AcDbAlignedDimension
 13
149.03603941981
 23
339.9323382567052
 33
0.0
 14
174.5360394198099
 24
339.9323382567052
 34
0.0
100
AcDbRotatedDimension
1001
ACAD
1000
DSTYLE
1002
{
1070
   174
1070
     1
1002
}
  0
DIMENSION
  5
2D9C
102
{ACAD_XDICTIONARY
360
2D9D
102
}
102
{ACAD_REACTORS
330
2D9E
102
}
330
1F
100
AcDbEntity
  8
AM_5
100
AcDbDimension
  2
*D41
 10
156.53603941981
 20
370.7804427713395
 30
0.0
 11
152.78603941981
 21
370.7804427713395
 31
0.0
 70
   160
 71
     5
 42
7.5
  3
AM_ISO$0
100
AcDbAlignedDimension
 13
149.03603941981
 23
378.2133285141938
 33
0.0
 14
156.53603941981
 24
378.2133285141938
 34
0.0
100
AcDbRotatedDimension
  0
LEADER
  5
2D9F
330
1F
100
AcDbEntity
  8
AM_5
100
AcDbLeader
  3
AM_ISO$7
 73
     0
 74
     0
 75
     1
 40
3.594482322781405
 41
21.67789763779528
 76
     3
 10
156.53603941981
 20
378.2133285141938
 30
0.0
 10
166.0111439052306
 20
371.1354576652222
 30
0.0
 10
169.0111439052306
 20
371.1354576652222
 30
0.0
213
3.763007066192812
223
1.372266013056105
233
0.0
1001
ACAD
1000
DSTYLE
1002
{
1070
   140
1040
3.5
1002
}
  0
MTEXT
  5
2DA0
102
{ACAD_REACTORS
330
2D9F
102
}
330
1F
100
AcDbEntity
  8
AM_5
100
AcDbMText
 10
166.2981368390377
 20
370.8131916521661
 30
0.0
 40
2.799999999999999
 41
0.0
 71
     7
 72
     1
  1
Sensing point
 73
     1
 44
1.0
1001
ACAD
1000
MTEXTBEGIN
1070
    73
1070
     1
1070
    44
1040
1.0
1070
    74
1070
     0
1000
MTEXTEND
  0
DIMENSION
  5
2DA1
102
{ACAD_XDICTIONARY
360
2DA2
102
}
102
{ACAD_REACTORS
330
2DA3
102
}
330
1F
100
AcDbEntity
  8
AM_5
100
AcDbDimension
  2
*D42
 10
136.282103894658
 20
382.213328514194
 30
0.0
 11
133.8321038946579
 21
380.213328514194
 31
0.0
 70
    32
 71
     5
 42
4.000000000000227
  3
AM_ISO$0
100
AcDbAlignedDimension
 13
140.9651207250916
 23
378.2133285141938
 33
0.0
 14
141.5651207250915
 24
382.213328514194
 34
0.0
 50
90.0
100
AcDbRotatedDimension
  0
DIMENSION
  5
2DA4
102
{ACAD_XDICTIONARY
360
2DA5
102
}
102
{ACAD_REACTORS
330
2DA6
102
}
330
1F
100
AcDbEntity
  8
AM_5
100
AcDbDimension
  2
*D43
 10
174.5360394198099
 20
391.8538494911954
 30
0.0
 11
161.78603941981
 21
391.8538494911954
 31
0.0
 70
   160
 71
     5
 42
25.49999999999978
  3
AM_ISO$0
100
AcDbAlignedDimension
 13
149.0360394198102
 23
400.6902470863677
 33
0.0
 14
174.5360394198099
 24
400.6902470863677
 34
0.0
100
AcDbRotatedDimension
  0
DIMENSION
  5
2DA7
102
{ACAD_XDICTIONARY
360
2DA8
102
}
102
{ACAD_REACTORS
330
2DA9
102
}
330
1F
100
AcDbEntity
  8
AM_5
100
AcDbDimension
  2
*D44
 10
202.5471508957267
 20
391.8538494911954
 30
0.0
 11
188.6742090172232
 21
391.8538494911954
 31
0.0
 70
   160
  1
1000%%p20
 71
     5
 42
28.01111147591678
  3
AM_ISO$0
100
AcDbAlignedDimension
 13
174.5360394198099
 23
400.6902470863677
 33
0.0
 14
202.5471508957267
 24
401.8935971243591
 34
0.0
100
AcDbRotatedDimension
  0
DIMENSION
  5
2DAA
330
1F
100
AcDbEntity
  8
AM_5
100
AcDbDimension
  2
*D34
 10
199.1982817620675
 20
407.3156911155033
 30
0.0
 11
200.8727163288971
 21
407.3156911155033
 31
0.0
 70
   160
  1
7%%p1
 71
     5
 42
3.348869133659263
  3
AM_ISO$0
100
AcDbAlignedDimension
 13
202.5471508957267
 23
403.4868970483762
 33
0.0
 14
199.1982817620675
 24
403.6797168636849
 34
0.0
100
AcDbRotatedDimension
  0
DIMENSION
  5
2DAB
330
1F
100
AcDbEntity
  8
AM_5
100
AcDbDimension
  2
*D35
 10
191.152261964514
 20
396.9666056292829
 30
0.0
 11
196.8216127640015
 21
396.9666056292829
 31
0.0
 70
   160
  1
25%%p2
 71
     5
 42
11.39488893121279
  3
AM_ISO$0
100
AcDbAlignedDimension
 13
202.5471508957267
 23
401.8935971243588
 33
0.0
 14
191.152261964514
 24
401.3902470863806
 34
0.0
100
AcDbRotatedDimension
  0
LINE
  5
2DAC
330
1F
100
AcDbEntity
  8
0
100
AcDbLine
 10
174.5360394198102
 20
458.5683190677539
 30
0.0
 11
174.5360394198099
 21
462.5683190677539
 31
0.0
  0
LINE
  5
2DAD
330
1F
100
AcDbEntity
  8
0
100
AcDbLine
 10
161.6360394198101
 20
461.268319067754
 30
0.0
 11
163.4360394198101
 21
461.268319067754
 31
0.0
  0
LINE
  5
2DAE
330
1F
100
AcDbEntity
  8
0
100
AcDbLine
 10
163.93603941981
 20
460.3683190677538
 30
0.0
 11
163.93603941981
 21
460.768319067754
 31
0.0
  0
ARC
  5
2DAF
330
1F
100
AcDbEntity
  8
0
100
AcDbCircle
 10
163.4360394198101
 20
460.3683190677538
 30
0.0
 40
0.5
100
AcDbArc
 50
270.0
 51
0.0
  0
LINE
  5
2DB0
330
1F
100
AcDbEntity
  8
0
100
AcDbLine
 10
161.1360394198101
 20
460.3683190677538
 30
0.0
 11
161.1360394198101
 21
460.768319067754
 31
0.0
  0
ARC
  5
2DB1
330
1F
100
AcDbEntity
  8
0
100
AcDbCircle
 10
161.6360394198101
 20
460.3683190677538
 30
0.0
 40
0.5
100
AcDbArc
 50
180.0
 51
270.0
  0
LINE
  5
2DB2
330
1F
100
AcDbEntity
  8
0
100
AcDbLine
 10
161.6360394198101
 20
459.8683190677538
 30
0.0
 11
163.4360394198101
 21
459.8683190677538
 31
0.0
  0
ARC
  5
2DB3
330
1F
100
AcDbEntity
  8
0
100
AcDbCircle
 10
163.4360394198101
 20
460.768319067754
 30
0.0
 40
0.5
100
AcDbArc
 50
0.0
 51
90.0
  0
ARC
  5
2DB4
330
1F
100
AcDbEntity
  8
0
100
AcDbCircle
 10
161.6360394198101
 20
460.768319067754
 30
0.0
 40
0.5
100
AcDbArc
 50
90.0
 51
180.0
  0
LINE
  5
2DB5
330
1F
100
AcDbEntity
  8
0
100
AcDbLine
 10
174.5360394198102
 20
436.09140049558
 30
0.0
 11
174.5360394198102
 21
440.0914004955803
 31
0.0
  0
LINE
  5
2DB6
102
{ACAD_REACTORS
330
2DD6
102
}
330
1F
100
AcDbEntity
  8
0
100
AcDbLine
 10
149.0360394198102
 20
458.5683190677539
 30
0.0
 11
149.03603941981
 21
462.5683190677539
 31
0.0
  0
LINE
  5
2DB7
330
1F
100
AcDbEntity
  8
0
100
AcDbLine
 10
153.0360394198102
 20
459.1683190677538
 30
0.0
 11
153.03603941981
 21
461.968319067754
 31
0.0
  0
LINE
  5
2DB8
330
1F
100
AcDbEntity
  8
0
100
AcDbLine
 10
151.7252881282978
 20
461.6111211668348
 30
0.0
 11
149.993237320729
 21
459.879070359266
 31
0.0
  0
LINE
  5
2DB9
330
1F
100
AcDbEntity
  8
0
100
AcDbLine
 10
152.0788415188912
 20
461.2575677762418
 30
0.0
 11
150.3467907113223
 21
459.5255169686727
 31
0.0
  0
CIRCLE
  5
2DBA
330
1F
100
AcDbEntity
  8
0
100
AcDbCircle
 10
151.0360394198102
 20
460.5683190677539
 30
0.0
 40
1.25
  0
LINE
  5
2DBB
330
1F
100
AcDbEntity
  8
0
100
AcDbLine
 10
153.0360394198102
 20
439.4914004955801
 30
0.0
 11
153.0360394198102
 21
440.0914004955803
 31
0.0
  0
LINE
  5
2DBC
330
1F
100
AcDbEntity
  8
0
100
AcDbLine
 10
149.03603941981
 20
436.09140049558
 30
0.0
 11
149.0360394198102
 21
439.4914004955801
 31
0.0
  0
LINE
  5
2DBD
330
1F
100
AcDbEntity
  8
0
100
AcDbLine
 10
144.3651207250917
 20
439.4914004955801
 30
0.0
 11
144.3651207250917
 21
440.0914004955803
 31
0.0
  0
LINE
  5
2DBE
330
1F
100
AcDbEntity
  8
0
100
AcDbLine
 10
141.5651207250915
 20
439.4914004955801
 30
0.0
 11
141.5651207250915
 21
440.0914004955803
 31
0.0
  0
LINE
  5
2DBF
330
1F
100
AcDbEntity
  8
0
100
AcDbLine
 10
140.9651207250916
 20
439.4914004955801
 30
0.0
 11
144.9651207250916
 21
439.4914004955801
 31
0.0
  0
LINE
  5
2DC0
102
{ACAD_REACTORS
330
2DD3
102
}
330
1F
100
AcDbEntity
  8
0
100
AcDbLine
 10
141.5651207250915
 20
440.0914004955803
 30
0.0
 11
144.3651207250917
 21
440.0914004955803
 31
0.0
  0
LINE
  5
2DC1
330
1F
100
AcDbEntity
  8
0
100
AcDbLine
 10
140.9651207250916
 20
436.09140049558
 30
0.0
 11
144.9651207250916
 21
436.09140049558
 31
0.0
  0
LINE
  5
2DC2
330
1F
100
AcDbEntity
  8
0
100
AcDbLine
 10
144.9651207250916
 20
436.09140049558
 30
0.0
 11
144.9651207250916
 21
439.4914004955801
 31
0.0
  0
LINE
  5
2DC3
102
{ACAD_REACTORS
330
2DD3
102
}
330
1F
100
AcDbEntity
  8
0
100
AcDbLine
 10
140.9651207250916
 20
436.09140049558
 30
0.0
 11
140.9651207250916
 21
439.4914004955801
 31
0.0
  0
LINE
  5
2DC4
102
{ACAD_REACTORS
330
2DD6
330
2DD9
330
2DE1
102
}
330
1F
100
AcDbEntity
  8
0
100
AcDbLine
 10
149.03603941981
 20
458.5683190677539
 30
0.0
 11
174.5360394198099
 21
458.5683190677539
 31
0.0
  0
LINE
  5
2DC5
102
{ACAD_REACTORS
330
2DE1
102
}
330
1F
100
AcDbEntity
  8
0
100
AcDbLine
 10
149.03603941981
 20
462.5683190677539
 30
0.0
 11
174.5360394198099
 21
462.5683190677539
 31
0.0
  0
LINE
  5
2DC6
330
1F
100
AcDbEntity
  8
0
100
AcDbLine
 10
153.0360394198102
 20
440.0914004955803
 30
0.0
 11
174.5360394198099
 21
440.0914004955803
 31
0.0
  0
LINE
  5
2DC7
330
1F
100
AcDbEntity
  8
0
100
AcDbLine
 10
149.03603941981
 20
439.4914004955801
 30
0.0
 11
174.5360394198099
 21
439.4914004955801
 31
0.0
  0
LINE
  5
2DC8
102
{ACAD_REACTORS
330
2DCE
102
}
330
1F
100
AcDbEntity
  8
0
100
AcDbLine
 10
149.03603941981
 20
436.09140049558
 30
0.0
 11
174.5360394198099
 21
436.09140049558
 31
0.0
  0
LINE
  5
2DC9
330
1F
100
AcDbEntity
  8
0
100
AcDbLine
 10
153.0360394198102
 20
459.1683190677538
 30
0.0
 11
174.5360394198099
 21
459.1683190677538
 31
0.0
  0
LINE
  5
2DCA
330
1F
100
AcDbEntity
  8
0
100
AcDbLine
 10
153.03603941981
 20
461.968319067754
 30
0.0
 11
174.5360394198099
 21
461.968319067754
 31
0.0
  0
MTEXT
  5
2DCB
330
1F
100
AcDbEntity
  8
0
100
AcDbMText
 10
137.9048610938236
 20
473.0987641092752
 30
0.0
 40
3.5
 41
17.75833333333333
 71
     1
 72
     5
  1
RH
 73
     1
 44
1.0
1001
ACAD
1000
MTEXTBEGIN
1070
    73
1070
     1
1070
    44
1040
1.0
1070
    74
1070
     0
1000
MTEXTEND
  0
DIMENSION
  5
2DCC
102
{ACAD_XDICTIONARY
360
2DCD
102
}
102
{ACAD_REACTORS
330
2DCE
102
}
330
1F
100
AcDbEntity
  8
AM_5
100
AcDbDimension
  2
*D45
 10
162.0360394198099
 20
428.6585147527257
 30
0.0
 11
155.4734450971927
 21
428.6585147527257
 31
0.0
 70
   160
 71
     5
 42
13.0
  3
AM_ISO$0
100
AcDbAlignedDimension
 13
149.03603941981
 23
436.09140049558
 33
0.0
 14
162.0360394198099
 24
436.09140049558
 34
0.0
100
AcDbRotatedDimension
  0
LEADER
  5
2DCF
330
1F
100
AcDbEntity
  8
AM_5
100
AcDbLeader
  3
AM_ISO$7
 73
     0
 74
     0
 75
     1
 40
3.594482322781405
 41
21.67789763779528
 76
     3
 10
162.0360394198099
 20
436.09140049558
 30
0.0
 10
166.3611439052305
 20
429.3635296466084
 30
0.0
 10
169.3611439052305
 20
429.3635296466084
 30
0.0
340
2DD0
213
3.763007066192812
223
1.372266013056105
233
0.0
1001
ACAD
1000
DSTYLE
1002
{
1070
   140
1040
3.5
1002
}
  0
MTEXT
  5
2DD0
102
{ACAD_REACTORS
330
2DCF
102
}
330
1F
100
AcDbEntity
  8
AM_5
100
AcDbMText
 10
166.2981368390377
 20
428.6912636335523
 30
0.0
 40
2.799999999999999
 41
0.0
 71
     7
 72
     1
  1
Sensing point
 73
     1
 44
1.0
1001
ACAD
1000
MTEXTBEGIN
1070
    73
1070
     1
1070
    44
1040
1.0
1070
    74
1070
     0
1000
MTEXTEND
  0
DIMENSION
  5
2DD1
102
{ACAD_XDICTIONARY
360
2DD2
102
}
102
{ACAD_REACTORS
330
2DD3
102
}
330
1F
100
AcDbEntity
  8
AM_5
100
AcDbDimension
  2
*D46
 10
136.282103894658
 20
440.0914004955803
 30
0.0
 11
133.8321038946579
 21
438.0914004955802
 31
0.0
 70
    32
 71
     5
 42
4.000000000000227
  3
AM_ISO$0
100
AcDbAlignedDimension
 13
140.9651207250916
 23
436.09140049558
 33
0.0
 14
141.5651207250915
 24
440.0914004955803
 34
0.0
 50
90.0
100
AcDbRotatedDimension
  0
DIMENSION
  5
2DD4
102
{ACAD_XDICTIONARY
360
2DD5
102
}
102
{ACAD_REACTORS
330
2DD6
102
}
330
1F
100
AcDbEntity
  8
AM_5
100
AcDbDimension
  2
*D47
 10
174.5360394198099
 20
449.7319214725816
 30
0.0
 11
161.78603941981
 21
449.7319214725816
 31
0.0
 70
   160
 71
     5
 42
25.49999999999978
  3
AM_ISO$0
100
AcDbAlignedDimension
 13
149.0360394198102
 23
458.5683190677539
 33
0.0
 14
174.5360394198099
 24
458.5683190677539
 34
0.0
100
AcDbRotatedDimension
  0
DIMENSION
  5
2DD7
102
{ACAD_XDICTIONARY
360
2DD8
102
}
102
{ACAD_REACTORS
330
2DD9
102
}
330
1F
100
AcDbEntity
  8
AM_5
100
AcDbDimension
  2
*D48
 10
202.5471508957267
 20
449.7319214725816
 30
0.0
 11
188.6742090172232
 21
449.7319214725816
 31
0.0
 70
   160
  1
1000%%p20
 71
     5
 42
28.01111147591678
  3
AM_ISO$0
100
AcDbAlignedDimension
 13
174.5360394198099
 23
458.5683190677539
 33
0.0
 14
202.5471508957267
 24
459.7716691057453
 34
0.0
100
AcDbRotatedDimension
  0
DIMENSION
  5
2DDA
330
1F
100
AcDbEntity
  8
AM_5
100
AcDbDimension
  2
*D36
 10
199.1982817620675
 20
465.1937630968896
 30
0.0
 11
200.8727163288971
 21
465.1937630968896
 31
0.0
 70
   160
  1
7%%p1
 71
     5
 42
3.348869133659263
  3
AM_ISO$0
100
AcDbAlignedDimension
 13
202.5471508957267
 23
461.3649690297624
 33
0.0
 14
199.1982817620675
 24
461.5577888450712
 34
0.0
100
AcDbRotatedDimension
  0
DIMENSION
  5
2DDB
330
1F
100
AcDbEntity
  8
AM_5
100
AcDbDimension
  2
*D37
 10
191.152261964514
 20
454.8446776106691
 30
0.0
 11
196.8216127640015
 21
454.8446776106691
 31
0.0
 70
   160
  1
25%%p2
 71
     5
 42
11.39488893121279
  3
AM_ISO$0
100
AcDbAlignedDimension
 13
202.5471508957267
 23
459.7716691057451
 33
0.0
 14
191.152261964514
 24
459.2683190677669
 34
0.0
100
AcDbRotatedDimension
  0
DIMENSION
  5
2DDC
102
{ACAD_XDICTIONARY
360
2DDD
102
}
102
{ACAD_REACTORS
330
2DDE
102
}
330
1F
100
AcDbEntity
  8
AM_5
100
AcDbDimension
  2
*D49
 10
144.5500898403936
 20
404.6902470863676
 30
0.0
 11
144.5500898403935
 21
402.6902470863677
 31
0.0
 70
   160
 71
     5
 42
4.0
  3
AM_ISO$0
100
AcDbAlignedDimension
 13
149.0360394198102
 23
400.6902470863677
 33
0.0
 14
149.03603941981
 24
404.6902470863676
 34
0.0
 50
90.0
100
AcDbRotatedDimension
  0
DIMENSION
  5
2DDF
102
{ACAD_XDICTIONARY
360
2DE0
102
}
102
{ACAD_REACTORS
330
2DE1
102
}
330
1F
100
AcDbEntity
  8
AM_5
100
AcDbDimension
  2
*D50
 10
144.5500898403937
 20
462.5683190677539
 30
0.0
 11
142.1000898403937
 21
460.5683190677539
 31
0.0
 70
    32
 71
     5
 42
4.0
  3
AM_ISO$0
100
AcDbAlignedDimension
 13
149.03603941981
 23
458.5683190677539
 33
0.0
 14
149.03603941981
 24
462.5683190677539
 34
0.0
 50
90.0
100
AcDbRotatedDimension
  0
LINE
  5
2DE2
330
1F
100
AcDbEntity
  8
0
370
     9
100
AcDbLine
 10
174.5360394198102
 20
325.6193290646897
 30
0.0
 11
186.0002756158982
 21
325.6193290646897
 31
0.0
  0
LINE
  5
2DE3
330
1F
100
AcDbEntity
  8
0
370
     9
100
AcDbLine
 10
174.5360394198102
 20
323.0693290646895
 30
0.0
 11
184.5808992590129
 21
323.0693290646895
 31
0.0
  0
LINE
  5
2DE4
330
1F
100
AcDbEntity
  8
0
370
     9
100
AcDbLine
 10
213.2017896177671
 20
320.8071299614637
 30
0.0
 11
200.6250816951862
 21
320.8071299614637
 31
0.0
  0
LINE
  5
2DE5
330
1F
100
AcDbEntity
  8
0
370
     9
100
AcDbLine
 10
213.2017896177671
 20
327.8815281679154
 30
0.0
 11
200.6250816951862
 21
327.8815281679154
 31
0.0
  0
LINE
  5
2DE6
330
1F
100
AcDbEntity
  8
0
370
     9
100
AcDbLine
 10
200.6250816951862
 20
323.5582848195284
 30
0.0
 11
200.6250816951862
 21
320.8071299614637
 31
0.0
  0
LINE
  5
2DE7
330
1F
100
AcDbEntity
  8
0
370
     9
100
AcDbLine
 10
199.4460153274441
 20
323.5582848195284
 30
0.0
 11
199.4460153274441
 21
320.9381373356573
 31
0.0
  0
LINE
  5
2DE8
330
1F
100
AcDbEntity
  8
0
370
     9
100
AcDbLine
 10
198.2669489597025
 20
327.6195134195286
 30
0.0
 11
198.2669489597025
 21
321.0691447098509
 31
0.0
  0
LINE
  5
2DE9
330
1F
100
AcDbEntity
  8
0
370
     9
100
AcDbLine
 10
197.0878825919602
 20
327.4885060453348
 30
0.0
 11
197.0878825919602
 21
321.2001520840445
 31
0.0
  0
LINE
  5
2DEA
330
1F
100
AcDbEntity
  8
0
370
     9
100
AcDbLine
 10
194.7297498564763
 20
323.5582848195284
 30
0.0
 11
194.7297498564763
 21
321.4621668324316
 31
0.0
  0
LINE
  5
2DEB
330
1F
100
AcDbEntity
  8
0
370
     9
100
AcDbLine
 10
195.9088162242186
 20
323.5582848195284
 30
0.0
 11
195.9088162242186
 21
321.3311594582381
 31
0.0
  0
LINE
  5
2DEC
330
1F
100
AcDbEntity
  8
0
100
AcDbLine
 10
193.5506834887347
 20
327.095483922754
 30
0.0
 11
193.5506834887347
 21
321.593174206625
 31
0.0
  0
LINE
  5
2DED
330
1F
100
AcDbEntity
  8
0
370
     9
100
AcDbLine
 10
193.5506834887345
 20
321.593174206625
 30
0.0
 11
194.7297498564763
 21
321.4621668324316
 31
0.0
  0
LINE
  5
2DEE
330
1F
100
AcDbEntity
  8
0
370
     9
100
AcDbLine
 10
195.9088162242186
 20
321.3311594582381
 30
0.0
 11
199.4460153274441
 21
320.9381373356573
 31
0.0
  0
LINE
  5
2DEF
330
1F
100
AcDbEntity
  8
0
370
     9
100
AcDbLine
 10
193.5506834887345
 20
327.095483922754
 30
0.0
 11
194.7297498564763
 21
327.2264912969476
 31
0.0
  0
LINE
  5
2DF0
330
1F
100
AcDbEntity
  8
0
370
     9
100
AcDbLine
 10
185.502015344536
 20
323.0693290646898
 30
0.0
 11
193.5506834887345
 21
323.0693290646895
 31
0.0
  0
LINE
  5
2DF1
330
1F
100
AcDbEntity
  8
0
370
     9
100
AcDbLine
 10
186.9059924032386
 20
325.6193290646897
 30
0.0
 11
193.5506834887347
 21
325.6193290646897
 31
0.0
  0
LINE
  5
2DF2
330
1F
100
AcDbEntity
  8
0
370
     9
100
AcDbLine
 10
199.4460153274441
 20
323.0693290646895
 30
0.0
 11
200.6250816951862
 21
323.0693290646895
 31
0.0
  0
LINE
  5
2DF3
330
1F
100
AcDbEntity
  8
0
370
     9
100
AcDbLine
 10
199.4460153274441
 20
325.6193290646897
 30
0.0
 11
200.6250816951862
 21
325.6193290646897
 31
0.0
  0
LINE
  5
2DF4
330
1F
100
AcDbEntity
  8
0
370
     9
100
AcDbLine
 10
200.6250816951862
 20
323.5582848195284
 30
0.0
 11
199.4460153274441
 21
323.5582848195284
 31
0.0
  0
LINE
  5
2DF5
330
1F
100
AcDbEntity
  8
0
370
     9
100
AcDbLine
 10
200.6250816951862
 20
325.1303733098509
 30
0.0
 11
199.4460153274441
 21
325.1303733098509
 31
0.0
  0
LINE
  5
2DF6
330
1F
100
AcDbEntity
  8
0
370
     9
100
AcDbLine
 10
198.2669489597025
 20
323.5582848195284
 30
0.0
 11
197.0878825919602
 21
323.5582848195284
 31
0.0
  0
LINE
  5
2DF7
330
1F
100
AcDbEntity
  8
0
370
     9
100
AcDbLine
 10
198.2669489597025
 20
325.1303733098509
 30
0.0
 11
197.0878825919602
 21
325.1303733098509
 31
0.0
  0
LINE
  5
2DF8
330
1F
100
AcDbEntity
  8
0
370
     9
100
AcDbLine
 10
200.6250816951862
 20
327.8815281679154
 30
0.0
 11
200.6250816951862
 21
325.1303733098509
 31
0.0
  0
LINE
  5
2DF9
330
1F
100
AcDbEntity
  8
0
370
     9
100
AcDbLine
 10
199.4460153274441
 20
327.750520793722
 30
0.0
 11
199.4460153274441
 21
325.1303733098509
 31
0.0
  0
LINE
  5
2DFA
330
1F
100
AcDbEntity
  8
0
370
     9
100
AcDbLine
 10
194.7297498564763
 20
325.6193290646897
 30
0.0
 11
195.9088162242186
 21
325.6193290646897
 31
0.0
  0
LINE
  5
2DFB
330
1F
100
AcDbEntity
  8
0
370
     9
100
AcDbLine
 10
194.7297498564763
 20
323.0693290646895
 30
0.0
 11
195.9088162242186
 21
323.0693290646895
 31
0.0
  0
LINE
  5
2DFC
330
1F
100
AcDbEntity
  8
0
370
     9
100
AcDbLine
 10
195.9088162242186
 20
325.1303733098509
 30
0.0
 11
194.7297498564763
 21
325.1303733098509
 31
0.0
  0
LINE
  5
2DFD
330
1F
100
AcDbEntity
  8
0
370
     9
100
AcDbLine
 10
195.9088162242186
 20
323.5582848195284
 30
0.0
 11
194.7297498564763
 21
323.5582848195284
 31
0.0
  0
LINE
  5
2DFE
330
1F
100
AcDbEntity
  8
0
370
     9
100
AcDbLine
 10
195.9088162242186
 20
327.3574986711415
 30
0.0
 11
195.9088162242186
 21
325.1303733098509
 31
0.0
  0
LINE
  5
2DFF
330
1F
100
AcDbEntity
  8
0
370
     9
100
AcDbLine
 10
194.7297498564763
 20
327.2264912969476
 30
0.0
 11
194.7297498564763
 21
325.1303733098509
 31
0.0
  0
LINE
  5
2E00
330
1F
100
AcDbEntity
  8
0
370
     9
100
AcDbLine
 10
195.9088162242186
 20
327.3574986711415
 30
0.0
 11
199.4460153274441
 21
327.750520793722
 31
0.0
  0
LINE
  5
2E01
330
1F
100
AcDbEntity
  8
0
370
     9
100
AcDbLine
 10
217.9180550887348
 20
326.997228392109
 30
0.0
 11
217.9180550887348
 21
321.6914297372702
 31
0.0
  0
LINE
  5
2E02
330
1F
100
AcDbEntity
  8
0
370
     9
100
AcDbLine
 10
215.1669002306702
 20
327.4885060453348
 30
0.0
 11
214.3808559855087
 21
321.2001520840445
 31
0.0
  0
LINE
  5
2E03
330
1F
100
AcDbEntity
  8
0
370
     9
100
AcDbLine
 10
214.3808559855087
 20
327.4885060453348
 30
0.0
 11
213.5948117403476
 21
321.2001520840445
 31
0.0
  0
LINE
  5
2E04
330
1F
100
AcDbEntity
  8
0
370
     9
100
AcDbLine
 10
213.2017896177671
 20
327.8815281679154
 30
0.0
 11
213.2017896177671
 21
320.8071299614637
 31
0.0
  0
LINE
  5
2E05
330
1F
100
AcDbEntity
  8
0
370
     9
100
AcDbLine
 10
216.3459665984122
 20
327.2330416656576
 30
0.0
 11
216.3459665984122
 21
321.455616463722
 31
0.0
  0
LINE
  5
2E06
330
1F
100
AcDbEntity
  8
0
370
     9
100
AcDbLine
 10
215.8915347691785
 20
326.997228392109
 30
0.0
 11
215.1669002306702
 21
321.2001520840445
 31
0.0
  0
LINE
  5
2E07
330
1F
100
AcDbEntity
  8
0
370
     9
100
AcDbLine
 10
214.097216700172
 20
321.6914297372702
 30
0.0
 11
213.8784510256845
 21
321.6914297372702
 31
0.0
  0
LINE
  5
2E08
330
1F
100
AcDbEntity
  8
0
370
     9
100
AcDbLine
 10
213.3111724550107
 20
321.6914297372702
 30
0.0
 11
213.2017896177671
 21
321.6914297372702
 31
0.0
  0
LINE
  5
2E09
330
1F
100
AcDbEntity
  8
0
370
     9
100
AcDbLine
 10
214.8832609453335
 20
321.6914297372702
 30
0.0
 11
214.6644952708456
 21
321.6914297372702
 31
0.0
  0
LINE
  5
2E0A
330
1F
100
AcDbEntity
  8
0
370
     9
100
AcDbLine
 10
216.3459665984122
 20
321.6914297372702
 30
0.0
 11
215.4505395160071
 21
321.6914297372702
 31
0.0
  0
LINE
  5
2E0B
330
1F
100
AcDbEntity
  8
0
370
     9
100
AcDbLine
 10
214.8832609453335
 20
321.6914297372702
 30
0.0
 11
215.1669002306702
 21
321.2001520840445
 31
0.0
  0
LINE
  5
2E0C
330
1F
100
AcDbEntity
  8
0
370
     9
100
AcDbLine
 10
215.1669002306702
 20
321.2001520840445
 30
0.0
 11
215.4505395160071
 21
321.6914297372702
 31
0.0
  0
LINE
  5
2E0D
330
1F
100
AcDbEntity
  8
0
370
     9
100
AcDbLine
 10
213.3111724550107
 20
321.6914297372702
 30
0.0
 11
213.5948117403476
 21
321.2001520840445
 31
0.0
  0
LINE
  5
2E0E
330
1F
100
AcDbEntity
  8
0
370
     9
100
AcDbLine
 10
213.5948117403476
 20
321.2001520840445
 30
0.0
 11
213.8784510256845
 21
321.6914297372702
 31
0.0
  0
LINE
  5
2E0F
330
1F
100
AcDbEntity
  8
0
370
     9
100
AcDbLine
 10
214.3808559855087
 20
321.2001520840445
 30
0.0
 11
214.6644952708456
 21
321.6914297372702
 31
0.0
  0
LINE
  5
2E10
330
1F
100
AcDbEntity
  8
0
370
     9
100
AcDbLine
 10
214.097216700172
 20
321.6914297372702
 30
0.0
 11
214.3808559855087
 21
321.2001520840445
 31
0.0
  0
LINE
  5
2E11
330
1F
100
AcDbEntity
  8
0
370
     9
100
AcDbLine
 10
217.9180550887348
 20
321.6914297372702
 30
0.0
 11
216.3459665984122
 21
321.455616463722
 31
0.0
  0
LINE
  5
2E12
330
1F
100
AcDbEntity
  8
0
370
     9
100
AcDbLine
 10
215.1669002306702
 20
327.4885060453348
 30
0.0
 11
214.8832609453335
 21
326.997228392109
 31
0.0
  0
LINE
  5
2E13
330
1F
100
AcDbEntity
  8
0
370
     9
100
AcDbLine
 10
215.1669002306702
 20
327.4885060453348
 30
0.0
 11
215.4505395160071
 21
326.997228392109
 31
0.0
  0
LINE
  5
2E14
330
1F
100
AcDbEntity
  8
0
370
     9
100
AcDbLine
 10
214.3808559855087
 20
327.4885060453348
 30
0.0
 11
214.6644952708456
 21
326.997228392109
 31
0.0
  0
LINE
  5
2E15
330
1F
100
AcDbEntity
  8
0
370
     9
100
AcDbLine
 10
214.3808559855087
 20
327.4885060453348
 30
0.0
 11
214.097216700172
 21
326.997228392109
 31
0.0
  0
LINE
  5
2E16
330
1F
100
AcDbEntity
  8
0
370
     9
100
AcDbLine
 10
214.097216700172
 20
326.997228392109
 30
0.0
 11
213.2017896177671
 21
326.997228392109
 31
0.0
  0
LINE
  5
2E17
330
1F
100
AcDbEntity
  8
0
370
     9
100
AcDbLine
 10
214.8832609453335
 20
326.997228392109
 30
0.0
 11
214.6644952708456
 21
326.997228392109
 31
0.0
  0
LINE
  5
2E18
330
1F
100
AcDbEntity
  8
0
370
     9
100
AcDbLine
 10
216.3459665984122
 20
326.997228392109
 30
0.0
 11
215.4505395160071
 21
326.997228392109
 31
0.0
  0
LINE
  5
2E19
330
1F
100
AcDbEntity
  8
0
370
     9
100
AcDbLine
 10
217.9180550887348
 20
326.997228392109
 30
0.0
 11
216.3459665984122
 21
327.2330416656576
 31
0.0
  0
ARC
  5
2E1A
330
1F
100
AcDbEntity
  8
0
100
AcDbCircle
 10
185.4871202947132
 20
323.5092489056654
 30
0.0
 40
1.007355960934259
100
AcDbArc
 50
101.8783378316891
 51
205.8939906769563
  0
ARC
  5
2E1B
330
1F
100
AcDbEntity
  8
0
100
AcDbCircle
 10
184.8872558527167
 20
325.5395925137662
 30
0.0
 40
1.115872264547422
100
AcDbArc
 50
290.5948316114179
 51
4.097659601119914
  0
ARC
  5
2E1C
330
1F
100
AcDbEntity
  8
0
100
AcDbCircle
 10
186.3928370820534
 20
323.5092489056651
 30
0.0
 40
1.007355960934259
100
AcDbArc
 50
101.8783378316891
 51
205.8939906769563
  0
ARC
  5
2E1D
330
1F
100
AcDbEntity
  8
0
100
AcDbCircle
 10
185.792972640057
 20
325.5395925137662
 30
0.0
 40
1.115872264547422
100
AcDbArc
 50
290.5948316114179
 51
4.097659601119914
  0
LINE
  5
2E1E
330
1F
100
AcDbEntity
  8
0
370
     9
100
AcDbLine
 10
174.5360394198099
 20
343.2073382567053
 30
0.0
 11
186.000275615898
 21
343.2073382567053
 31
0.0
  0
LINE
  5
2E1F
330
1F
100
AcDbEntity
  8
0
370
     9
100
AcDbLine
 10
174.5360394198099
 20
340.6573382567051
 30
0.0
 11
184.5808992590126
 21
340.6573382567051
 31
0.0
  0
LINE
  5
2E20
330
1F
100
AcDbEntity
  8
0
370
     9
100
AcDbLine
 10
213.2017896177668
 20
338.3951391534793
 30
0.0
 11
200.625081695186
 21
338.3951391534793
 31
0.0
  0
LINE
  5
2E21
330
1F
100
AcDbEntity
  8
0
370
     9
100
AcDbLine
 10
213.2017896177668
 20
345.4695373599309
 30
0.0
 11
200.625081695186
 21
345.4695373599309
 31
0.0
  0
LINE
  5
2E22
330
1F
100
AcDbEntity
  8
0
370
     9
100
AcDbLine
 10
200.625081695186
 20
341.1462940115439
 30
0.0
 11
200.625081695186
 21
338.3951391534793
 31
0.0
  0
LINE
  5
2E23
330
1F
100
AcDbEntity
  8
0
370
     9
100
AcDbLine
 10
199.4460153274438
 20
341.1462940115439
 30
0.0
 11
199.4460153274438
 21
338.5261465276728
 31
0.0
  0
LINE
  5
2E24
330
1F
100
AcDbEntity
  8
0
370
     9
100
AcDbLine
 10
198.2669489597023
 20
345.2075226115442
 30
0.0
 11
198.2669489597023
 21
338.6571539018664
 31
0.0
  0
LINE
  5
2E25
330
1F
100
AcDbEntity
  8
0
370
     9
100
AcDbLine
 10
197.08788259196
 20
345.0765152373504
 30
0.0
 11
197.08788259196
 21
338.78816127606
 31
0.0
  0
LINE
  5
2E26
330
1F
100
AcDbEntity
  8
0
370
     9
100
AcDbLine
 10
194.7297498564761
 20
341.1462940115439
 30
0.0
 11
194.7297498564761
 21
339.0501760244472
 31
0.0
  0
LINE
  5
2E27
330
1F
100
AcDbEntity
  8
0
370
     9
100
AcDbLine
 10
195.9088162242184
 20
341.1462940115439
 30
0.0
 11
195.9088162242184
 21
338.9191686502536
 31
0.0
  0
LINE
  5
2E28
330
1F
100
AcDbEntity
  8
0
100
AcDbLine
 10
193.5506834887345
 20
344.6834931147696
 30
0.0
 11
193.5506834887345
 21
339.1811833986405
 31
0.0
  0
LINE
  5
2E29
330
1F
100
AcDbEntity
  8
0
370
     9
100
AcDbLine
 10
193.5506834887343
 20
339.1811833986405
 30
0.0
 11
194.7297498564761
 21
339.0501760244472
 31
0.0
  0
LINE
  5
2E2A
330
1F
100
AcDbEntity
  8
0
370
     9
100
AcDbLine
 10
195.9088162242184
 20
338.9191686502536
 30
0.0
 11
199.4460153274438
 21
338.5261465276728
 31
0.0
  0
LINE
  5
2E2B
330
1F
100
AcDbEntity
  8
0
370
     9
100
AcDbLine
 10
193.5506834887343
 20
344.6834931147696
 30
0.0
 11
194.7297498564761
 21
344.8145004889632
 31
0.0
  0
LINE
  5
2E2C
330
1F
100
AcDbEntity
  8
0
370
     9
100
AcDbLine
 10
185.5020153445358
 20
340.6573382567053
 30
0.0
 11
193.5506834887343
 21
340.6573382567051
 31
0.0
  0
LINE
  5
2E2D
330
1F
100
AcDbEntity
  8
0
370
     9
100
AcDbLine
 10
186.9059924032384
 20
343.2073382567053
 30
0.0
 11
193.5506834887345
 21
343.2073382567053
 31
0.0
  0
LINE
  5
2E2E
330
1F
100
AcDbEntity
  8
0
370
     9
100
AcDbLine
 10
199.4460153274438
 20
340.6573382567051
 30
0.0
 11
200.625081695186
 21
340.6573382567051
 31
0.0
  0
LINE
  5
2E2F
330
1F
100
AcDbEntity
  8
0
370
     9
100
AcDbLine
 10
199.4460153274438
 20
343.2073382567053
 30
0.0
 11
200.625081695186
 21
343.2073382567053
 31
0.0
  0
LINE
  5
2E30
330
1F
100
AcDbEntity
  8
0
370
     9
100
AcDbLine
 10
200.625081695186
 20
341.1462940115439
 30
0.0
 11
199.4460153274438
 21
341.1462940115439
 31
0.0
  0
LINE
  5
2E31
330
1F
100
AcDbEntity
  8
0
370
     9
100
AcDbLine
 10
200.625081695186
 20
342.7183825018665
 30
0.0
 11
199.4460153274438
 21
342.7183825018665
 31
0.0
  0
LINE
  5
2E32
330
1F
100
AcDbEntity
  8
0
370
     9
100
AcDbLine
 10
198.2669489597023
 20
341.1462940115439
 30
0.0
 11
197.08788259196
 21
341.1462940115439
 31
0.0
  0
LINE
  5
2E33
330
1F
100
AcDbEntity
  8
0
370
     9
100
AcDbLine
 10
198.2669489597023
 20
342.7183825018665
 30
0.0
 11
197.08788259196
 21
342.7183825018665
 31
0.0
  0
LINE
  5
2E34
330
1F
100
AcDbEntity
  8
0
370
     9
100
AcDbLine
 10
200.625081695186
 20
345.4695373599309
 30
0.0
 11
200.625081695186
 21
342.7183825018665
 31
0.0
  0
LINE
  5
2E35
330
1F
100
AcDbEntity
  8
0
370
     9
100
AcDbLine
 10
199.4460153274438
 20
345.3385299857375
 30
0.0
 11
199.4460153274438
 21
342.7183825018665
 31
0.0
  0
LINE
  5
2E36
330
1F
100
AcDbEntity
  8
0
370
     9
100
AcDbLine
 10
194.7297498564761
 20
343.2073382567053
 30
0.0
 11
195.9088162242184
 21
343.2073382567053
 31
0.0
  0
LINE
  5
2E37
330
1F
100
AcDbEntity
  8
0
370
     9
100
AcDbLine
 10
194.7297498564761
 20
340.6573382567051
 30
0.0
 11
195.9088162242184
 21
340.6573382567051
 31
0.0
  0
LINE
  5
2E38
330
1F
100
AcDbEntity
  8
0
370
     9
100
AcDbLine
 10
195.9088162242184
 20
342.7183825018665
 30
0.0
 11
194.7297498564761
 21
342.7183825018665
 31
0.0
  0
LINE
  5
2E39
330
1F
100
AcDbEntity
  8
0
370
     9
100
AcDbLine
 10
195.9088162242184
 20
341.1462940115439
 30
0.0
 11
194.7297498564761
 21
341.1462940115439
 31
0.0
  0
LINE
  5
2E3A
330
1F
100
AcDbEntity
  8
0
370
     9
100
AcDbLine
 10
195.9088162242184
 20
344.945507863157
 30
0.0
 11
195.9088162242184
 21
342.7183825018665
 31
0.0
  0
LINE
  5
2E3B
330
1F
100
AcDbEntity
  8
0
370
     9
100
AcDbLine
 10
194.7297498564761
 20
344.8145004889632
 30
0.0
 11
194.7297498564761
 21
342.7183825018665
 31
0.0
  0
LINE
  5
2E3C
330
1F
100
AcDbEntity
  8
0
370
     9
100
AcDbLine
 10
195.9088162242184
 20
344.945507863157
 30
0.0
 11
199.4460153274438
 21
345.3385299857375
 31
0.0
  0
LINE
  5
2E3D
330
1F
100
AcDbEntity
  8
0
370
     9
100
AcDbLine
 10
217.9180550887346
 20
344.5852375841246
 30
0.0
 11
217.9180550887346
 21
339.2794389292858
 31
0.0
  0
LINE
  5
2E3E
330
1F
100
AcDbEntity
  8
0
370
     9
100
AcDbLine
 10
215.16690023067
 20
345.0765152373504
 30
0.0
 11
214.3808559855084
 21
338.78816127606
 31
0.0
  0
LINE
  5
2E3F
330
1F
100
AcDbEntity
  8
0
370
     9
100
AcDbLine
 10
214.3808559855084
 20
345.0765152373504
 30
0.0
 11
213.5948117403474
 21
338.78816127606
 31
0.0
  0
LINE
  5
2E40
330
1F
100
AcDbEntity
  8
0
370
     9
100
AcDbLine
 10
213.2017896177668
 20
345.4695373599309
 30
0.0
 11
213.2017896177668
 21
338.3951391534793
 31
0.0
  0
LINE
  5
2E41
330
1F
100
AcDbEntity
  8
0
370
     9
100
AcDbLine
 10
216.345966598412
 20
344.8210508576731
 30
0.0
 11
216.345966598412
 21
339.0436256557375
 31
0.0
  0
LINE
  5
2E42
330
1F
100
AcDbEntity
  8
0
370
     9
100
AcDbLine
 10
215.8915347691783
 20
344.5852375841246
 30
0.0
 11
215.16690023067
 21
338.78816127606
 31
0.0
  0
LINE
  5
2E43
330
1F
100
AcDbEntity
  8
0
370
     9
100
AcDbLine
 10
214.0972167001718
 20
339.2794389292858
 30
0.0
 11
213.8784510256843
 21
339.2794389292858
 31
0.0
  0
LINE
  5
2E44
330
1F
100
AcDbEntity
  8
0
370
     9
100
AcDbLine
 10
213.3111724550105
 20
339.2794389292858
 30
0.0
 11
213.2017896177668
 21
339.2794389292858
 31
0.0
  0
LINE
  5
2E45
330
1F
100
AcDbEntity
  8
0
370
     9
100
AcDbLine
 10
214.8832609453333
 20
339.2794389292858
 30
0.0
 11
214.6644952708454
 21
339.2794389292858
 31
0.0
  0
LINE
  5
2E46
330
1F
100
AcDbEntity
  8
0
370
     9
100
AcDbLine
 10
216.345966598412
 20
339.2794389292858
 30
0.0
 11
215.4505395160069
 21
339.2794389292858
 31
0.0
  0
LINE
  5
2E47
330
1F
100
AcDbEntity
  8
0
370
     9
100
AcDbLine
 10
214.8832609453333
 20
339.2794389292858
 30
0.0
 11
215.16690023067
 21
338.78816127606
 31
0.0
  0
LINE
  5
2E48
330
1F
100
AcDbEntity
  8
0
370
     9
100
AcDbLine
 10
215.16690023067
 20
338.78816127606
 30
0.0
 11
215.4505395160069
 21
339.2794389292858
 31
0.0
  0
LINE
  5
2E49
330
1F
100
AcDbEntity
  8
0
370
     9
100
AcDbLine
 10
213.3111724550105
 20
339.2794389292858
 30
0.0
 11
213.5948117403474
 21
338.78816127606
 31
0.0
  0
LINE
  5
2E4A
330
1F
100
AcDbEntity
  8
0
370
     9
100
AcDbLine
 10
213.5948117403474
 20
338.78816127606
 30
0.0
 11
213.8784510256843
 21
339.2794389292858
 31
0.0
  0
LINE
  5
2E4B
330
1F
100
AcDbEntity
  8
0
370
     9
100
AcDbLine
 10
214.3808559855084
 20
338.78816127606
 30
0.0
 11
214.6644952708454
 21
339.2794389292858
 31
0.0
  0
LINE
  5
2E4C
330
1F
100
AcDbEntity
  8
0
370
     9
100
AcDbLine
 10
214.0972167001718
 20
339.2794389292858
 30
0.0
 11
214.3808559855084
 21
338.78816127606
 31
0.0
  0
LINE
  5
2E4D
330
1F
100
AcDbEntity
  8
0
370
     9
100
AcDbLine
 10
217.9180550887346
 20
339.2794389292858
 30
0.0
 11
216.345966598412
 21
339.0436256557375
 31
0.0
  0
LINE
  5
2E4E
330
1F
100
AcDbEntity
  8
0
370
     9
100
AcDbLine
 10
215.16690023067
 20
345.0765152373504
 30
0.0
 11
214.8832609453333
 21
344.5852375841246
 31
0.0
  0
LINE
  5
2E4F
330
1F
100
AcDbEntity
  8
0
370
     9
100
AcDbLine
 10
215.16690023067
 20
345.0765152373504
 30
0.0
 11
215.4505395160069
 21
344.5852375841246
 31
0.0
  0
LINE
  5
2E50
330
1F
100
AcDbEntity
  8
0
370
     9
100
AcDbLine
 10
214.3808559855084
 20
345.0765152373504
 30
0.0
 11
214.6644952708454
 21
344.5852375841246
 31
0.0
  0
LINE
  5
2E51
330
1F
100
AcDbEntity
  8
0
370
     9
100
AcDbLine
 10
214.3808559855084
 20
345.0765152373504
 30
0.0
 11
214.0972167001718
 21
344.5852375841246
 31
0.0
  0
LINE
  5
2E52
330
1F
100
AcDbEntity
  8
0
370
     9
100
AcDbLine
 10
214.0972167001718
 20
344.5852375841246
 30
0.0
 11
213.2017896177668
 21
344.5852375841246
 31
0.0
  0
LINE
  5
2E53
330
1F
100
AcDbEntity
  8
0
370
     9
100
AcDbLine
 10
214.8832609453333
 20
344.5852375841246
 30
0.0
 11
214.6644952708454
 21
344.5852375841246
 31
0.0
  0
LINE
  5
2E54
330
1F
100
AcDbEntity
  8
0
370
     9
100
AcDbLine
 10
216.345966598412
 20
344.5852375841246
 30
0.0
 11
215.4505395160069
 21
344.5852375841246
 31
0.0
  0
LINE
  5
2E55
330
1F
100
AcDbEntity
  8
0
370
     9
100
AcDbLine
 10
217.9180550887346
 20
344.5852375841246
 30
0.0
 11
216.345966598412
 21
344.8210508576731
 31
0.0
  0
ARC
  5
2E56
330
1F
100
AcDbEntity
  8
0
100
AcDbCircle
 10
185.487120294713
 20
341.0972580976809
 30
0.0
 40
1.007355960934259
100
AcDbArc
 50
101.8783378316891
 51
205.8939906769563
  0
ARC
  5
2E57
330
1F
100
AcDbEntity
  8
0
100
AcDbCircle
 10
184.8872558527165
 20
343.1276017057817
 30
0.0
 40
1.115872264547422
100
AcDbArc
 50
290.5948316114179
 51
4.097659601119914
  0
ARC
  5
2E58
330
1F
100
AcDbEntity
  8
0
100
AcDbCircle
 10
186.3928370820532
 20
341.0972580976807
 30
0.0
 40
1.007355960934259
100
AcDbArc
 50
101.8783378316891
 51
205.8939906769563
  0
ARC
  5
2E59
330
1F
100
AcDbEntity
  8
0
100
AcDbCircle
 10
185.7929726400567
 20
343.1276017057817
 30
0.0
 40
1.115872264547422
100
AcDbArc
 50
290.5948316114179
 51
4.097659601119914
  0
DIMENSION
  5
2E5A
102
{ACAD_XDICTIONARY
360
2E5B
102
}
102
{ACAD_REACTORS
330
2E5C
102
}
330
1F
100
AcDbEntity
  8
AM_5
100
AcDbDimension
  2
*D51
 10
217.9180550887346
 20
334.3621799757197
 30
0.0
 11
196.2270472542723
 21
336.8121799757198
 31
0.0
 70
    32
  1
165
 71
     5
 42
43.38201566892462
  3
AM_ISO$0
100
AcDbAlignedDimension
 13
174.5360394198099
 23
339.9323382567052
 33
0.0
 14
217.9180550887346
 24
339.2794389292858
 34
0.0
100
AcDbRotatedDimension
1001
ACAD
1000
DSTYLE
1002
{
1070
   174
1070
     1
1002
}
  0
LINE
  5
2E5D
330
1F
100
AcDbEntity
  8
0
370
     9
100
AcDbLine
 10
174.5360394198099
 20
381.6321612894171
 30
0.0
 11
186.000275615898
 21
381.6321612894171
 31
0.0
  0
LINE
  5
2E5E
330
1F
100
AcDbEntity
  8
0
370
     9
100
AcDbLine
 10
174.5360394198099
 20
379.0821612894169
 30
0.0
 11
184.5808992590126
 21
379.0821612894169
 31
0.0
  0
ARC
  5
2E5F
330
1F
100
AcDbEntity
  8
0
100
AcDbCircle
 10
185.487120294713
 20
379.5220811303928
 30
0.0
 40
1.007355960934259
100
AcDbArc
 50
101.8783378316891
 51
205.8939906769563
  0
ARC
  5
2E60
330
1F
100
AcDbEntity
  8
0
100
AcDbCircle
 10
184.8872558527165
 20
381.5524247384935
 30
0.0
 40
1.115872264547422
100
AcDbArc
 50
290.5948316114179
 51
4.097659601119914
  0
LINE
  5
2E61
330
1F
100
AcDbEntity
  8
0
370
     9
100
AcDbLine
 10
174.5360394198099
 20
439.5102332708034
 30
0.0
 11
186.000275615898
 21
439.5102332708034
 31
0.0
  0
LINE
  5
2E62
330
1F
100
AcDbEntity
  8
0
370
     9
100
AcDbLine
 10
174.5360394198099
 20
436.9602332708032
 30
0.0
 11
184.5808992590126
 21
436.9602332708032
 31
0.0
  0
ARC
  5
2E63
330
1F
100
AcDbEntity
  8
0
100
AcDbCircle
 10
185.487120294713
 20
437.400153111779
 30
0.0
 40
1.007355960934259
100
AcDbArc
 50
101.8783378316891
 51
205.8939906769563
  0
ARC
  5
2E64
330
1F
100
AcDbEntity
  8
0
100
AcDbCircle
 10
184.8872558527165
 20
439.4304967198798
 30
0.0
 40
1.115872264547422
100
AcDbArc
 50
290.5948316114179
 51
4.097659601119914
  0
ARC
  5
2E65
330
1F
100
AcDbEntity
  8
0
100
AcDbCircle
 10
186.3928370820534
 20
379.5220811303925
 30
0.0
 40
1.007355960934259
100
AcDbArc
 50
101.8783378316891
 51
205.8939906769563
  0
ARC
  5
2E66
330
1F
100
AcDbEntity
  8
0
100
AcDbCircle
 10
185.792972640057
 20
381.5524247384935
 30
0.0
 40
1.115872264547422
100
AcDbArc
 50
290.5948316114179
 51
4.097659601119914
  0
LINE
  5
2E67
330
1F
100
AcDbEntity
  8
0
100
AcDbLine
 10
186.9059924032386
 20
403.9652470863677
 30
0.0
 11
191.152261964514
 21
403.9652470863677
 31
0.0
  0
LINE
  5
2E68
330
1F
100
AcDbEntity
  8
0
100
AcDbLine
 10
185.4866160463531
 20
401.4152470863676
 30
0.0
 11
191.152261964514
 21
401.4152470863676
 31
0.0
  0
LINE
  5
2E69
330
1F
100
AcDbEntity
  8
0
100
AcDbLine
 10
191.152261964514
 20
403.9652470863677
 30
0.0
 11
191.152261964514
 21
401.4152470863676
 31
0.0
  0
LINE
  5
2E6A
330
1F
100
AcDbEntity
  8
0
100
AcDbLine
 10
191.152261964514
 20
402.9106592512853
 30
0.0
 11
199.1982817620675
 21
402.9106592512853
 31
0.0
  0
LINE
  5
2E6B
330
1F
100
AcDbEntity
  8
0
100
AcDbLine
 10
191.152261964514
 20
403.6802470863676
 30
0.0
 11
199.1982817620675
 21
403.6802470863676
 31
0.0
  0
LINE
  5
2E6C
330
1F
100
AcDbEntity
  8
0
100
AcDbLine
 10
199.1982817620675
 20
403.6802470863676
 30
0.0
 11
199.1982817620675
 21
402.910659251285
 31
0.0
  0
LINE
  5
2E6D
330
1F
100
AcDbEntity
  8
0
100
AcDbLine
 10
199.1982817620675
 20
403.4874272710592
 30
0.0
 11
202.5471508957267
 21
403.4874272710592
 31
0.0
  0
LINE
  5
2E6E
330
1F
100
AcDbEntity
  8
0
100
AcDbLine
 10
199.1982817620675
 20
403.1034790665938
 30
0.0
 11
202.5471508957267
 21
403.1034790665938
 31
0.0
  0
LINE
  5
2E6F
330
1F
100
AcDbEntity
  8
0
100
AcDbLine
 10
202.5471508957267
 20
403.4874272710592
 30
0.0
 11
202.5471508957267
 21
403.1034790665938
 31
0.0
  0
LINE
  5
2E70
330
1F
100
AcDbEntity
  8
0
100
AcDbLine
 10
202.5471508957267
 20
401.8930669016762
 30
0.0
 11
202.5471508957267
 21
402.2770151061415
 31
0.0
  0
LINE
  5
2E71
330
1F
100
AcDbEntity
  8
0
100
AcDbLine
 10
199.1982817620675
 20
402.2770151061415
 30
0.0
 11
202.5471508957267
 21
402.2770151061415
 31
0.0
  0
LINE
  5
2E72
330
1F
100
AcDbEntity
  8
0
100
AcDbLine
 10
199.1982817620675
 20
401.8930669016762
 30
0.0
 11
202.5471508957267
 21
401.8930669016762
 31
0.0
  0
LINE
  5
2E73
330
1F
100
AcDbEntity
  8
0
100
AcDbLine
 10
199.1982817620675
 20
401.7002470863676
 30
0.0
 11
199.1982817620675
 21
402.4698349214502
 31
0.0
  0
LINE
  5
2E74
330
1F
100
AcDbEntity
  8
0
100
AcDbLine
 10
191.152261964514
 20
401.7002470863676
 30
0.0
 11
199.1982817620675
 21
401.7002470863676
 31
0.0
  0
LINE
  5
2E75
330
1F
100
AcDbEntity
  8
0
100
AcDbLine
 10
191.152261964514
 20
402.4698349214502
 30
0.0
 11
199.1982817620675
 21
402.4698349214502
 31
0.0
  0
LINE
  5
2E76
330
1F
100
AcDbEntity
  8
0
370
     9
100
AcDbLine
 10
174.5360394198099
 20
403.9652470863677
 30
0.0
 11
186.000275615898
 21
403.9652470863677
 31
0.0
  0
LINE
  5
2E77
330
1F
100
AcDbEntity
  8
0
370
     9
100
AcDbLine
 10
174.5360394198099
 20
401.4152470863676
 30
0.0
 11
184.5808992590126
 21
401.4152470863676
 31
0.0
  0
ARC
  5
2E78
330
1F
100
AcDbEntity
  8
0
100
AcDbCircle
 10
185.487120294713
 20
401.8551669273433
 30
0.0
 40
1.007355960934259
100
AcDbArc
 50
101.8783378316891
 51
205.8939906769563
  0
ARC
  5
2E79
330
1F
100
AcDbEntity
  8
0
100
AcDbCircle
 10
184.8872558527165
 20
403.8855105354441
 30
0.0
 40
1.115872264547422
100
AcDbArc
 50
290.5948316114179
 51
4.097659601119914
  0
ARC
  5
2E7A
330
1F
100
AcDbEntity
  8
0
100
AcDbCircle
 10
186.3928370820534
 20
401.8551669273431
 30
0.0
 40
1.007355960934259
100
AcDbArc
 50
101.8783378316891
 51
205.8939906769563
  0
ARC
  5
2E7B
330
1F
100
AcDbEntity
  8
0
100
AcDbCircle
 10
185.792972640057
 20
403.8855105354441
 30
0.0
 40
1.115872264547422
100
AcDbArc
 50
290.5948316114179
 51
4.097659601119914
  0
LINE
  5
2E7C
330
1F
100
AcDbEntity
  8
0
100
AcDbLine
 10
186.9059924032386
 20
439.5102332708034
 30
0.0
 11
191.152261964514
 21
439.5102332708034
 31
0.0
  0
LINE
  5
2E7D
330
1F
100
AcDbEntity
  8
0
100
AcDbLine
 10
185.4866160463531
 20
436.9602332708032
 30
0.0
 11
191.152261964514
 21
436.9602332708032
 31
0.0
  0
LINE
  5
2E7E
330
1F
100
AcDbEntity
  8
0
100
AcDbLine
 10
191.152261964514
 20
439.5102332708034
 30
0.0
 11
191.152261964514
 21
436.9602332708032
 31
0.0
  0
LINE
  5
2E7F
330
1F
100
AcDbEntity
  8
0
100
AcDbLine
 10
191.152261964514
 20
438.4556454357209
 30
0.0
 11
199.1982817620675
 21
438.4556454357209
 31
0.0
  0
LINE
  5
2E80
330
1F
100
AcDbEntity
  8
0
100
AcDbLine
 10
191.152261964514
 20
439.2252332708032
 30
0.0
 11
199.1982817620675
 21
439.2252332708032
 31
0.0
  0
LINE
  5
2E81
330
1F
100
AcDbEntity
  8
0
100
AcDbLine
 10
199.1982817620675
 20
439.2252332708032
 30
0.0
 11
199.1982817620675
 21
438.4556454357207
 31
0.0
  0
LINE
  5
2E82
330
1F
100
AcDbEntity
  8
0
100
AcDbLine
 10
199.1982817620675
 20
439.0324134554949
 30
0.0
 11
202.5471508957267
 21
439.0324134554949
 31
0.0
  0
LINE
  5
2E83
330
1F
100
AcDbEntity
  8
0
100
AcDbLine
 10
199.1982817620675
 20
438.6484652510294
 30
0.0
 11
202.5471508957267
 21
438.6484652510294
 31
0.0
  0
LINE
  5
2E84
330
1F
100
AcDbEntity
  8
0
100
AcDbLine
 10
202.5471508957267
 20
439.0324134554949
 30
0.0
 11
202.5471508957267
 21
438.6484652510294
 31
0.0
  0
LINE
  5
2E85
330
1F
100
AcDbEntity
  8
0
100
AcDbLine
 10
202.5471508957267
 20
437.4380530861119
 30
0.0
 11
202.5471508957267
 21
437.8220012905772
 31
0.0
  0
LINE
  5
2E86
330
1F
100
AcDbEntity
  8
0
100
AcDbLine
 10
199.1982817620675
 20
437.8220012905772
 30
0.0
 11
202.5471508957267
 21
437.8220012905772
 31
0.0
  0
LINE
  5
2E87
330
1F
100
AcDbEntity
  8
0
100
AcDbLine
 10
199.1982817620675
 20
437.4380530861119
 30
0.0
 11
202.5471508957267
 21
437.4380530861119
 31
0.0
  0
LINE
  5
2E88
330
1F
100
AcDbEntity
  8
0
100
AcDbLine
 10
199.1982817620675
 20
437.2452332708032
 30
0.0
 11
199.1982817620675
 21
438.0148211058858
 31
0.0
  0
LINE
  5
2E89
330
1F
100
AcDbEntity
  8
0
100
AcDbLine
 10
191.152261964514
 20
437.2452332708032
 30
0.0
 11
199.1982817620675
 21
437.2452332708032
 31
0.0
  0
LINE
  5
2E8A
330
1F
100
AcDbEntity
  8
0
100
AcDbLine
 10
191.152261964514
 20
438.0148211058858
 30
0.0
 11
199.1982817620675
 21
438.0148211058858
 31
0.0
  0
ARC
  5
2E8B
330
1F
100
AcDbEntity
  8
0
100
AcDbCircle
 10
186.3928370820534
 20
437.4001531117787
 30
0.0
 40
1.007355960934259
100
AcDbArc
 50
101.8783378316891
 51
205.8939906769563
  0
ARC
  5
2E8C
330
1F
100
AcDbEntity
  8
0
100
AcDbCircle
 10
185.792972640057
 20
439.4304967198798
 30
0.0
 40
1.115872264547422
100
AcDbArc
 50
290.5948316114179
 51
4.097659601119914
  0
LINE
  5
2E8D
330
1F
100
AcDbEntity
  8
0
100
AcDbLine
 10
186.9059924032386
 20
461.8433190677539
 30
0.0
 11
191.152261964514
 21
461.8433190677539
 31
0.0
  0
LINE
  5
2E8E
330
1F
100
AcDbEntity
  8
0
100
AcDbLine
 10
185.4866160463531
 20
459.2933190677538
 30
0.0
 11
191.152261964514
 21
459.2933190677538
 31
0.0
  0
LINE
  5
2E8F
330
1F
100
AcDbEntity
  8
0
100
AcDbLine
 10
191.152261964514
 20
461.8433190677539
 30
0.0
 11
191.152261964514
 21
459.2933190677538
 31
0.0
  0
LINE
  5
2E90
330
1F
100
AcDbEntity
  8
0
100
AcDbLine
 10
191.152261964514
 20
460.7887312326716
 30
0.0
 11
199.1982817620675
 21
460.7887312326716
 31
0.0
  0
LINE
  5
2E91
330
1F
100
AcDbEntity
  8
0
100
AcDbLine
 10
191.152261964514
 20
461.5583190677539
 30
0.0
 11
199.1982817620675
 21
461.5583190677539
 31
0.0
  0
LINE
  5
2E92
330
1F
100
AcDbEntity
  8
0
100
AcDbLine
 10
199.1982817620675
 20
461.5583190677539
 30
0.0
 11
199.1982817620675
 21
460.7887312326713
 31
0.0
  0
LINE
  5
2E93
330
1F
100
AcDbEntity
  8
0
100
AcDbLine
 10
199.1982817620675
 20
461.3654992524454
 30
0.0
 11
202.5471508957267
 21
461.3654992524454
 31
0.0
  0
LINE
  5
2E94
330
1F
100
AcDbEntity
  8
0
100
AcDbLine
 10
199.1982817620675
 20
460.9815510479799
 30
0.0
 11
202.5471508957267
 21
460.9815510479799
 31
0.0
  0
LINE
  5
2E95
330
1F
100
AcDbEntity
  8
0
100
AcDbLine
 10
202.5471508957267
 20
461.3654992524454
 30
0.0
 11
202.5471508957267
 21
460.9815510479799
 31
0.0
  0
LINE
  5
2E96
330
1F
100
AcDbEntity
  8
0
100
AcDbLine
 10
202.5471508957267
 20
459.7711388830625
 30
0.0
 11
202.5471508957267
 21
460.1550870875278
 31
0.0
  0
LINE
  5
2E97
330
1F
100
AcDbEntity
  8
0
100
AcDbLine
 10
199.1982817620675
 20
460.1550870875278
 30
0.0
 11
202.5471508957267
 21
460.1550870875278
 31
0.0
  0
LINE
  5
2E98
330
1F
100
AcDbEntity
  8
0
100
AcDbLine
 10
199.1982817620675
 20
459.7711388830625
 30
0.0
 11
202.5471508957267
 21
459.7711388830625
 31
0.0
  0
LINE
  5
2E99
330
1F
100
AcDbEntity
  8
0
100
AcDbLine
 10
199.1982817620675
 20
459.5783190677539
 30
0.0
 11
199.1982817620675
 21
460.3479069028365
 31
0.0
  0
LINE
  5
2E9A
330
1F
100
AcDbEntity
  8
0
100
AcDbLine
 10
191.152261964514
 20
459.5783190677539
 30
0.0
 11
199.1982817620675
 21
459.5783190677539
 31
0.0
  0
LINE
  5
2E9B
330
1F
100
AcDbEntity
  8
0
100
AcDbLine
 10
191.152261964514
 20
460.3479069028365
 30
0.0
 11
199.1982817620675
 21
460.3479069028365
 31
0.0
  0
LINE
  5
2E9C
330
1F
100
AcDbEntity
  8
0
370
     9
100
AcDbLine
 10
174.5360394198099
 20
461.8433190677539
 30
0.0
 11
186.000275615898
 21
461.8433190677539
 31
0.0
  0
LINE
  5
2E9D
330
1F
100
AcDbEntity
  8
0
370
     9
100
AcDbLine
 10
174.5360394198099
 20
459.2933190677538
 30
0.0
 11
184.5808992590126
 21
459.2933190677538
 31
0.0
  0
ARC
  5
2E9E
330
1F
100
AcDbEntity
  8
0
100
AcDbCircle
 10
185.487120294713
 20
459.7332389087296
 30
0.0
 40
1.007355960934259
100
AcDbArc
 50
101.8783378316891
 51
205.8939906769563
  0
ARC
  5
2E9F
330
1F
100
AcDbEntity
  8
0
100
AcDbCircle
 10
184.8872558527165
 20
461.7635825168304
 30
0.0
 40
1.115872264547422
100
AcDbArc
 50
290.5948316114179
 51
4.097659601119914
  0
ARC
  5
2EA0
330
1F
100
AcDbEntity
  8
0
100
AcDbCircle
 10
186.3928370820534
 20
459.7332389087293
 30
0.0
 40
1.007355960934259
100
AcDbArc
 50
101.8783378316891
 51
205.8939906769563
  0
ARC
  5
2EA1
330
1F
100
AcDbEntity
  8
0
100
AcDbCircle
 10
185.792972640057
 20
461.7635825168304
 30
0.0
 40
1.115872264547422
100
AcDbArc
 50
290.5948316114179
 51
4.097659601119914
  0
ENDSEC
  0
SECTION
  2
OBJECTS
  0
DICTIONARY
  5
C
330
0
100
AcDbDictionary
281
     1
  3
ACAD_COLOR
350
BE
  3
ACAD_GROUP
350
D
  3
ACAD_LAYOUT
350
1A
  3
ACAD_MATERIAL
350
BD
  3
ACAD_MLINESTYLE
350
17
  3
ACAD_PLOTSETTINGS
350
19
  3
ACAD_PLOTSTYLENAME
350
E
  3
ACAD_TABLESTYLE
350
11A
  3
ACDBHEADERROUNDTRIPXREC
350
3068
  3
AcDbVariableDictionary
350
94
  3
AcmDictionary
350
5B
  3
AMG
350
41
  3
AMGSNAPSETTINGS
350
1B8
  3
DWGPROPS
350
3067
  3
MAPISURF_MODULE
350
2469
  0
DICTIONARY
  5
3F9
330
2
100
AcDbDictionary
280
     1
281
     1
  3
ACAD_LAYERFILTERS
360
5B7
  3
ACAD_LAYERSTATES
360
B13
  3
ACLYDICTIONARY
360
5B6
  0
DICTIONARY
  5
8F
330
1F
100
AcDbDictionary
280
     1
281
     1
  3
ACAD_INDEX
360
2928
  3
ACAD_SORTENTS
360
1430
  0
DICTIONARY
  5
2D94
330
2D93
100
AcDbDictionary
280
     1
281
     1
  3
ACAD_DIMASSOC
360
2D95
  0
DICTIONARY
  5
2D97
330
2D96
100
AcDbDictionary
280
     1
281
     1
  3
ACAD_DIMASSOC
360
2D98
  0
DICTIONARY
  5
2D9A
330
2D99
100
AcDbDictionary
280
     1
281
     1
  3
ACAD_DIMASSOC
360
2D9B
  0
DICTIONARY
  5
2D9D
330
2D9C
100
AcDbDictionary
280
     1
281
     1
  3
ACAD_DIMASSOC
360
2D9E
  0
DICTIONARY
  5
2DA2
330
2DA1
100
AcDbDictionary
280
     1
281
     1
  3
ACAD_DIMASSOC
360
2DA3
  0
DICTIONARY
  5
2DA5
330
2DA4
100
AcDbDictionary
280
     1
281
     1
  3
ACAD_DIMASSOC
360
2DA6
  0
DICTIONARY
  5
2DA8
330
2DA7
100
AcDbDictionary
280
     1
281
     1
  3
ACAD_DIMASSOC
360
2DA9
  0
DICTIONARY
  5
2DCD
330
2DCC
100
AcDbDictionary
280
     1
281
     1
  3
ACAD_DIMASSOC
360
2DCE
  0
DICTIONARY
  5
2DD2
330
2DD1
100
AcDbDictionary
280
     1
281
     1
  3
ACAD_DIMASSOC
360
2DD3
  0
DICTIONARY
  5
2DD5
330
2DD4
100
AcDbDictionary
280
     1
281
     1
  3
ACAD_DIMASSOC
360
2DD6
  0
DICTIONARY
  5
2DD8
330
2DD7
100
AcDbDictionary
280
     1
281
     1
  3
ACAD_DIMASSOC
360
2DD9
  0
DICTIONARY
  5
2DDD
330
2DDC
100
AcDbDictionary
280
     1
281
     1
  3
ACAD_DIMASSOC
360
2DDE
  0
DICTIONARY
  5
2DE0
330
2DDF
100
AcDbDictionary
280
     1
281
     1
  3
ACAD_DIMASSOC
360
2DE1
  0
DICTIONARY
  5
2E5B
330
2E5A
100
AcDbDictionary
280
     1
281
     1
  3
ACAD_DIMASSOC
360
2E5C
  0
DICTIONARY
  5
BE
102
{ACAD_REACTORS
330
C
102
}
330
C
100
AcDbDictionary
281
     1
  0
DICTIONARY
  5
D
102
{ACAD_REACTORS
330
C
102
}
330
C
100
AcDbDictionary
281
     1
  0
DICTIONARY
  5
1A
102
{ACAD_REACTORS
330
C
102
}
330
C
100
AcDbDictionary
281
     1
  3
Model
350
22
  3
配置1
350
1E
  3
配置2
350
26
  0
DICTIONARY
  5
BD
102
{ACAD_REACTORS
330
C
102
}
330
C
100
AcDbDictionary
281
     1
  0
DICTIONARY
  5
17
102
{ACAD_REACTORS
330
C
102
}
330
C
100
AcDbDictionary
281
     1
  3
Standard
350
18
  0
DICTIONARY
  5
19
102
{ACAD_REACTORS
330
C
102
}
330
C
100
AcDbDictionary
281
     1
  0
ACDBDICTIONARYWDFLT
  5
E
102
{ACAD_REACTORS
330
C
102
}
330
C
100
AcDbDictionary
281
     1
  3
Normal
350
F
100
AcDbDictionaryWithDefault
340
F
  0
DICTIONARY
  5
11A
102
{ACAD_REACTORS
330
C
102
}
330
C
100
AcDbDictionary
281
     1
  3
Standard
350
11B
  0
DICTIONARY
  5
3068
102
{ACAD_REACTORS
330
C
102
}
330
C
100
AcDbDictionary
281
     1
  0
DICTIONARY
  5
94
102
{ACAD_REACTORS
330
C
102
}
330
C
100
AcDbDictionary
281
     1
  3
CTABLESTYLE
350
138
  3
DIMASSOC
350
96
  3
INDEXCTL
350
95
  3
PROJECTNAME
350
1BF5
  0
DICTIONARY
  5
5B
102
{ACAD_REACTORS
330
C
102
}
330
C
100
AcDbDictionary
281
     1
  3
AcmBOM
350
1B5
  3
AcmStdDictionary
350
61
  3
AMDTSECTSYM_ARROWCOLOR
350
123
  0
DICTIONARY
  5
41
102
{ACAD_REACTORS
330
C
102
}
330
C
100
AcDbDictionary
281
     1
  3
AcMgSettings
350
23E3
  0
DICTIONARY
  5
1B8
102
{ACAD_REACTORS
330
C
102
}
330
C
100
AcDbDictionary
281
     1
  0
XRECORD
  5
3067
102
{ACAD_REACTORS
330
C
102
}
330
C
100
AcDbXrecord
280
     1
  1
DWGPROPS COOKIE
  2

  3

  4

  6

  7

  8

  9

300
AmdtFileType=84
301
=
302
=
303
=
304
=
305
=
306
=
307
=
308
=
309
=
 40
0.0969406712962963
 41
2453965.689012037
 42
2455322.497836192
  1

 90
        1
  0
DICTIONARY
  5
5B7
102
{ACAD_REACTORS
330
3F9
102
}
330
3F9
100
AcDbDictionary
281
     1
  0
DICTIONARY
  5
B13
102
{ACAD_REACTORS
330
3F9
102
}
330
3F9
100
AcDbDictionary
281
     1
  0
DICTIONARY
  5
5B6
102
{ACAD_REACTORS
330
3F9
102
}
330
3F9
100
AcDbDictionary
281
     1
1001
ACAD
1000
<All
  0
DICTIONARY
  5
2928
102
{ACAD_REACTORS
330
8F
102
}
330
8F
100
AcDbDictionary
281
     1
  3
*A1
350
2929
  0
SORTENTSTABLE
  5
1430
102
{ACAD_REACTORS
330
8F
102
}
330
8F
100
AcDbSortentsTable
330
1F
  0
DIMASSOC
  5
2D95
102
{ACAD_REACTORS
330
2D94
102
}
330
2D94
100
AcDbDimAssoc
330
2D93
 90
        3
 70
     0
 71
     0
  1
AcDbOsnapPointRef
 72
     1
331
2D7E
 73
     0
 91
        0
 40
0.0
 10
0.0
 20
0.0
 30
2.000000000000000E+50
 75
     0
  1
AcDbOsnapPointRef
 72
    13
331
2D7B
 73
     0
 91
        0
 40
0.0
 10
0.0
 20
0.0
 30
2.000000000000000E+50
 75
     0
  0
DIMASSOC
  5
2D98
102
{ACAD_REACTORS
330
2D97
102
}
330
2D97
100
AcDbDimAssoc
330
2D96
 90
        3
 70
     0
 71
     0
  1
AcDbOsnapPointRef
 72
     1
331
2D86
 73
     0
 91
        0
 40
0.0
 10
0.0
 20
0.0
 30
2.000000000000000E+50
 75
     0
  1
AcDbOsnapPointRef
 72
    13
331
2D86
 73
     0
 91
        0
 40
0.0
 10
0.0
 20
0.0
 30
2.000000000000000E+50
 75
     0
  0
DIMASSOC
  5
2D9B
102
{ACAD_REACTORS
330
2D9A
102
}
330
2D9A
100
AcDbDimAssoc
330
2D99
 90
        3
 70
     0
 71
     0
  1
AcDbOsnapPointRef
 72
    13
331
2D78
 73
     0
 91
        0
 40
0.0
 10
0.0
 20
0.0
 30
2.000000000000000E+50
 75
     0
  1
AcDbOsnapPointRef
 72
     1
331
2D78
 73
     0
 91
        0
 40
0.0
 10
0.0
 20
0.0
 30
2.000000000000000E+50
 75
     0
  0
DIMASSOC
  5
2D9E
102
{ACAD_REACTORS
330
2D9D
102
}
330
2D9D
100
AcDbDimAssoc
330
2D9C
 90
        1
 70
     0
 71
     0
  1
AcDbOsnapPointRef
 72
    13
331
2D6F
 73
     0
 91
        0
 40
0.0
 10
0.0
 20
0.0
 30
2.000000000000000E+50
 75
     0
  0
DIMASSOC
  5
2DA3
102
{ACAD_REACTORS
330
2DA2
102
}
330
2DA2
100
AcDbDimAssoc
330
2DA1
 90
        3
 70
     0
 71
     0
  1
AcDbOsnapPointRef
 72
    13
331
2D6A
 73
     0
 91
        0
 40
0.0
 10
0.0
 20
0.0
 30
2.000000000000000E+50
 75
     0
  1
AcDbOsnapPointRef
 72
    13
331
2D67
 73
     0
 91
        0
 40
0.0
 10
0.0
 20
0.0
 30
2.000000000000000E+50
 75
     0
  0
DIMASSOC
  5
2DA6
102
{ACAD_REACTORS
330
2DA5
102
}
330
2DA5
100
AcDbDimAssoc
330
2DA4
 90
        3
 70
     0
 71
     0
  1
AcDbOsnapPointRef
 72
    13
331
2D5D
 73
     0
 91
        0
 40
0.0
 10
0.0
 20
0.0
 30
2.000000000000000E+50
 75
     0
  1
AcDbOsnapPointRef
 72
     1
331
2D6B
 73
     0
 91
        0
 40
0.0
 10
0.0
 20
0.0
 30
2.000000000000000E+50
 75
     0
  0
DIMASSOC
  5
2DA9
102
{ACAD_REACTORS
330
2DA8
102
}
330
2DA8
100
AcDbDimAssoc
330
2DA7
 90
        1
 70
     0
 71
     0
  1
AcDbOsnapPointRef
 72
     1
331
2D6B
 73
     0
 91
        0
 40
0.0
 10
0.0
 20
0.0
 30
2.000000000000000E+50
 75
     0
  0
DIMASSOC
  5
2DCE
102
{ACAD_REACTORS
330
2DCD
102
}
330
2DCD
100
AcDbDimAssoc
330
2DCC
 90
        1
 70
     0
 71
     0
  1
AcDbOsnapPointRef
 72
    13
331
2DC8
 73
     0
 91
        0
 40
0.0
 10
0.0
 20
0.0
 30
2.000000000000000E+50
 75
     0
  0
DIMASSOC
  5
2DD3
102
{ACAD_REACTORS
330
2DD2
102
}
330
2DD2
100
AcDbDimAssoc
330
2DD1
 90
        3
 70
     0
 71
     0
  1
AcDbOsnapPointRef
 72
    13
331
2DC3
 73
     0
 91
        0
 40
0.0
 10
0.0
 20
0.0
 30
2.000000000000000E+50
 75
     0
  1
AcDbOsnapPointRef
 72
    13
331
2DC0
 73
     0
 91
        0
 40
0.0
 10
0.0
 20
0.0
 30
2.000000000000000E+50
 75
     0
  0
DIMASSOC
  5
2DD6
102
{ACAD_REACTORS
330
2DD5
102
}
330
2DD5
100
AcDbDimAssoc
330
2DD4
 90
        3
 70
     0
 71
     0
  1
AcDbOsnapPointRef
 72
    13
331
2DB6
 73
     0
 91
        0
 40
0.0
 10
0.0
 20
0.0
 30
2.000000000000000E+50
 75
     0
  1
AcDbOsnapPointRef
 72
     1
331
2DC4
 73
     0
 91
        0
 40
0.0
 10
0.0
 20
0.0
 30
2.000000000000000E+50
 75
     0
  0
DIMASSOC
  5
2DD9
102
{ACAD_REACTORS
330
2DD8
102
}
330
2DD8
100
AcDbDimAssoc
330
2DD7
 90
        1
 70
     0
 71
     0
  1
AcDbOsnapPointRef
 72
     1
331
2DC4
 73
     0
 91
        0
 40
0.0
 10
0.0
 20
0.0
 30
2.000000000000000E+50
 75
     0
  0
DIMASSOC
  5
2DDE
102
{ACAD_REACTORS
330
2DDD
102
}
330
2DDD
100
AcDbDimAssoc
330
2DDC
 90
        3
 70
     0
 71
     0
  1
AcDbOsnapPointRef
 72
    13
331
2D5D
 73
     0
 91
        0
 40
0.0
 10
0.0
 20
0.0
 30
2.000000000000000E+50
 75
     0
  1
AcDbOsnapPointRef
 72
    13
331
2D6C
 73
     0
 91
        0
 40
0.0
 10
0.0
 20
0.0
 30
2.000000000000000E+50
 75
     0
  0
DIMASSOC
  5
2DE1
102
{ACAD_REACTORS
330
2DE0
102
}
330
2DE0
100
AcDbDimAssoc
330
2DDF
 90
        3
 70
     0
 71
     0
  1
AcDbOsnapPointRef
 72
    13
331
2DC4
 73
     0
 91
        0
 40
0.0
 10
0.0
 20
0.0
 30
2.000000000000000E+50
 75
     0
  1
AcDbOsnapPointRef
 72
    13
331
2DC5
 73
     0
 91
        0
 40
0.0
 10
0.0
 20
0.0
 30
2.000000000000000E+50
 75
     0
  0
DIMASSOC
  5
2E5C
102
{ACAD_REACTORS
330
2E5B
102
}
330
2E5B
100
AcDbDimAssoc
330
2E5A
 90
        1
 70
     0
 71
     0
  1
AcDbOsnapPointRef
 72
     1
331
2D78
 73
     0
 91
        0
 40
0.0
 10
0.0
 20
0.0
 30
2.000000000000000E+50
 75
     0
  0
LAYOUT
  5
22
102
{ACAD_XDICTIONARY
360
306B
102
}
102
{ACAD_REACTORS
330
1A
102
}
330
1A
100
AcDbPlotSettings
  1

  2
\\RD\EPSON Stylus C63 Series單色
  4
A4
  6

 40
3.757083177566528
 41
3.757076978683471
 42
3.757080078125
 43
3.757080078125
 44
209.9733276367187
 45
296.9683227539062
 46
0.0
 47
0.0
 48
0.0
 49
0.0
140
0.0
141
0.0
142
1.0
143
0.3405120737814363
 70
 11952
 72
     1
 73
     0
 74
     0
  7
單色出圖.ctb
 75
     0
147
2.936753428137963
148
-2047.07469463503
149
-1261.649717473083
100
AcDbLayout
  1
Model
 70
     1
 71
     0
 10
0.0
 20
0.0
 11
12.0
 21
9.0
 12
0.0
 22
0.0
 32
0.0
 14
0.0
 24
0.0
 34
0.0
 15
0.0
 25
0.0
 35
0.0
146
0.0
 13
0.0
 23
0.0
 33
0.0
 16
1.0
 26
0.0
 36
0.0
 17
0.0
 27
1.0
 37
0.0
 76
     0
330
1F
1001
ACAD_PSEXT
1000
\\RD\EPSON Stylus C63 Series單色
1000
EPSON Stylus C63 Series
1000
\\RD
1000

1070
     0
  0
LAYOUT
  5
1E
102
{ACAD_XDICTIONARY
360
3069
102
}
102
{ACAD_REACTORS
330
1A
102
}
330
1A
100
AcDbPlotSettings
  1

  2

  4

  6

 40
0.0
 41
0.0
 42
0.0
 43
0.0
 44
0.0
 45
0.0
 46
0.0
 47
0.0
 48
0.0
 49
0.0
140
0.0
141
0.0
142
1.0
143
1.0
 70
   688
 72
     0
 73
     0
 74
     5
  7
單色出圖.ctb
 75
    16
147
1.0
148
0.0
149
0.0
100
AcDbLayout
  1
配置1
 70
     1
 71
     1
 10
0.0
 20
0.0
 11
420.0
 21
297.0
 12
0.0
 22
0.0
 32
0.0
 14
1.000000000000000E+20
 24
1.000000000000000E+20
 34
1.000000000000000E+20
 15
-1.000000000000000E+20
 25
-1.000000000000000E+20
 35
-1.000000000000000E+20
146
0.0
 13
0.0
 23
0.0
 33
0.0
 16
1.0
 26
0.0
 36
0.0
 17
0.0
 27
1.0
 37
0.0
 76
     0
330
1B
  0
LAYOUT
  5
26
102
{ACAD_XDICTIONARY
360
306D
102
}
102
{ACAD_REACTORS
330
1A
102
}
330
1A
100
AcDbPlotSettings
  1

  2

  4

  6

 40
0.0
 41
0.0
 42
0.0
 43
0.0
 44
0.0
 45
0.0
 46
0.0
 47
0.0
 48
0.0
 49
0.0
140
0.0
141
0.0
142
1.0
143
1.0
 70
   688
 72
     0
 73
     0
 74
     5
  7
單色出圖.ctb
 75
    16
147
1.0
148
0.0
149
0.0
100
AcDbLayout
  1
配置2
 70
     1
 71
     2
 10
0.0
 20
0.0
 11
12.0
 21
9.0
 12
0.0
 22
0.0
 32
0.0
 14
0.0
 24
0.0
 34
0.0
 15
0.0
 25
0.0
 35
0.0
146
0.0
 13
0.0
 23
0.0
 33
0.0
 16
1.0
 26
0.0
 36
0.0
 17
0.0
 27
1.0
 37
0.0
 76
     0
330
23
  0
MLINESTYLE
  5
18
102
{ACAD_REACTORS
330
17
102
}
330
17
100
AcDbMlineStyle
  2
STANDARD
 70
     0
  3

 62
   256
 51
90.0
 52
90.0
 71
     2
 49
0.5
 62
   256
  6
BYLAYER
 49
-0.5
 62
   256
  6
BYLAYER
  0
ACDBPLACEHOLDER
  5
F
102
{ACAD_REACTORS
330
E
102
}
330
E
  0
TABLESTYLE
  5
11B
102
{ACAD_REACTORS
330
11A
102
}
330
11A
100
AcDbTableStyle
  3
Standard
 70
     0
 71
     0
 40
1.5
 41
1.5
280
     0
281
     0
  7
STANDARD
140
4.5
170
     2
 62
     0
 63
     7
283
     0
274
    -2
284
     1
 64
     0
275
    -2
285
     1
 65
     0
276
    -2
286
     1
 66
     0
277
    -2
287
     1
 67
     0
278
    -2
288
     1
 68
     0
279
    -2
289
     1
 69
     0
  7
STANDARD
140
6.0
170
     5
 62
     0
 63
     7
283
     0
274
    -2
284
     1
 64
     0
275
    -2
285
     1
 65
     0
276
    -2
286
     1
 66
     0
277
    -2
287
     1
 67
     0
278
    -2
288
     1
 68
     0
279
    -2
289
     1
 69
     0
  7
STANDARD
140
4.5
170
     5
 62
     0
 63
     7
283
     0
274
    -2
284
     1
 64
     0
275
    -2
285
     1
 65
     0
276
    -2
286
     1
 66
     0
277
    -2
287
     1
 67
     0
278
    -2
288
     1
 68
     0
279
    -2
289
     1
 69
     0
  0
DICTIONARYVAR
  5
138
102
{ACAD_REACTORS
330
94
102
}
330
94
100
DictionaryVariables
280
     0
  1
STANDARD
  0
DICTIONARYVAR
  5
96
102
{ACAD_REACTORS
330
94
102
}
330
94
100
DictionaryVariables
280
     0
  1
2
  0
DICTIONARYVAR
  5
95
102
{ACAD_REACTORS
330
94
102
}
330
94
100
DictionaryVariables
280
     0
  1
1
  0
DICTIONARYVAR
  5
1BF5
102
{ACAD_REACTORS
330
94
102
}
330
94
100
DictionaryVariables
280
     0
  1

  0
DICTIONARY
  5
1B5
102
{ACAD_REACTORS
330
5B
102
}
330
5B
100
AcDbDictionary
281
     1
  0
DICTIONARY
  5
61
102
{ACAD_REACTORS
330
5B
102
}
330
5B
100
AcDbDictionary
281
     1
  0
XRECORD
  5
123
102
{ACAD_REACTORS
330
5B
102
}
330
5B
100
AcDbXrecord
280
     1
 90
-1023410169
  0
DICTIONARY
  5
23E3
102
{ACAD_REACTORS
330
41
102
}
330
41
100
AcDbDictionary
281
     1
  3
DWGSETTINGS
350
23E4
  3
TRANSSETTINGS
350
23E7
  0
LAYER_INDEX
  5
2929
102
{ACAD_REACTORS
330
2928
102
}
330
2928
100
AcDbIndex
 40
2455322.497836192
100
AcDbLayerIndex
  8
0
360
292A
 90
      303
  8
AM_5
360
292B
 90
       22
  8
Defpoints
360
292C
 90
        0
  8
LOGO
360
292D
 90
       77
  0
DICTIONARY
  5
306B
330
22
100
AcDbDictionary
280
     1
281
     1
  3
ACAD_XREC_ROUNDTRIP
360
306C
  0
DICTIONARY
  5
3069
330
1E
100
AcDbDictionary
280
     1
281
     1
  3
ACAD_XREC_ROUNDTRIP
360
306A
  0
DICTIONARY
  5
306D
330
26
100
AcDbDictionary
280
     1
281
     1
  3
ACAD_XREC_ROUNDTRIP
360
306E
  0
IDBUFFER
  5
292A
330
0
100
AcDbIdBuffer
330
2E54
330
2E55
330
2E56
330
2E57
330
2E58
330
2E59
330
2E5D
330
2E5E
330
2E5F
330
2E60
330
2E61
330
2E62
330
2E63
330
2E64
330
2E65
330
2E66
330
2E67
330
2E68
330
2E69
330
2E6A
330
2E6B
330
2E6C
330
2E6D
330
2E6E
330
2E6F
330
2E70
330
2E71
330
2E72
330
2E73
330
2E74
330
2E75
330
2E76
330
2E77
330
2E78
330
2E79
330
2E7A
330
2E7B
330
2E7C
330
2E7D
330
2E7E
330
2E7F
330
2E80
330
2E81
330
2E82
330
2E83
330
2E84
330
2E85
330
2E86
330
2E87
330
2E88
330
2E89
330
2E8A
330
2E8B
330
2E8C
330
2E8D
330
2E8E
330
2E8F
330
2E90
330
2E91
330
2E92
330
2E93
330
2E94
330
2E95
330
2E96
330
2E97
330
2E98
330
2E99
330
2E9A
330
2E9B
330
2E9C
330
2E9D
330
2E9E
330
2E9F
330
2EA0
330
2EA1
330
2925
330
2926
330
2927
330
2D44
330
2D45
330
2D46
330
2D47
330
2D48
330
2D49
330
2D4A
330
2D4B
330
2D4C
330
2D4D
330
2D4E
330
2D4F
330
2D50
330
2D51
330
2D52
330
2D53
330
2D54
330
2D55
330
2D56
330
2D57
330
2D58
330
2D59
330
2D5A
330
2D5B
330
2D5C
330
2D5D
330
2D5E
330
2D5F
330
2D60
330
2D61
330
2D62
330
2D63
330
2D64
330
2D65
330
2D66
330
2D67
330
2D68
330
2D69
330
2D6A
330
2D6B
330
2D6C
330
2D6D
330
2D6E
330
2D6F
330
2D70
330
2D71
330
2D72
330
2D73
330
2D74
330
2D75
330
2D76
330
2D77
330
2D78
330
2D79
330
2D7A
330
2D7B
330
2D7C
330
2D7D
330
2D7E
330
2D7F
330
2D80
330
2D81
330
2D82
330
2D83
330
2D84
330
2D85
330
2D86
330
2D87
330
2D88
330
2D89
330
2D8A
330
2D8B
330
2D8C
330
2D8D
330
2D8E
330
2D8F
330
2D90
330
2D91
330
2D92
330
2DAC
330
2DAD
330
2DAE
330
2DAF
330
2DB0
330
2DB1
330
2DB2
330
2DB3
330
2DB4
330
2DB5
330
2DB6
330
2DB7
330
2DB8
330
2DB9
330
2DBA
330
2DBB
330
2DBC
330
2DBD
330
2DBE
330
2DBF
330
2DC0
330
2DC1
330
2DC2
330
2DC3
330
2DC4
330
2DC5
330
2DC6
330
2DC7
330
2DC8
330
2DC9
330
2DCA
330
2DCB
330
2DE2
330
2DE3
330
2DE4
330
2DE5
330
2DE6
330
2DE7
330
2DE8
330
2DE9
330
2DEA
330
2DEB
330
2DEC
330
2DED
330
2DEE
330
2DEF
330
2DF0
330
2DF1
330
2DF2
330
2DF3
330
2DF4
330
2DF5
330
2DF6
330
2DF7
330
2DF8
330
2DF9
330
2DFA
330
2DFB
330
2DFC
330
2DFD
330
2DFE
330
2DFF
330
2E00
330
2E01
330
2E02
330
2E03
330
2E04
330
2E05
330
2E06
330
2E07
330
2E08
330
2E09
330
2E0A
330
2E0B
330
2E0C
330
2E0D
330
2E0E
330
2E0F
330
2E10
330
2E11
330
2E12
330
2E13
330
2E14
330
2E15
330
2E16
330
2E17
330
2E18
330
2E19
330
2E1A
330
2E1B
330
2E1C
330
2E1D
330
2E1E
330
2E1F
330
2E20
330
2E21
330
2E22
330
2E23
330
2E24
330
2E25
330
2E26
330
2E27
330
2E28
330
2E29
330
2E2A
330
2E2B
330
2E2C
330
2E2D
330
2E2E
330
2E2F
330
2E30
330
2E31
330
2E32
330
2E33
330
2E34
330
2E35
330
2E36
330
2E37
330
2E38
330
2E39
330
2E3A
330
2E3B
330
2E3C
330
2E3D
330
2E3E
330
2E3F
330
2E40
330
2E41
330
2E42
330
2E43
330
2E44
330
2E45
330
2E46
330
2E47
330
2E48
330
2E49
330
2E4A
330
2E4B
330
2E4C
330
2E4D
330
2E4E
330
2E4F
330
2E50
330
2E51
330
2E52
330
2E53
  0
IDBUFFER
  5
292B
330
0
100
AcDbIdBuffer
330
2DD7
330
2DDA
330
2DDB
330
2DDC
330
2DDF
330
2E5A
330
2D93
330
2D96
330
2D99
330
2D9C
330
2D9F
330
2DA0
330
2DA1
330
2DA4
330
2DA7
330
2DAA
330
2DAB
330
2DCC
330
2DCF
330
2DD0
330
2DD1
330
2DD4
  0
IDBUFFER
  5
292C
330
0
100
AcDbIdBuffer
  0
IDBUFFER
  5
292D
330
0
100
AcDbIdBuffer
330
28C3
330
28C4
330
28C5
330
28C6
330
28C7
330
28C8
330
28C9
330
28CA
330
28CB
330
28CC
330
28CD
330
28CE
330
28CF
330
28D0
330
28D1
330
28D2
330
28D3
330
28D4
330
28D5
330
28D6
330
28D7
330
28D8
330
28D9
330
28DA
330
28DE
330
28E2
330
28E3
330
28E7
330
28E8
330
28E9
330
28EA
330
28EB
330
28EC
330
28ED
330
28EE
330
28F2
330
28F6
330
28FA
330
28FB
330
28FC
330
2900
330
2901
330
2902
330
2903
330
2904
330
2905
330
2906
330
2907
330
2908
330
2909
330
290A
330
290B
330
290C
330
290D
330
290E
330
290F
330
2910
330
2911
330
2912
330
2913
330
2914
330
2915
330
2916
330
2917
330
2918
330
2919
330
291A
330
291B
330
291C
330
291D
330
291E
330
291F
330
2920
330
2921
330
2922
330
2923
330
2924
  0
XRECORD
  5
306C
102
{ACAD_REACTORS
330
306B
102
}
330
306B
100
AcDbXrecord
280
     1
102
SHADEPLOT
 70
     0
102
SHADEPLOTRESLEVEL
 70
     2
102
SHADEPLOTCUSTOMDPI
 70
   300
  0
XRECORD
  5
306A
102
{ACAD_REACTORS
330
3069
102
}
330
3069
100
AcDbXrecord
280
     1
102
SHADEPLOT
 70
     0
102
SHADEPLOTRESLEVEL
 70
     2
102
SHADEPLOTCUSTOMDPI
 70
   300
  0
XRECORD
  5
306E
102
{ACAD_REACTORS
330
306D
102
}
330
306D
100
AcDbXrecord
280
     1
102
SHADEPLOT
 70
     0
102
SHADEPLOTRESLEVEL
 70
     2
102
SHADEPLOTCUSTOMDPI
 70
   300
  0
ENDSEC
  0
EOF
