  0
SECTION
  2
HEADER
  9
$ACADVER
  1
AC1015
  9
$ACADMAINTVER
 70
    20
  9
$DWGCODEPAGE
  3
ANSI_950
  9
$INSBASE
 10
0.0
 20
0.0
 30
0.0
  9
$EXTMIN
 10
104.4488536385457
 20
303.3841456039911
 30
-0.002398829264024
  9
$EXTMAX
 10
291.4865120587481
 20
439.4203682403922
 30
89.12507348846872
  9
$LIMMIN
 10
0.0
 20
0.0
  9
$LIMMAX
 10
420.0
 20
297.0
  9
$ORTHOMODE
 70
     0
  9
$REGENMODE
 70
     1
  9
$FILLMODE
 70
     1
  9
$QTEXTMODE
 70
     0
  9
$MIRRTEXT
 70
     1
  9
$LTSCALE
 40
1.0
  9
$ATTMODE
 70
     1
  9
$TEXTSIZE
 40
3.0
  9
$TRACEWID
 40
1.0
  9
$TEXTSTYLE
  7
STANDARD
  9
$CLAYER
  8
0
  9
$CELTYPE
  6
ByLayer
  9
$CECOLOR
 62
   256
  9
$CELTSCALE
 40
1.0
  9
$DISPSILH
 70
     0
  9
$DIMSCALE
 40
1.0
  9
$DIMASZ
 40
3.0
  9
$DIMEXO
 40
1.0
  9
$DIMDLI
 40
8.0
  9
$DIMRND
 40
0.0
  9
$DIMDLE
 40
0.0
  9
$DIMEXE
 40
1.5
  9
$DIMTP
 40
0.1
  9
$DIMTM
 40
0.1
  9
$DIMTXT
 40
3.5
  9
$DIMCEN
 40
0.0
  9
$DIMTSZ
 40
0.0
  9
$DIMTOL
 70
     0
  9
$DIMLIM
 70
     0
  9
$DIMTIH
 70
     0
  9
$DIMTOH
 70
     0
  9
$DIMSE1
 70
     0
  9
$DIMSE2
 70
     0
  9
$DIMTAD
 70
     1
  9
$DIMZIN
 70
     8
  9
$DIMBLK
  1

  9
$DIMASO
 70
     1
  9
$DIMSHO
 70
     1
  9
$DIMPOST
  1

  9
$DIMAPOST
  1
"
  9
$DIMALT
 70
     0
  9
$DIMALTD
 70
     2
  9
$DIMALTF
 40
0.0393701
  9
$DIMLFAC
 40
1.0
  9
$DIMTOFL
 70
     1
  9
$DIMTVP
 40
0.0
  9
$DIMTIX
 70
     0
  9
$DIMSOXD
 70
     0
  9
$DIMSAH
 70
     0
  9
$DIMBLK1
  1

  9
$DIMBLK2
  1

  9
$DIMSTYLE
  2
AM_ISO
  9
$DIMCLRD
 70
   256
  9
$DIMCLRE
 70
   256
  9
$DIMCLRT
 70
   256
  9
$DIMTFAC
 40
0.6
  9
$DIMGAP
 40
0.7
  9
$DIMJUST
 70
     0
  9
$DIMSD1
 70
     0
  9
$DIMSD2
 70
     0
  9
$DIMTOLJ
 70
     0
  9
$DIMTZIN
 70
     8
  9
$DIMALTZ
 70
     0
  9
$DIMALTTZ
 70
     0
  9
$DIMUPT
 70
     0
  9
$DIMDEC
 70
     2
  9
$DIMTDEC
 70
     8
  9
$DIMALTU
 70
     2
  9
$DIMALTTD
 70
     2
  9
$DIMTXSTY
  7
STANDARD
  9
$DIMAUNIT
 70
     0
  9
$DIMADEC
 70
     0
  9
$DIMALTRND
 40
0.0
  9
$DIMAZIN
 70
     2
  9
$DIMDSEP
 70
    46
  9
$DIMATFIT
 70
     3
  9
$DIMFRAC
 70
     0
  9
$DIMLDRBLK
  1

  9
$DIMLUNIT
 70
     2
  9
$DIMLWD
 70
    -1
  9
$DIMLWE
 70
    -1
  9
$DIMTMOVE
 70
     0
  9
$LUNITS
 70
     2
  9
$LUPREC
 70
     2
  9
$SKETCHINC
 40
1.0
  9
$FILLETRAD
 40
2.5
  9
$AUNITS
 70
     0
  9
$AUPREC
 70
     0
  9
$MENU
  1
.
  9
$ELEVATION
 40
0.0
  9
$PELEVATION
 40
0.0
  9
$THICKNESS
 40
0.0
  9
$LIMCHECK
 70
     0
  9
$CHAMFERA
 40
2.5
  9
$CHAMFERB
 40
2.5
  9
$CHAMFERC
 40
20.0
  9
$CHAMFERD
 40
0.0
  9
$SKPOLY
 70
     0
  9
$TDCREATE
 40
2453965.689012037
  9
$TDUCREATE
 40
2453965.355678704
  9
$TDUPDATE
 40
2454705.354910764
  9
$TDUUPDATE
 40
2454705.021577431
  9
$TDINDWG
 40
0.0889214931
  9
$TDUSRTIMER
 40
0.0889214931
  9
$USRTIMER
 70
     1
  9
$ANGBASE
 50
0.0
  9
$ANGDIR
 70
     0
  9
$PDMODE
 70
     0
  9
$PDSIZE
 40
0.0
  9
$PLINEWID
 40
0.0
  9
$SPLFRAME
 70
     0
  9
$SPLINETYPE
 70
     6
  9
$SPLINESEGS
 70
     8
  9
$HANDSEED
  5
23B7
  9
$SURFTAB1
 70
     6
  9
$SURFTAB2
 70
     6
  9
$SURFTYPE
 70
     6
  9
$SURFU
 70
     6
  9
$SURFV
 70
     6
  9
$UCSBASE
  2

  9
$UCSNAME
  2

  9
$UCSORG
 10
0.0
 20
0.0
 30
0.0
  9
$UCSXDIR
 10
1.0
 20
0.0
 30
0.0
  9
$UCSYDIR
 10
0.0
 20
1.0
 30
0.0
  9
$UCSORTHOREF
  2

  9
$UCSORTHOVIEW
 70
     0
  9
$UCSORGTOP
 10
0.0
 20
0.0
 30
0.0
  9
$UCSORGBOTTOM
 10
0.0
 20
0.0
 30
0.0
  9
$UCSORGLEFT
 10
0.0
 20
0.0
 30
0.0
  9
$UCSORGRIGHT
 10
0.0
 20
0.0
 30
0.0
  9
$UCSORGFRONT
 10
0.0
 20
0.0
 30
0.0
  9
$UCSORGBACK
 10
0.0
 20
0.0
 30
0.0
  9
$PUCSBASE
  2

  9
$PUCSNAME
  2

  9
$PUCSORG
 10
0.0
 20
0.0
 30
0.0
  9
$PUCSXDIR
 10
1.0
 20
0.0
 30
0.0
  9
$PUCSYDIR
 10
0.0
 20
1.0
 30
0.0
  9
$PUCSORTHOREF
  2

  9
$PUCSORTHOVIEW
 70
     0
  9
$PUCSORGTOP
 10
0.0
 20
0.0
 30
0.0
  9
$PUCSORGBOTTOM
 10
0.0
 20
0.0
 30
0.0
  9
$PUCSORGLEFT
 10
0.0
 20
0.0
 30
0.0
  9
$PUCSORGRIGHT
 10
0.0
 20
0.0
 30
0.0
  9
$PUCSORGFRONT
 10
0.0
 20
0.0
 30
0.0
  9
$PUCSORGBACK
 10
0.0
 20
0.0
 30
0.0
  9
$USERI1
 70
     0
  9
$USERI2
 70
     0
  9
$USERI3
 70
     0
  9
$USERI4
 70
     0
  9
$USERI5
 70
     0
  9
$USERR1
 40
0.0
  9
$USERR2
 40
0.0
  9
$USERR3
 40
0.0
  9
$USERR4
 40
0.0
  9
$USERR5
 40
0.0
  9
$WORLDVIEW
 70
     1
  9
$SHADEDGE
 70
     3
  9
$SHADEDIF
 70
    70
  9
$TILEMODE
 70
     1
  9
$MAXACTVP
 70
    64
  9
$PINSBASE
 10
0.0
 20
0.0
 30
0.0
  9
$PLIMCHECK
 70
     0
  9
$PEXTMIN
 10
1.000000000000000E+20
 20
1.000000000000000E+20
 30
1.000000000000000E+20
  9
$PEXTMAX
 10
-1.000000000000000E+20
 20
-1.000000000000000E+20
 30
-1.000000000000000E+20
  9
$PLIMMIN
 10
0.0
 20
0.0
  9
$PLIMMAX
 10
420.0
 20
297.0
  9
$UNITMODE
 70
     0
  9
$VISRETAIN
 70
     1
  9
$PLINEGEN
 70
     0
  9
$PSLTSCALE
 70
     1
  9
$TREEDEPTH
 70
  3020
  9
$CMLSTYLE
  2
Standard
  9
$CMLJUST
 70
     0
  9
$CMLSCALE
 40
20.0
  9
$PROXYGRAPHICS
 70
     1
  9
$MEASUREMENT
 70
     1
  9
$CELWEIGHT
370
    -1
  9
$ENDCAPS
280
     0
  9
$JOINSTYLE
280
     0
  9
$LWDISPLAY
290
     0
  9
$INSUNITS
 70
     4
  9
$HYPERLINKBASE
  1

  9
$STYLESHEET
  1
彩色出圖.ctb
  9
$XEDIT
290
     1
  9
$CEPSNTYPE
380
     0
  9
$PSTYLEMODE
290
     1
  9
$FINGERPRINTGUID
  2
{8012A336-B5C9-4CB1-A428-E581F243F217}
  9
$VERSIONGUID
  2
{EDD16D16-E8EA-454C-AB2B-B61B6D93D70E}
  9
$EXTNAMES
290
     1
  9
$PSVPSCALE
 40
0.0
  9
$OLESTARTUP
290
     0
  0
ENDSEC
  0
SECTION
  2
CLASSES
  0
CLASS
  1
ACDBDICTIONARYWDFLT
  2
AcDbDictionaryWithDefault
  3
ObjectDBX Classes
 90
        0
280
     0
281
     0
  0
CLASS
  1
ACDBPLACEHOLDER
  2
AcDbPlaceHolder
  3
ObjectDBX Classes
 90
        0
280
     0
281
     0
  0
CLASS
  1
LAYOUT
  2
AcDbLayout
  3
ObjectDBX Classes
 90
        0
280
     0
281
     0
  0
CLASS
  1
ACME_DOCUMENT
  2
AcMeDbDoc
  3
AcMeServices
 90
        0
280
     0
281
     0
  0
CLASS
  1
AMGSETTINGSOBJ
  2
AmgSettingsObj
  3
"AcadM|Product Description: AutoCAD Mechanical 2000|Company: Autodesk"
 90
        0
280
     0
281
     0
  0
CLASS
  1
ACMESCOPE
  2
AcMeScope
  3
AcMeServices
 90
        0
280
     0
281
     0
  0
CLASS
  1
ACMECOMMANDHISTORY
  2
AcMeCommandHistory
  3
AcMeServices
 90
        0
280
     0
281
     0
  0
CLASS
  1
ACIMSYSVARMAN
  2
AcImSysVarManager
  3
AcMeServices
 90
        0
280
     0
281
     0
  0
CLASS
  1
ACIMREALSYSVAR
  2
AcImRealSysVar
  3
AcMeServices
 90
        0
280
     0
281
     0
  0
CLASS
  1
ACIMINTSYSVAR
  2
AcImIntSysVar
  3
AcMeServices
 90
        0
280
     0
281
     0
  0
CLASS
  1
ACMEDRAWINGMAN
  2
AcMeDrawingMan
  3
AcMeServices
 90
        0
280
     0
281
     0
  0
CLASS
  1
ACMEVIEW
  2
AcMeView
  3
AcMeServices
 90
        0
280
     0
281
     0
  0
CLASS
  1
ACDBENTITYCACHE
  2
AcMeEntityCache
  3
AcMeServices
 90
        0
280
     0
281
     0
  0
CLASS
  1
GSMANAGER
  2
AcMeGSManager
  3
AcMeServices
 90
        0
280
     0
281
     0
  0
CLASS
  1
AMDTINTERNALREACTOR
  2
AmdtInternalReactor
  3
AcMeServices
 90
        0
280
     0
281
     0
  0
CLASS
  1
ACMESTATEMGR
  2
AcMeStateMgr
  3
AcMeServices
 90
        0
280
     0
281
     0
  0
CLASS
  1
ACGREFMASTER
  2
AcGrefMaster
  3
AcAttribServices
 90
        0
280
     0
281
     0
  0
CLASS
  1
ACME_DATABASE
  2
AcMeDbDatabase
  3
AcMeServices
 90
        0
280
     0
281
     0
  0
CLASS
  1
ACRFINSADJUSTERMGR
  2
AcRfInsAdjusterMgr
  3
AcMeServices
 90
        0
280
     0
281
     0
  0
CLASS
  1
ACGREFACADMASTER
  2
AcGrefacadMaster
  3
AcGrefServices
 90
        0
280
     0
281
     0
  0
CLASS
  1
AMIMASTER
  2
AmiMaster
  3
AmiServices
 90
        0
280
     0
281
     0
  0
CLASS
  1
ACMDATADICTIONARY
  2
AcmDataDictionary
  3
"AcmSymBB|Product Description: AutoCAD Mechanical 2004 DX|Company: Autodesk"
 90
        0
280
     0
281
     0
  0
CLASS
  1
ACMDATAENTRYBLOCK
  2
AcmDataEntryBlock
  3
"AcmSymBB|Product Description: AutoCAD Mechanical 2004 DX|Company: Autodesk"
 90
    32768
280
     0
281
     0
  0
CLASS
  1
ACIMSTRSYSVAR
  2
AcImStrSysVar
  3
AcMeServices
 90
        0
280
     0
281
     0
  0
CLASS
  1
ACMSTANDARDISO
  2
AcmStandardISO
  3
"Amdt_StdImp|Product Description: AutoCAD Mechanical 2004 DX|Company: Autodesk"
 90
        0
280
     0
281
     0
  0
CLASS
  1
AMGOBJPROPCFG
  2
AmgObjPropCfg
  3
"AmgLay|Product Description: AutoCAD Mechanical 2000|Company: Autodesk"
 90
        1
280
     0
281
     0
  0
CLASS
  1
AMDTEDGESTANDARDISO
  2
AmdtEdgeStdISO
  3
"Amdt_StdImp|Product Description: AutoCAD Mechanical 2004 DX|Company: Autodesk"
 90
    32768
280
     0
281
     0
  0
CLASS
  1
ACMSURFSTANDARDISO
  2
AcmSurfTextStdISO
  3
"Amdt_StdImp|Product Description: AutoCAD Mechanical 2004 DX|Company: Autodesk"
 90
        0
280
     0
281
     0
  0
CLASS
  1
ACMFCFSTANDARDISO
  2
AcmFCFStdISO
  3
"Amdt_StdImp|Product Description: AutoCAD Mechanical 2004 DX|Company: Autodesk"
 90
        0
280
     0
281
     0
  0
CLASS
  1
ACMWELDSTANDARDISO
  2
AcmWeldingStdISO
  3
"Amdt_StdImp|Product Description: AutoCAD Mechanical 2004 DX|Company: Autodesk"
 90
        0
280
     0
281
     0
  0
CLASS
  1
ACMIDSTANDARDISO
  2
AcmIdStdISO
  3
"Amdt_StdImp|Product Description: AutoCAD Mechanical 2004 DX|Company: Autodesk"
 90
        0
280
     0
281
     0
  0
CLASS
  1
ACMDATUMSTANDARDISO
  2
AcmDatumStdISO
  3
"Amdt_StdImp|Product Description: AutoCAD Mechanical 2004 DX|Company: Autodesk"
 90
        0
280
     0
281
     0
  0
CLASS
  1
ACMBOMSTANDARDISO
  2
AcmBOMStdISO
  3
"Amdt_StdImp|Product Description: AutoCAD Mechanical 2004 DX|Company: Autodesk"
 90
        0
280
     0
281
     0
  0
CLASS
  1
ACMDETAILSTANDARDISO
  2
AmdtDetailSymStdISO
  3
"Amdt_StdImp|Product Description: AutoCAD Mechanical 2004 DX|Company: Autodesk"
 90
        0
280
     0
281
     0
  0
CLASS
  1
ACMSECTIONSTANDARDISO
  2
AmdtSectionSymStdISO
  3
"Amdt_StdImp|Product Description: AutoCAD Mechanical 2004 DX|Company: Autodesk"
 90
        0
280
     0
281
     0
  0
CLASS
  1
ACMCENTERLINESTANDARDISO
  2
AmdtCenterLineStdISO
  3
"Amdt_StdImp|Product Description: AutoCAD Mechanical 2004 DX|Company: Autodesk"
 90
        0
280
     0
281
     0
  0
CLASS
  1
ACMNOTESTANDARDISO
  2
AmdtNoteStdISO
  3
"Amdt_StdImp|Product Description: AutoCAD Mechanical 2004 DX|Company: Autodesk"
 90
        0
280
     0
281
     0
  0
CLASS
  1
ACAMGLAYSTD
  2
AcAmgLayStd
  3
"AcAmgLayStd|Product Description: AutoCAD Mechanical 2000|Company: Autodesk"
 90
        0
280
     0
281
     0
  0
CLASS
  1
ACAMGDIMSTD
  2
AcAmgDimStd
  3
"AcAmgDimStd|Product Description: AutoCAD Mechanical 2000|Company: Autodesk"
 90
        0
280
     0
281
     0
  0
CLASS
  1
ACAMGHOLECHARTSTDISO
  2
AcAmgHoleChartStdISO
  3
ACMSYMBB_MODULE_NAME
 90
        0
280
     0
281
     0
  0
CLASS
  1
ACAMGTITLESTD
  2
AcAmgTitleStd
  3
"TITLEAPP"
 90
        0
280
     0
281
     0
  0
CLASS
  1
LAYER_INDEX
  2
AcDbLayerIndex
  3
ObjectDBX Classes
 90
    32768
280
     0
281
     0
  0
CLASS
  1
IDBUFFER
  2
AcDbIdBuffer
  3
ObjectDBX Classes
 90
    32768
280
     0
281
     0
  0
CLASS
  1
DICTIONARYVAR
  2
AcDbDictionaryVar
  3
ObjectDBX Classes
 90
        0
280
     0
281
     0
  0
CLASS
  1
AM_DRAWING_MGR
  2
AcDmDwgMgr
  3
AcMechDwgViewMgmt
 90
        0
280
     0
281
     0
  0
CLASS
  1
AM_DWG_DOCUMENT
  2
AcDmDwgDocument
  3
AcMechDwgViewMgmt
 90
        0
280
     0
281
     0
  0
CLASS
  1
AM_DWG_SHEET
  2
AcDmSheet
  3
AcMechDwgViewMgmt
 90
        0
280
     0
281
     0
  0
CLASS
  1
AM_VIEWDIMPARMAP
  2
AcDmViewDimParMap
  3
AcMechDwgViewMgmt
 90
        0
280
     0
281
     0
  0
CLASS
  1
AM_DWGMGR_NAME
  2
AcDmDwgMgrName
  3
AcMechDwgViewMgmt
 90
        0
280
     0
281
     0
  0
CLASS
  1
AMDTMENUSTATEMGR
  2
AmdtMenuStateMgr
  3
McadcomServices
 90
        0
280
     0
281
     0
  0
CLASS
  1
AMDTMCOMMENUSTATE
  2
AmdtMcomMenuState
  3
McadcomServices
 90
        0
280
     0
281
     0
  0
CLASS
  1
MAPIAMMOUDLE
  2
MApiAmModule
  3
MApiAmServices
 90
        0
280
     0
281
     0
  0
CLASS
  1
AMDTADMENUSTATE
  2
AmdtAdMenuState
  3
DesignerServices
 90
        0
280
     0
281
     0
  0
CLASS
  1
ADAPPL
  2
AcAdAppl
  3
DesignerServices
 90
        0
280
     0
281
     0
  0
CLASS
  1
DEPMGR
  2
AcAdDepMgr
  3
DesignerServices
 90
        0
280
     0
281
     0
  0
CLASS
  1
PARAMMGR
  2
AcAdParamMgr
  3
DesignerServices
 90
        0
280
     0
281
     0
  0
CLASS
  1
PARAMSCOPE
  2
AcAdParamScope
  3
DesignerServices
 90
        0
280
     0
281
     0
  0
CLASS
  1
NAMEDAPPL
  2
AcAdNamedAppl
  3
DesignerServices
 90
        0
280
     0
281
     0
  0
CLASS
  1
AMDTDMMENUSTATE
  2
AmdtDmMenuState
  3
AcMechDwgViewMgmt
 90
        0
280
     0
281
     0
  0
CLASS
  1
AMDTAMMENUSTATE
  2
AmdtAmMenuState
  3
DesignerAssemblies
 90
        0
280
     0
281
     0
  0
CLASS
  1
ACAMPROJECT
  2
AcAmProject
  3
DesignerAssemblies
 90
        0
280
     0
281
     0
  0
CLASS
  1
ACAMGRCOMPDEF
  2
AcAmGrCompDef
  3
DesignerAssemblies
 90
        0
280
     0
281
     0
  0
CLASS
  1
ACCMCONTEXT
  2
AcCmContext
  3
DesignerAssemblies
 90
        0
280
     0
281
     0
  0
CLASS
  1
ACAMCOMPDEF
  2
AcAmCompDef
  3
DesignerAssemblies
 90
        0
280
     0
281
     0
  0
CLASS
  1
ACAMCOMPDEFMGR
  2
AcAmCompDefMgr
  3
DesignerAssemblies
 90
        0
280
     0
281
     0
  0
CLASS
  1
AMCONTEXTMGR
  2
AcAmContextMgr
  3
DesignerAssemblies
 90
        0
280
     0
281
     0
  0
CLASS
  1
ACAMCONTEXTMODELER
  2
AcAmContextModeler
  3
DesignerAssemblies
 90
        0
280
     0
281
     0
  0
CLASS
  1
ACMTHREADLINESTANDARDISO
  2
AmdtThreadLineStdISO
  3
"Amdt_StdImp|Product Description: AutoCAD Mechanical 2004 DX|Company: Autodesk"
 90
        0
280
     0
281
     0
  0
CLASS
  1
CATALOGSTATE
  2
AcAmCatalogState
  3
DesignerAssemblies
 90
        0
280
     0
281
     0
  0
CLASS
  1
ACAMGRCOMPDEFSET
  2
AcAmGrCompDefSet
  3
DesignerAssemblies
 90
        0
280
     0
281
     0
  0
CLASS
  1
AMDTBROWSERDBTAB
  2
AmdtBrowserDbTab
  3
McadcomServices
 90
        0
280
     0
281
     0
  0
CLASS
  1
CBROWSERAPPOBJECT
  2
CBrowserAppObject
  3
McadcomServices
 90
        0
280
     0
281
     0
  0
CLASS
  1
DM_PLACEHOLDER
  2
AcDmSelsetPlaceholder
  3
AcMechDwgViewMgmt
 90
        0
280
     0
281
     0
  0
CLASS
  1
TABLESTYLE
  2
AcDbTableStyle
  3
ObjectDBX Classes
 90
     2047
280
     0
281
     0
  0
CLASS
  1
VAACXREFPANELOBJECT
  2
VaAcXREFPanelObject
  3
VAAC_ADDIN
 90
    32768
280
     0
281
     0
  0
CLASS
  1
VAACIMAGEINVENTORY
  2
VaAcImageInventory
  3
VAAC_ADDIN
 90
    32768
280
     0
281
     0
  0
CLASS
  1
AMDTNOTETEMPLATEDB
  2
AmdtNoteTemplateDB
  3
AMDT_STDIMP_MODULE_NAME
 90
        0
280
     0
281
     0
  0
CLASS
  1
ACMBOM
  2
AcmBom
  3
"AcmSymBB|Product Description: AutoCAD Mechanical 2004 DX|Company: Autodesk"
 90
    32768
280
     0
281
     0
  0
CLASS
  1
AMDTFORMULAUPDATEDISPATCHER
  2
AmdtFormulaUpdateDispatcher
  3
AcMeServices
 90
    32768
280
     0
281
     0
  0
CLASS
  1
ACMPARTLIST
  2
AcmPartList
  3
"AcmSymBB|Product Description: AutoCAD Mechanical 2004 DX|Company: Autodesk"
 90
    33791
280
     0
281
     1
  0
CLASS
  1
ACAMGFILTERDAT
  2
AcAmgFilterDat
  3
"AcadM|Product Description: AutoCAD Mechanical 2000|Company: Autodesk"
 90
    32768
280
     0
281
     0
  0
CLASS
  1
DIMASSOC
  2
AcDbDimAssoc
  3
"AcDbDimAssoc|Product Desc:     AcDim ARX App For Dimension|Company:          Autodesk, Inc.|WEB Address:      www.autodesk.com"
 90
        0
280
     0
281
     0
  0
CLASS
  1
SORTENTSTABLE
  2
AcDbSortentsTable
  3
ObjectDBX Classes
 90
        0
280
     0
281
     0
  0
CLASS
  1
STDPART2D
  2
AmgStdPart
  3
"AmgStdPart|Product Description: AutoCAD Mechanical 2000|Company: Autodesk"
 90
    33791
280
     0
281
     1
  0
CLASS
  1
ACAMSTDPCOMPDEF
  2
AcAmStdpCompDef
  3
DesignerAssemblies
 90
    32768
280
     0
281
     0
  0
CLASS
  1
ACRFATTGENMGR
  2
AcRfAttGeneralMgr
  3
AcAttribServices
 90
        0
280
     0
281
     0
  0
CLASS
  1
ACRFOBJATTMGR
  2
AcRfObjAttGroupMgr
  3
AcAttribServices
 90
    32768
280
     0
281
     0
  0
CLASS
  1
ACRFMCADAPIATTHOLDER
  2
AcRfMCADAPIAttHolder
  3
AcAttribServices
 90
    32768
280
     0
281
     0
  0
CLASS
  1
AMDTSYSATTR
  2
AmdtSystemAttribute
  3
AcAttribServices
 90
    32768
280
     0
281
     0
  0
CLASS
  1
ACAMCOMP
  2
AcAmComp
  3
DesignerAssemblies
 90
    32768
280
     0
281
     0
  0
CLASS
  1
AC_AM_STDP_VIEW_DEF
  2
AcAmStdpViewDef
  3
DesignerAssemblies
 90
    32768
280
     0
281
     0
  0
CLASS
  1
AC_AM_MVD_DEP_MGR
  2
AcAmMVDdepMgr
  3
DesignerAssemblies
 90
    32768
280
     0
281
     0
  0
CLASS
  1
AC_AM_MASTER_VIEW_DEF
  2
AcAmMasterViewDef
  3
DesignerAssemblies
 90
    32768
280
     0
281
     0
  0
CLASS
  1
AC_AM_DIRTY_NODES
  2
AcAmDirtyNodes
  3
DesignerAssemblies
 90
    32768
280
     0
281
     0
  0
CLASS
  1
AC_AM_MAPPER_CACHE
  2
AcAmMapperCache
  3
DesignerAssemblies
 90
    32768
280
     0
281
     0
  0
CLASS
  1
ACAMMVDBACKUPOBJECT
  2
AcAmMVDBackupObject
  3
DesignerAssemblies
 90
    32768
280
     0
281
     0
  0
CLASS
  1
AC_AM_COMP_VIEW_INST
  2
AcAmCompView
  3
DesignerAssemblies
 90
    32768
280
     0
281
     0
  0
CLASS
  1
AC_AM_2D_XREF_MGR
  2
AcAmXrefMgr2d
  3
DesignerAssemblies
 90
    32768
280
     0
281
     0
  0
CLASS
  1
AMDTEDGESTANDARDISO13715
  2
AmdtEdgeStdISO13715
  3
"Amdt_StdImp|Product Description: AutoCAD Mechanical 2004 DX|Company: Autodesk"
 90
        0
280
     0
281
     0
  0
ENDSEC
  0
SECTION
  2
TABLES
  0
TABLE
  2
VPORT
  5
8
330
0
100
AcDbSymbolTable
 70
     7
  0
VPORT
  5
23AE
330
8
100
AcDbSymbolTableRecord
100
AcDbViewportTableRecord
  2
*Active
 70
     0
 10
0.0
 20
0.0
 11
1.0
 21
1.0
 12
197.9676828486469
 22
371.4022569221917
 13
0.0
 23
0.0
 14
2.5
 24
2.5
 15
10.0
 25
10.0
 16
0.0
 26
0.0
 36
1.0
 17
0.0
 27
0.0
 37
0.0
 40
184.8972994110924
 41
1.019181585677749
 42
50.0
 43
0.0
 44
0.0
 50
0.0
 51
0.0
 71
     0
 72
   100
 73
     1
 74
     3
 75
     0
 76
     0
 77
     0
 78
     0
281
     0
 65
     1
110
0.0
120
0.0
130
0.0
111
1.0
121
0.0
131
0.0
112
0.0
122
1.0
132
0.0
 79
     0
146
0.0
  0
ENDTAB
  0
TABLE
  2
LTYPE
  5
5
330
0
100
AcDbSymbolTable
 70
    15
  0
LTYPE
  5
14
330
5
100
AcDbSymbolTableRecord
100
AcDbLinetypeTableRecord
  2
ByBlock
 70
     0
  3

 72
    65
 73
     0
 40
0.0
  0
LTYPE
  5
15
330
5
100
AcDbSymbolTableRecord
100
AcDbLinetypeTableRecord
  2
ByLayer
 70
     0
  3

 72
    65
 73
     0
 40
0.0
  0
LTYPE
  5
16
330
5
100
AcDbSymbolTableRecord
100
AcDbLinetypeTableRecord
  2
Continuous
 70
     0
  3
Solid line
 72
    65
 73
     0
 40
0.0
  0
LTYPE
  5
64
330
5
100
AcDbSymbolTableRecord
100
AcDbLinetypeTableRecord
  2
AM_ISO02W050
 70
     0
  3
__ __ __ __ __ __ __ __ __ __ __ __ __ __ __
 72
    65
 73
     2
 40
7.5
 49
6.0
 74
     0
 49
-1.5
 74
     0
  0
LTYPE
  5
65
330
5
100
AcDbSymbolTableRecord
100
AcDbLinetypeTableRecord
  2
AM_ISO08W050
 70
     0
  3
____ . ____ . ____ . ____ . ____ . ____ . ____
 72
    65
 73
     4
 40
18.0
 49
12.0
 74
     0
 49
-1.5
 74
     0
 49
3.0
 74
     0
 49
-1.5
 74
     0
  0
LTYPE
  5
66
330
5
100
AcDbSymbolTableRecord
100
AcDbLinetypeTableRecord
  2
AM_ISO09W050
 70
     0
  3
_____ . . _____ . . _____ . . ____ .. ____
 72
    65
 73
     6
 40
22.5
 49
12.0
 74
     0
 49
-1.5
 74
     0
 49
3.0
 74
     0
 49
-1.5
 74
     0
 49
3.0
 74
     0
 49
-1.5
 74
     0
  0
LTYPE
  5
67
330
5
100
AcDbSymbolTableRecord
100
AcDbLinetypeTableRecord
  2
Amconstr
 70
     0
  3
_______________________
 72
    65
 73
     2
 40
9999.0
 49
9999.0
 74
     0
 49
0.0
 74
     0
  0
LTYPE
  5
68
330
5
100
AcDbSymbolTableRecord
100
AcDbLinetypeTableRecord
  2
AM_ISO08W050x2
 70
     0
  3
__ . __ . __ . __ . __ . __
 72
    65
 73
     4
 40
9.0
 49
6.0
 74
     0
 49
-0.75
 74
     0
 49
1.5
 74
     0
 49
-0.75
 74
     0
  0
LTYPE
  5
69
330
5
100
AcDbSymbolTableRecord
100
AcDbLinetypeTableRecord
  2
AM_ISO02W050x2
 70
     0
  3
 _ _ _ _ _ _ _ _ _ _ _ _
 72
    65
 73
     2
 40
3.75
 49
3.0
 74
     0
 49
-0.75
 74
     0
  0
LTYPE
  5
6C
330
5
100
AcDbSymbolTableRecord
100
AcDbLinetypeTableRecord
  2
Amzigzag
 70
     0
  3
/\/-/\/-/\/-/\/-/\/-/\/
 72
    65
 73
     2
 40
11.0001
 49
0.0001
 74
     4
 75
   135
340
6B
 46
0.04
 50
0.0
 44
0.0
 45
0.0
 49
-11.0
 74
     0
  0
LTYPE
  5
7A
330
5
100
AcDbSymbolTableRecord
100
AcDbLinetypeTableRecord
  2
ACISOWELD
 70
     0
  3
_ _ _ _ _
 72
    65
 73
     2
 40
2.0
 49
2.0
 74
     0
 49
-1.0
 74
     0
  0
LTYPE
  5
7B
330
5
100
AcDbSymbolTableRecord
100
AcDbLinetypeTableRecord
  2
ACISOTGB
 70
     0
  3
__ . . __ . .
 72
    65
 73
     6
 40
9.0
 49
4.0
 74
     0
 49
-1.0
 74
     0
 49
1.0
 74
     0
 49
-1.0
 74
     0
 49
1.0
 74
     0
 49
-1.0
 74
     0
  0
LTYPE
  5
7C
330
5
100
AcDbSymbolTableRecord
100
AcDbLinetypeTableRecord
  2
ACISOTGL
 70
     0
  3
_ _ _ _ _
 72
    65
 73
     2
 40
3.0
 49
2.0
 74
     0
 49
-1.0
 74
     0
  0
LTYPE
  5
7E
330
5
100
AcDbSymbolTableRecord
100
AcDbLinetypeTableRecord
  2
CENTER
 70
     0
  3
__ . __
 72
    65
 73
     4
 40
7.0
 49
4.0
 74
     0
 49
-1.0
 74
     0
 49
1.0
 74
     0
 49
-1.0
 74
     0
  0
LTYPE
  5
D8
330
5
100
AcDbSymbolTableRecord
100
AcDbLinetypeTableRecord
  2
HIDDEN
 70
     0
  3
Hidden __ __ __ __ __ __ __ __ __ __ __ __ __ _
 72
    65
 73
     2
 40
9.524999999999998
 49
6.349999999999999
 74
     0
 49
-3.174999999999999
 74
     0
  0
LTYPE
  5
D9
330
5
100
AcDbSymbolTableRecord
100
AcDbLinetypeTableRecord
  2
PHANTOM2
 70
     0
  3
Phantom (.5x) ___ _ _ ___ _ _ ___ _ _ ___ _ _
 72
    65
 73
     6
 40
31.75
 49
15.875
 74
     0
 49
-3.174999999999999
 74
     0
 49
3.174999999999999
 74
     0
 49
-3.174999999999999
 74
     0
 49
3.174999999999999
 74
     0
 49
-3.174999999999999
 74
     0
  0
LTYPE
  5
1CEA
330
5
100
AcDbSymbolTableRecord
100
AcDbLinetypeTableRecord
  2
DASHEDX2
 70
     0
  3
____  ____  ____  ____  ____  ____  ____  ____ 
 72
    65
 73
     2
 40
1.5
 49
1.0
 74
     0
 49
-0.5
 74
     0
  0
ENDTAB
  0
TABLE
  2
LAYER
  5
2
102
{ACAD_XDICTIONARY
360
3F9
102
}
330
0
100
AcDbSymbolTable
 70
    10
  0
LAYER
  5
10
330
2
100
AcDbSymbolTableRecord
100
AcDbLayerTableRecord
  2
0
 70
     0
 62
     7
  6
Continuous
370
    -3
390
F
  0
LAYER
  5
B0C
330
2
100
AcDbSymbolTableRecord
100
AcDbLayerTableRecord
  2
AM_5
 70
     0
 62
     5
  6
Continuous
370
    50
390
F
  0
LAYER
  5
B0D
330
2
100
AcDbSymbolTableRecord
100
AcDbLayerTableRecord
  2
Defpoints
 70
     0
 62
     7
  6
Continuous
290
     0
370
    -3
390
F
  0
LAYER
  5
1774
330
2
100
AcDbSymbolTableRecord
100
AcDbLayerTableRecord
  2
LOGO
 70
     0
 62
     7
  6
Continuous
370
    -3
390
F
  0
LAYER
  5
1CEB
330
2
100
AcDbSymbolTableRecord
100
AcDbLayerTableRecord
  2
DEFAULT_2
 70
     0
 62
     8
  6
DASHEDX2
370
    -3
390
F
  0
LAYER
  5
1CEC
330
2
100
AcDbSymbolTableRecord
100
AcDbLayerTableRecord
  2
layer 1
 70
     0
 62
     7
  6
Continuous
370
    -3
390
F
  0
ENDTAB
  0
TABLE
  2
STYLE
  5
3
330
0
100
AcDbSymbolTable
 70
     7
  0
STYLE
  5
11
330
3
100
AcDbSymbolTableRecord
100
AcDbTextStyleTableRecord
  2
STANDARD
 70
     0
 40
0.0
 41
1.0
 50
0.0
 71
     0
 42
3.0
  3
ISOCP.SHX
  4
CHINESET.SHX
  0
STYLE
  5
6B
330
3
100
AcDbSymbolTableRecord
100
AcDbTextStyleTableRecord
  2

 70
     1
 40
0.0
 41
1.0
 50
0.0
 71
     0
 42
2.5
  3
ltypeshp.shx
  4

  0
STYLE
  5
6D
330
3
100
AcDbSymbolTableRecord
100
AcDbTextStyleTableRecord
  2
ACISOTS
 70
     0
 40
1.0
 41
1.0
 50
0.0
 71
     0
 42
1.0
  3
isocp.shx
  4
chineset.shx
  0
STYLE
  5
79
330
3
100
AcDbSymbolTableRecord
100
AcDbTextStyleTableRecord
  2
ACISOGDT
 70
     0
 40
0.0
 41
1.0
 50
0.0
 71
     0
 42
2.5
  3
amgdt.shx
  4
chineset.shx
  0
STYLE
  5
F5C
330
3
100
AcDbSymbolTableRecord
100
AcDbTextStyleTableRecord
  2
CHINESET
 70
     0
 40
0.0
 41
1.0
 50
0.0
 71
     0
 42
2.5
  3
simplex.shx
  4
chineset.shx
  0
STYLE
  5
1CEF
330
3
100
AcDbSymbolTableRecord
100
AcDbTextStyleTableRecord
  2
DAYUS
 70
     0
 40
0.0
 41
1.0
 50
0.0
 71
     0
 42
2.5
  3
simplex.shx
  4

  0
STYLE
  5
1CF0
330
3
100
AcDbSymbolTableRecord
100
AcDbTextStyleTableRecord
  2
型式1
 70
     0
 40
0.0
 41
1.0
 50
0.0
 71
     0
 42
3.0
  3
ARIAL.TTF
  4

1001
ACAD
1000
Arial
1071
       34
  0
ENDTAB
  0
TABLE
  2
VIEW
  5
6
330
0
100
AcDbSymbolTable
 70
     0
  0
ENDTAB
  0
TABLE
  2
UCS
  5
7
330
0
100
AcDbSymbolTable
 70
     0
  0
ENDTAB
  0
TABLE
  2
APPID
  5
9
330
0
100
AcDbSymbolTable
 70
    28
  0
APPID
  5
12
330
9
100
AcDbSymbolTableRecord
100
AcDbRegAppTableRecord
  2
ACAD
 70
     0
  0
APPID
  5
46
330
9
100
AcDbSymbolTableRecord
100
AcDbRegAppTableRecord
  2
MCAD_NO_VIS
 70
     0
  0
APPID
  5
47
330
9
100
AcDbSymbolTableRecord
100
AcDbRegAppTableRecord
  2
ACAD_TEMP_GRAPHIC
 70
     0
  0
APPID
  5
58
330
9
100
AcDbSymbolTableRecord
100
AcDbRegAppTableRecord
  2
ACATTRIBSERVICES
 70
     0
  0
APPID
  5
EE
330
9
100
AcDbSymbolTableRecord
100
AcDbRegAppTableRecord
  2
AD_DRAW
 70
     0
  0
APPID
  5
10C
330
9
100
AcDbSymbolTableRecord
100
AcDbRegAppTableRecord
  2
DESIGNERASSEMBLIES
 70
     0
  0
APPID
  5
111
330
9
100
AcDbSymbolTableRecord
100
AcDbRegAppTableRecord
  2
ACADM_DIM_EDIT
 70
     0
  0
APPID
  5
112
330
9
100
AcDbSymbolTableRecord
100
AcDbRegAppTableRecord
  2
AMDT_DM_ADJ
 70
     0
  0
APPID
  5
22C
330
9
100
AcDbSymbolTableRecord
100
AcDbRegAppTableRecord
  2
ACAD_DSTYLE_DIMTEXT_FILL
 70
     0
  0
APPID
  5
452
330
9
100
AcDbSymbolTableRecord
100
AcDbRegAppTableRecord
  2
GENIUS_GENOENT_13
 70
     0
  0
APPID
  5
453
330
9
100
AcDbSymbolTableRecord
100
AcDbRegAppTableRecord
  2
GENIUS_GENOBJ-N-CRS_13
 70
     0
  0
APPID
  5
454
330
9
100
AcDbSymbolTableRecord
100
AcDbRegAppTableRecord
  2
GENIUS_GENOLIS_13
 70
     0
  0
APPID
  5
455
330
9
100
AcDbSymbolTableRecord
100
AcDbRegAppTableRecord
  2
GENIUS_GENODEF_13
 70
     0
  0
APPID
  5
456
330
9
100
AcDbSymbolTableRecord
100
AcDbRegAppTableRecord
  2
GENIUS_GENOREF_13
 70
     0
  0
APPID
  5
6F3
330
9
100
AcDbSymbolTableRecord
100
AcDbRegAppTableRecord
  2
ACAD_PSEXT
 70
     0
  0
APPID
  5
808
330
9
100
AcDbSymbolTableRecord
100
AcDbRegAppTableRecord
  2
GENIUS_GENDTOL_13
 70
     0
  0
APPID
  5
B11
330
9
100
AcDbSymbolTableRecord
100
AcDbRegAppTableRecord
  2
GENIUS_GENOBJ-N-CEN_13
 70
     0
  0
APPID
  5
B12
330
9
100
AcDbSymbolTableRecord
100
AcDbRegAppTableRecord
  2
GENIUS_GENCEN_19
 70
     0
  0
APPID
  5
166E
330
9
100
AcDbSymbolTableRecord
100
AcDbRegAppTableRecord
  2
GEVID1155862074
 70
     0
  0
APPID
  5
166F
330
9
100
AcDbSymbolTableRecord
100
AcDbRegAppTableRecord
  2
GEVDC
 70
     0
  0
APPID
  5
1686
330
9
100
AcDbSymbolTableRecord
100
AcDbRegAppTableRecord
  2
AMG_2DHIDE
 70
     0
  0
APPID
  5
1687
330
9
100
AcDbSymbolTableRecord
100
AcDbRegAppTableRecord
  2
AMG_2DSTRUCT_BTR
 70
     0
  0
APPID
  5
1698
330
9
100
AcDbSymbolTableRecord
100
AcDbRegAppTableRecord
  2
ACADM_2DVIEW_IGN_NOTIFY
 70
     0
  0
APPID
  5
16CC
330
9
100
AcDbSymbolTableRecord
100
AcDbRegAppTableRecord
  2
GEVID1155862075
 70
     0
  0
APPID
  5
16CD
330
9
100
AcDbSymbolTableRecord
100
AcDbRegAppTableRecord
  2
GEVRADREF
 70
     0
  0
APPID
  5
1775
330
9
100
AcDbSymbolTableRecord
100
AcDbRegAppTableRecord
  2
GENIUS_GENREC_14
 70
     0
  0
APPID
  5
1776
330
9
100
AcDbSymbolTableRecord
100
AcDbRegAppTableRecord
  2
GENIUS_GENOBJ-N-REC_13
 70
     0
  0
APPID
  5
1CF1
330
9
100
AcDbSymbolTableRecord
100
AcDbRegAppTableRecord
  2
AcAecLayerStandard
 70
     0
  0
ENDTAB
  0
TABLE
  2
DIMSTYLE
  5
A
330
0
100
AcDbSymbolTable
 70
     8
100
AcDbDimStyleTable
 71
     3
340
81
340
8B
340
86
  0
DIMSTYLE
105
81
330
A
100
AcDbSymbolTableRecord
100
AcDbDimStyleTableRecord
  2
AM_ISO
 70
     0
  4
"
 41
3.0
 42
1.0
 43
8.0
 44
1.5
 47
0.1
 48
0.1
 73
     0
 74
     0
 77
     1
 78
     8
 79
     2
140
3.5
141
0.0
143
0.0393701
146
0.6
147
0.7
172
     1
176
   256
177
   256
178
   256
271
     2
272
     2
283
     0
284
     8
340
11
371
    -1
372
    -1
  0
DIMSTYLE
105
82
330
A
100
AcDbSymbolTableRecord
100
AcDbDimStyleTableRecord
  2
AM_ISO$3
 70
     0
  4
"
 41
3.0
 42
1.0
 43
8.0
 44
1.5
 47
0.1
 48
0.1
 73
     0
 77
     1
 78
     8
 79
     2
140
3.5
141
0.0
143
0.0393701
146
0.6
147
0.7
176
   256
177
   256
178
   256
271
     2
272
     2
283
     0
284
     8
288
     1
289
     0
340
11
371
    -1
372
    -1
  0
DIMSTYLE
105
83
330
A
100
AcDbSymbolTableRecord
100
AcDbDimStyleTableRecord
  2
AM_ISO$4
 70
     0
  4
"
 41
3.0
 42
1.0
 43
8.0
 44
1.5
 47
0.1
 48
0.1
 73
     0
 77
     1
 78
     8
 79
     2
140
3.5
141
0.0
143
0.0393701
146
0.6
147
0.7
176
   256
177
   256
178
   256
271
     2
272
     2
283
     0
284
     8
288
     1
289
     0
340
11
371
    -1
372
    -1
  0
DIMSTYLE
105
84
330
A
100
AcDbSymbolTableRecord
100
AcDbDimStyleTableRecord
  2
AM_ISO$6
 70
     0
  4
"
 41
3.0
 42
1.0
 43
8.0
 44
1.5
 47
0.1
 48
0.1
 73
     0
 74
     0
 78
     8
 79
     2
140
3.5
141
0.0
143
0.0393701
146
0.6
147
0.7
172
     1
176
   256
177
   256
178
   256
271
     2
272
     2
283
     0
284
     8
340
11
371
    -1
372
    -1
  0
DIMSTYLE
105
85
330
A
100
AcDbSymbolTableRecord
100
AcDbDimStyleTableRecord
  2
AM_ISO$7
 70
     0
  4
"
 41
3.0
 42
1.0
 43
8.0
 44
1.5
 47
0.1
 48
0.1
 73
     0
 74
     0
 77
     1
 78
     8
 79
     2
140
5.0
141
0.0
143
0.0393701
146
0.6
147
0.7
172
     1
176
   256
177
   256
178
   256
271
     2
272
     2
283
     0
284
     8
340
11
371
    -1
372
    -1
  0
DIMSTYLE
105
86
330
A
100
AcDbSymbolTableRecord
100
AcDbDimStyleTableRecord
  2
AM_ISO$SF
 70
     0
  4
"
 41
2.5
 42
1.0
 43
10.0
 44
1.0
 47
0.1
 48
0.1
 73
     0
 74
     0
 75
     1
 76
     1
 77
     1
 78
     8
 79
     2
140
3.5
141
0.0
143
0.0393701
146
0.71
147
1.5
172
     1
176
   256
177
   256
178
     2
271
     2
272
     3
274
     4
283
     0
284
     8
340
11
371
    -1
372
    -1
  0
DIMSTYLE
105
8B
330
A
100
AcDbSymbolTableRecord
100
AcDbDimStyleTableRecord
  2
AM_ISO$SH
 70
     0
  4
"
 41
2.5
 42
1.0
 43
10.0
 44
1.0
 47
0.1
 48
0.1
 73
     0
 74
     0
 75
     1
 76
     1
 77
     1
 78
     8
 79
     2
140
3.5
141
0.0
143
0.0393701
144
2.0
146
0.71
147
1.5
172
     1
173
     1
176
   256
177
   256
178
     2
271
     2
272
     3
274
     4
283
     0
284
     8
340
11
343
87
371
    -1
372
    -1
  0
DIMSTYLE
105
40B
102
{ACAD_REACTORS
330
1F94
330
1F95
330
1F96
330
1FA2
330
2056
330
2057
330
2063
330
2055
102
}
330
A
100
AcDbSymbolTableRecord
100
AcDbDimStyleTableRecord
  2
AM_ISO$0
 70
     0
  4
"
 41
3.0
 42
1.0
 43
8.0
 44
1.5
 47
0.1
 48
0.1
 73
     0
 74
     0
 77
     1
 78
     8
 79
     2
140
3.5
141
0.0
143
0.0393701
146
0.6
147
0.7
172
     1
176
   256
177
   256
178
   256
271
     2
272
     2
283
     0
284
     8
340
11
371
    -1
372
    -1
  0
ENDTAB
  0
TABLE
  2
BLOCK_RECORD
  5
1
330
0
100
AcDbSymbolTable
 70
    24
  0
BLOCK_RECORD
  5
1F
102
{ACAD_XDICTIONARY
360
8F
102
}
330
1
100
AcDbSymbolTableRecord
100
AcDbBlockTableRecord
  2
*Model_Space
340
22
  0
BLOCK_RECORD
  5
1B
330
1
100
AcDbSymbolTableRecord
100
AcDbBlockTableRecord
  2
*Paper_Space
340
1E
  0
BLOCK_RECORD
  5
23
330
1
100
AcDbSymbolTableRecord
100
AcDbBlockTableRecord
  2
*Paper_Space0
340
26
  0
BLOCK_RECORD
  5
87
330
1
100
AcDbSymbolTableRecord
100
AcDbBlockTableRecord
  2
GENAXEH
340
0
  0
BLOCK_RECORD
  5
2097
330
1
100
AcDbSymbolTableRecord
100
AcDbBlockTableRecord
  2
*D16
340
0
  0
BLOCK_RECORD
  5
20A3
330
1
100
AcDbSymbolTableRecord
100
AcDbBlockTableRecord
  2
*D17
340
0
  0
BLOCK_RECORD
  5
20B1
330
1
100
AcDbSymbolTableRecord
100
AcDbBlockTableRecord
  2
*D18
340
0
  0
BLOCK_RECORD
  5
20BD
330
1
100
AcDbSymbolTableRecord
100
AcDbBlockTableRecord
  2
*D19
340
0
  0
BLOCK_RECORD
  5
20CB
330
1
100
AcDbSymbolTableRecord
100
AcDbBlockTableRecord
  2
*D20
340
0
  0
BLOCK_RECORD
  5
20D7
330
1
100
AcDbSymbolTableRecord
100
AcDbBlockTableRecord
  2
*D21
340
0
  0
BLOCK_RECORD
  5
20E5
330
1
100
AcDbSymbolTableRecord
100
AcDbBlockTableRecord
  2
*D22
340
0
  0
BLOCK_RECORD
  5
20F1
330
1
100
AcDbSymbolTableRecord
100
AcDbBlockTableRecord
  2
*D23
340
0
  0
ENDTAB
  0
ENDSEC
  0
SECTION
  2
BLOCKS
  0
BLOCK
  5
20
330
1F
100
AcDbEntity
  8
0
100
AcDbBlockBegin
  2
*Model_Space
 70
     0
 10
0.0
 20
0.0
 30
0.0
  3
*Model_Space
  1

  0
ENDBLK
  5
21
330
1F
100
AcDbEntity
  8
0
100
AcDbBlockEnd
  0
BLOCK
  5
1C
330
1B
100
AcDbEntity
 67
     1
  8
0
100
AcDbBlockBegin
  2
*Paper_Space
 70
     0
 10
0.0
 20
0.0
 30
0.0
  3
*Paper_Space
  1

  0
ENDBLK
  5
1D
330
1B
100
AcDbEntity
 67
     1
  8
0
100
AcDbBlockEnd
  0
BLOCK
  5
24
330
23
100
AcDbEntity
  8
0
100
AcDbBlockBegin
  2
*Paper_Space0
 70
     0
 10
0.0
 20
0.0
 30
0.0
  3
*Paper_Space0
  1

  0
ENDBLK
  5
25
330
23
100
AcDbEntity
  8
0
100
AcDbBlockEnd
  0
BLOCK
  5
89
330
87
100
AcDbEntity
  8
0
100
AcDbBlockBegin
  2
GENAXEH
 70
     0
 10
0.0
 20
0.0
 30
0.0
  3
GENAXEH
  1

  0
LINE
  5
88
330
87
100
AcDbEntity
  8
0
100
AcDbLine
 10
-1.0
 20
0.0
 30
0.0
 11
1.0
 21
0.0
 31
0.0
  0
ENDBLK
  5
8A
330
87
100
AcDbEntity
  8
0
100
AcDbBlockEnd
  0
BLOCK
  5
20A1
330
2097
100
AcDbEntity
  8
0
100
AcDbBlockBegin
  2
*D16
 70
     1
 10
0.0
 20
0.0
 30
0.0
  3
*D16
  1

  0
LINE
  5
2390
330
2097
100
AcDbEntity
  8
AM_5
100
AcDbLine
 10
210.1266304860912
 20
359.7123794379555
 30
0.0
 11
210.1266304860912
 21
368.9112341641592
 31
0.0
  0
LINE
  5
2391
330
2097
100
AcDbEntity
  8
AM_5
100
AcDbLine
 10
232.1266304860913
 20
360.8623794379555
 30
0.0
 11
232.1266304860913
 21
368.9112341641592
 31
0.0
  0
LINE
  5
2392
330
2097
100
AcDbEntity
  8
AM_5
100
AcDbLine
 10
213.1266304860913
 20
367.4112341641592
 30
0.0
 11
229.1266304860912
 21
367.4112341641592
 31
0.0
  0
SOLID
  5
2393
330
2097
100
AcDbEntity
  8
AM_5
100
AcDbTrace
 10
213.1266304860913
 20
367.9112341641592
 30
0.0
 11
213.1266304860913
 21
366.9112341641592
 31
0.0
 12
210.1266304860912
 22
367.4112341641592
 32
0.0
 13
210.1266304860912
 23
367.4112341641592
 33
0.0
  0
SOLID
  5
2394
330
2097
100
AcDbEntity
  8
AM_5
100
AcDbTrace
 10
229.1266304860912
 20
367.9112341641592
 30
0.0
 11
229.1266304860912
 21
366.9112341641592
 31
0.0
 12
232.1266304860913
 22
367.4112341641592
 32
0.0
 13
232.1266304860913
 23
367.4112341641592
 33
0.0
  0
MTEXT
  5
2395
330
2097
100
AcDbEntity
  8
AM_5
100
AcDbMText
 10
221.5019152979182
 20
369.8615786523482
 30
0.0
 40
3.5
 41
0.0
 71
     5
 72
     1
  1
22
 73
     1
 44
1.0
1001
ACAD
1000
MTEXTBEGIN
1070
    73
1070
     1
1070
    44
1040
1.0
1070
    74
1070
     0
1000
MTEXTEND
  0
POINT
  5
2396
330
2097
100
AcDbEntity
  8
Defpoints
 62
     0
100
AcDbPoint
 10
210.1266304860912
 20
358.7123794379555
 30
0.0
  0
POINT
  5
2397
330
2097
100
AcDbEntity
  8
Defpoints
 62
     0
100
AcDbPoint
 10
232.1266304860913
 20
359.8623794379555
 30
0.0
  0
POINT
  5
2398
330
2097
100
AcDbEntity
  8
Defpoints
 62
     0
100
AcDbPoint
 10
232.1266304860913
 20
367.4112341641592
 30
0.0
  0
ENDBLK
  5
20A2
330
2097
100
AcDbEntity
  8
0
100
AcDbBlockEnd
  0
BLOCK
  5
20AF
330
20A3
100
AcDbEntity
  8
0
100
AcDbBlockBegin
  2
*D17
 70
     1
 10
0.0
 20
0.0
 30
0.0
  3
*D17
  1

  0
LINE
  5
22E8
330
20A3
100
AcDbEntity
  8
AM_5
100
AcDbLine
 10
213.1266304860913
 20
359.8623794379555
 30
0.0
 11
204.2415207342897
 21
359.8623794379555
 31
0.0
  0
LINE
  5
22E9
330
20A3
100
AcDbEntity
  8
AM_5
100
AcDbLine
 10
213.1266304860913
 20
355.2123794379555
 30
0.0
 11
204.2415207342897
 21
355.2123794379555
 31
0.0
  0
LINE
  5
22EA
330
20A3
100
AcDbEntity
  8
AM_5
100
AcDbLine
 10
205.7415207342897
 20
362.8623794379555
 30
0.0
 11
205.7415207342897
 21
365.8623794379555
 31
0.0
  0
LINE
  5
22EB
330
20A3
100
AcDbEntity
  8
AM_5
100
AcDbLine
 10
205.7415207342897
 20
352.2123794379555
 30
0.0
 11
205.7415207342897
 21
349.2123794379555
 31
0.0
  0
LINE
  5
22EC
330
20A3
100
AcDbEntity
  8
AM_5
100
AcDbLine
 10
205.7415207342897
 20
359.8623794379555
 30
0.0
 11
205.7415207342897
 21
355.2123794379555
 31
0.0
  0
SOLID
  5
22ED
330
20A3
100
AcDbEntity
  8
AM_5
100
AcDbTrace
 10
205.2415207342897
 20
362.8623794379555
 30
0.0
 11
206.2415207342897
 21
362.8623794379555
 31
0.0
 12
205.7415207342897
 22
359.8623794379555
 32
0.0
 13
205.7415207342897
 23
359.8623794379555
 33
0.0
  0
SOLID
  5
22EE
330
20A3
100
AcDbEntity
  8
AM_5
100
AcDbTrace
 10
205.2415207342897
 20
352.2123794379555
 30
0.0
 11
206.2415207342897
 21
352.2123794379555
 31
0.0
 12
205.7415207342897
 22
355.2123794379555
 32
0.0
 13
205.7415207342897
 23
355.2123794379555
 33
0.0
  0
MTEXT
  5
22EF
330
20A3
100
AcDbEntity
  8
AM_5
100
AcDbMText
 10
202.7915207342896
 20
357.5373794379556
 30
0.0
 40
3.5
 41
0.0
 71
     5
 72
     1
  1
4.65
 11
0.0000000000000001
 21
1.0
 31
0.0
 73
     1
 44
1.0
1001
ACAD
1000
MTEXTBEGIN
1070
    73
1070
     1
1070
    44
1040
1.0
1070
    74
1070
     0
1000
MTEXTEND
  0
POINT
  5
22F0
330
20A3
100
AcDbEntity
  8
Defpoints
 62
     0
100
AcDbPoint
 10
214.1266304860912
 20
359.8623794379555
 30
0.0
  0
POINT
  5
22F1
330
20A3
100
AcDbEntity
  8
Defpoints
 62
     0
100
AcDbPoint
 10
214.1266304860912
 20
355.2123794379555
 30
0.0
  0
POINT
  5
22F2
330
20A3
100
AcDbEntity
  8
Defpoints
 62
     0
100
AcDbPoint
 10
205.7415207342897
 20
355.2123794379555
 30
0.0
  0
ENDBLK
  5
20B0
330
20A3
100
AcDbEntity
  8
0
100
AcDbBlockEnd
  0
BLOCK
  5
20BB
330
20B1
100
AcDbEntity
  8
0
100
AcDbBlockBegin
  2
*D18
 70
     1
 10
0.0
 20
0.0
 30
0.0
  3
*D18
  1

  0
LINE
  5
2399
330
20B1
100
AcDbEntity
  8
AM_5
100
AcDbLine
 10
232.1266304860913
 20
357.0873794379555
 30
0.0
 11
232.1266304860913
 21
368.9112341641592
 31
0.0
  0
LINE
  5
239A
330
20B1
100
AcDbEntity
  8
AM_5
100
AcDbLine
 10
277.1347588423005
 20
361.8623794379555
 30
0.0
 11
277.1347588423005
 21
368.9112341641592
 31
0.0
  0
LINE
  5
239B
330
20B1
100
AcDbEntity
  8
AM_5
100
AcDbLine
 10
235.1266304860912
 20
367.4112341641592
 30
0.0
 11
274.1347588423005
 21
367.4112341641592
 31
0.0
  0
SOLID
  5
239C
330
20B1
100
AcDbEntity
  8
AM_5
100
AcDbTrace
 10
235.1266304860912
 20
367.9112341641592
 30
0.0
 11
235.1266304860912
 21
366.9112341641592
 31
0.0
 12
232.1266304860913
 22
367.4112341641592
 32
0.0
 13
232.1266304860913
 23
367.4112341641592
 33
0.0
  0
SOLID
  5
239D
330
20B1
100
AcDbEntity
  8
AM_5
100
AcDbTrace
 10
274.1347588423005
 20
367.9112341641592
 30
0.0
 11
274.1347588423005
 21
366.9112341641592
 31
0.0
 12
277.1347588423005
 22
367.4112341641592
 32
0.0
 13
277.1347588423005
 23
367.4112341641592
 33
0.0
  0
MTEXT
  5
239E
330
20B1
100
AcDbEntity
  8
AM_5
100
AcDbMText
 10
254.6306946641959
 20
369.8612341641592
 30
0.0
 40
3.5
 41
0.0
 71
     5
 72
     1
  1
150%%p10
 73
     1
 44
1.0
1001
ACAD
1000
MTEXTBEGIN
1070
    73
1070
     1
1070
    44
1040
1.0
1070
    74
1070
     0
1000
MTEXTEND
  0
POINT
  5
239F
330
20B1
100
AcDbEntity
  8
Defpoints
 62
     0
100
AcDbPoint
 10
232.1266304860913
 20
356.0873794379555
 30
0.0
  0
POINT
  5
23A0
330
20B1
100
AcDbEntity
  8
Defpoints
 62
     0
100
AcDbPoint
 10
277.1347588423005
 20
360.8623794379555
 30
0.0
  0
POINT
  5
23A1
330
20B1
100
AcDbEntity
  8
Defpoints
 62
     0
100
AcDbPoint
 10
277.1347588423005
 20
367.4112341641592
 30
0.0
  0
ENDBLK
  5
20BC
330
20B1
100
AcDbEntity
  8
0
100
AcDbBlockEnd
  0
BLOCK
  5
20C9
330
20BD
100
AcDbEntity
  8
0
100
AcDbBlockBegin
  2
*D19
 70
     1
 10
0.0
 20
0.0
 30
0.0
  3
*D19
  1

  0
LINE
  5
232F
330
20BD
100
AcDbEntity
  8
AM_5
100
AcDbLine
 10
209.1266304860913
 20
388.7850077364961
 30
0.0
 11
204.2415207342897
 21
388.7850077364961
 31
0.0
  0
LINE
  5
2330
330
20BD
100
AcDbEntity
  8
AM_5
100
AcDbLine
 10
209.1265168666343
 20
392.8837880397216
 30
0.0
 11
204.2415207342897
 21
392.8837880397216
 31
0.0
  0
LINE
  5
2331
330
20BD
100
AcDbEntity
  8
AM_5
100
AcDbLine
 10
205.7415207342897
 20
385.7850077364961
 30
0.0
 11
205.7415207342897
 21
382.7850077364961
 31
0.0
  0
LINE
  5
2332
330
20BD
100
AcDbEntity
  8
AM_5
100
AcDbLine
 10
205.7415207342897
 20
395.8837880397216
 30
0.0
 11
205.7415207342897
 21
398.8837880397216
 31
0.0
  0
LINE
  5
2333
330
20BD
100
AcDbEntity
  8
AM_5
100
AcDbLine
 10
205.7415207342897
 20
388.7850077364961
 30
0.0
 11
205.7415207342897
 21
392.8837880397216
 31
0.0
  0
SOLID
  5
2334
330
20BD
100
AcDbEntity
  8
AM_5
100
AcDbTrace
 10
205.2415207342897
 20
385.7850077364961
 30
0.0
 11
206.2415207342897
 21
385.7850077364961
 31
0.0
 12
205.7415207342897
 22
388.7850077364961
 32
0.0
 13
205.7415207342897
 23
388.7850077364961
 33
0.0
  0
SOLID
  5
2335
330
20BD
100
AcDbEntity
  8
AM_5
100
AcDbTrace
 10
205.2415207342897
 20
395.8837880397216
 30
0.0
 11
206.2415207342897
 21
395.8837880397216
 31
0.0
 12
205.7415207342897
 22
392.8837880397216
 32
0.0
 13
205.7415207342897
 23
392.8837880397216
 33
0.0
  0
MTEXT
  5
2336
330
20BD
100
AcDbEntity
  8
AM_5
100
AcDbMText
 10
202.7915207342896
 20
390.8343978881089
 30
0.0
 40
3.5
 41
0.0
 71
     5
 72
     1
  1
4.1
 11
0.0000000000000001
 21
1.0
 31
0.0
 73
     1
 44
1.0
1001
ACAD
1000
MTEXTBEGIN
1070
    73
1070
     1
1070
    44
1040
1.0
1070
    74
1070
     0
1000
MTEXTEND
  0
POINT
  5
2337
330
20BD
100
AcDbEntity
  8
Defpoints
 62
     0
100
AcDbPoint
 10
210.1266304860912
 20
388.7850077364961
 30
0.0
  0
POINT
  5
2338
330
20BD
100
AcDbEntity
  8
Defpoints
 62
     0
100
AcDbPoint
 10
210.1265168666344
 20
392.8837880397216
 30
0.0
  0
POINT
  5
2339
330
20BD
100
AcDbEntity
  8
Defpoints
 62
     0
100
AcDbPoint
 10
205.7415207342897
 20
392.8837880397216
 30
0.0
  0
ENDBLK
  5
20CA
330
20BD
100
AcDbEntity
  8
0
100
AcDbBlockEnd
  0
BLOCK
  5
20D5
330
20CB
100
AcDbEntity
  8
0
100
AcDbBlockBegin
  2
*D20
 70
     1
 10
0.0
 20
0.0
 30
0.0
  3
*D20
  1

  0
LINE
  5
2374
330
20CB
100
AcDbEntity
  8
AM_5
100
AcDbLine
 10
129.4840054839479
 20
359.7123794379555
 30
0.0
 11
129.4840054839479
 21
368.4112341641592
 31
0.0
  0
LINE
  5
2375
330
20CB
100
AcDbEntity
  8
AM_5
100
AcDbLine
 10
151.4840054839479
 20
360.8623794379555
 30
0.0
 11
151.4840054839479
 21
368.4112341641592
 31
0.0
  0
LINE
  5
2376
330
20CB
100
AcDbEntity
  8
AM_5
100
AcDbLine
 10
132.4840054839479
 20
367.4112341641592
 30
0.0
 11
148.4840054839479
 21
367.4112341641592
 31
0.0
  0
SOLID
  5
2377
330
20CB
100
AcDbEntity
  8
AM_5
100
AcDbTrace
 10
132.4840054839479
 20
367.9112341641592
 30
0.0
 11
132.4840054839479
 21
366.9112341641592
 31
0.0
 12
129.4840054839479
 22
367.4112341641592
 32
0.0
 13
129.4840054839479
 23
367.4112341641592
 33
0.0
  0
SOLID
  5
2378
330
20CB
100
AcDbEntity
  8
AM_5
100
AcDbTrace
 10
148.4840054839479
 20
367.9112341641592
 30
0.0
 11
148.4840054839479
 21
366.9112341641592
 31
0.0
 12
151.4840054839479
 22
367.4112341641592
 32
0.0
 13
151.4840054839479
 23
367.4112341641592
 33
0.0
  0
MTEXT
  5
2379
330
20CB
100
AcDbEntity
  8
AM_5
100
AcDbMText
 10
140.4840054839479
 20
369.8615786523482
 30
0.0
 40
3.5
 41
0.0
 71
     5
 72
     1
  1
22
 73
     1
 44
1.0
1001
ACAD
1000
MTEXTBEGIN
1070
    73
1070
     1
1070
    44
1040
1.0
1070
    74
1070
     0
1000
MTEXTEND
  0
POINT
  5
237A
330
20CB
100
AcDbEntity
  8
Defpoints
 62
     0
100
AcDbPoint
 10
129.4840054839479
 20
358.7123794379555
 30
0.0
  0
POINT
  5
237B
330
20CB
100
AcDbEntity
  8
Defpoints
 62
     0
100
AcDbPoint
 10
151.4840054839479
 20
359.8623794379555
 30
0.0
  0
POINT
  5
237C
330
20CB
100
AcDbEntity
  8
Defpoints
 62
     0
100
AcDbPoint
 10
151.4840054839479
 20
367.4112341641592
 30
0.0
  0
ENDBLK
  5
20D6
330
20CB
100
AcDbEntity
  8
0
100
AcDbBlockEnd
  0
BLOCK
  5
20E3
330
20D7
100
AcDbEntity
  8
0
100
AcDbBlockBegin
  2
*D21
 70
     1
 10
0.0
 20
0.0
 30
0.0
  3
*D21
  1

  0
LINE
  5
2310
330
20D7
100
AcDbEntity
  8
AM_5
100
AcDbLine
 10
132.4840054839479
 20
359.8623794379555
 30
0.0
 11
125.2669851694473
 21
359.8623794379556
 31
0.0
  0
LINE
  5
2311
330
20D7
100
AcDbEntity
  8
AM_5
100
AcDbLine
 10
132.4840054839479
 20
355.2123794379555
 30
0.0
 11
125.2669851694473
 21
355.2123794379556
 31
0.0
  0
LINE
  5
2312
330
20D7
100
AcDbEntity
  8
AM_5
100
AcDbLine
 10
126.7669851694473
 20
362.8623794379556
 30
0.0
 11
126.7669851694473
 21
365.8623794379555
 31
0.0
  0
LINE
  5
2313
330
20D7
100
AcDbEntity
  8
AM_5
100
AcDbLine
 10
126.7669851694473
 20
352.2123794379556
 30
0.0
 11
126.7669851694473
 21
349.2123794379556
 31
0.0
  0
LINE
  5
2314
330
20D7
100
AcDbEntity
  8
AM_5
100
AcDbLine
 10
126.7669851694473
 20
359.8623794379556
 30
0.0
 11
126.7669851694473
 21
355.2123794379556
 31
0.0
  0
SOLID
  5
2315
330
20D7
100
AcDbEntity
  8
AM_5
100
AcDbTrace
 10
126.2669851694473
 20
362.8623794379556
 30
0.0
 11
127.2669851694473
 21
362.8623794379556
 31
0.0
 12
126.7669851694473
 22
359.8623794379556
 32
0.0
 13
126.7669851694473
 23
359.8623794379556
 33
0.0
  0
SOLID
  5
2316
330
20D7
100
AcDbEntity
  8
AM_5
100
AcDbTrace
 10
126.2669851694473
 20
352.2123794379556
 30
0.0
 11
127.2669851694473
 21
352.2123794379556
 31
0.0
 12
126.7669851694473
 22
355.2123794379556
 32
0.0
 13
126.7669851694473
 23
355.2123794379556
 33
0.0
  0
MTEXT
  5
2317
330
20D7
100
AcDbEntity
  8
AM_5
100
AcDbMText
 10
123.8169851694473
 20
357.5373794379556
 30
0.0
 40
3.5
 41
0.0
 71
     5
 72
     1
  1
4.65
 11
0.0000000000000001
 21
1.0
 31
0.0
 73
     1
 44
1.0
1001
ACAD
1000
MTEXTBEGIN
1070
    73
1070
     1
1070
    44
1040
1.0
1070
    74
1070
     0
1000
MTEXTEND
  0
POINT
  5
2318
330
20D7
100
AcDbEntity
  8
Defpoints
 62
     0
100
AcDbPoint
 10
133.4840054839479
 20
359.8623794379555
 30
0.0
  0
POINT
  5
2319
330
20D7
100
AcDbEntity
  8
Defpoints
 62
     0
100
AcDbPoint
 10
133.4840054839479
 20
355.2123794379555
 30
0.0
  0
POINT
  5
231A
330
20D7
100
AcDbEntity
  8
Defpoints
 62
     0
100
AcDbPoint
 10
126.7669851694473
 20
355.2123794379556
 30
0.0
  0
ENDBLK
  5
20E4
330
20D7
100
AcDbEntity
  8
0
100
AcDbBlockEnd
  0
BLOCK
  5
20EF
330
20E5
100
AcDbEntity
  8
0
100
AcDbBlockBegin
  2
*D22
 70
     1
 10
0.0
 20
0.0
 30
0.0
  3
*D22
  1

  0
LINE
  5
2361
330
20E5
100
AcDbEntity
  8
AM_5
100
AcDbLine
 10
151.4840054839479
 20
357.0873794379555
 30
0.0
 11
151.4840054839479
 21
368.4112341641592
 31
0.0
  0
LINE
  5
2362
330
20E5
100
AcDbEntity
  8
AM_5
100
AcDbLine
 10
177.9924217789583
 20
359.3623794379555
 30
0.0
 11
177.9924217789583
 21
368.4112341641592
 31
0.0
  0
LINE
  5
2363
330
20E5
100
AcDbEntity
  8
AM_5
100
AcDbLine
 10
154.4840054839479
 20
367.4112341641592
 30
0.0
 11
174.9924217789583
 21
367.4112341641592
 31
0.0
  0
SOLID
  5
2364
330
20E5
100
AcDbEntity
  8
AM_5
100
AcDbTrace
 10
154.4840054839479
 20
367.9112341641592
 30
0.0
 11
154.4840054839479
 21
366.9112341641592
 31
0.0
 12
151.4840054839479
 22
367.4112341641592
 32
0.0
 13
151.4840054839479
 23
367.4112341641592
 33
0.0
  0
SOLID
  5
2365
330
20E5
100
AcDbEntity
  8
AM_5
100
AcDbTrace
 10
174.9924217789583
 20
367.9112341641592
 30
0.0
 11
174.9924217789583
 21
366.9112341641592
 31
0.0
 12
177.9924217789583
 22
367.4112341641592
 32
0.0
 13
177.9924217789583
 23
367.4112341641592
 33
0.0
  0
MTEXT
  5
2366
330
20E5
100
AcDbEntity
  8
AM_5
100
AcDbMText
 10
164.7382136314531
 20
369.8615786523482
 30
0.0
 40
3.5
 41
0.0
 71
     5
 72
     1
  1
2000
 73
     1
 44
1.0
1001
ACAD
1000
MTEXTBEGIN
1070
    73
1070
     1
1070
    44
1040
1.0
1070
    74
1070
     0
1000
MTEXTEND
  0
POINT
  5
2367
330
20E5
100
AcDbEntity
  8
Defpoints
 62
     0
100
AcDbPoint
 10
151.4840054839479
 20
356.0873794379555
 30
0.0
  0
POINT
  5
2368
330
20E5
100
AcDbEntity
  8
Defpoints
 62
     0
100
AcDbPoint
 10
177.9924217789583
 20
358.3623794379555
 30
0.0
  0
POINT
  5
2369
330
20E5
100
AcDbEntity
  8
Defpoints
 62
     0
100
AcDbPoint
 10
177.9924217789583
 20
367.4112341641592
 30
0.0
  0
ENDBLK
  5
20F0
330
20E5
100
AcDbEntity
  8
0
100
AcDbBlockEnd
  0
BLOCK
  5
20FD
330
20F1
100
AcDbEntity
  8
0
100
AcDbBlockBegin
  2
*D23
 70
     1
 10
0.0
 20
0.0
 30
0.0
  3
*D23
  1

  0
LINE
  5
233A
330
20F1
100
AcDbEntity
  8
AM_5
100
AcDbLine
 10
128.4840054839479
 20
388.7850077364961
 30
0.0
 11
125.2669851694473
 21
388.7850077364962
 31
0.0
  0
LINE
  5
233B
330
20F1
100
AcDbEntity
  8
AM_5
100
AcDbLine
 10
128.483891864491
 20
392.8837880397216
 30
0.0
 11
125.2669851694473
 21
392.8837880397217
 31
0.0
  0
LINE
  5
233C
330
20F1
100
AcDbEntity
  8
AM_5
100
AcDbLine
 10
126.7669851694473
 20
385.7850077364962
 30
0.0
 11
126.7669851694473
 21
382.7850077364962
 31
0.0
  0
LINE
  5
233D
330
20F1
100
AcDbEntity
  8
AM_5
100
AcDbLine
 10
126.7669851694473
 20
395.8837880397216
 30
0.0
 11
126.7669851694473
 21
398.8837880397217
 31
0.0
  0
LINE
  5
233E
330
20F1
100
AcDbEntity
  8
AM_5
100
AcDbLine
 10
126.7669851694473
 20
388.7850077364962
 30
0.0
 11
126.7669851694473
 21
392.8837880397217
 31
0.0
  0
SOLID
  5
233F
330
20F1
100
AcDbEntity
  8
AM_5
100
AcDbTrace
 10
126.2669851694473
 20
385.7850077364962
 30
0.0
 11
127.2669851694473
 21
385.7850077364962
 31
0.0
 12
126.7669851694473
 22
388.7850077364962
 32
0.0
 13
126.7669851694473
 23
388.7850077364962
 33
0.0
  0
SOLID
  5
2340
330
20F1
100
AcDbEntity
  8
AM_5
100
AcDbTrace
 10
126.2669851694473
 20
395.8837880397216
 30
0.0
 11
127.2669851694473
 21
395.8837880397216
 31
0.0
 12
126.7669851694473
 22
392.8837880397217
 32
0.0
 13
126.7669851694473
 23
392.8837880397217
 33
0.0
  0
MTEXT
  5
2341
330
20F1
100
AcDbEntity
  8
AM_5
100
AcDbMText
 10
123.8169851694473
 20
390.8343978881089
 30
0.0
 40
3.5
 41
0.0
 71
     5
 72
     1
  1
4.1
 11
0.0000000000000001
 21
1.0
 31
0.0
 73
     1
 44
1.0
1001
ACAD
1000
MTEXTBEGIN
1070
    73
1070
     1
1070
    44
1040
1.0
1070
    74
1070
     0
1000
MTEXTEND
  0
POINT
  5
2342
330
20F1
100
AcDbEntity
  8
Defpoints
 62
     0
100
AcDbPoint
 10
129.4840054839479
 20
388.7850077364961
 30
0.0
  0
POINT
  5
2343
330
20F1
100
AcDbEntity
  8
Defpoints
 62
     0
100
AcDbPoint
 10
129.483891864491
 20
392.8837880397216
 30
0.0
  0
POINT
  5
2344
330
20F1
100
AcDbEntity
  8
Defpoints
 62
     0
100
AcDbPoint
 10
126.7669851694473
 20
392.8837880397217
 30
0.0
  0
ENDBLK
  5
20FE
330
20F1
100
AcDbEntity
  8
0
100
AcDbBlockEnd
  0
ENDSEC
  0
SECTION
  2
ENTITIES
  0
TEXT
  5
194A
330
1F
100
AcDbEntity
  8
LOGO
 62
     7
100
AcDbText
 10
135.1840745959502
 20
311.0496267458723
 30
0.0
 40
1.813070769230769
  1
Order example:
 41
0.8
  7
CHINESET
100
AcDbText
  0
TEXT
  5
194B
330
1F
100
AcDbEntity
  8
LOGO
 62
     7
100
AcDbText
 10
135.5093544854355
 20
313.6020549878564
 30
0.0
 40
2.719606153846153
  1
訂購代號：
  7
CHINESET
100
AcDbText
  0
LINE
  5
194C
330
1F
100
AcDbEntity
  8
LOGO
 62
     4
100
AcDbLine
 10
134.3962891971369
 20
303.4086618663757
 30
0.0
 11
134.3962891971369
 21
317.0066926356065
 31
0.0
  0
TEXT
  5
194D
330
1F
100
AcDbEntity
  8
LOGO
  6
Continuous
100
AcDbText
 10
109.3650952814678
 20
306.0799744897733
 30
0.0
 40
2.039704615384615
  1
金器工業股份有限公司
  7
CHINESET
100
AcDbText
  0
TEXT
  5
194E
330
1F
100
AcDbEntity
  8
LOGO
  6
Continuous
100
AcDbText
 10
105.6185614386642
 20
304.0398702522032
 30
0.0
 40
1.359803076923076
  1
MINDMAN INDUSTRIAL CO., LTD.
 41
0.85
  7
CHINESET
100
AcDbText
  0
LINE
  5
194F
330
1F
100
AcDbEntity
  8
LOGO
 62
     4
100
AcDbLine
 10
134.3962891971369
 20
314.2870864817604
 30
0.0
 11
114.4525107355983
 21
314.2870864817604
 31
0.0
  0
LINE
  5
1950
330
1F
100
AcDbEntity
  8
LOGO
 62
     4
100
AcDbLine
 10
134.3962891971369
 20
311.5674803279142
 30
0.0
 11
114.4525107355983
 21
311.5674803279142
 31
0.0
  0
LINE
  5
1951
330
1F
100
AcDbEntity
  8
LOGO
 62
     4
100
AcDbLine
 10
134.3962891971369
 20
308.8478741740682
 30
0.0
 11
104.4806215048292
 21
308.8478741740682
 31
0.0
  0
LINE
  5
1952
330
1F
100
AcDbEntity
  8
LOGO
 62
     4
100
AcDbLine
 10
114.4525107355983
 20
308.8478741740682
 30
0.0
 11
114.4525107355983
 21
317.0066926356065
 31
0.0
  0
TEXT
  5
1953
330
1F
100
AcDbEntity
  8
LOGO
100
AcDbText
 10
128.0831419820548
 20
309.5277757125294
 30
0.0
 40
1.359803076923076
  1
mm
  7
CHINESET
 72
     1
 11
129.7667076963405
 21
310.207677250991
 31
0.0
100
AcDbText
 73
     2
  0
TEXT
  5
1954
330
1F
100
AcDbEntity
  8
LOGO
100
AcDbText
 10
127.370864179857
 20
314.9669880202218
 30
0.0
 40
1.359803076923076
  1
1 : 1
  7
CHINESET
 72
     1
 11
129.7667076963405
 21
315.6468895586834
 31
0.0
100
AcDbText
 73
     2
  0
LINE
  5
1955
330
1F
100
AcDbEntity
  8
LOGO
 62
     4
100
AcDbLine
 10
125.330935350983
 20
308.8478741740682
 30
0.0
 11
125.330935350983
 21
317.0066926356065
 31
0.0
  0
TEXT
  5
1956
330
1F
100
AcDbEntity
  8
LOGO
100
AcDbText
 10
115.5737412191149
 20
314.9676572146495
 30
89.11925351683386
 40
1.359803076923076
  1
比例 Scale:
 41
0.9
  7
CHINESET
 72
     4
 11
119.8917230432907
 21
315.6468895586834
 31
89.11925351683386
100
AcDbText
  0
TEXT
  5
1957
330
1F
100
AcDbEntity
  8
LOGO
100
AcDbText
 10
115.4954311312028
 20
312.2665096737651
 30
89.11925351683386
 40
1.359803076923076
  1
投影  View:
 41
0.9
  7
CHINESET
 72
     4
 11
119.8917230432907
 21
312.9272834048372
 31
89.11925351683386
100
AcDbText
  0
TEXT
  5
1958
330
1F
100
AcDbEntity
  8
LOGO
100
AcDbText
 10
115.6283761641698
 20
309.5277757125294
 30
89.11925351683386
 40
1.359803076923076
  1
單位  Unit:
 41
0.9
  7
CHINESET
 72
     4
 11
119.8917230432907
 21
310.207677250991
 31
89.11925351683386
100
AcDbText
  0
LWPOLYLINE
  5
1959
330
1F
100
AcDbEntity
  8
LOGO
 62
     4
100
AcDbPolyline
 90
        4
 70
     1
 43
0.0
 10
104.4806215048292
 20
317.0066926356065
 10
291.4806215048292
 20
317.0066926356065
 10
291.4806215048292
 20
439.4086618663754
 10
104.4806215048292
 20
439.4086618663754
1001
GENIUS_GENREC_14
1002
{
1000
PYDIR
1011
104.4806215048292
1021
439.4086618663754
1031
0.0
1002
}
1002
{
1000
PXDIR
1011
291.4806215048292
1021
317.0066926356065
1031
0.0
1002
}
1002
{
1000
PORI
1011
104.4806215048292
1021
317.0066926356065
1031
0.0
1002
}
1002
{
1000
PINS
1011
104.4806215048292
1021
317.0066926356065
1031
0.0
1002
}
1002
{
1000
PINS2
1011
291.4806215048292
1021
439.4086618663754
1031
0.0
1002
}
1002
{
1000
C
1070
     1
1002
}
1001
GENIUS_GENODEF_13
1002
{
1000
HIER
1070
     0
1002
}
1002
{
1000
MANEDIT
1070
     0
1002
}
1002
{
1000
NOSEL
1070
     0
1002
}
1002
{
1000
BEHIND
1070
     0
1002
}
1002
{
1000
OTHER
1070
     0
1002
}
1002
{
1000
REACTOR
1002
}
1001
GENIUS_GENOBJ-N-REC_13
1002
{
1000
OWNER
1000
GEN
1002
}
  0
SOLID
  5
195A
330
1F
100
AcDbEntity
  8
LOGO
 62
     5
100
AcDbTrace
 10
105.8914390203163
 20
311.1083532367261
 30
0.0
 11
106.4793821895451
 21
311.1083532367259
 31
0.0
 12
108.9325243783962
 22
316.6836763932062
 32
0.0
 13
109.5204675476253
 23
316.6836763932059
 33
0.0
  0
SOLID
  5
195B
330
1F
100
AcDbEntity
  8
LOGO
 62
     5
100
AcDbTrace
 10
106.7226690181921
 20
311.1083532367261
 30
0.0
 11
107.3106121874209
 21
311.1083532367261
 31
0.0
 12
109.5204675476253
 22
316.2376505406876
 32
0.0
 13
108.9325243783962
 23
314.081858920182
 33
0.0
  0
SOLID
  5
195C
330
1F
100
AcDbEntity
  8
LOGO
 62
     2
100
AcDbTrace
 10
106.4793821895451
 20
311.1083532367259
 30
0.0
 11
106.7226690181921
 21
311.1083532367261
 31
0.0
 12
109.5204675476253
 22
316.6836763932059
 32
0.0
 13
109.763754376272
 23
316.6836763932059
 33
0.0
  0
SOLID
  5
195D
330
1F
100
AcDbEntity
  8
LOGO
 62
     5
100
AcDbTrace
 10
104.9488219387162
 20
309.0809629980062
 30
0.0
 11
105.1515609625884
 21
309.0809629980062
 31
0.0
 12
105.7224898337565
 22
310.0946581173661
 32
0.0
 13
105.9252288576281
 23
310.0946581173661
 33
0.0
  0
SOLID
  5
195E
330
1F
100
AcDbEntity
  8
LOGO
 62
     5
100
AcDbTrace
 10
105.7224898337565
 20
310.0946581173661
 30
0.0
 11
105.9252288576281
 21
310.0946581173661
 31
0.0
 12
105.7224898337565
 22
309.0809629980062
 32
0.0
 13
105.9252288576281
 23
309.0809629980062
 33
0.0
  0
SOLID
  5
195F
330
1F
100
AcDbEntity
  8
LOGO
 62
     5
100
AcDbTrace
 10
105.7224898337565
 20
309.0809629980062
 30
0.0
 11
105.9252288576281
 21
309.0809629980062
 31
0.0
 12
106.4961577287971
 22
310.0946581173661
 32
0.0
 13
106.698896752669
 23
310.0946581173661
 33
0.0
  0
SOLID
  5
1960
330
1F
100
AcDbEntity
  8
LOGO
 62
     5
100
AcDbTrace
 10
106.4961577287971
 20
310.0946581173661
 30
0.0
 11
106.698896752669
 21
310.0946581173661
 31
0.0
 12
106.4961577287971
 22
309.0809629980062
 32
0.0
 13
106.698896752669
 23
309.0809629980062
 33
0.0
  0
POLYLINE
  5
1961
330
1F
100
AcDbEntity
  8
LOGO
 62
     5
100
AcDb2dPolyline
 66
     1
 10
0.0
 20
0.0
 30
0.0
 40
0.2030639261538461
 41
0.2030639261538461
  0
VERTEX
  5
1962
330
1961
100
AcDbEntity
  8
LOGO
 62
     5
100
AcDbVertex
100
AcDb2dVertex
 10
113.2919007450675
 20
309.6891800696221
 30
0.0
 42
1.0
  0
VERTEX
  5
1963
330
1961
100
AcDbEntity
  8
LOGO
 62
     5
100
AcDbVertex
100
AcDb2dVertex
 10
112.6827089666058
 20
309.6891800696221
 30
0.0
 42
1.0
  0
SEQEND
  5
1964
330
1961
100
AcDbEntity
  8
LOGO
 62
     5
  0
POLYLINE
  5
1965
330
1F
100
AcDbEntity
  8
LOGO
 62
     5
100
AcDb2dPolyline
 66
     1
 10
0.0
 20
0.0
 30
0.0
 70
     1
  0
VERTEX
  5
1966
330
1965
100
AcDbEntity
  8
LOGO
 62
     5
100
AcDbVertex
100
AcDb2dVertex
 10
111.5343553673552
 20
309.587810557686
 30
0.0
 42
1.000000057330635
  0
VERTEX
  5
1967
330
1965
100
AcDbEntity
  8
LOGO
 62
     5
100
AcDbVertex
100
AcDb2dVertex
 10
112.1425724389712
 20
309.587810557686
 30
0.0
 42
1.000000057330635
  0
SEQEND
  5
1968
330
1965
100
AcDbEntity
  8
LOGO
 62
     5
  0
CIRCLE
  5
1969
330
1F
100
AcDbEntity
  8
LOGO
 62
     5
100
AcDbCircle
 10
111.8384639031637
 20
309.587810557686
 30
0.0
 40
0.304108535808
  0
POLYLINE
  5
196A
330
1F
100
AcDbEntity
  8
LOGO
 62
     5
100
AcDb2dPolyline
 66
     1
 10
0.0
 20
0.0
 30
0.0
 70
     1
 40
0.2030639261538461
 41
0.2030639261538461
  0
VERTEX
  5
196B
330
196A
100
AcDbEntity
  8
LOGO
 62
     5
100
AcDbVertex
100
AcDb2dVertex
 10
111.4323360508557
 20
309.587810557686
 30
0.0
 42
1.0
  0
VERTEX
  5
196C
330
196A
100
AcDbEntity
  8
LOGO
 62
     5
100
AcDbVertex
100
AcDb2dVertex
 10
112.244591755471
 20
309.587810557686
 30
0.0
 42
1.0
  0
SEQEND
  5
196D
330
196A
100
AcDbEntity
  8
LOGO
 62
     5
  0
LINE
  5
196E
330
1F
100
AcDbEntity
  8
LOGO
100
AcDbLine
 10
113.3927829035803
 20
309.0809629980062
 30
0.0
 11
113.3927829035803
 21
309.6891800696221
 31
0.0
  0
SOLID
  5
196F
330
1F
100
AcDbEntity
  8
LOGO
 62
     5
100
AcDbTrace
 10
112.1425521650698
 20
310.0946581173661
 30
0.0
 11
112.3452911889413
 21
310.0946581173661
 31
0.0
 12
112.1425521650698
 22
309.0809629980062
 32
0.0
 13
112.3452911889413
 23
309.0809629980062
 33
0.0
  0
SOLID
  5
1970
330
1F
100
AcDbEntity
  8
LOGO
 62
     5
100
AcDbTrace
 10
112.5818268080924
 20
309.0809629980062
 30
0.0
 11
112.7845658319646
 21
309.0809629980062
 31
0.0
 12
112.5818268080924
 22
310.0946581173661
 32
0.0
 13
112.7845658319646
 23
310.0946581173661
 33
0.0
  0
SOLID
  5
1971
330
1F
100
AcDbEntity
  8
LOGO
 62
     5
100
AcDbTrace
 10
113.1900438797087
 20
309.6891800696221
 30
0.0
 11
113.3927829035803
 21
309.6891800696221
 31
0.0
 12
113.1900438797087
 22
309.0809629980062
 32
0.0
 13
113.3927829035803
 23
309.0809629980062
 33
0.0
  0
SOLID
  5
1972
330
1F
100
AcDbEntity
  8
LOGO
 62
     5
100
AcDbTrace
 10
112.5615529057051
 20
316.2376505406876
 30
0.0
 11
111.9736097364767
 21
314.081858920182
 31
0.0
 12
112.5615529057051
 22
311.1083532367259
 32
0.0
 13
111.9736097364767
 23
311.1083532367259
 33
0.0
  0
SOLID
  5
1973
330
1F
100
AcDbEntity
  8
LOGO
 62
     5
100
AcDbTrace
 10
112.8048397343519
 20
311.1083532367259
 30
0.0
 11
113.3927829035803
 21
311.1083532367259
 31
0.0
 12
112.8048397343519
 22
316.6836763932059
 32
0.0
 13
113.3927829035803
 23
316.6836763932062
 33
0.0
  0
SOLID
  5
1974
330
1F
100
AcDbEntity
  8
LOGO
 62
     2
100
AcDbTrace
 10
112.5615529057051
 20
316.6836763932062
 30
0.0
 11
112.8048397343519
 21
316.6836763932059
 31
0.0
 12
112.5615529057051
 22
311.1083532367259
 32
0.0
 13
112.8048397343519
 23
311.1083532367259
 33
0.0
  0
POLYLINE
  5
1975
330
1F
100
AcDbEntity
  8
LOGO
 62
     5
100
AcDb2dPolyline
 66
     1
 10
0.0
 20
0.0
 30
0.0
 40
0.2030639261538461
 41
0.2030639261538461
  0
VERTEX
  5
1976
330
1975
100
AcDbEntity
  8
LOGO
 62
     5
100
AcDbVertex
100
AcDb2dVertex
 10
110.3859612203006
 20
309.6891800696221
 30
0.0
 42
1.0
  0
VERTEX
  5
1977
330
1975
100
AcDbEntity
  8
LOGO
 62
     5
100
AcDbVertex
100
AcDb2dVertex
 10
109.776769441839
 20
309.6891800696221
 30
0.0
 42
1.0
  0
SEQEND
  5
1978
330
1975
100
AcDbEntity
  8
LOGO
 62
     5
  0
POLYLINE
  5
1979
330
1F
100
AcDbEntity
  8
LOGO
 62
     5
100
AcDb2dPolyline
 66
     1
 10
0.0
 20
0.0
 30
0.0
 40
0.2030639261538461
 41
0.2030639261538461
  0
VERTEX
  5
197A
330
1979
100
AcDbEntity
  8
LOGO
 62
     5
100
AcDbVertex
100
AcDb2dVertex
 10
110.994178291916
 20
309.6891800696221
 30
0.0
 42
1.0
  0
VERTEX
  5
197B
330
1979
100
AcDbEntity
  8
LOGO
 62
     5
100
AcDbVertex
100
AcDb2dVertex
 10
110.3849865134547
 20
309.6891800696221
 30
0.0
 42
1.0
  0
SEQEND
  5
197C
330
1979
100
AcDbEntity
  8
LOGO
 62
     5
  0
POLYLINE
  5
197D
330
1F
100
AcDbEntity
  8
LOGO
 62
     5
100
AcDb2dPolyline
 66
     1
 10
0.0
 20
0.0
 30
0.0
 40
0.2030639261538461
 41
0.2030639261538461
  0
VERTEX
  5
197E
330
197D
100
AcDbEntity
  8
LOGO
 62
     5
100
AcDbVertex
100
AcDb2dVertex
 10
108.0882387671492
 20
309.6891800696221
 30
0.0
 42
1.0
  0
VERTEX
  5
197F
330
197D
100
AcDbEntity
  8
LOGO
 62
     5
100
AcDbVertex
100
AcDb2dVertex
 10
107.4790469886878
 20
309.6891800696221
 30
0.0
 42
1.0
  0
SEQEND
  5
1980
330
197D
100
AcDbEntity
  8
LOGO
 62
     5
  0
SOLID
  5
1981
330
1F
100
AcDbEntity
  8
LOGO
 62
     5
100
AcDbTrace
 10
107.3781648301747
 20
310.0946581173661
 30
0.0
 11
107.5809038540463
 21
310.0946581173661
 31
0.0
 12
107.3781648301747
 22
309.0809629980062
 32
0.0
 13
107.5809038540463
 23
309.0809629980062
 33
0.0
  0
SOLID
  5
1982
330
1F
100
AcDbEntity
  8
LOGO
 62
     5
100
AcDbTrace
 10
107.9863819017907
 20
309.6891800696221
 30
0.0
 11
108.1891209256629
 21
309.6891800696221
 31
0.0
 12
107.9863819017907
 22
309.0809629980062
 32
0.0
 13
108.1891209256629
 23
309.0809629980062
 33
0.0
  0
POLYLINE
  5
1983
330
1F
100
AcDbEntity
  8
LOGO
 62
     5
100
AcDb2dPolyline
 66
     1
 10
0.0
 20
0.0
 30
0.0
 70
     1
 40
0.2030639261538461
 41
0.2030639261538461
  0
VERTEX
  5
1984
330
1983
100
AcDbEntity
  8
LOGO
 62
     5
100
AcDbVertex
100
AcDb2dVertex
 10
108.5263965260885
 20
309.587810557686
 30
0.0
 42
1.0
  0
VERTEX
  5
1985
330
1983
100
AcDbEntity
  8
LOGO
 62
     5
100
AcDbVertex
100
AcDb2dVertex
 10
109.3386522307042
 20
309.587810557686
 30
0.0
 42
1.0
  0
SEQEND
  5
1986
330
1983
100
AcDbEntity
  8
LOGO
 62
     5
  0
SOLID
  5
1987
330
1F
100
AcDbEntity
  8
LOGO
 62
     5
100
AcDbTrace
 10
109.2366126403022
 20
310.3987666531742
 30
0.0
 11
109.4393516641742
 21
310.3987666531742
 31
0.0
 12
109.2366126403022
 22
309.0809629980062
 32
0.0
 13
109.4393516641742
 23
309.0809629980062
 33
0.0
  0
SOLID
  5
1988
330
1F
100
AcDbEntity
  8
LOGO
 62
     5
100
AcDbTrace
 10
109.6758872833261
 20
310.0946581173661
 30
0.0
 11
109.8786263071977
 21
310.0946581173661
 31
0.0
 12
109.6758872833261
 22
309.0809629980062
 32
0.0
 13
109.8786263071977
 23
309.0809629980062
 33
0.0
  0
SOLID
  5
1989
330
1F
100
AcDbEntity
  8
LOGO
 62
     5
100
AcDbTrace
 10
110.2841043549416
 20
309.6891800696221
 30
0.0
 11
110.4868433788138
 21
309.6891800696221
 31
0.0
 12
110.2841043549416
 22
309.0809629980062
 32
0.0
 13
110.4868433788138
 23
309.0809629980062
 33
0.0
  0
SOLID
  5
198A
330
1F
100
AcDbEntity
  8
LOGO
 62
     5
100
AcDbTrace
 10
110.8923214265576
 20
309.6891800696221
 30
0.0
 11
111.0950604504295
 21
309.6891800696221
 31
0.0
 12
110.8923214265576
 22
309.0809629980059
 32
0.0
 13
111.0950604504295
 23
309.0809629980059
 33
0.0
  0
SOLID
  5
198B
330
1F
100
AcDbEntity
  8
LOGO
 62
     5
100
AcDbTrace
 10
106.9388901871511
 20
310.2365754340766
 30
0.0
 11
107.1416292110236
 21
310.2365754340766
 31
0.0
 12
106.9388901871511
 22
310.3987666531742
 32
0.0
 13
107.1416292110236
 23
310.3987666531742
 33
0.0
  0
SOLID
  5
198C
330
1F
100
AcDbEntity
  8
LOGO
 62
     5
100
AcDbTrace
 10
106.9388901871511
 20
310.0946581173661
 30
0.0
 11
107.1416292110236
 21
310.0946581173661
 31
0.0
 12
106.9388901871511
 22
309.0809629980059
 32
0.0
 13
107.1416292110236
 23
309.0809629980062
 33
0.0
  0
SOLID
  5
198D
330
1F
100
AcDbEntity
  8
LOGO
 62
     5
100
AcDbTrace
 10
108.9325243783962
 20
311.1083532367261
 30
0.0
 11
109.5204675476253
 21
311.1083532367261
 31
0.0
 12
108.9325243783962
 22
314.081858920182
 32
0.0
 13
109.5204675476253
 23
316.2376505406876
 33
0.0
  0
SOLID
  5
198E
330
1F
100
AcDbEntity
  8
LOGO
 62
     5
100
AcDbTrace
 10
109.763754376272
 20
316.6836763932059
 30
0.0
 11
110.3516975455005
 21
316.6836763932062
 31
0.0
 12
109.763754376272
 22
311.5543790892444
 32
0.0
 13
110.3516975455005
 23
313.71017070975
 33
0.0
  0
SOLID
  5
198F
330
1F
100
AcDbEntity
  8
LOGO
 62
     2
100
AcDbTrace
 10
109.5204675476253
 20
316.6836763932059
 30
0.0
 11
109.763754376272
 21
316.6836763932059
 31
0.0
 12
109.5204675476253
 22
311.1083532367261
 32
0.0
 13
109.763754376272
 23
311.1083532367261
 33
0.0
  0
SOLID
  5
1990
330
1F
100
AcDbEntity
  8
LOGO
 62
     5
100
AcDbTrace
 10
109.763754376272
 20
311.5543790892444
 30
0.0
 11
110.3516975455005
 21
313.71017070975
 31
0.0
 12
112.5615529057051
 22
316.6836763932062
 32
0.0
 13
111.9736097364767
 23
316.6836763932062
 33
0.0
  0
SOLID
  5
1991
330
1F
100
AcDbEntity
  8
LOGO
 62
     5
100
AcDbTrace
 10
109.763754376272
 20
311.1083532367261
 30
0.0
 11
110.3516975455005
 21
311.1083532367261
 31
0.0
 12
112.5615529057051
 22
316.2376505406876
 32
0.0
 13
111.9736097364767
 23
314.081858920182
 33
0.0
  0
SOLID
  5
1992
330
1F
100
AcDbEntity
  8
LOGO
 62
     2
100
AcDbTrace
 10
109.5204675476253
 20
311.1083532367261
 30
0.0
 11
109.763754376272
 21
311.1083532367261
 31
0.0
 12
112.5615529057051
 22
316.6836763932062
 32
0.0
 13
112.8048397343519
 23
316.6836763932059
 33
0.0
  0
LWPOLYLINE
  5
1993
330
1F
100
AcDbEntity
  8
LOGO
 62
     4
100
AcDbPolyline
 90
        4
 70
     1
 43
0.0
 10
104.4806215048292
 20
317.0066926356065
 10
291.4806215048292
 20
317.0066926356065
 10
291.4806215048292
 20
303.4086618663755
 10
104.4806215048292
 20
303.4086618663755
1001
GENIUS_GENREC_14
1002
{
1000
PYDIR
1011
104.4806215048292
1021
303.4086618663755
1031
0.0
1002
}
1002
{
1000
PXDIR
1011
291.4806215048292
1021
317.0066926356065
1031
0.0
1002
}
1002
{
1000
PORI
1011
104.4806215048292
1021
317.0066926356065
1031
0.0
1002
}
1002
{
1000
PINS
1011
104.4806215048292
1021
317.0066926356065
1031
0.0
1002
}
1002
{
1000
PINS2
1011
291.4806215048292
1021
303.4086618663755
1031
0.0
1002
}
1002
{
1000
C
1070
     1
1002
}
1001
GENIUS_GENOBJ-N-REC_13
1002
{
1000
OWNER
1000
GEN
1002
}
1001
GENIUS_GENODEF_13
1002
{
1000
HIER
1070
     0
1002
}
1002
{
1000
MANEDIT
1070
     0
1002
}
1002
{
1000
NOSEL
1070
     0
1002
}
1002
{
1000
BEHIND
1070
     0
1002
}
1002
{
1000
OTHER
1070
     0
1002
}
1002
{
1000
REACTOR
1002
}
  0
LINE
  5
1994
330
1F
100
AcDbEntity
  8
LOGO
 62
     4
100
AcDbLine
 10
162.1651308551249
 20
309.5277757125298
 30
0.0
 11
162.1651308551249
 21
304.5418310971448
 31
0.0
  0
LINE
  5
1995
330
1F
100
AcDbEntity
  8
LOGO
 62
     4
100
AcDbLine
 10
153.099777008971
 20
309.5277757125298
 30
0.0
 11
153.099777008971
 21
304.5418310971448
 31
0.0
  0
LINE
  5
1996
330
1F
100
AcDbEntity
  8
LOGO
 62
     4
100
AcDbLine
 10
162.1651308551249
 20
304.5418310971448
 30
0.0
 11
153.099777008971
 21
304.5418310971448
 31
0.0
  0
LINE
  5
1997
330
1F
100
AcDbEntity
  8
LOGO
 62
     4
100
AcDbLine
 10
163.7910984095264
 20
315.6468895586834
 30
0.0
 11
153.099777008971
 21
315.6468895586834
 31
0.0
  0
LINE
  5
1998
330
1F
100
AcDbEntity
  8
LOGO
 62
     4
100
AcDbLine
 10
163.7910984095264
 20
311.5674803279142
 30
0.0
 11
153.099777008971
 21
311.5674803279142
 31
0.0
  0
LINE
  5
1999
330
1F
100
AcDbEntity
  8
LOGO
 62
     4
100
AcDbLine
 10
153.099777008971
 20
315.6468895586834
 30
0.0
 11
153.099777008971
 21
311.5674803279142
 31
0.0
  0
LINE
  5
199A
330
1F
100
AcDbEntity
  8
LOGO
 62
     4
100
AcDbLine
 10
163.7910984095264
 20
315.6468895586834
 30
0.0
 11
163.7910984095264
 21
311.5674803279142
 31
0.0
  0
LINE
  5
199B
330
1F
100
AcDbEntity
  8
LOGO
 62
     4
100
AcDbLine
 10
158.1054377092487
 20
311.5674803279142
 30
0.0
 11
158.1054377092487
 21
309.5277757125298
 31
0.0
  0
TEXT
  5
199C
330
1F
100
AcDbEntity
  8
LOGO
  6
Continuous
 62
     7
100
AcDbText
 10
154.6348418579491
 20
312.4190510407416
 30
0.0
 40
2.38
  1
RCE1
  7
CHINESET
100
AcDbText
  0
LINE
  5
199D
330
1F
100
AcDbEntity
  8
LOGO
 62
     4
100
AcDbLine
 10
162.1651308551249
 20
309.5277757125298
 30
0.0
 11
153.099777008971
 21
309.5277757125298
 31
0.0
  0
TEXT
  5
199E
330
1F
100
AcDbEntity
  8
LOGO
  6
Continuous
100
AcDbText
 10
156.0088203577282
 20
305.2455866066653
 30
89.11925351683386
 40
1.02
  1
Model
 41
0.8
  7
CHINESET
100
AcDbText
  0
TEXT
  5
199F
330
1F
100
AcDbEntity
  8
LOGO
100
AcDbText
 10
155.7373295158888
 20
307.1364467809758
 30
89.11925351683386
 40
1.7
  1
型號
  7
CHINESET
100
AcDbText
  0
TEXT
  5
19D3
330
1F
100
AcDbEntity
  8
LOGO
100
AcDbText
 10
134.8450000658452
 20
304.1320717362422
 30
0.0
 40
1.36
  1
20808262
 41
0.7
  7
CHINESET
 72
     1
 11
138.3356667325119
 21
304.1320717362422
 31
0.0
100
AcDbText
  0
LINE
  5
19D4
330
1F
100
AcDbEntity
  8
LOGO
 62
     4
100
AcDbLine
 10
142.5562891971363
 20
306.1282680202221
 30
0.0
 11
142.5562891971369
 21
303.4086618663758
 31
0.0
  0
LINE
  5
19D5
330
1F
100
AcDbEntity
  8
LOGO
 62
     4
100
AcDbLine
 10
142.5562891971363
 20
306.1282680202221
 30
0.0
 11
134.3962891971369
 21
306.1282680202221
 31
0.0
  0
CIRCLE
  5
19D6
330
1F
100
AcDbEntity
  8
LOGO
  6
Continuous
100
AcDbCircle
 10
127.8487808293863
 20
312.9301920335696
 30
0.0
 40
0.7895336726180294
  0
CIRCLE
  5
19D7
330
1F
100
AcDbEntity
  8
LOGO
  6
Continuous
100
AcDbCircle
 10
127.8487808293863
 20
312.9301920335696
 30
0.0
 40
0.4625968386926062
  0
LINE
  5
19D8
330
1F
100
AcDbEntity
  8
LOGO
100
AcDbLine
 10
132.8103020417311
 20
312.1406583609514
 30
0.0
 11
132.8103020417311
 21
313.7197257061878
 31
0.0
  0
LINE
  5
19D9
330
1F
100
AcDbEntity
  8
LOGO
100
AcDbLine
 10
130.335159299469
 20
312.4675951948771
 30
0.0
 11
130.335159299469
 21
313.3927888722623
 31
0.0
  0
LINE
  5
19DA
330
1F
100
AcDbEntity
  8
LOGO
  6
Continuous
100
AcDbLine
 10
130.335159299469
 20
313.3927888722623
 30
0.0
 11
132.8103020417311
 21
313.7197257061878
 31
0.0
  0
LINE
  5
19DB
330
1F
100
AcDbEntity
  8
LOGO
  6
Continuous
100
AcDbLine
 10
130.335159299469
 20
312.4675951948771
 30
0.0
 11
132.8103020417311
 21
312.1406583609514
 31
0.0
  0
LINE
  5
19DC
330
1F
100
AcDbEntity
  8
LOGO
  6
AM_ISO08W050x2
 48
0.3
100
AcDbLine
 10
126.7603968393465
 20
312.9301920335696
 30
0.0
 11
128.937164819426
 21
312.9301920335696
 31
0.0
1001
GENIUS_GENOREF_13
1005
19E1
  0
LINE
  5
19DD
330
1F
100
AcDbEntity
  8
LOGO
  6
AM_ISO08W050x2
 48
0.3
100
AcDbLine
 10
127.8487808293863
 20
311.8418080435299
 30
0.0
 11
127.8487808293863
 21
314.0185760236093
 31
0.0
1001
GENIUS_GENOREF_13
1005
19E0
  0
LINE
  5
19DE
330
1F
100
AcDbEntity
  8
LOGO
  6
CENTER
 48
0.5
100
AcDbLine
 10
130.1372166763587
 20
312.9301920335696
 30
0.0
 11
133.0595409034267
 21
312.9301920335696
 31
0.0
1001
GENIUS_GENOREF_13
1005
19DF
  0
POINT
  5
19DF
330
1F
100
AcDbEntity
  8
0
 60
     1
100
AcDbPoint
 10
-1987.641919368515
 20
-658.2617054303233
 30
0.0
1001
GENIUS_GENOBJ-N-CRS_13
1002
{
1000
OWNER
1000
GEN
1002
}
1001
GENIUS_GENOLIS_13
1002
{
1000
ENT
1005
0
1005
0
1005
0
1005
19DE
1002
}
1001
GENIUS_GENOENT_13
1002
{
1000
MYREF
1005
19DF
1002
}
1002
{
1000
GRP
1005
0
1002
}
1001
GENIUS_GENODEF_13
1002
{
1000
HIER
1070
    10
1002
}
1002
{
1000
MANEDIT
1070
     1
1002
}
1002
{
1000
NOSEL
1070
     0
1002
}
1002
{
1000
BEHIND
1070
     0
1002
}
1002
{
1000
OTHER
1070
     0
1002
}
1002
{
1000
REACTOR
1002
}
  0
POINT
  5
19E0
330
1F
100
AcDbEntity
  8
0
 60
     1
100
AcDbPoint
 10
-1998.966504591369
 20
-649.386118951687
 30
0.0
1001
GENIUS_GENOBJ-N-CRS_13
1002
{
1000
OWNER
1000
GEN
1002
}
1001
GENIUS_GENOLIS_13
1002
{
1000
ENT
1005
0
1005
0
1005
0
1005
19DD
1002
}
1001
GENIUS_GENOENT_13
1002
{
1000
MYREF
1005
19E0
1002
}
1002
{
1000
GRP
1005
0
1002
}
1001
GENIUS_GENODEF_13
1002
{
1000
HIER
1070
    10
1002
}
1002
{
1000
MANEDIT
1070
     1
1002
}
1002
{
1000
NOSEL
1070
     0
1002
}
1002
{
1000
BEHIND
1070
     0
1002
}
1002
{
1000
OTHER
1070
     0
1002
}
1002
{
1000
REACTOR
1002
}
  0
POINT
  5
19E1
330
1F
100
AcDbEntity
  8
0
 60
     1
100
AcDbPoint
 10
-1992.607830893533
 20
-658.2617054303233
 30
0.0
1001
GENIUS_GENOBJ-N-CRS_13
1002
{
1000
OWNER
1000
GEN
1002
}
1001
GENIUS_GENOLIS_13
1002
{
1000
ENT
1005
0
1005
0
1005
0
1005
19DC
1002
}
1001
GENIUS_GENOENT_13
1002
{
1000
MYREF
1005
19E1
1002
}
1002
{
1000
GRP
1005
0
1002
}
1001
GENIUS_GENODEF_13
1002
{
1000
HIER
1070
    10
1002
}
1002
{
1000
MANEDIT
1070
     1
1002
}
1002
{
1000
NOSEL
1070
     0
1002
}
1002
{
1000
BEHIND
1070
     0
1002
}
1002
{
1000
OTHER
1070
     0
1002
}
1002
{
1000
REACTOR
1002
}
  0
LINE
  5
1EC8
330
1F
100
AcDbEntity
  8
0
370
     9
100
AcDbLine
 10
210.1266304860912
 20
358.2123794379555
 30
0.0
 11
210.1266304860912
 21
359.2123794379555
 31
0.0
  0
LINE
  5
1EC9
330
1F
100
AcDbEntity
  8
0
370
     9
100
AcDbLine
 10
210.1266304860912
 20
388.7850077364961
 30
0.0
 11
210.1266304860912
 21
392.8837880428711
 31
0.0
  0
LINE
  5
1ECA
330
1F
100
AcDbEntity
  8
0
370
     9
100
AcDbLine
 10
214.1266304860912
 20
389.2843978896711
 30
0.0
 11
214.1266304860912
 21
392.3843978896711
 31
0.0
  0
LINE
  5
1ECB
330
1F
100
AcDbEntity
  8
0
370
     9
100
AcDbLine
 10
232.1266304860913
 20
388.7843978896711
 30
0.0
 11
210.1266304860912
 21
388.7850077364961
 31
0.0
  0
LINE
  5
1ECC
330
1F
100
AcDbEntity
  8
0
370
     9
100
AcDbLine
 10
232.1266304860913
 20
389.2843978896711
 30
0.0
 11
210.1266304860912
 21
389.2843978896711
 31
0.0
  0
LINE
  5
1ECD
330
1F
100
AcDbEntity
  8
0
370
     9
100
AcDbLine
 10
224.3266304860912
 20
390.1343978896711
 30
0.0
 11
226.1266304860912
 21
390.1343978896711
 31
0.0
  0
LINE
  5
1ECE
330
1F
100
AcDbEntity
  8
0
370
     9
100
AcDbLine
 10
226.1266304860912
 20
391.5343978896712
 30
0.0
 11
224.3266304860912
 21
391.5343978896712
 31
0.0
  0
LINE
  5
1ECF
330
1F
100
AcDbEntity
  8
0
370
     9
100
AcDbLine
 10
210.1266304860912
 20
392.3843978896711
 30
0.0
 11
232.1266304860913
 21
392.3843978896711
 31
0.0
  0
LINE
  5
1ED0
330
1F
100
AcDbEntity
  8
0
370
     9
100
AcDbLine
 10
232.1266304860913
 20
392.8843978896711
 30
0.0
 11
210.1266304860912
 21
392.8837880428711
 31
0.0
  0
LINE
  5
1ED1
330
1F
100
AcDbEntity
  8
0
370
     9
100
AcDbLine
 10
223.8266304860912
 20
391.0343978896711
 30
0.0
 11
223.8266304860912
 21
390.6343978896711
 31
0.0
  0
LINE
  5
1ED2
330
1F
100
AcDbEntity
  8
0
370
     9
100
AcDbLine
 10
226.6266304860912
 20
390.6343978896711
 30
0.0
 11
226.6266304860912
 21
391.0343978896711
 31
0.0
  0
LINE
  5
1ED3
330
1F
100
AcDbEntity
  8
0
370
     9
100
AcDbLine
 10
232.1266304860913
 20
388.7843978896711
 30
0.0
 11
232.1266304860913
 21
392.8843978896711
 31
0.0
  0
ARC
  5
1ED4
330
1F
100
AcDbEntity
  8
0
370
     9
100
AcDbCircle
 10
224.3266304860912
 20
390.6343978896711
 30
0.0
 40
0.5
100
AcDbArc
 50
180.0
 51
270.0
  0
ARC
  5
1ED5
330
1F
100
AcDbEntity
  8
0
370
     9
100
AcDbCircle
 10
224.3266304860912
 20
391.0343978896711
 30
0.0
 40
0.5
100
AcDbArc
 50
90.0
 51
180.0
  0
ARC
  5
1ED6
330
1F
100
AcDbEntity
  8
0
370
     9
100
AcDbCircle
 10
226.1266304860912
 20
391.0343978896711
 30
0.0
 40
0.5
100
AcDbArc
 50
0.0
 51
90.0
  0
ARC
  5
1ED7
330
1F
100
AcDbEntity
  8
0
370
     9
100
AcDbCircle
 10
226.1266304860912
 20
390.6343978896711
 30
0.0
 40
0.5
100
AcDbArc
 50
270.0
 51
0.0
  0
CIRCLE
  5
1ED8
330
1F
100
AcDbEntity
  8
0
370
     9
100
AcDbCircle
 10
212.1266304860912
 20
390.8343978896711
 30
0.0
 40
1.3
  0
LINE
  5
1ED9
330
1F
100
AcDbEntity
  8
0
370
     9
100
AcDbLine
 10
210.1266304860912
 20
355.2123794379555
 30
0.0
 11
210.1266304860912
 21
357.2123794379555
 31
0.0
  0
LINE
  5
1EDA
330
1F
100
AcDbEntity
  8
0
370
     9
100
AcDbLine
 10
214.1266304860912
 20
357.2123794379555
 30
0.0
 11
214.1266304860912
 21
358.2123794379555
 31
0.0
  0
LINE
  5
1EDB
330
1F
100
AcDbEntity
  8
0
370
     9
100
AcDbLine
 10
214.1266304860912
 20
359.2123794379555
 30
0.0
 11
214.1266304860912
 21
359.8623794379555
 31
0.0
  0
LINE
  5
1EDC
330
1F
100
AcDbEntity
  8
DEFAULT_2
 48
3.0
370
     9
100
AcDbLine
 10
213.4268795069413
 20
355.2123794379555
 30
0.0
 11
213.4211502694662
 21
355.2123794379555
 31
0.0
  0
LINE
  5
1EDD
330
1F
100
AcDbEntity
  8
0
370
     9
100
AcDbLine
 10
232.1266304860913
 20
355.2123794379555
 30
0.0
 11
213.4268795069413
 21
355.2123794379555
 31
0.0
  0
LINE
  5
1EDE
330
1F
100
AcDbEntity
  8
DEFAULT_2
 48
3.0
370
     9
100
AcDbLine
 10
210.8321104904163
 20
355.2123794379555
 30
0.0
 11
210.8263794688663
 21
355.2123794379555
 31
0.0
  0
LINE
  5
1EDF
330
1F
100
AcDbEntity
  8
0
370
     9
100
AcDbLine
 10
210.8263794688663
 20
355.2123794379555
 30
0.0
 11
210.1266304860912
 21
355.2123794379555
 31
0.0
  0
LINE
  5
1EE0
330
1F
100
AcDbEntity
  8
0
370
     9
100
AcDbLine
 10
214.1266304860912
 20
357.2123794379555
 30
0.0
 11
210.1266304860912
 21
357.2123794379555
 31
0.0
  0
LINE
  5
1EE1
330
1F
100
AcDbEntity
  8
0
370
     9
100
AcDbLine
 10
214.1266304860912
 20
358.2123794379555
 30
0.0
 11
210.1266304860912
 21
358.2123794379555
 31
0.0
  0
LINE
  5
1EE2
330
1F
100
AcDbEntity
  8
0
370
     9
100
AcDbLine
 10
214.1266304860912
 20
359.2123794379555
 30
0.0
 11
210.1266304860912
 21
359.2123794379555
 31
0.0
  0
LINE
  5
1EE3
330
1F
100
AcDbEntity
  8
0
370
     9
100
AcDbLine
 10
232.1266304860913
 20
359.8623794379555
 30
0.0
 11
214.1266304860912
 21
359.8623794379555
 31
0.0
  0
LINE
  5
1EE4
330
1F
100
AcDbEntity
  8
0
370
     9
100
AcDbLine
 10
232.1266304860913
 20
355.2123794379555
 30
0.0
 11
232.1266304860913
 21
359.8623794379555
 31
0.0
  0
SPLINE
  5
1EE5
330
1F
100
AcDbEntity
  8
DEFAULT_2
 48
3.0
370
     9
100
AcDbSpline
210
0.0
220
0.0
230
1.0
 70
     8
 71
     3
 72
     8
 73
     4
 74
     2
 42
0.0000000001
 43
0.0000000001
 44
0.0000000001
 12
0.8451040590166007
 22
-0.5346018419662112
 32
0.0
 13
-0.4827628273608195
 23
-0.8757511361788735
 33
0.0
 40
0.0
 40
0.0
 40
0.0
 40
0.0
 40
0.0042563040375708
 40
0.0042563040375708
 40
0.0042563040375708
 40
0.0042563040375708
 10
213.4212968847663
 20
355.2157575667055
 30
0.0
 10
213.4224958913724
 20
355.2149990907127
 30
0.0
 10
213.4255750176984
 20
355.2147186062545
 30
0.0
 10
213.4248900892413
 20
355.2134761185556
 30
0.0
 11
213.4212968847663
 21
355.2157575667055
 31
0.0
 11
213.4248900892413
 21
355.2134761185556
 31
0.0
  0
SPLINE
  5
1EE6
330
1F
100
AcDbEntity
  8
DEFAULT_2
 48
3.0
370
     9
100
AcDbSpline
210
0.0
220
0.0
230
1.0
 70
     8
 71
     3
 72
     9
 73
     5
 74
     3
 42
0.0000000001
 43
0.0000000001
 44
0.0000000001
 12
0.8463944276438681
 22
-0.5325565442780786
 32
0.0
 13
0.8451040591771674
 23
-0.5346018417123855
 33
0.0
 40
0.0
 40
0.0
 40
0.0
 40
0.0
 40
0.0133048527678038
 40
0.0136565857312039
 40
0.0136565857312039
 40
0.0136565857312039
 40
0.0136565857312039
 10
213.4097468713663
 20
355.2230445082805
 30
0.0
 10
213.4135005891141
 20
355.2206826461431
 30
0.0
 10
213.4173506463442
 20
355.2182537373338
 30
0.0
 10
213.4211978011145
 20
355.2158202457355
 30
0.0
 10
213.4212968847663
 20
355.2157575667055
 30
0.0
 11
213.4097468713663
 21
355.2230445082805
 31
0.0
 11
213.4209996279663
 21
355.2159455945556
 31
0.0
 11
213.4212968847663
 21
355.2157575667055
 31
0.0
  0
SPLINE
  5
1EE7
330
1F
100
AcDbEntity
  8
DEFAULT_2
 48
3.0
370
     9
100
AcDbSpline
210
0.0
220
0.0
230
1.0
 70
     8
 71
     3
 72
     8
 73
     4
 74
     2
 42
0.0000000001
 43
0.0000000001
 44
0.0000000001
 12
0.8503474161623728
 22
-0.5262216945603598
 32
0.0
 13
0.8463944273434156
 23
-0.5325565447555892
 33
0.0
 40
0.0
 40
0.0
 40
0.0
 40
0.0
 40
0.0404157878553768
 40
0.0404157878553768
 40
0.0404157878553768
 40
0.0404157878553768
 10
213.3754596676162
 20
355.2444413203555
 30
0.0
 10
213.3869154878746
 20
355.2373520988981
 30
0.0
 10
213.3983443054938
 20
355.2302190723918
 30
0.0
 10
213.4097468713663
 20
355.2230445082805
 30
0.0
 11
213.3754596676162
 21
355.2444413203555
 31
0.0
 11
213.4097468713663
 21
355.2230445082805
 31
0.0
  0
SPLINE
  5
1EE8
330
1F
100
AcDbEntity
  8
DEFAULT_2
 48
3.0
370
     9
100
AcDbSpline
210
0.0
220
0.0
230
1.0
 70
     8
 71
     3
 72
     9
 73
     5
 74
     3
 42
0.0000000001
 43
0.0000000001
 44
0.0000000001
 12
0.8552296572215571
 22
-0.5182492001042528
 32
0.0
 13
0.850347415962007
 23
-0.5262216948841403
 33
0.0
 40
0.0
 40
0.0
 40
0.0
 40
0.0
 40
0.0477726951224259
 40
0.0484723475705459
 40
0.0484723475705459
 40
0.0484723475705459
 40
0.0484723475705459
 10
213.3341235820412
 20
355.2697572400555
 30
0.0
 10
213.3477424572659
 20
355.2615045197109
 30
0.0
 10
213.3615213481004
 20
355.2530655398623
 30
0.0
 10
213.3752613517324
 20
355.2445640444545
 30
0.0
 10
213.3754596676162
 20
355.2444413203555
 30
0.0
 11
213.3341235820412
 21
355.2697572400555
 31
0.0
 11
213.3748646957412
 21
355.2448094535055
 31
0.0
 11
213.3754596676162
 21
355.2444413203555
 31
0.0
  0
SPLINE
  5
1EE9
330
1F
100
AcDbEntity
  8
DEFAULT_2
 48
3.0
370
     9
100
AcDbSpline
210
0.0
220
0.0
230
1.0
 70
     8
 71
     3
 72
     8
 73
     4
 74
     2
 42
0.0000000001
 43
0.0000000001
 44
0.0000000001
 12
0.8611800650454982
 22
-0.5083000054773084
 32
0.0
 13
0.8552296571131487
 23
-0.5182492002831518
 33
0.0
 40
0.0
 40
0.0
 40
0.0
 40
0.0
 40
0.0566400607814138
 40
0.0566400607814138
 40
0.0566400607814138
 40
0.0566400607814138
 10
213.2855158779412
 20
355.2988327897056
 30
0.0
 10
213.3017749750172
 20
355.2892360753038
 30
0.0
 10
213.3179768287876
 20
355.2795417954568
 30
0.0
 10
213.3341235820412
 20
355.2697572400555
 30
0.0
 11
213.2855158779412
 21
355.2988327897056
 31
0.0
 11
213.3341235820412
 21
355.2697572400555
 31
0.0
  0
SPLINE
  5
1EEA
330
1F
100
AcDbEntity
  8
DEFAULT_2
 48
3.0
370
     9
100
AcDbSpline
210
0.0
220
0.0
230
1.0
 70
     8
 71
     3
 72
     8
 73
     4
 74
     2
 42
0.0000000001
 43
0.0000000001
 44
0.0000000001
 12
0.8723631686130687
 22
-0.4888583660400698
 32
0.0
 13
0.8611800650241567
 23
-0.5083000055134658
 33
0.0
 40
0.0
 40
0.0
 40
0.0
 40
0.0
 40
0.0996228846692156
 40
0.0996228846692156
 40
0.0996228846692156
 40
0.0996228846692156
 10
213.1991711298662
 20
355.3485248779056
 30
0.0
 10
213.228140241645
 20
355.3322910510323
 30
0.0
 10
213.2569181305088
 20
355.3157122273144
 30
0.0
 10
213.2855158779412
 20
355.2988327897056
 30
0.0
 11
213.1991711298662
 21
355.3485248779056
 31
0.0
 11
213.2855158779412
 21
355.2988327897056
 31
0.0
  0
SPLINE
  5
1EEB
330
1F
100
AcDbEntity
  8
DEFAULT_2
 48
3.0
370
     9
100
AcDbSpline
210
0.0
220
0.0
230
1.0
 70
     8
 71
     3
 72
     8
 73
     4
 74
     2
 42
0.0000000001
 43
0.0000000001
 44
0.0000000001
 12
0.8780554361215246
 22
-0.4785589316870382
 32
0.0
 13
0.8723631685932144
 23
-0.4888583660754997
 33
0.0
 40
0.0
 40
0.0
 40
0.0
 40
0.0
 40
0.0481156330958711
 40
0.0481156330958711
 40
0.0481156330958711
 40
0.0481156330958711
 10
213.1570603090663
 20
355.3718013235056
 30
0.0
 10
213.1711430401337
 20
355.3641259348483
 30
0.0
 10
213.1851796944841
 20
355.3563654544982
 30
0.0
 10
213.1991711298662
 20
355.3485248779056
 30
0.0
 11
213.1570603090663
 21
355.3718013235056
 31
0.0
 11
213.1991711298662
 21
355.3485248779056
 31
0.0
  0
SPLINE
  5
1EEC
330
1F
100
AcDbEntity
  8
DEFAULT_2
 48
3.0
370
     9
100
AcDbSpline
210
0.0
220
0.0
230
1.0
 70
     8
 71
     3
 72
     8
 73
     4
 74
     2
 42
0.0000000001
 43
0.0000000001
 44
0.0000000001
 12
0.9012224301243982
 22
-0.4333568176926195
 32
0.0
 13
0.8780554361692239
 23
-0.4785589315995199
 33
0.0
 40
0.0
 40
0.0
 40
0.0
 40
0.0
 40
0.1811959148087327
 40
0.1811959148087327
 40
0.1811959148087327
 40
0.1811959148087327
 10
212.9958836346662
 20
355.4545904482306
 30
0.0
 10
213.0503162422238
 20
355.4284162865571
 30
0.0
 10
213.1040269563964
 20
355.4007056313059
 30
0.0
 10
213.1570603090663
 20
355.3718013235056
 30
0.0
 11
212.9958836346662
 21
355.4545904482306
 31
0.0
 11
213.1570603090663
 21
355.3718013235056
 31
0.0
  0
SPLINE
  5
1EED
330
1F
100
AcDbEntity
  8
DEFAULT_2
 48
3.0
370
     9
100
AcDbSpline
210
0.0
220
0.0
230
1.0
 70
     8
 71
     3
 72
    17
 73
    13
 74
    11
 42
0.0000000001
 43
0.0000000001
 44
0.0000000001
 12
0.90122243013781
 22
-0.4333568176647279
 32
0.0
 13
-0.9105379044594389
 23
0.4134255973480763
 33
0.0
 40
0.0
 40
0.0
 40
0.0
 40
0.0
 40
0.1808831682744341
 40
0.3282159909079351
 40
0.4333410578519846
 40
0.4877612225420303
 40
0.4881129555054304
 40
0.5418469123320607
 40
0.6468376499834357
 40
0.7948067722028683
 40
0.9763473929968663
 40
1.042662834615957
 40
1.042662834615957
 40
1.042662834615957
 40
1.042662834615957
 10
212.9958836346662
 20
355.4545904482306
 30
0.0
 10
213.0502222908274
 20
355.4284614635064
 30
0.0
 10
213.1475245483194
 20
355.3782662394168
 30
0.0
 10
213.273013363417
 20
355.3068459267191
 30
0.0
 10
213.3606852304799
 20
355.2537914733166
 30
0.0
 10
213.4056588403545
 20
355.2256493183335
 30
0.0
 10
213.4364450979071
 20
355.2061756632582
 30
0.0
 10
213.3335779319027
 20
355.2709492202397
 30
0.0
 10
213.2873973209537
 20
355.2977916175121
 30
0.0
 10
213.1426222465797
 20
355.3813839751715
 30
0.0
 10
213.0312732132073
 20
355.4382904151601
 30
0.0
 10
212.9557977919063
 20
355.4735272752673
 30
0.0
 10
212.9356702174912
 20
355.4826661089555
 30
0.0
 11
212.9958836346662
 21
355.4545904482306
 31
0.0
 11
213.1567856120662
 21
355.3719510252305
 31
0.0
 11
213.2849011854662
 21
355.2991955410555
 31
0.0
 11
213.3748646957412
 21
355.2448094535055
 31
0.0
 11
213.4209996279663
 21
355.2159455945556
 31
0.0
 11
213.4212968847663
 21
355.2157575667055
 31
0.0
 11
213.3757473191412
 21
355.2442632711806
 31
0.0
 11
213.2859107714412
 21
355.2985997201805
 31
0.0
 11
213.1572561736662
 21
355.3716945599555
 31
0.0
 11
212.9957739150662
 21
355.4546432016305
 31
0.0
 11
212.9356702174912
 21
355.4826661089555
 31
0.0
  0
SPLINE
  5
1EEE
330
1F
100
AcDbEntity
  8
DEFAULT_2
 48
3.0
370
     9
100
AcDbSpline
210
0.0
220
0.0
230
1.0
 70
     8
 71
     3
 72
     8
 73
     4
 74
     2
 42
0.0000000001
 43
0.0000000001
 44
0.0000000001
 12
-0.9105379044383077
 22
0.4134255973946159
 32
0.0
 13
-0.930278090247515
 23
0.3668551141873809
 33
0.0
 40
0.0
 40
0.0
 40
0.0
 40
0.0
 40
0.1423873582816907
 40
0.1423873582816907
 40
0.1423873582816907
 40
0.1423873582816907
 10
212.9356702174912
 20
355.4826661089555
 30
0.0
 10
212.8924538552151
 20
355.5022883018419
 30
0.0
 10
212.8487868443039
 20
355.5209638278284
 30
0.0
 10
212.8046335643913
 20
355.5383756713555
 30
0.0
 11
212.9356702174912
 21
355.4826661089555
 31
0.0
 11
212.8046335643913
 21
355.5383756713555
 31
0.0
  0
SPLINE
  5
1EEF
330
1F
100
AcDbEntity
  8
DEFAULT_2
 48
3.0
370
     9
100
AcDbSpline
210
0.0
220
0.0
230
1.0
 70
     8
 71
     3
 72
    19
 73
    15
 74
    13
 42
0.0000000001
 43
0.0000000001
 44
0.0000000001
 12
0.9491881254974131
 22
-0.314709234714692
 32
0.0
 13
-0.9302780902214477
 23
0.3668551142534831
 33
0.0
 40
0.0
 40
0.0
 40
0.0
 40
0.0
 40
0.128878006008289
 40
0.3375814146492844
 40
0.5183736700999971
 40
0.6657064927334981
 40
0.7708315596775476
 40
0.8252517243675931
 40
0.8256034573309932
 40
0.8793374141576235
 40
0.9843281518089984
 40
1.132297274028431
 40
1.313837894822429
 40
1.522514103678164
 40
1.522514103678164
 40
1.522514103678164
 40
1.522514103678164
 10
212.6836573555662
 20
355.5822679696055
 30
0.0
 10
212.7244338465466
 20
355.5687482700581
 30
0.0
 10
212.8302239933266
 20
355.5302100763572
 30
0.0
 10
212.9884316821616
 20
355.4603395636552
 30
0.0
 10
213.1475454177916
 20
355.3782537979925
 30
0.0
 10
213.2730143066297
 20
355.3068454873407
 30
0.0
 10
213.3606851154584
 20
355.2537915269166
 30
0.0
 10
213.4056588430867
 20
355.2256493170381
 30
0.0
 10
213.4364450951598
 20
355.2061756645607
 30
0.0
 10
213.3335815041392
 20
355.2709475259836
 30
0.0
 10
213.2873669795104
 20
355.2978060079888
 30
0.0
 10
213.1427990070957
 20
355.3813001403947
 30
0.0
 10
212.9903571197514
 20
355.4591691888886
 30
0.0
 10
212.8693425327409
 20
355.5128576932083
 30
0.0
 10
212.8046335643913
 20
355.5383756713555
 30
0.0
 11
212.6836573555662
 21
355.5822679696055
 31
0.0
 11
212.8048062708412
 21
355.5383079791555
 31
0.0
 11
212.9959655950162
 21
355.4545510358055
 31
0.0
 11
213.1567856120662
 21
355.3719510252305
 31
0.0
 11
213.2849011854662
 21
355.2991955410555
 31
0.0
 11
213.3748646957412
 21
355.2448094535055
 31
0.0
 11
213.4209996279663
 21
355.2159455945556
 31
0.0
 11
213.4212968847663
 21
355.2157575667055
 31
0.0
 11
213.3757473191412
 21
355.2442632711806
 31
0.0
 11
213.2859107714412
 21
355.2985997201805
 31
0.0
 11
213.1572561736662
 21
355.3716945599555
 31
0.0
 11
212.9957739150662
 21
355.4546432016305
 31
0.0
 11
212.8046335643913
 21
355.5383756713555
 31
0.0
  0
SPLINE
  5
1EF0
330
1F
100
AcDbEntity
  8
DEFAULT_2
 48
3.0
370
     9
100
AcDbSpline
210
0.0
220
0.0
230
1.0
 70
     8
 71
     3
 72
    20
 73
    16
 74
    14
 42
0.0000000001
 43
0.0000000001
 44
0.0000000001
 12
0.9491881254964543
 22
-0.3147092347175837
 32
0.0
 13
-0.9628791375939275
 23
0.2699328923758173
 33
0.0
 40
0.0
 40
0.0
 40
0.0
 40
0.0
 40
0.128878006008289
 40
0.3375814146492844
 40
0.5183736700999971
 40
0.6657064927334981
 40
0.7708315596775476
 40
0.8252517243675931
 40
0.8256034573309932
 40
0.8793374141576235
 40
0.9843281518089984
 40
1.132297274028431
 40
1.313837894822429
 40
1.522749482489101
 40
1.748644221142264
 40
1.748644221142264
 40
1.748644221142264
 40
1.748644221142264
 10
212.6836573555662
 20
355.5822679696055
 30
0.0
 10
212.7244338465465
 20
355.5687482700579
 30
0.0
 10
212.8302239933223
 20
355.530210076359
 30
0.0
 10
212.9884316821853
 20
355.4603395636457
 30
0.0
 10
213.1475454177232
 20
355.3782537980198
 30
0.0
 10
213.2730143068095
 20
355.306845487269
 30
0.0
 10
213.3606851150862
 20
355.2537915270652
 30
0.0
 10
213.4056588434966
 20
355.2256493168745
 30
0.0
 10
213.4364450947472
 20
355.2061756647254
 30
0.0
 10
213.3335820568504
 20
355.2709473053525
 30
0.0
 10
213.2873622848653
 20
355.2978078819958
 30
0.0
 10
213.1428263567775
 20
355.3812892229572
 30
0.0
 10
212.9901559530665
 20
355.4592569331796
 30
0.0
 10
212.7997403358691
 20
355.5437611175045
 30
0.0
 10
212.6629294384967
 20
355.5905073155632
 30
0.0
 10
212.5904263281163
 20
355.6108327889555
 30
0.0
 11
212.6836573555662
 21
355.5822679696055
 31
0.0
 11
212.8048062708412
 21
355.5383079791555
 31
0.0
 11
212.9959655950162
 21
355.4545510358055
 31
0.0
 11
213.1567856120662
 21
355.3719510252305
 31
0.0
 11
213.2849011854662
 21
355.2991955410555
 31
0.0
 11
213.3748646957412
 21
355.2448094535055
 31
0.0
 11
213.4209996279663
 21
355.2159455945556
 31
0.0
 11
213.4212968847663
 21
355.2157575667055
 31
0.0
 11
213.3757473191412
 21
355.2442632711806
 31
0.0
 11
213.2859107714412
 21
355.2985997201805
 31
0.0
 11
213.1572561736662
 21
355.3716945599555
 31
0.0
 11
212.9957739150662
 21
355.4546432016305
 31
0.0
 11
212.8044144402163
 21
355.5384620709056
 31
0.0
 11
212.5904263281163
 21
355.6108327889555
 31
0.0
  0
SPLINE
  5
1EF1
330
1F
100
AcDbEntity
  8
DEFAULT_2
 48
3.0
370
     9
100
AcDbSpline
210
0.0
220
0.0
230
1.0
 70
     8
 71
     3
 72
    21
 73
    17
 74
    15
 42
0.0000000001
 43
0.0000000001
 44
0.0000000001
 12
0.9896591522964651
 22
-0.1434390542210938
 32
0.0
 13
-0.9628791375937721
 23
0.2699328923763712
 33
0.0
 40
0.0
 40
0.0
 40
0.0
 40
0.0
 40
0.2367901168613508
 40
0.4629714524144976
 40
0.671674861055493
 40
0.8524671165062056
 40
0.9997999391397065
 40
1.104925006083756
 40
1.159345170773801
 40
1.159696903737202
 40
1.213430860563832
 40
1.318421598215207
 40
1.46639072043464
 40
1.647931341228638
 40
1.85684292889531
 40
2.082737667548473
 40
2.082737667548473
 40
2.082737667548473
 40
2.082737667548473
 10
212.3590083807912
 20
355.6603496373555
 30
0.0
 10
212.437122216233
 20
355.6490279872183
 30
0.0
 10
212.5884203685811
 20
355.6160313965352
 30
0.0
 10
212.8005357994303
 20
355.5433202080194
 30
0.0
 10
212.9884297278698
 20
355.4603407157966
 30
0.0
 10
213.1475458143849
 20
355.3782535641711
 30
0.0
 10
213.2730142383333
 20
355.3068455276385
 30
0.0
 10
213.3606851232721
 20
355.2537915222392
 30
0.0
 10
213.4056588434905
 20
355.2256493168781
 30
0.0
 10
213.4364450947531
 20
355.206175664722
 30
0.0
 10
213.333582056845
 20
355.2709473053557
 30
0.0
 10
213.2873622848679
 20
355.2978078819942
 30
0.0
 10
213.1428263567765
 20
355.3812892229577
 30
0.0
 10
212.9901559530668
 20
355.4592569331795
 30
0.0
 10
212.799740335869
 20
355.5437611175045
 30
0.0
 10
212.6629294384967
 20
355.5905073155631
 30
0.0
 10
212.5904263281163
 20
355.6108327889555
 30
0.0
 11
212.3590083807912
 21
355.6603496373555
 31
0.0
 11
212.5905554410912
 21
355.6107964506805
 31
0.0
 11
212.8048062708412
 21
355.5383079791555
 31
0.0
 11
212.9959655950162
 21
355.4545510358055
 31
0.0
 11
213.1567856120662
 21
355.3719510252305
 31
0.0
 11
213.2849011854662
 21
355.2991955410555
 31
0.0
 11
213.3748646957412
 21
355.2448094535055
 31
0.0
 11
213.4209996279663
 21
355.2159455945556
 31
0.0
 11
213.4212968847663
 21
355.2157575667055
 31
0.0
 11
213.3757473191412
 21
355.2442632711806
 31
0.0
 11
213.2859107714412
 21
355.2985997201805
 31
0.0
 11
213.1572561736662
 21
355.3716945599555
 31
0.0
 11
212.9957739150662
 21
355.4546432016305
 31
0.0
 11
212.8044144402163
 21
355.5384620709056
 31
0.0
 11
212.5904263281163
 21
355.6108327889555
 31
0.0
  0
SPLINE
  5
1EF2
330
1F
100
AcDbEntity
  8
DEFAULT_2
 48
3.0
370
     9
100
AcDbSpline
210
0.0
220
0.0
230
1.0
 70
     8
 71
     3
 72
    23
 73
    19
 74
    17
 42
0.0000000001
 43
0.0000000001
 44
0.0000000001
 12
-1.0
 22
0.0
 32
0.0
 13
0.9896270508228257
 23
0.1436603643310023
 33
0.0
 40
0.0
 40
0.0
 40
0.0
 40
0.0
 40
0.2331819339785049
 40
0.4699332074878353
 40
0.6959281462861118
 40
0.9044133708521741
 40
1.085047875865501
 40
1.232371729211618
 40
1.337660320309686
 40
1.392262328433382
 40
1.392764876782631
 40
1.446371253484055
 40
1.551286939208115
 40
1.699232198067177
 40
1.880791576268317
 40
2.089749587013866
 40
2.315874294785517
 40
2.55239220600548
 40
2.55239220600548
 40
2.55239220600548
 40
2.55239220600548
 10
212.1266304860912
 20
355.6772926895305
 30
0.0
 10
212.0489031747651
 20
355.6772926895305
 30
0.0
 10
211.8920355523759
 20
355.6656011215169
 30
0.0
 10
211.6647803256238
 20
355.6160048980872
 30
0.0
 10
211.4527635032489
 20
355.5433309768013
 30
0.0
 10
211.2650503273893
 20
355.4604415277461
 30
0.0
 10
211.1060280603538
 20
355.3784216453571
 30
0.0
 10
210.9805819896115
 20
355.3070439355877
 30
0.0
 10
210.8927490224295
 20
355.2538981938499
 30
0.0
 10
210.8477235700193
 20
355.2257261298902
 30
0.0
 10
210.816784660384
 20
355.2061559244995
 30
0.0
 10
210.9194195105456
 20
355.2707859035794
 30
0.0
 10
210.9657124549491
 20
355.2976994294933
 30
0.0
 10
211.110171547763
 20
355.3811454372886
 30
0.0
 10
211.2628663088037
 20
355.4591432194978
 30
0.0
 10
211.4533431842138
 20
355.5436951893839
 30
0.0
 10
211.6647299446241
 20
355.615940067399
 30
0.0
 10
211.8160896417421
 20
355.6490030291566
 30
0.0
 10
211.8941111493912
 20
355.6603291122556
 30
0.0
 11
212.1266304860912
 21
355.6772926895305
 31
0.0
 11
211.8940668746912
 21
355.6603226869805
 31
0.0
 11
211.6625623775412
 21
355.6107562335305
 31
0.0
 11
211.4484900172662
 21
355.5383218706305
 31
0.0
 11
211.2575263321663
 21
355.4546620843805
 31
0.0
 11
211.0968389442163
 21
355.3721491293055
 31
0.0
 11
210.9687241269162
 21
355.2994104782805
 31
0.0
 11
210.8786169430163
 21
355.2449459685055
 31
0.0
 11
210.8323269564412
 21
355.2159870936305
 31
0.0
 11
210.8319022423162
 21
355.2157184437555
 31
0.0
 11
210.8773429463913
 21
355.2441576075305
 31
0.0
 11
210.9671126843662
 21
355.2984594975055
 31
0.0
 11
211.0957416678912
 21
355.3715511127305
 31
0.0
 11
211.2572338657662
 21
355.4545214558555
 31
0.0
 11
211.4486282842912
 21
355.5383762518555
 31
0.0
 11
211.6628305512913
 21
355.6108315641306
 31
0.0
 11
211.8941111493912
 21
355.6603291122556
 31
0.0
  0
SPLINE
  5
1EF3
330
1F
100
AcDbEntity
  8
DEFAULT_2
 48
3.0
370
     9
100
AcDbSpline
210
0.0
220
0.0
230
1.0
 70
     8
 71
     3
 72
    14
 73
    10
 74
     8
 42
0.0000000001
 43
0.0000000001
 44
0.0000000001
 12
-0.8450971398055424
 22
-0.5346127797691444
 32
0.0
 13
0.9896270508219252
 23
0.1436603643372049
 33
0.0
 40
0.0
 40
0.0
 40
0.0
 40
0.0
 40
0.0536063767014248
 40
0.1585220624254842
 40
0.3064673212845459
 40
0.488026699485686
 40
0.6969847102312352
 40
0.9231094180028861
 40
1.159627329222849
 40
1.159627329222849
 40
1.159627329222849
 40
1.159627329222849
 10
210.8319022423162
 20
355.2157184437555
 30
0.0
 10
210.8168013771077
 20
355.2061655590683
 30
0.0
 10
210.9197038076534
 20
355.2709657521476
 30
0.0
 10
210.965573812705
 20
355.2976117233283
 30
0.0
 10
211.1102243583363
 20
355.3811788456692
 30
0.0
 10
211.2628484186489
 20
355.4591319020464
 30
0.0
 10
211.4533487401817
 20
355.5436987041324
 30
0.0
 10
211.6647282231276
 20
355.6159389783672
 30
0.0
 10
211.8160896417422
 20
355.6490030291562
 30
0.0
 10
211.8941111493912
 20
355.6603291122556
 30
0.0
 11
210.8319022423162
 21
355.2157184437555
 31
0.0
 11
210.8773429463913
 21
355.2441576075305
 31
0.0
 11
210.9671126843662
 21
355.2984594975055
 31
0.0
 11
211.0957416678912
 21
355.3715511127305
 31
0.0
 11
211.2572338657662
 21
355.4545214558555
 31
0.0
 11
211.4486282842912
 21
355.5383762518555
 31
0.0
 11
211.6628305512913
 21
355.6108315641306
 31
0.0
 11
211.8941111493912
 21
355.6603291122556
 31
0.0
  0
SPLINE
  5
1EF4
330
1F
100
AcDbEntity
  8
DEFAULT_2
 48
3.0
370
     9
100
AcDbSpline
210
0.0
220
0.0
230
1.0
 70
     8
 71
     3
 72
    10
 73
     6
 74
     4
 42
0.0000000001
 43
0.0000000001
 44
0.0000000001
 12
-0.8463817312339275
 22
-0.532576722203909
 32
0.0
 13
0.4818578456733244
 23
-0.8762494031741551
 33
0.0
 40
0.0
 40
0.0
 40
0.0
 40
0.0
 40
0.0131332033208474
 40
0.0136357516700963
 40
0.0178419807517281
 40
0.0178419807517281
 40
0.0178419807517281
 40
0.0178419807517281
 10
210.8434344947663
 20
355.2229944912805
 30
0.0
 10
210.8397292603118
 20
355.2206630118217
 30
0.0
 10
210.8356880005252
 20
355.2182880318144
 30
0.0
 10
210.8309394207835
 20
355.2150379505039
 30
0.0
 10
210.8276757397967
 20
355.2146923582546
 30
0.0
 10
210.8283513412912
 20
355.2134637896805
 30
0.0
 11
210.8434344947663
 21
355.2229944912805
 31
0.0
 11
210.8323269564412
 21
355.2159870936305
 31
0.0
 11
210.8319022423162
 21
355.2157184437555
 31
0.0
 11
210.8283513412912
 21
355.2134637896805
 31
0.0
  0
SPLINE
  5
1EF5
330
1F
100
AcDbEntity
  8
0
370
     9
100
AcDbSpline
210
0.0
220
0.0
230
1.0
 70
     8
 71
     3
 72
     8
 73
     4
 74
     2
 42
0.0000000001
 43
0.0000000001
 44
0.0000000001
 12
-0.8450971391660512
 22
-0.5346127807800296
 32
0.0
 13
0.4818579350832695
 23
-0.8762493540067735
 33
0.0
 40
0.0
 40
0.0
 40
0.0
 40
0.0
 40
0.0042062290816318
 40
0.0042062290816318
 40
0.0042062290816318
 40
0.0042062290816318
 10
210.8319022423162
 20
355.2157184437555
 30
0.0
 10
210.830717351595
 20
355.2149688758135
 30
0.0
 10
210.8276757396713
 20
355.2146923581858
 30
0.0
 10
210.8283513412912
 20
355.2134637896805
 30
0.0
 11
210.8319022423162
 21
355.2157184437555
 31
0.0
 11
210.8283513412912
 21
355.2134637896805
 31
0.0
  0
SPLINE
  5
1EF6
330
1F
100
AcDbEntity
  8
0
370
     9
100
AcDbSpline
210
0.0
220
0.0
230
1.0
 70
     8
 71
     3
 72
    16
 73
    12
 74
    10
 42
0.0000000001
 43
0.0000000001
 44
0.0000000001
 12
-1.0
 22
0.0
 32
0.0
 13
-0.8450971398041536
 23
-0.5346127797713397
 33
0.0
 40
0.0
 40
0.0
 40
0.0
 40
0.0
 40
0.2331819339785049
 40
0.4699332074878353
 40
0.6959281462861118
 40
0.9044133708521741
 40
1.085047875865501
 40
1.232371729211618
 40
1.337660320309686
 40
1.392262328433382
 40
1.392764876782631
 40
1.392764876782631
 40
1.392764876782631
 40
1.392764876782631
 10
212.1266304860912
 20
355.6772926895305
 30
0.0
 10
212.0489031747651
 20
355.6772926895305
 30
0.0
 10
211.8920357814212
 20
355.6656012664128
 30
0.0
 10
211.6647795266993
 20
355.6160043926813
 30
0.0
 10
211.4527662281533
 20
355.5433327005971
 30
0.0
 10
211.2650415418169
 20
355.4604359699244
 30
0.0
 10
211.1060539309589
 20
355.3784380113037
 30
0.0
 10
210.9805138210696
 20
355.3070008116364
 30
0.0
 10
210.8928905391111
 20
355.2539877184066
 30
0.0
 10
210.8475671474437
 20
355.2256271757488
 30
0.0
 10
210.8320438097071
 20
355.2158080000122
 30
0.0
 10
210.8319022423162
 20
355.2157184437555
 30
0.0
 11
212.1266304860912
 21
355.6772926895305
 31
0.0
 11
211.8940668746912
 21
355.6603226869805
 31
0.0
 11
211.6625623775412
 21
355.6107562335305
 31
0.0
 11
211.4484900172662
 21
355.5383218706305
 31
0.0
 11
211.2575263321663
 21
355.4546620843805
 31
0.0
 11
211.0968389442163
 21
355.3721491293055
 31
0.0
 11
210.9687241269162
 21
355.2994104782805
 31
0.0
 11
210.8786169430163
 21
355.2449459685055
 31
0.0
 11
210.8323269564412
 21
355.2159870936305
 31
0.0
 11
210.8319022423162
 21
355.2157184437555
 31
0.0
  0
SPLINE
  5
1EF7
330
1F
100
AcDbEntity
  8
0
370
     9
100
AcDbSpline
210
0.0
220
0.0
230
1.0
 70
     8
 71
     3
 72
    17
 73
    13
 74
    11
 42
0.0000000001
 43
0.0000000001
 44
0.0000000001
 12
1.0
 22
0.0
 32
0.0
 13
-0.4827636864152535
 23
-0.8757506626196493
 33
0.0
 40
0.0
 40
0.0
 40
0.0
 40
0.0
 40
0.2329839361986937
 40
0.469784868830452
 40
0.6959662043835988
 40
0.904669613024594
 40
1.085461868475306
 40
1.232794691108807
 40
1.337919758052857
 40
1.392339922742902
 40
1.392691655706303
 40
1.396947959743874
 40
1.396947959743874
 40
1.396947959743874
 40
1.396947959743874
 10
212.1266304860912
 20
355.6772926895305
 30
0.0
 10
212.2042917981575
 20
355.6772926895305
 30
0.0
 10
212.3611083832377
 20
355.6656150027011
 30
0.0
 10
212.5883863655271
 20
355.616037948031
 30
0.0
 10
212.8005317007299
 20
355.5433175675479
 30
0.0
 10
212.9884677532941
 20
355.4603456350105
 30
0.0
 10
213.1474288640731
 20
355.3782398154733
 30
0.0
 10
213.273322876256
 20
355.3068815705445
 30
0.0
 10
213.36004568148
 20
355.2537168807551
 30
0.0
 10
213.4063631093127
 20
355.225731522999
 30
0.0
 10
213.4223423022779
 20
355.2150479328993
 30
0.0
 10
213.4255750189172
 20
355.2147186055826
 30
0.0
 10
213.4248900892413
 20
355.2134761185556
 30
0.0
 11
212.1266304860912
 21
355.6772926895305
 31
0.0
 11
212.3589976528662
 21
355.6603511922056
 31
0.0
 11
212.5905554410912
 21
355.6107964506805
 31
0.0
 11
212.8048062708412
 21
355.5383079791555
 31
0.0
 11
212.9959655950162
 21
355.4545510358055
 31
0.0
 11
213.1567856120662
 21
355.3719510252305
 31
0.0
 11
213.2849011854662
 21
355.2991955410555
 31
0.0
 11
213.3748646957412
 21
355.2448094535055
 31
0.0
 11
213.4209996279663
 21
355.2159455945556
 31
0.0
 11
213.4212968847663
 21
355.2157575667055
 31
0.0
 11
213.4248900892413
 21
355.2134761185556
 31
0.0
  0
LINE
  5
1EF8
330
1F
100
AcDbEntity
  8
0
  6
Continuous
 62
     7
370
     9
100
AcDbLine
 10
210.9563199308948
 20
355.2152782966365
 30
0.0
 11
213.3082648333377
 21
355.2152782966365
 31
0.0
  0
LINE
  5
1EF9
330
1F
100
AcDbEntity
  8
0
  6
Continuous
 62
     7
370
     9
100
AcDbLine
 10
213.3592976889584
 20
355.2545080401975
 30
0.0
 11
213.2999613793364
 21
355.2200951812586
 31
0.0
  0
LINE
  5
1EFA
330
1F
100
AcDbEntity
  8
0
  6
Continuous
 62
     7
370
     9
100
AcDbLine
 10
213.4611526520409
 20
359.9360100039536
 30
0.0
 11
210.9562746032604
 21
359.9360100039536
 31
0.0
  0
LINE
  5
1EFB
330
1F
100
AcDbEntity
  8
0
  6
Continuous
 62
     7
370
     9
100
AcDbLine
 10
213.3648043330587
 20
360.0323514673681
 30
0.0
 11
211.0526229222425
 21
360.0323514673681
 31
0.0
  0
LINE
  5
1EFC
330
1F
100
AcDbEntity
  8
0
  6
Continuous
 62
     7
370
     9
100
AcDbLine
 10
213.2885993754752
 20
355.2266889650741
 30
0.0
 11
213.3082615395216
 21
355.2152782966365
 31
0.0
  0
LINE
  5
1EFD
330
1F
100
AcDbEntity
  8
0
  6
Continuous
 62
     7
370
     9
100
AcDbLine
 10
213.4611526520409
 20
359.9360100039536
 30
0.0
 11
213.4611526520409
 21
359.7240587844414
 31
0.0
  0
LINE
  5
1EFE
330
1F
100
AcDbEntity
  8
0
  6
Continuous
 62
     7
370
     9
100
AcDbLine
 10
213.3648111886262
 20
360.0323514673681
 30
0.0
 11
213.3648111886262
 21
359.9360100039536
 31
0.0
  0
LINE
  5
1EFF
330
1F
100
AcDbEntity
  8
0
  6
Continuous
 62
     7
370
     9
100
AcDbLine
 10
211.0526160666751
 20
360.0323514673681
 30
0.0
 11
211.0526160666751
 21
359.9360100039536
 31
0.0
  0
LINE
  5
1F00
330
1F
100
AcDbEntity
  8
0
  6
Continuous
 62
     7
370
     9
100
AcDbLine
 10
210.9562746032604
 20
359.9360100039536
 30
0.0
 11
210.9562746032604
 21
359.926375857612
 31
0.0
  0
LINE
  5
1F01
330
1F
100
AcDbEntity
  8
0
  6
Continuous
 62
     7
370
     9
100
AcDbLine
 10
210.9562746032604
 20
359.7336929307828
 30
0.0
 11
210.9562746032604
 21
359.550644150295
 31
0.0
  0
LINE
  5
1F02
330
1F
100
AcDbEntity
  8
0
  6
Continuous
 62
     7
370
     9
100
AcDbLine
 10
210.9562746032604
 20
355.2921735182149
 30
0.0
 11
210.9562746032604
 21
355.2152782966365
 31
0.0
  0
SPLINE
  5
1F03
330
1F
100
AcDbEntity
  8
0
  6
Continuous
 62
     7
370
     9
100
AcDbSpline
210
0.0
220
0.0
230
1.0
 70
     8
 71
     3
 72
    16
 73
    12
 74
     0
 42
0.0000000001
 43
0.0000000001
 40
0.595890618899867
 40
0.595890618899867
 40
0.595890618899867
 40
0.595890618899867
 40
0.8657261285620654
 40
1.310224987957592
 40
1.819638045332858
 40
2.360244588621366
 40
2.898614408191475
 40
3.42835617672368
 40
3.929874306063356
 40
4.36991343130872
 40
4.520421916389475
 40
4.520421916389475
 40
4.520421916389475
 40
4.520421916389475
 10
213.1780457724887
 20
355.3603058822361
 30
0.0
 10
213.1345468949036
 20
355.3637149399251
 30
0.0
 10
213.021936949549
 20
355.3727198521323
 30
0.0
 10
212.8247505243693
 20
355.3846257497693
 30
0.0
 10
212.5855263313454
 20
355.3980987705472
 30
0.0
 10
212.3307123612332
 20
355.4113435219501
 30
0.0
 10
212.0727767599454
 20
355.4245645817767
 30
0.0
 10
211.821052792415
 20
355.4376698062279
 30
0.0
 10
211.585263659243
 20
355.4510314078044
 30
0.0
 10
211.4100299565431
 20
355.4615610260108
 30
0.0
 10
211.315717471288
 20
355.468921850807
 30
0.0
 10
211.2916579936723
 20
355.470822944416
 30
0.0
  0
SPLINE
  5
1F04
330
1F
100
AcDbEntity
  8
0
  6
Continuous
 62
     7
370
     9
100
AcDbSpline
210
0.0
220
0.0
230
1.0
 70
     8
 71
     3
 72
    15
 73
    11
 74
     0
 42
0.0000000001
 43
0.0000000001
 40
0.0
 40
0.0
 40
0.0
 40
0.0
 40
0.5486245757508414
 40
1.090158531085224
 40
1.600581487773396
 40
2.05722002481677
 40
2.439843553160319
 40
2.731630918933078
 40
2.92008792422476
 40
2.926312536530969
 40
2.926312536530969
 40
2.926312536530969
 40
2.926312536530969
 10
212.3953799780501
 20
355.2152782966365
 30
0.0
 10
212.3074066805639
 20
355.2198529157873
 30
0.0
 10
212.1326306623176
 20
355.2288112828656
 30
0.0
 10
211.8757924758027
 20
355.2420686504487
 30
0.0
 10
211.6345176552012
 20
355.2554920466131
 30
0.0
 10
211.4163304765158
 20
355.2681962791887
 30
0.0
 10
211.2405036641474
 20
355.282613104167
 30
0.0
 10
211.0893328523102
 20
355.2918706121441
 30
0.0
 10
211.034212934976
 20
355.3079707206104
 30
0.0
 10
210.9896183188477
 20
355.31073634913
 30
0.0
 10
210.9881835784125
 20
355.3108268083839
 30
0.0
  0
SPLINE
  5
1F05
330
1F
100
AcDbEntity
  8
0
  6
Continuous
 62
     7
370
     9
100
AcDbSpline
210
0.0
220
0.0
230
1.0
 70
     8
 71
     3
 72
    20
 73
    16
 74
     0
 42
0.0000000001
 43
0.0000000001
 40
0.0666007840830642
 40
0.0666007840830642
 40
0.0666007840830642
 40
0.0666007840830642
 40
0.1028231016993314
 40
0.3109532684454975
 40
0.6149349416071724
 40
1.000087320395704
 40
1.447451678967494
 40
1.934895422249374
 40
2.438261149098655
 40
2.932589746460125
 40
3.39337698815961
 40
3.797810909230546
 40
4.125943530724192
 40
4.36179334058943
 40
4.494684072789572
 40
4.494684072789572
 40
4.494684072789572
 40
4.494684072789572
 10
211.1524857817359
 20
355.4020631746519
 30
0.0
 10
211.1596893323457
 20
355.4018526397108
 30
0.0
 10
211.2130238444766
 20
355.4047924223695
 30
0.0
 10
211.2827864035788
 20
355.3807680864986
 30
0.0
 10
211.4355558438638
 20
355.3739240718229
 30
0.0
 10
211.6139454564442
 20
355.3575376142839
 30
0.0
 10
211.826640380079
 20
355.3444484283262
 30
0.0
 10
212.0567662946582
 20
355.3301539805422
 30
0.0
 10
212.2949410219737
 20
355.3162156146852
 30
0.0
 10
212.5286208345655
 20
355.3020591129333
 30
0.0
 10
212.7466797505603
 20
355.288436972518
 30
0.0
 10
212.93719319457
 20
355.2734904144971
 30
0.0
 10
213.0937362825113
 20
355.2627792084777
 30
0.0
 10
213.2011828681708
 20
355.2430524361392
 30
0.0
 10
213.2650420682065
 20
355.2422258401077
 30
0.0
 10
213.2822981247756
 20
355.2296741474959
 30
0.0
  0
SPLINE
  5
1F06
330
1F
100
AcDbEntity
  8
0
  6
Continuous
 62
     7
370
     9
100
AcDbSpline
210
0.0
220
0.0
230
1.0
 70
     8
 71
     3
 72
     8
 73
     4
 74
     2
 42
0.0000000001
 43
0.0000000001
 44
0.0000000001
 12
0.808695215438054
 22
-0.5882278882606633
 32
0.0
 13
0.7446278994753776
 23
-0.6674798059289039
 33
0.0
 40
0.0
 40
0.0
 40
0.0
 40
0.0
 40
0.0066960169908494
 40
0.0066960169908494
 40
0.0066960169908494
 40
0.0066960169908494
 10
213.2822981247756
 20
355.2296741474959
 30
0.0
 10
213.2841031370766
 20
355.2283612195178
 30
0.0
 10
213.2858741522265
 20
355.2269926871954
 30
0.0
 10
213.2875361659155
 20
355.2255028684883
 30
0.0
 11
213.2822981247756
 21
355.2296741474959
 31
0.0
 11
213.2875361659155
 21
355.2255028684883
 31
0.0
  0
SPLINE
  5
1F07
330
1F
100
AcDbEntity
  8
0
  6
Continuous
 62
     7
370
     9
100
AcDbSpline
210
0.0
220
0.0
230
1.0
 70
     8
 71
     3
 72
    11
 73
     7
 74
     0
 42
0.0000000001
 43
0.0000000001
 40
1.821986655074827
 40
1.821986655074827
 40
1.821986655074827
 40
1.821986655074827
 40
2.338234224365551
 40
2.876002695113283
 40
3.40999909530977
 40
3.417881139440553
 40
3.417881139440553
 40
3.417881139440553
 40
3.417881139440553
 10
211.8281250773921
 20
355.6494292261717
 30
0.0
 10
211.9108535102449
 20
355.6449473422193
 30
0.0
 10
212.079938856477
 20
355.6361464864729
 30
0.0
 10
212.3345545420719
 20
355.623095523344
 30
0.0
 10
212.5077004992799
 20
355.6140973269028
 30
0.0
 10
212.5945709338235
 20
355.6093772743095
 30
0.0
 10
212.5958345255043
 20
355.6093085744775
 30
0.0
  0
LINE
  5
1F08
330
1F
100
AcDbEntity
  8
0
  6
Continuous
 62
     7
370
     9
100
AcDbLine
 10
213.4562145491102
 20
359.7183381758904
 30
0.0
 11
213.3373404559475
 21
359.6493954316782
 31
0.0
  0
LINE
  5
1F09
330
1F
100
AcDbEntity
  8
0
  6
Continuous
 62
     7
370
     9
100
AcDbLine
 10
213.4562145491102
 20
359.7183381758904
 30
0.0
 11
213.4611526520409
 21
359.7240587844414
 31
0.0
  0
LINE
  5
1F0A
330
1F
100
AcDbEntity
  8
0
  6
Continuous
 62
     7
370
     9
100
AcDbLine
 10
211.0800868489241
 20
359.851709913309
 30
0.0
 11
210.9612127061532
 21
359.920655249061
 31
0.0
  0
LINE
  5
1F0B
330
1F
100
AcDbEntity
  8
0
  6
Continuous
 62
     7
370
     9
100
AcDbLine
 10
213.4562145585547
 20
359.9417306070047
 30
0.0
 11
213.4611526520409
 21
359.9360100039536
 31
0.0
  0
LINE
  5
1F0C
330
1F
100
AcDbEntity
  8
0
  6
Continuous
 62
     7
370
     9
100
AcDbLine
 10
213.4611526520409
 20
359.9360100039536
 30
0.0
 11
213.4611526520409
 21
359.7240587844414
 31
0.0
  0
LINE
  5
1F0D
330
1F
100
AcDbEntity
  8
0
  6
Continuous
 62
     7
370
     9
100
AcDbLine
 10
210.9612127061532
 20
359.920655249061
 30
0.0
 11
210.9562746032604
 21
359.926375857612
 31
0.0
  0
LINE
  5
1F0E
330
1F
100
AcDbEntity
  8
0
  6
Continuous
 62
     7
370
     9
100
AcDbLine
 10
210.9562746032604
 20
359.9360100039536
 30
0.0
 11
210.9562746032604
 21
359.926375857612
 31
0.0
  0
SPLINE
  5
1F0F
330
1F
100
AcDbEntity
  8
0
  6
Continuous
 62
     7
370
     9
100
AcDbSpline
210
0.0
220
0.0
230
1.0
 70
     8
 71
     3
 72
     8
 73
     4
 74
     2
 42
0.0000000001
 43
0.0000000001
 44
0.0000000001
 12
0.0
 22
1.0
 32
0.0
 13
-0.1002776267664013
 23
0.9949594954419492
 33
0.0
 40
0.0
 40
0.0
 40
0.0
 40
0.0
 40
0.0010097984767294
 40
0.0010097984767294
 40
0.0010097984767294
 40
0.0010097984767294
 10
213.4611526520409
 20
359.7240587844414
 30
0.0
 10
213.4611526520409
 20
359.7243953839336
 30
0.0
 10
213.4611367197189
 20
359.7247324569583
 30
0.0
 10
213.4611029663207
 20
359.7250673598192
 30
0.0
 11
213.4611526520409
 21
359.7240587844414
 31
0.0
 11
213.4611029663207
 21
359.7250673598192
 31
0.0
  0
SPLINE
  5
1F10
330
1F
100
AcDbEntity
  8
0
  6
Continuous
 62
     7
370
     9
100
AcDbSpline
210
0.0
220
0.0
230
1.0
 70
     8
 71
     3
 72
    22
 73
    18
 74
     0
 42
0.0000000001
 43
0.0000000001
 40
0.0
 40
0.0
 40
0.0
 40
0.0
 40
0.0625539071472585
 40
0.237497225069584
 40
0.5176054333016972
 40
0.8816614543622151
 40
1.317289644486971
 40
1.816276466746716
 40
2.350272866943202
 40
2.888041337690935
 40
3.417823123612691
 40
3.909590707584616
 40
4.345643369104711
 40
4.709547232664416
 40
4.989234968708814
 40
5.163851404221457
 40
5.186641955932113
 40
5.186641955932113
 40
5.186641955932113
 40
5.186641955932113
 10
213.4611029663207
 20
359.7250673598192
 30
0.0
 10
213.4600957553352
 20
359.7350609567911
 30
0.0
 10
213.4070677040999
 20
359.7393857743946
 30
0.0
 10
213.3394040224761
 20
359.7560813291981
 30
0.0
 10
213.2005892647522
 20
359.7659142735782
 30
0.0
 10
213.0308537770681
 20
359.7798257330583
 30
0.0
 10
212.8216067286133
 20
359.7924242667212
 30
0.0
 10
212.5865242023511
 20
359.805662309376
 30
0.0
 10
212.3345412947571
 20
359.8187688888383
 30
0.0
 10
212.0777555808063
 20
359.8319310749456
 30
0.0
 10
211.827684271322
 20
359.8449386194829
 30
0.0
 10
211.5940890579251
 20
359.8581432497833
 30
0.0
 10
211.3868086581246
 20
359.8705086813595
 30
0.0
 10
211.2146835067552
 20
359.8849012442628
 30
0.0
 10
211.0819970639391
 20
359.893556813434
 30
0.0
 10
211.0093491897066
 20
359.9109799539423
 30
0.0
 10
210.9760280414734
 20
359.9135303892691
 30
0.0
 10
210.9723557206141
 20
359.91419245694
 30
0.0
  0
LINE
  5
1F11
330
1F
100
AcDbEntity
  8
0
  6
Continuous
 62
     7
370
     9
100
AcDbLine
 10
210.3443134129205
 20
357.2489648038092
 30
0.0
 11
213.908947559262
 21
357.2489648038092
 31
0.0
  0
LINE
  5
1F12
330
1F
100
AcDbEntity
  8
0
  6
Continuous
 62
     7
370
     9
100
AcDbLine
 10
214.1016304860912
 20
358.2123794379555
 30
0.0
 11
210.1516304860913
 21
358.2123794379555
 31
0.0
  0
LINE
  5
1F13
330
1F
100
AcDbEntity
  8
0
  6
Continuous
 62
     7
370
     9
100
AcDbLine
 10
214.1016304860912
 20
358.2123794379555
 30
0.0
 11
214.1016304860912
 21
357.4416477306385
 31
0.0
  0
LINE
  5
1F14
330
1F
100
AcDbEntity
  8
0
  6
Continuous
 62
     7
370
     9
100
AcDbLine
 10
210.1516304860913
 20
358.2123794379555
 30
0.0
 11
210.1516304860913
 21
357.4416477306385
 31
0.0
  0
ARC
  5
1F15
330
1F
100
AcDbEntity
  8
0
  6
Continuous
 62
     7
370
     9
100
AcDbCircle
 10
213.908947559262
 20
357.4416477306385
 30
0.0
 40
0.1926829268292686
100
AcDbArc
 50
270.0
 51
0.0
  0
ARC
  5
1F16
330
1F
100
AcDbEntity
  8
0
  6
Continuous
 62
     7
370
     9
100
AcDbCircle
 10
210.3443134129205
 20
357.4416477306385
 30
0.0
 40
0.1926829268292686
100
AcDbArc
 50
180.0
 51
270.0
  0
LINE
  5
1F17
330
1F
100
AcDbEntity
  8
0
  6
Continuous
 62
     7
370
     9
100
AcDbLine
 10
213.2901423316992
 20
357.2489648038092
 30
0.0
 11
213.3532220738614
 21
357.2123794379555
 31
0.0
  0
LINE
  5
1F18
330
1F
100
AcDbEntity
  8
0
  6
Continuous
 62
     7
370
     9
100
AcDbLine
 10
210.9562746032604
 20
357.2489648038092
 30
0.0
 11
210.9562746032604
 21
357.2123794379555
 31
0.0
  0
SPLINE
  5
1F19
330
1F
100
AcDbEntity
  8
0
  6
Continuous
 62
     7
370
     9
100
AcDbSpline
210
0.0
220
0.0
230
1.0
 70
     8
 71
     3
 72
    11
 73
     7
 74
     0
 42
0.0000000001
 43
0.0000000001
 40
1.241597923702358
 40
1.241597923702358
 40
1.241597923702358
 40
1.241597923702358
 40
1.402728077449061
 40
1.655086371594345
 40
1.89306618230636
 40
1.919614319383117
 40
1.919614319383117
 40
1.919614319383117
 40
1.919614319383117
 10
212.1915727458082
 20
357.2489648038092
 30
0.0
 10
212.2452113336927
 20
357.2462051192047
 30
0.0
 10
212.382846564111
 20
357.2391274044666
 30
0.0
 10
212.5997344257548
 20
357.227823901118
 30
0.0
 10
212.7716980678707
 20
357.2180724744746
 30
0.0
 10
212.8597683391577
 20
357.2129017786194
 30
0.0
 10
212.8686071860084
 20
357.2123794379531
 30
0.0
  0
LINE
  5
1F1A
330
1F
100
AcDbEntity
  8
0
  6
Continuous
 62
     7
370
     9
100
AcDbLine
 10
213.3097880615744
 20
357.2489648038092
 30
0.0
 11
213.2999620447752
 21
357.2432660636987
 31
0.0
  0
LINE
  5
1F1B
330
1F
100
AcDbEntity
  8
0
  6
Continuous
 62
     7
370
     9
100
AcDbLine
 10
210.9612126967086
 20
359.3781330460292
 30
0.0
 11
211.1174652104882
 21
359.4687538685767
 31
0.0
  0
LINE
  5
1F1C
330
1F
100
AcDbEntity
  8
0
  6
Continuous
 62
     7
370
     9
100
AcDbLine
 10
213.2885993754752
 20
359.2730304284889
 30
0.0
 11
213.3931725772309
 21
359.2123794379555
 31
0.0
  0
LINE
  5
1F1D
330
1F
100
AcDbEntity
  8
0
  6
Continuous
 62
     7
370
     9
100
AcDbLine
 10
210.9612126967086
 20
359.3781330460292
 30
0.0
 11
210.9562746032604
 21
359.3724124429781
 31
0.0
  0
LINE
  5
1F1E
330
1F
100
AcDbEntity
  8
0
  6
Continuous
 62
     7
370
     9
100
AcDbLine
 10
210.9562746032604
 20
359.3724124429781
 30
0.0
 11
210.9562746032604
 21
359.2123794379555
 31
0.0
  0
SPLINE
  5
1F1F
330
1F
100
AcDbEntity
  8
0
  6
Continuous
 62
     7
370
     9
100
AcDbSpline
210
0.0
220
0.0
230
1.0
 70
     8
 71
     3
 72
    21
 73
    17
 74
    15
 42
0.0000000001
 43
0.0000000001
 44
0.0000000001
 12
0.4929694063175559
 22
-0.8700466449765302
 32
0.0
 13
0.1614492973955897
 23
-0.9868810082124747
 33
0.0
 40
0.0
 40
0.0
 40
0.0
 40
0.0
 40
0.0038981267535121
 40
0.064774816009693
 40
0.1754507488062981
 40
0.3309790420049104
 40
0.5237965155286819
 40
0.7443965130675538
 40
0.9818593535904858
 40
1.224414352872533
 40
1.460034496184701
 40
1.677041923561791
 40
1.864698778165286
 40
2.013763148888172
 40
2.117019835434076
 40
2.169991042339942
 40
2.169991042339942
 40
2.169991042339942
 40
2.169991042339942
 10
211.1309085179373
 20
359.4633392086147
 30
0.0
 10
211.1315490703477
 20
359.4622086912468
 30
0.0
 10
211.1433130447334
 20
359.4437432074755
 30
0.0
 10
211.214659112376
 20
359.4496926813515
 30
0.0
 10
211.3137387084726
 20
359.4253719869639
 30
0.0
 10
211.4702585367558
 20
359.4168008390561
 30
0.0
 10
211.6578756111942
 20
359.4010673071215
 30
0.0
 10
211.8748963461231
 20
359.3877147068629
 30
0.0
 10
212.1078375080742
 20
359.3734811050745
 30
0.0
 10
212.3461066495159
 20
359.3595598769617
 30
0.0
 10
212.577063172988
 20
359.3452743354651
 30
0.0
 10
212.791138014525
 20
359.3321292546282
 30
0.0
 10
212.9719193041508
 20
359.3158682367668
 30
0.0
 10
213.1265896950499
 20
359.308701179858
 30
0.0
 10
213.2090024774973
 20
359.2820667653957
 30
0.0
 10
213.2859230431445
 20
359.2904843837633
 30
0.0
 10
213.2887737645236
 20
359.2730589577375
 30
0.0
 11
211.1309085179373
 21
359.4633392086147
 31
0.0
 11
211.1330177640012
 21
359.4600610272242
 31
0.0
 11
211.192167833932
 21
359.4456651763648
 31
0.0
 11
211.3019035235614
 21
359.4312693255054
 31
0.0
 11
211.4567641365762
 21
359.416873474646
 31
0.0
 11
211.64904345833
 21
359.4024776237866
 31
0.0
 11
211.8691732345807
 21
359.3880817729272
 31
0.0
 11
212.106199309322
 21
359.3736859220677
 31
0.0
 11
212.3483267285763
 21
359.3592900712083
 31
0.0
 11
212.5835066839585
 21
359.3448942203868
 31
0.0
 11
212.8000360884625
 21
359.3304983695274
 31
0.0
 11
212.987139948812
 21
359.316102518668
 31
0.0
 11
213.1355075534198
 21
359.3017066678086
 31
0.0
 11
213.2377557944534
 21
359.2873108169491
 31
0.0
 11
213.2887737645236
 21
359.2730589577375
 31
0.0
  0
SPLINE
  5
1F20
330
1F
100
AcDbEntity
  8
0
  6
Continuous
 62
     7
370
     9
100
AcDbSpline
210
0.0
220
0.0
230
1.0
 70
     8
 71
     3
 72
     8
 73
     4
 74
     2
 42
0.0000000001
 43
0.0000000001
 44
0.0000000001
 12
0.0
 22
-1.0
 32
0.0
 13
0.1003076508315724
 23
-0.9949564689898002
 33
0.0
 40
0.0
 40
0.0
 40
0.0
 40
0.0
 40
0.0010096964126019
 40
0.0010096964126019
 40
0.0010096964126019
 40
0.0010096964126019
 10
210.9562746032604
 20
359.3724124429781
 30
0.0
 10
210.9562746032604
 20
359.3720758775072
 30
0.0
 10
210.9562905387885
 20
359.3717388382684
 30
0.0
 10
210.9563242988802
 20
359.3714039702759
 30
0.0
 11
210.9562746032604
 21
359.3724124429781
 31
0.0
 11
210.9563242988802
 21
359.3714039702759
 31
0.0
  0
SPLINE
  5
1F21
330
1F
100
AcDbEntity
  8
0
  6
Continuous
 62
     7
370
     9
100
AcDbSpline
210
0.0
220
0.0
230
1.0
 70
     8
 71
     3
 72
    19
 73
    15
 74
     0
 42
0.0000000001
 43
0.0000000001
 40
0.0
 40
0.0
 40
0.0
 40
0.0
 40
0.0301234345751199
 40
0.1141331004611503
 40
0.2482683442512446
 40
0.4231560690566267
 40
0.6380576403533429
 40
0.8836717243099155
 40
1.143719148680869
 40
1.402728077449061
 40
1.655086371594345
 40
1.89306618230636
 40
2.103557152357958
 40
2.24951706967652
 40
2.24951706967652
 40
2.24951706967652
 40
2.24951706967652
 10
210.9563242988802
 20
359.3714039702759
 30
0.0
 10
210.9573315024972
 20
359.3614134682395
 30
0.0
 10
211.0102382656228
 20
359.3570971985708
 30
0.0
 10
211.0776156036823
 20
359.3404590111543
 30
0.0
 10
211.2158678895604
 20
359.3306345787168
 30
0.0
 10
211.3868488860524
 20
359.3166065794124
 30
0.0
 10
211.5993967119047
 20
359.303832167116
 30
0.0
 10
211.8388370947005
 20
359.2903804904854
 30
0.0
 10
212.0934953939479
 20
359.2771580977136
 30
0.0
 10
212.3502606047271
 20
359.2639964124086
 30
0.0
 10
212.5997344257548
 20
359.2509946328254
 30
0.0
 10
212.8328942788224
 20
359.2377729937894
 30
0.0
 10
213.0309004272391
 20
359.2258721714596
 30
0.0
 10
213.1489389514216
 20
359.216132394013
 30
0.0
 10
213.1975734507355
 20
359.2123794379555
 30
0.0
  0
LINE
  5
1F22
330
1F
100
AcDbEntity
  8
0
  6
Continuous
 62
     7
370
     9
100
AcDbLine
 10
213.4562145491102
 20
359.3570576880856
 30
0.0
 11
213.2999620447752
 21
359.2664367954061
 31
0.0
  0
LINE
  5
1F23
330
1F
100
AcDbEntity
  8
0
  6
Continuous
 62
     7
370
     9
100
AcDbLine
 10
210.9612126967086
 20
359.7827671923707
 30
0.0
 11
211.1174652104882
 21
359.8733880149182
 31
0.0
  0
LINE
  5
1F24
330
1F
100
AcDbEntity
  8
0
  6
Continuous
 62
     7
370
     9
100
AcDbLine
 10
213.4562145491102
 20
359.3570576880856
 30
0.0
 11
213.4611526520409
 21
359.3627782966366
 31
0.0
  0
LINE
  5
1F25
330
1F
100
AcDbEntity
  8
0
  6
Continuous
 62
     7
370
     9
100
AcDbLine
 10
213.2885993754752
 20
359.6776645748304
 30
0.0
 11
213.4562145585547
 21
359.5804501192
 31
0.0
  0
LINE
  5
1F26
330
1F
100
AcDbEntity
  8
0
  6
Continuous
 62
     7
370
     9
100
AcDbLine
 10
211.1288278748952
 20
359.4621603139704
 30
0.0
 11
210.9612127061532
 21
359.5593747612563
 31
0.0
  0
LINE
  5
1F27
330
1F
100
AcDbEntity
  8
0
  6
Continuous
 62
     7
370
     9
100
AcDbLine
 10
213.4562145585547
 20
359.5804501192
 30
0.0
 11
213.4611526520409
 21
359.5747295161487
 31
0.0
  0
LINE
  5
1F28
330
1F
100
AcDbEntity
  8
0
  6
Continuous
 62
     7
370
     9
100
AcDbLine
 10
210.9612126967086
 20
359.7827671923707
 30
0.0
 11
210.9562746032604
 21
359.7770465893195
 31
0.0
  0
LINE
  5
1F29
330
1F
100
AcDbEntity
  8
0
  6
Continuous
 62
     7
370
     9
100
AcDbLine
 10
213.4611526520409
 20
359.5747295161487
 30
0.0
 11
213.4611526520409
 21
359.3627782966366
 31
0.0
  0
LINE
  5
1F2A
330
1F
100
AcDbEntity
  8
0
  6
Continuous
 62
     7
370
     9
100
AcDbLine
 10
210.9612127061532
 20
359.5593747612563
 30
0.0
 11
210.9562746032604
 21
359.5650953698073
 31
0.0
  0
LINE
  5
1F2B
330
1F
100
AcDbEntity
  8
0
  6
Continuous
 62
     7
370
     9
100
AcDbLine
 10
210.9562746032604
 20
359.7770465893195
 30
0.0
 11
210.9562746032604
 21
359.5650953698073
 31
0.0
  0
SPLINE
  5
1F2C
330
1F
100
AcDbEntity
  8
0
  6
Continuous
 62
     7
370
     9
100
AcDbSpline
210
0.0
220
0.0
230
1.0
 70
     8
 71
     3
 72
     8
 73
     4
 74
     2
 42
0.0000000001
 43
0.0000000001
 44
0.0000000001
 12
0.0
 22
1.0
 32
0.0
 13
-0.1002776267664013
 23
0.9949594954419492
 33
0.0
 40
0.0
 40
0.0
 40
0.0
 40
0.0
 40
0.0010097984767294
 40
0.0010097984767294
 40
0.0010097984767294
 40
0.0010097984767294
 10
213.4611526520409
 20
359.3627782966366
 30
0.0
 10
213.4611526520409
 20
359.3631148961289
 30
0.0
 10
213.4611367197189
 20
359.3634519691535
 30
0.0
 10
213.4611029663207
 20
359.3637868720144
 30
0.0
 11
213.4611526520409
 21
359.3627782966366
 31
0.0
 11
213.4611029663207
 21
359.3637868720144
 31
0.0
  0
SPLINE
  5
1F2D
330
1F
100
AcDbEntity
  8
0
  6
Continuous
 62
     7
370
     9
100
AcDbSpline
210
0.0
220
0.0
230
1.0
 70
     8
 71
     3
 72
    22
 73
    18
 74
    16
 42
0.0000000001
 43
0.0000000001
 44
0.0000000001
 12
-0.1002776214911201
 22
0.994959495973622
 32
0.0
 13
-0.79655816431652
 23
0.6045618999413512
 33
0.0
 40
0.0
 40
0.0
 40
0.0
 40
0.0
 40
0.0301326747842808
 40
0.1144041511005928
 40
0.2493343245782474
 40
0.4247027737476452
 40
0.634548060454069
 40
0.8749136638596706
 40
1.132143637125054
 40
1.391190644375477
 40
1.646390407106052
 40
1.883278450604785
 40
2.093328208288199
 40
2.26862336207608
 40
2.403350991024339
 40
2.487465005692036
 40
2.511921273880267
 40
2.511921273880267
 40
2.511921273880267
 40
2.511921273880267
 10
213.4611029663207
 20
359.3637868720144
 30
0.0
 10
213.4600957553351
 20
359.3737804689864
 30
0.0
 10
213.4070677041
 20
359.3781052865899
 30
0.0
 10
213.3394040224761
 20
359.3948008413933
 30
0.0
 10
213.2005892647522
 20
359.4046337857735
 30
0.0
 10
213.0308537770681
 20
359.4185452452535
 30
0.0
 10
212.8216067286133
 20
359.4311437789163
 30
0.0
 10
212.5865242023511
 20
359.4443818215713
 30
0.0
 10
212.3345412947572
 20
359.4574884010335
 30
0.0
 10
212.0777555808063
 20
359.4706505871409
 30
0.0
 10
211.827684271322
 20
359.4836581316782
 30
0.0
 10
211.5940890579251
 20
359.4968627619786
 30
0.0
 10
211.3868086581247
 20
359.5092281935549
 30
0.0
 10
211.2146835067552
 20
359.5236207564581
 30
0.0
 10
211.0819970639391
 20
359.5322763256293
 30
0.0
 10
211.0050887242553
 20
359.5507212536155
 30
0.0
 10
210.9665169910172
 20
359.5528792841533
 30
0.0
 10
210.9600233776525
 20
359.557807726807
 30
0.0
 11
213.4611029663207
 21
359.3637868720144
 31
0.0
 11
213.4336867734357
 21
359.3762900898943
 31
0.0
 11
213.3505457048352
 21
359.3900467040305
 31
0.0
 11
213.2163114534462
 21
359.4037331012462
 31
0.0
 11
213.0414528433948
 21
359.4170957153234
 31
0.0
 11
212.832029070602
 21
359.4303896140036
 31
0.0
 11
212.5920437307339
 21
359.4439047887707
 31
0.0
 11
212.3351692395466
 21
359.4574234767013
 31
0.0
 11
212.0764652291275
 21
359.4707496523889
 31
0.0
 11
211.8216187051492
 21
359.4841723240275
 31
0.0
 11
211.5851059539589
 21
359.4975013778974
 31
0.0
 11
211.3754783670452
 21
359.5108121069381
 31
0.0
 11
211.200693451386
 21
359.5241771433963
 31
0.0
 11
211.0666618699303
 21
359.5378544667633
 31
0.0
 11
210.9836783918407
 21
359.551598913921
 31
0.0
 11
210.9600233776525
 21
359.557807726807
 31
0.0
  0
SPLINE
  5
1F2E
330
1F
100
AcDbEntity
  8
0
  6
Continuous
 62
     7
370
     9
100
AcDbSpline
210
0.0
220
0.0
230
1.0
 70
     8
 71
     3
 72
    22
 73
    18
 74
    16
 42
0.0000000001
 43
0.0000000001
 44
0.0000000001
 12
0.250508813973156
 22
-0.9681143187257188
 32
0.0
 13
0.3906703237736134
 23
-0.9205306611529135
 33
0.0
 40
0.0
 40
0.0
 40
0.0
 40
0.0
 40
0.0007783791048324
 40
0.0561623758608725
 40
0.1616568039434689
 40
0.3126787806438681
 40
0.5019071846104498
 40
0.7200193838127467
 40
0.9562215850123493
 40
1.198806603669846
 40
1.435745914641466
 40
1.65529520233902
 40
1.846587941705616
 40
2.000195601688552
 40
2.108657885506761
 40
2.167180311737866
 40
2.16957383662925
 40
2.16957383662925
 40
2.16957383662925
 40
2.16957383662925
 10
211.1296025975666
 20
359.4623607808324
 30
0.0
 10
211.1296675945087
 20
359.4621095941801
 30
0.0
 10
211.1347632288599
 20
359.4439887174133
 30
0.0
 10
211.2102644716725
 20
359.4524571845625
 30
0.0
 10
211.2975800179521
 20
359.425991967271
 30
0.0
 10
211.4528387282485
 20
359.4186283479279
 30
0.0
 10
211.6356966559548
 20
359.402442974907
 30
0.0
 10
211.8506787616762
 20
359.389262354745
 30
0.0
 10
212.0822613408364
 20
359.3749838153067
 30
0.0
 10
212.3205579259955
 20
359.3610667515504
 30
0.0
 10
212.5529379444967
 20
359.3468094096356
 30
0.0
 10
212.7690858419253
 20
359.3335444077671
 30
0.0
 10
212.9547165267786
 20
359.3175737116002
 30
0.0
 10
213.110612322747
 20
359.3096405510312
 30
0.0
 10
213.2048163865071
 20
359.2841131664955
 30
0.0
 10
213.2777744246817
 20
359.2916019761432
 30
0.0
 10
213.286578211524
 20
359.2730393720545
 30
0.0
 10
213.2868899045721
 20
359.2723049343709
 30
0.0
 11
211.1296025975666
 21
359.4623607808324
 31
0.0
 11
211.1298128994506
 21
359.4616113496158
 31
0.0
 11
211.1832932376573
 21
359.4472154987564
 31
0.0
 11
211.2878008155381
 21
359.4328196478969
 31
0.0
 11
211.4381350994674
 21
359.4184237970375
 31
0.0
 11
211.6268151152236
 21
359.4040279461781
 31
0.0
 11
211.8444517181168
 21
359.3896320953187
 31
0.0
 11
212.080214818136
 21
359.3752362444972
 31
0.0
 11
212.3223723097713
 21
359.3608403936378
 31
0.0
 11
212.5588738881207
 21
359.3464445427783
 31
0.0
 11
212.7779506993229
 21
359.3320486919189
 31
0.0
 11
212.9687009853316
 21
359.3176528410595
 31
0.0
 11
213.1216325801166
 21
359.3032569902001
 31
0.0
 11
213.2291352614278
 21
359.2888611393406
 31
0.0
 11
213.2858594524754
 21
359.2744652884812
 31
0.0
 11
213.2868899045721
 21
359.2723049343709
 31
0.0
  0
SPLINE
  5
1F2F
330
1F
100
AcDbEntity
  8
0
  6
Continuous
 62
     7
370
     9
100
AcDbSpline
210
0.0
220
0.0
230
1.0
 70
     8
 71
     3
 72
    21
 73
    17
 74
    15
 42
0.0000000001
 43
0.0000000001
 44
0.0000000001
 12
0.4929694063175559
 22
-0.8700466449765302
 32
0.0
 13
0.1614492973955897
 23
-0.9868810082124745
 33
0.0
 40
0.0
 40
0.0
 40
0.0
 40
0.0
 40
0.0178170539527002
 40
0.0786937432088744
 40
0.1893696760054795
 40
0.3448979692040919
 40
0.5377154427278655
 40
0.7583154402667373
 40
0.9957782807896675
 40
1.238333280071717
 40
1.473953423383882
 40
1.690960850760975
 40
1.878617705364468
 40
2.027682076087357
 40
2.130938762633256
 40
2.18390996953913
 40
2.18390996953913
 40
2.18390996953913
 40
2.18390996953913
 10
211.1174652104882
 20
359.8733880149182
 30
0.0
 10
211.120392964658
 20
359.8682207922466
 30
0.0
 10
211.1487593605357
 20
359.8602225844709
 30
0.0
 10
211.206689482469
 20
359.8454883269622
 30
0.0
 10
211.3175339825128
 20
359.8342151784893
 30
0.0
 10
211.46879803138
 20
359.8198152517359
 30
0.0
 10
211.658368924152
 20
359.806248548747
 30
0.0
 10
211.8747449552205
 20
359.792180957252
 30
0.0
 10
212.1078803756363
 20
359.7781627925168
 30
0.0
 10
212.3460953924434
 20
359.7641815389538
 30
0.0
 10
212.5770659067911
 20
359.7499115136565
 30
0.0
 10
212.7911374078471
 20
359.73676272815
 30
0.0
 10
212.971919423874
 20
359.720502515884
 30
0.0
 10
213.1265896752886
 20
359.7133353042837
 30
0.0
 10
213.2090024798025
 20
359.6867009142937
 30
0.0
 10
213.2859230431445
 20
359.6951185301048
 30
0.0
 10
213.2887737645236
 20
359.6776931040789
 30
0.0
 11
211.1174652104882
 21
359.8733880149182
 31
0.0
 11
211.1330177640012
 21
359.8646951735657
 31
0.0
 11
211.192167833932
 21
359.8502993227063
 31
0.0
 11
211.3019035235614
 21
359.8359034718469
 31
0.0
 11
211.4567641365762
 21
359.8215076209875
 31
0.0
 11
211.64904345833
 21
359.807111770128
 31
0.0
 11
211.8691732345807
 21
359.7927159192686
 31
0.0
 11
212.106199309322
 21
359.7783200684093
 31
0.0
 11
212.3483267285763
 21
359.7639242175498
 31
0.0
 11
212.5835066839585
 21
359.7495283667283
 31
0.0
 11
212.8000360884625
 21
359.7351325158689
 31
0.0
 11
212.987139948812
 21
359.7207366650094
 31
0.0
 11
213.1355075534198
 21
359.70634081415
 31
0.0
 11
213.2377557944534
 21
359.6919449632907
 31
0.0
 11
213.2887737645236
 21
359.6776931040789
 31
0.0
  0
SPLINE
  5
1F30
330
1F
100
AcDbEntity
  8
0
  6
Continuous
 62
     7
370
     9
100
AcDbSpline
210
0.0
220
0.0
230
1.0
 70
     8
 71
     3
 72
     8
 73
     4
 74
     2
 42
0.0000000001
 43
0.0000000001
 44
0.0000000001
 12
0.0
 22
-1.0
 32
0.0
 13
0.1003076508315724
 23
-0.9949564689898002
 33
0.0
 40
0.0
 40
0.0
 40
0.0
 40
0.0
 40
0.0010096964125735
 40
0.0010096964125735
 40
0.0010096964125735
 40
0.0010096964125735
 10
210.9562746032604
 20
359.7770465893195
 30
0.0
 10
210.9562746032604
 20
359.7767100238487
 30
0.0
 10
210.9562905387885
 20
359.7763729846099
 30
0.0
 10
210.9563242988802
 20
359.7760381166174
 30
0.0
 11
210.9562746032604
 21
359.7770465893195
 31
0.0
 11
210.9563242988802
 21
359.7760381166174
 31
0.0
  0
SPLINE
  5
1F31
330
1F
100
AcDbEntity
  8
0
  6
Continuous
 62
     7
370
     9
100
AcDbSpline
210
0.0
220
0.0
230
1.0
 70
     8
 71
     3
 72
    22
 73
    18
 74
    16
 42
0.0000000001
 43
0.0000000001
 44
0.0000000001
 12
0.1003076473057551
 22
-0.9949564693452595
 32
0.0
 13
0.8034306909058082
 23
-0.5953982909873153
 33
0.0
 40
0.0
 40
0.0
 40
0.0
 40
0.0
 40
0.0301234345751199
 40
0.1141331004611784
 40
0.2482683442512444
 40
0.4231560690566264
 40
0.6380576403533711
 40
0.883671724309887
 40
1.143719148680897
 40
1.402728077449089
 40
1.655086371594345
 40
1.893066182306332
 40
2.103557152357958
 40
2.276687168779102
 40
2.407649432601945
 40
2.488296796547134
 40
2.511875241497092
 40
2.511875241497092
 40
2.511875241497092
 40
2.511875241497092
 10
210.9563242988802
 20
359.7760381166174
 30
0.0
 10
210.9573315024972
 20
359.7660476145809
 30
0.0
 10
211.0102382656228
 20
359.7617313449122
 30
0.0
 10
211.0776156036823
 20
359.7450931574958
 30
0.0
 10
211.2158678895604
 20
359.7352687250583
 30
0.0
 10
211.3868488860524
 20
359.7212407257538
 30
0.0
 10
211.5993967119047
 20
359.7084663134576
 30
0.0
 10
211.8388370947005
 20
359.6950146368268
 30
0.0
 10
212.0934953939479
 20
359.6817922440551
 30
0.0
 10
212.3502606047272
 20
359.6686305587501
 30
0.0
 10
212.5997344257548
 20
359.6556287791668
 30
0.0
 10
212.8328942788224
 20
359.6424071401309
 30
0.0
 10
213.039950845888
 20
359.6299623578018
 30
0.0
 10
213.2102782278014
 20
359.615615240996
 30
0.0
 10
213.3397004522951
 20
359.606867273869
 30
0.0
 10
213.414184220066
 20
359.5890653719626
 30
0.0
 10
213.4510294689288
 20
359.5866537337361
 30
0.0
 10
213.457344017701
 20
359.5819742117936
 30
0.0
 11
210.9563242988802
 21
359.7760381166174
 31
0.0
 11
210.9837313206648
 21
359.7635370579622
 31
0.0
 11
211.0666122241121
 21
359.749811905648
 31
0.0
 11
211.2000533713336
 21
359.7361838516846
 31
0.0
 11
211.3744309439446
 21
359.7228355013024
 31
0.0
 11
211.5889012579781
 21
359.7092277923044
 31
0.0
 11
211.834128508499
 21
359.695448320625
 31
0.0
 11
212.0938177494319
 21
359.6818042352524
 31
0.0
 11
212.3524836878667
 21
359.6684791658228
 31
0.0
 11
212.6044914428072
 21
359.6551825469376
 31
0.0
 11
212.8420914450003
 21
359.6417427082364
 31
0.0
 11
213.0521531438173
 21
359.6283065196628
 31
0.0
 11
213.2247669156154
 21
359.6149465656341
 31
0.0
 11
213.3550299185153
 21
359.6014312180213
 31
0.0
 11
213.4345552351751
 21
359.5880251999149
 31
0.0
 11
213.457344017701
 21
359.5819742117936
 31
0.0
  0
LINE
  5
1F32
330
1F
100
AcDbEntity
  8
0
370
     9
100
AcDbLine
 10
213.1991277021235
 20
391.5690744998904
 30
0.0
 11
210.9541332700591
 21
390.2729263602088
 31
0.0
  0
LINE
  5
1F33
330
1F
100
AcDbEntity
  8
0
370
     9
100
AcDbLine
 10
213.2991277021234
 20
391.3958694191334
 30
0.0
 11
211.054133270059
 21
390.0997212794519
 31
0.0
  0
TEXT
  5
1F34
330
1F
100
AcDbEntity
  8
0
 62
     7
370
     9
100
AcDbText
 10
214.2710031777919
 20
389.8636789701488
 30
0.0
 40
2.0
  1
RCE1
  7
型式1
100
AcDbText
  0
LINE
  5
1F35
330
1F
100
AcDbEntity
  8
0
  6
Continuous
 62
     7
370
     9
100
AcDbLine
 10
246.1347588423005
 20
388.6318043458191
 30
0.0
 11
246.1347588423005
 21
392.6869914335231
 31
0.0
  0
LINE
  5
1F36
330
1F
100
AcDbEntity
  8
0
370
     9
100
AcDbLine
 10
277.1347588423005
 20
394.2093978896711
 30
0.0
 11
277.1347588423005
 21
387.4593978896711
 31
0.0
  0
LINE
  5
1F37
330
1F
100
AcDbEntity
  8
0
370
     9
100
AcDbLine
 10
275.1347588423005
 20
394.2093978896711
 30
0.0
 11
273.9956027605436
 21
394.2093978896711
 31
0.0
  0
LINE
  5
1F38
330
1F
100
AcDbEntity
  8
0
370
     9
100
AcDbLine
 10
275.1347588423005
 20
387.4593978896711
 30
0.0
 11
273.9956027605436
 21
387.4593978896711
 31
0.0
  0
LINE
  5
1F39
330
1F
100
AcDbEntity
  8
0
370
     9
100
AcDbLine
 10
273.6347588423007
 20
394.8343978896711
 30
0.0
 11
273.9956027605436
 21
394.2093978896711
 31
0.0
  0
LINE
  5
1F3A
330
1F
100
AcDbEntity
  8
0
370
     9
100
AcDbLine
 10
273.6347588423007
 20
394.8343978896711
 30
0.0
 11
273.2739149240571
 21
394.2093978896711
 31
0.0
  0
LINE
  5
1F3B
330
1F
100
AcDbEntity
  8
0
370
     9
100
AcDbLine
 10
272.6347588423001
 20
394.8343978896711
 30
0.0
 11
272.9956027605441
 21
394.2093978896711
 31
0.0
  0
LINE
  5
1F3C
330
1F
100
AcDbEntity
  8
0
370
     9
100
AcDbLine
 10
273.2739149240571
 20
394.2093978896711
 30
0.0
 11
272.9956027605441
 21
394.2093978896711
 31
0.0
  0
LINE
  5
1F3D
330
1F
100
AcDbEntity
  8
0
370
     9
100
AcDbLine
 10
272.6347588423001
 20
394.8343978896711
 30
0.0
 11
272.2739149240573
 21
394.2093978896711
 31
0.0
  0
LINE
  5
1F3E
330
1F
100
AcDbEntity
  8
0
370
     9
100
AcDbLine
 10
272.2739149240573
 20
394.2093978896711
 30
0.0
 11
271.1347588423002
 21
394.2093978896711
 31
0.0
  0
LINE
  5
1F3F
330
1F
100
AcDbEntity
  8
0
370
     9
100
AcDbLine
 10
272.6347588423001
 20
386.834397889671
 30
0.0
 11
272.9956027605441
 21
387.4593978896709
 31
0.0
  0
LINE
  5
1F40
330
1F
100
AcDbEntity
  8
0
370
     9
100
AcDbLine
 10
273.2739149240571
 20
387.4593978896709
 30
0.0
 11
273.6347588423007
 21
386.834397889671
 31
0.0
  0
LINE
  5
1F41
330
1F
100
AcDbEntity
  8
0
370
     9
100
AcDbLine
 10
273.6347588423007
 20
386.834397889671
 30
0.0
 11
273.9956027605436
 21
387.4593978896709
 31
0.0
  0
LINE
  5
1F42
330
1F
100
AcDbEntity
  8
0
370
     9
100
AcDbLine
 10
273.2739149240571
 20
387.4593978896711
 30
0.0
 11
272.9956027605441
 21
387.4593978896711
 31
0.0
  0
LINE
  5
1F43
330
1F
100
AcDbEntity
  8
0
370
     9
100
AcDbLine
 10
272.2739149240573
 20
387.4593978896709
 30
0.0
 11
272.6347588423001
 21
386.834397889671
 31
0.0
  0
LINE
  5
1F44
330
1F
100
AcDbEntity
  8
0
370
     9
100
AcDbLine
 10
271.2739149240567
 20
387.4593978896711
 30
0.0
 11
271.6347588423007
 21
386.834397889671
 31
0.0
  0
LINE
  5
1F45
330
1F
100
AcDbEntity
  8
0
370
     9
100
AcDbLine
 10
271.2739149240567
 20
387.4593978896711
 30
0.0
 11
271.1347588423002
 21
387.4593978896711
 31
0.0
  0
LINE
  5
1F46
330
1F
100
AcDbEntity
  8
0
370
     9
100
AcDbLine
 10
271.6347588423007
 20
386.834397889671
 30
0.0
 11
271.9956027605442
 21
387.4593978896711
 31
0.0
  0
LINE
  5
1F47
330
1F
100
AcDbEntity
  8
0
370
     9
100
AcDbLine
 10
272.2739149240573
 20
387.4593978896711
 30
0.0
 11
271.9956027605442
 21
387.4593978896711
 31
0.0
  0
LINE
  5
1F48
330
1F
100
AcDbEntity
  8
0
370
     9
100
AcDbLine
 10
273.6347588423007
 20
394.8343978896711
 30
0.0
 11
272.6347588423001
 21
386.834397889671
 31
0.0
  0
LINE
  5
1F49
330
1F
100
AcDbEntity
  8
0
370
     9
100
AcDbLine
 10
274.5566338423001
 20
394.2093978896711
 30
0.0
 11
273.6347588423007
 21
386.834397889671
 31
0.0
  0
LINE
  5
1F4A
330
1F
100
AcDbEntity
  8
0
370
     9
100
AcDbLine
 10
271.1347588423002
 20
395.3343978896711
 30
0.0
 11
271.1347588423002
 21
386.334397889671
 31
0.0
  0
LINE
  5
1F4B
330
1F
100
AcDbEntity
  8
0
370
     9
100
AcDbLine
 10
272.6347588423001
 20
394.8343978896711
 30
0.0
 11
271.6347588423007
 21
386.834397889671
 31
0.0
  0
LINE
  5
1F4C
330
1F
100
AcDbEntity
  8
0
370
     9
100
AcDbLine
 10
275.1347588423005
 20
394.509397889671
 30
0.0
 11
275.1347588423005
 21
387.1593978896709
 31
0.0
  0
LINE
  5
1F4D
330
1F
100
AcDbEntity
  8
0
370
     9
100
AcDbLine
 10
277.1347588423005
 20
394.2093978896711
 30
0.0
 11
275.1347588423005
 21
394.509397889671
 31
0.0
  0
LINE
  5
1F4E
330
1F
100
AcDbEntity
  8
0
370
     9
100
AcDbLine
 10
277.1347588423005
 20
387.4593978896711
 30
0.0
 11
275.1347588423005
 21
387.1593978896709
 31
0.0
  0
LINE
  5
1F4F
330
1F
100
AcDbEntity
  8
0
370
     9
100
AcDbLine
 10
255.1347588423002
 20
395.3343978896711
 30
0.0
 11
255.1347588423002
 21
391.8343978896711
 31
0.0
  0
LINE
  5
1F50
330
1F
100
AcDbEntity
  8
0
370
     9
100
AcDbLine
 10
255.1347588423002
 20
389.834397889671
 30
0.0
 11
255.1347588423002
 21
386.334397889671
 31
0.0
  0
LINE
  5
1F51
330
1F
100
AcDbEntity
  8
0
370
     9
100
AcDbLine
 10
253.6347588423003
 20
395.1677312230044
 30
0.0
 11
253.6347588423003
 21
391.8343978896711
 31
0.0
  0
LINE
  5
1F52
330
1F
100
AcDbEntity
  8
0
370
     9
100
AcDbLine
 10
253.6347588423003
 20
389.834397889671
 30
0.0
 11
253.6347588423003
 21
386.5010645563376
 31
0.0
  0
LINE
  5
1F53
330
1F
100
AcDbEntity
  8
0
370
     9
100
AcDbLine
 10
255.1347588423002
 20
391.8343978896711
 30
0.0
 11
253.6347588423003
 21
391.8343978896711
 31
0.0
  0
LINE
  5
1F54
330
1F
100
AcDbEntity
  8
0
370
     9
100
AcDbLine
 10
255.1347588423002
 20
389.834397889671
 30
0.0
 11
253.6347588423003
 21
389.834397889671
 31
0.0
  0
LINE
  5
1F55
330
1F
100
AcDbEntity
  8
0
370
     9
100
AcDbLine
 10
246.1347588423006
 20
392.8968979888091
 30
0.0
 11
246.1347588423006
 21
388.421897790533
 31
0.0
  0
LINE
  5
1F56
330
1F
100
AcDbEntity
  8
0
370
     9
100
AcDbLine
 10
249.1347588423004
 20
389.834397889671
 30
0.0
 11
247.6347588423005
 21
389.834397889671
 31
0.0
  0
LINE
  5
1F57
330
1F
100
AcDbEntity
  8
0
370
     9
100
AcDbLine
 10
249.1347588423004
 20
391.8343978896711
 30
0.0
 11
247.6347588423005
 21
391.8343978896711
 31
0.0
  0
LINE
  5
1F58
330
1F
100
AcDbEntity
  8
0
370
     9
100
AcDbLine
 10
246.1347588423006
 20
394.3343978896711
 30
0.0
 11
247.6347588423005
 21
394.5010645563376
 31
0.0
  0
LINE
  5
1F59
330
1F
100
AcDbEntity
  8
0
370
     9
100
AcDbLine
 10
247.6347588423005
 20
394.5010645563376
 30
0.0
 11
247.6347588423005
 21
391.8343978896711
 31
0.0
  0
LINE
  5
1F5A
330
1F
100
AcDbEntity
  8
0
370
     9
100
AcDbLine
 10
249.1347588423004
 20
394.6677312230043
 30
0.0
 11
249.1347588423004
 21
391.8343978896711
 31
0.0
  0
LINE
  5
1F5B
330
1F
100
AcDbEntity
  8
0
370
     9
100
AcDbLine
 10
246.1347588423006
 20
387.3343978896709
 30
0.0
 11
247.6347588423005
 21
387.1677312230043
 31
0.0
  0
LINE
  5
1F5C
330
1F
100
AcDbEntity
  8
0
370
     9
100
AcDbLine
 10
252.1347588423003
 20
395.0010645563377
 30
0.0
 11
252.1347588423003
 21
386.6677312230043
 31
0.0
  0
LINE
  5
1F5D
330
1F
100
AcDbEntity
  8
0
370
     9
100
AcDbLine
 10
250.6347588423004
 20
394.8343978896711
 30
0.0
 11
250.6347588423004
 21
386.834397889671
 31
0.0
  0
LINE
  5
1F5E
330
1F
100
AcDbEntity
  8
0
370
     9
100
AcDbLine
 10
246.1347588423006
 20
394.3343978896711
 30
0.0
 11
246.1347588423006
 21
387.3343978896709
 31
0.0
  0
LINE
  5
1F5F
330
1F
100
AcDbEntity
  8
0
370
     9
100
AcDbLine
 10
247.6347588423005
 20
389.834397889671
 30
0.0
 11
247.6347588423005
 21
387.1677312230043
 31
0.0
  0
LINE
  5
1F60
330
1F
100
AcDbEntity
  8
0
370
     9
100
AcDbLine
 10
249.1347588423004
 20
389.834397889671
 30
0.0
 11
249.1347588423004
 21
387.0010645563376
 31
0.0
  0
LINE
  5
1F61
330
1F
100
AcDbEntity
  8
0
370
     9
100
AcDbLine
 10
249.1347588423004
 20
394.6677312230043
 30
0.0
 11
253.6347588423003
 21
395.1677312230044
 31
0.0
  0
LINE
  5
1F62
330
1F
100
AcDbEntity
  8
0
370
     9
100
AcDbLine
 10
249.1347588423004
 20
387.0010645563376
 30
0.0
 11
253.6347588423003
 21
386.5010645563376
 31
0.0
  0
LINE
  5
1F63
330
1F
100
AcDbEntity
  8
0
370
     9
100
AcDbLine
 10
271.1347588423002
 20
386.334397889671
 30
0.0
 11
255.1347588423002
 21
386.334397889671
 31
0.0
  0
LINE
  5
1F64
330
1F
100
AcDbEntity
  8
0
370
     9
100
AcDbLine
 10
271.1347588423002
 20
395.3343978896711
 30
0.0
 11
255.1347588423002
 21
395.3343978896711
 31
0.0
  0
ARC
  5
1F65
330
1F
100
AcDbEntity
  8
0
  6
Continuous
 62
     7
370
     9
100
AcDbCircle
 10
242.7269037555365
 20
391.6985018349393
 30
0.0
 40
1.209152595828989
100
AcDbArc
 50
153.6917871835371
 51
225.0
  0
ARC
  5
1F66
330
1F
100
AcDbEntity
  8
0
  6
Continuous
 62
     7
370
     9
100
AcDbCircle
 10
241.27109745201
 20
391.6802939444028
 30
0.0
 40
1.209152595828989
100
AcDbArc
 50
152.7252385029191
 51
225.0
  0
ARC
  5
1F67
330
1F
100
AcDbEntity
  8
0
  6
Continuous
 62
     7
370
     9
100
AcDbCircle
 10
239.56109745201
 20
389.9702939444029
 30
0.0
 40
1.209152595829016
100
AcDbArc
 50
333.6917871835408
 51
45.0
  0
ARC
  5
1F68
330
1F
100
AcDbEntity
  8
0
  6
Continuous
 62
     7
370
     9
100
AcDbCircle
 10
241.0169037555365
 20
389.9885018349394
 30
0.0
 40
1.209152595829016
100
AcDbArc
 50
332.7252385029228
 51
45.0
  0
LINE
  5
1F69
330
1F
100
AcDbEntity
  8
0
 62
     7
370
     9
100
AcDbLine
 10
247.6347588423005
 20
392.2343978896711
 30
0.0
 11
249.1347588423004
 21
392.2343978896712
 31
0.0
  0
LINE
  5
1F6A
330
1F
100
AcDbEntity
  8
0
 62
     7
370
     9
100
AcDbLine
 10
250.6347588423004
 20
392.2343978896711
 30
0.0
 11
252.1347588423003
 21
392.2343978896711
 31
0.0
  0
LINE
  5
1F6B
330
1F
100
AcDbEntity
  8
0
 62
     7
370
     9
100
AcDbLine
 10
253.6347588423003
 20
392.2343978896711
 30
0.0
 11
255.1347588423002
 21
392.2343978896712
 31
0.0
  0
LINE
  5
1F6C
330
1F
100
AcDbEntity
  8
0
 62
     7
370
     9
100
AcDbLine
 10
247.6347588423005
 20
389.4343978896711
 30
0.0
 11
249.1347588423004
 21
389.4343978896711
 31
0.0
  0
LINE
  5
1F6D
330
1F
100
AcDbEntity
  8
0
 62
     7
370
     9
100
AcDbLine
 10
250.6347588423004
 20
389.4343978896711
 30
0.0
 11
252.1347588423003
 21
389.4343978896711
 31
0.0
  0
LINE
  5
1F6E
330
1F
100
AcDbEntity
  8
0
 62
     7
370
     9
100
AcDbLine
 10
253.6347588423003
 20
389.4343978896711
 30
0.0
 11
255.1347588423002
 21
389.4343978896711
 31
0.0
  0
LINE
  5
1F6F
330
1F
100
AcDbEntity
  8
0
 62
     7
370
     9
100
AcDbLine
 10
232.1266304860913
 20
392.2343978896711
 30
0.0
 11
240.1963794341849
 21
392.2343978896712
 31
0.0
  0
LINE
  5
1F70
330
1F
100
AcDbEntity
  8
0
 62
     7
370
     9
100
AcDbLine
 10
241.6429916656866
 20
392.2343978896712
 30
0.0
 11
246.1347588423005
 21
392.2343978896712
 31
0.0
  0
LINE
  5
1F71
330
1F
100
AcDbEntity
  8
0
 62
     7
370
     9
100
AcDbLine
 10
232.1266304860913
 20
389.4343978896711
 30
0.0
 11
240.64500954186
 21
389.4343978896711
 31
0.0
  0
LINE
  5
1F72
330
1F
100
AcDbEntity
  8
0
 62
     7
370
     9
100
AcDbLine
 10
242.0916217733617
 20
389.4343978896711
 30
0.0
 11
246.1347588423005
 21
389.4343978896712
 31
0.0
  0
ARC
  5
1F73
330
1F
100
AcDbEntity
  8
0
  6
Continuous
 62
     7
370
     9
100
AcDbCircle
 10
159.2548660563999
 20
391.6985018349393
 30
0.0
 40
1.209152595828989
100
AcDbArc
 50
153.6917871835371
 51
225.0
  0
ARC
  5
1F74
330
1F
100
AcDbEntity
  8
0
  6
Continuous
 62
     7
370
     9
100
AcDbCircle
 10
241.27109745201
 20
358.3332754926872
 30
0.0
 40
1.209152595828989
100
AcDbArc
 50
152.7252385029191
 51
225.0
  0
ARC
  5
1F75
330
1F
100
AcDbEntity
  8
0
  6
Continuous
 62
     7
370
     9
100
AcDbCircle
 10
239.56109745201
 20
356.6232754926873
 30
0.0
 40
1.209152595829016
100
AcDbArc
 50
333.6917871835408
 51
45.0
  0
ARC
  5
1F76
330
1F
100
AcDbEntity
  8
0
  6
Continuous
 62
     7
370
     9
100
AcDbCircle
 10
157.5448660563999
 20
389.9885018349394
 30
0.0
 40
1.209152595829016
100
AcDbArc
 50
332.7252385029228
 51
45.0
  0
LINE
  5
1F77
330
1F
100
AcDbEntity
  8
0
 62
     7
370
     9
100
AcDbLine
 10
232.1266304860913
 20
358.8873794379556
 30
0.0
 11
240.1963794341849
 21
358.8873794379556
 31
0.0
  0
LINE
  5
1F78
330
1F
100
AcDbEntity
  8
0
 62
     7
370
     9
100
AcDbLine
 10
159.5562789865363
 20
392.2343978896711
 30
0.0
 11
164.9924217789584
 21
392.2343978896711
 31
0.0
  0
LINE
  5
1F79
330
1F
100
AcDbEntity
  8
0
 62
     7
370
     9
100
AcDbLine
 10
236.0484847044229
 20
356.0873794379556
 30
0.0
 11
240.64500954186
 21
356.0873794379556
 31
0.0
  0
LINE
  5
1F7A
330
1F
100
AcDbEntity
  8
0
 62
     7
370
     9
100
AcDbLine
 10
160.0049090942115
 20
389.4343978896711
 30
0.0
 11
164.9924217789584
 21
389.4343978896711
 31
0.0
  0
LINE
  5
1F7B
330
1F
100
AcDbEntity
  8
0
 62
     7
370
     9
100
AcDbLine
 10
232.1266304860913
 20
356.0873794379555
 30
0.0
 11
236.0484847044229
 21
356.0873794379556
 31
0.0
  0
LINE
  5
1F7C
330
1F
100
AcDbEntity
  8
0
 62
     7
370
     9
100
AcDbLine
 10
177.9924217789583
 20
391.7093978896711
 30
0.0
 11
177.9924217789583
 21
391.2093978896711
 31
0.0
  0
LINE
  5
1F7D
330
1F
100
AcDbEntity
  8
0
 62
     7
370
     9
100
AcDbLine
 10
177.9924217789583
 20
389.9593978896711
 30
0.0
 11
177.9924217789583
 21
390.4593978896711
 31
0.0
  0
LINE
  5
1F7E
330
1F
100
AcDbEntity
  8
0
 62
     7
370
     9
100
AcDbLine
 10
173.9924217789583
 20
391.8093978896711
 30
0.0
 11
173.9924217789583
 21
391.0093978896711
 31
0.0
  0
LINE
  5
1F7F
330
1F
100
AcDbEntity
  8
0
 62
     7
370
     9
100
AcDbLine
 10
173.9924217789583
 20
389.8593978896712
 30
0.0
 11
173.9924217789583
 21
390.6593978896711
 31
0.0
  0
LINE
  5
1F80
330
1F
100
AcDbEntity
  8
0
 62
     7
370
     9
100
AcDbLine
 10
173.9924217789583
 20
389.9593978896711
 30
0.0
 11
177.9924217789583
 21
389.9593978896711
 31
0.0
  0
LINE
  5
1F81
330
1F
100
AcDbEntity
  8
0
 62
     7
370
     9
100
AcDbLine
 10
173.9924217789583
 20
390.4593978896711
 30
0.0
 11
177.9924217789583
 21
390.4593978896711
 31
0.0
  0
LINE
  5
1F82
330
1F
100
AcDbEntity
  8
0
 62
     7
370
     9
100
AcDbLine
 10
173.9924217789583
 20
391.2093978896711
 30
0.0
 11
177.9924217789583
 21
391.2093978896711
 31
0.0
  0
LINE
  5
1F83
330
1F
100
AcDbEntity
  8
0
 62
     7
370
     9
100
AcDbLine
 10
173.9924217789583
 20
391.7093978896711
 30
0.0
 11
177.9924217789583
 21
391.7093978896711
 31
0.0
  0
LINE
  5
1F84
330
1F
100
AcDbEntity
  8
0
 62
     7
370
     9
100
AcDbLine
 10
164.9924217789584
 20
390.6593978896711
 30
0.0
 11
169.5571175080243
 21
390.6593978896711
 31
0.0
  0
LINE
  5
1F85
330
1F
100
AcDbEntity
  8
0
 62
     7
370
     9
100
AcDbLine
 10
164.9924217789584
 20
389.8593978896711
 30
0.0
 11
169.6942987082119
 21
389.8593978896712
 31
0.0
  0
LINE
  5
1F86
330
1F
100
AcDbEntity
  8
0
 62
     7
370
     9
100
AcDbLine
 10
164.9924217789584
 20
391.8093978896711
 30
0.0
 11
169.0058155209682
 21
391.8093978896711
 31
0.0
  0
LINE
  5
1F87
330
1F
100
AcDbEntity
  8
0
 62
     7
370
     9
100
AcDbLine
 10
164.9924217789584
 20
391.0093978896711
 30
0.0
 11
169.2787382789693
 21
391.0093978896711
 31
0.0
  0
LINE
  5
1F88
330
1F
100
AcDbEntity
  8
0
 62
     7
370
     9
100
AcDbLine
 10
171.0229540118777
 20
390.6593978896711
 30
0.0
 11
173.9924217789583
 21
390.6593978896711
 31
0.0
  0
LINE
  5
1F89
330
1F
100
AcDbEntity
  8
0
 62
     7
370
     9
100
AcDbLine
 10
171.1614898206081
 20
389.8593978896711
 30
0.0
 11
173.9924217789583
 21
389.8593978896711
 31
0.0
  0
LINE
  5
1F8A
330
1F
100
AcDbEntity
  8
0
 62
     7
370
     9
100
AcDbLine
 10
170.4627776530107
 20
391.8093978896711
 30
0.0
 11
173.9924217789583
 21
391.8093978896711
 31
0.0
  0
LINE
  5
1F8B
330
1F
100
AcDbEntity
  8
0
 62
     7
370
     9
100
AcDbLine
 10
170.7498030438271
 20
391.0093978896711
 30
0.0
 11
173.9924217789583
 21
391.0093978896711
 31
0.0
  0
LINE
  5
1F8C
330
1F
100
AcDbEntity
  8
0
370
     9
100
AcDbLine
 10
164.9924217789584
 20
392.2343978896711
 30
0.0
 11
164.9924217789584
 21
389.4343978896711
 31
0.0
  0
LINE
  5
1F8D
330
1F
100
AcDbEntity
  8
0
370
     9
100
AcDbLine
 10
164.9924217789584
 20
391.7093978896711
 30
0.0
 11
164.9924217789584
 21
389.9593978896711
 31
0.0
  0
ARC
  5
1F8E
330
1F
100
AcDbEntity
  8
0
  6
Continuous
 62
     7
370
     9
100
AcDbCircle
 10
170.2130827950433
 20
391.7768940299105
 30
0.0
 40
1.209152595828989
100
AcDbArc
 50
170.1185020473043
 51
225.0
  0
ARC
  5
1F8F
330
1F
100
AcDbEntity
  8
0
  6
Continuous
 62
     7
370
     9
100
AcDbCircle
 10
171.6688890985698
 20
391.795101920447
 30
0.0
 40
1.209152595828989
100
AcDbArc
 50
170.9931475738522
 51
225.0
  0
ARC
  5
1F90
330
1F
100
AcDbEntity
  8
0
  6
Continuous
 62
     7
370
     9
100
AcDbCircle
 10
169.9588890985698
 20
390.085101920447
 30
0.0
 40
1.209152595829016
100
AcDbArc
 50
340.6466871802776
 51
45.0
  0
ARC
  5
1F91
330
1F
100
AcDbEntity
  8
0
  6
Continuous
 62
     7
370
     9
100
AcDbCircle
 10
168.5030827950433
 20
390.0668940299105
 30
0.0
 40
1.209152595829016
100
AcDbArc
 50
341.5586319037369
 51
45.0
  0
LINE
  5
1F92
330
1F
100
AcDbEntity
  8
0
370
     9
100
AcDbLine
 10
232.1266304860913
 20
392.2343978896711
 30
0.0
 11
232.1266304860913
 21
389.4343978896711
 31
0.0
  0
LINE
  5
1F93
330
1F
100
AcDbEntity
  8
0
370
     9
100
AcDbLine
 10
232.1266304860913
 20
358.9873794379555
 30
0.0
 11
232.1266304860913
 21
356.0873794379555
 31
0.0
  0
DIMENSION
  5
1F94
330
1F
100
AcDbEntity
  8
AM_5
100
AcDbDimension
  2
*D16
 10
232.1266304860913
 20
367.4112341641592
 30
0.0
 11
221.5019152979182
 21
367.4112341641592
 31
0.0
 70
   160
 71
     5
 42
22.0
  3
AM_ISO$0
100
AcDbAlignedDimension
 13
210.1266304860912
 23
358.7123794379555
 33
0.0
 14
232.1266304860913
 24
359.8623794379555
 34
0.0
100
AcDbRotatedDimension
  0
DIMENSION
  5
1F95
330
1F
100
AcDbEntity
  8
AM_5
100
AcDbDimension
  2
*D17
 10
205.7415207342897
 20
355.2123794379555
 30
0.0
 11
205.7415207342896
 21
357.5373794379556
 31
0.0
 70
   160
 71
     5
 42
4.649999999999977
  3
AM_ISO$0
100
AcDbAlignedDimension
 13
214.1266304860912
 23
359.8623794379555
 33
0.0
 14
214.1266304860912
 24
355.2123794379555
 34
0.0
 50
90.0
100
AcDbRotatedDimension
1001
ACAD
1000
DSTYLE
1002
{
1070
   147
1040
1.199999999999999
1002
}
  0
DIMENSION
  5
1F96
330
1F
100
AcDbEntity
  8
AM_5
100
AcDbDimension
  2
*D18
 10
277.1347588423005
 20
367.4112341641592
 30
0.0
 11
254.6306946641959
 21
369.8612341641592
 31
0.0
 70
    32
  1
150%%p10
 71
     5
 42
45.00812835620928
  3
AM_ISO$0
100
AcDbAlignedDimension
 13
232.1266304860913
 23
356.0873794379555
 33
0.0
 14
277.1347588423005
 24
360.8623794379555
 34
0.0
100
AcDbRotatedDimension
  0
LINE
  5
1F97
330
1F
100
AcDbEntity
  8
0
 62
     0
370
     9
100
AcDbLine
 10
228.7121254651387
 20
392.0843542675612
 30
0.0
 11
227.3482238436341
 21
389.5843542675611
 31
0.0
  0
SPLINE
  5
1F98
330
1F
100
AcDbEntity
  8
layer 1
 62
     0
370
     9
100
AcDbSpline
210
0.0
220
0.0
230
1.0
 70
    24
 71
     3
 72
     8
 73
     4
 74
     0
 42
0.0000000001
 43
0.0000000001
 40
0.75
 40
0.75
 40
0.75
 40
0.75
 40
1.0
 40
1.0
 40
1.0
 40
1.0
 10
227.7210232746936
 20
389.5843542675611
 30
0.0
 10
227.7210232746936
 20
389.5843542675611
 30
0.0
 10
228.3484106726366
 20
390.7340617828623
 30
0.0
 10
228.3484106726366
 20
390.7340617828623
 30
0.0
  0
SPLINE
  5
1F99
330
1F
100
AcDbEntity
  8
layer 1
 62
     0
370
     9
100
AcDbSpline
210
0.0
220
0.0
230
1.0
 70
    24
 71
     3
 72
     8
 73
     4
 74
     0
 42
0.0000000001
 43
0.0000000001
 40
0.1666666666666666
 40
0.1666666666666666
 40
0.1666666666666666
 40
0.1666666666666666
 40
0.2588925533261621
 40
0.2588925533261621
 40
0.2588925533261621
 40
0.2588925533261621
 10
228.3484106726366
 20
390.7340617828623
 30
0.0
 10
228.3484106726366
 20
390.7340617828623
 30
0.0
 10
228.5405180177524
 20
391.0862591882733
 30
0.0
 10
228.7121254651387
 20
391.400873383177
 30
0.0
  0
SPLINE
  5
1F9A
330
1F
100
AcDbEntity
  8
layer 1
 62
     0
370
     9
100
AcDbSpline
210
0.0
220
0.0
230
1.0
 70
    24
 71
     3
 72
     8
 73
     4
 74
     0
 42
0.0000000001
 43
0.0000000001
 40
0.3825602506726924
 40
0.3825602506726924
 40
0.3825602506726924
 40
0.3825602506726924
 40
0.5
 40
0.5
 40
0.5
 40
0.5
 10
228.7121254651387
 20
391.400873383177
 30
0.0
 10
228.7121254651387
 20
390.7262998523032
 30
0.0
 10
228.7121254651387
 20
389.5843542675611
 30
0.0
 10
228.7121254651387
 20
389.5843542675611
 30
0.0
  0
SPLINE
  5
1F9B
330
1F
100
AcDbEntity
  8
layer 1
 62
     0
370
     9
100
AcDbSpline
210
0.0
220
0.0
230
1.0
 70
    24
 71
     3
 72
     8
 73
     4
 74
     0
 42
0.0000000001
 43
0.0000000001
 40
0.327901997387451
 40
0.327901997387451
 40
0.327901997387451
 40
0.327901997387451
 40
0.4285714285714286
 40
0.4285714285714286
 40
0.4285714285714286
 40
0.4285714285714286
 10
229.0843495588699
 20
390.2673015914394
 30
0.0
 10
229.0843495588699
 20
390.9420050080838
 30
0.0
 10
229.0843495588699
 20
392.0843542675612
 30
0.0
 10
229.0843495588699
 20
392.0843542675612
 30
0.0
  0
SPLINE
  5
1F9C
330
1F
100
AcDbEntity
  8
layer 1
 62
     0
370
     9
100
AcDbSpline
210
0.0
220
0.0
230
1.0
 70
    24
 71
     3
 72
     8
 73
     4
 74
     0
 42
0.0000000001
 43
0.0000000001
 40
0.1428571428571428
 40
0.1428571428571428
 40
0.1428571428571428
 40
0.1428571428571428
 40
0.2219104167003699
 40
0.2219104167003699
 40
0.2219104167003699
 40
0.2219104167003699
 10
229.4480807228896
 20
390.9341420588088
 30
0.0
 10
229.4480807228896
 20
390.9341420588088
 30
0.0
 10
229.2559611593812
 20
390.5819228590435
 30
0.0
 10
229.0843495588699
 20
390.2673015914394
 30
0.0
  0
SPLINE
  5
1F9D
330
1F
100
AcDbEntity
  8
layer 1
 62
     0
370
     9
100
AcDbSpline
210
0.0
220
0.0
230
1.0
 70
    24
 71
     3
 72
     8
 73
     4
 74
     0
 42
0.0000000001
 43
0.0000000001
 40
0.0
 40
0.0
 40
0.0
 40
0.0
 40
0.2
 40
0.2
 40
0.2
 40
0.2
 10
229.4480807228896
 20
390.9341420588088
 30
0.0
 10
229.4480807228896
 20
390.9341420588088
 30
0.0
 10
230.0754681208326
 20
392.0843542675612
 30
0.0
 10
230.0754681208326
 20
392.0843542675612
 30
0.0
  0
SPLINE
  5
1F9E
330
1F
100
AcDbEntity
  8
layer 1
 62
     0
370
     9
100
AcDbSpline
210
0.0
220
0.0
230
1.0
 70
    24
 71
     3
 72
     8
 73
     4
 74
     0
 42
0.0000000001
 43
0.0000000001
 40
0.0
 40
0.0
 40
0.0
 40
0.0
 40
0.2
 40
0.2
 40
0.2
 40
0.2
 10
229.7117369568129
 20
390.7340617828623
 30
0.0
 10
229.7117369568129
 20
390.7340617828623
 30
0.0
 10
229.0843495588699
 20
389.5843542675611
 30
0.0
 10
229.0843495588699
 20
389.5843542675611
 30
0.0
  0
SPLINE
  5
1F9F
330
1F
100
AcDbEntity
  8
layer 1
 62
     0
370
     9
100
AcDbSpline
210
0.0
220
0.0
230
1.0
 70
    24
 71
     3
 72
     8
 73
     4
 74
     0
 42
0.0000000001
 43
0.0000000001
 40
0.1428571428571428
 40
0.1428571428571428
 40
0.1428571428571428
 40
0.1428571428571428
 40
0.2219132452528163
 40
0.2219132452528163
 40
0.2219132452528163
 40
0.2219132452528163
 10
229.7117369568129
 20
390.7340617828623
 30
0.0
 10
229.7117369568129
 20
390.7340617828623
 30
0.0
 10
229.9038702687711
 20
391.0863067942329
 30
0.0
 10
230.0754865417144
 20
391.4009371693522
 30
0.0
  0
SPLINE
  5
1FA0
330
1F
100
AcDbEntity
  8
layer 1
 62
     0
370
     9
100
AcDbSpline
210
0.0
220
0.0
230
1.0
 70
    24
 71
     3
 72
     8
 73
     4
 74
     0
 42
0.0000000001
 43
0.0000000001
 40
0.3279056134096089
 40
0.3279056134096089
 40
0.3279056134096089
 40
0.3279056134096089
 40
0.4285714285714286
 40
0.4285714285714286
 40
0.4285714285714286
 40
0.4285714285714286
 10
230.0754865417144
 20
391.4009371693522
 30
0.0
 10
230.0754865417144
 20
390.7263718415691
 30
0.0
 10
230.0754865417144
 20
389.5843542675611
 30
0.0
 10
230.0754865417144
 20
389.5843542675611
 30
0.0
  0
SPLINE
  5
1FA1
330
1F
100
AcDbEntity
  8
layer 1
 62
     0
370
     9
100
AcDbSpline
210
0.0
220
0.0
230
1.0
 70
    24
 71
     3
 72
     8
 73
     4
 74
     0
 42
0.0000000001
 43
0.0000000001
 40
0.0
 40
0.0
 40
0.0
 40
0.0
 40
0.25
 40
0.25
 40
0.25
 40
0.25
 10
230.4485005232277
 20
392.0843542675612
 30
0.0
 10
230.4485005232277
 20
392.0843542675612
 30
0.0
 10
230.4485005232277
 20
389.5843542675611
 30
0.0
 10
230.4485005232277
 20
389.5843542675611
 30
0.0
  0
DIMENSION
  5
1FA2
330
1F
100
AcDbEntity
  8
AM_5
100
AcDbDimension
  2
*D19
 10
205.7415207342897
 20
392.8837880397216
 30
0.0
 11
205.7415207342896
 21
390.8343978881089
 31
0.0
 70
   160
 71
     5
 42
4.098780303225453
  3
AM_ISO$0
100
AcDbAlignedDimension
 13
210.1266304860912
 23
388.7850077364961
 33
0.0
 14
210.1265168666344
 24
392.8837880397216
 34
0.0
 50
90.0
100
AcDbRotatedDimension
1001
ACAD
1000
DSTYLE
1002
{
1070
   147
1040
1.199999999999999
1002
}
  0
LINE
  5
1FA3
330
1F
100
AcDbEntity
  8
0
  6
Continuous
 62
     7
370
     9
100
AcDbLine
 10
246.1347588423005
 20
355.2847858941035
 30
0.0
 11
246.1347588423005
 21
359.3399729818075
 31
0.0
  0
LINE
  5
1FA4
330
1F
100
AcDbEntity
  8
0
370
     9
100
AcDbLine
 10
277.1347588423005
 20
360.8623794379555
 30
0.0
 11
277.1347588423005
 21
354.1123794379555
 31
0.0
  0
LINE
  5
1FA5
330
1F
100
AcDbEntity
  8
0
370
     9
100
AcDbLine
 10
275.1347588423005
 20
360.8623794379555
 30
0.0
 11
273.9956027605436
 21
360.8623794379555
 31
0.0
  0
LINE
  5
1FA6
330
1F
100
AcDbEntity
  8
0
370
     9
100
AcDbLine
 10
275.1347588423005
 20
354.1123794379555
 30
0.0
 11
273.9956027605436
 21
354.1123794379555
 31
0.0
  0
LINE
  5
1FA7
330
1F
100
AcDbEntity
  8
0
370
     9
100
AcDbLine
 10
273.6347588423007
 20
361.4873794379555
 30
0.0
 11
273.9956027605436
 21
360.8623794379555
 31
0.0
  0
LINE
  5
1FA8
330
1F
100
AcDbEntity
  8
0
370
     9
100
AcDbLine
 10
273.6347588423007
 20
361.4873794379555
 30
0.0
 11
273.2739149240571
 21
360.8623794379555
 31
0.0
  0
LINE
  5
1FA9
330
1F
100
AcDbEntity
  8
0
370
     9
100
AcDbLine
 10
272.6347588423001
 20
361.4873794379555
 30
0.0
 11
272.9956027605441
 21
360.8623794379555
 31
0.0
  0
LINE
  5
1FAA
330
1F
100
AcDbEntity
  8
0
370
     9
100
AcDbLine
 10
273.2739149240571
 20
360.8623794379555
 30
0.0
 11
272.9956027605441
 21
360.8623794379555
 31
0.0
  0
LINE
  5
1FAB
330
1F
100
AcDbEntity
  8
0
370
     9
100
AcDbLine
 10
272.6347588423001
 20
361.4873794379555
 30
0.0
 11
272.2739149240573
 21
360.8623794379555
 31
0.0
  0
LINE
  5
1FAC
330
1F
100
AcDbEntity
  8
0
370
     9
100
AcDbLine
 10
272.2739149240573
 20
360.8623794379555
 30
0.0
 11
271.1347588423002
 21
360.8623794379555
 31
0.0
  0
LINE
  5
1FAD
330
1F
100
AcDbEntity
  8
0
370
     9
100
AcDbLine
 10
272.6347588423001
 20
353.4873794379554
 30
0.0
 11
272.9956027605441
 21
354.1123794379553
 31
0.0
  0
LINE
  5
1FAE
330
1F
100
AcDbEntity
  8
0
370
     9
100
AcDbLine
 10
273.2739149240571
 20
354.1123794379553
 30
0.0
 11
273.6347588423007
 21
353.4873794379554
 31
0.0
  0
LINE
  5
1FAF
330
1F
100
AcDbEntity
  8
0
370
     9
100
AcDbLine
 10
273.6347588423007
 20
353.4873794379554
 30
0.0
 11
273.9956027605436
 21
354.1123794379553
 31
0.0
  0
LINE
  5
1FB0
330
1F
100
AcDbEntity
  8
0
370
     9
100
AcDbLine
 10
273.2739149240571
 20
354.1123794379555
 30
0.0
 11
272.9956027605441
 21
354.1123794379555
 31
0.0
  0
LINE
  5
1FB1
330
1F
100
AcDbEntity
  8
0
370
     9
100
AcDbLine
 10
272.2739149240573
 20
354.1123794379553
 30
0.0
 11
272.6347588423001
 21
353.4873794379554
 31
0.0
  0
LINE
  5
1FB2
330
1F
100
AcDbEntity
  8
0
370
     9
100
AcDbLine
 10
271.2739149240567
 20
354.1123794379555
 30
0.0
 11
271.6347588423007
 21
353.4873794379554
 31
0.0
  0
LINE
  5
1FB3
330
1F
100
AcDbEntity
  8
0
370
     9
100
AcDbLine
 10
271.2739149240567
 20
354.1123794379555
 30
0.0
 11
271.1347588423002
 21
354.1123794379555
 31
0.0
  0
LINE
  5
1FB4
330
1F
100
AcDbEntity
  8
0
370
     9
100
AcDbLine
 10
271.6347588423007
 20
353.4873794379554
 30
0.0
 11
271.9956027605442
 21
354.1123794379555
 31
0.0
  0
LINE
  5
1FB5
330
1F
100
AcDbEntity
  8
0
370
     9
100
AcDbLine
 10
272.2739149240573
 20
354.1123794379555
 30
0.0
 11
271.9956027605442
 21
354.1123794379555
 31
0.0
  0
LINE
  5
1FB6
330
1F
100
AcDbEntity
  8
0
370
     9
100
AcDbLine
 10
273.6347588423007
 20
361.4873794379555
 30
0.0
 11
272.6347588423001
 21
353.4873794379554
 31
0.0
  0
LINE
  5
1FB7
330
1F
100
AcDbEntity
  8
0
370
     9
100
AcDbLine
 10
274.5566338423001
 20
360.8623794379555
 30
0.0
 11
273.6347588423007
 21
353.4873794379554
 31
0.0
  0
LINE
  5
1FB8
330
1F
100
AcDbEntity
  8
0
370
     9
100
AcDbLine
 10
271.1347588423002
 20
361.9873794379554
 30
0.0
 11
271.1347588423002
 21
352.9873794379554
 31
0.0
  0
LINE
  5
1FB9
330
1F
100
AcDbEntity
  8
0
370
     9
100
AcDbLine
 10
272.6347588423001
 20
361.4873794379555
 30
0.0
 11
271.6347588423007
 21
353.4873794379554
 31
0.0
  0
LINE
  5
1FBA
330
1F
100
AcDbEntity
  8
0
370
     9
100
AcDbLine
 10
275.1347588423005
 20
361.1623794379554
 30
0.0
 11
275.1347588423005
 21
353.8123794379553
 31
0.0
  0
LINE
  5
1FBB
330
1F
100
AcDbEntity
  8
0
370
     9
100
AcDbLine
 10
277.1347588423005
 20
360.8623794379555
 30
0.0
 11
275.1347588423005
 21
361.1623794379554
 31
0.0
  0
LINE
  5
1FBC
330
1F
100
AcDbEntity
  8
0
370
     9
100
AcDbLine
 10
277.1347588423005
 20
354.1123794379555
 30
0.0
 11
275.1347588423005
 21
353.8123794379553
 31
0.0
  0
LINE
  5
1FBD
330
1F
100
AcDbEntity
  8
0
370
     9
100
AcDbLine
 10
255.1347588423002
 20
361.9873794379554
 30
0.0
 11
255.1347588423002
 21
358.4873794379555
 31
0.0
  0
LINE
  5
1FBE
330
1F
100
AcDbEntity
  8
0
370
     9
100
AcDbLine
 10
255.1347588423002
 20
356.4873794379554
 30
0.0
 11
255.1347588423002
 21
352.9873794379554
 31
0.0
  0
LINE
  5
1FBF
330
1F
100
AcDbEntity
  8
0
370
     9
100
AcDbLine
 10
253.6347588423003
 20
361.8207127712888
 30
0.0
 11
253.6347588423003
 21
358.4873794379555
 31
0.0
  0
LINE
  5
1FC0
330
1F
100
AcDbEntity
  8
0
370
     9
100
AcDbLine
 10
253.6347588423003
 20
356.4873794379554
 30
0.0
 11
253.6347588423003
 21
353.154046104622
 31
0.0
  0
LINE
  5
1FC1
330
1F
100
AcDbEntity
  8
0
370
     9
100
AcDbLine
 10
255.1347588423002
 20
358.4873794379555
 30
0.0
 11
253.6347588423003
 21
358.4873794379555
 31
0.0
  0
LINE
  5
1FC2
330
1F
100
AcDbEntity
  8
0
370
     9
100
AcDbLine
 10
255.1347588423002
 20
356.4873794379554
 30
0.0
 11
253.6347588423003
 21
356.4873794379554
 31
0.0
  0
LINE
  5
1FC3
330
1F
100
AcDbEntity
  8
0
370
     9
100
AcDbLine
 10
246.1347588423006
 20
359.5498795370935
 30
0.0
 11
246.1347588423006
 21
355.0748793388174
 31
0.0
  0
LINE
  5
1FC4
330
1F
100
AcDbEntity
  8
0
370
     9
100
AcDbLine
 10
249.1347588423004
 20
356.4873794379554
 30
0.0
 11
247.6347588423005
 21
356.4873794379554
 31
0.0
  0
LINE
  5
1FC5
330
1F
100
AcDbEntity
  8
0
370
     9
100
AcDbLine
 10
249.1347588423004
 20
358.4873794379555
 30
0.0
 11
247.6347588423005
 21
358.4873794379555
 31
0.0
  0
LINE
  5
1FC6
330
1F
100
AcDbEntity
  8
0
370
     9
100
AcDbLine
 10
246.1347588423006
 20
360.9873794379555
 30
0.0
 11
247.6347588423005
 21
361.154046104622
 31
0.0
  0
LINE
  5
1FC7
330
1F
100
AcDbEntity
  8
0
370
     9
100
AcDbLine
 10
247.6347588423005
 20
361.154046104622
 30
0.0
 11
247.6347588423005
 21
358.4873794379555
 31
0.0
  0
LINE
  5
1FC8
330
1F
100
AcDbEntity
  8
0
370
     9
100
AcDbLine
 10
249.1347588423004
 20
361.3207127712887
 30
0.0
 11
249.1347588423004
 21
358.4873794379555
 31
0.0
  0
LINE
  5
1FC9
330
1F
100
AcDbEntity
  8
0
370
     9
100
AcDbLine
 10
246.1347588423006
 20
353.9873794379553
 30
0.0
 11
247.6347588423005
 21
353.8207127712887
 31
0.0
  0
LINE
  5
1FCA
330
1F
100
AcDbEntity
  8
0
370
     9
100
AcDbLine
 10
252.1347588423003
 20
361.6540461046221
 30
0.0
 11
252.1347588423003
 21
353.3207127712887
 31
0.0
  0
LINE
  5
1FCB
330
1F
100
AcDbEntity
  8
0
370
     9
100
AcDbLine
 10
250.6347588423004
 20
361.4873794379555
 30
0.0
 11
250.6347588423004
 21
353.4873794379554
 31
0.0
  0
LINE
  5
1FCC
330
1F
100
AcDbEntity
  8
0
370
     9
100
AcDbLine
 10
246.1347588423006
 20
360.9873794379555
 30
0.0
 11
246.1347588423006
 21
353.9873794379553
 31
0.0
  0
LINE
  5
1FCD
330
1F
100
AcDbEntity
  8
0
370
     9
100
AcDbLine
 10
247.6347588423005
 20
356.4873794379554
 30
0.0
 11
247.6347588423005
 21
353.8207127712887
 31
0.0
  0
LINE
  5
1FCE
330
1F
100
AcDbEntity
  8
0
370
     9
100
AcDbLine
 10
249.1347588423004
 20
356.4873794379554
 30
0.0
 11
249.1347588423004
 21
353.654046104622
 31
0.0
  0
LINE
  5
1FCF
330
1F
100
AcDbEntity
  8
0
370
     9
100
AcDbLine
 10
249.1347588423004
 20
361.3207127712887
 30
0.0
 11
253.6347588423003
 21
361.8207127712888
 31
0.0
  0
LINE
  5
1FD0
330
1F
100
AcDbEntity
  8
0
370
     9
100
AcDbLine
 10
249.1347588423004
 20
353.654046104622
 30
0.0
 11
253.6347588423003
 21
353.154046104622
 31
0.0
  0
LINE
  5
1FD1
330
1F
100
AcDbEntity
  8
0
370
     9
100
AcDbLine
 10
271.1347588423002
 20
352.9873794379554
 30
0.0
 11
255.1347588423002
 21
352.9873794379554
 31
0.0
  0
LINE
  5
1FD2
330
1F
100
AcDbEntity
  8
0
370
     9
100
AcDbLine
 10
271.1347588423002
 20
361.9873794379554
 30
0.0
 11
255.1347588423002
 21
361.9873794379554
 31
0.0
  0
ARC
  5
1FD3
330
1F
100
AcDbEntity
  8
0
  6
Continuous
 62
     7
370
     9
100
AcDbCircle
 10
242.7269037555365
 20
358.3514833832237
 30
0.0
 40
1.209152595828989
100
AcDbArc
 50
153.6917871835371
 51
225.0
  0
ARC
  5
1FD4
330
1F
100
AcDbEntity
  8
0
  6
Continuous
 62
     7
370
     9
100
AcDbCircle
 10
241.0169037555365
 20
356.6414833832238
 30
0.0
 40
1.209152595829016
100
AcDbArc
 50
332.7252385029228
 51
45.0
  0
LINE
  5
1FD5
330
1F
100
AcDbEntity
  8
0
 62
     7
370
     9
100
AcDbLine
 10
247.6347588423005
 20
358.8873794379555
 30
0.0
 11
249.1347588423004
 21
358.8873794379556
 31
0.0
  0
LINE
  5
1FD6
330
1F
100
AcDbEntity
  8
0
 62
     7
370
     9
100
AcDbLine
 10
250.6347588423004
 20
358.8873794379555
 30
0.0
 11
252.1347588423003
 21
358.8873794379555
 31
0.0
  0
LINE
  5
1FD7
330
1F
100
AcDbEntity
  8
0
 62
     7
370
     9
100
AcDbLine
 10
253.6347588423003
 20
358.8873794379555
 30
0.0
 11
255.1347588423002
 21
358.8873794379556
 31
0.0
  0
LINE
  5
1FD8
330
1F
100
AcDbEntity
  8
0
 62
     7
370
     9
100
AcDbLine
 10
247.6347588423005
 20
356.0873794379555
 30
0.0
 11
249.1347588423004
 21
356.0873794379555
 31
0.0
  0
LINE
  5
1FD9
330
1F
100
AcDbEntity
  8
0
 62
     7
370
     9
100
AcDbLine
 10
250.6347588423004
 20
356.0873794379555
 30
0.0
 11
252.1347588423003
 21
356.0873794379555
 31
0.0
  0
LINE
  5
1FDA
330
1F
100
AcDbEntity
  8
0
 62
     7
370
     9
100
AcDbLine
 10
253.6347588423003
 20
356.0873794379555
 30
0.0
 11
255.1347588423002
 21
356.0873794379555
 31
0.0
  0
LINE
  5
1FDB
330
1F
100
AcDbEntity
  8
0
 62
     7
370
     9
100
AcDbLine
 10
241.6429916656866
 20
358.8873794379556
 30
0.0
 11
246.1347588423005
 21
358.8873794379556
 31
0.0
  0
LINE
  5
1FDC
330
1F
100
AcDbEntity
  8
0
 62
     7
370
     9
100
AcDbLine
 10
242.0916217733617
 20
356.0873794379555
 30
0.0
 11
246.1347588423005
 21
356.0873794379556
 31
0.0
  0
LINE
  5
1FDD
330
1F
100
AcDbEntity
  8
0
370
     9
100
AcDbLine
 10
129.4840054839479
 20
358.2123794379555
 30
0.0
 11
129.4840054839479
 21
359.2123794379555
 31
0.0
  0
LINE
  5
1FDE
330
1F
100
AcDbEntity
  8
0
370
     9
100
AcDbLine
 10
129.4840054839479
 20
388.7850077364961
 30
0.0
 11
129.4840054839479
 21
392.8837880428711
 31
0.0
  0
LINE
  5
1FDF
330
1F
100
AcDbEntity
  8
0
370
     9
100
AcDbLine
 10
133.4840054839479
 20
389.2843978896711
 30
0.0
 11
133.4840054839479
 21
392.3843978896711
 31
0.0
  0
LINE
  5
1FE0
330
1F
100
AcDbEntity
  8
0
370
     9
100
AcDbLine
 10
151.4840054839479
 20
388.7843978896711
 30
0.0
 11
129.4840054839479
 21
388.7850077364961
 31
0.0
  0
LINE
  5
1FE1
330
1F
100
AcDbEntity
  8
0
370
     9
100
AcDbLine
 10
151.4840054839479
 20
389.2843978896711
 30
0.0
 11
129.4840054839479
 21
389.2843978896711
 31
0.0
  0
LINE
  5
1FE2
330
1F
100
AcDbEntity
  8
0
370
     9
100
AcDbLine
 10
143.6840054839479
 20
390.1343978896711
 30
0.0
 11
145.4840054839479
 21
390.1343978896711
 31
0.0
  0
LINE
  5
1FE3
330
1F
100
AcDbEntity
  8
0
370
     9
100
AcDbLine
 10
145.4840054839479
 20
391.5343978896712
 30
0.0
 11
143.6840054839479
 21
391.5343978896712
 31
0.0
  0
LINE
  5
1FE4
330
1F
100
AcDbEntity
  8
0
370
     9
100
AcDbLine
 10
129.4840054839479
 20
392.3843978896711
 30
0.0
 11
151.4840054839479
 21
392.3843978896711
 31
0.0
  0
LINE
  5
1FE5
330
1F
100
AcDbEntity
  8
0
370
     9
100
AcDbLine
 10
151.4840054839479
 20
392.8843978896711
 30
0.0
 11
129.4840054839479
 21
392.8837880428711
 31
0.0
  0
LINE
  5
1FE6
330
1F
100
AcDbEntity
  8
0
370
     9
100
AcDbLine
 10
143.1840054839479
 20
391.0343978896711
 30
0.0
 11
143.1840054839479
 21
390.6343978896711
 31
0.0
  0
LINE
  5
1FE7
330
1F
100
AcDbEntity
  8
0
370
     9
100
AcDbLine
 10
145.9840054839479
 20
390.6343978896711
 30
0.0
 11
145.9840054839479
 21
391.0343978896711
 31
0.0
  0
LINE
  5
1FE8
330
1F
100
AcDbEntity
  8
0
370
     9
100
AcDbLine
 10
151.4840054839479
 20
388.7843978896711
 30
0.0
 11
151.4840054839479
 21
392.8843978896711
 31
0.0
  0
ARC
  5
1FE9
330
1F
100
AcDbEntity
  8
0
370
     9
100
AcDbCircle
 10
143.6840054839479
 20
390.6343978896711
 30
0.0
 40
0.5
100
AcDbArc
 50
180.0
 51
270.0
  0
ARC
  5
1FEA
330
1F
100
AcDbEntity
  8
0
370
     9
100
AcDbCircle
 10
143.6840054839479
 20
391.0343978896711
 30
0.0
 40
0.5
100
AcDbArc
 50
90.0
 51
180.0
  0
ARC
  5
1FEB
330
1F
100
AcDbEntity
  8
0
370
     9
100
AcDbCircle
 10
145.4840054839479
 20
391.0343978896711
 30
0.0
 40
0.5
100
AcDbArc
 50
0.0
 51
90.0
  0
ARC
  5
1FEC
330
1F
100
AcDbEntity
  8
0
370
     9
100
AcDbCircle
 10
145.4840054839479
 20
390.6343978896711
 30
0.0
 40
0.5
100
AcDbArc
 50
270.0
 51
0.0
  0
CIRCLE
  5
1FED
330
1F
100
AcDbEntity
  8
0
370
     9
100
AcDbCircle
 10
131.4840054839479
 20
390.8343978896711
 30
0.0
 40
1.3
  0
LINE
  5
1FEE
330
1F
100
AcDbEntity
  8
0
370
     9
100
AcDbLine
 10
129.4840054839479
 20
355.2123794379555
 30
0.0
 11
129.4840054839479
 21
357.2123794379555
 31
0.0
  0
LINE
  5
1FEF
330
1F
100
AcDbEntity
  8
0
370
     9
100
AcDbLine
 10
133.4840054839479
 20
357.2123794379555
 30
0.0
 11
133.4840054839479
 21
358.2123794379555
 31
0.0
  0
LINE
  5
1FF0
330
1F
100
AcDbEntity
  8
0
370
     9
100
AcDbLine
 10
133.4840054839479
 20
359.2123794379555
 30
0.0
 11
133.4840054839479
 21
359.8623794379555
 31
0.0
  0
LINE
  5
1FF1
330
1F
100
AcDbEntity
  8
DEFAULT_2
 48
3.0
370
     9
100
AcDbLine
 10
132.7842545047979
 20
355.2123794379555
 30
0.0
 11
132.7785252673229
 21
355.2123794379555
 31
0.0
  0
LINE
  5
1FF2
330
1F
100
AcDbEntity
  8
0
370
     9
100
AcDbLine
 10
151.4840054839479
 20
355.2123794379555
 30
0.0
 11
132.7842545047979
 21
355.2123794379555
 31
0.0
  0
LINE
  5
1FF3
330
1F
100
AcDbEntity
  8
DEFAULT_2
 48
3.0
370
     9
100
AcDbLine
 10
130.1894854882729
 20
355.2123794379555
 30
0.0
 11
130.1837544667229
 21
355.2123794379555
 31
0.0
  0
LINE
  5
1FF4
330
1F
100
AcDbEntity
  8
0
370
     9
100
AcDbLine
 10
130.1837544667229
 20
355.2123794379555
 30
0.0
 11
129.4840054839479
 21
355.2123794379555
 31
0.0
  0
LINE
  5
1FF5
330
1F
100
AcDbEntity
  8
0
370
     9
100
AcDbLine
 10
133.4840054839479
 20
357.2123794379555
 30
0.0
 11
129.4840054839479
 21
357.2123794379555
 31
0.0
  0
LINE
  5
1FF6
330
1F
100
AcDbEntity
  8
0
370
     9
100
AcDbLine
 10
133.4840054839479
 20
358.2123794379555
 30
0.0
 11
129.4840054839479
 21
358.2123794379555
 31
0.0
  0
LINE
  5
1FF7
330
1F
100
AcDbEntity
  8
0
370
     9
100
AcDbLine
 10
133.4840054839479
 20
359.2123794379555
 30
0.0
 11
129.4840054839479
 21
359.2123794379555
 31
0.0
  0
LINE
  5
1FF8
330
1F
100
AcDbEntity
  8
0
370
     9
100
AcDbLine
 10
151.4840054839479
 20
359.8623794379555
 30
0.0
 11
133.4840054839479
 21
359.8623794379555
 31
0.0
  0
LINE
  5
1FF9
330
1F
100
AcDbEntity
  8
0
370
     9
100
AcDbLine
 10
151.4840054839479
 20
355.2123794379555
 30
0.0
 11
151.4840054839479
 21
359.8623794379555
 31
0.0
  0
SPLINE
  5
1FFA
330
1F
100
AcDbEntity
  8
DEFAULT_2
 48
3.0
370
     9
100
AcDbSpline
210
0.0
220
0.0
230
1.0
 70
     8
 71
     3
 72
     8
 73
     4
 74
     2
 42
0.0000000001
 43
0.0000000001
 44
0.0000000001
 12
0.8451040590166007
 22
-0.5346018419662112
 32
0.0
 13
-0.4827628273608195
 23
-0.8757511361788735
 33
0.0
 40
0.0
 40
0.0
 40
0.0
 40
0.0
 40
0.0042563040375708
 40
0.0042563040375708
 40
0.0042563040375708
 40
0.0042563040375708
 10
132.778671882623
 20
355.2157575667055
 30
0.0
 10
132.7798708892291
 20
355.2149990907127
 30
0.0
 10
132.782950015555
 20
355.2147186062545
 30
0.0
 10
132.782265087098
 20
355.2134761185556
 30
0.0
 11
132.778671882623
 21
355.2157575667055
 31
0.0
 11
132.782265087098
 21
355.2134761185556
 31
0.0
  0
SPLINE
  5
1FFB
330
1F
100
AcDbEntity
  8
DEFAULT_2
 48
3.0
370
     9
100
AcDbSpline
210
0.0
220
0.0
230
1.0
 70
     8
 71
     3
 72
     9
 73
     5
 74
     3
 42
0.0000000001
 43
0.0000000001
 44
0.0000000001
 12
0.8463944276438681
 22
-0.5325565442780786
 32
0.0
 13
0.8451040591771674
 23
-0.5346018417123855
 33
0.0
 40
0.0
 40
0.0
 40
0.0
 40
0.0
 40
0.0133048527678038
 40
0.0136565857312039
 40
0.0136565857312039
 40
0.0136565857312039
 40
0.0136565857312039
 10
132.767121869223
 20
355.2230445082805
 30
0.0
 10
132.7708755869707
 20
355.2206826461431
 30
0.0
 10
132.7747256442009
 20
355.2182537373338
 30
0.0
 10
132.7785727989712
 20
355.2158202457355
 30
0.0
 10
132.778671882623
 20
355.2157575667055
 30
0.0
 11
132.767121869223
 21
355.2230445082805
 31
0.0
 11
132.7783746258229
 21
355.2159455945556
 31
0.0
 11
132.778671882623
 21
355.2157575667055
 31
0.0
  0
SPLINE
  5
1FFC
330
1F
100
AcDbEntity
  8
DEFAULT_2
 48
3.0
370
     9
100
AcDbSpline
210
0.0
220
0.0
230
1.0
 70
     8
 71
     3
 72
     8
 73
     4
 74
     2
 42
0.0000000001
 43
0.0000000001
 44
0.0000000001
 12
0.8503474161623728
 22
-0.5262216945603598
 32
0.0
 13
0.8463944273434156
 23
-0.5325565447555892
 33
0.0
 40
0.0
 40
0.0
 40
0.0
 40
0.0
 40
0.0404157878553768
 40
0.0404157878553768
 40
0.0404157878553768
 40
0.0404157878553768
 10
132.7328346654729
 20
355.2444413203555
 30
0.0
 10
132.7442904857312
 20
355.2373520988981
 30
0.0
 10
132.7557193033505
 20
355.2302190723918
 30
0.0
 10
132.767121869223
 20
355.2230445082805
 30
0.0
 11
132.7328346654729
 21
355.2444413203555
 31
0.0
 11
132.767121869223
 21
355.2230445082805
 31
0.0
  0
SPLINE
  5
1FFD
330
1F
100
AcDbEntity
  8
DEFAULT_2
 48
3.0
370
     9
100
AcDbSpline
210
0.0
220
0.0
230
1.0
 70
     8
 71
     3
 72
     9
 73
     5
 74
     3
 42
0.0000000001
 43
0.0000000001
 44
0.0000000001
 12
0.8552296572215571
 22
-0.5182492001042528
 32
0.0
 13
0.850347415962007
 23
-0.5262216948841403
 33
0.0
 40
0.0
 40
0.0
 40
0.0
 40
0.0
 40
0.0477726951224259
 40
0.0484723475705459
 40
0.0484723475705459
 40
0.0484723475705459
 40
0.0484723475705459
 10
132.6914985798979
 20
355.2697572400555
 30
0.0
 10
132.7051174551226
 20
355.2615045197109
 30
0.0
 10
132.7188963459568
 20
355.2530655398623
 30
0.0
 10
132.7326363495891
 20
355.2445640444545
 30
0.0
 10
132.7328346654729
 20
355.2444413203555
 30
0.0
 11
132.6914985798979
 21
355.2697572400555
 31
0.0
 11
132.7322396935979
 21
355.2448094535055
 31
0.0
 11
132.7328346654729
 21
355.2444413203555
 31
0.0
  0
SPLINE
  5
1FFE
330
1F
100
AcDbEntity
  8
DEFAULT_2
 48
3.0
370
     9
100
AcDbSpline
210
0.0
220
0.0
230
1.0
 70
     8
 71
     3
 72
     8
 73
     4
 74
     2
 42
0.0000000001
 43
0.0000000001
 44
0.0000000001
 12
0.8611800650454982
 22
-0.5083000054773084
 32
0.0
 13
0.8552296571131487
 23
-0.5182492002831518
 33
0.0
 40
0.0
 40
0.0
 40
0.0
 40
0.0
 40
0.0566400607814138
 40
0.0566400607814138
 40
0.0566400607814138
 40
0.0566400607814138
 10
132.6428908757979
 20
355.2988327897056
 30
0.0
 10
132.6591499728739
 20
355.2892360753038
 30
0.0
 10
132.6753518266443
 20
355.2795417954568
 30
0.0
 10
132.6914985798979
 20
355.2697572400555
 30
0.0
 11
132.6428908757979
 21
355.2988327897056
 31
0.0
 11
132.6914985798979
 21
355.2697572400555
 31
0.0
  0
SPLINE
  5
1FFF
330
1F
100
AcDbEntity
  8
DEFAULT_2
 48
3.0
370
     9
100
AcDbSpline
210
0.0
220
0.0
230
1.0
 70
     8
 71
     3
 72
     8
 73
     4
 74
     2
 42
0.0000000001
 43
0.0000000001
 44
0.0000000001
 12
0.8723631686130687
 22
-0.4888583660400698
 32
0.0
 13
0.8611800650241567
 23
-0.5083000055134658
 33
0.0
 40
0.0
 40
0.0
 40
0.0
 40
0.0
 40
0.0996228846692156
 40
0.0996228846692156
 40
0.0996228846692156
 40
0.0996228846692156
 10
132.5565461277229
 20
355.3485248779056
 30
0.0
 10
132.5855152395017
 20
355.3322910510323
 30
0.0
 10
132.6142931283655
 20
355.3157122273144
 30
0.0
 10
132.6428908757979
 20
355.2988327897056
 30
0.0
 11
132.5565461277229
 21
355.3485248779056
 31
0.0
 11
132.6428908757979
 21
355.2988327897056
 31
0.0
  0
SPLINE
  5
2000
330
1F
100
AcDbEntity
  8
DEFAULT_2
 48
3.0
370
     9
100
AcDbSpline
210
0.0
220
0.0
230
1.0
 70
     8
 71
     3
 72
     8
 73
     4
 74
     2
 42
0.0000000001
 43
0.0000000001
 44
0.0000000001
 12
0.8780554361215246
 22
-0.4785589316870382
 32
0.0
 13
0.8723631685932144
 23
-0.4888583660754997
 33
0.0
 40
0.0
 40
0.0
 40
0.0
 40
0.0
 40
0.0481156330958711
 40
0.0481156330958711
 40
0.0481156330958711
 40
0.0481156330958711
 10
132.5144353069229
 20
355.3718013235056
 30
0.0
 10
132.5285180379903
 20
355.3641259348483
 30
0.0
 10
132.5425546923408
 20
355.3563654544982
 30
0.0
 10
132.5565461277229
 20
355.3485248779056
 30
0.0
 11
132.5144353069229
 21
355.3718013235056
 31
0.0
 11
132.5565461277229
 21
355.3485248779056
 31
0.0
  0
SPLINE
  5
2001
330
1F
100
AcDbEntity
  8
DEFAULT_2
 48
3.0
370
     9
100
AcDbSpline
210
0.0
220
0.0
230
1.0
 70
     8
 71
     3
 72
     8
 73
     4
 74
     2
 42
0.0000000001
 43
0.0000000001
 44
0.0000000001
 12
0.9012224301243982
 22
-0.4333568176926195
 32
0.0
 13
0.8780554361692239
 23
-0.4785589315995199
 33
0.0
 40
0.0
 40
0.0
 40
0.0
 40
0.0
 40
0.1811959148087327
 40
0.1811959148087327
 40
0.1811959148087327
 40
0.1811959148087327
 10
132.3532586325229
 20
355.4545904482306
 30
0.0
 10
132.4076912400805
 20
355.4284162865571
 30
0.0
 10
132.4614019542531
 20
355.4007056313059
 30
0.0
 10
132.5144353069229
 20
355.3718013235056
 30
0.0
 11
132.3532586325229
 21
355.4545904482306
 31
0.0
 11
132.5144353069229
 21
355.3718013235056
 31
0.0
  0
SPLINE
  5
2002
330
1F
100
AcDbEntity
  8
DEFAULT_2
 48
3.0
370
     9
100
AcDbSpline
210
0.0
220
0.0
230
1.0
 70
     8
 71
     3
 72
    17
 73
    13
 74
    11
 42
0.0000000001
 43
0.0000000001
 44
0.0000000001
 12
0.90122243013781
 22
-0.4333568176647279
 32
0.0
 13
-0.9105379044594389
 23
0.4134255973480763
 33
0.0
 40
0.0
 40
0.0
 40
0.0
 40
0.0
 40
0.1808831682744341
 40
0.3282159909079351
 40
0.4333410578519846
 40
0.4877612225420303
 40
0.4881129555054304
 40
0.5418469123320607
 40
0.6468376499834357
 40
0.7948067722028683
 40
0.9763473929968663
 40
1.042662834615957
 40
1.042662834615957
 40
1.042662834615957
 40
1.042662834615957
 10
132.3532586325229
 20
355.4545904482306
 30
0.0
 10
132.4075972886841
 20
355.4284614635064
 30
0.0
 10
132.5048995461761
 20
355.3782662394168
 30
0.0
 10
132.6303883612737
 20
355.3068459267191
 30
0.0
 10
132.7180602283364
 20
355.2537914733166
 30
0.0
 10
132.7630338382113
 20
355.2256493183335
 30
0.0
 10
132.7938200957637
 20
355.2061756632582
 30
0.0
 10
132.6909529297595
 20
355.2709492202397
 30
0.0
 10
132.6447723188103
 20
355.2977916175121
 30
0.0
 10
132.4999972444364
 20
355.3813839751715
 30
0.0
 10
132.388648211064
 20
355.4382904151601
 30
0.0
 10
132.313172789763
 20
355.4735272752673
 30
0.0
 10
132.2930452153479
 20
355.4826661089555
 30
0.0
 11
132.3532586325229
 21
355.4545904482306
 31
0.0
 11
132.5141606099229
 21
355.3719510252305
 31
0.0
 11
132.6422761833229
 21
355.2991955410555
 31
0.0
 11
132.7322396935979
 21
355.2448094535055
 31
0.0
 11
132.7783746258229
 21
355.2159455945556
 31
0.0
 11
132.778671882623
 21
355.2157575667055
 31
0.0
 11
132.7331223169979
 21
355.2442632711806
 31
0.0
 11
132.6432857692979
 21
355.2985997201805
 31
0.0
 11
132.5146311715229
 21
355.3716945599555
 31
0.0
 11
132.3531489129229
 21
355.4546432016305
 31
0.0
 11
132.2930452153479
 21
355.4826661089555
 31
0.0
  0
SPLINE
  5
2003
330
1F
100
AcDbEntity
  8
DEFAULT_2
 48
3.0
370
     9
100
AcDbSpline
210
0.0
220
0.0
230
1.0
 70
     8
 71
     3
 72
     8
 73
     4
 74
     2
 42
0.0000000001
 43
0.0000000001
 44
0.0000000001
 12
-0.9105379044383077
 22
0.4134255973946159
 32
0.0
 13
-0.930278090247515
 23
0.3668551141873809
 33
0.0
 40
0.0
 40
0.0
 40
0.0
 40
0.0
 40
0.1423873582816907
 40
0.1423873582816907
 40
0.1423873582816907
 40
0.1423873582816907
 10
132.2930452153479
 20
355.4826661089555
 30
0.0
 10
132.2498288530718
 20
355.5022883018419
 30
0.0
 10
132.2061618421605
 20
355.5209638278284
 30
0.0
 10
132.162008562248
 20
355.5383756713555
 30
0.0
 11
132.2930452153479
 21
355.4826661089555
 31
0.0
 11
132.162008562248
 21
355.5383756713555
 31
0.0
  0
SPLINE
  5
2004
330
1F
100
AcDbEntity
  8
DEFAULT_2
 48
3.0
370
     9
100
AcDbSpline
210
0.0
220
0.0
230
1.0
 70
     8
 71
     3
 72
    19
 73
    15
 74
    13
 42
0.0000000001
 43
0.0000000001
 44
0.0000000001
 12
0.9491881254974131
 22
-0.314709234714692
 32
0.0
 13
-0.9302780902214477
 23
0.3668551142534831
 33
0.0
 40
0.0
 40
0.0
 40
0.0
 40
0.0
 40
0.128878006008289
 40
0.3375814146492844
 40
0.5183736700999971
 40
0.6657064927334981
 40
0.7708315596775476
 40
0.8252517243675931
 40
0.8256034573309932
 40
0.8793374141576235
 40
0.9843281518089984
 40
1.132297274028431
 40
1.313837894822429
 40
1.522514103678164
 40
1.522514103678164
 40
1.522514103678164
 40
1.522514103678164
 10
132.0410323534229
 20
355.5822679696055
 30
0.0
 10
132.0818088444032
 20
355.5687482700581
 30
0.0
 10
132.1875989911833
 20
355.5302100763572
 30
0.0
 10
132.3458066800183
 20
355.4603395636552
 30
0.0
 10
132.5049204156482
 20
355.3782537979925
 30
0.0
 10
132.6303893044868
 20
355.3068454873407
 30
0.0
 10
132.7180601133143
 20
355.2537915269166
 30
0.0
 10
132.7630338409443
 20
355.2256493170381
 30
0.0
 10
132.7938200930157
 20
355.2061756645607
 30
0.0
 10
132.6909565019967
 20
355.2709475259836
 30
0.0
 10
132.6447419773667
 20
355.2978060079888
 30
0.0
 10
132.5001740049525
 20
355.3813001403947
 30
0.0
 10
132.3477321176081
 20
355.4591691888886
 30
0.0
 10
132.2267175305976
 20
355.5128576932083
 30
0.0
 10
132.162008562248
 20
355.5383756713555
 30
0.0
 11
132.0410323534229
 21
355.5822679696055
 31
0.0
 11
132.1621812686979
 21
355.5383079791555
 31
0.0
 11
132.3533405928729
 21
355.4545510358055
 31
0.0
 11
132.5141606099229
 21
355.3719510252305
 31
0.0
 11
132.6422761833229
 21
355.2991955410555
 31
0.0
 11
132.7322396935979
 21
355.2448094535055
 31
0.0
 11
132.7783746258229
 21
355.2159455945556
 31
0.0
 11
132.778671882623
 21
355.2157575667055
 31
0.0
 11
132.7331223169979
 21
355.2442632711806
 31
0.0
 11
132.6432857692979
 21
355.2985997201805
 31
0.0
 11
132.5146311715229
 21
355.3716945599555
 31
0.0
 11
132.3531489129229
 21
355.4546432016305
 31
0.0
 11
132.162008562248
 21
355.5383756713555
 31
0.0
  0
SPLINE
  5
2005
330
1F
100
AcDbEntity
  8
DEFAULT_2
 48
3.0
370
     9
100
AcDbSpline
210
0.0
220
0.0
230
1.0
 70
     8
 71
     3
 72
    20
 73
    16
 74
    14
 42
0.0000000001
 43
0.0000000001
 44
0.0000000001
 12
0.9491881254964543
 22
-0.3147092347175837
 32
0.0
 13
-0.9628791375939275
 23
0.2699328923758173
 33
0.0
 40
0.0
 40
0.0
 40
0.0
 40
0.0
 40
0.128878006008289
 40
0.3375814146492844
 40
0.5183736700999971
 40
0.6657064927334981
 40
0.7708315596775476
 40
0.8252517243675931
 40
0.8256034573309932
 40
0.8793374141576235
 40
0.9843281518089984
 40
1.132297274028431
 40
1.313837894822429
 40
1.522749482489101
 40
1.748644221142264
 40
1.748644221142264
 40
1.748644221142264
 40
1.748644221142264
 10
132.0410323534229
 20
355.5822679696055
 30
0.0
 10
132.0818088444032
 20
355.5687482700579
 30
0.0
 10
132.187598991179
 20
355.530210076359
 30
0.0
 10
132.345806680042
 20
355.4603395636457
 30
0.0
 10
132.5049204155798
 20
355.3782537980198
 30
0.0
 10
132.6303893046665
 20
355.306845487269
 30
0.0
 10
132.7180601129422
 20
355.2537915270652
 30
0.0
 10
132.7630338413541
 20
355.2256493168745
 30
0.0
 10
132.793820092603
 20
355.2061756647254
 30
0.0
 10
132.6909570547079
 20
355.2709473053525
 30
0.0
 10
132.6447372827215
 20
355.2978078819958
 30
0.0
 10
132.5002013546343
 20
355.3812892229572
 30
0.0
 10
132.3475309509231
 20
355.4592569331796
 30
0.0
 10
132.1571153337258
 20
355.5437611175045
 30
0.0
 10
132.0203044363534
 20
355.5905073155632
 30
0.0
 10
131.947801325973
 20
355.6108327889555
 30
0.0
 11
132.0410323534229
 21
355.5822679696055
 31
0.0
 11
132.1621812686979
 21
355.5383079791555
 31
0.0
 11
132.3533405928729
 21
355.4545510358055
 31
0.0
 11
132.5141606099229
 21
355.3719510252305
 31
0.0
 11
132.6422761833229
 21
355.2991955410555
 31
0.0
 11
132.7322396935979
 21
355.2448094535055
 31
0.0
 11
132.7783746258229
 21
355.2159455945556
 31
0.0
 11
132.778671882623
 21
355.2157575667055
 31
0.0
 11
132.7331223169979
 21
355.2442632711806
 31
0.0
 11
132.6432857692979
 21
355.2985997201805
 31
0.0
 11
132.5146311715229
 21
355.3716945599555
 31
0.0
 11
132.3531489129229
 21
355.4546432016305
 31
0.0
 11
132.1617894380729
 21
355.5384620709056
 31
0.0
 11
131.947801325973
 21
355.6108327889555
 31
0.0
  0
SPLINE
  5
2006
330
1F
100
AcDbEntity
  8
DEFAULT_2
 48
3.0
370
     9
100
AcDbSpline
210
0.0
220
0.0
230
1.0
 70
     8
 71
     3
 72
    21
 73
    17
 74
    15
 42
0.0000000001
 43
0.0000000001
 44
0.0000000001
 12
0.9896591522964651
 22
-0.1434390542210938
 32
0.0
 13
-0.9628791375937721
 23
0.2699328923763712
 33
0.0
 40
0.0
 40
0.0
 40
0.0
 40
0.0
 40
0.2367901168613508
 40
0.4629714524144976
 40
0.671674861055493
 40
0.8524671165062056
 40
0.9997999391397065
 40
1.104925006083756
 40
1.159345170773801
 40
1.159696903737202
 40
1.213430860563832
 40
1.318421598215207
 40
1.46639072043464
 40
1.647931341228638
 40
1.85684292889531
 40
2.082737667548473
 40
2.082737667548473
 40
2.082737667548473
 40
2.082737667548473
 10
131.7163833786479
 20
355.6603496373555
 30
0.0
 10
131.7944972140897
 20
355.6490279872183
 30
0.0
 10
131.9457953664379
 20
355.6160313965352
 30
0.0
 10
132.157910797287
 20
355.5433202080194
 30
0.0
 10
132.3458047257265
 20
355.4603407157966
 30
0.0
 10
132.5049208122414
 20
355.3782535641711
 30
0.0
 10
132.6303892361904
 20
355.3068455276385
 30
0.0
 10
132.718060121128
 20
355.2537915222392
 30
0.0
 10
132.7630338413481
 20
355.2256493168781
 30
0.0
 10
132.7938200926089
 20
355.206175664722
 30
0.0
 10
132.6909570547026
 20
355.2709473053557
 30
0.0
 10
132.6447372827242
 20
355.2978078819942
 30
0.0
 10
132.5002013546333
 20
355.3812892229577
 30
0.0
 10
132.3475309509234
 20
355.4592569331795
 30
0.0
 10
132.1571153337257
 20
355.5437611175045
 30
0.0
 10
132.0203044363534
 20
355.5905073155631
 30
0.0
 10
131.947801325973
 20
355.6108327889555
 30
0.0
 11
131.7163833786479
 21
355.6603496373555
 31
0.0
 11
131.9479304389479
 21
355.6107964506805
 31
0.0
 11
132.1621812686979
 21
355.5383079791555
 31
0.0
 11
132.3533405928729
 21
355.4545510358055
 31
0.0
 11
132.5141606099229
 21
355.3719510252305
 31
0.0
 11
132.6422761833229
 21
355.2991955410555
 31
0.0
 11
132.7322396935979
 21
355.2448094535055
 31
0.0
 11
132.7783746258229
 21
355.2159455945556
 31
0.0
 11
132.778671882623
 21
355.2157575667055
 31
0.0
 11
132.7331223169979
 21
355.2442632711806
 31
0.0
 11
132.6432857692979
 21
355.2985997201805
 31
0.0
 11
132.5146311715229
 21
355.3716945599555
 31
0.0
 11
132.3531489129229
 21
355.4546432016305
 31
0.0
 11
132.1617894380729
 21
355.5384620709056
 31
0.0
 11
131.947801325973
 21
355.6108327889555
 31
0.0
  0
SPLINE
  5
2007
330
1F
100
AcDbEntity
  8
DEFAULT_2
 48
3.0
370
     9
100
AcDbSpline
210
0.0
220
0.0
230
1.0
 70
     8
 71
     3
 72
    23
 73
    19
 74
    17
 42
0.0000000001
 43
0.0000000001
 44
0.0000000001
 12
-1.0
 22
0.0
 32
0.0
 13
0.9896270508228257
 23
0.1436603643310023
 33
0.0
 40
0.0
 40
0.0
 40
0.0
 40
0.0
 40
0.2331819339785049
 40
0.4699332074878353
 40
0.6959281462861118
 40
0.9044133708521741
 40
1.085047875865501
 40
1.232371729211618
 40
1.337660320309686
 40
1.392262328433382
 40
1.392764876782631
 40
1.446371253484055
 40
1.551286939208115
 40
1.699232198067177
 40
1.880791576268317
 40
2.089749587013866
 40
2.315874294785517
 40
2.55239220600548
 40
2.55239220600548
 40
2.55239220600548
 40
2.55239220600548
 10
131.4840054839479
 20
355.6772926895305
 30
0.0
 10
131.4062781726218
 20
355.6772926895305
 30
0.0
 10
131.2494105502326
 20
355.6656011215169
 30
0.0
 10
131.0221553234805
 20
355.6160048980872
 30
0.0
 10
130.8101385011056
 20
355.5433309768013
 30
0.0
 10
130.622425325246
 20
355.4604415277461
 30
0.0
 10
130.4634030582104
 20
355.3784216453571
 30
0.0
 10
130.3379569874681
 20
355.3070439355877
 30
0.0
 10
130.2501240202863
 20
355.2538981938499
 30
0.0
 10
130.2050985678759
 20
355.2257261298902
 30
0.0
 10
130.1741596582408
 20
355.2061559244995
 30
0.0
 10
130.2767945084023
 20
355.2707859035794
 30
0.0
 10
130.3230874528057
 20
355.2976994294933
 30
0.0
 10
130.4675465456197
 20
355.3811454372886
 30
0.0
 10
130.6202413066604
 20
355.4591432194978
 30
0.0
 10
130.8107181820704
 20
355.5436951893839
 30
0.0
 10
131.0221049424808
 20
355.615940067399
 30
0.0
 10
131.1734646395988
 20
355.6490030291566
 30
0.0
 10
131.2514861472479
 20
355.6603291122556
 30
0.0
 11
131.4840054839479
 21
355.6772926895305
 31
0.0
 11
131.2514418725479
 21
355.6603226869805
 31
0.0
 11
131.0199373753979
 21
355.6107562335305
 31
0.0
 11
130.8058650151229
 21
355.5383218706305
 31
0.0
 11
130.614901330023
 21
355.4546620843805
 31
0.0
 11
130.4542139420729
 21
355.3721491293055
 31
0.0
 11
130.3260991247729
 21
355.2994104782805
 31
0.0
 11
130.2359919408729
 21
355.2449459685055
 31
0.0
 11
130.1897019542979
 21
355.2159870936305
 31
0.0
 11
130.1892772401729
 21
355.2157184437555
 31
0.0
 11
130.2347179442479
 21
355.2441576075305
 31
0.0
 11
130.3244876822229
 21
355.2984594975055
 31
0.0
 11
130.4531166657479
 21
355.3715511127305
 31
0.0
 11
130.6146088636229
 21
355.4545214558555
 31
0.0
 11
130.8060032821479
 21
355.5383762518555
 31
0.0
 11
131.020205549148
 21
355.6108315641306
 31
0.0
 11
131.2514861472479
 21
355.6603291122556
 31
0.0
  0
SPLINE
  5
2008
330
1F
100
AcDbEntity
  8
DEFAULT_2
 48
3.0
370
     9
100
AcDbSpline
210
0.0
220
0.0
230
1.0
 70
     8
 71
     3
 72
    14
 73
    10
 74
     8
 42
0.0000000001
 43
0.0000000001
 44
0.0000000001
 12
-0.8450971398055424
 22
-0.5346127797691444
 32
0.0
 13
0.9896270508219252
 23
0.1436603643372049
 33
0.0
 40
0.0
 40
0.0
 40
0.0
 40
0.0
 40
0.0536063767014248
 40
0.1585220624254842
 40
0.3064673212845459
 40
0.488026699485686
 40
0.6969847102312352
 40
0.9231094180028861
 40
1.159627329222849
 40
1.159627329222849
 40
1.159627329222849
 40
1.159627329222849
 10
130.1892772401729
 20
355.2157184437555
 30
0.0
 10
130.1741763749643
 20
355.2061655590683
 30
0.0
 10
130.2770788055101
 20
355.2709657521476
 30
0.0
 10
130.3229488105617
 20
355.2976117233283
 30
0.0
 10
130.467599356193
 20
355.3811788456692
 30
0.0
 10
130.6202234165056
 20
355.4591319020464
 30
0.0
 10
130.8107237380384
 20
355.5436987041324
 30
0.0
 10
131.0221032209843
 20
355.6159389783672
 30
0.0
 10
131.1734646395988
 20
355.6490030291562
 30
0.0
 10
131.2514861472479
 20
355.6603291122556
 30
0.0
 11
130.1892772401729
 21
355.2157184437555
 31
0.0
 11
130.2347179442479
 21
355.2441576075305
 31
0.0
 11
130.3244876822229
 21
355.2984594975055
 31
0.0
 11
130.4531166657479
 21
355.3715511127305
 31
0.0
 11
130.6146088636229
 21
355.4545214558555
 31
0.0
 11
130.8060032821479
 21
355.5383762518555
 31
0.0
 11
131.020205549148
 21
355.6108315641306
 31
0.0
 11
131.2514861472479
 21
355.6603291122556
 31
0.0
  0
SPLINE
  5
2009
330
1F
100
AcDbEntity
  8
DEFAULT_2
 48
3.0
370
     9
100
AcDbSpline
210
0.0
220
0.0
230
1.0
 70
     8
 71
     3
 72
    10
 73
     6
 74
     4
 42
0.0000000001
 43
0.0000000001
 44
0.0000000001
 12
-0.8463817312339275
 22
-0.532576722203909
 32
0.0
 13
0.4818578456733244
 23
-0.8762494031741551
 33
0.0
 40
0.0
 40
0.0
 40
0.0
 40
0.0
 40
0.0131332033208474
 40
0.0136357516700963
 40
0.0178419807517281
 40
0.0178419807517281
 40
0.0178419807517281
 40
0.0178419807517281
 10
130.2008094926229
 20
355.2229944912805
 30
0.0
 10
130.1971042581685
 20
355.2206630118217
 30
0.0
 10
130.193062998382
 20
355.2182880318144
 30
0.0
 10
130.1883144186401
 20
355.2150379505039
 30
0.0
 10
130.1850507376534
 20
355.2146923582546
 30
0.0
 10
130.1857263391479
 20
355.2134637896805
 30
0.0
 11
130.2008094926229
 21
355.2229944912805
 31
0.0
 11
130.1897019542979
 21
355.2159870936305
 31
0.0
 11
130.1892772401729
 21
355.2157184437555
 31
0.0
 11
130.1857263391479
 21
355.2134637896805
 31
0.0
  0
SPLINE
  5
200A
330
1F
100
AcDbEntity
  8
0
370
     9
100
AcDbSpline
210
0.0
220
0.0
230
1.0
 70
     8
 71
     3
 72
     8
 73
     4
 74
     2
 42
0.0000000001
 43
0.0000000001
 44
0.0000000001
 12
-0.8450971391660512
 22
-0.5346127807800296
 32
0.0
 13
0.4818579350832695
 23
-0.8762493540067735
 33
0.0
 40
0.0
 40
0.0
 40
0.0
 40
0.0
 40
0.0042062290816318
 40
0.0042062290816318
 40
0.0042062290816318
 40
0.0042062290816318
 10
130.1892772401729
 20
355.2157184437555
 30
0.0
 10
130.1880923494517
 20
355.2149688758135
 30
0.0
 10
130.185050737528
 20
355.2146923581858
 30
0.0
 10
130.1857263391479
 20
355.2134637896805
 30
0.0
 11
130.1892772401729
 21
355.2157184437555
 31
0.0
 11
130.1857263391479
 21
355.2134637896805
 31
0.0
  0
SPLINE
  5
200B
330
1F
100
AcDbEntity
  8
0
370
     9
100
AcDbSpline
210
0.0
220
0.0
230
1.0
 70
     8
 71
     3
 72
    16
 73
    12
 74
    10
 42
0.0000000001
 43
0.0000000001
 44
0.0000000001
 12
-1.0
 22
0.0
 32
0.0
 13
-0.8450971398041536
 23
-0.5346127797713397
 33
0.0
 40
0.0
 40
0.0
 40
0.0
 40
0.0
 40
0.2331819339785049
 40
0.4699332074878353
 40
0.6959281462861118
 40
0.9044133708521741
 40
1.085047875865501
 40
1.232371729211618
 40
1.337660320309686
 40
1.392262328433382
 40
1.392764876782631
 40
1.392764876782631
 40
1.392764876782631
 40
1.392764876782631
 10
131.4840054839479
 20
355.6772926895305
 30
0.0
 10
131.4062781726218
 20
355.6772926895305
 30
0.0
 10
131.2494107792779
 20
355.6656012664128
 30
0.0
 10
131.022154524556
 20
355.6160043926813
 30
0.0
 10
130.81014122601
 20
355.5433327005971
 30
0.0
 10
130.6224165396735
 20
355.4604359699244
 30
0.0
 10
130.4634289288155
 20
355.3784380113037
 30
0.0
 10
130.3378888189264
 20
355.3070008116364
 30
0.0
 10
130.2502655369678
 20
355.2539877184066
 30
0.0
 10
130.2049421453005
 20
355.2256271757488
 30
0.0
 10
130.1894188075638
 20
355.2158080000122
 30
0.0
 10
130.1892772401729
 20
355.2157184437555
 30
0.0
 11
131.4840054839479
 21
355.6772926895305
 31
0.0
 11
131.2514418725479
 21
355.6603226869805
 31
0.0
 11
131.0199373753979
 21
355.6107562335305
 31
0.0
 11
130.8058650151229
 21
355.5383218706305
 31
0.0
 11
130.614901330023
 21
355.4546620843805
 31
0.0
 11
130.4542139420729
 21
355.3721491293055
 31
0.0
 11
130.3260991247729
 21
355.2994104782805
 31
0.0
 11
130.2359919408729
 21
355.2449459685055
 31
0.0
 11
130.1897019542979
 21
355.2159870936305
 31
0.0
 11
130.1892772401729
 21
355.2157184437555
 31
0.0
  0
SPLINE
  5
200C
330
1F
100
AcDbEntity
  8
0
370
     9
100
AcDbSpline
210
0.0
220
0.0
230
1.0
 70
     8
 71
     3
 72
    17
 73
    13
 74
    11
 42
0.0000000001
 43
0.0000000001
 44
0.0000000001
 12
1.0
 22
0.0
 32
0.0
 13
-0.4827636864152535
 23
-0.8757506626196493
 33
0.0
 40
0.0
 40
0.0
 40
0.0
 40
0.0
 40
0.2329839361986937
 40
0.469784868830452
 40
0.6959662043835988
 40
0.904669613024594
 40
1.085461868475306
 40
1.232794691108807
 40
1.337919758052857
 40
1.392339922742902
 40
1.392691655706303
 40
1.396947959743874
 40
1.396947959743874
 40
1.396947959743874
 40
1.396947959743874
 10
131.4840054839479
 20
355.6772926895305
 30
0.0
 10
131.5616667960141
 20
355.6772926895305
 30
0.0
 10
131.7184833810944
 20
355.6656150027011
 30
0.0
 10
131.9457613633838
 20
355.616037948031
 30
0.0
 10
132.1579066985865
 20
355.5433175675479
 30
0.0
 10
132.3458427511509
 20
355.4603456350105
 30
0.0
 10
132.5048038619296
 20
355.3782398154733
 30
0.0
 10
132.630697874113
 20
355.3068815705445
 30
0.0
 10
132.7174206793359
 20
355.2537168807551
 30
0.0
 10
132.7637381071702
 20
355.225731522999
 30
0.0
 10
132.7797173001345
 20
355.2150479328993
 30
0.0
 10
132.7829500167739
 20
355.2147186055826
 30
0.0
 10
132.782265087098
 20
355.2134761185556
 30
0.0
 11
131.4840054839479
 21
355.6772926895305
 31
0.0
 11
131.7163726507229
 21
355.6603511922056
 31
0.0
 11
131.9479304389479
 21
355.6107964506805
 31
0.0
 11
132.1621812686979
 21
355.5383079791555
 31
0.0
 11
132.3533405928729
 21
355.4545510358055
 31
0.0
 11
132.5141606099229
 21
355.3719510252305
 31
0.0
 11
132.6422761833229
 21
355.2991955410555
 31
0.0
 11
132.7322396935979
 21
355.2448094535055
 31
0.0
 11
132.7783746258229
 21
355.2159455945556
 31
0.0
 11
132.778671882623
 21
355.2157575667055
 31
0.0
 11
132.782265087098
 21
355.2134761185556
 31
0.0
  0
LINE
  5
200D
330
1F
100
AcDbEntity
  8
0
  6
Continuous
 62
     7
370
     9
100
AcDbLine
 10
130.3136949287515
 20
355.2152782966365
 30
0.0
 11
132.6656398311943
 21
355.2152782966365
 31
0.0
  0
LINE
  5
200E
330
1F
100
AcDbEntity
  8
0
  6
Continuous
 62
     7
370
     9
100
AcDbLine
 10
132.7166726868151
 20
355.2545080401975
 30
0.0
 11
132.6573363771931
 21
355.2200951812586
 31
0.0
  0
LINE
  5
200F
330
1F
100
AcDbEntity
  8
0
  6
Continuous
 62
     7
370
     9
100
AcDbLine
 10
132.8185276498976
 20
359.9360100039536
 30
0.0
 11
130.3136496011171
 21
359.9360100039536
 31
0.0
  0
LINE
  5
2010
330
1F
100
AcDbEntity
  8
0
  6
Continuous
 62
     7
370
     9
100
AcDbLine
 10
132.7221793309155
 20
360.0323514673681
 30
0.0
 11
130.4099979200992
 21
360.0323514673681
 31
0.0
  0
LINE
  5
2011
330
1F
100
AcDbEntity
  8
0
  6
Continuous
 62
     7
370
     9
100
AcDbLine
 10
132.6459743733319
 20
355.2266889650741
 30
0.0
 11
132.6656365373783
 21
355.2152782966365
 31
0.0
  0
LINE
  5
2012
330
1F
100
AcDbEntity
  8
0
  6
Continuous
 62
     7
370
     9
100
AcDbLine
 10
132.8185276498976
 20
359.9360100039536
 30
0.0
 11
132.8185276498976
 21
359.7240587844414
 31
0.0
  0
LINE
  5
2013
330
1F
100
AcDbEntity
  8
0
  6
Continuous
 62
     7
370
     9
100
AcDbLine
 10
132.7221861864829
 20
360.0323514673681
 30
0.0
 11
132.7221861864829
 21
359.9360100039536
 31
0.0
  0
LINE
  5
2014
330
1F
100
AcDbEntity
  8
0
  6
Continuous
 62
     7
370
     9
100
AcDbLine
 10
130.4099910645317
 20
360.0323514673681
 30
0.0
 11
130.4099910645317
 21
359.9360100039536
 31
0.0
  0
LINE
  5
2015
330
1F
100
AcDbEntity
  8
0
  6
Continuous
 62
     7
370
     9
100
AcDbLine
 10
130.3136496011171
 20
359.9360100039536
 30
0.0
 11
130.3136496011171
 21
359.926375857612
 31
0.0
  0
LINE
  5
2016
330
1F
100
AcDbEntity
  8
0
  6
Continuous
 62
     7
370
     9
100
AcDbLine
 10
130.3136496011171
 20
359.7336929307828
 30
0.0
 11
130.3136496011171
 21
359.550644150295
 31
0.0
  0
LINE
  5
2017
330
1F
100
AcDbEntity
  8
0
  6
Continuous
 62
     7
370
     9
100
AcDbLine
 10
130.3136496011171
 20
355.2921735182149
 30
0.0
 11
130.3136496011171
 21
355.2152782966365
 31
0.0
  0
SPLINE
  5
2018
330
1F
100
AcDbEntity
  8
0
  6
Continuous
 62
     7
370
     9
100
AcDbSpline
210
0.0
220
0.0
230
1.0
 70
     8
 71
     3
 72
    16
 73
    12
 74
     0
 42
0.0000000001
 43
0.0000000001
 40
0.595890618899867
 40
0.595890618899867
 40
0.595890618899867
 40
0.595890618899867
 40
0.8657261285620654
 40
1.310224987957592
 40
1.819638045332858
 40
2.360244588621366
 40
2.898614408191475
 40
3.42835617672368
 40
3.929874306063356
 40
4.36991343130872
 40
4.520421916389475
 40
4.520421916389475
 40
4.520421916389475
 40
4.520421916389475
 10
132.5354207703454
 20
355.3603058822361
 30
0.0
 10
132.4919218927603
 20
355.3637149399251
 30
0.0
 10
132.3793119474057
 20
355.3727198521323
 30
0.0
 10
132.182125522226
 20
355.3846257497693
 30
0.0
 10
131.9429013292021
 20
355.3980987705472
 30
0.0
 10
131.6880873590899
 20
355.4113435219501
 30
0.0
 10
131.4301517578021
 20
355.4245645817767
 30
0.0
 10
131.1784277902717
 20
355.4376698062279
 30
0.0
 10
130.9426386570996
 20
355.4510314078044
 30
0.0
 10
130.7674049543998
 20
355.4615610260108
 30
0.0
 10
130.6730924691447
 20
355.468921850807
 30
0.0
 10
130.649032991529
 20
355.470822944416
 30
0.0
  0
SPLINE
  5
2019
330
1F
100
AcDbEntity
  8
0
  6
Continuous
 62
     7
370
     9
100
AcDbSpline
210
0.0
220
0.0
230
1.0
 70
     8
 71
     3
 72
    15
 73
    11
 74
     0
 42
0.0000000001
 43
0.0000000001
 40
0.0
 40
0.0
 40
0.0
 40
0.0
 40
0.5486245757508414
 40
1.090158531085224
 40
1.600581487773396
 40
2.05722002481677
 40
2.439843553160319
 40
2.731630918933078
 40
2.92008792422476
 40
2.926312536530969
 40
2.926312536530969
 40
2.926312536530969
 40
2.926312536530969
 10
131.7527549759068
 20
355.2152782966365
 30
0.0
 10
131.6647816784206
 20
355.2198529157873
 30
0.0
 10
131.4900056601743
 20
355.2288112828656
 30
0.0
 10
131.2331674736594
 20
355.2420686504487
 30
0.0
 10
130.9918926530579
 20
355.2554920466131
 30
0.0
 10
130.7737054743725
 20
355.2681962791887
 30
0.0
 10
130.5978786620041
 20
355.282613104167
 30
0.0
 10
130.4467078501669
 20
355.2918706121441
 30
0.0
 10
130.3915879328327
 20
355.3079707206104
 30
0.0
 10
130.3469933167044
 20
355.31073634913
 30
0.0
 10
130.3455585762692
 20
355.3108268083839
 30
0.0
  0
SPLINE
  5
201A
330
1F
100
AcDbEntity
  8
0
  6
Continuous
 62
     7
370
     9
100
AcDbSpline
210
0.0
220
0.0
230
1.0
 70
     8
 71
     3
 72
    20
 73
    16
 74
     0
 42
0.0000000001
 43
0.0000000001
 40
0.0666007840830642
 40
0.0666007840830642
 40
0.0666007840830642
 40
0.0666007840830642
 40
0.1028231016993314
 40
0.3109532684454975
 40
0.6149349416071724
 40
1.000087320395704
 40
1.447451678967494
 40
1.934895422249374
 40
2.438261149098655
 40
2.932589746460125
 40
3.39337698815961
 40
3.797810909230546
 40
4.125943530724192
 40
4.36179334058943
 40
4.494684072789572
 40
4.494684072789572
 40
4.494684072789572
 40
4.494684072789572
 10
130.5098607795926
 20
355.4020631746519
 30
0.0
 10
130.5170643302023
 20
355.4018526397108
 30
0.0
 10
130.5703988423333
 20
355.4047924223695
 30
0.0
 10
130.6401614014355
 20
355.3807680864986
 30
0.0
 10
130.7929308417205
 20
355.3739240718229
 30
0.0
 10
130.9713204543009
 20
355.3575376142839
 30
0.0
 10
131.1840153779357
 20
355.3444484283262
 30
0.0
 10
131.4141412925149
 20
355.3301539805422
 30
0.0
 10
131.6523160198304
 20
355.3162156146852
 30
0.0
 10
131.8859958324222
 20
355.3020591129333
 30
0.0
 10
132.104054748417
 20
355.288436972518
 30
0.0
 10
132.2945681924267
 20
355.2734904144971
 30
0.0
 10
132.451111280368
 20
355.2627792084777
 30
0.0
 10
132.5585578660274
 20
355.2430524361392
 30
0.0
 10
132.6224170660632
 20
355.2422258401077
 30
0.0
 10
132.6396731226323
 20
355.2296741474959
 30
0.0
  0
SPLINE
  5
201B
330
1F
100
AcDbEntity
  8
0
  6
Continuous
 62
     7
370
     9
100
AcDbSpline
210
0.0
220
0.0
230
1.0
 70
     8
 71
     3
 72
     8
 73
     4
 74
     2
 42
0.0000000001
 43
0.0000000001
 44
0.0000000001
 12
0.808695215438054
 22
-0.5882278882606633
 32
0.0
 13
0.7446278994753776
 23
-0.6674798059289039
 33
0.0
 40
0.0
 40
0.0
 40
0.0
 40
0.0
 40
0.0066960169908494
 40
0.0066960169908494
 40
0.0066960169908494
 40
0.0066960169908494
 10
132.6396731226323
 20
355.2296741474959
 30
0.0
 10
132.6414781349333
 20
355.2283612195178
 30
0.0
 10
132.6432491500832
 20
355.2269926871954
 30
0.0
 10
132.6449111637721
 20
355.2255028684883
 30
0.0
 11
132.6396731226323
 21
355.2296741474959
 31
0.0
 11
132.6449111637721
 21
355.2255028684883
 31
0.0
  0
SPLINE
  5
201C
330
1F
100
AcDbEntity
  8
0
  6
Continuous
 62
     7
370
     9
100
AcDbSpline
210
0.0
220
0.0
230
1.0
 70
     8
 71
     3
 72
    11
 73
     7
 74
     0
 42
0.0000000001
 43
0.0000000001
 40
1.821986655074827
 40
1.821986655074827
 40
1.821986655074827
 40
1.821986655074827
 40
2.338234224365551
 40
2.876002695113283
 40
3.40999909530977
 40
3.417881139440553
 40
3.417881139440553
 40
3.417881139440553
 40
3.417881139440553
 10
131.1855000752488
 20
355.6494292261717
 30
0.0
 10
131.2682285081016
 20
355.6449473422193
 30
0.0
 10
131.4373138543337
 20
355.6361464864729
 30
0.0
 10
131.6919295399286
 20
355.623095523344
 30
0.0
 10
131.8650754971366
 20
355.6140973269028
 30
0.0
 10
131.9519459316802
 20
355.6093772743095
 30
0.0
 10
131.953209523361
 20
355.6093085744775
 30
0.0
  0
LINE
  5
201D
330
1F
100
AcDbEntity
  8
0
  6
Continuous
 62
     7
370
     9
100
AcDbLine
 10
132.8135895469669
 20
359.7183381758904
 30
0.0
 11
132.6947154538042
 21
359.6493954316782
 31
0.0
  0
LINE
  5
201E
330
1F
100
AcDbEntity
  8
0
  6
Continuous
 62
     7
370
     9
100
AcDbLine
 10
132.8135895469669
 20
359.7183381758904
 30
0.0
 11
132.8185276498976
 21
359.7240587844414
 31
0.0
  0
LINE
  5
201F
330
1F
100
AcDbEntity
  8
0
  6
Continuous
 62
     7
370
     9
100
AcDbLine
 10
130.4374618467808
 20
359.851709913309
 30
0.0
 11
130.3185877040099
 21
359.920655249061
 31
0.0
  0
LINE
  5
2020
330
1F
100
AcDbEntity
  8
0
  6
Continuous
 62
     7
370
     9
100
AcDbLine
 10
132.8135895564114
 20
359.9417306070047
 30
0.0
 11
132.8185276498976
 21
359.9360100039536
 31
0.0
  0
LINE
  5
2021
330
1F
100
AcDbEntity
  8
0
  6
Continuous
 62
     7
370
     9
100
AcDbLine
 10
132.8185276498976
 20
359.9360100039536
 30
0.0
 11
132.8185276498976
 21
359.7240587844414
 31
0.0
  0
LINE
  5
2022
330
1F
100
AcDbEntity
  8
0
  6
Continuous
 62
     7
370
     9
100
AcDbLine
 10
130.3185877040099
 20
359.920655249061
 30
0.0
 11
130.3136496011171
 21
359.926375857612
 31
0.0
  0
LINE
  5
2023
330
1F
100
AcDbEntity
  8
0
  6
Continuous
 62
     7
370
     9
100
AcDbLine
 10
130.3136496011171
 20
359.9360100039536
 30
0.0
 11
130.3136496011171
 21
359.926375857612
 31
0.0
  0
SPLINE
  5
2024
330
1F
100
AcDbEntity
  8
0
  6
Continuous
 62
     7
370
     9
100
AcDbSpline
210
0.0
220
0.0
230
1.0
 70
     8
 71
     3
 72
     8
 73
     4
 74
     2
 42
0.0000000001
 43
0.0000000001
 44
0.0000000001
 12
0.0
 22
1.0
 32
0.0
 13
-0.1002776267664013
 23
0.9949594954419492
 33
0.0
 40
0.0
 40
0.0
 40
0.0
 40
0.0
 40
0.0010097984767294
 40
0.0010097984767294
 40
0.0010097984767294
 40
0.0010097984767294
 10
132.8185276498976
 20
359.7240587844414
 30
0.0
 10
132.8185276498976
 20
359.7243953839336
 30
0.0
 10
132.8185117175756
 20
359.7247324569583
 30
0.0
 10
132.8184779641773
 20
359.7250673598192
 30
0.0
 11
132.8185276498976
 21
359.7240587844414
 31
0.0
 11
132.8184779641773
 21
359.7250673598192
 31
0.0
  0
SPLINE
  5
2025
330
1F
100
AcDbEntity
  8
0
  6
Continuous
 62
     7
370
     9
100
AcDbSpline
210
0.0
220
0.0
230
1.0
 70
     8
 71
     3
 72
    22
 73
    18
 74
     0
 42
0.0000000001
 43
0.0000000001
 40
0.0
 40
0.0
 40
0.0
 40
0.0
 40
0.0625539071472585
 40
0.237497225069584
 40
0.5176054333016972
 40
0.8816614543622151
 40
1.317289644486971
 40
1.816276466746716
 40
2.350272866943202
 40
2.888041337690935
 40
3.417823123612691
 40
3.909590707584616
 40
4.345643369104711
 40
4.709547232664416
 40
4.989234968708814
 40
5.163851404221457
 40
5.186641955932113
 40
5.186641955932113
 40
5.186641955932113
 40
5.186641955932113
 10
132.8184779641773
 20
359.7250673598192
 30
0.0
 10
132.8174707531919
 20
359.7350609567911
 30
0.0
 10
132.7644427019566
 20
359.7393857743946
 30
0.0
 10
132.6967790203327
 20
359.7560813291981
 30
0.0
 10
132.5579642626089
 20
359.7659142735782
 30
0.0
 10
132.3882287749248
 20
359.7798257330583
 30
0.0
 10
132.17898172647
 20
359.7924242667212
 30
0.0
 10
131.9438992002078
 20
359.805662309376
 30
0.0
 10
131.6919162926138
 20
359.8187688888383
 30
0.0
 10
131.435130578663
 20
359.8319310749456
 30
0.0
 10
131.1850592691786
 20
359.8449386194829
 30
0.0
 10
130.9514640557818
 20
359.8581432497833
 30
0.0
 10
130.7441836559813
 20
359.8705086813595
 30
0.0
 10
130.5720585046119
 20
359.8849012442628
 30
0.0
 10
130.4393720617958
 20
359.893556813434
 30
0.0
 10
130.3667241875633
 20
359.9109799539423
 30
0.0
 10
130.3334030393301
 20
359.9135303892691
 30
0.0
 10
130.3297307184708
 20
359.91419245694
 30
0.0
  0
LINE
  5
2026
330
1F
100
AcDbEntity
  8
0
  6
Continuous
 62
     7
370
     9
100
AcDbLine
 10
129.7016884107772
 20
357.2489648038092
 30
0.0
 11
133.2663225571187
 21
357.2489648038092
 31
0.0
  0
LINE
  5
2027
330
1F
100
AcDbEntity
  8
0
  6
Continuous
 62
     7
370
     9
100
AcDbLine
 10
133.459005483948
 20
358.2123794379555
 30
0.0
 11
129.509005483948
 21
358.2123794379555
 31
0.0
  0
LINE
  5
2028
330
1F
100
AcDbEntity
  8
0
  6
Continuous
 62
     7
370
     9
100
AcDbLine
 10
133.459005483948
 20
358.2123794379555
 30
0.0
 11
133.459005483948
 21
357.4416477306385
 31
0.0
  0
LINE
  5
2029
330
1F
100
AcDbEntity
  8
0
  6
Continuous
 62
     7
370
     9
100
AcDbLine
 10
129.509005483948
 20
358.2123794379555
 30
0.0
 11
129.509005483948
 21
357.4416477306385
 31
0.0
  0
ARC
  5
202A
330
1F
100
AcDbEntity
  8
0
  6
Continuous
 62
     7
370
     9
100
AcDbCircle
 10
133.2663225571187
 20
357.4416477306385
 30
0.0
 40
0.1926829268292686
100
AcDbArc
 50
270.0
 51
0.0
  0
ARC
  5
202B
330
1F
100
AcDbEntity
  8
0
  6
Continuous
 62
     7
370
     9
100
AcDbCircle
 10
129.7016884107772
 20
357.4416477306385
 30
0.0
 40
0.1926829268292686
100
AcDbArc
 50
180.0
 51
270.0
  0
LINE
  5
202C
330
1F
100
AcDbEntity
  8
0
  6
Continuous
 62
     7
370
     9
100
AcDbLine
 10
132.6475173295559
 20
357.2489648038092
 30
0.0
 11
132.7105970717181
 21
357.2123794379555
 31
0.0
  0
LINE
  5
202D
330
1F
100
AcDbEntity
  8
0
  6
Continuous
 62
     7
370
     9
100
AcDbLine
 10
130.3136496011171
 20
357.2489648038092
 30
0.0
 11
130.3136496011171
 21
357.2123794379555
 31
0.0
  0
SPLINE
  5
202E
330
1F
100
AcDbEntity
  8
0
  6
Continuous
 62
     7
370
     9
100
AcDbSpline
210
0.0
220
0.0
230
1.0
 70
     8
 71
     3
 72
    11
 73
     7
 74
     0
 42
0.0000000001
 43
0.0000000001
 40
1.241597923702358
 40
1.241597923702358
 40
1.241597923702358
 40
1.241597923702358
 40
1.402728077449061
 40
1.655086371594345
 40
1.89306618230636
 40
1.919614319383117
 40
1.919614319383117
 40
1.919614319383117
 40
1.919614319383117
 10
131.5489477436649
 20
357.2489648038092
 30
0.0
 10
131.6025863315494
 20
357.2462051192047
 30
0.0
 10
131.7402215619677
 20
357.2391274044666
 30
0.0
 10
131.9571094236115
 20
357.227823901118
 30
0.0
 10
132.1290730657273
 20
357.2180724744746
 30
0.0
 10
132.2171433370143
 20
357.2129017786194
 30
0.0
 10
132.2259821838651
 20
357.2123794379531
 30
0.0
  0
LINE
  5
202F
330
1F
100
AcDbEntity
  8
0
  6
Continuous
 62
     7
370
     9
100
AcDbLine
 10
132.667163059431
 20
357.2489648038092
 30
0.0
 11
132.6573370426318
 21
357.2432660636987
 31
0.0
  0
LINE
  5
2030
330
1F
100
AcDbEntity
  8
0
  6
Continuous
 62
     7
370
     9
100
AcDbLine
 10
130.3185876945653
 20
359.3781330460292
 30
0.0
 11
130.4748402083449
 21
359.4687538685767
 31
0.0
  0
LINE
  5
2031
330
1F
100
AcDbEntity
  8
0
  6
Continuous
 62
     7
370
     9
100
AcDbLine
 10
132.6459743733319
 20
359.2730304284889
 30
0.0
 11
132.7505475750876
 21
359.2123794379555
 31
0.0
  0
LINE
  5
2032
330
1F
100
AcDbEntity
  8
0
  6
Continuous
 62
     7
370
     9
100
AcDbLine
 10
130.3185876945653
 20
359.3781330460292
 30
0.0
 11
130.3136496011171
 21
359.3724124429781
 31
0.0
  0
LINE
  5
2033
330
1F
100
AcDbEntity
  8
0
  6
Continuous
 62
     7
370
     9
100
AcDbLine
 10
130.3136496011171
 20
359.3724124429781
 30
0.0
 11
130.3136496011171
 21
359.2123794379555
 31
0.0
  0
SPLINE
  5
2034
330
1F
100
AcDbEntity
  8
0
  6
Continuous
 62
     7
370
     9
100
AcDbSpline
210
0.0
220
0.0
230
1.0
 70
     8
 71
     3
 72
    21
 73
    17
 74
    15
 42
0.0000000001
 43
0.0000000001
 44
0.0000000001
 12
0.4929694063175559
 22
-0.8700466449765302
 32
0.0
 13
0.1614492973955897
 23
-0.9868810082124747
 33
0.0
 40
0.0
 40
0.0
 40
0.0
 40
0.0
 40
0.0038981267535121
 40
0.064774816009693
 40
0.1754507488062981
 40
0.3309790420049104
 40
0.5237965155286819
 40
0.7443965130675538
 40
0.9818593535904858
 40
1.224414352872533
 40
1.460034496184701
 40
1.677041923561791
 40
1.864698778165286
 40
2.013763148888172
 40
2.117019835434076
 40
2.169991042339942
 40
2.169991042339942
 40
2.169991042339942
 40
2.169991042339942
 10
130.488283515794
 20
359.4633392086147
 30
0.0
 10
130.4889240682044
 20
359.4622086912468
 30
0.0
 10
130.50068804259
 20
359.4437432074755
 30
0.0
 10
130.5720341102326
 20
359.4496926813515
 30
0.0
 10
130.6711137063292
 20
359.4253719869639
 30
0.0
 10
130.8276335346125
 20
359.4168008390561
 30
0.0
 10
131.0152506090509
 20
359.4010673071215
 30
0.0
 10
131.2322713439798
 20
359.3877147068629
 30
0.0
 10
131.4652125059309
 20
359.3734811050745
 30
0.0
 10
131.7034816473727
 20
359.3595598769617
 30
0.0
 10
131.9344381708446
 20
359.3452743354651
 30
0.0
 10
132.1485130123817
 20
359.3321292546282
 30
0.0
 10
132.3292943020075
 20
359.3158682367668
 30
0.0
 10
132.4839646929065
 20
359.308701179858
 30
0.0
 10
132.566377475354
 20
359.2820667653957
 30
0.0
 10
132.6432980410012
 20
359.2904843837633
 30
0.0
 10
132.6461487623803
 20
359.2730589577375
 30
0.0
 11
130.488283515794
 21
359.4633392086147
 31
0.0
 11
130.4903927618579
 21
359.4600610272242
 31
0.0
 11
130.5495428317887
 21
359.4456651763648
 31
0.0
 11
130.6592785214181
 21
359.4312693255054
 31
0.0
 11
130.8141391344328
 21
359.416873474646
 31
0.0
 11
131.0064184561867
 21
359.4024776237866
 31
0.0
 11
131.2265482324374
 21
359.3880817729272
 31
0.0
 11
131.4635743071787
 21
359.3736859220677
 31
0.0
 11
131.705701726433
 21
359.3592900712083
 31
0.0
 11
131.9408816818152
 21
359.3448942203868
 31
0.0
 11
132.1574110863192
 21
359.3304983695274
 31
0.0
 11
132.3445149466687
 21
359.316102518668
 31
0.0
 11
132.4928825512765
 21
359.3017066678086
 31
0.0
 11
132.5951307923101
 21
359.2873108169491
 31
0.0
 11
132.6461487623803
 21
359.2730589577375
 31
0.0
  0
SPLINE
  5
2035
330
1F
100
AcDbEntity
  8
0
  6
Continuous
 62
     7
370
     9
100
AcDbSpline
210
0.0
220
0.0
230
1.0
 70
     8
 71
     3
 72
     8
 73
     4
 74
     2
 42
0.0000000001
 43
0.0000000001
 44
0.0000000001
 12
0.0
 22
-1.0
 32
0.0
 13
0.1003076508315724
 23
-0.9949564689898002
 33
0.0
 40
0.0
 40
0.0
 40
0.0
 40
0.0
 40
0.0010096964126019
 40
0.0010096964126019
 40
0.0010096964126019
 40
0.0010096964126019
 10
130.3136496011171
 20
359.3724124429781
 30
0.0
 10
130.3136496011171
 20
359.3720758775072
 30
0.0
 10
130.3136655366452
 20
359.3717388382684
 30
0.0
 10
130.3136992967369
 20
359.3714039702759
 30
0.0
 11
130.3136496011171
 21
359.3724124429781
 31
0.0
 11
130.3136992967369
 21
359.3714039702759
 31
0.0
  0
SPLINE
  5
2036
330
1F
100
AcDbEntity
  8
0
  6
Continuous
 62
     7
370
     9
100
AcDbSpline
210
0.0
220
0.0
230
1.0
 70
     8
 71
     3
 72
    19
 73
    15
 74
     0
 42
0.0000000001
 43
0.0000000001
 40
0.0
 40
0.0
 40
0.0
 40
0.0
 40
0.0301234345751199
 40
0.1141331004611503
 40
0.2482683442512446
 40
0.4231560690566267
 40
0.6380576403533429
 40
0.8836717243099155
 40
1.143719148680869
 40
1.402728077449061
 40
1.655086371594345
 40
1.89306618230636
 40
2.103557152357958
 40
2.24951706967652
 40
2.24951706967652
 40
2.24951706967652
 40
2.24951706967652
 10
130.3136992967369
 20
359.3714039702759
 30
0.0
 10
130.3147065003539
 20
359.3614134682395
 30
0.0
 10
130.3676132634794
 20
359.3570971985708
 30
0.0
 10
130.434990601539
 20
359.3404590111543
 30
0.0
 10
130.5732428874171
 20
359.3306345787168
 30
0.0
 10
130.744223883909
 20
359.3166065794124
 30
0.0
 10
130.9567717097613
 20
359.303832167116
 30
0.0
 10
131.1962120925572
 20
359.2903804904854
 30
0.0
 10
131.4508703918046
 20
359.2771580977136
 30
0.0
 10
131.7076356025838
 20
359.2639964124086
 30
0.0
 10
131.9571094236115
 20
359.2509946328254
 30
0.0
 10
132.1902692766791
 20
359.2377729937894
 30
0.0
 10
132.3882754250958
 20
359.2258721714596
 30
0.0
 10
132.5063139492783
 20
359.216132394013
 30
0.0
 10
132.5549484485922
 20
359.2123794379555
 30
0.0
  0
LINE
  5
2037
330
1F
100
AcDbEntity
  8
0
  6
Continuous
 62
     7
370
     9
100
AcDbLine
 10
132.8135895469669
 20
359.3570576880856
 30
0.0
 11
132.6573370426318
 21
359.2664367954061
 31
0.0
  0
LINE
  5
2038
330
1F
100
AcDbEntity
  8
0
  6
Continuous
 62
     7
370
     9
100
AcDbLine
 10
130.3185876945653
 20
359.7827671923707
 30
0.0
 11
130.4748402083449
 21
359.8733880149182
 31
0.0
  0
LINE
  5
2039
330
1F
100
AcDbEntity
  8
0
  6
Continuous
 62
     7
370
     9
100
AcDbLine
 10
132.8135895469669
 20
359.3570576880856
 30
0.0
 11
132.8185276498976
 21
359.3627782966366
 31
0.0
  0
LINE
  5
203A
330
1F
100
AcDbEntity
  8
0
  6
Continuous
 62
     7
370
     9
100
AcDbLine
 10
132.6459743733319
 20
359.6776645748304
 30
0.0
 11
132.8135895564114
 21
359.5804501192
 31
0.0
  0
LINE
  5
203B
330
1F
100
AcDbEntity
  8
0
  6
Continuous
 62
     7
370
     9
100
AcDbLine
 10
130.4862028727519
 20
359.4621603139704
 30
0.0
 11
130.3185877040099
 21
359.5593747612563
 31
0.0
  0
LINE
  5
203C
330
1F
100
AcDbEntity
  8
0
  6
Continuous
 62
     7
370
     9
100
AcDbLine
 10
132.8135895564114
 20
359.5804501192
 30
0.0
 11
132.8185276498976
 21
359.5747295161487
 31
0.0
  0
LINE
  5
203D
330
1F
100
AcDbEntity
  8
0
  6
Continuous
 62
     7
370
     9
100
AcDbLine
 10
130.3185876945653
 20
359.7827671923707
 30
0.0
 11
130.3136496011171
 21
359.7770465893195
 31
0.0
  0
LINE
  5
203E
330
1F
100
AcDbEntity
  8
0
  6
Continuous
 62
     7
370
     9
100
AcDbLine
 10
132.8185276498976
 20
359.5747295161487
 30
0.0
 11
132.8185276498976
 21
359.3627782966366
 31
0.0
  0
LINE
  5
203F
330
1F
100
AcDbEntity
  8
0
  6
Continuous
 62
     7
370
     9
100
AcDbLine
 10
130.3185877040099
 20
359.5593747612563
 30
0.0
 11
130.3136496011171
 21
359.5650953698073
 31
0.0
  0
LINE
  5
2040
330
1F
100
AcDbEntity
  8
0
  6
Continuous
 62
     7
370
     9
100
AcDbLine
 10
130.3136496011171
 20
359.7770465893195
 30
0.0
 11
130.3136496011171
 21
359.5650953698073
 31
0.0
  0
SPLINE
  5
2041
330
1F
100
AcDbEntity
  8
0
  6
Continuous
 62
     7
370
     9
100
AcDbSpline
210
0.0
220
0.0
230
1.0
 70
     8
 71
     3
 72
     8
 73
     4
 74
     2
 42
0.0000000001
 43
0.0000000001
 44
0.0000000001
 12
0.0
 22
1.0
 32
0.0
 13
-0.1002776267664013
 23
0.9949594954419492
 33
0.0
 40
0.0
 40
0.0
 40
0.0
 40
0.0
 40
0.0010097984767294
 40
0.0010097984767294
 40
0.0010097984767294
 40
0.0010097984767294
 10
132.8185276498976
 20
359.3627782966366
 30
0.0
 10
132.8185276498976
 20
359.3631148961289
 30
0.0
 10
132.8185117175756
 20
359.3634519691535
 30
0.0
 10
132.8184779641773
 20
359.3637868720144
 30
0.0
 11
132.8185276498976
 21
359.3627782966366
 31
0.0
 11
132.8184779641773
 21
359.3637868720144
 31
0.0
  0
SPLINE
  5
2042
330
1F
100
AcDbEntity
  8
0
  6
Continuous
 62
     7
370
     9
100
AcDbSpline
210
0.0
220
0.0
230
1.0
 70
     8
 71
     3
 72
    22
 73
    18
 74
    16
 42
0.0000000001
 43
0.0000000001
 44
0.0000000001
 12
-0.1002776214911201
 22
0.994959495973622
 32
0.0
 13
-0.79655816431652
 23
0.6045618999413512
 33
0.0
 40
0.0
 40
0.0
 40
0.0
 40
0.0
 40
0.0301326747842808
 40
0.1144041511005928
 40
0.2493343245782474
 40
0.4247027737476452
 40
0.634548060454069
 40
0.8749136638596706
 40
1.132143637125054
 40
1.391190644375477
 40
1.646390407106052
 40
1.883278450604785
 40
2.093328208288199
 40
2.26862336207608
 40
2.403350991024339
 40
2.487465005692036
 40
2.511921273880267
 40
2.511921273880267
 40
2.511921273880267
 40
2.511921273880267
 10
132.8184779641773
 20
359.3637868720144
 30
0.0
 10
132.8174707531918
 20
359.3737804689864
 30
0.0
 10
132.7644427019567
 20
359.3781052865899
 30
0.0
 10
132.6967790203327
 20
359.3948008413933
 30
0.0
 10
132.5579642626089
 20
359.4046337857735
 30
0.0
 10
132.3882287749248
 20
359.4185452452535
 30
0.0
 10
132.17898172647
 20
359.4311437789163
 30
0.0
 10
131.9438992002077
 20
359.4443818215713
 30
0.0
 10
131.6919162926138
 20
359.4574884010335
 30
0.0
 10
131.435130578663
 20
359.4706505871409
 30
0.0
 10
131.1850592691787
 20
359.4836581316782
 30
0.0
 10
130.9514640557819
 20
359.4968627619786
 30
0.0
 10
130.7441836559813
 20
359.5092281935549
 30
0.0
 10
130.5720585046119
 20
359.5236207564581
 30
0.0
 10
130.4393720617958
 20
359.5322763256293
 30
0.0
 10
130.362463722112
 20
359.5507212536155
 30
0.0
 10
130.3238919888739
 20
359.5528792841533
 30
0.0
 10
130.3173983755092
 20
359.557807726807
 30
0.0
 11
132.8184779641773
 21
359.3637868720144
 31
0.0
 11
132.7910617712924
 21
359.3762900898943
 31
0.0
 11
132.7079207026918
 21
359.3900467040305
 31
0.0
 11
132.5736864513028
 21
359.4037331012462
 31
0.0
 11
132.3988278412515
 21
359.4170957153234
 31
0.0
 11
132.1894040684586
 21
359.4303896140036
 31
0.0
 11
131.9494187285906
 21
359.4439047887707
 31
0.0
 11
131.6925442374033
 21
359.4574234767013
 31
0.0
 11
131.4338402269842
 21
359.4707496523889
 31
0.0
 11
131.1789937030059
 21
359.4841723240275
 31
0.0
 11
130.9424809518156
 21
359.4975013778974
 31
0.0
 11
130.7328533649019
 21
359.5108121069381
 31
0.0
 11
130.5580684492427
 21
359.5241771433963
 31
0.0
 11
130.424036867787
 21
359.5378544667633
 31
0.0
 11
130.3410533896974
 21
359.551598913921
 31
0.0
 11
130.3173983755092
 21
359.557807726807
 31
0.0
  0
SPLINE
  5
2043
330
1F
100
AcDbEntity
  8
0
  6
Continuous
 62
     7
370
     9
100
AcDbSpline
210
0.0
220
0.0
230
1.0
 70
     8
 71
     3
 72
    22
 73
    18
 74
    16
 42
0.0000000001
 43
0.0000000001
 44
0.0000000001
 12
0.250508813973156
 22
-0.9681143187257188
 32
0.0
 13
0.3906703237736134
 23
-0.9205306611529135
 33
0.0
 40
0.0
 40
0.0
 40
0.0
 40
0.0
 40
0.0007783791048324
 40
0.0561623758608725
 40
0.1616568039434689
 40
0.3126787806438681
 40
0.5019071846104498
 40
0.7200193838127467
 40
0.9562215850123493
 40
1.198806603669846
 40
1.435745914641466
 40
1.65529520233902
 40
1.846587941705616
 40
2.000195601688552
 40
2.108657885506761
 40
2.167180311737866
 40
2.16957383662925
 40
2.16957383662925
 40
2.16957383662925
 40
2.16957383662925
 10
130.4869775954233
 20
359.4623607808324
 30
0.0
 10
130.4870425923654
 20
359.4621095941801
 30
0.0
 10
130.4921382267165
 20
359.4439887174133
 30
0.0
 10
130.5676394695293
 20
359.4524571845625
 30
0.0
 10
130.6549550158088
 20
359.425991967271
 30
0.0
 10
130.8102137261052
 20
359.4186283479279
 30
0.0
 10
130.9930716538114
 20
359.402442974907
 30
0.0
 10
131.2080537595329
 20
359.389262354745
 30
0.0
 10
131.4396363386931
 20
359.3749838153067
 30
0.0
 10
131.6779329238522
 20
359.3610667515504
 30
0.0
 10
131.9103129423534
 20
359.3468094096356
 30
0.0
 10
132.126460839782
 20
359.3335444077671
 30
0.0
 10
132.3120915246353
 20
359.3175737116002
 30
0.0
 10
132.4679873206037
 20
359.3096405510312
 30
0.0
 10
132.5621913843639
 20
359.2841131664955
 30
0.0
 10
132.6351494225384
 20
359.2916019761432
 30
0.0
 10
132.6439532093807
 20
359.2730393720545
 30
0.0
 10
132.6442649024288
 20
359.2723049343709
 30
0.0
 11
130.4869775954233
 21
359.4623607808324
 31
0.0
 11
130.4871878973073
 21
359.4616113496158
 31
0.0
 11
130.540668235514
 21
359.4472154987564
 31
0.0
 11
130.6451758133948
 21
359.4328196478969
 31
0.0
 11
130.7955100973241
 21
359.4184237970375
 31
0.0
 11
130.9841901130803
 21
359.4040279461781
 31
0.0
 11
131.2018267159735
 21
359.3896320953187
 31
0.0
 11
131.4375898159927
 21
359.3752362444972
 31
0.0
 11
131.679747307628
 21
359.3608403936378
 31
0.0
 11
131.9162488859774
 21
359.3464445427783
 31
0.0
 11
132.1353256971796
 21
359.3320486919189
 31
0.0
 11
132.3260759831883
 21
359.3176528410595
 31
0.0
 11
132.4790075779733
 21
359.3032569902001
 31
0.0
 11
132.5865102592844
 21
359.2888611393406
 31
0.0
 11
132.6432344503321
 21
359.2744652884812
 31
0.0
 11
132.6442649024288
 21
359.2723049343709
 31
0.0
  0
SPLINE
  5
2044
330
1F
100
AcDbEntity
  8
0
  6
Continuous
 62
     7
370
     9
100
AcDbSpline
210
0.0
220
0.0
230
1.0
 70
     8
 71
     3
 72
    21
 73
    17
 74
    15
 42
0.0000000001
 43
0.0000000001
 44
0.0000000001
 12
0.4929694063175559
 22
-0.8700466449765302
 32
0.0
 13
0.1614492973955897
 23
-0.9868810082124745
 33
0.0
 40
0.0
 40
0.0
 40
0.0
 40
0.0
 40
0.0178170539527002
 40
0.0786937432088744
 40
0.1893696760054795
 40
0.3448979692040919
 40
0.5377154427278655
 40
0.7583154402667373
 40
0.9957782807896675
 40
1.238333280071717
 40
1.473953423383882
 40
1.690960850760975
 40
1.878617705364468
 40
2.027682076087357
 40
2.130938762633256
 40
2.18390996953913
 40
2.18390996953913
 40
2.18390996953913
 40
2.18390996953913
 10
130.4748402083449
 20
359.8733880149182
 30
0.0
 10
130.4777679625147
 20
359.8682207922466
 30
0.0
 10
130.5061343583924
 20
359.8602225844709
 30
0.0
 10
130.5640644803256
 20
359.8454883269622
 30
0.0
 10
130.6749089803695
 20
359.8342151784893
 30
0.0
 10
130.8261730292367
 20
359.8198152517359
 30
0.0
 10
131.0157439220087
 20
359.806248548747
 30
0.0
 10
131.2321199530772
 20
359.792180957252
 30
0.0
 10
131.465255373493
 20
359.7781627925168
 30
0.0
 10
131.7034703903001
 20
359.7641815389538
 30
0.0
 10
131.9344409046478
 20
359.7499115136565
 30
0.0
 10
132.1485124057038
 20
359.73676272815
 30
0.0
 10
132.3292944217307
 20
359.720502515884
 30
0.0
 10
132.4839646731453
 20
359.7133353042837
 30
0.0
 10
132.5663774776592
 20
359.6867009142937
 30
0.0
 10
132.6432980410012
 20
359.6951185301048
 30
0.0
 10
132.6461487623803
 20
359.6776931040789
 30
0.0
 11
130.4748402083449
 21
359.8733880149182
 31
0.0
 11
130.4903927618579
 21
359.8646951735657
 31
0.0
 11
130.5495428317887
 21
359.8502993227063
 31
0.0
 11
130.6592785214181
 21
359.8359034718469
 31
0.0
 11
130.8141391344328
 21
359.8215076209875
 31
0.0
 11
131.0064184561867
 21
359.807111770128
 31
0.0
 11
131.2265482324374
 21
359.7927159192686
 31
0.0
 11
131.4635743071787
 21
359.7783200684093
 31
0.0
 11
131.705701726433
 21
359.7639242175498
 31
0.0
 11
131.9408816818152
 21
359.7495283667283
 31
0.0
 11
132.1574110863192
 21
359.7351325158689
 31
0.0
 11
132.3445149466687
 21
359.7207366650094
 31
0.0
 11
132.4928825512765
 21
359.70634081415
 31
0.0
 11
132.5951307923101
 21
359.6919449632907
 31
0.0
 11
132.6461487623803
 21
359.6776931040789
 31
0.0
  0
SPLINE
  5
2045
330
1F
100
AcDbEntity
  8
0
  6
Continuous
 62
     7
370
     9
100
AcDbSpline
210
0.0
220
0.0
230
1.0
 70
     8
 71
     3
 72
     8
 73
     4
 74
     2
 42
0.0000000001
 43
0.0000000001
 44
0.0000000001
 12
0.0
 22
-1.0
 32
0.0
 13
0.1003076508315724
 23
-0.9949564689898002
 33
0.0
 40
0.0
 40
0.0
 40
0.0
 40
0.0
 40
0.0010096964125735
 40
0.0010096964125735
 40
0.0010096964125735
 40
0.0010096964125735
 10
130.3136496011171
 20
359.7770465893195
 30
0.0
 10
130.3136496011171
 20
359.7767100238487
 30
0.0
 10
130.3136655366452
 20
359.7763729846099
 30
0.0
 10
130.3136992967369
 20
359.7760381166174
 30
0.0
 11
130.3136496011171
 21
359.7770465893195
 31
0.0
 11
130.3136992967369
 21
359.7760381166174
 31
0.0
  0
SPLINE
  5
2046
330
1F
100
AcDbEntity
  8
0
  6
Continuous
 62
     7
370
     9
100
AcDbSpline
210
0.0
220
0.0
230
1.0
 70
     8
 71
     3
 72
    22
 73
    18
 74
    16
 42
0.0000000001
 43
0.0000000001
 44
0.0000000001
 12
0.1003076473057551
 22
-0.9949564693452595
 32
0.0
 13
0.8034306909058082
 23
-0.5953982909873153
 33
0.0
 40
0.0
 40
0.0
 40
0.0
 40
0.0
 40
0.0301234345751199
 40
0.1141331004611784
 40
0.2482683442512444
 40
0.4231560690566264
 40
0.6380576403533711
 40
0.883671724309887
 40
1.143719148680897
 40
1.402728077449089
 40
1.655086371594345
 40
1.893066182306332
 40
2.103557152357958
 40
2.276687168779102
 40
2.407649432601945
 40
2.488296796547134
 40
2.511875241497092
 40
2.511875241497092
 40
2.511875241497092
 40
2.511875241497092
 10
130.3136992967369
 20
359.7760381166174
 30
0.0
 10
130.3147065003539
 20
359.7660476145809
 30
0.0
 10
130.3676132634794
 20
359.7617313449122
 30
0.0
 10
130.434990601539
 20
359.7450931574958
 30
0.0
 10
130.5732428874171
 20
359.7352687250583
 30
0.0
 10
130.744223883909
 20
359.7212407257538
 30
0.0
 10
130.9567717097614
 20
359.7084663134576
 30
0.0
 10
131.1962120925571
 20
359.6950146368268
 30
0.0
 10
131.4508703918046
 20
359.6817922440551
 30
0.0
 10
131.7076356025838
 20
359.6686305587501
 30
0.0
 10
131.9571094236114
 20
359.6556287791668
 30
0.0
 10
132.1902692766791
 20
359.6424071401309
 30
0.0
 10
132.3973258437447
 20
359.6299623578018
 30
0.0
 10
132.5676532256581
 20
359.615615240996
 30
0.0
 10
132.6970754501518
 20
359.606867273869
 30
0.0
 10
132.7715592179227
 20
359.5890653719626
 30
0.0
 10
132.8084044667855
 20
359.5866537337361
 30
0.0
 10
132.8147190155577
 20
359.5819742117936
 30
0.0
 11
130.3136992967369
 21
359.7760381166174
 31
0.0
 11
130.3411063185215
 21
359.7635370579622
 31
0.0
 11
130.4239872219688
 21
359.749811905648
 31
0.0
 11
130.5574283691903
 21
359.7361838516846
 31
0.0
 11
130.7318059418012
 21
359.7228355013024
 31
0.0
 11
130.9462762558348
 21
359.7092277923044
 31
0.0
 11
131.1915035063556
 21
359.695448320625
 31
0.0
 11
131.4511927472886
 21
359.6818042352524
 31
0.0
 11
131.7098586857234
 21
359.6684791658228
 31
0.0
 11
131.9618664406638
 21
359.6551825469376
 31
0.0
 11
132.199466442857
 21
359.6417427082364
 31
0.0
 11
132.409528141674
 21
359.6283065196628
 31
0.0
 11
132.5821419134721
 21
359.6149465656341
 31
0.0
 11
132.712404916372
 21
359.6014312180213
 31
0.0
 11
132.7919302330318
 21
359.5880251999149
 31
0.0
 11
132.8147190155577
 21
359.5819742117936
 31
0.0
  0
LINE
  5
2047
330
1F
100
AcDbEntity
  8
0
370
     9
100
AcDbLine
 10
132.5565026999802
 20
391.5690744998904
 30
0.0
 11
130.3115082679157
 21
390.2729263602088
 31
0.0
  0
LINE
  5
2048
330
1F
100
AcDbEntity
  8
0
370
     9
100
AcDbLine
 10
132.6565026999801
 20
391.3958694191334
 30
0.0
 11
130.4115082679157
 21
390.0997212794519
 31
0.0
  0
TEXT
  5
2049
330
1F
100
AcDbEntity
  8
0
 62
     7
370
     9
100
AcDbText
 10
133.6283781756486
 20
389.8636789701488
 30
0.0
 40
2.0
  1
RCE1
  7
型式1
100
AcDbText
  0
ARC
  5
204A
330
1F
100
AcDbEntity
  8
0
  6
Continuous
 62
     7
370
     9
100
AcDbCircle
 10
160.6309970043615
 20
391.6802939444028
 30
0.0
 40
1.209152595828975
100
AcDbArc
 50
152.7252385029191
 51
225.0
  0
ARC
  5
204B
330
1F
100
AcDbEntity
  8
0
  6
Continuous
 62
     7
370
     9
100
AcDbCircle
 10
158.9209970043615
 20
389.9702939444029
 30
0.0
 40
1.209152595829019
100
AcDbArc
 50
333.6917871835404
 51
44.99999999999942
  0
LINE
  5
204C
330
1F
100
AcDbEntity
  8
0
 62
     7
370
     9
100
AcDbLine
 10
151.4840054839479
 20
392.2343978896711
 30
0.0
 11
158.17095396655
 21
392.2343978896712
 31
0.0
  0
LINE
  5
204D
330
1F
100
AcDbEntity
  8
0
 62
     7
370
     9
100
AcDbLine
 10
151.4840054839479
 20
389.4343978896711
 30
0.0
 11
158.6195840742252
 21
389.4343978896711
 31
0.0
  0
ARC
  5
204E
330
1F
100
AcDbEntity
  8
0
  6
Continuous
 62
     7
370
     9
100
AcDbCircle
 10
159.2456719843752
 20
358.3332754926872
 30
0.0
 40
1.209152595828989
100
AcDbArc
 50
152.7252385029191
 51
225.0
  0
ARC
  5
204F
330
1F
100
AcDbEntity
  8
0
  6
Continuous
 62
     7
370
     9
100
AcDbCircle
 10
157.5356719843751
 20
356.6232754926873
 30
0.0
 40
1.209152595829016
100
AcDbArc
 50
333.6917871835408
 51
45.0
  0
LINE
  5
2050
330
1F
100
AcDbEntity
  8
0
 62
     7
370
     9
100
AcDbLine
 10
151.4840054839479
 20
358.8873794379556
 30
0.0
 11
158.17095396655
 21
358.8873794379556
 31
0.0
  0
LINE
  5
2051
330
1F
100
AcDbEntity
  8
0
 62
     7
370
     9
100
AcDbLine
 10
155.023059236788
 20
356.0873794379556
 30
0.0
 11
158.6195840742252
 21
356.0873794379556
 31
0.0
  0
LINE
  5
2052
330
1F
100
AcDbEntity
  8
0
 62
     7
370
     9
100
AcDbLine
 10
151.4840054839479
 20
356.0873794379555
 30
0.0
 11
155.023059236788
 21
356.0873794379556
 31
0.0
  0
LINE
  5
2053
330
1F
100
AcDbEntity
  8
0
370
     9
100
AcDbLine
 10
151.4840054839479
 20
392.2343978896711
 30
0.0
 11
151.4840054839479
 21
389.4343978896711
 31
0.0
  0
LINE
  5
2054
330
1F
100
AcDbEntity
  8
0
370
     9
100
AcDbLine
 10
151.4840054839479
 20
358.9873794379555
 30
0.0
 11
151.4840054839479
 21
356.0873794379555
 31
0.0
  0
DIMENSION
  5
2055
330
1F
100
AcDbEntity
  8
AM_5
100
AcDbDimension
  2
*D20
 10
151.4840054839479
 20
367.4112341641592
 30
0.0
 11
140.4840054839479
 21
369.8615786523482
 31
0.0
 70
    32
  1
<>
 71
     5
 42
22.0
  3
AM_ISO$0
100
AcDbAlignedDimension
 13
129.4840054839479
 23
358.7123794379555
 33
0.0
 14
151.4840054839479
 24
359.8623794379555
 34
0.0
100
AcDbRotatedDimension
1001
ACAD
1000
DSTYLE
1002
{
1070
    44
1040
1.0
1002
}
  0
DIMENSION
  5
2056
330
1F
100
AcDbEntity
  8
AM_5
100
AcDbDimension
  2
*D21
 10
126.7669851694473
 20
355.2123794379556
 30
0.0
 11
126.7669851694473
 21
357.5373794379556
 31
0.0
 70
   160
 71
     5
 42
4.649999999999977
  3
AM_ISO$0
100
AcDbAlignedDimension
 13
133.4840054839479
 23
359.8623794379555
 33
0.0
 14
133.4840054839479
 24
355.2123794379555
 34
0.0
 50
90.0
100
AcDbRotatedDimension
1001
ACAD
1000
DSTYLE
1002
{
1070
   147
1040
1.199999999999999
1002
}
  0
DIMENSION
  5
2057
330
1F
100
AcDbEntity
  8
AM_5
100
AcDbDimension
  2
*D22
 10
177.9924217789583
 20
367.4112341641592
 30
0.0
 11
164.7382136314531
 21
367.4112341641592
 31
0.0
 70
   160
  1
2000
 71
     5
 42
26.50841629501036
  3
AM_ISO$0
100
AcDbAlignedDimension
 13
151.4840054839479
 23
356.0873794379555
 33
0.0
 14
177.9924217789583
 24
358.3623794379555
 34
0.0
100
AcDbRotatedDimension
1001
ACAD
1000
DSTYLE
1002
{
1070
    44
1040
1.0
1002
}
  0
LINE
  5
2058
330
1F
100
AcDbEntity
  8
0
 62
     0
370
     9
100
AcDbLine
 10
148.0695004629954
 20
392.0843542675612
 30
0.0
 11
146.7055988414908
 21
389.5843542675611
 31
0.0
  0
SPLINE
  5
2059
330
1F
100
AcDbEntity
  8
layer 1
 62
     0
370
     9
100
AcDbSpline
210
0.0
220
0.0
230
1.0
 70
    24
 71
     3
 72
     8
 73
     4
 74
     0
 42
0.0000000001
 43
0.0000000001
 40
0.75
 40
0.75
 40
0.75
 40
0.75
 40
1.0
 40
1.0
 40
1.0
 40
1.0
 10
147.0783982725502
 20
389.5843542675611
 30
0.0
 10
147.0783982725502
 20
389.5843542675611
 30
0.0
 10
147.7057856704933
 20
390.7340617828623
 30
0.0
 10
147.7057856704933
 20
390.7340617828623
 30
0.0
  0
SPLINE
  5
205A
330
1F
100
AcDbEntity
  8
layer 1
 62
     0
370
     9
100
AcDbSpline
210
0.0
220
0.0
230
1.0
 70
    24
 71
     3
 72
     8
 73
     4
 74
     0
 42
0.0000000001
 43
0.0000000001
 40
0.1666666666666666
 40
0.1666666666666666
 40
0.1666666666666666
 40
0.1666666666666666
 40
0.2588925533261621
 40
0.2588925533261621
 40
0.2588925533261621
 40
0.2588925533261621
 10
147.7057856704933
 20
390.7340617828623
 30
0.0
 10
147.7057856704933
 20
390.7340617828623
 30
0.0
 10
147.8978930156091
 20
391.0862591882733
 30
0.0
 10
148.0695004629954
 20
391.400873383177
 30
0.0
  0
SPLINE
  5
205B
330
1F
100
AcDbEntity
  8
layer 1
 62
     0
370
     9
100
AcDbSpline
210
0.0
220
0.0
230
1.0
 70
    24
 71
     3
 72
     8
 73
     4
 74
     0
 42
0.0000000001
 43
0.0000000001
 40
0.3825602506726924
 40
0.3825602506726924
 40
0.3825602506726924
 40
0.3825602506726924
 40
0.5
 40
0.5
 40
0.5
 40
0.5
 10
148.0695004629954
 20
391.400873383177
 30
0.0
 10
148.0695004629954
 20
390.7262998523032
 30
0.0
 10
148.0695004629954
 20
389.5843542675611
 30
0.0
 10
148.0695004629954
 20
389.5843542675611
 30
0.0
  0
SPLINE
  5
205C
330
1F
100
AcDbEntity
  8
layer 1
 62
     0
370
     9
100
AcDbSpline
210
0.0
220
0.0
230
1.0
 70
    24
 71
     3
 72
     8
 73
     4
 74
     0
 42
0.0000000001
 43
0.0000000001
 40
0.327901997387451
 40
0.327901997387451
 40
0.327901997387451
 40
0.327901997387451
 40
0.4285714285714286
 40
0.4285714285714286
 40
0.4285714285714286
 40
0.4285714285714286
 10
148.4417245567265
 20
390.2673015914394
 30
0.0
 10
148.4417245567265
 20
390.9420050080838
 30
0.0
 10
148.4417245567265
 20
392.0843542675612
 30
0.0
 10
148.4417245567266
 20
392.0843542675612
 30
0.0
  0
SPLINE
  5
205D
330
1F
100
AcDbEntity
  8
layer 1
 62
     0
370
     9
100
AcDbSpline
210
0.0
220
0.0
230
1.0
 70
    24
 71
     3
 72
     8
 73
     4
 74
     0
 42
0.0000000001
 43
0.0000000001
 40
0.1428571428571428
 40
0.1428571428571428
 40
0.1428571428571428
 40
0.1428571428571428
 40
0.2219104167003699
 40
0.2219104167003699
 40
0.2219104167003699
 40
0.2219104167003699
 10
148.8054557207463
 20
390.9341420588088
 30
0.0
 10
148.8054557207463
 20
390.9341420588088
 30
0.0
 10
148.6133361572379
 20
390.5819228590435
 30
0.0
 10
148.4417245567266
 20
390.2673015914394
 30
0.0
  0
SPLINE
  5
205E
330
1F
100
AcDbEntity
  8
layer 1
 62
     0
370
     9
100
AcDbSpline
210
0.0
220
0.0
230
1.0
 70
    24
 71
     3
 72
     8
 73
     4
 74
     0
 42
0.0000000001
 43
0.0000000001
 40
0.0
 40
0.0
 40
0.0
 40
0.0
 40
0.2
 40
0.2
 40
0.2
 40
0.2
 10
148.8054557207463
 20
390.9341420588088
 30
0.0
 10
148.8054557207463
 20
390.9341420588088
 30
0.0
 10
149.4328431186893
 20
392.0843542675612
 30
0.0
 10
149.4328431186893
 20
392.0843542675612
 30
0.0
  0
SPLINE
  5
205F
330
1F
100
AcDbEntity
  8
layer 1
 62
     0
370
     9
100
AcDbSpline
210
0.0
220
0.0
230
1.0
 70
    24
 71
     3
 72
     8
 73
     4
 74
     0
 42
0.0000000001
 43
0.0000000001
 40
0.0
 40
0.0
 40
0.0
 40
0.0
 40
0.2
 40
0.2
 40
0.2
 40
0.2
 10
149.0691119546696
 20
390.7340617828623
 30
0.0
 10
149.0691119546696
 20
390.7340617828623
 30
0.0
 10
148.4417245567265
 20
389.5843542675611
 30
0.0
 10
148.4417245567265
 20
389.5843542675611
 30
0.0
  0
SPLINE
  5
2060
330
1F
100
AcDbEntity
  8
layer 1
 62
     0
370
     9
100
AcDbSpline
210
0.0
220
0.0
230
1.0
 70
    24
 71
     3
 72
     8
 73
     4
 74
     0
 42
0.0000000001
 43
0.0000000001
 40
0.1428571428571428
 40
0.1428571428571428
 40
0.1428571428571428
 40
0.1428571428571428
 40
0.2219132452528163
 40
0.2219132452528163
 40
0.2219132452528163
 40
0.2219132452528163
 10
149.0691119546696
 20
390.7340617828623
 30
0.0
 10
149.0691119546696
 20
390.7340617828623
 30
0.0
 10
149.2612452666278
 20
391.0863067942329
 30
0.0
 10
149.4328615395711
 20
391.4009371693522
 30
0.0
  0
SPLINE
  5
2061
330
1F
100
AcDbEntity
  8
layer 1
 62
     0
370
     9
100
AcDbSpline
210
0.0
220
0.0
230
1.0
 70
    24
 71
     3
 72
     8
 73
     4
 74
     0
 42
0.0000000001
 43
0.0000000001
 40
0.3279056134096089
 40
0.3279056134096089
 40
0.3279056134096089
 40
0.3279056134096089
 40
0.4285714285714286
 40
0.4285714285714286
 40
0.4285714285714286
 40
0.4285714285714286
 10
149.4328615395711
 20
391.4009371693522
 30
0.0
 10
149.4328615395711
 20
390.7263718415691
 30
0.0
 10
149.4328615395711
 20
389.5843542675611
 30
0.0
 10
149.4328615395711
 20
389.5843542675611
 30
0.0
  0
SPLINE
  5
2062
330
1F
100
AcDbEntity
  8
layer 1
 62
     0
370
     9
100
AcDbSpline
210
0.0
220
0.0
230
1.0
 70
    24
 71
     3
 72
     8
 73
     4
 74
     0
 42
0.0000000001
 43
0.0000000001
 40
0.0
 40
0.0
 40
0.0
 40
0.0
 40
0.25
 40
0.25
 40
0.25
 40
0.25
 10
149.8058755210844
 20
392.0843542675612
 30
0.0
 10
149.8058755210844
 20
392.0843542675612
 30
0.0
 10
149.8058755210844
 20
389.5843542675611
 30
0.0
 10
149.8058755210844
 20
389.5843542675611
 30
0.0
  0
DIMENSION
  5
2063
330
1F
100
AcDbEntity
  8
AM_5
100
AcDbDimension
  2
*D23
 10
126.7669851694473
 20
392.8837880397217
 30
0.0
 11
126.7669851694473
 21
390.8343978881089
 31
0.0
 70
   160
 71
     5
 42
4.098780303225453
  3
AM_ISO$0
100
AcDbAlignedDimension
 13
129.4840054839479
 23
388.7850077364961
 33
0.0
 14
129.483891864491
 24
392.8837880397216
 34
0.0
 50
90.0
100
AcDbRotatedDimension
1001
ACAD
1000
DSTYLE
1002
{
1070
   147
1040
1.199999999999999
1002
}
  0
LINE
  5
2064
330
1F
100
AcDbEntity
  8
0
 62
     7
370
     9
100
AcDbLine
 10
159.5562789865363
 20
358.8873794379555
 30
0.0
 11
164.9924217789584
 21
358.8873794379555
 31
0.0
  0
LINE
  5
2065
330
1F
100
AcDbEntity
  8
0
 62
     7
370
     9
100
AcDbLine
 10
160.0049090942115
 20
356.0873794379555
 30
0.0
 11
164.9924217789584
 21
356.0873794379555
 31
0.0
  0
LINE
  5
2066
330
1F
100
AcDbEntity
  8
0
 62
     7
370
     9
100
AcDbLine
 10
177.9924217789583
 20
358.3623794379555
 30
0.0
 11
177.9924217789583
 21
357.8623794379555
 31
0.0
  0
LINE
  5
2067
330
1F
100
AcDbEntity
  8
0
 62
     7
370
     9
100
AcDbLine
 10
177.9924217789583
 20
356.6123794379555
 30
0.0
 11
177.9924217789583
 21
357.1123794379555
 31
0.0
  0
LINE
  5
2068
330
1F
100
AcDbEntity
  8
0
 62
     7
370
     9
100
AcDbLine
 10
173.9924217789583
 20
358.4623794379555
 30
0.0
 11
173.9924217789583
 21
357.6623794379555
 31
0.0
  0
LINE
  5
2069
330
1F
100
AcDbEntity
  8
0
 62
     7
370
     9
100
AcDbLine
 10
173.9924217789583
 20
356.5123794379556
 30
0.0
 11
173.9924217789583
 21
357.3123794379555
 31
0.0
  0
LINE
  5
206A
330
1F
100
AcDbEntity
  8
0
 62
     7
370
     9
100
AcDbLine
 10
173.9924217789583
 20
356.6123794379555
 30
0.0
 11
177.9924217789583
 21
356.6123794379555
 31
0.0
  0
LINE
  5
206B
330
1F
100
AcDbEntity
  8
0
 62
     7
370
     9
100
AcDbLine
 10
173.9924217789583
 20
357.1123794379555
 30
0.0
 11
177.9924217789583
 21
357.1123794379555
 31
0.0
  0
LINE
  5
206C
330
1F
100
AcDbEntity
  8
0
 62
     7
370
     9
100
AcDbLine
 10
173.9924217789583
 20
357.8623794379555
 30
0.0
 11
177.9924217789583
 21
357.8623794379555
 31
0.0
  0
LINE
  5
206D
330
1F
100
AcDbEntity
  8
0
 62
     7
370
     9
100
AcDbLine
 10
173.9924217789583
 20
358.3623794379555
 30
0.0
 11
177.9924217789583
 21
358.3623794379555
 31
0.0
  0
LINE
  5
206E
330
1F
100
AcDbEntity
  8
0
 62
     7
370
     9
100
AcDbLine
 10
164.9924217789584
 20
357.3123794379555
 30
0.0
 11
169.5571175080243
 21
357.3123794379555
 31
0.0
  0
LINE
  5
206F
330
1F
100
AcDbEntity
  8
0
 62
     7
370
     9
100
AcDbLine
 10
164.9924217789584
 20
356.5123794379555
 30
0.0
 11
169.6942987082119
 21
356.5123794379556
 31
0.0
  0
LINE
  5
2070
330
1F
100
AcDbEntity
  8
0
 62
     7
370
     9
100
AcDbLine
 10
164.9924217789584
 20
358.4623794379555
 30
0.0
 11
169.0058155209682
 21
358.4623794379555
 31
0.0
  0
LINE
  5
2071
330
1F
100
AcDbEntity
  8
0
 62
     7
370
     9
100
AcDbLine
 10
164.9924217789584
 20
357.6623794379555
 30
0.0
 11
169.2787382789693
 21
357.6623794379555
 31
0.0
  0
LINE
  5
2072
330
1F
100
AcDbEntity
  8
0
 62
     7
370
     9
100
AcDbLine
 10
171.0229540118777
 20
357.3123794379555
 30
0.0
 11
173.9924217789583
 21
357.3123794379555
 31
0.0
  0
LINE
  5
2073
330
1F
100
AcDbEntity
  8
0
 62
     7
370
     9
100
AcDbLine
 10
171.1614898206081
 20
356.5123794379555
 30
0.0
 11
173.9924217789583
 21
356.5123794379555
 31
0.0
  0
LINE
  5
2074
330
1F
100
AcDbEntity
  8
0
 62
     7
370
     9
100
AcDbLine
 10
170.4627776530107
 20
358.4623794379555
 30
0.0
 11
173.9924217789583
 21
358.4623794379555
 31
0.0
  0
LINE
  5
2075
330
1F
100
AcDbEntity
  8
0
 62
     7
370
     9
100
AcDbLine
 10
170.7498030438271
 20
357.6623794379555
 30
0.0
 11
173.9924217789583
 21
357.6623794379555
 31
0.0
  0
LINE
  5
2076
330
1F
100
AcDbEntity
  8
0
370
     9
100
AcDbLine
 10
164.9924217789584
 20
358.8873794379555
 30
0.0
 11
164.9924217789584
 21
356.0873794379555
 31
0.0
  0
LINE
  5
2077
330
1F
100
AcDbEntity
  8
0
370
     9
100
AcDbLine
 10
164.9924217789584
 20
358.3623794379555
 30
0.0
 11
164.9924217789584
 21
356.6123794379555
 31
0.0
  0
ARC
  5
2078
330
1F
100
AcDbEntity
  8
0
  6
Continuous
 62
     7
370
     9
100
AcDbCircle
 10
170.2130827950433
 20
358.4298755781949
 30
0.0
 40
1.209152595828989
100
AcDbArc
 50
170.1185020473043
 51
225.0
  0
ARC
  5
2079
330
1F
100
AcDbEntity
  8
0
  6
Continuous
 62
     7
370
     9
100
AcDbCircle
 10
171.6688890985698
 20
358.4480834687314
 30
0.0
 40
1.209152595828989
100
AcDbArc
 50
170.9931475738522
 51
225.0
  0
ARC
  5
207A
330
1F
100
AcDbEntity
  8
0
  6
Continuous
 62
     7
370
     9
100
AcDbCircle
 10
169.9588890985698
 20
356.7380834687313
 30
0.0
 40
1.209152595829016
100
AcDbArc
 50
340.6466871802776
 51
45.0
  0
ARC
  5
207B
330
1F
100
AcDbEntity
  8
0
  6
Continuous
 62
     7
370
     9
100
AcDbCircle
 10
168.5030827950433
 20
356.7198755781949
 30
0.0
 40
1.209152595829016
100
AcDbArc
 50
341.5586319037369
 51
45.0
  0
ARC
  5
207C
330
1F
100
AcDbEntity
  8
0
  6
Continuous
 62
     7
370
     9
100
AcDbCircle
 10
160.6309970043615
 20
358.3332754926872
 30
0.0
 40
1.209152595828989
100
AcDbArc
 50
152.7252385029191
 51
225.0
  0
ARC
  5
207D
330
1F
100
AcDbEntity
  8
0
  6
Continuous
 62
     7
370
     9
100
AcDbCircle
 10
158.9209970043615
 20
356.6232754926873
 30
0.0
 40
1.209152595829016
100
AcDbArc
 50
333.6917871835408
 51
45.0
  0
MTEXT
  5
207F
330
1F
100
AcDbEntity
  8
0
100
AcDbMText
 10
119.9564564712974
 20
408.0426511883447
 30
0.0
 40
3.5
 41
20.17047085845536
 71
     1
 72
     5
  1
RCE1
  7
DAYUS
 73
     1
 44
1.0
1001
ACAD
1000
MTEXTBEGIN
1070
    73
1070
     1
1070
    44
1040
1.0
1070
    74
1070
     0
1000
MTEXTEND
  0
MTEXT
  5
2080
330
1F
100
AcDbEntity
  8
0
100
AcDbMText
 10
207.5671129162612
 20
408.0426511883447
 30
0.0
 40
3.5
 41
31.44166666666666
 71
     1
 72
     5
  1
RCE1-QD
  7
DAYUS
 73
     1
 44
1.0
1001
ACAD
1000
MTEXTBEGIN
1070
    73
1070
     1
1070
    44
1040
1.0
1070
    74
1070
     0
1000
MTEXTEND
  0
LEADER
  5
2081
330
1F
100
AcDbEntity
  8
AM_5
100
AcDbLeader
  3
AM_ISO$7
 73
     0
 74
     0
 75
     1
 40
3.5
 41
20.33333333333333
 76
     3
 10
132.1606984374279
 20
391.9443918746596
 30
0.0
 10
135.8177202391542
 20
396.9788243338024
 30
0.0
 10
138.8177202391542
 20
396.9788243338024
 30
0.0
340
2082
213
1.735985865149586
223
-0.3286996798672277
233
0.0
1001
ACAD
1000
DSTYLE
1002
{
1070
   147
1040
0.2
1070
    77
1070
     1
1002
}
  0
MTEXT
  5
2082
102
{ACAD_REACTORS
330
2081
102
}
330
1F
100
AcDbEntity
  8
AM_5
100
AcDbMText
 10
137.2817343740046
 20
401.0075240136695
 30
0.0
 40
3.5
 41
0.0
 71
     1
 72
     1
  1
M2.6*5L
  7
DAYUS
 73
     1
 44
1.0
1001
ACAD
1000
MTEXTBEGIN
1070
    73
1070
     1
1070
    44
1040
1.0
1070
    74
1070
     0
1000
MTEXTEND
  0
LEADER
  5
2083
330
1F
100
AcDbEntity
  8
AM_5
100
AcDbLeader
  3
AM_ISO$7
 73
     0
 74
     0
 75
     1
 40
3.0
 41
7.142857142857142
 76
     3
 10
144.3723580255831
 20
390.5877709421074
 30
0.0
 10
151.801068728712
 20
381.4040676421484
 30
0.0
 10
154.801068728712
 20
381.4040676421484
 30
0.0
340
2084
213
1.498102521800547
223
-0.3912552379740788
233
0.0
1001
ACAD
1000
DSTYLE
1002
{
1070
   147
1040
0.2
1070
    77
1070
     1
1002
}
  0
MTEXT
  5
2084
102
{ACAD_REACTORS
330
2083
102
}
330
1F
100
AcDbEntity
  8
AM_5
100
AcDbMText
 10
153.5029662069115
 20
384.9953228801224
 30
0.0
 40
3.0
 41
0.0
 71
     1
 72
     1
  1
LED
  7
DAYUS
 73
     1
 44
1.0
1001
ACAD
1000
MTEXTBEGIN
1070
    73
1070
     1
1070
    44
1040
1.0
1070
    74
1070
     0
1000
MTEXTEND
  0
LEADER
  5
2085
330
1F
100
AcDbEntity
  8
AM_5
100
AcDbLeader
  3
AM_ISO$7
 73
     0
 74
     0
 75
     1
 40
3.5
 41
20.33333333333333
 76
     3
 10
212.8394740013595
 20
391.9215290329744
 30
0.0
 10
216.4603452412976
 20
396.9788243338024
 30
0.0
 10
219.4603452412975
 20
396.9788243338024
 30
0.0
340
2086
213
1.735985865149586
223
-0.3286996798672277
233
0.0
1001
ACAD
1000
DSTYLE
1002
{
1070
   147
1040
0.2
1070
    77
1070
     1
1002
}
  0
MTEXT
  5
2086
102
{ACAD_REACTORS
330
2085
102
}
330
1F
100
AcDbEntity
  8
AM_5
100
AcDbMText
 10
217.924359376148
 20
401.0075240136695
 30
0.0
 40
3.5
 41
0.0
 71
     1
 72
     1
  1
M2.6*5L
  7
DAYUS
 73
     1
 44
1.0
1001
ACAD
1000
MTEXTBEGIN
1070
    73
1070
     1
1070
    44
1040
1.0
1070
    74
1070
     0
1000
MTEXTEND
  0
LEADER
  5
2087
330
1F
100
AcDbEntity
  8
AM_5
100
AcDbLeader
  3
AM_ISO$7
 73
     0
 74
     0
 75
     1
 40
3.0
 41
7.142857142857142
 76
     3
 10
225.0149830277264
 20
390.5877709421074
 30
0.0
 10
232.4436937308553
 20
381.4040676421484
 30
0.0
 10
235.4436937308553
 20
381.4040676421484
 30
0.0
340
2088
213
1.498102521800547
223
-0.3912552379740788
233
0.0
1001
ACAD
1000
DSTYLE
1002
{
1070
   147
1040
0.2
1070
    77
1070
     1
1002
}
  0
MTEXT
  5
2088
102
{ACAD_REACTORS
330
2087
102
}
330
1F
100
AcDbEntity
  8
AM_5
100
AcDbMText
 10
234.1455912090548
 20
384.9953228801224
 30
0.0
 40
3.0
 41
0.0
 71
     1
 72
     1
  1
LED
  7
DAYUS
 73
     1
 44
1.0
1001
ACAD
1000
MTEXTBEGIN
1070
    73
1070
     1
1070
    44
1040
1.0
1070
    74
1070
     0
1000
MTEXTEND
  0
MTEXT
  5
2089
330
1F
100
AcDbEntity
  8
AM_5
100
AcDbMText
 10
122.260825522633
 20
397.4264544135201
 30
0.0
 40
2.5
 41
3.323932777449869
 71
     1
 72
     5
  1
{\f標楷體|b0|i0|c136|p49;\U+203B}
  7
CHINESET
 73
     1
 44
1.0
1001
ACAD
1000
MTEXTBEGIN
1070
    73
1070
     1
1070
    44
1040
1.0
1070
    74
1070
     0
1000
MTEXTEND
  0
MTEXT
  5
208A
330
1F
100
AcDbEntity
  8
AM_5
100
AcDbMText
 10
143.6846994275517
 20
371.1855846609936
 30
0.0
 40
2.5
 41
3.323932777449869
 71
     1
 72
     5
  1
{\f標楷體|b0|i0|c136|p49;\U+203B}
  7
CHINESET
 73
     1
 44
1.0
1001
ACAD
1000
MTEXTBEGIN
1070
    73
1070
     1
1070
    44
1040
1.0
1070
    74
1070
     0
1000
MTEXTEND
  0
MTEXT
  5
208B
330
1F
100
AcDbEntity
  8
AM_5
100
AcDbMText
 10
122.260825522633
 20
366.7038477658264
 30
0.0
 40
2.5
 41
3.323932777449869
 71
     1
 72
     5
  1
{\f標楷體|b0|i0|c136|p49;\U+203B}
  7
CHINESET
 73
     1
 44
1.0
1001
ACAD
1000
MTEXTBEGIN
1070
    73
1070
     1
1070
    44
1040
1.0
1070
    74
1070
     0
1000
MTEXTEND
  0
MTEXT
  5
208C
330
1F
100
AcDbEntity
  8
AM_5
100
AcDbMText
 10
224.5628155386736
 20
371.0240341084414
 30
0.0
 40
2.5
 41
3.323932777449869
 71
     1
 72
     5
  1
{\f標楷體|b0|i0|c136|p49;\U+203B}
  7
CHINESET
 73
     1
 44
1.0
1001
ACAD
1000
MTEXTBEGIN
1070
    73
1070
     1
1070
    44
1040
1.0
1070
    74
1070
     0
1000
MTEXTEND
  0
MTEXT
  5
208D
330
1F
100
AcDbEntity
  8
AM_5
100
AcDbMText
 10
201.4091335354332
 20
397.4264544135201
 30
0.0
 40
2.5
 41
3.323932777449869
 71
     1
 72
     5
  1
{\f標楷體|b0|i0|c136|p49;\U+203B}
  7
CHINESET
 73
     1
 44
1.0
1001
ACAD
1000
MTEXTBEGIN
1070
    73
1070
     1
1070
    44
1040
1.0
1070
    74
1070
     0
1000
MTEXTEND
  0
MTEXT
  5
208E
330
1F
100
AcDbEntity
  8
AM_5
100
AcDbMText
 10
201.4091335354332
 20
366.7038477658264
 30
0.0
 40
2.5
 41
3.323932777449869
 71
     1
 72
     5
  1
{\f標楷體|b0|i0|c136|p49;\U+203B}
  7
CHINESET
 73
     1
 44
1.0
1001
ACAD
1000
MTEXTBEGIN
1070
    73
1070
     1
1070
    44
1040
1.0
1070
    74
1070
     0
1000
MTEXTEND
  0
ENDSEC
  0
SECTION
  2
OBJECTS
  0
DICTIONARY
  5
C
330
0
100
AcDbDictionary
281
     1
  3
ACAD_COLOR
350
BE
  3
ACAD_GROUP
350
D
  3
ACAD_LAYOUT
350
1A
  3
ACAD_MATERIAL
350
BD
  3
ACAD_MLINESTYLE
350
17
  3
ACAD_PLOTSETTINGS
350
19
  3
ACAD_PLOTSTYLENAME
350
E
  3
ACAD_TABLESTYLE
350
11A
  3
ACDBHEADERROUNDTRIPXREC
350
23B0
  3
AcDbVariableDictionary
350
94
  3
AcmDictionary
350
5B
  3
AMG
350
41
  3
AMGSNAPSETTINGS
350
1B8
  3
DWGPROPS
350
23AF
  0
DICTIONARY
  5
3F9
330
2
100
AcDbDictionary
280
     1
281
     1
  3
ACAD_LAYERFILTERS
360
5B7
  3
ACAD_LAYERSTATES
360
B13
  3
ACLYDICTIONARY
360
5B6
  0
DICTIONARY
  5
8F
330
1F
100
AcDbDictionary
280
     1
281
     1
  3
ACAD_SORTENTS
360
1430
  0
DICTIONARY
  5
BE
102
{ACAD_REACTORS
330
C
102
}
330
C
100
AcDbDictionary
281
     1
  0
DICTIONARY
  5
D
102
{ACAD_REACTORS
330
C
102
}
330
C
100
AcDbDictionary
281
     1
  0
DICTIONARY
  5
1A
102
{ACAD_REACTORS
330
C
102
}
330
C
100
AcDbDictionary
281
     1
  3
Model
350
22
  3
配置1
350
1E
  3
配置2
350
26
  0
DICTIONARY
  5
BD
102
{ACAD_REACTORS
330
C
102
}
330
C
100
AcDbDictionary
281
     1
  0
DICTIONARY
  5
17
102
{ACAD_REACTORS
330
C
102
}
330
C
100
AcDbDictionary
281
     1
  3
Standard
350
18
  0
DICTIONARY
  5
19
102
{ACAD_REACTORS
330
C
102
}
330
C
100
AcDbDictionary
281
     1
  0
ACDBDICTIONARYWDFLT
  5
E
102
{ACAD_REACTORS
330
C
102
}
330
C
100
AcDbDictionary
281
     1
  3
Normal
350
F
100
AcDbDictionaryWithDefault
340
F
  0
DICTIONARY
  5
11A
102
{ACAD_REACTORS
330
C
102
}
330
C
100
AcDbDictionary
281
     1
  3
Standard
350
11B
  0
DICTIONARY
  5
23B0
102
{ACAD_REACTORS
330
C
102
}
330
C
100
AcDbDictionary
281
     1
  0
DICTIONARY
  5
94
102
{ACAD_REACTORS
330
C
102
}
330
C
100
AcDbDictionary
281
     1
  3
CTABLESTYLE
350
138
  3
DIMASSOC
350
96
  3
INDEXCTL
350
95
  3
PROJECTNAME
350
1C06
  0
DICTIONARY
  5
5B
102
{ACAD_REACTORS
330
C
102
}
330
C
100
AcDbDictionary
281
     1
  3
AcmBOM
350
1B5
  3
AcmStdDictionary
350
61
  3
AMDTSECTSYM_ARROWCOLOR
350
123
  0
DICTIONARY
  5
41
102
{ACAD_REACTORS
330
C
102
}
330
C
100
AcDbDictionary
281
     1
  0
DICTIONARY
  5
1B8
102
{ACAD_REACTORS
330
C
102
}
330
C
100
AcDbDictionary
281
     1
  0
XRECORD
  5
23AF
102
{ACAD_REACTORS
330
C
102
}
330
C
100
AcDbXrecord
280
     1
  1
DWGPROPS COOKIE
  2

  3

  4

  6

  7

  8

  9

300
AmdtFileType=84
301
=
302
=
303
=
304
=
305
=
306
=
307
=
308
=
309
=
 40
0.0889189699074074
 41
2453965.689012037
 42
2454705.354910764
  1

 90
        1
  0
DICTIONARY
  5
5B7
102
{ACAD_REACTORS
330
3F9
102
}
330
3F9
100
AcDbDictionary
281
     1
  0
DICTIONARY
  5
B13
102
{ACAD_REACTORS
330
3F9
102
}
330
3F9
100
AcDbDictionary
281
     1
  0
DICTIONARY
  5
5B6
102
{ACAD_REACTORS
330
3F9
102
}
330
3F9
100
AcDbDictionary
281
     1
1001
ACAD
1000
<All
  0
SORTENTSTABLE
  5
1430
102
{ACAD_REACTORS
330
8F
102
}
330
8F
100
AcDbSortentsTable
330
1F
  0
LAYOUT
  5
22
102
{ACAD_XDICTIONARY
360
23B3
102
}
102
{ACAD_REACTORS
330
1A
102
}
330
1A
100
AcDbPlotSettings
  1

  2
\\RD\EPSON Stylus C63 Series單色
  4
A4
  6

 40
3.757083177566528
 41
3.757076978683471
 42
3.757080078125
 43
3.757080078125
 44
209.9733276367187
 45
296.9683227539062
 46
0.0
 47
0.0
 48
0.0
 49
0.0
140
0.0
141
0.0
142
1.0
143
0.3405120737814363
 70
 11952
 72
     1
 73
     0
 74
     0
  7
單色出圖.ctb
 75
     0
147
2.936753428137963
148
-2047.07469463503
149
-1261.649717473083
100
AcDbLayout
  1
Model
 70
     1
 71
     0
 10
0.0
 20
0.0
 11
12.0
 21
9.0
 12
0.0
 22
0.0
 32
0.0
 14
0.0
 24
0.0
 34
0.0
 15
0.0
 25
0.0
 35
0.0
146
0.0
 13
0.0
 23
0.0
 33
0.0
 16
1.0
 26
0.0
 36
0.0
 17
0.0
 27
1.0
 37
0.0
 76
     0
330
1F
1001
ACAD_PSEXT
1000
\\RD\EPSON Stylus C63 Series單色
1000
EPSON Stylus C63 Series
1000
\\RD
1000

1070
     0
  0
LAYOUT
  5
1E
102
{ACAD_XDICTIONARY
360
23B1
102
}
102
{ACAD_REACTORS
330
1A
102
}
330
1A
100
AcDbPlotSettings
  1

  2

  4

  6

 40
0.0
 41
0.0
 42
0.0
 43
0.0
 44
0.0
 45
0.0
 46
0.0
 47
0.0
 48
0.0
 49
0.0
140
0.0
141
0.0
142
1.0
143
1.0
 70
   688
 72
     0
 73
     0
 74
     5
  7
單色出圖.ctb
 75
    16
147
1.0
148
0.0
149
0.0
100
AcDbLayout
  1
配置1
 70
     1
 71
     1
 10
0.0
 20
0.0
 11
420.0
 21
297.0
 12
0.0
 22
0.0
 32
0.0
 14
1.000000000000000E+20
 24
1.000000000000000E+20
 34
1.000000000000000E+20
 15
-1.000000000000000E+20
 25
-1.000000000000000E+20
 35
-1.000000000000000E+20
146
0.0
 13
0.0
 23
0.0
 33
0.0
 16
1.0
 26
0.0
 36
0.0
 17
0.0
 27
1.0
 37
0.0
 76
     0
330
1B
  0
LAYOUT
  5
26
102
{ACAD_XDICTIONARY
360
23B5
102
}
102
{ACAD_REACTORS
330
1A
102
}
330
1A
100
AcDbPlotSettings
  1

  2

  4

  6

 40
0.0
 41
0.0
 42
0.0
 43
0.0
 44
0.0
 45
0.0
 46
0.0
 47
0.0
 48
0.0
 49
0.0
140
0.0
141
0.0
142
1.0
143
1.0
 70
   688
 72
     0
 73
     0
 74
     5
  7
單色出圖.ctb
 75
    16
147
1.0
148
0.0
149
0.0
100
AcDbLayout
  1
配置2
 70
     1
 71
     2
 10
0.0
 20
0.0
 11
12.0
 21
9.0
 12
0.0
 22
0.0
 32
0.0
 14
0.0
 24
0.0
 34
0.0
 15
0.0
 25
0.0
 35
0.0
146
0.0
 13
0.0
 23
0.0
 33
0.0
 16
1.0
 26
0.0
 36
0.0
 17
0.0
 27
1.0
 37
0.0
 76
     0
330
23
  0
MLINESTYLE
  5
18
102
{ACAD_REACTORS
330
17
102
}
330
17
100
AcDbMlineStyle
  2
STANDARD
 70
     0
  3

 62
   256
 51
90.0
 52
90.0
 71
     2
 49
0.5
 62
   256
  6
BYLAYER
 49
-0.5
 62
   256
  6
BYLAYER
  0
ACDBPLACEHOLDER
  5
F
102
{ACAD_REACTORS
330
E
102
}
330
E
  0
TABLESTYLE
  5
11B
102
{ACAD_REACTORS
330
11A
102
}
330
11A
100
AcDbTableStyle
  3
Standard
 70
     0
 71
     0
 40
1.5
 41
1.5
280
     0
281
     0
  7
STANDARD
140
4.5
170
     2
 62
     0
 63
     7
283
     0
274
    -2
284
     1
 64
     0
275
    -2
285
     1
 65
     0
276
    -2
286
     1
 66
     0
277
    -2
287
     1
 67
     0
278
    -2
288
     1
 68
     0
279
    -2
289
     1
 69
     0
  7
STANDARD
140
6.0
170
     5
 62
     0
 63
     7
283
     0
274
    -2
284
     1
 64
     0
275
    -2
285
     1
 65
     0
276
    -2
286
     1
 66
     0
277
    -2
287
     1
 67
     0
278
    -2
288
     1
 68
     0
279
    -2
289
     1
 69
     0
  7
STANDARD
140
4.5
170
     5
 62
     0
 63
     7
283
     0
274
    -2
284
     1
 64
     0
275
    -2
285
     1
 65
     0
276
    -2
286
     1
 66
     0
277
    -2
287
     1
 67
     0
278
    -2
288
     1
 68
     0
279
    -2
289
     1
 69
     0
  0
DICTIONARYVAR
  5
138
102
{ACAD_REACTORS
330
94
102
}
330
94
100
DictionaryVariables
280
     0
  1
STANDARD
  0
DICTIONARYVAR
  5
96
102
{ACAD_REACTORS
330
94
102
}
330
94
100
DictionaryVariables
280
     0
  1
2
  0
DICTIONARYVAR
  5
95
102
{ACAD_REACTORS
330
94
102
}
330
94
100
DictionaryVariables
280
     0
  1
0
  0
DICTIONARYVAR
  5
1C06
102
{ACAD_REACTORS
330
94
102
}
330
94
100
DictionaryVariables
280
     0
  1

  0
DICTIONARY
  5
1B5
102
{ACAD_REACTORS
330
5B
102
}
330
5B
100
AcDbDictionary
281
     1
  0
DICTIONARY
  5
61
102
{ACAD_REACTORS
330
5B
102
}
330
5B
100
AcDbDictionary
281
     1
  0
XRECORD
  5
123
102
{ACAD_REACTORS
330
5B
102
}
330
5B
100
AcDbXrecord
280
     1
 90
-1023410169
  0
DICTIONARY
  5
23B3
330
22
100
AcDbDictionary
280
     1
281
     1
  3
ACAD_XREC_ROUNDTRIP
360
23B4
  0
DICTIONARY
  5
23B1
330
1E
100
AcDbDictionary
280
     1
281
     1
  3
ACAD_XREC_ROUNDTRIP
360
23B2
  0
DICTIONARY
  5
23B5
330
26
100
AcDbDictionary
280
     1
281
     1
  3
ACAD_XREC_ROUNDTRIP
360
23B6
  0
XRECORD
  5
23B4
102
{ACAD_REACTORS
330
23B3
102
}
330
23B3
100
AcDbXrecord
280
     1
102
SHADEPLOT
 70
     0
102
SHADEPLOTRESLEVEL
 70
     2
102
SHADEPLOTCUSTOMDPI
 70
   300
  0
XRECORD
  5
23B2
102
{ACAD_REACTORS
330
23B1
102
}
330
23B1
100
AcDbXrecord
280
     1
102
SHADEPLOT
 70
     0
102
SHADEPLOTRESLEVEL
 70
     2
102
SHADEPLOTCUSTOMDPI
 70
   300
  0
XRECORD
  5
23B6
102
{ACAD_REACTORS
330
23B5
102
}
330
23B5
100
AcDbXrecord
280
     1
102
SHADEPLOT
 70
     0
102
SHADEPLOTRESLEVEL
 70
     2
102
SHADEPLOTCUSTOMDPI
 70
   300
  0
ENDSEC
  0
EOF
