  0
SECTION
  2
HEADER
  9
$ACADVER
  1
AC1015
  9
$ACADMAINTVER
 70
    20
  9
$DWGCODEPAGE
  3
ANSI_950
  9
$INSBASE
 10
0.0
 20
0.0
 30
0.0
  9
$EXTMIN
 10
392.8626118148323
 20
242.5571589878776
 30
0.0
  9
$EXTMAX
 10
469.5026115623766
 20
343.3571589878775
 30
66.05309378306509
  9
$LIMMIN
 10
0.0
 20
0.0
  9
$LIMMAX
 10
420.0
 20
297.0
  9
$ORTHOMODE
 70
     0
  9
$REGENMODE
 70
     1
  9
$FILLMODE
 70
     1
  9
$QTEXTMODE
 70
     0
  9
$MIRRTEXT
 70
     1
  9
$LTSCALE
 40
1.0
  9
$ATTMODE
 70
     1
  9
$TEXTSIZE
 40
3.0
  9
$TRACEWID
 40
1.0
  9
$TEXTSTYLE
  7
STANDARD
  9
$CLAYER
  8
AM_REFDIM
  9
$CELTYPE
  6
ByLayer
  9
$CECOLOR
 62
   256
  9
$CELTSCALE
 40
1.0
  9
$DISPSILH
 70
     0
  9
$DIMSCALE
 40
1.5
  9
$DIMASZ
 40
3.0
  9
$DIMEXO
 40
1.0
  9
$DIMDLI
 40
8.0
  9
$DIMRND
 40
0.0
  9
$DIMDLE
 40
0.0
  9
$DIMEXE
 40
1.0
  9
$DIMTP
 40
0.1
  9
$DIMTM
 40
0.1
  9
$DIMTXT
 40
3.5
  9
$DIMCEN
 40
0.0
  9
$DIMTSZ
 40
0.0
  9
$DIMTOL
 70
     0
  9
$DIMLIM
 70
     0
  9
$DIMTIH
 70
     0
  9
$DIMTOH
 70
     0
  9
$DIMSE1
 70
     0
  9
$DIMSE2
 70
     0
  9
$DIMTAD
 70
     1
  9
$DIMZIN
 70
     8
  9
$DIMBLK
  1

  9
$DIMASO
 70
     1
  9
$DIMSHO
 70
     1
  9
$DIMPOST
  1

  9
$DIMAPOST
  1
"
  9
$DIMALT
 70
     0
  9
$DIMALTD
 70
     2
  9
$DIMALTF
 40
0.0393701
  9
$DIMLFAC
 40
1.0
  9
$DIMTOFL
 70
     1
  9
$DIMTVP
 40
0.0
  9
$DIMTIX
 70
     0
  9
$DIMSOXD
 70
     0
  9
$DIMSAH
 70
     0
  9
$DIMBLK1
  1

  9
$DIMBLK2
  1

  9
$DIMSTYLE
  2
AM_ISO
  9
$DIMCLRD
 70
   256
  9
$DIMCLRE
 70
   256
  9
$DIMCLRT
 70
   256
  9
$DIMTFAC
 40
0.6
  9
$DIMGAP
 40
1.0
  9
$DIMJUST
 70
     0
  9
$DIMSD1
 70
     0
  9
$DIMSD2
 70
     0
  9
$DIMTOLJ
 70
     0
  9
$DIMTZIN
 70
     8
  9
$DIMALTZ
 70
     0
  9
$DIMALTTZ
 70
     0
  9
$DIMUPT
 70
     0
  9
$DIMDEC
 70
     0
  9
$DIMTDEC
 70
     8
  9
$DIMALTU
 70
     2
  9
$DIMALTTD
 70
     2
  9
$DIMTXSTY
  7
STANDARD
  9
$DIMAUNIT
 70
     0
  9
$DIMADEC
 70
     0
  9
$DIMALTRND
 40
0.0
  9
$DIMAZIN
 70
     2
  9
$DIMDSEP
 70
    46
  9
$DIMATFIT
 70
     3
  9
$DIMFRAC
 70
     0
  9
$DIMLDRBLK
  1

  9
$DIMLUNIT
 70
     2
  9
$DIMLWD
 70
    -1
  9
$DIMLWE
 70
    -1
  9
$DIMTMOVE
 70
     0
  9
$LUNITS
 70
     2
  9
$LUPREC
 70
     2
  9
$SKETCHINC
 40
1.0
  9
$FILLETRAD
 40
3.75
  9
$AUNITS
 70
     0
  9
$AUPREC
 70
     0
  9
$MENU
  1
.
  9
$ELEVATION
 40
0.0
  9
$PELEVATION
 40
0.0
  9
$THICKNESS
 40
0.0
  9
$LIMCHECK
 70
     0
  9
$CHAMFERA
 40
3.75
  9
$CHAMFERB
 40
3.75
  9
$CHAMFERC
 40
20.0
  9
$CHAMFERD
 40
0.0
  9
$SKPOLY
 70
     0
  9
$TDCREATE
 40
2454392.703168762
  9
$TDUCREATE
 40
2454392.369835428
  9
$TDUPDATE
 40
2456051.699156169
  9
$TDUUPDATE
 40
2456051.365822836
  9
$TDINDWG
 40
0.1476737269
  9
$TDUSRTIMER
 40
0.1476735417
  9
$USRTIMER
 70
     1
  9
$ANGBASE
 50
0.0
  9
$ANGDIR
 70
     0
  9
$PDMODE
 70
     0
  9
$PDSIZE
 40
0.0
  9
$PLINEWID
 40
0.0
  9
$SPLFRAME
 70
     0
  9
$SPLINETYPE
 70
     6
  9
$SPLINESEGS
 70
     8
  9
$HANDSEED
  5
4A34
  9
$SURFTAB1
 70
     6
  9
$SURFTAB2
 70
     6
  9
$SURFTYPE
 70
     6
  9
$SURFU
 70
     6
  9
$SURFV
 70
     6
  9
$UCSBASE
  2

  9
$UCSNAME
  2

  9
$UCSORG
 10
0.0
 20
0.0
 30
0.0
  9
$UCSXDIR
 10
1.0
 20
0.0
 30
0.0
  9
$UCSYDIR
 10
0.0
 20
1.0
 30
0.0
  9
$UCSORTHOREF
  2

  9
$UCSORTHOVIEW
 70
     0
  9
$UCSORGTOP
 10
0.0
 20
0.0
 30
0.0
  9
$UCSORGBOTTOM
 10
0.0
 20
0.0
 30
0.0
  9
$UCSORGLEFT
 10
0.0
 20
0.0
 30
0.0
  9
$UCSORGRIGHT
 10
0.0
 20
0.0
 30
0.0
  9
$UCSORGFRONT
 10
0.0
 20
0.0
 30
0.0
  9
$UCSORGBACK
 10
0.0
 20
0.0
 30
0.0
  9
$PUCSBASE
  2

  9
$PUCSNAME
  2

  9
$PUCSORG
 10
0.0
 20
0.0
 30
0.0
  9
$PUCSXDIR
 10
1.0
 20
0.0
 30
0.0
  9
$PUCSYDIR
 10
0.0
 20
1.0
 30
0.0
  9
$PUCSORTHOREF
  2

  9
$PUCSORTHOVIEW
 70
     0
  9
$PUCSORGTOP
 10
0.0
 20
0.0
 30
0.0
  9
$PUCSORGBOTTOM
 10
0.0
 20
0.0
 30
0.0
  9
$PUCSORGLEFT
 10
0.0
 20
0.0
 30
0.0
  9
$PUCSORGRIGHT
 10
0.0
 20
0.0
 30
0.0
  9
$PUCSORGFRONT
 10
0.0
 20
0.0
 30
0.0
  9
$PUCSORGBACK
 10
0.0
 20
0.0
 30
0.0
  9
$USERI1
 70
     0
  9
$USERI2
 70
     0
  9
$USERI3
 70
     0
  9
$USERI4
 70
     0
  9
$USERI5
 70
     0
  9
$USERR1
 40
0.0
  9
$USERR2
 40
0.0
  9
$USERR3
 40
0.0
  9
$USERR4
 40
0.0
  9
$USERR5
 40
0.0
  9
$WORLDVIEW
 70
     1
  9
$SHADEDGE
 70
     3
  9
$SHADEDIF
 70
    70
  9
$TILEMODE
 70
     1
  9
$MAXACTVP
 70
    64
  9
$PINSBASE
 10
0.0
 20
0.0
 30
0.0
  9
$PLIMCHECK
 70
     0
  9
$PEXTMIN
 10
1.000000000000000E+20
 20
1.000000000000000E+20
 30
1.000000000000000E+20
  9
$PEXTMAX
 10
-1.000000000000000E+20
 20
-1.000000000000000E+20
 30
-1.000000000000000E+20
  9
$PLIMMIN
 10
0.0
 20
0.0
  9
$PLIMMAX
 10
420.0
 20
297.0
  9
$UNITMODE
 70
     0
  9
$VISRETAIN
 70
     1
  9
$PLINEGEN
 70
     0
  9
$PSLTSCALE
 70
     1
  9
$TREEDEPTH
 70
  3020
  9
$CMLSTYLE
  2
Standard
  9
$CMLJUST
 70
     0
  9
$CMLSCALE
 40
20.0
  9
$PROXYGRAPHICS
 70
     1
  9
$MEASUREMENT
 70
     1
  9
$CELWEIGHT
370
    -1
  9
$ENDCAPS
280
     0
  9
$JOINSTYLE
280
     0
  9
$LWDISPLAY
290
     0
  9
$INSUNITS
 70
     4
  9
$HYPERLINKBASE
  1

  9
$STYLESHEET
  1
acad.ctb
  9
$XEDIT
290
     1
  9
$CEPSNTYPE
380
     0
  9
$PSTYLEMODE
290
     1
  9
$FINGERPRINTGUID
  2
{00E4BF2B-312E-4E1D-8C5C-0EEC0927E19E}
  9
$VERSIONGUID
  2
{C5A4D43A-4D28-436E-A422-41B45DDC1D94}
  9
$EXTNAMES
290
     1
  9
$PSVPSCALE
 40
0.0
  9
$OLESTARTUP
290
     0
  0
ENDSEC
  0
SECTION
  2
CLASSES
  0
CLASS
  1
ACDBDICTIONARYWDFLT
  2
AcDbDictionaryWithDefault
  3
ObjectDBX Classes
 90
        0
280
     0
281
     0
  0
CLASS
  1
ACDBPLACEHOLDER
  2
AcDbPlaceHolder
  3
ObjectDBX Classes
 90
        0
280
     0
281
     0
  0
CLASS
  1
LAYOUT
  2
AcDbLayout
  3
ObjectDBX Classes
 90
        0
280
     0
281
     0
  0
CLASS
  1
ACME_DOCUMENT
  2
AcMeDbDoc
  3
AcMeServices
 90
        0
280
     0
281
     0
  0
CLASS
  1
AMGSETTINGSOBJ
  2
AmgSettingsObj
  3
"AcadM|Product Description: AutoCAD Mechanical 2000|Company: Autodesk"
 90
        0
280
     0
281
     0
  0
CLASS
  1
ACMESCOPE
  2
AcMeScope
  3
AcMeServices
 90
        0
280
     0
281
     0
  0
CLASS
  1
ACMECOMMANDHISTORY
  2
AcMeCommandHistory
  3
AcMeServices
 90
        0
280
     0
281
     0
  0
CLASS
  1
ACIMSYSVARMAN
  2
AcImSysVarManager
  3
AcMeServices
 90
        0
280
     0
281
     0
  0
CLASS
  1
ACIMREALSYSVAR
  2
AcImRealSysVar
  3
AcMeServices
 90
        0
280
     0
281
     0
  0
CLASS
  1
ACIMINTSYSVAR
  2
AcImIntSysVar
  3
AcMeServices
 90
        0
280
     0
281
     0
  0
CLASS
  1
ACMEDRAWINGMAN
  2
AcMeDrawingMan
  3
AcMeServices
 90
        0
280
     0
281
     0
  0
CLASS
  1
ACMEVIEW
  2
AcMeView
  3
AcMeServices
 90
        0
280
     0
281
     0
  0
CLASS
  1
ACDBENTITYCACHE
  2
AcMeEntityCache
  3
AcMeServices
 90
        0
280
     0
281
     0
  0
CLASS
  1
GSMANAGER
  2
AcMeGSManager
  3
AcMeServices
 90
        0
280
     0
281
     0
  0
CLASS
  1
AMDTINTERNALREACTOR
  2
AmdtInternalReactor
  3
AcMeServices
 90
        0
280
     0
281
     0
  0
CLASS
  1
ACMESTATEMGR
  2
AcMeStateMgr
  3
AcMeServices
 90
        0
280
     0
281
     0
  0
CLASS
  1
ACGREFMASTER
  2
AcGrefMaster
  3
AcAttribServices
 90
        0
280
     0
281
     0
  0
CLASS
  1
ACME_DATABASE
  2
AcMeDbDatabase
  3
AcMeServices
 90
        0
280
     0
281
     0
  0
CLASS
  1
ACRFINSADJUSTERMGR
  2
AcRfInsAdjusterMgr
  3
AcMeServices
 90
        0
280
     0
281
     0
  0
CLASS
  1
ACGREFACADMASTER
  2
AcGrefacadMaster
  3
AcGrefServices
 90
        0
280
     0
281
     0
  0
CLASS
  1
AMIMASTER
  2
AmiMaster
  3
AmiServices
 90
        0
280
     0
281
     0
  0
CLASS
  1
ACMDATADICTIONARY
  2
AcmDataDictionary
  3
"AcmSymBB|Product Description: AutoCAD Mechanical 2004 DX|Company: Autodesk"
 90
        0
280
     0
281
     0
  0
CLASS
  1
ACMDATAENTRYBLOCK
  2
AcmDataEntryBlock
  3
"AcmSymBB|Product Description: AutoCAD Mechanical 2004 DX|Company: Autodesk"
 90
        0
280
     0
281
     0
  0
CLASS
  1
ACIMSTRSYSVAR
  2
AcImStrSysVar
  3
AcMeServices
 90
        0
280
     0
281
     0
  0
CLASS
  1
ACMSTANDARDISO
  2
AcmStandardISO
  3
"Amdt_StdImp|Product Description: AutoCAD Mechanical 2004 DX|Company: Autodesk"
 90
        0
280
     0
281
     0
  0
CLASS
  1
AMGOBJPROPCFG
  2
AmgObjPropCfg
  3
"AmgLay|Product Description: AutoCAD Mechanical 2000|Company: Autodesk"
 90
        1
280
     0
281
     0
  0
CLASS
  1
AMDTEDGESTANDARDISO
  2
AmdtEdgeStdISO
  3
"Amdt_StdImp|Product Description: AutoCAD Mechanical 2004 DX|Company: Autodesk"
 90
    32768
280
     0
281
     0
  0
CLASS
  1
ACMSURFSTANDARDISO
  2
AcmSurfTextStdISO
  3
"Amdt_StdImp|Product Description: AutoCAD Mechanical 2004 DX|Company: Autodesk"
 90
        0
280
     0
281
     0
  0
CLASS
  1
ACMFCFSTANDARDISO
  2
AcmFCFStdISO
  3
"Amdt_StdImp|Product Description: AutoCAD Mechanical 2004 DX|Company: Autodesk"
 90
        0
280
     0
281
     0
  0
CLASS
  1
ACMWELDSTANDARDISO
  2
AcmWeldingStdISO
  3
"Amdt_StdImp|Product Description: AutoCAD Mechanical 2004 DX|Company: Autodesk"
 90
        0
280
     0
281
     0
  0
CLASS
  1
ACMIDSTANDARDISO
  2
AcmIdStdISO
  3
"Amdt_StdImp|Product Description: AutoCAD Mechanical 2004 DX|Company: Autodesk"
 90
        0
280
     0
281
     0
  0
CLASS
  1
ACMDATUMSTANDARDISO
  2
AcmDatumStdISO
  3
"Amdt_StdImp|Product Description: AutoCAD Mechanical 2004 DX|Company: Autodesk"
 90
        0
280
     0
281
     0
  0
CLASS
  1
ACMBOMSTANDARDISO
  2
AcmBOMStdISO
  3
"Amdt_StdImp|Product Description: AutoCAD Mechanical 2004 DX|Company: Autodesk"
 90
        0
280
     0
281
     0
  0
CLASS
  1
ACMDETAILSTANDARDISO
  2
AmdtDetailSymStdISO
  3
"Amdt_StdImp|Product Description: AutoCAD Mechanical 2004 DX|Company: Autodesk"
 90
        0
280
     0
281
     0
  0
CLASS
  1
ACMSECTIONSTANDARDISO
  2
AmdtSectionSymStdISO
  3
"Amdt_StdImp|Product Description: AutoCAD Mechanical 2004 DX|Company: Autodesk"
 90
        0
280
     0
281
     0
  0
CLASS
  1
ACMCENTERLINESTANDARDISO
  2
AmdtCenterLineStdISO
  3
"Amdt_StdImp|Product Description: AutoCAD Mechanical 2004 DX|Company: Autodesk"
 90
        0
280
     0
281
     0
  0
CLASS
  1
ACMNOTESTANDARDISO
  2
AmdtNoteStdISO
  3
"Amdt_StdImp|Product Description: AutoCAD Mechanical 2004 DX|Company: Autodesk"
 90
        0
280
     0
281
     0
  0
CLASS
  1
ACAMGLAYSTD
  2
AcAmgLayStd
  3
"AcAmgLayStd|Product Description: AutoCAD Mechanical 2000|Company: Autodesk"
 90
        0
280
     0
281
     0
  0
CLASS
  1
ACAMGDIMSTD
  2
AcAmgDimStd
  3
"AcAmgDimStd|Product Description: AutoCAD Mechanical 2000|Company: Autodesk"
 90
        0
280
     0
281
     0
  0
CLASS
  1
ACAMGHOLECHARTSTDISO
  2
AcAmgHoleChartStdISO
  3
ACMSYMBB_MODULE_NAME
 90
        0
280
     0
281
     0
  0
CLASS
  1
ACAMGTITLESTD
  2
AcAmgTitleStd
  3
"TITLEAPP"
 90
        0
280
     0
281
     0
  0
CLASS
  1
LAYER_INDEX
  2
AcDbLayerIndex
  3
ObjectDBX Classes
 90
        0
280
     0
281
     0
  0
CLASS
  1
IDBUFFER
  2
AcDbIdBuffer
  3
ObjectDBX Classes
 90
        0
280
     0
281
     0
  0
CLASS
  1
DICTIONARYVAR
  2
AcDbDictionaryVar
  3
ObjectDBX Classes
 90
        0
280
     0
281
     0
  0
CLASS
  1
AM_DRAWING_MGR
  2
AcDmDwgMgr
  3
AcMechDwgViewMgmt
 90
        0
280
     0
281
     0
  0
CLASS
  1
AM_DWG_DOCUMENT
  2
AcDmDwgDocument
  3
AcMechDwgViewMgmt
 90
        0
280
     0
281
     0
  0
CLASS
  1
AM_DWG_SHEET
  2
AcDmSheet
  3
AcMechDwgViewMgmt
 90
        0
280
     0
281
     0
  0
CLASS
  1
AM_VIEWDIMPARMAP
  2
AcDmViewDimParMap
  3
AcMechDwgViewMgmt
 90
        0
280
     0
281
     0
  0
CLASS
  1
AM_DWGMGR_NAME
  2
AcDmDwgMgrName
  3
AcMechDwgViewMgmt
 90
        0
280
     0
281
     0
  0
CLASS
  1
AMDTMENUSTATEMGR
  2
AmdtMenuStateMgr
  3
McadcomServices
 90
        0
280
     0
281
     0
  0
CLASS
  1
AMDTMCOMMENUSTATE
  2
AmdtMcomMenuState
  3
McadcomServices
 90
        0
280
     0
281
     0
  0
CLASS
  1
MAPIAMMOUDLE
  2
MApiAmModule
  3
MApiAmServices
 90
        0
280
     0
281
     0
  0
CLASS
  1
AMDTADMENUSTATE
  2
AmdtAdMenuState
  3
DesignerServices
 90
        0
280
     0
281
     0
  0
CLASS
  1
ADAPPL
  2
AcAdAppl
  3
DesignerServices
 90
        0
280
     0
281
     0
  0
CLASS
  1
DEPMGR
  2
AcAdDepMgr
  3
DesignerServices
 90
        0
280
     0
281
     0
  0
CLASS
  1
PARAMMGR
  2
AcAdParamMgr
  3
DesignerServices
 90
        0
280
     0
281
     0
  0
CLASS
  1
PARAMSCOPE
  2
AcAdParamScope
  3
DesignerServices
 90
        0
280
     0
281
     0
  0
CLASS
  1
NAMEDAPPL
  2
AcAdNamedAppl
  3
DesignerServices
 90
        0
280
     0
281
     0
  0
CLASS
  1
AMDTDMMENUSTATE
  2
AmdtDmMenuState
  3
AcMechDwgViewMgmt
 90
        0
280
     0
281
     0
  0
CLASS
  1
AMDTAMMENUSTATE
  2
AmdtAmMenuState
  3
DesignerAssemblies
 90
        0
280
     0
281
     0
  0
CLASS
  1
ACAMPROJECT
  2
AcAmProject
  3
DesignerAssemblies
 90
        0
280
     0
281
     0
  0
CLASS
  1
ACAMGRCOMPDEF
  2
AcAmGrCompDef
  3
DesignerAssemblies
 90
        0
280
     0
281
     0
  0
CLASS
  1
ACCMCONTEXT
  2
AcCmContext
  3
DesignerAssemblies
 90
        0
280
     0
281
     0
  0
CLASS
  1
ACAMCOMPDEF
  2
AcAmCompDef
  3
DesignerAssemblies
 90
        0
280
     0
281
     0
  0
CLASS
  1
ACAMCOMPDEFMGR
  2
AcAmCompDefMgr
  3
DesignerAssemblies
 90
        0
280
     0
281
     0
  0
CLASS
  1
AMCONTEXTMGR
  2
AcAmContextMgr
  3
DesignerAssemblies
 90
        0
280
     0
281
     0
  0
CLASS
  1
ACAMCONTEXTMODELER
  2
AcAmContextModeler
  3
DesignerAssemblies
 90
        0
280
     0
281
     0
  0
CLASS
  1
ACMTHREADLINESTANDARDISO
  2
AmdtThreadLineStdISO
  3
"Amdt_StdImp|Product Description: AutoCAD Mechanical 2004 DX|Company: Autodesk"
 90
        0
280
     0
281
     0
  0
CLASS
  1
CATALOGSTATE
  2
AcAmCatalogState
  3
DesignerAssemblies
 90
        0
280
     0
281
     0
  0
CLASS
  1
ACAMGRCOMPDEFSET
  2
AcAmGrCompDefSet
  3
DesignerAssemblies
 90
        0
280
     0
281
     0
  0
CLASS
  1
AMDTBROWSERDBTAB
  2
AmdtBrowserDbTab
  3
McadcomServices
 90
        0
280
     0
281
     0
  0
CLASS
  1
CBROWSERAPPOBJECT
  2
CBrowserAppObject
  3
McadcomServices
 90
        0
280
     0
281
     0
  0
CLASS
  1
DM_PLACEHOLDER
  2
AcDmSelsetPlaceholder
  3
AcMechDwgViewMgmt
 90
        0
280
     0
281
     0
  0
CLASS
  1
TABLESTYLE
  2
AcDbTableStyle
  3
ObjectDBX Classes
 90
     2047
280
     0
281
     0
  0
CLASS
  1
VAACXREFPANELOBJECT
  2
VaAcXREFPanelObject
  3
VAAC_ADDIN
 90
    32768
280
     0
281
     0
  0
CLASS
  1
VAACIMAGEINVENTORY
  2
VaAcImageInventory
  3
VAAC_ADDIN
 90
    32768
280
     0
281
     0
  0
CLASS
  1
AMDTNOTETEMPLATEDB
  2
AmdtNoteTemplateDB
  3
AMDT_STDIMP_MODULE_NAME
 90
        0
280
     0
281
     0
  0
CLASS
  1
ACMBOM
  2
AcmBom
  3
"AcmSymBB|Product Description: AutoCAD Mechanical 2004 DX|Company: Autodesk"
 90
    32768
280
     0
281
     0
  0
CLASS
  1
AMDTFORMULAUPDATEDISPATCHER
  2
AmdtFormulaUpdateDispatcher
  3
AcMeServices
 90
    32768
280
     0
281
     0
  0
CLASS
  1
ACMPARTLIST
  2
AcmPartList
  3
"AcmSymBB|Product Description: AutoCAD Mechanical 2004 DX|Company: Autodesk"
 90
    33791
280
     0
281
     1
  0
CLASS
  1
ACAMGFILTERDAT
  2
AcAmgFilterDat
  3
"AcadM|Product Description: AutoCAD Mechanical 2000|Company: Autodesk"
 90
    32768
280
     0
281
     0
  0
CLASS
  1
DIMASSOC
  2
AcDbDimAssoc
  3
"AcDbDimAssoc|Product Desc:     AcDim ARX App For Dimension|Company:          Autodesk, Inc.|WEB Address:      www.autodesk.com"
 90
        0
280
     0
281
     0
  0
CLASS
  1
AMDTNOTE
  2
AmdtNote
  3
"AcmSymBB|Product Description: AutoCAD Mechanical 2004 DX|Company: Autodesk"
 90
    33791
280
     0
281
     1
  0
CLASS
  1
AMDTEDGESTANDARDISO13715
  2
AmdtEdgeStdISO13715
  3
"Amdt_StdImp|Product Description: AutoCAD Mechanical 2004 DX|Company: Autodesk"
 90
        0
280
     0
281
     0
  0
CLASS
  1
ACRFATTGENMGR
  2
AcRfAttGeneralMgr
  3
AcAttribServices
 90
    32768
280
     0
281
     0
  0
CLASS
  1
ASAPP
  2
AcAsAppObject
  3
AutoSurfServices
 90
        0
280
     0
281
     0
  0
CLASS
  1
IM_STATIC_MAN
  2
AcImStaticVarManager
  3
AcMeServices
 90
        0
280
     0
281
     0
  0
CLASS
  1
ACIMDBLSTATICVAR
  2
AcImDblStaticVar
  3
AcMeServices
 90
        0
280
     0
281
     0
  0
CLASS
  1
ACIMSTRSTATICVAR
  2
AcImStrStaticVar
  3
AcMeServices
 90
        0
280
     0
281
     0
  0
CLASS
  1
ACIMINTSTATICVAR
  2
AcImIntStaticVar
  3
AcMeServices
 90
        0
280
     0
281
     0
  0
CLASS
  1
ACASGREFMASTER
  2
AcAsGrefMaster
  3
AutoSurfResolverServices
 90
        0
280
     0
281
     0
  0
CLASS
  1
ACADGREFMODULE
  2
AcAdGrefModule
  3
AdGrefServices
 90
        0
280
     0
281
     0
  0
CLASS
  1
AMDTMAPISURFMOUDULE
  2
AmdtMApiSurfModule
  3
MApiSurfServices
 90
        0
280
     0
281
     0
  0
CLASS
  1
MAPIADMODULE
  2
MApiAdModule
  3
MApiAdServices
 90
        0
280
     0
281
     0
  0
ENDSEC
  0
SECTION
  2
TABLES
  0
TABLE
  2
VPORT
  5
8
330
0
100
AcDbSymbolTable
 70
    50
  0
VPORT
  5
4A2B
330
8
100
AcDbSymbolTableRecord
100
AcDbViewportTableRecord
  2
*Active
 70
     0
 10
0.0
 20
0.0
 11
1.0
 21
1.0
 12
-27.016661107105
 22
3.776592372787177
 13
0.0
 23
0.0
 14
3.75
 24
3.75
 15
15.0
 25
15.0
 16
0.0
 26
0.0
 36
1.0
 17
475.2465220475392
 27
286.8869866440797
 37
0.0
 40
127.219984758611
 41
1.295739348370927
 42
50.0
 43
0.0
 44
0.0
 50
0.0
 51
0.0
 71
     0
 72
  1000
 73
     1
 74
     3
 75
     0
 76
     0
 77
     0
 78
     0
281
     0
 65
     0
110
0.0
120
0.0
130
0.0
111
1.0
121
0.0
131
0.0
112
0.0
122
1.0
132
0.0
 79
     0
146
0.0
  0
ENDTAB
  0
TABLE
  2
LTYPE
  5
5
330
0
100
AcDbSymbolTable
 70
    17
  0
LTYPE
  5
14
330
5
100
AcDbSymbolTableRecord
100
AcDbLinetypeTableRecord
  2
ByBlock
 70
     0
  3

 72
    65
 73
     0
 40
0.0
  0
LTYPE
  5
15
330
5
100
AcDbSymbolTableRecord
100
AcDbLinetypeTableRecord
  2
ByLayer
 70
     0
  3

 72
    65
 73
     0
 40
0.0
  0
LTYPE
  5
16
330
5
100
AcDbSymbolTableRecord
100
AcDbLinetypeTableRecord
  2
Continuous
 70
     0
  3
Solid line
 72
    65
 73
     0
 40
0.0
  0
LTYPE
  5
64
330
5
100
AcDbSymbolTableRecord
100
AcDbLinetypeTableRecord
  2
AM_ISO02W050
 70
     0
  3
__ __ __ __ __ __ __ __ __ __ __ __ __ __ __
 72
    65
 73
     2
 40
7.5
 49
6.0
 74
     0
 49
-1.5
 74
     0
  0
LTYPE
  5
65
330
5
100
AcDbSymbolTableRecord
100
AcDbLinetypeTableRecord
  2
AM_ISO08W050
 70
     0
  3
____ . ____ . ____ . ____ . ____ . ____ . ____
 72
    65
 73
     4
 40
18.0
 49
12.0
 74
     0
 49
-1.5
 74
     0
 49
3.0
 74
     0
 49
-1.5
 74
     0
  0
LTYPE
  5
66
330
5
100
AcDbSymbolTableRecord
100
AcDbLinetypeTableRecord
  2
AM_ISO09W050
 70
     0
  3
_____ . . _____ . . _____ . . ____ .. ____
 72
    65
 73
     6
 40
22.5
 49
12.0
 74
     0
 49
-1.5
 74
     0
 49
3.0
 74
     0
 49
-1.5
 74
     0
 49
3.0
 74
     0
 49
-1.5
 74
     0
  0
LTYPE
  5
67
330
5
100
AcDbSymbolTableRecord
100
AcDbLinetypeTableRecord
  2
Amconstr
 70
     0
  3
_______________________
 72
    65
 73
     2
 40
9999.0
 49
9999.0
 74
     0
 49
0.0
 74
     0
  0
LTYPE
  5
68
330
5
100
AcDbSymbolTableRecord
100
AcDbLinetypeTableRecord
  2
AM_ISO08W050x2
 70
     0
  3
__ . __ . __ . __ . __ . __
 72
    65
 73
     4
 40
9.0
 49
6.0
 74
     0
 49
-0.75
 74
     0
 49
1.5
 74
     0
 49
-0.75
 74
     0
  0
LTYPE
  5
69
330
5
100
AcDbSymbolTableRecord
100
AcDbLinetypeTableRecord
  2
AM_ISO02W050x2
 70
     0
  3
 _ _ _ _ _ _ _ _ _ _ _ _
 72
    65
 73
     2
 40
3.75
 49
3.0
 74
     0
 49
-0.75
 74
     0
  0
LTYPE
  5
6C
330
5
100
AcDbSymbolTableRecord
100
AcDbLinetypeTableRecord
  2
Amzigzag
 70
     0
  3
/\/-/\/-/\/-/\/-/\/-/\/
 72
    65
 73
     2
 40
11.0001
 49
0.0001
 74
     4
 75
   135
340
6B
 46
0.04
 50
0.0
 44
0.0
 45
0.0
 49
-11.0
 74
     0
  0
LTYPE
  5
7A
330
5
100
AcDbSymbolTableRecord
100
AcDbLinetypeTableRecord
  2
ACISOWELD
 70
     0
  3
_ _ _ _ _
 72
    65
 73
     2
 40
2.0
 49
2.0
 74
     0
 49
-1.0
 74
     0
  0
LTYPE
  5
7B
330
5
100
AcDbSymbolTableRecord
100
AcDbLinetypeTableRecord
  2
ACISOTGB
 70
     0
  3
__ . . __ . .
 72
    65
 73
     6
 40
9.0
 49
4.0
 74
     0
 49
-1.0
 74
     0
 49
1.0
 74
     0
 49
-1.0
 74
     0
 49
1.0
 74
     0
 49
-1.0
 74
     0
  0
LTYPE
  5
7C
330
5
100
AcDbSymbolTableRecord
100
AcDbLinetypeTableRecord
  2
ACISOTGL
 70
     0
  3
_ _ _ _ _
 72
    65
 73
     2
 40
3.0
 49
2.0
 74
     0
 49
-1.0
 74
     0
  0
LTYPE
  5
7E
330
5
100
AcDbSymbolTableRecord
100
AcDbLinetypeTableRecord
  2
CENTER
 70
     0
  3
__ . __
 72
    65
 73
     4
 40
7.0
 49
4.0
 74
     0
 49
-1.0
 74
     0
 49
1.0
 74
     0
 49
-1.0
 74
     0
  0
LTYPE
  5
D8
330
5
100
AcDbSymbolTableRecord
100
AcDbLinetypeTableRecord
  2
HIDDEN
 70
     0
  3
Hidden __ __ __ __ __ __ __ __ __ __ __ __ __ _
 72
    65
 73
     2
 40
9.524999999999998
 49
6.349999999999999
 74
     0
 49
-3.174999999999999
 74
     0
  0
LTYPE
  5
D9
330
5
100
AcDbSymbolTableRecord
100
AcDbLinetypeTableRecord
  2
PHANTOM2
 70
     0
  3
Phantom (.5x) ___ _ _ ___ _ _ ___ _ _ ___ _ _
 72
    65
 73
     6
 40
31.75
 49
15.875
 74
     0
 49
-3.174999999999999
 74
     0
 49
3.174999999999999
 74
     0
 49
-3.174999999999999
 74
     0
 49
3.174999999999999
 74
     0
 49
-3.174999999999999
 74
     0
  0
LTYPE
  5
3AFB
330
5
100
AcDbSymbolTableRecord
100
AcDbLinetypeTableRecord
  2
HIDDEN2
 70
     0
  3
Hidden (.5x) _ _ _ _ _ _ _ _ _ _ _ _ _ _ _ _ _
 72
    65
 73
     2
 40
0.1875
 49
0.125
 74
     0
 49
-0.0625
 74
     0
  0
LTYPE
  5
3D45
330
5
100
AcDbSymbolTableRecord
100
AcDbLinetypeTableRecord
  2
ASULTYPE
 70
     0
  3
實線
 72
    65
 73
     2
 40
3.0
 49
2.5
 74
     0
 49
0.5
 74
     0
  0
LTYPE
  5
3D46
330
5
100
AcDbSymbolTableRecord
100
AcDbLinetypeTableRecord
  2
ASVLTYPE
 70
     0
  3
__ __ __ __ __ __ __ __ __ __ __ __ __ __ __ __ __ __ __ __ __
 72
    65
 73
     2
 40
0.75
 49
0.5
 74
     0
 49
-0.25
 74
     0
  0
ENDTAB
  0
TABLE
  2
LAYER
  5
2
102
{ACAD_XDICTIONARY
360
3F9
102
}
330
0
100
AcDbSymbolTable
 70
     9
  0
LAYER
  5
10
330
2
100
AcDbSymbolTableRecord
100
AcDbLayerTableRecord
  2
0
 70
     0
 62
     7
  6
Continuous
370
    -3
390
F
  0
LAYER
  5
ACB
330
2
100
AcDbSymbolTableRecord
100
AcDbLayerTableRecord
  2
AM_VIS
 70
     0
 62
     7
  6
Continuous
370
    50
390
F
  0
LAYER
  5
ACC
330
2
100
AcDbSymbolTableRecord
100
AcDbLayerTableRecord
  2
AM_7
 70
     0
 62
     1
  6
AM_ISO08W050x2
370
    25
390
F
  0
LAYER
  5
13A4
330
2
100
AcDbSymbolTableRecord
100
AcDbLayerTableRecord
  2
Defpoints
 70
     0
 62
     7
  6
Continuous
290
     0
370
    -3
390
F
  0
LAYER
  5
16FA
330
2
100
AcDbSymbolTableRecord
100
AcDbLayerTableRecord
  2
LOGO
 70
     0
 62
     7
  6
Continuous
370
    -3
390
F
  0
LAYER
  5
3455
330
2
100
AcDbSymbolTableRecord
100
AcDbLayerTableRecord
  2
AM_4
 70
     0
 62
     3
  6
ASVLTYPE
370
    25
390
F
  0
LAYER
  5
3456
330
2
100
AcDbSymbolTableRecord
100
AcDbLayerTableRecord
  2
AM_REFDIM
 70
     0
 62
     5
  6
Continuous
370
    25
390
F
  0
LAYER
  5
3AFC
330
2
100
AcDbSymbolTableRecord
100
AcDbLayerTableRecord
  2
AM_HID
 70
     0
 62
     7
  6
AM_ISO02W050
370
    25
390
F
  0
LAYER
  5
3EFF
330
2
100
AcDbSymbolTableRecord
100
AcDbLayerTableRecord
  2
AM_5
 70
     0
 62
     3
  6
Continuous
370
    25
390
F
  0
ENDTAB
  0
TABLE
  2
STYLE
  5
3
330
0
100
AcDbSymbolTable
 70
     6
  0
STYLE
  5
11
330
3
100
AcDbSymbolTableRecord
100
AcDbTextStyleTableRecord
  2
STANDARD
 70
     0
 40
0.0
 41
1.0
 50
0.0
 71
     0
 42
3.0
  3
ISOCP.SHX
  4
CHINESET.SHX
  0
STYLE
  5
6B
330
3
100
AcDbSymbolTableRecord
100
AcDbTextStyleTableRecord
  2

 70
     1
 40
0.0
 41
1.0
 50
0.0
 71
     0
 42
2.5
  3
ltypeshp.shx
  4

  0
STYLE
  5
6D
330
3
100
AcDbSymbolTableRecord
100
AcDbTextStyleTableRecord
  2
ACISOTS
 70
     0
 40
1.0
 41
1.0
 50
0.0
 71
     0
 42
1.0
  3
isocp.shx
  4
chineset.shx
  0
STYLE
  5
79
330
3
100
AcDbSymbolTableRecord
100
AcDbTextStyleTableRecord
  2
ACISOGDT
 70
     0
 40
0.0
 41
1.0
 50
0.0
 71
     0
 42
2.5
  3
amgdt.shx
  4
chineset.shx
  0
STYLE
  5
16FB
330
3
100
AcDbSymbolTableRecord
100
AcDbTextStyleTableRecord
  2
CHINESET
 70
     0
 40
0.0
 41
1.0
 50
0.0
 71
     0
 42
3.0
  3
simplex.shx
  4
CHINESET.SHX
  0
STYLE
  5
3457
330
3
100
AcDbSymbolTableRecord
100
AcDbTextStyleTableRecord
  2
DAYUS
 70
     0
 40
0.0
 41
1.0
 50
0.0
 71
     0
 42
2.5
  3
simplex
  4
dayus
  0
ENDTAB
  0
TABLE
  2
VIEW
  5
6
330
0
100
AcDbSymbolTable
 70
     0
  0
ENDTAB
  0
TABLE
  2
UCS
  5
7
330
0
100
AcDbSymbolTable
 70
     0
  0
ENDTAB
  0
TABLE
  2
APPID
  5
9
330
0
100
AcDbSymbolTable
 70
    23
  0
APPID
  5
12
330
9
100
AcDbSymbolTableRecord
100
AcDbRegAppTableRecord
  2
ACAD
 70
     0
  0
APPID
  5
46
330
9
100
AcDbSymbolTableRecord
100
AcDbRegAppTableRecord
  2
MCAD_NO_VIS
 70
     0
  0
APPID
  5
47
330
9
100
AcDbSymbolTableRecord
100
AcDbRegAppTableRecord
  2
ACAD_TEMP_GRAPHIC
 70
     0
  0
APPID
  5
58
330
9
100
AcDbSymbolTableRecord
100
AcDbRegAppTableRecord
  2
ACATTRIBSERVICES
 70
     0
  0
APPID
  5
EE
330
9
100
AcDbSymbolTableRecord
100
AcDbRegAppTableRecord
  2
AD_DRAW
 70
     0
  0
APPID
  5
10C
330
9
100
AcDbSymbolTableRecord
100
AcDbRegAppTableRecord
  2
DESIGNERASSEMBLIES
 70
     0
  0
APPID
  5
111
330
9
100
AcDbSymbolTableRecord
100
AcDbRegAppTableRecord
  2
ACADM_DIM_EDIT
 70
     0
  0
APPID
  5
112
330
9
100
AcDbSymbolTableRecord
100
AcDbRegAppTableRecord
  2
AMDT_DM_ADJ
 70
     0
  0
APPID
  5
22C
330
9
100
AcDbSymbolTableRecord
100
AcDbRegAppTableRecord
  2
ACAD_DSTYLE_DIMTEXT_FILL
 70
     0
  0
APPID
  5
452
330
9
100
AcDbSymbolTableRecord
100
AcDbRegAppTableRecord
  2
GENIUS_GENOENT_13
 70
     0
  0
APPID
  5
453
330
9
100
AcDbSymbolTableRecord
100
AcDbRegAppTableRecord
  2
GENIUS_GENOBJ-N-CRS_13
 70
     0
  0
APPID
  5
454
330
9
100
AcDbSymbolTableRecord
100
AcDbRegAppTableRecord
  2
GENIUS_GENOLIS_13
 70
     0
  0
APPID
  5
455
330
9
100
AcDbSymbolTableRecord
100
AcDbRegAppTableRecord
  2
GENIUS_GENODEF_13
 70
     0
  0
APPID
  5
456
330
9
100
AcDbSymbolTableRecord
100
AcDbRegAppTableRecord
  2
GENIUS_GENOREF_13
 70
     0
  0
APPID
  5
6F3
330
9
100
AcDbSymbolTableRecord
100
AcDbRegAppTableRecord
  2
ACAD_PSEXT
 70
     0
  0
APPID
  5
808
330
9
100
AcDbSymbolTableRecord
100
AcDbRegAppTableRecord
  2
GENIUS_GENDTOL_13
 70
     0
  0
APPID
  5
16FC
330
9
100
AcDbSymbolTableRecord
100
AcDbRegAppTableRecord
  2
GENIUS_GENREC_14
 70
     0
  0
APPID
  5
16FD
330
9
100
AcDbSymbolTableRecord
100
AcDbRegAppTableRecord
  2
GENIUS_GENOBJ-N-REC_13
 70
     0
  0
APPID
  5
268C
330
9
100
AcDbSymbolTableRecord
100
AcDbRegAppTableRecord
  2
GENIUS_GENDIMSH_14
 70
     0
  0
APPID
  5
3991
330
9
100
AcDbSymbolTableRecord
100
AcDbRegAppTableRecord
  2
GENIUS_GENDIM_13
 70
     0
  0
APPID
  5
3992
330
9
100
AcDbSymbolTableRecord
100
AcDbRegAppTableRecord
  2
GENIUS_GE3DTOL_13
 70
     0
  0
APPID
  5
3A12
330
9
100
AcDbSymbolTableRecord
100
AcDbRegAppTableRecord
  2
ASURF_PCURVE_APPNAME
 70
     0
  0
APPID
  5
3A17
330
9
100
AcDbSymbolTableRecord
100
AcDbRegAppTableRecord
  2
AMG_3D2D_5.0
 70
     0
  0
ENDTAB
  0
TABLE
  2
DIMSTYLE
  5
A
330
0
100
AcDbSymbolTable
 70
    10
100
AcDbDimStyleTable
 71
     3
340
81
340
8B
340
86
  0
DIMSTYLE
105
81
330
A
100
AcDbSymbolTableRecord
100
AcDbDimStyleTableRecord
  2
AM_ISO
 70
     0
  4
"
 40
1.5
 41
3.0
 42
1.0
 43
8.0
 44
1.0
 47
0.1
 48
0.1
 73
     0
 74
     0
 77
     1
 78
     8
 79
     2
140
3.5
141
0.0
143
0.0393701
146
0.6
147
1.0
172
     1
176
   256
177
   256
178
   256
271
     2
272
     2
283
     0
284
     8
340
11
371
    -1
372
    -1
  0
DIMSTYLE
105
82
330
A
100
AcDbSymbolTableRecord
100
AcDbDimStyleTableRecord
  2
AM_ISO$3
 70
     0
  4
"
 40
1.5
 41
3.0
 42
1.0
 43
8.0
 44
1.0
 47
0.1
 48
0.1
 73
     0
 77
     1
 78
     8
 79
     2
140
3.5
141
0.0
143
0.0393701
146
0.6
147
1.0
176
   256
177
   256
178
   256
271
     2
272
     2
283
     0
284
     8
288
     1
289
     0
340
11
371
    -1
372
    -1
  0
DIMSTYLE
105
83
330
A
100
AcDbSymbolTableRecord
100
AcDbDimStyleTableRecord
  2
AM_ISO$4
 70
     0
  4
"
 40
1.5
 41
3.0
 42
1.0
 43
8.0
 44
1.0
 47
0.1
 48
0.1
 73
     0
 77
     1
 78
     8
 79
     2
140
3.5
141
0.0
143
0.0393701
146
0.6
147
1.0
176
   256
177
   256
178
   256
271
     2
272
     2
283
     0
284
     8
288
     1
289
     0
340
11
371
    -1
372
    -1
  0
DIMSTYLE
105
84
330
A
100
AcDbSymbolTableRecord
100
AcDbDimStyleTableRecord
  2
AM_ISO$6
 70
     0
  4
"
 40
1.5
 41
3.0
 42
1.0
 43
8.0
 44
1.0
 47
0.1
 48
0.1
 73
     0
 74
     0
 78
     8
 79
     2
140
3.5
141
0.0
143
0.0393701
146
0.6
147
1.0
172
     1
176
   256
177
   256
178
   256
271
     2
272
     2
283
     0
284
     8
340
11
371
    -1
372
    -1
  0
DIMSTYLE
105
85
330
A
100
AcDbSymbolTableRecord
100
AcDbDimStyleTableRecord
  2
AM_ISO$7
 70
     0
  4
"
 40
1.5
 41
3.0
 42
1.0
 43
8.0
 44
1.0
 47
0.1
 48
0.1
 73
     0
 74
     0
 77
     1
 78
     8
 79
     2
140
3.5
141
0.0
143
0.0393701
146
0.6
147
1.0
172
     1
176
   256
177
   256
178
   256
271
     2
272
     2
283
     0
284
     8
340
11
371
    -1
372
    -1
  0
DIMSTYLE
105
86
330
A
100
AcDbSymbolTableRecord
100
AcDbDimStyleTableRecord
  2
AM_ISO$SF
 70
     0
  4
"
 40
1.5
 41
2.5
 42
1.0
 43
10.0
 44
1.0
 47
0.1
 48
0.1
 73
     0
 74
     0
 75
     1
 76
     1
 77
     1
 78
     8
 79
     2
140
3.5
141
0.0
143
0.0393701
146
0.71
147
1.5
172
     1
176
   256
177
   256
178
     2
271
     2
272
     3
274
     4
283
     0
284
     8
340
11
371
    -1
372
    -1
  0
DIMSTYLE
105
8B
330
A
100
AcDbSymbolTableRecord
100
AcDbDimStyleTableRecord
  2
AM_ISO$SH
 70
     0
  4
"
 40
1.5
 41
2.5
 42
1.0
 43
10.0
 44
1.0
 47
0.1
 48
0.1
 73
     0
 74
     0
 75
     1
 76
     1
 77
     1
 78
     8
 79
     2
140
3.5
141
0.0
143
0.0393701
144
2.0
146
0.71
147
1.5
172
     1
173
     1
176
   256
177
   256
178
     2
271
     2
272
     3
274
     4
283
     0
284
     8
340
11
343
87
371
    -1
372
    -1
  0
DIMSTYLE
105
40B
102
{ACAD_REACTORS
330
42DA
330
428A
330
4264
330
423E
330
437E
330
4466
330
443C
330
448C
330
48BB
330
4973
102
}
330
A
100
AcDbSymbolTableRecord
100
AcDbDimStyleTableRecord
  2
AM_ISO$0
 70
     0
  4
"
 40
1.5
 41
3.0
 42
1.0
 43
8.0
 44
1.0
 47
0.1
 48
0.1
 73
     0
 74
     0
 77
     1
 78
     8
 79
     2
140
3.5
141
0.0
143
0.0393701
146
0.6
147
1.0
172
     1
176
   256
177
   256
178
   256
271
     2
272
     2
283
     0
284
     8
340
11
371
    -1
372
    -1
  0
DIMSTYLE
105
3AFD
330
A
100
AcDbSymbolTableRecord
100
AcDbDimStyleTableRecord
  2
AM_ANSI$0
 70
     0
  4
"
 40
0.8
 41
3.0
 42
1.5
 43
6.4
 44
2.0
 47
0.1
 48
0.1
 73
     0
 74
     0
 77
     3
 78
     8
 79
     2
140
3.0
141
0.0
143
0.0393701
146
0.6
147
0.8
172
     1
176
   256
177
   256
178
   256
271
     2
272
     2
284
     8
340
3457
371
    -1
372
    -1
  0
DIMSTYLE
105
3D53
330
A
100
AcDbSymbolTableRecord
100
AcDbDimStyleTableRecord
  2
ISO-25
 70
     0
 41
2.5
 42
0.625
 43
3.75
 44
1.25
 73
     0
 74
     0
 77
     1
 78
     8
140
2.5
141
2.5
143
0.03937007874016
147
0.625
171
     3
172
     1
271
     2
272
     2
274
     3
278
    44
283
     0
284
     8
340
11
  0
ENDTAB
  0
TABLE
  2
BLOCK_RECORD
  5
1
330
0
100
AcDbSymbolTable
 70
    15
  0
BLOCK_RECORD
  5
1F
102
{ACAD_XDICTIONARY
360
8F
102
}
330
1
100
AcDbSymbolTableRecord
100
AcDbBlockTableRecord
  2
*Model_Space
340
22
  0
BLOCK_RECORD
  5
1B
330
1
100
AcDbSymbolTableRecord
100
AcDbBlockTableRecord
  2
*Paper_Space
340
1E
  0
BLOCK_RECORD
  5
23
330
1
100
AcDbSymbolTableRecord
100
AcDbBlockTableRecord
  2
*Paper_Space0
340
26
  0
BLOCK_RECORD
  5
87
330
1
100
AcDbSymbolTableRecord
100
AcDbBlockTableRecord
  2
GENAXEH
340
0
  0
BLOCK_RECORD
  5
3AEA
330
1
100
AcDbSymbolTableRecord
100
AcDbBlockTableRecord
  2
GENDOT
340
0
  0
BLOCK_RECORD
  5
423F
330
1
100
AcDbSymbolTableRecord
100
AcDbBlockTableRecord
  2
*D4
340
0
  0
BLOCK_RECORD
  5
4265
330
1
100
AcDbSymbolTableRecord
100
AcDbBlockTableRecord
  2
*D5
340
0
  0
BLOCK_RECORD
  5
428B
330
1
100
AcDbSymbolTableRecord
100
AcDbBlockTableRecord
  2
*D6
340
0
  0
BLOCK_RECORD
  5
42DB
330
1
100
AcDbSymbolTableRecord
100
AcDbBlockTableRecord
  2
*D7
340
0
  0
BLOCK_RECORD
  5
437F
330
1
100
AcDbSymbolTableRecord
100
AcDbBlockTableRecord
  2
*D8
340
0
  0
BLOCK_RECORD
  5
443D
330
1
100
AcDbSymbolTableRecord
100
AcDbBlockTableRecord
  2
*D9
340
0
  0
BLOCK_RECORD
  5
4467
330
1
100
AcDbSymbolTableRecord
100
AcDbBlockTableRecord
  2
*D10
340
0
  0
BLOCK_RECORD
  5
448D
330
1
100
AcDbSymbolTableRecord
100
AcDbBlockTableRecord
  2
*D11
340
0
  0
BLOCK_RECORD
  5
48BC
330
1
100
AcDbSymbolTableRecord
100
AcDbBlockTableRecord
  2
*D12
340
0
  0
BLOCK_RECORD
  5
4974
330
1
100
AcDbSymbolTableRecord
100
AcDbBlockTableRecord
  2
*D13
340
0
  0
BLOCK_RECORD
  5
49A7
330
1
100
AcDbSymbolTableRecord
100
AcDbBlockTableRecord
  2
*D14
340
0
  0
ENDTAB
  0
ENDSEC
  0
SECTION
  2
BLOCKS
  0
BLOCK
  5
20
330
1F
100
AcDbEntity
  8
0
100
AcDbBlockBegin
  2
*Model_Space
 70
     0
 10
0.0
 20
0.0
 30
0.0
  3
*Model_Space
  1

  0
ENDBLK
  5
21
330
1F
100
AcDbEntity
  8
0
100
AcDbBlockEnd
  0
BLOCK
  5
1C
330
1B
100
AcDbEntity
 67
     1
  8
0
100
AcDbBlockBegin
  2
*Paper_Space
 70
     0
 10
0.0
 20
0.0
 30
0.0
  3
*Paper_Space
  1

  0
ENDBLK
  5
1D
330
1B
100
AcDbEntity
 67
     1
  8
0
100
AcDbBlockEnd
  0
BLOCK
  5
24
330
23
100
AcDbEntity
  8
0
100
AcDbBlockBegin
  2
*Paper_Space0
 70
     0
 10
0.0
 20
0.0
 30
0.0
  3
*Paper_Space0
  1

  0
ENDBLK
  5
25
330
23
100
AcDbEntity
  8
0
100
AcDbBlockEnd
  0
BLOCK
  5
89
330
87
100
AcDbEntity
  8
0
100
AcDbBlockBegin
  2
GENAXEH
 70
     0
 10
0.0
 20
0.0
 30
0.0
  3
GENAXEH
  1

  0
LINE
  5
88
330
87
100
AcDbEntity
  8
0
100
AcDbLine
 10
-1.0
 20
0.0
 30
0.0
 11
1.0
 21
0.0
 31
0.0
  0
ENDBLK
  5
8A
330
87
100
AcDbEntity
  8
0
100
AcDbBlockEnd
  0
BLOCK
  5
3AEB
330
3AEA
100
AcDbEntity
  8
0
100
AcDbBlockBegin
  2
GENDOT
 70
     0
 10
0.0
 20
0.0
 30
0.0
  3
GENDOT
  1

  0
LINE
  5
3AEC
330
3AEA
100
AcDbEntity
  8
0
100
AcDbLine
 10
0.0
 20
0.0
 30
0.0
 11
-1.0
 21
0.0
 31
0.0
  0
LWPOLYLINE
  5
3AED
330
3AEA
100
AcDbEntity
  8
0
100
AcDbPolyline
 90
        2
 70
     1
 43
0.25
 10
-0.125
 20
0.0
 42
1.0
 10
0.125
 20
0.0
 42
1.0
  0
ENDBLK
  5
3AEE
330
3AEA
100
AcDbEntity
  8
0
100
AcDbBlockEnd
  0
BLOCK
  5
4249
330
423F
100
AcDbEntity
  8
0
100
AcDbBlockBegin
  2
*D4
 70
     1
 10
0.0
 20
0.0
 30
0.0
  3
*D4
  1

  0
LINE
  5
48EC
330
423F
100
AcDbEntity
  8
AM_REFDIM
100
AcDbLine
 10
399.3201949591172
 20
307.2712553915804
 30
0.0
 11
399.3201949591172
 21
323.1103305637299
 31
0.0
  0
LINE
  5
48ED
330
423F
100
AcDbEntity
  8
AM_REFDIM
100
AcDbLine
 10
417.3201949591172
 20
307.2712553915804
 30
0.0
 11
417.3201949591172
 21
323.1103305637299
 31
0.0
  0
LINE
  5
48EE
330
423F
100
AcDbEntity
  8
AM_REFDIM
100
AcDbLine
 10
401.1201949591172
 20
322.5103305637299
 30
0.0
 11
415.5201949591171
 21
322.5103305637299
 31
0.0
  0
SOLID
  5
48EF
330
423F
100
AcDbEntity
  8
AM_REFDIM
100
AcDbTrace
 10
401.1201949591172
 20
322.8103305637299
 30
0.0
 11
401.1201949591172
 21
322.2103305637299
 31
0.0
 12
399.3201949591172
 22
322.5103305637299
 32
0.0
 13
399.3201949591172
 23
322.5103305637299
 33
0.0
  0
SOLID
  5
48F0
330
423F
100
AcDbEntity
  8
AM_REFDIM
100
AcDbTrace
 10
415.5201949591171
 20
322.8103305637299
 30
0.0
 11
415.5201949591171
 21
322.2103305637299
 31
0.0
 12
417.3201949591172
 22
322.5103305637299
 32
0.0
 13
417.3201949591172
 23
322.5103305637299
 33
0.0
  0
MTEXT
  5
48F1
330
423F
100
AcDbEntity
  8
AM_REFDIM
100
AcDbMText
 10
408.3201949591171
 20
324.1603305637299
 30
0.0
 40
2.1
 41
0.0
 71
     5
 72
     1
  1
18
 73
     1
 44
1.0
1001
ACAD
1000
MTEXTBEGIN
1070
    73
1070
     1
1070
    44
1040
1.0
1070
    74
1070
     0
1000
MTEXTEND
  0
POINT
  5
48F2
330
423F
100
AcDbEntity
  8
Defpoints
 62
     0
100
AcDbPoint
 10
399.3201949591172
 20
306.6712553915804
 30
0.0
  0
POINT
  5
48F3
330
423F
100
AcDbEntity
  8
Defpoints
 62
     0
100
AcDbPoint
 10
417.3201949591172
 20
306.6712553915804
 30
0.0
  0
POINT
  5
48F4
330
423F
100
AcDbEntity
  8
Defpoints
 62
     0
100
AcDbPoint
 10
417.3201949591172
 20
322.5103305637299
 30
0.0
  0
ENDBLK
  5
424A
330
423F
100
AcDbEntity
  8
0
100
AcDbBlockEnd
  0
BLOCK
  5
426F
330
4265
100
AcDbEntity
  8
0
100
AcDbBlockBegin
  2
*D5
 70
     1
 10
0.0
 20
0.0
 30
0.0
  3
*D5
  1

  0
LINE
  5
4810
330
4265
100
AcDbEntity
  8
AM_REFDIM
100
AcDbLine
 10
408.9201949591172
 20
315.6712553915804
 30
0.0
 11
430.2795611241566
 21
315.6712553915804
 31
0.0
  0
LINE
  5
4811
330
4265
100
AcDbEntity
  8
AM_REFDIM
100
AcDbLine
 10
414.4201949591172
 20
276.6712553915804
 30
0.0
 11
430.2795611241566
 21
276.6712553915804
 31
0.0
  0
LINE
  5
4812
330
4265
100
AcDbEntity
  8
AM_REFDIM
100
AcDbLine
 10
429.6795611241566
 20
313.8712553915804
 30
0.0
 11
429.6795611241566
 21
278.4712553915804
 31
0.0
  0
SOLID
  5
4813
330
4265
100
AcDbEntity
  8
AM_REFDIM
100
AcDbTrace
 10
429.3795611241566
 20
313.8712553915804
 30
0.0
 11
429.9795611241566
 21
313.8712553915804
 31
0.0
 12
429.6795611241566
 22
315.6712553915804
 32
0.0
 13
429.6795611241566
 23
315.6712553915804
 33
0.0
  0
SOLID
  5
4814
330
4265
100
AcDbEntity
  8
AM_REFDIM
100
AcDbTrace
 10
429.3795611241566
 20
278.4712553915804
 30
0.0
 11
429.9795611241566
 21
278.4712553915804
 31
0.0
 12
429.6795611241566
 22
276.6712553915804
 32
0.0
 13
429.6795611241566
 23
276.6712553915804
 33
0.0
  0
MTEXT
  5
4815
330
4265
100
AcDbEntity
  8
AM_REFDIM
100
AcDbMText
 10
428.0295611241565
 20
296.1860330086099
 30
0.0
 40
2.1
 41
0.0
 71
     5
 72
     1
  1
39
 11
0.0000000000000001
 21
1.0
 31
0.0
 73
     1
 44
1.0
1001
ACAD
1000
MTEXTBEGIN
1070
    73
1070
     1
1070
    44
1040
1.0
1070
    74
1070
     0
1000
MTEXTEND
  0
POINT
  5
4816
330
4265
100
AcDbEntity
  8
Defpoints
 62
     0
100
AcDbPoint
 10
408.3201949591171
 20
315.6712553915804
 30
0.0
  0
POINT
  5
4817
330
4265
100
AcDbEntity
  8
Defpoints
 62
     0
100
AcDbPoint
 10
413.8201949591172
 20
276.6712553915804
 30
0.0
  0
POINT
  5
4818
330
4265
100
AcDbEntity
  8
Defpoints
 62
     0
100
AcDbPoint
 10
429.6795611241566
 20
276.6712553915804
 30
0.0
  0
ENDBLK
  5
4270
330
4265
100
AcDbEntity
  8
0
100
AcDbBlockEnd
  0
BLOCK
  5
4295
330
428B
100
AcDbEntity
  8
0
100
AcDbBlockBegin
  2
*D6
 70
     1
 10
0.0
 20
0.0
 30
0.0
  3
*D6
  1

  0
LINE
  5
4819
330
428B
100
AcDbEntity
  8
AM_REFDIM
100
AcDbLine
 10
418.5201949591171
 20
306.6712553915804
 30
0.0
 11
424.900459542372
 21
306.6712553915804
 31
0.0
  0
LINE
  5
481A
330
428B
100
AcDbEntity
  8
AM_REFDIM
100
AcDbLine
 10
414.4201949591172
 20
276.6712553915804
 30
0.0
 11
424.900459542372
 21
276.6712553915804
 31
0.0
  0
LINE
  5
481B
330
428B
100
AcDbEntity
  8
AM_REFDIM
100
AcDbLine
 10
424.300459542372
 20
304.8712553915804
 30
0.0
 11
424.300459542372
 21
278.4712553915804
 31
0.0
  0
SOLID
  5
481C
330
428B
100
AcDbEntity
  8
AM_REFDIM
100
AcDbTrace
 10
424.0004595423719
 20
304.8712553915804
 30
0.0
 11
424.600459542372
 21
304.8712553915804
 31
0.0
 12
424.300459542372
 22
306.6712553915804
 32
0.0
 13
424.300459542372
 23
306.6712553915804
 33
0.0
  0
SOLID
  5
481D
330
428B
100
AcDbEntity
  8
AM_REFDIM
100
AcDbTrace
 10
424.0004595423719
 20
278.4712553915804
 30
0.0
 11
424.600459542372
 21
278.4712553915804
 31
0.0
 12
424.300459542372
 22
276.6712553915804
 32
0.0
 13
424.300459542372
 23
276.6712553915804
 33
0.0
  0
MTEXT
  5
481E
330
428B
100
AcDbEntity
  8
AM_REFDIM
100
AcDbMText
 10
422.6504595423719
 20
291.6712553915804
 30
0.0
 40
2.1
 41
0.0
 71
     5
 72
     1
  1
30
 11
0.0000000000000001
 21
1.0
 31
0.0
 73
     1
 44
1.0
1001
ACAD
1000
MTEXTBEGIN
1070
    73
1070
     1
1070
    44
1040
1.0
1070
    74
1070
     0
1000
MTEXTEND
  0
POINT
  5
481F
330
428B
100
AcDbEntity
  8
Defpoints
 62
     0
100
AcDbPoint
 10
417.920194959117
 20
306.6712553915804
 30
0.0
  0
POINT
  5
4820
330
428B
100
AcDbEntity
  8
Defpoints
 62
     0
100
AcDbPoint
 10
413.8201949591172
 20
276.6712553915804
 30
0.0
  0
POINT
  5
4821
330
428B
100
AcDbEntity
  8
Defpoints
 62
     0
100
AcDbPoint
 10
424.300459542372
 20
276.6712553915804
 30
0.0
  0
ENDBLK
  5
4296
330
428B
100
AcDbEntity
  8
0
100
AcDbBlockEnd
  0
BLOCK
  5
42E5
330
42DB
100
AcDbEntity
  8
0
100
AcDbBlockBegin
  2
*D7
 70
     1
 10
0.0
 20
0.0
 30
0.0
  3
*D7
  1

  0
LINE
  5
4822
330
42DB
100
AcDbEntity
  8
AM_REFDIM
100
AcDbLine
 10
401.8201949591172
 20
277.0712553915804
 30
0.0
 11
401.8201949591172
 21
269.1223472517417
 31
0.0
  0
LINE
  5
4823
330
42DB
100
AcDbEntity
  8
AM_REFDIM
100
AcDbLine
 10
414.8201949591172
 20
277.0712553915804
 30
0.0
 11
414.8201949591172
 21
269.1223472517417
 31
0.0
  0
LINE
  5
4824
330
42DB
100
AcDbEntity
  8
AM_REFDIM
100
AcDbLine
 10
403.6201949591172
 20
269.7223472517417
 30
0.0
 11
413.0201949591172
 21
269.7223472517417
 31
0.0
  0
SOLID
  5
4825
330
42DB
100
AcDbEntity
  8
AM_REFDIM
100
AcDbTrace
 10
403.6201949591172
 20
270.0223472517417
 30
0.0
 11
403.6201949591172
 21
269.4223472517417
 31
0.0
 12
401.8201949591172
 22
269.7223472517417
 32
0.0
 13
401.8201949591172
 23
269.7223472517417
 33
0.0
  0
SOLID
  5
4826
330
42DB
100
AcDbEntity
  8
AM_REFDIM
100
AcDbTrace
 10
413.0201949591172
 20
270.0223472517417
 30
0.0
 11
413.0201949591172
 21
269.4223472517417
 31
0.0
 12
414.8201949591172
 22
269.7223472517417
 32
0.0
 13
414.8201949591172
 23
269.7223472517417
 33
0.0
  0
MTEXT
  5
4827
330
42DB
100
AcDbEntity
  8
AM_REFDIM
100
AcDbMText
 10
408.3201949591171
 20
271.3723472517417
 30
0.0
 40
2.1
 41
0.0
 71
     5
 72
     1
  1
13
 73
     1
 44
1.0
1001
ACAD
1000
MTEXTBEGIN
1070
    73
1070
     1
1070
    44
1040
1.0
1070
    74
1070
     0
1000
MTEXTEND
  0
POINT
  5
4828
330
42DB
100
AcDbEntity
  8
Defpoints
 62
     0
100
AcDbPoint
 10
401.8201949591172
 20
277.6712553915805
 30
0.0
  0
POINT
  5
4829
330
42DB
100
AcDbEntity
  8
Defpoints
 62
     0
100
AcDbPoint
 10
414.8201949591172
 20
277.6712553915805
 30
0.0
  0
POINT
  5
482A
330
42DB
100
AcDbEntity
  8
Defpoints
 62
     0
100
AcDbPoint
 10
414.8201949591172
 20
269.7223472517417
 30
0.0
  0
ENDBLK
  5
42E6
330
42DB
100
AcDbEntity
  8
0
100
AcDbBlockEnd
  0
BLOCK
  5
438B
330
437F
100
AcDbEntity
  8
0
100
AcDbBlockBegin
  2
*D8
 70
     1
 10
0.0
 20
0.0
 30
0.0
  3
*D8
  1

  0
LINE
  5
482B
330
437F
100
AcDbEntity
  8
AM_REFDIM
100
AcDbLine
 10
414.7176341819808
 20
281.6712553915805
 30
0.0
 11
420.7122919698925
 21
281.6712553915805
 31
0.0
  0
LINE
  5
482C
330
437F
100
AcDbEntity
  8
AM_REFDIM
100
AcDbLine
 10
414.4201949591172
 20
276.6712553915804
 30
0.0
 11
420.7122919698925
 21
276.6712553915804
 31
0.0
  0
LINE
  5
482D
330
437F
100
AcDbEntity
  8
AM_REFDIM
100
AcDbLine
 10
420.1122919698924
 20
279.8712553915805
 30
0.0
 11
420.1122919698924
 21
278.4712553915804
 31
0.0
  0
SOLID
  5
482E
330
437F
100
AcDbEntity
  8
AM_REFDIM
100
AcDbTrace
 10
419.8122919698924
 20
279.8712553915805
 30
0.0
 11
420.4122919698924
 21
279.8712553915805
 31
0.0
 12
420.1122919698924
 22
281.6712553915805
 32
0.0
 13
420.1122919698924
 23
281.6712553915805
 33
0.0
  0
SOLID
  5
482F
330
437F
100
AcDbEntity
  8
AM_REFDIM
100
AcDbTrace
 10
419.8122919698924
 20
278.4712553915804
 30
0.0
 11
420.4122919698924
 21
278.4712553915804
 31
0.0
 12
420.1122919698924
 22
276.6712553915804
 32
0.0
 13
420.1122919698924
 23
276.6712553915804
 33
0.0
  0
MTEXT
  5
4830
330
437F
100
AcDbEntity
  8
AM_REFDIM
100
AcDbMText
 10
418.4622919698925
 20
279.1712553915804
 30
0.0
 40
2.1
 41
0.0
 71
     5
 72
     1
  1
5
 11
0.0000000000000001
 21
1.0
 31
0.0
 73
     1
 44
1.0
1001
ACAD
1000
MTEXTBEGIN
1070
    73
1070
     1
1070
    44
1040
1.0
1070
    74
1070
     0
1000
MTEXTEND
  0
POINT
  5
4831
330
437F
100
AcDbEntity
  8
Defpoints
 62
     0
100
AcDbPoint
 10
414.1176341819808
 20
281.6712553915805
 30
0.0
  0
POINT
  5
4832
330
437F
100
AcDbEntity
  8
Defpoints
 62
     0
100
AcDbPoint
 10
413.8201949591172
 20
276.6712553915804
 30
0.0
  0
POINT
  5
4833
330
437F
100
AcDbEntity
  8
Defpoints
 62
     0
100
AcDbPoint
 10
420.1122919698924
 20
276.6712553915804
 30
0.0
  0
ENDBLK
  5
438C
330
437F
100
AcDbEntity
  8
0
100
AcDbBlockEnd
  0
BLOCK
  5
4449
330
443D
100
AcDbEntity
  8
0
100
AcDbBlockBegin
  2
*D9
 70
     1
 10
0.0
 20
0.0
 30
0.0
  3
*D9
  1

  0
LINE
  5
48FE
330
443D
100
AcDbEntity
  8
AM_REFDIM
100
AcDbLine
 10
442.6219748945067
 20
311.8220794927734
 30
0.0
 11
442.6219748945067
 21
323.1103305637299
 31
0.0
  0
LINE
  5
48FF
330
443D
100
AcDbEntity
  8
AM_REFDIM
100
AcDbLine
 10
451.6219748945067
 20
311.8220794927735
 30
0.0
 11
451.6219748945067
 21
323.1103305637299
 31
0.0
  0
LINE
  5
4900
330
443D
100
AcDbEntity
  8
AM_REFDIM
100
AcDbLine
 10
444.4219748945067
 20
322.5103305637299
 30
0.0
 11
449.8219748945067
 21
322.5103305637299
 31
0.0
  0
SOLID
  5
4901
330
443D
100
AcDbEntity
  8
AM_REFDIM
100
AcDbTrace
 10
444.4219748945067
 20
322.8103305637299
 30
0.0
 11
444.4219748945067
 21
322.2103305637299
 31
0.0
 12
442.6219748945067
 22
322.5103305637299
 32
0.0
 13
442.6219748945067
 23
322.5103305637299
 33
0.0
  0
SOLID
  5
4902
330
443D
100
AcDbEntity
  8
AM_REFDIM
100
AcDbTrace
 10
449.8219748945067
 20
322.8103305637299
 30
0.0
 11
449.8219748945067
 21
322.2103305637299
 31
0.0
 12
451.6219748945067
 22
322.5103305637299
 32
0.0
 13
451.6219748945067
 23
322.5103305637299
 33
0.0
  0
MTEXT
  5
4903
330
443D
100
AcDbEntity
  8
AM_REFDIM
100
AcDbMText
 10
447.1219748945074
 20
324.1603305637299
 30
0.0
 40
2.1
 41
0.0
 71
     5
 72
     1
  1
9
 73
     1
 44
1.0
1001
ACAD
1000
MTEXTBEGIN
1070
    73
1070
     1
1070
    44
1040
1.0
1070
    74
1070
     0
1000
MTEXTEND
  0
POINT
  5
4904
330
443D
100
AcDbEntity
  8
Defpoints
 62
     0
100
AcDbPoint
 10
442.6219748945067
 20
311.2220794927734
 30
0.0
  0
POINT
  5
4905
330
443D
100
AcDbEntity
  8
Defpoints
 62
     0
100
AcDbPoint
 10
451.6219748945067
 20
311.2220794927734
 30
0.0
  0
POINT
  5
4906
330
443D
100
AcDbEntity
  8
Defpoints
 62
     0
100
AcDbPoint
 10
451.6219748945067
 20
322.5103305637299
 30
0.0
  0
ENDBLK
  5
444A
330
443D
100
AcDbEntity
  8
0
100
AcDbBlockEnd
  0
BLOCK
  5
4471
330
4467
100
AcDbEntity
  8
0
100
AcDbBlockBegin
  2
*D10
 70
     1
 10
0.0
 20
0.0
 30
0.0
  3
*D10
  1

  0
LINE
  5
4858
330
4467
100
AcDbEntity
  8
AM_REFDIM
100
AcDbLine
 10
450.7219748945065
 20
290.9438690259711
 30
0.0
 11
458.2377259100199
 21
290.9438690259711
 31
0.0
  0
LINE
  5
4859
330
4467
100
AcDbEntity
  8
AM_REFDIM
100
AcDbLine
 10
452.2219748945064
 20
276.6712553915804
 30
0.0
 11
458.2377259100199
 21
276.6712553915804
 31
0.0
  0
LINE
  5
485A
330
4467
100
AcDbEntity
  8
AM_REFDIM
100
AcDbLine
 10
457.6377259100198
 20
289.1438690259711
 30
0.0
 11
457.6377259100198
 21
278.4712553915804
 31
0.0
  0
SOLID
  5
485B
330
4467
100
AcDbEntity
  8
AM_REFDIM
100
AcDbTrace
 10
457.3377259100198
 20
289.1438690259711
 30
0.0
 11
457.9377259100199
 21
289.1438690259711
 31
0.0
 12
457.6377259100198
 22
290.9438690259711
 32
0.0
 13
457.6377259100198
 23
290.9438690259711
 33
0.0
  0
SOLID
  5
485C
330
4467
100
AcDbEntity
  8
AM_REFDIM
100
AcDbTrace
 10
457.3377259100198
 20
278.4712553915804
 30
0.0
 11
457.9377259100199
 21
278.4712553915804
 31
0.0
 12
457.6377259100198
 22
276.6712553915804
 32
0.0
 13
457.6377259100198
 23
276.6712553915804
 33
0.0
  0
MTEXT
  5
485D
330
4467
100
AcDbEntity
  8
AM_REFDIM
100
AcDbMText
 10
455.9877259100199
 20
283.8075622087758
 30
0.0
 40
2.1
 41
0.0
 71
     5
 72
     1
  1
14
 11
0.0000000000000001
 21
1.0
 31
0.0
 73
     1
 44
1.0
1001
ACAD
1000
MTEXTBEGIN
1070
    73
1070
     1
1070
    44
1040
1.0
1070
    74
1070
     0
1000
MTEXTEND
  0
POINT
  5
485E
330
4467
100
AcDbEntity
  8
Defpoints
 62
     0
100
AcDbPoint
 10
450.1219748945064
 20
290.9438690259711
 30
0.0
  0
POINT
  5
485F
330
4467
100
AcDbEntity
  8
Defpoints
 62
     0
100
AcDbPoint
 10
451.6219748945064
 20
276.6712553915804
 30
0.0
  0
POINT
  5
4860
330
4467
100
AcDbEntity
  8
Defpoints
 62
     0
100
AcDbPoint
 10
457.6377259100198
 20
276.6712553915804
 30
0.0
  0
ENDBLK
  5
4472
330
4467
100
AcDbEntity
  8
0
100
AcDbBlockEnd
  0
BLOCK
  5
4499
330
448D
100
AcDbEntity
  8
0
100
AcDbBlockBegin
  2
*D11
 70
     1
 10
0.0
 20
0.0
 30
0.0
  3
*D11
  1

  0
LINE
  5
4846
330
448D
100
AcDbEntity
  8
AM_REFDIM
100
AcDbLine
 10
441.6219748945064
 20
277.0712553915804
 30
0.0
 11
441.6219748945064
 21
269.1223472517414
 31
0.0
  0
LINE
  5
4847
330
448D
100
AcDbEntity
  8
AM_REFDIM
100
AcDbLine
 10
452.6219748945065
 20
277.0712553915804
 30
0.0
 11
452.6219748945065
 21
269.1223472517414
 31
0.0
  0
LINE
  5
4848
330
448D
100
AcDbEntity
  8
AM_REFDIM
100
AcDbLine
 10
443.4219748945063
 20
269.7223472517414
 30
0.0
 11
450.8219748945064
 21
269.7223472517414
 31
0.0
  0
SOLID
  5
4849
330
448D
100
AcDbEntity
  8
AM_REFDIM
100
AcDbTrace
 10
443.4219748945063
 20
270.0223472517414
 30
0.0
 11
443.4219748945063
 21
269.4223472517414
 31
0.0
 12
441.6219748945064
 22
269.7223472517414
 32
0.0
 13
441.6219748945064
 23
269.7223472517414
 33
0.0
  0
SOLID
  5
484A
330
448D
100
AcDbEntity
  8
AM_REFDIM
100
AcDbTrace
 10
450.8219748945064
 20
270.0223472517414
 30
0.0
 11
450.8219748945064
 21
269.4223472517414
 31
0.0
 12
452.6219748945065
 22
269.7223472517414
 32
0.0
 13
452.6219748945065
 23
269.7223472517414
 33
0.0
  0
MTEXT
  5
484B
330
448D
100
AcDbEntity
  8
AM_REFDIM
100
AcDbMText
 10
447.1219748945064
 20
271.3723472517413
 30
0.0
 40
2.1
 41
0.0
 71
     5
 72
     1
  1
11
 73
     1
 44
1.0
1001
ACAD
1000
MTEXTBEGIN
1070
    73
1070
     1
1070
    44
1040
1.0
1070
    74
1070
     0
1000
MTEXTEND
  0
POINT
  5
484C
330
448D
100
AcDbEntity
  8
Defpoints
 62
     0
100
AcDbPoint
 10
441.6219748945064
 20
277.6712553915805
 30
0.0
  0
POINT
  5
484D
330
448D
100
AcDbEntity
  8
Defpoints
 62
     0
100
AcDbPoint
 10
452.6219748945065
 20
277.6712553915805
 30
0.0
  0
POINT
  5
484E
330
448D
100
AcDbEntity
  8
Defpoints
 62
     0
100
AcDbPoint
 10
452.6219748945065
 20
269.7223472517414
 30
0.0
  0
ENDBLK
  5
449A
330
448D
100
AcDbEntity
  8
0
100
AcDbBlockEnd
  0
BLOCK
  5
48C8
330
48BC
100
AcDbEntity
  8
0
100
AcDbBlockBegin
  2
*D12
 70
     1
 10
0.0
 20
0.0
 30
0.0
  3
*D12
  1

  0
LINE
  5
48DA
330
48BC
100
AcDbEntity
  8
AM_REFDIM
100
AcDbLine
 10
443.6219748945064
 20
315.2712553915804
 30
0.0
 11
443.6219748945064
 21
318.5650562064006
 31
0.0
  0
LINE
  5
48DB
330
48BC
100
AcDbEntity
  8
AM_REFDIM
100
AcDbLine
 10
450.6219748945064
 20
315.2712553915804
 30
0.0
 11
450.6219748945064
 21
318.5650562064006
 31
0.0
  0
LINE
  5
48DC
330
48BC
100
AcDbEntity
  8
AM_REFDIM
100
AcDbLine
 10
445.4219748945065
 20
317.9650562064006
 30
0.0
 11
448.8219748945065
 21
317.9650562064006
 31
0.0
  0
SOLID
  5
48DD
330
48BC
100
AcDbEntity
  8
AM_REFDIM
100
AcDbTrace
 10
445.4219748945065
 20
318.2650562064006
 30
0.0
 11
445.4219748945065
 21
317.6650562064006
 31
0.0
 12
443.6219748945064
 22
317.9650562064006
 32
0.0
 13
443.6219748945064
 23
317.9650562064006
 33
0.0
  0
SOLID
  5
48DE
330
48BC
100
AcDbEntity
  8
AM_REFDIM
100
AcDbTrace
 10
448.8219748945065
 20
318.2650562064006
 30
0.0
 11
448.8219748945065
 21
317.6650562064006
 31
0.0
 12
450.6219748945064
 22
317.9650562064006
 32
0.0
 13
450.6219748945064
 23
317.9650562064006
 33
0.0
  0
MTEXT
  5
48DF
330
48BC
100
AcDbEntity
  8
AM_REFDIM
100
AcDbMText
 10
447.1219748945064
 20
319.6150562064006
 30
0.0
 40
2.1
 41
0.0
 71
     5
 72
     1
  1
7
 73
     1
 44
1.0
1001
ACAD
1000
MTEXTBEGIN
1070
    73
1070
     1
1070
    44
1040
1.0
1070
    74
1070
     0
1000
MTEXTEND
  0
POINT
  5
48E0
330
48BC
100
AcDbEntity
  8
Defpoints
 62
     0
100
AcDbPoint
 10
443.6219748945064
 20
314.6712553915804
 30
0.0
  0
POINT
  5
48E1
330
48BC
100
AcDbEntity
  8
Defpoints
 62
     0
100
AcDbPoint
 10
450.6219748945064
 20
314.6712553915804
 30
0.0
  0
POINT
  5
48E2
330
48BC
100
AcDbEntity
  8
Defpoints
 62
     0
100
AcDbPoint
 10
450.6219748945064
 20
317.9650562064006
 30
0.0
  0
ENDBLK
  5
48C9
330
48BC
100
AcDbEntity
  8
0
100
AcDbBlockEnd
  0
BLOCK
  5
4980
330
4974
100
AcDbEntity
  8
0
100
AcDbBlockBegin
  2
*D13
 70
     1
 10
0.0
 20
0.0
 30
0.0
  3
*D13
  1

  0
LINE
  5
4A21
330
4974
100
AcDbEntity
  8
AM_REFDIM
100
AcDbLine
 10
452.2219748945067
 20
309.9438690259712
 30
0.0
 11
458.2377259100199
 21
309.9438690259712
 31
0.0
  0
LINE
  5
4A22
330
4974
100
AcDbEntity
  8
AM_REFDIM
100
AcDbLine
 10
452.2219748945067
 20
303.9438690259711
 30
0.0
 11
458.2377259100199
 21
303.9438690259711
 31
0.0
  0
LINE
  5
4A23
330
4974
100
AcDbEntity
  8
AM_REFDIM
100
AcDbLine
 10
457.6377259100198
 20
308.1438690259712
 30
0.0
 11
457.6377259100198
 21
305.7438690259711
 31
0.0
  0
SOLID
  5
4A24
330
4974
100
AcDbEntity
  8
AM_REFDIM
100
AcDbTrace
 10
457.3377259100198
 20
308.1438690259712
 30
0.0
 11
457.9377259100199
 21
308.1438690259712
 31
0.0
 12
457.6377259100198
 22
309.9438690259712
 32
0.0
 13
457.6377259100198
 23
309.9438690259712
 33
0.0
  0
SOLID
  5
4A25
330
4974
100
AcDbEntity
  8
AM_REFDIM
100
AcDbTrace
 10
457.3377259100198
 20
305.7438690259711
 30
0.0
 11
457.9377259100199
 21
305.7438690259711
 31
0.0
 12
457.6377259100198
 22
303.9438690259711
 32
0.0
 13
457.6377259100198
 23
303.9438690259711
 33
0.0
  0
MTEXT
  5
4A26
330
4974
100
AcDbEntity
  8
AM_REFDIM
100
AcDbMText
 10
455.9877259100198
 20
306.9438690259712
 30
0.0
 40
2.1
 41
0.0
 71
     5
 72
     1
  1
%%c6
 11
0.0000000000000001
 21
1.0
 31
0.0
 73
     1
 44
1.0
1001
ACAD
1000
MTEXTBEGIN
1070
    73
1070
     1
1070
    44
1040
1.0
1070
    74
1070
     0
1000
MTEXTEND
  0
POINT
  5
4A27
330
4974
100
AcDbEntity
  8
Defpoints
 62
     0
100
AcDbPoint
 10
451.6219748945067
 20
309.9438690259712
 30
0.0
  0
POINT
  5
4A28
330
4974
100
AcDbEntity
  8
Defpoints
 62
     0
100
AcDbPoint
 10
451.6219748945067
 20
303.9438690259711
 30
0.0
  0
POINT
  5
4A29
330
4974
100
AcDbEntity
  8
Defpoints
 62
     0
100
AcDbPoint
 10
457.6377259100198
 20
303.9438690259711
 30
0.0
  0
ENDBLK
  5
4981
330
4974
100
AcDbEntity
  8
0
100
AcDbBlockEnd
  0
BLOCK
  5
49B3
330
49A7
100
AcDbEntity
  8
0
100
AcDbBlockBegin
  2
*D14
 70
     1
 10
0.0
 20
0.0
 30
0.0
  3
*D14
  1

  0
LINE
  5
49E3
330
49A7
100
AcDbEntity
  8
AM_REFDIM
100
AcDbLine
 10
452.2219748945067
 20
311.2220794927734
 30
0.0
 11
462.6406923616571
 21
311.2220794927734
 31
0.0
  0
LINE
  5
49E4
330
49A7
100
AcDbEntity
  8
AM_REFDIM
100
AcDbLine
 10
452.2219748945067
 20
302.1204312903872
 30
0.0
 11
462.6406923616571
 21
302.1204312903872
 31
0.0
  0
LINE
  5
49E5
330
49A7
100
AcDbEntity
  8
AM_REFDIM
100
AcDbLine
 10
462.0406923616571
 20
309.4220794927734
 30
0.0
 11
462.0406923616571
 21
303.9204312903872
 31
0.0
  0
SOLID
  5
49E6
330
49A7
100
AcDbEntity
  8
AM_REFDIM
100
AcDbTrace
 10
461.7406923616571
 20
309.4220794927734
 30
0.0
 11
462.3406923616571
 21
309.4220794927734
 31
0.0
 12
462.0406923616571
 22
311.2220794927734
 32
0.0
 13
462.0406923616571
 23
311.2220794927734
 33
0.0
  0
SOLID
  5
49E7
330
49A7
100
AcDbEntity
  8
AM_REFDIM
100
AcDbTrace
 10
461.7406923616571
 20
303.9204312903872
 30
0.0
 11
462.3406923616571
 21
303.9204312903872
 31
0.0
 12
462.0406923616571
 22
302.1204312903872
 32
0.0
 13
462.0406923616571
 23
302.1204312903872
 33
0.0
  0
MTEXT
  5
49E8
330
49A7
100
AcDbEntity
  8
AM_REFDIM
100
AcDbMText
 10
460.3906923616571
 20
306.6712553915804
 30
0.0
 40
2.1
 41
0.0
 71
     5
 72
     1
  1
%%c9.1
 11
0.0000000000000001
 21
1.0
 31
0.0
 73
     1
 44
1.0
1001
ACAD
1000
MTEXTBEGIN
1070
    73
1070
     1
1070
    44
1040
1.0
1070
    74
1070
     0
1000
MTEXTEND
  0
POINT
  5
49E9
330
49A7
100
AcDbEntity
  8
Defpoints
 62
     0
100
AcDbPoint
 10
451.6219748945067
 20
311.2220794927734
 30
0.0
  0
POINT
  5
49EA
330
49A7
100
AcDbEntity
  8
Defpoints
 62
     0
100
AcDbPoint
 10
451.6219748945067
 20
302.1204312903872
 30
0.0
  0
POINT
  5
49EB
330
49A7
100
AcDbEntity
  8
Defpoints
 62
     0
100
AcDbPoint
 10
462.0406923616571
 20
302.1204312903872
 30
0.0
  0
ENDBLK
  5
49B4
330
49A7
100
AcDbEntity
  8
0
100
AcDbBlockEnd
  0
ENDSEC
  0
SECTION
  2
ENTITIES
  0
TEXT
  5
179B
330
1F
100
AcDbEntity
  8
LOGO
 62
     7
100
AcDbText
 10
415.6192888117807
 20
248.2204623691517
 30
0.0
 40
1.343805393665158
  1
Order example:
 41
0.8
  7
CHINESET
100
AcDbText
  0
TEXT
  5
179C
330
1F
100
AcDbEntity
  8
LOGO
 62
     7
100
AcDbText
 10
415.8603786122228
 20
250.1122621249752
 30
0.0
 40
2.015708090497737
  1
訂購代號：
  7
CHINESET
100
AcDbText
  0
LINE
  5
179D
330
1F
100
AcDbEntity
  8
LOGO
 62
     4
100
AcDbLine
 10
415.0354008103074
 20
242.5571589878777
 30
0.0
 11
415.0354008103074
 21
252.6356994403664
 31
0.0
  0
TEXT
  5
179E
330
1F
100
AcDbEntity
  8
LOGO
  6
Continuous
100
AcDbText
 10
396.4828688492822
 20
244.5370730499254
 30
0.0
 40
1.511781067873303
  1
金器工業股份有限公司
  7
CHINESET
100
AcDbText
  0
TEXT
  5
179F
330
1F
100
AcDbEntity
  8
LOGO
  6
Continuous
100
AcDbText
 10
393.7060261187336
 20
243.024995791491
 30
0.0
 40
1.007854045248868
  1
MINDMAN INDUSTRIAL CO., LTD.
 41
0.85
  7
CHINESET
100
AcDbText
  0
LINE
  5
17A0
330
1F
100
AcDbEntity
  8
LOGO
 62
     4
100
AcDbLine
 10
415.0354008103074
 20
250.6199913498687
 30
0.0
 11
400.2535414799906
 21
250.6199913498687
 31
0.0
  0
LINE
  5
17A1
330
1F
100
AcDbEntity
  8
LOGO
 62
     4
100
AcDbLine
 10
415.0354008103074
 20
248.6042832593709
 30
0.0
 11
400.2535414799906
 21
248.6042832593709
 31
0.0
  0
LINE
  5
17A2
330
1F
100
AcDbEntity
  8
LOGO
 62
     4
100
AcDbLine
 10
415.0354008103074
 20
246.5885751688733
 30
0.0
 11
392.8626118148323
 21
246.5885751688733
 31
0.0
  0
LINE
  5
17A3
330
1F
100
AcDbEntity
  8
LOGO
 62
     4
100
AcDbLine
 10
400.2535414799906
 20
246.5885751688733
 30
0.0
 11
400.2535414799906
 21
252.6356994403664
 31
0.0
  0
TEXT
  5
17A4
330
1F
100
AcDbEntity
  8
LOGO
100
AcDbText
 10
410.356244639129
 20
247.0925021914976
 30
0.0
 40
1.007854045248868
  1
mm
  7
CHINESET
 72
     1
 11
411.6040639332466
 21
247.596429214122
 31
0.0
100
AcDbText
 73
     2
  0
TEXT
  5
17A5
330
1F
100
AcDbEntity
  8
LOGO
100
AcDbText
 10
409.8283210916176
 20
251.1239183724931
 30
0.0
 40
1.007854045248868
  1
1 : 1
  7
CHINESET
 72
     1
 11
411.6040639332466
 21
251.6278453951175
 31
0.0
100
AcDbText
 73
     2
  0
LINE
  5
17A6
330
1F
100
AcDbEntity
  8
LOGO
 62
     4
100
AcDbLine
 10
408.3163738419815
 20
246.5885751688733
 30
0.0
 11
408.3163738419815
 21
252.6356994403664
 31
0.0
  0
TEXT
  5
17A7
330
1F
100
AcDbEntity
  8
LOGO
100
AcDbText
 10
401.0845711324793
 20
251.1244143636571
 30
66.05309378306509
 40
1.007854045248868
  1
比例 Scale:
 41
0.9
  7
CHINESET
 72
     4
 11
404.284957660986
 21
251.6278453951175
 31
66.05309378306509
100
AcDbText
  0
TEXT
  5
17A8
330
1F
100
AcDbEntity
  8
LOGO
100
AcDbText
 10
401.0265295379092
 20
249.1223873627663
 30
66.05309378306509
 40
1.007854045248868
  1
投影  View:
 41
0.9
  7
CHINESET
 72
     4
 11
404.284957660986
 21
249.6121373046197
 31
66.05309378306509
100
AcDbText
  0
TEXT
  5
17A9
330
1F
100
AcDbEntity
  8
LOGO
100
AcDbText
 10
401.1250652682258
 20
247.0925021914976
 30
66.05309378306509
 40
1.007854045248868
  1
單位  Unit:
 41
0.9
  7
CHINESET
 72
     4
 11
404.284957660986
 21
247.596429214122
 31
66.05309378306509
100
AcDbText
  0
LWPOLYLINE
  5
17AA
330
1F
100
AcDbEntity
  8
LOGO
 62
     4
100
AcDbPolyline
 90
        4
 70
     1
 43
0.0
 10
392.8626118148323
 20
252.6356994403665
 10
465.171808555455
 20
252.6356994403664
 10
465.171808555455
 20
343.3571589878775
 10
392.8626118148323
 20
343.3571589878775
1001
GENIUS_GENREC_14
1002
{
1000
PYDIR
1011
392.8626118148323
1021
343.3571589878775
1031
0.0
1002
}
1002
{
1000
PXDIR
1011
465.171808555455
1021
252.6356994403664
1031
0.0
1002
}
1002
{
1000
PORI
1011
392.8626118148323
1021
252.6356994403665
1031
0.0
1002
}
1002
{
1000
PINS
1011
392.8626118148323
1021
252.6356994403665
1031
0.0
1002
}
1002
{
1000
PINS2
1011
465.171808555455
1021
343.3571589878775
1031
0.0
1002
}
1002
{
1000
C
1070
     1
1002
}
1001
GENIUS_GENODEF_13
1002
{
1000
HIER
1070
     0
1002
}
1002
{
1000
MANEDIT
1070
     0
1002
}
1002
{
1000
NOSEL
1070
     0
1002
}
1002
{
1000
BEHIND
1070
     0
1002
}
1002
{
1000
OTHER
1070
     0
1002
}
1002
{
1000
REACTOR
1002
}
1001
GENIUS_GENOBJ-N-REC_13
1002
{
1000
OWNER
1000
GEN
1002
}
  0
SOLID
  5
17AB
330
1F
100
AcDbEntity
  8
LOGO
 62
     5
100
AcDbTrace
 10
393.9082765616051
 20
248.2639890623727
 30
0.0
 11
394.3440462046805
 21
248.2639890623726
 31
0.0
 12
396.1622574740643
 22
252.3962874018815
 32
0.0
 13
396.59802711714
 23
252.3962874018812
 33
0.0
  0
SOLID
  5
17AC
330
1F
100
AcDbEntity
  8
LOGO
 62
     5
100
AcDbTrace
 10
394.5243646776777
 20
248.2639890623727
 30
0.0
 11
394.9601343207532
 21
248.2639890623727
 31
0.0
 12
396.59802711714
 22
252.0657035347206
 32
0.0
 13
396.1622574740643
 23
250.4678815101105
 33
0.0
  0
SOLID
  5
17AD
330
1F
100
AcDbEntity
  8
LOGO
 62
     2
100
AcDbTrace
 10
394.3440462046805
 20
248.2639890623726
 30
0.0
 11
394.5243646776777
 21
248.2639890623727
 31
0.0
 12
396.59802711714
 22
252.3962874018812
 32
0.0
 13
396.7783455901369
 23
252.3962874018812
 33
0.0
  0
SOLID
  5
17AE
330
1F
100
AcDbEntity
  8
LOGO
 62
     5
100
AcDbTrace
 10
393.2096309599485
 20
246.7613351207333
 30
0.0
 11
393.3598963541127
 21
246.7613351207333
 31
0.0
 12
393.7830553998019
 22
247.5126620915529
 32
0.0
 13
393.9333207939656
 23
247.5126620915529
 33
0.0
  0
SOLID
  5
17AF
330
1F
100
AcDbEntity
  8
LOGO
 62
     5
100
AcDbTrace
 10
393.7830553998019
 20
247.5126620915529
 30
0.0
 11
393.9333207939656
 21
247.5126620915529
 31
0.0
 12
393.7830553998019
 22
246.7613351207333
 32
0.0
 13
393.9333207939656
 23
246.7613351207333
 33
0.0
  0
SOLID
  5
17B0
330
1F
100
AcDbEntity
  8
LOGO
 62
     5
100
AcDbTrace
 10
393.7830553998019
 20
246.7613351207333
 30
0.0
 11
393.9333207939656
 21
246.7613351207333
 31
0.0
 12
394.3564798396555
 22
247.5126620915529
 32
0.0
 13
394.5067452338195
 23
247.5126620915529
 33
0.0
  0
SOLID
  5
17B1
330
1F
100
AcDbEntity
  8
LOGO
 62
     5
100
AcDbTrace
 10
394.3564798396555
 20
247.5126620915529
 30
0.0
 11
394.5067452338195
 21
247.5126620915529
 31
0.0
 12
394.3564798396555
 22
246.7613351207333
 32
0.0
 13
394.5067452338195
 23
246.7613351207333
 33
0.0
  0
POLYLINE
  5
17B2
330
1F
100
AcDbEntity
  8
LOGO
 62
     5
100
AcDb2dPolyline
 66
     1
 10
0.0
 20
0.0
 30
0.0
 40
0.1505062040904977
 41
0.1505062040904977
  0
VERTEX
  5
17B3
330
17B2
100
AcDbEntity
  8
LOGO
 62
     5
100
AcDbVertex
100
AcDb2dVertex
 10
399.3933246634795
 20
247.212131303225
 30
0.0
 42
1.0
  0
VERTEX
  5
17B4
330
17B2
100
AcDbEntity
  8
LOGO
 62
     5
100
AcDbVertex
100
AcDb2dVertex
 10
398.9418060512079
 20
247.212131303225
 30
0.0
 42
1.0
  0
SEQEND
  5
17B5
330
17B2
100
AcDbEntity
  8
LOGO
 62
     5
  0
POLYLINE
  5
17B6
330
1F
100
AcDbEntity
  8
LOGO
 62
     5
100
AcDb2dPolyline
 66
     1
 10
0.0
 20
0.0
 30
0.0
 70
     1
  0
VERTEX
  5
17B7
330
17B6
100
AcDbEntity
  8
LOGO
 62
     5
100
AcDbVertex
100
AcDb2dVertex
 10
398.0906733835281
 20
247.136998606143
 30
0.0
 42
1.000000057330635
  0
VERTEX
  5
17B8
330
17B6
100
AcDbEntity
  8
LOGO
 62
     5
100
AcDbVertex
100
AcDb2dVertex
 10
398.54146956602
 20
247.136998606143
 30
0.0
 42
1.000000057330635
  0
SEQEND
  5
17B9
330
17B6
100
AcDbEntity
  8
LOGO
 62
     5
  0
CIRCLE
  5
17BA
330
1F
100
AcDbEntity
  8
LOGO
 62
     5
100
AcDbCircle
 10
398.3160714747743
 20
247.136998606143
 30
0.0
 40
0.2253980912459294
  0
POLYLINE
  5
17BB
330
1F
100
AcDbEntity
  8
LOGO
 62
     5
100
AcDb2dPolyline
 66
     1
 10
0.0
 20
0.0
 30
0.0
 70
     1
 40
0.1505062040904977
 41
0.1505062040904977
  0
VERTEX
  5
17BC
330
17BB
100
AcDbEntity
  8
LOGO
 62
     5
100
AcDbVertex
100
AcDb2dVertex
 10
398.0150590665931
 20
247.136998606143
 30
0.0
 42
1.0
  0
VERTEX
  5
17BD
330
17BB
100
AcDbEntity
  8
LOGO
 62
     5
100
AcDbVertex
100
AcDb2dVertex
 10
398.6170838829551
 20
247.136998606143
 30
0.0
 42
1.0
  0
SEQEND
  5
17BE
330
17BB
100
AcDbEntity
  8
LOGO
 62
     5
  0
LINE
  5
17BF
330
1F
100
AcDbEntity
  8
LOGO
100
AcDbLine
 10
399.4680961456714
 20
246.7613351207333
 30
0.0
 11
399.4680961456714
 21
247.212131303225
 31
0.0
  0
SOLID
  5
17C0
330
1F
100
AcDbEntity
  8
LOGO
 62
     5
100
AcDbTrace
 10
398.5414545394812
 20
247.5126620915529
 30
0.0
 11
398.6917199336448
 21
247.5126620915529
 31
0.0
 12
398.5414545394812
 22
246.7613351207333
 32
0.0
 13
398.6917199336448
 23
246.7613351207333
 33
0.0
  0
SOLID
  5
17C1
330
1F
100
AcDbEntity
  8
LOGO
 62
     5
100
AcDbTrace
 10
398.8670345690156
 20
246.7613351207333
 30
0.0
 11
399.0172999631797
 21
246.7613351207333
 31
0.0
 12
398.8670345690156
 22
247.5126620915529
 32
0.0
 13
399.0172999631797
 23
247.5126620915529
 33
0.0
  0
SOLID
  5
17C2
330
1F
100
AcDbEntity
  8
LOGO
 62
     5
100
AcDbTrace
 10
399.3178307515078
 20
247.212131303225
 30
0.0
 11
399.4680961456714
 21
247.212131303225
 31
0.0
 12
399.3178307515078
 22
246.7613351207333
 32
0.0
 13
399.4680961456714
 23
246.7613351207333
 33
0.0
  0
SOLID
  5
17C3
330
1F
100
AcDbEntity
  8
LOGO
 62
     5
100
AcDbTrace
 10
398.8520080295992
 20
252.0657035347206
 30
0.0
 11
398.416238386524
 21
250.4678815101105
 31
0.0
 12
398.8520080295992
 22
248.2639890623726
 32
0.0
 13
398.416238386524
 23
248.2639890623726
 33
0.0
  0
SOLID
  5
17C4
330
1F
100
AcDbEntity
  8
LOGO
 62
     5
100
AcDbTrace
 10
399.0323265025962
 20
248.2639890623726
 30
0.0
 11
399.4680961456714
 21
248.2639890623726
 31
0.0
 12
399.0323265025962
 22
252.3962874018812
 32
0.0
 13
399.4680961456714
 23
252.3962874018815
 33
0.0
  0
SOLID
  5
17C5
330
1F
100
AcDbEntity
  8
LOGO
 62
     2
100
AcDbTrace
 10
398.8520080295992
 20
252.3962874018815
 30
0.0
 11
399.0323265025962
 21
252.3962874018812
 31
0.0
 12
398.8520080295992
 22
248.2639890623726
 32
0.0
 13
399.0323265025962
 23
248.2639890623726
 33
0.0
  0
POLYLINE
  5
17C6
330
1F
100
AcDbEntity
  8
LOGO
 62
     5
100
AcDb2dPolyline
 66
     1
 10
0.0
 20
0.0
 30
0.0
 40
0.1505062040904977
 41
0.1505062040904977
  0
VERTEX
  5
17C7
330
17C6
100
AcDbEntity
  8
LOGO
 62
     5
100
AcDbVertex
100
AcDb2dVertex
 10
397.2395106627699
 20
247.212131303225
 30
0.0
 42
1.0
  0
VERTEX
  5
17C8
330
17C6
100
AcDbEntity
  8
LOGO
 62
     5
100
AcDbVertex
100
AcDb2dVertex
 10
396.7879920504984
 20
247.212131303225
 30
0.0
 42
1.0
  0
SEQEND
  5
17C9
330
17C6
100
AcDbEntity
  8
LOGO
 62
     5
  0
POLYLINE
  5
17CA
330
1F
100
AcDbEntity
  8
LOGO
 62
     5
100
AcDb2dPolyline
 66
     1
 10
0.0
 20
0.0
 30
0.0
 40
0.1505062040904977
 41
0.1505062040904977
  0
VERTEX
  5
17CB
330
17CA
100
AcDbEntity
  8
LOGO
 62
     5
100
AcDbVertex
100
AcDb2dVertex
 10
397.6903068452614
 20
247.212131303225
 30
0.0
 42
1.0
  0
VERTEX
  5
17CC
330
17CA
100
AcDbEntity
  8
LOGO
 62
     5
100
AcDbVertex
100
AcDb2dVertex
 10
397.2387882329901
 20
247.212131303225
 30
0.0
 42
1.0
  0
SEQEND
  5
17CD
330
17CA
100
AcDbEntity
  8
LOGO
 62
     5
  0
POLYLINE
  5
17CE
330
1F
100
AcDbEntity
  8
LOGO
 62
     5
100
AcDb2dPolyline
 66
     1
 10
0.0
 20
0.0
 30
0.0
 40
0.1505062040904977
 41
0.1505062040904977
  0
VERTEX
  5
17CF
330
17CE
100
AcDbEntity
  8
LOGO
 62
     5
100
AcDbVertex
100
AcDb2dVertex
 10
395.5364928445519
 20
247.212131303225
 30
0.0
 42
1.0
  0
VERTEX
  5
17D0
330
17CE
100
AcDbEntity
  8
LOGO
 62
     5
100
AcDbVertex
100
AcDb2dVertex
 10
395.0849742322804
 20
247.212131303225
 30
0.0
 42
1.0
  0
SEQEND
  5
17D1
330
17CE
100
AcDbEntity
  8
LOGO
 62
     5
  0
SOLID
  5
17D2
330
1F
100
AcDbEntity
  8
LOGO
 62
     5
100
AcDbTrace
 10
395.0102027500884
 20
247.5126620915529
 30
0.0
 11
395.160468144252
 21
247.5126620915529
 31
0.0
 12
395.0102027500884
 22
246.7613351207333
 32
0.0
 13
395.160468144252
 23
246.7613351207333
 33
0.0
  0
SOLID
  5
17D3
330
1F
100
AcDbEntity
  8
LOGO
 62
     5
100
AcDbTrace
 10
395.4609989325803
 20
247.212131303225
 30
0.0
 11
395.6112643267444
 21
247.212131303225
 31
0.0
 12
395.4609989325803
 22
246.7613351207333
 32
0.0
 13
395.6112643267444
 23
246.7613351207333
 33
0.0
  0
POLYLINE
  5
17D4
330
1F
100
AcDbEntity
  8
LOGO
 62
     5
100
AcDb2dPolyline
 66
     1
 10
0.0
 20
0.0
 30
0.0
 70
     1
 40
0.1505062040904977
 41
0.1505062040904977
  0
VERTEX
  5
17D5
330
17D4
100
AcDbEntity
  8
LOGO
 62
     5
100
AcDbVertex
100
AcDb2dVertex
 10
395.8612450658833
 20
247.136998606143
 30
0.0
 42
1.0
  0
VERTEX
  5
17D6
330
17D4
100
AcDbEntity
  8
LOGO
 62
     5
100
AcDbVertex
100
AcDb2dVertex
 10
396.4632698822455
 20
247.136998606143
 30
0.0
 42
1.0
  0
SEQEND
  5
17D7
330
17D4
100
AcDbEntity
  8
LOGO
 62
     5
  0
SOLID
  5
17D8
330
1F
100
AcDbEntity
  8
LOGO
 62
     5
100
AcDbTrace
 10
396.3876405387712
 20
247.738060182799
 30
0.0
 11
396.5379059329351
 21
247.738060182799
 31
0.0
 12
396.3876405387712
 22
246.7613351207333
 32
0.0
 13
396.5379059329351
 23
246.7613351207333
 33
0.0
  0
SOLID
  5
17D9
330
1F
100
AcDbEntity
  8
LOGO
 62
     5
100
AcDbTrace
 10
396.7132205683066
 20
247.5126620915529
 30
0.0
 11
396.8634859624702
 21
247.5126620915529
 31
0.0
 12
396.7132205683066
 22
246.7613351207333
 32
0.0
 13
396.8634859624702
 23
246.7613351207333
 33
0.0
  0
SOLID
  5
17DA
330
1F
100
AcDbEntity
  8
LOGO
 62
     5
100
AcDbTrace
 10
397.1640167507979
 20
247.212131303225
 30
0.0
 11
397.314282144962
 21
247.212131303225
 31
0.0
 12
397.1640167507979
 22
246.7613351207333
 32
0.0
 13
397.314282144962
 23
246.7613351207333
 33
0.0
  0
SOLID
  5
17DB
330
1F
100
AcDbEntity
  8
LOGO
 62
     5
100
AcDbTrace
 10
397.6148129332898
 20
247.212131303225
 30
0.0
 11
397.7650783274537
 21
247.212131303225
 31
0.0
 12
397.6148129332898
 22
246.761335120733
 32
0.0
 13
397.7650783274537
 23
246.761335120733
 33
0.0
  0
SOLID
  5
17DC
330
1F
100
AcDbEntity
  8
LOGO
 62
     5
100
AcDbTrace
 10
394.6846227205532
 20
247.6178478674677
 30
0.0
 11
394.8348881147176
 21
247.6178478674677
 31
0.0
 12
394.6846227205532
 22
247.738060182799
 32
0.0
 13
394.8348881147176
 23
247.738060182799
 33
0.0
  0
SOLID
  5
17DD
330
1F
100
AcDbEntity
  8
LOGO
 62
     5
100
AcDbTrace
 10
394.6846227205532
 20
247.5126620915529
 30
0.0
 11
394.8348881147176
 21
247.5126620915529
 31
0.0
 12
394.6846227205532
 22
246.761335120733
 32
0.0
 13
394.8348881147176
 23
246.7613351207333
 33
0.0
  0
SOLID
  5
17DE
330
1F
100
AcDbEntity
  8
LOGO
 62
     5
100
AcDbTrace
 10
396.1622574740643
 20
248.2639890623727
 30
0.0
 11
396.59802711714
 21
248.2639890623727
 31
0.0
 12
396.1622574740643
 22
250.4678815101105
 32
0.0
 13
396.59802711714
 23
252.0657035347206
 33
0.0
  0
SOLID
  5
17DF
330
1F
100
AcDbEntity
  8
LOGO
 62
     5
100
AcDbTrace
 10
396.7783455901369
 20
252.3962874018812
 30
0.0
 11
397.2141152332122
 21
252.3962874018815
 31
0.0
 12
396.7783455901369
 22
248.5945729295333
 32
0.0
 13
397.2141152332122
 23
250.1923949541434
 33
0.0
  0
SOLID
  5
17E0
330
1F
100
AcDbEntity
  8
LOGO
 62
     2
100
AcDbTrace
 10
396.59802711714
 20
252.3962874018812
 30
0.0
 11
396.7783455901369
 21
252.3962874018812
 31
0.0
 12
396.59802711714
 22
248.2639890623727
 32
0.0
 13
396.7783455901369
 23
248.2639890623727
 33
0.0
  0
SOLID
  5
17E1
330
1F
100
AcDbEntity
  8
LOGO
 62
     5
100
AcDbTrace
 10
396.7783455901369
 20
248.5945729295333
 30
0.0
 11
397.2141152332122
 21
250.1923949541434
 31
0.0
 12
398.8520080295992
 22
252.3962874018815
 32
0.0
 13
398.416238386524
 23
252.3962874018815
 33
0.0
  0
SOLID
  5
17E2
330
1F
100
AcDbEntity
  8
LOGO
 62
     5
100
AcDbTrace
 10
396.7783455901369
 20
248.2639890623727
 30
0.0
 11
397.2141152332122
 21
248.2639890623727
 31
0.0
 12
398.8520080295992
 22
252.0657035347206
 32
0.0
 13
398.416238386524
 23
250.4678815101105
 33
0.0
  0
SOLID
  5
17E3
330
1F
100
AcDbEntity
  8
LOGO
 62
     2
100
AcDbTrace
 10
396.59802711714
 20
248.2639890623727
 30
0.0
 11
396.7783455901369
 21
248.2639890623727
 31
0.0
 12
398.8520080295992
 22
252.3962874018815
 32
0.0
 13
399.0323265025962
 23
252.3962874018812
 33
0.0
  0
LWPOLYLINE
  5
17E4
330
1F
100
AcDbEntity
  8
LOGO
 62
     4
100
AcDbPolyline
 90
        4
 70
     1
 43
0.0
 10
392.8626118148323
 20
252.6356994403665
 10
465.171808555455
 20
252.6356994403664
 10
465.171808555455
 20
242.5571589878776
 10
392.8626118148323
 20
242.5571589878776
1001
GENIUS_GENREC_14
1002
{
1000
PYDIR
1011
392.8626118148323
1021
242.5571589878776
1031
0.0
1002
}
1002
{
1000
PXDIR
1011
465.171808555455
1021
252.6356994403664
1031
0.0
1002
}
1002
{
1000
PORI
1011
392.8626118148323
1021
252.6356994403665
1031
0.0
1002
}
1002
{
1000
PINS
1011
392.8626118148323
1021
252.6356994403665
1031
0.0
1002
}
1002
{
1000
PINS2
1011
465.171808555455
1021
242.5571589878776
1031
0.0
1002
}
1002
{
1000
C
1070
     1
1002
}
1001
GENIUS_GENOBJ-N-REC_13
1002
{
1000
OWNER
1000
GEN
1002
}
1001
GENIUS_GENODEF_13
1002
{
1000
HIER
1070
     0
1002
}
1002
{
1000
MANEDIT
1070
     0
1002
}
1002
{
1000
NOSEL
1070
     0
1002
}
1002
{
1000
BEHIND
1070
     0
1002
}
1002
{
1000
OTHER
1070
     0
1002
}
1002
{
1000
REACTOR
1002
}
  0
LINE
  5
17E5
330
1F
100
AcDbEntity
  8
LOGO
 62
     4
100
AcDbLine
 10
437.4436265052698
 20
247.0925021914978
 30
0.0
 11
437.4436265052698
 21
243.3970373589183
 31
0.0
  0
LINE
  5
17E6
330
1F
100
AcDbEntity
  8
LOGO
 62
     4
100
AcDbLine
 10
430.724599536944
 20
247.0925021914978
 30
0.0
 11
430.724599536944
 21
243.3970373589183
 31
0.0
  0
LINE
  5
17E7
330
1F
100
AcDbEntity
  8
LOGO
 62
     4
100
AcDbLine
 10
437.4436265052698
 20
243.3970373589183
 30
0.0
 11
430.724599536944
 21
243.3970373589183
 31
0.0
  0
LINE
  5
17E8
330
1F
100
AcDbEntity
  8
LOGO
 62
     4
100
AcDbLine
 10
440.016818105329
 20
251.6278453951175
 30
0.0
 11
428.8979858943727
 21
251.6278453951175
 31
0.0
  0
LINE
  5
17E9
330
1F
100
AcDbEntity
  8
LOGO
 62
     4
100
AcDbLine
 10
440.016818105329
 20
248.6042832593709
 30
0.0
 11
428.8979858943727
 21
248.6042832593709
 31
0.0
  0
LINE
  5
17EA
330
1F
100
AcDbEntity
  8
LOGO
 62
     4
100
AcDbLine
 10
428.8979858943727
 20
251.6278453951175
 30
0.0
 11
428.8979858943727
 21
248.6042832593709
 31
0.0
  0
LINE
  5
17EB
330
1F
100
AcDbEntity
  8
LOGO
 62
     4
100
AcDbLine
 10
440.016818105329
 20
251.6278453951175
 30
0.0
 11
440.016818105329
 21
248.6042832593709
 31
0.0
  0
LINE
  5
17EC
330
1F
100
AcDbEntity
  8
LOGO
 62
     4
100
AcDbLine
 10
434.434677467738
 20
248.6042832593709
 30
0.0
 11
434.434677467738
 21
247.0925021914978
 31
0.0
  0
TEXT
  5
17ED
330
1F
100
AcDbEntity
  8
LOGO
  6
Continuous
100
AcDbText
 10
431.5385358152562
 20
249.2354474347606
 30
0.0
 40
1.679999999999999
  1
PHS-6
100
AcDbText
  0
LINE
  5
17EE
330
1F
100
AcDbEntity
  8
LOGO
 62
     4
100
AcDbLine
 10
437.4436265052698
 20
247.0925021914978
 30
0.0
 11
430.724599536944
 21
247.0925021914978
 31
0.0
  0
TEXT
  5
17EF
330
1F
100
AcDbEntity
  8
LOGO
  6
Continuous
100
AcDbText
 10
432.8807140189641
 20
243.9186443836217
 30
66.05309378306509
 40
0.7560000000000001
  1
Model
 41
0.8
  7
CHINESET
100
AcDbText
  0
TEXT
  5
17F0
330
1F
100
AcDbEntity
  8
LOGO
100
AcDbText
 10
432.6794913950124
 20
245.3201054539931
 30
66.05309378306509
 40
1.26
  1
型號
  7
CHINESET
100
AcDbText
  0
TEXT
  5
1824
330
1F
100
AcDbEntity
  8
LOGO
100
AcDbText
 10
415.4351747482912
 20
243.093333362014
 30
0.0
 40
1.008
  1
01205030
 41
0.7
  7
CHINESET
 72
     1
 11
417.9551747482912
 21
243.093333362014
 31
0.0
100
AcDbText
  0
LINE
  5
1825
330
1F
100
AcDbEntity
  8
LOGO
 62
     4
100
AcDbLine
 10
421.0834008103069
 20
244.5728670783756
 30
0.0
 11
421.0834008103074
 21
242.5571589878778
 31
0.0
  0
LINE
  5
1826
330
1F
100
AcDbEntity
  8
LOGO
 62
     4
100
AcDbLine
 10
421.0834008103069
 20
244.5728670783756
 30
0.0
 11
415.0354008103074
 21
244.5728670783756
 31
0.0
  0
CIRCLE
  5
1827
330
1F
100
AcDbEntity
  8
LOGO
  6
Continuous
100
AcDbCircle
 10
410.1825416671511
 20
249.6142931117979
 30
0.0
 40
0.5851837808815982
  0
CIRCLE
  5
1828
330
1F
100
AcDbEntity
  8
LOGO
  6
Continuous
100
AcDbCircle
 10
410.1825416671511
 20
249.6142931117979
 30
0.0
 40
0.342865892207461
  0
LINE
  5
1829
330
1F
100
AcDbEntity
  8
LOGO
100
AcDbLine
 10
413.8599044480654
 20
249.0291093309162
 30
0.0
 11
413.8599044480654
 21
250.1994768926796
 31
0.0
  0
LINE
  5
182A
330
1F
100
AcDbEntity
  8
LOGO
100
AcDbLine
 10
412.0253868861535
 20
249.2714272195905
 30
0.0
 11
412.0253868861535
 21
249.9571590040054
 31
0.0
  0
LINE
  5
182B
330
1F
100
AcDbEntity
  8
LOGO
  6
Continuous
100
AcDbLine
 10
412.0253868861535
 20
249.9571590040054
 30
0.0
 11
413.8599044480654
 21
250.1994768926796
 31
0.0
  0
LINE
  5
182C
330
1F
100
AcDbEntity
  8
LOGO
  6
Continuous
100
AcDbLine
 10
412.0253868861535
 20
249.2714272195905
 30
0.0
 11
413.8599044480654
 21
249.0291093309162
 31
0.0
  0
LINE
  5
182D
330
1F
100
AcDbEntity
  8
LOGO
  6
AM_ISO08W050x2
 48
0.3
100
AcDbLine
 10
409.3758570627686
 20
249.6142931117979
 30
0.0
 11
410.9892262715335
 21
249.6142931117979
 31
0.0
1001
GENIUS_GENOREF_13
1005
1832
  0
LINE
  5
182E
330
1F
100
AcDbEntity
  8
LOGO
  6
AM_ISO08W050x2
 48
0.3
100
AcDbLine
 10
410.1825416671511
 20
248.8076085074155
 30
0.0
 11
410.1825416671511
 21
250.4209777161803
 31
0.0
1001
GENIUS_GENOREF_13
1005
1831
  0
LINE
  5
182F
330
1F
100
AcDbEntity
  8
LOGO
  6
CENTER
 48
0.5
100
AcDbLine
 10
411.8786764713776
 20
249.6142931117979
 30
0.0
 11
414.0446344279104
 21
249.6142931117979
 31
0.0
1001
GENIUS_GENOREF_13
1005
1830
  0
POINT
  5
1830
330
1F
100
AcDbEntity
  8
0
 60
     1
100
AcDbPoint
 10
-1582.868394589036
 20
-798.6687030228181
 30
0.0
1001
GENIUS_GENOBJ-N-CRS_13
1002
{
1000
OWNER
1000
GEN
1002
}
1001
GENIUS_GENOLIS_13
1002
{
1000
ENT
1005
0
1005
0
1005
0
1005
182F
1002
}
1001
GENIUS_GENOENT_13
1002
{
1000
MYREF
1005
1830
1002
}
1002
{
1000
GRP
1005
0
1002
}
1001
GENIUS_GENODEF_13
1002
{
1000
HIER
1070
    10
1002
}
1002
{
1000
MANEDIT
1070
     1
1002
}
1002
{
1000
NOSEL
1070
     0
1002
}
1002
{
1000
BEHIND
1070
     0
1002
}
1002
{
1000
OTHER
1070
     0
1002
}
1002
{
1000
REACTOR
1002
}
  0
POINT
  5
1831
330
1F
100
AcDbEntity
  8
0
 60
     1
100
AcDbPoint
 10
-1594.19297981189
 20
-789.7931165441819
 30
0.0
1001
GENIUS_GENOBJ-N-CRS_13
1002
{
1000
OWNER
1000
GEN
1002
}
1001
GENIUS_GENOLIS_13
1002
{
1000
ENT
1005
0
1005
0
1005
0
1005
182E
1002
}
1001
GENIUS_GENOENT_13
1002
{
1000
MYREF
1005
1831
1002
}
1002
{
1000
GRP
1005
0
1002
}
1001
GENIUS_GENODEF_13
1002
{
1000
HIER
1070
    10
1002
}
1002
{
1000
MANEDIT
1070
     1
1002
}
1002
{
1000
NOSEL
1070
     0
1002
}
1002
{
1000
BEHIND
1070
     0
1002
}
1002
{
1000
OTHER
1070
     0
1002
}
1002
{
1000
REACTOR
1002
}
  0
POINT
  5
1832
330
1F
100
AcDbEntity
  8
0
 60
     1
100
AcDbPoint
 10
-1587.834306114053
 20
-798.6687030228181
 30
0.0
1001
GENIUS_GENOBJ-N-CRS_13
1002
{
1000
OWNER
1000
GEN
1002
}
1001
GENIUS_GENOLIS_13
1002
{
1000
ENT
1005
0
1005
0
1005
0
1005
182D
1002
}
1001
GENIUS_GENOENT_13
1002
{
1000
MYREF
1005
1832
1002
}
1002
{
1000
GRP
1005
0
1002
}
1001
GENIUS_GENODEF_13
1002
{
1000
HIER
1070
    10
1002
}
1002
{
1000
MANEDIT
1070
     1
1002
}
1002
{
1000
NOSEL
1070
     0
1002
}
1002
{
1000
BEHIND
1070
     0
1002
}
1002
{
1000
OTHER
1070
     0
1002
}
1002
{
1000
REACTOR
1002
}
  0
SPLINE
  5
4195
330
1F
100
AcDbEntity
  8
0
  6
Continuous
 62
     7
370
    15
100
AcDbSpline
210
0.0
220
0.0
230
1.0
 70
    24
 71
     1
 72
     4
 73
     2
 74
     0
 42
0.0000000001
 43
0.0000000001
 40
0.0
 40
0.0
 40
1.0
 40
1.0
 10
401.8201949591172
 20
280.6712553915804
 30
0.0
 10
401.8201949591172
 20
277.6712553915805
 30
0.0
  0
SPLINE
  5
4196
330
1F
100
AcDbEntity
  8
0
  6
Continuous
 62
     7
370
    15
100
AcDbSpline
210
0.0
220
0.0
230
1.0
 70
    24
 71
     1
 72
     4
 73
     2
 74
     0
 42
0.0000000001
 43
0.0000000001
 40
0.0
 40
0.0
 40
1.0
 40
1.0
 10
414.8201949591172
 20
277.6712553915805
 30
0.0
 10
414.8201949591172
 20
280.6712553915804
 30
0.0
  0
ARC
  5
4197
330
1F
100
AcDbEntity
  8
0
  6
Continuous
 62
     7
370
    15
100
AcDbCircle
 10
413.8201949591172
 20
277.6712553915805
 30
0.0
 40
1.000000000000028
100
AcDbArc
 50
270.0
 51
0.0
  0
ARC
  5
4198
330
1F
100
AcDbEntity
  8
0
  6
Continuous
 62
     7
370
    15
100
AcDbCircle
 10
413.8201949591172
 20
280.6712553915804
 30
0.0
 40
1.000000000000029
100
AcDbArc
 50
0.0
 51
60.00297431540033
  0
ARC
  5
4199
330
1F
100
AcDbEntity
  8
0
  6
Continuous
 62
     7
370
    15
100
AcDbCircle
 10
402.8201949591172
 20
280.6712553915804
 30
0.0
 40
1.000000000000028
100
AcDbArc
 50
119.9989234825424
 51
180.0
  0
ARC
  5
419A
102
{ACAD_REACTORS
330
42E8
102
}
330
1F
100
AcDbEntity
  8
0
  6
Continuous
 62
     7
370
    15
100
AcDbCircle
 10
402.8201949591172
 20
277.6712553915805
 30
0.0
 40
1.000000000000028
100
AcDbArc
 50
180.0
 51
270.0
  0
LINE
  5
41A2
330
1F
100
AcDbEntity
  8
0
  6
Continuous
 62
     7
370
    15
100
AcDbLine
 10
411.0874386082237
 20
276.6712553915804
 30
0.0
 11
405.5529513100108
 21
276.6712553915804
 31
0.0
  0
LINE
  5
41A4
102
{ACAD_REACTORS
330
4272
330
4298
330
438E
102
}
330
1F
100
AcDbEntity
  8
0
  6
Continuous
 62
     7
370
    15
100
AcDbLine
 10
413.8201949591172
 20
276.6712553915804
 30
0.0
 11
411.0874386082237
 21
276.6712553915804
 31
0.0
  0
LINE
  5
41A7
330
1F
100
AcDbEntity
  8
0
  6
Continuous
 62
     7
370
    15
100
AcDbLine
 10
405.5529513100108
 20
276.6712553915804
 30
0.0
 11
402.8201949591172
 21
276.6712553915804
 31
0.0
  0
CIRCLE
  5
41A8
330
1F
100
AcDbEntity
  8
0
  6
Continuous
 62
     7
370
    15
100
AcDbCircle
 10
408.3201949591171
 20
306.6712553915804
 30
0.0
 40
3.272613634390694
  0
CIRCLE
  5
41A9
330
1F
100
AcDbEntity
  8
0
  6
Continuous
 62
     7
370
    15
100
AcDbCircle
 10
408.3201949591171
 20
306.6712553915804
 30
0.0
 40
3.0
  0
CIRCLE
  5
41AA
330
1F
100
AcDbEntity
  8
0
  6
Continuous
 62
     7
370
    15
100
AcDbCircle
 10
408.3201949591171
 20
306.6712553915804
 30
0.0
 40
5.358171329847522
  0
ARC
  5
41AD
330
1F
100
AcDbEntity
  8
0
  6
Continuous
 62
     7
370
    15
100
AcDbCircle
 10
401.3201949591172
 20
283.2693316029338
 30
0.0
 40
2.00000000000003
100
AcDbArc
 50
300.0000000000005
 51
0.0
  0
ARC
  5
41B0
102
{ACAD_REACTORS
330
438E
102
}
330
1F
100
AcDbEntity
  8
0
  6
Continuous
 62
     7
370
    15
100
AcDbCircle
 10
415.3201949591172
 20
283.2693316029338
 30
0.0
 40
2.000000000000016
100
AcDbArc
 50
180.0
 51
239.9999999999995
  0
ARC
  5
41B3
330
1F
100
AcDbEntity
  8
0
  6
Continuous
 62
     7
370
    15
100
AcDbCircle
 10
408.1564377966516
 20
303.7312897505761
 30
0.0
 40
5.752787117911851
100
AcDbArc
 50
271.6311853121354
 51
315.791774167185
  0
ARC
  5
41B4
330
1F
100
AcDbEntity
  8
0
  6
Continuous
 62
     7
370
    15
100
AcDbCircle
 10
408.4839465570311
 20
303.731277081071
 30
0.0
 40
5.752774295144202
100
AcDbArc
 50
224.2081740260528
 51
268.3688664946306
  0
LINE
  5
41B5
330
1F
100
AcDbEntity
  8
0
  6
Continuous
 62
     7
370
    15
100
AcDbLine
 10
413.3201949591172
 20
297.7269834815814
 30
0.0
 11
413.3201949591172
 21
283.2693316029338
 31
0.0
  0
LINE
  5
41B6
330
1F
100
AcDbEntity
  8
0
  6
Continuous
 62
     7
370
    15
100
AcDbLine
 10
403.3201949591171
 20
283.2693316029338
 30
0.0
 11
403.3201949591171
 21
297.7269834815814
 31
0.0
  0
LINE
  5
41B7
330
1F
100
AcDbEntity
  8
0
  6
Continuous
 62
     7
370
    15
100
AcDbLine
 10
412.2800960631606
 20
299.7200552616607
 30
0.0
 11
404.3602938550741
 21
299.7200552616605
 31
0.0
  0
ARC
  5
41B8
102
{ACAD_REACTORS
330
424C
102
}
330
1F
100
AcDbEntity
  8
0
  6
Continuous
 62
     7
370
    15
100
AcDbCircle
 10
408.3201949591171
 20
306.6712553915804
 30
0.0
 40
9.0
100
AcDbArc
 50
309.2924211286334
 51
230.7075788713665
  0
ARC
  5
41B9
330
1F
100
AcDbEntity
  8
0
  6
Continuous
 62
     7
370
    15
100
AcDbCircle
 10
408.3201949591171
 20
306.6712553915804
 30
0.0
 40
8.000000000000012
100
AcDbArc
 50
299.6689351768845
 51
240.3310648231155
  0
CIRCLE
  5
41BA
330
1F
100
AcDbEntity
  8
0
  6
Continuous
 62
     7
370
    15
100
AcDbCircle
 10
408.3201949591171
 20
306.6712553915804
 30
0.0
 40
6.158171329847533
  0
ARC
  5
41BB
330
1F
100
AcDbEntity
  8
0
  6
Continuous
 62
     7
370
    15
100
AcDbCircle
 10
399.9837435597445
 20
297.6607458343995
 30
0.0
 40
3.337108833448524
100
AcDbArc
 50
1.137327866862575
 51
37.79687448857073
  0
ARC
  5
41BC
330
1F
100
AcDbEntity
  8
0
  6
Continuous
 62
     7
370
    15
100
AcDbCircle
 10
416.6585819193725
 20
297.6600616668413
 30
0.0
 40
3.339057655340857
100
AcDbArc
 50
142.2142037772703
 51
178.8515938672968
  0
ARC
  5
41C1
330
1F
100
AcDbEntity
  8
0
  6
Continuous
 62
     7
370
    15
100
AcDbCircle
 10
444.6219748945065
 20
314.6712553915804
 30
0.0
 40
1.0
100
AcDbArc
 50
90.0
 51
180.0
  0
SPLINE
  5
41C2
330
1F
100
AcDbEntity
  8
0
  6
Continuous
 62
     7
370
    15
100
AcDbSpline
210
0.0
220
0.0
230
1.0
 70
    24
 71
     1
 72
     4
 73
     2
 74
     0
 42
0.0000000001
 43
0.0000000001
 40
0.0
 40
0.0
 40
1.0
 40
1.0
 10
449.6219748945065
 20
315.6712553915804
 30
0.0
 10
444.6219748945065
 20
315.6712553915804
 30
0.0
  0
ARC
  5
41C3
330
1F
100
AcDbEntity
  8
0
  6
Continuous
 62
     7
370
    15
100
AcDbCircle
 10
449.6219748945065
 20
314.6712553915804
 30
0.0
 40
1.0
100
AcDbArc
 50
0.0
 51
90.0
  0
ARC
  5
41C8
330
1F
100
AcDbEntity
  8
0
  6
Continuous
 62
     7
370
    15
100
AcDbCircle
 10
451.6220214114717
 20
280.8050163744228
 30
0.0
 40
0.9999534825985202
100
AcDbArc
 50
359.9756575381021
 51
33.60888145767644
  0
LINE
  5
41C9
102
{ACAD_REACTORS
330
48CB
102
}
330
1F
100
AcDbEntity
  8
0
  6
Continuous
 62
     7
370
    15
100
AcDbLine
 10
443.6219748945063
 20
300.4305813051518
 30
0.0
 11
443.6219748945064
 21
314.6712553915804
 31
0.0
  0
LINE
  5
41CE
102
{ACAD_REACTORS
330
48CB
102
}
330
1F
100
AcDbEntity
  8
0
  6
Continuous
 62
     7
370
    15
100
AcDbLine
 10
450.6219748945064
 20
314.6712553915804
 30
0.0
 11
450.6219748945064
 21
300.4305813051518
 31
0.0
  0
SPLINE
  5
41D2
330
1F
100
AcDbEntity
  8
0
  6
Continuous
 62
     7
370
    15
100
AcDbSpline
210
0.0
220
0.0
230
1.0
 70
     8
 71
     3
 72
    14
 73
    10
 74
     0
 42
0.0000000001
 43
0.0000000001
 40
0.0
 40
0.0
 40
0.0
 40
0.0
 40
0.25
 40
0.25
 40
0.5
 40
0.5
 40
0.75
 40
0.75
 40
1.0
 40
1.0
 40
1.0
 40
1.0
 10
452.6219748945065
 20
277.6712553915805
 30
0.0
 10
452.6219748945065
 20
277.5373855063688
 30
0.0
 10
452.5951490444698
 20
277.4059328900196
 30
0.0
 10
452.4928197706278
 20
277.1622434489652
 30
0.0
 10
452.4171781727956
 20
277.051054797024
 30
0.0
 10
452.2315860908486
 20
276.8679053927729
 30
0.0
 10
452.120105849236
 20
276.79460957463
 30
0.0
 10
451.8813160410663
 20
276.6968917499468
 30
0.0
 10
451.7501607296313
 20
276.6712553915804
 30
0.0
 10
451.6219748945064
 20
276.6712553915804
 30
0.0
  0
LINE
  5
41D3
102
{ACAD_REACTORS
330
4474
102
}
330
1F
100
AcDbEntity
  8
0
  6
Continuous
 62
     7
370
    15
100
AcDbLine
 10
451.6219748945064
 20
276.6712553915804
 30
0.0
 11
442.6219748945064
 21
276.6712553915804
 31
0.0
  0
SPLINE
  5
41D4
330
1F
100
AcDbEntity
  8
0
  6
Continuous
 62
     7
370
    15
100
AcDbSpline
210
0.0
220
0.0
230
1.0
 70
     8
 71
     3
 72
    14
 73
    10
 74
     0
 42
0.0000000001
 43
0.0000000001
 40
0.0
 40
0.0
 40
0.0
 40
0.0
 40
0.25
 40
0.25
 40
0.5
 40
0.5
 40
0.75
 40
0.75
 40
1.0
 40
1.0
 40
1.0
 40
1.0
 10
441.6219748945064
 20
277.6712553915805
 30
0.0
 10
441.6219748945064
 20
277.5373855063688
 30
0.0
 10
441.648800744543
 20
277.4059328900196
 30
0.0
 10
441.7511300183852
 20
277.1622434489652
 30
0.0
 10
441.8267716162173
 20
277.051054797024
 30
0.0
 10
442.0123636981641
 20
276.8679053927729
 30
0.0
 10
442.1238439397767
 20
276.79460957463
 30
0.0
 10
442.3626337479467
 20
276.6968917499468
 30
0.0
 10
442.4937890593816
 20
276.6712553915804
 30
0.0
 10
442.6219748945064
 20
276.6712553915804
 30
0.0
  0
LINE
  5
41D6
102
{ACAD_REACTORS
330
449C
102
}
330
1F
100
AcDbEntity
  8
0
  6
Continuous
 62
     7
370
    15
100
AcDbLine
 10
452.6219748945065
 20
280.6712553915804
 30
0.0
 11
452.6219748945065
 21
277.6712553915805
 31
0.0
  0
LINE
  5
41D7
102
{ACAD_REACTORS
330
449C
102
}
330
1F
100
AcDbEntity
  8
0
  6
Continuous
 62
     7
370
    15
100
AcDbLine
 10
441.6219748945064
 20
280.6712553915804
 30
0.0
 11
441.6219748945064
 21
277.6712553915805
 31
0.0
  0
LINE
  5
41E0
330
1F
100
AcDbEntity
  8
0
  6
Continuous
 62
     7
370
    15
100
AcDbLine
 10
442.1219748945064
 20
297.2737270556595
 30
0.0
 11
442.1219748945064
 21
282.4635423829737
 31
0.0
  0
LINE
  5
41E1
330
1F
100
AcDbEntity
  8
0
  6
Continuous
 62
     7
370
    15
100
AcDbLine
 10
452.1219748945064
 20
282.4635423829737
 30
0.0
 11
452.1219748945064
 21
297.2737270556595
 31
0.0
  0
ARC
  5
41E5
330
1F
100
AcDbEntity
  8
0
  6
Continuous
 62
     7
370
    15
100
AcDbCircle
 10
440.6219748945063
 20
300.4305813051518
 30
0.0
 40
3.000000000000028
100
AcDbArc
 50
315.0
 51
0.0
  0
ARC
  5
41E7
330
1F
100
AcDbEntity
  8
0
  6
Continuous
 62
     7
370
    15
100
AcDbCircle
 10
453.6219748945065
 20
300.4305813051518
 30
0.0
 40
3.000000000000003
100
AcDbArc
 50
180.0
 51
225.0
  0
ARC
  5
41E9
330
1F
100
AcDbEntity
  8
0
  6
Continuous
 62
     7
370
    15
100
AcDbCircle
 10
443.1219748945064
 20
297.2737270556595
 30
0.0
 40
1.0
100
AcDbArc
 50
135.0
 51
180.0
  0
LINE
  5
41EA
330
1F
100
AcDbEntity
  8
0
  6
Continuous
 62
     7
370
    15
100
AcDbLine
 10
442.4148681133198
 20
297.980833836846
 30
0.0
 11
442.743295238066
 21
298.3092609615922
 31
0.0
  0
ARC
  5
41EB
330
1F
100
AcDbEntity
  8
0
  6
Continuous
 62
     7
370
    15
100
AcDbCircle
 10
451.1219748945064
 20
297.2737270556595
 30
0.0
 40
1.0
100
AcDbArc
 50
0.0
 51
45.0
  0
LINE
  5
41EC
330
1F
100
AcDbEntity
  8
0
  6
Continuous
 62
     7
370
    15
100
AcDbLine
 10
451.5006545509467
 20
298.3092609615922
 30
0.0
 11
451.8290816756929
 21
297.980833836846
 31
0.0
  0
ARC
  5
41ED
330
1F
100
AcDbEntity
  8
0
  6
Continuous
 62
     7
370
    15
100
AcDbCircle
 10
442.7246045325111
 20
280.7672544351563
 30
0.0
 40
1.106800765708916
100
AcDbArc
 50
147.7413447209663
 51
184.9758368698436
  0
ARC
  5
41EE
330
1F
100
AcDbEntity
  8
0
  6
Continuous
 62
     7
370
    15
100
AcDbCircle
 10
454.1219748945064
 20
282.4635423829737
 30
0.0
 40
2.000000000000021
100
AcDbArc
 50
180.0
 51
213.5573097619229
  0
SPLINE
  5
41EF
330
1F
100
AcDbEntity
  8
0
  6
Continuous
 62
     7
370
    15
100
AcDbSpline
210
0.0
220
0.0
230
1.0
 70
    24
 71
     3
 72
    11
 73
     7
 74
     0
 42
0.0000000001
 43
0.0000000001
 40
0.0
 40
0.0
 40
0.0
 40
0.0
 40
0.233560342273862
 40
0.4954356696277309
 40
0.7568778830864371
 40
1.0
 40
1.0
 40
1.0
 40
1.0
 10
452.6219748945065
 20
280.8033121424378
 30
0.0
 10
452.6219748945065
 20
280.7997101787431
 30
0.0
 10
452.6219748945065
 20
280.792069578127
 30
0.0
 10
452.6219748945065
 20
280.7430195870983
 30
0.0
 10
452.6219748945065
 20
280.6887079754673
 30
0.0
 10
452.6219748945065
 20
280.6780315548027
 30
0.0
 10
452.6219748945065
 20
280.6728871681769
 30
0.0
  0
ARC
  5
41F0
330
1F
100
AcDbEntity
  8
0
  6
Continuous
 62
     7
370
    15
100
AcDbCircle
 10
440.1219748945063
 20
282.4635423829737
 30
0.0
 40
2.000000000000028
100
AcDbArc
 50
326.4426902380816
 51
0.0
  0
SPLINE
  5
41F1
330
1F
100
AcDbEntity
  8
0
  6
Continuous
 62
     7
370
    15
100
AcDbSpline
210
0.0
220
0.0
230
1.0
 70
    24
 71
     1
 72
     4
 73
     2
 74
     0
 42
0.0000000001
 43
0.0000000001
 40
0.0
 40
0.0
 40
1.0
 40
1.0
 10
452.6219748945065
 20
280.8025358239259
 30
0.0
 10
452.6219748945065
 20
280.805229987796
 30
0.0
  0
LINE
  5
41F5
102
{ACAD_REACTORS
330
4474
102
}
330
1F
100
AcDbEntity
  8
AM_4
100
AcDbLine
 10
450.1219748945064
 20
290.9438690259711
 30
0.0
 11
444.1219748945065
 21
290.9438690259711
 31
0.0
  0
SPLINE
  5
41F6
330
1F
100
AcDbEntity
  8
AM_4
100
AcDbSpline
210
0.0
220
0.0
230
1.0
 70
    24
 71
     1
 72
     4
 73
     2
 74
     0
 42
0.0000000001
 43
0.0000000001
 40
0.0
 40
0.0
 40
1.0
 40
1.0
 10
451.6219748945067
 20
309.9438690259712
 30
0.0
 10
442.6219748945067
 20
309.9438690259711
 30
0.0
  0
SPLINE
  5
41F7
330
1F
100
AcDbEntity
  8
AM_4
100
AcDbSpline
210
0.0
220
0.0
230
1.0
 70
    24
 71
     1
 72
     4
 73
     2
 74
     0
 42
0.0000000001
 43
0.0000000001
 40
0.0
 40
0.0
 40
1.0
 40
1.0
 10
442.6219748945067
 20
303.9438690259711
 30
0.0
 10
451.6219748945067
 20
303.9438690259711
 30
0.0
  0
SPLINE
  5
41F8
330
1F
100
AcDbEntity
  8
AM_4
100
AcDbSpline
210
0.0
220
0.0
230
1.0
 70
    24
 71
     1
 72
     4
 73
     2
 74
     0
 42
0.0000000001
 43
0.0000000001
 40
0.0
 40
0.0
 40
1.0
 40
1.0
 10
450.1219748945064
 20
276.6712553915804
 30
0.0
 10
450.1219748945064
 20
290.9438690259711
 30
0.0
  0
SPLINE
  5
41F9
330
1F
100
AcDbEntity
  8
AM_4
100
AcDbSpline
210
0.0
220
0.0
230
1.0
 70
    24
 71
     1
 72
     4
 73
     2
 74
     0
 42
0.0000000001
 43
0.0000000001
 40
0.0
 40
0.0
 40
1.0
 40
1.0
 10
444.1219748945065
 20
290.9438690259711
 30
0.0
 10
444.1219748945065
 20
276.6712553915804
 30
0.0
  0
LINE
  5
4200
330
1F
100
AcDbEntity
  8
AM_7
100
AcDbLine
 10
407.3201949591171
 20
306.6712553915804
 30
0.0
 11
409.3201949591172
 21
306.6712553915804
 31
0.0
  0
LINE
  5
4201
330
1F
100
AcDbEntity
  8
AM_7
100
AcDbLine
 10
408.3201949591171
 20
305.6712553915804
 30
0.0
 11
408.3201949591171
 21
307.6712553915804
 31
0.0
  0
LINE
  5
4202
102
{ACAD_REACTORS
330
424C
102
}
330
1F
100
AcDbEntity
  8
AM_7
100
AcDbLine
 10
398.7201949591171
 20
306.6712553915804
 30
0.0
 11
406.5201949591172
 21
306.6712553915804
 31
0.0
  0
LINE
  5
4203
102
{ACAD_REACTORS
330
424C
330
4298
102
}
330
1F
100
AcDbEntity
  8
AM_7
100
AcDbLine
 10
410.1201949591171
 20
306.6712553915804
 30
0.0
 11
417.920194959117
 21
306.6712553915804
 31
0.0
  0
LINE
  5
4204
330
1F
100
AcDbEntity
  8
AM_7
100
AcDbLine
 10
408.3201949591171
 20
297.0712553915804
 30
0.0
 11
408.3201949591171
 21
304.8712553915804
 31
0.0
  0
LINE
  5
4205
330
1F
100
AcDbEntity
  8
AM_7
100
AcDbLine
 10
408.3201949591171
 20
308.4712553915804
 30
0.0
 11
408.3201949591171
 21
316.2712553915804
 31
0.0
  0
DIMENSION
  5
423E
102
{ACAD_XDICTIONARY
360
424B
102
}
102
{ACAD_REACTORS
330
424C
102
}
330
1F
100
AcDbEntity
  8
AM_REFDIM
100
AcDbDimension
  2
*D4
 10
417.3201949591172
 20
322.5103305637299
 30
0.0
 11
408.3201949591171
 21
322.5103305637299
 31
0.0
 70
   160
 71
     5
 42
18.0
  3
AM_ISO$0
100
AcDbAlignedDimension
 13
399.3201949591172
 23
306.6712553915804
 33
0.0
 14
417.3201949591172
 24
306.6712553915804
 34
0.0
 50
0.0000000000000114
100
AcDbRotatedDimension
1001
ACAD
1000
DSTYLE
1002
{
1070
    40
1040
0.6
1002
}
  0
DIMENSION
  5
4264
102
{ACAD_XDICTIONARY
360
4271
102
}
102
{ACAD_REACTORS
330
4272
102
}
330
1F
100
AcDbEntity
  8
AM_REFDIM
100
AcDbDimension
  2
*D5
 10
429.6795611241566
 20
276.6712553915804
 30
0.0
 11
429.6795611241565
 21
296.1860330086099
 31
0.0
 70
   160
 71
     5
 42
39.0
  3
AM_ISO$0
100
AcDbAlignedDimension
 13
408.3201949591171
 23
315.6712553915804
 33
0.0
 14
413.8201949591172
 24
276.6712553915804
 34
0.0
 50
90.0
100
AcDbRotatedDimension
1001
ACAD
1000
DSTYLE
1002
{
1070
    40
1040
0.6
1002
}
  0
DIMENSION
  5
428A
102
{ACAD_XDICTIONARY
360
4297
102
}
102
{ACAD_REACTORS
330
4298
102
}
330
1F
100
AcDbEntity
  8
AM_REFDIM
100
AcDbDimension
  2
*D6
 10
424.300459542372
 20
276.6712553915804
 30
0.0
 11
424.3004595423719
 21
291.6712553915804
 31
0.0
 70
   160
 71
     5
 42
30.0
  3
AM_ISO$0
100
AcDbAlignedDimension
 13
417.920194959117
 23
306.6712553915804
 33
0.0
 14
413.8201949591172
 24
276.6712553915804
 34
0.0
 50
90.0
100
AcDbRotatedDimension
1001
ACAD
1000
DSTYLE
1002
{
1070
    40
1040
0.6
1002
}
  0
DIMENSION
  5
42DA
102
{ACAD_XDICTIONARY
360
42E7
102
}
102
{ACAD_REACTORS
330
42E8
102
}
330
1F
100
AcDbEntity
  8
AM_REFDIM
100
AcDbDimension
  2
*D7
 10
414.8201949591172
 20
269.7223472517417
 30
0.0
 11
408.3201949591171
 21
269.7223472517417
 31
0.0
 70
   160
 71
     5
 42
13.0
  3
AM_ISO$0
100
AcDbAlignedDimension
 13
401.8201949591172
 23
277.6712553915805
 33
0.0
 14
414.8201949591172
 24
277.6712553915805
 34
0.0
 50
0.0000000000001132
100
AcDbRotatedDimension
1001
ACAD
1000
DSTYLE
1002
{
1070
    40
1040
0.6
1002
}
  0
LINE
  5
4335
102
{ACAD_REACTORS
330
438E
102
}
330
1F
100
AcDbEntity
  8
0
  6
Continuous
 62
     7
370
    15
100
AcDbLine
 10
414.1176341819809
 20
281.6712553915805
 30
0.0
 11
402.5227557362534
 21
281.6712553915804
 31
0.0
  0
DIMENSION
  5
437E
102
{ACAD_XDICTIONARY
360
438D
102
}
102
{ACAD_REACTORS
330
438E
102
}
330
1F
100
AcDbEntity
  8
AM_REFDIM
100
AcDbDimension
  2
*D8
 10
420.1122919698924
 20
276.6712553915804
 30
0.0
 11
420.1122919698924
 21
279.1712553915804
 31
0.0
 70
   160
 71
     5
 42
5.000000000000056
  3
AM_ISO$0
100
AcDbAlignedDimension
 13
414.1176341819808
 23
281.6712553915805
 33
0.0
 14
413.8201949591172
 24
276.6712553915804
 34
0.0
 50
90.0
100
AcDbRotatedDimension
1001
ACAD
1000
DSTYLE
1002
{
1070
    40
1040
0.6
1002
}
  0
ARC
  5
4427
330
1F
100
AcDbEntity
  8
0
  6
Continuous
 62
     7
370
    15
100
AcDbCircle
 10
447.1219748945067
 20
306.6712553915803
 30
0.0
 40
6.400000000000009
100
AcDbArc
 50
225.3217359939811
 51
236.8471120713794
  0
ARC
  5
4428
102
{ACAD_REACTORS
330
444C
102
}
330
1F
100
AcDbEntity
  8
0
  6
Continuous
 62
     7
370
    15
100
AcDbCircle
 10
447.1219748945067
 20
306.6712553915803
 30
0.0
 40
6.400000000000009
100
AcDbArc
 50
123.1528879286205
 51
134.6782640060189
  0
ARC
  5
4429
330
1F
100
AcDbEntity
  8
0
  6
Continuous
 62
     7
370
    15
100
AcDbCircle
 10
447.1219748945067
 20
306.6712553915803
 30
0.0
 40
6.400000000000009
100
AcDbArc
 50
303.1528879286205
 51
314.6782640060189
  0
ARC
  5
442A
102
{ACAD_REACTORS
330
49B6
102
}
330
1F
100
AcDbEntity
  8
0
  6
Continuous
 62
     7
370
    15
100
AcDbCircle
 10
447.1219748945067
 20
306.6712553915803
 30
0.0
 40
6.400000000000009
100
AcDbArc
 50
45.32173599398109
 51
56.84711207137947
  0
LINE
  5
442B
102
{ACAD_REACTORS
330
444C
102
}
330
1F
100
AcDbEntity
  8
0
  6
Continuous
 62
     7
370
    15
100
AcDbLine
 10
442.6219748945067
 20
302.1204312903872
 30
0.0
 11
442.6219748945067
 21
311.2220794927734
 31
0.0
  0
LINE
  5
442C
102
{ACAD_REACTORS
330
444C
330
49B6
102
}
330
1F
100
AcDbEntity
  8
0
  6
Continuous
 62
     7
370
    15
100
AcDbLine
 10
451.6219748945067
 20
302.1204312903872
 30
0.0
 11
451.6219748945067
 21
311.2220794927734
 31
0.0
  0
DIMENSION
  5
443C
102
{ACAD_XDICTIONARY
360
444B
102
}
102
{ACAD_REACTORS
330
444C
102
}
330
1F
100
AcDbEntity
  8
AM_REFDIM
100
AcDbDimension
  2
*D9
 10
451.6219748945067
 20
322.5103305637299
 30
0.0
 11
447.1219748945074
 21
322.5103305637299
 31
0.0
 70
   160
 71
     5
 42
9.0
  3
AM_ISO$0
100
AcDbAlignedDimension
 13
442.6219748945067
 23
311.2220794927734
 33
0.0
 14
451.6219748945067
 24
311.2220794927734
 34
0.0
100
AcDbRotatedDimension
1001
ACAD
1000
DSTYLE
1002
{
1070
    40
1040
0.6
1002
}
  0
DIMENSION
  5
4466
102
{ACAD_XDICTIONARY
360
4473
102
}
102
{ACAD_REACTORS
330
4474
102
}
330
1F
100
AcDbEntity
  8
AM_REFDIM
100
AcDbDimension
  2
*D10
 10
457.6377259100198
 20
276.6712553915804
 30
0.0
 11
457.6377259100198
 21
283.8075622087758
 31
0.0
 70
   160
 71
     5
 42
14.27261363439072
  3
AM_ISO$0
100
AcDbAlignedDimension
 13
450.1219748945064
 23
290.9438690259711
 33
0.0
 14
451.6219748945064
 24
276.6712553915804
 34
0.0
 50
90.0
100
AcDbRotatedDimension
1001
ACAD
1000
DSTYLE
1002
{
1070
    40
1040
0.6
1070
   271
1070
     0
1002
}
  0
DIMENSION
  5
448C
102
{ACAD_XDICTIONARY
360
449B
102
}
102
{ACAD_REACTORS
330
449C
102
}
330
1F
100
AcDbEntity
  8
AM_REFDIM
100
AcDbDimension
  2
*D11
 10
452.6219748945065
 20
269.7223472517414
 30
0.0
 11
447.1219748945064
 21
271.3723472517413
 31
0.0
 70
    32
 71
     5
 42
11.00000000000011
  3
AM_ISO$0
100
AcDbAlignedDimension
 13
441.6219748945064
 23
277.6712553915805
 33
0.0
 14
452.6219748945065
 24
277.6712553915805
 34
0.0
 50
0.0000000000001132
100
AcDbRotatedDimension
1001
ACAD
1000
DSTYLE
1002
{
1070
    40
1040
0.6
1002
}
  0
DIMENSION
  5
48BB
102
{ACAD_XDICTIONARY
360
48CA
102
}
102
{ACAD_REACTORS
330
48CB
102
}
330
1F
100
AcDbEntity
  8
AM_REFDIM
100
AcDbDimension
  2
*D12
 10
450.6219748945064
 20
317.9650562064006
 30
0.0
 11
447.1219748945064
 21
319.6150562064006
 31
0.0
 70
    32
 71
     5
 42
7.0
  3
AM_ISO$0
100
AcDbAlignedDimension
 13
443.6219748945064
 23
314.6712553915804
 33
0.0
 14
450.6219748945064
 24
314.6712553915804
 34
0.0
100
AcDbRotatedDimension
1001
ACAD
1000
DSTYLE
1002
{
1070
    40
1040
0.6
1002
}
  0
LINE
  5
4925
330
1F
100
AcDbEntity
  8
AM_7
100
AcDbLine
 10
440.3874461689958
 20
306.6712553915804
 30
0.0
 11
453.652237783152
 21
306.6712553915804
 31
0.0
  0
DIMENSION
  5
4973
330
1F
100
AcDbEntity
  8
AM_REFDIM
100
AcDbDimension
  2
*D13
 10
457.6377259100198
 20
303.9438690259711
 30
0.0
 11
455.9877259100198
 21
306.9438690259712
 31
0.0
 70
    32
  1
%%c<>
 71
     5
 42
6.000000000000056
  3
AM_ISO$0
100
AcDbAlignedDimension
 13
451.6219748945067
 23
309.9438690259712
 33
0.0
 14
451.6219748945067
 24
303.9438690259711
 34
0.0
 50
90.00000000000003
100
AcDbRotatedDimension
1001
ACAD
1000
DSTYLE
1002
{
1070
    40
1040
0.6
1002
}
  0
ENDSEC
  0
SECTION
  2
OBJECTS
  0
DICTIONARY
  5
C
330
0
100
AcDbDictionary
281
     1
  3
ACAD_COLOR
350
BE
  3
ACAD_GROUP
350
D
  3
ACAD_LAYOUT
350
1A
  3
ACAD_MATERIAL
350
BD
  3
ACAD_MLINESTYLE
350
17
  3
ACAD_PLOTSETTINGS
350
19
  3
ACAD_PLOTSTYLENAME
350
E
  3
ACAD_TABLESTYLE
350
11A
  3
ACDBHEADERROUNDTRIPXREC
350
4A2D
  3
AcDbVariableDictionary
350
94
  3
AcmDictionary
350
5B
  3
AMG
350
41
  3
AMGSNAPSETTINGS
350
1B8
  3
DWGPROPS
350
4A2C
  3
MAPISURF_MODULE
350
3A15
  0
DICTIONARY
  5
3F9
330
2
100
AcDbDictionary
280
     1
281
     1
  3
ACAD_LAYERFILTERS
360
4945
  3
ACAD_LAYERSTATES
360
AD2
  3
ACLYDICTIONARY
360
4944
  0
DICTIONARY
  5
8F
330
1F
100
AcDbDictionary
280
     1
281
     1
  3
ACAD_INDEX
360
3D28
  0
DICTIONARY
  5
424B
330
423E
100
AcDbDictionary
280
     1
281
     1
  3
ACAD_DIMASSOC
360
424C
  0
DICTIONARY
  5
4271
330
4264
100
AcDbDictionary
280
     1
281
     1
  3
ACAD_DIMASSOC
360
4272
  0
DICTIONARY
  5
4297
330
428A
100
AcDbDictionary
280
     1
281
     1
  3
ACAD_DIMASSOC
360
4298
  0
DICTIONARY
  5
42E7
330
42DA
100
AcDbDictionary
280
     1
281
     1
  3
ACAD_DIMASSOC
360
42E8
  0
DICTIONARY
  5
438D
330
437E
100
AcDbDictionary
280
     1
281
     1
  3
ACAD_DIMASSOC
360
438E
  0
DICTIONARY
  5
444B
330
443C
100
AcDbDictionary
280
     1
281
     1
  3
ACAD_DIMASSOC
360
444C
  0
DICTIONARY
  5
4473
330
4466
100
AcDbDictionary
280
     1
281
     1
  3
ACAD_DIMASSOC
360
4474
  0
DICTIONARY
  5
449B
330
448C
100
AcDbDictionary
280
     1
281
     1
  3
ACAD_DIMASSOC
360
449C
  0
DICTIONARY
  5
48CA
330
48BB
100
AcDbDictionary
280
     1
281
     1
  3
ACAD_DIMASSOC
360
48CB
  0
DICTIONARY
  5
BE
102
{ACAD_REACTORS
330
C
102
}
330
C
100
AcDbDictionary
281
     1
  0
DICTIONARY
  5
D
102
{ACAD_REACTORS
330
C
102
}
330
C
100
AcDbDictionary
281
     1
  0
DICTIONARY
  5
1A
102
{ACAD_REACTORS
330
C
102
}
330
C
100
AcDbDictionary
281
     1
  3
Model
350
22
  3
配置1
350
1E
  3
配置2
350
26
  0
DICTIONARY
  5
BD
102
{ACAD_REACTORS
330
C
102
}
330
C
100
AcDbDictionary
281
     1
  0
DICTIONARY
  5
17
102
{ACAD_REACTORS
330
C
102
}
330
C
100
AcDbDictionary
281
     1
  3
Standard
350
18
  0
DICTIONARY
  5
19
102
{ACAD_REACTORS
330
C
102
}
330
C
100
AcDbDictionary
281
     1
  0
ACDBDICTIONARYWDFLT
  5
E
102
{ACAD_REACTORS
330
C
102
}
330
C
100
AcDbDictionary
281
     1
  3
Normal
350
F
100
AcDbDictionaryWithDefault
340
F
  0
DICTIONARY
  5
11A
102
{ACAD_REACTORS
330
C
102
}
330
C
100
AcDbDictionary
281
     1
  3
Standard
350
11B
  0
DICTIONARY
  5
4A2D
102
{ACAD_REACTORS
330
C
102
}
330
C
100
AcDbDictionary
281
     1
  0
DICTIONARY
  5
94
102
{ACAD_REACTORS
330
C
102
}
330
C
100
AcDbDictionary
281
     1
  3
CTABLESTYLE
350
138
  3
DIMASSOC
350
96
  3
INDEXCTL
350
95
  3
PROJECTNAME
350
1B44
  0
DICTIONARY
  5
5B
102
{ACAD_REACTORS
330
C
102
}
330
C
100
AcDbDictionary
281
     1
  3
AcmBOM
350
1B5
  3
AcmStdDictionary
350
61
  3
AMDTSECTSYM_ARROWCOLOR
350
123
  0
DICTIONARY
  5
41
102
{ACAD_REACTORS
330
C
102
}
330
C
100
AcDbDictionary
281
     1
  3
AcMgSettings
350
398F
  0
DICTIONARY
  5
1B8
102
{ACAD_REACTORS
330
C
102
}
330
C
100
AcDbDictionary
281
     1
  0
XRECORD
  5
4A2C
102
{ACAD_REACTORS
330
C
102
}
330
C
100
AcDbXrecord
280
     1
  1
DWGPROPS COOKIE
  2

  3

  4

  6

  7

  8

  9

300
AmdtFileType=84
301
=
302
=
303
=
304
=
305
=
306
=
307
=
308
=
309
=
 40
0.1476733680555556
 41
2454392.703168762
 42
2456051.699156169
  1

 90
        1
  0
DICTIONARY
  5
4945
102
{ACAD_REACTORS
330
3F9
102
}
330
3F9
100
AcDbDictionary
281
     1
  0
DICTIONARY
  5
AD2
102
{ACAD_REACTORS
330
3F9
102
}
330
3F9
100
AcDbDictionary
281
     1
  0
DICTIONARY
  5
4944
102
{ACAD_REACTORS
330
3F9
102
}
330
3F9
100
AcDbDictionary
281
     1
1001
ACAD
1000
<All
  0
DICTIONARY
  5
3D28
102
{ACAD_REACTORS
330
8F
102
}
330
8F
100
AcDbDictionary
281
     1
  3
*A1
350
3D29
  0
DIMASSOC
  5
424C
102
{ACAD_REACTORS
330
424B
102
}
330
424B
100
AcDbDimAssoc
330
423E
 90
        3
 70
     0
 71
     0
  1
AcDbOsnapPointRef
 72
     6
331
4202
 73
     0
 91
        0
 40
0.0769230769230926
 10
0.0
 20
0.0
 30
0.0
332
41B8
 74
     0
 92
        0
 75
     0
  1
AcDbOsnapPointRef
 72
     6
331
4203
 73
     0
 91
        0
 40
0.9230769230769341
 10
0.0
 20
0.0
 30
0.0
332
41B8
 74
     0
 92
        0
 75
     0
  0
DIMASSOC
  5
4272
102
{ACAD_REACTORS
330
4271
102
}
330
4271
100
AcDbDimAssoc
330
4264
 90
        2
 70
     0
 71
     0
  1
AcDbOsnapPointRef
 72
    13
331
41A4
 73
     0
 91
        0
 40
0.0
 10
0.0
 20
0.0
 30
2.000000000000000E+50
 75
     0
  0
DIMASSOC
  5
4298
102
{ACAD_REACTORS
330
4297
102
}
330
4297
100
AcDbDimAssoc
330
428A
 90
        3
 70
     0
 71
     0
  1
AcDbOsnapPointRef
 72
     1
331
4203
 73
     0
 91
        0
 40
0.0
 10
0.0
 20
0.0
 30
2.000000000000000E+50
 75
     0
  1
AcDbOsnapPointRef
 72
    13
331
41A4
 73
     0
 91
        0
 40
0.0
 10
0.0
 20
0.0
 30
2.000000000000000E+50
 75
     0
  0
DIMASSOC
  5
42E8
102
{ACAD_REACTORS
330
42E7
102
}
330
42E7
100
AcDbDimAssoc
330
42DA
 90
        1
 70
     0
 71
     0
  1
AcDbOsnapPointRef
 72
    13
331
419A
 73
     0
 91
        0
 40
0.0
 10
0.0
 20
0.0
 30
2.000000000000000E+50
 75
     0
  0
DIMASSOC
  5
438E
102
{ACAD_REACTORS
330
438D
102
}
330
438D
100
AcDbDimAssoc
330
437E
 90
        3
 70
     0
 71
     0
  1
AcDbOsnapPointRef
 72
     6
331
4335
 73
     0
 91
        0
 40
0.0000000000000049
 10
0.0
 20
0.0
 30
0.0
332
41B0
 74
     0
 92
        0
 75
     0
  1
AcDbOsnapPointRef
 72
    13
331
41A4
 73
     0
 91
        0
 40
0.0
 10
0.0
 20
0.0
 30
2.000000000000000E+50
 75
     0
  0
DIMASSOC
  5
444C
102
{ACAD_REACTORS
330
444B
102
}
330
444B
100
AcDbDimAssoc
330
443C
 90
        3
 70
     0
 71
     0
  1
AcDbOsnapPointRef
 72
     6
331
442B
 73
     0
 91
        0
 40
0.9999999999999937
 10
0.0
 20
0.0
 30
0.0
332
4428
 74
     0
 92
        0
 75
     0
  1
AcDbOsnapPointRef
 72
     1
331
442C
 73
     0
 91
        0
 40
0.0
 10
0.0
 20
0.0
 30
2.000000000000000E+50
 75
     0
  0
DIMASSOC
  5
4474
102
{ACAD_REACTORS
330
4473
102
}
330
4473
100
AcDbDimAssoc
330
4466
 90
        3
 70
     0
 71
     0
  1
AcDbOsnapPointRef
 72
    13
331
41F5
 73
     0
 91
        0
 40
0.0
 10
0.0
 20
0.0
 30
2.000000000000000E+50
 75
     0
  1
AcDbOsnapPointRef
 72
    13
331
41D3
 73
     0
 91
        0
 40
0.0
 10
0.0
 20
0.0
 30
2.000000000000000E+50
 75
     0
  0
DIMASSOC
  5
449C
102
{ACAD_REACTORS
330
449B
102
}
330
449B
100
AcDbDimAssoc
330
448C
 90
        3
 70
     0
 71
     0
  1
AcDbOsnapPointRef
 72
     1
331
41D7
 73
     0
 91
        0
 40
0.0
 10
0.0
 20
0.0
 30
2.000000000000000E+50
 75
     0
  1
AcDbOsnapPointRef
 72
     1
331
41D6
 73
     0
 91
        0
 40
0.0
 10
0.0
 20
0.0
 30
2.000000000000000E+50
 75
     0
  0
DIMASSOC
  5
48CB
102
{ACAD_REACTORS
330
48CA
102
}
330
48CA
100
AcDbDimAssoc
330
48BB
 90
        3
 70
     0
 71
     0
  1
AcDbOsnapPointRef
 72
     1
331
41C9
 73
     0
 91
        0
 40
0.0
 10
0.0
 20
0.0
 30
2.000000000000000E+50
 75
     0
  1
AcDbOsnapPointRef
 72
    13
331
41CE
 73
     0
 91
        0
 40
0.0
 10
0.0
 20
0.0
 30
2.000000000000000E+50
 75
     0
  0
LAYOUT
  5
22
102
{ACAD_XDICTIONARY
360
4A30
102
}
102
{ACAD_REACTORS
330
1A
102
}
330
1A
100
AcDbPlotSettings
  1

  2
\\RD\EPSON Stylus C63 Series單色
  4
A4
  6

 40
3.757083177566528
 41
3.757076978683471
 42
3.757080078125
 43
3.757080078125
 44
209.9733276367187
 45
296.9683227539062
 46
0.0
 47
0.0
 48
0.0
 49
0.0
140
0.0
141
0.0
142
1.0
143
0.3405120737814363
 70
 11952
 72
     1
 73
     0
 74
     0
  7
單色出圖.ctb
 75
     0
147
2.936753428137963
148
-2047.07469463503
149
-1261.649717473083
100
AcDbLayout
  1
Model
 70
     1
 71
     0
 10
0.0
 20
0.0
 11
12.0
 21
9.0
 12
0.0
 22
0.0
 32
0.0
 14
0.0
 24
0.0
 34
0.0
 15
0.0
 25
0.0
 35
0.0
146
0.0
 13
0.0
 23
0.0
 33
0.0
 16
1.0
 26
0.0
 36
0.0
 17
0.0
 27
1.0
 37
0.0
 76
     0
330
1F
1001
ACAD_PSEXT
1000
\\RD\EPSON Stylus C63 Series單色
1000
EPSON Stylus C63 Series
1000
\\RD
1000

1070
     0
  0
LAYOUT
  5
1E
102
{ACAD_XDICTIONARY
360
4A2E
102
}
102
{ACAD_REACTORS
330
1A
102
}
330
1A
100
AcDbPlotSettings
  1

  2

  4

  6

 40
0.0
 41
0.0
 42
0.0
 43
0.0
 44
0.0
 45
0.0
 46
0.0
 47
0.0
 48
0.0
 49
0.0
140
0.0
141
0.0
142
1.0
143
1.0
 70
   688
 72
     0
 73
     0
 74
     5
  7
單色出圖.ctb
 75
    16
147
1.0
148
0.0
149
0.0
100
AcDbLayout
  1
配置1
 70
     1
 71
     1
 10
0.0
 20
0.0
 11
420.0
 21
297.0
 12
0.0
 22
0.0
 32
0.0
 14
1.000000000000000E+20
 24
1.000000000000000E+20
 34
1.000000000000000E+20
 15
-1.000000000000000E+20
 25
-1.000000000000000E+20
 35
-1.000000000000000E+20
146
0.0
 13
0.0
 23
0.0
 33
0.0
 16
1.0
 26
0.0
 36
0.0
 17
0.0
 27
1.0
 37
0.0
 76
     0
330
1B
  0
LAYOUT
  5
26
102
{ACAD_XDICTIONARY
360
4A32
102
}
102
{ACAD_REACTORS
330
1A
102
}
330
1A
100
AcDbPlotSettings
  1

  2

  4

  6

 40
0.0
 41
0.0
 42
0.0
 43
0.0
 44
0.0
 45
0.0
 46
0.0
 47
0.0
 48
0.0
 49
0.0
140
0.0
141
0.0
142
1.0
143
1.0
 70
   688
 72
     0
 73
     0
 74
     5
  7
單色出圖.ctb
 75
    16
147
1.0
148
0.0
149
0.0
100
AcDbLayout
  1
配置2
 70
     1
 71
     2
 10
0.0
 20
0.0
 11
12.0
 21
9.0
 12
0.0
 22
0.0
 32
0.0
 14
0.0
 24
0.0
 34
0.0
 15
0.0
 25
0.0
 35
0.0
146
0.0
 13
0.0
 23
0.0
 33
0.0
 16
1.0
 26
0.0
 36
0.0
 17
0.0
 27
1.0
 37
0.0
 76
     0
330
23
  0
MLINESTYLE
  5
18
102
{ACAD_REACTORS
330
17
102
}
330
17
100
AcDbMlineStyle
  2
STANDARD
 70
     0
  3

 62
   256
 51
90.0
 52
90.0
 71
     2
 49
0.5
 62
   256
  6
BYLAYER
 49
-0.5
 62
   256
  6
BYLAYER
  0
ACDBPLACEHOLDER
  5
F
102
{ACAD_REACTORS
330
E
102
}
330
E
  0
TABLESTYLE
  5
11B
102
{ACAD_REACTORS
330
11A
102
}
330
11A
100
AcDbTableStyle
  3
Standard
 70
     0
 71
     0
 40
1.5
 41
1.5
280
     0
281
     0
  7
STANDARD
140
4.5
170
     2
 62
     0
 63
     7
283
     0
274
    -2
284
     1
 64
     0
275
    -2
285
     1
 65
     0
276
    -2
286
     1
 66
     0
277
    -2
287
     1
 67
     0
278
    -2
288
     1
 68
     0
279
    -2
289
     1
 69
     0
  7
STANDARD
140
6.0
170
     5
 62
     0
 63
     7
283
     0
274
    -2
284
     1
 64
     0
275
    -2
285
     1
 65
     0
276
    -2
286
     1
 66
     0
277
    -2
287
     1
 67
     0
278
    -2
288
     1
 68
     0
279
    -2
289
     1
 69
     0
  7
STANDARD
140
4.5
170
     5
 62
     0
 63
     7
283
     0
274
    -2
284
     1
 64
     0
275
    -2
285
     1
 65
     0
276
    -2
286
     1
 66
     0
277
    -2
287
     1
 67
     0
278
    -2
288
     1
 68
     0
279
    -2
289
     1
 69
     0
  0
DICTIONARYVAR
  5
138
102
{ACAD_REACTORS
330
94
102
}
330
94
100
DictionaryVariables
280
     0
  1
STANDARD
  0
DICTIONARYVAR
  5
96
102
{ACAD_REACTORS
330
94
102
}
330
94
100
DictionaryVariables
280
     0
  1
2
  0
DICTIONARYVAR
  5
95
102
{ACAD_REACTORS
330
94
102
}
330
94
100
DictionaryVariables
280
     0
  1
1
  0
DICTIONARYVAR
  5
1B44
102
{ACAD_REACTORS
330
94
102
}
330
94
100
DictionaryVariables
280
     0
  1

  0
DICTIONARY
  5
1B5
102
{ACAD_REACTORS
330
5B
102
}
330
5B
100
AcDbDictionary
281
     1
  0
DICTIONARY
  5
61
102
{ACAD_REACTORS
330
5B
102
}
330
5B
100
AcDbDictionary
281
     1
  0
XRECORD
  5
123
102
{ACAD_REACTORS
330
5B
102
}
330
5B
100
AcDbXrecord
280
     1
 90
-1023410169
  0
DICTIONARY
  5
398F
102
{ACAD_REACTORS
330
41
102
}
330
41
100
AcDbDictionary
281
     1
  3
DWGSETTINGS
350
3990
  3
TRANSSETTINGS
350
3993
  0
LAYER_INDEX
  5
3D29
102
{ACAD_REACTORS
330
3D28
102
}
330
3D28
100
AcDbIndex
 40
2456051.699156169
100
AcDbLayerIndex
  8
0
360
4783
 90
       58
  8
AM_VIS
360
4784
 90
        0
  8
AM_7
360
4785
 90
        7
  8
Defpoints
360
4786
 90
        0
  8
LOGO
360
4787
 90
       77
  8
AM_4
360
4788
 90
        5
  8
AM_REFDIM
360
4789
 90
       10
  8
AM_HID
360
478A
 90
        0
  8
AM_5
360
478B
 90
        0
  0
DICTIONARY
  5
4A30
330
22
100
AcDbDictionary
280
     1
281
     1
  3
ACAD_XREC_ROUNDTRIP
360
4A31
  0
DICTIONARY
  5
4A2E
330
1E
100
AcDbDictionary
280
     1
281
     1
  3
ACAD_XREC_ROUNDTRIP
360
4A2F
  0
DICTIONARY
  5
4A32
330
26
100
AcDbDictionary
280
     1
281
     1
  3
ACAD_XREC_ROUNDTRIP
360
4A33
  0
IDBUFFER
  5
4783
330
0
100
AcDbIdBuffer
330
1830
330
1831
330
1832
330
4195
330
4196
330
4197
330
4198
330
4199
330
419A
330
41A2
330
41A4
330
41A7
330
41A8
330
41A9
330
41AA
330
41AD
330
41B0
330
41B3
330
41B4
330
41B5
330
41B6
330
41B7
330
41B8
330
41B9
330
41BA
330
41BB
330
41BC
330
41C1
330
41C2
330
41C3
330
41C8
330
41C9
330
41CE
330
41D2
330
41D3
330
41D4
330
41D6
330
41D7
330
41E0
330
41E1
330
41E5
330
41E7
330
41E9
330
41EA
330
41EB
330
41EC
330
41ED
330
41EE
330
41EF
330
41F0
330
41F1
330
4335
330
4427
330
4428
330
4429
330
442A
330
442B
330
442C
  0
IDBUFFER
  5
4784
330
0
100
AcDbIdBuffer
  0
IDBUFFER
  5
4785
330
0
100
AcDbIdBuffer
330
4200
330
4201
330
4202
330
4203
330
4204
330
4205
330
4925
  0
IDBUFFER
  5
4786
330
0
100
AcDbIdBuffer
  0
IDBUFFER
  5
4787
330
0
100
AcDbIdBuffer
330
179B
330
179C
330
179D
330
179E
330
179F
330
17A0
330
17A1
330
17A2
330
17A3
330
17A4
330
17A5
330
17A6
330
17A7
330
17A8
330
17A9
330
17AA
330
17AB
330
17AC
330
17AD
330
17AE
330
17AF
330
17B0
330
17B1
330
17B2
330
17B6
330
17BA
330
17BB
330
17BF
330
17C0
330
17C1
330
17C2
330
17C3
330
17C4
330
17C5
330
17C6
330
17CA
330
17CE
330
17D2
330
17D3
330
17D4
330
17D8
330
17D9
330
17DA
330
17DB
330
17DC
330
17DD
330
17DE
330
17DF
330
17E0
330
17E1
330
17E2
330
17E3
330
17E4
330
17E5
330
17E6
330
17E7
330
17E8
330
17E9
330
17EA
330
17EB
330
17EC
330
17ED
330
17EE
330
17EF
330
17F0
330
1824
330
1825
330
1826
330
1827
330
1828
330
1829
330
182A
330
182B
330
182C
330
182D
330
182E
330
182F
  0
IDBUFFER
  5
4788
330
0
100
AcDbIdBuffer
330
41F5
330
41F6
330
41F7
330
41F8
330
41F9
  0
IDBUFFER
  5
4789
330
0
100
AcDbIdBuffer
330
4973
330
423E
330
4264
330
428A
330
42DA
330
437E
330
443C
330
4466
330
448C
330
48BB
  0
IDBUFFER
  5
478A
330
0
100
AcDbIdBuffer
  0
IDBUFFER
  5
478B
330
0
100
AcDbIdBuffer
  0
XRECORD
  5
4A31
102
{ACAD_REACTORS
330
4A30
102
}
330
4A30
100
AcDbXrecord
280
     1
102
SHADEPLOT
 70
     0
102
SHADEPLOTRESLEVEL
 70
     2
102
SHADEPLOTCUSTOMDPI
 70
   300
  0
XRECORD
  5
4A2F
102
{ACAD_REACTORS
330
4A2E
102
}
330
4A2E
100
AcDbXrecord
280
     1
102
SHADEPLOT
 70
     0
102
SHADEPLOTRESLEVEL
 70
     2
102
SHADEPLOTCUSTOMDPI
 70
   300
  0
XRECORD
  5
4A33
102
{ACAD_REACTORS
330
4A32
102
}
330
4A32
100
AcDbXrecord
280
     1
102
SHADEPLOT
 70
     0
102
SHADEPLOTRESLEVEL
 70
     2
102
SHADEPLOTCUSTOMDPI
 70
   300
  0
ENDSEC
  0
EOF
