  0
SECTION
  2
HEADER
  9
$ACADVER
  1
AC1015
  9
$ACADMAINTVER
 70
    20
  9
$DWGCODEPAGE
  3
ANSI_950
  9
$INSBASE
 10
0.0
 20
0.0
 30
0.0
  9
$EXTMIN
 10
392.8626118148323
 20
242.5571589878776
 30
0.0
  9
$EXTMAX
 10
640.6736593122117
 20
470.7383728761666
 30
133.1630370666592
  9
$LIMMIN
 10
0.0
 20
0.0
  9
$LIMMAX
 10
420.0
 20
297.0
  9
$ORTHOMODE
 70
     0
  9
$REGENMODE
 70
     1
  9
$FILLMODE
 70
     1
  9
$QTEXTMODE
 70
     0
  9
$MIRRTEXT
 70
     1
  9
$LTSCALE
 40
1.0
  9
$ATTMODE
 70
     1
  9
$TEXTSIZE
 40
3.0
  9
$TRACEWID
 40
1.0
  9
$TEXTSTYLE
  7
STANDARD
  9
$CLAYER
  8
AM_REFDIM
  9
$CELTYPE
  6
ByLayer
  9
$CECOLOR
 62
   256
  9
$CELTSCALE
 40
1.0
  9
$DISPSILH
 70
     0
  9
$DIMSCALE
 40
1.5
  9
$DIMASZ
 40
3.0
  9
$DIMEXO
 40
1.0
  9
$DIMDLI
 40
8.0
  9
$DIMRND
 40
0.0
  9
$DIMDLE
 40
0.0
  9
$DIMEXE
 40
1.0
  9
$DIMTP
 40
0.1
  9
$DIMTM
 40
0.1
  9
$DIMTXT
 40
3.5
  9
$DIMCEN
 40
0.0
  9
$DIMTSZ
 40
0.0
  9
$DIMTOL
 70
     0
  9
$DIMLIM
 70
     0
  9
$DIMTIH
 70
     0
  9
$DIMTOH
 70
     0
  9
$DIMSE1
 70
     0
  9
$DIMSE2
 70
     0
  9
$DIMTAD
 70
     1
  9
$DIMZIN
 70
     8
  9
$DIMBLK
  1

  9
$DIMASO
 70
     1
  9
$DIMSHO
 70
     1
  9
$DIMPOST
  1

  9
$DIMAPOST
  1
"
  9
$DIMALT
 70
     0
  9
$DIMALTD
 70
     2
  9
$DIMALTF
 40
0.0393701
  9
$DIMLFAC
 40
1.0
  9
$DIMTOFL
 70
     1
  9
$DIMTVP
 40
0.0
  9
$DIMTIX
 70
     0
  9
$DIMSOXD
 70
     0
  9
$DIMSAH
 70
     0
  9
$DIMBLK1
  1

  9
$DIMBLK2
  1

  9
$DIMSTYLE
  2
AM_ISO
  9
$DIMCLRD
 70
   256
  9
$DIMCLRE
 70
   256
  9
$DIMCLRT
 70
   256
  9
$DIMTFAC
 40
0.6
  9
$DIMGAP
 40
1.0
  9
$DIMJUST
 70
     0
  9
$DIMSD1
 70
     0
  9
$DIMSD2
 70
     0
  9
$DIMTOLJ
 70
     0
  9
$DIMTZIN
 70
     8
  9
$DIMALTZ
 70
     0
  9
$DIMALTTZ
 70
     0
  9
$DIMUPT
 70
     0
  9
$DIMDEC
 70
     0
  9
$DIMTDEC
 70
     8
  9
$DIMALTU
 70
     2
  9
$DIMALTTD
 70
     2
  9
$DIMTXSTY
  7
STANDARD
  9
$DIMAUNIT
 70
     0
  9
$DIMADEC
 70
     0
  9
$DIMALTRND
 40
0.0
  9
$DIMAZIN
 70
     2
  9
$DIMDSEP
 70
    46
  9
$DIMATFIT
 70
     3
  9
$DIMFRAC
 70
     0
  9
$DIMLDRBLK
  1

  9
$DIMLUNIT
 70
     2
  9
$DIMLWD
 70
    -1
  9
$DIMLWE
 70
    -1
  9
$DIMTMOVE
 70
     0
  9
$LUNITS
 70
     2
  9
$LUPREC
 70
     2
  9
$SKETCHINC
 40
1.0
  9
$FILLETRAD
 40
3.75
  9
$AUNITS
 70
     0
  9
$AUPREC
 70
     0
  9
$MENU
  1
.
  9
$ELEVATION
 40
0.0
  9
$PELEVATION
 40
0.0
  9
$THICKNESS
 40
0.0
  9
$LIMCHECK
 70
     0
  9
$CHAMFERA
 40
3.75
  9
$CHAMFERB
 40
3.75
  9
$CHAMFERC
 40
20.0
  9
$CHAMFERD
 40
0.0
  9
$SKPOLY
 70
     0
  9
$TDCREATE
 40
2454392.703168762
  9
$TDUCREATE
 40
2454392.369835428
  9
$TDUPDATE
 40
2456052.370571100
  9
$TDUUPDATE
 40
2456052.037237766
  9
$TDINDWG
 40
0.2202816551
  9
$TDUSRTIMER
 40
0.2202814699
  9
$USRTIMER
 70
     1
  9
$ANGBASE
 50
0.0
  9
$ANGDIR
 70
     0
  9
$PDMODE
 70
     0
  9
$PDSIZE
 40
0.0
  9
$PLINEWID
 40
0.0
  9
$SPLFRAME
 70
     0
  9
$SPLINETYPE
 70
     6
  9
$SPLINESEGS
 70
     8
  9
$HANDSEED
  5
6587
  9
$SURFTAB1
 70
     6
  9
$SURFTAB2
 70
     6
  9
$SURFTYPE
 70
     6
  9
$SURFU
 70
     6
  9
$SURFV
 70
     6
  9
$UCSBASE
  2

  9
$UCSNAME
  2

  9
$UCSORG
 10
0.0
 20
0.0
 30
0.0
  9
$UCSXDIR
 10
1.0
 20
0.0
 30
0.0
  9
$UCSYDIR
 10
0.0
 20
1.0
 30
0.0
  9
$UCSORTHOREF
  2

  9
$UCSORTHOVIEW
 70
     0
  9
$UCSORGTOP
 10
0.0
 20
0.0
 30
0.0
  9
$UCSORGBOTTOM
 10
0.0
 20
0.0
 30
0.0
  9
$UCSORGLEFT
 10
0.0
 20
0.0
 30
0.0
  9
$UCSORGRIGHT
 10
0.0
 20
0.0
 30
0.0
  9
$UCSORGFRONT
 10
0.0
 20
0.0
 30
0.0
  9
$UCSORGBACK
 10
0.0
 20
0.0
 30
0.0
  9
$PUCSBASE
  2

  9
$PUCSNAME
  2

  9
$PUCSORG
 10
0.0
 20
0.0
 30
0.0
  9
$PUCSXDIR
 10
1.0
 20
0.0
 30
0.0
  9
$PUCSYDIR
 10
0.0
 20
1.0
 30
0.0
  9
$PUCSORTHOREF
  2

  9
$PUCSORTHOVIEW
 70
     0
  9
$PUCSORGTOP
 10
0.0
 20
0.0
 30
0.0
  9
$PUCSORGBOTTOM
 10
0.0
 20
0.0
 30
0.0
  9
$PUCSORGLEFT
 10
0.0
 20
0.0
 30
0.0
  9
$PUCSORGRIGHT
 10
0.0
 20
0.0
 30
0.0
  9
$PUCSORGFRONT
 10
0.0
 20
0.0
 30
0.0
  9
$PUCSORGBACK
 10
0.0
 20
0.0
 30
0.0
  9
$USERI1
 70
     0
  9
$USERI2
 70
     0
  9
$USERI3
 70
     0
  9
$USERI4
 70
     0
  9
$USERI5
 70
     0
  9
$USERR1
 40
0.0
  9
$USERR2
 40
0.0
  9
$USERR3
 40
0.0
  9
$USERR4
 40
0.0
  9
$USERR5
 40
0.0
  9
$WORLDVIEW
 70
     1
  9
$SHADEDGE
 70
     3
  9
$SHADEDIF
 70
    70
  9
$TILEMODE
 70
     1
  9
$MAXACTVP
 70
    64
  9
$PINSBASE
 10
0.0
 20
0.0
 30
0.0
  9
$PLIMCHECK
 70
     0
  9
$PEXTMIN
 10
1.000000000000000E+20
 20
1.000000000000000E+20
 30
1.000000000000000E+20
  9
$PEXTMAX
 10
-1.000000000000000E+20
 20
-1.000000000000000E+20
 30
-1.000000000000000E+20
  9
$PLIMMIN
 10
0.0
 20
0.0
  9
$PLIMMAX
 10
420.0
 20
297.0
  9
$UNITMODE
 70
     0
  9
$VISRETAIN
 70
     1
  9
$PLINEGEN
 70
     0
  9
$PSLTSCALE
 70
     1
  9
$TREEDEPTH
 70
  3020
  9
$CMLSTYLE
  2
Standard
  9
$CMLJUST
 70
     0
  9
$CMLSCALE
 40
20.0
  9
$PROXYGRAPHICS
 70
     1
  9
$MEASUREMENT
 70
     1
  9
$CELWEIGHT
370
    -1
  9
$ENDCAPS
280
     0
  9
$JOINSTYLE
280
     0
  9
$LWDISPLAY
290
     0
  9
$INSUNITS
 70
     4
  9
$HYPERLINKBASE
  1

  9
$STYLESHEET
  1
acad.ctb
  9
$XEDIT
290
     1
  9
$CEPSNTYPE
380
     0
  9
$PSTYLEMODE
290
     1
  9
$FINGERPRINTGUID
  2
{00E4BF2B-312E-4E1D-8C5C-0EEC0927E19E}
  9
$VERSIONGUID
  2
{919A8097-9888-4BBE-B037-3279966D5B3B}
  9
$EXTNAMES
290
     1
  9
$PSVPSCALE
 40
0.0
  9
$OLESTARTUP
290
     0
  0
ENDSEC
  0
SECTION
  2
CLASSES
  0
CLASS
  1
ACDBDICTIONARYWDFLT
  2
AcDbDictionaryWithDefault
  3
ObjectDBX Classes
 90
        0
280
     0
281
     0
  0
CLASS
  1
ACDBPLACEHOLDER
  2
AcDbPlaceHolder
  3
ObjectDBX Classes
 90
        0
280
     0
281
     0
  0
CLASS
  1
LAYOUT
  2
AcDbLayout
  3
ObjectDBX Classes
 90
        0
280
     0
281
     0
  0
CLASS
  1
ACME_DOCUMENT
  2
AcMeDbDoc
  3
AcMeServices
 90
        0
280
     0
281
     0
  0
CLASS
  1
AMGSETTINGSOBJ
  2
AmgSettingsObj
  3
"AcadM|Product Description: AutoCAD Mechanical 2000|Company: Autodesk"
 90
        0
280
     0
281
     0
  0
CLASS
  1
ACMESCOPE
  2
AcMeScope
  3
AcMeServices
 90
        0
280
     0
281
     0
  0
CLASS
  1
ACMECOMMANDHISTORY
  2
AcMeCommandHistory
  3
AcMeServices
 90
        0
280
     0
281
     0
  0
CLASS
  1
ACIMSYSVARMAN
  2
AcImSysVarManager
  3
AcMeServices
 90
        0
280
     0
281
     0
  0
CLASS
  1
ACIMREALSYSVAR
  2
AcImRealSysVar
  3
AcMeServices
 90
        0
280
     0
281
     0
  0
CLASS
  1
ACIMINTSYSVAR
  2
AcImIntSysVar
  3
AcMeServices
 90
        0
280
     0
281
     0
  0
CLASS
  1
ACMEDRAWINGMAN
  2
AcMeDrawingMan
  3
AcMeServices
 90
        0
280
     0
281
     0
  0
CLASS
  1
ACMEVIEW
  2
AcMeView
  3
AcMeServices
 90
        0
280
     0
281
     0
  0
CLASS
  1
ACDBENTITYCACHE
  2
AcMeEntityCache
  3
AcMeServices
 90
        0
280
     0
281
     0
  0
CLASS
  1
GSMANAGER
  2
AcMeGSManager
  3
AcMeServices
 90
        0
280
     0
281
     0
  0
CLASS
  1
AMDTINTERNALREACTOR
  2
AmdtInternalReactor
  3
AcMeServices
 90
        0
280
     0
281
     0
  0
CLASS
  1
ACMESTATEMGR
  2
AcMeStateMgr
  3
AcMeServices
 90
        0
280
     0
281
     0
  0
CLASS
  1
ACGREFMASTER
  2
AcGrefMaster
  3
AcAttribServices
 90
        0
280
     0
281
     0
  0
CLASS
  1
ACME_DATABASE
  2
AcMeDbDatabase
  3
AcMeServices
 90
        0
280
     0
281
     0
  0
CLASS
  1
ACRFINSADJUSTERMGR
  2
AcRfInsAdjusterMgr
  3
AcMeServices
 90
        0
280
     0
281
     0
  0
CLASS
  1
ACGREFACADMASTER
  2
AcGrefacadMaster
  3
AcGrefServices
 90
        0
280
     0
281
     0
  0
CLASS
  1
AMIMASTER
  2
AmiMaster
  3
AmiServices
 90
        0
280
     0
281
     0
  0
CLASS
  1
ACMDATADICTIONARY
  2
AcmDataDictionary
  3
"AcmSymBB|Product Description: AutoCAD Mechanical 2004 DX|Company: Autodesk"
 90
        0
280
     0
281
     0
  0
CLASS
  1
ACMDATAENTRYBLOCK
  2
AcmDataEntryBlock
  3
"AcmSymBB|Product Description: AutoCAD Mechanical 2004 DX|Company: Autodesk"
 90
        0
280
     0
281
     0
  0
CLASS
  1
ACIMSTRSYSVAR
  2
AcImStrSysVar
  3
AcMeServices
 90
        0
280
     0
281
     0
  0
CLASS
  1
ACMSTANDARDISO
  2
AcmStandardISO
  3
"Amdt_StdImp|Product Description: AutoCAD Mechanical 2004 DX|Company: Autodesk"
 90
        0
280
     0
281
     0
  0
CLASS
  1
AMGOBJPROPCFG
  2
AmgObjPropCfg
  3
"AmgLay|Product Description: AutoCAD Mechanical 2000|Company: Autodesk"
 90
        1
280
     0
281
     0
  0
CLASS
  1
AMDTEDGESTANDARDISO
  2
AmdtEdgeStdISO
  3
"Amdt_StdImp|Product Description: AutoCAD Mechanical 2004 DX|Company: Autodesk"
 90
    32768
280
     0
281
     0
  0
CLASS
  1
ACMSURFSTANDARDISO
  2
AcmSurfTextStdISO
  3
"Amdt_StdImp|Product Description: AutoCAD Mechanical 2004 DX|Company: Autodesk"
 90
        0
280
     0
281
     0
  0
CLASS
  1
ACMFCFSTANDARDISO
  2
AcmFCFStdISO
  3
"Amdt_StdImp|Product Description: AutoCAD Mechanical 2004 DX|Company: Autodesk"
 90
        0
280
     0
281
     0
  0
CLASS
  1
ACMWELDSTANDARDISO
  2
AcmWeldingStdISO
  3
"Amdt_StdImp|Product Description: AutoCAD Mechanical 2004 DX|Company: Autodesk"
 90
        0
280
     0
281
     0
  0
CLASS
  1
ACMIDSTANDARDISO
  2
AcmIdStdISO
  3
"Amdt_StdImp|Product Description: AutoCAD Mechanical 2004 DX|Company: Autodesk"
 90
        0
280
     0
281
     0
  0
CLASS
  1
ACMDATUMSTANDARDISO
  2
AcmDatumStdISO
  3
"Amdt_StdImp|Product Description: AutoCAD Mechanical 2004 DX|Company: Autodesk"
 90
        0
280
     0
281
     0
  0
CLASS
  1
ACMBOMSTANDARDISO
  2
AcmBOMStdISO
  3
"Amdt_StdImp|Product Description: AutoCAD Mechanical 2004 DX|Company: Autodesk"
 90
        0
280
     0
281
     0
  0
CLASS
  1
ACMDETAILSTANDARDISO
  2
AmdtDetailSymStdISO
  3
"Amdt_StdImp|Product Description: AutoCAD Mechanical 2004 DX|Company: Autodesk"
 90
        0
280
     0
281
     0
  0
CLASS
  1
ACMSECTIONSTANDARDISO
  2
AmdtSectionSymStdISO
  3
"Amdt_StdImp|Product Description: AutoCAD Mechanical 2004 DX|Company: Autodesk"
 90
        0
280
     0
281
     0
  0
CLASS
  1
ACMCENTERLINESTANDARDISO
  2
AmdtCenterLineStdISO
  3
"Amdt_StdImp|Product Description: AutoCAD Mechanical 2004 DX|Company: Autodesk"
 90
        0
280
     0
281
     0
  0
CLASS
  1
ACMNOTESTANDARDISO
  2
AmdtNoteStdISO
  3
"Amdt_StdImp|Product Description: AutoCAD Mechanical 2004 DX|Company: Autodesk"
 90
        0
280
     0
281
     0
  0
CLASS
  1
ACAMGLAYSTD
  2
AcAmgLayStd
  3
"AcAmgLayStd|Product Description: AutoCAD Mechanical 2000|Company: Autodesk"
 90
        0
280
     0
281
     0
  0
CLASS
  1
ACAMGDIMSTD
  2
AcAmgDimStd
  3
"AcAmgDimStd|Product Description: AutoCAD Mechanical 2000|Company: Autodesk"
 90
        0
280
     0
281
     0
  0
CLASS
  1
ACAMGHOLECHARTSTDISO
  2
AcAmgHoleChartStdISO
  3
ACMSYMBB_MODULE_NAME
 90
        0
280
     0
281
     0
  0
CLASS
  1
ACAMGTITLESTD
  2
AcAmgTitleStd
  3
"TITLEAPP"
 90
        0
280
     0
281
     0
  0
CLASS
  1
LAYER_INDEX
  2
AcDbLayerIndex
  3
ObjectDBX Classes
 90
        0
280
     0
281
     0
  0
CLASS
  1
IDBUFFER
  2
AcDbIdBuffer
  3
ObjectDBX Classes
 90
        0
280
     0
281
     0
  0
CLASS
  1
DICTIONARYVAR
  2
AcDbDictionaryVar
  3
ObjectDBX Classes
 90
        0
280
     0
281
     0
  0
CLASS
  1
AM_DRAWING_MGR
  2
AcDmDwgMgr
  3
AcMechDwgViewMgmt
 90
        0
280
     0
281
     0
  0
CLASS
  1
AM_DWG_DOCUMENT
  2
AcDmDwgDocument
  3
AcMechDwgViewMgmt
 90
        0
280
     0
281
     0
  0
CLASS
  1
AM_DWG_SHEET
  2
AcDmSheet
  3
AcMechDwgViewMgmt
 90
        0
280
     0
281
     0
  0
CLASS
  1
AM_VIEWDIMPARMAP
  2
AcDmViewDimParMap
  3
AcMechDwgViewMgmt
 90
        0
280
     0
281
     0
  0
CLASS
  1
AM_DWGMGR_NAME
  2
AcDmDwgMgrName
  3
AcMechDwgViewMgmt
 90
        0
280
     0
281
     0
  0
CLASS
  1
AMDTMENUSTATEMGR
  2
AmdtMenuStateMgr
  3
McadcomServices
 90
        0
280
     0
281
     0
  0
CLASS
  1
AMDTMCOMMENUSTATE
  2
AmdtMcomMenuState
  3
McadcomServices
 90
        0
280
     0
281
     0
  0
CLASS
  1
MAPIAMMOUDLE
  2
MApiAmModule
  3
MApiAmServices
 90
        0
280
     0
281
     0
  0
CLASS
  1
AMDTADMENUSTATE
  2
AmdtAdMenuState
  3
DesignerServices
 90
        0
280
     0
281
     0
  0
CLASS
  1
ADAPPL
  2
AcAdAppl
  3
DesignerServices
 90
        0
280
     0
281
     0
  0
CLASS
  1
DEPMGR
  2
AcAdDepMgr
  3
DesignerServices
 90
        0
280
     0
281
     0
  0
CLASS
  1
PARAMMGR
  2
AcAdParamMgr
  3
DesignerServices
 90
        0
280
     0
281
     0
  0
CLASS
  1
PARAMSCOPE
  2
AcAdParamScope
  3
DesignerServices
 90
        0
280
     0
281
     0
  0
CLASS
  1
NAMEDAPPL
  2
AcAdNamedAppl
  3
DesignerServices
 90
        0
280
     0
281
     0
  0
CLASS
  1
AMDTDMMENUSTATE
  2
AmdtDmMenuState
  3
AcMechDwgViewMgmt
 90
        0
280
     0
281
     0
  0
CLASS
  1
AMDTAMMENUSTATE
  2
AmdtAmMenuState
  3
DesignerAssemblies
 90
        0
280
     0
281
     0
  0
CLASS
  1
ACAMPROJECT
  2
AcAmProject
  3
DesignerAssemblies
 90
        0
280
     0
281
     0
  0
CLASS
  1
ACAMGRCOMPDEF
  2
AcAmGrCompDef
  3
DesignerAssemblies
 90
        0
280
     0
281
     0
  0
CLASS
  1
ACCMCONTEXT
  2
AcCmContext
  3
DesignerAssemblies
 90
        0
280
     0
281
     0
  0
CLASS
  1
ACAMCOMPDEF
  2
AcAmCompDef
  3
DesignerAssemblies
 90
        0
280
     0
281
     0
  0
CLASS
  1
ACAMCOMPDEFMGR
  2
AcAmCompDefMgr
  3
DesignerAssemblies
 90
        0
280
     0
281
     0
  0
CLASS
  1
AMCONTEXTMGR
  2
AcAmContextMgr
  3
DesignerAssemblies
 90
        0
280
     0
281
     0
  0
CLASS
  1
ACAMCONTEXTMODELER
  2
AcAmContextModeler
  3
DesignerAssemblies
 90
        0
280
     0
281
     0
  0
CLASS
  1
ACMTHREADLINESTANDARDISO
  2
AmdtThreadLineStdISO
  3
"Amdt_StdImp|Product Description: AutoCAD Mechanical 2004 DX|Company: Autodesk"
 90
        0
280
     0
281
     0
  0
CLASS
  1
CATALOGSTATE
  2
AcAmCatalogState
  3
DesignerAssemblies
 90
        0
280
     0
281
     0
  0
CLASS
  1
ACAMGRCOMPDEFSET
  2
AcAmGrCompDefSet
  3
DesignerAssemblies
 90
        0
280
     0
281
     0
  0
CLASS
  1
AMDTBROWSERDBTAB
  2
AmdtBrowserDbTab
  3
McadcomServices
 90
        0
280
     0
281
     0
  0
CLASS
  1
CBROWSERAPPOBJECT
  2
CBrowserAppObject
  3
McadcomServices
 90
        0
280
     0
281
     0
  0
CLASS
  1
DM_PLACEHOLDER
  2
AcDmSelsetPlaceholder
  3
AcMechDwgViewMgmt
 90
        0
280
     0
281
     0
  0
CLASS
  1
TABLESTYLE
  2
AcDbTableStyle
  3
ObjectDBX Classes
 90
     2047
280
     0
281
     0
  0
CLASS
  1
VAACXREFPANELOBJECT
  2
VaAcXREFPanelObject
  3
VAAC_ADDIN
 90
    32768
280
     0
281
     0
  0
CLASS
  1
VAACIMAGEINVENTORY
  2
VaAcImageInventory
  3
VAAC_ADDIN
 90
    32768
280
     0
281
     0
  0
CLASS
  1
AMDTNOTETEMPLATEDB
  2
AmdtNoteTemplateDB
  3
AMDT_STDIMP_MODULE_NAME
 90
        0
280
     0
281
     0
  0
CLASS
  1
ACMBOM
  2
AcmBom
  3
"AcmSymBB|Product Description: AutoCAD Mechanical 2004 DX|Company: Autodesk"
 90
    32768
280
     0
281
     0
  0
CLASS
  1
AMDTFORMULAUPDATEDISPATCHER
  2
AmdtFormulaUpdateDispatcher
  3
AcMeServices
 90
    32768
280
     0
281
     0
  0
CLASS
  1
ACMPARTLIST
  2
AcmPartList
  3
"AcmSymBB|Product Description: AutoCAD Mechanical 2004 DX|Company: Autodesk"
 90
    33791
280
     0
281
     1
  0
CLASS
  1
ACAMGFILTERDAT
  2
AcAmgFilterDat
  3
"AcadM|Product Description: AutoCAD Mechanical 2000|Company: Autodesk"
 90
    32768
280
     0
281
     0
  0
CLASS
  1
DIMASSOC
  2
AcDbDimAssoc
  3
"AcDbDimAssoc|Product Desc:     AcDim ARX App For Dimension|Company:          Autodesk, Inc.|WEB Address:      www.autodesk.com"
 90
        0
280
     0
281
     0
  0
CLASS
  1
AMDTNOTE
  2
AmdtNote
  3
"AcmSymBB|Product Description: AutoCAD Mechanical 2004 DX|Company: Autodesk"
 90
    33791
280
     0
281
     1
  0
CLASS
  1
AMDTEDGESTANDARDISO13715
  2
AmdtEdgeStdISO13715
  3
"Amdt_StdImp|Product Description: AutoCAD Mechanical 2004 DX|Company: Autodesk"
 90
        0
280
     0
281
     0
  0
CLASS
  1
ACRFATTGENMGR
  2
AcRfAttGeneralMgr
  3
AcAttribServices
 90
    32768
280
     0
281
     0
  0
CLASS
  1
ASAPP
  2
AcAsAppObject
  3
AutoSurfServices
 90
        0
280
     0
281
     0
  0
CLASS
  1
IM_STATIC_MAN
  2
AcImStaticVarManager
  3
AcMeServices
 90
        0
280
     0
281
     0
  0
CLASS
  1
ACIMDBLSTATICVAR
  2
AcImDblStaticVar
  3
AcMeServices
 90
        0
280
     0
281
     0
  0
CLASS
  1
ACIMSTRSTATICVAR
  2
AcImStrStaticVar
  3
AcMeServices
 90
        0
280
     0
281
     0
  0
CLASS
  1
ACIMINTSTATICVAR
  2
AcImIntStaticVar
  3
AcMeServices
 90
        0
280
     0
281
     0
  0
CLASS
  1
ACASGREFMASTER
  2
AcAsGrefMaster
  3
AutoSurfResolverServices
 90
        0
280
     0
281
     0
  0
CLASS
  1
ACADGREFMODULE
  2
AcAdGrefModule
  3
AdGrefServices
 90
        0
280
     0
281
     0
  0
CLASS
  1
AMDTMAPISURFMOUDULE
  2
AmdtMApiSurfModule
  3
MApiSurfServices
 90
        0
280
     0
281
     0
  0
CLASS
  1
MAPIADMODULE
  2
MApiAdModule
  3
MApiAdServices
 90
        0
280
     0
281
     0
  0
ENDSEC
  0
SECTION
  2
TABLES
  0
TABLE
  2
VPORT
  5
8
330
0
100
AcDbSymbolTable
 70
    22
  0
VPORT
  5
657E
330
8
100
AcDbSymbolTableRecord
100
AcDbViewportTableRecord
  2
*Active
 70
     0
 10
0.0
 20
0.0
 11
1.0
 21
1.0
 12
81.90836188402426
 22
59.8990189004524
 13
0.0
 23
0.0
 14
3.75
 24
3.75
 15
15.0
 25
15.0
 16
0.0
 26
0.0
 36
1.0
 17
475.2465220475392
 27
286.8869866440797
 37
0.0
 40
300.503857580106
 41
1.295739348370927
 42
50.0
 43
0.0
 44
0.0
 50
0.0
 51
0.0
 71
     0
 72
  1000
 73
     1
 74
     3
 75
     0
 76
     0
 77
     0
 78
     0
281
     0
 65
     0
110
0.0
120
0.0
130
0.0
111
1.0
121
0.0
131
0.0
112
0.0
122
1.0
132
0.0
 79
     0
146
0.0
  0
ENDTAB
  0
TABLE
  2
LTYPE
  5
5
330
0
100
AcDbSymbolTable
 70
    17
  0
LTYPE
  5
14
330
5
100
AcDbSymbolTableRecord
100
AcDbLinetypeTableRecord
  2
ByBlock
 70
     0
  3

 72
    65
 73
     0
 40
0.0
  0
LTYPE
  5
15
330
5
100
AcDbSymbolTableRecord
100
AcDbLinetypeTableRecord
  2
ByLayer
 70
     0
  3

 72
    65
 73
     0
 40
0.0
  0
LTYPE
  5
16
330
5
100
AcDbSymbolTableRecord
100
AcDbLinetypeTableRecord
  2
Continuous
 70
     0
  3
Solid line
 72
    65
 73
     0
 40
0.0
  0
LTYPE
  5
64
330
5
100
AcDbSymbolTableRecord
100
AcDbLinetypeTableRecord
  2
AM_ISO02W050
 70
     0
  3
__ __ __ __ __ __ __ __ __ __ __ __ __ __ __
 72
    65
 73
     2
 40
7.5
 49
6.0
 74
     0
 49
-1.5
 74
     0
  0
LTYPE
  5
65
330
5
100
AcDbSymbolTableRecord
100
AcDbLinetypeTableRecord
  2
AM_ISO08W050
 70
     0
  3
____ . ____ . ____ . ____ . ____ . ____ . ____
 72
    65
 73
     4
 40
18.0
 49
12.0
 74
     0
 49
-1.5
 74
     0
 49
3.0
 74
     0
 49
-1.5
 74
     0
  0
LTYPE
  5
66
330
5
100
AcDbSymbolTableRecord
100
AcDbLinetypeTableRecord
  2
AM_ISO09W050
 70
     0
  3
_____ . . _____ . . _____ . . ____ .. ____
 72
    65
 73
     6
 40
22.5
 49
12.0
 74
     0
 49
-1.5
 74
     0
 49
3.0
 74
     0
 49
-1.5
 74
     0
 49
3.0
 74
     0
 49
-1.5
 74
     0
  0
LTYPE
  5
67
330
5
100
AcDbSymbolTableRecord
100
AcDbLinetypeTableRecord
  2
Amconstr
 70
     0
  3
_______________________
 72
    65
 73
     2
 40
9999.0
 49
9999.0
 74
     0
 49
0.0
 74
     0
  0
LTYPE
  5
68
330
5
100
AcDbSymbolTableRecord
100
AcDbLinetypeTableRecord
  2
AM_ISO08W050x2
 70
     0
  3
__ . __ . __ . __ . __ . __
 72
    65
 73
     4
 40
9.0
 49
6.0
 74
     0
 49
-0.75
 74
     0
 49
1.5
 74
     0
 49
-0.75
 74
     0
  0
LTYPE
  5
69
330
5
100
AcDbSymbolTableRecord
100
AcDbLinetypeTableRecord
  2
AM_ISO02W050x2
 70
     0
  3
 _ _ _ _ _ _ _ _ _ _ _ _
 72
    65
 73
     2
 40
3.75
 49
3.0
 74
     0
 49
-0.75
 74
     0
  0
LTYPE
  5
6C
330
5
100
AcDbSymbolTableRecord
100
AcDbLinetypeTableRecord
  2
Amzigzag
 70
     0
  3
/\/-/\/-/\/-/\/-/\/-/\/
 72
    65
 73
     2
 40
11.0001
 49
0.0001
 74
     4
 75
   135
340
6B
 46
0.04
 50
0.0
 44
0.0
 45
0.0
 49
-11.0
 74
     0
  0
LTYPE
  5
7A
330
5
100
AcDbSymbolTableRecord
100
AcDbLinetypeTableRecord
  2
ACISOWELD
 70
     0
  3
_ _ _ _ _
 72
    65
 73
     2
 40
2.0
 49
2.0
 74
     0
 49
-1.0
 74
     0
  0
LTYPE
  5
7B
330
5
100
AcDbSymbolTableRecord
100
AcDbLinetypeTableRecord
  2
ACISOTGB
 70
     0
  3
__ . . __ . .
 72
    65
 73
     6
 40
9.0
 49
4.0
 74
     0
 49
-1.0
 74
     0
 49
1.0
 74
     0
 49
-1.0
 74
     0
 49
1.0
 74
     0
 49
-1.0
 74
     0
  0
LTYPE
  5
7C
330
5
100
AcDbSymbolTableRecord
100
AcDbLinetypeTableRecord
  2
ACISOTGL
 70
     0
  3
_ _ _ _ _
 72
    65
 73
     2
 40
3.0
 49
2.0
 74
     0
 49
-1.0
 74
     0
  0
LTYPE
  5
7E
330
5
100
AcDbSymbolTableRecord
100
AcDbLinetypeTableRecord
  2
CENTER
 70
     0
  3
__ . __
 72
    65
 73
     4
 40
7.0
 49
4.0
 74
     0
 49
-1.0
 74
     0
 49
1.0
 74
     0
 49
-1.0
 74
     0
  0
LTYPE
  5
D8
330
5
100
AcDbSymbolTableRecord
100
AcDbLinetypeTableRecord
  2
HIDDEN
 70
     0
  3
Hidden __ __ __ __ __ __ __ __ __ __ __ __ __ _
 72
    65
 73
     2
 40
9.524999999999998
 49
6.349999999999999
 74
     0
 49
-3.174999999999999
 74
     0
  0
LTYPE
  5
D9
330
5
100
AcDbSymbolTableRecord
100
AcDbLinetypeTableRecord
  2
PHANTOM2
 70
     0
  3
Phantom (.5x) ___ _ _ ___ _ _ ___ _ _ ___ _ _
 72
    65
 73
     6
 40
31.75
 49
15.875
 74
     0
 49
-3.174999999999999
 74
     0
 49
3.174999999999999
 74
     0
 49
-3.174999999999999
 74
     0
 49
3.174999999999999
 74
     0
 49
-3.174999999999999
 74
     0
  0
LTYPE
  5
3AFB
330
5
100
AcDbSymbolTableRecord
100
AcDbLinetypeTableRecord
  2
HIDDEN2
 70
     0
  3
Hidden (.5x) _ _ _ _ _ _ _ _ _ _ _ _ _ _ _ _ _
 72
    65
 73
     2
 40
0.1875
 49
0.125
 74
     0
 49
-0.0625
 74
     0
  0
LTYPE
  5
3D45
330
5
100
AcDbSymbolTableRecord
100
AcDbLinetypeTableRecord
  2
ASULTYPE
 70
     0
  3
實線
 72
    65
 73
     2
 40
3.0
 49
2.5
 74
     0
 49
0.5
 74
     0
  0
LTYPE
  5
3D46
330
5
100
AcDbSymbolTableRecord
100
AcDbLinetypeTableRecord
  2
ASVLTYPE
 70
     0
  3
__ __ __ __ __ __ __ __ __ __ __ __ __ __ __ __ __ __ __ __ __
 72
    65
 73
     2
 40
0.75
 49
0.5
 74
     0
 49
-0.25
 74
     0
  0
ENDTAB
  0
TABLE
  2
LAYER
  5
2
102
{ACAD_XDICTIONARY
360
3F9
102
}
330
0
100
AcDbSymbolTable
 70
     9
  0
LAYER
  5
10
330
2
100
AcDbSymbolTableRecord
100
AcDbLayerTableRecord
  2
0
 70
     0
 62
     7
  6
Continuous
370
    -3
390
F
  0
LAYER
  5
ACB
330
2
100
AcDbSymbolTableRecord
100
AcDbLayerTableRecord
  2
AM_VIS
 70
     0
 62
     7
  6
Continuous
370
    50
390
F
  0
LAYER
  5
ACC
330
2
100
AcDbSymbolTableRecord
100
AcDbLayerTableRecord
  2
AM_7
 70
     0
 62
     1
  6
AM_ISO08W050x2
370
    25
390
F
  0
LAYER
  5
13A4
330
2
100
AcDbSymbolTableRecord
100
AcDbLayerTableRecord
  2
Defpoints
 70
     0
 62
     7
  6
Continuous
290
     0
370
    -3
390
F
  0
LAYER
  5
16FA
330
2
100
AcDbSymbolTableRecord
100
AcDbLayerTableRecord
  2
LOGO
 70
     0
 62
     7
  6
Continuous
370
    -3
390
F
  0
LAYER
  5
3455
330
2
100
AcDbSymbolTableRecord
100
AcDbLayerTableRecord
  2
AM_4
 70
     0
 62
     3
  6
ASVLTYPE
370
    25
390
F
  0
LAYER
  5
3456
330
2
100
AcDbSymbolTableRecord
100
AcDbLayerTableRecord
  2
AM_REFDIM
 70
     0
 62
     5
  6
Continuous
370
    25
390
F
  0
LAYER
  5
3AFC
330
2
100
AcDbSymbolTableRecord
100
AcDbLayerTableRecord
  2
AM_HID
 70
     0
 62
     7
  6
AM_ISO02W050
370
    25
390
F
  0
LAYER
  5
3EFF
330
2
100
AcDbSymbolTableRecord
100
AcDbLayerTableRecord
  2
AM_5
 70
     0
 62
     3
  6
Continuous
370
    25
390
F
  0
ENDTAB
  0
TABLE
  2
STYLE
  5
3
330
0
100
AcDbSymbolTable
 70
     6
  0
STYLE
  5
11
330
3
100
AcDbSymbolTableRecord
100
AcDbTextStyleTableRecord
  2
STANDARD
 70
     0
 40
0.0
 41
1.0
 50
0.0
 71
     0
 42
3.0
  3
ISOCP.SHX
  4
CHINESET.SHX
  0
STYLE
  5
6B
330
3
100
AcDbSymbolTableRecord
100
AcDbTextStyleTableRecord
  2

 70
     1
 40
0.0
 41
1.0
 50
0.0
 71
     0
 42
2.5
  3
ltypeshp.shx
  4

  0
STYLE
  5
6D
330
3
100
AcDbSymbolTableRecord
100
AcDbTextStyleTableRecord
  2
ACISOTS
 70
     0
 40
1.0
 41
1.0
 50
0.0
 71
     0
 42
1.0
  3
isocp.shx
  4
chineset.shx
  0
STYLE
  5
79
330
3
100
AcDbSymbolTableRecord
100
AcDbTextStyleTableRecord
  2
ACISOGDT
 70
     0
 40
0.0
 41
1.0
 50
0.0
 71
     0
 42
2.5
  3
amgdt.shx
  4
chineset.shx
  0
STYLE
  5
16FB
330
3
100
AcDbSymbolTableRecord
100
AcDbTextStyleTableRecord
  2
CHINESET
 70
     0
 40
0.0
 41
1.0
 50
0.0
 71
     0
 42
3.0
  3
simplex.shx
  4
CHINESET.SHX
  0
STYLE
  5
3457
330
3
100
AcDbSymbolTableRecord
100
AcDbTextStyleTableRecord
  2
DAYUS
 70
     0
 40
0.0
 41
1.0
 50
0.0
 71
     0
 42
2.5
  3
simplex
  4
dayus
  0
ENDTAB
  0
TABLE
  2
VIEW
  5
6
330
0
100
AcDbSymbolTable
 70
     0
  0
ENDTAB
  0
TABLE
  2
UCS
  5
7
330
0
100
AcDbSymbolTable
 70
     0
  0
ENDTAB
  0
TABLE
  2
APPID
  5
9
330
0
100
AcDbSymbolTable
 70
    23
  0
APPID
  5
12
330
9
100
AcDbSymbolTableRecord
100
AcDbRegAppTableRecord
  2
ACAD
 70
     0
  0
APPID
  5
46
330
9
100
AcDbSymbolTableRecord
100
AcDbRegAppTableRecord
  2
MCAD_NO_VIS
 70
     0
  0
APPID
  5
47
330
9
100
AcDbSymbolTableRecord
100
AcDbRegAppTableRecord
  2
ACAD_TEMP_GRAPHIC
 70
     0
  0
APPID
  5
58
330
9
100
AcDbSymbolTableRecord
100
AcDbRegAppTableRecord
  2
ACATTRIBSERVICES
 70
     0
  0
APPID
  5
EE
330
9
100
AcDbSymbolTableRecord
100
AcDbRegAppTableRecord
  2
AD_DRAW
 70
     0
  0
APPID
  5
10C
330
9
100
AcDbSymbolTableRecord
100
AcDbRegAppTableRecord
  2
DESIGNERASSEMBLIES
 70
     0
  0
APPID
  5
111
330
9
100
AcDbSymbolTableRecord
100
AcDbRegAppTableRecord
  2
ACADM_DIM_EDIT
 70
     0
  0
APPID
  5
112
330
9
100
AcDbSymbolTableRecord
100
AcDbRegAppTableRecord
  2
AMDT_DM_ADJ
 70
     0
  0
APPID
  5
22C
330
9
100
AcDbSymbolTableRecord
100
AcDbRegAppTableRecord
  2
ACAD_DSTYLE_DIMTEXT_FILL
 70
     0
  0
APPID
  5
452
330
9
100
AcDbSymbolTableRecord
100
AcDbRegAppTableRecord
  2
GENIUS_GENOENT_13
 70
     0
  0
APPID
  5
453
330
9
100
AcDbSymbolTableRecord
100
AcDbRegAppTableRecord
  2
GENIUS_GENOBJ-N-CRS_13
 70
     0
  0
APPID
  5
454
330
9
100
AcDbSymbolTableRecord
100
AcDbRegAppTableRecord
  2
GENIUS_GENOLIS_13
 70
     0
  0
APPID
  5
455
330
9
100
AcDbSymbolTableRecord
100
AcDbRegAppTableRecord
  2
GENIUS_GENODEF_13
 70
     0
  0
APPID
  5
456
330
9
100
AcDbSymbolTableRecord
100
AcDbRegAppTableRecord
  2
GENIUS_GENOREF_13
 70
     0
  0
APPID
  5
6F3
330
9
100
AcDbSymbolTableRecord
100
AcDbRegAppTableRecord
  2
ACAD_PSEXT
 70
     0
  0
APPID
  5
808
330
9
100
AcDbSymbolTableRecord
100
AcDbRegAppTableRecord
  2
GENIUS_GENDTOL_13
 70
     0
  0
APPID
  5
16FC
330
9
100
AcDbSymbolTableRecord
100
AcDbRegAppTableRecord
  2
GENIUS_GENREC_14
 70
     0
  0
APPID
  5
16FD
330
9
100
AcDbSymbolTableRecord
100
AcDbRegAppTableRecord
  2
GENIUS_GENOBJ-N-REC_13
 70
     0
  0
APPID
  5
268C
330
9
100
AcDbSymbolTableRecord
100
AcDbRegAppTableRecord
  2
GENIUS_GENDIMSH_14
 70
     0
  0
APPID
  5
3991
330
9
100
AcDbSymbolTableRecord
100
AcDbRegAppTableRecord
  2
GENIUS_GENDIM_13
 70
     0
  0
APPID
  5
3992
330
9
100
AcDbSymbolTableRecord
100
AcDbRegAppTableRecord
  2
GENIUS_GE3DTOL_13
 70
     0
  0
APPID
  5
3A12
330
9
100
AcDbSymbolTableRecord
100
AcDbRegAppTableRecord
  2
ASURF_PCURVE_APPNAME
 70
     0
  0
APPID
  5
3A17
330
9
100
AcDbSymbolTableRecord
100
AcDbRegAppTableRecord
  2
AMG_3D2D_5.0
 70
     0
  0
ENDTAB
  0
TABLE
  2
DIMSTYLE
  5
A
330
0
100
AcDbSymbolTable
 70
    10
100
AcDbDimStyleTable
 71
     3
340
81
340
8B
340
86
  0
DIMSTYLE
105
81
330
A
100
AcDbSymbolTableRecord
100
AcDbDimStyleTableRecord
  2
AM_ISO
 70
     0
  4
"
 40
1.5
 41
3.0
 42
1.0
 43
8.0
 44
1.0
 47
0.1
 48
0.1
 73
     0
 74
     0
 77
     1
 78
     8
 79
     2
140
3.5
141
0.0
143
0.0393701
146
0.6
147
1.0
172
     1
176
   256
177
   256
178
   256
271
     2
272
     2
283
     0
284
     8
340
11
371
    -1
372
    -1
  0
DIMSTYLE
105
82
330
A
100
AcDbSymbolTableRecord
100
AcDbDimStyleTableRecord
  2
AM_ISO$3
 70
     0
  4
"
 40
1.5
 41
3.0
 42
1.0
 43
8.0
 44
1.0
 47
0.1
 48
0.1
 73
     0
 77
     1
 78
     8
 79
     2
140
3.5
141
0.0
143
0.0393701
146
0.6
147
1.0
176
   256
177
   256
178
   256
271
     2
272
     2
283
     0
284
     8
288
     1
289
     0
340
11
371
    -1
372
    -1
  0
DIMSTYLE
105
83
330
A
100
AcDbSymbolTableRecord
100
AcDbDimStyleTableRecord
  2
AM_ISO$4
 70
     0
  4
"
 40
1.5
 41
3.0
 42
1.0
 43
8.0
 44
1.0
 47
0.1
 48
0.1
 73
     0
 77
     1
 78
     8
 79
     2
140
3.5
141
0.0
143
0.0393701
146
0.6
147
1.0
176
   256
177
   256
178
   256
271
     2
272
     2
283
     0
284
     8
288
     1
289
     0
340
11
371
    -1
372
    -1
  0
DIMSTYLE
105
84
330
A
100
AcDbSymbolTableRecord
100
AcDbDimStyleTableRecord
  2
AM_ISO$6
 70
     0
  4
"
 40
1.5
 41
3.0
 42
1.0
 43
8.0
 44
1.0
 47
0.1
 48
0.1
 73
     0
 74
     0
 78
     8
 79
     2
140
3.5
141
0.0
143
0.0393701
146
0.6
147
1.0
172
     1
176
   256
177
   256
178
   256
271
     2
272
     2
283
     0
284
     8
340
11
371
    -1
372
    -1
  0
DIMSTYLE
105
85
330
A
100
AcDbSymbolTableRecord
100
AcDbDimStyleTableRecord
  2
AM_ISO$7
 70
     0
  4
"
 40
1.5
 41
3.0
 42
1.0
 43
8.0
 44
1.0
 47
0.1
 48
0.1
 73
     0
 74
     0
 77
     1
 78
     8
 79
     2
140
3.5
141
0.0
143
0.0393701
146
0.6
147
1.0
172
     1
176
   256
177
   256
178
   256
271
     2
272
     2
283
     0
284
     8
340
11
371
    -1
372
    -1
  0
DIMSTYLE
105
86
330
A
100
AcDbSymbolTableRecord
100
AcDbDimStyleTableRecord
  2
AM_ISO$SF
 70
     0
  4
"
 40
1.5
 41
2.5
 42
1.0
 43
10.0
 44
1.0
 47
0.1
 48
0.1
 73
     0
 74
     0
 75
     1
 76
     1
 77
     1
 78
     8
 79
     2
140
3.5
141
0.0
143
0.0393701
146
0.71
147
1.5
172
     1
176
   256
177
   256
178
     2
271
     2
272
     3
274
     4
283
     0
284
     8
340
11
371
    -1
372
    -1
  0
DIMSTYLE
105
8B
330
A
100
AcDbSymbolTableRecord
100
AcDbDimStyleTableRecord
  2
AM_ISO$SH
 70
     0
  4
"
 40
1.5
 41
2.5
 42
1.0
 43
10.0
 44
1.0
 47
0.1
 48
0.1
 73
     0
 74
     0
 75
     1
 76
     1
 77
     1
 78
     8
 79
     2
140
3.5
141
0.0
143
0.0393701
144
2.0
146
0.71
147
1.5
172
     1
173
     1
176
   256
177
   256
178
     2
271
     2
272
     3
274
     4
283
     0
284
     8
340
11
343
87
371
    -1
372
    -1
  0
DIMSTYLE
105
40B
102
{ACAD_REACTORS
330
6313
330
63AD
330
6387
330
6361
330
63D3
330
63F9
330
641F
330
646B
330
6445
330
6547
102
}
330
A
100
AcDbSymbolTableRecord
100
AcDbDimStyleTableRecord
  2
AM_ISO$0
 70
     0
  4
"
 40
1.5
 41
3.0
 42
1.0
 43
8.0
 44
1.0
 47
0.1
 48
0.1
 73
     0
 74
     0
 77
     1
 78
     8
 79
     2
140
3.5
141
0.0
143
0.0393701
146
0.6
147
1.0
172
     1
176
   256
177
   256
178
   256
271
     2
272
     2
283
     0
284
     8
340
11
371
    -1
372
    -1
  0
DIMSTYLE
105
3AFD
330
A
100
AcDbSymbolTableRecord
100
AcDbDimStyleTableRecord
  2
AM_ANSI$0
 70
     0
  4
"
 40
0.8
 41
3.0
 42
1.5
 43
6.4
 44
2.0
 47
0.1
 48
0.1
 73
     0
 74
     0
 77
     3
 78
     8
 79
     2
140
3.0
141
0.0
143
0.0393701
146
0.6
147
0.8
172
     1
176
   256
177
   256
178
   256
271
     2
272
     2
284
     8
340
3457
371
    -1
372
    -1
  0
DIMSTYLE
105
3D53
330
A
100
AcDbSymbolTableRecord
100
AcDbDimStyleTableRecord
  2
ISO-25
 70
     0
 41
2.5
 42
0.625
 43
3.75
 44
1.25
 73
     0
 74
     0
 77
     1
 78
     8
140
2.5
141
2.5
143
0.03937007874016
147
0.625
171
     3
172
     1
271
     2
272
     2
274
     3
278
    44
283
     0
284
     8
340
11
  0
ENDTAB
  0
TABLE
  2
BLOCK_RECORD
  5
1
330
0
100
AcDbSymbolTable
 70
    15
  0
BLOCK_RECORD
  5
1F
102
{ACAD_XDICTIONARY
360
8F
102
}
330
1
100
AcDbSymbolTableRecord
100
AcDbBlockTableRecord
  2
*Model_Space
340
22
  0
BLOCK_RECORD
  5
1B
330
1
100
AcDbSymbolTableRecord
100
AcDbBlockTableRecord
  2
*Paper_Space
340
1E
  0
BLOCK_RECORD
  5
23
330
1
100
AcDbSymbolTableRecord
100
AcDbBlockTableRecord
  2
*Paper_Space0
340
26
  0
BLOCK_RECORD
  5
87
330
1
100
AcDbSymbolTableRecord
100
AcDbBlockTableRecord
  2
GENAXEH
340
0
  0
BLOCK_RECORD
  5
3AEA
330
1
100
AcDbSymbolTableRecord
100
AcDbBlockTableRecord
  2
GENDOT
340
0
  0
BLOCK_RECORD
  5
4CB8
330
1
100
AcDbSymbolTableRecord
100
AcDbBlockTableRecord
  2
SW_CENTERMARKSYMBOL_0
340
0
  0
BLOCK_RECORD
  5
6314
330
1
100
AcDbSymbolTableRecord
100
AcDbBlockTableRecord
  2
*D5
340
0
  0
BLOCK_RECORD
  5
6362
330
1
100
AcDbSymbolTableRecord
100
AcDbBlockTableRecord
  2
*D6
340
0
  0
BLOCK_RECORD
  5
6388
330
1
100
AcDbSymbolTableRecord
100
AcDbBlockTableRecord
  2
*D7
340
0
  0
BLOCK_RECORD
  5
63AE
330
1
100
AcDbSymbolTableRecord
100
AcDbBlockTableRecord
  2
*D8
340
0
  0
BLOCK_RECORD
  5
63D4
330
1
100
AcDbSymbolTableRecord
100
AcDbBlockTableRecord
  2
*D9
340
0
  0
BLOCK_RECORD
  5
63FA
330
1
100
AcDbSymbolTableRecord
100
AcDbBlockTableRecord
  2
*D10
340
0
  0
BLOCK_RECORD
  5
6420
330
1
100
AcDbSymbolTableRecord
100
AcDbBlockTableRecord
  2
*D11
340
0
  0
BLOCK_RECORD
  5
6446
330
1
100
AcDbSymbolTableRecord
100
AcDbBlockTableRecord
  2
*D12
340
0
  0
BLOCK_RECORD
  5
646C
330
1
100
AcDbSymbolTableRecord
100
AcDbBlockTableRecord
  2
*D13
340
0
  0
BLOCK_RECORD
  5
6548
330
1
100
AcDbSymbolTableRecord
100
AcDbBlockTableRecord
  2
*D14
340
0
  0
ENDTAB
  0
ENDSEC
  0
SECTION
  2
BLOCKS
  0
BLOCK
  5
20
330
1F
100
AcDbEntity
  8
0
100
AcDbBlockBegin
  2
*Model_Space
 70
     0
 10
0.0
 20
0.0
 30
0.0
  3
*Model_Space
  1

  0
ENDBLK
  5
21
330
1F
100
AcDbEntity
  8
0
100
AcDbBlockEnd
  0
BLOCK
  5
1C
330
1B
100
AcDbEntity
 67
     1
  8
0
100
AcDbBlockBegin
  2
*Paper_Space
 70
     0
 10
0.0
 20
0.0
 30
0.0
  3
*Paper_Space
  1

  0
ENDBLK
  5
1D
330
1B
100
AcDbEntity
 67
     1
  8
0
100
AcDbBlockEnd
  0
BLOCK
  5
24
330
23
100
AcDbEntity
  8
0
100
AcDbBlockBegin
  2
*Paper_Space0
 70
     0
 10
0.0
 20
0.0
 30
0.0
  3
*Paper_Space0
  1

  0
ENDBLK
  5
25
330
23
100
AcDbEntity
  8
0
100
AcDbBlockEnd
  0
BLOCK
  5
89
330
87
100
AcDbEntity
  8
0
100
AcDbBlockBegin
  2
GENAXEH
 70
     0
 10
0.0
 20
0.0
 30
0.0
  3
GENAXEH
  1

  0
LINE
  5
88
330
87
100
AcDbEntity
  8
0
100
AcDbLine
 10
-1.0
 20
0.0
 30
0.0
 11
1.0
 21
0.0
 31
0.0
  0
ENDBLK
  5
8A
330
87
100
AcDbEntity
  8
0
100
AcDbBlockEnd
  0
BLOCK
  5
3AEB
330
3AEA
100
AcDbEntity
  8
0
100
AcDbBlockBegin
  2
GENDOT
 70
     0
 10
0.0
 20
0.0
 30
0.0
  3
GENDOT
  1

  0
LINE
  5
3AEC
330
3AEA
100
AcDbEntity
  8
0
100
AcDbLine
 10
0.0
 20
0.0
 30
0.0
 11
-1.0
 21
0.0
 31
0.0
  0
LWPOLYLINE
  5
3AED
330
3AEA
100
AcDbEntity
  8
0
100
AcDbPolyline
 90
        2
 70
     1
 43
0.25
 10
-0.125
 20
0.0
 42
1.0
 10
0.125
 20
0.0
 42
1.0
  0
ENDBLK
  5
3AEE
330
3AEA
100
AcDbEntity
  8
0
100
AcDbBlockEnd
  0
BLOCK
  5
4CB9
330
4CB8
100
AcDbEntity
  8
0
100
AcDbBlockBegin
  2
SW_CENTERMARKSYMBOL_0
 70
     0
 10
0.0
 20
0.0
 30
0.0
  3
SW_CENTERMARKSYMBOL_0
  1

  0
LINE
  5
4CBA
330
4CB8
100
AcDbEntity
  8
0
  6
Continuous
 62
     0
370
     0
100
AcDbLine
 10
0.0
 20
0.0
 30
0.0
 11
0.0
 21
2.500000000000002
 31
0.0
  0
LINE
  5
4CBB
330
4CB8
100
AcDbEntity
  8
0
  6
Continuous
 62
     0
370
     0
100
AcDbLine
 10
0.0
 20
0.0
 30
0.0
 11
-2.500000000000002
 21
0.0
 31
0.0
  0
LINE
  5
4CBC
330
4CB8
100
AcDbEntity
  8
0
  6
Continuous
 62
     0
370
     0
100
AcDbLine
 10
0.0
 20
0.0
 30
0.0
 11
0.0
 21
-2.500000000000002
 31
0.0
  0
LINE
  5
4CBD
330
4CB8
100
AcDbEntity
  8
0
  6
Continuous
 62
     0
370
     0
100
AcDbLine
 10
0.0
 20
0.0
 30
0.0
 11
2.500000000000002
 21
0.0
 31
0.0
  0
LINE
  5
4CBE
330
4CB8
100
AcDbEntity
  8
0
  6
Continuous
 62
     0
370
     0
100
AcDbLine
 10
0.0
 20
5.000000000000004
 30
0.0
 11
0.0
 21
11.04596669241484
 31
0.0
  0
LINE
  5
4CBF
330
4CB8
100
AcDbEntity
  8
0
  6
Continuous
 62
     0
370
     0
100
AcDbLine
 10
-5.000000000000004
 20
0.0
 30
0.0
 11
-11.04596669241484
 21
0.0
 31
0.0
  0
LINE
  5
4CC0
330
4CB8
100
AcDbEntity
  8
0
  6
Continuous
 62
     0
370
     0
100
AcDbLine
 10
0.0
 20
-4.999999999999976
 30
0.0
 11
0.0
 21
-11.04596669241484
 31
0.0
  0
LINE
  5
4CC1
330
4CB8
100
AcDbEntity
  8
0
  6
Continuous
 62
     0
370
     0
100
AcDbLine
 10
5.000000000000004
 20
0.0
 30
0.0
 11
11.04596669241482
 21
0.0
 31
0.0
  0
ENDBLK
  5
4CC2
330
4CB8
100
AcDbEntity
  8
0
100
AcDbBlockEnd
  0
BLOCK
  5
631E
330
6314
100
AcDbEntity
  8
0
100
AcDbBlockBegin
  2
*D5
 70
     1
 10
0.0
 20
0.0
 30
0.0
  3
*D5
  1

  0
LINE
  5
6486
330
6314
100
AcDbEntity
  8
AM_REFDIM
100
AcDbLine
 10
421.0011218967359
 20
397.3618225819231
 30
0.0
 11
421.0011218967359
 21
441.275096431482
 31
0.0
  0
LINE
  5
6487
330
6314
100
AcDbEntity
  8
AM_REFDIM
100
AcDbLine
 10
488.0244131225175
 20
397.3618225819231
 30
0.0
 11
488.0244131225175
 21
441.275096431482
 31
0.0
  0
LINE
  5
6488
330
6314
100
AcDbEntity
  8
AM_REFDIM
100
AcDbLine
 10
422.8011218967359
 20
440.675096431482
 30
0.0
 11
486.2244131225176
 21
440.675096431482
 31
0.0
  0
SOLID
  5
6489
330
6314
100
AcDbEntity
  8
AM_REFDIM
100
AcDbTrace
 10
422.8011218967359
 20
440.975096431482
 30
0.0
 11
422.8011218967359
 21
440.375096431482
 31
0.0
 12
421.0011218967359
 22
440.675096431482
 32
0.0
 13
421.0011218967359
 23
440.675096431482
 33
0.0
  0
SOLID
  5
648A
330
6314
100
AcDbEntity
  8
AM_REFDIM
100
AcDbTrace
 10
486.2244131225176
 20
440.975096431482
 30
0.0
 11
486.2244131225176
 21
440.375096431482
 31
0.0
 12
488.0244131225175
 22
440.675096431482
 32
0.0
 13
488.0244131225175
 23
440.675096431482
 33
0.0
  0
MTEXT
  5
648B
330
6314
100
AcDbEntity
  8
AM_REFDIM
100
AcDbMText
 10
454.5127675096267
 20
442.325096431482
 30
0.0
 40
2.1
 41
0.0
 71
     5
 72
     1
  1
67
 73
     1
 44
1.0
1001
ACAD
1000
MTEXTBEGIN
1070
    73
1070
     1
1070
    44
1040
1.0
1070
    74
1070
     0
1000
MTEXTEND
  0
POINT
  5
648C
330
6314
100
AcDbEntity
  8
Defpoints
 62
     0
100
AcDbPoint
 10
421.0011218967359
 20
396.7618225819231
 30
0.0
  0
POINT
  5
648D
330
6314
100
AcDbEntity
  8
Defpoints
 62
     0
100
AcDbPoint
 10
488.0244131225175
 20
396.7618225819231
 30
0.0
  0
POINT
  5
648E
330
6314
100
AcDbEntity
  8
Defpoints
 62
     0
100
AcDbPoint
 10
488.0244131225175
 20
440.675096431482
 30
0.0
  0
ENDBLK
  5
631F
330
6314
100
AcDbEntity
  8
0
100
AcDbBlockEnd
  0
BLOCK
  5
636C
330
6362
100
AcDbEntity
  8
0
100
AcDbBlockBegin
  2
*D6
 70
     1
 10
0.0
 20
0.0
 30
0.0
  3
*D6
  1

  0
LINE
  5
64A1
330
6362
100
AcDbEntity
  8
AM_REFDIM
100
AcDbLine
 10
478.5480779292673
 20
301.7174499374809
 30
0.0
 11
496.5480779292674
 21
301.7174499374809
 31
0.0
  0
LINE
  5
64A2
330
6362
100
AcDbEntity
  8
AM_REFDIM
100
AcDbLine
 10
478.0860484235216
 20
286.7715494426404
 30
0.0
 11
496.5480779292674
 21
286.7715494426404
 31
0.0
  0
LINE
  5
64A3
330
6362
100
AcDbEntity
  8
AM_REFDIM
100
AcDbLine
 10
495.9480779292674
 20
299.9174499374809
 30
0.0
 11
495.9480779292674
 21
288.5715494426404
 31
0.0
  0
SOLID
  5
64A4
330
6362
100
AcDbEntity
  8
AM_REFDIM
100
AcDbTrace
 10
495.6480779292673
 20
299.9174499374809
 30
0.0
 11
496.2480779292674
 21
299.9174499374809
 31
0.0
 12
495.9480779292674
 22
301.7174499374809
 32
0.0
 13
495.9480779292674
 23
301.7174499374809
 33
0.0
  0
SOLID
  5
64A5
330
6362
100
AcDbEntity
  8
AM_REFDIM
100
AcDbTrace
 10
495.6480779292673
 20
288.5715494426404
 30
0.0
 11
496.2480779292674
 21
288.5715494426404
 31
0.0
 12
495.9480779292674
 22
286.7715494426404
 32
0.0
 13
495.9480779292674
 23
286.7715494426404
 33
0.0
  0
MTEXT
  5
64A6
330
6362
100
AcDbEntity
  8
AM_REFDIM
100
AcDbMText
 10
494.2980779292673
 20
294.2444996900608
 30
0.0
 40
2.1
 41
0.0
 71
     5
 72
     1
  1
15
 11
0.0000000000000001
 21
1.0
 31
0.0
 73
     1
 44
1.0
1001
ACAD
1000
MTEXTBEGIN
1070
    73
1070
     1
1070
    44
1040
1.0
1070
    74
1070
     0
1000
MTEXTEND
  0
POINT
  5
64A7
330
6362
100
AcDbEntity
  8
Defpoints
 62
     0
100
AcDbPoint
 10
477.9480779292673
 20
301.7174499374809
 30
0.0
  0
POINT
  5
64A8
330
6362
100
AcDbEntity
  8
Defpoints
 62
     0
100
AcDbPoint
 10
477.4860484235216
 20
286.7715494426404
 30
0.0
  0
POINT
  5
64A9
330
6362
100
AcDbEntity
  8
Defpoints
 62
     0
100
AcDbPoint
 10
495.9480779292674
 20
286.7715494426404
 30
0.0
  0
ENDBLK
  5
636D
330
6362
100
AcDbEntity
  8
0
100
AcDbBlockEnd
  0
BLOCK
  5
6392
330
6388
100
AcDbEntity
  8
0
100
AcDbBlockBegin
  2
*D7
 70
     1
 10
0.0
 20
0.0
 30
0.0
  3
*D7
  1

  0
LINE
  5
64E9
330
6388
100
AcDbEntity
  8
AM_REFDIM
100
AcDbLine
 10
478.0860484235216
 20
286.7715494426404
 30
0.0
 11
508.2151249160893
 21
286.7715494426404
 31
0.0
  0
LINE
  5
64EA
330
6388
100
AcDbEntity
  8
AM_REFDIM
100
AcDbLine
 10
492.9151249160893
 20
396.7618225819231
 30
0.0
 11
508.2151249160894
 21
396.7618225819231
 31
0.0
  0
LINE
  5
64EB
330
6388
100
AcDbEntity
  8
AM_REFDIM
100
AcDbLine
 10
507.6151249160893
 20
288.5715494426404
 30
0.0
 11
507.6151249160893
 21
394.961822581923
 31
0.0
  0
SOLID
  5
64EC
330
6388
100
AcDbEntity
  8
AM_REFDIM
100
AcDbTrace
 10
507.3151249160892
 20
288.5715494426404
 30
0.0
 11
507.9151249160893
 21
288.5715494426404
 31
0.0
 12
507.6151249160893
 22
286.7715494426404
 32
0.0
 13
507.6151249160893
 23
286.7715494426404
 33
0.0
  0
SOLID
  5
64ED
330
6388
100
AcDbEntity
  8
AM_REFDIM
100
AcDbTrace
 10
507.3151249160893
 20
394.961822581923
 30
0.0
 11
507.9151249160894
 21
394.961822581923
 31
0.0
 12
507.6151249160893
 22
396.7618225819231
 32
0.0
 13
507.6151249160893
 23
396.7618225819231
 33
0.0
  0
MTEXT
  5
64EE
330
6388
100
AcDbEntity
  8
AM_REFDIM
100
AcDbMText
 10
505.9651249160892
 20
341.7666860122818
 30
0.0
 40
2.1
 41
0.0
 71
     5
 72
     1
  1
110
 11
0.0000000000000001
 21
1.0
 31
0.0
 73
     1
 44
1.0
1001
ACAD
1000
MTEXTBEGIN
1070
    73
1070
     1
1070
    44
1040
1.0
1070
    74
1070
     0
1000
MTEXTEND
  0
POINT
  5
64EF
330
6388
100
AcDbEntity
  8
Defpoints
 62
     0
100
AcDbPoint
 10
477.4860484235216
 20
286.7715494426404
 30
0.0
  0
POINT
  5
64F0
330
6388
100
AcDbEntity
  8
Defpoints
 62
     0
100
AcDbPoint
 10
492.3151249160893
 20
396.7618225819231
 30
0.0
  0
POINT
  5
64F1
330
6388
100
AcDbEntity
  8
Defpoints
 62
     0
100
AcDbPoint
 10
507.6151249160893
 20
396.7618225819231
 30
0.0
  0
ENDBLK
  5
6393
330
6388
100
AcDbEntity
  8
0
100
AcDbBlockEnd
  0
BLOCK
  5
63B8
330
63AE
100
AcDbEntity
  8
0
100
AcDbBlockBegin
  2
*D8
 70
     1
 10
0.0
 20
0.0
 30
0.0
  3
*D8
  1

  0
LINE
  5
6511
330
63AE
100
AcDbEntity
  8
AM_REFDIM
100
AcDbLine
 10
478.0860484235216
 20
286.7715494426404
 30
0.0
 11
522.9151249160897
 21
286.7715494426404
 31
0.0
  0
LINE
  5
6512
330
63AE
100
AcDbEntity
  8
AM_REFDIM
100
AcDbLine
 10
455.1088796995143
 20
430.2707999104898
 30
0.0
 11
522.9151249160897
 21
430.2707999104898
 31
0.0
  0
LINE
  5
6513
330
63AE
100
AcDbEntity
  8
AM_REFDIM
100
AcDbLine
 10
522.3151249160896
 20
288.5715494426404
 30
0.0
 11
522.3151249160896
 21
428.4707999104898
 31
0.0
  0
SOLID
  5
6514
330
63AE
100
AcDbEntity
  8
AM_REFDIM
100
AcDbTrace
 10
522.0151249160896
 20
288.5715494426404
 30
0.0
 11
522.6151249160896
 21
288.5715494426404
 31
0.0
 12
522.3151249160896
 22
286.7715494426404
 32
0.0
 13
522.3151249160896
 23
286.7715494426404
 33
0.0
  0
SOLID
  5
6515
330
63AE
100
AcDbEntity
  8
AM_REFDIM
100
AcDbTrace
 10
522.0151249160896
 20
428.4707999104898
 30
0.0
 11
522.6151249160896
 21
428.4707999104898
 31
0.0
 12
522.3151249160896
 22
430.2707999104898
 32
0.0
 13
522.3151249160896
 23
430.2707999104898
 33
0.0
  0
MTEXT
  5
6516
330
63AE
100
AcDbEntity
  8
AM_REFDIM
100
AcDbMText
 10
520.6651249160895
 20
358.5211746765652
 30
0.0
 40
2.1
 41
0.0
 71
     5
 72
     1
  1
143.5
 11
0.0000000000000001
 21
1.0
 31
0.0
 73
     1
 44
1.0
1001
ACAD
1000
MTEXTBEGIN
1070
    73
1070
     1
1070
    44
1040
1.0
1070
    74
1070
     0
1000
MTEXTEND
  0
POINT
  5
6517
330
63AE
100
AcDbEntity
  8
Defpoints
 62
     0
100
AcDbPoint
 10
477.4860484235216
 20
286.7715494426404
 30
0.0
  0
POINT
  5
6518
330
63AE
100
AcDbEntity
  8
Defpoints
 62
     0
100
AcDbPoint
 10
454.5088796995143
 20
430.2707999104898
 30
0.0
  0
POINT
  5
6519
330
63AE
100
AcDbEntity
  8
Defpoints
 62
     0
100
AcDbPoint
 10
522.3151249160896
 20
430.2707999104898
 30
0.0
  0
ENDBLK
  5
63B9
330
63AE
100
AcDbEntity
  8
0
100
AcDbBlockEnd
  0
BLOCK
  5
63DE
330
63D4
100
AcDbEntity
  8
0
100
AcDbBlockBegin
  2
*D9
 70
     1
 10
0.0
 20
0.0
 30
0.0
  3
*D9
  1

  0
LINE
  5
64D7
330
63D4
100
AcDbEntity
  8
AM_REFDIM
100
AcDbLine
 10
429.4860484235219
 20
288.1715494426404
 30
0.0
 11
429.4860484235219
 21
275.6804507144095
 31
0.0
  0
LINE
  5
64D8
330
63D4
100
AcDbEntity
  8
AM_REFDIM
100
AcDbLine
 10
479.4860484235216
 20
288.1715494426404
 30
0.0
 11
479.4860484235216
 21
275.6804507144095
 31
0.0
  0
LINE
  5
64D9
330
63D4
100
AcDbEntity
  8
AM_REFDIM
100
AcDbLine
 10
431.286048423522
 20
276.2804507144096
 30
0.0
 11
477.6860484235216
 21
276.2804507144096
 31
0.0
  0
SOLID
  5
64DA
330
63D4
100
AcDbEntity
  8
AM_REFDIM
100
AcDbTrace
 10
431.286048423522
 20
276.5804507144096
 30
0.0
 11
431.286048423522
 21
275.9804507144095
 31
0.0
 12
429.4860484235219
 22
276.2804507144096
 32
0.0
 13
429.4860484235219
 23
276.2804507144096
 33
0.0
  0
SOLID
  5
64DB
330
63D4
100
AcDbEntity
  8
AM_REFDIM
100
AcDbTrace
 10
477.6860484235216
 20
276.5804507144096
 30
0.0
 11
477.6860484235216
 21
275.9804507144095
 31
0.0
 12
479.4860484235216
 22
276.2804507144096
 32
0.0
 13
479.4860484235216
 23
276.2804507144096
 33
0.0
  0
MTEXT
  5
64DC
330
63D4
100
AcDbEntity
  8
AM_REFDIM
100
AcDbMText
 10
454.4860484235218
 20
277.9304507144095
 30
0.0
 40
2.1
 41
0.0
 71
     5
 72
     1
  1
50
 73
     1
 44
1.0
1001
ACAD
1000
MTEXTBEGIN
1070
    73
1070
     1
1070
    44
1040
1.0
1070
    74
1070
     0
1000
MTEXTEND
  0
POINT
  5
64DD
330
63D4
100
AcDbEntity
  8
Defpoints
 62
     0
100
AcDbPoint
 10
429.4860484235219
 20
288.7715494426404
 30
0.0
  0
POINT
  5
64DE
330
63D4
100
AcDbEntity
  8
Defpoints
 62
     0
100
AcDbPoint
 10
479.4860484235216
 20
288.7715494426404
 30
0.0
  0
POINT
  5
64DF
330
63D4
100
AcDbEntity
  8
Defpoints
 62
     0
100
AcDbPoint
 10
479.4860484235216
 20
276.2804507144096
 30
0.0
  0
ENDBLK
  5
63DF
330
63D4
100
AcDbEntity
  8
0
100
AcDbBlockEnd
  0
BLOCK
  5
6404
330
63FA
100
AcDbEntity
  8
0
100
AcDbBlockBegin
  2
*D10
 70
     1
 10
0.0
 20
0.0
 30
0.0
  3
*D10
  1

  0
LINE
  5
64E0
330
63FA
100
AcDbEntity
  8
AM_REFDIM
100
AcDbLine
 10
552.169509674078
 20
288.1715494426404
 30
0.0
 11
552.169509674078
 21
275.6804507144095
 31
0.0
  0
LINE
  5
64E1
330
63FA
100
AcDbEntity
  8
AM_REFDIM
100
AcDbLine
 10
593.169509674078
 20
288.1715494426404
 30
0.0
 11
593.169509674078
 21
275.6804507144095
 31
0.0
  0
LINE
  5
64E2
330
63FA
100
AcDbEntity
  8
AM_REFDIM
100
AcDbLine
 10
553.9695096740778
 20
276.2804507144096
 30
0.0
 11
591.369509674078
 21
276.2804507144096
 31
0.0
  0
SOLID
  5
64E3
330
63FA
100
AcDbEntity
  8
AM_REFDIM
100
AcDbTrace
 10
553.9695096740778
 20
276.5804507144096
 30
0.0
 11
553.9695096740778
 21
275.9804507144095
 31
0.0
 12
552.169509674078
 22
276.2804507144096
 32
0.0
 13
552.169509674078
 23
276.2804507144096
 33
0.0
  0
SOLID
  5
64E4
330
63FA
100
AcDbEntity
  8
AM_REFDIM
100
AcDbTrace
 10
591.369509674078
 20
276.5804507144096
 30
0.0
 11
591.369509674078
 21
275.9804507144095
 31
0.0
 12
593.169509674078
 22
276.2804507144096
 32
0.0
 13
593.169509674078
 23
276.2804507144096
 33
0.0
  0
MTEXT
  5
64E5
330
63FA
100
AcDbEntity
  8
AM_REFDIM
100
AcDbMText
 10
572.669509674078
 20
277.9304507144095
 30
0.0
 40
2.1
 41
0.0
 71
     5
 72
     1
  1
41
 73
     1
 44
1.0
1001
ACAD
1000
MTEXTBEGIN
1070
    73
1070
     1
1070
    44
1040
1.0
1070
    74
1070
     0
1000
MTEXTEND
  0
POINT
  5
64E6
330
63FA
100
AcDbEntity
  8
Defpoints
 62
     0
100
AcDbPoint
 10
552.169509674078
 20
288.7715494426404
 30
0.0
  0
POINT
  5
64E7
330
63FA
100
AcDbEntity
  8
Defpoints
 62
     0
100
AcDbPoint
 10
593.169509674078
 20
288.7715494426404
 30
0.0
  0
POINT
  5
64E8
330
63FA
100
AcDbEntity
  8
Defpoints
 62
     0
100
AcDbPoint
 10
593.169509674078
 20
276.2804507144096
 30
0.0
  0
ENDBLK
  5
6405
330
63FA
100
AcDbEntity
  8
0
100
AcDbBlockEnd
  0
BLOCK
  5
642A
330
6420
100
AcDbEntity
  8
0
100
AcDbBlockBegin
  2
*D11
 70
     1
 10
0.0
 20
0.0
 30
0.0
  3
*D11
  1

  0
LINE
  5
64BC
330
6420
100
AcDbEntity
  8
AM_REFDIM
100
AcDbLine
 10
587.269509674078
 20
339.7715494426404
 30
0.0
 11
609.7695096740781
 21
339.7715494426404
 31
0.0
  0
LINE
  5
64BD
330
6420
100
AcDbEntity
  8
AM_REFDIM
100
AcDbLine
 10
591.769509674078
 20
286.7715494426404
 30
0.0
 11
609.7695096740781
 21
286.7715494426404
 31
0.0
  0
LINE
  5
64BE
330
6420
100
AcDbEntity
  8
AM_REFDIM
100
AcDbLine
 10
609.1695096740781
 20
337.9715494426404
 30
0.0
 11
609.1695096740781
 21
288.5715494426404
 31
0.0
  0
SOLID
  5
64BF
330
6420
100
AcDbEntity
  8
AM_REFDIM
100
AcDbTrace
 10
608.8695096740781
 20
337.9715494426404
 30
0.0
 11
609.469509674078
 21
337.9715494426404
 31
0.0
 12
609.1695096740781
 22
339.7715494426404
 32
0.0
 13
609.1695096740781
 23
339.7715494426404
 33
0.0
  0
SOLID
  5
64C0
330
6420
100
AcDbEntity
  8
AM_REFDIM
100
AcDbTrace
 10
608.8695096740781
 20
288.5715494426404
 30
0.0
 11
609.469509674078
 21
288.5715494426404
 31
0.0
 12
609.1695096740781
 22
286.7715494426404
 32
0.0
 13
609.1695096740781
 23
286.7715494426404
 33
0.0
  0
MTEXT
  5
64C1
330
6420
100
AcDbEntity
  8
AM_REFDIM
100
AcDbMText
 10
607.5195096740779
 20
313.2715494426405
 30
0.0
 40
2.1
 41
0.0
 71
     5
 72
     1
  1
53
 11
0.0000000000000001
 21
1.0
 31
0.0
 73
     1
 44
1.0
1001
ACAD
1000
MTEXTBEGIN
1070
    73
1070
     1
1070
    44
1040
1.0
1070
    74
1070
     0
1000
MTEXTEND
  0
POINT
  5
64C2
330
6420
100
AcDbEntity
  8
Defpoints
 62
     0
100
AcDbPoint
 10
586.6695096740779
 20
339.7715494426404
 30
0.0
  0
POINT
  5
64C3
330
6420
100
AcDbEntity
  8
Defpoints
 62
     0
100
AcDbPoint
 10
591.169509674078
 20
286.7715494426404
 30
0.0
  0
POINT
  5
64C4
330
6420
100
AcDbEntity
  8
Defpoints
 62
     0
100
AcDbPoint
 10
609.1695096740781
 20
286.7715494426404
 30
0.0
  0
ENDBLK
  5
642B
330
6420
100
AcDbEntity
  8
0
100
AcDbBlockEnd
  0
BLOCK
  5
6450
330
6446
100
AcDbEntity
  8
0
100
AcDbBlockBegin
  2
*D12
 70
     1
 10
0.0
 20
0.0
 30
0.0
  3
*D12
  1

  0
LINE
  5
64CE
330
6446
100
AcDbEntity
  8
AM_REFDIM
100
AcDbLine
 10
559.669509674078
 20
428.8715494426404
 30
0.0
 11
559.669509674078
 21
440.8985374531172
 31
0.0
  0
LINE
  5
64CF
330
6446
100
AcDbEntity
  8
AM_REFDIM
100
AcDbLine
 10
585.669509674078
 20
428.8715494426405
 30
0.0
 11
585.669509674078
 21
440.8985374531172
 31
0.0
  0
LINE
  5
64D0
330
6446
100
AcDbEntity
  8
AM_REFDIM
100
AcDbLine
 10
561.4695096740779
 20
440.2985374531172
 30
0.0
 11
583.869509674078
 21
440.2985374531172
 31
0.0
  0
SOLID
  5
64D1
330
6446
100
AcDbEntity
  8
AM_REFDIM
100
AcDbTrace
 10
561.4695096740779
 20
440.5985374531172
 30
0.0
 11
561.4695096740779
 21
439.9985374531172
 31
0.0
 12
559.669509674078
 22
440.2985374531172
 32
0.0
 13
559.669509674078
 23
440.2985374531172
 33
0.0
  0
SOLID
  5
64D2
330
6446
100
AcDbEntity
  8
AM_REFDIM
100
AcDbTrace
 10
583.869509674078
 20
440.5985374531172
 30
0.0
 11
583.869509674078
 21
439.9985374531172
 31
0.0
 12
585.669509674078
 22
440.2985374531172
 32
0.0
 13
585.669509674078
 23
440.2985374531172
 33
0.0
  0
MTEXT
  5
64D3
330
6446
100
AcDbEntity
  8
AM_REFDIM
100
AcDbMText
 10
572.669509674078
 20
441.9487441460305
 30
0.0
 40
2.1
 41
0.0
 71
     5
 72
     1
  1
26
 73
     1
 44
1.0
1001
ACAD
1000
MTEXTBEGIN
1070
    73
1070
     1
1070
    44
1040
1.0
1070
    74
1070
     0
1000
MTEXTEND
  0
POINT
  5
64D4
330
6446
100
AcDbEntity
  8
Defpoints
 62
     0
100
AcDbPoint
 10
559.669509674078
 20
428.2715494426404
 30
0.0
  0
POINT
  5
64D5
330
6446
100
AcDbEntity
  8
Defpoints
 62
     0
100
AcDbPoint
 10
585.669509674078
 20
428.2715494426405
 30
0.0
  0
POINT
  5
64D6
330
6446
100
AcDbEntity
  8
Defpoints
 62
     0
100
AcDbPoint
 10
585.669509674078
 20
440.2985374531172
 30
0.0
  0
ENDBLK
  5
6451
330
6446
100
AcDbEntity
  8
0
100
AcDbBlockEnd
  0
BLOCK
  5
6476
330
646C
100
AcDbEntity
  8
0
100
AcDbBlockBegin
  2
*D13
 70
     1
 10
0.0
 20
0.0
 30
0.0
  3
*D13
  1

  0
LINE
  5
64C5
330
646C
100
AcDbEntity
  8
AM_REFDIM
100
AcDbLine
 10
555.1695096740786
 20
413.7956171482979
 30
0.0
 11
555.1695096740786
 21
452.8985374531169
 31
0.0
  0
LINE
  5
64C6
330
646C
100
AcDbEntity
  8
AM_REFDIM
100
AcDbLine
 10
590.1695096740772
 20
413.7956171482979
 30
0.0
 11
590.1695096740772
 21
452.8985374531169
 31
0.0
  0
LINE
  5
64C7
330
646C
100
AcDbEntity
  8
AM_REFDIM
100
AcDbLine
 10
556.9695096740786
 20
452.2985374531169
 30
0.0
 11
588.3695096740773
 21
452.2985374531169
 31
0.0
  0
SOLID
  5
64C8
330
646C
100
AcDbEntity
  8
AM_REFDIM
100
AcDbTrace
 10
556.9695096740786
 20
452.5985374531169
 30
0.0
 11
556.9695096740786
 21
451.9985374531168
 31
0.0
 12
555.1695096740786
 22
452.2985374531169
 32
0.0
 13
555.1695096740786
 23
452.2985374531169
 33
0.0
  0
SOLID
  5
64C9
330
646C
100
AcDbEntity
  8
AM_REFDIM
100
AcDbTrace
 10
588.3695096740773
 20
452.5985374531169
 30
0.0
 11
588.3695096740773
 21
451.9985374531168
 31
0.0
 12
590.1695096740772
 22
452.2985374531169
 32
0.0
 13
590.1695096740772
 23
452.2985374531169
 33
0.0
  0
MTEXT
  5
64CA
330
646C
100
AcDbEntity
  8
AM_REFDIM
100
AcDbMText
 10
572.669509674078
 20
453.9485374531168
 30
0.0
 40
2.1
 41
0.0
 71
     5
 72
     1
  1
35
 73
     1
 44
1.0
1001
ACAD
1000
MTEXTBEGIN
1070
    73
1070
     1
1070
    44
1040
1.0
1070
    74
1070
     0
1000
MTEXTEND
  0
POINT
  5
64CB
330
646C
100
AcDbEntity
  8
Defpoints
 62
     0
100
AcDbPoint
 10
555.1695096740786
 20
413.1956171482979
 30
0.0
  0
POINT
  5
64CC
330
646C
100
AcDbEntity
  8
Defpoints
 62
     0
100
AcDbPoint
 10
590.1695096740772
 20
413.1956171482979
 30
0.0
  0
POINT
  5
64CD
330
646C
100
AcDbEntity
  8
Defpoints
 62
     0
100
AcDbPoint
 10
590.1695096740772
 20
452.2985374531169
 30
0.0
  0
ENDBLK
  5
6477
330
646C
100
AcDbEntity
  8
0
100
AcDbBlockEnd
  0
BLOCK
  5
6552
330
6548
100
AcDbEntity
  8
0
100
AcDbBlockBegin
  2
*D14
 70
     1
 10
0.0
 20
0.0
 30
0.0
  3
*D14
  1

  0
LINE
  5
6574
330
6548
100
AcDbEntity
  8
AM_REFDIM
100
AcDbLine
 10
590.769509674078
 20
410.7715494426404
 30
0.0
 11
609.7695096740783
 21
410.7715494426404
 31
0.0
  0
LINE
  5
6575
330
6548
100
AcDbEntity
  8
AM_REFDIM
100
AcDbLine
 10
592.763098363696
 20
382.7715494426404
 30
0.0
 11
609.7695096740783
 21
382.7715494426404
 31
0.0
  0
LINE
  5
6576
330
6548
100
AcDbEntity
  8
AM_REFDIM
100
AcDbLine
 10
609.1695096740783
 20
408.9715494426404
 30
0.0
 11
609.1695096740783
 21
384.5715494426404
 31
0.0
  0
SOLID
  5
6577
330
6548
100
AcDbEntity
  8
AM_REFDIM
100
AcDbTrace
 10
608.8695096740783
 20
408.9715494426404
 30
0.0
 11
609.4695096740783
 21
408.9715494426404
 31
0.0
 12
609.1695096740783
 22
410.7715494426404
 32
0.0
 13
609.1695096740783
 23
410.7715494426404
 33
0.0
  0
SOLID
  5
6578
330
6548
100
AcDbEntity
  8
AM_REFDIM
100
AcDbTrace
 10
608.8695096740783
 20
384.5715494426404
 30
0.0
 11
609.4695096740783
 21
384.5715494426404
 31
0.0
 12
609.1695096740783
 22
382.7715494426404
 32
0.0
 13
609.1695096740783
 23
382.7715494426404
 33
0.0
  0
MTEXT
  5
6579
330
6548
100
AcDbEntity
  8
AM_REFDIM
100
AcDbMText
 10
607.5193029811648
 20
396.7715494426405
 30
0.0
 40
2.1
 41
0.0
 71
     5
 72
     1
  1
%%C28
 11
0.0000000000000001
 21
1.0
 31
0.0
 73
     1
 44
1.0
1001
ACAD
1000
MTEXTBEGIN
1070
    73
1070
     1
1070
    44
1040
1.0
1070
    74
1070
     0
1000
MTEXTEND
  0
POINT
  5
657A
330
6548
100
AcDbEntity
  8
Defpoints
 62
     0
100
AcDbPoint
 10
590.1695096740779
 20
410.7715494426404
 30
0.0
  0
POINT
  5
657B
330
6548
100
AcDbEntity
  8
Defpoints
 62
     0
100
AcDbPoint
 10
592.1630983636959
 20
382.7715494426404
 30
0.0
  0
POINT
  5
657C
330
6548
100
AcDbEntity
  8
Defpoints
 62
     0
100
AcDbPoint
 10
609.1695096740783
 20
382.7715494426404
 30
0.0
  0
ENDBLK
  5
6553
330
6548
100
AcDbEntity
  8
0
100
AcDbBlockEnd
  0
ENDSEC
  0
SECTION
  2
ENTITIES
  0
TEXT
  5
179B
330
1F
100
AcDbEntity
  8
LOGO
 62
     7
100
AcDbText
 10
438.7400726406804
 20
253.9743786045261
 30
0.0
 40
2.709111673628958
  1
Order example:
 41
0.8
  7
CHINESET
100
AcDbText
  0
TEXT
  5
179C
330
1F
100
AcDbEntity
  8
LOGO
 62
     7
100
AcDbText
 10
439.2261096783717
 20
257.7882469122663
 30
0.0
 40
4.063667510443437
  1
訂購代號：
  7
CHINESET
100
AcDbText
  0
LINE
  5
179D
330
1F
100
AcDbEntity
  8
LOGO
 62
     4
100
AcDbLine
 10
437.5629544297102
 20
242.5571589878777
 30
0.0
 11
437.5629544297102
 21
262.875496540095
 31
0.0
  0
TEXT
  5
179E
330
1F
100
AcDbEntity
  8
LOGO
  6
Continuous
100
AcDbText
 10
400.1610499962832
 20
246.5486657369659
 30
0.0
 40
3.047750632832579
  1
金器工業股份有限公司
  7
CHINESET
100
AcDbText
  0
TEXT
  5
179F
330
1F
100
AcDbEntity
  8
LOGO
  6
Continuous
100
AcDbText
 10
394.5629350514973
 20
243.5003179839623
 30
0.0
 40
2.031833755221718
  1
MINDMAN INDUSTRIAL CO., LTD.
 41
0.85
  7
CHINESET
100
AcDbText
  0
LINE
  5
17A0
330
1F
100
AcDbEntity
  8
LOGO
 62
     4
100
AcDbLine
 10
437.5629544297102
 20
258.8118290296516
 30
0.0
 11
407.7627260197913
 21
258.8118290296516
 31
0.0
  0
LINE
  5
17A1
330
1F
100
AcDbEntity
  8
LOGO
 62
     4
100
AcDbLine
 10
437.5629544297102
 20
254.7481615192081
 30
0.0
 11
407.7627260197913
 21
254.7481615192081
 31
0.0
  0
LINE
  5
17A2
330
1F
100
AcDbEntity
  8
LOGO
 62
     4
100
AcDbLine
 10
437.5629544297102
 20
250.6844940087649
 30
0.0
 11
392.8626118148323
 21
250.6844940087649
 31
0.0
  0
LINE
  5
17A3
330
1F
100
AcDbEntity
  8
LOGO
 62
     4
100
AcDbLine
 10
407.7627260197913
 20
250.6844940087649
 30
0.0
 11
407.7627260197913
 21
262.875496540095
 31
0.0
  0
TEXT
  5
17A4
330
1F
100
AcDbEntity
  8
LOGO
100
AcDbText
 10
428.1297755886144
 20
251.7004108863755
 30
0.0
 40
2.031833755221718
  1
mm
  7
CHINESET
 72
     1
 11
430.6453792855556
 21
252.7163277639863
 31
0.0
100
AcDbText
 73
     2
  0
TEXT
  5
17A5
330
1F
100
AcDbEntity
  8
LOGO
100
AcDbText
 10
427.0654817168316
 20
259.8277459072625
 30
0.0
 40
2.031833755221718
  1
1 : 1
  7
CHINESET
 72
     1
 11
430.6453792855556
 21
260.8436627848733
 31
0.0
100
AcDbText
 73
     2
  0
LINE
  5
17A6
330
1F
100
AcDbEntity
  8
LOGO
 62
     4
100
AcDbLine
 10
424.0173960615653
 20
250.6844940087649
 30
0.0
 11
424.0173960615653
 21
262.875496540095
 31
0.0
  0
TEXT
  5
17A7
330
1F
100
AcDbEntity
  8
LOGO
100
AcDbText
 10
409.4380817992086
 20
259.8287458254491
 30
133.1630370666592
 40
2.031833755221718
  1
比例 Scale:
 41
0.9
  7
CHINESET
 72
     4
 11
415.8900610406783
 21
260.8436627848733
 31
133.1630370666592
100
AcDbText
  0
TEXT
  5
17A8
330
1F
100
AcDbEntity
  8
LOGO
100
AcDbText
 10
409.3210699445553
 20
255.7926593916532
 30
133.1630370666592
 40
2.031833755221718
  1
投影  View:
 41
0.9
  7
CHINESET
 72
     4
 11
415.8900610406783
 21
256.7799952744297
 31
133.1630370666592
100
AcDbText
  0
TEXT
  5
17A9
330
1F
100
AcDbEntity
  8
LOGO
100
AcDbText
 10
409.5197179768738
 20
251.7004108863755
 30
133.1630370666592
 40
2.031833755221718
  1
單位  Unit:
 41
0.9
  7
CHINESET
 72
     4
 11
415.8900610406783
 21
252.7163277639863
 31
133.1630370666592
100
AcDbText
  0
LWPOLYLINE
  5
17AA
330
1F
100
AcDbEntity
  8
LOGO
 62
     4
100
AcDbPolyline
 90
        4
 70
     1
 43
0.0
 10
392.8626118148324
 20
262.875496540095
 10
640.6736593122115
 20
262.875496540095
 10
640.6736593122117
 20
470.7383728761656
 10
392.8626118148324
 20
470.7383728761666
1001
GENIUS_GENREC_14
1002
{
1000
PYDIR
1011
392.8626118148324
1021
470.7383728761666
1031
0.0
1002
}
1002
{
1000
PXDIR
1011
640.6736593122115
1021
262.875496540095
1031
0.0
1002
}
1002
{
1000
PORI
1011
392.8626118148324
1021
262.875496540095
1031
0.0
1002
}
1002
{
1000
PINS
1011
392.8626118148324
1021
262.875496540095
1031
0.0
1002
}
1002
{
1000
PINS2
1011
640.6736593122117
1021
470.7383728761656
1031
0.0
1002
}
1002
{
1000
C
1070
     1
1002
}
1001
GENIUS_GENODEF_13
1002
{
1000
HIER
1070
     0
1002
}
1002
{
1000
MANEDIT
1070
     0
1002
}
1002
{
1000
NOSEL
1070
     0
1002
}
1002
{
1000
BEHIND
1070
     0
1002
}
1002
{
1000
OTHER
1070
     0
1002
}
1002
{
1000
REACTOR
1002
}
1001
GENIUS_GENOBJ-N-REC_13
1002
{
1000
OWNER
1000
GEN
1002
}
  0
SOLID
  5
17AB
330
1F
100
AcDbEntity
  8
LOGO
 62
     5
100
AcDbTrace
 10
394.9706719443264
 20
254.0621284180597
 30
0.0
 11
395.8491835447663
 21
254.0621284180594
 31
0.0
 12
399.5146974638441
 22
262.3928418705094
 32
0.0
 13
400.3932090642845
 23
262.392841870509
 33
0.0
  0
SOLID
  5
17AC
330
1F
100
AcDbEntity
  8
LOGO
 62
     5
100
AcDbTrace
 10
396.2127055863287
 20
254.0621284180597
 30
0.0
 11
397.0912171867689
 21
254.0621284180597
 31
0.0
 12
400.3932090642845
 22
261.7263847943131
 32
0.0
 13
399.5146974638441
 23
258.5051755926992
 33
0.0
  0
SOLID
  5
17AD
330
1F
100
AcDbEntity
  8
LOGO
 62
     2
100
AcDbTrace
 10
395.8491835447663
 20
254.0621284180594
 30
0.0
 11
396.2127055863287
 21
254.0621284180597
 31
0.0
 12
400.3932090642845
 22
262.392841870509
 32
0.0
 13
400.7567311058465
 23
262.392841870509
 33
0.0
  0
SOLID
  5
17AE
330
1F
100
AcDbEntity
  8
LOGO
 62
     5
100
AcDbTrace
 10
393.5622024113867
 20
251.0327780717146
 30
0.0
 11
393.8651374460215
 21
251.0327780717146
 31
0.0
 12
394.7182260821311
 22
252.5474532448871
 32
0.0
 13
395.021161116765
 23
252.5474532448871
 33
0.0
  0
SOLID
  5
17AF
330
1F
100
AcDbEntity
  8
LOGO
 62
     5
100
AcDbTrace
 10
394.7182260821311
 20
252.5474532448871
 30
0.0
 11
395.021161116765
 21
252.5474532448871
 31
0.0
 12
394.7182260821311
 22
251.0327780717146
 32
0.0
 13
395.021161116765
 23
251.0327780717146
 33
0.0
  0
SOLID
  5
17B0
330
1F
100
AcDbEntity
  8
LOGO
 62
     5
100
AcDbTrace
 10
394.7182260821311
 20
251.0327780717146
 30
0.0
 11
395.021161116765
 21
251.0327780717146
 31
0.0
 12
395.874249752876
 22
252.5474532448871
 32
0.0
 13
396.1771847875104
 23
252.5474532448871
 33
0.0
  0
SOLID
  5
17B1
330
1F
100
AcDbEntity
  8
LOGO
 62
     5
100
AcDbTrace
 10
395.874249752876
 20
252.5474532448871
 30
0.0
 11
396.1771847875104
 21
252.5474532448871
 31
0.0
 12
395.874249752876
 22
251.0327780717146
 32
0.0
 13
396.1771847875104
 23
251.0327780717146
 33
0.0
  0
POLYLINE
  5
17B2
330
1F
100
AcDbEntity
  8
LOGO
 62
     5
100
AcDb2dPolyline
 66
     1
 10
0.0
 20
0.0
 30
0.0
 40
0.3034205074464433
 41
0.3034205074464433
  0
VERTEX
  5
17B3
330
17B2
100
AcDbEntity
  8
LOGO
 62
     5
100
AcDbVertex
100
AcDb2dVertex
 10
406.028528917705
 20
251.941583175618
 30
0.0
 42
1.0
  0
VERTEX
  5
17B4
330
17B2
100
AcDbEntity
  8
LOGO
 62
     5
100
AcDbVertex
100
AcDb2dVertex
 10
405.1182673953656
 20
251.941583175618
 30
0.0
 42
1.0
  0
SEQEND
  5
17B5
330
17B2
100
AcDbEntity
  8
LOGO
 62
     5
  0
POLYLINE
  5
17B6
330
1F
100
AcDbEntity
  8
LOGO
 62
     5
100
AcDb2dPolyline
 66
     1
 10
0.0
 20
0.0
 30
0.0
 70
     1
  0
VERTEX
  5
17B7
330
17B6
100
AcDbEntity
  8
LOGO
 62
     5
100
AcDbVertex
100
AcDb2dVertex
 10
403.4023839373229
 20
251.7901156583006
 30
0.0
 42
1.000000057330635
  0
VERTEX
  5
17B8
330
17B6
100
AcDbEntity
  8
LOGO
 62
     5
100
AcDbVertex
100
AcDb2dVertex
 10
404.3111890412266
 20
251.7901156583006
 30
0.0
 42
1.000000057330635
  0
SEQEND
  5
17B9
330
17B6
100
AcDbEntity
  8
LOGO
 62
     5
  0
CIRCLE
  5
17BA
330
1F
100
AcDbEntity
  8
LOGO
 62
     5
100
AcDbCircle
 10
403.8567864892753
 20
251.7901156583006
 30
0.0
 40
0.4544025519517937
  0
POLYLINE
  5
17BB
330
1F
100
AcDbEntity
  8
LOGO
 62
     5
100
AcDb2dPolyline
 66
     1
 10
0.0
 20
0.0
 30
0.0
 70
     1
 40
0.3034205074464433
 41
0.3034205074464433
  0
VERTEX
  5
17BC
330
17BB
100
AcDbEntity
  8
LOGO
 62
     5
100
AcDbVertex
100
AcDb2dVertex
 10
403.2499454743819
 20
251.7901156583006
 30
0.0
 42
1.0
  0
VERTEX
  5
17BD
330
17BB
100
AcDbEntity
  8
LOGO
 62
     5
100
AcDbVertex
100
AcDb2dVertex
 10
404.4636275041677
 20
251.7901156583006
 30
0.0
 42
1.0
  0
SEQEND
  5
17BE
330
17BB
100
AcDbEntity
  8
LOGO
 62
     5
  0
LINE
  5
17BF
330
1F
100
AcDbEntity
  8
LOGO
100
AcDbLine
 10
406.1792682258039
 20
251.0327780717146
 30
0.0
 11
406.1792682258039
 21
251.941583175618
 31
0.0
  0
SOLID
  5
17C0
330
1F
100
AcDbEntity
  8
LOGO
 62
     5
100
AcDbTrace
 10
404.3111587477243
 20
252.5474532448871
 30
0.0
 11
404.6140937823583
 21
252.5474532448871
 31
0.0
 12
404.3111587477243
 22
251.0327780717146
 32
0.0
 13
404.6140937823583
 23
251.0327780717146
 33
0.0
  0
SOLID
  5
17C1
330
1F
100
AcDbEntity
  8
LOGO
 62
     5
100
AcDbTrace
 10
404.9675280872658
 20
251.0327780717146
 30
0.0
 11
405.2704631219006
 21
251.0327780717146
 31
0.0
 12
404.9675280872658
 22
252.5474532448871
 32
0.0
 13
405.2704631219006
 23
252.5474532448871
 33
0.0
  0
SOLID
  5
17C2
330
1F
100
AcDbEntity
  8
LOGO
 62
     5
100
AcDbTrace
 10
405.87633319117
 20
251.941583175618
 30
0.0
 11
406.1792682258039
 21
251.941583175618
 31
0.0
 12
405.87633319117
 22
251.0327780717146
 32
0.0
 13
406.1792682258039
 23
251.0327780717146
 33
0.0
  0
SOLID
  5
17C3
330
1F
100
AcDbEntity
  8
LOGO
 62
     5
100
AcDbTrace
 10
404.9372345838023
 20
261.7263847943131
 30
0.0
 11
404.0587229833628
 21
258.5051755926992
 31
0.0
 12
404.9372345838023
 22
254.0621284180594
 32
0.0
 13
404.0587229833628
 23
254.0621284180594
 33
0.0
  0
SOLID
  5
17C4
330
1F
100
AcDbEntity
  8
LOGO
 62
     5
100
AcDbTrace
 10
405.3007566253644
 20
254.0621284180594
 30
0.0
 11
406.1792682258039
 21
254.0621284180594
 31
0.0
 12
405.3007566253644
 22
262.392841870509
 32
0.0
 13
406.1792682258039
 23
262.3928418705094
 33
0.0
  0
SOLID
  5
17C5
330
1F
100
AcDbEntity
  8
LOGO
 62
     2
100
AcDbTrace
 10
404.9372345838023
 20
262.3928418705094
 30
0.0
 11
405.3007566253644
 21
262.392841870509
 31
0.0
 12
404.9372345838023
 22
254.0621284180594
 32
0.0
 13
405.3007566253644
 23
254.0621284180594
 33
0.0
  0
POLYLINE
  5
17C6
330
1F
100
AcDbEntity
  8
LOGO
 62
     5
100
AcDb2dPolyline
 66
     1
 10
0.0
 20
0.0
 30
0.0
 40
0.3034205074464433
 41
0.3034205074464433
  0
VERTEX
  5
17C7
330
17C6
100
AcDbEntity
  8
LOGO
 62
     5
100
AcDbVertex
100
AcDb2dVertex
 10
401.6864398922746
 20
251.941583175618
 30
0.0
 42
1.0
  0
VERTEX
  5
17C8
330
17C6
100
AcDbEntity
  8
LOGO
 62
     5
100
AcDbVertex
100
AcDb2dVertex
 10
400.7761783699351
 20
251.941583175618
 30
0.0
 42
1.0
  0
SEQEND
  5
17C9
330
17C6
100
AcDbEntity
  8
LOGO
 62
     5
  0
POLYLINE
  5
17CA
330
1F
100
AcDbEntity
  8
LOGO
 62
     5
100
AcDb2dPolyline
 66
     1
 10
0.0
 20
0.0
 30
0.0
 40
0.3034205074464433
 41
0.3034205074464433
  0
VERTEX
  5
17CB
330
17CA
100
AcDbEntity
  8
LOGO
 62
     5
100
AcDbVertex
100
AcDb2dVertex
 10
402.5952449961772
 20
251.941583175618
 30
0.0
 42
1.0
  0
VERTEX
  5
17CC
330
17CA
100
AcDbEntity
  8
LOGO
 62
     5
100
AcDbVertex
100
AcDb2dVertex
 10
401.6849834738382
 20
251.941583175618
 30
0.0
 42
1.0
  0
SEQEND
  5
17CD
330
17CA
100
AcDbEntity
  8
LOGO
 62
     5
  0
POLYLINE
  5
17CE
330
1F
100
AcDbEntity
  8
LOGO
 62
     5
100
AcDb2dPolyline
 66
     1
 10
0.0
 20
0.0
 30
0.0
 40
0.3034205074464433
 41
0.3034205074464433
  0
VERTEX
  5
17CF
330
17CE
100
AcDbEntity
  8
LOGO
 62
     5
100
AcDbVertex
100
AcDb2dVertex
 10
398.2531559707469
 20
251.941583175618
 30
0.0
 42
1.0
  0
VERTEX
  5
17D0
330
17CE
100
AcDbEntity
  8
LOGO
 62
     5
100
AcDbVertex
100
AcDb2dVertex
 10
397.3428944484077
 20
251.941583175618
 30
0.0
 42
1.0
  0
SEQEND
  5
17D1
330
17CE
100
AcDbEntity
  8
LOGO
 62
     5
  0
SOLID
  5
17D2
330
1F
100
AcDbEntity
  8
LOGO
 62
     5
100
AcDbTrace
 10
397.1921551403085
 20
252.5474532448871
 30
0.0
 11
397.4950901749425
 21
252.5474532448871
 31
0.0
 12
397.1921551403085
 22
251.0327780717146
 32
0.0
 13
397.4950901749425
 23
251.0327780717146
 33
0.0
  0
SOLID
  5
17D3
330
1F
100
AcDbEntity
  8
LOGO
 62
     5
100
AcDbTrace
 10
398.1009602442122
 20
251.941583175618
 30
0.0
 11
398.4038952788471
 21
251.941583175618
 31
0.0
 12
398.1009602442122
 22
251.0327780717146
 32
0.0
 13
398.4038952788471
 23
251.0327780717146
 33
0.0
  0
POLYLINE
  5
17D4
330
1F
100
AcDbEntity
  8
LOGO
 62
     5
100
AcDb2dPolyline
 66
     1
 10
0.0
 20
0.0
 30
0.0
 70
     1
 40
0.3034205074464433
 41
0.3034205074464433
  0
VERTEX
  5
17D5
330
17D4
100
AcDbEntity
  8
LOGO
 62
     5
100
AcDbVertex
100
AcDb2dVertex
 10
398.9078564489511
 20
251.7901156583006
 30
0.0
 42
1.0
  0
VERTEX
  5
17D6
330
17D4
100
AcDbEntity
  8
LOGO
 62
     5
100
AcDbVertex
100
AcDb2dVertex
 10
400.1215384787373
 20
251.7901156583006
 30
0.0
 42
1.0
  0
SEQEND
  5
17D7
330
17D4
100
AcDbEntity
  8
LOGO
 62
     5
  0
SOLID
  5
17D8
330
1F
100
AcDbEntity
  8
LOGO
 62
     5
100
AcDbTrace
 10
399.9690697222931
 20
253.0018557968391
 30
0.0
 11
400.2720047569274
 21
253.0018557968391
 31
0.0
 12
399.9690697222931
 22
251.0327780717146
 32
0.0
 13
400.2720047569274
 23
251.0327780717146
 33
0.0
  0
SOLID
  5
17D9
330
1F
100
AcDbEntity
  8
LOGO
 62
     5
100
AcDbTrace
 10
400.6254390618363
 20
252.5474532448871
 30
0.0
 11
400.9283740964702
 21
252.5474532448871
 31
0.0
 12
400.6254390618363
 22
251.0327780717146
 32
0.0
 13
400.9283740964702
 23
251.0327780717146
 33
0.0
  0
SOLID
  5
17DA
330
1F
100
AcDbEntity
  8
LOGO
 62
     5
100
AcDbTrace
 10
401.5342441657391
 20
251.941583175618
 30
0.0
 11
401.8371792003739
 21
251.941583175618
 31
0.0
 12
401.5342441657391
 22
251.0327780717146
 32
0.0
 13
401.8371792003739
 23
251.0327780717146
 33
0.0
  0
SOLID
  5
17DB
330
1F
100
AcDbEntity
  8
LOGO
 62
     5
100
AcDbTrace
 10
402.4430492696427
 20
251.941583175618
 30
0.0
 11
402.745984304277
 21
251.941583175618
 31
0.0
 12
402.4430492696427
 22
251.0327780717141
 32
0.0
 13
402.745984304277
 23
251.0327780717141
 33
0.0
  0
SOLID
  5
17DC
330
1F
100
AcDbEntity
  8
LOGO
 62
     5
100
AcDbTrace
 10
396.5357858007657
 20
252.7595077691314
 30
0.0
 11
396.8387208354011
 21
252.7595077691314
 31
0.0
 12
396.5357858007657
 22
253.0018557968391
 32
0.0
 13
396.8387208354011
 23
253.0018557968391
 33
0.0
  0
SOLID
  5
17DD
330
1F
100
AcDbEntity
  8
LOGO
 62
     5
100
AcDbTrace
 10
396.5357858007657
 20
252.5474532448871
 30
0.0
 11
396.8387208354011
 21
252.5474532448871
 31
0.0
 12
396.5357858007657
 22
251.0327780717141
 32
0.0
 13
396.8387208354011
 23
251.0327780717146
 33
0.0
  0
SOLID
  5
17DE
330
1F
100
AcDbEntity
  8
LOGO
 62
     5
100
AcDbTrace
 10
399.5146974638441
 20
254.0621284180597
 30
0.0
 11
400.3932090642845
 21
254.0621284180597
 31
0.0
 12
399.5146974638441
 22
258.5051755926992
 32
0.0
 13
400.3932090642845
 23
261.7263847943131
 33
0.0
  0
SOLID
  5
17DF
330
1F
100
AcDbEntity
  8
LOGO
 62
     5
100
AcDbTrace
 10
400.7567311058465
 20
262.392841870509
 30
0.0
 11
401.635242706286
 21
262.3928418705094
 31
0.0
 12
400.7567311058465
 22
254.7285854942555
 32
0.0
 13
401.635242706286
 23
257.9497946958694
 33
0.0
  0
SOLID
  5
17E0
330
1F
100
AcDbEntity
  8
LOGO
 62
     2
100
AcDbTrace
 10
400.3932090642845
 20
262.392841870509
 30
0.0
 11
400.7567311058465
 21
262.392841870509
 31
0.0
 12
400.3932090642845
 22
254.0621284180597
 32
0.0
 13
400.7567311058465
 23
254.0621284180597
 33
0.0
  0
SOLID
  5
17E1
330
1F
100
AcDbEntity
  8
LOGO
 62
     5
100
AcDbTrace
 10
400.7567311058465
 20
254.7285854942555
 30
0.0
 11
401.635242706286
 21
257.9497946958694
 31
0.0
 12
404.9372345838023
 22
262.3928418705094
 32
0.0
 13
404.0587229833628
 23
262.3928418705094
 33
0.0
  0
SOLID
  5
17E2
330
1F
100
AcDbEntity
  8
LOGO
 62
     5
100
AcDbTrace
 10
400.7567311058465
 20
254.0621284180597
 30
0.0
 11
401.635242706286
 21
254.0621284180597
 31
0.0
 12
404.9372345838023
 22
261.7263847943131
 32
0.0
 13
404.0587229833628
 23
258.5051755926992
 33
0.0
  0
SOLID
  5
17E3
330
1F
100
AcDbEntity
  8
LOGO
 62
     2
100
AcDbTrace
 10
400.3932090642845
 20
254.0621284180597
 30
0.0
 11
400.7567311058465
 21
254.0621284180597
 31
0.0
 12
404.9372345838023
 22
262.3928418705094
 32
0.0
 13
405.3007566253644
 23
262.392841870509
 33
0.0
  0
LWPOLYLINE
  5
17E4
330
1F
100
AcDbEntity
  8
LOGO
 62
     4
100
AcDbPolyline
 90
        4
 70
     1
 43
0.0
 10
392.8626118148324
 20
262.875496540095
 10
640.6736593122115
 20
262.875496540095
 10
640.6736593122116
 20
242.5571589878776
 10
392.8626118148323
 20
242.5571589878776
1001
GENIUS_GENREC_14
1002
{
1000
PYDIR
1011
392.8626118148323
1021
242.5571589878776
1031
0.0
1002
}
1002
{
1000
PXDIR
1011
640.6736593122115
1021
262.875496540095
1031
0.0
1002
}
1002
{
1000
PORI
1011
392.8626118148324
1021
262.875496540095
1031
0.0
1002
}
1002
{
1000
PINS
1011
392.8626118148324
1021
262.875496540095
1031
0.0
1002
}
1002
{
1000
PINS2
1011
640.6736593122116
1021
242.5571589878776
1031
0.0
1002
}
1002
{
1000
C
1070
     1
1002
}
1001
GENIUS_GENOBJ-N-REC_13
1002
{
1000
OWNER
1000
GEN
1002
}
1001
GENIUS_GENODEF_13
1002
{
1000
HIER
1070
     0
1002
}
1002
{
1000
MANEDIT
1070
     0
1002
}
1002
{
1000
NOSEL
1070
     0
1002
}
1002
{
1000
BEHIND
1070
     0
1002
}
1002
{
1000
OTHER
1070
     0
1002
}
1002
{
1000
REACTOR
1002
}
  0
LINE
  5
17E5
330
1F
100
AcDbEntity
  8
LOGO
 62
     4
100
AcDbLine
 10
482.7379374307542
 20
251.7004108863759
 30
0.0
 11
482.7379374307542
 21
244.2503537838958
 31
0.0
  0
LINE
  5
17E6
330
1F
100
AcDbEntity
  8
LOGO
 62
     4
100
AcDbLine
 10
469.1923790626094
 20
251.7004108863759
 30
0.0
 11
469.1923790626094
 21
244.2503537838958
 31
0.0
  0
LINE
  5
17E7
330
1F
100
AcDbEntity
  8
LOGO
 62
     4
100
AcDbLine
 10
482.7379374307542
 20
244.2503537838958
 30
0.0
 11
469.1923790626094
 21
244.2503537838958
 31
0.0
  0
LINE
  5
17E8
330
1F
100
AcDbEntity
  8
LOGO
 62
     4
100
AcDbLine
 10
487.9254916964737
 20
260.8436627848733
 30
0.0
 11
465.5099259591857
 21
260.8436627848733
 31
0.0
  0
LINE
  5
17E9
330
1F
100
AcDbEntity
  8
LOGO
 62
     4
100
AcDbLine
 10
487.9254916964737
 20
254.7481615192081
 30
0.0
 11
465.5099259591857
 21
254.7481615192081
 31
0.0
  0
LINE
  5
17EA
330
1F
100
AcDbEntity
  8
LOGO
 62
     4
100
AcDbLine
 10
465.5099259591857
 20
260.8436627848733
 30
0.0
 11
465.5099259591857
 21
254.7481615192081
 31
0.0
  0
LINE
  5
17EB
330
1F
100
AcDbEntity
  8
LOGO
 62
     4
100
AcDbLine
 10
487.9254916964737
 20
260.8436627848733
 30
0.0
 11
487.9254916964737
 21
254.7481615192081
 31
0.0
  0
LINE
  5
17EC
330
1F
100
AcDbEntity
  8
LOGO
 62
     4
100
AcDbLine
 10
476.6718961710903
 20
254.7481615192081
 30
0.0
 11
476.6718961710903
 21
251.7004108863759
 31
0.0
  0
TEXT
  5
17ED
330
1F
100
AcDbEntity
  8
LOGO
  6
Continuous
100
AcDbText
 10
469.4961443829261
 20
256.0205884967938
 30
0.0
 40
3.386879999999998
  1
PHS-28
100
AcDbText
  0
LINE
  5
17EE
330
1F
100
AcDbEntity
  8
LOGO
 62
     4
100
AcDbLine
 10
482.7379374307542
 20
251.7004108863759
 30
0.0
 11
469.1923790626094
 21
251.7004108863759
 31
0.0
  0
TEXT
  5
17EF
330
1F
100
AcDbEntity
  8
LOGO
  6
Continuous
100
AcDbText
 10
473.5391058583619
 20
245.3019135456977
 30
133.1630370666592
 40
1.524095999999999
  1
Model
 41
0.8
  7
CHINESET
100
AcDbText
  0
TEXT
  5
17F0
330
1F
100
AcDbEntity
  8
LOGO
100
AcDbText
 10
473.1334410484756
 20
248.1272590635665
 30
133.1630370666592
 40
2.540159999999999
  1
型號
  7
CHINESET
100
AcDbText
  0
TEXT
  5
1824
330
1F
100
AcDbEntity
  8
LOGO
100
AcDbText
 10
438.3688986886854
 20
243.6380865261366
 30
0.0
 40
2.032128
  1
01205030
 41
0.7
  7
CHINESET
 72
     1
 11
443.4492186886854
 21
243.6380865261366
 31
0.0
100
AcDbText
  0
LINE
  5
1825
330
1F
100
AcDbEntity
  8
LOGO
 62
     4
100
AcDbLine
 10
449.7557224297091
 20
246.6208264983217
 30
0.0
 11
449.7557224297103
 21
242.5571589878781
 31
0.0
  0
LINE
  5
1826
330
1F
100
AcDbEntity
  8
LOGO
 62
     4
100
AcDbLine
 10
449.7557224297091
 20
246.6208264983217
 30
0.0
 11
437.5629544297102
 21
246.6208264983217
 31
0.0
  0
CIRCLE
  5
1827
330
1F
100
AcDbEntity
  8
LOGO
  6
Continuous
100
AcDbCircle
 10
427.779590397107
 20
256.7843413817009
 30
0.0
 40
1.179730502257301
  0
CIRCLE
  5
1828
330
1F
100
AcDbEntity
  8
LOGO
  6
Continuous
100
AcDbCircle
 10
427.779590397107
 20
256.7843413817009
 30
0.0
 40
0.6912176386902412
  0
LINE
  5
1829
330
1F
100
AcDbEntity
  8
LOGO
100
AcDbLine
 10
435.1931537634304
 20
255.6046108794435
 30
0.0
 11
435.1931537634304
 21
257.9640718839585
 31
0.0
  0
LINE
  5
182A
330
1F
100
AcDbEntity
  8
LOGO
100
AcDbLine
 10
431.494766358616
 20
256.0931237430108
 30
0.0
 11
431.494766358616
 21
257.4755590203913
 31
0.0
  0
LINE
  5
182B
330
1F
100
AcDbEntity
  8
LOGO
  6
Continuous
100
AcDbLine
 10
431.494766358616
 20
257.4755590203913
 30
0.0
 11
435.1931537634304
 21
257.9640718839585
 31
0.0
  0
LINE
  5
182C
330
1F
100
AcDbEntity
  8
LOGO
  6
Continuous
100
AcDbLine
 10
431.494766358616
 20
256.0931237430108
 30
0.0
 11
435.1931537634304
 21
255.6046108794435
 31
0.0
  0
LINE
  5
182D
330
1F
100
AcDbEntity
  8
LOGO
  6
AM_ISO08W050x2
 48
0.3
100
AcDbLine
 10
426.153314234672
 20
256.7843413817009
 30
0.0
 11
429.4058665595419
 21
256.7843413817009
 31
0.0
1001
GENIUS_GENOREF_13
1005
1832
  0
LINE
  5
182E
330
1F
100
AcDbEntity
  8
LOGO
  6
AM_ISO08W050x2
 48
0.3
100
AcDbLine
 10
427.779590397107
 20
255.158065219266
 30
0.0
 11
427.779590397107
 21
258.4106175441359
 31
0.0
1001
GENIUS_GENOREF_13
1005
1831
  0
LINE
  5
182F
330
1F
100
AcDbEntity
  8
LOGO
  6
CENTER
 48
0.5
100
AcDbLine
 10
431.1989981624277
 20
256.7843413817009
 30
0.0
 11
435.5655694027978
 21
256.7843413817009
 31
0.0
1001
GENIUS_GENOREF_13
1005
1830
  0
POINT
  5
1830
330
1F
100
AcDbEntity
  8
0
 60
     1
100
AcDbPoint
 10
-1582.868394589036
 20
-798.6687030228181
 30
0.0
1001
GENIUS_GENOBJ-N-CRS_13
1002
{
1000
OWNER
1000
GEN
1002
}
1001
GENIUS_GENOLIS_13
1002
{
1000
ENT
1005
0
1005
0
1005
0
1005
182F
1002
}
1001
GENIUS_GENOENT_13
1002
{
1000
MYREF
1005
1830
1002
}
1002
{
1000
GRP
1005
0
1002
}
1001
GENIUS_GENODEF_13
1002
{
1000
HIER
1070
    10
1002
}
1002
{
1000
MANEDIT
1070
     1
1002
}
1002
{
1000
NOSEL
1070
     0
1002
}
1002
{
1000
BEHIND
1070
     0
1002
}
1002
{
1000
OTHER
1070
     0
1002
}
1002
{
1000
REACTOR
1002
}
  0
POINT
  5
1831
330
1F
100
AcDbEntity
  8
0
 60
     1
100
AcDbPoint
 10
-1594.19297981189
 20
-789.7931165441819
 30
0.0
1001
GENIUS_GENOBJ-N-CRS_13
1002
{
1000
OWNER
1000
GEN
1002
}
1001
GENIUS_GENOLIS_13
1002
{
1000
ENT
1005
0
1005
0
1005
0
1005
182E
1002
}
1001
GENIUS_GENOENT_13
1002
{
1000
MYREF
1005
1831
1002
}
1002
{
1000
GRP
1005
0
1002
}
1001
GENIUS_GENODEF_13
1002
{
1000
HIER
1070
    10
1002
}
1002
{
1000
MANEDIT
1070
     1
1002
}
1002
{
1000
NOSEL
1070
     0
1002
}
1002
{
1000
BEHIND
1070
     0
1002
}
1002
{
1000
OTHER
1070
     0
1002
}
1002
{
1000
REACTOR
1002
}
  0
POINT
  5
1832
330
1F
100
AcDbEntity
  8
0
 60
     1
100
AcDbPoint
 10
-1587.834306114053
 20
-798.6687030228181
 30
0.0
1001
GENIUS_GENOBJ-N-CRS_13
1002
{
1000
OWNER
1000
GEN
1002
}
1001
GENIUS_GENOLIS_13
1002
{
1000
ENT
1005
0
1005
0
1005
0
1005
182D
1002
}
1001
GENIUS_GENOENT_13
1002
{
1000
MYREF
1005
1832
1002
}
1002
{
1000
GRP
1005
0
1002
}
1001
GENIUS_GENODEF_13
1002
{
1000
HIER
1070
    10
1002
}
1002
{
1000
MANEDIT
1070
     1
1002
}
1002
{
1000
NOSEL
1070
     0
1002
}
1002
{
1000
BEHIND
1070
     0
1002
}
1002
{
1000
OTHER
1070
     0
1002
}
1002
{
1000
REACTOR
1002
}
  0
SPLINE
  5
61AE
330
1F
100
AcDbEntity
  8
0
  6
Continuous
 62
     7
370
    15
100
AcDbSpline
210
0.0
220
0.0
230
1.0
 70
    24
 71
     1
 72
     4
 73
     2
 74
     0
 42
0.0000000001
 43
0.0000000001
 40
0.0
 40
0.0
 40
1.0
 40
1.0
 10
429.4860484235219
 20
299.7715494426405
 30
0.0
 10
429.4860484235219
 20
288.7715494426404
 30
0.0
  0
ARC
  5
61AF
102
{ACAD_REACTORS
330
63E1
102
}
330
1F
100
AcDbEntity
  8
0
  6
Continuous
 62
     7
370
    15
100
AcDbCircle
 10
431.486048423522
 20
288.7715494426404
 30
0.0
 40
2.0
100
AcDbArc
 50
180.0
 51
270.0
  0
ARC
  5
61B0
102
{ACAD_REACTORS
330
636F
102
}
330
1F
100
AcDbEntity
  8
0
  6
Continuous
 62
     7
370
    15
100
AcDbCircle
 10
477.4860484235216
 20
299.7715494426405
 30
0.0
 40
2.0
100
AcDbArc
 50
0.0
 51
76.64317815730317
  0
ARC
  5
61B1
102
{ACAD_REACTORS
330
63E1
102
}
330
1F
100
AcDbEntity
  8
0
  6
Continuous
 62
     7
370
    15
100
AcDbCircle
 10
477.4860484235216
 20
288.7715494426404
 30
0.0
 40
2.0
100
AcDbArc
 50
270.0
 51
0.0
  0
ARC
  5
61B2
330
1F
100
AcDbEntity
  8
0
  6
Continuous
 62
     7
370
    15
100
AcDbCircle
 10
431.486048423522
 20
299.7715494426405
 30
0.0
 40
2.0
100
AcDbArc
 50
103.3536565307277
 51
180.0
  0
SPLINE
  5
61B3
330
1F
100
AcDbEntity
  8
0
  6
Continuous
 62
     7
370
    15
100
AcDbSpline
210
0.0
220
0.0
230
1.0
 70
    24
 71
     1
 72
     4
 73
     2
 74
     0
 42
0.0000000001
 43
0.0000000001
 40
0.0
 40
0.0
 40
1.0
 40
1.0
 10
479.4860484235216
 20
288.7715494426404
 30
0.0
 10
479.4860484235216
 20
299.7715494426405
 30
0.0
  0
SPLINE
  5
61B5
330
1F
100
AcDbEntity
  8
0
  6
Continuous
 62
     7
370
    15
100
AcDbSpline
210
0.0
220
0.0
230
1.0
 70
     8
 71
     3
 72
    12
 73
     8
 74
     0
 42
0.0000000001
 43
0.0000000001
 40
0.0
 40
0.0
 40
0.0
 40
0.0
 40
0.2566820148758835
 40
0.4556741879412214
 40
0.5996052664705508
 40
0.7789096785315363
 40
1.0
 40
1.0
 40
1.0
 40
1.0
 10
431.0333772392748
 20
372.8478886341024
 30
0.0
 10
431.0427125163849
 20
372.8384609792442
 30
0.0
 10
431.0592849467456
 20
372.8217245554873
 30
0.0
 10
431.1205012332314
 20
372.7590158153343
 30
0.0
 10
431.2153050968362
 20
372.6598463497547
 30
0.0
 10
431.3457186644654
 20
372.5203669264648
 30
0.0
 10
431.4454543968282
 20
372.4080177999927
 30
0.0
 10
431.5005265625774
 20
372.3459807590219
 30
0.0
  0
LINE
  5
61C7
330
1F
100
AcDbEntity
  8
0
  6
Continuous
 62
     7
370
    15
100
AcDbLine
 10
441.1032245998244
 20
286.7715494426404
 30
0.0
 11
431.486048423522
 21
286.7715494426404
 31
0.0
  0
LINE
  5
61CA
330
1F
100
AcDbEntity
  8
0
  6
Continuous
 62
     7
370
    15
100
AcDbLine
 10
441.5410865825358
 20
367.3296401131806
 30
0.0
 11
467.4310102645077
 21
367.3296401131806
 31
0.0
  0
LINE
  5
61CC
330
1F
100
AcDbEntity
  8
0
  6
Continuous
 62
     7
370
    15
100
AcDbLine
 10
467.8688722472192
 20
286.7715494426404
 30
0.0
 11
441.1032245998244
 21
286.7715494426404
 31
0.0
  0
LINE
  5
61D1
102
{ACAD_REACTORS
330
6395
102
}
330
1F
100
AcDbEntity
  8
0
  6
Continuous
 62
     7
370
    15
100
AcDbLine
 10
477.4860484235216
 20
286.7715494426404
 30
0.0
 11
467.8688722472192
 21
286.7715494426404
 31
0.0
  0
ELLIPSE
  5
61D8
330
1F
100
AcDbEntity
  8
0
  6
Continuous
 62
     7
370
    15
100
AcDbEllipse
 10
454.4860484235218
 20
380.068413017141
 30
0.0
 11
-8.588938701806592
 21
16.13070234800249
 31
0.0
210
0.0
220
0.0
230
1.0
 40
0.9368732624931118
 41
2.624780755714453
 42
3.464877207404115
  0
LINE
  5
61DD
330
1F
100
AcDbEntity
  8
0
  6
Continuous
 62
     7
370
    15
100
AcDbLine
 10
434.4860484235217
 20
306.0961047629771
 30
0.0
 11
434.4860484235217
 21
364.4257614633687
 31
0.0
  0
ELLIPSE
  5
61E0
330
1F
100
AcDbEntity
  8
0
  6
Continuous
 62
     7
370
    15
100
AcDbEllipse
 10
454.4860484235218
 20
380.068413017141
 30
0.0
 11
8.588938701805485
 21
16.13070234800305
 31
0.0
210
0.0
220
0.0
230
1.0
 40
0.9368732624931082
 41
2.818308099775401
 42
3.65840455146509
  0
LINE
  5
61E1
330
1F
100
AcDbEntity
  8
0
  6
Continuous
 62
     7
370
    15
100
AcDbLine
 10
474.4860484235217
 20
364.4257614633687
 30
0.0
 11
474.4860484235217
 21
306.0961047629771
 31
0.0
  0
ARC
  5
61EF
330
1F
100
AcDbEntity
  8
0
  6
Continuous
 62
     7
370
    15
100
AcDbCircle
 10
478.9860484235218
 20
306.0961047629771
 30
0.0
 40
4.499999999999971
100
AcDbArc
 50
180.0
 51
256.6576362029089
  0
ARC
  5
61F0
330
1F
100
AcDbEntity
  8
0
  6
Continuous
 62
     7
370
    15
100
AcDbCircle
 10
429.9860484235217
 20
306.0961047629771
 30
0.0
 40
4.500000000000014
100
AcDbArc
 50
283.3423637970911
 51
0.0
  0
CIRCLE
  5
61F1
330
1F
100
AcDbEntity
  8
0
  6
Continuous
 62
     7
370
    15
100
AcDbCircle
 10
454.4860484235218
 20
396.7715494426404
 30
0.0
 40
16.42406770565685
  0
CIRCLE
  5
61F2
330
1F
100
AcDbEntity
  8
0
  6
Continuous
 62
     7
370
    15
100
AcDbCircle
 10
454.4860484235218
 20
396.7715494426404
 30
0.0
 40
14.0
  0
CIRCLE
  5
61F3
330
1F
100
AcDbEntity
  8
0
  6
Continuous
 62
     7
370
    15
100
AcDbCircle
 10
454.4860484235218
 20
396.7715494426404
 30
0.0
 40
20.174241001832
  0
LINE
  5
61F5
330
1F
100
AcDbEntity
  8
0
  6
Continuous
 62
     7
370
    15
100
AcDbLine
 10
472.8933959744194
 20
371.2094768322189
 30
0.0
 11
467.4310102645078
 21
367.3296401131806
 31
0.0
  0
ARC
  5
61F7
330
1F
100
AcDbEntity
  8
0
  6
Continuous
 62
     7
370
    15
100
AcDbCircle
 10
454.4860484235218
 20
396.7715494426404
 30
0.0
 40
22.97424100183203
100
AcDbArc
 50
252.4438858246842
 51
287.5561141753158
  0
LINE
  5
61FC
330
1F
100
AcDbEntity
  8
0
  6
Continuous
 62
     7
370
    15
100
AcDbLine
 10
436.0787008726241
 20
371.2094768322189
 30
0.0
 11
441.5410865825358
 21
367.3296401131806
 31
0.0
  0
ARC
  5
6207
330
1F
100
AcDbEntity
  8
0
  6
Continuous
 62
     7
370
    15
100
AcDbCircle
 10
454.4860484235218
 20
396.7715494426404
 30
0.0
 40
31.50000000000003
100
AcDbArc
 50
305.7578067294315
 51
234.2421932705685
  0
ARC
  5
6208
102
{ACAD_REACTORS
330
6321
330
63BB
102
}
330
1F
100
AcDbEntity
  8
0
  6
Continuous
 62
     7
370
    15
100
AcDbCircle
 10
454.5127675096267
 20
396.7591544169002
 30
0.0
 40
33.51164571910923
100
AcDbArc
 50
313.2557789009392
 51
225.5221273818795
  0
ARC
  5
6209
330
1F
100
AcDbEntity
  8
0
  6
Continuous
 62
     7
370
    15
100
AcDbCircle
 10
454.4860484235218
 20
396.7715494426404
 30
0.0
 40
22.97424100183203
100
AcDbArc
 50
287.5561141753158
 51
252.4438858246842
  0
ARC
  5
620A
330
1F
100
AcDbEntity
  8
0
  6
Continuous
 62
     7
370
    15
100
AcDbCircle
 10
422.4860484235217
 20
364.4257614633687
 30
0.0
 40
12.00000000000001
100
AcDbArc
 50
0.0
 51
41.30503665066095
  0
ARC
  5
620B
330
1F
100
AcDbEntity
  8
0
  6
Continuous
 62
     7
370
    15
100
AcDbCircle
 10
486.4860484235217
 20
364.4257614633687
 30
0.0
 40
12.0
100
AcDbArc
 50
138.6569013167877
 51
180.0
  0
ARC
  5
6213
102
{ACAD_REACTORS
330
6453
102
}
330
1F
100
AcDbEntity
  8
0
  6
Continuous
 62
     7
370
    15
100
AcDbCircle
 10
561.6695096740779
 20
428.2715494426404
 30
0.0
 40
2.0
100
AcDbArc
 50
90.0
 51
180.0
  0
SPLINE
  5
6214
330
1F
100
AcDbEntity
  8
0
  6
Continuous
 62
     7
370
    15
100
AcDbSpline
210
0.0
220
0.0
230
1.0
 70
    24
 71
     1
 72
     4
 73
     2
 74
     0
 42
0.0000000001
 43
0.0000000001
 40
0.0
 40
0.0
 40
1.0
 40
1.0
 10
583.6695096740779
 20
430.2715494426404
 30
0.0
 10
561.6695096740779
 20
430.2715494426404
 30
0.0
  0
ARC
  5
6215
330
1F
100
AcDbEntity
  8
0
  6
Continuous
 62
     7
370
    15
100
AcDbCircle
 10
583.6695096740779
 20
428.2715494426404
 30
0.0
 40
2.0
100
AcDbArc
 50
0.0
 51
90.0
  0
ARC
  5
6216
330
1F
100
AcDbEntity
  8
0
  6
Continuous
 62
     7
370
    15
100
AcDbCircle
 10
572.669509674078
 20
396.7715494426404
 30
0.0
 40
24.00000000000006
100
AcDbArc
 50
223.1834217961762
 51
237.2028317041792
  0
ARC
  5
6217
102
{ACAD_REACTORS
330
6479
102
}
330
1F
100
AcDbEntity
  8
0
  6
Continuous
 62
     7
370
    15
100
AcDbCircle
 10
572.669509674078
 20
396.7715494426404
 30
0.0
 40
24.00000000000001
100
AcDbArc
 50
122.7971682958225
 51
136.8165782038237
  0
ARC
  5
6218
102
{ACAD_REACTORS
330
6555
102
}
330
1F
100
AcDbEntity
  8
0
  6
Continuous
 62
     7
370
    15
100
AcDbCircle
 10
572.669509674078
 20
396.7715494426404
 30
0.0
 40
24.00000000000004
100
AcDbArc
 50
302.7971682958226
 51
316.8165782038237
  0
ARC
  5
6219
102
{ACAD_REACTORS
330
6479
102
}
330
1F
100
AcDbEntity
  8
0
  6
Continuous
 62
     7
370
    15
100
AcDbCircle
 10
572.669509674078
 20
396.7715494426404
 30
0.0
 40
23.99999999999999
100
AcDbArc
 50
43.18342179617626
 51
57.20283170417743
  0
LINE
  5
621A
330
1F
100
AcDbEntity
  8
0
  6
Continuous
 62
     7
370
    15
100
AcDbLine
 10
556.1512416341698
 20
366.3785738532178
 30
0.0
 11
556.1557310918223
 21
366.383061606971
 31
0.0
  0
LINE
  5
621B
330
1F
100
AcDbEntity
  8
0
  6
Continuous
 62
     7
370
    15
100
AcDbLine
 10
559.6695096740781
 20
374.8674028903641
 30
0.0
 11
559.669509674078
 21
428.2715494426405
 31
0.0
  0
LINE
  5
6220
102
{ACAD_REACTORS
330
6453
102
}
330
1F
100
AcDbEntity
  8
0
  6
Continuous
 62
     7
370
    15
100
AcDbLine
 10
585.669509674078
 20
428.2715494426405
 30
0.0
 11
585.669509674078
 21
374.8674028903642
 31
0.0
  0
LINE
  5
622C
102
{ACAD_REACTORS
330
6407
102
}
330
1F
100
AcDbEntity
  8
0
  6
Continuous
 62
     7
370
    15
100
AcDbLine
 10
552.169509674078
 20
300.4486737871081
 30
0.0
 11
552.169509674078
 21
288.7715494426404
 31
0.0
  0
SPLINE
  5
622D
330
1F
100
AcDbEntity
  8
0
  6
Continuous
 62
     7
370
    15
100
AcDbSpline
210
0.0
220
0.0
230
1.0
 70
     8
 71
     3
 72
    18
 73
    14
 74
     0
 42
0.0000000001
 43
0.0000000001
 40
0.0
 40
0.0
 40
0.0
 40
0.0
 40
0.125
 40
0.125
 40
0.25
 40
0.25
 40
0.3750000000000001
 40
0.3750000000000001
 40
0.5000000000000002
 40
0.5000000000000002
 40
0.7500000000000002
 40
0.7500000000000002
 40
1.0
 40
1.0
 40
1.0
 40
1.0
 10
593.169509674078
 20
288.7715494426404
 30
0.0
 10
593.169509674078
 20
288.6363458311369
 30
0.0
 10
593.155941094487
 20
288.5035777399587
 30
0.0
 10
593.102907536739
 20
288.2426909302913
 30
0.0
 10
593.0627103422109
 20
288.1131728124834
 30
0.0
 10
592.9589302129731
 20
287.8684200543817
 30
0.0
 10
592.8955986043423
 20
287.752673029842
 30
0.0
 10
592.7464001529464
 20
287.5342505469033
 30
0.0
 10
592.6607424774217
 20
287.4324453262182
 30
0.0
 10
592.3812383350192
 20
287.1592175643343
 30
0.0
 10
592.1586648814403
 20
287.0144622603582
 30
0.0
 10
591.6832853924802
 20
286.821724347517
 30
0.0
 10
591.423634166678
 20
286.7715494426404
 30
0.0
 10
591.1695096740779
 20
286.7715494426404
 30
0.0
  0
LINE
  5
622E
102
{ACAD_REACTORS
330
642D
102
}
330
1F
100
AcDbEntity
  8
0
  6
Continuous
 62
     7
370
    15
100
AcDbLine
 10
591.1695096740779
 20
286.7715494426404
 30
0.0
 11
554.1695096740779
 21
286.7715494426404
 31
0.0
  0
SPLINE
  5
622F
330
1F
100
AcDbEntity
  8
0
  6
Continuous
 62
     7
370
    15
100
AcDbSpline
210
0.0
220
0.0
230
1.0
 70
     8
 71
     3
 72
    18
 73
    14
 74
     0
 42
0.0000000001
 43
0.0000000001
 40
0.0
 40
0.0
 40
0.0
 40
0.0
 40
0.1250000000000002
 40
0.1250000000000002
 40
0.2500000000000003
 40
0.2500000000000003
 40
0.3750000000000005
 40
0.3750000000000005
 40
0.5000000000000006
 40
0.5000000000000006
 40
0.7500000000000004
 40
0.7500000000000004
 40
1.0
 40
1.0
 40
1.0
 40
1.0
 10
552.169509674078
 20
288.7715494426404
 30
0.0
 10
552.169509674078
 20
288.6363458311369
 30
0.0
 10
552.1830782536689
 20
288.5035777399587
 30
0.0
 10
552.2361118114169
 20
288.2426909302913
 30
0.0
 10
552.276309005945
 20
288.1131728124834
 30
0.0
 10
552.380089135183
 20
287.8684200543817
 30
0.0
 10
552.4434207438137
 20
287.752673029842
 30
0.0
 10
552.5926191952095
 20
287.5342505469033
 30
0.0
 10
552.6782768707342
 20
287.4324453262182
 30
0.0
 10
552.9577810131367
 20
287.1592175643343
 30
0.0
 10
553.1803544667156
 20
287.0144622603582
 30
0.0
 10
553.6557339556757
 20
286.821724347517
 30
0.0
 10
553.9153851814773
 20
286.7715494426404
 30
0.0
 10
554.1695096740779
 20
286.7715494426404
 30
0.0
  0
LINE
  5
6240
330
1F
100
AcDbEntity
  8
0
  6
Continuous
 62
     7
370
    15
100
AcDbLine
 10
555.1695096740779
 20
380.3474817369836
 30
0.0
 11
555.1695096740779
 21
413.1956171482973
 31
0.0
  0
LINE
  5
6241
330
1F
100
AcDbEntity
  8
0
  6
Continuous
 62
     7
370
    15
100
AcDbLine
 10
590.1695096740779
 20
380.3474817369836
 30
0.0
 11
590.1695096740779
 21
413.1956171482973
 31
0.0
  0
LINE
  5
6244
330
1F
100
AcDbEntity
  8
0
  6
Continuous
 62
     7
370
    15
100
AcDbLine
 10
552.6695096740779
 20
362.0684130171408
 30
0.0
 11
552.6695096740779
 21
302.9486737871081
 31
0.0
  0
LINE
  5
6247
330
1F
100
AcDbEntity
  8
0
  6
Continuous
 62
     7
370
    15
100
AcDbLine
 10
592.6695096740779
 20
302.9486737871081
 30
0.0
 11
592.6695096740779
 21
362.0684130171408
 31
0.0
  0
ARC
  5
6250
330
1F
100
AcDbEntity
  8
0
  6
Continuous
 62
     7
370
    15
100
AcDbCircle
 10
547.669509674078
 20
374.8674028903641
 30
0.0
 40
12.0
100
AcDbArc
 50
315.0
 51
0.0
  0
ARC
  5
6255
330
1F
100
AcDbEntity
  8
0
  6
Continuous
 62
     7
370
    15
100
AcDbCircle
 10
554.6695096740779
 20
362.0684130171408
 30
0.0
 40
1.999999999999996
100
AcDbArc
 50
135.0
 51
180.0
  0
LINE
  5
6256
330
1F
100
AcDbEntity
  8
0
  6
Continuous
 62
     7
370
    15
100
AcDbLine
 10
553.2552961117048
 20
363.4826265795139
 30
0.0
 11
556.1547910483166
 21
366.3821215161256
 31
0.0
  0
ARC
  5
6257
330
1F
100
AcDbEntity
  8
0
  6
Continuous
 62
     7
370
    15
100
AcDbCircle
 10
590.6695096740779
 20
362.0684130171408
 30
0.0
 40
2.000000000000015
100
AcDbArc
 50
0.0
 51
45.0
  0
LINE
  5
6258
330
1F
100
AcDbEntity
  8
0
  6
Continuous
 62
     7
370
    15
100
AcDbLine
 10
589.1842282998394
 20
366.3821215161256
 30
0.0
 11
592.0837232364511
 21
363.4826265795139
 31
0.0
  0
ARC
  5
6259
330
1F
100
AcDbEntity
  8
0
  6
Continuous
 62
     7
370
    15
100
AcDbCircle
 10
554.1695096740779
 20
300.4486737871081
 30
0.0
 40
2.0
100
AcDbArc
 50
157.3801350519576
 51
180.0
  0
ARC
  5
625B
330
1F
100
AcDbEntity
  8
0
  6
Continuous
 62
     7
370
    15
100
AcDbCircle
 10
548.169509674078
 20
302.9486737871081
 30
0.0
 40
4.5
100
AcDbArc
 50
337.3801350519606
 51
0.0
  0
LINE
  5
626A
102
{ACAD_REACTORS
330
642D
102
}
330
1F
100
AcDbEntity
  8
AM_4
100
AcDbLine
 10
586.6695096740779
 20
339.7715494426404
 30
0.0
 11
558.6695096740779
 21
339.7715494426404
 31
0.0
  0
SPLINE
  5
6296
330
1F
100
AcDbEntity
  8
AM_4
100
AcDbSpline
210
0.0
220
0.0
230
1.0
 70
    24
 71
     1
 72
     4
 73
     2
 74
     0
 42
0.0000000001
 43
0.0000000001
 40
0.0
 40
0.0
 40
1.0
 40
1.0
 10
590.1695096740779
 20
410.7715494426404
 30
0.0
 10
555.1695096740779
 20
410.7715494426404
 30
0.0
  0
SPLINE
  5
6297
330
1F
100
AcDbEntity
  8
AM_4
100
AcDbSpline
210
0.0
220
0.0
230
1.0
 70
    24
 71
     1
 72
     4
 73
     2
 74
     0
 42
0.0000000001
 43
0.0000000001
 40
0.0
 40
0.0
 40
1.0
 40
1.0
 10
555.1695096740779
 20
382.7715494426404
 30
0.0
 10
590.1695096740779
 20
382.7715494426404
 30
0.0
  0
SPLINE
  5
6298
330
1F
100
AcDbEntity
  8
AM_4
100
AcDbSpline
210
0.0
220
0.0
230
1.0
 70
    24
 71
     1
 72
     4
 73
     2
 74
     0
 42
0.0000000001
 43
0.0000000001
 40
0.0
 40
0.0
 40
1.0
 40
1.0
 10
586.6695096740779
 20
286.7715494426404
 30
0.0
 10
586.6695096740779
 20
339.7715494426404
 30
0.0
  0
SPLINE
  5
6299
330
1F
100
AcDbEntity
  8
AM_4
100
AcDbSpline
210
0.0
220
0.0
230
1.0
 70
    24
 71
     1
 72
     4
 73
     2
 74
     0
 42
0.0000000001
 43
0.0000000001
 40
0.0
 40
0.0
 40
1.0
 40
1.0
 10
558.6695096740779
 20
339.7715494426404
 30
0.0
 10
558.6695096740779
 20
286.7715494426404
 30
0.0
  0
ARC
  5
629B
330
1F
100
AcDbEntity
  8
0
  6
HIDDEN
 62
     7
370
     0
100
AcDbCircle
 10
597.6685712940934
 20
374.8680602807013
 30
0.0
 40
11.99980131727531
100
AcDbArc
 50
180.4990061723549
 51
224.9638906406326
  0
LINE
  5
62FC
102
{ACAD_REACTORS
330
6407
102
}
330
1F
100
AcDbEntity
  8
0
  6
Continuous
 62
     7
370
    15
100
AcDbLine
 10
593.169509674078
 20
300.4486737871081
 30
0.0
 11
593.169509674078
 21
288.7715494426404
 31
0.0
  0
ARC
  5
62FD
330
1F
100
AcDbEntity
  8
0
  6
Continuous
 62
     7
370
    15
100
AcDbCircle
 10
591.1695096740779
 20
300.4486737871081
 30
0.0
 40
2.0
100
AcDbArc
 50
0.000000000000007
 51
22.61986494804244
  0
ARC
  5
62FE
330
1F
100
AcDbEntity
  8
0
  6
Continuous
 62
     7
370
    15
100
AcDbCircle
 10
597.169509674078
 20
302.9486737871081
 30
0.0
 40
4.5
100
AcDbArc
 50
180.0
 51
202.6198649480394
  0
LINE
  5
62FF
102
{ACAD_REACTORS
330
6321
330
6395
102
}
330
1F
100
AcDbEntity
  8
AM_7
100
AcDbLine
 10
417.5441165246946
 20
396.7618225819231
 30
0.0
 11
492.3151249160893
 21
396.7618225819231
 31
0.0
  0
LINE
  5
6300
102
{ACAD_REACTORS
330
63BB
102
}
330
1F
100
AcDbEntity
  8
AM_7
100
AcDbLine
 10
454.5088796995143
 20
357.55720671982
 30
0.0
 11
454.5088796995143
 21
434.2767060305215
 31
0.0
  0
LINE
  5
6301
330
1F
100
AcDbEntity
  8
AM_7
100
AcDbLine
 10
548.1041646606611
 20
396.7618225819231
 30
0.0
 11
595.4054755025883
 21
396.7618225819231
 31
0.0
  0
DIMENSION
  5
6313
102
{ACAD_XDICTIONARY
360
6320
102
}
102
{ACAD_REACTORS
330
6321
102
}
330
1F
100
AcDbEntity
  8
AM_REFDIM
100
AcDbDimension
  2
*D5
 10
488.0244131225175
 20
440.675096431482
 30
0.0
 11
454.5127675096267
 21
442.325096431482
 31
0.0
 70
    32
 71
     5
 42
67.02329122578169
  3
AM_ISO$0
100
AcDbAlignedDimension
 13
421.0011218967359
 23
396.7618225819231
 33
0.0
 14
488.0244131225175
 24
396.7618225819231
 34
0.0
100
AcDbRotatedDimension
1001
ACAD
1000
DSTYLE
1002
{
1070
    40
1040
0.6
1070
   271
1070
     0
1002
}
  0
DIMENSION
  5
6361
102
{ACAD_XDICTIONARY
360
636E
102
}
102
{ACAD_REACTORS
330
636F
102
}
330
1F
100
AcDbEntity
  8
AM_REFDIM
100
AcDbDimension
  2
*D6
 10
495.9480779292674
 20
286.7715494426404
 30
0.0
 11
494.2980779292673
 21
294.2444996900608
 31
0.0
 70
    32
 71
     5
 42
14.94590049484048
  3
AM_ISO$0
100
AcDbAlignedDimension
 13
477.9480779292673
 23
301.7174499374809
 33
0.0
 14
477.4860484235216
 24
286.7715494426404
 34
0.0
 50
90.00000000000003
100
AcDbRotatedDimension
1001
ACAD
1000
DSTYLE
1002
{
1070
    40
1040
0.6
1070
   271
1070
     0
1002
}
  0
DIMENSION
  5
6387
102
{ACAD_XDICTIONARY
360
6394
102
}
102
{ACAD_REACTORS
330
6395
102
}
330
1F
100
AcDbEntity
  8
AM_REFDIM
100
AcDbDimension
  2
*D7
 10
507.6151249160893
 20
396.7618225819231
 30
0.0
 11
507.6151249160893
 21
341.7666860122818
 31
0.0
 70
   160
 71
     5
 42
109.9902731392826
  3
AM_ISO$0
100
AcDbAlignedDimension
 13
477.4860484235216
 23
286.7715494426404
 33
0.0
 14
492.3151249160893
 24
396.7618225819231
 34
0.0
 50
90.00000000000003
100
AcDbRotatedDimension
1001
ACAD
1000
DSTYLE
1002
{
1070
    40
1040
0.6
1070
   271
1070
     0
1002
}
  0
DIMENSION
  5
63AD
102
{ACAD_XDICTIONARY
360
63BA
102
}
102
{ACAD_REACTORS
330
63BB
102
}
330
1F
100
AcDbEntity
  8
AM_REFDIM
100
AcDbDimension
  2
*D8
 10
522.3151249160896
 20
430.2707999104898
 30
0.0
 11
520.6651249160895
 21
358.5211746765652
 31
0.0
 70
    32
 71
     5
 42
143.4992504678493
  3
AM_ISO$0
100
AcDbAlignedDimension
 13
477.4860484235216
 23
286.7715494426404
 33
0.0
 14
454.5088796995143
 24
430.2707999104898
 34
0.0
 50
90.00000000000003
100
AcDbRotatedDimension
1001
ACAD
1000
DSTYLE
1002
{
1070
    40
1040
0.6
1070
   271
1070
     1
1002
}
  0
DIMENSION
  5
63D3
102
{ACAD_XDICTIONARY
360
63E0
102
}
102
{ACAD_REACTORS
330
63E1
102
}
330
1F
100
AcDbEntity
  8
AM_REFDIM
100
AcDbDimension
  2
*D9
 10
479.4860484235216
 20
276.2804507144096
 30
0.0
 11
454.4860484235218
 21
276.2804507144096
 31
0.0
 70
   160
 71
     5
 42
49.99999999999966
  3
AM_ISO$0
100
AcDbAlignedDimension
 13
429.4860484235219
 23
288.7715494426404
 33
0.0
 14
479.4860484235216
 24
288.7715494426404
 34
0.0
 50
0.0000000000001132
100
AcDbRotatedDimension
1001
ACAD
1000
DSTYLE
1002
{
1070
    40
1040
0.6
1070
   271
1070
     0
1002
}
  0
DIMENSION
  5
63F9
102
{ACAD_XDICTIONARY
360
6406
102
}
102
{ACAD_REACTORS
330
6407
102
}
330
1F
100
AcDbEntity
  8
AM_REFDIM
100
AcDbDimension
  2
*D10
 10
593.169509674078
 20
276.2804507144096
 30
0.0
 11
572.669509674078
 21
276.2804507144096
 31
0.0
 70
   160
 71
     5
 42
41.0
  3
AM_ISO$0
100
AcDbAlignedDimension
 13
552.169509674078
 23
288.7715494426404
 33
0.0
 14
593.169509674078
 24
288.7715494426404
 34
0.0
 50
0.0000000000001132
100
AcDbRotatedDimension
1001
ACAD
1000
DSTYLE
1002
{
1070
    40
1040
0.6
1070
   271
1070
     0
1002
}
  0
DIMENSION
  5
641F
102
{ACAD_XDICTIONARY
360
642C
102
}
102
{ACAD_REACTORS
330
642D
102
}
330
1F
100
AcDbEntity
  8
AM_REFDIM
100
AcDbDimension
  2
*D11
 10
609.1695096740781
 20
286.7715494426404
 30
0.0
 11
607.5195096740779
 21
313.2715494426405
 31
0.0
 70
    32
 71
     5
 42
53.0
  3
AM_ISO$0
100
AcDbAlignedDimension
 13
586.6695096740779
 23
339.7715494426404
 33
0.0
 14
591.169509674078
 24
286.7715494426404
 34
0.0
 50
90.00000000000003
100
AcDbRotatedDimension
1001
ACAD
1000
DSTYLE
1002
{
1070
    40
1040
0.6
1070
   271
1070
     0
1002
}
  0
DIMENSION
  5
6445
102
{ACAD_XDICTIONARY
360
6452
102
}
102
{ACAD_REACTORS
330
6453
102
}
330
1F
100
AcDbEntity
  8
AM_REFDIM
100
AcDbDimension
  2
*D12
 10
585.669509674078
 20
440.2985374531172
 30
0.0
 11
572.669509674078
 21
441.9487441460305
 31
0.0
 70
    32
 71
     5
 42
26.0
  3
AM_ISO$0
100
AcDbAlignedDimension
 13
559.669509674078
 23
428.2715494426404
 33
0.0
 14
585.669509674078
 24
428.2715494426405
 34
0.0
100
AcDbRotatedDimension
1001
ACAD
1000
DSTYLE
1002
{
1070
    40
1040
0.6
1070
   271
1070
     0
1002
}
  0
DIMENSION
  5
646B
102
{ACAD_XDICTIONARY
360
6478
102
}
102
{ACAD_REACTORS
330
6479
102
}
330
1F
100
AcDbEntity
  8
AM_REFDIM
100
AcDbDimension
  2
*D13
 10
590.1695096740772
 20
452.2985374531169
 30
0.0
 11
572.669509674078
 21
453.9485374531168
 31
0.0
 70
    32
 71
     5
 42
34.99999999999864
  3
AM_ISO$0
100
AcDbAlignedDimension
 13
555.1695096740786
 23
413.1956171482979
 33
0.0
 14
590.1695096740772
 24
413.1956171482979
 34
0.0
100
AcDbRotatedDimension
1001
ACAD
1000
DSTYLE
1002
{
1070
    40
1040
0.6
1070
   271
1070
     0
1002
}
  0
DIMENSION
  5
6547
102
{ACAD_XDICTIONARY
360
6554
102
}
102
{ACAD_REACTORS
330
6555
102
}
330
1F
100
AcDbEntity
  8
AM_REFDIM
100
AcDbDimension
  2
*D14
 10
609.1695096740783
 20
382.7715494426404
 30
0.0
 11
607.5193029811648
 21
396.7715494426405
 31
0.0
 70
    32
  1
%%C<>
 71
     5
 42
28.0
  3
AM_ISO$0
100
AcDbAlignedDimension
 13
590.1695096740779
 23
410.7715494426404
 33
0.0
 14
592.1630983636959
 24
382.7715494426404
 34
0.0
 50
90.00000000000003
100
AcDbRotatedDimension
1001
ACAD
1000
DSTYLE
1002
{
1070
    40
1040
0.6
1070
   271
1070
     0
1002
}
  0
ENDSEC
  0
SECTION
  2
OBJECTS
  0
DICTIONARY
  5
C
330
0
100
AcDbDictionary
281
     1
  3
ACAD_COLOR
350
BE
  3
ACAD_GROUP
350
D
  3
ACAD_LAYOUT
350
1A
  3
ACAD_MATERIAL
350
BD
  3
ACAD_MLINESTYLE
350
17
  3
ACAD_PLOTSETTINGS
350
19
  3
ACAD_PLOTSTYLENAME
350
E
  3
ACAD_TABLESTYLE
350
11A
  3
ACDBHEADERROUNDTRIPXREC
350
6580
  3
AcDbVariableDictionary
350
94
  3
AcmDictionary
350
5B
  3
AMG
350
41
  3
AMGSNAPSETTINGS
350
1B8
  3
DWGPROPS
350
657F
  3
MAPISURF_MODULE
350
3A15
  0
DICTIONARY
  5
3F9
330
2
100
AcDbDictionary
280
     1
281
     1
  3
ACAD_LAYERFILTERS
360
5645
  3
ACAD_LAYERSTATES
360
AD2
  3
ACLYDICTIONARY
360
5644
  0
DICTIONARY
  5
8F
330
1F
100
AcDbDictionary
280
     1
281
     1
  3
ACAD_INDEX
360
3D28
  0
DICTIONARY
  5
6320
330
6313
100
AcDbDictionary
280
     1
281
     1
  3
ACAD_DIMASSOC
360
6321
  0
DICTIONARY
  5
636E
330
6361
100
AcDbDictionary
280
     1
281
     1
  3
ACAD_DIMASSOC
360
636F
  0
DICTIONARY
  5
6394
330
6387
100
AcDbDictionary
280
     1
281
     1
  3
ACAD_DIMASSOC
360
6395
  0
DICTIONARY
  5
63BA
330
63AD
100
AcDbDictionary
280
     1
281
     1
  3
ACAD_DIMASSOC
360
63BB
  0
DICTIONARY
  5
63E0
330
63D3
100
AcDbDictionary
280
     1
281
     1
  3
ACAD_DIMASSOC
360
63E1
  0
DICTIONARY
  5
6406
330
63F9
100
AcDbDictionary
280
     1
281
     1
  3
ACAD_DIMASSOC
360
6407
  0
DICTIONARY
  5
642C
330
641F
100
AcDbDictionary
280
     1
281
     1
  3
ACAD_DIMASSOC
360
642D
  0
DICTIONARY
  5
6452
330
6445
100
AcDbDictionary
280
     1
281
     1
  3
ACAD_DIMASSOC
360
6453
  0
DICTIONARY
  5
6478
330
646B
100
AcDbDictionary
280
     1
281
     1
  3
ACAD_DIMASSOC
360
6479
  0
DICTIONARY
  5
6554
330
6547
100
AcDbDictionary
280
     1
281
     1
  3
ACAD_DIMASSOC
360
6555
  0
DICTIONARY
  5
BE
102
{ACAD_REACTORS
330
C
102
}
330
C
100
AcDbDictionary
281
     1
  0
DICTIONARY
  5
D
102
{ACAD_REACTORS
330
C
102
}
330
C
100
AcDbDictionary
281
     1
  0
DICTIONARY
  5
1A
102
{ACAD_REACTORS
330
C
102
}
330
C
100
AcDbDictionary
281
     1
  3
Model
350
22
  3
配置1
350
1E
  3
配置2
350
26
  0
DICTIONARY
  5
BD
102
{ACAD_REACTORS
330
C
102
}
330
C
100
AcDbDictionary
281
     1
  0
DICTIONARY
  5
17
102
{ACAD_REACTORS
330
C
102
}
330
C
100
AcDbDictionary
281
     1
  3
Standard
350
18
  0
DICTIONARY
  5
19
102
{ACAD_REACTORS
330
C
102
}
330
C
100
AcDbDictionary
281
     1
  0
ACDBDICTIONARYWDFLT
  5
E
102
{ACAD_REACTORS
330
C
102
}
330
C
100
AcDbDictionary
281
     1
  3
Normal
350
F
100
AcDbDictionaryWithDefault
340
F
  0
DICTIONARY
  5
11A
102
{ACAD_REACTORS
330
C
102
}
330
C
100
AcDbDictionary
281
     1
  3
Standard
350
11B
  0
DICTIONARY
  5
6580
102
{ACAD_REACTORS
330
C
102
}
330
C
100
AcDbDictionary
281
     1
  0
DICTIONARY
  5
94
102
{ACAD_REACTORS
330
C
102
}
330
C
100
AcDbDictionary
281
     1
  3
CTABLESTYLE
350
138
  3
DIMASSOC
350
96
  3
INDEXCTL
350
95
  3
PROJECTNAME
350
1B44
  0
DICTIONARY
  5
5B
102
{ACAD_REACTORS
330
C
102
}
330
C
100
AcDbDictionary
281
     1
  3
AcmBOM
350
1B5
  3
AcmStdDictionary
350
61
  3
AMDTSECTSYM_ARROWCOLOR
350
123
  0
DICTIONARY
  5
41
102
{ACAD_REACTORS
330
C
102
}
330
C
100
AcDbDictionary
281
     1
  3
AcMgSettings
350
398F
  0
DICTIONARY
  5
1B8
102
{ACAD_REACTORS
330
C
102
}
330
C
100
AcDbDictionary
281
     1
  0
XRECORD
  5
657F
102
{ACAD_REACTORS
330
C
102
}
330
C
100
AcDbXrecord
280
     1
  1
DWGPROPS COOKIE
  2

  3

  4

  6

  7

  8

  9

300
AmdtFileType=84
301
=
302
=
303
=
304
=
305
=
306
=
307
=
308
=
309
=
 40
0.2202816550925926
 41
2454392.703168762
 42
2456052.3705711
  1

 90
        1
  0
DICTIONARY
  5
5645
102
{ACAD_REACTORS
330
3F9
102
}
330
3F9
100
AcDbDictionary
281
     1
  0
DICTIONARY
  5
AD2
102
{ACAD_REACTORS
330
3F9
102
}
330
3F9
100
AcDbDictionary
281
     1
  0
DICTIONARY
  5
5644
102
{ACAD_REACTORS
330
3F9
102
}
330
3F9
100
AcDbDictionary
281
     1
1001
ACAD
1000
<All
  0
DICTIONARY
  5
3D28
102
{ACAD_REACTORS
330
8F
102
}
330
8F
100
AcDbDictionary
281
     1
  3
*A1
350
3D29
  0
DIMASSOC
  5
6321
102
{ACAD_REACTORS
330
6320
102
}
330
6320
100
AcDbDimAssoc
330
6313
 90
        3
 70
     0
 71
     0
  1
AcDbOsnapPointRef
 72
     6
331
62FF
 73
     0
 91
        0
 40
0.0462345693393004
 10
0.0
 20
0.0
 30
0.0
332
6208
 74
     0
 92
        0
 75
     0
  1
AcDbOsnapPointRef
 72
     6
331
62FF
 73
     0
 91
        0
 40
0.9426153012259561
 10
0.0
 20
0.0
 30
0.0
332
6208
 74
     0
 92
        0
 75
     0
  0
DIMASSOC
  5
636F
102
{ACAD_REACTORS
330
636E
102
}
330
636E
100
AcDbDimAssoc
330
6361
 90
        1
 70
     0
 71
     0
  1
AcDbOsnapPointRef
 72
     1
331
61B0
 73
     0
 91
        0
 40
0.0
 10
0.0
 20
0.0
 30
2.000000000000000E+50
 75
     0
  0
DIMASSOC
  5
6395
102
{ACAD_REACTORS
330
6394
102
}
330
6394
100
AcDbDimAssoc
330
6387
 90
        3
 70
     0
 71
     0
  1
AcDbOsnapPointRef
 72
    13
331
61D1
 73
     0
 91
        0
 40
0.0
 10
0.0
 20
0.0
 30
2.000000000000000E+50
 75
     0
  1
AcDbOsnapPointRef
 72
     1
331
62FF
 73
     0
 91
        0
 40
0.0
 10
0.0
 20
0.0
 30
2.000000000000000E+50
 75
     0
  0
DIMASSOC
  5
63BB
102
{ACAD_REACTORS
330
63BA
102
}
330
63BA
100
AcDbDimAssoc
330
63AD
 90
        2
 70
     0
 71
     0
  1
AcDbOsnapPointRef
 72
     6
331
6300
 73
     0
 91
        0
 40
0.9477850330616936
 10
0.0
 20
0.0
 30
0.0
332
6208
 74
     0
 92
        0
 75
     0
  0
DIMASSOC
  5
63E1
102
{ACAD_REACTORS
330
63E0
102
}
330
63E0
100
AcDbDimAssoc
330
63D3
 90
        3
 70
     0
 71
     0
  1
AcDbOsnapPointRef
 72
    13
331
61AF
 73
     0
 91
        0
 40
0.0
 10
0.0
 20
0.0
 30
2.000000000000000E+50
 75
     0
  1
AcDbOsnapPointRef
 72
     1
331
61B1
 73
     0
 91
        0
 40
0.0
 10
0.0
 20
0.0
 30
2.000000000000000E+50
 75
     0
  0
DIMASSOC
  5
6407
102
{ACAD_REACTORS
330
6406
102
}
330
6406
100
AcDbDimAssoc
330
63F9
 90
        3
 70
     0
 71
     0
  1
AcDbOsnapPointRef
 72
     1
331
622C
 73
     0
 91
        0
 40
0.0
 10
0.0
 20
0.0
 30
2.000000000000000E+50
 75
     0
  1
AcDbOsnapPointRef
 72
     1
331
62FC
 73
     0
 91
        0
 40
0.0
 10
0.0
 20
0.0
 30
2.000000000000000E+50
 75
     0
  0
DIMASSOC
  5
642D
102
{ACAD_REACTORS
330
642C
102
}
330
642C
100
AcDbDimAssoc
330
641F
 90
        3
 70
     0
 71
     0
  1
AcDbOsnapPointRef
 72
    13
331
626A
 73
     0
 91
        0
 40
0.0
 10
0.0
 20
0.0
 30
2.000000000000000E+50
 75
     0
  1
AcDbOsnapPointRef
 72
    13
331
622E
 73
     0
 91
        0
 40
0.0
 10
0.0
 20
0.0
 30
2.000000000000000E+50
 75
     0
  0
DIMASSOC
  5
6453
102
{ACAD_REACTORS
330
6452
102
}
330
6452
100
AcDbDimAssoc
330
6445
 90
        3
 70
     0
 71
     0
  1
AcDbOsnapPointRef
 72
     1
331
6213
 73
     0
 91
        0
 40
0.0
 10
0.0
 20
0.0
 30
2.000000000000000E+50
 75
     0
  1
AcDbOsnapPointRef
 72
    13
331
6220
 73
     0
 91
        0
 40
0.0
 10
0.0
 20
0.0
 30
2.000000000000000E+50
 75
     0
  0
DIMASSOC
  5
6479
102
{ACAD_REACTORS
330
6478
102
}
330
6478
100
AcDbDimAssoc
330
646B
 90
        3
 70
     0
 71
     0
  1
AcDbOsnapPointRef
 72
     1
331
6217
 73
     0
 91
        0
 40
0.0
 10
0.0
 20
0.0
 30
2.000000000000000E+50
 75
     0
  1
AcDbOsnapPointRef
 72
    13
331
6219
 73
     0
 91
        0
 40
0.0
 10
0.0
 20
0.0
 30
2.000000000000000E+50
 75
     0
  0
DIMASSOC
  5
6555
102
{ACAD_REACTORS
330
6554
102
}
330
6554
100
AcDbDimAssoc
330
6547
 90
        2
 70
     0
 71
     0
  1
AcDbOsnapPointRef
 72
     6
331
6218
 73
     0
 91
        0
 40
0.0
 10
0.0
 20
0.0
 30
0.0
 75
     0
  0
LAYOUT
  5
22
102
{ACAD_XDICTIONARY
360
6583
102
}
102
{ACAD_REACTORS
330
1A
102
}
330
1A
100
AcDbPlotSettings
  1

  2
\\RD\EPSON Stylus C63 Series單色
  4
A4
  6

 40
3.757083177566528
 41
3.757076978683471
 42
3.757080078125
 43
3.757080078125
 44
209.9733276367187
 45
296.9683227539062
 46
0.0
 47
0.0
 48
0.0
 49
0.0
140
0.0
141
0.0
142
1.0
143
0.3405120737814363
 70
 11952
 72
     1
 73
     0
 74
     0
  7
單色出圖.ctb
 75
     0
147
2.936753428137963
148
-2047.07469463503
149
-1261.649717473083
100
AcDbLayout
  1
Model
 70
     1
 71
     0
 10
0.0
 20
0.0
 11
12.0
 21
9.0
 12
0.0
 22
0.0
 32
0.0
 14
0.0
 24
0.0
 34
0.0
 15
0.0
 25
0.0
 35
0.0
146
0.0
 13
0.0
 23
0.0
 33
0.0
 16
1.0
 26
0.0
 36
0.0
 17
0.0
 27
1.0
 37
0.0
 76
     0
330
1F
1001
ACAD_PSEXT
1000
\\RD\EPSON Stylus C63 Series單色
1000
EPSON Stylus C63 Series
1000
\\RD
1000

1070
     0
  0
LAYOUT
  5
1E
102
{ACAD_XDICTIONARY
360
6581
102
}
102
{ACAD_REACTORS
330
1A
102
}
330
1A
100
AcDbPlotSettings
  1

  2

  4

  6

 40
0.0
 41
0.0
 42
0.0
 43
0.0
 44
0.0
 45
0.0
 46
0.0
 47
0.0
 48
0.0
 49
0.0
140
0.0
141
0.0
142
1.0
143
1.0
 70
   688
 72
     0
 73
     0
 74
     5
  7
單色出圖.ctb
 75
    16
147
1.0
148
0.0
149
0.0
100
AcDbLayout
  1
配置1
 70
     1
 71
     1
 10
0.0
 20
0.0
 11
420.0
 21
297.0
 12
0.0
 22
0.0
 32
0.0
 14
1.000000000000000E+20
 24
1.000000000000000E+20
 34
1.000000000000000E+20
 15
-1.000000000000000E+20
 25
-1.000000000000000E+20
 35
-1.000000000000000E+20
146
0.0
 13
0.0
 23
0.0
 33
0.0
 16
1.0
 26
0.0
 36
0.0
 17
0.0
 27
1.0
 37
0.0
 76
     0
330
1B
  0
LAYOUT
  5
26
102
{ACAD_XDICTIONARY
360
6585
102
}
102
{ACAD_REACTORS
330
1A
102
}
330
1A
100
AcDbPlotSettings
  1

  2

  4

  6

 40
0.0
 41
0.0
 42
0.0
 43
0.0
 44
0.0
 45
0.0
 46
0.0
 47
0.0
 48
0.0
 49
0.0
140
0.0
141
0.0
142
1.0
143
1.0
 70
   688
 72
     0
 73
     0
 74
     5
  7
單色出圖.ctb
 75
    16
147
1.0
148
0.0
149
0.0
100
AcDbLayout
  1
配置2
 70
     1
 71
     2
 10
0.0
 20
0.0
 11
12.0
 21
9.0
 12
0.0
 22
0.0
 32
0.0
 14
0.0
 24
0.0
 34
0.0
 15
0.0
 25
0.0
 35
0.0
146
0.0
 13
0.0
 23
0.0
 33
0.0
 16
1.0
 26
0.0
 36
0.0
 17
0.0
 27
1.0
 37
0.0
 76
     0
330
23
  0
MLINESTYLE
  5
18
102
{ACAD_REACTORS
330
17
102
}
330
17
100
AcDbMlineStyle
  2
STANDARD
 70
     0
  3

 62
   256
 51
90.0
 52
90.0
 71
     2
 49
0.5
 62
   256
  6
BYLAYER
 49
-0.5
 62
   256
  6
BYLAYER
  0
ACDBPLACEHOLDER
  5
F
102
{ACAD_REACTORS
330
E
102
}
330
E
  0
TABLESTYLE
  5
11B
102
{ACAD_REACTORS
330
11A
102
}
330
11A
100
AcDbTableStyle
  3
Standard
 70
     0
 71
     0
 40
1.5
 41
1.5
280
     0
281
     0
  7
STANDARD
140
4.5
170
     2
 62
     0
 63
     7
283
     0
274
    -2
284
     1
 64
     0
275
    -2
285
     1
 65
     0
276
    -2
286
     1
 66
     0
277
    -2
287
     1
 67
     0
278
    -2
288
     1
 68
     0
279
    -2
289
     1
 69
     0
  7
STANDARD
140
6.0
170
     5
 62
     0
 63
     7
283
     0
274
    -2
284
     1
 64
     0
275
    -2
285
     1
 65
     0
276
    -2
286
     1
 66
     0
277
    -2
287
     1
 67
     0
278
    -2
288
     1
 68
     0
279
    -2
289
     1
 69
     0
  7
STANDARD
140
4.5
170
     5
 62
     0
 63
     7
283
     0
274
    -2
284
     1
 64
     0
275
    -2
285
     1
 65
     0
276
    -2
286
     1
 66
     0
277
    -2
287
     1
 67
     0
278
    -2
288
     1
 68
     0
279
    -2
289
     1
 69
     0
  0
DICTIONARYVAR
  5
138
102
{ACAD_REACTORS
330
94
102
}
330
94
100
DictionaryVariables
280
     0
  1
STANDARD
  0
DICTIONARYVAR
  5
96
102
{ACAD_REACTORS
330
94
102
}
330
94
100
DictionaryVariables
280
     0
  1
2
  0
DICTIONARYVAR
  5
95
102
{ACAD_REACTORS
330
94
102
}
330
94
100
DictionaryVariables
280
     0
  1
1
  0
DICTIONARYVAR
  5
1B44
102
{ACAD_REACTORS
330
94
102
}
330
94
100
DictionaryVariables
280
     0
  1

  0
DICTIONARY
  5
1B5
102
{ACAD_REACTORS
330
5B
102
}
330
5B
100
AcDbDictionary
281
     1
  0
DICTIONARY
  5
61
102
{ACAD_REACTORS
330
5B
102
}
330
5B
100
AcDbDictionary
281
     1
  0
XRECORD
  5
123
102
{ACAD_REACTORS
330
5B
102
}
330
5B
100
AcDbXrecord
280
     1
 90
-1023410169
  0
DICTIONARY
  5
398F
102
{ACAD_REACTORS
330
41
102
}
330
41
100
AcDbDictionary
281
     1
  3
DWGSETTINGS
350
3990
  3
TRANSSETTINGS
350
3993
  0
LAYER_INDEX
  5
3D29
102
{ACAD_REACTORS
330
3D28
102
}
330
3D28
100
AcDbIndex
 40
2456052.3705711
100
AcDbLayerIndex
  8
0
360
4783
 90
       60
  8
AM_VIS
360
4784
 90
        0
  8
AM_7
360
4785
 90
        3
  8
Defpoints
360
4786
 90
        0
  8
LOGO
360
4787
 90
       77
  8
AM_4
360
4788
 90
        5
  8
AM_REFDIM
360
4789
 90
       10
  8
AM_HID
360
478A
 90
        0
  8
AM_5
360
478B
 90
        0
  0
DICTIONARY
  5
6583
330
22
100
AcDbDictionary
280
     1
281
     1
  3
ACAD_XREC_ROUNDTRIP
360
6584
  0
DICTIONARY
  5
6581
330
1E
100
AcDbDictionary
280
     1
281
     1
  3
ACAD_XREC_ROUNDTRIP
360
6582
  0
DICTIONARY
  5
6585
330
26
100
AcDbDictionary
280
     1
281
     1
  3
ACAD_XREC_ROUNDTRIP
360
6586
  0
IDBUFFER
  5
4783
330
0
100
AcDbIdBuffer
330
61AE
330
61AF
330
61B0
330
61B1
330
61B2
330
61B3
330
61B5
330
61C7
330
61CA
330
61CC
330
61D1
330
61D8
330
61DD
330
61E0
330
61E1
330
61EF
330
61F0
330
61F1
330
61F2
330
61F3
330
61F5
330
61F7
330
61FC
330
6207
330
6208
330
6209
330
620A
330
620B
330
6213
330
6214
330
6215
330
6216
330
6217
330
6218
330
6219
330
621A
330
621B
330
6220
330
622C
330
622D
330
622E
330
622F
330
6240
330
6241
330
6244
330
6247
330
6250
330
6255
330
6256
330
6257
330
6258
330
6259
330
625B
330
629B
330
62FC
330
62FD
330
62FE
330
1830
330
1831
330
1832
  0
IDBUFFER
  5
4784
330
0
100
AcDbIdBuffer
  0
IDBUFFER
  5
4785
330
0
100
AcDbIdBuffer
330
62FF
330
6300
330
6301
  0
IDBUFFER
  5
4786
330
0
100
AcDbIdBuffer
  0
IDBUFFER
  5
4787
330
0
100
AcDbIdBuffer
330
179B
330
179C
330
179D
330
179E
330
179F
330
17A0
330
17A1
330
17A2
330
17A3
330
17A4
330
17A5
330
17A6
330
17A7
330
17A8
330
17A9
330
17AA
330
17AB
330
17AC
330
17AD
330
17AE
330
17AF
330
17B0
330
17B1
330
17B2
330
17B6
330
17BA
330
17BB
330
17BF
330
17C0
330
17C1
330
17C2
330
17C3
330
17C4
330
17C5
330
17C6
330
17CA
330
17CE
330
17D2
330
17D3
330
17D4
330
17D8
330
17D9
330
17DA
330
17DB
330
17DC
330
17DD
330
17DE
330
17DF
330
17E0
330
17E1
330
17E2
330
17E3
330
17E4
330
17E5
330
17E6
330
17E7
330
17E8
330
17E9
330
17EA
330
17EB
330
17EC
330
17ED
330
17EE
330
17EF
330
17F0
330
1824
330
1825
330
1826
330
1827
330
1828
330
1829
330
182A
330
182B
330
182C
330
182D
330
182E
330
182F
  0
IDBUFFER
  5
4788
330
0
100
AcDbIdBuffer
330
626A
330
6296
330
6297
330
6298
330
6299
  0
IDBUFFER
  5
4789
330
0
100
AcDbIdBuffer
330
6547
330
6313
330
6361
330
6387
330
63AD
330
63D3
330
63F9
330
641F
330
6445
330
646B
  0
IDBUFFER
  5
478A
330
0
100
AcDbIdBuffer
  0
IDBUFFER
  5
478B
330
0
100
AcDbIdBuffer
  0
XRECORD
  5
6584
102
{ACAD_REACTORS
330
6583
102
}
330
6583
100
AcDbXrecord
280
     1
102
SHADEPLOT
 70
     0
102
SHADEPLOTRESLEVEL
 70
     2
102
SHADEPLOTCUSTOMDPI
 70
   300
  0
XRECORD
  5
6582
102
{ACAD_REACTORS
330
6581
102
}
330
6581
100
AcDbXrecord
280
     1
102
SHADEPLOT
 70
     0
102
SHADEPLOTRESLEVEL
 70
     2
102
SHADEPLOTCUSTOMDPI
 70
   300
  0
XRECORD
  5
6586
102
{ACAD_REACTORS
330
6585
102
}
330
6585
100
AcDbXrecord
280
     1
102
SHADEPLOT
 70
     0
102
SHADEPLOTRESLEVEL
 70
     2
102
SHADEPLOTCUSTOMDPI
 70
   300
  0
ENDSEC
  0
EOF
