  0
SECTION
  2
HEADER
  9
$ACADVER
  1
AC1015
  9
$ACADMAINTVER
 70
    20
  9
$DWGCODEPAGE
  3
ANSI_950
  9
$INSBASE
 10
0.0
 20
0.0
 30
0.0
  9
$EXTMIN
 10
1.000000000000000E+20
 20
1.000000000000000E+20
 30
1.000000000000000E+20
  9
$EXTMAX
 10
-1.000000000000000E+20
 20
-1.000000000000000E+20
 30
-1.000000000000000E+20
  9
$LIMMIN
 10
0.0
 20
0.0
  9
$LIMMAX
 10
420.0
 20
297.0
  9
$ORTHOMODE
 70
     0
  9
$REGENMODE
 70
     1
  9
$FILLMODE
 70
     1
  9
$QTEXTMODE
 70
     0
  9
$MIRRTEXT
 70
     1
  9
$LTSCALE
 40
1.0
  9
$ATTMODE
 70
     1
  9
$TEXTSIZE
 40
1.0
  9
$TRACEWID
 40
1.0
  9
$TEXTSTYLE
  7
STANDARD
  9
$CLAYER
  8
AM_REFDIM
  9
$CELTYPE
  6
BYLAYER
  9
$CECOLOR
 62
     6
  9
$CELTSCALE
 40
1.0
  9
$DISPSILH
 70
     0
  9
$DIMSCALE
 40
1.0
  9
$DIMASZ
 40
3.0
  9
$DIMEXO
 40
1.0
  9
$DIMDLI
 40
8.0
  9
$DIMRND
 40
0.0
  9
$DIMDLE
 40
0.0
  9
$DIMEXE
 40
1.0
  9
$DIMTP
 40
0.1
  9
$DIMTM
 40
0.1
  9
$DIMTXT
 40
3.5
  9
$DIMCEN
 40
0.0
  9
$DIMTSZ
 40
0.0
  9
$DIMTOL
 70
     0
  9
$DIMLIM
 70
     0
  9
$DIMTIH
 70
     0
  9
$DIMTOH
 70
     0
  9
$DIMSE1
 70
     0
  9
$DIMSE2
 70
     0
  9
$DIMTAD
 70
     1
  9
$DIMZIN
 70
     8
  9
$DIMBLK
  1

  9
$DIMASO
 70
     1
  9
$DIMSHO
 70
     1
  9
$DIMPOST
  1

  9
$DIMAPOST
  1
"
  9
$DIMALT
 70
     0
  9
$DIMALTD
 70
     2
  9
$DIMALTF
 40
0.0393701
  9
$DIMLFAC
 40
1.0
  9
$DIMTOFL
 70
     1
  9
$DIMTVP
 40
0.0
  9
$DIMTIX
 70
     0
  9
$DIMSOXD
 70
     0
  9
$DIMSAH
 70
     0
  9
$DIMBLK1
  1

  9
$DIMBLK2
  1

  9
$DIMSTYLE
  2
AM_ISO
  9
$DIMCLRD
 70
   256
  9
$DIMCLRE
 70
   256
  9
$DIMCLRT
 70
   256
  9
$DIMTFAC
 40
0.71
  9
$DIMGAP
 40
1.0
  9
$DIMJUST
 70
     0
  9
$DIMSD1
 70
     0
  9
$DIMSD2
 70
     0
  9
$DIMTOLJ
 70
     0
  9
$DIMTZIN
 70
     8
  9
$DIMALTZ
 70
     8
  9
$DIMALTTZ
 70
     0
  9
$DIMUPT
 70
     0
  9
$DIMDEC
 70
     2
  9
$DIMTDEC
 70
     8
  9
$DIMALTU
 70
     2
  9
$DIMALTTD
 70
     2
  9
$DIMTXSTY
  7
STANDARD
  9
$DIMAUNIT
 70
     0
  9
$DIMADEC
 70
     0
  9
$DIMALTRND
 40
0.0
  9
$DIMAZIN
 70
     2
  9
$DIMDSEP
 70
    46
  9
$DIMATFIT
 70
     3
  9
$DIMFRAC
 70
     0
  9
$DIMLDRBLK
  1

  9
$DIMLUNIT
 70
     2
  9
$DIMLWD
 70
    -1
  9
$DIMLWE
 70
    -1
  9
$DIMTMOVE
 70
     0
  9
$LUNITS
 70
     2
  9
$LUPREC
 70
     2
  9
$SKETCHINC
 40
1.0
  9
$FILLETRAD
 40
2.5
  9
$AUNITS
 70
     0
  9
$AUPREC
 70
     0
  9
$MENU
  1
.
  9
$ELEVATION
 40
0.0
  9
$PELEVATION
 40
0.0
  9
$THICKNESS
 40
0.0
  9
$LIMCHECK
 70
     0
  9
$CHAMFERA
 40
2.5
  9
$CHAMFERB
 40
2.5
  9
$CHAMFERC
 40
20.0
  9
$CHAMFERD
 40
0.0
  9
$SKPOLY
 70
     0
  9
$TDCREATE
 40
2454805.686441575
  9
$TDUCREATE
 40
2454805.353108241
  9
$TDUPDATE
 40
2456052.360569294
  9
$TDUUPDATE
 40
2456052.027235961
  9
$TDINDWG
 40
0.3646074769
  9
$TDUSRTIMER
 40
0.3646072917
  9
$USRTIMER
 70
     1
  9
$ANGBASE
 50
0.0
  9
$ANGDIR
 70
     0
  9
$PDMODE
 70
     0
  9
$PDSIZE
 40
0.0
  9
$PLINEWID
 40
0.0
  9
$SPLFRAME
 70
     0
  9
$SPLINETYPE
 70
     6
  9
$SPLINESEGS
 70
     8
  9
$HANDSEED
  5
6DA
  9
$SURFTAB1
 70
     6
  9
$SURFTAB2
 70
     6
  9
$SURFTYPE
 70
     6
  9
$SURFU
 70
     6
  9
$SURFV
 70
     6
  9
$UCSBASE
  2

  9
$UCSNAME
  2

  9
$UCSORG
 10
0.0
 20
0.0
 30
0.0
  9
$UCSXDIR
 10
1.0
 20
0.0
 30
0.0
  9
$UCSYDIR
 10
0.0
 20
1.0
 30
0.0
  9
$UCSORTHOREF
  2

  9
$UCSORTHOVIEW
 70
     0
  9
$UCSORGTOP
 10
0.0
 20
0.0
 30
0.0
  9
$UCSORGBOTTOM
 10
0.0
 20
0.0
 30
0.0
  9
$UCSORGLEFT
 10
0.0
 20
0.0
 30
0.0
  9
$UCSORGRIGHT
 10
0.0
 20
0.0
 30
0.0
  9
$UCSORGFRONT
 10
0.0
 20
0.0
 30
0.0
  9
$UCSORGBACK
 10
0.0
 20
0.0
 30
0.0
  9
$PUCSBASE
  2

  9
$PUCSNAME
  2

  9
$PUCSORG
 10
0.0
 20
0.0
 30
0.0
  9
$PUCSXDIR
 10
1.0
 20
0.0
 30
0.0
  9
$PUCSYDIR
 10
0.0
 20
1.0
 30
0.0
  9
$PUCSORTHOREF
  2

  9
$PUCSORTHOVIEW
 70
     0
  9
$PUCSORGTOP
 10
0.0
 20
0.0
 30
0.0
  9
$PUCSORGBOTTOM
 10
0.0
 20
0.0
 30
0.0
  9
$PUCSORGLEFT
 10
0.0
 20
0.0
 30
0.0
  9
$PUCSORGRIGHT
 10
0.0
 20
0.0
 30
0.0
  9
$PUCSORGFRONT
 10
0.0
 20
0.0
 30
0.0
  9
$PUCSORGBACK
 10
0.0
 20
0.0
 30
0.0
  9
$USERI1
 70
     0
  9
$USERI2
 70
     0
  9
$USERI3
 70
     0
  9
$USERI4
 70
     0
  9
$USERI5
 70
     0
  9
$USERR1
 40
0.0
  9
$USERR2
 40
0.0
  9
$USERR3
 40
0.0
  9
$USERR4
 40
0.0
  9
$USERR5
 40
0.0
  9
$WORLDVIEW
 70
     1
  9
$SHADEDGE
 70
     3
  9
$SHADEDIF
 70
    70
  9
$TILEMODE
 70
     0
  9
$MAXACTVP
 70
    48
  9
$PINSBASE
 10
0.0
 20
0.0
 30
0.0
  9
$PLIMCHECK
 70
     0
  9
$PEXTMIN
 10
-35.04841640881477
 20
-23.80739587199383
 30
-0.0025249511851939
  9
$PEXTMAX
 10
312.4542617304312
 20
228.9110381556552
 30
165.5939637624349
  9
$PLIMMIN
 10
-53.11675515259687
 20
-32.93080504266708
  9
$PLIMMAX
 10
330.5226004742134
 20
238.0344473263285
  9
$UNITMODE
 70
     0
  9
$VISRETAIN
 70
     1
  9
$PLINEGEN
 70
     0
  9
$PSLTSCALE
 70
     1
  9
$TREEDEPTH
 70
  3020
  9
$CMLSTYLE
  2
STANDARD
  9
$CMLJUST
 70
     0
  9
$CMLSCALE
 40
1.0
  9
$PROXYGRAPHICS
 70
     1
  9
$MEASUREMENT
 70
     1
  9
$CELWEIGHT
370
    -1
  9
$ENDCAPS
280
     0
  9
$JOINSTYLE
280
     0
  9
$LWDISPLAY
290
     0
  9
$INSUNITS
 70
     4
  9
$HYPERLINKBASE
  1

  9
$STYLESHEET
  1

  9
$XEDIT
290
     1
  9
$CEPSNTYPE
380
     0
  9
$PSTYLEMODE
290
     1
  9
$FINGERPRINTGUID
  2
{61DF5EDC-B944-43EB-89EB-56FEF99F9512}
  9
$VERSIONGUID
  2
{F67F1AC9-5DC6-4798-8F99-6A0D4CF72F8E}
  9
$EXTNAMES
290
     1
  9
$PSVPSCALE
 40
0.0
  9
$OLESTARTUP
290
     0
  0
ENDSEC
  0
SECTION
  2
CLASSES
  0
CLASS
  1
DICTIONARYVAR
  2
AcDbDictionaryVar
  3
ObjectDBX Classes
 90
        0
280
     0
281
     0
  0
CLASS
  1
ACMESTATEMGR
  2
AcMeStateMgr
  3
AcMeServices
 90
        0
280
     0
281
     0
  0
CLASS
  1
ACMESCOPE
  2
AcMeScope
  3
AcMeServices
 90
        0
280
     0
281
     0
  0
CLASS
  1
ACMECOMMANDHISTORY
  2
AcMeCommandHistory
  3
AcMeServices
 90
        0
280
     0
281
     0
  0
CLASS
  1
ACRFINSADJUSTERMGR
  2
AcRfInsAdjusterMgr
  3
AcMeServices
 90
        0
280
     0
281
     0
  0
CLASS
  1
ACMEDRAWINGMAN
  2
AcMeDrawingMan
  3
AcMeServices
 90
        0
280
     0
281
     0
  0
CLASS
  1
AMATTR
  2
AcMeAttribute
  3
AcMeServices
 90
    32768
280
     0
281
     0
  0
CLASS
  1
ACMEBOMCOLUMN
  2
AcMeBOMColumn
  3
AcMeServices
 90
    32768
280
     0
281
     0
  0
CLASS
  1
ACMEBOMCONF
  2
AcMeBOMConf
  3
AcMeServices
 90
    32768
280
     0
281
     0
  0
CLASS
  1
ACMEBOMTABLE
  2
AcMeBOMTable
  3
AcMeServices
 90
    32768
280
     0
281
     0
  0
CLASS
  1
ACMEBOMENTRY
  2
AcMeBOMEntry
  3
AcMeServices
 90
    32768
280
     0
281
     0
  0
CLASS
  1
ACMEVIEW
  2
AcMeView
  3
AcMeServices
 90
        0
280
     0
281
     0
  0
CLASS
  1
ACGREFMASTER
  2
AcGrefMaster
  3
AcAttribServices
 90
        0
280
     0
281
     0
  0
CLASS
  1
AMIMASTER
  2
AmiMaster
  3
AmiServices
 90
        0
280
     0
281
     0
  0
CLASS
  1
ACASGREFMASTER
  2
AcAsGrefMaster
  3
AutoSurfResolverServices
 90
        0
280
     0
281
     0
  0
CLASS
  1
ADAPPL
  2
AcAdAppl
  3
DesignerServices
 90
        0
280
     0
281
     0
  0
CLASS
  1
DEPMGR
  2
AcAdDepMgr
  3
DesignerServices
 90
        0
280
     0
281
     0
  0
CLASS
  1
PARAMMGR
  2
AcAdParamMgr
  3
DesignerServices
 90
        0
280
     0
281
     0
  0
CLASS
  1
PARAMSCOPE
  2
AcAdParamScope
  3
DesignerServices
 90
        0
280
     0
281
     0
  0
CLASS
  1
ACIMSYSVARMAN
  2
AcImSysVarManager
  3
AcMeServices
 90
        0
280
     0
281
     0
  0
CLASS
  1
ACIMINTSYSVAR
  2
AcImIntSysVar
  3
AcMeServices
 90
        0
280
     0
281
     0
  0
CLASS
  1
ACIMREALSYSVAR
  2
AcImRealSysVar
  3
AcMeServices
 90
        0
280
     0
281
     0
  0
CLASS
  1
ACIMSTRSYSVAR
  2
AcImStrSysVar
  3
AcMeServices
 90
        0
280
     0
281
     0
  0
CLASS
  1
NAMEDAPPL
  2
AcAdNamedAppl
  3
DesignerServices
 90
        0
280
     0
281
     0
  0
CLASS
  1
ADHNTMPLT
  2
AdHoleNoteTemplateMgr
  3
DesignerServices
 90
    32768
280
     0
281
     0
  0
CLASS
  1
AM_HNTEMPLATE_MGR_NAME
  2
AdHoleNoteTemplateMgrName
  3
DesignerServices
 90
    32768
280
     0
281
     0
  0
CLASS
  1
ACADGREFMODULE
  2
AcAdGrefModule
  3
AdGrefServices
 90
        0
280
     0
281
     0
  0
CLASS
  1
AM_DRAWING_MGR
  2
AcDmDwgMgr
  3
AcMechDwgViewMgmt
 90
        0
280
     0
281
     0
  0
CLASS
  1
AM_DWG_DOCUMENT
  2
AcDmDwgDocument
  3
AcMechDwgViewMgmt
 90
        0
280
     0
281
     0
  0
CLASS
  1
AM_DWG_SHEET
  2
AcDmSheet
  3
AcMechDwgViewMgmt
 90
        0
280
     0
281
     0
  0
CLASS
  1
AM_VIEWDIMPARMAP
  2
AcDmViewDimParMap
  3
AcMechDwgViewMgmt
 90
        0
280
     0
281
     0
  0
CLASS
  1
AM_DWGMGR_NAME
  2
AcDmDwgMgrName
  3
AcMechDwgViewMgmt
 90
        0
280
     0
281
     0
  0
CLASS
  1
ACAMPROJECT
  2
AcAmProject
  3
DesignerAssemblies
 90
        0
280
     0
281
     0
  0
CLASS
  1
ACAMGRCOMPSET
  2
AcAmGrCompSet
  3
DesignerAssemblies
 90
    32768
280
     1
281
     0
  0
CLASS
  1
ACAMGRCOMPDEFSET
  2
AcAmGrCompDefSet
  3
DesignerAssemblies
 90
        0
280
     0
281
     0
  0
CLASS
  1
ACAMGRCOMPDEF
  2
AcAmGrCompDef
  3
DesignerAssemblies
 90
        0
280
     0
281
     0
  0
CLASS
  1
ACCMCONTEXT
  2
AcCmContext
  3
DesignerAssemblies
 90
        0
280
     0
281
     0
  0
CLASS
  1
ACAMCOMPDEF
  2
AcAmCompDef
  3
DesignerAssemblies
 90
        0
280
     0
281
     0
  0
CLASS
  1
ACAMCOMPDEFMGR
  2
AcAmCompDefMgr
  3
DesignerAssemblies
 90
        0
280
     0
281
     0
  0
CLASS
  1
AMCONTEXTMGR
  2
AcAmContextMgr
  3
DesignerAssemblies
 90
        0
280
     0
281
     0
  0
CLASS
  1
ACAMCONTEXTMODELER
  2
AcAmContextModeler
  3
DesignerAssemblies
 90
        0
280
     0
281
     0
  0
CLASS
  1
ACDMVIEWGEOM
  2
AcDmViewGeometry
  3
AcMechDwgViewMgmt
 90
    32768
280
     0
281
     1
  0
CLASS
  1
CBROWSERAPPOBJECT
  2
CBrowserAppObject
  3
McadcomServices
 90
        0
280
     0
281
     0
  0
CLASS
  1
IM_STATIC_MAN
  2
AcImStaticVarManager
  3
AcMeServices
 90
        0
280
     0
281
     0
  0
CLASS
  1
ASAPP
  2
AcAsAppObject
  3
AutoSurfServices
 90
        0
280
     0
281
     0
  0
CLASS
  1
ACIMDBLSTATICVAR
  2
AcImDblStaticVar
  3
AcMeServices
 90
        0
280
     0
281
     0
  0
CLASS
  1
ACIMSTRSTATICVAR
  2
AcImStrStaticVar
  3
AcMeServices
 90
        0
280
     0
281
     0
  0
CLASS
  1
ACIMINTSTATICVAR
  2
AcImIntStaticVar
  3
AcMeServices
 90
        0
280
     0
281
     0
  0
CLASS
  1
CATALOGSTATE
  2
AcAmCatalogState
  3
DesignerAssemblies
 90
        0
280
     0
281
     0
  0
CLASS
  1
DM_PLACEHOLDER
  2
AcDmSelsetPlaceholder
  3
AcMechDwgViewMgmt
 90
        0
280
     0
281
     0
  0
CLASS
  1
LAYER_INDEX
  2
AcDbLayerIndex
  3
ObjectDBX Classes
 90
        0
280
     0
281
     0
  0
CLASS
  1
IDBUFFER
  2
AcDbIdBuffer
  3
ObjectDBX Classes
 90
        0
280
     0
281
     0
  0
CLASS
  1
ACMSTANDARDJIS
  2
AcmStandardJIS
  3
"Amdt_StdImp|Product Description: AutoCAD Mechanical 2004 DX|Company: Autodesk"
 90
    32768
280
     0
281
     0
  0
CLASS
  1
ACMSTANDARDANSI
  2
AcmStandardANSI
  3
"Amdt_StdImp|Product Description: AutoCAD Mechanical 2004 DX|Company: Autodesk"
 90
    32768
280
     0
281
     0
  0
CLASS
  1
ACMSTANDARDBSI
  2
AcmStandardBSI
  3
"Amdt_StdImp|Product Description: AutoCAD Mechanical 2004 DX|Company: Autodesk"
 90
    32768
280
     0
281
     0
  0
CLASS
  1
ACMSTANDARDDIN
  2
AcmStandardDIN
  3
"Amdt_StdImp|Product Description: AutoCAD Mechanical 2004 DX|Company: Autodesk"
 90
    32768
280
     0
281
     0
  0
CLASS
  1
ACMSTANDARDISO
  2
AcmStandardISO
  3
"Amdt_StdImp|Product Description: AutoCAD Mechanical 2004 DX|Company: Autodesk"
 90
        0
280
     0
281
     0
  0
CLASS
  1
ACDBDICTIONARYWDFLT
  2
AcDbDictionaryWithDefault
  3
ObjectDBX Classes
 90
        0
280
     0
281
     0
  0
CLASS
  1
ACDBPLACEHOLDER
  2
AcDbPlaceHolder
  3
ObjectDBX Classes
 90
        0
280
     0
281
     0
  0
CLASS
  1
LAYOUT
  2
AcDbLayout
  3
ObjectDBX Classes
 90
        0
280
     0
281
     0
  0
CLASS
  1
ACME_DOCUMENT
  2
AcMeDbDoc
  3
AcMeServices
 90
        0
280
     0
281
     0
  0
CLASS
  1
AMGSETTINGSOBJ
  2
AmgSettingsObj
  3
"AcadM|Product Description: AutoCAD Mechanical 2000|Company: Autodesk"
 90
        0
280
     0
281
     0
  0
CLASS
  1
AMGOBJPROPCFG
  2
AmgObjPropCfg
  3
"AmgLay|Product Description: AutoCAD Mechanical 2000|Company: Autodesk"
 90
        1
280
     0
281
     0
  0
CLASS
  1
ACDBENTITYCACHE
  2
AcMeEntityCache
  3
AcMeServices
 90
        0
280
     0
281
     0
  0
CLASS
  1
GSMANAGER
  2
AcMeGSManager
  3
AcMeServices
 90
        0
280
     0
281
     0
  0
CLASS
  1
AMDTINTERNALREACTOR
  2
AmdtInternalReactor
  3
AcMeServices
 90
        0
280
     0
281
     0
  0
CLASS
  1
ACME_DATABASE
  2
AcMeDbDatabase
  3
AcMeServices
 90
        0
280
     0
281
     0
  0
CLASS
  1
ACGREFACADMASTER
  2
AcGrefacadMaster
  3
AcGrefServices
 90
        0
280
     0
281
     0
  0
CLASS
  1
AMDTMENUSTATEMGR
  2
AmdtMenuStateMgr
  3
McadcomServices
 90
        0
280
     0
281
     0
  0
CLASS
  1
AMDTMCOMMENUSTATE
  2
AmdtMcomMenuState
  3
McadcomServices
 90
        0
280
     0
281
     0
  0
CLASS
  1
MAPIADMODULE
  2
MApiAdModule
  3
MApiAdServices
 90
        0
280
     0
281
     0
  0
CLASS
  1
AMDTDMMENUSTATE
  2
AmdtDmMenuState
  3
AcMechDwgViewMgmt
 90
        0
280
     0
281
     0
  0
CLASS
  1
AMDTADMENUSTATE
  2
AmdtAdMenuState
  3
DesignerServices
 90
        0
280
     0
281
     0
  0
CLASS
  1
AMDTAMMENUSTATE
  2
AmdtAmMenuState
  3
DesignerAssemblies
 90
        0
280
     0
281
     0
  0
CLASS
  1
ACMDATADICTIONARY
  2
AcmDataDictionary
  3
"AcmSymBB|Product Description: AutoCAD Mechanical 2004 DX|Company: Autodesk"
 90
        0
280
     0
281
     0
  0
CLASS
  1
ACMDATAENTRYBLOCK
  2
AcmDataEntryBlock
  3
"AcmSymBB|Product Description: AutoCAD Mechanical 2004 DX|Company: Autodesk"
 90
        0
280
     0
281
     0
  0
CLASS
  1
ACMSURFSTANDARDJIS
  2
AcmSurfTextStdJIS
  3
"Amdt_StdImp|Product Description: AutoCAD Mechanical 2004 DX|Company: Autodesk"
 90
    32768
280
     0
281
     0
  0
CLASS
  1
ACMFCFSTANDARDJIS
  2
AcmFCFStdJIS
  3
"Amdt_StdImp|Product Description: AutoCAD Mechanical 2004 DX|Company: Autodesk"
 90
    32768
280
     0
281
     0
  0
CLASS
  1
ACMWELDSTANDARDJIS
  2
AcmWeldingStdJIS
  3
"Amdt_StdImp|Product Description: AutoCAD Mechanical 2004 DX|Company: Autodesk"
 90
    32768
280
     0
281
     0
  0
CLASS
  1
ACMIDSTANDARDJIS
  2
AcmIdStdJIS
  3
"Amdt_StdImp|Product Description: AutoCAD Mechanical 2004 DX|Company: Autodesk"
 90
    32768
280
     0
281
     0
  0
CLASS
  1
ACMDATUMSTANDARDJIS
  2
AcmDatumStdJIS
  3
"Amdt_StdImp|Product Description: AutoCAD Mechanical 2004 DX|Company: Autodesk"
 90
    32768
280
     0
281
     0
  0
CLASS
  1
ACMBOMSTANDARDJIS
  2
AcmBOMStdJIS
  3
"Amdt_StdImp|Product Description: AutoCAD Mechanical 2004 DX|Company: Autodesk"
 90
    32768
280
     0
281
     0
  0
CLASS
  1
ACMSURFSTANDARDANSI
  2
AcmSurfTextStdANSI
  3
"Amdt_StdImp|Product Description: AutoCAD Mechanical 2004 DX|Company: Autodesk"
 90
    32768
280
     0
281
     0
  0
CLASS
  1
ACMFCFSTANDARDANSI
  2
AcmFCFStdANSI
  3
"Amdt_StdImp|Product Description: AutoCAD Mechanical 2004 DX|Company: Autodesk"
 90
    32768
280
     0
281
     0
  0
CLASS
  1
ACMWELDSTANDARDANSI
  2
AcmWeldingStdANSI
  3
"Amdt_StdImp|Product Description: AutoCAD Mechanical 2004 DX|Company: Autodesk"
 90
    32768
280
     0
281
     0
  0
CLASS
  1
ACMIDSTANDARDANSI
  2
AcmIdStdANSI
  3
"Amdt_StdImp|Product Description: AutoCAD Mechanical 2004 DX|Company: Autodesk"
 90
    32768
280
     0
281
     0
  0
CLASS
  1
ACMDATUMSTANDARDANSI
  2
AcmDatumStdANSI
  3
"Amdt_StdImp|Product Description: AutoCAD Mechanical 2004 DX|Company: Autodesk"
 90
    32768
280
     0
281
     0
  0
CLASS
  1
ACMBOMSTANDARDANSI
  2
AcmBOMStdANSI
  3
"Amdt_StdImp|Product Description: AutoCAD Mechanical 2004 DX|Company: Autodesk"
 90
    32768
280
     0
281
     0
  0
CLASS
  1
ACMSURFSTANDARDBSI
  2
AcmSurfTextStdBSI
  3
"Amdt_StdImp|Product Description: AutoCAD Mechanical 2004 DX|Company: Autodesk"
 90
    32768
280
     0
281
     0
  0
CLASS
  1
ACMFCFSTANDARDBSI
  2
AcmFCFStdBSI
  3
"Amdt_StdImp|Product Description: AutoCAD Mechanical 2004 DX|Company: Autodesk"
 90
    32768
280
     0
281
     0
  0
CLASS
  1
ACMWELDSTANDARDBSI
  2
AcmWeldingStdBSI
  3
"Amdt_StdImp|Product Description: AutoCAD Mechanical 2004 DX|Company: Autodesk"
 90
    32768
280
     0
281
     0
  0
CLASS
  1
ACMIDSTANDARDBSI
  2
AcmIdStdBSI
  3
"Amdt_StdImp|Product Description: AutoCAD Mechanical 2004 DX|Company: Autodesk"
 90
    32768
280
     0
281
     0
  0
CLASS
  1
ACMDATUMSTANDARDBSI
  2
AcmDatumStdBSI
  3
"Amdt_StdImp|Product Description: AutoCAD Mechanical 2004 DX|Company: Autodesk"
 90
    32768
280
     0
281
     0
  0
CLASS
  1
ACMBOMSTANDARDBSI
  2
AcmBOMStdBSI
  3
"Amdt_StdImp|Product Description: AutoCAD Mechanical 2004 DX|Company: Autodesk"
 90
    32768
280
     0
281
     0
  0
CLASS
  1
AMDTEDGESTANDARDDIN
  2
AmdtEdgeStdDIN
  3
"Amdt_StdImp|Product Description: AutoCAD Mechanical 2004 DX|Company: Autodesk"
 90
    32768
280
     0
281
     0
  0
CLASS
  1
ACMSURFSTANDARDDIN
  2
AcmSurfTextStdDIN
  3
"Amdt_StdImp|Product Description: AutoCAD Mechanical 2004 DX|Company: Autodesk"
 90
    32768
280
     0
281
     0
  0
CLASS
  1
ACMFCFSTANDARDDIN
  2
AcmFCFStdDIN
  3
"Amdt_StdImp|Product Description: AutoCAD Mechanical 2004 DX|Company: Autodesk"
 90
    32768
280
     0
281
     0
  0
CLASS
  1
ACMWELDSTANDARDDIN
  2
AcmWeldingStdDIN
  3
"Amdt_StdImp|Product Description: AutoCAD Mechanical 2004 DX|Company: Autodesk"
 90
    32768
280
     0
281
     0
  0
CLASS
  1
ACMIDSTANDARDDIN
  2
AcmIdStdDIN
  3
"Amdt_StdImp|Product Description: AutoCAD Mechanical 2004 DX|Company: Autodesk"
 90
    32768
280
     0
281
     0
  0
CLASS
  1
ACMDATUMSTANDARDDIN
  2
AcmDatumStdDIN
  3
"Amdt_StdImp|Product Description: AutoCAD Mechanical 2004 DX|Company: Autodesk"
 90
    32768
280
     0
281
     0
  0
CLASS
  1
ACMBOMSTANDARDDIN
  2
AcmBOMStdDIN
  3
"Amdt_StdImp|Product Description: AutoCAD Mechanical 2004 DX|Company: Autodesk"
 90
    32768
280
     0
281
     0
  0
CLASS
  1
ACMSURFSTANDARDISO
  2
AcmSurfTextStdISO
  3
"Amdt_StdImp|Product Description: AutoCAD Mechanical 2004 DX|Company: Autodesk"
 90
        0
280
     0
281
     0
  0
CLASS
  1
ACMFCFSTANDARDISO
  2
AcmFCFStdISO
  3
"Amdt_StdImp|Product Description: AutoCAD Mechanical 2004 DX|Company: Autodesk"
 90
        0
280
     0
281
     0
  0
CLASS
  1
ACMWELDSTANDARDISO
  2
AcmWeldingStdISO
  3
"Amdt_StdImp|Product Description: AutoCAD Mechanical 2004 DX|Company: Autodesk"
 90
        0
280
     0
281
     0
  0
CLASS
  1
ACMIDSTANDARDISO
  2
AcmIdStdISO
  3
"Amdt_StdImp|Product Description: AutoCAD Mechanical 2004 DX|Company: Autodesk"
 90
        0
280
     0
281
     0
  0
CLASS
  1
ACMDATUMSTANDARDISO
  2
AcmDatumStdISO
  3
"Amdt_StdImp|Product Description: AutoCAD Mechanical 2004 DX|Company: Autodesk"
 90
        0
280
     0
281
     0
  0
CLASS
  1
ACMBOMSTANDARDISO
  2
AcmBOMStdISO
  3
"Amdt_StdImp|Product Description: AutoCAD Mechanical 2004 DX|Company: Autodesk"
 90
        0
280
     0
281
     0
  0
CLASS
  1
AMDTBROWSERDBTAB
  2
AmdtBrowserDbTab
  3
McadcomServices
 90
        0
280
     0
281
     0
  0
CLASS
  1
ACAMGFILTERDAT
  2
AcAmgFilterDat
  3
"AcadM|Product Description: AutoCAD Mechanical 2000|Company: Autodesk"
 90
    32768
280
     0
281
     0
  0
CLASS
  1
MAPIAMMOUDLE
  2
MApiAmModule
  3
MApiAmServices
 90
        0
280
     0
281
     0
  0
CLASS
  1
AMDTMAPISURFMOUDULE
  2
AmdtMApiSurfModule
  3
MApiSurfServices
 90
        0
280
     0
281
     0
  0
CLASS
  1
ACAMGLAYSTD
  2
AcAmgLayStd
  3
"AcAmgLayStd|Product Description: AutoCAD Mechanical 2000|Company: Autodesk"
 90
        0
280
     0
281
     0
  0
CLASS
  1
ACAMGDIMSTD
  2
AcAmgDimStd
  3
"AcAmgDimStd|Product Description: AutoCAD Mechanical 2000|Company: Autodesk"
 90
        0
280
     0
281
     0
  0
CLASS
  1
ACAMGTITLESTD
  2
AcAmgTitleStd
  3
"TITLEAPP"
 90
        0
280
     0
281
     0
  0
CLASS
  1
ACMDETAILSTANDARDJIS
  2
AmdtDetailSymStdJIS
  3
"Amdt_StdImp|Product Description: AutoCAD Mechanical 2004 DX|Company: Autodesk"
 90
    32768
280
     0
281
     0
  0
CLASS
  1
ACMSECTIONSTANDARDJIS
  2
AmdtSectionSymStdJIS
  3
"Amdt_StdImp|Product Description: AutoCAD Mechanical 2004 DX|Company: Autodesk"
 90
    32768
280
     0
281
     0
  0
CLASS
  1
ACMCENTERLINESTANDARDJIS
  2
AmdtCenterLineStdJIS
  3
"Amdt_StdImp|Product Description: AutoCAD Mechanical 2004 DX|Company: Autodesk"
 90
    32768
280
     0
281
     0
  0
CLASS
  1
ACMTHREADLINESTANDARDJIS
  2
AmdtThreadLineStdJIS
  3
"Amdt_StdImp|Product Description: AutoCAD Mechanical 2004 DX|Company: Autodesk"
 90
    32768
280
     0
281
     0
  0
CLASS
  1
ACMDETAILSTANDARDANSI
  2
AmdtDetailSymStdANSI
  3
"Amdt_StdImp|Product Description: AutoCAD Mechanical 2004 DX|Company: Autodesk"
 90
    32768
280
     0
281
     0
  0
CLASS
  1
ACMSECTIONSTANDARDANSI
  2
AmdtSectionSymStdANSI
  3
"Amdt_StdImp|Product Description: AutoCAD Mechanical 2004 DX|Company: Autodesk"
 90
    32768
280
     0
281
     0
  0
CLASS
  1
ACMCENTERLINESTANDARDANSI
  2
AmdtCenterLineStdANSI
  3
"Amdt_StdImp|Product Description: AutoCAD Mechanical 2004 DX|Company: Autodesk"
 90
    32768
280
     0
281
     0
  0
CLASS
  1
ACMTHREADLINESTANDARDANSI
  2
AmdtThreadLineStdANSI
  3
"Amdt_StdImp|Product Description: AutoCAD Mechanical 2004 DX|Company: Autodesk"
 90
    32768
280
     0
281
     0
  0
CLASS
  1
ACMDETAILSTANDARDBSI
  2
AmdtDetailSymStdBSI
  3
"Amdt_StdImp|Product Description: AutoCAD Mechanical 2004 DX|Company: Autodesk"
 90
    32768
280
     0
281
     0
  0
CLASS
  1
ACMSECTIONSTANDARDBSI
  2
AmdtSectionSymStdBSI
  3
"Amdt_StdImp|Product Description: AutoCAD Mechanical 2004 DX|Company: Autodesk"
 90
    32768
280
     0
281
     0
  0
CLASS
  1
ACMCENTERLINESTANDARDBSI
  2
AmdtCenterLineStdBSI
  3
"Amdt_StdImp|Product Description: AutoCAD Mechanical 2004 DX|Company: Autodesk"
 90
    32768
280
     0
281
     0
  0
CLASS
  1
ACMTHREADLINESTANDARDBSI
  2
AmdtThreadLineStdBSI
  3
"Amdt_StdImp|Product Description: AutoCAD Mechanical 2004 DX|Company: Autodesk"
 90
    32768
280
     0
281
     0
  0
CLASS
  1
ACMDETAILSTANDARDDIN
  2
AmdtDetailSymStdDIN
  3
"Amdt_StdImp|Product Description: AutoCAD Mechanical 2004 DX|Company: Autodesk"
 90
    32768
280
     0
281
     0
  0
CLASS
  1
ACMSECTIONSTANDARDDIN
  2
AmdtSectionSymStdDIN
  3
"Amdt_StdImp|Product Description: AutoCAD Mechanical 2004 DX|Company: Autodesk"
 90
    32768
280
     0
281
     0
  0
CLASS
  1
ACMCENTERLINESTANDARDDIN
  2
AmdtCenterLineStdDIN
  3
"Amdt_StdImp|Product Description: AutoCAD Mechanical 2004 DX|Company: Autodesk"
 90
    32768
280
     0
281
     0
  0
CLASS
  1
ACMTHREADLINESTANDARDDIN
  2
AmdtThreadLineStdDIN
  3
"Amdt_StdImp|Product Description: AutoCAD Mechanical 2004 DX|Company: Autodesk"
 90
    32768
280
     0
281
     0
  0
CLASS
  1
AMDTEDGESTANDARDISO
  2
AmdtEdgeStdISO
  3
"Amdt_StdImp|Product Description: AutoCAD Mechanical 2004 DX|Company: Autodesk"
 90
    32768
280
     0
281
     0
  0
CLASS
  1
ACMDETAILSTANDARDISO
  2
AmdtDetailSymStdISO
  3
"Amdt_StdImp|Product Description: AutoCAD Mechanical 2004 DX|Company: Autodesk"
 90
        0
280
     0
281
     0
  0
CLASS
  1
ACMSECTIONSTANDARDISO
  2
AmdtSectionSymStdISO
  3
"Amdt_StdImp|Product Description: AutoCAD Mechanical 2004 DX|Company: Autodesk"
 90
        0
280
     0
281
     0
  0
CLASS
  1
ACMCENTERLINESTANDARDISO
  2
AmdtCenterLineStdISO
  3
"Amdt_StdImp|Product Description: AutoCAD Mechanical 2004 DX|Company: Autodesk"
 90
        0
280
     0
281
     0
  0
CLASS
  1
ACMTHREADLINESTANDARDISO
  2
AmdtThreadLineStdISO
  3
"Amdt_StdImp|Product Description: AutoCAD Mechanical 2004 DX|Company: Autodesk"
 90
        0
280
     0
281
     0
  0
CLASS
  1
ACMNOTESTANDARDISO
  2
AmdtNoteStdISO
  3
"Amdt_StdImp|Product Description: AutoCAD Mechanical 2004 DX|Company: Autodesk"
 90
        0
280
     0
281
     0
  0
CLASS
  1
ACAMGHOLECHARTSTDISO
  2
AcAmgHoleChartStdISO
  3
ACMSYMBB_MODULE_NAME
 90
        0
280
     0
281
     0
  0
CLASS
  1
ACMNOTESTANDARDANSI
  2
AmdtNoteStdANSI
  3
"Amdt_StdImp|Product Description: AutoCAD Mechanical 2004 DX|Company: Autodesk"
 90
    32768
280
     0
281
     0
  0
CLASS
  1
AMDTNOTETEMPLATEDB
  2
AmdtNoteTemplateDB
  3
AMDT_STDIMP_MODULE_NAME
 90
        0
280
     0
281
     0
  0
CLASS
  1
ACAMGHOLECHARTSTDANSI
  2
AcAmgHoleChartStdANSI
  3
ACMSYMBB_MODULE_NAME
 90
    32768
280
     0
281
     0
  0
CLASS
  1
TABLESTYLE
  2
AcDbTableStyle
  3
ObjectDBX Classes
 90
     2047
280
     0
281
     0
  0
CLASS
  1
ACMBOM
  2
AcmBom
  3
"AcmSymBB|Product Description: AutoCAD Mechanical 2004 DX|Company: Autodesk"
 90
    32768
280
     0
281
     0
  0
CLASS
  1
AMDTFORMULAUPDATEDISPATCHER
  2
AmdtFormulaUpdateDispatcher
  3
AcMeServices
 90
    32768
280
     0
281
     0
  0
CLASS
  1
ACMPARTLIST
  2
AcmPartList
  3
"AcmSymBB|Product Description: AutoCAD Mechanical 2004 DX|Company: Autodesk"
 90
    33791
280
     0
281
     1
  0
CLASS
  1
VAACXREFPANELOBJECT
  2
VaAcXREFPanelObject
  3
VAAC_ADDIN
 90
    32768
280
     1
281
     0
  0
CLASS
  1
VAACIMAGEINVENTORY
  2
VaAcImageInventory
  3
VAAC_ADDIN
 90
    32768
280
     1
281
     0
  0
CLASS
  1
ACAMCONTEXTPARTMODELER
  2
AcAmContextPartModeler
  3
DesignerAssemblies
 90
    32768
280
     0
281
     0
  0
CLASS
  1
ADPART
  2
AcAdPart
  3
DesignerServices
 90
    32768
280
     0
281
     1
  0
CLASS
  1
ADBASE
  2
AcAdBase
  3
DesignerServices
 90
    32768
280
     0
281
     0
  0
CLASS
  1
BODYID
  2
AcAdBodyId
  3
DesignerServices
 90
    32768
280
     0
281
     0
  0
CLASS
  1
WORKPLANEDISPLAYMGR
  2
AcAdDisplayMgr
  3
DesignerServices
 90
    32768
280
     0
281
     0
  0
CLASS
  1
ACCMBODY
  2
AcCmBody
  3
DesignerAssemblies
 90
    32768
280
     0
281
     0
  0
CLASS
  1
ACAMCOMPENT
  2
AcAmCompEnt
  3
DesignerAssemblies
 90
    32768
280
     0
281
     1
  0
CLASS
  1
ACAMCOMPFEEDBACK
  2
AcAmCompFeedback
  3
DesignerAssemblies
 90
    32768
280
     0
281
     0
  0
CLASS
  1
ACAMGROUNDEDBASECOMP
  2
AcAmGroundedBaseComp
  3
DesignerAssemblies
 90
    32768
280
     0
281
     0
  0
CLASS
  1
ACAMCOMPENTCLONE
  2
AcAmCompEntClone
  3
DesignerAssemblies
 90
    32768
280
     0
281
     1
  0
CLASS
  1
ACAMCLONEREACTOR
  2
AcAmGrCompCloneReactor
  3
DesignerAssemblies
 90
    32768
280
     0
281
     0
  0
CLASS
  1
ADDATUMPLANEABS
  2
AcAdDatumPlaneAbs
  3
DesignerServices
 90
    32768
280
     0
281
     0
  0
CLASS
  1
ADDATUMAXISABS
  2
AcAdDatumAxisAbs
  3
DesignerServices
 90
    32768
280
     0
281
     0
  0
CLASS
  1
ADDATUMORIENTEDPLANE
  2
AcAdDatumOrientedPlane
  3
DesignerServices
 90
    32768
280
     0
281
     0
  0
CLASS
  1
ACAD_CIRCLE
  2
AcAdCircle
  3
DesignerServices
 90
    32768
280
     0
281
     1
  0
CLASS
  1
ACADCIRCLEACAD
  2
AcAdVirtualCircleAcad
  3
DesignerServices
 90
    32768
280
     0
281
     0
  0
CLASS
  1
ACADREFLINEACAD
  2
AcAdVirtualReferenceLine
  3
DesignerServices
 90
    32768
280
     0
281
     0
  0
CLASS
  1
ACADCONSLINE
  2
AcAdConstrainedLine
  3
DesignerServices
 90
    32768
280
     0
281
     0
  0
CLASS
  1
ACADCONSGROUP
  2
AcAdConstraintGroup
  3
DesignerServices
 90
    32768
280
     0
281
     0
  0
CLASS
  1
ACADCONSCIRCLE
  2
AcAdConstrainedCircle
  3
DesignerServices
 90
    32768
280
     0
281
     0
  0
CLASS
  1
ACADCONSPOINT
  2
AcAdConstrainedPoint
  3
DesignerServices
 90
    32768
280
     0
281
     0
  0
CLASS
  1
ACADIMPPTACAD
  2
AcAdVirtualImplicitPoint
  3
DesignerServices
 90
    32768
280
     0
281
     0
  0
CLASS
  1
ADCTRPTCNS
  2
AcAdCenterPointConstr
  3
DesignerServices
 90
    32768
280
     0
281
     0
  0
CLASS
  1
ADCLPROF2D
  2
AcAdClosedProfile2d
  3
DesignerServices
 90
    32768
280
     0
281
     0
  0
CLASS
  1
ACAD_FIXCONSTRAINT
  2
AcAdFixedConstraint
  3
DesignerServices
 90
    32768
280
     0
281
     0
  0
CLASS
  1
ACMELINEARARROW
  2
AcImLinearArrowDisplay
  3
AcMeServices
 90
    32768
280
     0
281
     1
  0
CLASS
  1
PARAM
  2
AcAdParam
  3
DesignerServices
 90
    32768
280
     0
281
     0
  0
CLASS
  1
ACADVOLFEATWITHTRIM
  2
AcAdVolFeatWithTrim
  3
DesignerServices
 90
    32768
280
     0
281
     0
  0
CLASS
  1
DEPEDGEFEATUREORDERING
  2
AcAdDepEdgeFeatureOrdering
  3
DesignerServices
 90
    32768
280
     0
281
     0
  0
CLASS
  1
ADPLANEID
  2
AcAdPlaneId
  3
DesignerServices
 90
    32768
280
     0
281
     0
  0
CLASS
  1
ADDATUMPLANEFACE
  2
AcAdDatumPlaneFace
  3
DesignerServices
 90
    32768
280
     0
281
     0
  0
CLASS
  1
ACMEPLINE
  2
AcImPlineDisplay
  3
AcMeServices
 90
    32768
280
     0
281
     1
  0
CLASS
  1
ACMETEXT
  2
AcImTextDisplay
  3
AcMeServices
 90
    32768
280
     0
281
     1
  0
CLASS
  1
DATUMAXISDISPLAY
  2
AcAdDatumAxisDisplay
  3
DesignerServices
 90
    32768
280
     0
281
     1
  0
CLASS
  1
ADDATUMAXISCENTER
  2
AcAdDatumAxisCenter
  3
DesignerServices
 90
    32768
280
     0
281
     0
  0
CLASS
  1
ADSURFGEOMID
  2
AcAdSurfGeomId
  3
DesignerServices
 90
    32768
280
     0
281
     0
  0
CLASS
  1
ACAD_LINE
  2
AcAdLine
  3
DesignerServices
 90
    32768
280
     0
281
     1
  0
CLASS
  1
ACADLINEACAD
  2
AcAdVirtualBoundedLineAcad
  3
DesignerServices
 90
    32768
280
     0
281
     0
  0
CLASS
  1
ADPCURCNS
  2
AcAdPointCurveConstr
  3
DesignerServices
 90
    32768
280
     0
281
     0
  0
CLASS
  1
ADHORCNS
  2
AcAdHorizontalConstr
  3
DesignerServices
 90
    32768
280
     0
281
     0
  0
CLASS
  1
ADVERCNS
  2
AcAdVerticalConstr
  3
DesignerServices
 90
    32768
280
     0
281
     0
  0
CLASS
  1
ACDBLINERES
  2
AcDbLineRes
  3
AcGrefServices
 90
    32768
280
     0
281
     0
  0
CLASS
  1
ACADSKETCHLINERES
  2
AcAdSketchLineRes
  3
DesignerServices
 90
    32768
280
     0
281
     0
  0
CLASS
  1
ADVDISTCNS
  2
AcAdVerticalDistanceConstr
  3
DesignerServices
 90
    32768
280
     0
281
     0
  0
CLASS
  1
ACADSKETCHPOINTRES
  2
AcAdSketchPointRes
  3
DesignerServices
 90
    32768
280
     0
281
     0
  0
CLASS
  1
ADHDISTCNS
  2
AcAdHorizontalDistanceConstr
  3
DesignerServices
 90
    32768
280
     0
281
     0
  0
CLASS
  1
ACADPARTAXISRES
  2
AcAdPartAxisRes
  3
AdGrefServices
 90
    32768
280
     0
281
     0
  0
CLASS
  1
EDGEID
  2
AcAdEdgeId
  3
DesignerServices
 90
    32768
280
     0
281
     0
  0
CLASS
  1
ACADPARTCIRCEDGRES
  2
AcAdPartCircEdgRes
  3
AdGrefServices
 90
    32768
280
     0
281
     0
  0
CLASS
  1
CIRREFID
  2
AcAdCircleRefId
  3
DesignerServices
 90
    32768
280
     0
281
     0
  0
CLASS
  1
ACADCIRCDEPID
  2
AcAdVirtualCircleDepId
  3
DesignerServices
 90
    32768
280
     0
281
     0
  0
CLASS
  1
ACDBCIRCARCRES
  2
AcDbCircArcRes
  3
AcGrefServices
 90
    32768
280
     0
281
     0
  0
CLASS
  1
ACADSKETCHCIRCARCRES
  2
AcAdSketchCircArcRes
  3
DesignerServices
 90
    32768
280
     0
281
     0
  0
CLASS
  1
ADACADDIACNS
  2
AcAdAcadDiameterConstr
  3
DesignerServices
 90
    32768
280
     0
281
     0
  0
CLASS
  1
ADFEATUREDISPLAY
  2
AcImFeatureDisplay
  3
ACME_MODULE_NAME
 90
    32768
280
     0
281
     1
  0
CLASS
  1
ACMEAXIS
  2
AcImAxisDisplay
  3
AcMeServices
 90
    32768
280
     0
281
     1
  0
CLASS
  1
ACMEROTATIONARROW
  2
AcImRotationArrowDisplay
  3
AcMeServices
 90
    32768
280
     0
281
     1
  0
CLASS
  1
DEPEDGEPATTERNFEATURE
  2
AcAdDepEdgePatternFeature
  3
DesignerServices
 90
    32768
280
     0
281
     0
  0
CLASS
  1
ACADPATTNFEAT
  2
AcAdPatternFeat
  3
DesignerServices
 90
    32768
280
     0
281
     0
  0
CLASS
  1
ADFILLET
  2
AcAdFillet
  3
DesignerServices
 90
    32768
280
     0
281
     0
  0
CLASS
  1
ADCONSTDSP
  2
AcAdConstraintDisplayTag
  3
DesignerServices
 90
    32768
280
     0
281
     1
  0
CLASS
  1
ADCONCCNS
  2
AcAdConcentricConstr
  3
DesignerServices
 90
    32768
280
     0
281
     0
  0
CLASS
  1
ADCONSDISP
  2
AcAdConstraintDisplay
  3
DesignerServices
 90
    32768
280
     0
281
     1
  0
CLASS
  1
DATUMPLANEDISPLAY
  2
AcAdDatumPlaneDisplay
  3
DesignerServices
 90
    32768
280
     0
281
     1
  0
CLASS
  1
ADDATUMPLANEAXISPLANE
  2
AcAdDatumPlaneAxisPlane
  3
DesignerServices
 90
    32768
280
     0
281
     0
  0
CLASS
  1
ACADPARTDATUMPLANERES
  2
AcAdPartDatumPlaneRes
  3
AdGrefServices
 90
    32768
280
     0
281
     0
  0
CLASS
  1
ADCOLNCNS
  2
AcAdColinearConstr
  3
DesignerServices
 90
    32768
280
     0
281
     0
  0
CLASS
  1
STREFID
  2
AcAdStraightRefId
  3
DesignerServices
 90
    32768
280
     0
281
     0
  0
CLASS
  1
ACADLINEDEPID
  2
AcAdVirtualLineDepId
  3
DesignerServices
 90
    32768
280
     0
281
     0
  0
CLASS
  1
ACADBOUNDEDLINEDATUMID
  2
AcAdVirtualBoundedLineDatumId
  3
DesignerServices
 90
    32768
280
     0
281
     0
  0
CLASS
  1
CNRREFID
  2
AcAdCornerId
  3
DesignerServices
 90
    32768
280
     0
281
     0
  0
CLASS
  1
ACADPARTPOINTRES
  2
AcAdPartPointRes
  3
AdGrefServices
 90
    32768
280
     0
281
     0
  0
CLASS
  1
DEPEDGESECONDARYDEPID
  2
AcAdDepEdgeSecondaryDepId
  3
DesignerServices
 90
    32768
280
     0
281
     0
  0
CLASS
  1
DEPEDGEPATTERNINSTANCE
  2
AcAdDepEdgePatternInstance
  3
DesignerServices
 90
    32768
280
     0
281
     0
  0
CLASS
  1
ACADPARTLINEDGRES
  2
AcAdPartLinEdgRes
  3
AdGrefServices
 90
    32768
280
     0
281
     0
  0
CLASS
  1
ACADPARTSPLINEEDGERES
  2
AcAdPartSplineEdgeRes
  3
AdGrefServices
 90
    32768
280
     0
281
     0
  0
CLASS
  1
ACAD_ARC
  2
AcAdArc
  3
DesignerServices
 90
    32768
280
     0
281
     1
  0
CLASS
  1
ACADARCACAD
  2
AcAdVirtualArcAcad
  3
DesignerServices
 90
    32768
280
     0
281
     0
  0
CLASS
  1
ADTANCNS
  2
AcAdTangentConstr
  3
DesignerServices
 90
    32768
280
     0
281
     0
  0
CLASS
  1
ACADPOINTDEPID
  2
AcAdVirtualPointDepId
  3
DesignerServices
 90
    32768
280
     0
281
     0
  0
CLASS
  1
ADACADRADCNS
  2
AcAdAcadRadiusConstr
  3
DesignerServices
 90
    32768
280
     0
281
     0
  0
CLASS
  1
AMDT_RADIAL_DIM
  2
AmdtRadialDimension
  3
AcMeServices
 90
    32768
280
     0
281
     1
  0
CLASS
  1
SORTENTSTABLE
  2
AcDbSortentsTable
  3
ObjectDBX Classes
 90
        0
280
     0
281
     0
  0
CLASS
  1
ADACADANGCNS
  2
AcAdAcadAngleConstr
  3
DesignerServices
 90
    32768
280
     0
281
     0
  0
CLASS
  1
AMACTIVEPARTSELECTFILTER
  2
AcDmActivePartViewEntFilter
  3
DesignerServices
 90
    32768
280
     0
281
     0
  0
CLASS
  1
FACEID
  2
AcAdFaceId
  3
DesignerServices
 90
    32768
280
     0
281
     0
  0
CLASS
  1
ACADPARTPLANARFACERES
  2
AcAdPartPlanarFaceRes
  3
AdGrefServices
 90
    32768
280
     0
281
     0
  0
CLASS
  1
AM_GREF_PLANE
  2
AcDmGrefPlnDef
  3
AcMechDwgViewMgmt
 90
    32768
280
     0
281
     0
  0
CLASS
  1
AM_ABS_AXIS
  2
AcDmAbsAxisDef
  3
AcMechDwgViewMgmt
 90
    32768
280
     0
281
     0
  0
CLASS
  1
AM_BASE_VIEW_ORIENT
  2
AcDmBaseViewOr
  3
AcMechDwgViewMgmt
 90
    32768
280
     0
281
     0
  0
CLASS
  1
AM_DWG_VIEWPORT
  2
AcDmViewport
  3
AcMechDwgViewMgmt
 90
    32768
280
     0
281
     0
  0
CLASS
  1
AM_VIEW_DISPLAY
  2
AcDmDwgViewDisplay
  3
AcMechDwgViewMgmt
 90
    32768
280
     0
281
     0
  0
CLASS
  1
AM_CLDFLTS
  2
AcDmClDflts
  3
AcMechDwgViewMgmt
 90
    32768
280
     0
281
     0
  0
CLASS
  1
AM_BASE_VIEW
  2
AcDmBaseView
  3
AcMechDwgViewMgmt
 90
    32768
280
     0
281
     0
  0
CLASS
  1
ACDMPARTVIEWDATA
  2
AcDmPartViewData
  3
AcMechDwgViewMgmt
 90
    32768
280
     0
281
     0
  0
CLASS
  1
ACDMDISPLAYATTRIBS
  2
AcDmDisplayAttribs
  3
AcMechDwgViewMgmt
 90
    32768
280
     0
281
     0
  0
CLASS
  1
ACDMBODYINSTANCEDATA
  2
AcDmBodyInstanceData
  3
AcMechDwgViewMgmt
 90
    32768
280
     0
281
     0
  0
CLASS
  1
ACDMVWEDLINE
  2
AcDmViewEdgeLine
  3
AcMechDwgViewMgmt
 90
    32768
280
     0
281
     1
  0
CLASS
  1
ACDMVWEDSPLINE
  2
AcDmViewEdgeSpline
  3
AcMechDwgViewMgmt
 90
    32768
280
     0
281
     1
  0
CLASS
  1
ACDMVWEDELLIPSE
  2
AcDmViewEdgeEllipse
  3
AcMechDwgViewMgmt
 90
    32768
280
     0
281
     1
  0
CLASS
  1
ACDMVWEDARC
  2
AcDmViewEdgeArc
  3
AcMechDwgViewMgmt
 90
    32768
280
     0
281
     1
  0
CLASS
  1
ACADPARTSKETCHPLANEAXISRES
  2
AcAdPartSketchPlaneAxisRes
  3
DesignerServices
 90
    32768
280
     0
281
     0
  0
CLASS
  1
AM_VIEWDIMPARALLEL
  2
AcDmViewDimParallel
  3
AcMechDwgViewMgmt
 90
    32768
280
     0
281
     0
  0
CLASS
  1
AMDTDMPARMAPDATA
  2
AmdtDmDimParMapData
  3
AcMechDwgViewMgmt
 90
    32768
280
     0
281
     0
  0
CLASS
  1
AM_VIEWDIMLINEAR
  2
AcDmViewDimLinear
  3
AcMechDwgViewMgmt
 90
    32768
280
     0
281
     0
  0
CLASS
  1
AM_VIEWDIMDIAMETER
  2
AcDmViewDimDiameter
  3
AcMechDwgViewMgmt
 90
    32768
280
     0
281
     0
  0
CLASS
  1
AM_ADLINCTRLINE
  2
AcAdLineCl
  3
DesignerServices
 90
    32768
280
     0
281
     0
  0
CLASS
  1
AM_ORTHO_VIEW_ORIENT
  2
AcDmOrthoViewOr
  3
AcMechDwgViewMgmt
 90
    32768
280
     0
281
     0
  0
CLASS
  1
AM_ORTHO_VIEW
  2
AcDmOrthoView
  3
AcMechDwgViewMgmt
 90
    32768
280
     0
281
     0
  0
CLASS
  1
AM_VIEWDIMRADIUS
  2
AcDmViewDimRadius
  3
AcMechDwgViewMgmt
 90
    32768
280
     0
281
     0
  0
CLASS
  1
AM_VIEWDIMANGULAR
  2
AcDmViewDimAngular
  3
AcMechDwgViewMgmt
 90
    32768
280
     0
281
     0
  0
CLASS
  1
ADDATUMPLANEOFFSET
  2
AcAdDatumPlaneOffset
  3
DesignerServices
 90
    32768
280
     0
281
     0
  0
CLASS
  1
ADPROJCNS
  2
AcAdProjectionConstr
  3
DesignerServices
 90
    32768
280
     0
281
     0
  0
CLASS
  1
ACMEPOINT
  2
AcImPointDisplay
  3
AcMeServices
 90
    32768
280
     0
281
     1
  0
CLASS
  1
ADWORKPOINTDISPLAY
  2
AcAdWorkPointDisplay
  3
DesignerServices
 90
    32768
280
     0
281
     1
  0
CLASS
  1
ADVIRTUALPOINTWORKPOINTFREE
  2
AcAdVirtualPointWorkPointFree
  3
DesignerServices
 90
    32768
280
     0
281
     0
  0
CLASS
  1
ADWORKPOINTSKETCH
  2
AcAdWorkPointSketch
  3
DesignerServices
 90
    32768
280
     0
281
     0
  0
CLASS
  1
ACADPARTDATUMPOINTRES
  2
AcAdPartDatumPointRes
  3
AdGrefServices
 90
    32768
280
     0
281
     0
  0
CLASS
  1
ADHOLEFEAT
  2
AcAdHoleFeat
  3
DesignerServices
 90
    32768
280
     0
281
     0
  0
CLASS
  1
ADDATUMPOINTAXISPLANE
  2
AcAdDatumPointAxisPlane
  3
DesignerServices
 90
    32768
280
     0
281
     0
  0
CLASS
  1
ACDMVWEDCIRC
  2
AcDmViewEdgeCircle
  3
AcMechDwgViewMgmt
 90
    32768
280
     0
281
     1
  0
CLASS
  1
AM_ADCIRCTRLINE
  2
AcAdBullsEyeCl
  3
DesignerServices
 90
    32768
280
     0
281
     0
  0
CLASS
  1
ACRFDMINSADJ
  2
AcRfDMInsAdjuster
  3
AcMechDwgViewMgmt
 90
    32768
280
     0
281
     0
  0
CLASS
  1
AM_GREF_POINT
  2
AcDmGrefPntDef
  3
AcMechDwgViewMgmt
 90
    32768
280
     0
281
     0
  0
CLASS
  1
AM_FULLPOINTSECTION
  2
AcDmFullPointSection
  3
AcMechDwgViewMgmt
 90
    32768
280
     0
281
     0
  0
CLASS
  1
AMDTSECTIONSYM
  2
AmdtSectionSym
  3
"AcmSymBB|Product Description: AutoCAD Mechanical 2004 DX|Company: Autodesk"
 90
    33791
280
     0
281
     1
  0
CLASS
  1
AM_VWNOTEADAPTER
  2
AcDmViewAnnotAdapter
  3
AcMechDwgViewMgmt
 90
    32768
280
     0
281
     0
  0
CLASS
  1
AMDTSECTIONSYMLABEL
  2
AmdtSectionSymLabel
  3
"AcmSymBB|Product Description: AutoCAD Mechanical 2004 DX|Company: Autodesk"
 90
    33791
280
     0
281
     1
  0
CLASS
  1
AD_LINETAPH
  2
AcAdTapHoleLineDisp
  3
DesignerServices
 90
    32768
280
     0
281
     0
  0
CLASS
  1
SILEDGEID
  2
AcAdSilhouetteEdgeId
  3
DesignerServices
 90
    32768
280
     0
281
     0
  0
CLASS
  1
ACADPARTCYLINDERFACERES
  2
AcAdPartCylinderFaceRes
  3
AdGrefServices
 90
    32768
280
     0
281
     0
  0
CLASS
  1
ACDMGREFEDIT
  2
AcDmViewEntityGeomrefEdit
  3
AcMechDwgViewMgmt
 90
    32768
280
     0
281
     0
  0
CLASS
  1
ACDMVIEWLINEDGERES
  2
AcDmViewLinEdgeRes
  3
AcMechDwgViewMgmt
 90
    32768
280
     0
281
     0
  0
CLASS
  1
AM_ABS_PLANE
  2
AcDmAbsPlnDef
  3
AcMechDwgViewMgmt
 90
    32768
280
     0
281
     0
  0
CLASS
  1
AMDTEDGESTANDARDISO13715
  2
AmdtEdgeStdISO13715
  3
"Amdt_StdImp|Product Description: AutoCAD Mechanical 2004 DX|Company: Autodesk"
 90
        0
280
     0
281
     0
  0
CLASS
  1
ACRFATTGENMGR
  2
AcRfAttGeneralMgr
  3
AcAttribServices
 90
    32768
280
     0
281
     0
  0
ENDSEC
  0
SECTION
  2
TABLES
  0
TABLE
  2
VPORT
  5
20
330
0
100
AcDbSymbolTable
 70
     1
  0
VPORT
  5
21F
330
20
100
AcDbSymbolTableRecord
100
AcDbViewportTableRecord
  2
*Active
 70
     0
 10
0.0
 20
0.0
 11
1.0
 21
1.0
 12
0.0
 22
3.676470588235300E+18
 13
0.0
 23
0.0
 14
2.5
 24
2.5
 15
10.0
 25
10.0
 16
0.0
 26
0.0
 36
1.0
 17
0.0
 27
0.0
 37
0.0
 40
2.073529411764706E+20
 41
0.9645390070921985
 42
50.0
 43
0.0
 44
0.0
 50
0.0
 51
0.0
 71
     0
 72
   100
 73
     1
 74
     1
 75
     0
 76
     0
 77
     0
 78
     0
281
     0
 65
     0
110
0.0
120
0.0
130
0.0
111
1.0
121
0.0
131
0.0
112
0.0
122
1.0
132
0.0
 79
     0
146
0.0
  0
ENDTAB
  0
TABLE
  2
LTYPE
  5
1B
330
0
100
AcDbSymbolTable
 70
    16
  0
LTYPE
  5
1C
330
1B
100
AcDbSymbolTableRecord
100
AcDbLinetypeTableRecord
  2
BYBLOCK
 70
     0
  3

 72
    65
 73
     0
 40
0.0
  0
LTYPE
  5
1D
330
1B
100
AcDbSymbolTableRecord
100
AcDbLinetypeTableRecord
  2
BYLAYER
 70
     0
  3

 72
    65
 73
     0
 40
0.0
  0
LTYPE
  5
A
330
1B
100
AcDbSymbolTableRecord
100
AcDbLinetypeTableRecord
  2
CONTINUOUS
 70
     0
  3
Solid line
 72
    65
 73
     0
 40
0.0
  0
LTYPE
  5
82
330
1B
100
AcDbSymbolTableRecord
100
AcDbLinetypeTableRecord
  2
AM_ISO02W050
 70
     0
  3
__ __ __ __ __ __ __ __ __ __ __ __ __ __ __
 72
    65
 73
     2
 40
7.5
 49
6.0
 74
     0
 49
-1.5
 74
     0
  0
LTYPE
  5
C3
330
1B
100
AcDbSymbolTableRecord
100
AcDbLinetypeTableRecord
  2
AM_ISO02W050x2
 70
     0
  3
 _ _ _ _ _ _ _ _ _ _ _ _
 72
    65
 73
     2
 40
3.75
 49
3.0
 74
     0
 49
-0.75
 74
     0
  0
LTYPE
  5
39
330
1B
100
AcDbSymbolTableRecord
100
AcDbLinetypeTableRecord
  2
AM_ISO08W050x2
 70
     0
  3
__ . __ . __ . __ . __ . __
 72
    65
 73
     4
 40
9.0
 49
6.0
 74
     0
 49
-0.75
 74
     0
 49
1.5
 74
     0
 49
-0.75
 74
     0
  0
LTYPE
  5
12A
330
1B
100
AcDbSymbolTableRecord
100
AcDbLinetypeTableRecord
  2
HIDDEN
 70
     0
  3
Hidden __ __ __ __ __ __ __ __ __ __ __ __ __ _
 72
    65
 73
     2
 40
9.524999999999998
 49
6.349999999999999
 74
     0
 49
-3.174999999999999
 74
     0
  0
LTYPE
  5
12B
330
1B
100
AcDbSymbolTableRecord
100
AcDbLinetypeTableRecord
  2
PHANTOM2
 70
     0
  3
Phantom (.5x) ___ _ _ ___ _ _ ___ _ _ ___ _ _
 72
    65
 73
     6
 40
31.75
 49
15.875
 74
     0
 49
-3.174999999999999
 74
     0
 49
3.174999999999999
 74
     0
 49
-3.174999999999999
 74
     0
 49
3.174999999999999
 74
     0
 49
-3.174999999999999
 74
     0
  0
LTYPE
  5
12C
330
1B
100
AcDbSymbolTableRecord
100
AcDbLinetypeTableRecord
  2
CENTER
 70
     0
  3
Center ____ _ ____ _ ____ _ ____ _ ____ _ ____
 72
    65
 73
     4
 40
50.8
 49
31.75
 74
     0
 49
-6.349999999999999
 74
     0
 49
6.349999999999999
 74
     0
 49
-6.349999999999999
 74
     0
  0
LTYPE
  5
1C3
330
1B
100
AcDbSymbolTableRecord
100
AcDbLinetypeTableRecord
  2
AM_ISO08W050
 70
     0
  3
____ . ____ . ____ . ____ . ____ . ____ . ____
 72
    65
 73
     4
 40
18.0
 49
12.0
 74
     0
 49
-1.5
 74
     0
 49
3.0
 74
     0
 49
-1.5
 74
     0
  0
LTYPE
  5
1C4
330
1B
100
AcDbSymbolTableRecord
100
AcDbLinetypeTableRecord
  2
AM_ISO09W050
 70
     0
  3
_____ . . _____ . . _____ . . ____ .. ____
 72
    65
 73
     6
 40
22.5
 49
12.0
 74
     0
 49
-1.5
 74
     0
 49
3.0
 74
     0
 49
-1.5
 74
     0
 49
3.0
 74
     0
 49
-1.5
 74
     0
  0
LTYPE
  5
1C5
330
1B
100
AcDbSymbolTableRecord
100
AcDbLinetypeTableRecord
  2
Amconstr
 70
     0
  3
_______________________
 72
    65
 73
     2
 40
9999.0
 49
9999.0
 74
     0
 49
0.0
 74
     0
  0
LTYPE
  5
1C8
330
1B
100
AcDbSymbolTableRecord
100
AcDbLinetypeTableRecord
  2
Amzigzag
 70
     0
  3
/\/-/\/-/\/-/\/-/\/-/\/
 72
    65
 73
     2
 40
11.0001
 49
0.0001
 74
     4
 75
   135
340
1C7
 46
0.04
 50
0.0
 44
0.0
 45
0.0
 49
-11.0
 74
     0
  0
LTYPE
  5
1D7
330
1B
100
AcDbSymbolTableRecord
100
AcDbLinetypeTableRecord
  2
ACISOWELD
 70
     0
  3
_ _ _ _ _
 72
    65
 73
     2
 40
2.0
 49
2.0
 74
     0
 49
-1.0
 74
     0
  0
LTYPE
  5
1D8
330
1B
100
AcDbSymbolTableRecord
100
AcDbLinetypeTableRecord
  2
ACISOTGB
 70
     0
  3
__ . . __ . .
 72
    65
 73
     6
 40
9.0
 49
4.0
 74
     0
 49
-1.0
 74
     0
 49
1.0
 74
     0
 49
-1.0
 74
     0
 49
1.0
 74
     0
 49
-1.0
 74
     0
  0
LTYPE
  5
1D9
330
1B
100
AcDbSymbolTableRecord
100
AcDbLinetypeTableRecord
  2
ACISOTGL
 70
     0
  3
_ _ _ _ _
 72
    65
 73
     2
 40
3.0
 49
2.0
 74
     0
 49
-1.0
 74
     0
  0
LTYPE
  5
673
330
1B
100
AcDbSymbolTableRecord
100
AcDbLinetypeTableRecord
  2
ASULTYPE
 70
     0
  3
實線
 72
    65
 73
     2
 40
3.0
 49
2.5
 74
     0
 49
0.5
 74
     0
  0
LTYPE
  5
674
330
1B
100
AcDbSymbolTableRecord
100
AcDbLinetypeTableRecord
  2
ASVLTYPE
 70
     0
  3
__ __ __ __ __ __ __ __ __ __ __ __ __ __ __ __ __ __ __ __ __
 72
    65
 73
     2
 40
0.75
 49
0.5
 74
     0
 49
-0.25
 74
     0
  0
ENDTAB
  0
TABLE
  2
LAYER
  5
15
102
{ACAD_XDICTIONARY
360
16
102
}
330
0
100
AcDbSymbolTable
 70
     8
  0
LAYER
  5
6
330
15
100
AcDbSymbolTableRecord
100
AcDbLayerTableRecord
  2
0
 70
     0
 62
     7
  6
CONTINUOUS
370
    -3
390
7
  0
LAYER
  5
4E
330
15
100
AcDbSymbolTableRecord
100
AcDbLayerTableRecord
  2
Defpoints
 70
     0
 62
     7
  6
CONTINUOUS
290
     0
370
    -3
390
7
  0
LAYER
  5
86
330
15
100
AcDbSymbolTableRecord
100
AcDbLayerTableRecord
  2
AM_VIS
 70
     0
 62
     7
  6
CONTINUOUS
370
    50
390
7
  0
LAYER
  5
C2
330
15
100
AcDbSymbolTableRecord
100
AcDbLayerTableRecord
  2
AM_HID
 70
     0
 62
     3
  6
AM_ISO02W050x2
370
    25
390
7
  0
LAYER
  5
38
330
15
100
AcDbSymbolTableRecord
100
AcDbLayerTableRecord
  2
AM_7
 70
     0
 62
     1
  6
AM_ISO08W050x2
370
    25
390
7
  0
LAYER
  5
81
330
15
100
AcDbSymbolTableRecord
100
AcDbLayerTableRecord
  2
AM_4
 70
     0
 62
     3
  6
CONTINUOUS
370
    25
390
7
  0
LAYER
  5
43
330
15
100
AcDbSymbolTableRecord
100
AcDbLayerTableRecord
  2
AM_REFDIM
 70
     0
 62
     5
  6
CONTINUOUS
370
    50
390
7
  0
LAYER
  5
3DE
330
15
100
AcDbSymbolTableRecord
100
AcDbLayerTableRecord
  2
LOGO
 70
     0
 62
     7
  6
CONTINUOUS
370
    -3
390
7
  0
ENDTAB
  0
TABLE
  2
STYLE
  5
18
330
0
100
AcDbSymbolTable
 70
     6
  0
STYLE
  5
19
330
18
100
AcDbSymbolTableRecord
100
AcDbTextStyleTableRecord
  2
STANDARD
 70
     0
 40
0.0
 41
1.0
 50
0.0
 71
     0
 42
1.0
  3
ISOCP.SHX
  4
CHINESET.SHX
  0
STYLE
  5
1C7
330
18
100
AcDbSymbolTableRecord
100
AcDbTextStyleTableRecord
  2

 70
     1
 40
0.0
 41
1.0
 50
0.0
 71
     0
 42
1.0
  3
ltypeshp.shx
  4

  0
STYLE
  5
1C9
330
18
100
AcDbSymbolTableRecord
100
AcDbTextStyleTableRecord
  2
ACISOTS
 70
     0
 40
1.0
 41
1.0
 50
0.0
 71
     0
 42
1.0
  3
isocp.shx
  4
chineset.shx
  0
STYLE
  5
1D6
330
18
100
AcDbSymbolTableRecord
100
AcDbTextStyleTableRecord
  2
ACISOGDT
 70
     0
 40
0.0
 41
1.0
 50
0.0
 71
     0
 42
1.0
  3
amgdt.shx
  4

  0
STYLE
  5
3DF
330
18
100
AcDbSymbolTableRecord
100
AcDbTextStyleTableRecord
  2
CHINESET
 70
     0
 40
0.0
 41
1.0
 50
0.0
 71
     0
 42
3.0
  3
simplex.shx
  4
CHINESET.SHX
  0
ENDTAB
  0
TABLE
  2
VIEW
  5
1E
330
0
100
AcDbSymbolTable
 70
     1
  0
ENDTAB
  0
TABLE
  2
UCS
  5
1F
330
0
100
AcDbSymbolTable
 70
     0
  0
ENDTAB
  0
TABLE
  2
APPID
  5
22
330
0
100
AcDbSymbolTable
 70
    22
  0
APPID
  5
23
330
22
100
AcDbSymbolTableRecord
100
AcDbRegAppTableRecord
  2
ACAD
 70
     0
  0
APPID
  5
14
330
22
100
AcDbSymbolTableRecord
100
AcDbRegAppTableRecord
  2
ACAD_PSEXT
 70
     0
  0
APPID
  5
F6
330
22
100
AcDbSymbolTableRecord
100
AcDbRegAppTableRecord
  2
GENIUS_GENDIM_13
 70
     0
  0
APPID
  5
F7
330
22
100
AcDbSymbolTableRecord
100
AcDbRegAppTableRecord
  2
GENIUS_GENDTOL_13
 70
     0
  0
APPID
  5
F8
330
22
100
AcDbSymbolTableRecord
100
AcDbRegAppTableRecord
  2
GENIUS_GE3DTOL_13
 70
     0
  0
APPID
  5
FB
330
22
100
AcDbSymbolTableRecord
100
AcDbRegAppTableRecord
  2
MCAD_NO_VIS
 70
     0
  0
APPID
  5
FC
330
22
100
AcDbSymbolTableRecord
100
AcDbRegAppTableRecord
  2
ACAD_TEMP_GRAPHIC
 70
     0
  0
APPID
  5
12E
330
22
100
AcDbSymbolTableRecord
100
AcDbRegAppTableRecord
  2
AD_DRAW
 70
     0
  0
APPID
  5
131
330
22
100
AcDbSymbolTableRecord
100
AcDbRegAppTableRecord
  2
ACATTRIBSERVICES
 70
     0
  0
APPID
  5
17D
330
22
100
AcDbSymbolTableRecord
100
AcDbRegAppTableRecord
  2
ASURF_PCURVE_APPNAME
 70
     0
  0
APPID
  5
182
330
22
100
AcDbSymbolTableRecord
100
AcDbRegAppTableRecord
  2
AMG_3D2D_5.0
 70
     0
  0
APPID
  5
1B1
330
22
100
AcDbSymbolTableRecord
100
AcDbRegAppTableRecord
  2
DESIGNERASSEMBLIES
 70
     0
  0
APPID
  5
1B8
330
22
100
AcDbSymbolTableRecord
100
AcDbRegAppTableRecord
  2
ACADM_DIM_EDIT
 70
     0
  0
APPID
  5
1B9
330
22
100
AcDbSymbolTableRecord
100
AcDbRegAppTableRecord
  2
AMDT_DM_ADJ
 70
     0
  0
APPID
  5
3D0
330
22
100
AcDbSymbolTableRecord
100
AcDbRegAppTableRecord
  2
GENIUS_GENDIMSH_14
 70
     0
  0
APPID
  5
3E0
330
22
100
AcDbSymbolTableRecord
100
AcDbRegAppTableRecord
  2
GENIUS_GENOENT_13
 70
     0
  0
APPID
  5
3E1
330
22
100
AcDbSymbolTableRecord
100
AcDbRegAppTableRecord
  2
GENIUS_GENOBJ-N-CRS_13
 70
     0
  0
APPID
  5
3E2
330
22
100
AcDbSymbolTableRecord
100
AcDbRegAppTableRecord
  2
GENIUS_GENOLIS_13
 70
     0
  0
APPID
  5
3E3
330
22
100
AcDbSymbolTableRecord
100
AcDbRegAppTableRecord
  2
GENIUS_GENODEF_13
 70
     0
  0
APPID
  5
3E4
330
22
100
AcDbSymbolTableRecord
100
AcDbRegAppTableRecord
  2
GENIUS_GENOREF_13
 70
     0
  0
APPID
  5
3E5
330
22
100
AcDbSymbolTableRecord
100
AcDbRegAppTableRecord
  2
GENIUS_GENREC_14
 70
     0
  0
APPID
  5
3E6
330
22
100
AcDbSymbolTableRecord
100
AcDbRegAppTableRecord
  2
GENIUS_GENOBJ-N-REC_13
 70
     0
  0
ENDTAB
  0
TABLE
  2
DIMSTYLE
  5
24
330
0
100
AcDbSymbolTable
 70
     9
100
AcDbDimStyleTable
 71
     3
340
25
340
26
340
27
  0
DIMSTYLE
105
25
330
24
100
AcDbSymbolTableRecord
100
AcDbDimStyleTableRecord
  2
AM_ISO
 70
     0
  4
"
 41
3.0
 42
1.0
 43
8.0
 44
1.0
 47
0.1
 48
0.1
 73
     0
 74
     0
 77
     1
 78
     8
 79
     2
140
3.5
141
0.0
143
0.0393701
146
0.71
147
1.0
172
     1
176
   256
177
   256
178
   256
271
     2
272
     2
283
     0
284
     8
285
     8
340
19
371
    -1
372
    -1
  0
DIMSTYLE
105
26
330
24
100
AcDbSymbolTableRecord
100
AcDbDimStyleTableRecord
  2
AM_ISO$SF
 70
     0
  4
"
 41
2.5
 42
1.0
 43
10.0
 44
1.0
 47
0.1
 48
0.1
 73
     0
 74
     0
 75
     1
 76
     1
 77
     1
 78
     8
 79
     2
140
3.5
141
0.0
143
0.0393701
146
0.71
147
1.0
172
     1
176
   256
177
   256
178
   256
271
     2
272
     2
283
     0
284
     8
340
19
371
    -1
372
    -1
  0
DIMSTYLE
105
27
330
24
100
AcDbSymbolTableRecord
100
AcDbDimStyleTableRecord
  2
AM_ISO$SH
 70
     0
  4
"
 41
2.5
 42
1.0
 43
10.0
 44
1.0
 47
0.1
 48
0.1
 73
     0
 74
     0
 75
     1
 76
     1
 77
     1
 78
     8
 79
     2
140
3.5
141
0.0
143
0.0393701
144
2.0
146
0.71
147
1.0
172
     1
173
     1
176
   256
177
   256
178
   256
271
     2
272
     2
283
     0
284
     8
340
19
343
28
371
    -1
372
    -1
  0
DIMSTYLE
105
44
102
{ACAD_REACTORS
330
42
330
52
330
5F
330
6C
330
308
330
206
330
1F0
330
2A1
330
28B
330
24C
330
26C
330
220
330
3B1
102
}
330
24
100
AcDbSymbolTableRecord
100
AcDbDimStyleTableRecord
  2
AM_ISO$0
 70
     0
  4
"
 41
3.0
 42
1.0
 43
8.0
 44
1.0
 47
0.1
 48
0.1
 73
     0
 74
     0
 77
     1
 78
     8
 79
     2
140
3.5
141
0.0
143
0.0393701
146
0.71
147
1.0
172
     1
176
   256
177
   256
178
   256
271
     2
272
     2
283
     0
284
     8
285
     8
340
19
371
    -1
372
    -1
  0
DIMSTYLE
105
1E2
330
24
100
AcDbSymbolTableRecord
100
AcDbDimStyleTableRecord
  2
AM_ISO$3
 70
     0
  4
"
 41
3.0
 42
1.0
 43
8.0
 44
1.0
 47
0.1
 48
0.1
 73
     0
 77
     1
 78
     8
 79
     2
140
3.5
141
0.0
143
0.0393701
146
0.71
147
1.0
176
   256
177
   256
178
   256
271
     2
272
     2
283
     0
284
     8
285
     8
288
     1
289
     0
340
19
371
    -1
372
    -1
  0
DIMSTYLE
105
1E3
330
24
100
AcDbSymbolTableRecord
100
AcDbDimStyleTableRecord
  2
AM_ISO$4
 70
     0
  4
"
 41
3.0
 42
1.0
 43
8.0
 44
1.0
 47
0.1
 48
0.1
 73
     0
 77
     1
 78
     8
 79
     2
140
3.5
141
0.0
143
0.0393701
146
0.71
147
1.0
176
   256
177
   256
178
   256
271
     2
272
     2
283
     0
284
     8
285
     8
288
     1
289
     0
340
19
371
    -1
372
    -1
  0
DIMSTYLE
105
1E4
330
24
100
AcDbSymbolTableRecord
100
AcDbDimStyleTableRecord
  2
AM_ISO$6
 70
     0
  4
"
 41
3.0
 42
1.0
 43
8.0
 44
1.0
 47
0.1
 48
0.1
 73
     0
 74
     0
 78
     8
 79
     2
140
3.5
141
0.0
143
0.0393701
146
0.71
147
1.0
172
     1
176
   256
177
   256
178
   256
271
     2
272
     2
283
     0
284
     8
285
     8
340
19
371
    -1
372
    -1
  0
DIMSTYLE
105
1E5
102
{ACAD_REACTORS
330
21D
102
}
330
24
100
AcDbSymbolTableRecord
100
AcDbDimStyleTableRecord
  2
AM_ISO$7
 70
     0
  4
"
 41
2.5
 42
1.0
 43
8.0
 44
1.0
 47
0.1
 48
0.1
 73
     0
 74
     0
 77
     1
 78
     8
 79
     2
140
5.0
141
0.0
143
0.0393701
146
0.71
147
1.5
172
     1
176
   256
177
   256
178
   256
271
     2
272
     2
283
     0
284
     8
285
     8
340
19
371
    -1
372
    -1
  0
ENDTAB
  0
TABLE
  2
BLOCK_RECORD
  5
1
330
0
100
AcDbSymbolTable
 70
    16
  0
BLOCK_RECORD
  5
2
102
{ACAD_XDICTIONARY
360
3
102
}
330
1
100
AcDbSymbolTableRecord
100
AcDbBlockTableRecord
  2
*MODEL_SPACE
340
C
  0
BLOCK_RECORD
  5
E
102
{ACAD_XDICTIONARY
360
3A0
102
}
330
1
100
AcDbSymbolTableRecord
100
AcDbBlockTableRecord
  2
*PAPER_SPACE
340
11
  0
BLOCK_RECORD
  5
28
330
1
100
AcDbSymbolTableRecord
100
AcDbBlockTableRecord
  2
GENAXEH
340
0
  0
BLOCK_RECORD
  5
1F1
330
1
100
AcDbSymbolTableRecord
100
AcDbBlockTableRecord
  2
*D1
340
0
  0
BLOCK_RECORD
  5
207
330
1
100
AcDbSymbolTableRecord
100
AcDbBlockTableRecord
  2
*D2
340
0
  0
BLOCK_RECORD
  5
221
330
1
100
AcDbSymbolTableRecord
100
AcDbBlockTableRecord
  2
*D3
340
0
  0
BLOCK_RECORD
  5
24D
330
1
100
AcDbSymbolTableRecord
100
AcDbBlockTableRecord
  2
*D4
340
0
  0
BLOCK_RECORD
  5
26D
330
1
100
AcDbSymbolTableRecord
100
AcDbBlockTableRecord
  2
*D5
340
0
  0
BLOCK_RECORD
  5
28C
330
1
100
AcDbSymbolTableRecord
100
AcDbBlockTableRecord
  2
*D6
340
0
  0
BLOCK_RECORD
  5
2A2
330
1
100
AcDbSymbolTableRecord
100
AcDbBlockTableRecord
  2
*D7
340
0
  0
BLOCK_RECORD
  5
309
330
1
100
AcDbSymbolTableRecord
100
AcDbBlockTableRecord
  2
*D8
340
0
  0
BLOCK_RECORD
  5
31E
330
1
100
AcDbSymbolTableRecord
100
AcDbBlockTableRecord
  2
*D9
340
0
  0
BLOCK_RECORD
  5
3B2
330
1
100
AcDbSymbolTableRecord
100
AcDbBlockTableRecord
  2
*D10
340
0
  0
BLOCK_RECORD
  5
3D1
330
1
100
AcDbSymbolTableRecord
100
AcDbBlockTableRecord
  2
*D11
340
0
  0
BLOCK_RECORD
  5
4B9
330
1
100
AcDbSymbolTableRecord
100
AcDbBlockTableRecord
  2
*D12
340
0
  0
BLOCK_RECORD
  5
4C5
330
1
100
AcDbSymbolTableRecord
100
AcDbBlockTableRecord
  2
*D13
340
0
  0
ENDTAB
  0
ENDSEC
  0
SECTION
  2
BLOCKS
  0
BLOCK
  5
5
330
2
100
AcDbEntity
  8
0
100
AcDbBlockBegin
  2
*MODEL_SPACE
 70
     0
 10
0.0
 20
0.0
 30
0.0
  3
*MODEL_SPACE
  1

  0
ENDBLK
  5
B
330
2
100
AcDbEntity
  8
0
100
AcDbBlockEnd
  0
BLOCK
  5
F
330
E
100
AcDbEntity
 67
     1
  8
0
100
AcDbBlockBegin
  2
*PAPER_SPACE
 70
     0
 10
0.0
 20
0.0
 30
0.0
  3
*PAPER_SPACE
  1

  0
ENDBLK
  5
10
330
E
100
AcDbEntity
 67
     1
  8
0
100
AcDbBlockEnd
  0
BLOCK
  5
29
330
28
100
AcDbEntity
  8
0
100
AcDbBlockBegin
  2
GENAXEH
 70
     0
 10
0.0
 20
0.0
 30
0.0
  3
GENAXEH
  1

  0
LINE
  5
2A
330
28
100
AcDbEntity
  8
0
100
AcDbLine
 10
-1.0
 20
0.0
 30
0.0
 11
1.0
 21
0.0
 31
0.0
  0
ENDBLK
  5
2B
330
28
100
AcDbEntity
  8
0
100
AcDbBlockEnd
  0
BLOCK
  5
1FB
330
1F1
100
AcDbEntity
  8
0
 62
     6
100
AcDbBlockBegin
  2
*D1
 70
     1
 10
0.0
 20
0.0
 30
0.0
  3
*D1
  1

  0
LINE
  5
57F
330
1F1
100
AcDbEntity
  8
AM_REFDIM
100
AcDbLine
 10
65.70038621297323
 20
138.1317343076714
 30
0.0
 11
65.70038621297323
 21
181.0446127824506
 31
0.0
  0
LINE
  5
580
330
1F1
100
AcDbEntity
  8
AM_REFDIM
100
AcDbLine
 10
115.7003862129732
 20
138.1317343076714
 30
0.0
 11
115.7003862129732
 21
181.0446127824506
 31
0.0
  0
LINE
  5
581
330
1F1
100
AcDbEntity
  8
AM_REFDIM
100
AcDbLine
 10
68.70038621297323
 20
180.0446127824506
 30
0.0
 11
112.7003862129732
 21
180.0446127824506
 31
0.0
  0
SOLID
  5
582
330
1F1
100
AcDbEntity
  8
AM_REFDIM
100
AcDbTrace
 10
68.70038621297323
 20
180.5446127824506
 30
0.0
 11
68.70038621297323
 21
179.5446127824506
 31
0.0
 12
65.70038621297323
 22
180.0446127824506
 32
0.0
 13
65.70038621297323
 23
180.0446127824506
 33
0.0
  0
SOLID
  5
583
330
1F1
100
AcDbEntity
  8
AM_REFDIM
100
AcDbTrace
 10
112.7003862129732
 20
180.5446127824506
 30
0.0
 11
112.7003862129732
 21
179.5446127824506
 31
0.0
 12
115.7003862129732
 22
180.0446127824506
 32
0.0
 13
115.7003862129732
 23
180.0446127824506
 33
0.0
  0
MTEXT
  5
584
330
1F1
100
AcDbEntity
  8
AM_REFDIM
100
AcDbMText
 10
90.70038621297323
 20
182.7946127824506
 30
0.0
 40
3.5
 41
0.0
 71
     5
 72
     1
  1
50
 73
     1
 44
1.0
1001
ACAD
1000
MTEXTBEGIN
1070
    73
1070
     1
1070
    44
1040
1.0
1070
    74
1070
     0
1000
MTEXTEND
  0
POINT
  5
585
330
1F1
100
AcDbEntity
  8
Defpoints
 62
     0
100
AcDbPoint
 10
65.70038621297323
 20
137.1317343076714
 30
0.0
  0
POINT
  5
586
330
1F1
100
AcDbEntity
  8
Defpoints
 62
     0
100
AcDbPoint
 10
115.7003862129732
 20
137.1317343076714
 30
0.0
  0
POINT
  5
587
330
1F1
100
AcDbEntity
  8
Defpoints
 62
     0
100
AcDbPoint
 10
115.7003862129732
 20
180.0446127824506
 30
0.0
  0
ENDBLK
  5
1FC
330
1F1
100
AcDbEntity
  8
0
 62
     6
100
AcDbBlockEnd
  0
BLOCK
  5
211
330
207
100
AcDbEntity
  8
0
 62
     6
100
AcDbBlockBegin
  2
*D2
 70
     1
 10
0.0
 20
0.0
 30
0.0
  3
*D2
  1

  0
LINE
  5
588
330
207
100
AcDbEntity
  8
AM_REFDIM
100
AcDbLine
 10
75.70038621297323
 20
66.13173430767142
 30
0.0
 11
75.70038621297323
 21
78.13173430767148
 31
0.0
  0
LINE
  5
589
330
207
100
AcDbEntity
  8
AM_REFDIM
100
AcDbLine
 10
105.7003862129732
 20
66.13173430767142
 30
0.0
 11
105.7003862129732
 21
78.13173430767148
 31
0.0
  0
LINE
  5
58A
330
207
100
AcDbEntity
  8
AM_REFDIM
100
AcDbLine
 10
78.70038621297323
 20
77.13173430767148
 30
0.0
 11
102.7003862129732
 21
77.13173430767148
 31
0.0
  0
SOLID
  5
58B
330
207
100
AcDbEntity
  8
AM_REFDIM
100
AcDbTrace
 10
78.70038621297323
 20
77.63173430767148
 30
0.0
 11
78.70038621297323
 21
76.63173430767148
 31
0.0
 12
75.70038621297323
 22
77.13173430767148
 32
0.0
 13
75.70038621297323
 23
77.13173430767148
 33
0.0
  0
SOLID
  5
58C
330
207
100
AcDbEntity
  8
AM_REFDIM
100
AcDbTrace
 10
102.7003862129732
 20
77.63173430767148
 30
0.0
 11
102.7003862129732
 21
76.63173430767148
 31
0.0
 12
105.7003862129732
 22
77.13173430767148
 32
0.0
 13
105.7003862129732
 23
77.13173430767148
 33
0.0
  0
MTEXT
  5
58D
330
207
100
AcDbEntity
  8
AM_REFDIM
100
AcDbMText
 10
90.70038621297323
 20
79.88173430767147
 30
0.0
 40
3.5
 41
0.0
 71
     5
 72
     1
  1
30
 73
     1
 44
1.0
1001
ACAD
1000
MTEXTBEGIN
1070
    73
1070
     1
1070
    44
1040
1.0
1070
    74
1070
     0
1000
MTEXTEND
  0
POINT
  5
58E
330
207
100
AcDbEntity
  8
Defpoints
 62
     0
100
AcDbPoint
 10
75.70038621297323
 20
65.13173430767142
 30
0.0
  0
POINT
  5
58F
330
207
100
AcDbEntity
  8
Defpoints
 62
     0
100
AcDbPoint
 10
105.7003862129732
 20
65.13173430767142
 30
0.0
  0
POINT
  5
590
330
207
100
AcDbEntity
  8
Defpoints
 62
     0
100
AcDbPoint
 10
105.7003862129732
 20
77.13173430767148
 30
0.0
  0
ENDBLK
  5
212
330
207
100
AcDbEntity
  8
0
 62
     6
100
AcDbBlockEnd
  0
BLOCK
  5
22B
330
221
100
AcDbEntity
  8
0
 62
     6
100
AcDbBlockBegin
  2
*D3
 70
     1
 10
0.0
 20
0.0
 30
0.0
  3
*D3
  1

  0
LINE
  5
591
330
221
100
AcDbEntity
  8
AM_REFDIM
100
AcDbLine
 10
199.0783349300958
 20
96.13173430767142
 30
0.0
 11
215.8753349300958
 21
96.13173430767142
 31
0.0
  0
LINE
  5
592
330
221
100
AcDbEntity
  8
AM_REFDIM
100
AcDbLine
 10
203.8753349300958
 20
53.13173430767142
 30
0.0
 11
215.8753349300958
 21
53.13173430767141
 31
0.0
  0
LINE
  5
593
330
221
100
AcDbEntity
  8
AM_REFDIM
100
AcDbLine
 10
214.8753349300958
 20
93.13173430767141
 30
0.0
 11
214.8753349300958
 21
56.13173430767141
 31
0.0
  0
SOLID
  5
594
330
221
100
AcDbEntity
  8
AM_REFDIM
100
AcDbTrace
 10
214.3753349300958
 20
93.13173430767141
 30
0.0
 11
215.3753349300958
 21
93.13173430767141
 31
0.0
 12
214.8753349300958
 22
96.13173430767142
 32
0.0
 13
214.8753349300958
 23
96.13173430767142
 33
0.0
  0
SOLID
  5
595
330
221
100
AcDbEntity
  8
AM_REFDIM
100
AcDbTrace
 10
214.3753349300958
 20
56.13173430767141
 30
0.0
 11
215.3753349300958
 21
56.13173430767141
 31
0.0
 12
214.8753349300958
 22
53.13173430767141
 32
0.0
 13
214.8753349300958
 23
53.13173430767141
 33
0.0
  0
MTEXT
  5
596
330
221
100
AcDbEntity
  8
AM_REFDIM
100
AcDbMText
 10
212.1253349300958
 20
74.63173430767145
 30
0.0
 40
3.5
 41
0.0
 71
     5
 72
     1
  1
43
 11
0.0000000000000001
 21
1.0
 31
0.0
 73
     1
 44
1.0
1001
ACAD
1000
MTEXTBEGIN
1070
    73
1070
     1
1070
    44
1040
1.0
1070
    74
1070
     0
1000
MTEXTEND
  0
POINT
  5
597
330
221
100
AcDbEntity
  8
Defpoints
 62
     0
100
AcDbPoint
 10
198.0783349300958
 20
96.13173430767142
 30
0.0
  0
POINT
  5
598
330
221
100
AcDbEntity
  8
Defpoints
 62
     0
100
AcDbPoint
 10
202.8753349300958
 20
53.13173430767142
 30
0.0
  0
POINT
  5
599
330
221
100
AcDbEntity
  8
Defpoints
 62
     0
100
AcDbPoint
 10
214.8753349300958
 20
53.13173430767141
 30
0.0
  0
ENDBLK
  5
22C
330
221
100
AcDbEntity
  8
0
 62
     6
100
AcDbBlockEnd
  0
BLOCK
  5
257
330
24D
100
AcDbEntity
  8
0
 62
     6
100
AcDbBlockBegin
  2
*D4
 70
     1
 10
0.0
 20
0.0
 30
0.0
  3
*D4
  1

  0
LINE
  5
59A
330
24D
100
AcDbEntity
  8
AM_REFDIM
100
AcDbLine
 10
201.8753349300958
 20
150.0508093519615
 30
0.0
 11
224.6208820359561
 21
150.0508093519615
 31
0.0
  0
LINE
  5
59B
330
24D
100
AcDbEntity
  8
AM_REFDIM
100
AcDbLine
 10
201.8753349300958
 20
124.2126592633812
 30
0.0
 11
224.6208820359561
 21
124.2126592633812
 31
0.0
  0
LINE
  5
59C
330
24D
100
AcDbEntity
  8
AM_REFDIM
100
AcDbLine
 10
223.6208820359561
 20
147.0508093519615
 30
0.0
 11
223.6208820359561
 21
127.2126592633813
 31
0.0
  0
SOLID
  5
59D
330
24D
100
AcDbEntity
  8
AM_REFDIM
100
AcDbTrace
 10
223.1208820359561
 20
147.0508093519615
 30
0.0
 11
224.1208820359561
 21
147.0508093519615
 31
0.0
 12
223.6208820359561
 22
150.0508093519615
 32
0.0
 13
223.6208820359561
 23
150.0508093519615
 33
0.0
  0
SOLID
  5
59E
330
24D
100
AcDbEntity
  8
AM_REFDIM
100
AcDbTrace
 10
223.1208820359561
 20
127.2126592633813
 30
0.0
 11
224.1208820359561
 21
127.2126592633813
 31
0.0
 12
223.6208820359561
 22
124.2126592633812
 32
0.0
 13
223.6208820359561
 23
124.2126592633812
 33
0.0
  0
MTEXT
  5
59F
330
24D
100
AcDbEntity
  8
AM_REFDIM
100
AcDbMText
 10
220.8705375477671
 20
137.1317343076714
 30
0.0
 40
3.5
 41
0.0
 71
     5
 72
     1
  1
%%c25.84
 11
0.0000000000000001
 21
1.0
 31
0.0
 73
     1
 44
1.0
1001
ACAD
1000
MTEXTBEGIN
1070
    73
1070
     1
1070
    44
1040
1.0
1070
    74
1070
     0
1000
MTEXTEND
  0
POINT
  5
5A0
330
24D
100
AcDbEntity
  8
Defpoints
 62
     0
100
AcDbPoint
 10
200.8753349300958
 20
150.0508093519615
 30
0.0
  0
POINT
  5
5A1
330
24D
100
AcDbEntity
  8
Defpoints
 62
     0
100
AcDbPoint
 10
200.8753349300958
 20
124.2126592633812
 30
0.0
  0
POINT
  5
5A2
330
24D
100
AcDbEntity
  8
Defpoints
 62
     0
100
AcDbPoint
 10
223.6208820359561
 20
124.2126592633812
 30
0.0
  0
ENDBLK
  5
258
330
24D
100
AcDbEntity
  8
0
 62
     6
100
AcDbBlockEnd
  0
BLOCK
  5
277
330
26D
100
AcDbEntity
  8
0
 62
     6
100
AcDbBlockBegin
  2
*D5
 70
     1
 10
0.0
 20
0.0
 30
0.0
  3
*D5
  1

  0
LINE
  5
5A3
330
26D
100
AcDbEntity
  8
AM_REFDIM
100
AcDbLine
 10
201.8753349300958
 20
148.1317343076714
 30
0.0
 11
213.8753349300958
 21
148.1317343076714
 31
0.0
  0
LINE
  5
5A4
330
26D
100
AcDbEntity
  8
AM_REFDIM
100
AcDbLine
 10
201.8753349300958
 20
126.1317343076714
 30
0.0
 11
213.8753349300958
 21
126.1317343076714
 31
0.0
  0
LINE
  5
5A5
330
26D
100
AcDbEntity
  8
AM_REFDIM
100
AcDbLine
 10
212.8753349300958
 20
145.1317343076714
 30
0.0
 11
212.8753349300958
 21
129.1317343076714
 31
0.0
  0
SOLID
  5
5A6
330
26D
100
AcDbEntity
  8
AM_REFDIM
100
AcDbTrace
 10
212.3753349300958
 20
145.1317343076714
 30
0.0
 11
213.3753349300958
 21
145.1317343076714
 31
0.0
 12
212.8753349300958
 22
148.1317343076714
 32
0.0
 13
212.8753349300958
 23
148.1317343076714
 33
0.0
  0
SOLID
  5
5A7
330
26D
100
AcDbEntity
  8
AM_REFDIM
100
AcDbTrace
 10
212.3753349300958
 20
129.1317343076714
 30
0.0
 11
213.3753349300958
 21
129.1317343076714
 31
0.0
 12
212.8753349300958
 22
126.1317343076714
 32
0.0
 13
212.8753349300958
 23
126.1317343076714
 33
0.0
  0
MTEXT
  5
5A8
330
26D
100
AcDbEntity
  8
AM_REFDIM
100
AcDbMText
 10
210.1249904419068
 20
137.1317343076714
 30
0.0
 40
3.5
 41
0.0
 71
     5
 72
     1
  1
%%c22
 11
0.0000000000000001
 21
1.0
 31
0.0
 73
     1
 44
1.0
1001
ACAD
1000
MTEXTBEGIN
1070
    73
1070
     1
1070
    44
1040
1.0
1070
    74
1070
     0
1000
MTEXTEND
  0
POINT
  5
5A9
330
26D
100
AcDbEntity
  8
Defpoints
 62
     0
100
AcDbPoint
 10
200.8753349300958
 20
148.1317343076714
 30
0.0
  0
POINT
  5
5AA
330
26D
100
AcDbEntity
  8
Defpoints
 62
     0
100
AcDbPoint
 10
200.8753349300958
 20
126.1317343076714
 30
0.0
  0
POINT
  5
5AB
330
26D
100
AcDbEntity
  8
Defpoints
 62
     0
100
AcDbPoint
 10
212.8753349300958
 20
126.1317343076714
 30
0.0
  0
ENDBLK
  5
278
330
26D
100
AcDbEntity
  8
0
 62
     6
100
AcDbBlockEnd
  0
BLOCK
  5
296
330
28C
100
AcDbEntity
  8
0
 62
     6
100
AcDbBlockBegin
  2
*D6
 70
     1
 10
0.0
 20
0.0
 30
0.0
  3
*D6
  1

  0
LINE
  5
5AC
330
28C
100
AcDbEntity
  8
AM_REFDIM
100
AcDbLine
 10
176.8753349300958
 20
161.0446127824506
 30
0.0
 11
176.8753349300958
 21
173.0446127824506
 31
0.0
  0
LINE
  5
5AD
330
28C
100
AcDbEntity
  8
AM_REFDIM
100
AcDbLine
 10
196.8753349300957
 20
161.0446127824506
 30
0.0
 11
196.8753349300957
 21
173.0446127824506
 31
0.0
  0
LINE
  5
5AE
330
28C
100
AcDbEntity
  8
AM_REFDIM
100
AcDbLine
 10
179.8753349300958
 20
172.0446127824506
 30
0.0
 11
193.8753349300957
 21
172.0446127824506
 31
0.0
  0
SOLID
  5
5AF
330
28C
100
AcDbEntity
  8
AM_REFDIM
100
AcDbTrace
 10
179.8753349300958
 20
172.5446127824506
 30
0.0
 11
179.8753349300958
 21
171.5446127824506
 31
0.0
 12
176.8753349300958
 22
172.0446127824506
 32
0.0
 13
176.8753349300958
 23
172.0446127824506
 33
0.0
  0
SOLID
  5
5B0
330
28C
100
AcDbEntity
  8
AM_REFDIM
100
AcDbTrace
 10
193.8753349300957
 20
172.5446127824506
 30
0.0
 11
193.8753349300957
 21
171.5446127824506
 31
0.0
 12
196.8753349300957
 22
172.0446127824506
 32
0.0
 13
196.8753349300957
 23
172.0446127824506
 33
0.0
  0
MTEXT
  5
5B1
330
28C
100
AcDbEntity
  8
AM_REFDIM
100
AcDbMText
 10
186.8753349300957
 20
174.7949572706396
 30
0.0
 40
3.5
 41
0.0
 71
     5
 72
     1
  1
20
 73
     1
 44
1.0
1001
ACAD
1000
MTEXTBEGIN
1070
    73
1070
     1
1070
    44
1040
1.0
1070
    74
1070
     0
1000
MTEXTEND
  0
POINT
  5
5B2
330
28C
100
AcDbEntity
  8
Defpoints
 62
     0
100
AcDbPoint
 10
176.8753349300958
 20
160.0446127824506
 30
0.0
  0
POINT
  5
5B3
330
28C
100
AcDbEntity
  8
Defpoints
 62
     0
100
AcDbPoint
 10
196.8753349300957
 20
160.0446127824506
 30
0.0
  0
POINT
  5
5B4
330
28C
100
AcDbEntity
  8
Defpoints
 62
     0
100
AcDbPoint
 10
196.8753349300957
 20
172.0446127824506
 30
0.0
  0
ENDBLK
  5
297
330
28C
100
AcDbEntity
  8
0
 62
     6
100
AcDbBlockEnd
  0
BLOCK
  5
2AC
330
2A2
100
AcDbEntity
  8
0
 62
     6
100
AcDbBlockBegin
  2
*D7
 70
     1
 10
0.0
 20
0.0
 30
0.0
  3
*D7
  1

  0
LINE
  5
5B5
330
2A2
100
AcDbEntity
  8
AM_REFDIM
100
AcDbLine
 10
172.8753349300958
 20
151.0508093519615
 30
0.0
 11
172.8753349300958
 21
181.0446127824506
 31
0.0
  0
LINE
  5
5B6
330
2A2
100
AcDbEntity
  8
AM_REFDIM
100
AcDbLine
 10
200.8753349300958
 20
151.0508093519615
 30
0.0
 11
200.8753349300958
 21
181.0446127824506
 31
0.0
  0
LINE
  5
5B7
330
2A2
100
AcDbEntity
  8
AM_REFDIM
100
AcDbLine
 10
175.8753349300958
 20
180.0446127824506
 30
0.0
 11
197.8753349300958
 21
180.0446127824506
 31
0.0
  0
SOLID
  5
5B8
330
2A2
100
AcDbEntity
  8
AM_REFDIM
100
AcDbTrace
 10
175.8753349300958
 20
180.5446127824506
 30
0.0
 11
175.8753349300958
 21
179.5446127824506
 31
0.0
 12
172.8753349300958
 22
180.0446127824506
 32
0.0
 13
172.8753349300958
 23
180.0446127824506
 33
0.0
  0
SOLID
  5
5B9
330
2A2
100
AcDbEntity
  8
AM_REFDIM
100
AcDbTrace
 10
197.8753349300958
 20
180.5446127824506
 30
0.0
 11
197.8753349300958
 21
179.5446127824506
 31
0.0
 12
200.8753349300958
 22
180.0446127824506
 32
0.0
 13
200.8753349300958
 23
180.0446127824506
 33
0.0
  0
MTEXT
  5
5BA
330
2A2
100
AcDbEntity
  8
AM_REFDIM
100
AcDbMText
 10
186.8753349300957
 20
182.7949572706396
 30
0.0
 40
3.5
 41
0.0
 71
     5
 72
     1
  1
28
 73
     1
 44
1.0
1001
ACAD
1000
MTEXTBEGIN
1070
    73
1070
     1
1070
    44
1040
1.0
1070
    74
1070
     0
1000
MTEXTEND
  0
POINT
  5
5BB
330
2A2
100
AcDbEntity
  8
Defpoints
 62
     0
100
AcDbPoint
 10
172.8753349300958
 20
150.0508093519615
 30
0.0
  0
POINT
  5
5BC
330
2A2
100
AcDbEntity
  8
Defpoints
 62
     0
100
AcDbPoint
 10
200.8753349300958
 20
150.0508093519615
 30
0.0
  0
POINT
  5
5BD
330
2A2
100
AcDbEntity
  8
Defpoints
 62
     0
100
AcDbPoint
 10
200.8753349300958
 20
180.0446127824506
 30
0.0
  0
ENDBLK
  5
2AD
330
2A2
100
AcDbEntity
  8
0
 62
     6
100
AcDbBlockEnd
  0
BLOCK
  5
313
330
309
100
AcDbEntity
  8
0
 62
     6
100
AcDbBlockBegin
  2
*D8
 70
     1
 10
0.0
 20
0.0
 30
0.0
  3
*D8
  1

  0
LINE
  5
5BE
330
309
100
AcDbEntity
  8
AM_REFDIM
100
AcDbLine
 10
109.7003862129732
 20
53.13173430767142
 30
0.0
 11
138.2003862229733
 21
53.13173430767141
 31
0.0
  0
LINE
  5
5BF
330
309
100
AcDbEntity
  8
AM_REFDIM
100
AcDbLine
 10
91.70038621297322
 20
162.1317343076714
 30
0.0
 11
138.2003862229733
 21
162.1317343076714
 31
0.0
  0
LINE
  5
5C0
330
309
100
AcDbEntity
  8
AM_REFDIM
100
AcDbLine
 10
137.2003862229733
 20
56.13173430767141
 30
0.0
 11
137.2003862229733
 21
159.1317343076714
 31
0.0
  0
SOLID
  5
5C1
330
309
100
AcDbEntity
  8
AM_REFDIM
100
AcDbTrace
 10
136.7003862229733
 20
56.13173430767141
 30
0.0
 11
137.7003862229733
 21
56.13173430767141
 31
0.0
 12
137.2003862229733
 22
53.13173430767141
 32
0.0
 13
137.2003862229733
 23
53.13173430767141
 33
0.0
  0
SOLID
  5
5C2
330
309
100
AcDbEntity
  8
AM_REFDIM
100
AcDbTrace
 10
136.7003862229733
 20
159.1317343076714
 30
0.0
 11
137.7003862229733
 21
159.1317343076714
 31
0.0
 12
137.2003862229733
 22
162.1317343076714
 32
0.0
 13
137.2003862229733
 23
162.1317343076714
 33
0.0
  0
MTEXT
  5
5C3
330
309
100
AcDbEntity
  8
AM_REFDIM
100
AcDbMText
 10
134.4503862229733
 20
107.6317343076714
 30
0.0
 40
3.5
 41
0.0
 71
     5
 72
     1
  1
109
 11
0.0000000000000001
 21
1.0
 31
0.0
 73
     1
 44
1.0
1001
ACAD
1000
MTEXTBEGIN
1070
    73
1070
     1
1070
    44
1040
1.0
1070
    74
1070
     0
1000
MTEXTEND
  0
POINT
  5
5C4
330
309
100
AcDbEntity
  8
Defpoints
 62
     0
100
AcDbPoint
 10
108.7003862129732
 20
53.13173430767142
 30
0.0
  0
POINT
  5
5C5
330
309
100
AcDbEntity
  8
Defpoints
 62
     0
100
AcDbPoint
 10
90.70038621297323
 20
162.1317343076714
 30
0.0
  0
POINT
  5
5C6
330
309
100
AcDbEntity
  8
Defpoints
 62
     0
100
AcDbPoint
 10
137.2003862229733
 20
162.1317343076714
 30
0.0
  0
ENDBLK
  5
314
330
309
100
AcDbEntity
  8
0
 62
     6
100
AcDbBlockEnd
  0
BLOCK
  5
328
330
31E
100
AcDbEntity
  8
0
 62
     6
100
AcDbBlockBegin
  2
*D9
 70
     1
 10
0.0
 20
0.0
 30
0.0
  3
*D9
  1

  0
LINE
  5
576
330
31E
100
AcDbEntity
  8
AM_REFDIM
100
AcDbLine
 10
170.8753349300958
 20
52.13173430767142
 30
0.0
 11
170.8753349300958
 21
40.13173430767142
 31
0.0
  0
LINE
  5
577
330
31E
100
AcDbEntity
  8
AM_REFDIM
100
AcDbLine
 10
202.8753349300958
 20
52.13173430767142
 30
0.0
 11
202.8753349300958
 21
40.13173430767142
 31
0.0
  0
LINE
  5
578
330
31E
100
AcDbEntity
  8
AM_REFDIM
100
AcDbLine
 10
173.8753349300958
 20
41.13173430767142
 30
0.0
 11
199.8753349300958
 21
41.13173430767142
 31
0.0
  0
SOLID
  5
579
330
31E
100
AcDbEntity
  8
AM_REFDIM
100
AcDbTrace
 10
173.8753349300958
 20
41.63173430767142
 30
0.0
 11
173.8753349300958
 21
40.63173430767142
 31
0.0
 12
170.8753349300958
 22
41.13173430767142
 32
0.0
 13
170.8753349300958
 23
41.13173430767142
 33
0.0
  0
SOLID
  5
57A
330
31E
100
AcDbEntity
  8
AM_REFDIM
100
AcDbTrace
 10
199.8753349300958
 20
41.63173430767142
 30
0.0
 11
199.8753349300958
 21
40.63173430767142
 31
0.0
 12
202.8753349300958
 22
41.13173430767142
 32
0.0
 13
202.8753349300958
 23
41.13173430767142
 33
0.0
  0
MTEXT
  5
57B
330
31E
100
AcDbEntity
  8
AM_REFDIM
100
AcDbMText
 10
186.8753349300957
 20
43.88207879586039
 30
0.0
 40
3.5
 41
0.0
 71
     5
 72
     1
  1
32
 73
     1
 44
1.0
1001
ACAD
1000
MTEXTBEGIN
1070
    73
1070
     1
1070
    44
1040
1.0
1070
    74
1070
     0
1000
MTEXTEND
  0
POINT
  5
57C
330
31E
100
AcDbEntity
  8
Defpoints
 62
     0
100
AcDbPoint
 10
170.8753349300958
 20
53.13173430767142
 30
0.0
  0
POINT
  5
57D
330
31E
100
AcDbEntity
  8
Defpoints
 62
     0
100
AcDbPoint
 10
202.8753349300958
 20
53.13173430767142
 30
0.0
  0
POINT
  5
57E
330
31E
100
AcDbEntity
  8
Defpoints
 62
     0
100
AcDbPoint
 10
202.8753349300958
 20
41.13173430767142
 30
0.0
  0
ENDBLK
  5
329
330
31E
100
AcDbEntity
  8
0
 62
     6
100
AcDbBlockEnd
  0
BLOCK
  5
3BC
330
3B2
100
AcDbEntity
  8
0
 62
     6
100
AcDbBlockBegin
  2
*D10
 70
     1
 10
0.0
 20
0.0
 30
0.0
  3
*D10
  1

  0
LINE
  5
5C7
330
3B2
100
AcDbEntity
  8
AM_REFDIM
100
AcDbLine
 10
71.70038621297322
 20
53.13173430767142
 30
0.0
 11
56.20038620297324
 21
53.13173430767142
 31
0.0
  0
LINE
  5
5C8
330
3B2
100
AcDbEntity
  8
AM_REFDIM
100
AcDbLine
 10
68.20038621297323
 20
103.1317343076714
 30
0.0
 11
56.20038620297325
 21
103.1317343076714
 31
0.0
  0
LINE
  5
5C9
330
3B2
100
AcDbEntity
  8
AM_REFDIM
100
AcDbLine
 10
57.20038620297324
 20
56.13173430767142
 30
0.0
 11
57.20038620297325
 21
100.1317343076714
 31
0.0
  0
SOLID
  5
5CA
330
3B2
100
AcDbEntity
  8
AM_REFDIM
100
AcDbTrace
 10
56.70038620297324
 20
56.13173430767142
 30
0.0
 11
57.70038620297324
 21
56.13173430767142
 31
0.0
 12
57.20038620297324
 22
53.13173430767142
 32
0.0
 13
57.20038620297324
 23
53.13173430767142
 33
0.0
  0
SOLID
  5
5CB
330
3B2
100
AcDbEntity
  8
AM_REFDIM
100
AcDbTrace
 10
56.70038620297325
 20
100.1317343076714
 30
0.0
 11
57.70038620297325
 21
100.1317343076714
 31
0.0
 12
57.20038620297325
 22
103.1317343076714
 32
0.0
 13
57.20038620297325
 23
103.1317343076714
 33
0.0
  0
MTEXT
  5
5CC
330
3B2
100
AcDbEntity
  8
AM_REFDIM
100
AcDbMText
 10
54.45038620297323
 20
78.13173430767143
 30
0.0
 40
3.5
 41
0.0
 71
     5
 72
     1
  1
50
 11
0.0000000000000001
 21
1.0
 31
0.0
 73
     1
 44
1.0
1001
ACAD
1000
MTEXTBEGIN
1070
    73
1070
     1
1070
    44
1040
1.0
1070
    74
1070
     0
1000
MTEXTEND
  0
POINT
  5
5CD
330
3B2
100
AcDbEntity
  8
Defpoints
 62
     0
100
AcDbPoint
 10
72.70038621297323
 20
53.13173430767142
 30
0.0
  0
POINT
  5
5CE
330
3B2
100
AcDbEntity
  8
Defpoints
 62
     0
100
AcDbPoint
 10
69.20038621297322
 20
103.1317343076714
 30
0.0
  0
POINT
  5
5CF
330
3B2
100
AcDbEntity
  8
Defpoints
 62
     0
100
AcDbPoint
 10
57.20038620297325
 20
103.1317343076714
 30
0.0
  0
ENDBLK
  5
3BD
330
3B2
100
AcDbEntity
  8
0
 62
     6
100
AcDbBlockEnd
  0
BLOCK
  5
3DB
330
3D1
100
AcDbEntity
  8
0
 62
     6
100
AcDbBlockBegin
  2
*D11
 70
     1
 10
0.0
 20
0.0
 30
0.0
  3
*D11
  1

  0
LINE
  5
56D
330
3D1
100
AcDbEntity
  8
AM_REFDIM
100
AcDbLine
 10
72.20038621297323
 20
52.63173430767142
 30
0.0
 11
72.20038621297323
 21
40.13173330767147
 31
0.0
  0
LINE
  5
56E
330
3D1
100
AcDbEntity
  8
AM_REFDIM
100
AcDbLine
 10
109.2003862129732
 20
52.63173430767142
 30
0.0
 11
109.2003862129732
 21
40.13173330767147
 31
0.0
  0
LINE
  5
56F
330
3D1
100
AcDbEntity
  8
AM_REFDIM
100
AcDbLine
 10
75.20038621297323
 20
41.13173330767148
 30
0.0
 11
106.2003862129732
 21
41.13173330767148
 31
0.0
  0
SOLID
  5
570
330
3D1
100
AcDbEntity
  8
AM_REFDIM
100
AcDbTrace
 10
75.20038621297323
 20
41.63173330767148
 30
0.0
 11
75.20038621297323
 21
40.63173330767148
 31
0.0
 12
72.20038621297323
 22
41.13173330767148
 32
0.0
 13
72.20038621297323
 23
41.13173330767148
 33
0.0
  0
SOLID
  5
571
330
3D1
100
AcDbEntity
  8
AM_REFDIM
100
AcDbTrace
 10
106.2003862129732
 20
41.63173330767148
 30
0.0
 11
106.2003862129732
 21
40.63173330767148
 31
0.0
 12
109.2003862129732
 22
41.13173330767148
 32
0.0
 13
109.2003862129732
 23
41.13173330767148
 33
0.0
  0
MTEXT
  5
572
330
3D1
100
AcDbEntity
  8
AM_REFDIM
100
AcDbMText
 10
90.70038621297323
 20
43.88173330767147
 30
0.0
 40
3.5
 41
0.0
 71
     5
 72
     1
  1
37
 73
     1
 44
1.0
1001
ACAD
1000
MTEXTBEGIN
1070
    73
1070
     1
1070
    44
1040
1.0
1070
    74
1070
     0
1000
MTEXTEND
  0
POINT
  5
573
330
3D1
100
AcDbEntity
  8
Defpoints
 62
     0
100
AcDbPoint
 10
72.20038621297323
 20
53.63173430767142
 30
0.0
  0
POINT
  5
574
330
3D1
100
AcDbEntity
  8
Defpoints
 62
     0
100
AcDbPoint
 10
109.2003862129732
 20
53.63173430767142
 30
0.0
  0
POINT
  5
575
330
3D1
100
AcDbEntity
  8
Defpoints
 62
     0
100
AcDbPoint
 10
109.2003862129732
 20
41.13173330767148
 30
0.0
  0
ENDBLK
  5
3DC
330
3D1
100
AcDbEntity
  8
0
 62
     6
100
AcDbBlockEnd
  0
BLOCK
  5
4C3
330
4B9
100
AcDbEntity
  8
0
 62
     6
100
AcDbBlockBegin
  2
*D12
 70
     1
 10
0.0
 20
0.0
 30
0.0
  3
*D12
  1

  0
LINE
  5
55B
330
4B9
100
AcDbEntity
  8
AM_REFDIM
100
AcDbLine
 10
109.7003862129732
 20
53.13173430767142
 30
0.0
 11
122.2003862229732
 21
53.13173430767141
 31
0.0
  0
LINE
  5
55C
330
4B9
100
AcDbEntity
  8
AM_REFDIM
100
AcDbLine
 10
109.7003862129732
 20
65.13173430767142
 30
0.0
 11
122.2003862229732
 21
65.13173430767142
 31
0.0
  0
LINE
  5
55D
330
4B9
100
AcDbEntity
  8
AM_REFDIM
100
AcDbLine
 10
121.2003862229732
 20
56.13173430767141
 30
0.0
 11
121.2003862229732
 21
62.13173430767142
 31
0.0
  0
SOLID
  5
55E
330
4B9
100
AcDbEntity
  8
AM_REFDIM
100
AcDbTrace
 10
120.7003862229732
 20
56.13173430767141
 30
0.0
 11
121.7003862229732
 21
56.13173430767141
 31
0.0
 12
121.2003862229732
 22
53.13173430767141
 32
0.0
 13
121.2003862229732
 23
53.13173430767141
 33
0.0
  0
SOLID
  5
55F
330
4B9
100
AcDbEntity
  8
AM_REFDIM
100
AcDbTrace
 10
120.7003862229732
 20
62.13173430767142
 30
0.0
 11
121.7003862229732
 21
62.13173430767142
 31
0.0
 12
121.2003862229732
 22
65.13173430767142
 32
0.0
 13
121.2003862229732
 23
65.13173430767142
 33
0.0
  0
MTEXT
  5
560
330
4B9
100
AcDbEntity
  8
AM_REFDIM
100
AcDbMText
 10
118.4500417347842
 20
59.13173430767145
 30
0.0
 40
3.5
 41
0.0
 71
     5
 72
     1
  1
12
 11
0.0000000000000001
 21
1.0
 31
0.0
 73
     1
 44
1.0
1001
ACAD
1000
MTEXTBEGIN
1070
    73
1070
     1
1070
    44
1040
1.0
1070
    74
1070
     0
1000
MTEXTEND
  0
POINT
  5
561
330
4B9
100
AcDbEntity
  8
Defpoints
 62
     0
100
AcDbPoint
 10
108.7003862129732
 20
53.13173430767142
 30
0.0
  0
POINT
  5
562
330
4B9
100
AcDbEntity
  8
Defpoints
 62
     0
100
AcDbPoint
 10
108.7003862129732
 20
65.13173430767142
 30
0.0
  0
POINT
  5
563
330
4B9
100
AcDbEntity
  8
Defpoints
 62
     0
100
AcDbPoint
 10
121.2003862229732
 20
65.13173430767142
 30
0.0
  0
ENDBLK
  5
4C4
330
4B9
100
AcDbEntity
  8
0
 62
     6
100
AcDbBlockEnd
  0
BLOCK
  5
4CF
330
4C5
100
AcDbEntity
  8
0
 62
     6
100
AcDbBlockBegin
  2
*D13
 70
     1
 10
0.0
 20
0.0
 30
0.0
  3
*D13
  1

  0
LINE
  5
564
330
4C5
100
AcDbEntity
  8
AM_REFDIM
100
AcDbLine
 10
109.7003862129732
 20
53.13173430767142
 30
0.0
 11
130.2003862229732
 21
53.13173430767141
 31
0.0
  0
LINE
  5
565
330
4C5
100
AcDbEntity
  8
AM_REFDIM
100
AcDbLine
 10
105.7003862129732
 20
137.1317343076714
 30
0.0
 11
130.2003862229733
 21
137.1317343076714
 31
0.0
  0
LINE
  5
566
330
4C5
100
AcDbEntity
  8
AM_REFDIM
100
AcDbLine
 10
129.2003862229732
 20
56.13173430767141
 30
0.0
 11
129.2003862229733
 21
134.1317343076714
 31
0.0
  0
SOLID
  5
567
330
4C5
100
AcDbEntity
  8
AM_REFDIM
100
AcDbTrace
 10
128.7003862229732
 20
56.13173430767141
 30
0.0
 11
129.7003862229732
 21
56.13173430767141
 31
0.0
 12
129.2003862229732
 22
53.13173430767141
 32
0.0
 13
129.2003862229732
 23
53.13173430767141
 33
0.0
  0
SOLID
  5
568
330
4C5
100
AcDbEntity
  8
AM_REFDIM
100
AcDbTrace
 10
128.7003862229733
 20
134.1317343076714
 30
0.0
 11
129.7003862229733
 21
134.1317343076714
 31
0.0
 12
129.2003862229733
 22
137.1317343076714
 32
0.0
 13
129.2003862229733
 23
137.1317343076714
 33
0.0
  0
MTEXT
  5
569
330
4C5
100
AcDbEntity
  8
AM_REFDIM
100
AcDbMText
 10
126.4503862229732
 20
95.13173430767144
 30
0.0
 40
3.5
 41
0.0
 71
     5
 72
     1
  1
84
 11
0.0000000000000001
 21
1.0
 31
0.0
 73
     1
 44
1.0
1001
ACAD
1000
MTEXTBEGIN
1070
    73
1070
     1
1070
    44
1040
1.0
1070
    74
1070
     0
1000
MTEXTEND
  0
POINT
  5
56A
330
4C5
100
AcDbEntity
  8
Defpoints
 62
     0
100
AcDbPoint
 10
108.7003862129732
 20
53.13173430767142
 30
0.0
  0
POINT
  5
56B
330
4C5
100
AcDbEntity
  8
Defpoints
 62
     0
100
AcDbPoint
 10
104.7003862129732
 20
137.1317343076714
 30
0.0
  0
POINT
  5
56C
330
4C5
100
AcDbEntity
  8
Defpoints
 62
     0
100
AcDbPoint
 10
129.2003862229733
 20
137.1317343076714
 30
0.0
  0
ENDBLK
  5
4D0
330
4C5
100
AcDbEntity
  8
0
 62
     6
100
AcDbBlockEnd
  0
ENDSEC
  0
SECTION
  2
ENTITIES
  0
LINE
  5
37
330
E
100
AcDbEntity
 67
     1
  8
AM_7
100
AcDbLine
 10
90.70038621297323
 20
133.9800460876466
 30
0.0
 11
90.70038621297323
 21
83.55773098788494
 31
0.0
  0
LINE
  5
3A
330
E
100
AcDbEntity
 67
     1
  8
AM_7
100
AcDbLine
 10
78.70038621297323
 20
103.1317343076714
 30
0.0
 11
69.20038621297322
 21
103.1317343076714
 31
0.0
  0
LINE
  5
3B
330
E
100
AcDbEntity
 67
     1
  8
AM_7
100
AcDbLine
 10
90.70038621297323
 20
137.1317343076714
 30
0.0
 11
90.70038621297323
 21
137.1317343076714
 31
0.0
  0
LINE
  5
3C
330
E
100
AcDbEntity
 67
     1
  8
AM_7
100
AcDbLine
 10
90.70038621297323
 20
137.1317343076714
 30
0.0
 11
90.70038621297323
 21
137.1317343076714
 31
0.0
  0
LINE
  5
3D
330
E
100
AcDbEntity
 67
     1
  8
AM_7
100
AcDbLine
 10
76.70038621297322
 20
137.1317343076714
 30
0.0
 11
90.70038621297323
 21
137.1317343076714
 31
0.0
  0
LINE
  5
3E
330
E
100
AcDbEntity
 67
     1
  8
AM_7
100
AcDbLine
 10
90.70038621297323
 20
137.1317343076714
 30
0.0
 11
104.7003862129732
 21
137.1317343076714
 31
0.0
  0
LINE
  5
3F
330
E
100
AcDbEntity
 67
     1
  8
AM_7
100
AcDbLine
 10
90.70038621297323
 20
123.1317343076714
 30
0.0
 11
90.70038621297323
 21
137.1317343076714
 31
0.0
  0
LINE
  5
40
330
E
100
AcDbEntity
 67
     1
  8
AM_7
100
AcDbLine
 10
90.70038621297323
 20
137.1317343076714
 30
0.0
 11
90.70038621297323
 21
151.1317343076714
 31
0.0
  0
LINE
  5
41
330
E
100
AcDbEntity
 67
     1
  8
AM_7
100
AcDbLine
 10
186.8753349300957
 20
133.9800460876466
 30
0.0
 11
186.8753349300957
 21
50.13173430767142
 31
0.0
  0
DIMENSION
  5
42
330
E
100
AcDbEntity
 67
     1
  8
AM_REFDIM
100
AcDbDimension
  2
*D12
 10
121.2003862229732
 20
65.13173430767142
 30
0.0
 11
118.4500417347842
 21
59.13173430767145
 31
0.0
 70
    32
 71
     5
 42
12.00000000000001
  3
AM_ISO$0
100
AcDbAlignedDimension
 13
108.7003862129732
 23
53.13173430767142
 33
0.0
 14
108.7003862129732
 24
65.13173430767142
 34
0.0
 50
90.0
100
AcDbRotatedDimension
1001
ACAD
1000
DSTYLE
1002
{
1070
   272
1070
     8
1002
}
  0
DIMENSION
  5
52
330
E
100
AcDbEntity
 67
     1
  8
AM_REFDIM
100
AcDbDimension
  2
*D13
 10
129.2003862229733
 20
137.1317343076714
 30
0.0
 11
126.4503862229732
 21
95.13173430767144
 31
0.0
 70
    32
 71
     5
 42
84.0
  3
AM_ISO$0
100
AcDbAlignedDimension
 13
108.7003862129732
 23
53.13173430767142
 33
0.0
 14
104.7003862129732
 24
137.1317343076714
 34
0.0
 50
90.0
100
AcDbRotatedDimension
  0
DIMENSION
  5
5F
330
E
100
AcDbEntity
 67
     1
  8
AM_REFDIM
100
AcDbDimension
  2
*D11
 10
109.2003862129732
 20
41.13173330767148
 30
0.0
 11
90.70038621297323
 21
43.88173330767147
 31
0.0
 70
    32
 71
     5
 42
37.0
  3
AM_ISO$0
100
AcDbAlignedDimension
 13
72.20038621297323
 23
53.63173430767142
 33
0.0
 14
109.2003862129732
 24
53.63173430767142
 34
0.0
100
AcDbRotatedDimension
  0
DIMENSION
  5
6C
330
E
100
AcDbEntity
 67
     1
  8
AM_REFDIM
100
AcDbDimension
  2
*D9
 10
202.8753349300958
 20
41.13173430767142
 30
0.0
 11
186.8753349300957
 21
43.88207879586039
 31
0.0
 70
    32
 71
     5
 42
32.0
  3
AM_ISO$0
100
AcDbAlignedDimension
 13
170.8753349300958
 23
53.13173430767142
 33
0.0
 14
202.8753349300958
 24
53.13173430767142
 34
0.0
100
AcDbRotatedDimension
1001
ACAD
1000
DSTYLE
1002
{
1070
   272
1070
     8
1002
}
  0
LINE
  5
79
330
E
100
AcDbEntity
 67
     1
  8
AM_7
100
AcDbLine
 10
169.8753349300958
 20
137.1317343076714
 30
0.0
 11
203.8753349300958
 21
137.1317343076714
 31
0.0
  0
LINE
  5
7A
330
E
100
AcDbEntity
 67
     1
  8
AM_7
100
AcDbLine
 10
186.8753349300957
 20
103.1317343076714
 30
0.0
 11
186.8753349300957
 21
103.1317343076714
 31
0.0
  0
LINE
  5
7B
330
E
100
AcDbEntity
 67
     1
  8
AM_7
100
AcDbLine
 10
186.8753349300957
 20
103.1317343076714
 30
0.0
 11
186.8753349300957
 21
103.1317343076714
 31
0.0
  0
LINE
  5
7C
330
E
100
AcDbEntity
 67
     1
  8
AM_7
100
AcDbLine
 10
181.3753349300958
 20
103.1317343076714
 30
0.0
 11
186.8753349300957
 21
103.1317343076714
 31
0.0
  0
LINE
  5
7D
330
E
100
AcDbEntity
 67
     1
  8
AM_7
100
AcDbLine
 10
186.8753349300957
 20
103.1317343076714
 30
0.0
 11
192.3753349300958
 21
103.1317343076714
 31
0.0
  0
LINE
  5
7E
330
E
100
AcDbEntity
 67
     1
  8
AM_7
100
AcDbLine
 10
186.8753349300957
 20
97.63173430767142
 30
0.0
 11
186.8753349300957
 21
103.1317343076714
 31
0.0
  0
LINE
  5
7F
330
E
100
AcDbEntity
 67
     1
  8
AM_7
100
AcDbLine
 10
186.8753349300957
 20
103.1317343076714
 30
0.0
 11
186.8753349300957
 21
108.6317343076714
 31
0.0
  0
LINE
  5
80
330
E
100
AcDbEntity
 67
     1
  8
AM_4
  6
AM_ISO02W050
100
AcDbLine
 10
198.0783349300958
 20
53.13173430767142
 30
0.0
 11
198.0783349300958
 21
96.13173430767142
 31
0.0
  0
LINE
  5
83
330
E
100
AcDbEntity
 67
     1
  8
AM_4
  6
AM_ISO02W050
100
AcDbLine
 10
175.6723349300957
 20
53.13173430767142
 30
0.0
 11
175.6723349300957
 21
96.13173430767142
 31
0.0
  0
LINE
  5
84
330
E
100
AcDbEntity
 67
     1
  8
AM_4
  6
AM_ISO02W050
100
AcDbLine
 10
198.0783349300958
 20
96.13173430767142
 30
0.0
 11
175.6723349300957
 21
96.13173430767142
 31
0.0
  0
LINE
  5
85
330
E
100
AcDbEntity
 67
     1
  8
AM_VIS
100
AcDbLine
 10
98.9465974642086
 20
53.13173430767142
 30
0.0
 11
82.45417496173791
 21
53.13173430767142
 31
0.0
  0
LINE
  5
87
330
E
100
AcDbEntity
 67
     1
  8
AM_VIS
100
AcDbLine
 10
81.41186244023726
 20
53.62874650749034
 30
0.0
 11
82.45263977428157
 21
53.12854005001213
 31
0.0
  0
LINE
  5
88
330
E
100
AcDbEntity
 67
     1
  8
AM_VIS
100
AcDbLine
 10
81.41329840246987
 20
53.63173430767142
 30
0.0
 11
81.41329840246987
 21
64.63173430767142
 31
0.0
  0
LINE
  5
89
330
E
100
AcDbEntity
 67
     1
  8
AM_VIS
100
AcDbLine
 10
81.41186244023726
 20
64.63472210785255
 30
0.0
 11
82.45263977428157
 21
65.13492856533076
 31
0.0
  0
LINE
  5
8A
330
E
100
AcDbEntity
 67
     1
  8
AM_VIS
100
AcDbLine
 10
82.45417496173791
 20
65.13173430767142
 30
0.0
 11
98.94659746420854
 21
65.13173430767142
 31
0.0
  0
LINE
  5
8B
330
E
100
AcDbEntity
 67
     1
  8
AM_VIS
100
AcDbLine
 10
98.94813265166488
 20
65.13492856533076
 30
0.0
 11
99.98890998570921
 21
64.63472210785255
 31
0.0
  0
LINE
  5
8C
330
E
100
AcDbEntity
 67
     1
  8
AM_VIS
100
AcDbLine
 10
99.98747402347659
 20
64.63173430767142
 30
0.0
 11
99.98747402347659
 21
53.63173430767142
 31
0.0
  0
LINE
  5
8D
330
E
100
AcDbEntity
 67
     1
  8
AM_VIS
100
AcDbLine
 10
98.94813265166488
 20
53.12854005001213
 30
0.0
 11
99.98890998570921
 21
53.62874650749034
 31
0.0
  0
SPLINE
  5
8E
330
E
100
AcDbEntity
 67
     1
  8
AM_VIS
100
AcDbSpline
210
0.0
220
0.0
230
1.0
 70
    12
 71
     2
 72
     6
 73
     3
 74
     0
 42
0.0000000001
 43
0.0000000001
 40
0.0
 40
0.0
 40
0.0
 40
25.3157042690647
 40
25.3157042690647
 40
25.3157042690647
 10
79.52004632547428
 20
108.1317343076714
 30
0.0
 41
1.0
 10
75.35578870993211
 20
115.8140434489701
 30
0.0
 41
1.040916573142904
 10
68.62875890451204
 20
130.9800460876466
 30
0.0
 41
1.0
  0
SPLINE
  5
8F
330
E
100
AcDbEntity
 67
     1
  8
AM_VIS
100
AcDbSpline
210
0.0
220
0.0
230
1.0
 70
    12
 71
     2
 72
     6
 73
     3
 74
     0
 42
0.0000000001
 43
0.0000000001
 40
0.0
 40
0.0
 40
0.0
 40
25.3157042690647
 40
25.3157042690647
 40
25.3157042690647
 10
112.7720135214344
 20
130.9800460876466
 30
0.0
 41
1.0
 10
106.044983716014
 20
115.8140434489696
 30
0.0
 41
1.040916573142932
 10
101.8807261004722
 20
108.1317343076714
 30
0.0
 41
1.0
  0
LINE
  5
90
330
E
100
AcDbEntity
 67
     1
  8
AM_VIS
100
AcDbLine
 10
101.8807261004722
 20
108.1317343076714
 30
0.0
 11
79.52004632547425
 21
108.1317343076714
 31
0.0
  0
ELLIPSE
  5
91
330
E
100
AcDbEntity
 67
     1
  8
AM_VIS
100
AcDbEllipse
 10
90.70038621297323
 20
125.4522423833603
 30
0.0
 11
-0.0000000000000018
 21
-25.9807621135332
 31
0.0
210
0.0
220
0.0
230
1.0
 40
0.577350269189625
 41
5.442116636611656
 42
7.124253977747516
  0
LINE
  5
92
330
E
100
AcDbEntity
 67
     1
  8
AM_VIS
100
AcDbLine
 10
108.7003862129732
 20
65.13173430767142
 30
0.0
 11
109.2003862129732
 21
64.63173430767142
 31
0.0
  0
LINE
  5
93
330
E
100
AcDbEntity
 67
     1
  8
AM_VIS
100
AcDbLine
 10
109.2003862129732
 20
64.63173430767142
 30
0.0
 11
109.2003862129732
 21
53.63173430767142
 31
0.0
  0
LINE
  5
94
330
E
100
AcDbEntity
 67
     1
  8
AM_VIS
100
AcDbLine
 10
108.7003862129732
 20
53.13173430767142
 30
0.0
 11
109.2003862129732
 21
53.63173430767142
 31
0.0
  0
LINE
  5
95
330
E
100
AcDbEntity
 67
     1
  8
AM_VIS
100
AcDbLine
 10
72.70038621297323
 20
65.13173430767142
 30
0.0
 11
72.20038621297323
 21
64.63173430767142
 31
0.0
  0
LINE
  5
96
330
E
100
AcDbEntity
 67
     1
  8
AM_VIS
100
AcDbLine
 10
72.20038621297323
 20
64.63173430767142
 30
0.0
 11
72.20038621297323
 21
53.63173430767142
 31
0.0
  0
LINE
  5
97
330
E
100
AcDbEntity
 67
     1
  8
AM_VIS
100
AcDbLine
 10
72.70038621297323
 20
53.13173430767142
 30
0.0
 11
72.20038621297323
 21
53.63173430767142
 31
0.0
  0
LINE
  5
98
330
E
100
AcDbEntity
 67
     1
  8
AM_VIS
100
AcDbLine
 10
105.7003862129732
 20
108.1317343076714
 30
0.0
 11
114.9317033881416
 21
130.9800460876466
 31
0.0
  0
LINE
  5
99
330
E
100
AcDbEntity
 67
     1
  8
AM_VIS
100
AcDbLine
 10
75.70038621297323
 20
108.1317343076714
 30
0.0
 11
66.46906903780484
 21
130.9800460876466
 31
0.0
  0
LINE
  5
9A
330
E
100
AcDbEntity
 67
     1
  8
AM_VIS
100
AcDbLine
 10
105.7003862129732
 20
65.13173430767142
 30
0.0
 11
105.7003862129732
 21
108.1317343076714
 31
0.0
  0
LINE
  5
9B
330
E
100
AcDbEntity
 67
     1
  8
AM_VIS
100
AcDbLine
 10
75.70038621297323
 20
65.13173430767142
 30
0.0
 11
75.70038621297323
 21
100.6317343076714
 31
0.0
  0
LINE
  5
9C
330
E
100
AcDbEntity
 67
     1
  8
AM_VIS
100
AcDbLine
 10
75.70038621297323
 20
105.6317343076714
 30
0.0
 11
75.70038621297323
 21
108.1317343076714
 31
0.0
  0
LINE
  5
9D
330
E
100
AcDbEntity
 67
     1
  8
AM_VIS
100
AcDbLine
 10
75.70038621297323
 20
105.6317343076714
 30
0.0
 11
74.20038621297322
 21
105.6317343076714
 31
0.0
  0
LINE
  5
9E
330
E
100
AcDbEntity
 67
     1
  8
AM_VIS
100
AcDbLine
 10
75.70038621297323
 20
100.6317343076714
 30
0.0
 11
74.20038621297322
 21
100.6317343076714
 31
0.0
  0
LINE
  5
9F
330
E
100
AcDbEntity
 67
     1
  8
AM_VIS
100
AcDbLine
 10
74.20038621297322
 20
104.8817343076714
 30
0.0
 11
72.20038621297323
 21
104.8817343076714
 31
0.0
  0
LINE
  5
A0
330
E
100
AcDbEntity
 67
     1
  8
AM_VIS
100
AcDbLine
 10
74.20038621297322
 20
101.3817343076714
 30
0.0
 11
72.20038621297323
 21
101.3817343076714
 31
0.0
  0
LINE
  5
A1
330
E
100
AcDbEntity
 67
     1
  8
AM_VIS
100
AcDbLine
 10
109.2003862129732
 20
64.63173430767142
 30
0.0
 11
99.98747402347659
 21
64.63173430767142
 31
0.0
  0
LINE
  5
A2
330
E
100
AcDbEntity
 67
     1
  8
AM_VIS
100
AcDbLine
 10
99.98747402347659
 20
53.63173430767142
 30
0.0
 11
109.2003862129732
 21
53.63173430767142
 31
0.0
  0
LINE
  5
A3
330
E
100
AcDbEntity
 67
     1
  8
AM_VIS
100
AcDbLine
 10
98.94659746420854
 20
65.13173430767142
 30
0.0
 11
108.7003862129732
 21
65.13173430767142
 31
0.0
  0
LINE
  5
A4
330
E
100
AcDbEntity
 67
     1
  8
AM_VIS
100
AcDbLine
 10
72.70038621297323
 20
65.13173430767142
 30
0.0
 11
82.45417496173791
 21
65.13173430767142
 31
0.0
  0
LINE
  5
A5
330
E
100
AcDbEntity
 67
     1
  8
AM_VIS
100
AcDbLine
 10
81.41329840246987
 20
64.63173430767142
 30
0.0
 11
72.20038621297323
 21
64.63173430767142
 31
0.0
  0
LINE
  5
A6
330
E
100
AcDbEntity
 67
     1
  8
AM_VIS
100
AcDbLine
 10
72.20038621297323
 20
53.63173430767142
 30
0.0
 11
81.41329840246987
 21
53.63173430767142
 31
0.0
  0
LINE
  5
A7
330
E
100
AcDbEntity
 67
     1
  8
AM_VIS
100
AcDbLine
 10
108.7003862129732
 20
53.13173430767142
 30
0.0
 11
98.9465974642086
 21
53.13173430767142
 31
0.0
  0
LINE
  5
A8
330
E
100
AcDbEntity
 67
     1
  8
AM_VIS
100
AcDbLine
 10
82.45417496173786
 20
53.13173430767142
 30
0.0
 11
72.70038621297323
 21
53.13173430767142
 31
0.0
  0
LINE
  5
A9
330
E
100
AcDbEntity
 67
     1
  8
AM_VIS
100
AcDbLine
 10
112.7720135214343
 20
130.9800460876466
 30
0.0
 11
114.9317033881415
 21
130.9800460876466
 31
0.0
  0
LINE
  5
AA
330
E
100
AcDbEntity
 67
     1
  8
AM_VIS
100
AcDbLine
 10
66.46906903780484
 20
130.9800460876466
 30
0.0
 11
68.6287589045121
 21
130.9800460876466
 31
0.0
  0
LINE
  5
AB
330
E
100
AcDbEntity
 67
     1
  8
AM_VIS
100
AcDbLine
 10
101.8807261004722
 20
108.1317343076714
 30
0.0
 11
105.7003862129732
 21
108.1317343076714
 31
0.0
  0
LINE
  5
AC
330
E
100
AcDbEntity
 67
     1
  8
AM_VIS
100
AcDbLine
 10
75.70038621297323
 20
108.1317343076714
 30
0.0
 11
79.52004632547425
 21
108.1317343076714
 31
0.0
  0
ARC
  5
AD
330
E
100
AcDbEntity
 67
     1
  8
AM_VIS
100
AcDbCircle
 10
90.70038621297323
 20
137.1317343076714
 30
0.0
 40
22.9128784747792
100
AcDbArc
 50
344.4260617803139
 51
195.5739382196861
  0
CIRCLE
  5
AE
330
E
100
AcDbEntity
 67
     1
  8
AM_VIS
100
AcDbCircle
 10
90.70038621297323
 20
137.1317343076714
 30
0.0
 40
16.21426840779441
  0
CIRCLE
  5
AF
330
E
100
AcDbEntity
 67
     1
  8
AM_VIS
100
AcDbCircle
 10
90.70038621297323
 20
137.1317343076714
 30
0.0
 40
12.91907504429012
  0
CIRCLE
  5
B0
330
E
100
AcDbEntity
 67
     1
  8
AM_VIS
100
AcDbCircle
 10
90.70038621297323
 20
137.1317343076714
 30
0.0
 40
11.0
  0
LINE
  5
B1
330
E
100
AcDbEntity
 67
     1
  8
AM_VIS
100
AcDbLine
 10
75.70038621297323
 20
105.6317343076714
 30
0.0
 11
75.70038621297323
 21
100.6317343076714
 31
0.0
  0
LINE
  5
B2
330
E
100
AcDbEntity
 67
     1
  8
AM_VIS
100
AcDbLine
 10
74.20038621297322
 20
100.6317343076714
 30
0.0
 11
74.20038621297322
 21
105.6317343076714
 31
0.0
  0
LINE
  5
B3
330
E
100
AcDbEntity
 67
     1
  8
AM_VIS
100
AcDbLine
 10
71.20038621297323
 20
102.3817343076714
 30
0.0
 11
71.20038621297323
 21
103.8817343076714
 31
0.0
  0
ARC
  5
B4
330
E
100
AcDbEntity
 67
     1
  8
AM_VIS
100
AcDbCircle
 10
90.70038621297323
 20
137.1317343076714
 30
0.0
 40
25.00000000000001
100
AcDbArc
 50
345.7550698683268
 51
194.2449301316731
  0
ARC
  5
B5
330
E
100
AcDbEntity
 67
     1
  8
AM_VIS
100
AcDbCircle
 10
72.20038621297323
 20
103.8817343076714
 30
0.0
 40
1.0
100
AcDbArc
 50
90.0
 51
180.0
  0
ARC
  5
B6
330
E
100
AcDbEntity
 67
     1
  8
AM_VIS
100
AcDbCircle
 10
72.20038621297323
 20
102.3817343076714
 30
0.0
 40
1.0
100
AcDbArc
 50
180.0
 51
270.0
  0
LINE
  5
B7
330
E
100
AcDbEntity
 67
     1
  8
AM_VIS
100
AcDbLine
 10
202.8753349300958
 20
53.63173430767142
 30
0.0
 11
202.8753349300958
 21
53.13173430767142
 31
0.0
  0
LINE
  5
B8
330
E
100
AcDbEntity
 67
     1
  8
AM_VIS
100
AcDbLine
 10
202.8753349300958
 20
53.63173430767142
 30
0.0
 11
202.8753349300958
 21
64.63173430767142
 31
0.0
  0
LINE
  5
B9
330
E
100
AcDbEntity
 67
     1
  8
AM_VIS
100
AcDbLine
 10
202.8753349300958
 20
65.13173430767142
 30
0.0
 11
202.8753349300958
 21
64.63173430767142
 31
0.0
  0
LINE
  5
BA
330
E
100
AcDbEntity
 67
     1
  8
AM_VIS
100
AcDbLine
 10
170.8753349300958
 20
65.13173430767142
 30
0.0
 11
170.8753349300958
 21
64.63173430767142
 31
0.0
  0
LINE
  5
BB
330
E
100
AcDbEntity
 67
     1
  8
AM_VIS
100
AcDbLine
 10
170.8753349300958
 20
64.63173430767142
 30
0.0
 11
170.8753349300958
 21
53.63173430767142
 31
0.0
  0
LINE
  5
BC
330
E
100
AcDbEntity
 67
     1
  8
AM_VIS
100
AcDbLine
 10
170.8753349300958
 20
53.63173430767142
 30
0.0
 11
170.8753349300958
 21
53.13173430767142
 31
0.0
  0
LINE
  5
BD
330
E
100
AcDbEntity
 67
     1
  8
AM_VIS
100
AcDbLine
 10
196.8753349300958
 20
130.9800460876466
 30
0.0
 11
196.8753349300958
 21
108.1317343076714
 31
0.0
  0
LINE
  5
BE
330
E
100
AcDbEntity
 67
     1
  8
AM_VIS
100
AcDbLine
 10
196.8753349300958
 20
108.1317343076714
 30
0.0
 11
201.8753349300958
 21
99.47148026982706
 31
0.0
  0
LINE
  5
BF
330
E
100
AcDbEntity
 67
     1
  8
AM_VIS
100
AcDbLine
 10
176.8753349300958
 20
130.9800460876466
 30
0.0
 11
176.8753349300958
 21
108.1317343076714
 31
0.0
  0
LINE
  5
C0
330
E
100
AcDbEntity
 67
     1
  8
AM_VIS
100
AcDbLine
 10
171.8753349300958
 20
99.47148026982706
 30
0.0
 11
176.8753349300958
 21
108.1317343076714
 31
0.0
  0
LINE
  5
C1
330
E
100
AcDbEntity
 67
     1
  8
AM_HID
100
AcDbLine
 10
186.8753349300957
 20
100.6317343076714
 30
0.0
 11
186.8753349300957
 21
105.6317343076714
 31
0.0
  0
LINE
  5
C4
330
E
100
AcDbEntity
 67
     1
  8
AM_VIS
100
AcDbLine
 10
201.8753349300958
 20
65.13173430767142
 30
0.0
 11
201.8753349300958
 21
99.47148026982706
 31
0.0
  0
LINE
  5
C5
330
E
100
AcDbEntity
 67
     1
  8
AM_VIS
100
AcDbLine
 10
171.8753349300958
 20
65.13173430767142
 30
0.0
 11
171.8753349300958
 21
99.47148026982706
 31
0.0
  0
LINE
  5
C6
330
E
100
AcDbEntity
 67
     1
  8
AM_HID
100
AcDbLine
 10
172.8753349300958
 20
126.1317343076714
 30
0.0
 11
200.8753349300958
 21
126.1317343076714
 31
0.0
  0
LINE
  5
C7
330
E
100
AcDbEntity
 67
     1
  8
AM_HID
100
AcDbLine
 10
172.8753349300958
 20
148.1317343076714
 30
0.0
 11
200.8753349300958
 21
148.1317343076714
 31
0.0
  0
LINE
  5
C8
330
E
100
AcDbEntity
 67
     1
  8
AM_HID
100
AcDbLine
 10
197.2133349300958
 20
53.29373430767145
 30
0.0
 11
197.2133349300958
 21
99.13173430767143
 31
0.0
  0
LINE
  5
C9
330
E
100
AcDbEntity
 67
     1
  8
AM_HID
100
AcDbLine
 10
176.5373349300958
 20
53.29373430767145
 30
0.0
 11
176.5373349300958
 21
99.13173430767143
 31
0.0
  0
LINE
  5
CA
330
E
100
AcDbEntity
 67
     1
  8
AM_HID
100
AcDbLine
 10
176.5373349300958
 20
53.29373430767145
 30
0.0
 11
176.3753349300958
 21
53.13173430767142
 31
0.0
  0
LINE
  5
CB
330
E
100
AcDbEntity
 67
     1
  8
AM_HID
100
AcDbLine
 10
197.2133349300958
 20
53.29373430767145
 30
0.0
 11
197.3753349300958
 21
53.13173430767142
 31
0.0
  0
LINE
  5
CC
330
E
100
AcDbEntity
 67
     1
  8
AM_HID
100
AcDbLine
 10
185.8753349300958
 20
104.7425707681508
 30
0.0
 11
176.5373349300958
 21
99.13173430767143
 31
0.0
  0
LINE
  5
CD
330
E
100
AcDbEntity
 67
     1
  8
AM_HID
100
AcDbLine
 10
187.8753349300957
 20
104.7425707681508
 30
0.0
 11
197.2133349300958
 21
99.13173430767143
 31
0.0
  0
LINE
  5
CE
330
E
100
AcDbEntity
 67
     1
  8
AM_HID
100
AcDbLine
 10
187.8753349300957
 20
104.7425707681508
 30
0.0
 11
187.8753349300957
 21
121.1317343076714
 31
0.0
  0
LINE
  5
CF
330
E
100
AcDbEntity
 67
     1
  8
AM_HID
100
AcDbLine
 10
185.8753349300958
 20
104.7425707681508
 30
0.0
 11
185.8753349300958
 21
121.1317343076714
 31
0.0
  0
LINE
  5
D0
330
E
100
AcDbEntity
 67
     1
  8
AM_HID
100
AcDbLine
 10
186.8753349300957
 20
121.732594926699
 30
0.0
 11
185.8753349300958
 21
121.1317343076715
 31
0.0
  0
LINE
  5
D1
330
E
100
AcDbEntity
 67
     1
  8
AM_HID
100
AcDbLine
 10
186.8753349300957
 20
121.732594926699
 30
0.0
 11
187.8753349300957
 21
121.1317343076715
 31
0.0
  0
LINE
  5
D2
330
E
100
AcDbEntity
 67
     1
  8
AM_VIS
100
AcDbLine
 10
202.8753349300958
 20
64.63173430767142
 30
0.0
 11
170.8753349300958
 21
64.63173430767142
 31
0.0
  0
LINE
  5
D3
330
E
100
AcDbEntity
 67
     1
  8
AM_VIS
100
AcDbLine
 10
170.8753349300958
 20
53.63173430767142
 30
0.0
 11
202.8753349300958
 21
53.63173430767142
 31
0.0
  0
LINE
  5
D4
330
E
100
AcDbEntity
 67
     1
  8
AM_VIS
100
AcDbLine
 10
170.8753349300958
 20
65.13173430767142
 30
0.0
 11
202.8753349300958
 21
65.13173430767142
 31
0.0
  0
LINE
  5
D5
330
E
100
AcDbEntity
 67
     1
  8
AM_VIS
100
AcDbLine
 10
202.8753349300958
 20
53.13173430767142
 30
0.0
 11
170.8753349300958
 21
53.13173430767142
 31
0.0
  0
LINE
  5
D6
330
E
100
AcDbEntity
 67
     1
  8
AM_VIS
100
AcDbLine
 10
176.8753349300958
 20
130.9800460876466
 30
0.0
 11
196.8753349300958
 21
130.9800460876466
 31
0.0
  0
LINE
  5
D7
330
E
100
AcDbEntity
 67
     1
  8
AM_VIS
100
AcDbLine
 10
196.8753349300958
 20
160.0446127824506
 30
0.0
 11
196.8753349300958
 21
130.9800460876466
 31
0.0
  0
LINE
  5
D8
330
E
100
AcDbEntity
 67
     1
  8
AM_VIS
100
AcDbLine
 10
176.8753349300958
 20
108.1317343076714
 30
0.0
 11
196.8753349300958
 21
108.1317343076714
 31
0.0
  0
LINE
  5
D9
330
E
100
AcDbEntity
 67
     1
  8
AM_VIS
100
AcDbLine
 10
176.8753349300958
 20
130.9800460876467
 30
0.0
 11
176.8753349300958
 21
160.0446127824506
 31
0.0
  0
LINE
  5
DA
330
E
100
AcDbEntity
 67
     1
  8
AM_VIS
100
AcDbLine
 10
200.8753349300958
 20
150.0508093519615
 30
0.0
 11
200.8753349300958
 21
124.2126592633813
 31
0.0
  0
LINE
  5
DB
330
E
100
AcDbEntity
 67
     1
  8
AM_VIS
100
AcDbLine
 10
172.8753349300958
 20
124.2126592633813
 30
0.0
 11
172.8753349300958
 21
150.0508093519615
 31
0.0
  0
LINE
  5
DC
330
E
100
AcDbEntity
 67
     1
  8
AM_HID
100
AcDbLine
 10
197.2133349300958
 20
53.29373430767145
 30
0.0
 11
176.5373349300958
 21
53.29373430767145
 31
0.0
  0
LINE
  5
DD
330
E
100
AcDbEntity
 67
     1
  8
AM_HID
100
AcDbLine
 10
197.2133349300958
 20
99.13173430767143
 30
0.0
 11
176.5373349300958
 21
99.13173430767143
 31
0.0
  0
LINE
  5
DE
330
E
100
AcDbEntity
 67
     1
  8
AM_HID
100
AcDbLine
 10
187.8753349300957
 20
104.7425707681508
 30
0.0
 11
185.8753349300958
 21
104.7425707681508
 31
0.0
  0
LINE
  5
DF
330
E
100
AcDbEntity
 67
     1
  8
AM_HID
100
AcDbLine
 10
187.8753349300957
 20
121.1317343076714
 30
0.0
 11
185.8753349300958
 21
121.1317343076714
 31
0.0
  0
ARC
  5
E0
330
E
100
AcDbEntity
 67
     1
  8
AM_HID
100
AcDbCircle
 10
186.8753349300957
 20
103.1317343076714
 30
0.0
 40
2.5
100
AcDbArc
 50
90.00000000000012
 51
269.9999999999999
  0
ARC
  5
E1
330
E
100
AcDbEntity
 67
     1
  8
AM_HID
100
AcDbCircle
 10
186.8753349300957
 20
103.1317343076714
 30
0.0
 40
2.5
100
AcDbArc
 50
269.9999999999999
 51
90.00000000000012
  0
CIRCLE
  5
E2
330
E
100
AcDbEntity
 67
     1
  8
AM_HID
100
AcDbCircle
 10
186.8753349300957
 20
103.1317343076714
 30
0.0
 40
1.75
  0
ARC
  5
E3
330
E
100
AcDbEntity
 67
     1
  8
AM_VIS
100
AcDbCircle
 10
186.8753349300957
 20
137.1317343076714
 30
0.0
 40
25.00000000000001
100
AcDbArc
 50
66.42182152179822
 51
113.5781784782018
  0
ARC
  5
E4
330
E
100
AcDbEntity
 67
     1
  8
AM_VIS
100
AcDbCircle
 10
186.8753349300957
 20
137.1317343076714
 30
0.0
 40
19.05
100
AcDbArc
 50
121.663826068297
 51
137.2994543284298
  0
ARC
  5
E5
330
E
100
AcDbEntity
 67
     1
  8
AM_VIS
100
AcDbCircle
 10
186.8753349300957
 20
137.1317343076714
 30
0.0
 40
19.05
100
AcDbArc
 50
222.7005456715702
 51
238.336173931703
  0
ARC
  5
E6
330
E
100
AcDbEntity
 67
     1
  8
AM_VIS
100
AcDbCircle
 10
186.8753349300957
 20
137.1317343076714
 30
0.0
 40
19.05
100
AcDbArc
 50
301.663826068297
 51
317.2994543284298
  0
ARC
  5
E7
330
E
100
AcDbEntity
 67
     1
  8
AM_VIS
100
AcDbCircle
 10
186.8753349300957
 20
137.1317343076714
 30
0.0
 40
19.05
100
AcDbArc
 50
42.7005456715702
 51
58.336173931703
  0
VIEWPORT
  5
F1
102
{ACAD_XDICTIONARY
360
6D8
102
}
330
E
100
AcDbEntity
 67
     1
  8
0
 62
     6
100
AcDbViewport
 10
138.7029226608082
 20
102.5518211418307
 30
0.0
 40
405.8904382531651
 41
313.2500674332938
 68
     1
 69
     1
 12
138.7029226608082
 22
102.5518211418307
 13
0.0
 23
0.0
 14
1.0
 24
1.0
 15
0.0
 25
0.0
 16
0.0
 26
0.0
 36
1.0
 17
0.0
 27
0.0
 37
0.0
 42
50.0
 43
0.0
 44
0.0
 45
313.2500674332938
 50
0.0
 51
0.0
 72
  1000
 90
    32800
  1

281
     0
 71
     1
 74
     0
110
0.0
120
0.0
130
0.0
111
1.0
121
0.0
131
0.0
112
0.0
122
1.0
132
0.0
 79
     0
146
0.0
  0
DIMENSION
  5
1F0
330
E
100
AcDbEntity
 67
     1
  8
AM_REFDIM
100
AcDbDimension
  2
*D1
 10
115.7003862129732
 20
180.0446127824506
 30
0.0
 11
90.70038621297323
 21
182.7946127824506
 31
0.0
 70
    32
 71
     5
 42
50.0
  3
AM_ISO$0
100
AcDbAlignedDimension
 13
65.70038621297323
 23
137.1317343076714
 33
0.0
 14
115.7003862129732
 24
137.1317343076714
 34
0.0
100
AcDbRotatedDimension
  0
DIMENSION
  5
206
330
E
100
AcDbEntity
 67
     1
  8
AM_REFDIM
100
AcDbDimension
  2
*D2
 10
105.7003862129732
 20
77.13173430767148
 30
0.0
 11
90.70038621297323
 21
79.88173430767147
 31
0.0
 70
    32
 71
     5
 42
30.0
  3
AM_ISO$0
100
AcDbAlignedDimension
 13
75.70038621297323
 23
65.13173430767142
 33
0.0
 14
105.7003862129732
 24
65.13173430767142
 34
0.0
100
AcDbRotatedDimension
  0
LEADER
  5
21D
330
E
100
AcDbEntity
 67
     1
  8
AM_REFDIM
100
AcDbLeader
  3
AM_ISO$7
 73
     0
 75
     1
 40
3.500688976377953
 41
14.84497474683058
 76
     3
 10
175.6723349300958
 20
71.108994289321
 30
0.0
 10
168.1861684444699
 20
88.59772781100986
 30
0.0
 10
165.1861684444699
 20
88.59772781100986
 30
0.0
340
21E
213
-2.826618320702607
223
-0.1308226664409062
233
0.0
1001
ACAD
1000
DSTYLE
1002
{
1070
    41
1040
3.0
1070
   140
1040
3.5
1070
   147
1040
1.0
1070
   272
1070
     8
1002
}
  0
MTEXT
  5
21E
102
{ACAD_REACTORS
330
21D
102
}
330
E
100
AcDbEntity
 67
     1
  8
AM_REFDIM
100
AcDbMText
 10
167.0127867651725
 20
89.72855047745076
 30
0.0
 40
3.5
 41
0.0
 71
     9
 72
     1
  1
M22*1.5
 73
     1
 44
1.0
1001
ACAD
1000
MTEXTBEGIN
1070
    73
1070
     1
1070
    44
1040
1.0
1070
    74
1070
     0
1000
MTEXTEND
  0
DIMENSION
  5
220
330
E
100
AcDbEntity
 67
     1
  8
AM_REFDIM
100
AcDbDimension
  2
*D3
 10
214.8753349300958
 20
53.13173430767141
 30
0.0
 11
212.1253349300958
 21
74.63173430767145
 31
0.0
 70
    32
 71
     5
 42
43.0
  3
AM_ISO$0
100
AcDbAlignedDimension
 13
198.0783349300958
 23
96.13173430767142
 33
0.0
 14
202.8753349300958
 24
53.13173430767142
 34
0.0
 50
90.0
100
AcDbRotatedDimension
  0
DIMENSION
  5
24C
330
E
100
AcDbEntity
 67
     1
  8
AM_REFDIM
100
AcDbDimension
  2
*D4
 10
223.6208820359561
 20
124.2126592633812
 30
0.0
 11
220.8705375477671
 21
137.1317343076714
 31
0.0
 70
    32
  1
%%c<>
 71
     5
 42
25.83815008858029
  3
AM_ISO$0
100
AcDbAlignedDimension
 13
200.8753349300958
 23
150.0508093519615
 33
0.0
 14
200.8753349300958
 24
124.2126592633812
 34
0.0
 50
90.0
100
AcDbRotatedDimension
  0
DIMENSION
  5
26C
330
E
100
AcDbEntity
 67
     1
  8
AM_REFDIM
100
AcDbDimension
  2
*D5
 10
212.8753349300958
 20
126.1317343076714
 30
0.0
 11
210.1249904419068
 21
137.1317343076714
 31
0.0
 70
    32
  1
%%c<>
 71
     5
 42
22.00000000000001
  3
AM_ISO$0
100
AcDbAlignedDimension
 13
200.8753349300958
 23
148.1317343076714
 33
0.0
 14
200.8753349300958
 24
126.1317343076714
 34
0.0
 50
90.0
100
AcDbRotatedDimension
  0
DIMENSION
  5
28B
330
E
100
AcDbEntity
 67
     1
  8
AM_REFDIM
100
AcDbDimension
  2
*D6
 10
196.8753349300957
 20
172.0446127824506
 30
0.0
 11
186.8753349300957
 21
174.7949572706396
 31
0.0
 70
    32
 71
     5
 42
19.99999999999994
  3
AM_ISO$0
100
AcDbAlignedDimension
 13
176.8753349300958
 23
160.0446127824506
 33
0.0
 14
196.8753349300957
 24
160.0446127824506
 34
0.0
100
AcDbRotatedDimension
  0
DIMENSION
  5
2A1
330
E
100
AcDbEntity
 67
     1
  8
AM_REFDIM
100
AcDbDimension
  2
*D7
 10
200.8753349300958
 20
180.0446127824506
 30
0.0
 11
186.8753349300957
 21
182.7949572706396
 31
0.0
 70
    32
 71
     5
 42
28.0
  3
AM_ISO$0
100
AcDbAlignedDimension
 13
172.8753349300958
 23
150.0508093519615
 33
0.0
 14
200.8753349300958
 24
150.0508093519615
 34
0.0
100
AcDbRotatedDimension
  0
DIMENSION
  5
308
330
E
100
AcDbEntity
 67
     1
  8
AM_REFDIM
100
AcDbDimension
  2
*D8
 10
137.2003862229733
 20
162.1317343076714
 30
0.0
 11
134.4503862229733
 21
107.6317343076714
 31
0.0
 70
    32
 71
     5
 42
109.0
  3
AM_ISO$0
100
AcDbAlignedDimension
 13
108.7003862129732
 23
53.13173430767142
 33
0.0
 14
90.70038621297323
 24
162.1317343076714
 34
0.0
 50
90.0
100
AcDbRotatedDimension
  0
LINE
  5
39F
330
E
100
AcDbEntity
 67
     1
  8
AM_7
100
AcDbLine
 10
90.70038621297323
 20
73.86945670755813
 30
0.0
 11
90.70038621297323
 21
50.63173430767142
 31
0.0
  0
DIMENSION
  5
3B1
330
E
100
AcDbEntity
 67
     1
  8
AM_REFDIM
100
AcDbDimension
  2
*D10
 10
57.20038620297325
 20
103.1317343076714
 30
0.0
 11
54.45038620297323
 21
78.13173430767143
 31
0.0
 70
    32
 71
     5
 42
50.0
  3
AM_ISO$0
100
AcDbAlignedDimension
 13
72.70038621297323
 23
53.13173430767142
 33
0.0
 14
69.20038621297322
 24
103.1317343076714
 34
0.0
 50
90.0
100
AcDbRotatedDimension
  0
TEXT
  5
453
330
E
100
AcDbEntity
 67
     1
  8
LOGO
 62
     7
100
AcDbText
 10
22.02437951660102
 20
-9.599342484550277
 30
0.0
 40
3.368845466063347
  1
Order example:
 41
0.8
  7
CHINESET
100
AcDbText
  0
TEXT
  5
454
330
E
100
AcDbEntity
 67
     1
  8
LOGO
 62
     7
100
AcDbText
 10
22.62877825243146
 20
-4.85670559668722
 30
0.0
 40
5.053268199095021
  1
訂購代號：
  7
CHINESET
100
AcDbText
  0
LINE
  5
455
330
E
100
AcDbEntity
 67
     1
  8
LOGO
 62
     4
100
AcDbLine
 10
20.56060473512969
 20
-23.79692943343849
 30
0.0
 11
20.56060473512969
 21
1.469411562036782
 31
0.0
  0
TEXT
  5
456
330
E
100
AcDbEntity
 67
     1
  8
LOGO
  6
Continuous
100
AcDbText
 10
-25.94956219494071
 20
-18.83339487511054
 30
0.0
 40
3.789951149321266
  1
金器工業股份有限公司
  7
CHINESET
100
AcDbText
  0
TEXT
  5
457
330
E
100
AcDbEntity
 67
     1
  8
LOGO
  6
Continuous
100
AcDbText
 10
-32.9109526513854
 20
-22.62408855771338
 30
0.0
 40
2.52663409954751
  1
MINDMAN INDUSTRIAL CO., LTD.
 41
0.85
  7
CHINESET
100
AcDbText
  0
LINE
  5
458
330
E
100
AcDbEntity
 67
     1
  8
LOGO
 62
     4
100
AcDbLine
 10
20.56060473512969
 20
-3.583856637058289
 30
0.0
 11
-16.49669539156741
 21
-3.583856637058289
 31
0.0
  0
LINE
  5
459
330
E
100
AcDbEntity
 67
     1
  8
LOGO
 62
     4
100
AcDbLine
 10
20.56060473512969
 20
-8.637124836153361
 30
0.0
 11
-16.49669539156741
 21
-8.637124836153361
 31
0.0
  0
LINE
  5
45A
330
E
100
AcDbEntity
 67
     1
  8
LOGO
 62
     4
100
AcDbLine
 10
20.56060473512969
 20
-13.69039303524809
 30
0.0
 11
-35.02534545491574
 21
-13.69039303524809
 31
0.0
  0
LINE
  5
45B
330
E
100
AcDbEntity
 67
     1
  8
LOGO
 62
     4
100
AcDbLine
 10
-16.49669539156741
 20
-13.69039303524809
 30
0.0
 11
-16.49669539156741
 21
1.469411562036782
 31
0.0
  0
TEXT
  5
45C
330
E
100
AcDbEntity
 67
     1
  8
LOGO
100
AcDbText
 10
8.830220167105784
 20
-12.42707598547478
 30
0.0
 40
2.52663409954751
  1
mm
  7
CHINESET
 72
     1
 11
11.95843381416461
 21
-11.16375893570102
 31
0.0
100
AcDbText
 73
     2
  0
TEXT
  5
45D
330
E
100
AcDbEntity
 67
     1
  8
LOGO
100
AcDbText
 10
7.506745162580898
 20
-2.320539587284637
 30
0.0
 40
2.52663409954751
  1
1 : 1
  7
CHINESET
 72
     1
 11
11.95843381416461
 21
-1.057222537510881
 31
0.0
100
AcDbText
 73
     2
  0
LINE
  5
45E
330
E
100
AcDbEntity
 67
     1
  8
LOGO
 62
     4
100
AcDbLine
 10
3.716377404812817
 20
-13.69039303524809
 30
0.0
 11
3.716377404812817
 21
1.469411562036782
 31
0.0
  0
TEXT
  5
45F
330
E
100
AcDbEntity
 67
     1
  8
LOGO
100
AcDbText
 10
-14.41335022109226
 20
-2.319296164991552
 30
165.5914364978229
 40
2.52663409954751
  1
比例 Scale:
 41
0.9
  7
CHINESET
 72
     4
 11
-6.390158993377326
 21
-1.057222537510881
 31
165.5914364978229
100
AcDbText
  0
TEXT
  5
460
330
E
100
AcDbEntity
 67
     1
  8
LOGO
100
AcDbText
 10
-14.55885727414655
 20
-7.338266632502408
 30
165.5914364978229
 40
2.52663409954751
  1
投影  View:
 41
0.9
  7
CHINESET
 72
     4
 11
-6.390158993377326
 21
-6.110490736605981
 31
165.5914364978229
100
AcDbText
  0
TEXT
  5
461
330
E
100
AcDbEntity
 67
     1
  8
LOGO
100
AcDbText
 10
-14.31183367244972
 20
-12.42707598547478
 30
165.5914364978229
 40
2.52663409954751
  1
單位  Unit:
 41
0.9
  7
CHINESET
 72
     4
 11
-6.390158993377326
 21
-11.16375893570102
 31
165.5914364978229
100
AcDbText
  0
LWPOLYLINE
  5
462
330
E
100
AcDbEntity
 67
     1
  8
LOGO
 62
     4
100
AcDbPolyline
 90
        4
 70
     1
 43
0.0
 10
-35.02534545491565
 20
1.469411562036782
 10
312.4371545450843
 20
1.469411562036782
 10
312.4371545450843
 20
228.903070566561
 10
-35.02534545491565
 20
228.903070566561
1001
GENIUS_GENREC_14
1002
{
1000
PYDIR
1011
-35.02534545491565
1021
228.903070566561
1031
0.0
1002
}
1002
{
1000
PXDIR
1011
312.4371545450843
1021
1.469411562036782
1031
0.0
1002
}
1002
{
1000
PORI
1011
-35.02534545491565
1021
1.469411562036782
1031
0.0
1002
}
1002
{
1000
PINS
1011
-35.02534545491565
1021
1.469411562036782
1031
0.0
1002
}
1002
{
1000
PINS2
1011
312.4371545450843
1021
228.903070566561
1031
0.0
1002
}
1002
{
1000
C
1070
     1
1002
}
1001
GENIUS_GENODEF_13
1002
{
1000
HIER
1070
     0
1002
}
1002
{
1000
MANEDIT
1070
     0
1002
}
1002
{
1000
NOSEL
1070
     0
1002
}
1002
{
1000
BEHIND
1070
     0
1002
}
1002
{
1000
OTHER
1070
     0
1002
}
1002
{
1000
REACTOR
1002
}
1001
GENIUS_GENOBJ-N-REC_13
1002
{
1000
OWNER
1000
GEN
1002
}
  0
SOLID
  5
463
330
E
100
AcDbEntity
 67
     1
  8
LOGO
 62
     5
100
AcDbTrace
 10
-32.40392202724218
 20
-9.49022348279476
 30
0.0
 11
-31.31147174147662
 21
-9.490223482795045
 31
0.0
 12
-26.7533171008688
 22
0.8692188822238335
 32
0.0
 13
-25.66086681510262
 23
0.8692188822232651
 33
0.0
  0
SOLID
  5
464
330
E
100
AcDbEntity
 67
     1
  8
LOGO
 62
     5
100
AcDbTrace
 10
-30.85942334736558
 20
-9.49022348279476
 30
0.0
 11
-29.76697306160009
 21
-9.49022348279476
 31
0.0
 12
-25.66086681510262
 22
0.0404634930219459
 32
0.0
 13
-26.7533171008688
 23
-3.965187554785245
 33
0.0
  0
SOLID
  5
465
330
E
100
AcDbEntity
 67
     1
  8
LOGO
 62
     2
100
AcDbTrace
 10
-31.31147174147662
 20
-9.490223482795045
 30
0.0
 11
-30.85942334736558
 21
-9.49022348279476
 31
0.0
 12
-25.66086681510262
 22
0.8692188822232651
 32
0.0
 13
-25.20881842099214
 23
0.8692188822232651
 33
0.0
  0
SOLID
  5
466
330
E
100
AcDbEntity
 67
     1
  8
LOGO
 62
     5
100
AcDbTrace
 10
-34.15538773695061
 20
-13.25729343371029
 30
0.0
 11
-33.77868074185869
 21
-13.25729343371029
 31
0.0
 12
-32.71784452315154
 22
-11.37375845825266
 32
0.0
 13
-32.3411375280607
 23
-11.37375845825266
 33
0.0
  0
SOLID
  5
467
330
E
100
AcDbEntity
 67
     1
  8
LOGO
 62
     5
100
AcDbTrace
 10
-32.71784452315154
 20
-11.37375845825266
 30
0.0
 11
-32.3411375280607
 21
-11.37375845825266
 31
0.0
 12
-32.71784452315154
 22
-13.25729343371029
 32
0.0
 13
-32.3411375280607
 23
-13.25729343371029
 33
0.0
  0
SOLID
  5
468
330
E
100
AcDbEntity
 67
     1
  8
LOGO
 62
     5
100
AcDbTrace
 10
-32.71784452315154
 20
-13.25729343371029
 30
0.0
 11
-32.3411375280607
 21
-13.25729343371029
 31
0.0
 12
-31.2803013093519
 22
-11.37375845825266
 32
0.0
 13
-30.90359431426043
 23
-11.37375845825266
 33
0.0
  0
SOLID
  5
469
330
E
100
AcDbEntity
 67
     1
  8
LOGO
 62
     5
100
AcDbTrace
 10
-31.2803013093519
 20
-11.37375845825266
 30
0.0
 11
-30.90359431426043
 21
-11.37375845825266
 31
0.0
 12
-31.2803013093519
 22
-13.25729343371029
 32
0.0
 13
-30.90359431426043
 23
-13.25729343371029
 33
0.0
  0
POLYLINE
  5
46A
330
E
100
AcDbEntity
 67
     1
  8
LOGO
 62
     5
100
AcDb2dPolyline
 66
     1
 10
0.0
 20
0.0
 30
0.0
 40
0.3773106921990949
 41
0.3773106921990949
  0
VERTEX
  5
46B
330
46A
100
AcDbEntity
 67
     1
  8
LOGO
 62
     5
100
AcDbVertex
100
AcDb2dVertex
 10
-18.65321116073755
 20
-12.12717244843574
 30
0.0
 42
1.0
  0
VERTEX
  5
46C
330
46A
100
AcDbEntity
 67
     1
  8
LOGO
 62
     5
100
AcDbVertex
100
AcDb2dVertex
 10
-19.78514323733509
 20
-12.12717244843574
 30
0.0
 42
1.0
  0
SEQEND
  5
46D
330
46A
100
AcDbEntity
 67
     1
  8
LOGO
 62
     5
  0
POLYLINE
  5
46E
330
E
100
AcDbEntity
 67
     1
  8
LOGO
 62
     5
100
AcDb2dPolyline
 66
     1
 10
0.0
 20
0.0
 30
0.0
 70
     1
  0
VERTEX
  5
46F
330
46E
100
AcDbEntity
 67
     1
  8
LOGO
 62
     5
100
AcDbVertex
100
AcDb2dVertex
 10
-21.91888555006039
 20
-12.31552594598173
 30
0.0
 42
1.000000057330635
  0
VERTEX
  5
470
330
46E
100
AcDbEntity
 67
     1
  8
LOGO
 62
     5
100
AcDbVertex
100
AcDb2dVertex
 10
-20.7887645647856
 20
-12.31552594598173
 30
0.0
 42
1.000000057330635
  0
SEQEND
  5
471
330
46E
100
AcDbEntity
 67
     1
  8
LOGO
 62
     5
  0
CIRCLE
  5
472
330
E
100
AcDbEntity
 67
     1
  8
LOGO
 62
     5
100
AcDbCircle
 10
-21.35382505742212
 20
-12.31552594598173
 30
0.0
 40
0.5650604926373647
  0
POLYLINE
  5
473
330
E
100
AcDbEntity
 67
     1
  8
LOGO
 62
     5
100
AcDb2dPolyline
 66
     1
 10
0.0
 20
0.0
 30
0.0
 70
     1
 40
0.3773106921990949
 41
0.3773106921990949
  0
VERTEX
  5
474
330
473
100
AcDbEntity
 67
     1
  8
LOGO
 62
     5
100
AcDbVertex
100
AcDb2dVertex
 10
-22.10844644182089
 20
-12.31552594598173
 30
0.0
 42
1.0
  0
VERTEX
  5
475
330
473
100
AcDbEntity
 67
     1
  8
LOGO
 62
     5
100
AcDbVertex
100
AcDb2dVertex
 10
-20.59920367302453
 20
-12.31552594598173
 30
0.0
 42
1.0
  0
SEQEND
  5
476
330
473
100
AcDbEntity
 67
     1
  8
LOGO
 62
     5
  0
LINE
  5
477
330
E
100
AcDbEntity
 67
     1
  8
LOGO
100
AcDbLine
 10
-18.46576320885379
 20
-13.25729343371029
 30
0.0
 11
-18.46576320885379
 21
-12.12717244843574
 31
0.0
  0
SOLID
  5
478
330
E
100
AcDbEntity
 67
     1
  8
LOGO
 62
     5
100
AcDbTrace
 10
-20.78880223548345
 20
-11.37375845825266
 30
0.0
 11
-20.41209524039266
 21
-11.37375845825266
 31
0.0
 12
-20.78880223548345
 22
-13.25729343371029
 32
0.0
 13
-20.41209524039266
 23
-13.25729343371029
 33
0.0
  0
SOLID
  5
479
330
E
100
AcDbEntity
 67
     1
  8
LOGO
 62
     5
100
AcDbTrace
 10
-19.97259118922
 20
-13.25729343371029
 30
0.0
 11
-19.59588419412802
 21
-13.25729343371029
 31
0.0
 12
-19.97259118922
 22
-11.37375845825266
 32
0.0
 13
-19.59588419412802
 23
-11.37375845825266
 33
0.0
  0
SOLID
  5
47A
330
E
100
AcDbEntity
 67
     1
  8
LOGO
 62
     5
100
AcDbTrace
 10
-18.84247020394468
 20
-12.12717244843574
 30
0.0
 11
-18.46576320885379
 21
-12.12717244843574
 31
0.0
 12
-18.84247020394468
 22
-13.25729343371029
 32
0.0
 13
-18.46576320885379
 23
-13.25729343371029
 33
0.0
  0
SOLID
  5
47B
330
E
100
AcDbEntity
 67
     1
  8
LOGO
 62
     5
100
AcDbTrace
 10
-20.01026188872925
 20
0.0404634930219459
 30
0.0
 11
-21.10271217449423
 21
-3.965187554785245
 31
0.0
 12
-20.01026188872925
 22
-9.490223482795045
 32
0.0
 13
-21.10271217449423
 23
-9.490223482795045
 33
0.0
  0
SOLID
  5
47C
330
E
100
AcDbEntity
 67
     1
  8
LOGO
 62
     5
100
AcDbTrace
 10
-19.55821349461877
 20
-9.490223482795045
 30
0.0
 11
-18.46576320885379
 21
-9.490223482795045
 31
0.0
 12
-19.55821349461877
 22
0.8692188822232651
 32
0.0
 13
-18.46576320885379
 23
0.8692188822238335
 33
0.0
  0
SOLID
  5
47D
330
E
100
AcDbEntity
 67
     1
  8
LOGO
 62
     2
100
AcDbTrace
 10
-20.01026188872925
 20
0.8692188822238335
 30
0.0
 11
-19.55821349461877
 21
0.8692188822232651
 31
0.0
 12
-20.01026188872925
 22
-9.490223482795045
 32
0.0
 13
-19.55821349461877
 23
-9.490223482795045
 33
0.0
  0
POLYLINE
  5
47E
330
E
100
AcDbEntity
 67
     1
  8
LOGO
 62
     5
100
AcDb2dPolyline
 66
     1
 10
0.0
 20
0.0
 30
0.0
 40
0.3773106921990949
 41
0.3773106921990949
  0
VERTEX
  5
47F
330
47E
100
AcDbEntity
 67
     1
  8
LOGO
 62
     5
100
AcDbVertex
100
AcDb2dVertex
 10
-24.05270320418305
 20
-12.12717244843574
 30
0.0
 42
1.0
  0
VERTEX
  5
480
330
47E
100
AcDbEntity
 67
     1
  8
LOGO
 62
     5
100
AcDbVertex
100
AcDb2dVertex
 10
-25.18463528078058
 20
-12.12717244843574
 30
0.0
 42
1.0
  0
SEQEND
  5
481
330
47E
100
AcDbEntity
 67
     1
  8
LOGO
 62
     5
  0
POLYLINE
  5
482
330
E
100
AcDbEntity
 67
     1
  8
LOGO
 62
     5
100
AcDb2dPolyline
 66
     1
 10
0.0
 20
0.0
 30
0.0
 40
0.3773106921990949
 41
0.3773106921990949
  0
VERTEX
  5
483
330
482
100
AcDbEntity
 67
     1
  8
LOGO
 62
     5
100
AcDbVertex
100
AcDb2dVertex
 10
-22.92258221890944
 20
-12.12717244843574
 30
0.0
 42
1.0
  0
VERTEX
  5
484
330
482
100
AcDbEntity
 67
     1
  8
LOGO
 62
     5
100
AcDbVertex
100
AcDb2dVertex
 10
-24.05451429550635
 20
-12.12717244843574
 30
0.0
 42
1.0
  0
SEQEND
  5
485
330
482
100
AcDbEntity
 67
     1
  8
LOGO
 62
     5
  0
POLYLINE
  5
486
330
E
100
AcDbEntity
 67
     1
  8
LOGO
 62
     5
100
AcDb2dPolyline
 66
     1
 10
0.0
 20
0.0
 30
0.0
 40
0.3773106921990949
 41
0.3773106921990949
  0
VERTEX
  5
487
330
486
100
AcDbEntity
 67
     1
  8
LOGO
 62
     5
100
AcDbVertex
100
AcDb2dVertex
 10
-28.32207426235493
 20
-12.12717244843574
 30
0.0
 42
1.0
  0
VERTEX
  5
488
330
486
100
AcDbEntity
 67
     1
  8
LOGO
 62
     5
100
AcDbVertex
100
AcDb2dVertex
 10
-29.4540063389519
 20
-12.12717244843574
 30
0.0
 42
1.0
  0
SEQEND
  5
489
330
486
100
AcDbEntity
 67
     1
  8
LOGO
 62
     5
  0
SOLID
  5
48A
330
E
100
AcDbEntity
 67
     1
  8
LOGO
 62
     5
100
AcDbTrace
 10
-29.64145429083624
 20
-11.37375845825266
 30
0.0
 11
-29.2647472957454
 21
-11.37375845825266
 31
0.0
 12
-29.64145429083624
 22
-13.25729343371029
 32
0.0
 13
-29.2647472957454
 23
-13.25729343371029
 33
0.0
  0
SOLID
  5
48B
330
E
100
AcDbEntity
 67
     1
  8
LOGO
 62
     5
100
AcDbTrace
 10
-28.51133330556138
 20
-12.12717244843574
 30
0.0
 11
-28.1346263104694
 21
-12.12717244843574
 31
0.0
 12
-28.51133330556138
 22
-13.25729343371029
 32
0.0
 13
-28.1346263104694
 23
-13.25729343371029
 33
0.0
  0
POLYLINE
  5
48C
330
E
100
AcDbEntity
 67
     1
  8
LOGO
 62
     5
100
AcDb2dPolyline
 66
     1
 10
0.0
 20
0.0
 30
0.0
 70
     1
 40
0.3773106921990949
 41
0.3773106921990949
  0
VERTEX
  5
48D
330
48C
100
AcDbEntity
 67
     1
  8
LOGO
 62
     5
100
AcDbVertex
100
AcDb2dVertex
 10
-27.50793848526701
 20
-12.31552594598173
 30
0.0
 42
1.0
  0
VERTEX
  5
48E
330
48C
100
AcDbEntity
 67
     1
  8
LOGO
 62
     5
100
AcDbVertex
100
AcDb2dVertex
 10
-25.99869571647008
 20
-12.31552594598173
 30
0.0
 42
1.0
  0
SEQEND
  5
48F
330
48C
100
AcDbEntity
 67
     1
  8
LOGO
 62
     5
  0
SOLID
  5
490
330
E
100
AcDbEntity
 67
     1
  8
LOGO
 62
     5
100
AcDbTrace
 10
-26.18829427893013
 20
-10.80869796561495
 30
0.0
 11
-25.81158728383866
 21
-10.80869796561495
 31
0.0
 12
-26.18829427893013
 22
-13.25729343371029
 32
0.0
 13
-25.81158728383866
 23
-13.25729343371029
 33
0.0
  0
SOLID
  5
491
330
E
100
AcDbEntity
 67
     1
  8
LOGO
 62
     5
100
AcDbTrace
 10
-25.37208323266435
 20
-11.37375845825266
 30
0.0
 11
-24.99537623757351
 21
-11.37375845825266
 31
0.0
 12
-25.37208323266435
 22
-13.25729343371029
 32
0.0
 13
-24.99537623757351
 23
-13.25729343371029
 33
0.0
  0
SOLID
  5
492
330
E
100
AcDbEntity
 67
     1
  8
LOGO
 62
     5
100
AcDbTrace
 10
-24.24196224739069
 20
-12.12717244843574
 30
0.0
 11
-23.86525525229877
 21
-12.12717244843574
 31
0.0
 12
-24.24196224739069
 22
-13.25729343371029
 32
0.0
 13
-23.86525525229877
 23
-13.25729343371029
 33
0.0
  0
SOLID
  5
493
330
E
100
AcDbEntity
 67
     1
  8
LOGO
 62
     5
100
AcDbTrace
 10
-23.11184126211594
 20
-12.12717244843574
 30
0.0
 11
-22.73513426702448
 21
-12.12717244843574
 31
0.0
 12
-23.11184126211594
 22
-13.25729343371085
 32
0.0
 13
-22.73513426702448
 23
-13.25729343371085
 33
0.0
  0
SOLID
  5
494
330
E
100
AcDbEntity
 67
     1
  8
LOGO
 62
     5
100
AcDbTrace
 10
-30.45766533710139
 20
-11.11006356168843
 30
0.0
 11
-30.08095834200879
 21
-11.11006356168843
 31
0.0
 12
-30.45766533710139
 22
-10.80869796561495
 32
0.0
 13
-30.08095834200879
 23
-10.80869796561495
 33
0.0
  0
SOLID
  5
495
330
E
100
AcDbEntity
 67
     1
  8
LOGO
 62
     5
100
AcDbTrace
 10
-30.45766533710139
 20
-11.37375845825266
 30
0.0
 11
-30.08095834200879
 21
-11.37375845825266
 31
0.0
 12
-30.45766533710139
 22
-13.25729343371085
 32
0.0
 13
-30.08095834200879
 23
-13.25729343371029
 33
0.0
  0
SOLID
  5
496
330
E
100
AcDbEntity
 67
     1
  8
LOGO
 62
     5
100
AcDbTrace
 10
-26.7533171008688
 20
-9.49022348279476
 30
0.0
 11
-25.66086681510262
 21
-9.49022348279476
 31
0.0
 12
-26.7533171008688
 22
-3.965187554785245
 32
0.0
 13
-25.66086681510262
 23
0.0404634930219459
 33
0.0
  0
SOLID
  5
497
330
E
100
AcDbEntity
 67
     1
  8
LOGO
 62
     5
100
AcDbTrace
 10
-25.20881842099214
 20
0.8692188822232651
 30
0.0
 11
-24.11636813522716
 21
0.8692188822238335
 31
0.0
 12
-25.20881842099214
 22
-8.661468093593441
 32
0.0
 13
-24.11636813522716
 23
-4.655817045786307
 33
0.0
  0
SOLID
  5
498
330
E
100
AcDbEntity
 67
     1
  8
LOGO
 62
     2
100
AcDbTrace
 10
-25.66086681510262
 20
0.8692188822232651
 30
0.0
 11
-25.20881842099214
 21
0.8692188822232651
 31
0.0
 12
-25.66086681510262
 22
-9.49022348279476
 32
0.0
 13
-25.20881842099214
 23
-9.49022348279476
 33
0.0
  0
SOLID
  5
499
330
E
100
AcDbEntity
 67
     1
  8
LOGO
 62
     5
100
AcDbTrace
 10
-25.20881842099214
 20
-8.661468093593441
 30
0.0
 11
-24.11636813522716
 21
-4.655817045786307
 31
0.0
 12
-20.01026188872925
 22
0.8692188822238335
 32
0.0
 13
-21.10271217449423
 23
0.8692188822238335
 33
0.0
  0
SOLID
  5
49A
330
E
100
AcDbEntity
 67
     1
  8
LOGO
 62
     5
100
AcDbTrace
 10
-25.20881842099214
 20
-9.49022348279476
 30
0.0
 11
-24.11636813522716
 21
-9.49022348279476
 31
0.0
 12
-20.01026188872925
 22
0.0404634930219459
 32
0.0
 13
-21.10271217449423
 23
-3.965187554785245
 33
0.0
  0
SOLID
  5
49B
330
E
100
AcDbEntity
 67
     1
  8
LOGO
 62
     2
100
AcDbTrace
 10
-25.66086681510262
 20
-9.49022348279476
 30
0.0
 11
-25.20881842099214
 21
-9.49022348279476
 31
0.0
 12
-20.01026188872925
 22
0.8692188822238335
 32
0.0
 13
-19.55821349461877
 23
0.8692188822232651
 33
0.0
  0
LWPOLYLINE
  5
49C
330
E
100
AcDbEntity
 67
     1
  8
LOGO
 62
     4
100
AcDbPolyline
 90
        4
 70
     1
 43
0.0
 10
-35.02534545491565
 20
1.469411562036782
 10
312.4371545450843
 20
1.469411562036782
 10
312.4371545450843
 20
-23.79692943343878
 10
-35.02534545491565
 20
-23.79692943343878
1001
GENIUS_GENREC_14
1002
{
1000
PYDIR
1011
-35.02534545491565
1021
-23.79692943343878
1031
0.0
1002
}
1002
{
1000
PXDIR
1011
312.4371545450843
1021
1.469411562036782
1031
0.0
1002
}
1002
{
1000
PORI
1011
-35.02534545491565
1021
1.469411562036782
1031
0.0
1002
}
1002
{
1000
PINS
1011
-35.02534545491565
1021
1.469411562036782
1031
0.0
1002
}
1002
{
1000
PINS2
1011
312.4371545450843
1021
-23.79692943343878
1031
0.0
1002
}
1002
{
1000
C
1070
     1
1002
}
1001
GENIUS_GENOBJ-N-REC_13
1002
{
1000
OWNER
1000
GEN
1002
}
1001
GENIUS_GENODEF_13
1002
{
1000
HIER
1070
     0
1002
}
1002
{
1000
MANEDIT
1070
     0
1002
}
1002
{
1000
NOSEL
1070
     0
1002
}
1002
{
1000
BEHIND
1070
     0
1002
}
1002
{
1000
OTHER
1070
     0
1002
}
1002
{
1000
REACTOR
1002
}
  0
LINE
  5
49D
330
E
100
AcDbEntity
 67
     1
  8
LOGO
 62
     4
100
AcDbLine
 10
78.47295049509103
 20
-12.42707598547423
 30
0.0
 11
78.47295049509103
 21
-21.69140101714899
 31
0.0
  0
LINE
  5
49E
330
E
100
AcDbEntity
 67
     1
  8
LOGO
 62
     4
100
AcDbLine
 10
61.62872316477415
 20
-12.42707598547423
 30
0.0
 11
61.62872316477415
 21
-21.69140101714899
 31
0.0
  0
LINE
  5
49F
330
E
100
AcDbEntity
 67
     1
  8
LOGO
 62
     4
100
AcDbLine
 10
78.47295049509103
 20
-21.69140101714899
 30
0.0
 11
61.62872316477415
 21
-21.69140101714899
 31
0.0
  0
LINE
  5
4A0
330
E
100
AcDbEntity
 67
     1
  8
LOGO
 62
     4
100
AcDbLine
 10
85.0231719879539
 20
-1.057222537510881
 30
0.0
 11
55.3133353972654
 21
-1.057222537510881
 31
0.0
  0
LINE
  5
4A1
330
E
100
AcDbEntity
 67
     1
  8
LOGO
 62
     4
100
AcDbLine
 10
85.0231719879539
 20
-8.637124836153361
 30
0.0
 11
55.3133353972654
 21
-8.637124836153361
 31
0.0
  0
LINE
  5
4A2
330
E
100
AcDbEntity
 67
     1
  8
LOGO
 62
     4
100
AcDbLine
 10
55.3133353972654
 20
-1.057222537510881
 30
0.0
 11
55.3133353972654
 21
-8.637124836153361
 31
0.0
  0
LINE
  5
4A3
330
E
100
AcDbEntity
 67
     1
  8
LOGO
 62
     4
100
AcDbLine
 10
85.0231719879539
 20
-1.057222537510881
 30
0.0
 11
85.0231719879539
 21
-8.637124836153361
 31
0.0
  0
LINE
  5
4A4
330
E
100
AcDbEntity
 67
     1
  8
LOGO
 62
     4
100
AcDbLine
 10
70.92968242183435
 20
-8.637124836153361
 30
0.0
 11
70.92968242183435
 21
-12.42707598547423
 31
0.0
  0
TEXT
  5
4A5
330
E
100
AcDbEntity
 67
     1
  8
LOGO
  6
Continuous
100
AcDbText
 10
58.18049392964963
 20
-7.054831313127749
 30
0.0
 40
4.422249999999999
  1
PHS-22
  7
CHINESET
100
AcDbText
  0
LINE
  5
4A6
330
E
100
AcDbEntity
 67
     1
  8
LOGO
 62
     4
100
AcDbLine
 10
78.47295049509103
 20
-12.42707598547423
 30
0.0
 11
61.62872316477415
 21
-12.42707598547423
 31
0.0
  0
TEXT
  5
4A7
330
E
100
AcDbEntity
 67
     1
  8
LOGO
  6
Continuous
100
AcDbText
 10
67.03398238706063
 20
-20.38376118438572
 30
165.5914364978229
 40
1.895249999999999
  1
Model
 41
0.8
  7
CHINESET
100
AcDbText
  0
TEXT
  5
4A8
330
E
100
AcDbEntity
 67
     1
  8
LOGO
100
AcDbText
 10
66.52952844784874
 20
-16.87037613991299
 30
165.5914364978229
 40
3.158749999999999
  1
型號
  7
CHINESET
100
AcDbText
  0
TEXT
  5
4A9
330
E
100
AcDbEntity
 67
     1
  8
LOGO
100
AcDbText
 10
21.73128245465844
 20
-22.45277006494388
 30
0.0
 40
2.526999999999999
  1
01008120
 41
0.7
  7
CHINESET
 72
     1
 11
27.88031578799178
 21
-22.45277006494388
 31
0.0
100
AcDbText
  0
LINE
  5
4AA
330
E
100
AcDbEntity
 67
     1
  8
LOGO
 62
     4
100
AcDbLine
 10
35.72260473512847
 20
-18.74366123434288
 30
0.0
 11
35.72260473512961
 21
-23.79692943343826
 31
0.0
  0
LINE
  5
4AB
330
E
100
AcDbEntity
 67
     1
  8
LOGO
 62
     4
100
AcDbLine
 10
35.72260473512847
 20
-18.74366123434288
 30
0.0
 11
20.56060473512969
 21
-18.74366123434288
 31
0.0
  0
CIRCLE
  5
4AC
330
E
100
AcDbEntity
 67
     1
  8
LOGO
  6
Continuous
100
AcDbCircle
 10
8.39475646652238
 20
-6.105086247777364
 30
0.0
 40
1.467023228460117
  0
CIRCLE
  5
4AD
330
E
100
AcDbEntity
 67
     1
  8
LOGO
  6
Continuous
100
AcDbCircle
 10
8.39475646652238
 20
-6.105086247777364
 30
0.0
 40
0.8595457436589818
  0
LINE
  5
4AE
330
E
100
AcDbEntity
 67
     1
  8
LOGO
100
AcDbLine
 10
17.61370066034249
 20
-7.572109476237756
 30
0.0
 11
17.61370066034249
 21
-4.638063019316945
 31
0.0
  0
LINE
  5
4AF
330
E
100
AcDbEntity
 67
     1
  8
LOGO
100
AcDbLine
 10
13.01466705027172
 20
-6.964631991436192
 30
0.0
 11
13.01466705027172
 21
-5.245540504118253
 31
0.0
  0
LINE
  5
4B0
330
E
100
AcDbEntity
 67
     1
  8
LOGO
  6
Continuous
100
AcDbLine
 10
13.01466705027172
 20
-5.245540504118253
 30
0.0
 11
17.61370066034249
 21
-4.638063019316945
 31
0.0
  0
LINE
  5
4B1
330
E
100
AcDbEntity
 67
     1
  8
LOGO
  6
Continuous
100
AcDbLine
 10
13.01466705027172
 20
-6.964631991436192
 30
0.0
 11
17.61370066034249
 21
-7.572109476237756
 31
0.0
  0
LINE
  5
4B2
330
E
100
AcDbEntity
 67
     1
  8
LOGO
  6
AM_ISO08W050x2
 48
0.3
100
AcDbLine
 10
6.372442979147081
 20
-6.105086247777364
 30
0.0
 11
10.41706995389768
 21
-6.105086247777364
 31
0.0
1001
GENIUS_GENOREF_13
1005
4B8
  0
LINE
  5
4B3
330
E
100
AcDbEntity
 67
     1
  8
LOGO
  6
AM_ISO08W050x2
 48
0.3
100
AcDbLine
 10
8.39475646652238
 20
-8.127399735152692
 30
0.0
 11
8.39475646652238
 21
-4.082772760402036
 31
0.0
1001
GENIUS_GENOREF_13
1005
4B7
  0
LINE
  5
4B4
330
E
100
AcDbEntity
 67
     1
  8
LOGO
  6
CENTER
 48
0.5
100
AcDbLine
 10
12.6468721910071
 20
-6.105086247777364
 30
0.0
 11
18.07680845703726
 21
-6.105086247777364
 31
0.0
1001
GENIUS_GENOREF_13
1005
4B6
  0
POINT
  5
4B6
330
E
100
AcDbEntity
 67
     1
  8
0
 60
     1
100
AcDbPoint
 10
-1666.028143742457
 20
-727.9546368363511
 30
0.0
1001
GENIUS_GENOBJ-N-CRS_13
1002
{
1000
OWNER
1000
GEN
1002
}
1001
GENIUS_GENOLIS_13
1002
{
1000
ENT
1005
0
1005
0
1005
0
1005
4B4
1002
}
1001
GENIUS_GENOENT_13
1002
{
1000
MYREF
1005
4B6
1002
}
1002
{
1000
GRP
1005
0
1002
}
1001
GENIUS_GENODEF_13
1002
{
1000
HIER
1070
    10
1002
}
1002
{
1000
MANEDIT
1070
     1
1002
}
1002
{
1000
NOSEL
1070
     0
1002
}
1002
{
1000
BEHIND
1070
     0
1002
}
1002
{
1000
OTHER
1070
     0
1002
}
1002
{
1000
REACTOR
1002
}
  0
POINT
  5
4B7
330
E
100
AcDbEntity
 67
     1
  8
0
 60
     1
100
AcDbPoint
 10
-1677.352728965312
 20
-719.0790503577148
 30
0.0
1001
GENIUS_GENOBJ-N-CRS_13
1002
{
1000
OWNER
1000
GEN
1002
}
1001
GENIUS_GENOLIS_13
1002
{
1000
ENT
1005
0
1005
0
1005
0
1005
4B3
1002
}
1001
GENIUS_GENOENT_13
1002
{
1000
MYREF
1005
4B7
1002
}
1002
{
1000
GRP
1005
0
1002
}
1001
GENIUS_GENODEF_13
1002
{
1000
HIER
1070
    10
1002
}
1002
{
1000
MANEDIT
1070
     1
1002
}
1002
{
1000
NOSEL
1070
     0
1002
}
1002
{
1000
BEHIND
1070
     0
1002
}
1002
{
1000
OTHER
1070
     0
1002
}
1002
{
1000
REACTOR
1002
}
  0
POINT
  5
4B8
330
E
100
AcDbEntity
 67
     1
  8
0
 60
     1
100
AcDbPoint
 10
-1670.994055267475
 20
-727.9546368363511
 30
0.0
1001
GENIUS_GENOBJ-N-CRS_13
1002
{
1000
OWNER
1000
GEN
1002
}
1001
GENIUS_GENOLIS_13
1002
{
1000
ENT
1005
0
1005
0
1005
0
1005
4B2
1002
}
1001
GENIUS_GENOENT_13
1002
{
1000
MYREF
1005
4B8
1002
}
1002
{
1000
GRP
1005
0
1002
}
1001
GENIUS_GENODEF_13
1002
{
1000
HIER
1070
    10
1002
}
1002
{
1000
MANEDIT
1070
     1
1002
}
1002
{
1000
NOSEL
1070
     0
1002
}
1002
{
1000
BEHIND
1070
     0
1002
}
1002
{
1000
OTHER
1070
     0
1002
}
1002
{
1000
REACTOR
1002
}
  0
ENDSEC
  0
SECTION
  2
OBJECTS
  0
DICTIONARY
  5
9
330
0
100
AcDbDictionary
281
     1
  3
ACAD_COLOR
350
32
  3
ACAD_GROUP
350
2E
  3
ACAD_LAYOUT
350
D
  3
ACAD_MATERIAL
350
31
  3
ACAD_MLINESTYLE
350
2F
  3
ACAD_PLOTSETTINGS
350
30
  3
ACAD_PLOTSTYLENAME
350
8
  3
ACAD_TABLESTYLE
350
33
  3
AcadDim
350
21C
  3
ACDBHEADERROUNDTRIPXREC
350
6D4
  3
AcDbVariableDictionary
350
E8
  3
AcmDictionary
350
1B2
  3
AMG
350
F3
  3
AMGSNAPSETTINGS
350
1E9
  3
DWGPROPS
350
6D3
  3
MAPISURF_MODULE
350
180
  0
DICTIONARY
  5
16
330
15
100
AcDbDictionary
280
     1
281
     1
  3
ACAD_LAYERSTATES
360
17
  0
DICTIONARY
  5
3
330
2
100
AcDbDictionary
280
     1
281
     1
  3
ACAD_INDEX
360
3A2
  3
ACAD_SORTENTS
360
4
  0
DICTIONARY
  5
3A0
330
E
100
AcDbDictionary
280
     1
281
     1
  3
ACAD_SORTENTS
360
3A1
  0
DICTIONARY
  5
6D8
330
F1
100
AcDbDictionary
280
     1
281
     1
  3
ACAD_XREC_ROUNDTRIP
360
6D9
  0
DICTIONARY
  5
32
102
{ACAD_REACTORS
330
9
102
}
330
9
100
AcDbDictionary
281
     1
  0
DICTIONARY
  5
2E
102
{ACAD_REACTORS
330
9
102
}
330
9
100
AcDbDictionary
281
     1
  0
DICTIONARY
  5
D
102
{ACAD_REACTORS
330
9
102
}
330
9
100
AcDbDictionary
281
     1
  3
Model
350
C
  3
配置1
350
11
  0
DICTIONARY
  5
31
102
{ACAD_REACTORS
330
9
102
}
330
9
100
AcDbDictionary
281
     1
  0
DICTIONARY
  5
2F
102
{ACAD_REACTORS
330
9
102
}
330
9
100
AcDbDictionary
281
     1
  3
STANDARD
350
34
  0
DICTIONARY
  5
30
102
{ACAD_REACTORS
330
9
102
}
330
9
100
AcDbDictionary
281
     1
  0
ACDBDICTIONARYWDFLT
  5
8
102
{ACAD_REACTORS
330
9
102
}
330
9
100
AcDbDictionary
281
     1
  3
Normal
350
7
100
AcDbDictionaryWithDefault
340
7
  0
DICTIONARY
  5
33
102
{ACAD_REACTORS
330
9
102
}
330
9
100
AcDbDictionary
281
     1
  3
Standard
350
35
  0
XRECORD
  5
21C
102
{ACAD_REACTORS
330
9
102
}
330
9
100
AcDbXrecord
280
     1
 90
   990106
  3

 60
     0
 61
     0
 62
     1
 63
     3
 64
     1
 65
     0
 66
     0
 67
     3
 68
     0
 69
     0
 70
     0
 71
     0
 72
     0
 40
0.0
170
     2
340
21E
  0
DICTIONARY
  5
6D4
102
{ACAD_REACTORS
330
9
102
}
330
9
100
AcDbDictionary
281
     1
  0
DICTIONARY
  5
E8
102
{ACAD_REACTORS
330
9
102
}
330
9
100
AcDbDictionary
281
     1
  3
CTABLESTYLE
350
E9
  3
DIMASSOC
350
5ED
  3
HIDETEXT
350
5EC
  3
INDEXCTL
350
5EB
  3
PROJECTNAME
350
5EE
  0
DICTIONARY
  5
1B2
102
{ACAD_REACTORS
330
9
102
}
330
9
100
AcDbDictionary
281
     1
  3
AcmStdDictionary
350
1C0
  3
AMDTSECTSYM_ARROWCOLOR
350
1DA
  0
DICTIONARY
  5
F3
102
{ACAD_REACTORS
330
9
102
}
330
9
100
AcDbDictionary
281
     1
  3
AcMgSettings
350
5F7
  0
DICTIONARY
  5
1E9
102
{ACAD_REACTORS
330
9
102
}
330
9
100
AcDbDictionary
281
     1
  0
XRECORD
  5
6D3
102
{ACAD_REACTORS
330
9
102
}
330
9
100
AcDbXrecord
280
     1
  1
DWGPROPS COOKIE
  2

  3

  4

  6

  7

  8

  9

300
AmdtFileType=84
301
=
302
=
303
=
304
=
305
=
306
=
307
=
308
=
309
=
 40
0.3646073032407408
 41
2454805.686441575
 42
2456052.360569294
  1

 90
        1
  0
DICTIONARY
  5
17
102
{ACAD_REACTORS
330
16
102
}
330
16
100
AcDbDictionary
281
     1
  0
DICTIONARY
  5
3A2
102
{ACAD_REACTORS
330
3
102
}
330
3
100
AcDbDictionary
281
     1
  3
*A1
350
3A3
  0
SORTENTSTABLE
  5
4
102
{ACAD_REACTORS
330
3
102
}
330
3
100
AcDbSortentsTable
330
2
  0
SORTENTSTABLE
  5
3A1
102
{ACAD_REACTORS
330
3A0
102
}
330
3A0
100
AcDbSortentsTable
330
E
331
85
  5
87
331
3E
  5
3F
331
AC
  5
AD
331
B4
  5
B5
331
BC
  5
BD
331
C4
  5
C5
331
CC
  5
CD
331
8D
  5
8E
331
95
  5
96
331
D4
  5
D5
331
9D
  5
9E
331
DC
  5
DD
331
E4
  5
E5
331
A5
  5
A6
331
7E
  5
7F
331
37
  5
37
331
3F
  5
40
331
AD
  5
AE
331
39F
  5
3A
331
B5
  5
B6
331
BD
  5
BE
331
C5
  5
C6
331
308
  5
39F
331
CD
  5
CE
331
5F
  5
6C
331
8E
  5
8F
331
D5
  5
D6
331
96
  5
97
331
DD
  5
DE
331
9E
  5
9F
331
A6
  5
A7
331
E5
  5
E6
331
7F
  5
80
331
87
  5
88
331
AE
  5
AF
331
2A1
  5
308
331
B6
  5
B7
331
BE
  5
BF
331
C6
  5
C7
331
40
  5
41
331
CE
  5
CF
331
8F
  5
90
331
97
  5
98
331
D6
  5
D7
331
DE
  5
DF
331
9F
  5
A0
331
E6
  5
E7
331
A7
  5
A8
331
80
  5
83
331
AF
  5
B0
331
B7
  5
B8
331
BF
  5
C0
331
C7
  5
C8
331
41
  5
42
331
88
  5
89
331
CF
  5
D0
331
90
  5
91
331
98
  5
99
331
D7
  5
D8
331
DF
  5
E0
331
A0
  5
A1
331
E7
  5
F1
331
28B
  5
2A1
331
79
  5
7A
331
A8
  5
A9
331
3A
  5
3B
331
B0
  5
B1
331
B8
  5
B9
331
24C
  5
26C
331
C0
  5
C1
331
42
  5
52
331
52
  5
5F
331
C8
  5
C9
331
89
  5
8A
331
D0
  5
D1
331
91
  5
92
331
26C
  5
28B
331
99
  5
9A
331
D8
  5
D9
331
E0
  5
E1
331
A1
  5
A2
331
21D
  5
21E
331
7A
  5
7B
331
A9
  5
AA
331
3B
  5
3C
331
B1
  5
B2
331
B9
  5
BA
331
C1
  5
C4
331
8A
  5
8B
331
C9
  5
CA
331
D1
  5
D2
331
92
  5
93
331
206
  5
21D
331
D9
  5
DA
331
9A
  5
9B
331
21E
  5
220
331
E1
  5
E2
331
A2
  5
A3
331
7B
  5
7C
331
83
  5
84
331
3C
  5
3D
331
AA
  5
AB
331
F1
  5
1F0
331
B2
  5
B3
331
BA
  5
BB
331
CA
  5
CB
331
8B
  5
8C
331
93
  5
94
331
D2
  5
D3
331
9B
  5
9C
331
DA
  5
DB
331
E2
  5
E3
331
A3
  5
A4
331
6C
  5
79
331
7C
  5
7D
331
84
  5
85
331
3D
  5
3E
331
AB
  5
AC
331
1F0
  5
206
331
B3
  5
B4
331
BB
  5
BC
331
8C
  5
8D
331
CB
  5
CC
331
D3
  5
D4
331
94
  5
95
331
DB
  5
DC
331
9C
  5
9D
331
220
  5
24C
331
A4
  5
A5
331
E3
  5
E4
331
7D
  5
7E
  0
XRECORD
  5
6D9
102
{ACAD_REACTORS
330
6D8
102
}
330
6D8
100
AcDbXrecord
280
     1
102
SHADEPLOT
 70
     0
  0
LAYOUT
  5
C
102
{ACAD_XDICTIONARY
360
6D5
102
}
102
{ACAD_REACTORS
330
D
102
}
330
D
100
AcDbPlotSettings
  1

  2
\\NOVIBDC\HPLJ4-TPUB
  4

  6

 40
0.0
 41
0.0
 42
0.0
 43
0.0
 44
0.0
 45
0.0
 46
0.0
 47
0.0
 48
0.0
 49
0.0
140
0.0
141
0.0
142
1.0
143
1.0
 70
  1712
 72
     0
 73
     0
 74
     0
  7

 75
     0
147
1.0
148
0.0
149
0.0
100
AcDbLayout
  1
Model
 70
     1
 71
     0
 10
0.0
 20
0.0
 11
12.0
 21
9.0
 12
0.0
 22
0.0
 32
0.0
 14
0.0
 24
0.0
 34
0.0
 15
0.0
 25
0.0
 35
0.0
146
0.0
 13
0.0
 23
0.0
 33
0.0
 16
1.0
 26
0.0
 36
0.0
 17
0.0
 27
1.0
 37
0.0
 76
     0
330
2
  0
LAYOUT
  5
11
102
{ACAD_XDICTIONARY
360
12
102
}
102
{ACAD_REACTORS
330
D
102
}
330
D
100
AcDbPlotSettings
  1

  2
none_device
  4
ISO_A1_(841.00_x_594.00_MM)
  6

 40
7.5
 41
20.0
 42
7.5
 43
20.0
 44
841.0
 45
594.0
 46
32.10874363031286
 47
0.0
 48
0.0
 49
0.0
140
0.0
141
0.0
142
1.0
143
0.4561704585336626
 70
   692
 72
     1
 73
     0
 74
     1
  7

 75
     0
147
2.192162998047814
148
35.04841640881477
149
23.80739587199383
100
AcDbLayout
  1
配置1
 70
     1
 71
     1
 10
-53.11675515259687
 20
-32.93080504266708
 11
330.5226004742134
 21
238.0344473263285
 12
0.0
 22
0.0
 32
0.0
 14
-35.04841640881477
 24
-23.80739587199383
 34
-0.0025249511851939
 15
312.4542617304312
 25
228.9110381556552
 35
165.5939637624349
146
0.0
 13
0.0
 23
0.0
 33
0.0
 16
1.0
 26
0.0
 36
0.0
 17
0.0
 27
1.0
 37
0.0
 76
     0
330
E
331
F1
1001
ACAD_PSEXT
1000
無
1000
無
1000
不適用
1000
除非另選一新建的繪圖機規劃名稱，否則配置將不會出圖。
1070
     0
  0
MLINESTYLE
  5
34
102
{ACAD_REACTORS
330
2F
102
}
330
2F
100
AcDbMlineStyle
  2
STANDARD
 70
     0
  3

 62
     0
 51
90.0
 52
90.0
 71
     2
 49
0.5
 62
   256
  6
BYLAYER
 49
-0.5
 62
   256
  6
BYLAYER
  0
ACDBPLACEHOLDER
  5
7
102
{ACAD_REACTORS
330
8
102
}
330
8
  0
TABLESTYLE
  5
35
102
{ACAD_REACTORS
330
33
102
}
330
33
100
AcDbTableStyle
  3
Standard
 70
     0
 71
     0
 40
1.5
 41
1.5
280
     0
281
     0
  7
STANDARD
140
4.5
170
     2
 62
     0
 63
     7
283
     0
274
    -2
284
     1
 64
     0
275
    -2
285
     1
 65
     0
276
    -2
286
     1
 66
     0
277
    -2
287
     1
 67
     0
278
    -2
288
     1
 68
     0
279
    -2
289
     1
 69
     0
  7
STANDARD
140
6.0
170
     5
 62
     0
 63
     7
283
     0
274
    -2
284
     1
 64
     0
275
    -2
285
     1
 65
     0
276
    -2
286
     1
 66
     0
277
    -2
287
     1
 67
     0
278
    -2
288
     1
 68
     0
279
    -2
289
     1
 69
     0
  7
STANDARD
140
4.5
170
     5
 62
     0
 63
     7
283
     0
274
    -2
284
     1
 64
     0
275
    -2
285
     1
 65
     0
276
    -2
286
     1
 66
     0
277
    -2
287
     1
 67
     0
278
    -2
288
     1
 68
     0
279
    -2
289
     1
 69
     0
  0
DICTIONARYVAR
  5
E9
102
{ACAD_REACTORS
330
E8
102
}
330
E8
100
DictionaryVariables
280
     0
  1
STANDARD
  0
DICTIONARYVAR
  5
5ED
102
{ACAD_REACTORS
330
E8
102
}
330
E8
100
DictionaryVariables
280
     0
  1
1
  0
DICTIONARYVAR
  5
5EC
102
{ACAD_REACTORS
330
E8
102
}
330
E8
100
DictionaryVariables
280
     0
  1
1
  0
DICTIONARYVAR
  5
5EB
102
{ACAD_REACTORS
330
E8
102
}
330
E8
100
DictionaryVariables
280
     0
  1
1
  0
DICTIONARYVAR
  5
5EE
102
{ACAD_REACTORS
330
E8
102
}
330
E8
100
DictionaryVariables
280
     0
  1

  0
DICTIONARY
  5
1C0
102
{ACAD_REACTORS
330
1B2
102
}
330
1B2
100
AcDbDictionary
281
     1
  0
XRECORD
  5
1DA
102
{ACAD_REACTORS
330
1B2
102
}
330
1B2
100
AcDbXrecord
280
     1
 90
-1023410169
  0
DICTIONARY
  5
5F7
102
{ACAD_REACTORS
330
F3
102
}
330
F3
100
AcDbDictionary
281
     1
  3
DWGSETTINGS
350
5F8
  3
TRANSSETTINGS
350
5F9
  0
LAYER_INDEX
  5
3A3
102
{ACAD_REACTORS
330
3A2
102
}
330
3A2
100
AcDbIndex
 40
2456052.360569294
100
AcDbLayerIndex
  8
0
360
5DC
 90
        0
  8
Defpoints
360
5DD
 90
        0
  8
AM_VIS
360
5DE
 90
        0
  8
AM_HID
360
5DF
 90
        0
  8
AM_7
360
5E0
 90
        0
  8
AM_4
360
5E1
 90
        0
  8
AM_REFDIM
360
5E2
 90
        0
  8
LOGO
360
5E3
 90
        0
  0
DICTIONARY
  5
6D5
330
C
100
AcDbDictionary
280
     1
281
     1
  3
ACAD_XREC_ROUNDTRIP
360
6D6
  0
DICTIONARY
  5
12
330
11
100
AcDbDictionary
280
     1
281
     1
  3
ACAD_XREC_ROUNDTRIP
360
6D7
  3
ADSK_XREC_LAYOUTTHUMBNAIL
360
13
  0
IDBUFFER
  5
5DC
330
0
100
AcDbIdBuffer
  0
IDBUFFER
  5
5DD
330
0
100
AcDbIdBuffer
  0
IDBUFFER
  5
5DE
330
0
100
AcDbIdBuffer
  0
IDBUFFER
  5
5DF
330
0
100
AcDbIdBuffer
  0
IDBUFFER
  5
5E0
330
0
100
AcDbIdBuffer
  0
IDBUFFER
  5
5E1
330
0
100
AcDbIdBuffer
  0
IDBUFFER
  5
5E2
330
0
100
AcDbIdBuffer
  0
IDBUFFER
  5
5E3
330
0
100
AcDbIdBuffer
  0
XRECORD
  5
6D6
102
{ACAD_REACTORS
330
6D5
102
}
330
6D5
100
AcDbXrecord
280
     1
102
SHADEPLOT
 70
     0
102
SHADEPLOTRESLEVEL
 70
     2
102
SHADEPLOTCUSTOMDPI
 70
   300
  0
XRECORD
  5
6D7
102
{ACAD_REACTORS
330
12
102
}
330
12
100
AcDbXrecord
280
     1
102
SHADEPLOT
 70
     0
102
SHADEPLOTRESLEVEL
 70
     2
102
SHADEPLOTCUSTOMDPI
 70
   300
  0
XRECORD
  5
13
102
{ACAD_REACTORS
330
12
102
}
330
12
100
AcDbXrecord
280
     1
310
28000000B40000007F00000001000800000000004C590000000000000000000000010000000000000000000000000000FFFFFF000000000000000000000000000000000000000000000000000000000000000000330000006600000099000000CC000000FF00000000330000333300006633000099330000CC330000FF3300
310
0000660000336600006666000099660000CC660000FF66000000990000339900006699000099990000CC990000FF99000000CC000033CC000066CC000099CC0000CCCC0000FFCC000000FF000033FF000066FF000099FF0000CCFF0000FFFF000000003300330033006600330099003300CC003300FF003300003333003333
310
33006633330099333300CC333300FF33330000663300336633006666330099663300CC663300FF66330000993300339933006699330099993300CC993300FF99330000CC330033CC330066CC330099CC3300CCCC3300FFCC330000FF330033FF330066FF330099FF3300CCFF3300FFFF330000006600330066006600660099
310
006600CC006600FF00660000336600333366006633660099336600CC336600FF33660000666600336666006666660099666600CC666600FF66660000996600339966006699660099996600CC996600FF99660000CC660033CC660066CC660099CC6600CCCC6600FFCC660000FF660033FF660066FF660099FF6600CCFF6600
310
FFFF660000009900330099006600990099009900CC009900FF00990000339900333399006633990099339900CC339900FF33990000669900336699006666990099669900CC669900FF66990000999900339999006699990099999900CC999900FF99990000CC990033CC990066CC990099CC9900CCCC9900FFCC990000FF99
310
0033FF990066FF990099FF9900CCFF9900FFFF99000000CC003300CC006600CC009900CC00CC00CC00FF00CC000033CC003333CC006633CC009933CC00CC33CC00FF33CC000066CC003366CC006666CC009966CC00CC66CC00FF66CC000099CC003399CC006699CC009999CC00CC99CC00FF99CC0000CCCC0033CCCC0066CC
310
CC0099CCCC00CCCCCC00FFCCCC0000FFCC0033FFCC0066FFCC0099FFCC00CCFFCC00FFFFCC000000FF003300FF006600FF009900FF00CC00FF00FF00FF000033FF003333FF006633FF009933FF00CC33FF00FF33FF000066FF003366FF006666FF009966FF00CC66FF00FF66FF000099FF003399FF006699FF009999FF00CC
310
99FF00FF99FF0000CCFF0033CCFF0066CCFF0099CCFF00CCCCFF00FFCCFF0000FFFF0033FFFF0066FFFF0099FFFF00CCFFFF00FFFFFF00000000000D0D0D001A1A1A00282828003535350043434300505050005D5D5D006B6B6B00787878008686860093939300A1A1A100AEAEAE00BBBBBB00C9C9C900D6D6D600E4E4E400
310
F1F1F100FFFFFF0000000000000000000000000000000000000000000000000000000000000000000000000000000000F5F5F5F5F5F5F5F5F5F5F5F5F5F5F5F5F5F5F5F5F5F5F5F5F5F5F5F5F5F5F5F5F5F5F5F5F5F5F5F5F5F5F5F5F5F5F5F5F5F5F5F5F5F5F5F5F5F5F5F5F5F5F5F5F5F5F5F5F5F5F5F5F5F5F5F5F5F5F5
310
F5F5F5F5F5F5F5F5F5F5F5F5F5F5F5F5F5F5F5F5F5F5F5F5F5F5F5F5F5F5F5F5F5F5F5F5F5F5F5F5F5F5F5F5F5F5F5F5F5F5F5F5F5F5F5F5F5F5F5F5F5F5F5F5F5F5F5F5F5F5F5F5F5F5F5F5F5F5F5F5F5F5F5F5F5F5F5F5F5F5F5F5F5F5F5F5F5F5F5F5F5F5E2E2E2E2E2E2E2E2E2E2E2E2E2E2E2E2E2E2E2E2E2E2E2E2E2
310
E2E2E2E2E2E2E2E2E2E2E2E2E2E2E2E2E2E2E2E2E2E2E2E2E2E2E2E2E2E2E2E2E2E2E2E2E2E2E2E2E2E2E2E2E2E2E2E2E2E2E2E2E2E2E2E2E2E2E2E2E2E2E2E2E2E2E2E2E2E2E2E2E2E2E2E2E2E2E2E2E2E2E2E2E2E2E2E2E2E2E2E2E2E2E2E2E2E2E2E2E2E2E2E2E2E2E2E2E2E2E2E2E2E2E2E2E2E2E2E2E2E2E2E2E2E2E2
310
E2E2E2E2E2E2E2E2E2E2E2E2E2E2E2E2E2E2E2E2E2E2E2E2E2F5F5F5E2E2E2E2E2E2E2E2E2E2E2E2E2E2E2E2E2E2E2E2E2E2E2E2E2E2E2E2E2E2E2E2E2E2E2E2E2E2E2E2E2E2E2E2E2E2E2E2E2E2E2E2E2E2E2E2E2E2E2E2E2E2E2E2E2E2E2E2E2E2E2E2E2E2E2E2E2E2E2E2E2E2E2E2E2E2E2E2E2E2E2E2E2E2E2E2E2E2E2
310
E2E2E2E2E2E2E2E2E2E2E2E2E2E2E2E2E2E2E2E2E2E2E2E2E2E2E2E2E2E2E2E2E2E2E2E2E2E2E2E2E2E2E2E2E2E2E2E2E2E2E2E2E2E2E2E2E2E2E2E2E2E2E2E2E2E2E2E2E2E2E2E2E2E2E2E2E2E2F5F5F5E2E2E2E2E2E2E2E2E2E2E2E2E2E2E2E2E2E2E2E2E2E2E2E2E2E2E2E2E2E2E2E2E2E2E2E2E2E2E2E2E2E2E2E2E2E2
310
E2E2E2E2E2E2E2E2E2E2E2E2E2E2E2E2E2E2E2E2E2E2E2E2E2E2E2E2E2E2E2E2E2E2E2E2E2E2E2E2E2E2E2E2E2E2E2E2E2E2E2E2E2E2E2E2E2E2E2E2E2E2E2E2E2E2E2E2E2E2E2E2E2E2E2E2E2E2E2E2E2E2E2E2E2E2E2E2E2E2E2E2E2E2E2E2E2E2E2E2E2E2E2E2E2E2E2E2E2E2E2E2E2E2E2E2E2E2E2E2E2E2E2E2E2E2E2
310
E2E2E2E2F5F5F5E2F5F5F5F5F5F5F52D2D2D2D2D2D2D2D2D2D2D2D2D2D2D2D2D2D2D2D2D2D2D2D2D2D2D2D2D2D2D2D2D2D2D2D2D2D2D2D2D2D2D2D2D2D2D2D2D2D2D2D2D2D2D2D2D2D2D2D2D2D2D2D2D2D2D2D2D2D2D2D2D2D2D2D2D2D2D2D2D2D2D2D2D2D2D2D2D2D2D2D2D2D2D2D2D2D2D2D2D2D2D2D2D2D2D2D2D2D2D2D
310
2D2D2D2D2D2D2D2D2D2D2D2D2D2D2D2D2D2D2D2D2D2D2D2D2D2D2D2D2D2D2D2D2D2D2D2D2D2D2D2D2D2D2D2D2D2D2D2D2DF5F5F5F5F5F5F5E2F5F5F5E2F5E2E2E2E2E2E22DF5F5F5F5F5F5F5F5F5F5F5F5F5F5F5F5F5F5F5F5E2F5F5F52DF5F5F5F5F5F52DE2E2E2E2E2E2E2E2E2E2E22D2D2D2D2D2D2D2D2DE2E2E2E2E2E2
310
E2E2E2E2E2E2E2E2E2E2E2E2E2E2E2E2E2E2E2E2E2E2E2E2E2E2E2E2E2E2E2E2E2E2E2E2E2E2E2E2E2E2E2E2E2E2E2E2E2E2E2E2E2E2E2E2E2E2E2E2E2E2E2E2E2E2E2E2E2E2E2E2E2E2E2E2E2E2E2E2E2E2E2E2E2E2E2E2E2E2E2E2E2E2E2E2E2E2E2E2E22DE2E2E2E2E2E2F5E2F5F5F5E2F5E2E2E2E2E2E22DF5F5F5F5F5
310
F5F5F5F5F5F5F5F5F5F5F5E2F5F5F5E2F5F5F52DF5F5F5F5F5F52DE2E2E2E2E2E2E2E2E2E2E22DE2E2F5F5F5F5E22DE2E2E2E2E2E2E2E2E2E2E2E2E2E2E2E2E2E2E2E2E2E2E2E2E2E2E2E2E2E2E2E2E2E2E2E2E2E2E2E2E2E2E2E2E2E2E2E2E2E2E2E2E2E2E2E2E2E2E2E2E2E2E2E2E2E2E2E2E2E2E2E2E2E2E2E2E2E2E2E2
310
E2E2E2E2E2E2E2E2E2E2E2E2E2E2E2E2E2E2E2E2E2E2E2E2E2E2E22DE2E2E2E2E2E2F5E2F5F5F5E2F5E2E2E2E2E2E22DE2E2E2F5F5F5F5F5F5F5F5F5F5F5F5F5F5F5F5F5F5E2E2E22D2D2D2D2D2D2D2DE2E2E2E2E2E2E2E2E2E2E22DE2E2F5F5F5F5E22DE2E2E2E2E2E2E2E2E2E2E2E2E2E2E2E2E2E2E2E2E2E2E2E2E2E2E2
310
E2E2E2E2E2E2E2E2E2E2E2E2E2E2E2E2E2E2E2E2E2E2E2E2E2E2E2E2E2E2E2E2E2E2E2E2E2E2E2E2E2E2E2E2E2E2E2E2E2E2E2E2E2E2E2E2E2E2E2E2E2E2E2E2E2E2E2E2E2E2E2E2E2E2E2E2E2E2E2E22DE2E2E2E2E2E2F5E2F5F5F5E2F5E2E2E2E2E2E22DE2E2E2F5F5F5F5F5F5F5F5F5F5F5F5F5F5F5F5F5F5E2E2E22DE2
310
E2E2E2E2E2E2E2E2E2E2E2E2E2E2E2E2E22DE2E2F5F5F5F5E22DE2E2E2E2E2E2E2E2E2E2E2E2E2E2E2E2E2E2E2E2E2E2E2E2E2E2E2E2E2E2E2E2E2E2E2E2E2E2E2E2E2E2E2E2E2E2E2E2E2E2E2E2E2E2E2E2E2E2E2E2E2E2E2E2E2E2E2E2E2E2E2E2E2E2E2E2E2E2E2E2E2E2E2E2E2E2E2E2E2E2E2E2E2E2E2E2E2E2E2E2E2
310
E2E2E2E2E2E22DE2E2E2E2E2E2F5E2F5F5F5E2F5E2E2E2E2E2E22D0F0F0F0F0F0F0F2D2D2D2D2D2D2D2D2D2D2D2D2D2D2D2D2D2DE2E2E2E2E2E2E2E2E2E2E2E2E2E2E2E2E2E22DE2E2F5F5F5F5E22DE2E2E2E2E2E2E2E2E2E2E2E2E2E2E2E2E2E2E2E2E2E2E2E2E2E2E2E2E2E2E2E2E2E2E2E2E2E2E2E2E2E2E2E2E2E2E2E2
310
E2E2E2E2E2E2E2E2E2E2E2E2E2E2E2E2E2E2E2E2E2E2E2E2E2E2E2E2E2E2E2E2E2E2E2E2E2E2E2E2E2E2E2E2E2E2E2E2E2E2E2E2E2E2E2E2E2E2E22DE2E2E2E2E2E2F5E2F5F5F5E2F5E2E2E2E2E2E22D0F0F0F0F0F0F0F2DF5F5F5E2F5F5F5F5F52DE2F5F5F5F5E22DE2E2E2E2E2E2E2E2E2E2E2E2E2E2E2E2E2E22D2D2D2D
310
2D2D2D2D2DE2E2E2E2E2E2E2E2E2E2E2E2E2E2E2E2E2E2E2E2E2E2E2E2E2E2E2E2E2E2E2E2E2E2E2E2E2E2E2E2E2E2E2E2E2E2E2E2E2E2E2E2E2E2E2E2E2E2E2E2E2E2E2E2E2E2E2E2E2E2E2E2E2E2E2E2E2E2E2E2E2E2E2E2E2E2E2E2E2E2E2E2E2E2E2E2E2E2E2E2E2E2E2E2E2E2E22DE2E2E2E2E2E2F5E2F5F5F5E2F5E2
310
E2E2E2E2E22D0F0FE2DC0F0FDC2DE2F5F5E2F5F5F5F5F52DE2F5F5F5F5E22DF5F5F5F5F5E2F5F5F5F5F5F5F5F5F5E2E2E2E2E2E2E2E22DE2E2E2E2E2E2E2E2E2E2E2E2E2E2E2E2E2E2E2E2E2E2E2E2E2E2E2E2E2E2E2E2E2E2E2E2E2E2E2E2E2E2E2E2E2E2E2E2E2E2E2E2E2E2E2E2E2E2E2E2E2E2E2E2E2E2E2E2E2E2E2E2
310
E2E2E2E2E2E2E2E2E2E2E2E2E2E2E2E2E2E2E2E2E2E2E2E2E2E2E2E2E2E2E2E2E2E2E2E2E2E22DE2E2E2E2E2E2F5E2F5F5F5E2E2E2E2E2E2E2E22DE2DC0F0FDC0FDC2DF5F5F52D2DF5F5F5F52DF5F52DF5F5F52DF5F5F5F5F5F5F5F5F5F5F5F5F5F5F5E22DF52DF5F5F5F52D2DF5F5F5F5F5E2E2E2E2E2E2E2E2E2E2E2E2E2
310
E2E2E2E2E2E2E2E2E2E2E2E2E2E2E2E2E2E2E2E2E2E2E2E2E2E2E2E2E2E2E2E2E2E2E2E2E2E2E2E2E2E2E2E2E2E2E2E2E2E2E2E2E2E2E2E2E2E2E2E2E2E2E2E2E2E2E2E2E2E2E2E2E2E2E2E2E2E2E2E2E2E2E2E2E2E2E2E2E2E2E22DE2E2E2E2E2E2E2E2F5F5F5E2E2E2E2E2E2E2E22DE20FDCDCDC0FDC2DF5F5F5E2F5F5F5
310
F5F52DF5F5F5F5F5F52DF5F5F5F5F5F5F5F5F5F5F5E2F5E2E2E22DF5F5F5F5F5F5F5F5F5F5E2F52DE2E2E2E2E2E2E2E2E2E2E2E2E2E2E2E2E2E2E2E2E2E2E2E2E2E2E2E2E2E2E2E2E2E2E2E2E2E2E2E2E2E2E2E2E2E2E2E2E2E2E2E2E2E2E2E2E2E2E2E2E2E2E2E2E2E2E2E2E2E2E2E2E2E2E2E2E2E2E2E2E2E2E2E2E2E2E2
310
E2E2E2E2E2E2E2E2E2E2E2E2E2E2E2E2E22DE2E2E2E2E2E2E2E2F5F5F5E2E2E2E2E2E2E2E22DE2E2DCDC0FDCDC2DF5F5F5F5F5F5F5F5F52D2DF5F52D2DF52DE2F5F5F5F5F5F5F5F5F5F5F5E2E2E2E22DF5F5F5F5F5F5E2E2E2F5F5F5F5E2E2E2E2E2E2E2E2E2E2E2E2E2E2E2E2E2E2E2E2E2E2E2E2E2E2E2E2E2E2E2E2E2E2
310
E2E2E2E2E2E2E2E2E2E2E2E2E2E2E2E2E2E2E2E2E2E2E2E2E2E2E2E2E2E2E2E2E2E2E2E2E2E2E2E2E2E2E2E2E2E2E2E2E2E2E2E2E2E2E2E2E2E2E2E2E2E2E2E2E2E2E2E2E2E22DE2E2E2E2E2E2E2E2F5F5F5E2E2E2E2E2E2E2E22DE2E20FDC0FDC0F2DF5F5F5F5F5F5F5F5F52DF5F5F5E2F5F52DF5F5F5F5F5F5F5F5F5F5F5
310
F5E2E2E2E22D2D2D2D2D2D2D2D2D2D2D2D2D2DE2E2E2E2E2E2E2E2E2E2E2E2E2E2E2E2E2E2E2E2E2E2E2E2E2E2E2E2E2E2E2E2E2E2E2E2E2E2E2E2E2E2E2E2E2E2E2E2E2E2E2E2E2E2E2E2E2E2E2E2E2E2E2E2E2E2E2E2E2E2E2E2E2E2E2E2E2E2E2E2E2E2E2E2E2E2E2E2E2E2E2E2E2E2E2E2E2E2E2E2E2E2E2E22DE2E2E2
310
E2E2E2E2E2F5F5F5E2E2E2E2E2E2E2E22D2D2D2D2D2D2D2D2D2D2D2D2D2D2D2D2D2D2D2D2D2D2D2D2D2D2D2D2D2D2D2D2D2D2D2D2D2D2D2D2D2D2D2D2D2D2D2D2D2D2D2D2D2D2D2D2D2D2D2D2D2D2D2D2D2D2D2D2D2D2D2D2D2D2D2D2D2D2D2D2D2D2D2D2D2D2D2D2D2D2D2D2D2D2D2D2D2D2D2D2D2D2D2D2D2D2D2D2D2D2D
310
2D2D2D2D2D2D2D2D2D2D2D2D2D2D2D2D2D2D2D2D2D2D2D2D2D2D2D2D2D2D2D2D2D2D2D2D2D2D2D2D2D2D2D2D2D2D2D2D2D2DE2E2E2E2E2E2E2E2F5F5F5E2E2E2E2E2E2E2E22DE2E2E2E2E2E2E2E2E2E2E2E2E2E2E2E2E2E2E2E2E2E2E2E2E2E2E2E2E2E2E2E2E2E2E2E2E2E2E2E2E2E2E2E2E2E2E2E2E2E2E2E2E2E2E2E2E2
310
E2E2E2E2E2E2E2E2E2E2E2E2E2E2E2E2E2E2E2E2E2E2E2E2E2E2E2E2E2E2E2E2E2E2E2E2E2E2E2E2E2E2E2E2E2E2E2E2E2E2E2E2E2E2E2E2E2E2E2E2E2E2E2E2E2E2E2E2E2E2E2E2E2E2E2E2E2E2E2E2E2E2E2E2E2E2E2E2E2E2E2E2E2E2E2E2E2E2E2E2E2E22DE2E2E2E2E2E2E2E2F5F5F5E2E2E2E2E2E2E2E22DE2E2E2E2
310
E2E2E2E2E2E2E2E2E2E2E2E2E2E2E2E2E2E2E2E2E2E2E2E2E2E2E2E2E2E2E2E2E2E2E2E2E2E2E2E2E2E2E2E2E2E2E2E2E2E2E2E2E2E2E2E2E2E2E2E2E2E2E2E2E2E2E2E2E2E2E2E2E2E2E2E2E2E2E2E2E2E2E2E2E2E2E2E2E2E2E2E2E2E2E2E2E2E2E2E2E2E2E2E2E2E2E2E2E2E2E2E2E2E2E2E2E2E2E2E2E2E2E2E2E2E2E2
310
E2E2E2E2E2E2E2E2E2E2E2E2E2E2E2E2E2E2E2E2E2E2E2E2E2E2E2E22DE2E2E2E2E2E2E2E2F5F5F5E2E2E2E2E2E2E2E22DE2E2E2E2E2E2E2E2E2E2E2E2E2E2E2E2E2E2E2E2E2E2E2E2E2E2E2E2E2E2E2E2E2E2E2E2E2E2E2E2E2E2E2E2E2E2E2E2E2E2E2E2E2E2E2E2E2E2E2E2E2E2E2E2E2E2E2E2E2E2E2E2E2E2E2E2E2E2
310
E2E2E2E2E2E2E2E2E2E2E2E2E2E2E2E2E2E2E2E2E2E2E2E2E2E2E2E2E2E2E2E2E2E2E2E2E2E2E2E2E2E2E2E2E2E2E2E2E2E2E2E2E2E2E2E2E2E2E2E2E2E2E2E2E2E2E2E2E2E2E2E2E2E2E2E2E2E2E2E2E22DE2E2E2E2E2E2E2E2F5F5F5E2E2E2E2E2E2E2E22DE2E2E2E2E2E2E2E2E2E2E2E2E2E2E2E2E2E2E2E2E2E2E2E2E2
310
E2E2E2E2E2E2E2E2E2E2E2E2E2E2E2E2E2E2E2E2E2E2E2E2E2E2E2E2E2E2E2E2E2E2E2E2E2E2E2E2E2E2E2E2E2E2E2E2E2E2E2E2E2E2E2E2E2E2E2E2E2E2E2E2E2E2E2E2E2E2E2E2E2E2E2E2E2E2E2E2E2E2E2E2E2E2E2E2E2E2E2E2E2E2E2E2E2E2E2E2E2E2E2E2E2E2E2E2E2E2E2E2E2E2E2E2E2E2E2E2E2E2E2E2E2E2E2
310
E2E2E2E2E2E2E22DE2E2E2E2E2E2E2E2F5F5F5E2F5E2E2E2E2E2E22DE2E2E2E2E2E2E2E2E2E2E2E2E2E2E2E2E2E2E2E2E2E2E2E2E2E2E2E2E2E2E2E2E2E2E2E2E2E2E2E2E2E2E2E2E2E2E2E2E2E2E2E2E2E2E2E2E2E2E2E2E2E2E2E2E2E2E2E2E2E2E2E2E2E2E2E2E2E2E2E2E2E2E2E2E2E2E2E2E2E2E2E2E2E2E2E2E2E2E2
310
E2E2E2E2E2E2E2E2E2E2E2E2E2E2E2E2E2E2E2E2E2E2E2E2E2E2E2E2E2E2E2E2E2E2E2E2E2E2E2E2E2E2E2E2E2E2E2E2E2E2E2E2E2E2E2E2E2E2E2E22DE2E2E2E2E2E2F5E2F5F5F5E2F5E2E2E2E2E2E22DE2E2E2E2E2E2E2E2E2E2E2E2E2E2E2E2E2E2E2E2E2E2E2E2E2E2E2E2E2E2E2E2E2E2E2E2E2E2E2E2E2E2E2E2E2E2
310
E2E2E2E2E2E2E2E2E2E2E2E2E2E2E2E2E2E2E2E2E2E2E2E2E2E2E2E2E2E2E2E2E2E2E2E2E2E2E2E2E2E2E2E2E2E2E2E2E2E2E2E2E2E2E2E2E2E2E2E2E2E2E2E2E2E2E2E2E2E2E2E2E2E2E2E2E2E2E2E2E2E2E2E2E2E2E2E2E2E2E2E2E2E2E2E2E2E2E2E2E2E2E2E2E2E2E2E2E2E2E2E2E22DE2E2E2E2E2E2F5E2F5F5F5E2F5
310
E2E2E2E2E2E22DE2E2E2E2E2E2E2E2E2E2E2E2E2E2E2E2E2E2E2E2E2E2E2E2E2E2E2E2E2E2E2E2E2E2E2E2E2E2E2E2E2E2E2E2E2E2E2E2E2E2E2E2E2E2E2E2E2E2E2E2E2E2E2E2E2E2E2E2E2E2E2E2E2E2E2E2E2E2E2E2E2E2E2E2E2E2E2E2E2E2E2E2E2E2E2E2E2E2E2E2E2E2E2E2E2E2E2E2E2E2E2E2E2E2E2E2E2E2E2E2
310
E2E2E2E2E2E2E2E2E2E2E2E2E2E2E2E2E2E2E2E2E2E2E2E2E2E2E2E2E2E2E2E2E2E2E2E2E2E2E22DE2E2E2E2E2E2F5E2F5F5F5E2F5E2E2E2E2E2E22DE2E2E2E2E2E2E2E2E2E2E2E2E2E2E2E2E2E2E2E2E2E2E2E2E2E2E2E2E2E2E2E2E2E2E2E2E2E2E2E2E2E2E2E2E2E2E2E2E2E2E2E2E2E2E2E2E2E2E2E2E2E2E2E2E2E2E2
310
E2E2E2E2E2E2E2E2E2E2E2E2E2E2E2E2E2E2E2E2E2E2E2E2E2E2E2E2E2E2E2E2E2E2E2E2E2E2E2E2E2E2E2E2E2E2E2E2E2E2E2E2E2E2E2E2E2E2E2E2E2E2E2E2E2E2E2E2E2E2E2E2E2E2E2E2E2E2E2E2E2E2E2E2E2E2E2E2E2E2E2E22DE2E2E2E2E2E2F5E2F5F5F5E2F5E2E2E2E2E2E22DE2E2E2E2E2E2E2E2E2E2E2E2E2E2
310
E2E2E2E2E2E2E2E2E2E2E2E2E2E2E2E2E2E2E2E2E2E2E2E2E2E2E2E2E2E2E2E2E2E2E2E2E2E2E2E2E2E2E2E2E2E2E2E2E2E2E2E2E2E2E2E2E2E2E2E2E2E2E2E2E2E2E2E2E2E2E2E2E2E2E2E2E2E2E2E2E2E2E2E2E2E2E2E2E2E2E2E2E2E2E2E2E2E2E2E2E2E2E2E2E2E2E2E2E2E2E2E2E2E2E2E2E2E2E2E2E2E2E2E2E2E2E2
310
E2E2E2E2E2E2E2E2E2E2E2E2E2E2E2E2E2E22DE2E2E2E2E2E2F5E2F5F5F5E2F5E2E2E2E2E2E22DE2E2E2E2E2E2E2E2E2E2E2E2E2E2E2E2E2E2E2E2E2E2E2E2E2E2E2E2E2E2E2E2E2E2E2E2E2E2E2E2E2E2E2E2E2E2E2E2E2E2E2E2E2E2E2E2E2E2E2E2E2E2E2E2E2E2E2E2E2E2E2E2E2E2E2E2E2E2E2E2E2E2E2E2E2E2E2E2
310
E2E2E2E2E2E2E2E2E2E2E2E2E2E2E2E2E2E2E2E2E2E2E2E2E2E2E2E2E2E2E2E2E2E2E2E2E2E2E2E2E2E2E2E2E2E2E2E2E2E2E2E2E2E2E2E2E2E2E2E2E2E2E2E2E2E2E2E2E2E2E22DE2E2E2E2E2E2F5E2F5F5F5E2F5E2E2E2E2E2E22DE2E2E2E2E2E2E2E2E2E2E2E2E2E2E2E2E2E2E2E2E2E2E2E2E2E2E2E2E2E2E2E2E2E2E2
310
E2E2E2E2E2E2E2E2E2E2E2E2E2E2E2E2E2E2E2E2E2E2E2E2E2E2E2E2E2E2E2E2E2E2E2E2E2E2E2E2E2E2E2E2E2E2E2E2E2E2E2E2E2E2E2E2E2E2E2E2E2E2E2E2E2E2E2E2E2E2E2E2E2E2E2E2E2E2E2E2E2E2E2E2E2E2E2E2E2E2E2E2E2E2E2E2E2E2E2E2E2E2E2E2E2E2E2E2E2E2E2E2E2E2E2E2E2E2E2E2E2E2E2E22DE2E2
310
E2E2E2E2F5E2F5F5F5E2F5E2E2E2E2E2E22DE2E2E2E2E2E2E2E2E2E2E2E2E2E2E2E2E2E2E2E2E2E2E2E2E2E2E2E2E2E2E2E2E2E2E2E2E2E2E2E2E2E2E2E2E2E2E2E2E2E2E2E2E2E2E2E2E2E2E2E2E2E2E2E2E2E2E2E2E2E2E2E2E2E2E2E2E2E2E2E2E2E2E2E2E2E2E2E2E2E2E2E2E2E2E2E2E2E2E2E2E2E2E2E2E2E2E2E2E2
310
E2E2E2E2E2E2E2E2E2E2E2E2E2E2E2E2E2E2E2E2E2E2E2E2E2E2E2E2E2E2E2E2E2E2E2E2E2E2E2E2E2E2E2E2E2E2E2E2E2E22DE2E2E2E2E2E2F5E2F5F5F5E2F5E2E2E2E2E2E22DE2E2E2E2E2E2E2E2E2E2E2E2E2E2E2E2E2E2E2E2E2E2E2E2E2E2E2E2E2E2E2E2E2E2E2E2E2E2E2E2E2E2E2E2E2E2E2E2E2E2E2E2E2E2E2E2
310
E2E2E2E2E2E2E2E2E2E2E2E2E2E2E2E2E2E2E2E2E2E2E2E2E2E2E2E2E2E2E2E2E2E2E2E2E2E2E2E2E2E2E2E2E2E2E2E2E2E2E2E2E2E2E2E2E2E2E2E2E2E2E2E2E2E2E2E2E2E2E2E2E2E2E2E2E2E2E2E2E2E2E2E2E2E2E2E2E2E2E2E2E2E2E2E2E2E2E2E2E2E2E22DE2E2E2E2E2E2F5E2F5F5F5E2F5E2E2E2E2E2E22DE2E2E2
310
E2E2E2E2E2E2E2E2E2E2E2E2E2E2E2E2E2E2E2E2E2E2E2E2E2E2E2E2E2E2E2E2E2E2E2E2E2E2E2E2E2E2E2E2E2E2E2E2E2E2E2E2E2E2E2E2E2E2E2E2E2E2E2E2E2E2E2E2E2E2E2E2E2E2E2E2E2E2E2E2E2E2E2E2E2E2E2E2E2E2E2E2E2E2E2E2E2E2E2E2E2E2E2E2E2E2E2E2E2E2E2E2E2E2E2E2E2E2E2E2E2E2E2E2E2E2E2
310
E2E2E2E2E2E2E2E2E2E2E2E2E2E2E2E2E2E2E2E2E2E2E2E2E2E2E2E2E22DE2E2E2E2E2E2F5E2F5F5F5E2F5E2E2E2E2E2E22DE2E2E2E2E2E2E2E2E2E2E2E2E2E2E2E2E2E2E2E2E2E2E2E2E2E2E2E2E2E2E2E2E2E2E2E2E2E2E2E2E2E2E2E2E2E2E2E2E2E2E2E2E2E2E2E2E2E2E2E2E2E2E2E2E2E2E2E2E2E2E2E2E2E2E2E2E2
310
E2E2E2E2E2E2E2E2E2E2E2E2E2E2E2E2E2E2E2E2E2E2E2E2E2E2E2E2E2E2E2E2E2E2E2E2E2E2E2E2E2E2E2E2E2E2E2E2E2E2E2E2E2E2E2E2E2E2E2E2E2E2E2E2E2E2E2E2E2E2E2E2E2E2E2E2E2E2E2E2E2E22DE2E2E2E2E2E2F5E2F5F5F5E2F5E2E2E2E2E2E22DE2E2E2E2E2E2E2E2E2E2E2E2E2E2E2E2E2E2E2E2E2E2E2E2
310
E2E2E2E2E2E2E2E2E2E2E2E2E2E2E2E2E2E2E2E2E2E2E2E2E2E2E2E2E2E2E2E2E2E2E2E2E2E2E2E2E2E2E2E2E2E2E2E2E2E2E2E2E2E2E2E2E2E2E2E2E2E2E2E2E2E2E2E2E2E2E2E2E2E2E2E2E2E2E2E2E2E2E2E2E2E2E2E2E2E2E2E2E2E2E2E2E2E2E2E2E2E2E2E2E2E2E2E2E2E2E2E2E2E2E2E2E2E2E2E2E2E2E2E2E2E2E2
310
E2E2E2E2E2E2E2E22DE2E2E2E2E2E2F5E2F5F5F5E2F5E2E2E2E2E2E22DE2E2E2E2E2E2E2E2E2E2E2E2E2E2E2E2E2E2E2E2E2E2E2E2E2E2E2E2E2E2E2E2E2E2E2E2E2E2E2E2E2E2E2E2E2E2E2E2E2E2E2E2E2E2E2E2E2E2E2E2E2E2E2E2E2E2E2E2E2E2E2E2E2E2E2E2E2E2E2E2E2E2E2E2E2E2E2E2E2E2E2E2E2E2E2E2E2E2
310
E2E2E2E2E2E2E2E2E2E2E2E2E2E2E2E2E2E2E2E2E2E2E2E2E2E2E2E2E2E2E2E2E2E2E2E2E2E2E2E2E2E2E2E2E2E2E2E2E2E2E2E2E2E2E2E2E2E2E2E2E22DE2E2E2E2E2E2F5E2F5F5F5E2F5E2E2E2E2E2E22DE2E2E2E2E2E2E2E2E2E2E2E2E2E2E2E2E2E2E2E2E2E2E2E2E2E2E2E2E2E2E2E2E2E2E2E2E2E2E2E2E2E2E2E2E2
310
E2E2E20FE20FE2E2E2E2E2E2E2E2E2E2E2E2E20F0FE2E2E2E2E2E2E2E2E2E2E2E2E2E2E2E2E2E2E2E2E2E2E2E2E2E2E2E20F0FE2E2E2E2E2E2E2E2E2E2E20FE20FE2E2E2E2E2E2E2E2E2E2E2E2E2E2E2E2E2E2E2E2E2E2E2E2E2E2E2E2E2E2E2E2E2E2E2E2E2E2E2E2E2E2E2E2E2E2E2E2E22DE2E2E2E2E2E2F5E2F5F5F5E2
310
F5E2E2E2E2E2E22DE2E2E2E2E2E2E2E2E2E2E2E2E2E2E2E2E2E2E2E2E2E2E2E2E2E2E2E2E2E2E2E2E2E2E2E2E2E2E2E2E2E2E2E2E2E2E2E20F0F0F0F0F0F0F0F0F0F0F0F0F0F0F0F0F0FE2E2E2E2E2E2E2E2E2E2E2E2E2E2E2E2E2E2E2E2E2E2E2E2E2E2E2E20F0F0F0F0F0F0F0F0F0F0F0F0F0F0F0FE2E2E2E2E2E2E2E2E2
310
E2E2E2E2E2E2E2E2E2E2E2E2E2E2E2E2E2E2E2E2E2E2E2E2E2E2E2E2E2E2E2E2E2E2E2E2E2E2E2E22DE2E2E2E2E2E2F5E2F5F5F5E2E2E2E2E2E2E2E22DE2E2E2E2E2E2E2E2E2E2E2E2E2E2E2E2E2E2E2E2E2E2E2E2E2E2E2E2E2E2E2E2E2E2E2E2E2E2E2E2E2E2E2E2E2E2E2E20FE2E2E2E2E2E2E20F0F0FE2E2E2E2E2E20F
310
E2E2E2E2E2E2E2E2E2E2E2E2E2E2E2E2E2E2E2E2E2E2E2E2E2E2E2E20FE2E2E2E2E20F0F0FE2E2E2E2E2E20FE2E2E2E2E2E2E2E2E2E2E2E2E2E2E2E2E2E2E2E2E2E2E2E2E2E2E2E2E2E2E2E2E2E2E2E2E2E2E2E2E2E2E2E2E2E2E2E2E22DE2E2E2E2E2E2E2E2F5F5F5E2E2E2E2E2E2E2E22DE2E2E2E2E2E2E2E2E2E2E2E2E2
310
E2E2E2E2E2E2E2E2E2E2E2E2E2E2E2E2E2E2E2E2E2E2E2E2E2E2E2E2E2E2E2E2E2E2E20FE2E2E2E2E2E2E20F0F0FE2E2E2E2E2E20FE2E2E2E2E2E2E2E2E2E2E2E2E2E2E2E2E2E2E2E2E2E2E2E2E2E2E2E20FE2E2E2E2E20F0F0FE2E2E2E2E2E20FE2E2E2E2E2E2E2E2E2E2E2E2E2E2E2E2E2E2E2E2E2E2E2E2E2E2E2E2E2E2
310
E2E2E2E2E2E2E2E2E2E2E2E2E2E2E2E2E2E2E22DE2E2E2E2E2E2E2E2F5F5F5E2E2E2E2E2E2E2E22DE2E2E2E2E2E2E2E2E2E2E2E2E2E2E2E2E2E2E2E2E2E2E2E2E2E2E2E2E2E2E2E2E2E2E2E2E2E2E2E2E2E2E2E2E2E2E2E20FE2E2E2E2E2E2E2E2E2E2E2E2E2E2E2E20FE2E2E2E2E2E2E2E2E2E2E2E2E2E2E2E2E2E2E2E2E2
310
E2E2E2E2E2E2E20FE2E2E2E2E2E2E2E2E2E2E2E2E2E20FE2E2E2E2E2E2E2E2E2E2E2E2E2E2E2E2E2E2E2E2E2E2E2E2E2E2E2E2E2E2E2E2E2E2E2E2E2E2E2E2E2E2E2E2E2E2E2E2E22DE2E2E2E2E2E2E2E2F5F5F5E2E2E2E2E2E2E2E22DE2E2E2E2E2E2E2E2E2E2E2E2E2E2E2E2E2E2E2E2E2E2E2E2E2E2E2E2E2E2E2E2E2E2
310
E2E2E2E2E2E2E2E2E2E2E2E2E2E20FE2E2E2E2E2E2E2E2BEE2E2E2E2E2E2E20FE2E2E2E2E2E2E2E2E2E2E2E2E2E2E2E2E2E2E2E2E2E2E2E2E2E2E2E20FE2E2E2E2E2E2BEE2E2E2E2E2E2E20FE2E2E2E2E2E2E2E2E2E2E2E2E2E2E2E2E2E2E2E2E2E2E2E2E2E2E2E2E2E2E2E2E2E2E2E2E2E2E2E2E2E2E2E2E2E2E2E2E22DE2
310
E2E2E2E2E2E2E2F5F5F5E2E2E2E2E2E2E2E22DE2E2E2E2E2E2E2E2E2E2E2E2E2E2E2E2E2E2E2E2E2E2E2E2E2E2E2E2E2E2E2E2E2E2E2E2E2E2E2E2E20F0F0F0F0F0F0F0F0FF5F5F5F5F5F5F5F5F5F5F5F5F5F5F50F0F0F0F0F0F0F0F0F0F0F0F0F0F0FE2E2E2E2E2E2E2E2E2E2E2E2E2E2F5F52828282828282828282828F5
310
F50F0F0F0F0F0F0FE2E2E2E2E2E2E2E2E2E2E2E2E2E2E2E2E2E2E2E2E2E2E2E2E2E2E2E2E2E2E2E2E2E2E2E2E2E2E2E2E2E2E22DE2E2E2E2E2E2E2E2F5F5F5E2E2E2E2E2E2E2E22DE2E2E2E2E2E2E2E2E2E2E2E2E2E2E2E2E2E2E2E2E2E2E2E2E2E2E2E2E2E2E2E2E2E2E2E2E2E2E2E2E20F0FE2E2E2E2E2F5E2E2E2E2F5E2
310
E2E2BEE2E2E2F5E2E2E2F5E2E2E2E2E20FE2E2E20FE2E20F0FE2E2E2E2E2E2E2E2E2E2E2E2E2E2F5E228E2E2E2E2BEE2E2E2E228E2E2F5E2E2E2E20FE2E2E2E2E2E2E2E2E2E2E2E2E2E2E2E2E2E2E2E2E2E2E2E2E2E2E2E2E2E2E2E2E2E2E2E2E2E2E2E2E2E2E2E22DE2E2E2E2E2E2E2E2F5F5F5E2E2E2E2E2E2E2E22DE2E2
310
E2E2E2E2E2E2E2E2E2E2E2E2E2E2E2E2E2E2E2E2E2E2E2E2E2E2E2E2E2E2E2E2E2E2E2E2E2E2E20F0FE2E2E2E2E2F5E2E2E2E2F5E2E2E2BEE2E2E2F5E2E2E2F5E2E2E20F0F0FE2E20F0FE2E20F0FE2E2E2E2E2E2E2E2E2E2E2E2E2E2F5E228E2E2E2E2BEE2E2E2E228E2E2F5E2E2E2E20FE2E2E2E2E2E2E2E2E2E2E2E2E2E2
310
E2E2E2E2E2E2E2E2E2E2E2E2E2E2E2E2E2E2E2E2E2E2E2E2E2E2E2E2E2E22DE2E2E2E2E2E2E2E2F5F5F5E2E2E2E2E2E2E2E22DE2E2E2E2E2E2E2E2E2E2E2E2E2E2E2E2E2E2E2E2E2E2E2E2E2E2E2E2E2E2E2E2E2E2E2E2E2E2E2E2E20FE2E2E2E2E2E2F5E2E2E2E2F5E2E2E2BEE2E2E2F5E2E2E2F5E2E2E20F0F0FE2E2E20F
310
E2E20FE2E2E2E2E2E2E2E2E2E2E2E2E2E2E2F5E228E2E2E2E2BEE2E2E2E228E2E2F5E2E2E2E20FE2E2E2E2E2E2E2E2E2E2E2E2E2E2E2E2E2E2E2E2E2E2E2E2E2E2E2E2E2E2E2E2E2E2E2E2E2E2E2E2E2E2E2E22DE2E2E2E2E2E2E2E2F5F5F5E2F5E2E2E2E2E2E22DE2E2E2E2E2E2E2E2E2E2E2E2E2E2E2E2E2E2E2E2E2E2E2
310
E2E2E2E2E2E2E2E2E2E2E2E2E2E2E2E2E2E20FE2E2E2E2E2E2F5E2E2E2E2F5E2E2E2BEE2E2E2F5E2E2E2F5E2E2E20F0F0FE2E2E20FE2E20FE2E2E2E2E2E2E2E2E2E2E2E2E2E2E2F5E228E2E2E2E2BEE2E2E2E228E2E2F5E2E2E2E20FE2E2E2E2E2E2E2E2E2E2E2E2E2E2E2E2E2E2E2E2E2E2E2E2E2E2E2E2E2E2E2E2E2E2E2
310
E2E2E2E2E2E2E2E2E22DE2E2E2E2E2E2F5E2F5F5F5E2F5E2E2E2E2E2E22DE2E2E2E2E2E2E2E2E2E2E2E2E2E2E2E2E2E2E2E2E2E2E2E2E2E2E2E2E2E2E2E2E2E2E2E2E2E2E2E2E20FE2E2E2E2E2E2F5F5F5F5F5F5E2E2E2BEE2E2E2F5F5F5F5F5E2E2E2E2E20FE2E2E20FE2E20FE2E2E2E2E2E2E2E2E2E2E2E2E2E2E2F5F5F5
310
F5F5F5F5F5F5F5F5F5F5F5F5F5E2E2E2E20FE2E2E2E2E2E2E2E2E2E2E2E2E2E2E2E2E2E2E2E2E2E2E2E2E2E2E2E2E2E2E2E2E2E2E2E2E2E2E2E2E2E2E2E22DE2E2E2E2E2E2F5E2F5F5F5E2F5E2E2E2E2E2E22DE2E2E2E2E2E2E2E2E2E2E2E2E2E2E2E2E2E2E2E2E2E2E2E2E2E2E2E2E2E2E2E2E2E2E2E2E2E2E2E2E20FE2E2
310
E2E2E2E2E2F50FF5F5F5F5F5F5F5F5F5F5F5F5F50FF50F0F0F0F0F0FE2E2E20FE2E20FE2E2E2E2E2E2E2E2E2E2E2E2E2E2E2F5F5F5F5F5F5F5F5F5F5F5F5F5F5F5F5E2E2E2E20FE2E2E2E2E2E2E2E2E2E2E2E2E2E2E2E2E2E2E2E2E2E2E2E2E2E2E2E2E2E2E2E2E2E2E2E2E2E2E2E2E2E2E2E22DE2E2E2E2E2E2F5E2F5F5F5
310
E2F5E2E2E2E2E2E22DE2E2E2E2E2E2E2E2E2E2E2E2E2E2E2E2E2E2E2E2E2E2E2E2E2E2E2E2E2E2E2E2E2E2E2E2E2E2E2E2E20FE2E2E2E2E2E2E2E20FE2E2E2E2E2E2BEE2E2E2E2E2E20FE2E2E2E2E2E2E2E2E2E20FE2E20FE2E2E2E2E2E2E2E2E2E2E2E2E2E2E2F5E228E2E2E2E2BEE2E2E2E228E2F5E2E2E2E2E20FE2E2E2
310
E2E2E2E2E2E2E2E2E2E2E2E2E2E2E2E2E2E2E2E2E2E2E2E2E2E2E2E2E2E2E2E2E2E2E2E2E2E2E2E2E22DE2E2E2E2E2E2F5E2F5F5F5E2F5E2E2E2E2E2E22DE2E2E2E2E2E2E2E2E2E2E2E2E2E2E2E2E2E2E2E2E2E2E2E2E2E2E2E2E2E2E2E2E2E2E2E2E2E2E2E2E20FE2E2E2E2E2E2E2E20FE2E2E2E2E2E2BEE2E2E2E2E2E20F
310
E2E2E2E2E2E2E2E2E2E20FE2E20FE2E2E2E2E2E2E2E2E2E2E2E2E2E2E2F5E20FE2E2E2E2BEE2E2E2E228E2F5E2E2E2E2E20FE2E2E2E2E2E2E2E2E2E2E2E2E2E2E2E2E2E2E2E2E2E2E2E2E2E2E2E2E2E2E2E2E2E2E2E2E2E2E2E2E2E2E2E22DE2E2E2E2E2E2F5E2F5F5F5E2F5E2E2E2E2E2E22DE2E2E2E2E2E2E2E2E2E2E2E2
310
E2E2E2E2E2E2E2E2E2E2E2E2E2E2E2E2E2E2E2E2E2E2E2E2E2E2E2E2E20FE2E2E2E2E2E2E2E20FE2E2E2E2E2E2BEE2E2E2E2E2E20FE2E2E2E2E2E2E2E2E2E20FE2E20FE2E2E2E2E2E2E2E2E2E2E2E2E2E2E2F5E20FE2E2E2E2BEE2E2E2E228E2F5E2E2E20F0F0FE2E2E2E2E2E2E2E2E2E2E2E2E2E2E2E2E2E2E2E2E2E2E2E2
310
E2E2E2E2E2E2E2E2E2E2E2E2E2E2E2E2E2E2E2E22DE2E2E2E2E2E2F5E2F5F5F5E2F5E2E2E2E2E2E22DE2E2E2E2E2E2E2E2E2E2E2E2E2E2E2E2E2E2E2E2E2E2E2E2E2E2E2E2E2E2E2E2E2E2E2E2E2E2E2E2E20FE2E2E2E2E2E2E2E20FE2E2E2E2E2E2BEE2E2E2E2E2E20FE2E2E2E2E2E2E2E2E2E20FE2E20FE2E2E2E2E2E2E2
310
E2E2E2E2E2E2E2E2F50F0FE2E2E2E2BEE2E2E2E228E2F5E2E2E20F0F0FE2E2E2E2E2E2E2E2E2E2E2E2E2E2E2E2E2E2E2E2E2E2E2E2E2E2E2E2E2E2E2E2E2E2E2E2E2E2E2E2E2E2E2E22DE2E2E2E2E2E2F5E2F5F5F5E2F5E2E2E2E2E2E22DE2E2E2E2E2E2E2E2E2E2E2E2E2E2E2E2E2E2E2E2E2E2E2E2E2E2E2E2E2E2E2E2E2
310
E2E2E2E2E2E20F0F0FE2E2E2E2E2E2E2E20F0F0F0F0F0F0F0F0F0F0F0F0F0F0FE2E2E2E2E2E2E2E2E2E20FE2E20FE2E2E2E2E2E2E2E2E2E2E2E2E2E2E2F5E20FE2E2E2E2BEE2E2E2E228E2F5E2E2E20F0F0FE2E2E2E2E2E2E2E2E2E2E2E2E2E2E2E2E2E2E2E2E2E2E2E2E2E2E2E2E2E2E2E2E2E2E2E2E2E2E2E2E2E2E2E22D
310
E2E2E2E2E2E2F5E2F5F5F5E2F5E2E2E2E2E2E22DE2E2E2E2E2E2E2E2E2E2E2E2E2E2E2E2E2E2E2E2E2E2E2E2E2E2E2E2E2E2E2E2E2E2E2E2E2E2E20F0F0FE2E2E2E2E2E2E2E20FE2E2E2E2E20F0F0FE2E2E2E2E20FE2E2E2E2E2E2E2E2E2E20FE2E20FE2E2E2E2E2E2E2E2E2E2E2E2E2E2E2F50F28E2E2E2E2BEE2E2E2E228
310
E2F5E2E2E2E2E20FE2E2E2E2E2E2E2E2E2E2E2E2E2E2E2E2E2E2E2E2E2E2E2E2E2E2E2E2E2E2E2E2E2E2E2E2E2E2E2E2E2E2E2E22DE2E2E2E2E2E2F5E2F5F5F5E2F5E2E2E2E2E2E22DE2E2E2E2E2E2E2E2E2E2E2E2E2E2E2E2E2E2E2E2E2E2E2E2E2E2E2E2E2E2E2E2E2E2E2E2E2E2E2E20F0FE2E2E2E2E2E2E2E2F5E2E2E2
310
E2E20F0F0FE2E2E2E2E2F5E2E2E2E2E2E2E2E2E2E20FE2E20FE2E2E2E2E2E2E2E2E2E2E2E2E2E2E2F50F28E2E2E2E2BEE2E2E2E228E2F5E2E2E2E2E20FE2E2E2E2E2E2E2E2E2E2E2E2E2E2E2E2E2E2E2E2E2E2E2E2E2E2E2E2E2E2E2E2E2E2E2E2E2E2E2E2E2E2E2E22DE2E2E2E2E2E2F5E2F5F5F5E2F5E2E2E2E2E2E22DE2
310
E2E2E2E2E2E2E2E2E2E2E2E2E2E2E2E2E2E2E2E2E2E2E2E2E2E2E2E2E2E2E2E2E2E2E2E2E2E2E2E20FE2E2E2E2E2E2E2E2F5E2E2E2E2E2E2BEE2E2E2E2E2E2F5E2E2E2E2E2E2E2E2E2E20FE2E20FE2E2E2E2E2E2E2E2E2E2E2E2E2E2E20FE228E2E2E2E2BEE2E2E2E228E2F5E2E2E2E2E20FE2E2E2E2E2E2E2E2E2E2E2E2E2
310
E2E2E2E2E2E2E2E2E2E2E2E2E2E2E2E2E2E2E2E2E2E2E2E2E2E2E2E2E2E2E22DE2E2E2E2E2E2F5E2F5F5F5E2F5E2E2E2E2E2E22DE2E2E2E2E2E2E2E2E2E2E2E2E2E2E2E2E2E2E2E2E2E2E2E2E2E2E2E2E2E2E2E2E2E2E2E2E2E2E2E2E20FE2E2E2E2E2E2E2E2F5E2E2E2E2E2E2BEE2E2E2E2E2E2F5E2E2E2E2E2E2E2E2E2E2
310
0FE2E20FE2E2E2E2E2E2E2E2E2E2E2E2E2E2E20FE228E2E2E2E2BEE2E2E2E228E2F5E2E2E2E2E20FE2E2E2E2E2E2E2E2E2E2E2E2E2E2E2E2E2E2E2E2E2E2E2E2E2E2E2E2E2E2E2E2E2E2E2E2E2E2E2E2E2E2E2E22DE2E2E2E2E2E2F5E2F5F5F5E2F5E2E2E2E2E2E22DE2E2E2E2E2E2E2E2E2E2E2E2E2E2E2E2E2E2E2E2E2E2
310
E2E2E2E2E2E2E2E2E2E2E2E2E2E2E2E2E2E2E20FE2E2E2E2E2E2E2E2F5E2E2E2E2E2E2BEE2E2E2E2E2E2F5E2E2E2E2E2E2E2E2E2E20FE2E20FE2E2E2E2E2E2E2E2E2E2E2E2E2E20FF5E228E2E2E2E2BEE2E2E2E228E2F5E2E2E2E2E20FE2E2E2E2E2E2E2E2E2E2E2E2E2E2E2E2E2E2E2E2E2E2E2E2E2E2E2E2E2E2E2E2E2E2
310
E2E2E2E2E2E2E2E2E2E22DE2E2E2E2E2E2F5E2F5F5F5E2F5E2E2E2E2E2E22DE2E2E2E2E2E2E2E2E2E2E2E2E2E2E2E2E2E2E2E2E2E2E2E2E2E2E2E2E2E2E2E2E2E2E2E2E2E2E2E2E20FE2E2E2E2E2E2E2E2F5E2E2E2E2E2E2BEE2E2E2E2E2E2F5E2E2E2E2E2E2E2E2E2E20FE2E20FE2E2E2E2E20F0F0F0F0F0F0F0F0F0FF5E2
310
28E2E2E2E2BEE2E2E2E228E2F5E2E2E2E2E20FE2E2E2E2E2E2E2E2E2E2E2E2E2E2E2E2E2E2E2E2E2E2E2E2E2E2E2E2E2E2E2E2E2E2E2E2E2E2E2E2E2E2E2E22DE2E2E2E2E2E2F5E2F5F5F5E2F5E2E2E2E2E2E22DE2E2E2E2E2E2E2E2E2E2E2E2E2E2E2E2E2E2E2E2E2E2E2E2E2E2E2E2E2E2E2E2E2E2E2E2E2E2E2E2E20FE2
310
E2E2E2E2E2E2E2F5E2E2E2E2E2E2BEE2E2E2E2E2E2F5E2E2E2E2E2E2E2E2E2E20FE2E20FE2E2E2E2E2E20F0F0F0F0F0F0F0FE2F5E228E2E2E2E2BEE2E2E2E228E2F5E2E2E2E2E20FE2E2E2E2E2E2E2E2E2E2E2E2E2E2E2E2E2E2E2E2E2E2E2E2E2E2E2E2E2E2E2E2E2E2E2E2E2E2E2E2E2E2E2E22DE2E2E2E2E2E2F5E2F5F5
310
F5E2E2E2E2E2E2E2E22DE2E2E2E2E2E2E2E2E2E2E2E2E2E2E2E2E2E2E2E2E2E2E2E2E2E2E2E2E2E2E2E2E2E2E2E2E2E2E2E2E20FE2E2E2E2E2E2E2E2F5E2E2E2E2E2E2BEE2E2E2E2E2E2F5E2E2E2E2E2E2E2E20F0F0FE2E20FE2E2E2E2E2E20F0F0F0FE20F0F0FE2F5E228E2E2E2E2BEE2E2E2E228E2F5E2E2E2E2E20FE2E2
310
E2E2E2E2E2E2E2E2E2E2E2E2E2E2E2E2E2E2E2E2E2E2E2E2E2E2E2E2E2E2E2E2E2E2E2E2E2E2E2E2E2E22DE2E2E2E2E2E2E2E2F5F5F5E2E2E2E2E2E2E2E22DE2E2E2E2E2E2E2E2E2E2E2E2E2E2E2E2E2E2E2E2E2E2E2E2E2E2E2E2E2E2E2E2E2E2E2E2E2E2E2E2E20FE2E2E2E2E2E2E2E2F5E2E2E2E2E2E2BEE2E2E2E2E2E2
310
F5E2E2E2E2E2E2E2E20F0F0FE2E20FE2E2E2E2E2E2E2E2E2E2E2E2E2E2E2F5E2282828282828282828280F0F0F0F0F0F0F0F0F0FE2E2E2E2E2E2E2E2E2E2E2E2E2E2E2E2E2E2E2E2E2E2E2E2E2E2E2E2E2E2E2E2E2E2E2E2E2E2E2E2E2E2E22DE2E2E2E2E2E2E2E2F5F5F5E2E2E2E2E2E2E2E22DE2E2E2E2E2E2E2E2E2E2E2
310
E2E2E2E2E2E2E2E2E2E2E2E2E2E2E2E2E2E2E2E2E2E2E2E2E2E2E2E2E2E20FE2E2E2E2E2E2E2E2F5E2E2E2E2E2E2BEE2E2E2E2E2E2F5E2E2E2E2E2E2E2E2E20F0FE2E20FE2E2E2E2E2E2E2E2E2E2E2E2E2E2E2F5E22828282828282828282828E2F5E2E2E2E2E2E2E2E2E2E2E2E2E2E2E2E2E2E2E2E2E2E2E2E2E2E2E2E2E2
310
E2E2E2E2E2E2E2E2E2E2E2E2E2E2E2E2E2E2E2E2E22DE2E2E2E2E2E2E2E2F5F5F5E2E2E2E2E2E2E2E22DE2E2E2E2E2E2E2E2E2E2E2E2E2E2E2E2E2E2E2E2E2E2E2E2E2E2E2E2E2E2E2E2E2E2E2E2E2E2E2E2E20F0FE2E2E2E2E2F5F5F5E2E2E2E2F5F5F5F5F5E2E2E2E2F5E2E2E2E2E2E2E2E2E2E20FE2E20FE2E2E2E2E2E2
310
E2E2E2E2E2E2E2E2E2F5E2E22828E2E22828E22828E2E2F5E2E2E2E2E2E2E2E2E2E2E2E2E2E2E2E2E2E2E2E2E2E2E2E2E2E2E2E2E2E2E2E2E2E2E2E2E2E2E2E2E2E2E2E2E2E2E2E2E2E22DE2E2E2E2E2E2E2E2F5F5F5E2E2E2E2E2E2E2E22DE2E2E2E2E2E2E2E2E2E2E2E2E2E2E2E2E2E2E2E2E2E2E2E2E2E2E2E2E2E2E2E2
310
E2E2E2E2E2E2E2E2E20F0F0F0F0F0F0FF5F5F5BEE2F5F5E2E2BEE2E2F5E2E2E2F5E2E2E2E2E2E2E2E2E2E20FE2E20FE2E2E2E2E2E2E2E2E2E2E2E2E2E2E2E2F5E2E2E22828282828BEE2E2E2F5E2E2E2E2E2E2E2E2E2E2E2E2E2E2E2E2E2E2E2E2E2E2E2E2E2E2E2E2E2E2E2E2E2E2E2E2E2E2E2E2E2E2E2E2E2E2E2E2E2E2
310
2DE2E2E2E2E2E2E2E2F5F5F5E2E2E2E2E2E2E2E22DE2E2E2E2E2E2E2E2E2E2E2E2E2E2E2E2E2E2E2E2E2E2E2E2E2E2E2E2E2E2E2E2E2E2E2E2E2E2E2E2E2E2E2E2E2E2E2E2F5F5F5E2F5F5E2E2E2BEE2E2E2F5E2E2F5E2E2E2E2E2E2E2E2E2E20F0F0F0FE2E2E2E2E2E2E2E2E2E2E2E2E2E2E2E2E2F5E2E2E2282828E2E2E2
310
E2F5E2E2E2E2E2E2E2E2E2E2E2E2E2E2E2E2E2E2E2E2E2E2E2E2E2E2E2E2E2E2E2E2E2E2E2E2E2E2E2E2E2E2E2E2E2E2E2E2E2E2E22DE2E2E2E2E2E2E2E2F5F5F5E2E2E2E2E2E2E2E22DE2E2E2E2E2E2E2E2E2E2E2E2E2E2E2E2E2E2E2E2E2E2E2E2E2E2E2E2E2E2E2E2E2E2E2E2E2E2E2E2E2E2E2E2E2E2E2E2E2E2F5E2F5
310
E2E2E2E2BEE2E2E2E2F5E2F5E2E2E2E2E2E2E2E2E2E20F0F0F0FE2E2E2E2E2E2E2E2E2E2E2E2E2E2E2E2E2F5E2E2E2E22828E2E2E2E2F5E2E2E2E2E2E2E2E2E2E2E2E2E2E2E2E2E2E2E2E2E2E2E2E2E2E2E2E2E2E2E2E2E2E2E2E2E2E2E2E2E2E2E2E2E2E2E2E2E2E2E22DE2E2E2E2E2E2E2E2F5F5F5E2E2E2E2E2E2E2E22D
310
E2E2E2E2E2E2E2E2E2E2E2E2E2E2E2E2E2E2E2E2E2E2E2E2E2E2E2E2E2E2E2E2E2E2E2E2E2E2E2E2E2E2E2E2E2E2E2E2E2E2F5F5F5F5F5F5F5F5F5F5F5F5F5F5F5E2E2E2E2E2E2E2E2E2E20F0F0F0FE2E2E2E2E2E2E2E2E2E2E2E2E2E2E2E2E2E2F5F5F5F5F5F5F5F5F5F5E2E2E2E2E2E2E2E2E2E2E2E2E2E2E2E2E2E2E2E2
310
E2E2E2E2E2E2E2E2E2E2E2E2E2E2E2E2E2E2E2E2E2E2E2E2E2E2E2E2E2E2E2E22DE2E2E2E2E2E2E2E2F5F5F5E2E2E2E2E2E2E2E22DE2E2E2E2E2E2E2E2E2E2E2E2E2E2E2E2E2E2E2E2E2E2E2E2E2E2E2E2E2E2E2E2E2E2E2E2E2E2E2E2E2E2E2E2E2E2E2E2E2E2F5F5E2E2E2E2E2BEE2E2E2E2E2F5F5E2E2E2E2E2E2E2E2E2
310
E20F0F0F0FE2E2E2E2E2E2E2E2E2E2E2E2E2E2E2E2E2E2F5E2E2E22828E2E2E2F5E2E2E2E2E2E2E2E2E2E2E2E2E2E2E2E2E2E2E2E2E2E2E2E2E2E2E2E2E2E2E2E2E2E2E2E2E2E2E2E2E2E2E2E2E2E2E2E2E2E2E2E22DE2E2E2E2E2E2E2E2F5F5F5E2F5E2E2E2E2E2E22DE2E2E2E2E2E2E2E2E2E2E2E2E2E2E2E2E2E2E2E2E2
310
E2E2E2E2E2E2E2E2E2E2E2E2E2E2E2E2E2E2E2E2E2E2E2E2E2E2E2E2F5F5F5E2E2E2E2E2BEE2E2E2E2E2F5E2F5E2E2E2E2E2E2E2E2E20FE2E20FE2E2E2E2E2E2E2E2E2E2E2E2E2E2E2E2E2E2F5E2E2E22828E2E2E2F5E2E2E2E2E2E2E2E2E2E2E2E2E2E2E2E2E2E2E2E2E2E2E2E2E2E2E2E2E2E2E2E2E2E2E2E2E2E2E2E2E2
310
E2E2E2E2E2E2E2E2E2E2E22DE2E2E2E2E2E2F5E2F5F5F5E2F5E2E2E2E2E2E22DE2E2E2E2E2E2E2E2E2E2E2E2E2E2E2E2E2E2E2E2E2E2E2E2E2E2E2E2E2E2E2E2E2E2E2E2E2E2E2E2E2E2E2E2E2E2E2E2E2F5F5E2E2E2E2E2E2BEE2E2E2E2E2E2F5F5E2E2E2E2E2E2E2E2E20FE2E20FE2E2E2E2E2E2E2E2E2E2E2E2E2E2E2E2
310
E2E2F5E2E2E22828E2E2E2F5E2E2E2E2E2E2E2E2E2E2E2E2E2E2E2E2E2E2E2E2E2E2E2E2E2E2E2E2E2E2E2E2E2E2E2E2E2E2E2E2E2E2E2E2E2E2E2E2E2E2E2E22DE2E2E2E2E2E2F5E2F5F5F5E2F5E2E2E2E2E2E22DE2E2E2E2E2E2E2E2E2E2E2E2E2E2E2E2E2E2E2E2E2E2E2E2E2E2E2E2E2E2E2E2E2E2E2E2E2E2E2E2E2E2
310
E2E2E2E2E2E2F5F5E2E2E2E2E2E2E2BEE2E2E2E2E2E2F5E2F5E2E2E2E2E2E2E2E20FE2E20FE2E2E2E2E2E2E2E2E2E2E2E2E2E2E2E2E2E2F5E2E2E22828E2E2E2F5E2E2E2E2E2E2E2E2E2E2E2E2E2E2E2E2E2E2E2E2E2E2E2E2E2E2E2E2E2E2E2E2E2E2E2E2E2E2E2E2E2E2E2E2E2E2E2E2E2E2E2E22DE2E2E2E2E2E2F5E2F5
310
F5F5E2F5E2E2E2E2E2E22DE2E2E2E2E2E2E2E2E2E2E2E2E2E2E2E2E2E2E2E2E2E2E2E2E2E2E2E2E2E2E2E2E2E2E2E2E2E2E2E2E2E2E2E2E2E2E2E2F5F5E2E2E2E2E2E2E2BEE2E2E2E2E2E2E2F5F5E2E2E2E2E2E2E2E20FE2E20FE2E2E2E2E2E2E2E2E2E2E2E2E2E2E2E2E2E2F5E2E2E22828E2E2E2F5E2E2E2E2E2E2E2E2E2
310
E2E2E2E2E2E2E2E2E2E2E2E2E2E2E2E2E2E2E2E2E2E2E2E2E2E2E2E2E2E2E2E2E2E2E2E2E2E2E2E2E2E2E22DE2E2E2E2E2E2F5E2F5F5F5E2F5E2E2E2E2E2E22DE2E2E2E2E2E2E2E2E2E2E2E2E2E2E2E2E2E2E2E2E2E2E2E2E2E2E2E2E2E2E2E2E2E2E2E2E2E2E2E2E2E2E2E2E2E2E2E2F5F5E2E2E2E2F5F5F5F5F5F5F5E2E2
310
E2E2F5F5E2E2E2E2E2E2E2E20FE2E20FE2E2E2E2E2E2E2E2E2E2E2E2E2E2E2E2F5F5F5E2E2E22828E2E2E2F5F5E2E2E2E2E2E2E2E2E2E2E2E2E2E2E2E2E2E2E2E2E2E2E2E2E2E2E2E2E2E2E2E2E2E2E2E2E2E2E2E2E2E2E2E2E2E2E2E2E2E2E22DE2E2E2E2E2E2F5E2F5F5F5E2F5E2E2E2E2E2E22DE2E2E2E2E2E2E2E2E2E2
310
E2E2E2E2E2E2E2E2E2E2E2E2E2E2E2E2E2E2E2E2E2E2E2E2E2E2E2E2E2E2E2E2E2E2E2E2E2F5F5E2E2E2F5F5E2F5F5F5F5F5E2F5F5E2E2E2F5F5E2E2E2E2E2E2E20FE2E20FE2E2E2E2E2E2E2E2E2E2E2E2E2E2E2E2F5E2F5E2E2E2BEE2E2E2E2F5E20F0F0F0F0F0F0F0F0F0F0F0FE2E2E2E2E2E2E2E2E2E2E2E2E2E2E2E2E2
310
E2E2E2E2E2E2E2E2E2E2E2E2E2E2E2E2E2E2E2E2E2E22DE2E2E2E2E2E2F5E2F5F5F5E2F5E2E2E2E2E2E22DE2E2E2E2E2E2E2E2E2E2E2E2E2E2E2E2E2E2E2E2E2E2E2E2E2E2E2E2E2E2E2E2E2E2E2E2E2E2E2E2E2E2E2E2E2E2E2F5F5E2E2F5E2F5F5F5F5F5F5F5F5E2F5F5E2E2F5F5E2E2E2E2E2E2E20FE2E20FE2E2E2E2E2
310
E2E2E2E2E2E2E2E2E2E2E2F52828282828282828282828280F0F0F0F0F0F0FE2E2E20FE2E2E2E2E2E2E2E2E2E2E2E2E2E2E2E2E2E2E2E2E2E2E2E2E2E2E2E2E2E2E2E2E2E2E2E2E2E2E2E22DE2E2E2E2E2E2F5E2F5F5F5E2F5E2E2E2E2E2E22DE2E2E2E2E2E2E2E2E2E2E2E2E2E2E2E2E2E2E2E2E2E2E2E2E2E2E2E2E2E2E2
310
E2E2E2E2E2E2E2E2E2E2E2E2E2E2E2F5F5E2E2F5E2F5F5F5E2E2BEE2E2F5F5F5F5E2E2E2F5F5E2E2E2E2E2E20FE2E20FE2E2E2E2E2E2E2E2E2E2E2E2E2E2E2E2F5E2F5E2E2E2BEE2E2E2E2F5E2F5E2E2E2E20FE2E2E2E20FE2E2E2E2E2E2E2E2E2E2E2E2E2E2E2E2E2E2E2E2E2E2E2E2E2E2E2E2E2E2E2E2E2E2E2E2E2E2E2
310
E22DE2E2E2E2E2E2F5E2F5F5F5E2F5E2E2E2E2E2E22DE2E2E2E2E2E2E2E2E2E2E2E2E2E2E2E2E2E2E2E2E2E2E2E2E2E2E2E2E2E2E2E2E2E2E2E2E2E2E2E2E2E2E2E2E2E2F5F5E2E2F5E2F5F5E2E2E2BEE2E2E2F5F5E2F5E2E2F5F5E2E2E2E2E2E20FE2E20FE2E2E2E2E2E2E2E2E2E2E2E2E2E2E2E2F5E2F5F5F5F5F5F5F5F5
310
F5F5E2F5E2E2E2E20FE2E20F0F0FE2E2E2E2E2E2E2E2E2E2E2E2E2E2E2E2E2E2E2E2E2E2E2E2E2E2E2E2E2E2E2E2E2E2E2E2E2E2E2E22DE2E2E2E2E2E2F5E2F5F5F5E2F5E2E2E2E2E2E22DE2E2E2E2E2E2E2E2E2E2E2E2E2E2E2E2E2E2E2E2E2E2E2E2E2E2E2E2E2E2E2E2E2E2E2E2E2E2E2E2E2E2E2E2E2F5F5E2E2E2F5F5
310
F5E2E2E2E2BEE2E2E2F5F5F5F5E2E2F5F5E2E2E2E2E2E20FE2E20FE2E2E2E2E2E2E2E2E2E2E2E2E2E2E2E2F5E2F5E2E2E2BEE2E2E2E2F5E2F5E2E2E20F0FE2E20F0F0FE2E2E2E2E2E2E2E2E2E2E2E2E2E2E2E2E2E2E2E2E2E2E2E2E2E2E2E2E2E2E2E2E2E2E2E2E2E2E2E22DE2E2E2E2E2E2F5E2F5F5F5E2F5E2E2E2E2E2E2
310
2DE2E2E2E2E2E2E2E2E2E2E2E2E2E2E2E2E2E2E2E2E2E2E2E2E2E2E2E2E2E2E2E2E2E2E2E2E2E2E2E2E2E2E2E2E2F5F5E2E2F5E2F5F5E2E2E2E2BEE2E2E2E2F5F5F5E2E2F5F5E2E2E2E2E20F0FE2E20FE2E2E2E2E2E2E2E2E2E2E2E2E2E2E2E2F5E2F5E2E2E2BEE2E2E2E2F5E2F5E2E20F0F0FE2E20F0F0FE2E2E2E2E2E2E2
310
E2E2E2E2E2E2E2E2E2E2E2E2E2E2E2E2E2E2E2E2E2E2E2E2E2E2E2E2E2E2E2E2E22DE2E2E2E2E2E2F5E2F5F5F5E2F5E2E2E2E2E2E22DE2E2E2E2E2E2E2E2E2E2E2E2E2E2E2E2E2E2E2E2E2E2E2E2E2E2E2E2E2E2E2E2E2E2E2E2E2E2E2E2E2E2E2E2E20FF5E2E2F5BEF5F5BEBEBEBEBEBEBEBEBEF5F5F50F0FF50F0F0F0F0F
310
0F0F0FE2E20FE2E2E2E2E2E2E2E2E2E2E2E2E2E2BEBEF5BEF5BEBEBEBEBEBEBEBEF5BEF5BEE20F0F0FE2E20F0F0FE2E2E2E2E2E2E2E2E2E2E2E2E2E2E2E2E2E2E2E2E2E2E2E2E2E2E2E2E2E2E2E2E2E2E2E2E2E2E2E22DE2E2E2E2E2E2F5E2F5F5F5E2F5E2E2E2E2E2E22DE2E2E2E2E2E2E2E2E2E2E2E2E2E2E2E2E2E2E2E2
310
E2E2E2E2E2E2E2E2E2E2E2E2E2E2E2E2E2E2E2E2E2E2E2E2E20FF5E2E2F5E2F5F5E2E2E2E2BEE2E2E2E2F5F5F5E2E2F50FE2E2E2E2E2E2E2E2E20FE2E2E2E2E2E2E2E2E2E2E2E2E2E2E2E2F5E2F5E2E2E2E2E2E2E2E2F5E2F5E2E20FE20FE2E20F0F0FE2E2E2E2E2E2E2E2E2E2E2E2E2E2E2E2E2E2E2E2E2E2E2E2E2E2E2E2
310
E2E2E2E2E2E2E2E2E2E2E2E22DE2E2E2E2E2E2F5E2F5F5F5E2F5E2E2E2E2E2E22DE2E2E2E2E2E2E2E2E2E2E2E2E2E2E2E2E2E2E2E2E2E2E2E2E2E2E2E2E2E2E2E2E2E2E2E2E2E2E2E2E2E2E2E2E20FF5E2E2E2F5F5F5E2E2E2E2BEE2E2E2F5F5F5F5E2E2F50FE2E2E2E2E2E2E2E2E20FE2E2E2E2E2E2E2E2E2E2E2E2E2E2E2
310
E2F5E2F5E2E2E2E2E2E2E2E2F5E2F5E2E20F0F0FE2E20F0F0FE2E2E2E2E2E2E2E2E2E2E2E2E2E2E2E2E2E2E2E2E2E2E2E2E2E2E2E2E2E2E2E2E2E2E2E2E2E2E2E22DE2E2E2E2E2E2F5E2F5F5F5E2F5E2E2E2E2E2E22DE2E2E2E2E2E2E2E2E2E2E2E2E2E2E2E2E2E2E2E2E2E2E2E2E2E2E2E2E2E2E2E2E2E2E2E2E2E2E2E2E2
310
E2E2E2E20FF5F5E2E2F5E2F5F5E2E2E2BEE2E2E2F5F5E2F5E2E2F50FE2E2E2E2E2E2E2E2E20FE2E2E2E2E2E2E2E2E2E2E2E2E2E2E2E2F5E2F5E2E2E2E2E2E2E2E2F5E2F5E2E2E2E20FE2E20F0F0FE2E2E2E2E2E2E2E2E2E2E2E2E2E2E2E2E2E2E2E2E2E2E2E2E2E2E2E2E2E2E2E2E2E2E2E2E2E2E2E22DE2E2E2E2E2E2F5E2
310
F5F5F5E2E2E2E2E2E2E2E22DE2E2E2E2E2E2E2E2E2E2E2E2E2E2E2E2E2E2E2E2E2E2E2E2E2E2E2E2E2E2E2E2E2E2E2E2E2E2E2E2E2E2E2E2E20FF5F5E2E2F5E2F5F5F5E2E2BEE2E2F5F5F5F5E2E2F5F50FE2E2E2E2E2E2E2E2E20FE2E2E2E2E2E2E2E2E2E2E2E2E2E2E2E2F5E2F5E2E2E2E2E2E2E2E2F5E2F5E2E2E2E20FE2
310
E2E2E20FE2E2E2E2E2E2E2E2E2E2E2E2E2E2E2E2E2E2E2E2E2E2E2E2E2E2E2E2E2E2E2E2E2E2E2E2E2E2E2E22DE2E2E2E2E2E2E2E2F5F5F5E2E2E2E2E2E2E2E22DE2E2E2E2E2E2E2E2E2E2E2E2E2E2E2E2E2E2E2E2E2E2E2E2E2E2E2E2E2E2E2E2E2E2E2E2E2E2E2E2E2E2E2E2E20FF5E2F5E2E2F5E2F5F5F5F5F5F5F5F5E2
310
F5F5E2E2F5F50FE2E2E2E2E2E2E2E2E20FE2E2E2E2E2E2E2E2E2E2E2E2E2E2E2E2F528F52828282828282828F5280F0F0F0F0F0F0FE2E2E20FE2E2E2E2E2E2E2E2E2E2E2E2E2E2E2E2E2E2E2E2E2E2E2E2E2E2E2E2E2E2E2E2E2E2E2E2E2E2E2E22DE2E2E2E2E2E2E2E2F5F5F5E2E2E2E2E2E2E2E22DE2E2E2E2E2E2E2E2E2
310
E2E2E2E2E2E2E2E2E2E2E2E2E2E2E2E2E2E2E2E2E2E2E2E2E2E2E2E2E2E2E2E2E2E2E2E20FE2F5F5E2E2E2F5F5E2F5F5F5F5F5E2F5F5E2E2E2F5F50FE2E2E2E2E2E2E2E2E20FE2E2E2E2E2E2E2E2E2E2E2E2E2E2E2E20FE2F5E2E2E2E2E2E2E2E2F5E20F0F0F0F0F0F0F0F0F0F0F0FE2E2E2E2E2E2E2E2E2E2E2E2E2E2E2E2
310
E2E2E2E2E2E2E2E2E2E2E2E2E2E2E2E2E2E2E2E2E2E2E22DE2E2E2E2E2E2E2E2F5F5F5E2E2E2E2E2E2E2E22DE2E2E2E2E2E2E2E2E2E2E2E2E2E2E2E2E2E2E2E2E2E2E2E2E2E2E2E2E2E2E2E2E2E2E2E2E2E2E2E2E2E2E2E2E20FE2E2F5F5E2E2E2E2F5F5F5E2F5F5F5E2E2E2E2F5F5E20FE2E2E2E2E2E2E2E2E20FE2E2E2E2
310
E2E2E2E2E2E2E2E2E2E2E2E20FF5F5E2E2E2E2E2E2E2E2F5F50FE2E2E2E2E2E2E2E2E2E2E2E2E2E2E2E2E2E2E2E2E2E2E2E2E2E2E2E2E2E2E2E2E2E2E2E2E2E2E2E2E2E2E2E2E2E2E2E2E2E22DE2E2E2E2E2E2E2E2F5F5F5E2E2E2E2E2E2E2E22DE2E2E2E2E2E2E2E2E2E2E2E2E2E2E2E2E2E2E2E2E2E2E2E2E2E2E2E2E2E2
310
E2E2E2E2E2E2E2E2E2E2E2E2E2E2E20FE2E2F5F5F5E2E2E2E2E2E2F5E2E2E2E2E2F5F5F5F5E20FE2E2E2E2E2E2E2E2E20FE2E2E2E2E2E2E2E2E2E2E2E2E2E2E2E20FE2F5E2E2E2E2E2E2E2E2F5E20FE2E2E2E2E2E2E2E2E2E2E2E2E2E2E2E2E2E2E2E2E2E2E2E2E2E2E2E2E2E2E2E2E2E2E2E2E2E2E2E2E2E2E2E2E2E2E2E2
310
E2E22DE2E2E2E2E2E2E2E2F5F5F5E2E2E2E2E2E2E2E22DE2E2E2E2E2E2E2E2E2E2E2E2E2E2E2E2E2E2E2E2E2E2E2E2E2E2E2E2E2E2E2E2E2E2E2E2E2E2E2E2E2E2E2E2E20FE2E2E2F5F5F5F5E2E2E2E2E2E2E2E2E2F5F5F5E2E2E20FE2E2E2E2E2E2E2E2E20FE2E2E2E2E2E2E2E2E2E2E2E2E2E2E2E20FE2F5E2E2E2E2E2E2
310
E2E2F5E20FE2E2E2E2E2E2E2E2E2E2E2E2E2E2E2E2E2E2E2E2E2E2E2E2E2E2E2E2E2E2E2E2E2E2E2E2E2E2E2E2E2E2E2E2E2E2E2E2E2E22DE2E2E2E2E2E2E2E2F5F5F5E2E2E2E2E2E2E2E22DE2E2E2E2E2E2E2E2E2E2E2E2E2E2E2E2E2E2E2E2E2E2E2E2E2E2E2E2E2E2E2E2E2E2E2E2E2E2E2E2E2E2E2E2E20FE2E2E2E2E2
310
F5F5F5F5F5E2E2E2F5F5F5F5F5E2E2E2E20FE2E2E2E2E2E2E2E2E20F0FE2E2E2E2E2E2E2E2E2E2E2E2E2E2E20FE2F5E2E2E2E2E2E2E2E2F5E20FE2E2E2E2E2E2E2E2E2E2E2E2E2E2E2E2E2E2E2E2E2E2E2E2E2E2E2E2E2E2E2E2E2E2E2E2E2E2E2E2E2E2E2E2E2E2E2E2E2E22DE2E2E2E2E2E2E2E2F5F5F5E2E2E2E2E2E2E2
310
E22DE2E2E2E2E2E2E2E2E2E2E2E2E2E2E2E2E2E2E2E2E2E2E2E2E2E2E2E2E2E2E2E2E2E2E2E2E2E2E2E2E2E2E2E2E20FE2E2E2E2E2E2F5F5F5F5F5F5F5F5F5F5E2E2E2E2E2E20FE2E2E2E2E2E2E2E2E20F0FE2E2E2E2E2E2E2E2E2E2E2E2E2E2E20FE20FF5F5E2E2E2F5F5F50FE20FE2E2E2E2E2E2E2E2E2E2E2E2E2E2E2E2
310
E2E2E2E2E2E2E2E2E2E2E2E2E2E2E2E2E2E2E2E2E2E2E2E2E2E2E2E2E2E2E2E2E2E22DE2E2E2E2E2E2E2E2F5F5F5E2F5E2E2E2E2E2E22DE2E2E2E2E2E2E2E2E2E2E2E2E2E2E2E2E2E2E2E2E2E2E2E2E2E2E2E2E2E2E2E2E2E2E2E2E2E2E2E2E2E2E2E2E20FE2E2E2E2E2E2E2E2E2E2F50F0F0F0F0F0F0F0F0F0F0F0F0F0F0F
310
0F0F0F0F0F0F0F0FE2E2E2E2E2E2E2E2E2E2E2E2E2E2E20FE20FE2E2F5F5F5F5E2E20FE20FE2E2E2E2E2E2E2E2E2E2E2E2E2E2E2E2E2E2E2E2E2E2E2E2E2E2E2E2E2E2E2E2E2E2E2E2E2E2E2E2E2E2E2E2E2E2E2E2E2E22DE2E2E2E2E2E2F5E2F5F5F5E2F5E2E2E2E2E2E22DE2E2E2E2E2E2E2E2E2E2E2E2E2E2E2E2E2E2E2
310
E2E2E2E2E2E2E2E2E2E2E2E2E2E2E2E2E2E2E2E2E2E2E2E2E2E20FE2E2E2E2E2E2E2E2E2E2E2E2E2E2E2E2E2E2E2E2E2E20FE2E2E2E2E2E2E2E2E2E2E2E2E2E2E2E2E2E2E2E2E2E2E2E2E2E20FE20FE2E2E2E2E2E2E2E20FE20FE2E2E2E2E2E2E2E2E2E2E2E2E2E2E2E2E2E2E2E2E2E2E2E2E2E2E2E2E2E2E2E2E2E2E2E2E2
310
E2E2E2E2E2E2E2E2E2E2E2E2E22DE2E2E2E2E2E2F5E2F5F5F5E2F5E2E2E2E2E2E22DE2E2E2E2E2E2E2E2E2E2E2E2E2E2E2E2E2E2E2E2E2E2E2E2E2E2E2E2E2E2E2E2E2E2E2E2E2E2E2E2E2E2E2E2E20FE2E2E2E2E2E2E2E2E2E2E2E2E2E2E2E2E2E2E2E2E2E20FE2E2E2E2E2E2E2E2E2E2E2E2E2E2E2E2E2E2E2E2E2E2E2E2
310
E2E20FE20FE2E2E2E2E2E2E2E20FE20FE2E2E2E2E2E2E2E2E2E2E2E2E2E2E2E2E2E2E2E2E2E2E2E2E2E2E2E2E2E2E2E2E2E2E2E2E2E2E2E2E2E2E2E2E2E2E2E2E2E22DE2E2E2E2E2E2F5E2F5F5F5E2F5E2E2E2E2E2E22DE2E2E2E2E2E2E2E2E2E2E2E2E2E2E2E2E2E2E2E2E2E2E2E2E2E2E2E2E2E2E2E2E2E2E2E2E2E2E2E2
310
E2E2E2E2E20FE2E2E2E2E2E2E2E2E2E2E2E2E2E2E2E2E2E2E2E2E2E20FE2E2E2E2E2E2E2E2E2E2E2E2E2E2E2E2E2E2E2E2E2E2E2E2E2E20FE20FE2E2E2E2E2E2E2E20FE20FE2E2E2E2E2E2E2E2E2E2E2E2E2E2E2E2E2E2E2E2E2E2E2E2E2E2E2E2E2E2E2E2E2E2E2E2E2E2E2E2E2E2E2E2E2E2E2E2E2E22DE2E2E2E2E2E2F5
310
E2F5F5F5E2F5E2E2E2E2E2E22DE2E2E2E2E2E2E2E2E2E2E2E2E2E2E2E2E2E2E2E2E2E2E2E2E2E2E2E2E2E2E2E2E2E2E2E2E2E2E2E2E2E2E2E2E20FE2E2E2E2E2E2E2E2E2E2E2E2E2E2E2E2E2E2E2E2E2E20FE2E2E2E2E2E2E2E2E2E2E2E2E2E2E2E2E2E2E2E2E2E2E2E2E2E20FE20F0F0F0F0F0F0F0F0F0FE20FE2E2E2E2E2
310
E2E2E2E2E2E2E2E2E2E2E2E2E2E2E2E2E2E2E2E2E2E2E2E2E2E2E2E2E2E2E2E2E2E2E2E2E2E2E2E2E2E2E2E2E22DE2E2E2E2E2E2F5E2F5F5F5E2F5E2E2E2E2E2E22DE2E2E2E2E2E2E2E2E2E2E2E2E2E2E2E2E2E2E2E2E2E2E2E2E2E2E2E2E2E2E2E2E2E2E2E2E2E2E2E2E2E2E2E2E20FE2E2E2E2E2E2E2E2E2E2E2E2E2E2E2
310
E2E2E2E2E2E2E20FE2E2E2E2E2E2E2E2E2E2E2E2E2E2E2E2E2E2E2E2E2E2E2E2E2E20FE20FE2E20F0F0FE2E2E20FE20FE2E2E2E2E2E2E2E2E2E2E2E2E2E2E2E2E2E2E2E2E2E2E2E2E2E2E2E2E2E2E2E2E2E2E2E2E2E2E2E2E2E2E2E2E2E2E2E2E2E22DE2E2E2E2E2E2F5E2F5F5F5E2F5E2E2E2E2E2E22DE2E2E2E2E2E2E2E2
310
E2E2E2E2E2E2E2E2E2E2E2E2E2E2E2E2E2E2E2E2E2E2E2E2E2E2E2E2E2E2E2E2E2E2E2E2E20FE2E2E2E2E2E2E2E2E2E2E2E2E2E2E2E2E2E2E2E2E2E20FE2E2E2E2E2E2E2E2E2E2E2E2E2E2E2E2E2E2E2E2E2E2E2E2E2E20FE2E2E2E20F0F0FE2E2E2E2E20FE2E2E2E2E2E2E2E2E2E2E2E2E2E2E2E2E2E2E2E2E2E2E2E2E2E2
310
E2E2E2E2E2E2E2E2E2E2E2E2E2E2E2E2E2E2E2E2E2E2E2E22DE2E2E2E2E2E2F5E2F5F5F5E2F5E2E2E2E2E2E22DE2E2E2E2E2E2E2E2E2E2E2E2E2E2E2E2E2E2E2E2E2E2E2E2E2E2E2E2E2E2E2E2E2E2E2E2E2E2E2E2E2E2E2E2E20FE2E2E2E2E2E2E2E2E2E2E2E2E2E2E2E2E2E2E2E2E2E20FE2E2E2E2E2E2E2E2E2E2E2E2E2
310
E2E2E2E2E2E2E2E2E2E2E2E2E20FE2E2E2E2E2E2E2E2E2E2E2E20FE2E2E2E2E2E2E2E2E2E2E2E2E2E2E2E2E2E2E2E2E2E2E2E2E2E2E2E2E2E2E2E2E2E2E2E2E2E2E2E2E2E2E2E2E2E2E2E2E2E22DE2E2E2E2E2E2F5E2F5F5F5E2F5E2E2E2E2E2E22DE2E2E2E2E2E2E2E2E2E2E2E2E2E2E2E2E2E2E2E2E2E2E2E2E2E2E2E2E2
310
E2E2E2E2E2E2E2E2E2E2E2E2E2E2E2E20F0F0F0F0F0F0F0F0F0F0F0F0F0F0F0F0F0F0F0F0F0F0F0FE2E2E2E2E2E2E2E2E2E2E2E2E2E2E2E2E2E2E2E2E2E2E2E2E2E20F0F0F0F0F0F0F0F0F0F0F0F0F0FE2E2E2E2E2E2E2E2E2E2E2E2E2E2E2E2E2E2E2E2E2E2E2E2E2E2E2E2E2E2E2E2E2E2E2E2E2E2E2E2E2E2E2E2E2E2E2
310
E2E2E22DE2E2E2E2E2E2F5E2F5F5F5E2F5E2E2E2E2E2E22DE2E2E2E2E2E2E2E2E2E2E2E2E2E2E2E2E2E2E2E2E2E2E2E2E2E2E2E2E2E2E2E2E2E2E2E2E2E2E2E2E2E2E2E2E2E2E2E2E2E2E2E2E2E2E2E20F0F0FE2E2E2E2E2E2E2E2E2E2E2E2E2E2E2E2E2E2E2E2E2E2E2E2E2E2E2E2E2E2E2E2E2E2E2E2E2E2E2E2E2E20F0F
310
E2E2E2E2E2E2E2E2E2E2E2E2E2E2E2E2E2E2E2E2E2E2E2E2E2E2E2E2E2E2E2E2E2E2E2E2E2E2E2E2E2E2E2E2E2E2E2E2E2E2E2E2E2E2E2E22DE2E2E2E2E2E2F5E2F5F5F5E2F5E2E2E2E2E2E22DE2E2E2E2E2E2E2E2E2E2E2E2E2E2E2E2E2E2E2E2E2E2E2E2E2E2E2E2E2E2E2E2E2E2E2E2E2E2E2E2E2E2E2E2E2E2E2E2E2E2
310
E2E2E2E2E2E20F0F0FE2E2E2E2E2E2E2E2E2E2E2E2E2E2E2E2E2E2E2E2E2E2E2E2E2E2E2E2E2E2E2E2E2E2E2E2E2E2E2E2E20F0F0FE2E2E2E2E2E2E2E2E2E2E2E2E2E2E2E2E2E2E2E2E2E2E2E2E2E2E2E2E2E2E2E2E2E2E2E2E2E2E2E2E2E2E2E2E2E2E2E2E2E2E2E2E2E2E2E22DE2E2E2E2E2E2F5E2F5F5F5E2F5E2E2E2E2
310
E2E22DE2E2E2E2E2E2E2E2E2E2E2E2E2E2E2E2E2E2E2E2E2E2E2E2E2E2E2E2E2E2E2E2E2E2E2E2E2E2E2E2E2E2E2E2E2E2E2E2E2E2E2E2E2E2E2E2E2E2E2E2E2E2E2E2E2E2E2E2E2E2E2E2E2E2E2E2E2E2E2E2E2E2E2E2E2E2E2E2E2E2E2E2E2E2E2E2E2E2E2E2E2E2E2E2E2E2E2E2E2E2E2E2E2E2E2E2E2E2E2E2E2E2E2E2
310
E2E2E2E2E2E2E2E2E2E2E2E2E2E2E2E2E2E2E2E2E2E2E2E2E2E2E2E2E2E2E2E2E2E2E22DE2E2E2E2E2E2F5E2F5F5F5E2F5E2E2E2E2E2E22DE2E2E2E2E2E2E2E2E2E2E2E2E2E2E2E2E2E2E2E2E2E2E2E2E2E2E2E2E2E2E2E2E2E2E2E2E2E2E2E2E2E2E2E2E2E2E2E2E2E2E2E2E2E2E2E2E2E2E2E2E2E2E2E2E2E2E2E2E2E2E2
310
E2E2E2E2E2E2E2E2E2E2E2E2E2E2E2E2E2E2E2E2E2E2E2E2E2E2E2E2E2E2E2E2E2E2E2E2E2E2E2E2E2E2E2E2E2E2E2E2E2E2E2E2E2E2E2E2E2E2E2E2E2E2E2E2E2E2E2E2E2E2E2E2E2E2E2E2E2E2E2E2E2E2E2E2E2E2E2E22DE2E2E2E2E2E2F5E2F5F5F5E2F5E2E2E2E2E2E22DE2E2E2E2E2E2E2E2E2E2E2E2E2E2E2E2E2E2
310
E2E2E2E2E2E2E2E2E2E2E2E2E2E2E2E2E2E2E2E2E2E2E2E2E2E2E2E2E2E2E2E2E2E2E2E2E2E2E2E2E2E2E2E2E2E2E2E2E2E2E2E2E2E2E2E2E2E2E2E2E2E2E2E2E2E2E2E2E2E2E2E2E2E2E2E2E2E2E2E2E2E2E2E2E2E2E2E2E2E2E2E2E2E2E2E2E2E2E2E2E2E2E2E2E2E2E2E2E2E2E2E2E2E2E2E2E2E2E2E2E2E2E2E2E2E2E2
310
E2E2E2E2E2E2E2E2E2E2E2E2E2E22DE2E2E2E2E2E2F5E2F5F5F5E2F5E2E2E2E2E2E22DE2E2E2E2E2E2E2E2E2E2E2E2E2E2E2E2E2E2E2E2E2E2E2E2E2E2E2E2E2E2E2E2E2E2E2E2E2E2E2E2E2E2E2E2E2E2E2E2E2E2E2E2E2E2E2E2E2E2E2E2E2E2E2E2E2E2E2E2E2E2E2E2E2E2E2E2E2E2E2E2E2E2E2E2E2E2E2E2E2E2E2E2
310
E2E2E2E2E2E2E2E2E2E2E2E2E2E2E2E2E2E2E2E2E2E2E2E2E2E2E2E2E2E2E2E2E2E2E2E2E2E2E2E2E2E2E2E2E2E2E2E2E2E2E2E2E2E2E2E2E2E2E2E2E2E2E2E2E2E2E22DE2E2E2E2E2E2F5E2F5F5F5E2E2E2E2E2E2E2E22DE2E2E2E2E2E2E2E2E2E2E2E2E2E2E2E2E2E2E2E2E2E2E2E2E2E2E2E2E2E2E2E2E2E2E2E2E2E2E2
310
E2E2E2E2E2E2E2E2E2E2E2E2E2E2E2E2E2E2E2E2E2E2E2E2E2E2E2E2E2E2E2E2E2E2E2E2E2E2E2E2E2E2E2E2E2E2E2E2E2E2E2E2E2E2E2E2E2E2E2E2E2E2E2E2E2E2E2E2E2E2E2E2E2E2E2E2E2E2E2E2E2E2E2E2E2E2E2E2E2E2E2E2E2E2E2E2E2E2E2E2E2E2E2E2E2E2E2E2E2E2E2E2E2E2E2E2E2E2E2E22DE2E2E2E2E2E2
310
E2E2F5F5F5E2E2E2E2E2E2E2E22DE2E2E2E2E2E2E2E2E2E2E2E2E2E2E2E2E2E2E2E2E2E2E2E2E2E2E2E2E2E2E2E2E2E2E2E2E2E2E2E2E2E2E2E2E2E2E2E2E2E2E2E2E2E2E2E2E2E2E2E2E2E2E2E2E2E2E2E2E2E2E2E2E2E2E2E2E2E2E2E2E2E2E2E2E2E2E2E2E2E2E2E2E2E2E2E2E2E2E2E2E2E2E2E2E2E2E2E2E2E2E2E2E2
310
E2E2E2E2E2E2E2E2E2E2E2E2E2E2E2E2E2E2E2E2E2E2E2E2E2E2E2E2E2E2E2E2E2E2E2E2E2E2E2E2E2E2E2E2E2E22DE2E2E2E2E2E2E2E2F5F5F5E2E2E2E2E2E2E2E22DE2E2E2E2E2E2E2E2E2E2E2E2E2E2E2E2E2E2E2E2E2E2E2E2E2E2E2E2E2E2E2E2E2E2E2E2E2E2E2E2E2E2E2E2E2E2E2E2E2E2E2E2E2E2E2E2E2E2E2E2
310
E2E2E2E2E2E2E2E2E2E2E2E2E2E2E2E2E2E2E2E2E2E2E2E2E2E2E2E2E2E2E2E2E2E2E2E2E2E2E2E2E2E2E2E2E2E2E2E2E2E2E2E2E2E2E2E2E2E2E2E2E2E2E2E2E2E2E2E2E2E2E2E2E2E2E2E2E2E2E2E2E2E2E2E2E2E2E2E2E2E2E2E2E2E2E2E2E2E2E22DE2E2E2E2E2E2E2E2F5F5F5E2E2E2E2E2E2E2E22DE2E2E2E2E2E2E2
310
E2E2E2E2E2E2E2E2E2E2E2E2E2E2E2E2E2E2E2E2E2E2E2E2E2E2E2E2E2E2E2E2E2E2E2E2E2E2E2E2E2E2E2E2E2E2E2E2E2E2E2E2E2E2E2E2E2E2E2E2E2E2E2E2E2E2E2E2E2E2E2E2E2E2E2E2E2E2E2E2E2E2E2E2E2E2E2E2E2E2E2E2E2E2E2E2E2E2E2E2E2E2E2E2E2E2E2E2E2E2E2E2E2E2E2E2E2E2E2E2E2E2E2E2E2E2E2
310
E2E2E2E2E2E2E2E2E2E2E2E2E2E2E2E2E2E2E2E2E2E2E2E2E22DE2E2E2E2E2E2E2E2F5F5F5E2E2E2E2E2E2E2E22DE2E2E2E2E2E2E2E2E2E2E2E2E2E2E2E2E2E2E2E2E2E2E2E2E2E2E2E2E2E2E2E2E2E2E2E2E2E2E2E2E2E2E2E2E2E2E2E2E2E2E2E2E2E2E2E2E2E2E2E2E2E2E2E2E2E2E2E2E2E2E2E2E2E2E2E2E2E2E2E2E2
310
E2E2E2E2E2E2E2E2E2E2E2E2E2E2E2E2E2E2E2E2E2E2E2E2E2E2E2E2E2E2E2E2E2E2E2E2E2E2E2E2E2E2E2E2E2E2E2E2E2E2E2E2E2E2E2E2E2E2E2E2E2E2E2E2E2E2E2E2E2E2E2E2E2E2E2E2E2E22DE2E2E2E2E2E2E2E2F5F5F5E2E2E2E2E2E2E2E22DE2E2E2E2E2E2E2E2E2E2E2E2E2E2E2E2E2E2E2E2E2E2E2E2E2E2E2E2
310
E2E2E2E2E2E2E2E2E2E2E2E2E2E2E2E2E2E2E2E2E2E2E2E2E2E2E2E2E2E2E2E2E2E2E2E2E2E2E2E2E2E2E2E2E2E2E2E2E2E2E2E2E2E2E2E2E2E2E2E2E2E2E2E2E2E2E2E2E2E2E2E2E2E2E2E2E2E2E2E2E2E2E2E2E2E2E2E2E2E2E2E2E2E2E2E2E2E2E2E2E2E2E2E2E2E2E2E2E2E2E2E2E2E2E2E2E2E2E2E2E2E2E2E2E2E2E2
310
E2E2E2E22DE2E2E2E2E2E2E2E2F5F5F5E2E2E2E2E2E2E2E22DE2E2E2E2E2E2E2E2E2E2E2E2E2E2E2E2E2E2E2E2E2E2E2E2E2E2E2E2E2E2E2E2E2E2E2E2E2E2E2E2E2E2E2E2E2E2E2E2E2E2E2E2E2E2E2E2E2E2E2E2E2E2E2E2E2E2E2E2E2E2E2E2E2E2E2E2E2E2E2E2E2E2E2E2E2E2E2E2E2E2E2E2E2E2E2E2E2E2E2E2E2E2
310
E2E2E2E2E2E2E2E2E2E2E2E2E2E2E2E2E2E2E2E2E2E2E2E2E2E2E2E2E2E2E2E2E2E2E2E2E2E2E2E2E2E2E2E2E2E2E2E2E2E2E2E2E2E2E2E2E22DE2E2E2E2E2E2E2E2F5F5F5E2E2E2E2E2E2E2E22DE2E2E2E2E2E2E2E2E2E2E2E2E2E2E2E2E2E2E2E2E2E2E2E2E2E2E2E2E2E2E2E2E2E2E2E2E2E2E2E2E2E2E2E2E2E2E2E2E2
310
E2E2E2E2E2E2E2E2E2E2E2E2E2E2E2E2E2E2E2E2E2E2E2E2E2E2E2E2E2E2E2E2E2E2E2E2E2E2E2E2E2E2E2E2E2E2E2E2E2E2E2E2E2E2E2E2E2E2E2E2E2E2E2E2E2E2E2E2E2E2E2E2E2E2E2E2E2E2E2E2E2E2E2E2E2E2E2E2E2E2E2E2E2E2E2E2E2E2E2E2E2E2E2E2E2E2E2E2E2E22DE2E2E2E2E2E2E2E2F5F5F5E2E2E2E2E2
310
E2E2E22DE2E2E2E2E2E2E2E2E2E2E2E2E2E2E2E2E2E2E2E2E2E2E2E2E2E2E2E2E2E2E2E2E2E2E2E2E2E2E2E2E2E2E2E2E2E2E2E2E2E2E2E2E2E2E2E2E2E2E2E2E2E2E2E2E2E2E2E2E2E2E2E2E2E2E2E2E2E2E2E2E2E2E2E2E2E2E2E2E2E2E2E2E2E2E2E2E2E2E2E2E2E2E2E2E2E2E2E2E2E2E2E2E2E2E2E2E2E2E2E2E2E2E2
310
E2E2E2E2E2E2E2E2E2E2E2E2E2E2E2E2E2E2E2E2E2E2E2E2E2E2E2E2E2E2E2E2E2E2E2E22DE2E2E2E2E2E2E2E2F5F5F5E2F5E2E2E2E2E2E22DE2E2E2E2E2E2E2E2E2E2E2E2E2E2E2E2E2E2E2E2E2E2E2E2E2E2E2E2E2E2E2E2E2E2E2E2E2E2E2E2E2E2E2E2E2E2E2E2E2E2E2E2E2E2E2E2E2E2E2E2E2E2E2E2E2E2E2E2E2E2
310
E2E2E2E2E2E2E2E2E2E2E2E2E2E2E2E2E2E2E2E2E2E2E2E2E2E2E2E2E2E2E2E2E2E2E2E2E2E2E2E2E2E2E2E2E2E2E2E2E2E2E2E2E2E2E2E2E2E2E2E2E2E2E2E2E2E2E2E2E2E2E2E2E2E2E2E2E2E2E2E2E2E2E2E2E2E2E2E2E22DE2E2E2E2E2E2F5E2F5F5F5E2F5E2E2E2E2E2E22DE2E2E2E2E2E2E2E2E2E2E2E2E2E2E2E2E2
310
E2E2E2E2E2E2E2E2E2E2E2E2E2E2E2E2E2E2E2E2E2E2E2E2E2E2E2E2E2E2E2E2E2E2E2E2E2E2E2E2E2E2E2E2E2E2E2E2E2E2E2E2E2E2E2E2E2E2E2E2E2E2E2E2E2E2E2E2E2E2E2E2E2E2E2E2E2E2E2E2E2E2E2E2E2E2E2E2E2E2E2E2E2E2E2E2E2E2E2E2E2E2E2E2E2E2E2E2E2E2E2E2E2E2E2E2E2E2E2E2E2E2E2E2E2E2E2
310
E2E2E2E2E2E2E2E2E2E2E2E2E2E2E22DE2E2E2E2E2E2F5E2F5F5F5E2F5E2E2E2E2E2E22DE2E2E2E2E2E2E2E2E2E2E2E2E2E2E2E2E2E2E2E2E2E2E2E2E2E2E2E2E2E2E2E2E2E2E2E2E2E2E2E2E2E2E2E2E2E2E2E2E2E2E2E2E2E2E2E2E2E2E2E2E2E2E2E2E2E2E2E2E2E2E2E2E2E2E2E2E2E2E2E2E2E2E2E2E2E2E2E2E2E2E2
310
E2E2E2E2E2E2E2E2E2E2E2E2E2E2E2E2E2E2E2E2E2E2E2E2E2E2E2E2E2E2E2E2E2E2E2E2E2E2E2E2E2E2E2E2E2E2E2E2E2E2E2E2E2E2E2E2E2E2E2E2E2E2E2E2E2E2E2E22DE2E2E2E2E2E2F5E2F5F5F5E2F5E2E2E2E2E2E22DE2E2E2E2E2E2E2E2E2E2E2E2E2E2E2E2E2E2E2E2E2E2E2E2E2E2E2E2E2E2E2E2E2E2E2E2E2E2
310
E2E2E2E2E2E2E2E2E2E2E2E2E2E2E2E2E2E2E2E2E2E2E2E2E2E2E2E2E2E2E2E2E2E2E2E2E2E2E2E2E2E2E2E2E2E2E2E2E2E2E2E2E2E2E2E2E2E2E2E2E2E2E2E2E2E2E2E2E2E2E2E2E2E2E2E2E2E2E2E2E2E2E2E2E2E2E2E2E2E2E2E2E2E2E2E2E2E2E2E2E2E2E2E2E2E2E2E2E2E2E2E2E2E2E2E2E2E2E2E2E22DE2E2E2E2E2
310
E2F5E2F5F5F5E2F5E2E2E2E2E2E22DE2E2E2E2E2E2E2E2E2E2E2E2E2E2E2E2E2E2E2E2E2E2E2E2E2E2E2E2E2E2E2E2E2E2E2E2E2E2E2E2E2E2E2E2E2E2E2E2E2E2E2E2E2E2E2E2E2E2E2E2E2E2E2E2E2E2E2E2E2E2E2E2E2E2E2E2E2E2E2E2E2E2E2E2E2E2E2E2E2E2E2E2E2E2E2E2E2E2E2E2E2E2E2E2E2E2E2E2E2E2E2E2
310
E2E2E2E2E2E2E2E2E2E2E2E2E2E2E2E2E2E2E2E2E2E2E2E2E2E2E2E2E2E2E2E2E2E2E2E2E2E2E2E2E2E2E2E2E2E2E22DE2E2E2E2E2E2F5E2F5F5F5E2F5E2E2E2E2E2E22DE2E2E2E2E2E2E2E2E2E2E2E2E2E2E2E2E2E2E2E2E2E2E2E2E2E2E2E2E2E2E2E2E2E2E2E2E2E2E2E2E2E2E2E2E2E2E2E2E2E2E2E2E2E2E2E2E2E2E2
310
E2E2E2E2E2E2E2E2E2E2E2E2E2E2E2E2E2E2E2E2E2E2E2E2E2E2E2E2E2E2E2E2E2E2E2E2E2E2E2E2E2E2E2E2E2E2E2E2E2E2E2E2E2E2E2E2E2E2E2E2E2E2E2E2E2E2E2E2E2E2E2E2E2E2E2E2E2E2E2E2E2E2E2E2E2E2E2E2E2E2E2E2E2E2E2E2E2E2E2E22DE2E2E2E2E2E2F5E2F5F5F5E2F5E2E2E2E2E2E22DE2E2E2E2E2E2
310
E2E2E2E2E2E2E2E2E2E2E2E2E2E2E2E2E2E2E2E2E2E2E2E2E2E2E2E2E2E2E2E2E2E2E2E2E2E2E2E2E2E2E2E2E2E2E2E2E2E2E2E2E2E2E2E2E2E2E2E2E2E2E2E2E2E2E2E2E2E2E2E2E2E2E2E2E2E2E2E2E2E2E2E2E2E2E2E2E2E2E2E2E2E2E2E2E2E2E2E2E2E2E2E2E2E2E2E2E2E2E2E2E2E2E2E2E2E2E2E2E2E2E2E2E2E2E2
310
E2E2E2E2E2E2E2E2E2E2E2E2E2E2E2E2E2E2E2E2E2E2E2E2E2E22DE2E2E2E2E2E2F5E2F5F5F5E2F5F5F5F5F5F5F52D2D2D2D2D2D2D2D2D2D2D2D2D2D2D2D2D2D2D2D2D2D2D2D2D2D2D2D2D2D2D2D2D2D2D2D2D2D2D2D2D2D2D2D2D2D2D2D2D2D2D2D2D2D2D2D2D2D2D2D2D2D2D2D2D2D2D2D2D2D2D2D2D2D2D2D2D2D2D2D2D
310
2D2D2D2D2D2D2D2D2D2D2D2D2D2D2D2D2D2D2D2D2D2D2D2D2D2D2D2D2D2D2D2D2D2D2D2D2D2D2D2D2D2D2D2D2D2D2D2D2D2D2D2D2D2D2D2D2D2D2D2D2D2D2D2D2D2D2D2D2D2D2D2D2D2D2D2D2D2D2D2DF5F5F5F5F5F5F5E2F5F5F5E2E2E2E2E2E2E2E2E2E2E2E2E2E2E2E2E2E2E2E2E2E2E2E2E2E2E2E2E2E2E2E2E2E2E2E2
310
E2E2E2E2E2E2E2E2E2E2E2E2E2E2E2E2E2E2E2E2E2E2E2E2E2E2E2E2E2E2E2E2E2E2E2E2E2E2E2E2E2E2E2E2E2E2E2E2E2E2E2E2E2E2E2E2E2E2E2E2E2E2E2E2E2E2E2E2E2E2E2E2E2E2E2E2E2E2E2E2E2E2E2E2E2E2E2E2E2E2E2E2E2E2E2E2E2E2E2E2E2E2E2E2E2E2E2E2E2E2E2E2E2E2E2E2E2E2E2E2E2E2E2E2E2E2E2
310
E2E2E2E2E2E2E2E2E2E2E2E2E2E2F5F5F5E2E2E2E2E2E2E2E2E2E2E2E2E2E2E2E2E2E2E2E2E2E2E2E2E2E2E2E2E2E2E2E2E2E2E2E2E2E2E2E2E2E2E2E2E2E2E2E2E2E2E2E2E2E2E2E2E2E2E2E2E2E2E2E2E2E2E2E2E2E2E2E2E2E2E2E2E2E2E2E2E2E2E2E2E2E2E2E2E2E2E2E2E2E2E2E2E2E2E2E2E2E2E2E2E2E2E2E2E2E2
310
E2E2E2E2E2E2E2E2E2E2E2E2E2E2E2E2E2E2E2E2E2E2E2E2E2E2E2E2E2E2E2E2E2E2E2E2E2E2E2E2E2E2E2E2E2E2E2E2E2E2E2E2E2E2E2E2E2E2E2E2E2E2E2E2E2E2E2F5F5F5E2E2E2E2E2E2E2E2E2E2E2E2E2E2E2E2E2E2E2E2E2E2E2E2E2E2E2E2E2E2E2E2E2E2E2E2E2E2E2E2E2E2E2E2E2E2E2E2E2E2E2E2E2E2E2E2E2
310
E2E2E2E2E2E2E2E2E2E2E2E2E2E2E2E2E2E2E2E2E2E2E2E2E2E2E2E2E2E2E2E2E2E2E2E2E2E2E2E2E2E2E2E2E2E2E2E2E2E2E2E2E2E2E2E2E2E2E2E2E2E2E2E2E2E2E2E2E2E2E2E2E2E2E2E2E2E2E2E2E2E2E2E2E2E2E2E2E2E2E2E2E2E2E2E2E2E2E2E2E2E2E2E2E2E2E2E2E2E2E2E2E2E2E2E2E2E2E2E2F5EFF5F5F5F5F5
310
F5F5F5F5F5F5F5F5F5F5F5F5F5F5F5F5F5F5F5F5F5F5F5F5F5F5F5F5F5F5F5F5F5F5F5F5F5F5F5F5F5F5F5F5F5F5F5F5F5F5F5F5F5F5F5F5F5F5F5F5F5F5F5F5F5F5F5F5F5F5F5F5F5F5F5F5F5F5F5F5F5F5F5F5F5F5F5F5F5F5F5F5F5F5F5F5F5F5F5F5F5F5F5F5F5F5F5F5F5F5F5F5F5F5F5F5F5F5F5F5F5F5F5F5F5F5F5
310
F5F5F5F5F5F5F5F5F5F5F5F5F5F5F5F5F5F5F5F5F5F5F5F5F5F5F5F5F5F5F5F5F5F5F5F5F5F5F5F5F5F5F5F5F5F5F5EF
  0
ENDSEC
  0
EOF
