  0
SECTION
  2
HEADER
  9
$ACADVER
  1
AC1015
  9
$ACADMAINTVER
 70
    20
  9
$DWGCODEPAGE
  3
ANSI_950
  9
$INSBASE
 10
0.0
 20
0.0
 30
0.0
  9
$EXTMIN
 10
392.8626118148323
 20
242.5571589878776
 30
0.0
  9
$EXTMAX
 10
540.3691877061295
 20
383.2746011887824
 30
66.05309378306509
  9
$LIMMIN
 10
0.0
 20
0.0
  9
$LIMMAX
 10
420.0
 20
297.0
  9
$ORTHOMODE
 70
     0
  9
$REGENMODE
 70
     1
  9
$FILLMODE
 70
     1
  9
$QTEXTMODE
 70
     0
  9
$MIRRTEXT
 70
     1
  9
$LTSCALE
 40
1.0
  9
$ATTMODE
 70
     1
  9
$TEXTSIZE
 40
3.0
  9
$TRACEWID
 40
1.0
  9
$TEXTSTYLE
  7
STANDARD
  9
$CLAYER
  8
AM_REFDIM
  9
$CELTYPE
  6
ByLayer
  9
$CECOLOR
 62
   256
  9
$CELTSCALE
 40
1.0
  9
$DISPSILH
 70
     0
  9
$DIMSCALE
 40
1.5
  9
$DIMASZ
 40
3.0
  9
$DIMEXO
 40
1.0
  9
$DIMDLI
 40
8.0
  9
$DIMRND
 40
0.0
  9
$DIMDLE
 40
0.0
  9
$DIMEXE
 40
1.0
  9
$DIMTP
 40
0.1
  9
$DIMTM
 40
0.1
  9
$DIMTXT
 40
3.5
  9
$DIMCEN
 40
0.0
  9
$DIMTSZ
 40
0.0
  9
$DIMTOL
 70
     0
  9
$DIMLIM
 70
     0
  9
$DIMTIH
 70
     0
  9
$DIMTOH
 70
     0
  9
$DIMSE1
 70
     0
  9
$DIMSE2
 70
     0
  9
$DIMTAD
 70
     1
  9
$DIMZIN
 70
     8
  9
$DIMBLK
  1

  9
$DIMASO
 70
     1
  9
$DIMSHO
 70
     1
  9
$DIMPOST
  1

  9
$DIMAPOST
  1
"
  9
$DIMALT
 70
     0
  9
$DIMALTD
 70
     2
  9
$DIMALTF
 40
0.0393701
  9
$DIMLFAC
 40
1.0
  9
$DIMTOFL
 70
     1
  9
$DIMTVP
 40
0.0
  9
$DIMTIX
 70
     0
  9
$DIMSOXD
 70
     0
  9
$DIMSAH
 70
     0
  9
$DIMBLK1
  1

  9
$DIMBLK2
  1

  9
$DIMSTYLE
  2
AM_ISO
  9
$DIMCLRD
 70
   256
  9
$DIMCLRE
 70
   256
  9
$DIMCLRT
 70
   256
  9
$DIMTFAC
 40
0.6
  9
$DIMGAP
 40
1.0
  9
$DIMJUST
 70
     0
  9
$DIMSD1
 70
     0
  9
$DIMSD2
 70
     0
  9
$DIMTOLJ
 70
     0
  9
$DIMTZIN
 70
     8
  9
$DIMALTZ
 70
     0
  9
$DIMALTTZ
 70
     0
  9
$DIMUPT
 70
     0
  9
$DIMDEC
 70
     0
  9
$DIMTDEC
 70
     8
  9
$DIMALTU
 70
     2
  9
$DIMALTTD
 70
     2
  9
$DIMTXSTY
  7
STANDARD
  9
$DIMAUNIT
 70
     0
  9
$DIMADEC
 70
     0
  9
$DIMALTRND
 40
0.0
  9
$DIMAZIN
 70
     2
  9
$DIMDSEP
 70
    46
  9
$DIMATFIT
 70
     3
  9
$DIMFRAC
 70
     0
  9
$DIMLDRBLK
  1

  9
$DIMLUNIT
 70
     2
  9
$DIMLWD
 70
    -1
  9
$DIMLWE
 70
    -1
  9
$DIMTMOVE
 70
     0
  9
$LUNITS
 70
     2
  9
$LUPREC
 70
     2
  9
$SKETCHINC
 40
1.0
  9
$FILLETRAD
 40
3.75
  9
$AUNITS
 70
     0
  9
$AUPREC
 70
     0
  9
$MENU
  1
.
  9
$ELEVATION
 40
0.0
  9
$PELEVATION
 40
0.0
  9
$THICKNESS
 40
0.0
  9
$LIMCHECK
 70
     0
  9
$CHAMFERA
 40
3.75
  9
$CHAMFERB
 40
3.75
  9
$CHAMFERC
 40
20.0
  9
$CHAMFERD
 40
0.0
  9
$SKPOLY
 70
     0
  9
$TDCREATE
 40
2454392.703168762
  9
$TDUCREATE
 40
2454392.369835428
  9
$TDUPDATE
 40
2456051.709618056
  9
$TDUUPDATE
 40
2456051.376284722
  9
$TDINDWG
 40
0.1854532870
  9
$TDUSRTIMER
 40
0.1854531019
  9
$USRTIMER
 70
     1
  9
$ANGBASE
 50
0.0
  9
$ANGDIR
 70
     0
  9
$PDMODE
 70
     0
  9
$PDSIZE
 40
0.0
  9
$PLINEWID
 40
0.0
  9
$SPLFRAME
 70
     0
  9
$SPLINETYPE
 70
     6
  9
$SPLINESEGS
 70
     8
  9
$HANDSEED
  5
5B51
  9
$SURFTAB1
 70
     6
  9
$SURFTAB2
 70
     6
  9
$SURFTYPE
 70
     6
  9
$SURFU
 70
     6
  9
$SURFV
 70
     6
  9
$UCSBASE
  2

  9
$UCSNAME
  2

  9
$UCSORG
 10
0.0
 20
0.0
 30
0.0
  9
$UCSXDIR
 10
1.0
 20
0.0
 30
0.0
  9
$UCSYDIR
 10
0.0
 20
1.0
 30
0.0
  9
$UCSORTHOREF
  2

  9
$UCSORTHOVIEW
 70
     0
  9
$UCSORGTOP
 10
0.0
 20
0.0
 30
0.0
  9
$UCSORGBOTTOM
 10
0.0
 20
0.0
 30
0.0
  9
$UCSORGLEFT
 10
0.0
 20
0.0
 30
0.0
  9
$UCSORGRIGHT
 10
0.0
 20
0.0
 30
0.0
  9
$UCSORGFRONT
 10
0.0
 20
0.0
 30
0.0
  9
$UCSORGBACK
 10
0.0
 20
0.0
 30
0.0
  9
$PUCSBASE
  2

  9
$PUCSNAME
  2

  9
$PUCSORG
 10
0.0
 20
0.0
 30
0.0
  9
$PUCSXDIR
 10
1.0
 20
0.0
 30
0.0
  9
$PUCSYDIR
 10
0.0
 20
1.0
 30
0.0
  9
$PUCSORTHOREF
  2

  9
$PUCSORTHOVIEW
 70
     0
  9
$PUCSORGTOP
 10
0.0
 20
0.0
 30
0.0
  9
$PUCSORGBOTTOM
 10
0.0
 20
0.0
 30
0.0
  9
$PUCSORGLEFT
 10
0.0
 20
0.0
 30
0.0
  9
$PUCSORGRIGHT
 10
0.0
 20
0.0
 30
0.0
  9
$PUCSORGFRONT
 10
0.0
 20
0.0
 30
0.0
  9
$PUCSORGBACK
 10
0.0
 20
0.0
 30
0.0
  9
$USERI1
 70
     0
  9
$USERI2
 70
     0
  9
$USERI3
 70
     0
  9
$USERI4
 70
     0
  9
$USERI5
 70
     0
  9
$USERR1
 40
0.0
  9
$USERR2
 40
0.0
  9
$USERR3
 40
0.0
  9
$USERR4
 40
0.0
  9
$USERR5
 40
0.0
  9
$WORLDVIEW
 70
     1
  9
$SHADEDGE
 70
     3
  9
$SHADEDIF
 70
    70
  9
$TILEMODE
 70
     1
  9
$MAXACTVP
 70
    64
  9
$PINSBASE
 10
0.0
 20
0.0
 30
0.0
  9
$PLIMCHECK
 70
     0
  9
$PEXTMIN
 10
1.000000000000000E+20
 20
1.000000000000000E+20
 30
1.000000000000000E+20
  9
$PEXTMAX
 10
-1.000000000000000E+20
 20
-1.000000000000000E+20
 30
-1.000000000000000E+20
  9
$PLIMMIN
 10
0.0
 20
0.0
  9
$PLIMMAX
 10
420.0
 20
297.0
  9
$UNITMODE
 70
     0
  9
$VISRETAIN
 70
     1
  9
$PLINEGEN
 70
     0
  9
$PSLTSCALE
 70
     1
  9
$TREEDEPTH
 70
  3020
  9
$CMLSTYLE
  2
Standard
  9
$CMLJUST
 70
     0
  9
$CMLSCALE
 40
20.0
  9
$PROXYGRAPHICS
 70
     1
  9
$MEASUREMENT
 70
     1
  9
$CELWEIGHT
370
    -1
  9
$ENDCAPS
280
     0
  9
$JOINSTYLE
280
     0
  9
$LWDISPLAY
290
     0
  9
$INSUNITS
 70
     4
  9
$HYPERLINKBASE
  1

  9
$STYLESHEET
  1
acad.ctb
  9
$XEDIT
290
     1
  9
$CEPSNTYPE
380
     0
  9
$PSTYLEMODE
290
     1
  9
$FINGERPRINTGUID
  2
{00E4BF2B-312E-4E1D-8C5C-0EEC0927E19E}
  9
$VERSIONGUID
  2
{ADEC1BBA-5FF4-4A14-A94C-CF80527C84A5}
  9
$EXTNAMES
290
     1
  9
$PSVPSCALE
 40
0.0
  9
$OLESTARTUP
290
     0
  0
ENDSEC
  0
SECTION
  2
CLASSES
  0
CLASS
  1
ACDBDICTIONARYWDFLT
  2
AcDbDictionaryWithDefault
  3
ObjectDBX Classes
 90
        0
280
     0
281
     0
  0
CLASS
  1
ACDBPLACEHOLDER
  2
AcDbPlaceHolder
  3
ObjectDBX Classes
 90
        0
280
     0
281
     0
  0
CLASS
  1
LAYOUT
  2
AcDbLayout
  3
ObjectDBX Classes
 90
        0
280
     0
281
     0
  0
CLASS
  1
ACME_DOCUMENT
  2
AcMeDbDoc
  3
AcMeServices
 90
        0
280
     0
281
     0
  0
CLASS
  1
AMGSETTINGSOBJ
  2
AmgSettingsObj
  3
"AcadM|Product Description: AutoCAD Mechanical 2000|Company: Autodesk"
 90
        0
280
     0
281
     0
  0
CLASS
  1
ACMESCOPE
  2
AcMeScope
  3
AcMeServices
 90
        0
280
     0
281
     0
  0
CLASS
  1
ACMECOMMANDHISTORY
  2
AcMeCommandHistory
  3
AcMeServices
 90
        0
280
     0
281
     0
  0
CLASS
  1
ACIMSYSVARMAN
  2
AcImSysVarManager
  3
AcMeServices
 90
        0
280
     0
281
     0
  0
CLASS
  1
ACIMREALSYSVAR
  2
AcImRealSysVar
  3
AcMeServices
 90
        0
280
     0
281
     0
  0
CLASS
  1
ACIMINTSYSVAR
  2
AcImIntSysVar
  3
AcMeServices
 90
        0
280
     0
281
     0
  0
CLASS
  1
ACMEDRAWINGMAN
  2
AcMeDrawingMan
  3
AcMeServices
 90
        0
280
     0
281
     0
  0
CLASS
  1
ACMEVIEW
  2
AcMeView
  3
AcMeServices
 90
        0
280
     0
281
     0
  0
CLASS
  1
ACDBENTITYCACHE
  2
AcMeEntityCache
  3
AcMeServices
 90
        0
280
     0
281
     0
  0
CLASS
  1
GSMANAGER
  2
AcMeGSManager
  3
AcMeServices
 90
        0
280
     0
281
     0
  0
CLASS
  1
AMDTINTERNALREACTOR
  2
AmdtInternalReactor
  3
AcMeServices
 90
        0
280
     0
281
     0
  0
CLASS
  1
ACMESTATEMGR
  2
AcMeStateMgr
  3
AcMeServices
 90
        0
280
     0
281
     0
  0
CLASS
  1
ACGREFMASTER
  2
AcGrefMaster
  3
AcAttribServices
 90
        0
280
     0
281
     0
  0
CLASS
  1
ACME_DATABASE
  2
AcMeDbDatabase
  3
AcMeServices
 90
        0
280
     0
281
     0
  0
CLASS
  1
ACRFINSADJUSTERMGR
  2
AcRfInsAdjusterMgr
  3
AcMeServices
 90
        0
280
     0
281
     0
  0
CLASS
  1
ACGREFACADMASTER
  2
AcGrefacadMaster
  3
AcGrefServices
 90
        0
280
     0
281
     0
  0
CLASS
  1
AMIMASTER
  2
AmiMaster
  3
AmiServices
 90
        0
280
     0
281
     0
  0
CLASS
  1
ACMDATADICTIONARY
  2
AcmDataDictionary
  3
"AcmSymBB|Product Description: AutoCAD Mechanical 2004 DX|Company: Autodesk"
 90
        0
280
     0
281
     0
  0
CLASS
  1
ACMDATAENTRYBLOCK
  2
AcmDataEntryBlock
  3
"AcmSymBB|Product Description: AutoCAD Mechanical 2004 DX|Company: Autodesk"
 90
        0
280
     0
281
     0
  0
CLASS
  1
ACIMSTRSYSVAR
  2
AcImStrSysVar
  3
AcMeServices
 90
        0
280
     0
281
     0
  0
CLASS
  1
ACMSTANDARDISO
  2
AcmStandardISO
  3
"Amdt_StdImp|Product Description: AutoCAD Mechanical 2004 DX|Company: Autodesk"
 90
        0
280
     0
281
     0
  0
CLASS
  1
AMGOBJPROPCFG
  2
AmgObjPropCfg
  3
"AmgLay|Product Description: AutoCAD Mechanical 2000|Company: Autodesk"
 90
        1
280
     0
281
     0
  0
CLASS
  1
AMDTEDGESTANDARDISO
  2
AmdtEdgeStdISO
  3
"Amdt_StdImp|Product Description: AutoCAD Mechanical 2004 DX|Company: Autodesk"
 90
    32768
280
     0
281
     0
  0
CLASS
  1
ACMSURFSTANDARDISO
  2
AcmSurfTextStdISO
  3
"Amdt_StdImp|Product Description: AutoCAD Mechanical 2004 DX|Company: Autodesk"
 90
        0
280
     0
281
     0
  0
CLASS
  1
ACMFCFSTANDARDISO
  2
AcmFCFStdISO
  3
"Amdt_StdImp|Product Description: AutoCAD Mechanical 2004 DX|Company: Autodesk"
 90
        0
280
     0
281
     0
  0
CLASS
  1
ACMWELDSTANDARDISO
  2
AcmWeldingStdISO
  3
"Amdt_StdImp|Product Description: AutoCAD Mechanical 2004 DX|Company: Autodesk"
 90
        0
280
     0
281
     0
  0
CLASS
  1
ACMIDSTANDARDISO
  2
AcmIdStdISO
  3
"Amdt_StdImp|Product Description: AutoCAD Mechanical 2004 DX|Company: Autodesk"
 90
        0
280
     0
281
     0
  0
CLASS
  1
ACMDATUMSTANDARDISO
  2
AcmDatumStdISO
  3
"Amdt_StdImp|Product Description: AutoCAD Mechanical 2004 DX|Company: Autodesk"
 90
        0
280
     0
281
     0
  0
CLASS
  1
ACMBOMSTANDARDISO
  2
AcmBOMStdISO
  3
"Amdt_StdImp|Product Description: AutoCAD Mechanical 2004 DX|Company: Autodesk"
 90
        0
280
     0
281
     0
  0
CLASS
  1
ACMDETAILSTANDARDISO
  2
AmdtDetailSymStdISO
  3
"Amdt_StdImp|Product Description: AutoCAD Mechanical 2004 DX|Company: Autodesk"
 90
        0
280
     0
281
     0
  0
CLASS
  1
ACMSECTIONSTANDARDISO
  2
AmdtSectionSymStdISO
  3
"Amdt_StdImp|Product Description: AutoCAD Mechanical 2004 DX|Company: Autodesk"
 90
        0
280
     0
281
     0
  0
CLASS
  1
ACMCENTERLINESTANDARDISO
  2
AmdtCenterLineStdISO
  3
"Amdt_StdImp|Product Description: AutoCAD Mechanical 2004 DX|Company: Autodesk"
 90
        0
280
     0
281
     0
  0
CLASS
  1
ACMNOTESTANDARDISO
  2
AmdtNoteStdISO
  3
"Amdt_StdImp|Product Description: AutoCAD Mechanical 2004 DX|Company: Autodesk"
 90
        0
280
     0
281
     0
  0
CLASS
  1
ACAMGLAYSTD
  2
AcAmgLayStd
  3
"AcAmgLayStd|Product Description: AutoCAD Mechanical 2000|Company: Autodesk"
 90
        0
280
     0
281
     0
  0
CLASS
  1
ACAMGDIMSTD
  2
AcAmgDimStd
  3
"AcAmgDimStd|Product Description: AutoCAD Mechanical 2000|Company: Autodesk"
 90
        0
280
     0
281
     0
  0
CLASS
  1
ACAMGHOLECHARTSTDISO
  2
AcAmgHoleChartStdISO
  3
ACMSYMBB_MODULE_NAME
 90
        0
280
     0
281
     0
  0
CLASS
  1
ACAMGTITLESTD
  2
AcAmgTitleStd
  3
"TITLEAPP"
 90
        0
280
     0
281
     0
  0
CLASS
  1
LAYER_INDEX
  2
AcDbLayerIndex
  3
ObjectDBX Classes
 90
        0
280
     0
281
     0
  0
CLASS
  1
IDBUFFER
  2
AcDbIdBuffer
  3
ObjectDBX Classes
 90
        0
280
     0
281
     0
  0
CLASS
  1
DICTIONARYVAR
  2
AcDbDictionaryVar
  3
ObjectDBX Classes
 90
        0
280
     0
281
     0
  0
CLASS
  1
AM_DRAWING_MGR
  2
AcDmDwgMgr
  3
AcMechDwgViewMgmt
 90
        0
280
     0
281
     0
  0
CLASS
  1
AM_DWG_DOCUMENT
  2
AcDmDwgDocument
  3
AcMechDwgViewMgmt
 90
        0
280
     0
281
     0
  0
CLASS
  1
AM_DWG_SHEET
  2
AcDmSheet
  3
AcMechDwgViewMgmt
 90
        0
280
     0
281
     0
  0
CLASS
  1
AM_VIEWDIMPARMAP
  2
AcDmViewDimParMap
  3
AcMechDwgViewMgmt
 90
        0
280
     0
281
     0
  0
CLASS
  1
AM_DWGMGR_NAME
  2
AcDmDwgMgrName
  3
AcMechDwgViewMgmt
 90
        0
280
     0
281
     0
  0
CLASS
  1
AMDTMENUSTATEMGR
  2
AmdtMenuStateMgr
  3
McadcomServices
 90
        0
280
     0
281
     0
  0
CLASS
  1
AMDTMCOMMENUSTATE
  2
AmdtMcomMenuState
  3
McadcomServices
 90
        0
280
     0
281
     0
  0
CLASS
  1
MAPIAMMOUDLE
  2
MApiAmModule
  3
MApiAmServices
 90
        0
280
     0
281
     0
  0
CLASS
  1
AMDTADMENUSTATE
  2
AmdtAdMenuState
  3
DesignerServices
 90
        0
280
     0
281
     0
  0
CLASS
  1
ADAPPL
  2
AcAdAppl
  3
DesignerServices
 90
        0
280
     0
281
     0
  0
CLASS
  1
DEPMGR
  2
AcAdDepMgr
  3
DesignerServices
 90
        0
280
     0
281
     0
  0
CLASS
  1
PARAMMGR
  2
AcAdParamMgr
  3
DesignerServices
 90
        0
280
     0
281
     0
  0
CLASS
  1
PARAMSCOPE
  2
AcAdParamScope
  3
DesignerServices
 90
        0
280
     0
281
     0
  0
CLASS
  1
NAMEDAPPL
  2
AcAdNamedAppl
  3
DesignerServices
 90
        0
280
     0
281
     0
  0
CLASS
  1
AMDTDMMENUSTATE
  2
AmdtDmMenuState
  3
AcMechDwgViewMgmt
 90
        0
280
     0
281
     0
  0
CLASS
  1
AMDTAMMENUSTATE
  2
AmdtAmMenuState
  3
DesignerAssemblies
 90
        0
280
     0
281
     0
  0
CLASS
  1
ACAMPROJECT
  2
AcAmProject
  3
DesignerAssemblies
 90
        0
280
     0
281
     0
  0
CLASS
  1
ACAMGRCOMPDEF
  2
AcAmGrCompDef
  3
DesignerAssemblies
 90
        0
280
     0
281
     0
  0
CLASS
  1
ACCMCONTEXT
  2
AcCmContext
  3
DesignerAssemblies
 90
        0
280
     0
281
     0
  0
CLASS
  1
ACAMCOMPDEF
  2
AcAmCompDef
  3
DesignerAssemblies
 90
        0
280
     0
281
     0
  0
CLASS
  1
ACAMCOMPDEFMGR
  2
AcAmCompDefMgr
  3
DesignerAssemblies
 90
        0
280
     0
281
     0
  0
CLASS
  1
AMCONTEXTMGR
  2
AcAmContextMgr
  3
DesignerAssemblies
 90
        0
280
     0
281
     0
  0
CLASS
  1
ACAMCONTEXTMODELER
  2
AcAmContextModeler
  3
DesignerAssemblies
 90
        0
280
     0
281
     0
  0
CLASS
  1
ACMTHREADLINESTANDARDISO
  2
AmdtThreadLineStdISO
  3
"Amdt_StdImp|Product Description: AutoCAD Mechanical 2004 DX|Company: Autodesk"
 90
        0
280
     0
281
     0
  0
CLASS
  1
CATALOGSTATE
  2
AcAmCatalogState
  3
DesignerAssemblies
 90
        0
280
     0
281
     0
  0
CLASS
  1
ACAMGRCOMPDEFSET
  2
AcAmGrCompDefSet
  3
DesignerAssemblies
 90
        0
280
     0
281
     0
  0
CLASS
  1
AMDTBROWSERDBTAB
  2
AmdtBrowserDbTab
  3
McadcomServices
 90
        0
280
     0
281
     0
  0
CLASS
  1
CBROWSERAPPOBJECT
  2
CBrowserAppObject
  3
McadcomServices
 90
        0
280
     0
281
     0
  0
CLASS
  1
DM_PLACEHOLDER
  2
AcDmSelsetPlaceholder
  3
AcMechDwgViewMgmt
 90
        0
280
     0
281
     0
  0
CLASS
  1
TABLESTYLE
  2
AcDbTableStyle
  3
ObjectDBX Classes
 90
     2047
280
     0
281
     0
  0
CLASS
  1
VAACXREFPANELOBJECT
  2
VaAcXREFPanelObject
  3
VAAC_ADDIN
 90
    32768
280
     0
281
     0
  0
CLASS
  1
VAACIMAGEINVENTORY
  2
VaAcImageInventory
  3
VAAC_ADDIN
 90
    32768
280
     0
281
     0
  0
CLASS
  1
AMDTNOTETEMPLATEDB
  2
AmdtNoteTemplateDB
  3
AMDT_STDIMP_MODULE_NAME
 90
        0
280
     0
281
     0
  0
CLASS
  1
ACMBOM
  2
AcmBom
  3
"AcmSymBB|Product Description: AutoCAD Mechanical 2004 DX|Company: Autodesk"
 90
    32768
280
     0
281
     0
  0
CLASS
  1
AMDTFORMULAUPDATEDISPATCHER
  2
AmdtFormulaUpdateDispatcher
  3
AcMeServices
 90
    32768
280
     0
281
     0
  0
CLASS
  1
ACMPARTLIST
  2
AcmPartList
  3
"AcmSymBB|Product Description: AutoCAD Mechanical 2004 DX|Company: Autodesk"
 90
    33791
280
     0
281
     1
  0
CLASS
  1
ACAMGFILTERDAT
  2
AcAmgFilterDat
  3
"AcadM|Product Description: AutoCAD Mechanical 2000|Company: Autodesk"
 90
    32768
280
     0
281
     0
  0
CLASS
  1
DIMASSOC
  2
AcDbDimAssoc
  3
"AcDbDimAssoc|Product Desc:     AcDim ARX App For Dimension|Company:          Autodesk, Inc.|WEB Address:      www.autodesk.com"
 90
        0
280
     0
281
     0
  0
CLASS
  1
AMDTNOTE
  2
AmdtNote
  3
"AcmSymBB|Product Description: AutoCAD Mechanical 2004 DX|Company: Autodesk"
 90
    33791
280
     0
281
     1
  0
CLASS
  1
AMDTEDGESTANDARDISO13715
  2
AmdtEdgeStdISO13715
  3
"Amdt_StdImp|Product Description: AutoCAD Mechanical 2004 DX|Company: Autodesk"
 90
        0
280
     0
281
     0
  0
CLASS
  1
ACRFATTGENMGR
  2
AcRfAttGeneralMgr
  3
AcAttribServices
 90
    32768
280
     0
281
     0
  0
CLASS
  1
ASAPP
  2
AcAsAppObject
  3
AutoSurfServices
 90
        0
280
     0
281
     0
  0
CLASS
  1
IM_STATIC_MAN
  2
AcImStaticVarManager
  3
AcMeServices
 90
        0
280
     0
281
     0
  0
CLASS
  1
ACIMDBLSTATICVAR
  2
AcImDblStaticVar
  3
AcMeServices
 90
        0
280
     0
281
     0
  0
CLASS
  1
ACIMSTRSTATICVAR
  2
AcImStrStaticVar
  3
AcMeServices
 90
        0
280
     0
281
     0
  0
CLASS
  1
ACIMINTSTATICVAR
  2
AcImIntStaticVar
  3
AcMeServices
 90
        0
280
     0
281
     0
  0
CLASS
  1
ACASGREFMASTER
  2
AcAsGrefMaster
  3
AutoSurfResolverServices
 90
        0
280
     0
281
     0
  0
CLASS
  1
ACADGREFMODULE
  2
AcAdGrefModule
  3
AdGrefServices
 90
        0
280
     0
281
     0
  0
CLASS
  1
AMDTMAPISURFMOUDULE
  2
AmdtMApiSurfModule
  3
MApiSurfServices
 90
        0
280
     0
281
     0
  0
CLASS
  1
MAPIADMODULE
  2
MApiAdModule
  3
MApiAdServices
 90
        0
280
     0
281
     0
  0
ENDSEC
  0
SECTION
  2
TABLES
  0
TABLE
  2
VPORT
  5
8
330
0
100
AcDbSymbolTable
 70
    23
  0
VPORT
  5
5B48
330
8
100
AcDbSymbolTableRecord
100
AcDbViewportTableRecord
  2
*Active
 70
     0
 10
0.0
 20
0.0
 11
1.0
 21
1.0
 12
13.73405807367915
 22
26.06138828443062
 13
0.0
 23
0.0
 14
3.75
 24
3.75
 15
15.0
 25
15.0
 16
0.0
 26
0.0
 36
1.0
 17
475.2465220475392
 27
286.8869866440797
 37
0.0
 40
181.5918207470541
 41
1.295739348370927
 42
50.0
 43
0.0
 44
0.0
 50
0.0
 51
0.0
 71
     0
 72
  1000
 73
     1
 74
     3
 75
     0
 76
     0
 77
     0
 78
     0
281
     0
 65
     0
110
0.0
120
0.0
130
0.0
111
1.0
121
0.0
131
0.0
112
0.0
122
1.0
132
0.0
 79
     0
146
0.0
  0
ENDTAB
  0
TABLE
  2
LTYPE
  5
5
330
0
100
AcDbSymbolTable
 70
    17
  0
LTYPE
  5
14
330
5
100
AcDbSymbolTableRecord
100
AcDbLinetypeTableRecord
  2
ByBlock
 70
     0
  3

 72
    65
 73
     0
 40
0.0
  0
LTYPE
  5
15
330
5
100
AcDbSymbolTableRecord
100
AcDbLinetypeTableRecord
  2
ByLayer
 70
     0
  3

 72
    65
 73
     0
 40
0.0
  0
LTYPE
  5
16
330
5
100
AcDbSymbolTableRecord
100
AcDbLinetypeTableRecord
  2
Continuous
 70
     0
  3
Solid line
 72
    65
 73
     0
 40
0.0
  0
LTYPE
  5
64
330
5
100
AcDbSymbolTableRecord
100
AcDbLinetypeTableRecord
  2
AM_ISO02W050
 70
     0
  3
__ __ __ __ __ __ __ __ __ __ __ __ __ __ __
 72
    65
 73
     2
 40
7.5
 49
6.0
 74
     0
 49
-1.5
 74
     0
  0
LTYPE
  5
65
330
5
100
AcDbSymbolTableRecord
100
AcDbLinetypeTableRecord
  2
AM_ISO08W050
 70
     0
  3
____ . ____ . ____ . ____ . ____ . ____ . ____
 72
    65
 73
     4
 40
18.0
 49
12.0
 74
     0
 49
-1.5
 74
     0
 49
3.0
 74
     0
 49
-1.5
 74
     0
  0
LTYPE
  5
66
330
5
100
AcDbSymbolTableRecord
100
AcDbLinetypeTableRecord
  2
AM_ISO09W050
 70
     0
  3
_____ . . _____ . . _____ . . ____ .. ____
 72
    65
 73
     6
 40
22.5
 49
12.0
 74
     0
 49
-1.5
 74
     0
 49
3.0
 74
     0
 49
-1.5
 74
     0
 49
3.0
 74
     0
 49
-1.5
 74
     0
  0
LTYPE
  5
67
330
5
100
AcDbSymbolTableRecord
100
AcDbLinetypeTableRecord
  2
Amconstr
 70
     0
  3
_______________________
 72
    65
 73
     2
 40
9999.0
 49
9999.0
 74
     0
 49
0.0
 74
     0
  0
LTYPE
  5
68
330
5
100
AcDbSymbolTableRecord
100
AcDbLinetypeTableRecord
  2
AM_ISO08W050x2
 70
     0
  3
__ . __ . __ . __ . __ . __
 72
    65
 73
     4
 40
9.0
 49
6.0
 74
     0
 49
-0.75
 74
     0
 49
1.5
 74
     0
 49
-0.75
 74
     0
  0
LTYPE
  5
69
330
5
100
AcDbSymbolTableRecord
100
AcDbLinetypeTableRecord
  2
AM_ISO02W050x2
 70
     0
  3
 _ _ _ _ _ _ _ _ _ _ _ _
 72
    65
 73
     2
 40
3.75
 49
3.0
 74
     0
 49
-0.75
 74
     0
  0
LTYPE
  5
6C
330
5
100
AcDbSymbolTableRecord
100
AcDbLinetypeTableRecord
  2
Amzigzag
 70
     0
  3
/\/-/\/-/\/-/\/-/\/-/\/
 72
    65
 73
     2
 40
11.0001
 49
0.0001
 74
     4
 75
   135
340
6B
 46
0.04
 50
0.0
 44
0.0
 45
0.0
 49
-11.0
 74
     0
  0
LTYPE
  5
7A
330
5
100
AcDbSymbolTableRecord
100
AcDbLinetypeTableRecord
  2
ACISOWELD
 70
     0
  3
_ _ _ _ _
 72
    65
 73
     2
 40
2.0
 49
2.0
 74
     0
 49
-1.0
 74
     0
  0
LTYPE
  5
7B
330
5
100
AcDbSymbolTableRecord
100
AcDbLinetypeTableRecord
  2
ACISOTGB
 70
     0
  3
__ . . __ . .
 72
    65
 73
     6
 40
9.0
 49
4.0
 74
     0
 49
-1.0
 74
     0
 49
1.0
 74
     0
 49
-1.0
 74
     0
 49
1.0
 74
     0
 49
-1.0
 74
     0
  0
LTYPE
  5
7C
330
5
100
AcDbSymbolTableRecord
100
AcDbLinetypeTableRecord
  2
ACISOTGL
 70
     0
  3
_ _ _ _ _
 72
    65
 73
     2
 40
3.0
 49
2.0
 74
     0
 49
-1.0
 74
     0
  0
LTYPE
  5
7E
330
5
100
AcDbSymbolTableRecord
100
AcDbLinetypeTableRecord
  2
CENTER
 70
     0
  3
__ . __
 72
    65
 73
     4
 40
7.0
 49
4.0
 74
     0
 49
-1.0
 74
     0
 49
1.0
 74
     0
 49
-1.0
 74
     0
  0
LTYPE
  5
D8
330
5
100
AcDbSymbolTableRecord
100
AcDbLinetypeTableRecord
  2
HIDDEN
 70
     0
  3
Hidden __ __ __ __ __ __ __ __ __ __ __ __ __ _
 72
    65
 73
     2
 40
9.524999999999998
 49
6.349999999999999
 74
     0
 49
-3.174999999999999
 74
     0
  0
LTYPE
  5
D9
330
5
100
AcDbSymbolTableRecord
100
AcDbLinetypeTableRecord
  2
PHANTOM2
 70
     0
  3
Phantom (.5x) ___ _ _ ___ _ _ ___ _ _ ___ _ _
 72
    65
 73
     6
 40
31.75
 49
15.875
 74
     0
 49
-3.174999999999999
 74
     0
 49
3.174999999999999
 74
     0
 49
-3.174999999999999
 74
     0
 49
3.174999999999999
 74
     0
 49
-3.174999999999999
 74
     0
  0
LTYPE
  5
3AFB
330
5
100
AcDbSymbolTableRecord
100
AcDbLinetypeTableRecord
  2
HIDDEN2
 70
     0
  3
Hidden (.5x) _ _ _ _ _ _ _ _ _ _ _ _ _ _ _ _ _
 72
    65
 73
     2
 40
0.1875
 49
0.125
 74
     0
 49
-0.0625
 74
     0
  0
LTYPE
  5
3D45
330
5
100
AcDbSymbolTableRecord
100
AcDbLinetypeTableRecord
  2
ASULTYPE
 70
     0
  3
實線
 72
    65
 73
     2
 40
3.0
 49
2.5
 74
     0
 49
0.5
 74
     0
  0
LTYPE
  5
3D46
330
5
100
AcDbSymbolTableRecord
100
AcDbLinetypeTableRecord
  2
ASVLTYPE
 70
     0
  3
__ __ __ __ __ __ __ __ __ __ __ __ __ __ __ __ __ __ __ __ __
 72
    65
 73
     2
 40
0.75
 49
0.5
 74
     0
 49
-0.25
 74
     0
  0
ENDTAB
  0
TABLE
  2
LAYER
  5
2
102
{ACAD_XDICTIONARY
360
3F9
102
}
330
0
100
AcDbSymbolTable
 70
     9
  0
LAYER
  5
10
330
2
100
AcDbSymbolTableRecord
100
AcDbLayerTableRecord
  2
0
 70
     0
 62
     7
  6
Continuous
370
    -3
390
F
  0
LAYER
  5
ACB
330
2
100
AcDbSymbolTableRecord
100
AcDbLayerTableRecord
  2
AM_VIS
 70
     0
 62
     7
  6
Continuous
370
    50
390
F
  0
LAYER
  5
ACC
330
2
100
AcDbSymbolTableRecord
100
AcDbLayerTableRecord
  2
AM_7
 70
     0
 62
     1
  6
AM_ISO08W050x2
370
    25
390
F
  0
LAYER
  5
13A4
330
2
100
AcDbSymbolTableRecord
100
AcDbLayerTableRecord
  2
Defpoints
 70
     0
 62
     7
  6
Continuous
290
     0
370
    -3
390
F
  0
LAYER
  5
16FA
330
2
100
AcDbSymbolTableRecord
100
AcDbLayerTableRecord
  2
LOGO
 70
     0
 62
     7
  6
Continuous
370
    -3
390
F
  0
LAYER
  5
3455
330
2
100
AcDbSymbolTableRecord
100
AcDbLayerTableRecord
  2
AM_4
 70
     0
 62
     3
  6
ASVLTYPE
370
    25
390
F
  0
LAYER
  5
3456
330
2
100
AcDbSymbolTableRecord
100
AcDbLayerTableRecord
  2
AM_REFDIM
 70
     0
 62
     5
  6
Continuous
370
    25
390
F
  0
LAYER
  5
3AFC
330
2
100
AcDbSymbolTableRecord
100
AcDbLayerTableRecord
  2
AM_HID
 70
     0
 62
     7
  6
AM_ISO02W050
370
    25
390
F
  0
LAYER
  5
3EFF
330
2
100
AcDbSymbolTableRecord
100
AcDbLayerTableRecord
  2
AM_5
 70
     0
 62
     3
  6
Continuous
370
    25
390
F
  0
ENDTAB
  0
TABLE
  2
STYLE
  5
3
330
0
100
AcDbSymbolTable
 70
     6
  0
STYLE
  5
11
330
3
100
AcDbSymbolTableRecord
100
AcDbTextStyleTableRecord
  2
STANDARD
 70
     0
 40
0.0
 41
1.0
 50
0.0
 71
     0
 42
3.0
  3
ISOCP.SHX
  4
CHINESET.SHX
  0
STYLE
  5
6B
330
3
100
AcDbSymbolTableRecord
100
AcDbTextStyleTableRecord
  2

 70
     1
 40
0.0
 41
1.0
 50
0.0
 71
     0
 42
2.5
  3
ltypeshp.shx
  4

  0
STYLE
  5
6D
330
3
100
AcDbSymbolTableRecord
100
AcDbTextStyleTableRecord
  2
ACISOTS
 70
     0
 40
1.0
 41
1.0
 50
0.0
 71
     0
 42
1.0
  3
isocp.shx
  4
chineset.shx
  0
STYLE
  5
79
330
3
100
AcDbSymbolTableRecord
100
AcDbTextStyleTableRecord
  2
ACISOGDT
 70
     0
 40
0.0
 41
1.0
 50
0.0
 71
     0
 42
2.5
  3
amgdt.shx
  4
chineset.shx
  0
STYLE
  5
16FB
330
3
100
AcDbSymbolTableRecord
100
AcDbTextStyleTableRecord
  2
CHINESET
 70
     0
 40
0.0
 41
1.0
 50
0.0
 71
     0
 42
3.0
  3
simplex.shx
  4
CHINESET.SHX
  0
STYLE
  5
3457
330
3
100
AcDbSymbolTableRecord
100
AcDbTextStyleTableRecord
  2
DAYUS
 70
     0
 40
0.0
 41
1.0
 50
0.0
 71
     0
 42
2.5
  3
simplex
  4
dayus
  0
ENDTAB
  0
TABLE
  2
VIEW
  5
6
330
0
100
AcDbSymbolTable
 70
     0
  0
ENDTAB
  0
TABLE
  2
UCS
  5
7
330
0
100
AcDbSymbolTable
 70
     0
  0
ENDTAB
  0
TABLE
  2
APPID
  5
9
330
0
100
AcDbSymbolTable
 70
    23
  0
APPID
  5
12
330
9
100
AcDbSymbolTableRecord
100
AcDbRegAppTableRecord
  2
ACAD
 70
     0
  0
APPID
  5
46
330
9
100
AcDbSymbolTableRecord
100
AcDbRegAppTableRecord
  2
MCAD_NO_VIS
 70
     0
  0
APPID
  5
47
330
9
100
AcDbSymbolTableRecord
100
AcDbRegAppTableRecord
  2
ACAD_TEMP_GRAPHIC
 70
     0
  0
APPID
  5
58
330
9
100
AcDbSymbolTableRecord
100
AcDbRegAppTableRecord
  2
ACATTRIBSERVICES
 70
     0
  0
APPID
  5
EE
330
9
100
AcDbSymbolTableRecord
100
AcDbRegAppTableRecord
  2
AD_DRAW
 70
     0
  0
APPID
  5
10C
330
9
100
AcDbSymbolTableRecord
100
AcDbRegAppTableRecord
  2
DESIGNERASSEMBLIES
 70
     0
  0
APPID
  5
111
330
9
100
AcDbSymbolTableRecord
100
AcDbRegAppTableRecord
  2
ACADM_DIM_EDIT
 70
     0
  0
APPID
  5
112
330
9
100
AcDbSymbolTableRecord
100
AcDbRegAppTableRecord
  2
AMDT_DM_ADJ
 70
     0
  0
APPID
  5
22C
330
9
100
AcDbSymbolTableRecord
100
AcDbRegAppTableRecord
  2
ACAD_DSTYLE_DIMTEXT_FILL
 70
     0
  0
APPID
  5
452
330
9
100
AcDbSymbolTableRecord
100
AcDbRegAppTableRecord
  2
GENIUS_GENOENT_13
 70
     0
  0
APPID
  5
453
330
9
100
AcDbSymbolTableRecord
100
AcDbRegAppTableRecord
  2
GENIUS_GENOBJ-N-CRS_13
 70
     0
  0
APPID
  5
454
330
9
100
AcDbSymbolTableRecord
100
AcDbRegAppTableRecord
  2
GENIUS_GENOLIS_13
 70
     0
  0
APPID
  5
455
330
9
100
AcDbSymbolTableRecord
100
AcDbRegAppTableRecord
  2
GENIUS_GENODEF_13
 70
     0
  0
APPID
  5
456
330
9
100
AcDbSymbolTableRecord
100
AcDbRegAppTableRecord
  2
GENIUS_GENOREF_13
 70
     0
  0
APPID
  5
6F3
330
9
100
AcDbSymbolTableRecord
100
AcDbRegAppTableRecord
  2
ACAD_PSEXT
 70
     0
  0
APPID
  5
808
330
9
100
AcDbSymbolTableRecord
100
AcDbRegAppTableRecord
  2
GENIUS_GENDTOL_13
 70
     0
  0
APPID
  5
16FC
330
9
100
AcDbSymbolTableRecord
100
AcDbRegAppTableRecord
  2
GENIUS_GENREC_14
 70
     0
  0
APPID
  5
16FD
330
9
100
AcDbSymbolTableRecord
100
AcDbRegAppTableRecord
  2
GENIUS_GENOBJ-N-REC_13
 70
     0
  0
APPID
  5
268C
330
9
100
AcDbSymbolTableRecord
100
AcDbRegAppTableRecord
  2
GENIUS_GENDIMSH_14
 70
     0
  0
APPID
  5
3991
330
9
100
AcDbSymbolTableRecord
100
AcDbRegAppTableRecord
  2
GENIUS_GENDIM_13
 70
     0
  0
APPID
  5
3992
330
9
100
AcDbSymbolTableRecord
100
AcDbRegAppTableRecord
  2
GENIUS_GE3DTOL_13
 70
     0
  0
APPID
  5
3A12
330
9
100
AcDbSymbolTableRecord
100
AcDbRegAppTableRecord
  2
ASURF_PCURVE_APPNAME
 70
     0
  0
APPID
  5
3A17
330
9
100
AcDbSymbolTableRecord
100
AcDbRegAppTableRecord
  2
AMG_3D2D_5.0
 70
     0
  0
ENDTAB
  0
TABLE
  2
DIMSTYLE
  5
A
330
0
100
AcDbSymbolTable
 70
    10
100
AcDbDimStyleTable
 71
     3
340
81
340
8B
340
86
  0
DIMSTYLE
105
81
330
A
100
AcDbSymbolTableRecord
100
AcDbDimStyleTableRecord
  2
AM_ISO
 70
     0
  4
"
 40
1.5
 41
3.0
 42
1.0
 43
8.0
 44
1.0
 47
0.1
 48
0.1
 73
     0
 74
     0
 77
     1
 78
     8
 79
     2
140
3.5
141
0.0
143
0.0393701
146
0.6
147
1.0
172
     1
176
   256
177
   256
178
   256
271
     2
272
     2
283
     0
284
     8
340
11
371
    -1
372
    -1
  0
DIMSTYLE
105
82
330
A
100
AcDbSymbolTableRecord
100
AcDbDimStyleTableRecord
  2
AM_ISO$3
 70
     0
  4
"
 40
1.5
 41
3.0
 42
1.0
 43
8.0
 44
1.0
 47
0.1
 48
0.1
 73
     0
 77
     1
 78
     8
 79
     2
140
3.5
141
0.0
143
0.0393701
146
0.6
147
1.0
176
   256
177
   256
178
   256
271
     2
272
     2
283
     0
284
     8
288
     1
289
     0
340
11
371
    -1
372
    -1
  0
DIMSTYLE
105
83
330
A
100
AcDbSymbolTableRecord
100
AcDbDimStyleTableRecord
  2
AM_ISO$4
 70
     0
  4
"
 40
1.5
 41
3.0
 42
1.0
 43
8.0
 44
1.0
 47
0.1
 48
0.1
 73
     0
 77
     1
 78
     8
 79
     2
140
3.5
141
0.0
143
0.0393701
146
0.6
147
1.0
176
   256
177
   256
178
   256
271
     2
272
     2
283
     0
284
     8
288
     1
289
     0
340
11
371
    -1
372
    -1
  0
DIMSTYLE
105
84
330
A
100
AcDbSymbolTableRecord
100
AcDbDimStyleTableRecord
  2
AM_ISO$6
 70
     0
  4
"
 40
1.5
 41
3.0
 42
1.0
 43
8.0
 44
1.0
 47
0.1
 48
0.1
 73
     0
 74
     0
 78
     8
 79
     2
140
3.5
141
0.0
143
0.0393701
146
0.6
147
1.0
172
     1
176
   256
177
   256
178
   256
271
     2
272
     2
283
     0
284
     8
340
11
371
    -1
372
    -1
  0
DIMSTYLE
105
85
330
A
100
AcDbSymbolTableRecord
100
AcDbDimStyleTableRecord
  2
AM_ISO$7
 70
     0
  4
"
 40
1.5
 41
3.0
 42
1.0
 43
8.0
 44
1.0
 47
0.1
 48
0.1
 73
     0
 74
     0
 77
     1
 78
     8
 79
     2
140
3.5
141
0.0
143
0.0393701
146
0.6
147
1.0
172
     1
176
   256
177
   256
178
   256
271
     2
272
     2
283
     0
284
     8
340
11
371
    -1
372
    -1
  0
DIMSTYLE
105
86
330
A
100
AcDbSymbolTableRecord
100
AcDbDimStyleTableRecord
  2
AM_ISO$SF
 70
     0
  4
"
 40
1.5
 41
2.5
 42
1.0
 43
10.0
 44
1.0
 47
0.1
 48
0.1
 73
     0
 74
     0
 75
     1
 76
     1
 77
     1
 78
     8
 79
     2
140
3.5
141
0.0
143
0.0393701
146
0.71
147
1.5
172
     1
176
   256
177
   256
178
     2
271
     2
272
     3
274
     4
283
     0
284
     8
340
11
371
    -1
372
    -1
  0
DIMSTYLE
105
8B
330
A
100
AcDbSymbolTableRecord
100
AcDbDimStyleTableRecord
  2
AM_ISO$SH
 70
     0
  4
"
 40
1.5
 41
2.5
 42
1.0
 43
10.0
 44
1.0
 47
0.1
 48
0.1
 73
     0
 74
     0
 75
     1
 76
     1
 77
     1
 78
     8
 79
     2
140
3.5
141
0.0
143
0.0393701
144
2.0
146
0.71
147
1.5
172
     1
173
     1
176
   256
177
   256
178
     2
271
     2
272
     3
274
     4
283
     0
284
     8
340
11
343
87
371
    -1
372
    -1
  0
DIMSTYLE
105
40B
102
{ACAD_REACTORS
330
58DB
330
58B1
330
5865
330
588B
330
583B
330
5927
330
5901
330
594D
330
5A15
330
5B1B
102
}
330
A
100
AcDbSymbolTableRecord
100
AcDbDimStyleTableRecord
  2
AM_ISO$0
 70
     0
  4
"
 40
1.5
 41
3.0
 42
1.0
 43
8.0
 44
1.0
 47
0.1
 48
0.1
 73
     0
 74
     0
 77
     1
 78
     8
 79
     2
140
3.5
141
0.0
143
0.0393701
146
0.6
147
1.0
172
     1
176
   256
177
   256
178
   256
271
     2
272
     2
283
     0
284
     8
340
11
371
    -1
372
    -1
  0
DIMSTYLE
105
3AFD
330
A
100
AcDbSymbolTableRecord
100
AcDbDimStyleTableRecord
  2
AM_ANSI$0
 70
     0
  4
"
 40
0.8
 41
3.0
 42
1.5
 43
6.4
 44
2.0
 47
0.1
 48
0.1
 73
     0
 74
     0
 77
     3
 78
     8
 79
     2
140
3.0
141
0.0
143
0.0393701
146
0.6
147
0.8
172
     1
176
   256
177
   256
178
   256
271
     2
272
     2
284
     8
340
3457
371
    -1
372
    -1
  0
DIMSTYLE
105
3D53
330
A
100
AcDbSymbolTableRecord
100
AcDbDimStyleTableRecord
  2
ISO-25
 70
     0
 41
2.5
 42
0.625
 43
3.75
 44
1.25
 73
     0
 74
     0
 77
     1
 78
     8
140
2.5
141
2.5
143
0.03937007874016
147
0.625
171
     3
172
     1
271
     2
272
     2
274
     3
278
    44
283
     0
284
     8
340
11
  0
ENDTAB
  0
TABLE
  2
BLOCK_RECORD
  5
1
330
0
100
AcDbSymbolTable
 70
    24
  0
BLOCK_RECORD
  5
1F
102
{ACAD_XDICTIONARY
360
8F
102
}
330
1
100
AcDbSymbolTableRecord
100
AcDbBlockTableRecord
  2
*Model_Space
340
22
  0
BLOCK_RECORD
  5
1B
330
1
100
AcDbSymbolTableRecord
100
AcDbBlockTableRecord
  2
*Paper_Space
340
1E
  0
BLOCK_RECORD
  5
23
330
1
100
AcDbSymbolTableRecord
100
AcDbBlockTableRecord
  2
*Paper_Space0
340
26
  0
BLOCK_RECORD
  5
87
330
1
100
AcDbSymbolTableRecord
100
AcDbBlockTableRecord
  2
GENAXEH
340
0
  0
BLOCK_RECORD
  5
3AEA
330
1
100
AcDbSymbolTableRecord
100
AcDbBlockTableRecord
  2
GENDOT
340
0
  0
BLOCK_RECORD
  5
4CB8
330
1
100
AcDbSymbolTableRecord
100
AcDbBlockTableRecord
  2
SW_CENTERMARKSYMBOL_0
340
0
  0
BLOCK_RECORD
  5
583C
330
1
100
AcDbSymbolTableRecord
100
AcDbBlockTableRecord
  2
*D14
340
0
  0
BLOCK_RECORD
  5
5866
330
1
100
AcDbSymbolTableRecord
100
AcDbBlockTableRecord
  2
*D15
340
0
  0
BLOCK_RECORD
  5
588C
330
1
100
AcDbSymbolTableRecord
100
AcDbBlockTableRecord
  2
*D16
340
0
  0
BLOCK_RECORD
  5
58B2
330
1
100
AcDbSymbolTableRecord
100
AcDbBlockTableRecord
  2
*D17
340
0
  0
BLOCK_RECORD
  5
58DC
330
1
100
AcDbSymbolTableRecord
100
AcDbBlockTableRecord
  2
*D18
340
0
  0
BLOCK_RECORD
  5
5902
330
1
100
AcDbSymbolTableRecord
100
AcDbBlockTableRecord
  2
*D19
340
0
  0
BLOCK_RECORD
  5
5928
330
1
100
AcDbSymbolTableRecord
100
AcDbBlockTableRecord
  2
*D20
340
0
  0
BLOCK_RECORD
  5
594E
330
1
100
AcDbSymbolTableRecord
100
AcDbBlockTableRecord
  2
*D21
340
0
  0
BLOCK_RECORD
  5
5A16
330
1
100
AcDbSymbolTableRecord
100
AcDbBlockTableRecord
  2
*D22
340
0
  0
BLOCK_RECORD
  5
5B1C
330
1
100
AcDbSymbolTableRecord
100
AcDbBlockTableRecord
  2
*D23
340
0
  0
ENDTAB
  0
ENDSEC
  0
SECTION
  2
BLOCKS
  0
BLOCK
  5
20
330
1F
100
AcDbEntity
  8
0
100
AcDbBlockBegin
  2
*Model_Space
 70
     0
 10
0.0
 20
0.0
 30
0.0
  3
*Model_Space
  1

  0
ENDBLK
  5
21
330
1F
100
AcDbEntity
  8
0
100
AcDbBlockEnd
  0
BLOCK
  5
1C
330
1B
100
AcDbEntity
 67
     1
  8
0
100
AcDbBlockBegin
  2
*Paper_Space
 70
     0
 10
0.0
 20
0.0
 30
0.0
  3
*Paper_Space
  1

  0
ENDBLK
  5
1D
330
1B
100
AcDbEntity
 67
     1
  8
0
100
AcDbBlockEnd
  0
BLOCK
  5
24
330
23
100
AcDbEntity
  8
0
100
AcDbBlockBegin
  2
*Paper_Space0
 70
     0
 10
0.0
 20
0.0
 30
0.0
  3
*Paper_Space0
  1

  0
ENDBLK
  5
25
330
23
100
AcDbEntity
  8
0
100
AcDbBlockEnd
  0
BLOCK
  5
89
330
87
100
AcDbEntity
  8
0
100
AcDbBlockBegin
  2
GENAXEH
 70
     0
 10
0.0
 20
0.0
 30
0.0
  3
GENAXEH
  1

  0
LINE
  5
88
330
87
100
AcDbEntity
  8
0
100
AcDbLine
 10
-1.0
 20
0.0
 30
0.0
 11
1.0
 21
0.0
 31
0.0
  0
ENDBLK
  5
8A
330
87
100
AcDbEntity
  8
0
100
AcDbBlockEnd
  0
BLOCK
  5
3AEB
330
3AEA
100
AcDbEntity
  8
0
100
AcDbBlockBegin
  2
GENDOT
 70
     0
 10
0.0
 20
0.0
 30
0.0
  3
GENDOT
  1

  0
LINE
  5
3AEC
330
3AEA
100
AcDbEntity
  8
0
100
AcDbLine
 10
0.0
 20
0.0
 30
0.0
 11
-1.0
 21
0.0
 31
0.0
  0
LWPOLYLINE
  5
3AED
330
3AEA
100
AcDbEntity
  8
0
100
AcDbPolyline
 90
        2
 70
     1
 43
0.25
 10
-0.125
 20
0.0
 42
1.0
 10
0.125
 20
0.0
 42
1.0
  0
ENDBLK
  5
3AEE
330
3AEA
100
AcDbEntity
  8
0
100
AcDbBlockEnd
  0
BLOCK
  5
4CB9
330
4CB8
100
AcDbEntity
  8
0
100
AcDbBlockBegin
  2
SW_CENTERMARKSYMBOL_0
 70
     0
 10
0.0
 20
0.0
 30
0.0
  3
SW_CENTERMARKSYMBOL_0
  1

  0
LINE
  5
4CBA
330
4CB8
100
AcDbEntity
  8
0
  6
Continuous
 62
     0
370
     0
100
AcDbLine
 10
0.0
 20
0.0
 30
0.0
 11
0.0
 21
2.500000000000002
 31
0.0
  0
LINE
  5
4CBB
330
4CB8
100
AcDbEntity
  8
0
  6
Continuous
 62
     0
370
     0
100
AcDbLine
 10
0.0
 20
0.0
 30
0.0
 11
-2.500000000000002
 21
0.0
 31
0.0
  0
LINE
  5
4CBC
330
4CB8
100
AcDbEntity
  8
0
  6
Continuous
 62
     0
370
     0
100
AcDbLine
 10
0.0
 20
0.0
 30
0.0
 11
0.0
 21
-2.500000000000002
 31
0.0
  0
LINE
  5
4CBD
330
4CB8
100
AcDbEntity
  8
0
  6
Continuous
 62
     0
370
     0
100
AcDbLine
 10
0.0
 20
0.0
 30
0.0
 11
2.500000000000002
 21
0.0
 31
0.0
  0
LINE
  5
4CBE
330
4CB8
100
AcDbEntity
  8
0
  6
Continuous
 62
     0
370
     0
100
AcDbLine
 10
0.0
 20
5.000000000000004
 30
0.0
 11
0.0
 21
11.04596669241484
 31
0.0
  0
LINE
  5
4CBF
330
4CB8
100
AcDbEntity
  8
0
  6
Continuous
 62
     0
370
     0
100
AcDbLine
 10
-5.000000000000004
 20
0.0
 30
0.0
 11
-11.04596669241484
 21
0.0
 31
0.0
  0
LINE
  5
4CC0
330
4CB8
100
AcDbEntity
  8
0
  6
Continuous
 62
     0
370
     0
100
AcDbLine
 10
0.0
 20
-4.999999999999976
 30
0.0
 11
0.0
 21
-11.04596669241484
 31
0.0
  0
LINE
  5
4CC1
330
4CB8
100
AcDbEntity
  8
0
  6
Continuous
 62
     0
370
     0
100
AcDbLine
 10
5.000000000000004
 20
0.0
 30
0.0
 11
11.04596669241482
 21
0.0
 31
0.0
  0
ENDBLK
  5
4CC2
330
4CB8
100
AcDbEntity
  8
0
100
AcDbBlockEnd
  0
BLOCK
  5
5846
330
583C
100
AcDbEntity
  8
0
100
AcDbBlockBegin
  2
*D14
 70
     1
 10
0.0
 20
0.0
 30
0.0
  3
*D14
  1

  0
LINE
  5
5A93
330
583C
100
AcDbEntity
  8
AM_REFDIM
100
AcDbLine
 10
415.3829056368238
 20
331.0647872344059
 30
0.0
 11
415.3829056368238
 21
359.1336711493061
 31
0.0
  0
LINE
  5
5A94
330
583C
100
AcDbEntity
  8
AM_REFDIM
100
AcDbLine
 10
453.3829056368237
 20
331.0647872344059
 30
0.0
 11
453.3829056368237
 21
359.1336711493061
 31
0.0
  0
LINE
  5
5A95
330
583C
100
AcDbEntity
  8
AM_REFDIM
100
AcDbLine
 10
417.1829056368237
 20
358.5336711493061
 30
0.0
 11
451.5829056368238
 21
358.5336711493061
 31
0.0
  0
SOLID
  5
5A96
330
583C
100
AcDbEntity
  8
AM_REFDIM
100
AcDbTrace
 10
417.1829056368237
 20
358.8336711493061
 30
0.0
 11
417.1829056368237
 21
358.2336711493061
 31
0.0
 12
415.3829056368238
 22
358.5336711493061
 32
0.0
 13
415.3829056368238
 23
358.5336711493061
 33
0.0
  0
SOLID
  5
5A97
330
583C
100
AcDbEntity
  8
AM_REFDIM
100
AcDbTrace
 10
451.5829056368238
 20
358.8336711493061
 30
0.0
 11
451.5829056368238
 21
358.2336711493061
 31
0.0
 12
453.3829056368237
 22
358.5336711493061
 32
0.0
 13
453.3829056368237
 23
358.5336711493061
 33
0.0
  0
MTEXT
  5
5A98
330
583C
100
AcDbEntity
  8
AM_REFDIM
100
AcDbMText
 10
434.3829056368238
 20
360.183671149306
 30
0.0
 40
2.1
 41
0.0
 71
     5
 72
     1
  1
38
 73
     1
 44
1.0
1001
ACAD
1000
MTEXTBEGIN
1070
    73
1070
     1
1070
    44
1040
1.0
1070
    74
1070
     0
1000
MTEXTEND
  0
POINT
  5
5A99
330
583C
100
AcDbEntity
  8
Defpoints
 62
     0
100
AcDbPoint
 10
415.3829056368238
 20
330.4647872344059
 30
0.0
  0
POINT
  5
5A9A
330
583C
100
AcDbEntity
  8
Defpoints
 62
     0
100
AcDbPoint
 10
453.3829056368237
 20
330.4647872344059
 30
0.0
  0
POINT
  5
5A9B
330
583C
100
AcDbEntity
  8
Defpoints
 62
     0
100
AcDbPoint
 10
453.3829056368237
 20
358.5336711493061
 30
0.0
  0
ENDBLK
  5
5847
330
583C
100
AcDbEntity
  8
0
100
AcDbBlockEnd
  0
BLOCK
  5
5870
330
5866
100
AcDbEntity
  8
0
100
AcDbBlockBegin
  2
*D15
 70
     1
 10
0.0
 20
0.0
 30
0.0
  3
*D15
  1

  0
LINE
  5
5A9C
330
5866
100
AcDbEntity
  8
AM_REFDIM
100
AcDbLine
 10
457.744806476962
 20
330.4647872344059
 30
0.0
 11
461.1723856737572
 21
330.4647872344059
 31
0.0
  0
LINE
  5
5A9D
330
5866
100
AcDbEntity
  8
AM_REFDIM
100
AcDbLine
 10
447.4829056368238
 20
266.4647872344059
 30
0.0
 11
461.1723856737572
 21
266.4647872344059
 31
0.0
  0
LINE
  5
5A9E
330
5866
100
AcDbEntity
  8
AM_REFDIM
100
AcDbLine
 10
460.5723856737571
 20
328.6647872344059
 30
0.0
 11
460.5723856737571
 21
268.2647872344059
 31
0.0
  0
SOLID
  5
5A9F
330
5866
100
AcDbEntity
  8
AM_REFDIM
100
AcDbTrace
 10
460.2723856737571
 20
328.6647872344059
 30
0.0
 11
460.8723856737571
 21
328.6647872344059
 31
0.0
 12
460.5723856737571
 22
330.4647872344059
 32
0.0
 13
460.5723856737571
 23
330.4647872344059
 33
0.0
  0
SOLID
  5
5AA0
330
5866
100
AcDbEntity
  8
AM_REFDIM
100
AcDbTrace
 10
460.2723856737571
 20
268.2647872344059
 30
0.0
 11
460.8723856737571
 21
268.2647872344059
 31
0.0
 12
460.5723856737571
 22
266.4647872344059
 32
0.0
 13
460.5723856737571
 23
266.4647872344059
 33
0.0
  0
MTEXT
  5
5AA1
330
5866
100
AcDbEntity
  8
AM_REFDIM
100
AcDbMText
 10
458.9223856737572
 20
298.4647872344059
 30
0.0
 40
2.1
 41
0.0
 71
     5
 72
     1
  1
64
 11
0.0000000000000001
 21
1.0
 31
0.0
 73
     1
 44
1.0
1001
ACAD
1000
MTEXTBEGIN
1070
    73
1070
     1
1070
    44
1040
1.0
1070
    74
1070
     0
1000
MTEXTEND
  0
POINT
  5
5AA2
330
5866
100
AcDbEntity
  8
Defpoints
 62
     0
100
AcDbPoint
 10
457.144806476962
 20
330.4647872344059
 30
0.0
  0
POINT
  5
5AA3
330
5866
100
AcDbEntity
  8
Defpoints
 62
     0
100
AcDbPoint
 10
446.8829056368238
 20
266.4647872344059
 30
0.0
  0
POINT
  5
5AA4
330
5866
100
AcDbEntity
  8
Defpoints
 62
     0
100
AcDbPoint
 10
460.5723856737571
 20
266.4647872344059
 30
0.0
  0
ENDBLK
  5
5871
330
5866
100
AcDbEntity
  8
0
100
AcDbBlockEnd
  0
BLOCK
  5
5896
330
588C
100
AcDbEntity
  8
0
100
AcDbBlockBegin
  2
*D16
 70
     1
 10
0.0
 20
0.0
 30
0.0
  3
*D16
  1

  0
LINE
  5
5AA5
330
588C
100
AcDbEntity
  8
AM_REFDIM
100
AcDbLine
 10
434.9829056368238
 20
349.4647872344059
 30
0.0
 11
469.0914831713259
 21
349.4647872344059
 31
0.0
  0
LINE
  5
5AA6
330
588C
100
AcDbEntity
  8
AM_REFDIM
100
AcDbLine
 10
447.4829056368238
 20
266.4647872344059
 30
0.0
 11
469.0914831713259
 21
266.4647872344059
 31
0.0
  0
LINE
  5
5AA7
330
588C
100
AcDbEntity
  8
AM_REFDIM
100
AcDbLine
 10
468.4914831713259
 20
347.6647872344059
 30
0.0
 11
468.4914831713259
 21
268.2647872344059
 31
0.0
  0
SOLID
  5
5AA8
330
588C
100
AcDbEntity
  8
AM_REFDIM
100
AcDbTrace
 10
468.1914831713259
 20
347.6647872344059
 30
0.0
 11
468.7914831713259
 21
347.6647872344059
 31
0.0
 12
468.4914831713259
 22
349.4647872344059
 32
0.0
 13
468.4914831713259
 23
349.4647872344059
 33
0.0
  0
SOLID
  5
5AA9
330
588C
100
AcDbEntity
  8
AM_REFDIM
100
AcDbTrace
 10
468.1914831713259
 20
268.2647872344059
 30
0.0
 11
468.7914831713259
 21
268.2647872344059
 31
0.0
 12
468.4914831713259
 22
266.4647872344059
 32
0.0
 13
468.4914831713259
 23
266.4647872344059
 33
0.0
  0
MTEXT
  5
5AAA
330
588C
100
AcDbEntity
  8
AM_REFDIM
100
AcDbMText
 10
466.8414831713258
 20
307.9647872344059
 30
0.0
 40
2.1
 41
0.0
 71
     5
 72
     1
  1
83
 11
0.0000000000000001
 21
1.0
 31
0.0
 73
     1
 44
1.0
1001
ACAD
1000
MTEXTBEGIN
1070
    73
1070
     1
1070
    44
1040
1.0
1070
    74
1070
     0
1000
MTEXTEND
  0
POINT
  5
5AAB
330
588C
100
AcDbEntity
  8
Defpoints
 62
     0
100
AcDbPoint
 10
434.3829056368238
 20
349.4647872344059
 30
0.0
  0
POINT
  5
5AAC
330
588C
100
AcDbEntity
  8
Defpoints
 62
     0
100
AcDbPoint
 10
446.8829056368238
 20
266.4647872344059
 30
0.0
  0
POINT
  5
5AAD
330
588C
100
AcDbEntity
  8
Defpoints
 62
     0
100
AcDbPoint
 10
468.4914831713259
 20
266.4647872344059
 30
0.0
  0
ENDBLK
  5
5897
330
588C
100
AcDbEntity
  8
0
100
AcDbBlockEnd
  0
BLOCK
  5
58BE
330
58B2
100
AcDbEntity
  8
0
100
AcDbBlockBegin
  2
*D17
 70
     1
 10
0.0
 20
0.0
 30
0.0
  3
*D17
  1

  0
LINE
  5
5AE4
330
58B2
100
AcDbEntity
  8
AM_REFDIM
100
AcDbLine
 10
446.9829056368237
 20
274.5282955613022
 30
0.0
 11
455.2942897551177
 21
274.5282955613022
 31
0.0
  0
LINE
  5
5AE5
330
58B2
100
AcDbEntity
  8
AM_REFDIM
100
AcDbLine
 10
446.9829056368238
 20
266.4647872344059
 30
0.0
 11
455.2942897551177
 21
266.4647872344059
 31
0.0
  0
LINE
  5
5AE6
330
58B2
100
AcDbEntity
  8
AM_REFDIM
100
AcDbLine
 10
454.6942897551176
 20
272.7282955613022
 30
0.0
 11
454.6942897551176
 21
268.2647872344059
 31
0.0
  0
SOLID
  5
5AE7
330
58B2
100
AcDbEntity
  8
AM_REFDIM
100
AcDbTrace
 10
454.3942897551176
 20
272.7282955613022
 30
0.0
 11
454.9942897551177
 21
272.7282955613022
 31
0.0
 12
454.6942897551176
 22
274.5282955613022
 32
0.0
 13
454.6942897551176
 23
274.5282955613022
 33
0.0
  0
SOLID
  5
5AE8
330
58B2
100
AcDbEntity
  8
AM_REFDIM
100
AcDbTrace
 10
454.3942897551176
 20
268.2647872344059
 30
0.0
 11
454.9942897551177
 21
268.2647872344059
 31
0.0
 12
454.6942897551176
 22
266.4647872344059
 32
0.0
 13
454.6942897551176
 23
266.4647872344059
 33
0.0
  0
MTEXT
  5
5AE9
330
58B2
100
AcDbEntity
  8
AM_REFDIM
100
AcDbMText
 10
453.0442897551176
 20
270.4965413978541
 30
0.0
 40
2.1
 41
0.0
 71
     5
 72
     1
  1
8
 11
0.0000000000000001
 21
1.0
 31
0.0
 73
     1
 44
1.0
1001
ACAD
1000
MTEXTBEGIN
1070
    73
1070
     1
1070
    44
1040
1.0
1070
    74
1070
     0
1000
MTEXTEND
  0
POINT
  5
5AEA
330
58B2
100
AcDbEntity
  8
Defpoints
 62
     0
100
AcDbPoint
 10
446.3829056368236
 20
274.5282955613022
 30
0.0
  0
POINT
  5
5AEB
330
58B2
100
AcDbEntity
  8
Defpoints
 62
     0
100
AcDbPoint
 10
446.3829056368238
 20
266.4647872344059
 30
0.0
  0
POINT
  5
5AEC
330
58B2
100
AcDbEntity
  8
Defpoints
 62
     0
100
AcDbPoint
 10
454.6942897551176
 20
266.4647872344059
 30
0.0
  0
ENDBLK
  5
58BF
330
58B2
100
AcDbEntity
  8
0
100
AcDbBlockEnd
  0
BLOCK
  5
58E6
330
58DC
100
AcDbEntity
  8
0
100
AcDbBlockBegin
  2
*D18
 70
     1
 10
0.0
 20
0.0
 30
0.0
  3
*D18
  1

  0
LINE
  5
5AB7
330
58DC
100
AcDbEntity
  8
AM_REFDIM
100
AcDbLine
 10
420.8829056368236
 20
266.8647872344059
 30
0.0
 11
420.8829056368236
 21
258.4800976287445
 31
0.0
  0
LINE
  5
5AB8
330
58DC
100
AcDbEntity
  8
AM_REFDIM
100
AcDbLine
 10
447.8829056368238
 20
266.8647872344059
 30
0.0
 11
447.8829056368238
 21
258.4800976287445
 31
0.0
  0
LINE
  5
5AB9
330
58DC
100
AcDbEntity
  8
AM_REFDIM
100
AcDbLine
 10
422.6829056368236
 20
259.0800976287445
 30
0.0
 11
446.0829056368238
 21
259.0800976287445
 31
0.0
  0
SOLID
  5
5ABA
330
58DC
100
AcDbEntity
  8
AM_REFDIM
100
AcDbTrace
 10
422.6829056368236
 20
259.3800976287445
 30
0.0
 11
422.6829056368236
 21
258.7800976287445
 31
0.0
 12
420.8829056368236
 22
259.0800976287445
 32
0.0
 13
420.8829056368236
 23
259.0800976287445
 33
0.0
  0
SOLID
  5
5ABB
330
58DC
100
AcDbEntity
  8
AM_REFDIM
100
AcDbTrace
 10
446.0829056368238
 20
259.3800976287445
 30
0.0
 11
446.0829056368238
 21
258.7800976287445
 31
0.0
 12
447.8829056368238
 22
259.0800976287445
 32
0.0
 13
447.8829056368238
 23
259.0800976287445
 33
0.0
  0
MTEXT
  5
5ABC
330
58DC
100
AcDbEntity
  8
AM_REFDIM
100
AcDbMText
 10
434.3829056368238
 20
260.7303043216579
 30
0.0
 40
2.1
 41
0.0
 71
     5
 72
     1
  1
27
 73
     1
 44
1.0
1001
ACAD
1000
MTEXTBEGIN
1070
    73
1070
     1
1070
    44
1040
1.0
1070
    74
1070
     0
1000
MTEXTEND
  0
POINT
  5
5ABD
330
58DC
100
AcDbEntity
  8
Defpoints
 62
     0
100
AcDbPoint
 10
420.8829056368236
 20
267.4647872344059
 30
0.0
  0
POINT
  5
5ABE
330
58DC
100
AcDbEntity
  8
Defpoints
 62
     0
100
AcDbPoint
 10
447.8829056368238
 20
267.4647872344059
 30
0.0
  0
POINT
  5
5ABF
330
58DC
100
AcDbEntity
  8
Defpoints
 62
     0
100
AcDbPoint
 10
447.8829056368238
 20
259.0800976287445
 30
0.0
  0
ENDBLK
  5
58E7
330
58DC
100
AcDbEntity
  8
0
100
AcDbBlockEnd
  0
BLOCK
  5
590C
330
5902
100
AcDbEntity
  8
0
100
AcDbBlockBegin
  2
*D19
 70
     1
 10
0.0
 20
0.0
 30
0.0
  3
*D19
  1

  0
LINE
  5
5AC0
330
5902
100
AcDbEntity
  8
AM_REFDIM
100
AcDbLine
 10
490.9627229042341
 20
348.6647872344059
 30
0.0
 11
490.9627229042341
 21
357.2219832055321
 31
0.0
  0
LINE
  5
5AC1
330
5902
100
AcDbEntity
  8
AM_REFDIM
100
AcDbLine
 10
505.9627229042341
 20
348.6647872344059
 30
0.0
 11
505.9627229042341
 21
357.2219832055321
 31
0.0
  0
LINE
  5
5AC2
330
5902
100
AcDbEntity
  8
AM_REFDIM
100
AcDbLine
 10
492.7627229042341
 20
356.621983205532
 30
0.0
 11
504.1627229042341
 21
356.621983205532
 31
0.0
  0
SOLID
  5
5AC3
330
5902
100
AcDbEntity
  8
AM_REFDIM
100
AcDbTrace
 10
492.7627229042341
 20
356.9219832055321
 30
0.0
 11
492.7627229042341
 21
356.321983205532
 31
0.0
 12
490.9627229042341
 22
356.621983205532
 32
0.0
 13
490.9627229042341
 23
356.621983205532
 33
0.0
  0
SOLID
  5
5AC4
330
5902
100
AcDbEntity
  8
AM_REFDIM
100
AcDbTrace
 10
504.1627229042341
 20
356.9219832055321
 30
0.0
 11
504.1627229042341
 21
356.321983205532
 31
0.0
 12
505.9627229042341
 22
356.621983205532
 32
0.0
 13
505.9627229042341
 23
356.621983205532
 33
0.0
  0
MTEXT
  5
5AC5
330
5902
100
AcDbEntity
  8
AM_REFDIM
100
AcDbMText
 10
498.4627229042342
 20
358.271983205532
 30
0.0
 40
2.1
 41
0.0
 71
     5
 72
     1
  1
15
 73
     1
 44
1.0
1001
ACAD
1000
MTEXTBEGIN
1070
    73
1070
     1
1070
    44
1040
1.0
1070
    74
1070
     0
1000
MTEXTEND
  0
POINT
  5
5AC6
330
5902
100
AcDbEntity
  8
Defpoints
 62
     0
100
AcDbPoint
 10
490.9627229042341
 20
348.0647872344059
 30
0.0
  0
POINT
  5
5AC7
330
5902
100
AcDbEntity
  8
Defpoints
 62
     0
100
AcDbPoint
 10
505.9627229042341
 20
348.0647872344059
 30
0.0
  0
POINT
  5
5AC8
330
5902
100
AcDbEntity
  8
Defpoints
 62
     0
100
AcDbPoint
 10
505.9627229042341
 20
356.621983205532
 30
0.0
  0
ENDBLK
  5
590D
330
5902
100
AcDbEntity
  8
0
100
AcDbBlockEnd
  0
BLOCK
  5
5932
330
5928
100
AcDbEntity
  8
0
100
AcDbBlockBegin
  2
*D20
 70
     1
 10
0.0
 20
0.0
 30
0.0
  3
*D20
  1

  0
LINE
  5
5AC9
330
5928
100
AcDbEntity
  8
AM_REFDIM
100
AcDbLine
 10
487.9627229042341
 20
341.0647872344059
 30
0.0
 11
487.9627229042341
 21
364.9530299223344
 31
0.0
  0
LINE
  5
5ACA
330
5928
100
AcDbEntity
  8
AM_REFDIM
100
AcDbLine
 10
508.9627229042342
 20
341.0647872344059
 30
0.0
 11
508.9627229042342
 21
364.9530299223344
 31
0.0
  0
LINE
  5
5ACB
330
5928
100
AcDbEntity
  8
AM_REFDIM
100
AcDbLine
 10
489.7627229042341
 20
364.3530299223344
 30
0.0
 11
507.1627229042342
 21
364.3530299223344
 31
0.0
  0
SOLID
  5
5ACC
330
5928
100
AcDbEntity
  8
AM_REFDIM
100
AcDbTrace
 10
489.7627229042341
 20
364.6530299223344
 30
0.0
 11
489.7627229042341
 21
364.0530299223343
 31
0.0
 12
487.9627229042341
 22
364.3530299223344
 32
0.0
 13
487.9627229042341
 23
364.3530299223344
 33
0.0
  0
SOLID
  5
5ACD
330
5928
100
AcDbEntity
  8
AM_REFDIM
100
AcDbTrace
 10
507.1627229042342
 20
364.6530299223344
 30
0.0
 11
507.1627229042342
 21
364.0530299223343
 31
0.0
 12
508.9627229042342
 22
364.3530299223344
 32
0.0
 13
508.9627229042342
 23
364.3530299223344
 33
0.0
  0
MTEXT
  5
5ACE
330
5928
100
AcDbEntity
  8
AM_REFDIM
100
AcDbMText
 10
498.4627229042342
 20
366.0032366152478
 30
0.0
 40
2.1
 41
0.0
 71
     5
 72
     1
  1
21
 73
     1
 44
1.0
1001
ACAD
1000
MTEXTBEGIN
1070
    73
1070
     1
1070
    44
1040
1.0
1070
    74
1070
     0
1000
MTEXTEND
  0
POINT
  5
5ACF
330
5928
100
AcDbEntity
  8
Defpoints
 62
     0
100
AcDbPoint
 10
487.9627229042341
 20
340.4647872344059
 30
0.0
  0
POINT
  5
5AD0
330
5928
100
AcDbEntity
  8
Defpoints
 62
     0
100
AcDbPoint
 10
508.9627229042342
 20
340.4647872344058
 30
0.0
  0
POINT
  5
5AD1
330
5928
100
AcDbEntity
  8
Defpoints
 62
     0
100
AcDbPoint
 10
508.9627229042342
 20
364.3530299223344
 30
0.0
  0
ENDBLK
  5
5933
330
5928
100
AcDbEntity
  8
0
100
AcDbBlockEnd
  0
BLOCK
  5
5958
330
594E
100
AcDbEntity
  8
0
100
AcDbBlockBegin
  2
*D21
 70
     1
 10
0.0
 20
0.0
 30
0.0
  3
*D21
  1

  0
LINE
  5
5AD2
330
594E
100
AcDbEntity
  8
AM_REFDIM
100
AcDbLine
 10
507.0627229042342
 20
299.4647872344059
 30
0.0
 11
521.7782328623118
 21
299.4647872344059
 31
0.0
  0
LINE
  5
5AD3
330
594E
100
AcDbEntity
  8
AM_REFDIM
100
AcDbLine
 10
509.0627229042342
 20
266.4647872344059
 30
0.0
 11
521.7782328623118
 21
266.4647872344059
 31
0.0
  0
LINE
  5
5AD4
330
594E
100
AcDbEntity
  8
AM_REFDIM
100
AcDbLine
 10
521.1782328623118
 20
297.6647872344059
 30
0.0
 11
521.1782328623118
 21
268.2647872344059
 31
0.0
  0
SOLID
  5
5AD5
330
594E
100
AcDbEntity
  8
AM_REFDIM
100
AcDbTrace
 10
520.8782328623118
 20
297.6647872344059
 30
0.0
 11
521.4782328623117
 21
297.6647872344059
 31
0.0
 12
521.1782328623118
 22
299.4647872344059
 32
0.0
 13
521.1782328623118
 23
299.4647872344059
 33
0.0
  0
SOLID
  5
5AD6
330
594E
100
AcDbEntity
  8
AM_REFDIM
100
AcDbTrace
 10
520.8782328623118
 20
268.2647872344059
 30
0.0
 11
521.4782328623117
 21
268.2647872344059
 31
0.0
 12
521.1782328623118
 22
266.4647872344059
 32
0.0
 13
521.1782328623118
 23
266.4647872344059
 33
0.0
  0
MTEXT
  5
5AD7
330
594E
100
AcDbEntity
  8
AM_REFDIM
100
AcDbMText
 10
519.5282328623116
 20
282.964787234406
 30
0.0
 40
2.1
 41
0.0
 71
     5
 72
     1
  1
33
 11
0.0000000000000001
 21
1.0
 31
0.0
 73
     1
 44
1.0
1001
ACAD
1000
MTEXTBEGIN
1070
    73
1070
     1
1070
    44
1040
1.0
1070
    74
1070
     0
1000
MTEXTEND
  0
POINT
  5
5AD8
330
594E
100
AcDbEntity
  8
Defpoints
 62
     0
100
AcDbPoint
 10
506.4627229042342
 20
299.4647872344059
 30
0.0
  0
POINT
  5
5AD9
330
594E
100
AcDbEntity
  8
Defpoints
 62
     0
100
AcDbPoint
 10
508.4627229042342
 20
266.4647872344059
 30
0.0
  0
POINT
  5
5ADA
330
594E
100
AcDbEntity
  8
Defpoints
 62
     0
100
AcDbPoint
 10
521.1782328623118
 20
266.4647872344059
 30
0.0
  0
ENDBLK
  5
5959
330
594E
100
AcDbEntity
  8
0
100
AcDbBlockEnd
  0
BLOCK
  5
5A20
330
5A16
100
AcDbEntity
  8
0
100
AcDbBlockBegin
  2
*D22
 70
     1
 10
0.0
 20
0.0
 30
0.0
  3
*D22
  1

  0
LINE
  5
5ADB
330
5A16
100
AcDbEntity
  8
AM_REFDIM
100
AcDbLine
 10
487.4627229042341
 20
266.8647872344059
 30
0.0
 11
487.4627229042341
 21
258.4800976287441
 31
0.0
  0
LINE
  5
5ADC
330
5A16
100
AcDbEntity
  8
AM_REFDIM
100
AcDbLine
 10
509.4627229042341
 20
266.8647872344059
 30
0.0
 11
509.4627229042341
 21
258.4800976287441
 31
0.0
  0
LINE
  5
5ADD
330
5A16
100
AcDbEntity
  8
AM_REFDIM
100
AcDbLine
 10
489.2627229042341
 20
259.0800976287442
 30
0.0
 11
507.6627229042341
 21
259.0800976287442
 31
0.0
  0
SOLID
  5
5ADE
330
5A16
100
AcDbEntity
  8
AM_REFDIM
100
AcDbTrace
 10
489.2627229042341
 20
259.3800976287442
 30
0.0
 11
489.2627229042341
 21
258.7800976287442
 31
0.0
 12
487.4627229042341
 22
259.0800976287442
 32
0.0
 13
487.4627229042341
 23
259.0800976287442
 33
0.0
  0
SOLID
  5
5ADF
330
5A16
100
AcDbEntity
  8
AM_REFDIM
100
AcDbTrace
 10
507.6627229042341
 20
259.3800976287442
 30
0.0
 11
507.6627229042341
 21
258.7800976287442
 31
0.0
 12
509.4627229042341
 22
259.0800976287442
 32
0.0
 13
509.4627229042341
 23
259.0800976287442
 33
0.0
  0
MTEXT
  5
5AE0
330
5A16
100
AcDbEntity
  8
AM_REFDIM
100
AcDbMText
 10
498.4627229042342
 20
260.7303043216576
 30
0.0
 40
2.1
 41
0.0
 71
     5
 72
     1
  1
22
 73
     1
 44
1.0
1001
ACAD
1000
MTEXTBEGIN
1070
    73
1070
     1
1070
    44
1040
1.0
1070
    74
1070
     0
1000
MTEXTEND
  0
POINT
  5
5AE1
330
5A16
100
AcDbEntity
  8
Defpoints
 62
     0
100
AcDbPoint
 10
487.4627229042341
 20
267.4647872344059
 30
0.0
  0
POINT
  5
5AE2
330
5A16
100
AcDbEntity
  8
Defpoints
 62
     0
100
AcDbPoint
 10
509.4627229042341
 20
267.4647872344059
 30
0.0
  0
POINT
  5
5AE3
330
5A16
100
AcDbEntity
  8
Defpoints
 62
     0
100
AcDbPoint
 10
509.4627229042341
 20
259.0800976287442
 30
0.0
  0
ENDBLK
  5
5A21
330
5A16
100
AcDbEntity
  8
0
100
AcDbBlockEnd
  0
BLOCK
  5
5B26
330
5B1C
100
AcDbEntity
  8
0
100
AcDbBlockBegin
  2
*D23
 70
     1
 10
0.0
 20
0.0
 30
0.0
  3
*D23
  1

  0
LINE
  5
5B3D
330
5B1C
100
AcDbEntity
  8
AM_REFDIM
100
AcDbLine
 10
509.5627229042341
 20
338.4647872344059
 30
0.0
 11
521.7782328623118
 21
338.4647872344059
 31
0.0
  0
LINE
  5
5B3E
330
5B1C
100
AcDbEntity
  8
AM_REFDIM
100
AcDbLine
 10
509.5627229042341
 20
322.4647872344059
 30
0.0
 11
521.7782328623118
 21
322.4647872344059
 31
0.0
  0
LINE
  5
5B3F
330
5B1C
100
AcDbEntity
  8
AM_REFDIM
100
AcDbLine
 10
521.1782328623118
 20
336.6647872344059
 30
0.0
 11
521.1782328623118
 21
324.2647872344059
 31
0.0
  0
SOLID
  5
5B40
330
5B1C
100
AcDbEntity
  8
AM_REFDIM
100
AcDbTrace
 10
520.8782328623118
 20
336.6647872344059
 30
0.0
 11
521.4782328623117
 21
336.6647872344059
 31
0.0
 12
521.1782328623118
 22
338.4647872344059
 32
0.0
 13
521.1782328623118
 23
338.4647872344059
 33
0.0
  0
SOLID
  5
5B41
330
5B1C
100
AcDbEntity
  8
AM_REFDIM
100
AcDbTrace
 10
520.8782328623118
 20
324.2647872344059
 30
0.0
 11
521.4782328623117
 21
324.2647872344059
 31
0.0
 12
521.1782328623118
 22
322.4647872344059
 32
0.0
 13
521.1782328623118
 23
322.4647872344059
 33
0.0
  0
MTEXT
  5
5B42
330
5B1C
100
AcDbEntity
  8
AM_REFDIM
100
AcDbMText
 10
519.5282328623116
 20
330.4647872344059
 30
0.0
 40
2.1
 41
0.0
 71
     5
 72
     1
  1
%%c16
 11
0.0000000000000001
 21
1.0
 31
0.0
 73
     1
 44
1.0
1001
ACAD
1000
MTEXTBEGIN
1070
    73
1070
     1
1070
    44
1040
1.0
1070
    74
1070
     0
1000
MTEXTEND
  0
POINT
  5
5B43
330
5B1C
100
AcDbEntity
  8
Defpoints
 62
     0
100
AcDbPoint
 10
508.9627229042341
 20
338.4647872344059
 30
0.0
  0
POINT
  5
5B44
330
5B1C
100
AcDbEntity
  8
Defpoints
 62
     0
100
AcDbPoint
 10
508.9627229042341
 20
322.4647872344059
 30
0.0
  0
POINT
  5
5B45
330
5B1C
100
AcDbEntity
  8
Defpoints
 62
     0
100
AcDbPoint
 10
521.1782328623118
 20
322.4647872344059
 30
0.0
  0
ENDBLK
  5
5B27
330
5B1C
100
AcDbEntity
  8
0
100
AcDbBlockEnd
  0
ENDSEC
  0
SECTION
  2
ENTITIES
  0
TEXT
  5
179B
330
1F
100
AcDbEntity
  8
LOGO
 62
     7
100
AcDbText
 10
415.6192888117807
 20
248.2204623691517
 30
0.0
 40
1.343805393665158
  1
Order example:
 41
0.8
  7
CHINESET
100
AcDbText
  0
TEXT
  5
179C
330
1F
100
AcDbEntity
  8
LOGO
 62
     7
100
AcDbText
 10
415.8603786122228
 20
250.1122621249752
 30
0.0
 40
2.015708090497737
  1
訂購代號：
  7
CHINESET
100
AcDbText
  0
LINE
  5
179D
330
1F
100
AcDbEntity
  8
LOGO
 62
     4
100
AcDbLine
 10
415.0354008103074
 20
242.5571589878777
 30
0.0
 11
415.0354008103074
 21
252.6356994403664
 31
0.0
  0
TEXT
  5
179E
330
1F
100
AcDbEntity
  8
LOGO
  6
Continuous
100
AcDbText
 10
396.4828688492822
 20
244.5370730499254
 30
0.0
 40
1.511781067873303
  1
金器工業股份有限公司
  7
CHINESET
100
AcDbText
  0
TEXT
  5
179F
330
1F
100
AcDbEntity
  8
LOGO
  6
Continuous
100
AcDbText
 10
393.7060261187336
 20
243.024995791491
 30
0.0
 40
1.007854045248868
  1
MINDMAN INDUSTRIAL CO., LTD.
 41
0.85
  7
CHINESET
100
AcDbText
  0
LINE
  5
17A0
330
1F
100
AcDbEntity
  8
LOGO
 62
     4
100
AcDbLine
 10
415.0354008103074
 20
250.6199913498687
 30
0.0
 11
400.2535414799906
 21
250.6199913498687
 31
0.0
  0
LINE
  5
17A1
330
1F
100
AcDbEntity
  8
LOGO
 62
     4
100
AcDbLine
 10
415.0354008103074
 20
248.6042832593709
 30
0.0
 11
400.2535414799906
 21
248.6042832593709
 31
0.0
  0
LINE
  5
17A2
330
1F
100
AcDbEntity
  8
LOGO
 62
     4
100
AcDbLine
 10
415.0354008103074
 20
246.5885751688733
 30
0.0
 11
392.8626118148323
 21
246.5885751688733
 31
0.0
  0
LINE
  5
17A3
330
1F
100
AcDbEntity
  8
LOGO
 62
     4
100
AcDbLine
 10
400.2535414799906
 20
246.5885751688733
 30
0.0
 11
400.2535414799906
 21
252.6356994403664
 31
0.0
  0
TEXT
  5
17A4
330
1F
100
AcDbEntity
  8
LOGO
100
AcDbText
 10
410.356244639129
 20
247.0925021914976
 30
0.0
 40
1.007854045248868
  1
mm
  7
CHINESET
 72
     1
 11
411.6040639332466
 21
247.596429214122
 31
0.0
100
AcDbText
 73
     2
  0
TEXT
  5
17A5
330
1F
100
AcDbEntity
  8
LOGO
100
AcDbText
 10
409.8283210916176
 20
251.1239183724931
 30
0.0
 40
1.007854045248868
  1
1 : 1
  7
CHINESET
 72
     1
 11
411.6040639332466
 21
251.6278453951175
 31
0.0
100
AcDbText
 73
     2
  0
LINE
  5
17A6
330
1F
100
AcDbEntity
  8
LOGO
 62
     4
100
AcDbLine
 10
408.3163738419815
 20
246.5885751688733
 30
0.0
 11
408.3163738419815
 21
252.6356994403664
 31
0.0
  0
TEXT
  5
17A7
330
1F
100
AcDbEntity
  8
LOGO
100
AcDbText
 10
401.0845711324793
 20
251.1244143636571
 30
66.05309378306509
 40
1.007854045248868
  1
比例 Scale:
 41
0.9
  7
CHINESET
 72
     4
 11
404.284957660986
 21
251.6278453951175
 31
66.05309378306509
100
AcDbText
  0
TEXT
  5
17A8
330
1F
100
AcDbEntity
  8
LOGO
100
AcDbText
 10
401.0265295379092
 20
249.1223873627663
 30
66.05309378306509
 40
1.007854045248868
  1
投影  View:
 41
0.9
  7
CHINESET
 72
     4
 11
404.284957660986
 21
249.6121373046197
 31
66.05309378306509
100
AcDbText
  0
TEXT
  5
17A9
330
1F
100
AcDbEntity
  8
LOGO
100
AcDbText
 10
401.1250652682258
 20
247.0925021914976
 30
66.05309378306509
 40
1.007854045248868
  1
單位  Unit:
 41
0.9
  7
CHINESET
 72
     4
 11
404.284957660986
 21
247.596429214122
 31
66.05309378306509
100
AcDbText
  0
LWPOLYLINE
  5
17AA
330
1F
100
AcDbEntity
  8
LOGO
 62
     4
100
AcDbPolyline
 90
        4
 70
     1
 43
0.0
 10
392.8626118148323
 20
252.6356994403665
 10
540.3691877061295
 20
252.6356994403665
 10
540.3691877061295
 20
383.2746011887818
 10
392.8626118148323
 20
383.2746011887824
1001
GENIUS_GENREC_14
1002
{
1000
PYDIR
1011
392.8626118148323
1021
383.2746011887824
1031
0.0
1002
}
1002
{
1000
PXDIR
1011
540.3691877061295
1021
252.6356994403665
1031
0.0
1002
}
1002
{
1000
PORI
1011
392.8626118148323
1021
252.6356994403665
1031
0.0
1002
}
1002
{
1000
PINS
1011
392.8626118148323
1021
252.6356994403665
1031
0.0
1002
}
1002
{
1000
PINS2
1011
540.3691877061295
1021
383.2746011887818
1031
0.0
1002
}
1002
{
1000
C
1070
     1
1002
}
1001
GENIUS_GENODEF_13
1002
{
1000
HIER
1070
     0
1002
}
1002
{
1000
MANEDIT
1070
     0
1002
}
1002
{
1000
NOSEL
1070
     0
1002
}
1002
{
1000
BEHIND
1070
     0
1002
}
1002
{
1000
OTHER
1070
     0
1002
}
1002
{
1000
REACTOR
1002
}
1001
GENIUS_GENOBJ-N-REC_13
1002
{
1000
OWNER
1000
GEN
1002
}
  0
SOLID
  5
17AB
330
1F
100
AcDbEntity
  8
LOGO
 62
     5
100
AcDbTrace
 10
393.9082765616051
 20
248.2639890623727
 30
0.0
 11
394.3440462046805
 21
248.2639890623726
 31
0.0
 12
396.1622574740643
 22
252.3962874018815
 32
0.0
 13
396.59802711714
 23
252.3962874018812
 33
0.0
  0
SOLID
  5
17AC
330
1F
100
AcDbEntity
  8
LOGO
 62
     5
100
AcDbTrace
 10
394.5243646776777
 20
248.2639890623727
 30
0.0
 11
394.9601343207532
 21
248.2639890623727
 31
0.0
 12
396.59802711714
 22
252.0657035347206
 32
0.0
 13
396.1622574740643
 23
250.4678815101105
 33
0.0
  0
SOLID
  5
17AD
330
1F
100
AcDbEntity
  8
LOGO
 62
     2
100
AcDbTrace
 10
394.3440462046805
 20
248.2639890623726
 30
0.0
 11
394.5243646776777
 21
248.2639890623727
 31
0.0
 12
396.59802711714
 22
252.3962874018812
 32
0.0
 13
396.7783455901369
 23
252.3962874018812
 33
0.0
  0
SOLID
  5
17AE
330
1F
100
AcDbEntity
  8
LOGO
 62
     5
100
AcDbTrace
 10
393.2096309599485
 20
246.7613351207333
 30
0.0
 11
393.3598963541127
 21
246.7613351207333
 31
0.0
 12
393.7830553998019
 22
247.5126620915529
 32
0.0
 13
393.9333207939656
 23
247.5126620915529
 33
0.0
  0
SOLID
  5
17AF
330
1F
100
AcDbEntity
  8
LOGO
 62
     5
100
AcDbTrace
 10
393.7830553998019
 20
247.5126620915529
 30
0.0
 11
393.9333207939656
 21
247.5126620915529
 31
0.0
 12
393.7830553998019
 22
246.7613351207333
 32
0.0
 13
393.9333207939656
 23
246.7613351207333
 33
0.0
  0
SOLID
  5
17B0
330
1F
100
AcDbEntity
  8
LOGO
 62
     5
100
AcDbTrace
 10
393.7830553998019
 20
246.7613351207333
 30
0.0
 11
393.9333207939656
 21
246.7613351207333
 31
0.0
 12
394.3564798396555
 22
247.5126620915529
 32
0.0
 13
394.5067452338195
 23
247.5126620915529
 33
0.0
  0
SOLID
  5
17B1
330
1F
100
AcDbEntity
  8
LOGO
 62
     5
100
AcDbTrace
 10
394.3564798396555
 20
247.5126620915529
 30
0.0
 11
394.5067452338195
 21
247.5126620915529
 31
0.0
 12
394.3564798396555
 22
246.7613351207333
 32
0.0
 13
394.5067452338195
 23
246.7613351207333
 33
0.0
  0
POLYLINE
  5
17B2
330
1F
100
AcDbEntity
  8
LOGO
 62
     5
100
AcDb2dPolyline
 66
     1
 10
0.0
 20
0.0
 30
0.0
 40
0.1505062040904977
 41
0.1505062040904977
  0
VERTEX
  5
17B3
330
17B2
100
AcDbEntity
  8
LOGO
 62
     5
100
AcDbVertex
100
AcDb2dVertex
 10
399.3933246634795
 20
247.212131303225
 30
0.0
 42
1.0
  0
VERTEX
  5
17B4
330
17B2
100
AcDbEntity
  8
LOGO
 62
     5
100
AcDbVertex
100
AcDb2dVertex
 10
398.9418060512079
 20
247.212131303225
 30
0.0
 42
1.0
  0
SEQEND
  5
17B5
330
17B2
100
AcDbEntity
  8
LOGO
 62
     5
  0
POLYLINE
  5
17B6
330
1F
100
AcDbEntity
  8
LOGO
 62
     5
100
AcDb2dPolyline
 66
     1
 10
0.0
 20
0.0
 30
0.0
 70
     1
  0
VERTEX
  5
17B7
330
17B6
100
AcDbEntity
  8
LOGO
 62
     5
100
AcDbVertex
100
AcDb2dVertex
 10
398.0906733835281
 20
247.136998606143
 30
0.0
 42
1.000000057330635
  0
VERTEX
  5
17B8
330
17B6
100
AcDbEntity
  8
LOGO
 62
     5
100
AcDbVertex
100
AcDb2dVertex
 10
398.54146956602
 20
247.136998606143
 30
0.0
 42
1.000000057330635
  0
SEQEND
  5
17B9
330
17B6
100
AcDbEntity
  8
LOGO
 62
     5
  0
CIRCLE
  5
17BA
330
1F
100
AcDbEntity
  8
LOGO
 62
     5
100
AcDbCircle
 10
398.3160714747743
 20
247.136998606143
 30
0.0
 40
0.2253980912459294
  0
POLYLINE
  5
17BB
330
1F
100
AcDbEntity
  8
LOGO
 62
     5
100
AcDb2dPolyline
 66
     1
 10
0.0
 20
0.0
 30
0.0
 70
     1
 40
0.1505062040904977
 41
0.1505062040904977
  0
VERTEX
  5
17BC
330
17BB
100
AcDbEntity
  8
LOGO
 62
     5
100
AcDbVertex
100
AcDb2dVertex
 10
398.0150590665931
 20
247.136998606143
 30
0.0
 42
1.0
  0
VERTEX
  5
17BD
330
17BB
100
AcDbEntity
  8
LOGO
 62
     5
100
AcDbVertex
100
AcDb2dVertex
 10
398.6170838829551
 20
247.136998606143
 30
0.0
 42
1.0
  0
SEQEND
  5
17BE
330
17BB
100
AcDbEntity
  8
LOGO
 62
     5
  0
LINE
  5
17BF
330
1F
100
AcDbEntity
  8
LOGO
100
AcDbLine
 10
399.4680961456714
 20
246.7613351207333
 30
0.0
 11
399.4680961456714
 21
247.212131303225
 31
0.0
  0
SOLID
  5
17C0
330
1F
100
AcDbEntity
  8
LOGO
 62
     5
100
AcDbTrace
 10
398.5414545394812
 20
247.5126620915529
 30
0.0
 11
398.6917199336448
 21
247.5126620915529
 31
0.0
 12
398.5414545394812
 22
246.7613351207333
 32
0.0
 13
398.6917199336448
 23
246.7613351207333
 33
0.0
  0
SOLID
  5
17C1
330
1F
100
AcDbEntity
  8
LOGO
 62
     5
100
AcDbTrace
 10
398.8670345690156
 20
246.7613351207333
 30
0.0
 11
399.0172999631797
 21
246.7613351207333
 31
0.0
 12
398.8670345690156
 22
247.5126620915529
 32
0.0
 13
399.0172999631797
 23
247.5126620915529
 33
0.0
  0
SOLID
  5
17C2
330
1F
100
AcDbEntity
  8
LOGO
 62
     5
100
AcDbTrace
 10
399.3178307515078
 20
247.212131303225
 30
0.0
 11
399.4680961456714
 21
247.212131303225
 31
0.0
 12
399.3178307515078
 22
246.7613351207333
 32
0.0
 13
399.4680961456714
 23
246.7613351207333
 33
0.0
  0
SOLID
  5
17C3
330
1F
100
AcDbEntity
  8
LOGO
 62
     5
100
AcDbTrace
 10
398.8520080295992
 20
252.0657035347206
 30
0.0
 11
398.416238386524
 21
250.4678815101105
 31
0.0
 12
398.8520080295992
 22
248.2639890623726
 32
0.0
 13
398.416238386524
 23
248.2639890623726
 33
0.0
  0
SOLID
  5
17C4
330
1F
100
AcDbEntity
  8
LOGO
 62
     5
100
AcDbTrace
 10
399.0323265025962
 20
248.2639890623726
 30
0.0
 11
399.4680961456714
 21
248.2639890623726
 31
0.0
 12
399.0323265025962
 22
252.3962874018812
 32
0.0
 13
399.4680961456714
 23
252.3962874018815
 33
0.0
  0
SOLID
  5
17C5
330
1F
100
AcDbEntity
  8
LOGO
 62
     2
100
AcDbTrace
 10
398.8520080295992
 20
252.3962874018815
 30
0.0
 11
399.0323265025962
 21
252.3962874018812
 31
0.0
 12
398.8520080295992
 22
248.2639890623726
 32
0.0
 13
399.0323265025962
 23
248.2639890623726
 33
0.0
  0
POLYLINE
  5
17C6
330
1F
100
AcDbEntity
  8
LOGO
 62
     5
100
AcDb2dPolyline
 66
     1
 10
0.0
 20
0.0
 30
0.0
 40
0.1505062040904977
 41
0.1505062040904977
  0
VERTEX
  5
17C7
330
17C6
100
AcDbEntity
  8
LOGO
 62
     5
100
AcDbVertex
100
AcDb2dVertex
 10
397.2395106627699
 20
247.212131303225
 30
0.0
 42
1.0
  0
VERTEX
  5
17C8
330
17C6
100
AcDbEntity
  8
LOGO
 62
     5
100
AcDbVertex
100
AcDb2dVertex
 10
396.7879920504984
 20
247.212131303225
 30
0.0
 42
1.0
  0
SEQEND
  5
17C9
330
17C6
100
AcDbEntity
  8
LOGO
 62
     5
  0
POLYLINE
  5
17CA
330
1F
100
AcDbEntity
  8
LOGO
 62
     5
100
AcDb2dPolyline
 66
     1
 10
0.0
 20
0.0
 30
0.0
 40
0.1505062040904977
 41
0.1505062040904977
  0
VERTEX
  5
17CB
330
17CA
100
AcDbEntity
  8
LOGO
 62
     5
100
AcDbVertex
100
AcDb2dVertex
 10
397.6903068452614
 20
247.212131303225
 30
0.0
 42
1.0
  0
VERTEX
  5
17CC
330
17CA
100
AcDbEntity
  8
LOGO
 62
     5
100
AcDbVertex
100
AcDb2dVertex
 10
397.2387882329901
 20
247.212131303225
 30
0.0
 42
1.0
  0
SEQEND
  5
17CD
330
17CA
100
AcDbEntity
  8
LOGO
 62
     5
  0
POLYLINE
  5
17CE
330
1F
100
AcDbEntity
  8
LOGO
 62
     5
100
AcDb2dPolyline
 66
     1
 10
0.0
 20
0.0
 30
0.0
 40
0.1505062040904977
 41
0.1505062040904977
  0
VERTEX
  5
17CF
330
17CE
100
AcDbEntity
  8
LOGO
 62
     5
100
AcDbVertex
100
AcDb2dVertex
 10
395.5364928445519
 20
247.212131303225
 30
0.0
 42
1.0
  0
VERTEX
  5
17D0
330
17CE
100
AcDbEntity
  8
LOGO
 62
     5
100
AcDbVertex
100
AcDb2dVertex
 10
395.0849742322804
 20
247.212131303225
 30
0.0
 42
1.0
  0
SEQEND
  5
17D1
330
17CE
100
AcDbEntity
  8
LOGO
 62
     5
  0
SOLID
  5
17D2
330
1F
100
AcDbEntity
  8
LOGO
 62
     5
100
AcDbTrace
 10
395.0102027500884
 20
247.5126620915529
 30
0.0
 11
395.160468144252
 21
247.5126620915529
 31
0.0
 12
395.0102027500884
 22
246.7613351207333
 32
0.0
 13
395.160468144252
 23
246.7613351207333
 33
0.0
  0
SOLID
  5
17D3
330
1F
100
AcDbEntity
  8
LOGO
 62
     5
100
AcDbTrace
 10
395.4609989325803
 20
247.212131303225
 30
0.0
 11
395.6112643267444
 21
247.212131303225
 31
0.0
 12
395.4609989325803
 22
246.7613351207333
 32
0.0
 13
395.6112643267444
 23
246.7613351207333
 33
0.0
  0
POLYLINE
  5
17D4
330
1F
100
AcDbEntity
  8
LOGO
 62
     5
100
AcDb2dPolyline
 66
     1
 10
0.0
 20
0.0
 30
0.0
 70
     1
 40
0.1505062040904977
 41
0.1505062040904977
  0
VERTEX
  5
17D5
330
17D4
100
AcDbEntity
  8
LOGO
 62
     5
100
AcDbVertex
100
AcDb2dVertex
 10
395.8612450658833
 20
247.136998606143
 30
0.0
 42
1.0
  0
VERTEX
  5
17D6
330
17D4
100
AcDbEntity
  8
LOGO
 62
     5
100
AcDbVertex
100
AcDb2dVertex
 10
396.4632698822455
 20
247.136998606143
 30
0.0
 42
1.0
  0
SEQEND
  5
17D7
330
17D4
100
AcDbEntity
  8
LOGO
 62
     5
  0
SOLID
  5
17D8
330
1F
100
AcDbEntity
  8
LOGO
 62
     5
100
AcDbTrace
 10
396.3876405387712
 20
247.738060182799
 30
0.0
 11
396.5379059329351
 21
247.738060182799
 31
0.0
 12
396.3876405387712
 22
246.7613351207333
 32
0.0
 13
396.5379059329351
 23
246.7613351207333
 33
0.0
  0
SOLID
  5
17D9
330
1F
100
AcDbEntity
  8
LOGO
 62
     5
100
AcDbTrace
 10
396.7132205683066
 20
247.5126620915529
 30
0.0
 11
396.8634859624702
 21
247.5126620915529
 31
0.0
 12
396.7132205683066
 22
246.7613351207333
 32
0.0
 13
396.8634859624702
 23
246.7613351207333
 33
0.0
  0
SOLID
  5
17DA
330
1F
100
AcDbEntity
  8
LOGO
 62
     5
100
AcDbTrace
 10
397.1640167507979
 20
247.212131303225
 30
0.0
 11
397.314282144962
 21
247.212131303225
 31
0.0
 12
397.1640167507979
 22
246.7613351207333
 32
0.0
 13
397.314282144962
 23
246.7613351207333
 33
0.0
  0
SOLID
  5
17DB
330
1F
100
AcDbEntity
  8
LOGO
 62
     5
100
AcDbTrace
 10
397.6148129332898
 20
247.212131303225
 30
0.0
 11
397.7650783274537
 21
247.212131303225
 31
0.0
 12
397.6148129332898
 22
246.761335120733
 32
0.0
 13
397.7650783274537
 23
246.761335120733
 33
0.0
  0
SOLID
  5
17DC
330
1F
100
AcDbEntity
  8
LOGO
 62
     5
100
AcDbTrace
 10
394.6846227205532
 20
247.6178478674677
 30
0.0
 11
394.8348881147176
 21
247.6178478674677
 31
0.0
 12
394.6846227205532
 22
247.738060182799
 32
0.0
 13
394.8348881147176
 23
247.738060182799
 33
0.0
  0
SOLID
  5
17DD
330
1F
100
AcDbEntity
  8
LOGO
 62
     5
100
AcDbTrace
 10
394.6846227205532
 20
247.5126620915529
 30
0.0
 11
394.8348881147176
 21
247.5126620915529
 31
0.0
 12
394.6846227205532
 22
246.761335120733
 32
0.0
 13
394.8348881147176
 23
246.7613351207333
 33
0.0
  0
SOLID
  5
17DE
330
1F
100
AcDbEntity
  8
LOGO
 62
     5
100
AcDbTrace
 10
396.1622574740643
 20
248.2639890623727
 30
0.0
 11
396.59802711714
 21
248.2639890623727
 31
0.0
 12
396.1622574740643
 22
250.4678815101105
 32
0.0
 13
396.59802711714
 23
252.0657035347206
 33
0.0
  0
SOLID
  5
17DF
330
1F
100
AcDbEntity
  8
LOGO
 62
     5
100
AcDbTrace
 10
396.7783455901369
 20
252.3962874018812
 30
0.0
 11
397.2141152332122
 21
252.3962874018815
 31
0.0
 12
396.7783455901369
 22
248.5945729295333
 32
0.0
 13
397.2141152332122
 23
250.1923949541434
 33
0.0
  0
SOLID
  5
17E0
330
1F
100
AcDbEntity
  8
LOGO
 62
     2
100
AcDbTrace
 10
396.59802711714
 20
252.3962874018812
 30
0.0
 11
396.7783455901369
 21
252.3962874018812
 31
0.0
 12
396.59802711714
 22
248.2639890623727
 32
0.0
 13
396.7783455901369
 23
248.2639890623727
 33
0.0
  0
SOLID
  5
17E1
330
1F
100
AcDbEntity
  8
LOGO
 62
     5
100
AcDbTrace
 10
396.7783455901369
 20
248.5945729295333
 30
0.0
 11
397.2141152332122
 21
250.1923949541434
 31
0.0
 12
398.8520080295992
 22
252.3962874018815
 32
0.0
 13
398.416238386524
 23
252.3962874018815
 33
0.0
  0
SOLID
  5
17E2
330
1F
100
AcDbEntity
  8
LOGO
 62
     5
100
AcDbTrace
 10
396.7783455901369
 20
248.2639890623727
 30
0.0
 11
397.2141152332122
 21
248.2639890623727
 31
0.0
 12
398.8520080295992
 22
252.0657035347206
 32
0.0
 13
398.416238386524
 23
250.4678815101105
 33
0.0
  0
SOLID
  5
17E3
330
1F
100
AcDbEntity
  8
LOGO
 62
     2
100
AcDbTrace
 10
396.59802711714
 20
248.2639890623727
 30
0.0
 11
396.7783455901369
 21
248.2639890623727
 31
0.0
 12
398.8520080295992
 22
252.3962874018815
 32
0.0
 13
399.0323265025962
 23
252.3962874018812
 33
0.0
  0
LWPOLYLINE
  5
17E4
330
1F
100
AcDbEntity
  8
LOGO
 62
     4
100
AcDbPolyline
 90
        4
 70
     1
 43
0.0
 10
392.8626118148323
 20
252.6356994403665
 10
540.3691877061295
 20
252.6356994403665
 10
540.3691877061295
 20
242.5571589878776
 10
392.8626118148323
 20
242.5571589878776
1001
GENIUS_GENREC_14
1002
{
1000
PYDIR
1011
392.8626118148323
1021
242.5571589878776
1031
0.0
1002
}
1002
{
1000
PXDIR
1011
540.3691877061295
1021
252.6356994403665
1031
0.0
1002
}
1002
{
1000
PORI
1011
392.8626118148323
1021
252.6356994403665
1031
0.0
1002
}
1002
{
1000
PINS
1011
392.8626118148323
1021
252.6356994403665
1031
0.0
1002
}
1002
{
1000
PINS2
1011
540.3691877061295
1021
242.5571589878776
1031
0.0
1002
}
1002
{
1000
C
1070
     1
1002
}
1001
GENIUS_GENOBJ-N-REC_13
1002
{
1000
OWNER
1000
GEN
1002
}
1001
GENIUS_GENODEF_13
1002
{
1000
HIER
1070
     0
1002
}
1002
{
1000
MANEDIT
1070
     0
1002
}
1002
{
1000
NOSEL
1070
     0
1002
}
1002
{
1000
BEHIND
1070
     0
1002
}
1002
{
1000
OTHER
1070
     0
1002
}
1002
{
1000
REACTOR
1002
}
  0
LINE
  5
17E5
330
1F
100
AcDbEntity
  8
LOGO
 62
     4
100
AcDbLine
 10
437.4436265052698
 20
247.0925021914978
 30
0.0
 11
437.4436265052698
 21
243.3970373589183
 31
0.0
  0
LINE
  5
17E6
330
1F
100
AcDbEntity
  8
LOGO
 62
     4
100
AcDbLine
 10
430.724599536944
 20
247.0925021914978
 30
0.0
 11
430.724599536944
 21
243.3970373589183
 31
0.0
  0
LINE
  5
17E7
330
1F
100
AcDbEntity
  8
LOGO
 62
     4
100
AcDbLine
 10
437.4436265052698
 20
243.3970373589183
 30
0.0
 11
430.724599536944
 21
243.3970373589183
 31
0.0
  0
LINE
  5
17E8
330
1F
100
AcDbEntity
  8
LOGO
 62
     4
100
AcDbLine
 10
440.016818105329
 20
251.6278453951175
 30
0.0
 11
428.8979858943727
 21
251.6278453951175
 31
0.0
  0
LINE
  5
17E9
330
1F
100
AcDbEntity
  8
LOGO
 62
     4
100
AcDbLine
 10
440.016818105329
 20
248.6042832593709
 30
0.0
 11
428.8979858943727
 21
248.6042832593709
 31
0.0
  0
LINE
  5
17EA
330
1F
100
AcDbEntity
  8
LOGO
 62
     4
100
AcDbLine
 10
428.8979858943727
 20
251.6278453951175
 30
0.0
 11
428.8979858943727
 21
248.6042832593709
 31
0.0
  0
LINE
  5
17EB
330
1F
100
AcDbEntity
  8
LOGO
 62
     4
100
AcDbLine
 10
440.016818105329
 20
251.6278453951175
 30
0.0
 11
440.016818105329
 21
248.6042832593709
 31
0.0
  0
LINE
  5
17EC
330
1F
100
AcDbEntity
  8
LOGO
 62
     4
100
AcDbLine
 10
434.434677467738
 20
248.6042832593709
 30
0.0
 11
434.434677467738
 21
247.0925021914978
 31
0.0
  0
TEXT
  5
17ED
330
1F
100
AcDbEntity
  8
LOGO
  6
Continuous
100
AcDbText
 10
430.133335511266
 20
249.2354474347606
 30
0.0
 40
1.679999999999999
  1
PHS-16EC
100
AcDbText
  0
LINE
  5
17EE
330
1F
100
AcDbEntity
  8
LOGO
 62
     4
100
AcDbLine
 10
437.4436265052698
 20
247.0925021914978
 30
0.0
 11
430.724599536944
 21
247.0925021914978
 31
0.0
  0
TEXT
  5
17EF
330
1F
100
AcDbEntity
  8
LOGO
  6
Continuous
100
AcDbText
 10
432.8807140189641
 20
243.9186443836217
 30
66.05309378306509
 40
0.7560000000000001
  1
Model
 41
0.8
  7
CHINESET
100
AcDbText
  0
TEXT
  5
17F0
330
1F
100
AcDbEntity
  8
LOGO
100
AcDbText
 10
432.6794913950124
 20
245.3201054539931
 30
66.05309378306509
 40
1.26
  1
型號
  7
CHINESET
100
AcDbText
  0
TEXT
  5
1824
330
1F
100
AcDbEntity
  8
LOGO
100
AcDbText
 10
415.4351747482912
 20
243.093333362014
 30
0.0
 40
1.008
  1
01205030
 41
0.7
  7
CHINESET
 72
     1
 11
417.9551747482912
 21
243.093333362014
 31
0.0
100
AcDbText
  0
LINE
  5
1825
330
1F
100
AcDbEntity
  8
LOGO
 62
     4
100
AcDbLine
 10
421.0834008103069
 20
244.5728670783756
 30
0.0
 11
421.0834008103074
 21
242.5571589878778
 31
0.0
  0
LINE
  5
1826
330
1F
100
AcDbEntity
  8
LOGO
 62
     4
100
AcDbLine
 10
421.0834008103069
 20
244.5728670783756
 30
0.0
 11
415.0354008103074
 21
244.5728670783756
 31
0.0
  0
CIRCLE
  5
1827
330
1F
100
AcDbEntity
  8
LOGO
  6
Continuous
100
AcDbCircle
 10
410.1825416671511
 20
249.6142931117979
 30
0.0
 40
0.5851837808815982
  0
CIRCLE
  5
1828
330
1F
100
AcDbEntity
  8
LOGO
  6
Continuous
100
AcDbCircle
 10
410.1825416671511
 20
249.6142931117979
 30
0.0
 40
0.342865892207461
  0
LINE
  5
1829
330
1F
100
AcDbEntity
  8
LOGO
100
AcDbLine
 10
413.8599044480654
 20
249.0291093309162
 30
0.0
 11
413.8599044480654
 21
250.1994768926796
 31
0.0
  0
LINE
  5
182A
330
1F
100
AcDbEntity
  8
LOGO
100
AcDbLine
 10
412.0253868861535
 20
249.2714272195905
 30
0.0
 11
412.0253868861535
 21
249.9571590040054
 31
0.0
  0
LINE
  5
182B
330
1F
100
AcDbEntity
  8
LOGO
  6
Continuous
100
AcDbLine
 10
412.0253868861535
 20
249.9571590040054
 30
0.0
 11
413.8599044480654
 21
250.1994768926796
 31
0.0
  0
LINE
  5
182C
330
1F
100
AcDbEntity
  8
LOGO
  6
Continuous
100
AcDbLine
 10
412.0253868861535
 20
249.2714272195905
 30
0.0
 11
413.8599044480654
 21
249.0291093309162
 31
0.0
  0
LINE
  5
182D
330
1F
100
AcDbEntity
  8
LOGO
  6
AM_ISO08W050x2
 48
0.3
100
AcDbLine
 10
409.3758570627686
 20
249.6142931117979
 30
0.0
 11
410.9892262715335
 21
249.6142931117979
 31
0.0
1001
GENIUS_GENOREF_13
1005
1832
  0
LINE
  5
182E
330
1F
100
AcDbEntity
  8
LOGO
  6
AM_ISO08W050x2
 48
0.3
100
AcDbLine
 10
410.1825416671511
 20
248.8076085074155
 30
0.0
 11
410.1825416671511
 21
250.4209777161803
 31
0.0
1001
GENIUS_GENOREF_13
1005
1831
  0
LINE
  5
182F
330
1F
100
AcDbEntity
  8
LOGO
  6
CENTER
 48
0.5
100
AcDbLine
 10
411.8786764713776
 20
249.6142931117979
 30
0.0
 11
414.0446344279104
 21
249.6142931117979
 31
0.0
1001
GENIUS_GENOREF_13
1005
1830
  0
POINT
  5
1830
330
1F
100
AcDbEntity
  8
0
 60
     1
100
AcDbPoint
 10
-1582.868394589036
 20
-798.6687030228181
 30
0.0
1001
GENIUS_GENOBJ-N-CRS_13
1002
{
1000
OWNER
1000
GEN
1002
}
1001
GENIUS_GENOLIS_13
1002
{
1000
ENT
1005
0
1005
0
1005
0
1005
182F
1002
}
1001
GENIUS_GENOENT_13
1002
{
1000
MYREF
1005
1830
1002
}
1002
{
1000
GRP
1005
0
1002
}
1001
GENIUS_GENODEF_13
1002
{
1000
HIER
1070
    10
1002
}
1002
{
1000
MANEDIT
1070
     1
1002
}
1002
{
1000
NOSEL
1070
     0
1002
}
1002
{
1000
BEHIND
1070
     0
1002
}
1002
{
1000
OTHER
1070
     0
1002
}
1002
{
1000
REACTOR
1002
}
  0
POINT
  5
1831
330
1F
100
AcDbEntity
  8
0
 60
     1
100
AcDbPoint
 10
-1594.19297981189
 20
-789.7931165441819
 30
0.0
1001
GENIUS_GENOBJ-N-CRS_13
1002
{
1000
OWNER
1000
GEN
1002
}
1001
GENIUS_GENOLIS_13
1002
{
1000
ENT
1005
0
1005
0
1005
0
1005
182E
1002
}
1001
GENIUS_GENOENT_13
1002
{
1000
MYREF
1005
1831
1002
}
1002
{
1000
GRP
1005
0
1002
}
1001
GENIUS_GENODEF_13
1002
{
1000
HIER
1070
    10
1002
}
1002
{
1000
MANEDIT
1070
     1
1002
}
1002
{
1000
NOSEL
1070
     0
1002
}
1002
{
1000
BEHIND
1070
     0
1002
}
1002
{
1000
OTHER
1070
     0
1002
}
1002
{
1000
REACTOR
1002
}
  0
POINT
  5
1832
330
1F
100
AcDbEntity
  8
0
 60
     1
100
AcDbPoint
 10
-1587.834306114053
 20
-798.6687030228181
 30
0.0
1001
GENIUS_GENOBJ-N-CRS_13
1002
{
1000
OWNER
1000
GEN
1002
}
1001
GENIUS_GENOLIS_13
1002
{
1000
ENT
1005
0
1005
0
1005
0
1005
182D
1002
}
1001
GENIUS_GENOENT_13
1002
{
1000
MYREF
1005
1832
1002
}
1002
{
1000
GRP
1005
0
1002
}
1001
GENIUS_GENODEF_13
1002
{
1000
HIER
1070
    10
1002
}
1002
{
1000
MANEDIT
1070
     1
1002
}
1002
{
1000
NOSEL
1070
     0
1002
}
1002
{
1000
BEHIND
1070
     0
1002
}
1002
{
1000
OTHER
1070
     0
1002
}
1002
{
1000
REACTOR
1002
}
  0
ARC
  5
5749
330
1F
100
AcDbEntity
  8
0
  6
Continuous
 62
     7
370
    15
100
AcDbCircle
 10
422.8829056368237
 20
272.5918038881985
 30
0.0
 40
1.999999999999989
100
AcDbArc
 50
104.4866095998237
 51
180.0041917626428
  0
ARC
  5
574A
330
1F
100
AcDbEntity
  8
0
  6
Continuous
 62
     7
370
    15
100
AcDbCircle
 10
445.8829056368237
 20
272.5918038881985
 30
0.0
 40
1.999999999999992
100
AcDbArc
 50
0.018491501403978
 51
75.51002333914681
  0
ARC
  5
574B
102
{ACAD_REACTORS
330
58E9
102
}
330
1F
100
AcDbEntity
  8
0
  6
Continuous
 62
     7
370
    15
100
AcDbCircle
 10
446.8829056368238
 20
267.4647872344059
 30
0.0
 40
1.0
100
AcDbArc
 50
270.0
 51
0.0
  0
SPLINE
  5
574C
330
1F
100
AcDbEntity
  8
0
  6
Continuous
 62
     7
370
    15
100
AcDbSpline
210
0.0
220
0.0
230
1.0
 70
    24
 71
     1
 72
     4
 73
     2
 74
     0
 42
0.0000000001
 43
0.0000000001
 40
0.0
 40
0.0
 40
1.0
 40
1.0
 10
420.8829056368236
 20
272.5918038881985
 30
0.0
 10
420.8829056368236
 20
267.4647872344059
 30
0.0
  0
ARC
  5
574D
102
{ACAD_REACTORS
330
58E9
102
}
330
1F
100
AcDbEntity
  8
0
  6
Continuous
 62
     7
370
    15
100
AcDbCircle
 10
421.8829056368236
 20
267.4647872344059
 30
0.0
 40
1.0
100
AcDbArc
 50
180.0
 51
270.0
  0
SPLINE
  5
574E
330
1F
100
AcDbEntity
  8
0
  6
Continuous
 62
     7
370
    15
100
AcDbSpline
210
0.0
220
0.0
230
1.0
 70
    24
 71
     1
 72
     4
 73
     2
 74
     0
 42
0.0000000001
 43
0.0000000001
 40
0.0
 40
0.0
 40
1.0
 40
1.0
 10
447.8829056368238
 20
267.4647872344059
 30
0.0
 10
447.8829056368238
 20
272.5918038881985
 30
0.0
  0
LINE
  5
575F
102
{ACAD_REACTORS
330
5873
330
5899
102
}
330
1F
100
AcDbEntity
  8
0
  6
Continuous
 62
     7
370
    15
100
AcDbLine
 10
446.8829056368238
 20
266.4647872344059
 30
0.0
 11
440.1893782811409
 21
266.4647872344059
 31
0.0
  0
LINE
  5
5761
330
1F
100
AcDbEntity
  8
0
  6
Continuous
 62
     7
370
    15
100
AcDbLine
 10
440.1893782811409
 20
266.4647872344059
 30
0.0
 11
428.5764329925065
 21
266.4647872344059
 31
0.0
  0
LINE
  5
5765
330
1F
100
AcDbEntity
  8
0
  6
Continuous
 62
     7
370
    15
100
AcDbLine
 10
428.5764329925065
 20
266.4647872344059
 30
0.0
 11
421.8829056368236
 21
266.4647872344059
 31
0.0
  0
LINE
  5
576D
330
1F
100
AcDbEntity
  8
0
  6
Continuous
 62
     7
370
    15
100
AcDbLine
 10
444.8829056368237
 20
313.5902502037197
 30
0.0
 11
444.8829056368237
 21
276.4647872344059
 31
0.0
  0
CIRCLE
  5
5770
330
1F
100
AcDbEntity
  8
0
  6
Continuous
 62
     7
370
    15
100
AcDbCircle
 10
434.3829056368236
 20
330.4647872344059
 30
0.0
 40
12.40967364599085
  0
CIRCLE
  5
5771
330
1F
100
AcDbEntity
  8
0
  6
Continuous
 62
     7
370
    15
100
AcDbCircle
 10
434.3829056368236
 20
330.4647872344059
 30
0.0
 40
10.0
  0
CIRCLE
  5
5772
330
1F
100
AcDbEntity
  8
0
  6
Continuous
 62
     7
370
    15
100
AcDbCircle
 10
434.3829056368236
 20
330.4647872344059
 30
0.0
 40
8.000000000000014
  0
LINE
  5
5778
330
1F
100
AcDbEntity
  8
0
  6
Continuous
 62
     7
370
    15
100
AcDbLine
 10
423.8829056368237
 20
276.4647872344059
 30
0.0
 11
423.8829056368237
 21
313.5902502037197
 31
0.0
  0
ARC
  5
5779
330
1F
100
AcDbEntity
  8
0
  6
Continuous
 62
     7
370
    15
100
AcDbCircle
 10
434.3829056368236
 20
319.7362649852842
 30
0.0
 40
9.500000000015131
100
AcDbArc
 50
270.0
 51
309.0647292145255
  0
ARC
  5
577C
330
1F
100
AcDbEntity
  8
0
  6
Continuous
 62
     7
370
    15
100
AcDbCircle
 10
434.3829056368236
 20
319.7362649852842
 30
0.0
 40
9.500000000000113
100
AcDbArc
 50
230.9352707855901
 51
270.0
  0
LINE
  5
577E
330
1F
100
AcDbEntity
  8
0
  6
Continuous
 62
     7
370
    15
100
AcDbLine
 10
442.4110709137143
 20
314.3797237906643
 30
0.0
 11
426.3547403599958
 21
314.379723790633
 31
0.0
  0
ARC
  5
5781
330
1F
100
AcDbEntity
  8
0
  6
Continuous
 62
     7
370
    15
100
AcDbCircle
 10
421.8829056368236
 20
276.4647872344059
 30
0.0
 40
2.0
100
AcDbArc
 50
284.4775121859299
 51
0.0
  0
ARC
  5
5782
102
{ACAD_REACTORS
330
58C1
102
}
330
1F
100
AcDbEntity
  8
0
  6
Continuous
 62
     7
370
    15
100
AcDbCircle
 10
446.8829056368236
 20
276.4647872344059
 30
0.0
 40
2.0
100
AcDbArc
 50
180.0
 51
255.5224878140717
  0
SPLINE
  5
5783
330
1F
100
AcDbEntity
  8
0
  6
Continuous
 62
     7
370
    15
100
AcDbSpline
210
0.0
220
0.0
230
1.0
 70
     8
 71
     3
 72
    10
 73
     6
 74
     0
 42
0.0000000001
 43
0.0000000001
 40
0.0
 40
0.0
 40
0.0
 40
0.0
 40
0.5
 40
0.5
 40
1.0
 40
1.0
 40
1.0
 40
1.0
 10
440.3697862617508
 20
312.3601372489353
 30
0.0
 10
440.5411112335249
 20
312.4529534730347
 30
0.0
 10
440.6996916951398
 20
312.5618684435155
 30
0.0
 10
440.9861548640452
 20
312.8245869359664
 30
0.0
 10
441.1159740664637
 20
312.9809600232438
 30
0.0
 10
441.2150998854078
 20
313.1635091116037
 30
0.0
  0
SPLINE
  5
5787
330
1F
100
AcDbEntity
  8
0
  6
Continuous
 62
     7
370
    15
100
AcDbSpline
210
0.0
220
0.0
230
1.0
 70
     8
 71
     3
 72
    12
 73
     8
 74
     0
 42
0.0000000001
 43
0.0000000001
 40
0.0
 40
0.0
 40
0.0
 40
0.0
 40
0.5000000000000005
 40
0.5000000000000005
 40
0.7500000000000002
 40
0.7500000000000002
 40
1.0
 40
1.0
 40
1.0
 40
1.0
 10
441.2150998854042
 20
313.1635091116052
 30
0.0
 10
441.3486733771448
 20
313.4094966797897
 30
0.0
 10
441.5170778826271
 20
313.6416636261138
 30
0.0
 10
441.8196645915554
 20
313.957162343557
 30
0.0
 10
441.9275285110927
 20
314.0552952228203
 30
0.0
 10
442.1583209388237
 20
314.2336812322922
 30
0.0
 10
442.2832510498218
 20
314.3136795516078
 30
0.0
 10
442.4110709137143
 20
314.3797237906643
 30
0.0
  0
SPLINE
  5
5789
330
1F
100
AcDbEntity
  8
0
  6
Continuous
 62
     7
370
    15
100
AcDbSpline
210
0.0
220
0.0
230
1.0
 70
     8
 71
     3
 72
    10
 73
     6
 74
     0
 42
0.0000000001
 43
0.0000000001
 40
0.0
 40
0.0
 40
0.0
 40
0.0
 40
0.5
 40
0.5
 40
1.0
 40
1.0
 40
1.0
 40
1.0
 10
427.5507113882392
 20
313.1635091116046
 30
0.0
 10
427.6496979349476
 20
312.9812165055611
 30
0.0
 10
427.775237269031
 20
312.8292353306596
 30
0.0
 10
428.0638369784969
 20
312.5633799407763
 30
0.0
 10
428.2247489605547
 20
312.4529269701256
 30
0.0
 10
428.3960250119121
 20
312.3601372489269
 30
0.0
  0
SPLINE
  5
578A
330
1F
100
AcDbEntity
  8
0
  6
Continuous
 62
     7
370
    15
100
AcDbSpline
210
0.0
220
0.0
230
1.0
 70
     8
 71
     3
 72
    12
 73
     8
 74
     0
 42
0.0000000001
 43
0.0000000001
 40
0.0
 40
0.0
 40
0.0
 40
0.0
 40
0.4999999999999963
 40
0.4999999999999963
 40
0.7499999999999982
 40
0.7499999999999982
 40
1.0
 40
1.0
 40
1.0
 40
1.0
 10
427.5507113882392
 20
313.1635091116047
 30
0.0
 10
427.4171945396971
 20
313.4093923662571
 30
0.0
 10
427.248448359953
 20
313.6419921248542
 30
0.0
 10
426.9460455186905
 20
313.9572521524849
 30
0.0
 10
426.8381681751297
 20
314.0553905465206
 30
0.0
 10
426.6074493850108
 20
314.2337061231722
 30
0.0
 10
426.4826015805093
 20
314.3136581826916
 30
0.0
 10
426.3547403599347
 20
314.3797237906645
 30
0.0
  0
ARC
  5
5791
330
1F
100
AcDbEntity
  8
0
  6
Continuous
 62
     7
370
    15
100
AcDbCircle
 10
434.382905636824
 20
330.2612223795492
 30
0.0
 40
17.79532059676979
100
AcDbArc
 50
296.8167922330124
 51
243.1832077669872
  0
ARC
  5
5793
102
{ACAD_REACTORS
330
5849
102
}
330
1F
100
AcDbEntity
  8
0
  6
Continuous
 62
     7
370
    15
100
AcDbCircle
 10
434.3829056368238
 20
330.4647872344059
 30
0.0
 40
19.00000000000001
100
AcDbArc
 50
306.5296072297349
 51
233.4703927702648
  0
CIRCLE
  5
5796
330
1F
100
AcDbEntity
  8
0
  6
Continuous
 62
     7
370
    15
100
AcDbCircle
 10
434.3829056368236
 20
330.4647872344059
 30
0.0
 40
14.00967364599086
  0
SPLINE
  5
5797
330
1F
100
AcDbEntity
  8
0
  6
Continuous
 62
     7
370
    15
100
AcDbSpline
210
0.0
220
0.0
230
1.0
 70
    24
 71
     1
 72
     4
 73
     2
 74
     0
 42
0.0000000001
 43
0.0000000001
 40
0.0
 40
0.0
 40
1.0
 40
1.0
 10
445.6461682354296
 20
315.1632370560744
 30
0.0
 10
445.6924294463475
 20
315.197348968547
 30
0.0
  0
ARC
  5
5798
330
1F
100
AcDbEntity
  8
0
  6
Continuous
 62
     7
370
    15
100
AcDbCircle
 10
446.8829056368236
 20
313.5902502037197
 30
0.0
 40
2.000000000000009
100
AcDbArc
 50
126.5296072297356
 51
180.0
  0
ARC
  5
5799
330
1F
100
AcDbEntity
  8
0
  6
Continuous
 62
     7
370
    15
100
AcDbCircle
 10
421.8829056368236
 20
313.5902502037197
 30
0.0
 40
2.000000000000009
100
AcDbArc
 50
0.0
 51
53.47039277026439
  0
SPLINE
  5
579A
330
1F
100
AcDbEntity
  8
0
  6
Continuous
 62
     7
370
    15
100
AcDbSpline
210
0.0
220
0.0
230
1.0
 70
    24
 71
     1
 72
     4
 73
     2
 74
     0
 42
0.0000000001
 43
0.0000000001
 40
0.0
 40
0.0
 40
1.0
 40
1.0
 10
423.0733818272999
 20
315.197348968547
 30
0.0
 10
423.0902335391954
 20
315.1848674829307
 30
0.0
  0
ARC
  5
57A0
330
1F
100
AcDbEntity
  8
0
  6
Continuous
 62
     7
370
    15
100
AcDbCircle
 10
492.3627229042341
 20
348.0647872344059
 30
0.0
 40
1.400000000000005
100
AcDbArc
 50
90.0
 51
180.0
  0
SPLINE
  5
57A1
330
1F
100
AcDbEntity
  8
0
  6
Continuous
 62
     7
370
    15
100
AcDbSpline
210
0.0
220
0.0
230
1.0
 70
    24
 71
     1
 72
     4
 73
     2
 74
     0
 42
0.0000000001
 43
0.0000000001
 40
0.0
 40
0.0
 40
1.0
 40
1.0
 10
504.5627229042342
 20
349.4647872344059
 30
0.0
 10
492.3627229042341
 20
349.4647872344059
 30
0.0
  0
ARC
  5
57A2
330
1F
100
AcDbEntity
  8
0
  6
Continuous
 62
     7
370
    15
100
AcDbCircle
 10
504.5627229042342
 20
348.0647872344059
 30
0.0
 40
1.400000000000005
100
AcDbArc
 50
0.0
 51
90.0
  0
ARC
  5
57A3
330
1F
100
AcDbEntity
  8
0
  6
Continuous
 62
     7
370
    15
100
AcDbCircle
 10
498.4627229042342
 20
330.4647872344059
 30
0.0
 40
14.50000000000001
100
AcDbArc
 50
223.6028189727044
 51
238.8526100784928
  0
ARC
  5
57A4
330
1F
100
AcDbEntity
  8
0
  6
Continuous
 62
     7
370
    15
100
AcDbCircle
 10
498.4627229042342
 20
330.4647872344059
 30
0.0
 40
14.5
100
AcDbArc
 50
121.1473899215094
 51
136.3971810272967
  0
ARC
  5
57A5
330
1F
100
AcDbEntity
  8
0
  6
Continuous
 62
     7
370
    15
100
AcDbCircle
 10
498.4627229042342
 20
330.4647872344059
 30
0.0
 40
14.50000000000001
100
AcDbArc
 50
301.1473899215094
 51
316.3971810272979
  0
ARC
  5
57A6
102
{ACAD_REACTORS
330
5935
102
}
330
1F
100
AcDbEntity
  8
0
  6
Continuous
 62
     7
370
    15
100
AcDbCircle
 10
498.4627229042342
 20
330.4647872344059
 30
0.0
 40
14.5
100
AcDbArc
 50
43.60281897270328
 51
58.85261007849059
  0
LINE
  5
57A7
102
{ACAD_REACTORS
330
590F
102
}
330
1F
100
AcDbEntity
  8
0
  6
Continuous
 62
     7
370
    15
100
AcDbLine
 10
490.9627229042341
 20
313.7717988912168
 30
0.0
 11
490.9627229042341
 21
348.0647872344059
 31
0.0
  0
LINE
  5
57AC
102
{ACAD_REACTORS
330
590F
102
}
330
1F
100
AcDbEntity
  8
0
  6
Continuous
 62
     7
370
    15
100
AcDbLine
 10
505.9627229042341
 20
348.0647872344059
 30
0.0
 11
505.9627229042341
 21
313.7717988912168
 31
0.0
  0
SPLINE
  5
57B0
330
1F
100
AcDbEntity
  8
0
  6
Continuous
 62
     7
370
    15
100
AcDbSpline
210
0.0
220
0.0
230
1.0
 70
     8
 71
     3
 72
    14
 73
    10
 74
     0
 42
0.0000000001
 43
0.0000000001
 40
0.0
 40
0.0
 40
0.0
 40
0.0
 40
0.25
 40
0.25
 40
0.5
 40
0.5
 40
0.75
 40
0.75
 40
1.0
 40
1.0
 40
1.0
 40
1.0
 10
509.4627229042341
 20
267.4647872344059
 30
0.0
 10
509.4627229042341
 20
267.3314822158167
 30
0.0
 10
509.4361587000679
 20
267.2006103221698
 30
0.0
 10
509.334485794603
 20
266.9574449904081
 30
0.0
 10
509.2592989218683
 20
266.8463563808093
 30
0.0
 10
509.0741567893825
 20
266.6628279607252
 30
0.0
 10
508.9627025888559
 20
266.5891418716249
 30
0.0
 10
508.7234228108997
 20
266.4907389578512
 30
0.0
 10
508.5916213038406
 20
266.4647872344059
 30
0.0
 10
508.4627229042341
 20
266.4647872344059
 30
0.0
  0
LINE
  5
57B1
102
{ACAD_REACTORS
330
595B
102
}
330
1F
100
AcDbEntity
  8
0
  6
Continuous
 62
     7
370
    15
100
AcDbLine
 10
508.462722904234
 20
266.4647872344059
 30
0.0
 11
488.4627229042341
 21
266.4647872344059
 31
0.0
  0
SPLINE
  5
57B2
330
1F
100
AcDbEntity
  8
0
  6
Continuous
 62
     7
370
    15
100
AcDbSpline
210
0.0
220
0.0
230
1.0
 70
     8
 71
     3
 72
    14
 73
    10
 74
     0
 42
0.0000000001
 43
0.0000000001
 40
0.0
 40
0.0
 40
0.0
 40
0.0
 40
0.25
 40
0.25
 40
0.5
 40
0.5
 40
0.75
 40
0.75
 40
1.0
 40
1.0
 40
1.0
 40
1.0
 10
487.4627229042341
 20
267.4647872344059
 30
0.0
 10
487.4627229042341
 20
267.3314822158167
 30
0.0
 10
487.4892871084004
 20
267.2006103221698
 30
0.0
 10
487.5909600138652
 20
266.9574449904081
 30
0.0
 10
487.6661468866
 20
266.8463563808093
 30
0.0
 10
487.8512890190858
 20
266.6628279607252
 30
0.0
 10
487.9627432196123
 20
266.5891418716249
 30
0.0
 10
488.2020229975686
 20
266.4907389578512
 30
0.0
 10
488.3338245046277
 20
266.4647872344059
 30
0.0
 10
488.4627229042341
 20
266.4647872344059
 30
0.0
  0
SPLINE
  5
57B7
330
1F
100
AcDbEntity
  8
0
  6
Continuous
 62
     7
370
    15
100
AcDbSpline
210
0.0
220
0.0
230
1.0
 70
    24
 71
     3
 72
    10
 73
     6
 74
     0
 42
0.0000000001
 43
0.0000000001
 40
0.0
 40
0.0
 40
0.0
 40
0.0
 40
0.5
 40
0.5
 40
1.0
 40
1.0
 40
1.0
 40
1.0
 10
509.4627229042341
 20
273.6210644667878
 30
0.0
 10
509.4627229042341
 20
273.5317244176961
 30
0.0
 10
509.4627229042341
 20
273.4340650246435
 30
0.0
 10
509.4627229042341
 20
273.2139488705893
 30
0.0
 10
509.4627229042341
 20
273.0952008952935
 30
0.0
 10
509.4627229042341
 20
272.9730597732638
 30
0.0
  0
SPLINE
  5
57B9
330
1F
100
AcDbEntity
  8
0
  6
Continuous
 62
     7
370
    15
100
AcDbSpline
210
0.0
220
0.0
230
1.0
 70
    24
 71
     3
 72
    10
 73
     6
 74
     0
 42
0.0000000001
 43
0.0000000001
 40
0.0
 40
0.0
 40
0.0
 40
0.0
 40
0.5
 40
0.5
 40
1.0
 40
1.0
 40
1.0
 40
1.0
 10
487.4627229042341
 20
272.9730597732636
 30
0.0
 10
487.4627229042341
 20
273.0951687207183
 30
0.0
 10
487.4627229042341
 20
273.2139903769984
 30
0.0
 10
487.4627229042341
 20
273.4321051594263
 30
0.0
 10
487.4627229042341
 20
273.5315078071896
 30
0.0
 10
487.4627229042341
 20
273.6210644667872
 30
0.0
  0
LINE
  5
57BC
102
{ACAD_REACTORS
330
5A23
102
}
330
1F
100
AcDbEntity
  8
0
  6
Continuous
 62
     7
370
    15
100
AcDbLine
 10
509.4627229042341
 20
272.9730597732636
 30
0.0
 11
509.4627229042341
 21
267.4647872344059
 31
0.0
  0
LINE
  5
57BD
102
{ACAD_REACTORS
330
5A23
102
}
330
1F
100
AcDbEntity
  8
0
  6
Continuous
 62
     7
370
    15
100
AcDbLine
 10
487.4627229042341
 20
272.9730597732636
 30
0.0
 11
487.4627229042341
 21
267.4647872344059
 31
0.0
  0
LINE
  5
57C3
102
{ACAD_REACTORS
330
5935
102
}
330
1F
100
AcDbEntity
  8
0
  6
Continuous
 62
     7
370
    15
100
AcDbLine
 10
487.9627229042341
 20
320.4647872344059
 30
0.0
 11
487.9627229042341
 21
340.4647872344059
 31
0.0
  0
LINE
  5
57C4
330
1F
100
AcDbEntity
  8
0
  6
Continuous
 62
     7
370
    15
100
AcDbLine
 10
508.9627229042341
 20
320.4647872344059
 30
0.0
 11
508.9627229042341
 21
340.4647872344059
 31
0.0
  0
LINE
  5
57CF
330
1F
100
AcDbEntity
  8
0
  6
Continuous
 62
     7
370
    15
100
AcDbLine
 10
487.9627229042341
 20
309.5291582040975
 30
0.0
 11
487.9627229042341
 21
275.7876628899382
 31
0.0
  0
LINE
  5
57D3
330
1F
100
AcDbEntity
  8
0
  6
Continuous
 62
     7
370
    15
100
AcDbLine
 10
508.9627229042341
 20
275.7876628899382
 30
0.0
 11
508.9627229042341
 21
309.5291582040975
 31
0.0
  0
ARC
  5
57DB
330
1F
100
AcDbEntity
  8
0
  6
Continuous
 62
     7
370
    15
100
AcDbCircle
 10
488.9627229042341
 20
313.7717988912168
 30
0.0
 40
2.0
100
AcDbArc
 50
315.0000000000012
 51
0.0
  0
ARC
  5
57DD
330
1F
100
AcDbEntity
  8
0
  6
Continuous
 62
     7
370
    15
100
AcDbCircle
 10
507.9627229042341
 20
313.7717988912168
 30
0.0
 40
2.0
100
AcDbArc
 50
180.0
 51
225.0
  0
ARC
  5
57E1
330
1F
100
AcDbEntity
  8
0
  6
Continuous
 62
     7
370
    15
100
AcDbCircle
 10
488.9627229042341
 20
309.5291582040975
 30
0.0
 40
1.0
100
AcDbArc
 50
135.0000000000023
 51
180.0
  0
LINE
  5
57E2
330
1F
100
AcDbEntity
  8
0
  6
Continuous
 62
     7
370
    15
100
AcDbLine
 10
488.2556161230476
 20
310.236264985284
 30
0.0
 11
490.3794883866904
 21
312.3601372489269
 31
0.0
  0
LINE
  5
57E3
330
1F
100
AcDbEntity
  8
0
  6
Continuous
 62
     7
370
    15
100
AcDbLine
 10
506.5459574217779
 20
312.3601372489269
 30
0.0
 11
508.6698296854207
 21
310.236264985284
 31
0.0
  0
ARC
  5
57E4
330
1F
100
AcDbEntity
  8
0
  6
Continuous
 62
     7
370
    15
100
AcDbCircle
 10
507.9627229042341
 20
309.5291582040975
 30
0.0
 40
1.0
100
AcDbArc
 50
0.0
 51
44.99999999999769
  0
ARC
  5
57E6
330
1F
100
AcDbEntity
  8
0
  6
Continuous
 62
     7
370
    15
100
AcDbCircle
 10
508.4627229042341
 20
274.1293504947605
 30
0.0
 40
1.000000000000018
100
AcDbArc
 50
0.0
 51
33.55730976191933
  0
SPLINE
  5
57E7
330
1F
100
AcDbEntity
  8
0
  6
Continuous
 62
     7
370
    15
100
AcDbSpline
210
0.0
220
0.0
230
1.0
 70
    24
 71
     3
 72
    12
 73
     8
 74
     0
 42
0.0000000001
 43
0.0000000001
 40
0.0
 40
0.0
 40
0.0
 40
0.0
 40
0.5
 40
0.5
 40
0.7500000000000001
 40
0.7500000000000001
 40
1.0
 40
1.0
 40
1.0
 40
1.0
 10
509.4627229042341
 20
274.1293504947605
 30
0.0
 10
509.4627229042341
 20
274.1293504947605
 30
0.0
 10
509.4627229042341
 20
274.0857073833406
 30
0.0
 10
509.4627229042341
 20
273.9685082419332
 30
0.0
 10
509.4627229042341
 20
273.9208906924484
 30
0.0
 10
509.4627229042341
 20
273.7995947103326
 30
0.0
 10
509.4627229042341
 20
273.7290428975699
 30
0.0
 10
509.4627229042341
 20
273.6210644667868
 30
0.0
  0
ARC
  5
57E8
330
1F
100
AcDbEntity
  8
0
  6
Continuous
 62
     7
370
    15
100
AcDbCircle
 10
488.4627229042341
 20
274.1293504947605
 30
0.0
 40
1.000000000000018
100
AcDbArc
 50
146.4426902380806
 51
180.0
  0
SPLINE
  5
57EA
330
1F
100
AcDbEntity
  8
0
  6
Continuous
 62
     7
370
    15
100
AcDbSpline
210
0.0
220
0.0
230
1.0
 70
    24
 71
     3
 72
    12
 73
     8
 74
     0
 42
0.0000000001
 43
0.0000000001
 40
0.0
 40
0.0
 40
0.0
 40
0.0
 40
0.2499999999999999
 40
0.2499999999999999
 40
0.5
 40
0.5
 40
1.0
 40
1.0
 40
1.0
 40
1.0
 10
487.4627229042341
 20
273.621064466787
 30
0.0
 10
487.4627229042341
 20
273.7290701171488
 30
0.0
 10
487.4627229042341
 20
273.7996378929017
 30
0.0
 10
487.4627229042341
 20
273.9207695125301
 30
0.0
 10
487.4627229042341
 20
273.9683766930024
 30
0.0
 10
487.4627229042341
 20
274.0856320559669
 30
0.0
 10
487.4627229042341
 20
274.1293504947659
 30
0.0
 10
487.4627229042341
 20
274.1293504947649
 30
0.0
  0
ARC
  5
57EB
330
1F
100
AcDbEntity
  8
0
  6
Continuous
 62
     7
370
    15
100
AcDbCircle
 10
485.9627229042342
 20
275.7876628899382
 30
0.0
 40
2.0
100
AcDbArc
 50
326.4426902380793
 51
0.0000000000390827
  0
ARC
  5
57EC
330
1F
100
AcDbEntity
  8
0
  6
Continuous
 62
     7
370
    15
100
AcDbCircle
 10
510.9627229042342
 20
275.7876628899382
 30
0.0
 40
2.0
100
AcDbArc
 50
180.0
 51
213.5573097619207
  0
SPLINE
  5
57F6
330
1F
100
AcDbEntity
  8
0
  6
HIDDEN
 62
     7
370
     0
100
AcDbSpline
210
0.0
220
0.0
230
1.0
 70
    24
 71
     3
 72
     8
 73
     4
 74
     0
 42
0.0000000001
 43
0.0000000001
 40
0.0
 40
0.0
 40
0.0
 40
0.0
 40
1.0
 40
1.0
 40
1.0
 40
1.0
 10
490.3794883866903
 20
312.3601372489269
 30
0.0
 10
490.3777639062577
 20
312.3584127684942
 30
0.0
 10
490.3769364666072
 20
312.3575853288437
 30
0.0
 10
490.3769364666072
 20
312.3575853288437
 30
0.0
  0
SPLINE
  5
57F7
330
1F
100
AcDbEntity
  8
0
  6
HIDDEN
 62
     7
370
     0
100
AcDbSpline
210
0.0
220
0.0
230
1.0
 70
    24
 71
     3
 72
     8
 73
     4
 74
     0
 42
0.0000000001
 43
0.0000000001
 40
0.0
 40
0.0
 40
0.0
 40
0.0
 40
1.0
 40
1.0
 40
1.0
 40
1.0
 10
506.548509341861
 20
312.3575853288437
 30
0.0
 10
506.548509341861
 20
312.3575853288437
 30
0.0
 10
506.5476819022107
 20
312.3584127684942
 30
0.0
 10
506.5459574217779
 20
312.3601372489269
 30
0.0
  0
LINE
  5
57F8
102
{ACAD_REACTORS
330
595B
102
}
330
1F
100
AcDbEntity
  8
AM_4
100
AcDbLine
 10
506.4627229042342
 20
299.4647872344059
 30
0.0
 11
490.4627229042342
 21
299.4647872344059
 31
0.0
  0
SPLINE
  5
5823
330
1F
100
AcDbEntity
  8
AM_4
100
AcDbSpline
210
0.0
220
0.0
230
1.0
 70
    24
 71
     1
 72
     4
 73
     2
 74
     0
 42
0.0000000001
 43
0.0000000001
 40
0.0
 40
0.0
 40
1.0
 40
1.0
 10
508.9627229042341
 20
338.4647872344059
 30
0.0
 10
487.9627229042341
 20
338.4647872344059
 30
0.0
  0
SPLINE
  5
5824
330
1F
100
AcDbEntity
  8
AM_4
100
AcDbSpline
210
0.0
220
0.0
230
1.0
 70
    24
 71
     1
 72
     4
 73
     2
 74
     0
 42
0.0000000001
 43
0.0000000001
 40
0.0
 40
0.0
 40
1.0
 40
1.0
 10
487.9627229042341
 20
322.4647872344059
 30
0.0
 10
508.9627229042341
 20
322.4647872344059
 30
0.0
  0
SPLINE
  5
5825
330
1F
100
AcDbEntity
  8
AM_4
100
AcDbSpline
210
0.0
220
0.0
230
1.0
 70
    24
 71
     1
 72
     4
 73
     2
 74
     0
 42
0.0000000001
 43
0.0000000001
 40
0.0
 40
0.0
 40
1.0
 40
1.0
 10
506.4627229042342
 20
266.4647872344059
 30
0.0
 10
506.4627229042342
 20
299.4647872344059
 30
0.0
  0
SPLINE
  5
5826
330
1F
100
AcDbEntity
  8
AM_4
100
AcDbSpline
210
0.0
220
0.0
230
1.0
 70
    24
 71
     1
 72
     4
 73
     2
 74
     0
 42
0.0000000001
 43
0.0000000001
 40
0.0
 40
0.0
 40
1.0
 40
1.0
 10
490.4627229042342
 20
299.4647872344059
 30
0.0
 10
490.4627229042342
 20
266.4647872344059
 30
0.0
  0
LINE
  5
5829
102
{ACAD_REACTORS
330
5849
330
5873
102
}
330
1F
100
AcDbEntity
  8
AM_7
100
AcDbLine
 10
412.5307825783939
 20
330.4647872344059
 30
0.0
 11
457.144806476962
 21
330.4647872344059
 31
0.0
  0
LINE
  5
582A
330
1F
100
AcDbEntity
  8
AM_7
100
AcDbLine
 10
434.3829056368236
 20
307.4842953407379
 30
0.0
 11
434.3829056368236
 21
352.4700690743523
 31
0.0
  0
LINE
  5
582B
330
1F
100
AcDbEntity
  8
AM_7
100
AcDbLine
 10
485.7044056679221
 20
330.4647872344059
 30
0.0
 11
510.5986210713742
 21
330.4647872344059
 31
0.0
  0
DIMENSION
  5
583B
102
{ACAD_XDICTIONARY
360
5848
102
}
102
{ACAD_REACTORS
330
5849
102
}
330
1F
100
AcDbEntity
  8
AM_REFDIM
100
AcDbDimension
  2
*D14
 10
453.3829056368237
 20
358.5336711493061
 30
0.0
 11
434.3829056368238
 21
358.5336711493061
 31
0.0
 70
   160
 71
     5
 42
38.0
  3
AM_ISO$0
100
AcDbAlignedDimension
 13
415.3829056368238
 23
330.4647872344059
 33
0.0
 14
453.3829056368237
 24
330.4647872344059
 34
0.0
100
AcDbRotatedDimension
1001
ACAD
1000
DSTYLE
1002
{
1070
    40
1040
0.6
1070
   271
1070
     0
1002
}
  0
DIMENSION
  5
5865
102
{ACAD_XDICTIONARY
360
5872
102
}
102
{ACAD_REACTORS
330
5873
102
}
330
1F
100
AcDbEntity
  8
AM_REFDIM
100
AcDbDimension
  2
*D15
 10
460.5723856737571
 20
266.4647872344059
 30
0.0
 11
460.5723856737571
 21
298.4647872344059
 31
0.0
 70
   160
 71
     5
 42
64.0
  3
AM_ISO$0
100
AcDbAlignedDimension
 13
457.144806476962
 23
330.4647872344059
 33
0.0
 14
446.8829056368238
 24
266.4647872344059
 34
0.0
 50
90.0
100
AcDbRotatedDimension
1001
ACAD
1000
DSTYLE
1002
{
1070
    40
1040
0.6
1070
   271
1070
     0
1002
}
  0
DIMENSION
  5
588B
102
{ACAD_XDICTIONARY
360
5898
102
}
102
{ACAD_REACTORS
330
5899
102
}
330
1F
100
AcDbEntity
  8
AM_REFDIM
100
AcDbDimension
  2
*D16
 10
468.4914831713259
 20
266.4647872344059
 30
0.0
 11
468.4914831713258
 21
307.9647872344059
 31
0.0
 70
   160
 71
     5
 42
83.0
  3
AM_ISO$0
100
AcDbAlignedDimension
 13
434.3829056368238
 23
349.4647872344059
 33
0.0
 14
446.8829056368238
 24
266.4647872344059
 34
0.0
 50
90.0
100
AcDbRotatedDimension
1001
ACAD
1000
DSTYLE
1002
{
1070
    40
1040
0.6
1070
   271
1070
     0
1002
}
  0
DIMENSION
  5
58B1
102
{ACAD_XDICTIONARY
360
58C0
102
}
102
{ACAD_REACTORS
330
58C1
102
}
330
1F
100
AcDbEntity
  8
AM_REFDIM
100
AcDbDimension
  2
*D17
 10
454.6942897551176
 20
266.4647872344059
 30
0.0
 11
453.0442897551176
 21
270.4965413978541
 31
0.0
 70
    32
 71
     5
 42
8.063508326896283
  3
AM_ISO$0
100
AcDbAlignedDimension
 13
446.3829056368236
 23
274.5282955613022
 33
0.0
 14
446.3829056368238
 24
266.4647872344059
 34
0.0
 50
90.0
100
AcDbRotatedDimension
1001
ACAD
1000
DSTYLE
1002
{
1070
    40
1040
0.6
1070
   271
1070
     0
1002
}
  0
DIMENSION
  5
58DB
102
{ACAD_XDICTIONARY
360
58E8
102
}
102
{ACAD_REACTORS
330
58E9
102
}
330
1F
100
AcDbEntity
  8
AM_REFDIM
100
AcDbDimension
  2
*D18
 10
447.8829056368238
 20
259.0800976287445
 30
0.0
 11
434.3829056368238
 21
259.0800976287445
 31
0.0
 70
   160
 71
     5
 42
27.00000000000012
  3
AM_ISO$0
100
AcDbAlignedDimension
 13
420.8829056368236
 23
267.4647872344059
 33
0.0
 14
447.8829056368238
 24
267.4647872344059
 34
0.0
 50
0.0000000000001018
100
AcDbRotatedDimension
1001
ACAD
1000
DSTYLE
1002
{
1070
    40
1040
0.6
1070
   271
1070
     0
1002
}
  0
DIMENSION
  5
5901
102
{ACAD_XDICTIONARY
360
590E
102
}
102
{ACAD_REACTORS
330
590F
102
}
330
1F
100
AcDbEntity
  8
AM_REFDIM
100
AcDbDimension
  2
*D19
 10
505.9627229042341
 20
356.621983205532
 30
0.0
 11
498.4627229042342
 21
358.271983205532
 31
0.0
 70
    32
 71
     5
 42
15.0
  3
AM_ISO$0
100
AcDbAlignedDimension
 13
490.9627229042341
 23
348.0647872344059
 33
0.0
 14
505.9627229042341
 24
348.0647872344059
 34
0.0
100
AcDbRotatedDimension
1001
ACAD
1000
DSTYLE
1002
{
1070
    40
1040
0.6
1070
   271
1070
     0
1002
}
  0
DIMENSION
  5
5927
102
{ACAD_XDICTIONARY
360
5934
102
}
102
{ACAD_REACTORS
330
5935
102
}
330
1F
100
AcDbEntity
  8
AM_REFDIM
100
AcDbDimension
  2
*D20
 10
508.9627229042342
 20
364.3530299223344
 30
0.0
 11
498.4627229042342
 21
364.3530299223344
 31
0.0
 70
   160
 71
     5
 42
21.00000000000012
  3
AM_ISO$0
100
AcDbAlignedDimension
 13
487.9627229042341
 23
340.4647872344059
 33
0.0
 14
508.9627229042342
 24
340.4647872344058
 34
0.0
100
AcDbRotatedDimension
1001
ACAD
1000
DSTYLE
1002
{
1070
    40
1040
0.6
1070
   271
1070
     0
1002
}
  0
DIMENSION
  5
594D
102
{ACAD_XDICTIONARY
360
595A
102
}
102
{ACAD_REACTORS
330
595B
102
}
330
1F
100
AcDbEntity
  8
AM_REFDIM
100
AcDbDimension
  2
*D21
 10
521.1782328623118
 20
266.4647872344059
 30
0.0
 11
519.5282328623116
 21
282.964787234406
 31
0.0
 70
    32
 71
     5
 42
33.0
  3
AM_ISO$0
100
AcDbAlignedDimension
 13
506.4627229042342
 23
299.4647872344059
 33
0.0
 14
508.4627229042342
 24
266.4647872344059
 34
0.0
 50
90.0
100
AcDbRotatedDimension
1001
ACAD
1000
DSTYLE
1002
{
1070
    40
1040
0.6
1070
   271
1070
     0
1002
}
  0
DIMENSION
  5
5A15
102
{ACAD_XDICTIONARY
360
5A22
102
}
102
{ACAD_REACTORS
330
5A23
102
}
330
1F
100
AcDbEntity
  8
AM_REFDIM
100
AcDbDimension
  2
*D22
 10
509.4627229042341
 20
259.0800976287442
 30
0.0
 11
498.4627229042342
 21
260.7303043216576
 31
0.0
 70
    32
 71
     5
 42
22.0
  3
AM_ISO$0
100
AcDbAlignedDimension
 13
487.4627229042341
 23
267.4647872344059
 33
0.0
 14
509.4627229042341
 24
267.4647872344059
 34
0.0
 50
0.0000000000001018
100
AcDbRotatedDimension
1001
ACAD
1000
DSTYLE
1002
{
1070
    40
1040
0.6
1070
   271
1070
     0
1002
}
  0
DIMENSION
  5
5B1B
330
1F
100
AcDbEntity
  8
AM_REFDIM
100
AcDbDimension
  2
*D23
 10
521.1782328623118
 20
322.4647872344059
 30
0.0
 11
519.5282328623116
 21
330.4647872344059
 31
0.0
 70
    32
  1
%%c<>
 71
     5
 42
16.0
  3
AM_ISO$0
100
AcDbAlignedDimension
 13
508.9627229042341
 23
338.4647872344059
 33
0.0
 14
508.9627229042341
 24
322.4647872344059
 34
0.0
 50
90.00000000000003
100
AcDbRotatedDimension
1001
ACAD
1000
DSTYLE
1002
{
1070
    40
1040
0.6
1070
   271
1070
     0
1002
}
  0
ENDSEC
  0
SECTION
  2
OBJECTS
  0
DICTIONARY
  5
C
330
0
100
AcDbDictionary
281
     1
  3
ACAD_COLOR
350
BE
  3
ACAD_GROUP
350
D
  3
ACAD_LAYOUT
350
1A
  3
ACAD_MATERIAL
350
BD
  3
ACAD_MLINESTYLE
350
17
  3
ACAD_PLOTSETTINGS
350
19
  3
ACAD_PLOTSTYLENAME
350
E
  3
ACAD_TABLESTYLE
350
11A
  3
ACDBHEADERROUNDTRIPXREC
350
5B4A
  3
AcDbVariableDictionary
350
94
  3
AcmDictionary
350
5B
  3
AMG
350
41
  3
AMGSNAPSETTINGS
350
1B8
  3
DWGPROPS
350
5B49
  3
MAPISURF_MODULE
350
3A15
  0
DICTIONARY
  5
3F9
330
2
100
AcDbDictionary
280
     1
281
     1
  3
ACAD_LAYERFILTERS
360
5645
  3
ACAD_LAYERSTATES
360
AD2
  3
ACLYDICTIONARY
360
5644
  0
DICTIONARY
  5
8F
330
1F
100
AcDbDictionary
280
     1
281
     1
  3
ACAD_INDEX
360
3D28
  0
DICTIONARY
  5
5848
330
583B
100
AcDbDictionary
280
     1
281
     1
  3
ACAD_DIMASSOC
360
5849
  0
DICTIONARY
  5
5872
330
5865
100
AcDbDictionary
280
     1
281
     1
  3
ACAD_DIMASSOC
360
5873
  0
DICTIONARY
  5
5898
330
588B
100
AcDbDictionary
280
     1
281
     1
  3
ACAD_DIMASSOC
360
5899
  0
DICTIONARY
  5
58C0
330
58B1
100
AcDbDictionary
280
     1
281
     1
  3
ACAD_DIMASSOC
360
58C1
  0
DICTIONARY
  5
58E8
330
58DB
100
AcDbDictionary
280
     1
281
     1
  3
ACAD_DIMASSOC
360
58E9
  0
DICTIONARY
  5
590E
330
5901
100
AcDbDictionary
280
     1
281
     1
  3
ACAD_DIMASSOC
360
590F
  0
DICTIONARY
  5
5934
330
5927
100
AcDbDictionary
280
     1
281
     1
  3
ACAD_DIMASSOC
360
5935
  0
DICTIONARY
  5
595A
330
594D
100
AcDbDictionary
280
     1
281
     1
  3
ACAD_DIMASSOC
360
595B
  0
DICTIONARY
  5
5A22
330
5A15
100
AcDbDictionary
280
     1
281
     1
  3
ACAD_DIMASSOC
360
5A23
  0
DICTIONARY
  5
BE
102
{ACAD_REACTORS
330
C
102
}
330
C
100
AcDbDictionary
281
     1
  0
DICTIONARY
  5
D
102
{ACAD_REACTORS
330
C
102
}
330
C
100
AcDbDictionary
281
     1
  0
DICTIONARY
  5
1A
102
{ACAD_REACTORS
330
C
102
}
330
C
100
AcDbDictionary
281
     1
  3
Model
350
22
  3
配置1
350
1E
  3
配置2
350
26
  0
DICTIONARY
  5
BD
102
{ACAD_REACTORS
330
C
102
}
330
C
100
AcDbDictionary
281
     1
  0
DICTIONARY
  5
17
102
{ACAD_REACTORS
330
C
102
}
330
C
100
AcDbDictionary
281
     1
  3
Standard
350
18
  0
DICTIONARY
  5
19
102
{ACAD_REACTORS
330
C
102
}
330
C
100
AcDbDictionary
281
     1
  0
ACDBDICTIONARYWDFLT
  5
E
102
{ACAD_REACTORS
330
C
102
}
330
C
100
AcDbDictionary
281
     1
  3
Normal
350
F
100
AcDbDictionaryWithDefault
340
F
  0
DICTIONARY
  5
11A
102
{ACAD_REACTORS
330
C
102
}
330
C
100
AcDbDictionary
281
     1
  3
Standard
350
11B
  0
DICTIONARY
  5
5B4A
102
{ACAD_REACTORS
330
C
102
}
330
C
100
AcDbDictionary
281
     1
  0
DICTIONARY
  5
94
102
{ACAD_REACTORS
330
C
102
}
330
C
100
AcDbDictionary
281
     1
  3
CTABLESTYLE
350
138
  3
DIMASSOC
350
96
  3
INDEXCTL
350
95
  3
PROJECTNAME
350
1B44
  0
DICTIONARY
  5
5B
102
{ACAD_REACTORS
330
C
102
}
330
C
100
AcDbDictionary
281
     1
  3
AcmBOM
350
1B5
  3
AcmStdDictionary
350
61
  3
AMDTSECTSYM_ARROWCOLOR
350
123
  0
DICTIONARY
  5
41
102
{ACAD_REACTORS
330
C
102
}
330
C
100
AcDbDictionary
281
     1
  3
AcMgSettings
350
398F
  0
DICTIONARY
  5
1B8
102
{ACAD_REACTORS
330
C
102
}
330
C
100
AcDbDictionary
281
     1
  0
XRECORD
  5
5B49
102
{ACAD_REACTORS
330
C
102
}
330
C
100
AcDbXrecord
280
     1
  1
DWGPROPS COOKIE
  2

  3

  4

  6

  7

  8

  9

300
AmdtFileType=84
301
=
302
=
303
=
304
=
305
=
306
=
307
=
308
=
309
=
 40
0.185453287037037
 41
2454392.703168762
 42
2456051.709618056
  1

 90
        1
  0
DICTIONARY
  5
5645
102
{ACAD_REACTORS
330
3F9
102
}
330
3F9
100
AcDbDictionary
281
     1
  0
DICTIONARY
  5
AD2
102
{ACAD_REACTORS
330
3F9
102
}
330
3F9
100
AcDbDictionary
281
     1
  0
DICTIONARY
  5
5644
102
{ACAD_REACTORS
330
3F9
102
}
330
3F9
100
AcDbDictionary
281
     1
1001
ACAD
1000
<All
  0
DICTIONARY
  5
3D28
102
{ACAD_REACTORS
330
8F
102
}
330
8F
100
AcDbDictionary
281
     1
  3
*A1
350
3D29
  0
DIMASSOC
  5
5849
102
{ACAD_REACTORS
330
5848
102
}
330
5848
100
AcDbDimAssoc
330
583B
 90
        3
 70
     0
 71
     0
  1
AcDbOsnapPointRef
 72
     6
331
5829
 73
     0
 91
        0
 40
0.0639288458919184
 10
0.0
 20
0.0
 30
0.0
332
5793
 74
     0
 92
        0
 75
     0
  1
AcDbOsnapPointRef
 72
     6
331
5829
 73
     0
 91
        0
 40
0.9156789612008314
 10
0.0
 20
0.0
 30
0.0
332
5793
 74
     0
 92
        0
 75
     0
  0
DIMASSOC
  5
5873
102
{ACAD_REACTORS
330
5872
102
}
330
5872
100
AcDbDimAssoc
330
5865
 90
        3
 70
     0
 71
     0
  1
AcDbOsnapPointRef
 72
     1
331
5829
 73
     0
 91
        0
 40
0.0
 10
0.0
 20
0.0
 30
2.000000000000000E+50
 75
     0
  1
AcDbOsnapPointRef
 72
    13
331
575F
 73
     0
 91
        0
 40
0.0
 10
0.0
 20
0.0
 30
2.000000000000000E+50
 75
     0
  0
DIMASSOC
  5
5899
102
{ACAD_REACTORS
330
5898
102
}
330
5898
100
AcDbDimAssoc
330
588B
 90
        2
 70
     0
 71
     0
  1
AcDbOsnapPointRef
 72
    13
331
575F
 73
     0
 91
        0
 40
0.0
 10
0.0
 20
0.0
 30
2.000000000000000E+50
 75
     0
  0
DIMASSOC
  5
58C1
102
{ACAD_REACTORS
330
58C0
102
}
330
58C0
100
AcDbDimAssoc
330
58B1
 90
        1
 70
     0
 71
     0
  1
AcDbOsnapPointRef
 72
     1
331
5782
 73
     0
 91
        0
 40
0.0
 10
0.0
 20
0.0
 30
2.000000000000000E+50
 75
     0
  0
DIMASSOC
  5
58E9
102
{ACAD_REACTORS
330
58E8
102
}
330
58E8
100
AcDbDimAssoc
330
58DB
 90
        3
 70
     0
 71
     0
  1
AcDbOsnapPointRef
 72
    13
331
574D
 73
     0
 91
        0
 40
0.0
 10
0.0
 20
0.0
 30
2.000000000000000E+50
 75
     0
  1
AcDbOsnapPointRef
 72
     1
331
574B
 73
     0
 91
        0
 40
0.0
 10
0.0
 20
0.0
 30
2.000000000000000E+50
 75
     0
  0
DIMASSOC
  5
590F
102
{ACAD_REACTORS
330
590E
102
}
330
590E
100
AcDbDimAssoc
330
5901
 90
        3
 70
     0
 71
     0
  1
AcDbOsnapPointRef
 72
     1
331
57A7
 73
     0
 91
        0
 40
0.0
 10
0.0
 20
0.0
 30
2.000000000000000E+50
 75
     0
  1
AcDbOsnapPointRef
 72
    13
331
57AC
 73
     0
 91
        0
 40
0.0
 10
0.0
 20
0.0
 30
2.000000000000000E+50
 75
     0
  0
DIMASSOC
  5
5935
102
{ACAD_REACTORS
330
5934
102
}
330
5934
100
AcDbDimAssoc
330
5927
 90
        3
 70
     0
 71
     0
  1
AcDbOsnapPointRef
 72
     1
331
57C3
 73
     0
 91
        0
 40
0.0
 10
0.0
 20
0.0
 30
2.000000000000000E+50
 75
     0
  1
AcDbOsnapPointRef
 72
    13
331
57A6
 73
     0
 91
        0
 40
0.0
 10
0.0
 20
0.0
 30
2.000000000000000E+50
 75
     0
  0
DIMASSOC
  5
595B
102
{ACAD_REACTORS
330
595A
102
}
330
595A
100
AcDbDimAssoc
330
594D
 90
        3
 70
     0
 71
     0
  1
AcDbOsnapPointRef
 72
    13
331
57F8
 73
     0
 91
        0
 40
0.0
 10
0.0
 20
0.0
 30
2.000000000000000E+50
 75
     0
  1
AcDbOsnapPointRef
 72
    13
331
57B1
 73
     0
 91
        0
 40
0.0
 10
0.0
 20
0.0
 30
2.000000000000000E+50
 75
     0
  0
DIMASSOC
  5
5A23
102
{ACAD_REACTORS
330
5A22
102
}
330
5A22
100
AcDbDimAssoc
330
5A15
 90
        3
 70
     0
 71
     0
  1
AcDbOsnapPointRef
 72
     1
331
57BD
 73
     0
 91
        0
 40
0.0
 10
0.0
 20
0.0
 30
2.000000000000000E+50
 75
     0
  1
AcDbOsnapPointRef
 72
     1
331
57BC
 73
     0
 91
        0
 40
0.0
 10
0.0
 20
0.0
 30
2.000000000000000E+50
 75
     0
  0
LAYOUT
  5
22
102
{ACAD_XDICTIONARY
360
5B4D
102
}
102
{ACAD_REACTORS
330
1A
102
}
330
1A
100
AcDbPlotSettings
  1

  2
\\RD\EPSON Stylus C63 Series單色
  4
A4
  6

 40
3.757083177566528
 41
3.757076978683471
 42
3.757080078125
 43
3.757080078125
 44
209.9733276367187
 45
296.9683227539062
 46
0.0
 47
0.0
 48
0.0
 49
0.0
140
0.0
141
0.0
142
1.0
143
0.3405120737814363
 70
 11952
 72
     1
 73
     0
 74
     0
  7
單色出圖.ctb
 75
     0
147
2.936753428137963
148
-2047.07469463503
149
-1261.649717473083
100
AcDbLayout
  1
Model
 70
     1
 71
     0
 10
0.0
 20
0.0
 11
12.0
 21
9.0
 12
0.0
 22
0.0
 32
0.0
 14
0.0
 24
0.0
 34
0.0
 15
0.0
 25
0.0
 35
0.0
146
0.0
 13
0.0
 23
0.0
 33
0.0
 16
1.0
 26
0.0
 36
0.0
 17
0.0
 27
1.0
 37
0.0
 76
     0
330
1F
1001
ACAD_PSEXT
1000
\\RD\EPSON Stylus C63 Series單色
1000
EPSON Stylus C63 Series
1000
\\RD
1000

1070
     0
  0
LAYOUT
  5
1E
102
{ACAD_XDICTIONARY
360
5B4B
102
}
102
{ACAD_REACTORS
330
1A
102
}
330
1A
100
AcDbPlotSettings
  1

  2

  4

  6

 40
0.0
 41
0.0
 42
0.0
 43
0.0
 44
0.0
 45
0.0
 46
0.0
 47
0.0
 48
0.0
 49
0.0
140
0.0
141
0.0
142
1.0
143
1.0
 70
   688
 72
     0
 73
     0
 74
     5
  7
單色出圖.ctb
 75
    16
147
1.0
148
0.0
149
0.0
100
AcDbLayout
  1
配置1
 70
     1
 71
     1
 10
0.0
 20
0.0
 11
420.0
 21
297.0
 12
0.0
 22
0.0
 32
0.0
 14
1.000000000000000E+20
 24
1.000000000000000E+20
 34
1.000000000000000E+20
 15
-1.000000000000000E+20
 25
-1.000000000000000E+20
 35
-1.000000000000000E+20
146
0.0
 13
0.0
 23
0.0
 33
0.0
 16
1.0
 26
0.0
 36
0.0
 17
0.0
 27
1.0
 37
0.0
 76
     0
330
1B
  0
LAYOUT
  5
26
102
{ACAD_XDICTIONARY
360
5B4F
102
}
102
{ACAD_REACTORS
330
1A
102
}
330
1A
100
AcDbPlotSettings
  1

  2

  4

  6

 40
0.0
 41
0.0
 42
0.0
 43
0.0
 44
0.0
 45
0.0
 46
0.0
 47
0.0
 48
0.0
 49
0.0
140
0.0
141
0.0
142
1.0
143
1.0
 70
   688
 72
     0
 73
     0
 74
     5
  7
單色出圖.ctb
 75
    16
147
1.0
148
0.0
149
0.0
100
AcDbLayout
  1
配置2
 70
     1
 71
     2
 10
0.0
 20
0.0
 11
12.0
 21
9.0
 12
0.0
 22
0.0
 32
0.0
 14
0.0
 24
0.0
 34
0.0
 15
0.0
 25
0.0
 35
0.0
146
0.0
 13
0.0
 23
0.0
 33
0.0
 16
1.0
 26
0.0
 36
0.0
 17
0.0
 27
1.0
 37
0.0
 76
     0
330
23
  0
MLINESTYLE
  5
18
102
{ACAD_REACTORS
330
17
102
}
330
17
100
AcDbMlineStyle
  2
STANDARD
 70
     0
  3

 62
   256
 51
90.0
 52
90.0
 71
     2
 49
0.5
 62
   256
  6
BYLAYER
 49
-0.5
 62
   256
  6
BYLAYER
  0
ACDBPLACEHOLDER
  5
F
102
{ACAD_REACTORS
330
E
102
}
330
E
  0
TABLESTYLE
  5
11B
102
{ACAD_REACTORS
330
11A
102
}
330
11A
100
AcDbTableStyle
  3
Standard
 70
     0
 71
     0
 40
1.5
 41
1.5
280
     0
281
     0
  7
STANDARD
140
4.5
170
     2
 62
     0
 63
     7
283
     0
274
    -2
284
     1
 64
     0
275
    -2
285
     1
 65
     0
276
    -2
286
     1
 66
     0
277
    -2
287
     1
 67
     0
278
    -2
288
     1
 68
     0
279
    -2
289
     1
 69
     0
  7
STANDARD
140
6.0
170
     5
 62
     0
 63
     7
283
     0
274
    -2
284
     1
 64
     0
275
    -2
285
     1
 65
     0
276
    -2
286
     1
 66
     0
277
    -2
287
     1
 67
     0
278
    -2
288
     1
 68
     0
279
    -2
289
     1
 69
     0
  7
STANDARD
140
4.5
170
     5
 62
     0
 63
     7
283
     0
274
    -2
284
     1
 64
     0
275
    -2
285
     1
 65
     0
276
    -2
286
     1
 66
     0
277
    -2
287
     1
 67
     0
278
    -2
288
     1
 68
     0
279
    -2
289
     1
 69
     0
  0
DICTIONARYVAR
  5
138
102
{ACAD_REACTORS
330
94
102
}
330
94
100
DictionaryVariables
280
     0
  1
STANDARD
  0
DICTIONARYVAR
  5
96
102
{ACAD_REACTORS
330
94
102
}
330
94
100
DictionaryVariables
280
     0
  1
2
  0
DICTIONARYVAR
  5
95
102
{ACAD_REACTORS
330
94
102
}
330
94
100
DictionaryVariables
280
     0
  1
1
  0
DICTIONARYVAR
  5
1B44
102
{ACAD_REACTORS
330
94
102
}
330
94
100
DictionaryVariables
280
     0
  1

  0
DICTIONARY
  5
1B5
102
{ACAD_REACTORS
330
5B
102
}
330
5B
100
AcDbDictionary
281
     1
  0
DICTIONARY
  5
61
102
{ACAD_REACTORS
330
5B
102
}
330
5B
100
AcDbDictionary
281
     1
  0
XRECORD
  5
123
102
{ACAD_REACTORS
330
5B
102
}
330
5B
100
AcDbXrecord
280
     1
 90
-1023410169
  0
DICTIONARY
  5
398F
102
{ACAD_REACTORS
330
41
102
}
330
41
100
AcDbDictionary
281
     1
  3
DWGSETTINGS
350
3990
  3
TRANSSETTINGS
350
3993
  0
LAYER_INDEX
  5
3D29
102
{ACAD_REACTORS
330
3D28
102
}
330
3D28
100
AcDbIndex
 40
2456051.709618056
100
AcDbLayerIndex
  8
0
360
4783
 90
       67
  8
AM_VIS
360
4784
 90
        0
  8
AM_7
360
4785
 90
        3
  8
Defpoints
360
4786
 90
        0
  8
LOGO
360
4787
 90
       77
  8
AM_4
360
4788
 90
        5
  8
AM_REFDIM
360
4789
 90
       10
  8
AM_HID
360
478A
 90
        0
  8
AM_5
360
478B
 90
        0
  0
DICTIONARY
  5
5B4D
330
22
100
AcDbDictionary
280
     1
281
     1
  3
ACAD_XREC_ROUNDTRIP
360
5B4E
  0
DICTIONARY
  5
5B4B
330
1E
100
AcDbDictionary
280
     1
281
     1
  3
ACAD_XREC_ROUNDTRIP
360
5B4C
  0
DICTIONARY
  5
5B4F
330
26
100
AcDbDictionary
280
     1
281
     1
  3
ACAD_XREC_ROUNDTRIP
360
5B50
  0
IDBUFFER
  5
4783
330
0
100
AcDbIdBuffer
330
1830
330
1831
330
1832
330
5749
330
574A
330
574B
330
574C
330
574D
330
574E
330
575F
330
5761
330
5765
330
576D
330
5770
330
5771
330
5772
330
5778
330
5779
330
577C
330
577E
330
5781
330
5782
330
5783
330
5787
330
5789
330
578A
330
5791
330
5793
330
5796
330
5797
330
5798
330
5799
330
579A
330
57A0
330
57A1
330
57A2
330
57A3
330
57A4
330
57A5
330
57A6
330
57A7
330
57AC
330
57B0
330
57B1
330
57B2
330
57B7
330
57B9
330
57BC
330
57BD
330
57C3
330
57C4
330
57CF
330
57D3
330
57DB
330
57DD
330
57E1
330
57E2
330
57E3
330
57E4
330
57E6
330
57E7
330
57E8
330
57EA
330
57EB
330
57EC
330
57F6
330
57F7
  0
IDBUFFER
  5
4784
330
0
100
AcDbIdBuffer
  0
IDBUFFER
  5
4785
330
0
100
AcDbIdBuffer
330
5829
330
582A
330
582B
  0
IDBUFFER
  5
4786
330
0
100
AcDbIdBuffer
  0
IDBUFFER
  5
4787
330
0
100
AcDbIdBuffer
330
179B
330
179C
330
179D
330
179E
330
179F
330
17A0
330
17A1
330
17A2
330
17A3
330
17A4
330
17A5
330
17A6
330
17A7
330
17A8
330
17A9
330
17AA
330
17AB
330
17AC
330
17AD
330
17AE
330
17AF
330
17B0
330
17B1
330
17B2
330
17B6
330
17BA
330
17BB
330
17BF
330
17C0
330
17C1
330
17C2
330
17C3
330
17C4
330
17C5
330
17C6
330
17CA
330
17CE
330
17D2
330
17D3
330
17D4
330
17D8
330
17D9
330
17DA
330
17DB
330
17DC
330
17DD
330
17DE
330
17DF
330
17E0
330
17E1
330
17E2
330
17E3
330
17E4
330
17E5
330
17E6
330
17E7
330
17E8
330
17E9
330
17EA
330
17EB
330
17EC
330
17ED
330
17EE
330
17EF
330
17F0
330
1824
330
1825
330
1826
330
1827
330
1828
330
1829
330
182A
330
182B
330
182C
330
182D
330
182E
330
182F
  0
IDBUFFER
  5
4788
330
0
100
AcDbIdBuffer
330
57F8
330
5823
330
5824
330
5825
330
5826
  0
IDBUFFER
  5
4789
330
0
100
AcDbIdBuffer
330
5B1B
330
5A15
330
583B
330
5865
330
588B
330
58B1
330
58DB
330
5901
330
5927
330
594D
  0
IDBUFFER
  5
478A
330
0
100
AcDbIdBuffer
  0
IDBUFFER
  5
478B
330
0
100
AcDbIdBuffer
  0
XRECORD
  5
5B4E
102
{ACAD_REACTORS
330
5B4D
102
}
330
5B4D
100
AcDbXrecord
280
     1
102
SHADEPLOT
 70
     0
102
SHADEPLOTRESLEVEL
 70
     2
102
SHADEPLOTCUSTOMDPI
 70
   300
  0
XRECORD
  5
5B4C
102
{ACAD_REACTORS
330
5B4B
102
}
330
5B4B
100
AcDbXrecord
280
     1
102
SHADEPLOT
 70
     0
102
SHADEPLOTRESLEVEL
 70
     2
102
SHADEPLOTCUSTOMDPI
 70
   300
  0
XRECORD
  5
5B50
102
{ACAD_REACTORS
330
5B4F
102
}
330
5B4F
100
AcDbXrecord
280
     1
102
SHADEPLOT
 70
     0
102
SHADEPLOTRESLEVEL
 70
     2
102
SHADEPLOTCUSTOMDPI
 70
   300
  0
ENDSEC
  0
EOF
