  0
SECTION
  2
HEADER
  9
$ACADVER
  1
AC1015
  9
$ACADMAINTVER
 70
    20
  9
$DWGCODEPAGE
  3
ANSI_950
  9
$INSBASE
 10
0.0
 20
0.0
 30
0.0
  9
$EXTMIN
 10
392.8626118148323
 20
242.5571589878776
 30
0.0
  9
$EXTMAX
 10
515.7847583909133
 20
361.5014508973797
 30
66.05309378306509
  9
$LIMMIN
 10
0.0
 20
0.0
  9
$LIMMAX
 10
420.0
 20
297.0
  9
$ORTHOMODE
 70
     0
  9
$REGENMODE
 70
     1
  9
$FILLMODE
 70
     1
  9
$QTEXTMODE
 70
     0
  9
$MIRRTEXT
 70
     1
  9
$LTSCALE
 40
1.0
  9
$ATTMODE
 70
     1
  9
$TEXTSIZE
 40
3.0
  9
$TRACEWID
 40
1.0
  9
$TEXTSTYLE
  7
STANDARD
  9
$CLAYER
  8
AM_REFDIM
  9
$CELTYPE
  6
ByLayer
  9
$CECOLOR
 62
   256
  9
$CELTSCALE
 40
1.0
  9
$DISPSILH
 70
     0
  9
$DIMSCALE
 40
1.5
  9
$DIMASZ
 40
3.0
  9
$DIMEXO
 40
1.0
  9
$DIMDLI
 40
8.0
  9
$DIMRND
 40
0.0
  9
$DIMDLE
 40
0.0
  9
$DIMEXE
 40
1.0
  9
$DIMTP
 40
0.1
  9
$DIMTM
 40
0.1
  9
$DIMTXT
 40
3.5
  9
$DIMCEN
 40
0.0
  9
$DIMTSZ
 40
0.0
  9
$DIMTOL
 70
     0
  9
$DIMLIM
 70
     0
  9
$DIMTIH
 70
     0
  9
$DIMTOH
 70
     0
  9
$DIMSE1
 70
     0
  9
$DIMSE2
 70
     0
  9
$DIMTAD
 70
     1
  9
$DIMZIN
 70
     8
  9
$DIMBLK
  1

  9
$DIMASO
 70
     1
  9
$DIMSHO
 70
     1
  9
$DIMPOST
  1

  9
$DIMAPOST
  1
"
  9
$DIMALT
 70
     0
  9
$DIMALTD
 70
     2
  9
$DIMALTF
 40
0.0393701
  9
$DIMLFAC
 40
1.0
  9
$DIMTOFL
 70
     1
  9
$DIMTVP
 40
0.0
  9
$DIMTIX
 70
     0
  9
$DIMSOXD
 70
     0
  9
$DIMSAH
 70
     0
  9
$DIMBLK1
  1

  9
$DIMBLK2
  1

  9
$DIMSTYLE
  2
AM_ISO
  9
$DIMCLRD
 70
   256
  9
$DIMCLRE
 70
   256
  9
$DIMCLRT
 70
   256
  9
$DIMTFAC
 40
0.6
  9
$DIMGAP
 40
1.0
  9
$DIMJUST
 70
     0
  9
$DIMSD1
 70
     0
  9
$DIMSD2
 70
     0
  9
$DIMTOLJ
 70
     0
  9
$DIMTZIN
 70
     8
  9
$DIMALTZ
 70
     0
  9
$DIMALTTZ
 70
     0
  9
$DIMUPT
 70
     0
  9
$DIMDEC
 70
     0
  9
$DIMTDEC
 70
     8
  9
$DIMALTU
 70
     2
  9
$DIMALTTD
 70
     2
  9
$DIMTXSTY
  7
STANDARD
  9
$DIMAUNIT
 70
     0
  9
$DIMADEC
 70
     0
  9
$DIMALTRND
 40
0.0
  9
$DIMAZIN
 70
     2
  9
$DIMDSEP
 70
    46
  9
$DIMATFIT
 70
     3
  9
$DIMFRAC
 70
     0
  9
$DIMLDRBLK
  1

  9
$DIMLUNIT
 70
     2
  9
$DIMLWD
 70
    -1
  9
$DIMLWE
 70
    -1
  9
$DIMTMOVE
 70
     0
  9
$LUNITS
 70
     2
  9
$LUPREC
 70
     2
  9
$SKETCHINC
 40
1.0
  9
$FILLETRAD
 40
3.75
  9
$AUNITS
 70
     0
  9
$AUPREC
 70
     0
  9
$MENU
  1
.
  9
$ELEVATION
 40
0.0
  9
$PELEVATION
 40
0.0
  9
$THICKNESS
 40
0.0
  9
$LIMCHECK
 70
     0
  9
$CHAMFERA
 40
3.75
  9
$CHAMFERB
 40
3.75
  9
$CHAMFERC
 40
20.0
  9
$CHAMFERD
 40
0.0
  9
$SKPOLY
 70
     0
  9
$TDCREATE
 40
2454392.703168762
  9
$TDUCREATE
 40
2454392.369835428
  9
$TDUPDATE
 40
2456051.706286887
  9
$TDUUPDATE
 40
2456051.372953553
  9
$TDINDWG
 40
0.1764678472
  9
$TDUSRTIMER
 40
0.1764676620
  9
$USRTIMER
 70
     1
  9
$ANGBASE
 50
0.0
  9
$ANGDIR
 70
     0
  9
$PDMODE
 70
     0
  9
$PDSIZE
 40
0.0
  9
$PLINEWID
 40
0.0
  9
$SPLFRAME
 70
     0
  9
$SPLINETYPE
 70
     6
  9
$SPLINESEGS
 70
     8
  9
$HANDSEED
  5
56D7
  9
$SURFTAB1
 70
     6
  9
$SURFTAB2
 70
     6
  9
$SURFTYPE
 70
     6
  9
$SURFU
 70
     6
  9
$SURFV
 70
     6
  9
$UCSBASE
  2

  9
$UCSNAME
  2

  9
$UCSORG
 10
0.0
 20
0.0
 30
0.0
  9
$UCSXDIR
 10
1.0
 20
0.0
 30
0.0
  9
$UCSYDIR
 10
0.0
 20
1.0
 30
0.0
  9
$UCSORTHOREF
  2

  9
$UCSORTHOVIEW
 70
     0
  9
$UCSORGTOP
 10
0.0
 20
0.0
 30
0.0
  9
$UCSORGBOTTOM
 10
0.0
 20
0.0
 30
0.0
  9
$UCSORGLEFT
 10
0.0
 20
0.0
 30
0.0
  9
$UCSORGRIGHT
 10
0.0
 20
0.0
 30
0.0
  9
$UCSORGFRONT
 10
0.0
 20
0.0
 30
0.0
  9
$UCSORGBACK
 10
0.0
 20
0.0
 30
0.0
  9
$PUCSBASE
  2

  9
$PUCSNAME
  2

  9
$PUCSORG
 10
0.0
 20
0.0
 30
0.0
  9
$PUCSXDIR
 10
1.0
 20
0.0
 30
0.0
  9
$PUCSYDIR
 10
0.0
 20
1.0
 30
0.0
  9
$PUCSORTHOREF
  2

  9
$PUCSORTHOVIEW
 70
     0
  9
$PUCSORGTOP
 10
0.0
 20
0.0
 30
0.0
  9
$PUCSORGBOTTOM
 10
0.0
 20
0.0
 30
0.0
  9
$PUCSORGLEFT
 10
0.0
 20
0.0
 30
0.0
  9
$PUCSORGRIGHT
 10
0.0
 20
0.0
 30
0.0
  9
$PUCSORGFRONT
 10
0.0
 20
0.0
 30
0.0
  9
$PUCSORGBACK
 10
0.0
 20
0.0
 30
0.0
  9
$USERI1
 70
     0
  9
$USERI2
 70
     0
  9
$USERI3
 70
     0
  9
$USERI4
 70
     0
  9
$USERI5
 70
     0
  9
$USERR1
 40
0.0
  9
$USERR2
 40
0.0
  9
$USERR3
 40
0.0
  9
$USERR4
 40
0.0
  9
$USERR5
 40
0.0
  9
$WORLDVIEW
 70
     1
  9
$SHADEDGE
 70
     3
  9
$SHADEDIF
 70
    70
  9
$TILEMODE
 70
     1
  9
$MAXACTVP
 70
    64
  9
$PINSBASE
 10
0.0
 20
0.0
 30
0.0
  9
$PLIMCHECK
 70
     0
  9
$PEXTMIN
 10
1.000000000000000E+20
 20
1.000000000000000E+20
 30
1.000000000000000E+20
  9
$PEXTMAX
 10
-1.000000000000000E+20
 20
-1.000000000000000E+20
 30
-1.000000000000000E+20
  9
$PLIMMIN
 10
0.0
 20
0.0
  9
$PLIMMAX
 10
420.0
 20
297.0
  9
$UNITMODE
 70
     0
  9
$VISRETAIN
 70
     1
  9
$PLINEGEN
 70
     0
  9
$PSLTSCALE
 70
     1
  9
$TREEDEPTH
 70
  3020
  9
$CMLSTYLE
  2
Standard
  9
$CMLJUST
 70
     0
  9
$CMLSCALE
 40
20.0
  9
$PROXYGRAPHICS
 70
     1
  9
$MEASUREMENT
 70
     1
  9
$CELWEIGHT
370
    -1
  9
$ENDCAPS
280
     0
  9
$JOINSTYLE
280
     0
  9
$LWDISPLAY
290
     0
  9
$INSUNITS
 70
     4
  9
$HYPERLINKBASE
  1

  9
$STYLESHEET
  1
acad.ctb
  9
$XEDIT
290
     1
  9
$CEPSNTYPE
380
     0
  9
$PSTYLEMODE
290
     1
  9
$FINGERPRINTGUID
  2
{00E4BF2B-312E-4E1D-8C5C-0EEC0927E19E}
  9
$VERSIONGUID
  2
{792F3437-91B3-4AB4-818E-D07FFDB6C95F}
  9
$EXTNAMES
290
     1
  9
$PSVPSCALE
 40
0.0
  9
$OLESTARTUP
290
     0
  0
ENDSEC
  0
SECTION
  2
CLASSES
  0
CLASS
  1
ACDBDICTIONARYWDFLT
  2
AcDbDictionaryWithDefault
  3
ObjectDBX Classes
 90
        0
280
     0
281
     0
  0
CLASS
  1
ACDBPLACEHOLDER
  2
AcDbPlaceHolder
  3
ObjectDBX Classes
 90
        0
280
     0
281
     0
  0
CLASS
  1
LAYOUT
  2
AcDbLayout
  3
ObjectDBX Classes
 90
        0
280
     0
281
     0
  0
CLASS
  1
ACME_DOCUMENT
  2
AcMeDbDoc
  3
AcMeServices
 90
        0
280
     0
281
     0
  0
CLASS
  1
AMGSETTINGSOBJ
  2
AmgSettingsObj
  3
"AcadM|Product Description: AutoCAD Mechanical 2000|Company: Autodesk"
 90
        0
280
     0
281
     0
  0
CLASS
  1
ACMESCOPE
  2
AcMeScope
  3
AcMeServices
 90
        0
280
     0
281
     0
  0
CLASS
  1
ACMECOMMANDHISTORY
  2
AcMeCommandHistory
  3
AcMeServices
 90
        0
280
     0
281
     0
  0
CLASS
  1
ACIMSYSVARMAN
  2
AcImSysVarManager
  3
AcMeServices
 90
        0
280
     0
281
     0
  0
CLASS
  1
ACIMREALSYSVAR
  2
AcImRealSysVar
  3
AcMeServices
 90
        0
280
     0
281
     0
  0
CLASS
  1
ACIMINTSYSVAR
  2
AcImIntSysVar
  3
AcMeServices
 90
        0
280
     0
281
     0
  0
CLASS
  1
ACMEDRAWINGMAN
  2
AcMeDrawingMan
  3
AcMeServices
 90
        0
280
     0
281
     0
  0
CLASS
  1
ACMEVIEW
  2
AcMeView
  3
AcMeServices
 90
        0
280
     0
281
     0
  0
CLASS
  1
ACDBENTITYCACHE
  2
AcMeEntityCache
  3
AcMeServices
 90
        0
280
     0
281
     0
  0
CLASS
  1
GSMANAGER
  2
AcMeGSManager
  3
AcMeServices
 90
        0
280
     0
281
     0
  0
CLASS
  1
AMDTINTERNALREACTOR
  2
AmdtInternalReactor
  3
AcMeServices
 90
        0
280
     0
281
     0
  0
CLASS
  1
ACMESTATEMGR
  2
AcMeStateMgr
  3
AcMeServices
 90
        0
280
     0
281
     0
  0
CLASS
  1
ACGREFMASTER
  2
AcGrefMaster
  3
AcAttribServices
 90
        0
280
     0
281
     0
  0
CLASS
  1
ACME_DATABASE
  2
AcMeDbDatabase
  3
AcMeServices
 90
        0
280
     0
281
     0
  0
CLASS
  1
ACRFINSADJUSTERMGR
  2
AcRfInsAdjusterMgr
  3
AcMeServices
 90
        0
280
     0
281
     0
  0
CLASS
  1
ACGREFACADMASTER
  2
AcGrefacadMaster
  3
AcGrefServices
 90
        0
280
     0
281
     0
  0
CLASS
  1
AMIMASTER
  2
AmiMaster
  3
AmiServices
 90
        0
280
     0
281
     0
  0
CLASS
  1
ACMDATADICTIONARY
  2
AcmDataDictionary
  3
"AcmSymBB|Product Description: AutoCAD Mechanical 2004 DX|Company: Autodesk"
 90
        0
280
     0
281
     0
  0
CLASS
  1
ACMDATAENTRYBLOCK
  2
AcmDataEntryBlock
  3
"AcmSymBB|Product Description: AutoCAD Mechanical 2004 DX|Company: Autodesk"
 90
        0
280
     0
281
     0
  0
CLASS
  1
ACIMSTRSYSVAR
  2
AcImStrSysVar
  3
AcMeServices
 90
        0
280
     0
281
     0
  0
CLASS
  1
ACMSTANDARDISO
  2
AcmStandardISO
  3
"Amdt_StdImp|Product Description: AutoCAD Mechanical 2004 DX|Company: Autodesk"
 90
        0
280
     0
281
     0
  0
CLASS
  1
AMGOBJPROPCFG
  2
AmgObjPropCfg
  3
"AmgLay|Product Description: AutoCAD Mechanical 2000|Company: Autodesk"
 90
        1
280
     0
281
     0
  0
CLASS
  1
AMDTEDGESTANDARDISO
  2
AmdtEdgeStdISO
  3
"Amdt_StdImp|Product Description: AutoCAD Mechanical 2004 DX|Company: Autodesk"
 90
    32768
280
     0
281
     0
  0
CLASS
  1
ACMSURFSTANDARDISO
  2
AcmSurfTextStdISO
  3
"Amdt_StdImp|Product Description: AutoCAD Mechanical 2004 DX|Company: Autodesk"
 90
        0
280
     0
281
     0
  0
CLASS
  1
ACMFCFSTANDARDISO
  2
AcmFCFStdISO
  3
"Amdt_StdImp|Product Description: AutoCAD Mechanical 2004 DX|Company: Autodesk"
 90
        0
280
     0
281
     0
  0
CLASS
  1
ACMWELDSTANDARDISO
  2
AcmWeldingStdISO
  3
"Amdt_StdImp|Product Description: AutoCAD Mechanical 2004 DX|Company: Autodesk"
 90
        0
280
     0
281
     0
  0
CLASS
  1
ACMIDSTANDARDISO
  2
AcmIdStdISO
  3
"Amdt_StdImp|Product Description: AutoCAD Mechanical 2004 DX|Company: Autodesk"
 90
        0
280
     0
281
     0
  0
CLASS
  1
ACMDATUMSTANDARDISO
  2
AcmDatumStdISO
  3
"Amdt_StdImp|Product Description: AutoCAD Mechanical 2004 DX|Company: Autodesk"
 90
        0
280
     0
281
     0
  0
CLASS
  1
ACMBOMSTANDARDISO
  2
AcmBOMStdISO
  3
"Amdt_StdImp|Product Description: AutoCAD Mechanical 2004 DX|Company: Autodesk"
 90
        0
280
     0
281
     0
  0
CLASS
  1
ACMDETAILSTANDARDISO
  2
AmdtDetailSymStdISO
  3
"Amdt_StdImp|Product Description: AutoCAD Mechanical 2004 DX|Company: Autodesk"
 90
        0
280
     0
281
     0
  0
CLASS
  1
ACMSECTIONSTANDARDISO
  2
AmdtSectionSymStdISO
  3
"Amdt_StdImp|Product Description: AutoCAD Mechanical 2004 DX|Company: Autodesk"
 90
        0
280
     0
281
     0
  0
CLASS
  1
ACMCENTERLINESTANDARDISO
  2
AmdtCenterLineStdISO
  3
"Amdt_StdImp|Product Description: AutoCAD Mechanical 2004 DX|Company: Autodesk"
 90
        0
280
     0
281
     0
  0
CLASS
  1
ACMNOTESTANDARDISO
  2
AmdtNoteStdISO
  3
"Amdt_StdImp|Product Description: AutoCAD Mechanical 2004 DX|Company: Autodesk"
 90
        0
280
     0
281
     0
  0
CLASS
  1
ACAMGLAYSTD
  2
AcAmgLayStd
  3
"AcAmgLayStd|Product Description: AutoCAD Mechanical 2000|Company: Autodesk"
 90
        0
280
     0
281
     0
  0
CLASS
  1
ACAMGDIMSTD
  2
AcAmgDimStd
  3
"AcAmgDimStd|Product Description: AutoCAD Mechanical 2000|Company: Autodesk"
 90
        0
280
     0
281
     0
  0
CLASS
  1
ACAMGHOLECHARTSTDISO
  2
AcAmgHoleChartStdISO
  3
ACMSYMBB_MODULE_NAME
 90
        0
280
     0
281
     0
  0
CLASS
  1
ACAMGTITLESTD
  2
AcAmgTitleStd
  3
"TITLEAPP"
 90
        0
280
     0
281
     0
  0
CLASS
  1
LAYER_INDEX
  2
AcDbLayerIndex
  3
ObjectDBX Classes
 90
        0
280
     0
281
     0
  0
CLASS
  1
IDBUFFER
  2
AcDbIdBuffer
  3
ObjectDBX Classes
 90
        0
280
     0
281
     0
  0
CLASS
  1
DICTIONARYVAR
  2
AcDbDictionaryVar
  3
ObjectDBX Classes
 90
        0
280
     0
281
     0
  0
CLASS
  1
AM_DRAWING_MGR
  2
AcDmDwgMgr
  3
AcMechDwgViewMgmt
 90
        0
280
     0
281
     0
  0
CLASS
  1
AM_DWG_DOCUMENT
  2
AcDmDwgDocument
  3
AcMechDwgViewMgmt
 90
        0
280
     0
281
     0
  0
CLASS
  1
AM_DWG_SHEET
  2
AcDmSheet
  3
AcMechDwgViewMgmt
 90
        0
280
     0
281
     0
  0
CLASS
  1
AM_VIEWDIMPARMAP
  2
AcDmViewDimParMap
  3
AcMechDwgViewMgmt
 90
        0
280
     0
281
     0
  0
CLASS
  1
AM_DWGMGR_NAME
  2
AcDmDwgMgrName
  3
AcMechDwgViewMgmt
 90
        0
280
     0
281
     0
  0
CLASS
  1
AMDTMENUSTATEMGR
  2
AmdtMenuStateMgr
  3
McadcomServices
 90
        0
280
     0
281
     0
  0
CLASS
  1
AMDTMCOMMENUSTATE
  2
AmdtMcomMenuState
  3
McadcomServices
 90
        0
280
     0
281
     0
  0
CLASS
  1
MAPIAMMOUDLE
  2
MApiAmModule
  3
MApiAmServices
 90
        0
280
     0
281
     0
  0
CLASS
  1
AMDTADMENUSTATE
  2
AmdtAdMenuState
  3
DesignerServices
 90
        0
280
     0
281
     0
  0
CLASS
  1
ADAPPL
  2
AcAdAppl
  3
DesignerServices
 90
        0
280
     0
281
     0
  0
CLASS
  1
DEPMGR
  2
AcAdDepMgr
  3
DesignerServices
 90
        0
280
     0
281
     0
  0
CLASS
  1
PARAMMGR
  2
AcAdParamMgr
  3
DesignerServices
 90
        0
280
     0
281
     0
  0
CLASS
  1
PARAMSCOPE
  2
AcAdParamScope
  3
DesignerServices
 90
        0
280
     0
281
     0
  0
CLASS
  1
NAMEDAPPL
  2
AcAdNamedAppl
  3
DesignerServices
 90
        0
280
     0
281
     0
  0
CLASS
  1
AMDTDMMENUSTATE
  2
AmdtDmMenuState
  3
AcMechDwgViewMgmt
 90
        0
280
     0
281
     0
  0
CLASS
  1
AMDTAMMENUSTATE
  2
AmdtAmMenuState
  3
DesignerAssemblies
 90
        0
280
     0
281
     0
  0
CLASS
  1
ACAMPROJECT
  2
AcAmProject
  3
DesignerAssemblies
 90
        0
280
     0
281
     0
  0
CLASS
  1
ACAMGRCOMPDEF
  2
AcAmGrCompDef
  3
DesignerAssemblies
 90
        0
280
     0
281
     0
  0
CLASS
  1
ACCMCONTEXT
  2
AcCmContext
  3
DesignerAssemblies
 90
        0
280
     0
281
     0
  0
CLASS
  1
ACAMCOMPDEF
  2
AcAmCompDef
  3
DesignerAssemblies
 90
        0
280
     0
281
     0
  0
CLASS
  1
ACAMCOMPDEFMGR
  2
AcAmCompDefMgr
  3
DesignerAssemblies
 90
        0
280
     0
281
     0
  0
CLASS
  1
AMCONTEXTMGR
  2
AcAmContextMgr
  3
DesignerAssemblies
 90
        0
280
     0
281
     0
  0
CLASS
  1
ACAMCONTEXTMODELER
  2
AcAmContextModeler
  3
DesignerAssemblies
 90
        0
280
     0
281
     0
  0
CLASS
  1
ACMTHREADLINESTANDARDISO
  2
AmdtThreadLineStdISO
  3
"Amdt_StdImp|Product Description: AutoCAD Mechanical 2004 DX|Company: Autodesk"
 90
        0
280
     0
281
     0
  0
CLASS
  1
CATALOGSTATE
  2
AcAmCatalogState
  3
DesignerAssemblies
 90
        0
280
     0
281
     0
  0
CLASS
  1
ACAMGRCOMPDEFSET
  2
AcAmGrCompDefSet
  3
DesignerAssemblies
 90
        0
280
     0
281
     0
  0
CLASS
  1
AMDTBROWSERDBTAB
  2
AmdtBrowserDbTab
  3
McadcomServices
 90
        0
280
     0
281
     0
  0
CLASS
  1
CBROWSERAPPOBJECT
  2
CBrowserAppObject
  3
McadcomServices
 90
        0
280
     0
281
     0
  0
CLASS
  1
DM_PLACEHOLDER
  2
AcDmSelsetPlaceholder
  3
AcMechDwgViewMgmt
 90
        0
280
     0
281
     0
  0
CLASS
  1
TABLESTYLE
  2
AcDbTableStyle
  3
ObjectDBX Classes
 90
     2047
280
     0
281
     0
  0
CLASS
  1
VAACXREFPANELOBJECT
  2
VaAcXREFPanelObject
  3
VAAC_ADDIN
 90
    32768
280
     0
281
     0
  0
CLASS
  1
VAACIMAGEINVENTORY
  2
VaAcImageInventory
  3
VAAC_ADDIN
 90
    32768
280
     0
281
     0
  0
CLASS
  1
AMDTNOTETEMPLATEDB
  2
AmdtNoteTemplateDB
  3
AMDT_STDIMP_MODULE_NAME
 90
        0
280
     0
281
     0
  0
CLASS
  1
ACMBOM
  2
AcmBom
  3
"AcmSymBB|Product Description: AutoCAD Mechanical 2004 DX|Company: Autodesk"
 90
    32768
280
     0
281
     0
  0
CLASS
  1
AMDTFORMULAUPDATEDISPATCHER
  2
AmdtFormulaUpdateDispatcher
  3
AcMeServices
 90
    32768
280
     0
281
     0
  0
CLASS
  1
ACMPARTLIST
  2
AcmPartList
  3
"AcmSymBB|Product Description: AutoCAD Mechanical 2004 DX|Company: Autodesk"
 90
    33791
280
     0
281
     1
  0
CLASS
  1
ACAMGFILTERDAT
  2
AcAmgFilterDat
  3
"AcadM|Product Description: AutoCAD Mechanical 2000|Company: Autodesk"
 90
    32768
280
     0
281
     0
  0
CLASS
  1
DIMASSOC
  2
AcDbDimAssoc
  3
"AcDbDimAssoc|Product Desc:     AcDim ARX App For Dimension|Company:          Autodesk, Inc.|WEB Address:      www.autodesk.com"
 90
        0
280
     0
281
     0
  0
CLASS
  1
AMDTNOTE
  2
AmdtNote
  3
"AcmSymBB|Product Description: AutoCAD Mechanical 2004 DX|Company: Autodesk"
 90
    33791
280
     0
281
     1
  0
CLASS
  1
AMDTEDGESTANDARDISO13715
  2
AmdtEdgeStdISO13715
  3
"Amdt_StdImp|Product Description: AutoCAD Mechanical 2004 DX|Company: Autodesk"
 90
        0
280
     0
281
     0
  0
CLASS
  1
ACRFATTGENMGR
  2
AcRfAttGeneralMgr
  3
AcAttribServices
 90
    32768
280
     0
281
     0
  0
CLASS
  1
ASAPP
  2
AcAsAppObject
  3
AutoSurfServices
 90
        0
280
     0
281
     0
  0
CLASS
  1
IM_STATIC_MAN
  2
AcImStaticVarManager
  3
AcMeServices
 90
        0
280
     0
281
     0
  0
CLASS
  1
ACIMDBLSTATICVAR
  2
AcImDblStaticVar
  3
AcMeServices
 90
        0
280
     0
281
     0
  0
CLASS
  1
ACIMSTRSTATICVAR
  2
AcImStrStaticVar
  3
AcMeServices
 90
        0
280
     0
281
     0
  0
CLASS
  1
ACIMINTSTATICVAR
  2
AcImIntStaticVar
  3
AcMeServices
 90
        0
280
     0
281
     0
  0
CLASS
  1
ACASGREFMASTER
  2
AcAsGrefMaster
  3
AutoSurfResolverServices
 90
        0
280
     0
281
     0
  0
CLASS
  1
ACADGREFMODULE
  2
AcAdGrefModule
  3
AdGrefServices
 90
        0
280
     0
281
     0
  0
CLASS
  1
AMDTMAPISURFMOUDULE
  2
AmdtMApiSurfModule
  3
MApiSurfServices
 90
        0
280
     0
281
     0
  0
CLASS
  1
MAPIADMODULE
  2
MApiAdModule
  3
MApiAdServices
 90
        0
280
     0
281
     0
  0
ENDSEC
  0
SECTION
  2
TABLES
  0
TABLE
  2
VPORT
  5
8
330
0
100
AcDbSymbolTable
 70
    24
  0
VPORT
  5
56CE
330
8
100
AcDbSymbolTableRecord
100
AcDbViewportTableRecord
  2
*Active
 70
     0
 10
0.0
 20
0.0
 11
1.0
 21
1.0
 12
-33.36056761614779
 22
13.98203254369645
 13
0.0
 23
0.0
 14
3.75
 24
3.75
 15
15.0
 25
15.0
 16
0.0
 26
0.0
 36
1.0
 17
475.2465220475392
 27
286.8869866440797
 37
0.0
 40
142.4316738499835
 41
1.295739348370927
 42
50.0
 43
0.0
 44
0.0
 50
0.0
 51
0.0
 71
     0
 72
  1000
 73
     1
 74
     3
 75
     0
 76
     0
 77
     0
 78
     0
281
     0
 65
     0
110
0.0
120
0.0
130
0.0
111
1.0
121
0.0
131
0.0
112
0.0
122
1.0
132
0.0
 79
     0
146
0.0
  0
ENDTAB
  0
TABLE
  2
LTYPE
  5
5
330
0
100
AcDbSymbolTable
 70
    17
  0
LTYPE
  5
14
330
5
100
AcDbSymbolTableRecord
100
AcDbLinetypeTableRecord
  2
ByBlock
 70
     0
  3

 72
    65
 73
     0
 40
0.0
  0
LTYPE
  5
15
330
5
100
AcDbSymbolTableRecord
100
AcDbLinetypeTableRecord
  2
ByLayer
 70
     0
  3

 72
    65
 73
     0
 40
0.0
  0
LTYPE
  5
16
330
5
100
AcDbSymbolTableRecord
100
AcDbLinetypeTableRecord
  2
Continuous
 70
     0
  3
Solid line
 72
    65
 73
     0
 40
0.0
  0
LTYPE
  5
64
330
5
100
AcDbSymbolTableRecord
100
AcDbLinetypeTableRecord
  2
AM_ISO02W050
 70
     0
  3
__ __ __ __ __ __ __ __ __ __ __ __ __ __ __
 72
    65
 73
     2
 40
7.5
 49
6.0
 74
     0
 49
-1.5
 74
     0
  0
LTYPE
  5
65
330
5
100
AcDbSymbolTableRecord
100
AcDbLinetypeTableRecord
  2
AM_ISO08W050
 70
     0
  3
____ . ____ . ____ . ____ . ____ . ____ . ____
 72
    65
 73
     4
 40
18.0
 49
12.0
 74
     0
 49
-1.5
 74
     0
 49
3.0
 74
     0
 49
-1.5
 74
     0
  0
LTYPE
  5
66
330
5
100
AcDbSymbolTableRecord
100
AcDbLinetypeTableRecord
  2
AM_ISO09W050
 70
     0
  3
_____ . . _____ . . _____ . . ____ .. ____
 72
    65
 73
     6
 40
22.5
 49
12.0
 74
     0
 49
-1.5
 74
     0
 49
3.0
 74
     0
 49
-1.5
 74
     0
 49
3.0
 74
     0
 49
-1.5
 74
     0
  0
LTYPE
  5
67
330
5
100
AcDbSymbolTableRecord
100
AcDbLinetypeTableRecord
  2
Amconstr
 70
     0
  3
_______________________
 72
    65
 73
     2
 40
9999.0
 49
9999.0
 74
     0
 49
0.0
 74
     0
  0
LTYPE
  5
68
330
5
100
AcDbSymbolTableRecord
100
AcDbLinetypeTableRecord
  2
AM_ISO08W050x2
 70
     0
  3
__ . __ . __ . __ . __ . __
 72
    65
 73
     4
 40
9.0
 49
6.0
 74
     0
 49
-0.75
 74
     0
 49
1.5
 74
     0
 49
-0.75
 74
     0
  0
LTYPE
  5
69
330
5
100
AcDbSymbolTableRecord
100
AcDbLinetypeTableRecord
  2
AM_ISO02W050x2
 70
     0
  3
 _ _ _ _ _ _ _ _ _ _ _ _
 72
    65
 73
     2
 40
3.75
 49
3.0
 74
     0
 49
-0.75
 74
     0
  0
LTYPE
  5
6C
330
5
100
AcDbSymbolTableRecord
100
AcDbLinetypeTableRecord
  2
Amzigzag
 70
     0
  3
/\/-/\/-/\/-/\/-/\/-/\/
 72
    65
 73
     2
 40
11.0001
 49
0.0001
 74
     4
 75
   135
340
6B
 46
0.04
 50
0.0
 44
0.0
 45
0.0
 49
-11.0
 74
     0
  0
LTYPE
  5
7A
330
5
100
AcDbSymbolTableRecord
100
AcDbLinetypeTableRecord
  2
ACISOWELD
 70
     0
  3
_ _ _ _ _
 72
    65
 73
     2
 40
2.0
 49
2.0
 74
     0
 49
-1.0
 74
     0
  0
LTYPE
  5
7B
330
5
100
AcDbSymbolTableRecord
100
AcDbLinetypeTableRecord
  2
ACISOTGB
 70
     0
  3
__ . . __ . .
 72
    65
 73
     6
 40
9.0
 49
4.0
 74
     0
 49
-1.0
 74
     0
 49
1.0
 74
     0
 49
-1.0
 74
     0
 49
1.0
 74
     0
 49
-1.0
 74
     0
  0
LTYPE
  5
7C
330
5
100
AcDbSymbolTableRecord
100
AcDbLinetypeTableRecord
  2
ACISOTGL
 70
     0
  3
_ _ _ _ _
 72
    65
 73
     2
 40
3.0
 49
2.0
 74
     0
 49
-1.0
 74
     0
  0
LTYPE
  5
7E
330
5
100
AcDbSymbolTableRecord
100
AcDbLinetypeTableRecord
  2
CENTER
 70
     0
  3
__ . __
 72
    65
 73
     4
 40
7.0
 49
4.0
 74
     0
 49
-1.0
 74
     0
 49
1.0
 74
     0
 49
-1.0
 74
     0
  0
LTYPE
  5
D8
330
5
100
AcDbSymbolTableRecord
100
AcDbLinetypeTableRecord
  2
HIDDEN
 70
     0
  3
Hidden __ __ __ __ __ __ __ __ __ __ __ __ __ _
 72
    65
 73
     2
 40
9.524999999999998
 49
6.349999999999999
 74
     0
 49
-3.174999999999999
 74
     0
  0
LTYPE
  5
D9
330
5
100
AcDbSymbolTableRecord
100
AcDbLinetypeTableRecord
  2
PHANTOM2
 70
     0
  3
Phantom (.5x) ___ _ _ ___ _ _ ___ _ _ ___ _ _
 72
    65
 73
     6
 40
31.75
 49
15.875
 74
     0
 49
-3.174999999999999
 74
     0
 49
3.174999999999999
 74
     0
 49
-3.174999999999999
 74
     0
 49
3.174999999999999
 74
     0
 49
-3.174999999999999
 74
     0
  0
LTYPE
  5
3AFB
330
5
100
AcDbSymbolTableRecord
100
AcDbLinetypeTableRecord
  2
HIDDEN2
 70
     0
  3
Hidden (.5x) _ _ _ _ _ _ _ _ _ _ _ _ _ _ _ _ _
 72
    65
 73
     2
 40
0.1875
 49
0.125
 74
     0
 49
-0.0625
 74
     0
  0
LTYPE
  5
3D45
330
5
100
AcDbSymbolTableRecord
100
AcDbLinetypeTableRecord
  2
ASULTYPE
 70
     0
  3
實線
 72
    65
 73
     2
 40
3.0
 49
2.5
 74
     0
 49
0.5
 74
     0
  0
LTYPE
  5
3D46
330
5
100
AcDbSymbolTableRecord
100
AcDbLinetypeTableRecord
  2
ASVLTYPE
 70
     0
  3
__ __ __ __ __ __ __ __ __ __ __ __ __ __ __ __ __ __ __ __ __
 72
    65
 73
     2
 40
0.75
 49
0.5
 74
     0
 49
-0.25
 74
     0
  0
ENDTAB
  0
TABLE
  2
LAYER
  5
2
102
{ACAD_XDICTIONARY
360
3F9
102
}
330
0
100
AcDbSymbolTable
 70
     9
  0
LAYER
  5
10
330
2
100
AcDbSymbolTableRecord
100
AcDbLayerTableRecord
  2
0
 70
     0
 62
     7
  6
Continuous
370
    -3
390
F
  0
LAYER
  5
ACB
330
2
100
AcDbSymbolTableRecord
100
AcDbLayerTableRecord
  2
AM_VIS
 70
     0
 62
     7
  6
Continuous
370
    50
390
F
  0
LAYER
  5
ACC
330
2
100
AcDbSymbolTableRecord
100
AcDbLayerTableRecord
  2
AM_7
 70
     0
 62
     1
  6
AM_ISO08W050x2
370
    25
390
F
  0
LAYER
  5
13A4
330
2
100
AcDbSymbolTableRecord
100
AcDbLayerTableRecord
  2
Defpoints
 70
     0
 62
     7
  6
Continuous
290
     0
370
    -3
390
F
  0
LAYER
  5
16FA
330
2
100
AcDbSymbolTableRecord
100
AcDbLayerTableRecord
  2
LOGO
 70
     0
 62
     7
  6
Continuous
370
    -3
390
F
  0
LAYER
  5
3455
330
2
100
AcDbSymbolTableRecord
100
AcDbLayerTableRecord
  2
AM_4
 70
     0
 62
     3
  6
ASVLTYPE
370
    25
390
F
  0
LAYER
  5
3456
330
2
100
AcDbSymbolTableRecord
100
AcDbLayerTableRecord
  2
AM_REFDIM
 70
     0
 62
     5
  6
Continuous
370
    25
390
F
  0
LAYER
  5
3AFC
330
2
100
AcDbSymbolTableRecord
100
AcDbLayerTableRecord
  2
AM_HID
 70
     0
 62
     7
  6
AM_ISO02W050
370
    25
390
F
  0
LAYER
  5
3EFF
330
2
100
AcDbSymbolTableRecord
100
AcDbLayerTableRecord
  2
AM_5
 70
     0
 62
     3
  6
Continuous
370
    25
390
F
  0
ENDTAB
  0
TABLE
  2
STYLE
  5
3
330
0
100
AcDbSymbolTable
 70
     6
  0
STYLE
  5
11
330
3
100
AcDbSymbolTableRecord
100
AcDbTextStyleTableRecord
  2
STANDARD
 70
     0
 40
0.0
 41
1.0
 50
0.0
 71
     0
 42
3.0
  3
ISOCP.SHX
  4
CHINESET.SHX
  0
STYLE
  5
6B
330
3
100
AcDbSymbolTableRecord
100
AcDbTextStyleTableRecord
  2

 70
     1
 40
0.0
 41
1.0
 50
0.0
 71
     0
 42
2.5
  3
ltypeshp.shx
  4

  0
STYLE
  5
6D
330
3
100
AcDbSymbolTableRecord
100
AcDbTextStyleTableRecord
  2
ACISOTS
 70
     0
 40
1.0
 41
1.0
 50
0.0
 71
     0
 42
1.0
  3
isocp.shx
  4
chineset.shx
  0
STYLE
  5
79
330
3
100
AcDbSymbolTableRecord
100
AcDbTextStyleTableRecord
  2
ACISOGDT
 70
     0
 40
0.0
 41
1.0
 50
0.0
 71
     0
 42
2.5
  3
amgdt.shx
  4
chineset.shx
  0
STYLE
  5
16FB
330
3
100
AcDbSymbolTableRecord
100
AcDbTextStyleTableRecord
  2
CHINESET
 70
     0
 40
0.0
 41
1.0
 50
0.0
 71
     0
 42
3.0
  3
simplex.shx
  4
CHINESET.SHX
  0
STYLE
  5
3457
330
3
100
AcDbSymbolTableRecord
100
AcDbTextStyleTableRecord
  2
DAYUS
 70
     0
 40
0.0
 41
1.0
 50
0.0
 71
     0
 42
2.5
  3
simplex
  4
dayus
  0
ENDTAB
  0
TABLE
  2
VIEW
  5
6
330
0
100
AcDbSymbolTable
 70
     0
  0
ENDTAB
  0
TABLE
  2
UCS
  5
7
330
0
100
AcDbSymbolTable
 70
     0
  0
ENDTAB
  0
TABLE
  2
APPID
  5
9
330
0
100
AcDbSymbolTable
 70
    23
  0
APPID
  5
12
330
9
100
AcDbSymbolTableRecord
100
AcDbRegAppTableRecord
  2
ACAD
 70
     0
  0
APPID
  5
46
330
9
100
AcDbSymbolTableRecord
100
AcDbRegAppTableRecord
  2
MCAD_NO_VIS
 70
     0
  0
APPID
  5
47
330
9
100
AcDbSymbolTableRecord
100
AcDbRegAppTableRecord
  2
ACAD_TEMP_GRAPHIC
 70
     0
  0
APPID
  5
58
330
9
100
AcDbSymbolTableRecord
100
AcDbRegAppTableRecord
  2
ACATTRIBSERVICES
 70
     0
  0
APPID
  5
EE
330
9
100
AcDbSymbolTableRecord
100
AcDbRegAppTableRecord
  2
AD_DRAW
 70
     0
  0
APPID
  5
10C
330
9
100
AcDbSymbolTableRecord
100
AcDbRegAppTableRecord
  2
DESIGNERASSEMBLIES
 70
     0
  0
APPID
  5
111
330
9
100
AcDbSymbolTableRecord
100
AcDbRegAppTableRecord
  2
ACADM_DIM_EDIT
 70
     0
  0
APPID
  5
112
330
9
100
AcDbSymbolTableRecord
100
AcDbRegAppTableRecord
  2
AMDT_DM_ADJ
 70
     0
  0
APPID
  5
22C
330
9
100
AcDbSymbolTableRecord
100
AcDbRegAppTableRecord
  2
ACAD_DSTYLE_DIMTEXT_FILL
 70
     0
  0
APPID
  5
452
330
9
100
AcDbSymbolTableRecord
100
AcDbRegAppTableRecord
  2
GENIUS_GENOENT_13
 70
     0
  0
APPID
  5
453
330
9
100
AcDbSymbolTableRecord
100
AcDbRegAppTableRecord
  2
GENIUS_GENOBJ-N-CRS_13
 70
     0
  0
APPID
  5
454
330
9
100
AcDbSymbolTableRecord
100
AcDbRegAppTableRecord
  2
GENIUS_GENOLIS_13
 70
     0
  0
APPID
  5
455
330
9
100
AcDbSymbolTableRecord
100
AcDbRegAppTableRecord
  2
GENIUS_GENODEF_13
 70
     0
  0
APPID
  5
456
330
9
100
AcDbSymbolTableRecord
100
AcDbRegAppTableRecord
  2
GENIUS_GENOREF_13
 70
     0
  0
APPID
  5
6F3
330
9
100
AcDbSymbolTableRecord
100
AcDbRegAppTableRecord
  2
ACAD_PSEXT
 70
     0
  0
APPID
  5
808
330
9
100
AcDbSymbolTableRecord
100
AcDbRegAppTableRecord
  2
GENIUS_GENDTOL_13
 70
     0
  0
APPID
  5
16FC
330
9
100
AcDbSymbolTableRecord
100
AcDbRegAppTableRecord
  2
GENIUS_GENREC_14
 70
     0
  0
APPID
  5
16FD
330
9
100
AcDbSymbolTableRecord
100
AcDbRegAppTableRecord
  2
GENIUS_GENOBJ-N-REC_13
 70
     0
  0
APPID
  5
268C
330
9
100
AcDbSymbolTableRecord
100
AcDbRegAppTableRecord
  2
GENIUS_GENDIMSH_14
 70
     0
  0
APPID
  5
3991
330
9
100
AcDbSymbolTableRecord
100
AcDbRegAppTableRecord
  2
GENIUS_GENDIM_13
 70
     0
  0
APPID
  5
3992
330
9
100
AcDbSymbolTableRecord
100
AcDbRegAppTableRecord
  2
GENIUS_GE3DTOL_13
 70
     0
  0
APPID
  5
3A12
330
9
100
AcDbSymbolTableRecord
100
AcDbRegAppTableRecord
  2
ASURF_PCURVE_APPNAME
 70
     0
  0
APPID
  5
3A17
330
9
100
AcDbSymbolTableRecord
100
AcDbRegAppTableRecord
  2
AMG_3D2D_5.0
 70
     0
  0
ENDTAB
  0
TABLE
  2
DIMSTYLE
  5
A
330
0
100
AcDbSymbolTable
 70
    10
100
AcDbDimStyleTable
 71
     3
340
81
340
8B
340
86
  0
DIMSTYLE
105
81
330
A
100
AcDbSymbolTableRecord
100
AcDbDimStyleTableRecord
  2
AM_ISO
 70
     0
  4
"
 40
1.5
 41
3.0
 42
1.0
 43
8.0
 44
1.0
 47
0.1
 48
0.1
 73
     0
 74
     0
 77
     1
 78
     8
 79
     2
140
3.5
141
0.0
143
0.0393701
146
0.6
147
1.0
172
     1
176
   256
177
   256
178
   256
271
     2
272
     2
283
     0
284
     8
340
11
371
    -1
372
    -1
  0
DIMSTYLE
105
82
330
A
100
AcDbSymbolTableRecord
100
AcDbDimStyleTableRecord
  2
AM_ISO$3
 70
     0
  4
"
 40
1.5
 41
3.0
 42
1.0
 43
8.0
 44
1.0
 47
0.1
 48
0.1
 73
     0
 77
     1
 78
     8
 79
     2
140
3.5
141
0.0
143
0.0393701
146
0.6
147
1.0
176
   256
177
   256
178
   256
271
     2
272
     2
283
     0
284
     8
288
     1
289
     0
340
11
371
    -1
372
    -1
  0
DIMSTYLE
105
83
330
A
100
AcDbSymbolTableRecord
100
AcDbDimStyleTableRecord
  2
AM_ISO$4
 70
     0
  4
"
 40
1.5
 41
3.0
 42
1.0
 43
8.0
 44
1.0
 47
0.1
 48
0.1
 73
     0
 77
     1
 78
     8
 79
     2
140
3.5
141
0.0
143
0.0393701
146
0.6
147
1.0
176
   256
177
   256
178
   256
271
     2
272
     2
283
     0
284
     8
288
     1
289
     0
340
11
371
    -1
372
    -1
  0
DIMSTYLE
105
84
330
A
100
AcDbSymbolTableRecord
100
AcDbDimStyleTableRecord
  2
AM_ISO$6
 70
     0
  4
"
 40
1.5
 41
3.0
 42
1.0
 43
8.0
 44
1.0
 47
0.1
 48
0.1
 73
     0
 74
     0
 78
     8
 79
     2
140
3.5
141
0.0
143
0.0393701
146
0.6
147
1.0
172
     1
176
   256
177
   256
178
   256
271
     2
272
     2
283
     0
284
     8
340
11
371
    -1
372
    -1
  0
DIMSTYLE
105
85
330
A
100
AcDbSymbolTableRecord
100
AcDbDimStyleTableRecord
  2
AM_ISO$7
 70
     0
  4
"
 40
1.5
 41
3.0
 42
1.0
 43
8.0
 44
1.0
 47
0.1
 48
0.1
 73
     0
 74
     0
 77
     1
 78
     8
 79
     2
140
3.5
141
0.0
143
0.0393701
146
0.6
147
1.0
172
     1
176
   256
177
   256
178
   256
271
     2
272
     2
283
     0
284
     8
340
11
371
    -1
372
    -1
  0
DIMSTYLE
105
86
330
A
100
AcDbSymbolTableRecord
100
AcDbDimStyleTableRecord
  2
AM_ISO$SF
 70
     0
  4
"
 40
1.5
 41
2.5
 42
1.0
 43
10.0
 44
1.0
 47
0.1
 48
0.1
 73
     0
 74
     0
 75
     1
 76
     1
 77
     1
 78
     8
 79
     2
140
3.5
141
0.0
143
0.0393701
146
0.71
147
1.5
172
     1
176
   256
177
   256
178
     2
271
     2
272
     3
274
     4
283
     0
284
     8
340
11
371
    -1
372
    -1
  0
DIMSTYLE
105
8B
330
A
100
AcDbSymbolTableRecord
100
AcDbDimStyleTableRecord
  2
AM_ISO$SH
 70
     0
  4
"
 40
1.5
 41
2.5
 42
1.0
 43
10.0
 44
1.0
 47
0.1
 48
0.1
 73
     0
 74
     0
 75
     1
 76
     1
 77
     1
 78
     8
 79
     2
140
3.5
141
0.0
143
0.0393701
144
2.0
146
0.71
147
1.5
172
     1
173
     1
176
   256
177
   256
178
     2
271
     2
272
     3
274
     4
283
     0
284
     8
340
11
343
87
371
    -1
372
    -1
  0
DIMSTYLE
105
40B
102
{ACAD_REACTORS
330
541A
330
53F0
330
53CA
330
53A4
330
537A
330
546A
330
5440
330
5490
330
54B6
330
5693
102
}
330
A
100
AcDbSymbolTableRecord
100
AcDbDimStyleTableRecord
  2
AM_ISO$0
 70
     0
  4
"
 40
1.5
 41
3.0
 42
1.0
 43
8.0
 44
1.0
 47
0.1
 48
0.1
 73
     0
 74
     0
 77
     1
 78
     8
 79
     2
140
3.5
141
0.0
143
0.0393701
146
0.6
147
1.0
172
     1
176
   256
177
   256
178
   256
271
     2
272
     2
283
     0
284
     8
340
11
371
    -1
372
    -1
  0
DIMSTYLE
105
3AFD
330
A
100
AcDbSymbolTableRecord
100
AcDbDimStyleTableRecord
  2
AM_ANSI$0
 70
     0
  4
"
 40
0.8
 41
3.0
 42
1.5
 43
6.4
 44
2.0
 47
0.1
 48
0.1
 73
     0
 74
     0
 77
     3
 78
     8
 79
     2
140
3.0
141
0.0
143
0.0393701
146
0.6
147
0.8
172
     1
176
   256
177
   256
178
   256
271
     2
272
     2
284
     8
340
3457
371
    -1
372
    -1
  0
DIMSTYLE
105
3D53
330
A
100
AcDbSymbolTableRecord
100
AcDbDimStyleTableRecord
  2
ISO-25
 70
     0
 41
2.5
 42
0.625
 43
3.75
 44
1.25
 73
     0
 74
     0
 77
     1
 78
     8
140
2.5
141
2.5
143
0.03937007874016
147
0.625
171
     3
172
     1
271
     2
272
     2
274
     3
278
    44
283
     0
284
     8
340
11
  0
ENDTAB
  0
TABLE
  2
BLOCK_RECORD
  5
1
330
0
100
AcDbSymbolTable
 70
    15
  0
BLOCK_RECORD
  5
1F
102
{ACAD_XDICTIONARY
360
8F
102
}
330
1
100
AcDbSymbolTableRecord
100
AcDbBlockTableRecord
  2
*Model_Space
340
22
  0
BLOCK_RECORD
  5
1B
330
1
100
AcDbSymbolTableRecord
100
AcDbBlockTableRecord
  2
*Paper_Space
340
1E
  0
BLOCK_RECORD
  5
23
330
1
100
AcDbSymbolTableRecord
100
AcDbBlockTableRecord
  2
*Paper_Space0
340
26
  0
BLOCK_RECORD
  5
87
330
1
100
AcDbSymbolTableRecord
100
AcDbBlockTableRecord
  2
GENAXEH
340
0
  0
BLOCK_RECORD
  5
3AEA
330
1
100
AcDbSymbolTableRecord
100
AcDbBlockTableRecord
  2
GENDOT
340
0
  0
BLOCK_RECORD
  5
4CB8
330
1
100
AcDbSymbolTableRecord
100
AcDbBlockTableRecord
  2
SW_CENTERMARKSYMBOL_0
340
0
  0
BLOCK_RECORD
  5
537B
330
1
100
AcDbSymbolTableRecord
100
AcDbBlockTableRecord
  2
*D5
340
0
  0
BLOCK_RECORD
  5
53A5
330
1
100
AcDbSymbolTableRecord
100
AcDbBlockTableRecord
  2
*D6
340
0
  0
BLOCK_RECORD
  5
53CB
330
1
100
AcDbSymbolTableRecord
100
AcDbBlockTableRecord
  2
*D7
340
0
  0
BLOCK_RECORD
  5
53F1
330
1
100
AcDbSymbolTableRecord
100
AcDbBlockTableRecord
  2
*D8
340
0
  0
BLOCK_RECORD
  5
541B
330
1
100
AcDbSymbolTableRecord
100
AcDbBlockTableRecord
  2
*D9
340
0
  0
BLOCK_RECORD
  5
5441
330
1
100
AcDbSymbolTableRecord
100
AcDbBlockTableRecord
  2
*D10
340
0
  0
BLOCK_RECORD
  5
546B
330
1
100
AcDbSymbolTableRecord
100
AcDbBlockTableRecord
  2
*D11
340
0
  0
BLOCK_RECORD
  5
5491
330
1
100
AcDbSymbolTableRecord
100
AcDbBlockTableRecord
  2
*D12
340
0
  0
BLOCK_RECORD
  5
54B7
330
1
100
AcDbSymbolTableRecord
100
AcDbBlockTableRecord
  2
*D13
340
0
  0
BLOCK_RECORD
  5
5694
330
1
100
AcDbSymbolTableRecord
100
AcDbBlockTableRecord
  2
*D14
340
0
  0
ENDTAB
  0
ENDSEC
  0
SECTION
  2
BLOCKS
  0
BLOCK
  5
20
330
1F
100
AcDbEntity
  8
0
100
AcDbBlockBegin
  2
*Model_Space
 70
     0
 10
0.0
 20
0.0
 30
0.0
  3
*Model_Space
  1

  0
ENDBLK
  5
21
330
1F
100
AcDbEntity
  8
0
100
AcDbBlockEnd
  0
BLOCK
  5
1C
330
1B
100
AcDbEntity
 67
     1
  8
0
100
AcDbBlockBegin
  2
*Paper_Space
 70
     0
 10
0.0
 20
0.0
 30
0.0
  3
*Paper_Space
  1

  0
ENDBLK
  5
1D
330
1B
100
AcDbEntity
 67
     1
  8
0
100
AcDbBlockEnd
  0
BLOCK
  5
24
330
23
100
AcDbEntity
  8
0
100
AcDbBlockBegin
  2
*Paper_Space0
 70
     0
 10
0.0
 20
0.0
 30
0.0
  3
*Paper_Space0
  1

  0
ENDBLK
  5
25
330
23
100
AcDbEntity
  8
0
100
AcDbBlockEnd
  0
BLOCK
  5
89
330
87
100
AcDbEntity
  8
0
100
AcDbBlockBegin
  2
GENAXEH
 70
     0
 10
0.0
 20
0.0
 30
0.0
  3
GENAXEH
  1

  0
LINE
  5
88
330
87
100
AcDbEntity
  8
0
100
AcDbLine
 10
-1.0
 20
0.0
 30
0.0
 11
1.0
 21
0.0
 31
0.0
  0
ENDBLK
  5
8A
330
87
100
AcDbEntity
  8
0
100
AcDbBlockEnd
  0
BLOCK
  5
3AEB
330
3AEA
100
AcDbEntity
  8
0
100
AcDbBlockBegin
  2
GENDOT
 70
     0
 10
0.0
 20
0.0
 30
0.0
  3
GENDOT
  1

  0
LINE
  5
3AEC
330
3AEA
100
AcDbEntity
  8
0
100
AcDbLine
 10
0.0
 20
0.0
 30
0.0
 11
-1.0
 21
0.0
 31
0.0
  0
LWPOLYLINE
  5
3AED
330
3AEA
100
AcDbEntity
  8
0
100
AcDbPolyline
 90
        2
 70
     1
 43
0.25
 10
-0.125
 20
0.0
 42
1.0
 10
0.125
 20
0.0
 42
1.0
  0
ENDBLK
  5
3AEE
330
3AEA
100
AcDbEntity
  8
0
100
AcDbBlockEnd
  0
BLOCK
  5
4CB9
330
4CB8
100
AcDbEntity
  8
0
100
AcDbBlockBegin
  2
SW_CENTERMARKSYMBOL_0
 70
     0
 10
0.0
 20
0.0
 30
0.0
  3
SW_CENTERMARKSYMBOL_0
  1

  0
LINE
  5
4CBA
330
4CB8
100
AcDbEntity
  8
0
  6
Continuous
 62
     0
370
     0
100
AcDbLine
 10
0.0
 20
0.0
 30
0.0
 11
0.0
 21
2.500000000000002
 31
0.0
  0
LINE
  5
4CBB
330
4CB8
100
AcDbEntity
  8
0
  6
Continuous
 62
     0
370
     0
100
AcDbLine
 10
0.0
 20
0.0
 30
0.0
 11
-2.500000000000002
 21
0.0
 31
0.0
  0
LINE
  5
4CBC
330
4CB8
100
AcDbEntity
  8
0
  6
Continuous
 62
     0
370
     0
100
AcDbLine
 10
0.0
 20
0.0
 30
0.0
 11
0.0
 21
-2.500000000000002
 31
0.0
  0
LINE
  5
4CBD
330
4CB8
100
AcDbEntity
  8
0
  6
Continuous
 62
     0
370
     0
100
AcDbLine
 10
0.0
 20
0.0
 30
0.0
 11
2.500000000000002
 21
0.0
 31
0.0
  0
LINE
  5
4CBE
330
4CB8
100
AcDbEntity
  8
0
  6
Continuous
 62
     0
370
     0
100
AcDbLine
 10
0.0
 20
5.000000000000004
 30
0.0
 11
0.0
 21
11.04596669241484
 31
0.0
  0
LINE
  5
4CBF
330
4CB8
100
AcDbEntity
  8
0
  6
Continuous
 62
     0
370
     0
100
AcDbLine
 10
-5.000000000000004
 20
0.0
 30
0.0
 11
-11.04596669241484
 21
0.0
 31
0.0
  0
LINE
  5
4CC0
330
4CB8
100
AcDbEntity
  8
0
  6
Continuous
 62
     0
370
     0
100
AcDbLine
 10
0.0
 20
-4.999999999999976
 30
0.0
 11
0.0
 21
-11.04596669241484
 31
0.0
  0
LINE
  5
4CC1
330
4CB8
100
AcDbEntity
  8
0
  6
Continuous
 62
     0
370
     0
100
AcDbLine
 10
5.000000000000004
 20
0.0
 30
0.0
 11
11.04596669241482
 21
0.0
 31
0.0
  0
ENDBLK
  5
4CC2
330
4CB8
100
AcDbEntity
  8
0
100
AcDbBlockEnd
  0
BLOCK
  5
5385
330
537B
100
AcDbEntity
  8
0
100
AcDbBlockBegin
  2
*D5
 70
     1
 10
0.0
 20
0.0
 30
0.0
  3
*D5
  1

  0
LINE
  5
55EE
330
537B
100
AcDbEntity
  8
AM_REFDIM
100
AcDbLine
 10
406.2960691555675
 20
317.725710491814
 30
0.0
 11
406.2960691555675
 21
342.0012808599058
 31
0.0
  0
LINE
  5
55EF
330
537B
100
AcDbEntity
  8
AM_REFDIM
100
AcDbLine
 10
436.29645796867
 20
317.725710491814
 30
0.0
 11
436.29645796867
 21
342.0012808599058
 31
0.0
  0
LINE
  5
55F0
330
537B
100
AcDbEntity
  8
AM_REFDIM
100
AcDbLine
 10
408.0960691555675
 20
341.4012808599058
 30
0.0
 11
434.49645796867
 21
341.4012808599058
 31
0.0
  0
SOLID
  5
55F1
330
537B
100
AcDbEntity
  8
AM_REFDIM
100
AcDbTrace
 10
408.0960691555675
 20
341.7012808599058
 30
0.0
 11
408.0960691555675
 21
341.1012808599058
 31
0.0
 12
406.2960691555675
 22
341.4012808599058
 32
0.0
 13
406.2960691555675
 23
341.4012808599058
 33
0.0
  0
SOLID
  5
55F2
330
537B
100
AcDbEntity
  8
AM_REFDIM
100
AcDbTrace
 10
434.49645796867
 20
341.7012808599058
 30
0.0
 11
434.49645796867
 21
341.1012808599058
 31
0.0
 12
436.29645796867
 22
341.4012808599058
 32
0.0
 13
436.29645796867
 23
341.4012808599058
 33
0.0
  0
MTEXT
  5
55F3
330
537B
100
AcDbEntity
  8
AM_REFDIM
100
AcDbMText
 10
421.2962635621187
 20
343.0512808599058
 30
0.0
 40
2.1
 41
0.0
 71
     5
 72
     1
  1
30
 73
     1
 44
1.0
1001
ACAD
1000
MTEXTBEGIN
1070
    73
1070
     1
1070
    44
1040
1.0
1070
    74
1070
     0
1000
MTEXTEND
  0
POINT
  5
55F4
330
537B
100
AcDbEntity
  8
Defpoints
 62
     0
100
AcDbPoint
 10
406.2960691555675
 20
317.125710491814
 30
0.0
  0
POINT
  5
55F5
330
537B
100
AcDbEntity
  8
Defpoints
 62
     0
100
AcDbPoint
 10
436.29645796867
 20
317.125710491814
 30
0.0
  0
POINT
  5
55F6
330
537B
100
AcDbEntity
  8
Defpoints
 62
     0
100
AcDbPoint
 10
436.29645796867
 20
341.4012808599058
 30
0.0
  0
ENDBLK
  5
5386
330
537B
100
AcDbEntity
  8
0
100
AcDbBlockEnd
  0
BLOCK
  5
53AF
330
53A5
100
AcDbEntity
  8
0
100
AcDbBlockBegin
  2
*D6
 70
     1
 10
0.0
 20
0.0
 30
0.0
  3
*D6
  1

  0
LINE
  5
55F7
330
53A5
100
AcDbEntity
  8
AM_REFDIM
100
AcDbLine
 10
421.9269136105542
 20
332.1256782657154
 30
0.0
 11
454.5336197283009
 21
332.1256782657154
 31
0.0
  0
LINE
  5
55F8
330
53A5
100
AcDbEntity
  8
AM_REFDIM
100
AcDbLine
 10
431.8957580704384
 20
267.125710491814
 30
0.0
 11
454.5336197283009
 21
267.125710491814
 31
0.0
  0
LINE
  5
55F9
330
53A5
100
AcDbEntity
  8
AM_REFDIM
100
AcDbLine
 10
453.9336197283009
 20
330.3256782657153
 30
0.0
 11
453.9336197283009
 21
268.9257104918139
 31
0.0
  0
SOLID
  5
55FA
330
53A5
100
AcDbEntity
  8
AM_REFDIM
100
AcDbTrace
 10
453.6336197283008
 20
330.3256782657153
 30
0.0
 11
454.2336197283009
 21
330.3256782657153
 31
0.0
 12
453.9336197283009
 22
332.1256782657154
 32
0.0
 13
453.9336197283009
 23
332.1256782657154
 33
0.0
  0
SOLID
  5
55FB
330
53A5
100
AcDbEntity
  8
AM_REFDIM
100
AcDbTrace
 10
453.6336197283008
 20
268.9257104918139
 30
0.0
 11
454.2336197283009
 21
268.9257104918139
 31
0.0
 12
453.9336197283009
 22
267.125710491814
 32
0.0
 13
453.9336197283009
 23
267.125710491814
 33
0.0
  0
MTEXT
  5
55FC
330
53A5
100
AcDbEntity
  8
AM_REFDIM
100
AcDbMText
 10
452.2836197283009
 20
299.6256943787647
 30
0.0
 40
2.1
 41
0.0
 71
     5
 72
     1
  1
65
 11
0.0000000000000001
 21
1.0
 31
0.0
 73
     1
 44
1.0
1001
ACAD
1000
MTEXTBEGIN
1070
    73
1070
     1
1070
    44
1040
1.0
1070
    74
1070
     0
1000
MTEXTEND
  0
POINT
  5
55FD
330
53A5
100
AcDbEntity
  8
Defpoints
 62
     0
100
AcDbPoint
 10
421.3269136105542
 20
332.1256782657154
 30
0.0
  0
POINT
  5
55FE
330
53A5
100
AcDbEntity
  8
Defpoints
 62
     0
100
AcDbPoint
 10
431.2957580704384
 20
267.125710491814
 30
0.0
  0
POINT
  5
55FF
330
53A5
100
AcDbEntity
  8
Defpoints
 62
     0
100
AcDbPoint
 10
453.9336197283009
 20
267.125710491814
 30
0.0
  0
ENDBLK
  5
53B0
330
53A5
100
AcDbEntity
  8
0
100
AcDbBlockEnd
  0
BLOCK
  5
53D5
330
53CB
100
AcDbEntity
  8
0
100
AcDbBlockBegin
  2
*D7
 70
     1
 10
0.0
 20
0.0
 30
0.0
  3
*D7
  1

  0
LINE
  5
5600
330
53CB
100
AcDbEntity
  8
AM_REFDIM
100
AcDbLine
 10
439.2848851267831
 20
317.125710491814
 30
0.0
 11
447.2045437919476
 21
317.125710491814
 31
0.0
  0
LINE
  5
5601
330
53CB
100
AcDbEntity
  8
AM_REFDIM
100
AcDbLine
 10
431.8957580704384
 20
267.125710491814
 30
0.0
 11
447.2045437919476
 21
267.125710491814
 31
0.0
  0
LINE
  5
5602
330
53CB
100
AcDbEntity
  8
AM_REFDIM
100
AcDbLine
 10
446.6045437919476
 20
315.3257104918139
 30
0.0
 11
446.6045437919476
 21
268.9257104918139
 31
0.0
  0
SOLID
  5
5603
330
53CB
100
AcDbEntity
  8
AM_REFDIM
100
AcDbTrace
 10
446.3045437919475
 20
315.3257104918139
 30
0.0
 11
446.9045437919476
 21
315.3257104918139
 31
0.0
 12
446.6045437919476
 22
317.125710491814
 32
0.0
 13
446.6045437919476
 23
317.125710491814
 33
0.0
  0
SOLID
  5
5604
330
53CB
100
AcDbEntity
  8
AM_REFDIM
100
AcDbTrace
 10
446.3045437919475
 20
268.9257104918139
 30
0.0
 11
446.9045437919476
 21
268.9257104918139
 31
0.0
 12
446.6045437919476
 22
267.125710491814
 32
0.0
 13
446.6045437919476
 23
267.125710491814
 33
0.0
  0
MTEXT
  5
5605
330
53CB
100
AcDbEntity
  8
AM_REFDIM
100
AcDbMText
 10
444.9545437919475
 20
292.125710491814
 30
0.0
 40
2.1
 41
0.0
 71
     5
 72
     1
  1
50
 11
0.0000000000000001
 21
1.0
 31
0.0
 73
     1
 44
1.0
1001
ACAD
1000
MTEXTBEGIN
1070
    73
1070
     1
1070
    44
1040
1.0
1070
    74
1070
     0
1000
MTEXTEND
  0
POINT
  5
5606
330
53CB
100
AcDbEntity
  8
Defpoints
 62
     0
100
AcDbPoint
 10
438.684885126783
 20
317.125710491814
 30
0.0
  0
POINT
  5
5607
330
53CB
100
AcDbEntity
  8
Defpoints
 62
     0
100
AcDbPoint
 10
431.2957580704384
 20
267.125710491814
 30
0.0
  0
POINT
  5
5608
330
53CB
100
AcDbEntity
  8
Defpoints
 62
     0
100
AcDbPoint
 10
446.6045437919476
 20
267.125710491814
 30
0.0
  0
ENDBLK
  5
53D6
330
53CB
100
AcDbEntity
  8
0
100
AcDbBlockEnd
  0
BLOCK
  5
53FD
330
53F1
100
AcDbEntity
  8
0
100
AcDbBlockBegin
  2
*D8
 70
     1
 10
0.0
 20
0.0
 30
0.0
  3
*D8
  1

  0
LINE
  5
5609
330
53F1
100
AcDbEntity
  8
AM_REFDIM
100
AcDbLine
 10
431.8957580704384
 20
273.625710491814
 30
0.0
 11
441.8660254598827
 21
273.625710491814
 31
0.0
  0
LINE
  5
560A
330
53F1
100
AcDbEntity
  8
AM_REFDIM
100
AcDbLine
 10
431.8957580704384
 20
267.125710491814
 30
0.0
 11
441.8660254598827
 21
267.125710491814
 31
0.0
  0
LINE
  5
560B
330
53F1
100
AcDbEntity
  8
AM_REFDIM
100
AcDbLine
 10
441.2660254598827
 20
271.8257104918139
 30
0.0
 11
441.2660254598827
 21
268.9257104918139
 31
0.0
  0
SOLID
  5
560C
330
53F1
100
AcDbEntity
  8
AM_REFDIM
100
AcDbTrace
 10
440.9660254598827
 20
271.8257104918139
 30
0.0
 11
441.5660254598827
 21
271.8257104918139
 31
0.0
 12
441.2660254598827
 22
273.625710491814
 32
0.0
 13
441.2660254598827
 23
273.625710491814
 33
0.0
  0
SOLID
  5
560D
330
53F1
100
AcDbEntity
  8
AM_REFDIM
100
AcDbTrace
 10
440.9660254598827
 20
268.9257104918139
 30
0.0
 11
441.5660254598827
 21
268.9257104918139
 31
0.0
 12
441.2660254598827
 22
267.125710491814
 32
0.0
 13
441.2660254598827
 23
267.125710491814
 33
0.0
  0
MTEXT
  5
560E
330
53F1
100
AcDbEntity
  8
AM_REFDIM
100
AcDbMText
 10
439.6160254598826
 20
270.3757104918141
 30
0.0
 40
2.1
 41
0.0
 71
     5
 72
     1
  1
7
 11
0.0000000000000001
 21
1.0
 31
0.0
 73
     1
 44
1.0
1001
ACAD
1000
MTEXTBEGIN
1070
    73
1070
     1
1070
    44
1040
1.0
1070
    74
1070
     0
1000
MTEXTEND
  0
POINT
  5
560F
330
53F1
100
AcDbEntity
  8
Defpoints
 62
     0
100
AcDbPoint
 10
431.2957580704384
 20
273.625710491814
 30
0.0
  0
POINT
  5
5610
330
53F1
100
AcDbEntity
  8
Defpoints
 62
     0
100
AcDbPoint
 10
431.2957580704384
 20
267.125710491814
 30
0.0
  0
POINT
  5
5611
330
53F1
100
AcDbEntity
  8
Defpoints
 62
     0
100
AcDbPoint
 10
441.2660254598827
 20
267.125710491814
 30
0.0
  0
ENDBLK
  5
53FE
330
53F1
100
AcDbEntity
  8
0
100
AcDbBlockEnd
  0
BLOCK
  5
5425
330
541B
100
AcDbEntity
  8
0
100
AcDbBlockBegin
  2
*D9
 70
     1
 10
0.0
 20
0.0
 30
0.0
  3
*D9
  1

  0
LINE
  5
5612
330
541B
100
AcDbEntity
  8
AM_REFDIM
100
AcDbLine
 10
410.2957580704384
 20
267.5257104918139
 30
0.0
 11
410.2957580704384
 21
259.6080110789014
 31
0.0
  0
LINE
  5
5613
330
541B
100
AcDbEntity
  8
AM_REFDIM
100
AcDbLine
 10
432.2957580704383
 20
267.5257104918139
 30
0.0
 11
432.2957580704383
 21
259.6080110789014
 31
0.0
  0
LINE
  5
5614
330
541B
100
AcDbEntity
  8
AM_REFDIM
100
AcDbLine
 10
412.0957580704383
 20
260.2080110789014
 30
0.0
 11
430.4957580704384
 21
260.2080110789014
 31
0.0
  0
SOLID
  5
5615
330
541B
100
AcDbEntity
  8
AM_REFDIM
100
AcDbTrace
 10
412.0957580704383
 20
260.5080110789014
 30
0.0
 11
412.0957580704383
 21
259.9080110789014
 31
0.0
 12
410.2957580704384
 22
260.2080110789014
 32
0.0
 13
410.2957580704384
 23
260.2080110789014
 33
0.0
  0
SOLID
  5
5616
330
541B
100
AcDbEntity
  8
AM_REFDIM
100
AcDbTrace
 10
430.4957580704384
 20
260.5080110789014
 30
0.0
 11
430.4957580704384
 21
259.9080110789014
 31
0.0
 12
432.2957580704383
 22
260.2080110789014
 32
0.0
 13
432.2957580704383
 23
260.2080110789014
 33
0.0
  0
MTEXT
  5
5617
330
541B
100
AcDbEntity
  8
AM_REFDIM
100
AcDbMText
 10
421.2957580704384
 20
261.8582177718148
 30
0.0
 40
2.1
 41
0.0
 71
     5
 72
     1
  1
22
 73
     1
 44
1.0
1001
ACAD
1000
MTEXTBEGIN
1070
    73
1070
     1
1070
    44
1040
1.0
1070
    74
1070
     0
1000
MTEXTEND
  0
POINT
  5
5618
330
541B
100
AcDbEntity
  8
Defpoints
 62
     0
100
AcDbPoint
 10
410.2957580704384
 20
268.1257104918139
 30
0.0
  0
POINT
  5
5619
330
541B
100
AcDbEntity
  8
Defpoints
 62
     0
100
AcDbPoint
 10
432.2957580704383
 20
268.1257104918139
 30
0.0
  0
POINT
  5
561A
330
541B
100
AcDbEntity
  8
Defpoints
 62
     0
100
AcDbPoint
 10
432.2957580704383
 20
260.2080110789014
 30
0.0
  0
ENDBLK
  5
5426
330
541B
100
AcDbEntity
  8
0
100
AcDbBlockEnd
  0
BLOCK
  5
544D
330
5441
100
AcDbEntity
  8
0
100
AcDbBlockBegin
  2
*D10
 70
     1
 10
0.0
 20
0.0
 30
0.0
  3
*D10
  1

  0
LINE
  5
561B
330
5441
100
AcDbEntity
  8
AM_REFDIM
100
AcDbLine
 10
476.098421084137
 20
331.725710491814
 30
0.0
 11
476.098421084137
 21
339.1996593132749
 31
0.0
  0
LINE
  5
561C
330
5441
100
AcDbEntity
  8
AM_REFDIM
100
AcDbLine
 10
488.098421084137
 20
331.725710491814
 30
0.0
 11
488.098421084137
 21
339.1996593132749
 31
0.0
  0
LINE
  5
561D
330
5441
100
AcDbEntity
  8
AM_REFDIM
100
AcDbLine
 10
477.898421084137
 20
338.5996593132749
 30
0.0
 11
486.298421084137
 21
338.5996593132749
 31
0.0
  0
SOLID
  5
561E
330
5441
100
AcDbEntity
  8
AM_REFDIM
100
AcDbTrace
 10
477.898421084137
 20
338.8996593132749
 30
0.0
 11
477.898421084137
 21
338.2996593132749
 31
0.0
 12
476.098421084137
 22
338.5996593132749
 32
0.0
 13
476.098421084137
 23
338.5996593132749
 33
0.0
  0
SOLID
  5
561F
330
5441
100
AcDbEntity
  8
AM_REFDIM
100
AcDbTrace
 10
486.298421084137
 20
338.8996593132749
 30
0.0
 11
486.298421084137
 21
338.2996593132749
 31
0.0
 12
488.098421084137
 22
338.5996593132749
 32
0.0
 13
488.098421084137
 23
338.5996593132749
 33
0.0
  0
MTEXT
  5
5620
330
5441
100
AcDbEntity
  8
AM_REFDIM
100
AcDbMText
 10
482.098421084137
 20
340.2498660061882
 30
0.0
 40
2.1
 41
0.0
 71
     5
 72
     1
  1
12
 73
     1
 44
1.0
1001
ACAD
1000
MTEXTBEGIN
1070
    73
1070
     1
1070
    44
1040
1.0
1070
    74
1070
     0
1000
MTEXTEND
  0
POINT
  5
5621
330
5441
100
AcDbEntity
  8
Defpoints
 62
     0
100
AcDbPoint
 10
476.098421084137
 20
331.1257104918139
 30
0.0
  0
POINT
  5
5622
330
5441
100
AcDbEntity
  8
Defpoints
 62
     0
100
AcDbPoint
 10
488.098421084137
 20
331.1257104918139
 30
0.0
  0
POINT
  5
5623
330
5441
100
AcDbEntity
  8
Defpoints
 62
     0
100
AcDbPoint
 10
488.098421084137
 20
338.5996593132749
 30
0.0
  0
ENDBLK
  5
544E
330
5441
100
AcDbEntity
  8
0
100
AcDbBlockEnd
  0
BLOCK
  5
5475
330
546B
100
AcDbEntity
  8
0
100
AcDbBlockBegin
  2
*D11
 70
     1
 10
0.0
 20
0.0
 30
0.0
  3
*D11
  1

  0
LINE
  5
5624
330
546B
100
AcDbEntity
  8
AM_REFDIM
100
AcDbLine
 10
474.098421084137
 20
325.2755449270848
 30
0.0
 11
474.098421084137
 21
346.7452563802383
 31
0.0
  0
LINE
  5
5625
330
546B
100
AcDbEntity
  8
AM_REFDIM
100
AcDbLine
 10
490.098421084137
 20
325.2755449270848
 30
0.0
 11
490.098421084137
 21
346.7452563802383
 31
0.0
  0
LINE
  5
5626
330
546B
100
AcDbEntity
  8
AM_REFDIM
100
AcDbLine
 10
475.898421084137
 20
346.1452563802382
 30
0.0
 11
488.298421084137
 21
346.1452563802382
 31
0.0
  0
SOLID
  5
5627
330
546B
100
AcDbEntity
  8
AM_REFDIM
100
AcDbTrace
 10
475.898421084137
 20
346.4452563802383
 30
0.0
 11
475.898421084137
 21
345.8452563802382
 31
0.0
 12
474.098421084137
 22
346.1452563802382
 32
0.0
 13
474.098421084137
 23
346.1452563802382
 33
0.0
  0
SOLID
  5
5628
330
546B
100
AcDbEntity
  8
AM_REFDIM
100
AcDbTrace
 10
488.298421084137
 20
346.4452563802383
 30
0.0
 11
488.298421084137
 21
345.8452563802382
 31
0.0
 12
490.098421084137
 22
346.1452563802382
 32
0.0
 13
490.098421084137
 23
346.1452563802382
 33
0.0
  0
MTEXT
  5
5629
330
546B
100
AcDbEntity
  8
AM_REFDIM
100
AcDbMText
 10
482.098421084137
 20
347.7952563802383
 30
0.0
 40
2.1
 41
0.0
 71
     5
 72
     1
  1
16
 73
     1
 44
1.0
1001
ACAD
1000
MTEXTBEGIN
1070
    73
1070
     1
1070
    44
1040
1.0
1070
    74
1070
     0
1000
MTEXTEND
  0
POINT
  5
562A
330
546B
100
AcDbEntity
  8
Defpoints
 62
     0
100
AcDbPoint
 10
474.098421084137
 20
324.6755449270847
 30
0.0
  0
POINT
  5
562B
330
546B
100
AcDbEntity
  8
Defpoints
 62
     0
100
AcDbPoint
 10
490.098421084137
 20
324.6755449270847
 30
0.0
  0
POINT
  5
562C
330
546B
100
AcDbEntity
  8
Defpoints
 62
     0
100
AcDbPoint
 10
490.098421084137
 20
346.1452563802382
 30
0.0
  0
ENDBLK
  5
5476
330
546B
100
AcDbEntity
  8
0
100
AcDbBlockEnd
  0
BLOCK
  5
549B
330
5491
100
AcDbEntity
  8
0
100
AcDbBlockBegin
  2
*D12
 70
     1
 10
0.0
 20
0.0
 30
0.0
  3
*D12
  1

  0
LINE
  5
562D
330
5491
100
AcDbEntity
  8
AM_REFDIM
100
AcDbLine
 10
488.6984210841371
 20
291.1257104918139
 30
0.0
 11
499.090510844451
 21
291.1257104918139
 31
0.0
  0
LINE
  5
562E
330
5491
100
AcDbEntity
  8
AM_REFDIM
100
AcDbLine
 10
491.1984210841372
 20
267.1257104918139
 30
0.0
 11
499.090510844451
 21
267.1257104918139
 31
0.0
  0
LINE
  5
562F
330
5491
100
AcDbEntity
  8
AM_REFDIM
100
AcDbLine
 10
498.490510844451
 20
289.3257104918139
 30
0.0
 11
498.490510844451
 21
268.9257104918139
 31
0.0
  0
SOLID
  5
5630
330
5491
100
AcDbEntity
  8
AM_REFDIM
100
AcDbTrace
 10
498.190510844451
 20
289.3257104918139
 30
0.0
 11
498.790510844451
 21
289.3257104918139
 31
0.0
 12
498.490510844451
 22
291.1257104918139
 32
0.0
 13
498.490510844451
 23
291.1257104918139
 33
0.0
  0
SOLID
  5
5631
330
5491
100
AcDbEntity
  8
AM_REFDIM
100
AcDbTrace
 10
498.190510844451
 20
268.9257104918139
 30
0.0
 11
498.790510844451
 21
268.9257104918139
 31
0.0
 12
498.490510844451
 22
267.1257104918139
 32
0.0
 13
498.490510844451
 23
267.1257104918139
 33
0.0
  0
MTEXT
  5
5632
330
5491
100
AcDbEntity
  8
AM_REFDIM
100
AcDbMText
 10
496.8403041515376
 20
277.4431952428562
 30
0.0
 40
2.1
 41
0.0
 71
     5
 72
     1
  1
24
 11
0.0000000000000001
 21
1.0
 31
0.0
 73
     1
 44
1.0
1001
ACAD
1000
MTEXTBEGIN
1070
    73
1070
     1
1070
    44
1040
1.0
1070
    74
1070
     0
1000
MTEXTEND
  0
POINT
  5
5633
330
5491
100
AcDbEntity
  8
Defpoints
 62
     0
100
AcDbPoint
 10
488.098421084137
 20
291.1257104918139
 30
0.0
  0
POINT
  5
5634
330
5491
100
AcDbEntity
  8
Defpoints
 62
     0
100
AcDbPoint
 10
490.5984210841372
 20
267.1257104918139
 30
0.0
  0
POINT
  5
5635
330
5491
100
AcDbEntity
  8
Defpoints
 62
     0
100
AcDbPoint
 10
498.490510844451
 20
267.1257104918139
 30
0.0
  0
ENDBLK
  5
549C
330
5491
100
AcDbEntity
  8
0
100
AcDbBlockEnd
  0
BLOCK
  5
54C1
330
54B7
100
AcDbEntity
  8
0
100
AcDbBlockBegin
  2
*D13
 70
     1
 10
0.0
 20
0.0
 30
0.0
  3
*D13
  1

  0
LINE
  5
5636
330
54B7
100
AcDbEntity
  8
AM_REFDIM
100
AcDbLine
 10
472.598421084137
 20
267.5257104918139
 30
0.0
 11
472.598421084137
 21
259.6075976930743
 31
0.0
  0
LINE
  5
5637
330
54B7
100
AcDbEntity
  8
AM_REFDIM
100
AcDbLine
 10
491.598421084137
 20
267.5257104918139
 30
0.0
 11
491.598421084137
 21
259.6075976930743
 31
0.0
  0
LINE
  5
5638
330
54B7
100
AcDbEntity
  8
AM_REFDIM
100
AcDbLine
 10
474.398421084137
 20
260.2075976930743
 30
0.0
 11
489.798421084137
 21
260.2075976930743
 31
0.0
  0
SOLID
  5
5639
330
54B7
100
AcDbEntity
  8
AM_REFDIM
100
AcDbTrace
 10
474.398421084137
 20
260.5075976930743
 30
0.0
 11
474.398421084137
 21
259.9075976930743
 31
0.0
 12
472.598421084137
 22
260.2075976930743
 32
0.0
 13
472.598421084137
 23
260.2075976930743
 33
0.0
  0
SOLID
  5
563A
330
54B7
100
AcDbEntity
  8
AM_REFDIM
100
AcDbTrace
 10
489.798421084137
 20
260.5075976930743
 30
0.0
 11
489.798421084137
 21
259.9075976930743
 31
0.0
 12
491.598421084137
 22
260.2075976930743
 32
0.0
 13
491.598421084137
 23
260.2075976930743
 33
0.0
  0
MTEXT
  5
563B
330
54B7
100
AcDbEntity
  8
AM_REFDIM
100
AcDbMText
 10
482.098421084137
 20
261.8575976930743
 30
0.0
 40
2.1
 41
0.0
 71
     5
 72
     1
  1
19
 73
     1
 44
1.0
1001
ACAD
1000
MTEXTBEGIN
1070
    73
1070
     1
1070
    44
1040
1.0
1070
    74
1070
     0
1000
MTEXTEND
  0
POINT
  5
563C
330
54B7
100
AcDbEntity
  8
Defpoints
 62
     0
100
AcDbPoint
 10
472.598421084137
 20
268.1257104918139
 30
0.0
  0
POINT
  5
563D
330
54B7
100
AcDbEntity
  8
Defpoints
 62
     0
100
AcDbPoint
 10
491.598421084137
 20
268.1257104918139
 30
0.0
  0
POINT
  5
563E
330
54B7
100
AcDbEntity
  8
Defpoints
 62
     0
100
AcDbPoint
 10
491.598421084137
 20
260.2075976930743
 30
0.0
  0
ENDBLK
  5
54C2
330
54B7
100
AcDbEntity
  8
0
100
AcDbBlockEnd
  0
BLOCK
  5
56A0
330
5694
100
AcDbEntity
  8
0
100
AcDbBlockBegin
  2
*D14
 70
     1
 10
0.0
 20
0.0
 30
0.0
  3
*D14
  1

  0
LINE
  5
56BA
330
5694
100
AcDbEntity
  8
AM_REFDIM
100
AcDbLine
 10
490.698421084137
 20
323.1257104918139
 30
0.0
 11
499.0905108444511
 21
323.1257104918139
 31
0.0
  0
LINE
  5
56BB
330
5694
100
AcDbEntity
  8
AM_REFDIM
100
AcDbLine
 10
490.698421084137
 20
311.125710491814
 30
0.0
 11
499.0905108444511
 21
311.125710491814
 31
0.0
  0
LINE
  5
56BC
330
5694
100
AcDbEntity
  8
AM_REFDIM
100
AcDbLine
 10
498.4905108444511
 20
321.3257104918139
 30
0.0
 11
498.4905108444511
 21
312.9257104918139
 31
0.0
  0
SOLID
  5
56BD
330
5694
100
AcDbEntity
  8
AM_REFDIM
100
AcDbTrace
 10
498.1905108444511
 20
321.3257104918139
 30
0.0
 11
498.7905108444511
 21
321.3257104918139
 31
0.0
 12
498.4905108444511
 22
323.1257104918139
 32
0.0
 13
498.4905108444511
 23
323.1257104918139
 33
0.0
  0
SOLID
  5
56BE
330
5694
100
AcDbEntity
  8
AM_REFDIM
100
AcDbTrace
 10
498.1905108444511
 20
312.9257104918139
 30
0.0
 11
498.7905108444511
 21
312.9257104918139
 31
0.0
 12
498.4905108444511
 22
311.125710491814
 32
0.0
 13
498.4905108444511
 23
311.125710491814
 33
0.0
  0
MTEXT
  5
56BF
330
5694
100
AcDbEntity
  8
AM_REFDIM
100
AcDbMText
 10
496.8403041515377
 20
317.125710491814
 30
0.0
 40
2.1
 41
0.0
 71
     5
 72
     1
  1
%%c12
 11
0.0000000000000001
 21
1.0
 31
0.0
 73
     1
 44
1.0
1001
ACAD
1000
MTEXTBEGIN
1070
    73
1070
     1
1070
    44
1040
1.0
1070
    74
1070
     0
1000
MTEXTEND
  0
POINT
  5
56C0
330
5694
100
AcDbEntity
  8
Defpoints
 62
     0
100
AcDbPoint
 10
490.098421084137
 20
323.1257104918139
 30
0.0
  0
POINT
  5
56C1
330
5694
100
AcDbEntity
  8
Defpoints
 62
     0
100
AcDbPoint
 10
490.098421084137
 20
311.125710491814
 30
0.0
  0
POINT
  5
56C2
330
5694
100
AcDbEntity
  8
Defpoints
 62
     0
100
AcDbPoint
 10
498.4905108444511
 20
311.125710491814
 30
0.0
  0
ENDBLK
  5
56A1
330
5694
100
AcDbEntity
  8
0
100
AcDbBlockEnd
  0
ENDSEC
  0
SECTION
  2
ENTITIES
  0
TEXT
  5
179B
330
1F
100
AcDbEntity
  8
LOGO
 62
     7
100
AcDbText
 10
415.6192888117807
 20
248.2204623691517
 30
0.0
 40
1.343805393665158
  1
Order example:
 41
0.8
  7
CHINESET
100
AcDbText
  0
TEXT
  5
179C
330
1F
100
AcDbEntity
  8
LOGO
 62
     7
100
AcDbText
 10
415.8603786122228
 20
250.1122621249752
 30
0.0
 40
2.015708090497737
  1
訂購代號：
  7
CHINESET
100
AcDbText
  0
LINE
  5
179D
330
1F
100
AcDbEntity
  8
LOGO
 62
     4
100
AcDbLine
 10
415.0354008103074
 20
242.5571589878777
 30
0.0
 11
415.0354008103074
 21
252.6356994403664
 31
0.0
  0
TEXT
  5
179E
330
1F
100
AcDbEntity
  8
LOGO
  6
Continuous
100
AcDbText
 10
396.4828688492822
 20
244.5370730499254
 30
0.0
 40
1.511781067873303
  1
金器工業股份有限公司
  7
CHINESET
100
AcDbText
  0
TEXT
  5
179F
330
1F
100
AcDbEntity
  8
LOGO
  6
Continuous
100
AcDbText
 10
393.7060261187336
 20
243.024995791491
 30
0.0
 40
1.007854045248868
  1
MINDMAN INDUSTRIAL CO., LTD.
 41
0.85
  7
CHINESET
100
AcDbText
  0
LINE
  5
17A0
330
1F
100
AcDbEntity
  8
LOGO
 62
     4
100
AcDbLine
 10
415.0354008103074
 20
250.6199913498687
 30
0.0
 11
400.2535414799906
 21
250.6199913498687
 31
0.0
  0
LINE
  5
17A1
330
1F
100
AcDbEntity
  8
LOGO
 62
     4
100
AcDbLine
 10
415.0354008103074
 20
248.6042832593709
 30
0.0
 11
400.2535414799906
 21
248.6042832593709
 31
0.0
  0
LINE
  5
17A2
330
1F
100
AcDbEntity
  8
LOGO
 62
     4
100
AcDbLine
 10
415.0354008103074
 20
246.5885751688733
 30
0.0
 11
392.8626118148323
 21
246.5885751688733
 31
0.0
  0
LINE
  5
17A3
330
1F
100
AcDbEntity
  8
LOGO
 62
     4
100
AcDbLine
 10
400.2535414799906
 20
246.5885751688733
 30
0.0
 11
400.2535414799906
 21
252.6356994403664
 31
0.0
  0
TEXT
  5
17A4
330
1F
100
AcDbEntity
  8
LOGO
100
AcDbText
 10
410.356244639129
 20
247.0925021914976
 30
0.0
 40
1.007854045248868
  1
mm
  7
CHINESET
 72
     1
 11
411.6040639332466
 21
247.596429214122
 31
0.0
100
AcDbText
 73
     2
  0
TEXT
  5
17A5
330
1F
100
AcDbEntity
  8
LOGO
100
AcDbText
 10
409.8283210916176
 20
251.1239183724931
 30
0.0
 40
1.007854045248868
  1
1 : 1
  7
CHINESET
 72
     1
 11
411.6040639332466
 21
251.6278453951175
 31
0.0
100
AcDbText
 73
     2
  0
LINE
  5
17A6
330
1F
100
AcDbEntity
  8
LOGO
 62
     4
100
AcDbLine
 10
408.3163738419815
 20
246.5885751688733
 30
0.0
 11
408.3163738419815
 21
252.6356994403664
 31
0.0
  0
TEXT
  5
17A7
330
1F
100
AcDbEntity
  8
LOGO
100
AcDbText
 10
401.0845711324793
 20
251.1244143636571
 30
66.05309378306509
 40
1.007854045248868
  1
比例 Scale:
 41
0.9
  7
CHINESET
 72
     4
 11
404.284957660986
 21
251.6278453951175
 31
66.05309378306509
100
AcDbText
  0
TEXT
  5
17A8
330
1F
100
AcDbEntity
  8
LOGO
100
AcDbText
 10
401.0265295379092
 20
249.1223873627663
 30
66.05309378306509
 40
1.007854045248868
  1
投影  View:
 41
0.9
  7
CHINESET
 72
     4
 11
404.284957660986
 21
249.6121373046197
 31
66.05309378306509
100
AcDbText
  0
TEXT
  5
17A9
330
1F
100
AcDbEntity
  8
LOGO
100
AcDbText
 10
401.1250652682258
 20
247.0925021914976
 30
66.05309378306509
 40
1.007854045248868
  1
單位  Unit:
 41
0.9
  7
CHINESET
 72
     4
 11
404.284957660986
 21
247.596429214122
 31
66.05309378306509
100
AcDbText
  0
LWPOLYLINE
  5
17AA
330
1F
100
AcDbEntity
  8
LOGO
 62
     4
100
AcDbPolyline
 90
        4
 70
     1
 43
0.0
 10
392.8626118148323
 20
252.6356994403664
 10
515.7847583909133
 20
252.6356994403664
 10
515.7847583909133
 20
361.5014508973792
 10
392.8626118148323
 20
361.5014508973797
1001
GENIUS_GENREC_14
1002
{
1000
PYDIR
1011
392.8626118148323
1021
361.5014508973797
1031
0.0
1002
}
1002
{
1000
PXDIR
1011
515.7847583909133
1021
252.6356994403664
1031
0.0
1002
}
1002
{
1000
PORI
1011
392.8626118148323
1021
252.6356994403664
1031
0.0
1002
}
1002
{
1000
PINS
1011
392.8626118148323
1021
252.6356994403664
1031
0.0
1002
}
1002
{
1000
PINS2
1011
515.7847583909133
1021
361.5014508973792
1031
0.0
1002
}
1002
{
1000
C
1070
     1
1002
}
1001
GENIUS_GENODEF_13
1002
{
1000
HIER
1070
     0
1002
}
1002
{
1000
MANEDIT
1070
     0
1002
}
1002
{
1000
NOSEL
1070
     0
1002
}
1002
{
1000
BEHIND
1070
     0
1002
}
1002
{
1000
OTHER
1070
     0
1002
}
1002
{
1000
REACTOR
1002
}
1001
GENIUS_GENOBJ-N-REC_13
1002
{
1000
OWNER
1000
GEN
1002
}
  0
SOLID
  5
17AB
330
1F
100
AcDbEntity
  8
LOGO
 62
     5
100
AcDbTrace
 10
393.9082765616051
 20
248.2639890623727
 30
0.0
 11
394.3440462046805
 21
248.2639890623726
 31
0.0
 12
396.1622574740643
 22
252.3962874018815
 32
0.0
 13
396.59802711714
 23
252.3962874018812
 33
0.0
  0
SOLID
  5
17AC
330
1F
100
AcDbEntity
  8
LOGO
 62
     5
100
AcDbTrace
 10
394.5243646776777
 20
248.2639890623727
 30
0.0
 11
394.9601343207532
 21
248.2639890623727
 31
0.0
 12
396.59802711714
 22
252.0657035347206
 32
0.0
 13
396.1622574740643
 23
250.4678815101105
 33
0.0
  0
SOLID
  5
17AD
330
1F
100
AcDbEntity
  8
LOGO
 62
     2
100
AcDbTrace
 10
394.3440462046805
 20
248.2639890623726
 30
0.0
 11
394.5243646776777
 21
248.2639890623727
 31
0.0
 12
396.59802711714
 22
252.3962874018812
 32
0.0
 13
396.7783455901369
 23
252.3962874018812
 33
0.0
  0
SOLID
  5
17AE
330
1F
100
AcDbEntity
  8
LOGO
 62
     5
100
AcDbTrace
 10
393.2096309599485
 20
246.7613351207333
 30
0.0
 11
393.3598963541127
 21
246.7613351207333
 31
0.0
 12
393.7830553998019
 22
247.5126620915529
 32
0.0
 13
393.9333207939656
 23
247.5126620915529
 33
0.0
  0
SOLID
  5
17AF
330
1F
100
AcDbEntity
  8
LOGO
 62
     5
100
AcDbTrace
 10
393.7830553998019
 20
247.5126620915529
 30
0.0
 11
393.9333207939656
 21
247.5126620915529
 31
0.0
 12
393.7830553998019
 22
246.7613351207333
 32
0.0
 13
393.9333207939656
 23
246.7613351207333
 33
0.0
  0
SOLID
  5
17B0
330
1F
100
AcDbEntity
  8
LOGO
 62
     5
100
AcDbTrace
 10
393.7830553998019
 20
246.7613351207333
 30
0.0
 11
393.9333207939656
 21
246.7613351207333
 31
0.0
 12
394.3564798396555
 22
247.5126620915529
 32
0.0
 13
394.5067452338195
 23
247.5126620915529
 33
0.0
  0
SOLID
  5
17B1
330
1F
100
AcDbEntity
  8
LOGO
 62
     5
100
AcDbTrace
 10
394.3564798396555
 20
247.5126620915529
 30
0.0
 11
394.5067452338195
 21
247.5126620915529
 31
0.0
 12
394.3564798396555
 22
246.7613351207333
 32
0.0
 13
394.5067452338195
 23
246.7613351207333
 33
0.0
  0
POLYLINE
  5
17B2
330
1F
100
AcDbEntity
  8
LOGO
 62
     5
100
AcDb2dPolyline
 66
     1
 10
0.0
 20
0.0
 30
0.0
 40
0.1505062040904977
 41
0.1505062040904977
  0
VERTEX
  5
17B3
330
17B2
100
AcDbEntity
  8
LOGO
 62
     5
100
AcDbVertex
100
AcDb2dVertex
 10
399.3933246634795
 20
247.212131303225
 30
0.0
 42
1.0
  0
VERTEX
  5
17B4
330
17B2
100
AcDbEntity
  8
LOGO
 62
     5
100
AcDbVertex
100
AcDb2dVertex
 10
398.9418060512079
 20
247.212131303225
 30
0.0
 42
1.0
  0
SEQEND
  5
17B5
330
17B2
100
AcDbEntity
  8
LOGO
 62
     5
  0
POLYLINE
  5
17B6
330
1F
100
AcDbEntity
  8
LOGO
 62
     5
100
AcDb2dPolyline
 66
     1
 10
0.0
 20
0.0
 30
0.0
 70
     1
  0
VERTEX
  5
17B7
330
17B6
100
AcDbEntity
  8
LOGO
 62
     5
100
AcDbVertex
100
AcDb2dVertex
 10
398.0906733835281
 20
247.136998606143
 30
0.0
 42
1.000000057330635
  0
VERTEX
  5
17B8
330
17B6
100
AcDbEntity
  8
LOGO
 62
     5
100
AcDbVertex
100
AcDb2dVertex
 10
398.54146956602
 20
247.136998606143
 30
0.0
 42
1.000000057330635
  0
SEQEND
  5
17B9
330
17B6
100
AcDbEntity
  8
LOGO
 62
     5
  0
CIRCLE
  5
17BA
330
1F
100
AcDbEntity
  8
LOGO
 62
     5
100
AcDbCircle
 10
398.3160714747743
 20
247.136998606143
 30
0.0
 40
0.2253980912459294
  0
POLYLINE
  5
17BB
330
1F
100
AcDbEntity
  8
LOGO
 62
     5
100
AcDb2dPolyline
 66
     1
 10
0.0
 20
0.0
 30
0.0
 70
     1
 40
0.1505062040904977
 41
0.1505062040904977
  0
VERTEX
  5
17BC
330
17BB
100
AcDbEntity
  8
LOGO
 62
     5
100
AcDbVertex
100
AcDb2dVertex
 10
398.0150590665931
 20
247.136998606143
 30
0.0
 42
1.0
  0
VERTEX
  5
17BD
330
17BB
100
AcDbEntity
  8
LOGO
 62
     5
100
AcDbVertex
100
AcDb2dVertex
 10
398.6170838829551
 20
247.136998606143
 30
0.0
 42
1.0
  0
SEQEND
  5
17BE
330
17BB
100
AcDbEntity
  8
LOGO
 62
     5
  0
LINE
  5
17BF
330
1F
100
AcDbEntity
  8
LOGO
100
AcDbLine
 10
399.4680961456714
 20
246.7613351207333
 30
0.0
 11
399.4680961456714
 21
247.212131303225
 31
0.0
  0
SOLID
  5
17C0
330
1F
100
AcDbEntity
  8
LOGO
 62
     5
100
AcDbTrace
 10
398.5414545394812
 20
247.5126620915529
 30
0.0
 11
398.6917199336448
 21
247.5126620915529
 31
0.0
 12
398.5414545394812
 22
246.7613351207333
 32
0.0
 13
398.6917199336448
 23
246.7613351207333
 33
0.0
  0
SOLID
  5
17C1
330
1F
100
AcDbEntity
  8
LOGO
 62
     5
100
AcDbTrace
 10
398.8670345690156
 20
246.7613351207333
 30
0.0
 11
399.0172999631797
 21
246.7613351207333
 31
0.0
 12
398.8670345690156
 22
247.5126620915529
 32
0.0
 13
399.0172999631797
 23
247.5126620915529
 33
0.0
  0
SOLID
  5
17C2
330
1F
100
AcDbEntity
  8
LOGO
 62
     5
100
AcDbTrace
 10
399.3178307515078
 20
247.212131303225
 30
0.0
 11
399.4680961456714
 21
247.212131303225
 31
0.0
 12
399.3178307515078
 22
246.7613351207333
 32
0.0
 13
399.4680961456714
 23
246.7613351207333
 33
0.0
  0
SOLID
  5
17C3
330
1F
100
AcDbEntity
  8
LOGO
 62
     5
100
AcDbTrace
 10
398.8520080295992
 20
252.0657035347206
 30
0.0
 11
398.416238386524
 21
250.4678815101105
 31
0.0
 12
398.8520080295992
 22
248.2639890623726
 32
0.0
 13
398.416238386524
 23
248.2639890623726
 33
0.0
  0
SOLID
  5
17C4
330
1F
100
AcDbEntity
  8
LOGO
 62
     5
100
AcDbTrace
 10
399.0323265025962
 20
248.2639890623726
 30
0.0
 11
399.4680961456714
 21
248.2639890623726
 31
0.0
 12
399.0323265025962
 22
252.3962874018812
 32
0.0
 13
399.4680961456714
 23
252.3962874018815
 33
0.0
  0
SOLID
  5
17C5
330
1F
100
AcDbEntity
  8
LOGO
 62
     2
100
AcDbTrace
 10
398.8520080295992
 20
252.3962874018815
 30
0.0
 11
399.0323265025962
 21
252.3962874018812
 31
0.0
 12
398.8520080295992
 22
248.2639890623726
 32
0.0
 13
399.0323265025962
 23
248.2639890623726
 33
0.0
  0
POLYLINE
  5
17C6
330
1F
100
AcDbEntity
  8
LOGO
 62
     5
100
AcDb2dPolyline
 66
     1
 10
0.0
 20
0.0
 30
0.0
 40
0.1505062040904977
 41
0.1505062040904977
  0
VERTEX
  5
17C7
330
17C6
100
AcDbEntity
  8
LOGO
 62
     5
100
AcDbVertex
100
AcDb2dVertex
 10
397.2395106627699
 20
247.212131303225
 30
0.0
 42
1.0
  0
VERTEX
  5
17C8
330
17C6
100
AcDbEntity
  8
LOGO
 62
     5
100
AcDbVertex
100
AcDb2dVertex
 10
396.7879920504984
 20
247.212131303225
 30
0.0
 42
1.0
  0
SEQEND
  5
17C9
330
17C6
100
AcDbEntity
  8
LOGO
 62
     5
  0
POLYLINE
  5
17CA
330
1F
100
AcDbEntity
  8
LOGO
 62
     5
100
AcDb2dPolyline
 66
     1
 10
0.0
 20
0.0
 30
0.0
 40
0.1505062040904977
 41
0.1505062040904977
  0
VERTEX
  5
17CB
330
17CA
100
AcDbEntity
  8
LOGO
 62
     5
100
AcDbVertex
100
AcDb2dVertex
 10
397.6903068452614
 20
247.212131303225
 30
0.0
 42
1.0
  0
VERTEX
  5
17CC
330
17CA
100
AcDbEntity
  8
LOGO
 62
     5
100
AcDbVertex
100
AcDb2dVertex
 10
397.2387882329901
 20
247.212131303225
 30
0.0
 42
1.0
  0
SEQEND
  5
17CD
330
17CA
100
AcDbEntity
  8
LOGO
 62
     5
  0
POLYLINE
  5
17CE
330
1F
100
AcDbEntity
  8
LOGO
 62
     5
100
AcDb2dPolyline
 66
     1
 10
0.0
 20
0.0
 30
0.0
 40
0.1505062040904977
 41
0.1505062040904977
  0
VERTEX
  5
17CF
330
17CE
100
AcDbEntity
  8
LOGO
 62
     5
100
AcDbVertex
100
AcDb2dVertex
 10
395.5364928445519
 20
247.212131303225
 30
0.0
 42
1.0
  0
VERTEX
  5
17D0
330
17CE
100
AcDbEntity
  8
LOGO
 62
     5
100
AcDbVertex
100
AcDb2dVertex
 10
395.0849742322804
 20
247.212131303225
 30
0.0
 42
1.0
  0
SEQEND
  5
17D1
330
17CE
100
AcDbEntity
  8
LOGO
 62
     5
  0
SOLID
  5
17D2
330
1F
100
AcDbEntity
  8
LOGO
 62
     5
100
AcDbTrace
 10
395.0102027500884
 20
247.5126620915529
 30
0.0
 11
395.160468144252
 21
247.5126620915529
 31
0.0
 12
395.0102027500884
 22
246.7613351207333
 32
0.0
 13
395.160468144252
 23
246.7613351207333
 33
0.0
  0
SOLID
  5
17D3
330
1F
100
AcDbEntity
  8
LOGO
 62
     5
100
AcDbTrace
 10
395.4609989325803
 20
247.212131303225
 30
0.0
 11
395.6112643267444
 21
247.212131303225
 31
0.0
 12
395.4609989325803
 22
246.7613351207333
 32
0.0
 13
395.6112643267444
 23
246.7613351207333
 33
0.0
  0
POLYLINE
  5
17D4
330
1F
100
AcDbEntity
  8
LOGO
 62
     5
100
AcDb2dPolyline
 66
     1
 10
0.0
 20
0.0
 30
0.0
 70
     1
 40
0.1505062040904977
 41
0.1505062040904977
  0
VERTEX
  5
17D5
330
17D4
100
AcDbEntity
  8
LOGO
 62
     5
100
AcDbVertex
100
AcDb2dVertex
 10
395.8612450658833
 20
247.136998606143
 30
0.0
 42
1.0
  0
VERTEX
  5
17D6
330
17D4
100
AcDbEntity
  8
LOGO
 62
     5
100
AcDbVertex
100
AcDb2dVertex
 10
396.4632698822455
 20
247.136998606143
 30
0.0
 42
1.0
  0
SEQEND
  5
17D7
330
17D4
100
AcDbEntity
  8
LOGO
 62
     5
  0
SOLID
  5
17D8
330
1F
100
AcDbEntity
  8
LOGO
 62
     5
100
AcDbTrace
 10
396.3876405387712
 20
247.738060182799
 30
0.0
 11
396.5379059329351
 21
247.738060182799
 31
0.0
 12
396.3876405387712
 22
246.7613351207333
 32
0.0
 13
396.5379059329351
 23
246.7613351207333
 33
0.0
  0
SOLID
  5
17D9
330
1F
100
AcDbEntity
  8
LOGO
 62
     5
100
AcDbTrace
 10
396.7132205683066
 20
247.5126620915529
 30
0.0
 11
396.8634859624702
 21
247.5126620915529
 31
0.0
 12
396.7132205683066
 22
246.7613351207333
 32
0.0
 13
396.8634859624702
 23
246.7613351207333
 33
0.0
  0
SOLID
  5
17DA
330
1F
100
AcDbEntity
  8
LOGO
 62
     5
100
AcDbTrace
 10
397.1640167507979
 20
247.212131303225
 30
0.0
 11
397.314282144962
 21
247.212131303225
 31
0.0
 12
397.1640167507979
 22
246.7613351207333
 32
0.0
 13
397.314282144962
 23
246.7613351207333
 33
0.0
  0
SOLID
  5
17DB
330
1F
100
AcDbEntity
  8
LOGO
 62
     5
100
AcDbTrace
 10
397.6148129332898
 20
247.212131303225
 30
0.0
 11
397.7650783274537
 21
247.212131303225
 31
0.0
 12
397.6148129332898
 22
246.761335120733
 32
0.0
 13
397.7650783274537
 23
246.761335120733
 33
0.0
  0
SOLID
  5
17DC
330
1F
100
AcDbEntity
  8
LOGO
 62
     5
100
AcDbTrace
 10
394.6846227205532
 20
247.6178478674677
 30
0.0
 11
394.8348881147176
 21
247.6178478674677
 31
0.0
 12
394.6846227205532
 22
247.738060182799
 32
0.0
 13
394.8348881147176
 23
247.738060182799
 33
0.0
  0
SOLID
  5
17DD
330
1F
100
AcDbEntity
  8
LOGO
 62
     5
100
AcDbTrace
 10
394.6846227205532
 20
247.5126620915529
 30
0.0
 11
394.8348881147176
 21
247.5126620915529
 31
0.0
 12
394.6846227205532
 22
246.761335120733
 32
0.0
 13
394.8348881147176
 23
246.7613351207333
 33
0.0
  0
SOLID
  5
17DE
330
1F
100
AcDbEntity
  8
LOGO
 62
     5
100
AcDbTrace
 10
396.1622574740643
 20
248.2639890623727
 30
0.0
 11
396.59802711714
 21
248.2639890623727
 31
0.0
 12
396.1622574740643
 22
250.4678815101105
 32
0.0
 13
396.59802711714
 23
252.0657035347206
 33
0.0
  0
SOLID
  5
17DF
330
1F
100
AcDbEntity
  8
LOGO
 62
     5
100
AcDbTrace
 10
396.7783455901369
 20
252.3962874018812
 30
0.0
 11
397.2141152332122
 21
252.3962874018815
 31
0.0
 12
396.7783455901369
 22
248.5945729295333
 32
0.0
 13
397.2141152332122
 23
250.1923949541434
 33
0.0
  0
SOLID
  5
17E0
330
1F
100
AcDbEntity
  8
LOGO
 62
     2
100
AcDbTrace
 10
396.59802711714
 20
252.3962874018812
 30
0.0
 11
396.7783455901369
 21
252.3962874018812
 31
0.0
 12
396.59802711714
 22
248.2639890623727
 32
0.0
 13
396.7783455901369
 23
248.2639890623727
 33
0.0
  0
SOLID
  5
17E1
330
1F
100
AcDbEntity
  8
LOGO
 62
     5
100
AcDbTrace
 10
396.7783455901369
 20
248.5945729295333
 30
0.0
 11
397.2141152332122
 21
250.1923949541434
 31
0.0
 12
398.8520080295992
 22
252.3962874018815
 32
0.0
 13
398.416238386524
 23
252.3962874018815
 33
0.0
  0
SOLID
  5
17E2
330
1F
100
AcDbEntity
  8
LOGO
 62
     5
100
AcDbTrace
 10
396.7783455901369
 20
248.2639890623727
 30
0.0
 11
397.2141152332122
 21
248.2639890623727
 31
0.0
 12
398.8520080295992
 22
252.0657035347206
 32
0.0
 13
398.416238386524
 23
250.4678815101105
 33
0.0
  0
SOLID
  5
17E3
330
1F
100
AcDbEntity
  8
LOGO
 62
     2
100
AcDbTrace
 10
396.59802711714
 20
248.2639890623727
 30
0.0
 11
396.7783455901369
 21
248.2639890623727
 31
0.0
 12
398.8520080295992
 22
252.3962874018815
 32
0.0
 13
399.0323265025962
 23
252.3962874018812
 33
0.0
  0
LWPOLYLINE
  5
17E4
330
1F
100
AcDbEntity
  8
LOGO
 62
     4
100
AcDbPolyline
 90
        4
 70
     1
 43
0.0
 10
392.8626118148323
 20
252.6356994403665
 10
515.7847583909133
 20
252.6356994403664
 10
515.7847583909133
 20
242.5571589878776
 10
392.8626118148323
 20
242.5571589878776
1001
GENIUS_GENREC_14
1002
{
1000
PYDIR
1011
392.8626118148323
1021
242.5571589878776
1031
0.0
1002
}
1002
{
1000
PXDIR
1011
515.7847583909133
1021
252.6356994403664
1031
0.0
1002
}
1002
{
1000
PORI
1011
392.8626118148323
1021
252.6356994403665
1031
0.0
1002
}
1002
{
1000
PINS
1011
392.8626118148323
1021
252.6356994403665
1031
0.0
1002
}
1002
{
1000
PINS2
1011
515.7847583909133
1021
242.5571589878776
1031
0.0
1002
}
1002
{
1000
C
1070
     1
1002
}
1001
GENIUS_GENOBJ-N-REC_13
1002
{
1000
OWNER
1000
GEN
1002
}
1001
GENIUS_GENODEF_13
1002
{
1000
HIER
1070
     0
1002
}
1002
{
1000
MANEDIT
1070
     0
1002
}
1002
{
1000
NOSEL
1070
     0
1002
}
1002
{
1000
BEHIND
1070
     0
1002
}
1002
{
1000
OTHER
1070
     0
1002
}
1002
{
1000
REACTOR
1002
}
  0
LINE
  5
17E5
330
1F
100
AcDbEntity
  8
LOGO
 62
     4
100
AcDbLine
 10
437.4436265052698
 20
247.0925021914978
 30
0.0
 11
437.4436265052698
 21
243.3970373589183
 31
0.0
  0
LINE
  5
17E6
330
1F
100
AcDbEntity
  8
LOGO
 62
     4
100
AcDbLine
 10
430.724599536944
 20
247.0925021914978
 30
0.0
 11
430.724599536944
 21
243.3970373589183
 31
0.0
  0
LINE
  5
17E7
330
1F
100
AcDbEntity
  8
LOGO
 62
     4
100
AcDbLine
 10
437.4436265052698
 20
243.3970373589183
 30
0.0
 11
430.724599536944
 21
243.3970373589183
 31
0.0
  0
LINE
  5
17E8
330
1F
100
AcDbEntity
  8
LOGO
 62
     4
100
AcDbLine
 10
440.016818105329
 20
251.6278453951175
 30
0.0
 11
428.8979858943727
 21
251.6278453951175
 31
0.0
  0
LINE
  5
17E9
330
1F
100
AcDbEntity
  8
LOGO
 62
     4
100
AcDbLine
 10
440.016818105329
 20
248.6042832593709
 30
0.0
 11
428.8979858943727
 21
248.6042832593709
 31
0.0
  0
LINE
  5
17EA
330
1F
100
AcDbEntity
  8
LOGO
 62
     4
100
AcDbLine
 10
428.8979858943727
 20
251.6278453951175
 30
0.0
 11
428.8979858943727
 21
248.6042832593709
 31
0.0
  0
LINE
  5
17EB
330
1F
100
AcDbEntity
  8
LOGO
 62
     4
100
AcDbLine
 10
440.016818105329
 20
251.6278453951175
 30
0.0
 11
440.016818105329
 21
248.6042832593709
 31
0.0
  0
LINE
  5
17EC
330
1F
100
AcDbEntity
  8
LOGO
 62
     4
100
AcDbLine
 10
434.434677467738
 20
248.6042832593709
 30
0.0
 11
434.434677467738
 21
247.0925021914978
 31
0.0
  0
TEXT
  5
17ED
330
1F
100
AcDbEntity
  8
LOGO
  6
Continuous
100
AcDbText
 10
430.0451998081385
 20
249.2354474347606
 30
0.0
 40
1.679999999999999
  1
PHS-12EC
100
AcDbText
  0
LINE
  5
17EE
330
1F
100
AcDbEntity
  8
LOGO
 62
     4
100
AcDbLine
 10
437.4436265052698
 20
247.0925021914978
 30
0.0
 11
430.724599536944
 21
247.0925021914978
 31
0.0
  0
TEXT
  5
17EF
330
1F
100
AcDbEntity
  8
LOGO
  6
Continuous
100
AcDbText
 10
432.8807140189641
 20
243.9186443836217
 30
66.05309378306509
 40
0.7560000000000001
  1
Model
 41
0.8
  7
CHINESET
100
AcDbText
  0
TEXT
  5
17F0
330
1F
100
AcDbEntity
  8
LOGO
100
AcDbText
 10
432.6794913950124
 20
245.3201054539931
 30
66.05309378306509
 40
1.26
  1
型號
  7
CHINESET
100
AcDbText
  0
TEXT
  5
1824
330
1F
100
AcDbEntity
  8
LOGO
100
AcDbText
 10
415.4351747482912
 20
243.093333362014
 30
0.0
 40
1.008
  1
01205030
 41
0.7
  7
CHINESET
 72
     1
 11
417.9551747482912
 21
243.093333362014
 31
0.0
100
AcDbText
  0
LINE
  5
1825
330
1F
100
AcDbEntity
  8
LOGO
 62
     4
100
AcDbLine
 10
421.0834008103069
 20
244.5728670783756
 30
0.0
 11
421.0834008103074
 21
242.5571589878778
 31
0.0
  0
LINE
  5
1826
330
1F
100
AcDbEntity
  8
LOGO
 62
     4
100
AcDbLine
 10
421.0834008103069
 20
244.5728670783756
 30
0.0
 11
415.0354008103074
 21
244.5728670783756
 31
0.0
  0
CIRCLE
  5
1827
330
1F
100
AcDbEntity
  8
LOGO
  6
Continuous
100
AcDbCircle
 10
410.1825416671511
 20
249.6142931117979
 30
0.0
 40
0.5851837808815982
  0
CIRCLE
  5
1828
330
1F
100
AcDbEntity
  8
LOGO
  6
Continuous
100
AcDbCircle
 10
410.1825416671511
 20
249.6142931117979
 30
0.0
 40
0.342865892207461
  0
LINE
  5
1829
330
1F
100
AcDbEntity
  8
LOGO
100
AcDbLine
 10
413.8599044480654
 20
249.0291093309162
 30
0.0
 11
413.8599044480654
 21
250.1994768926796
 31
0.0
  0
LINE
  5
182A
330
1F
100
AcDbEntity
  8
LOGO
100
AcDbLine
 10
412.0253868861535
 20
249.2714272195905
 30
0.0
 11
412.0253868861535
 21
249.9571590040054
 31
0.0
  0
LINE
  5
182B
330
1F
100
AcDbEntity
  8
LOGO
  6
Continuous
100
AcDbLine
 10
412.0253868861535
 20
249.9571590040054
 30
0.0
 11
413.8599044480654
 21
250.1994768926796
 31
0.0
  0
LINE
  5
182C
330
1F
100
AcDbEntity
  8
LOGO
  6
Continuous
100
AcDbLine
 10
412.0253868861535
 20
249.2714272195905
 30
0.0
 11
413.8599044480654
 21
249.0291093309162
 31
0.0
  0
LINE
  5
182D
330
1F
100
AcDbEntity
  8
LOGO
  6
AM_ISO08W050x2
 48
0.3
100
AcDbLine
 10
409.3758570627686
 20
249.6142931117979
 30
0.0
 11
410.9892262715335
 21
249.6142931117979
 31
0.0
1001
GENIUS_GENOREF_13
1005
1832
  0
LINE
  5
182E
330
1F
100
AcDbEntity
  8
LOGO
  6
AM_ISO08W050x2
 48
0.3
100
AcDbLine
 10
410.1825416671511
 20
248.8076085074155
 30
0.0
 11
410.1825416671511
 21
250.4209777161803
 31
0.0
1001
GENIUS_GENOREF_13
1005
1831
  0
LINE
  5
182F
330
1F
100
AcDbEntity
  8
LOGO
  6
CENTER
 48
0.5
100
AcDbLine
 10
411.8786764713776
 20
249.6142931117979
 30
0.0
 11
414.0446344279104
 21
249.6142931117979
 31
0.0
1001
GENIUS_GENOREF_13
1005
1830
  0
POINT
  5
1830
330
1F
100
AcDbEntity
  8
0
 60
     1
100
AcDbPoint
 10
-1582.868394589036
 20
-798.6687030228181
 30
0.0
1001
GENIUS_GENOBJ-N-CRS_13
1002
{
1000
OWNER
1000
GEN
1002
}
1001
GENIUS_GENOLIS_13
1002
{
1000
ENT
1005
0
1005
0
1005
0
1005
182F
1002
}
1001
GENIUS_GENOENT_13
1002
{
1000
MYREF
1005
1830
1002
}
1002
{
1000
GRP
1005
0
1002
}
1001
GENIUS_GENODEF_13
1002
{
1000
HIER
1070
    10
1002
}
1002
{
1000
MANEDIT
1070
     1
1002
}
1002
{
1000
NOSEL
1070
     0
1002
}
1002
{
1000
BEHIND
1070
     0
1002
}
1002
{
1000
OTHER
1070
     0
1002
}
1002
{
1000
REACTOR
1002
}
  0
POINT
  5
1831
330
1F
100
AcDbEntity
  8
0
 60
     1
100
AcDbPoint
 10
-1594.19297981189
 20
-789.7931165441819
 30
0.0
1001
GENIUS_GENOBJ-N-CRS_13
1002
{
1000
OWNER
1000
GEN
1002
}
1001
GENIUS_GENOLIS_13
1002
{
1000
ENT
1005
0
1005
0
1005
0
1005
182E
1002
}
1001
GENIUS_GENOENT_13
1002
{
1000
MYREF
1005
1831
1002
}
1002
{
1000
GRP
1005
0
1002
}
1001
GENIUS_GENODEF_13
1002
{
1000
HIER
1070
    10
1002
}
1002
{
1000
MANEDIT
1070
     1
1002
}
1002
{
1000
NOSEL
1070
     0
1002
}
1002
{
1000
BEHIND
1070
     0
1002
}
1002
{
1000
OTHER
1070
     0
1002
}
1002
{
1000
REACTOR
1002
}
  0
POINT
  5
1832
330
1F
100
AcDbEntity
  8
0
 60
     1
100
AcDbPoint
 10
-1587.834306114053
 20
-798.6687030228181
 30
0.0
1001
GENIUS_GENOBJ-N-CRS_13
1002
{
1000
OWNER
1000
GEN
1002
}
1001
GENIUS_GENOLIS_13
1002
{
1000
ENT
1005
0
1005
0
1005
0
1005
182D
1002
}
1001
GENIUS_GENOENT_13
1002
{
1000
MYREF
1005
1832
1002
}
1002
{
1000
GRP
1005
0
1002
}
1001
GENIUS_GENODEF_13
1002
{
1000
HIER
1070
    10
1002
}
1002
{
1000
MANEDIT
1070
     1
1002
}
1002
{
1000
NOSEL
1070
     0
1002
}
1002
{
1000
BEHIND
1070
     0
1002
}
1002
{
1000
OTHER
1070
     0
1002
}
1002
{
1000
REACTOR
1002
}
  0
ARC
  5
524C
330
1F
100
AcDbEntity
  8
0
  6
Continuous
 62
     7
370
    15
100
AcDbCircle
 10
431.2957580704384
 20
272.6257104918139
 30
0.0
 40
1.0
100
AcDbArc
 50
0.0
 51
90.0
  0
ARC
  5
524D
102
{ACAD_REACTORS
330
5428
102
}
330
1F
100
AcDbEntity
  8
0
  6
Continuous
 62
     7
370
    15
100
AcDbCircle
 10
431.2957580704384
 20
268.1257104918139
 30
0.0
 40
1.0
100
AcDbArc
 50
270.0
 51
0.0
  0
SPLINE
  5
524E
330
1F
100
AcDbEntity
  8
0
  6
Continuous
 62
     7
370
    15
100
AcDbSpline
210
0.0
220
0.0
230
1.0
 70
    24
 71
     1
 72
     4
 73
     2
 74
     0
 42
0.0000000001
 43
0.0000000001
 40
0.0
 40
0.0
 40
1.0
 40
1.0
 10
410.2957580704384
 20
272.6257104918139
 30
0.0
 10
410.2957580704384
 20
268.1257104918139
 30
0.0
  0
ARC
  5
524F
102
{ACAD_REACTORS
330
5428
102
}
330
1F
100
AcDbEntity
  8
0
  6
Continuous
 62
     7
370
    15
100
AcDbCircle
 10
411.2957580704383
 20
268.1257104918139
 30
0.0
 40
1.0
100
AcDbArc
 50
180.0
 51
270.0
  0
ARC
  5
5250
330
1F
100
AcDbEntity
  8
0
  6
Continuous
 62
     7
370
    15
100
AcDbCircle
 10
411.2957580704383
 20
272.6257104918139
 30
0.0
 40
1.0
100
AcDbArc
 50
90.0
 51
180.0
  0
SPLINE
  5
5251
330
1F
100
AcDbEntity
  8
0
  6
Continuous
 62
     7
370
    15
100
AcDbSpline
210
0.0
220
0.0
230
1.0
 70
    24
 71
     1
 72
     4
 73
     2
 74
     0
 42
0.0000000001
 43
0.0000000001
 40
0.0
 40
0.0
 40
1.0
 40
1.0
 10
432.2957580704383
 20
268.1257104918139
 30
0.0
 10
432.2957580704383
 20
272.6257104918139
 30
0.0
  0
SPLINE
  5
5252
330
1F
100
AcDbEntity
  8
0
  6
Continuous
 62
     7
370
    15
100
AcDbSpline
210
0.0
220
0.0
230
1.0
 70
     8
 71
     3
 72
    13
 73
     9
 74
     0
 42
0.0000000001
 43
0.0000000001
 40
0.0
 40
0.0
 40
0.0
 40
0.0
 40
0.1528392374418998
 40
0.3526809171239103
 40
0.505621440124923
 40
0.6854509214094639
 40
0.9895422518744332
 40
1.0
 40
1.0
 40
1.0
 40
1.0
 10
431.1972893384238
 20
305.8467690317367
 30
0.0
 10
431.2081135307461
 20
305.8578057763103
 30
0.0
 10
431.2330906644928
 20
305.8832733804639
 30
0.0
 10
431.265083848401
 20
305.9142800910028
 30
0.0
 10
431.2890695598444
 20
305.9372644342949
 30
0.0
 10
431.3063431851485
 20
305.9535583800665
 30
0.0
 10
431.3148060222809
 20
305.9614624844915
 30
0.0
 10
431.316955986899
 20
305.9634543660288
 30
0.0
 10
431.3170274663279
 20
305.9635205897021
 30
0.0
  0
SPLINE
  5
5253
330
1F
100
AcDbEntity
  8
0
  6
Continuous
 62
     7
370
    15
100
AcDbSpline
210
0.0
220
0.0
230
1.0
 70
     8
 71
     3
 72
    12
 73
     8
 74
     0
 42
0.0000000001
 43
0.0000000001
 40
0.0
 40
0.0
 40
0.0
 40
0.0
 40
0.2457486361785812
 40
0.5330086050182894
 40
0.7031521021104085
 40
0.938779526817993
 40
1.0
 40
1.0
 40
1.0
 40
1.0
 10
411.2750924578237
 20
305.9629295438942
 30
0.0
 10
411.2766910012394
 20
305.9614486172575
 30
0.0
 10
411.2801581105969
 20
305.9582366090321
 30
0.0
 10
411.2985427534079
 20
305.9410658462001
 30
0.0
 10
411.335225853857
 20
305.9057591227137
 30
0.0
 10
411.3704408977249
 20
305.8715948528168
 30
0.0
 10
411.3934126067763
 20
305.8477110087446
 30
0.0
 10
411.3981501808266
 20
305.8427853203839
 30
0.0
  0
LINE
  5
5258
102
{ACAD_REACTORS
330
5400
102
}
330
1F
100
AcDbEntity
  8
0
  6
Continuous
 62
     7
370
    15
100
AcDbLine
 10
431.0457580704384
 20
273.625710491814
 30
0.0
 11
431.2957580704384
 21
273.625710491814
 31
0.0
  0
LINE
  5
525C
102
{ACAD_REACTORS
330
53B2
330
53D8
330
5400
102
}
330
1F
100
AcDbEntity
  8
0
  6
Continuous
 62
     7
370
    15
100
AcDbLine
 10
431.2957580704384
 20
267.125710491814
 30
0.0
 11
424.2076794918467
 21
267.125710491814
 31
0.0
  0
LINE
  5
5266
330
1F
100
AcDbEntity
  8
0
  6
Continuous
 62
     7
370
    15
100
AcDbLine
 10
418.38383664903
 20
267.125710491814
 30
0.0
 11
411.2957580704382
 21
267.125710491814
 31
0.0
  0
LINE
  5
526A
330
1F
100
AcDbEntity
  8
0
  6
Continuous
 62
     7
370
    15
100
AcDbLine
 10
424.2076794918467
 20
267.125710491814
 30
0.0
 11
418.38383664903
 21
267.125710491814
 31
0.0
  0
ELLIPSE
  5
527F
330
1F
100
AcDbEntity
  8
0
  6
Continuous
 62
     7
370
    15
100
AcDbEllipse
 10
421.2957580704384
 20
309.5280039984298
 30
0.0
 11
3.809515093582268
 21
6.903684382982956
 31
0.0
210
0.0
220
0.0
230
1.0
 40
0.9322791399413432
 41
2.837772641064521
 42
3.676029394743664
  0
LINE
  5
5287
330
1F
100
AcDbEntity
  8
0
  6
Continuous
 62
     7
370
    15
100
AcDbLine
 10
412.5457580704384
 20
274.6257104918139
 30
0.0
 11
412.5457580704384
 21
303.0389259048332
 31
0.0
  0
ELLIPSE
  5
528B
330
1F
100
AcDbEntity
  8
0
  6
Continuous
 62
     7
370
    15
100
AcDbEllipse
 10
421.2957580704384
 20
309.5280039984298
 30
0.0
 11
-3.809515093582052
 21
6.903684382983112
 31
0.0
210
0.0
220
0.0
230
1.0
 40
0.9322791399413151
 41
2.607155912435972
 42
3.445412666115108
  0
LINE
  5
528E
330
1F
100
AcDbEntity
  8
0
  6
Continuous
 62
     7
370
    15
100
AcDbLine
 10
430.0457580704383
 20
303.0389259048332
 30
0.0
 11
430.0457580704383
 21
274.6257104918139
 31
0.0
  0
LINE
  5
5290
330
1F
100
AcDbEntity
  8
0
  6
Continuous
 62
     7
370
    15
100
AcDbLine
 10
426.8562895598936
 20
304.0030065763756
 30
0.0
 11
415.7352265809832
 21
304.0030065763756
 31
0.0
  0
CIRCLE
  5
5291
330
1F
100
AcDbEntity
  8
0
  6
Continuous
 62
     7
370
    15
100
AcDbCircle
 10
421.2957580704384
 20
317.125710491814
 30
0.0
 40
7.549834435270753
  0
CIRCLE
  5
5292
330
1F
100
AcDbEntity
  8
0
  6
Continuous
 62
     7
370
    15
100
AcDbCircle
 10
421.2957580704384
 20
317.125710491814
 30
0.0
 40
6.000000000000028
  0
CIRCLE
  5
5293
330
1F
100
AcDbEntity
  8
0
  6
Continuous
 62
     7
370
    15
100
AcDbCircle
 10
421.2957580704384
 20
317.125710491814
 30
0.0
 40
9.219544457292897
  0
LINE
  5
5296
330
1F
100
AcDbEntity
  8
0
  6
Continuous
 62
     7
370
    15
100
AcDbLine
 10
426.8562895598936
 20
304.0030065763756
 30
0.0
 11
428.6908560397685
 21
305.2382159692492
 31
0.0
  0
LINE
  5
5299
330
1F
100
AcDbEntity
  8
0
  6
Continuous
 62
     7
370
    15
100
AcDbLine
 10
413.9006601011082
 20
305.2382159692492
 30
0.0
 11
415.7352265809832
 21
304.0030065763756
 31
0.0
  0
ARC
  5
52A3
102
{ACAD_REACTORS
330
5388
102
}
330
1F
100
AcDbEntity
  8
0
  6
Continuous
 62
     7
370
    15
100
AcDbCircle
 10
421.2962635621188
 20
317.1255151717015
 30
0.0
 40
15.00019440782295
100
AcDbArc
 50
311.9161453982676
 51
227.84970835116
  0
ARC
  5
52A4
330
1F
100
AcDbEntity
  8
0
  6
Continuous
 62
     7
370
    15
100
AcDbCircle
 10
421.2957580704384
 20
317.125710491814
 30
0.0
 40
13.99999999999998
100
AcDbArc
 50
301.8853527172006
 51
238.1146472827993
  0
CIRCLE
  5
52A5
330
1F
100
AcDbEntity
  8
0
  6
Continuous
 62
     7
370
    15
100
AcDbCircle
 10
421.2957580704384
 20
317.125710491814
 30
0.0
 40
10.01954445729291
  0
ARC
  5
52A6
330
1F
100
AcDbEntity
  8
0
  6
Continuous
 62
     7
370
    15
100
AcDbCircle
 10
431.0457580704384
 20
274.6257104918139
 30
0.0
 40
1.0
100
AcDbArc
 50
180.0
 51
270.0
  0
ARC
  5
52A7
330
1F
100
AcDbEntity
  8
0
  6
Continuous
 62
     7
370
    15
100
AcDbCircle
 10
411.5457580704384
 20
274.6257104918139
 30
0.0
 40
1.0
100
AcDbArc
 50
270.0
 51
0.0
  0
ARC
  5
52A8
330
1F
100
AcDbEntity
  8
0
  6
Continuous
 62
     7
370
    15
100
AcDbCircle
 10
434.0457580704383
 20
303.0389259048332
 30
0.0
 40
4.000000000000021
100
AcDbArc
 50
135.4103065701284
 51
180.0
  0
ARC
  5
52AA
330
1F
100
AcDbEntity
  8
0
  6
Continuous
 62
     7
370
    15
100
AcDbCircle
 10
408.5457580704384
 20
303.0389259048332
 30
0.0
 40
4.000000000000007
100
AcDbArc
 50
0.0
 51
44.5132127954747
  0
LINE
  5
52B0
330
1F
100
AcDbEntity
  8
0
  6
Continuous
 62
     7
370
    15
100
AcDbLine
 10
411.2299685967541
 20
306.0045647652501
 30
0.0
 11
411.3981132534738
 21
305.8432208090489
 31
0.0
  0
ARC
  5
52B2
330
1F
100
AcDbEntity
  8
0
  6
Continuous
 62
     7
370
    15
100
AcDbCircle
 10
477.098421084137
 20
331.1257104918139
 30
0.0
 40
1.0
100
AcDbArc
 50
90.0
 51
180.0
  0
SPLINE
  5
52B3
330
1F
100
AcDbEntity
  8
0
  6
Continuous
 62
     7
370
    15
100
AcDbSpline
210
0.0
220
0.0
230
1.0
 70
    24
 71
     1
 72
     4
 73
     2
 74
     0
 42
0.0000000001
 43
0.0000000001
 40
0.0
 40
0.0
 40
1.0
 40
1.0
 10
487.098421084137
 20
332.125710491814
 30
0.0
 10
477.098421084137
 20
332.125710491814
 30
0.0
  0
ARC
  5
52B4
330
1F
100
AcDbEntity
  8
0
  6
Continuous
 62
     7
370
    15
100
AcDbCircle
 10
487.098421084137
 20
331.1257104918139
 30
0.0
 40
1.0
100
AcDbArc
 50
0.0
 51
90.0
  0
ARC
  5
52B5
330
1F
100
AcDbEntity
  8
0
  6
Continuous
 62
     7
370
    15
100
AcDbCircle
 10
482.098421084137
 20
317.125710491814
 30
0.0
 40
11.0
100
AcDbArc
 50
223.3417582272223
 51
236.9442688491477
  0
ARC
  5
52B6
330
1F
100
AcDbEntity
  8
0
  6
Continuous
 62
     7
370
    15
100
AcDbCircle
 10
482.098421084137
 20
317.125710491814
 30
0.0
 40
10.99999999999998
100
AcDbArc
 50
123.0557311508523
 51
136.6582417727776
  0
ARC
  5
52B7
330
1F
100
AcDbEntity
  8
0
  6
Continuous
 62
     7
370
    15
100
AcDbCircle
 10
482.098421084137
 20
317.125710491814
 30
0.0
 40
11.0
100
AcDbArc
 50
303.0557311508523
 51
316.65824177278
  0
ARC
  5
52B8
330
1F
100
AcDbEntity
  8
0
  6
Continuous
 62
     7
370
    15
100
AcDbCircle
 10
482.098421084137
 20
317.125710491814
 30
0.0
 40
10.99999999999998
100
AcDbArc
 50
43.34175822722234
 51
56.94426884914769
  0
LINE
  5
52BA
102
{ACAD_REACTORS
330
5450
102
}
330
1F
100
AcDbEntity
  8
0
  6
Continuous
 62
     7
370
    15
100
AcDbLine
 10
476.098421084137
 20
306.5990718102952
 30
0.0
 11
476.098421084137
 21
331.1257104918139
 31
0.0
  0
LINE
  5
52BF
102
{ACAD_REACTORS
330
5450
102
}
330
1F
100
AcDbEntity
  8
0
  6
Continuous
 62
     7
370
    15
100
AcDbLine
 10
488.098421084137
 20
331.1257104918139
 30
0.0
 11
488.098421084137
 21
306.5990718102952
 31
0.0
  0
SPLINE
  5
52C3
330
1F
100
AcDbEntity
  8
0
  6
Continuous
 62
     7
370
    15
100
AcDbSpline
210
0.0
220
0.0
230
1.0
 70
     8
 71
     3
 72
    14
 73
    10
 74
     0
 42
0.0000000001
 43
0.0000000001
 40
0.0
 40
0.0
 40
0.0
 40
0.0
 40
0.25
 40
0.25
 40
0.5
 40
0.5
 40
0.75
 40
0.75
 40
1.0
 40
1.0
 40
1.0
 40
1.0
 10
491.598421084137
 20
268.1257104918139
 30
0.0
 10
491.598421084137
 20
267.9933926655584
 30
0.0
 10
491.5723186895945
 20
267.8635413609804
 30
0.0
 10
491.4717447853596
 20
267.621215782267
 30
0.0
 10
491.3973237389243
 20
267.5102782045208
 30
0.0
 10
491.2127984468566
 20
267.3259962877092
 30
0.0
 10
491.101329453001
 20
267.2516481915786
 30
0.0
 10
490.8611214943928
 20
267.152113949802
 30
0.0
 10
490.7283304092779
 20
267.125710491814
 30
0.0
 10
490.598421084137
 20
267.125710491814
 30
0.0
  0
LINE
  5
52C4
102
{ACAD_REACTORS
330
549E
102
}
330
1F
100
AcDbEntity
  8
0
  6
Continuous
 62
     7
370
    15
100
AcDbLine
 10
490.598421084137
 20
267.125710491814
 30
0.0
 11
473.598421084137
 21
267.125710491814
 31
0.0
  0
SPLINE
  5
52C5
330
1F
100
AcDbEntity
  8
0
  6
Continuous
 62
     7
370
    15
100
AcDbSpline
210
0.0
220
0.0
230
1.0
 70
     8
 71
     3
 72
    14
 73
    10
 74
     0
 42
0.0000000001
 43
0.0000000001
 40
0.0
 40
0.0
 40
0.0
 40
0.0
 40
0.25
 40
0.25
 40
0.5
 40
0.5
 40
0.75
 40
0.75
 40
1.0
 40
1.0
 40
1.0
 40
1.0
 10
472.598421084137
 20
268.1257104918139
 30
0.0
 10
472.598421084137
 20
267.9933926655584
 30
0.0
 10
472.6245234786794
 20
267.8635413609804
 30
0.0
 10
472.7250973829144
 20
267.621215782267
 30
0.0
 10
472.7995184293497
 20
267.5102782045208
 30
0.0
 10
472.9840437214175
 20
267.3259962877092
 30
0.0
 10
473.0955127152729
 20
267.2516481915786
 30
0.0
 10
473.3357206738812
 20
267.152113949802
 30
0.0
 10
473.4685117589959
 20
267.125710491814
 30
0.0
 10
473.598421084137
 20
267.125710491814
 30
0.0
  0
SPLINE
  5
52C6
330
1F
100
AcDbEntity
  8
0
  6
Continuous
 62
     7
370
    15
100
AcDbSpline
210
0.0
220
0.0
230
1.0
 70
     8
 71
     3
 72
    10
 73
     6
 74
     0
 42
0.0000000001
 43
0.0000000001
 40
0.0
 40
0.0
 40
0.0
 40
0.0
 40
0.5
 40
0.5
 40
1.0
 40
1.0
 40
1.0
 40
1.0
 10
491.598421084137
 20
272.6257104918139
 30
0.0
 10
491.598421084137
 20
272.8215897220636
 30
0.0
 10
491.5403121376293
 20
273.0133559877262
 30
0.0
 10
491.3277714397215
 20
273.3366787372079
 30
0.0
 10
491.3231425931066
 20
273.3557231703045
 30
0.0
 10
491.223421084137
 20
273.4380894050619
 30
0.0
  0
LINE
  5
52D0
102
{ACAD_REACTORS
330
54C4
102
}
330
1F
100
AcDbEntity
  8
0
  6
Continuous
 62
     7
370
    15
100
AcDbLine
 10
491.598421084137
 20
272.6257104918139
 30
0.0
 11
491.598421084137
 21
268.1257104918139
 31
0.0
  0
LINE
  5
52D1
102
{ACAD_REACTORS
330
54C4
102
}
330
1F
100
AcDbEntity
  8
0
  6
Continuous
 62
     7
370
    15
100
AcDbLine
 10
472.598421084137
 20
272.6257104918139
 30
0.0
 11
472.598421084137
 21
268.1257104918139
 31
0.0
  0
LINE
  5
52E0
102
{ACAD_REACTORS
330
5478
102
}
330
1F
100
AcDbEntity
  8
0
  6
Continuous
 62
     7
370
    15
100
AcDbLine
 10
474.098421084137
 20
309.5758760565432
 30
0.0
 11
474.098421084137
 21
324.6755449270847
 31
0.0
  0
LINE
  5
52E1
102
{ACAD_REACTORS
330
5478
102
}
330
1F
100
AcDbEntity
  8
0
  6
Continuous
 62
     7
370
    15
100
AcDbLine
 10
490.098421084137
 20
309.5758760565432
 30
0.0
 11
490.098421084137
 21
324.6755449270847
 31
0.0
  0
LINE
  5
52E7
330
1F
100
AcDbEntity
  8
0
  6
Continuous
 62
     7
370
    15
100
AcDbLine
 10
473.348421084137
 20
301.7780039984296
 30
0.0
 11
473.348421084137
 21
274.2187141548617
 31
0.0
  0
LINE
  5
52E9
330
1F
100
AcDbEntity
  8
0
  6
Continuous
 62
     7
370
    15
100
AcDbLine
 10
490.848421084137
 20
274.2187141548617
 30
0.0
 11
490.848421084137
 21
301.7780039984296
 31
0.0
  0
ARC
  5
52F4
330
1F
100
AcDbEntity
  8
0
  6
Continuous
 62
     7
370
    15
100
AcDbCircle
 10
472.098421084137
 20
306.5990718102952
 30
0.0
 40
4.000000000000028
100
AcDbArc
 50
315.0
 51
0.0
  0
ARC
  5
52F5
330
1F
100
AcDbEntity
  8
0
  6
Continuous
 62
     7
370
    15
100
AcDbCircle
 10
492.098421084137
 20
306.5990718102952
 30
0.0
 40
4.000000000000012
100
AcDbArc
 50
180.0
 51
225.0
  0
ARC
  5
52F7
330
1F
100
AcDbEntity
  8
0
  6
Continuous
 62
     7
370
    15
100
AcDbCircle
 10
489.848421084137
 20
301.7780039984296
 30
0.0
 40
1.0
100
AcDbArc
 50
0.0000000000032569
 51
45.0
  0
LINE
  5
52F8
330
1F
100
AcDbEntity
  8
0
  6
Continuous
 62
     7
370
    15
100
AcDbLine
 10
489.2699939593908
 20
303.770644685549
 30
0.0
 11
490.5555278653236
 21
302.4851107796162
 31
0.0
  0
ARC
  5
52F9
330
1F
100
AcDbEntity
  8
0
  6
Continuous
 62
     7
370
    15
100
AcDbCircle
 10
474.348421084137
 20
301.7780039984296
 30
0.0
 40
1.000000000000028
100
AcDbArc
 50
135.0000000000023
 51
180.0
  0
LINE
  5
52FA
330
1F
100
AcDbEntity
  8
0
  6
Continuous
 62
     7
370
    15
100
AcDbLine
 10
473.6413143029505
 20
302.4851107796162
 30
0.0
 11
474.9268482088832
 21
303.770644685549
 31
0.0
  0
ARC
  5
5300
330
1F
100
AcDbEntity
  8
0
  6
Continuous
 62
     7
370
    15
100
AcDbCircle
 10
491.848421084137
 20
274.2187141548617
 30
0.0
 40
1.00000000000001
100
AcDbArc
 50
180.0
 51
231.317812546511
  0
LINE
  5
530E
102
{ACAD_REACTORS
330
549E
102
}
330
1F
100
AcDbEntity
  8
AM_4
100
AcDbLine
 10
488.098421084137
 20
291.1257104918139
 30
0.0
 11
476.098421084137
 21
291.1257104918139
 31
0.0
  0
SPLINE
  5
533D
330
1F
100
AcDbEntity
  8
AM_4
100
AcDbSpline
210
0.0
220
0.0
230
1.0
 70
    24
 71
     1
 72
     4
 73
     2
 74
     0
 42
0.0000000001
 43
0.0000000001
 40
0.0
 40
0.0
 40
1.0
 40
1.0
 10
490.098421084137
 20
323.1257104918139
 30
0.0
 10
474.098421084137
 20
323.1257104918139
 30
0.0
  0
SPLINE
  5
533E
330
1F
100
AcDbEntity
  8
AM_4
100
AcDbSpline
210
0.0
220
0.0
230
1.0
 70
    24
 71
     1
 72
     4
 73
     2
 74
     0
 42
0.0000000001
 43
0.0000000001
 40
0.0
 40
0.0
 40
1.0
 40
1.0
 10
474.098421084137
 20
311.125710491814
 30
0.0
 10
490.098421084137
 20
311.125710491814
 30
0.0
  0
SPLINE
  5
533F
330
1F
100
AcDbEntity
  8
AM_4
100
AcDbSpline
210
0.0
220
0.0
230
1.0
 70
    24
 71
     1
 72
     4
 73
     2
 74
     0
 42
0.0000000001
 43
0.0000000001
 40
0.0
 40
0.0
 40
1.0
 40
1.0
 10
488.098421084137
 20
267.125710491814
 30
0.0
 10
488.098421084137
 20
291.1257104918139
 30
0.0
  0
SPLINE
  5
5340
330
1F
100
AcDbEntity
  8
AM_4
100
AcDbSpline
210
0.0
220
0.0
230
1.0
 70
    24
 71
     1
 72
     4
 73
     2
 74
     0
 42
0.0000000001
 43
0.0000000001
 40
0.0
 40
0.0
 40
1.0
 40
1.0
 10
476.098421084137
 20
291.1257104918139
 30
0.0
 10
476.098421084137
 20
267.125710491814
 30
0.0
  0
LINE
  5
5341
330
1F
100
AcDbEntity
  8
0
  6
HIDDEN
 62
     7
370
     0
100
AcDbLine
 10
491.5983853962378
 20
272.6183688400029
 30
0.0
 11
491.598417993266
 21
272.6293029349613
 31
0.0
  0
LINE
  5
5364
330
1F
100
AcDbEntity
  8
0
  6
Continuous
 62
     7
370
    15
100
AcDbLine
 10
411.2957580704383
 20
273.625710491814
 30
0.0
 11
411.5457580704384
 21
273.625710491814
 31
0.0
  0
SPLINE
  5
5365
330
1F
100
AcDbEntity
  8
0
  6
Continuous
 62
     7
370
    15
100
AcDbSpline
210
0.0
220
0.0
230
1.0
 70
     8
 71
     3
 72
    10
 73
     6
 74
     0
 42
0.0000000001
 43
0.0000000001
 40
0.0
 40
0.0
 40
0.0
 40
0.0
 40
0.5
 40
0.5
 40
1.0
 40
1.0
 40
1.0
 40
1.0
 10
472.598421084137
 20
272.6257104918139
 30
0.0
 10
472.598421084137
 20
272.8215897220636
 30
0.0
 10
472.6565300306447
 20
273.0133559877262
 30
0.0
 10
472.8690707285525
 20
273.3366787372079
 30
0.0
 10
472.8736995751673
 20
273.3557231703045
 30
0.0
 10
472.973421084137
 20
273.4380894050619
 30
0.0
  0
ARC
  5
5366
330
1F
100
AcDbEntity
  8
0
  6
Continuous
 62
     7
370
    15
100
AcDbCircle
 10
472.348421084137
 20
274.2187141548617
 30
0.0
 40
1.00000000000001
100
AcDbArc
 50
308.6821874534889
 51
0.000000000000007
  0
LINE
  5
5367
330
1F
100
AcDbEntity
  8
0
  6
HIDDEN
 62
     7
370
     0
100
AcDbLine
 10
472.5984567720362
 20
272.6183688400029
 30
0.0
 11
472.598424175008
 21
272.6293029349613
 31
0.0
  0
LINE
  5
5368
102
{ACAD_REACTORS
330
5388
330
53D8
102
}
330
1F
100
AcDbEntity
  8
AM_7
100
AcDbLine
 10
404.3421194343295
 20
317.125710491814
 30
0.0
 11
438.684885126783
 21
317.125710491814
 31
0.0
  0
LINE
  5
5369
330
1F
100
AcDbEntity
  8
AM_7
100
AcDbLine
 10
421.2957580704384
 20
300.3704569040148
 30
0.0
 11
421.2957580704384
 21
333.7005599906621
 31
0.0
  0
DIMENSION
  5
537A
102
{ACAD_XDICTIONARY
360
5387
102
}
102
{ACAD_REACTORS
330
5388
102
}
330
1F
100
AcDbEntity
  8
AM_REFDIM
100
AcDbDimension
  2
*D5
 10
436.29645796867
 20
341.4012808599058
 30
0.0
 11
421.2962635621187
 21
341.4012808599058
 31
0.0
 70
   160
 71
     5
 42
30.00038881310252
  3
AM_ISO$0
100
AcDbAlignedDimension
 13
406.2960691555675
 23
317.125710491814
 33
0.0
 14
436.29645796867
 24
317.125710491814
 34
0.0
 50
0.0000000000000127
100
AcDbRotatedDimension
1001
ACAD
1000
DSTYLE
1002
{
1070
    40
1040
0.6
1070
   271
1070
     0
1002
}
  0
DIMENSION
  5
53A4
102
{ACAD_XDICTIONARY
360
53B1
102
}
102
{ACAD_REACTORS
330
53B2
102
}
330
1F
100
AcDbEntity
  8
AM_REFDIM
100
AcDbDimension
  2
*D6
 10
453.9336197283009
 20
267.125710491814
 30
0.0
 11
453.9336197283009
 21
299.6256943787647
 31
0.0
 70
   160
 71
     5
 42
64.99996777390141
  3
AM_ISO$0
100
AcDbAlignedDimension
 13
421.3269136105542
 23
332.1256782657154
 33
0.0
 14
431.2957580704384
 24
267.125710491814
 34
0.0
 50
90.0
100
AcDbRotatedDimension
1001
ACAD
1000
DSTYLE
1002
{
1070
    40
1040
0.6
1070
   271
1070
     0
1002
}
  0
DIMENSION
  5
53CA
102
{ACAD_XDICTIONARY
360
53D7
102
}
102
{ACAD_REACTORS
330
53D8
102
}
330
1F
100
AcDbEntity
  8
AM_REFDIM
100
AcDbDimension
  2
*D7
 10
446.6045437919476
 20
267.125710491814
 30
0.0
 11
446.6045437919475
 21
292.125710491814
 31
0.0
 70
   160
 71
     5
 42
50.0
  3
AM_ISO$0
100
AcDbAlignedDimension
 13
438.684885126783
 23
317.125710491814
 33
0.0
 14
431.2957580704384
 24
267.125710491814
 34
0.0
 50
90.0
100
AcDbRotatedDimension
1001
ACAD
1000
DSTYLE
1002
{
1070
    40
1040
0.6
1070
   271
1070
     0
1002
}
  0
DIMENSION
  5
53F0
102
{ACAD_XDICTIONARY
360
53FF
102
}
102
{ACAD_REACTORS
330
5400
102
}
330
1F
100
AcDbEntity
  8
AM_REFDIM
100
AcDbDimension
  2
*D8
 10
441.2660254598827
 20
267.125710491814
 30
0.0
 11
439.6160254598826
 21
270.3757104918141
 31
0.0
 70
    32
 71
     5
 42
6.5
  3
AM_ISO$0
100
AcDbAlignedDimension
 13
431.2957580704384
 23
273.625710491814
 33
0.0
 14
431.2957580704384
 24
267.125710491814
 34
0.0
 50
90.0
100
AcDbRotatedDimension
1001
ACAD
1000
DSTYLE
1002
{
1070
    40
1040
0.6
1070
   271
1070
     0
1002
}
  0
DIMENSION
  5
541A
102
{ACAD_XDICTIONARY
360
5427
102
}
102
{ACAD_REACTORS
330
5428
102
}
330
1F
100
AcDbEntity
  8
AM_REFDIM
100
AcDbDimension
  2
*D9
 10
432.2957580704383
 20
260.2080110789014
 30
0.0
 11
421.2957580704384
 21
260.2080110789014
 31
0.0
 70
   160
 71
     5
 42
22.0
  3
AM_ISO$0
100
AcDbAlignedDimension
 13
410.2957580704384
 23
268.1257104918139
 33
0.0
 14
432.2957580704383
 24
268.1257104918139
 34
0.0
 50
0.0000000000001145
100
AcDbRotatedDimension
1001
ACAD
1000
DSTYLE
1002
{
1070
    40
1040
0.6
1070
   271
1070
     0
1002
}
  0
DIMENSION
  5
5440
102
{ACAD_XDICTIONARY
360
544F
102
}
102
{ACAD_REACTORS
330
5450
102
}
330
1F
100
AcDbEntity
  8
AM_REFDIM
100
AcDbDimension
  2
*D10
 10
488.098421084137
 20
338.5996593132749
 30
0.0
 11
482.098421084137
 21
340.2498660061882
 31
0.0
 70
    32
 71
     5
 42
12.0
  3
AM_ISO$0
100
AcDbAlignedDimension
 13
476.098421084137
 23
331.1257104918139
 33
0.0
 14
488.098421084137
 24
331.1257104918139
 34
0.0
100
AcDbRotatedDimension
1001
ACAD
1000
DSTYLE
1002
{
1070
    40
1040
0.6
1070
   271
1070
     0
1002
}
  0
DIMENSION
  5
546A
102
{ACAD_XDICTIONARY
360
5477
102
}
102
{ACAD_REACTORS
330
5478
102
}
330
1F
100
AcDbEntity
  8
AM_REFDIM
100
AcDbDimension
  2
*D11
 10
490.098421084137
 20
346.1452563802382
 30
0.0
 11
482.098421084137
 21
346.1452563802382
 31
0.0
 70
   160
 71
     5
 42
16.0
  3
AM_ISO$0
100
AcDbAlignedDimension
 13
474.098421084137
 23
324.6755449270847
 33
0.0
 14
490.098421084137
 24
324.6755449270847
 34
0.0
100
AcDbRotatedDimension
1001
ACAD
1000
DSTYLE
1002
{
1070
    40
1040
0.6
1070
   271
1070
     0
1002
}
  0
DIMENSION
  5
5490
102
{ACAD_XDICTIONARY
360
549D
102
}
102
{ACAD_REACTORS
330
549E
102
}
330
1F
100
AcDbEntity
  8
AM_REFDIM
100
AcDbDimension
  2
*D12
 10
498.490510844451
 20
267.1257104918139
 30
0.0
 11
498.490510844451
 21
277.4431952428562
 31
0.0
 70
   160
 71
     5
 42
24.00000000000006
  3
AM_ISO$0
100
AcDbAlignedDimension
 13
488.098421084137
 23
291.1257104918139
 33
0.0
 14
490.5984210841372
 24
267.1257104918139
 34
0.0
 50
90.0
100
AcDbRotatedDimension
1001
ACAD
1000
DSTYLE
1002
{
1070
    40
1040
0.6
1070
   271
1070
     0
1002
}
  0
DIMENSION
  5
54B6
102
{ACAD_XDICTIONARY
360
54C3
102
}
102
{ACAD_REACTORS
330
54C4
102
}
330
1F
100
AcDbEntity
  8
AM_REFDIM
100
AcDbDimension
  2
*D13
 10
491.598421084137
 20
260.2075976930743
 30
0.0
 11
482.098421084137
 21
260.2075976930743
 31
0.0
 70
   160
 71
     5
 42
19.0
  3
AM_ISO$0
100
AcDbAlignedDimension
 13
472.598421084137
 23
268.1257104918139
 33
0.0
 14
491.598421084137
 24
268.1257104918139
 34
0.0
 50
0.0000000000001145
100
AcDbRotatedDimension
1001
ACAD
1000
DSTYLE
1002
{
1070
    40
1040
0.6
1070
   271
1070
     0
1002
}
  0
LINE
  5
5664
330
1F
100
AcDbEntity
  8
AM_7
100
AcDbLine
 10
472.7015154888558
 20
317.125710491814
 30
0.0
 11
492.7751395898357
 21
317.125710491814
 31
0.0
  0
DIMENSION
  5
5693
330
1F
100
AcDbEntity
  8
AM_REFDIM
100
AcDbDimension
  2
*D14
 10
498.4905108444511
 20
311.125710491814
 30
0.0
 11
496.8403041515377
 21
317.125710491814
 31
0.0
 70
    32
  1
%%c<>
 71
     5
 42
12.0
  3
AM_ISO$0
100
AcDbAlignedDimension
 13
490.098421084137
 23
323.1257104918139
 33
0.0
 14
490.098421084137
 24
311.125710491814
 34
0.0
 50
90.00000000000003
100
AcDbRotatedDimension
1001
ACAD
1000
DSTYLE
1002
{
1070
    40
1040
0.6
1070
   271
1070
     0
1002
}
  0
ENDSEC
  0
SECTION
  2
OBJECTS
  0
DICTIONARY
  5
C
330
0
100
AcDbDictionary
281
     1
  3
ACAD_COLOR
350
BE
  3
ACAD_GROUP
350
D
  3
ACAD_LAYOUT
350
1A
  3
ACAD_MATERIAL
350
BD
  3
ACAD_MLINESTYLE
350
17
  3
ACAD_PLOTSETTINGS
350
19
  3
ACAD_PLOTSTYLENAME
350
E
  3
ACAD_TABLESTYLE
350
11A
  3
ACDBHEADERROUNDTRIPXREC
350
56D0
  3
AcDbVariableDictionary
350
94
  3
AcmDictionary
350
5B
  3
AMG
350
41
  3
AMGSNAPSETTINGS
350
1B8
  3
DWGPROPS
350
56CF
  3
MAPISURF_MODULE
350
3A15
  0
DICTIONARY
  5
3F9
330
2
100
AcDbDictionary
280
     1
281
     1
  3
ACAD_LAYERFILTERS
360
5645
  3
ACAD_LAYERSTATES
360
AD2
  3
ACLYDICTIONARY
360
5644
  0
DICTIONARY
  5
8F
330
1F
100
AcDbDictionary
280
     1
281
     1
  3
ACAD_INDEX
360
3D28
  0
DICTIONARY
  5
5387
330
537A
100
AcDbDictionary
280
     1
281
     1
  3
ACAD_DIMASSOC
360
5388
  0
DICTIONARY
  5
53B1
330
53A4
100
AcDbDictionary
280
     1
281
     1
  3
ACAD_DIMASSOC
360
53B2
  0
DICTIONARY
  5
53D7
330
53CA
100
AcDbDictionary
280
     1
281
     1
  3
ACAD_DIMASSOC
360
53D8
  0
DICTIONARY
  5
53FF
330
53F0
100
AcDbDictionary
280
     1
281
     1
  3
ACAD_DIMASSOC
360
5400
  0
DICTIONARY
  5
5427
330
541A
100
AcDbDictionary
280
     1
281
     1
  3
ACAD_DIMASSOC
360
5428
  0
DICTIONARY
  5
544F
330
5440
100
AcDbDictionary
280
     1
281
     1
  3
ACAD_DIMASSOC
360
5450
  0
DICTIONARY
  5
5477
330
546A
100
AcDbDictionary
280
     1
281
     1
  3
ACAD_DIMASSOC
360
5478
  0
DICTIONARY
  5
549D
330
5490
100
AcDbDictionary
280
     1
281
     1
  3
ACAD_DIMASSOC
360
549E
  0
DICTIONARY
  5
54C3
330
54B6
100
AcDbDictionary
280
     1
281
     1
  3
ACAD_DIMASSOC
360
54C4
  0
DICTIONARY
  5
BE
102
{ACAD_REACTORS
330
C
102
}
330
C
100
AcDbDictionary
281
     1
  0
DICTIONARY
  5
D
102
{ACAD_REACTORS
330
C
102
}
330
C
100
AcDbDictionary
281
     1
  0
DICTIONARY
  5
1A
102
{ACAD_REACTORS
330
C
102
}
330
C
100
AcDbDictionary
281
     1
  3
Model
350
22
  3
配置1
350
1E
  3
配置2
350
26
  0
DICTIONARY
  5
BD
102
{ACAD_REACTORS
330
C
102
}
330
C
100
AcDbDictionary
281
     1
  0
DICTIONARY
  5
17
102
{ACAD_REACTORS
330
C
102
}
330
C
100
AcDbDictionary
281
     1
  3
Standard
350
18
  0
DICTIONARY
  5
19
102
{ACAD_REACTORS
330
C
102
}
330
C
100
AcDbDictionary
281
     1
  0
ACDBDICTIONARYWDFLT
  5
E
102
{ACAD_REACTORS
330
C
102
}
330
C
100
AcDbDictionary
281
     1
  3
Normal
350
F
100
AcDbDictionaryWithDefault
340
F
  0
DICTIONARY
  5
11A
102
{ACAD_REACTORS
330
C
102
}
330
C
100
AcDbDictionary
281
     1
  3
Standard
350
11B
  0
DICTIONARY
  5
56D0
102
{ACAD_REACTORS
330
C
102
}
330
C
100
AcDbDictionary
281
     1
  0
DICTIONARY
  5
94
102
{ACAD_REACTORS
330
C
102
}
330
C
100
AcDbDictionary
281
     1
  3
CTABLESTYLE
350
138
  3
DIMASSOC
350
96
  3
INDEXCTL
350
95
  3
PROJECTNAME
350
1B44
  0
DICTIONARY
  5
5B
102
{ACAD_REACTORS
330
C
102
}
330
C
100
AcDbDictionary
281
     1
  3
AcmBOM
350
1B5
  3
AcmStdDictionary
350
61
  3
AMDTSECTSYM_ARROWCOLOR
350
123
  0
DICTIONARY
  5
41
102
{ACAD_REACTORS
330
C
102
}
330
C
100
AcDbDictionary
281
     1
  3
AcMgSettings
350
398F
  0
DICTIONARY
  5
1B8
102
{ACAD_REACTORS
330
C
102
}
330
C
100
AcDbDictionary
281
     1
  0
XRECORD
  5
56CF
102
{ACAD_REACTORS
330
C
102
}
330
C
100
AcDbXrecord
280
     1
  1
DWGPROPS COOKIE
  2

  3

  4

  6

  7

  8

  9

300
AmdtFileType=84
301
=
302
=
303
=
304
=
305
=
306
=
307
=
308
=
309
=
 40
0.1764678472222222
 41
2454392.703168762
 42
2456051.706286887
  1

 90
        1
  0
DICTIONARY
  5
5645
102
{ACAD_REACTORS
330
3F9
102
}
330
3F9
100
AcDbDictionary
281
     1
  0
DICTIONARY
  5
AD2
102
{ACAD_REACTORS
330
3F9
102
}
330
3F9
100
AcDbDictionary
281
     1
  0
DICTIONARY
  5
5644
102
{ACAD_REACTORS
330
3F9
102
}
330
3F9
100
AcDbDictionary
281
     1
1001
ACAD
1000
<All
  0
DICTIONARY
  5
3D28
102
{ACAD_REACTORS
330
8F
102
}
330
8F
100
AcDbDictionary
281
     1
  3
*A1
350
3D29
  0
DIMASSOC
  5
5388
102
{ACAD_REACTORS
330
5387
102
}
330
5387
100
AcDbDimAssoc
330
537A
 90
        3
 70
     0
 71
     0
  1
AcDbOsnapPointRef
 72
     6
331
5368
 73
     0
 91
        0
 40
0.0568955260836019
 10
0.0
 20
0.0
 30
0.0
332
52A3
 74
     0
 92
        0
 75
     0
  1
AcDbOsnapPointRef
 72
     6
331
5368
 73
     0
 91
        0
 40
0.930453266941228
 10
0.0
 20
0.0
 30
0.0
332
52A3
 74
     0
 92
        0
 75
     0
  0
DIMASSOC
  5
53B2
102
{ACAD_REACTORS
330
53B1
102
}
330
53B1
100
AcDbDimAssoc
330
53A4
 90
        2
 70
     0
 71
     0
  1
AcDbOsnapPointRef
 72
    13
331
525C
 73
     0
 91
        0
 40
0.0
 10
0.0
 20
0.0
 30
2.000000000000000E+50
 75
     0
  0
DIMASSOC
  5
53D8
102
{ACAD_REACTORS
330
53D7
102
}
330
53D7
100
AcDbDimAssoc
330
53CA
 90
        3
 70
     0
 71
     0
  1
AcDbOsnapPointRef
 72
     1
331
5368
 73
     0
 91
        0
 40
0.0
 10
0.0
 20
0.0
 30
2.000000000000000E+50
 75
     0
  1
AcDbOsnapPointRef
 72
    13
331
525C
 73
     0
 91
        0
 40
0.0
 10
0.0
 20
0.0
 30
2.000000000000000E+50
 75
     0
  0
DIMASSOC
  5
5400
102
{ACAD_REACTORS
330
53FF
102
}
330
53FF
100
AcDbDimAssoc
330
53F0
 90
        3
 70
     0
 71
     0
  1
AcDbOsnapPointRef
 72
     1
331
5258
 73
     0
 91
        0
 40
0.0
 10
0.0
 20
0.0
 30
2.000000000000000E+50
 75
     0
  1
AcDbOsnapPointRef
 72
    13
331
525C
 73
     0
 91
        0
 40
0.0
 10
0.0
 20
0.0
 30
2.000000000000000E+50
 75
     0
  0
DIMASSOC
  5
5428
102
{ACAD_REACTORS
330
5427
102
}
330
5427
100
AcDbDimAssoc
330
541A
 90
        3
 70
     0
 71
     0
  1
AcDbOsnapPointRef
 72
    13
331
524F
 73
     0
 91
        0
 40
0.0
 10
0.0
 20
0.0
 30
2.000000000000000E+50
 75
     0
  1
AcDbOsnapPointRef
 72
     1
331
524D
 73
     0
 91
        0
 40
0.0
 10
0.0
 20
0.0
 30
2.000000000000000E+50
 75
     0
  0
DIMASSOC
  5
5450
102
{ACAD_REACTORS
330
544F
102
}
330
544F
100
AcDbDimAssoc
330
5440
 90
        3
 70
     0
 71
     0
  1
AcDbOsnapPointRef
 72
     1
331
52BA
 73
     0
 91
        0
 40
0.0
 10
0.0
 20
0.0
 30
2.000000000000000E+50
 75
     0
  1
AcDbOsnapPointRef
 72
    13
331
52BF
 73
     0
 91
        0
 40
0.0
 10
0.0
 20
0.0
 30
2.000000000000000E+50
 75
     0
  0
DIMASSOC
  5
5478
102
{ACAD_REACTORS
330
5477
102
}
330
5477
100
AcDbDimAssoc
330
546A
 90
        3
 70
     0
 71
     0
  1
AcDbOsnapPointRef
 72
     1
331
52E0
 73
     0
 91
        0
 40
0.0
 10
0.0
 20
0.0
 30
2.000000000000000E+50
 75
     0
  1
AcDbOsnapPointRef
 72
     1
331
52E1
 73
     0
 91
        0
 40
0.0
 10
0.0
 20
0.0
 30
2.000000000000000E+50
 75
     0
  0
DIMASSOC
  5
549E
102
{ACAD_REACTORS
330
549D
102
}
330
549D
100
AcDbDimAssoc
330
5490
 90
        3
 70
     0
 71
     0
  1
AcDbOsnapPointRef
 72
    13
331
530E
 73
     0
 91
        0
 40
0.0
 10
0.0
 20
0.0
 30
2.000000000000000E+50
 75
     0
  1
AcDbOsnapPointRef
 72
    13
331
52C4
 73
     0
 91
        0
 40
0.0
 10
0.0
 20
0.0
 30
2.000000000000000E+50
 75
     0
  0
DIMASSOC
  5
54C4
102
{ACAD_REACTORS
330
54C3
102
}
330
54C3
100
AcDbDimAssoc
330
54B6
 90
        3
 70
     0
 71
     0
  1
AcDbOsnapPointRef
 72
     1
331
52D1
 73
     0
 91
        0
 40
0.0
 10
0.0
 20
0.0
 30
2.000000000000000E+50
 75
     0
  1
AcDbOsnapPointRef
 72
     1
331
52D0
 73
     0
 91
        0
 40
0.0
 10
0.0
 20
0.0
 30
2.000000000000000E+50
 75
     0
  0
LAYOUT
  5
22
102
{ACAD_XDICTIONARY
360
56D3
102
}
102
{ACAD_REACTORS
330
1A
102
}
330
1A
100
AcDbPlotSettings
  1

  2
\\RD\EPSON Stylus C63 Series單色
  4
A4
  6

 40
3.757083177566528
 41
3.757076978683471
 42
3.757080078125
 43
3.757080078125
 44
209.9733276367187
 45
296.9683227539062
 46
0.0
 47
0.0
 48
0.0
 49
0.0
140
0.0
141
0.0
142
1.0
143
0.3405120737814363
 70
 11952
 72
     1
 73
     0
 74
     0
  7
單色出圖.ctb
 75
     0
147
2.936753428137963
148
-2047.07469463503
149
-1261.649717473083
100
AcDbLayout
  1
Model
 70
     1
 71
     0
 10
0.0
 20
0.0
 11
12.0
 21
9.0
 12
0.0
 22
0.0
 32
0.0
 14
0.0
 24
0.0
 34
0.0
 15
0.0
 25
0.0
 35
0.0
146
0.0
 13
0.0
 23
0.0
 33
0.0
 16
1.0
 26
0.0
 36
0.0
 17
0.0
 27
1.0
 37
0.0
 76
     0
330
1F
1001
ACAD_PSEXT
1000
\\RD\EPSON Stylus C63 Series單色
1000
EPSON Stylus C63 Series
1000
\\RD
1000

1070
     0
  0
LAYOUT
  5
1E
102
{ACAD_XDICTIONARY
360
56D1
102
}
102
{ACAD_REACTORS
330
1A
102
}
330
1A
100
AcDbPlotSettings
  1

  2

  4

  6

 40
0.0
 41
0.0
 42
0.0
 43
0.0
 44
0.0
 45
0.0
 46
0.0
 47
0.0
 48
0.0
 49
0.0
140
0.0
141
0.0
142
1.0
143
1.0
 70
   688
 72
     0
 73
     0
 74
     5
  7
單色出圖.ctb
 75
    16
147
1.0
148
0.0
149
0.0
100
AcDbLayout
  1
配置1
 70
     1
 71
     1
 10
0.0
 20
0.0
 11
420.0
 21
297.0
 12
0.0
 22
0.0
 32
0.0
 14
1.000000000000000E+20
 24
1.000000000000000E+20
 34
1.000000000000000E+20
 15
-1.000000000000000E+20
 25
-1.000000000000000E+20
 35
-1.000000000000000E+20
146
0.0
 13
0.0
 23
0.0
 33
0.0
 16
1.0
 26
0.0
 36
0.0
 17
0.0
 27
1.0
 37
0.0
 76
     0
330
1B
  0
LAYOUT
  5
26
102
{ACAD_XDICTIONARY
360
56D5
102
}
102
{ACAD_REACTORS
330
1A
102
}
330
1A
100
AcDbPlotSettings
  1

  2

  4

  6

 40
0.0
 41
0.0
 42
0.0
 43
0.0
 44
0.0
 45
0.0
 46
0.0
 47
0.0
 48
0.0
 49
0.0
140
0.0
141
0.0
142
1.0
143
1.0
 70
   688
 72
     0
 73
     0
 74
     5
  7
單色出圖.ctb
 75
    16
147
1.0
148
0.0
149
0.0
100
AcDbLayout
  1
配置2
 70
     1
 71
     2
 10
0.0
 20
0.0
 11
12.0
 21
9.0
 12
0.0
 22
0.0
 32
0.0
 14
0.0
 24
0.0
 34
0.0
 15
0.0
 25
0.0
 35
0.0
146
0.0
 13
0.0
 23
0.0
 33
0.0
 16
1.0
 26
0.0
 36
0.0
 17
0.0
 27
1.0
 37
0.0
 76
     0
330
23
  0
MLINESTYLE
  5
18
102
{ACAD_REACTORS
330
17
102
}
330
17
100
AcDbMlineStyle
  2
STANDARD
 70
     0
  3

 62
   256
 51
90.0
 52
90.0
 71
     2
 49
0.5
 62
   256
  6
BYLAYER
 49
-0.5
 62
   256
  6
BYLAYER
  0
ACDBPLACEHOLDER
  5
F
102
{ACAD_REACTORS
330
E
102
}
330
E
  0
TABLESTYLE
  5
11B
102
{ACAD_REACTORS
330
11A
102
}
330
11A
100
AcDbTableStyle
  3
Standard
 70
     0
 71
     0
 40
1.5
 41
1.5
280
     0
281
     0
  7
STANDARD
140
4.5
170
     2
 62
     0
 63
     7
283
     0
274
    -2
284
     1
 64
     0
275
    -2
285
     1
 65
     0
276
    -2
286
     1
 66
     0
277
    -2
287
     1
 67
     0
278
    -2
288
     1
 68
     0
279
    -2
289
     1
 69
     0
  7
STANDARD
140
6.0
170
     5
 62
     0
 63
     7
283
     0
274
    -2
284
     1
 64
     0
275
    -2
285
     1
 65
     0
276
    -2
286
     1
 66
     0
277
    -2
287
     1
 67
     0
278
    -2
288
     1
 68
     0
279
    -2
289
     1
 69
     0
  7
STANDARD
140
4.5
170
     5
 62
     0
 63
     7
283
     0
274
    -2
284
     1
 64
     0
275
    -2
285
     1
 65
     0
276
    -2
286
     1
 66
     0
277
    -2
287
     1
 67
     0
278
    -2
288
     1
 68
     0
279
    -2
289
     1
 69
     0
  0
DICTIONARYVAR
  5
138
102
{ACAD_REACTORS
330
94
102
}
330
94
100
DictionaryVariables
280
     0
  1
STANDARD
  0
DICTIONARYVAR
  5
96
102
{ACAD_REACTORS
330
94
102
}
330
94
100
DictionaryVariables
280
     0
  1
2
  0
DICTIONARYVAR
  5
95
102
{ACAD_REACTORS
330
94
102
}
330
94
100
DictionaryVariables
280
     0
  1
1
  0
DICTIONARYVAR
  5
1B44
102
{ACAD_REACTORS
330
94
102
}
330
94
100
DictionaryVariables
280
     0
  1

  0
DICTIONARY
  5
1B5
102
{ACAD_REACTORS
330
5B
102
}
330
5B
100
AcDbDictionary
281
     1
  0
DICTIONARY
  5
61
102
{ACAD_REACTORS
330
5B
102
}
330
5B
100
AcDbDictionary
281
     1
  0
XRECORD
  5
123
102
{ACAD_REACTORS
330
5B
102
}
330
5B
100
AcDbXrecord
280
     1
 90
-1023410169
  0
DICTIONARY
  5
398F
102
{ACAD_REACTORS
330
41
102
}
330
41
100
AcDbDictionary
281
     1
  3
DWGSETTINGS
350
3990
  3
TRANSSETTINGS
350
3993
  0
LAYER_INDEX
  5
3D29
102
{ACAD_REACTORS
330
3D28
102
}
330
3D28
100
AcDbIndex
 40
2456051.706286887
100
AcDbLayerIndex
  8
0
360
4783
 90
       64
  8
AM_VIS
360
4784
 90
        0
  8
AM_7
360
4785
 90
        3
  8
Defpoints
360
4786
 90
        0
  8
LOGO
360
4787
 90
       77
  8
AM_4
360
4788
 90
        5
  8
AM_REFDIM
360
4789
 90
       10
  8
AM_HID
360
478A
 90
        0
  8
AM_5
360
478B
 90
        0
  0
DICTIONARY
  5
56D3
330
22
100
AcDbDictionary
280
     1
281
     1
  3
ACAD_XREC_ROUNDTRIP
360
56D4
  0
DICTIONARY
  5
56D1
330
1E
100
AcDbDictionary
280
     1
281
     1
  3
ACAD_XREC_ROUNDTRIP
360
56D2
  0
DICTIONARY
  5
56D5
330
26
100
AcDbDictionary
280
     1
281
     1
  3
ACAD_XREC_ROUNDTRIP
360
56D6
  0
IDBUFFER
  5
4783
330
0
100
AcDbIdBuffer
330
1830
330
1831
330
1832
330
524C
330
524D
330
524E
330
524F
330
5250
330
5251
330
5252
330
5253
330
5258
330
525C
330
5266
330
526A
330
527F
330
5287
330
528B
330
528E
330
5290
330
5291
330
5292
330
5293
330
5296
330
5299
330
52A3
330
52A4
330
52A5
330
52A6
330
52A7
330
52A8
330
52AA
330
52B0
330
52B2
330
52B3
330
52B4
330
52B5
330
52B6
330
52B7
330
52B8
330
52BA
330
52BF
330
52C3
330
52C4
330
52C5
330
52C6
330
52D0
330
52D1
330
52E0
330
52E1
330
52E7
330
52E9
330
52F4
330
52F5
330
52F7
330
52F8
330
52F9
330
52FA
330
5300
330
5341
330
5364
330
5365
330
5366
330
5367
  0
IDBUFFER
  5
4784
330
0
100
AcDbIdBuffer
  0
IDBUFFER
  5
4785
330
0
100
AcDbIdBuffer
330
5664
330
5368
330
5369
  0
IDBUFFER
  5
4786
330
0
100
AcDbIdBuffer
  0
IDBUFFER
  5
4787
330
0
100
AcDbIdBuffer
330
179B
330
179C
330
179D
330
179E
330
179F
330
17A0
330
17A1
330
17A2
330
17A3
330
17A4
330
17A5
330
17A6
330
17A7
330
17A8
330
17A9
330
17AA
330
17AB
330
17AC
330
17AD
330
17AE
330
17AF
330
17B0
330
17B1
330
17B2
330
17B6
330
17BA
330
17BB
330
17BF
330
17C0
330
17C1
330
17C2
330
17C3
330
17C4
330
17C5
330
17C6
330
17CA
330
17CE
330
17D2
330
17D3
330
17D4
330
17D8
330
17D9
330
17DA
330
17DB
330
17DC
330
17DD
330
17DE
330
17DF
330
17E0
330
17E1
330
17E2
330
17E3
330
17E4
330
17E5
330
17E6
330
17E7
330
17E8
330
17E9
330
17EA
330
17EB
330
17EC
330
17ED
330
17EE
330
17EF
330
17F0
330
1824
330
1825
330
1826
330
1827
330
1828
330
1829
330
182A
330
182B
330
182C
330
182D
330
182E
330
182F
  0
IDBUFFER
  5
4788
330
0
100
AcDbIdBuffer
330
530E
330
533D
330
533E
330
533F
330
5340
  0
IDBUFFER
  5
4789
330
0
100
AcDbIdBuffer
330
5693
330
537A
330
53A4
330
53CA
330
53F0
330
541A
330
5440
330
546A
330
5490
330
54B6
  0
IDBUFFER
  5
478A
330
0
100
AcDbIdBuffer
  0
IDBUFFER
  5
478B
330
0
100
AcDbIdBuffer
  0
XRECORD
  5
56D4
102
{ACAD_REACTORS
330
56D3
102
}
330
56D3
100
AcDbXrecord
280
     1
102
SHADEPLOT
 70
     0
102
SHADEPLOTRESLEVEL
 70
     2
102
SHADEPLOTCUSTOMDPI
 70
   300
  0
XRECORD
  5
56D2
102
{ACAD_REACTORS
330
56D1
102
}
330
56D1
100
AcDbXrecord
280
     1
102
SHADEPLOT
 70
     0
102
SHADEPLOTRESLEVEL
 70
     2
102
SHADEPLOTCUSTOMDPI
 70
   300
  0
XRECORD
  5
56D6
102
{ACAD_REACTORS
330
56D5
102
}
330
56D5
100
AcDbXrecord
280
     1
102
SHADEPLOT
 70
     0
102
SHADEPLOTRESLEVEL
 70
     2
102
SHADEPLOTCUSTOMDPI
 70
   300
  0
ENDSEC
  0
EOF
