  0
SECTION
  2
HEADER
  9
$ACADVER
  1
AC1015
  9
$ACADMAINTVER
 70
    20
  9
$DWGCODEPAGE
  3
ANSI_950
  9
$INSBASE
 10
0.0
 20
0.0
 30
0.0
  9
$EXTMIN
 10
141.4910900097935
 20
151.7145324469584
 30
-0.0058069244264516
  9
$EXTMAX
 10
355.6695565670607
 20
442.1499009079038
 30
190.3016256141528
  9
$LIMMIN
 10
0.0
 20
0.0
  9
$LIMMAX
 10
420.0
 20
297.0
  9
$ORTHOMODE
 70
     1
  9
$REGENMODE
 70
     1
  9
$FILLMODE
 70
     1
  9
$QTEXTMODE
 70
     0
  9
$MIRRTEXT
 70
     1
  9
$LTSCALE
 40
1.0
  9
$ATTMODE
 70
     1
  9
$TEXTSIZE
 40
3.0
  9
$TRACEWID
 40
1.0
  9
$TEXTSTYLE
  7
STANDARD
  9
$CLAYER
  8
0
  9
$CELTYPE
  6
ByLayer
  9
$CECOLOR
 62
   256
  9
$CELTSCALE
 40
1.0
  9
$DISPSILH
 70
     0
  9
$DIMSCALE
 40
1.0
  9
$DIMASZ
 40
3.0
  9
$DIMEXO
 40
1.5
  9
$DIMDLI
 40
8.0
  9
$DIMRND
 40
0.0
  9
$DIMDLE
 40
0.0
  9
$DIMEXE
 40
1.5
  9
$DIMTP
 40
0.1
  9
$DIMTM
 40
0.1
  9
$DIMTXT
 40
3.5
  9
$DIMCEN
 40
0.0
  9
$DIMTSZ
 40
0.0
  9
$DIMTOL
 70
     0
  9
$DIMLIM
 70
     0
  9
$DIMTIH
 70
     0
  9
$DIMTOH
 70
     0
  9
$DIMSE1
 70
     0
  9
$DIMSE2
 70
     0
  9
$DIMTAD
 70
     1
  9
$DIMZIN
 70
     8
  9
$DIMBLK
  1

  9
$DIMASO
 70
     1
  9
$DIMSHO
 70
     1
  9
$DIMPOST
  1

  9
$DIMAPOST
  1
"
  9
$DIMALT
 70
     0
  9
$DIMALTD
 70
     2
  9
$DIMALTF
 40
0.0393701
  9
$DIMLFAC
 40
1.0
  9
$DIMTOFL
 70
     1
  9
$DIMTVP
 40
0.0
  9
$DIMTIX
 70
     0
  9
$DIMSOXD
 70
     0
  9
$DIMSAH
 70
     0
  9
$DIMBLK1
  1

  9
$DIMBLK2
  1

  9
$DIMSTYLE
  2
AM_ISO
  9
$DIMCLRD
 70
   256
  9
$DIMCLRE
 70
   256
  9
$DIMCLRT
 70
   256
  9
$DIMTFAC
 40
0.71
  9
$DIMGAP
 40
1.5
  9
$DIMJUST
 70
     0
  9
$DIMSD1
 70
     0
  9
$DIMSD2
 70
     0
  9
$DIMTOLJ
 70
     0
  9
$DIMTZIN
 70
     8
  9
$DIMALTZ
 70
     0
  9
$DIMALTTZ
 70
     0
  9
$DIMUPT
 70
     0
  9
$DIMDEC
 70
     2
  9
$DIMTDEC
 70
     2
  9
$DIMALTU
 70
     2
  9
$DIMALTTD
 70
     2
  9
$DIMTXSTY
  7
STANDARD
  9
$DIMAUNIT
 70
     0
  9
$DIMADEC
 70
     0
  9
$DIMALTRND
 40
0.0
  9
$DIMAZIN
 70
     2
  9
$DIMDSEP
 70
    46
  9
$DIMATFIT
 70
     3
  9
$DIMFRAC
 70
     0
  9
$DIMLDRBLK
  1

  9
$DIMLUNIT
 70
     2
  9
$DIMLWD
 70
    -1
  9
$DIMLWE
 70
    -1
  9
$DIMTMOVE
 70
     0
  9
$LUNITS
 70
     2
  9
$LUPREC
 70
     2
  9
$SKETCHINC
 40
1.0
  9
$FILLETRAD
 40
2.5
  9
$AUNITS
 70
     0
  9
$AUPREC
 70
     0
  9
$MENU
  1
.
  9
$ELEVATION
 40
0.0
  9
$PELEVATION
 40
0.0
  9
$THICKNESS
 40
0.0
  9
$LIMCHECK
 70
     0
  9
$CHAMFERA
 40
2.5
  9
$CHAMFERB
 40
2.5
  9
$CHAMFERC
 40
20.0
  9
$CHAMFERD
 40
0.0
  9
$SKPOLY
 70
     0
  9
$TDCREATE
 40
2453883.452848669
  9
$TDUCREATE
 40
2453883.119515336
  9
$TDUPDATE
 40
2453883.458166227
  9
$TDUUPDATE
 40
2453883.124832894
  9
$TDINDWG
 40
0.0053184722
  9
$TDUSRTIMER
 40
0.0053182870
  9
$USRTIMER
 70
     1
  9
$ANGBASE
 50
0.0
  9
$ANGDIR
 70
     0
  9
$PDMODE
 70
     0
  9
$PDSIZE
 40
0.0
  9
$PLINEWID
 40
0.0
  9
$SPLFRAME
 70
     0
  9
$SPLINETYPE
 70
     6
  9
$SPLINESEGS
 70
     8
  9
$HANDSEED
  5
645
  9
$SURFTAB1
 70
     6
  9
$SURFTAB2
 70
     6
  9
$SURFTYPE
 70
     6
  9
$SURFU
 70
     6
  9
$SURFV
 70
     6
  9
$UCSBASE
  2

  9
$UCSNAME
  2

  9
$UCSORG
 10
0.0
 20
0.0
 30
0.0
  9
$UCSXDIR
 10
1.0
 20
0.0
 30
0.0
  9
$UCSYDIR
 10
0.0
 20
1.0
 30
0.0
  9
$UCSORTHOREF
  2

  9
$UCSORTHOVIEW
 70
     0
  9
$UCSORGTOP
 10
0.0
 20
0.0
 30
0.0
  9
$UCSORGBOTTOM
 10
0.0
 20
0.0
 30
0.0
  9
$UCSORGLEFT
 10
0.0
 20
0.0
 30
0.0
  9
$UCSORGRIGHT
 10
0.0
 20
0.0
 30
0.0
  9
$UCSORGFRONT
 10
0.0
 20
0.0
 30
0.0
  9
$UCSORGBACK
 10
0.0
 20
0.0
 30
0.0
  9
$PUCSBASE
  2

  9
$PUCSNAME
  2

  9
$PUCSORG
 10
0.0
 20
0.0
 30
0.0
  9
$PUCSXDIR
 10
1.0
 20
0.0
 30
0.0
  9
$PUCSYDIR
 10
0.0
 20
1.0
 30
0.0
  9
$PUCSORTHOREF
  2

  9
$PUCSORTHOVIEW
 70
     0
  9
$PUCSORGTOP
 10
0.0
 20
0.0
 30
0.0
  9
$PUCSORGBOTTOM
 10
0.0
 20
0.0
 30
0.0
  9
$PUCSORGLEFT
 10
0.0
 20
0.0
 30
0.0
  9
$PUCSORGRIGHT
 10
0.0
 20
0.0
 30
0.0
  9
$PUCSORGFRONT
 10
0.0
 20
0.0
 30
0.0
  9
$PUCSORGBACK
 10
0.0
 20
0.0
 30
0.0
  9
$USERI1
 70
     0
  9
$USERI2
 70
     0
  9
$USERI3
 70
     0
  9
$USERI4
 70
     0
  9
$USERI5
 70
     0
  9
$USERR1
 40
0.0
  9
$USERR2
 40
0.0
  9
$USERR3
 40
0.0
  9
$USERR4
 40
0.0
  9
$USERR5
 40
0.0
  9
$WORLDVIEW
 70
     1
  9
$SHADEDGE
 70
     3
  9
$SHADEDIF
 70
    70
  9
$TILEMODE
 70
     1
  9
$MAXACTVP
 70
    64
  9
$PINSBASE
 10
0.0
 20
0.0
 30
0.0
  9
$PLIMCHECK
 70
     0
  9
$PEXTMIN
 10
1.000000000000000E+20
 20
1.000000000000000E+20
 30
1.000000000000000E+20
  9
$PEXTMAX
 10
-1.000000000000000E+20
 20
-1.000000000000000E+20
 30
-1.000000000000000E+20
  9
$PLIMMIN
 10
0.0
 20
0.0
  9
$PLIMMAX
 10
420.0
 20
297.0
  9
$UNITMODE
 70
     0
  9
$VISRETAIN
 70
     1
  9
$PLINEGEN
 70
     0
  9
$PSLTSCALE
 70
     1
  9
$TREEDEPTH
 70
  3020
  9
$CMLSTYLE
  2
Standard
  9
$CMLJUST
 70
     0
  9
$CMLSCALE
 40
20.0
  9
$PROXYGRAPHICS
 70
     1
  9
$MEASUREMENT
 70
     1
  9
$CELWEIGHT
370
    -1
  9
$ENDCAPS
280
     0
  9
$JOINSTYLE
280
     0
  9
$LWDISPLAY
290
     0
  9
$INSUNITS
 70
     4
  9
$HYPERLINKBASE
  1

  9
$STYLESHEET
  1
單色出圖.ctb
  9
$XEDIT
290
     1
  9
$CEPSNTYPE
380
     0
  9
$PSTYLEMODE
290
     1
  9
$FINGERPRINTGUID
  2
{8E39A403-DC5D-4FF6-82B4-E1F0B99E2D42}
  9
$VERSIONGUID
  2
{368F0EA5-6A50-4CBF-AA4C-4028BDE6FE8E}
  9
$EXTNAMES
290
     1
  9
$PSVPSCALE
 40
0.0
  9
$OLESTARTUP
290
     0
  0
ENDSEC
  0
SECTION
  2
CLASSES
  0
CLASS
  1
ACDBDICTIONARYWDFLT
  2
AcDbDictionaryWithDefault
  3
ObjectDBX Classes
 90
        0
280
     0
281
     0
  0
CLASS
  1
ACDBPLACEHOLDER
  2
AcDbPlaceHolder
  3
ObjectDBX Classes
 90
        0
280
     0
281
     0
  0
CLASS
  1
LAYOUT
  2
AcDbLayout
  3
ObjectDBX Classes
 90
        0
280
     0
281
     0
  0
CLASS
  1
ACME_DOCUMENT
  2
AcMeDbDoc
  3
AcMeServices
 90
        0
280
     0
281
     0
  0
CLASS
  1
AMGSETTINGSOBJ
  2
AmgSettingsObj
  3
"AcadM|Product Description: AutoCAD Mechanical 2000|Company: Autodesk"
 90
        0
280
     0
281
     0
  0
CLASS
  1
ACMESCOPE
  2
AcMeScope
  3
AcMeServices
 90
        0
280
     0
281
     0
  0
CLASS
  1
ACMECOMMANDHISTORY
  2
AcMeCommandHistory
  3
AcMeServices
 90
        0
280
     0
281
     0
  0
CLASS
  1
ACIMSYSVARMAN
  2
AcImSysVarManager
  3
AcMeServices
 90
        0
280
     0
281
     0
  0
CLASS
  1
ACIMREALSYSVAR
  2
AcImRealSysVar
  3
AcMeServices
 90
        0
280
     0
281
     0
  0
CLASS
  1
ACIMINTSYSVAR
  2
AcImIntSysVar
  3
AcMeServices
 90
        0
280
     0
281
     0
  0
CLASS
  1
ACMEDRAWINGMAN
  2
AcMeDrawingMan
  3
AcMeServices
 90
        0
280
     0
281
     0
  0
CLASS
  1
ACMEVIEW
  2
AcMeView
  3
AcMeServices
 90
        0
280
     0
281
     0
  0
CLASS
  1
ACDBENTITYCACHE
  2
AcMeEntityCache
  3
AcMeServices
 90
        0
280
     0
281
     0
  0
CLASS
  1
GSMANAGER
  2
AcMeGSManager
  3
AcMeServices
 90
        0
280
     0
281
     0
  0
CLASS
  1
AMDTINTERNALREACTOR
  2
AmdtInternalReactor
  3
AcMeServices
 90
        0
280
     0
281
     0
  0
CLASS
  1
ACMESTATEMGR
  2
AcMeStateMgr
  3
AcMeServices
 90
        0
280
     0
281
     0
  0
CLASS
  1
ACGREFMASTER
  2
AcGrefMaster
  3
AcAttribServices
 90
        0
280
     0
281
     0
  0
CLASS
  1
ACME_DATABASE
  2
AcMeDbDatabase
  3
AcMeServices
 90
        0
280
     0
281
     0
  0
CLASS
  1
ACRFINSADJUSTERMGR
  2
AcRfInsAdjusterMgr
  3
AcMeServices
 90
        0
280
     0
281
     0
  0
CLASS
  1
ACGREFACADMASTER
  2
AcGrefacadMaster
  3
AcGrefServices
 90
        0
280
     0
281
     0
  0
CLASS
  1
AMIMASTER
  2
AmiMaster
  3
AmiServices
 90
        0
280
     0
281
     0
  0
CLASS
  1
ACMDATADICTIONARY
  2
AcmDataDictionary
  3
"AcmSymBB|Product Description: AutoCAD Mechanical 2004 DX|Company: Autodesk"
 90
        0
280
     0
281
     0
  0
CLASS
  1
ACMDATAENTRYBLOCK
  2
AcmDataEntryBlock
  3
"AcmSymBB|Product Description: AutoCAD Mechanical 2004 DX|Company: Autodesk"
 90
        0
280
     0
281
     0
  0
CLASS
  1
ACIMSTRSYSVAR
  2
AcImStrSysVar
  3
AcMeServices
 90
        0
280
     0
281
     0
  0
CLASS
  1
ACMSTANDARDISO
  2
AcmStandardISO
  3
"Amdt_StdImp|Product Description: AutoCAD Mechanical 2004 DX|Company: Autodesk"
 90
        0
280
     0
281
     0
  0
CLASS
  1
AMGOBJPROPCFG
  2
AmgObjPropCfg
  3
"AmgLay|Product Description: AutoCAD Mechanical 2000|Company: Autodesk"
 90
        1
280
     0
281
     0
  0
CLASS
  1
AMDTEDGESTANDARDISO
  2
AmdtEdgeStdISO
  3
"Amdt_StdImp|Product Description: AutoCAD Mechanical 2004 DX|Company: Autodesk"
 90
        0
280
     0
281
     0
  0
CLASS
  1
ACMSURFSTANDARDISO
  2
AcmSurfTextStdISO
  3
"Amdt_StdImp|Product Description: AutoCAD Mechanical 2004 DX|Company: Autodesk"
 90
        0
280
     0
281
     0
  0
CLASS
  1
ACMFCFSTANDARDISO
  2
AcmFCFStdISO
  3
"Amdt_StdImp|Product Description: AutoCAD Mechanical 2004 DX|Company: Autodesk"
 90
        0
280
     0
281
     0
  0
CLASS
  1
ACMWELDSTANDARDISO
  2
AcmWeldingStdISO
  3
"Amdt_StdImp|Product Description: AutoCAD Mechanical 2004 DX|Company: Autodesk"
 90
        0
280
     0
281
     0
  0
CLASS
  1
ACMIDSTANDARDISO
  2
AcmIdStdISO
  3
"Amdt_StdImp|Product Description: AutoCAD Mechanical 2004 DX|Company: Autodesk"
 90
        0
280
     0
281
     0
  0
CLASS
  1
ACMDATUMSTANDARDISO
  2
AcmDatumStdISO
  3
"Amdt_StdImp|Product Description: AutoCAD Mechanical 2004 DX|Company: Autodesk"
 90
        0
280
     0
281
     0
  0
CLASS
  1
ACMBOMSTANDARDISO
  2
AcmBOMStdISO
  3
"Amdt_StdImp|Product Description: AutoCAD Mechanical 2004 DX|Company: Autodesk"
 90
        0
280
     0
281
     0
  0
CLASS
  1
ACMDETAILSTANDARDISO
  2
AmdtDetailSymStdISO
  3
"Amdt_StdImp|Product Description: AutoCAD Mechanical 2004 DX|Company: Autodesk"
 90
        0
280
     0
281
     0
  0
CLASS
  1
ACMSECTIONSTANDARDISO
  2
AmdtSectionSymStdISO
  3
"Amdt_StdImp|Product Description: AutoCAD Mechanical 2004 DX|Company: Autodesk"
 90
        0
280
     0
281
     0
  0
CLASS
  1
ACMCENTERLINESTANDARDISO
  2
AmdtCenterLineStdISO
  3
"Amdt_StdImp|Product Description: AutoCAD Mechanical 2004 DX|Company: Autodesk"
 90
        0
280
     0
281
     0
  0
CLASS
  1
ACMNOTESTANDARDISO
  2
AmdtNoteStdISO
  3
"Amdt_StdImp|Product Description: AutoCAD Mechanical 2004 DX|Company: Autodesk"
 90
        0
280
     0
281
     0
  0
CLASS
  1
ACAMGLAYSTD
  2
AcAmgLayStd
  3
"AcAmgLayStd|Product Description: AutoCAD Mechanical 2000|Company: Autodesk"
 90
        0
280
     0
281
     0
  0
CLASS
  1
ACAMGDIMSTD
  2
AcAmgDimStd
  3
"AcAmgDimStd|Product Description: AutoCAD Mechanical 2000|Company: Autodesk"
 90
        0
280
     0
281
     0
  0
CLASS
  1
ACAMGHOLECHARTSTDISO
  2
AcAmgHoleChartStdISO
  3
ACMSYMBB_MODULE_NAME
 90
        0
280
     0
281
     0
  0
CLASS
  1
ACAMGTITLESTD
  2
AcAmgTitleStd
  3
"TITLEAPP"
 90
        0
280
     0
281
     0
  0
CLASS
  1
LAYER_INDEX
  2
AcDbLayerIndex
  3
ObjectDBX Classes
 90
    32768
280
     0
281
     0
  0
CLASS
  1
IDBUFFER
  2
AcDbIdBuffer
  3
ObjectDBX Classes
 90
    32768
280
     0
281
     0
  0
CLASS
  1
DICTIONARYVAR
  2
AcDbDictionaryVar
  3
ObjectDBX Classes
 90
        0
280
     0
281
     0
  0
CLASS
  1
AM_DRAWING_MGR
  2
AcDmDwgMgr
  3
AcMechDwgViewMgmt
 90
        0
280
     0
281
     0
  0
CLASS
  1
AM_DWG_DOCUMENT
  2
AcDmDwgDocument
  3
AcMechDwgViewMgmt
 90
        0
280
     0
281
     0
  0
CLASS
  1
AM_DWG_SHEET
  2
AcDmSheet
  3
AcMechDwgViewMgmt
 90
        0
280
     0
281
     0
  0
CLASS
  1
AM_VIEWDIMPARMAP
  2
AcDmViewDimParMap
  3
AcMechDwgViewMgmt
 90
        0
280
     0
281
     0
  0
CLASS
  1
AM_DWGMGR_NAME
  2
AcDmDwgMgrName
  3
AcMechDwgViewMgmt
 90
        0
280
     0
281
     0
  0
CLASS
  1
AMDTMENUSTATEMGR
  2
AmdtMenuStateMgr
  3
McadcomServices
 90
        0
280
     0
281
     0
  0
CLASS
  1
AMDTMCOMMENUSTATE
  2
AmdtMcomMenuState
  3
McadcomServices
 90
        0
280
     0
281
     0
  0
CLASS
  1
MAPIAMMOUDLE
  2
MApiAmModule
  3
MApiAmServices
 90
        0
280
     0
281
     0
  0
CLASS
  1
AMDTADMENUSTATE
  2
AmdtAdMenuState
  3
DesignerServices
 90
        0
280
     0
281
     0
  0
CLASS
  1
ADAPPL
  2
AcAdAppl
  3
DesignerServices
 90
        0
280
     0
281
     0
  0
CLASS
  1
DEPMGR
  2
AcAdDepMgr
  3
DesignerServices
 90
        0
280
     0
281
     0
  0
CLASS
  1
PARAMMGR
  2
AcAdParamMgr
  3
DesignerServices
 90
        0
280
     0
281
     0
  0
CLASS
  1
PARAMSCOPE
  2
AcAdParamScope
  3
DesignerServices
 90
        0
280
     0
281
     0
  0
CLASS
  1
NAMEDAPPL
  2
AcAdNamedAppl
  3
DesignerServices
 90
        0
280
     0
281
     0
  0
CLASS
  1
AMDTDMMENUSTATE
  2
AmdtDmMenuState
  3
AcMechDwgViewMgmt
 90
        0
280
     0
281
     0
  0
CLASS
  1
AMDTAMMENUSTATE
  2
AmdtAmMenuState
  3
DesignerAssemblies
 90
        0
280
     0
281
     0
  0
CLASS
  1
ACAMPROJECT
  2
AcAmProject
  3
DesignerAssemblies
 90
        0
280
     0
281
     0
  0
CLASS
  1
ACAMGRCOMPDEF
  2
AcAmGrCompDef
  3
DesignerAssemblies
 90
        0
280
     0
281
     0
  0
CLASS
  1
ACCMCONTEXT
  2
AcCmContext
  3
DesignerAssemblies
 90
        0
280
     0
281
     0
  0
CLASS
  1
ACAMCOMPDEF
  2
AcAmCompDef
  3
DesignerAssemblies
 90
        0
280
     0
281
     0
  0
CLASS
  1
ACAMCOMPDEFMGR
  2
AcAmCompDefMgr
  3
DesignerAssemblies
 90
        0
280
     0
281
     0
  0
CLASS
  1
AMCONTEXTMGR
  2
AcAmContextMgr
  3
DesignerAssemblies
 90
        0
280
     0
281
     0
  0
CLASS
  1
ACAMCONTEXTMODELER
  2
AcAmContextModeler
  3
DesignerAssemblies
 90
        0
280
     0
281
     0
  0
CLASS
  1
ACMTHREADLINESTANDARDISO
  2
AmdtThreadLineStdISO
  3
"Amdt_StdImp|Product Description: AutoCAD Mechanical 2004 DX|Company: Autodesk"
 90
        0
280
     0
281
     0
  0
CLASS
  1
CATALOGSTATE
  2
AcAmCatalogState
  3
DesignerAssemblies
 90
        0
280
     0
281
     0
  0
CLASS
  1
ACAMGRCOMPDEFSET
  2
AcAmGrCompDefSet
  3
DesignerAssemblies
 90
        0
280
     0
281
     0
  0
CLASS
  1
AMDTBROWSERDBTAB
  2
AmdtBrowserDbTab
  3
McadcomServices
 90
        0
280
     0
281
     0
  0
CLASS
  1
CBROWSERAPPOBJECT
  2
CBrowserAppObject
  3
McadcomServices
 90
        0
280
     0
281
     0
  0
CLASS
  1
DM_PLACEHOLDER
  2
AcDmSelsetPlaceholder
  3
AcMechDwgViewMgmt
 90
        0
280
     0
281
     0
  0
CLASS
  1
TABLESTYLE
  2
AcDbTableStyle
  3
ObjectDBX Classes
 90
     2047
280
     0
281
     0
  0
CLASS
  1
VAACXREFPANELOBJECT
  2
VaAcXREFPanelObject
  3
VAAC_ADDIN
 90
        0
280
     0
281
     0
  0
CLASS
  1
VAACIMAGEINVENTORY
  2
VaAcImageInventory
  3
VAAC_ADDIN
 90
        0
280
     0
281
     0
  0
CLASS
  1
AMDTNOTETEMPLATEDB
  2
AmdtNoteTemplateDB
  3
AMDT_STDIMP_MODULE_NAME
 90
        0
280
     0
281
     0
  0
CLASS
  1
ACMBOM
  2
AcmBom
  3
"AcmSymBB|Product Description: AutoCAD Mechanical 2004 DX|Company: Autodesk"
 90
    32768
280
     0
281
     0
  0
CLASS
  1
AMDTFORMULAUPDATEDISPATCHER
  2
AmdtFormulaUpdateDispatcher
  3
AcMeServices
 90
    32768
280
     0
281
     0
  0
CLASS
  1
ACMPARTLIST
  2
AcmPartList
  3
"AcmSymBB|Product Description: AutoCAD Mechanical 2004 DX|Company: Autodesk"
 90
    33791
280
     0
281
     1
  0
CLASS
  1
ACAMGFILTERDAT
  2
AcAmgFilterDat
  3
"AcadM|Product Description: AutoCAD Mechanical 2000|Company: Autodesk"
 90
        0
280
     0
281
     0
  0
CLASS
  1
DIMASSOC
  2
AcDbDimAssoc
  3
"AcDbDimAssoc|Product Desc:     AcDim ARX App For Dimension|Company:          Autodesk, Inc.|WEB Address:      www.autodesk.com"
 90
    32768
280
     0
281
     0
  0
CLASS
  1
SORTENTSTABLE
  2
AcDbSortentsTable
  3
ObjectDBX Classes
 90
        0
280
     0
281
     0
  0
CLASS
  1
ACMSTANDARDJIS
  2
AcmStandardJIS
  3
"Amdt_StdImp|Product Description: AutoCAD Mechanical 2004 DX|Company: Autodesk"
 90
        0
280
     0
281
     0
  0
CLASS
  1
ACMSURFSTANDARDJIS
  2
AcmSurfTextStdJIS
  3
"Amdt_StdImp|Product Description: AutoCAD Mechanical 2004 DX|Company: Autodesk"
 90
        0
280
     0
281
     0
  0
CLASS
  1
ACMFCFSTANDARDJIS
  2
AcmFCFStdJIS
  3
"Amdt_StdImp|Product Description: AutoCAD Mechanical 2004 DX|Company: Autodesk"
 90
        0
280
     0
281
     0
  0
CLASS
  1
ACMWELDSTANDARDJIS
  2
AcmWeldingStdJIS
  3
"Amdt_StdImp|Product Description: AutoCAD Mechanical 2004 DX|Company: Autodesk"
 90
        0
280
     0
281
     0
  0
CLASS
  1
ACMIDSTANDARDJIS
  2
AcmIdStdJIS
  3
"Amdt_StdImp|Product Description: AutoCAD Mechanical 2004 DX|Company: Autodesk"
 90
        0
280
     0
281
     0
  0
CLASS
  1
ACMDATUMSTANDARDJIS
  2
AcmDatumStdJIS
  3
"Amdt_StdImp|Product Description: AutoCAD Mechanical 2004 DX|Company: Autodesk"
 90
        0
280
     0
281
     0
  0
CLASS
  1
ACMBOMSTANDARDJIS
  2
AcmBOMStdJIS
  3
"Amdt_StdImp|Product Description: AutoCAD Mechanical 2004 DX|Company: Autodesk"
 90
        0
280
     0
281
     0
  0
CLASS
  1
ACMDETAILSTANDARDJIS
  2
AmdtDetailSymStdJIS
  3
"Amdt_StdImp|Product Description: AutoCAD Mechanical 2004 DX|Company: Autodesk"
 90
        0
280
     0
281
     0
  0
CLASS
  1
ACMSECTIONSTANDARDJIS
  2
AmdtSectionSymStdJIS
  3
"Amdt_StdImp|Product Description: AutoCAD Mechanical 2004 DX|Company: Autodesk"
 90
        0
280
     0
281
     0
  0
CLASS
  1
ACMCENTERLINESTANDARDJIS
  2
AmdtCenterLineStdJIS
  3
"Amdt_StdImp|Product Description: AutoCAD Mechanical 2004 DX|Company: Autodesk"
 90
        0
280
     0
281
     0
  0
CLASS
  1
ACMTHREADLINESTANDARDJIS
  2
AmdtThreadLineStdJIS
  3
"Amdt_StdImp|Product Description: AutoCAD Mechanical 2004 DX|Company: Autodesk"
 90
        0
280
     0
281
     0
  0
CLASS
  1
ACMNOTESTANDARDJIS
  2
AmdtNoteStdJIS
  3
"Amdt_StdImp|Product Description: AutoCAD Mechanical 2004 DX|Company: Autodesk"
 90
        0
280
     0
281
     0
  0
CLASS
  1
ACAMGHOLECHARTSTDJIS
  2
AcAmgHoleChartStdJIS
  3
ACMSYMBB_MODULE_NAME
 90
        0
280
     0
281
     0
  0
CLASS
  1
ACRFATTGENMGR
  2
AcRfAttGeneralMgr
  3
AcAttribServices
 90
        0
280
     0
281
     0
  0
ENDSEC
  0
SECTION
  2
TABLES
  0
TABLE
  2
VPORT
  5
8
330
0
100
AcDbSymbolTable
 70
     4
  0
VPORT
  5
63C
330
8
100
AcDbSymbolTableRecord
100
AcDbViewportTableRecord
  2
*Active
 70
     0
 10
0.0
 20
0.0
 11
1.0
 21
1.0
 12
248.5803232884271
 22
296.9322166774311
 13
0.0
 23
0.0
 14
2.5
 24
2.5
 15
10.0
 25
10.0
 16
0.0
 26
0.0
 36
1.0
 17
0.0
 27
0.0
 37
0.0
 40
292.6384180320777
 41
1.218987341772151
 42
50.0
 43
0.0
 44
0.0
 50
0.0
 51
0.0
 71
     0
 72
   100
 73
     1
 74
     3
 75
     0
 76
     0
 77
     0
 78
     0
281
     0
 65
     1
110
0.0
120
0.0
130
0.0
111
1.0
121
0.0
131
0.0
112
0.0
122
1.0
132
0.0
 79
     0
146
0.0
  0
ENDTAB
  0
TABLE
  2
LTYPE
  5
5
330
0
100
AcDbSymbolTable
 70
    16
  0
LTYPE
  5
14
330
5
100
AcDbSymbolTableRecord
100
AcDbLinetypeTableRecord
  2
ByBlock
 70
     0
  3

 72
    65
 73
     0
 40
0.0
  0
LTYPE
  5
15
330
5
100
AcDbSymbolTableRecord
100
AcDbLinetypeTableRecord
  2
ByLayer
 70
     0
  3

 72
    65
 73
     0
 40
0.0
  0
LTYPE
  5
16
330
5
100
AcDbSymbolTableRecord
100
AcDbLinetypeTableRecord
  2
Continuous
 70
     0
  3
Solid line
 72
    65
 73
     0
 40
0.0
  0
LTYPE
  5
64
330
5
100
AcDbSymbolTableRecord
100
AcDbLinetypeTableRecord
  2
AM_ISO02W050
 70
     0
  3
__ __ __ __ __ __ __ __ __ __ __ __ __ __ __
 72
    65
 73
     2
 40
7.5
 49
6.0
 74
     0
 49
-1.5
 74
     0
  0
LTYPE
  5
65
330
5
100
AcDbSymbolTableRecord
100
AcDbLinetypeTableRecord
  2
AM_ISO08W050
 70
     0
  3
____ . ____ . ____ . ____ . ____ . ____ . ____
 72
    65
 73
     4
 40
18.0
 49
12.0
 74
     0
 49
-1.5
 74
     0
 49
3.0
 74
     0
 49
-1.5
 74
     0
  0
LTYPE
  5
66
330
5
100
AcDbSymbolTableRecord
100
AcDbLinetypeTableRecord
  2
AM_ISO09W050
 70
     0
  3
_____ . . _____ . . _____ . . ____ .. ____
 72
    65
 73
     6
 40
22.5
 49
12.0
 74
     0
 49
-1.5
 74
     0
 49
3.0
 74
     0
 49
-1.5
 74
     0
 49
3.0
 74
     0
 49
-1.5
 74
     0
  0
LTYPE
  5
67
330
5
100
AcDbSymbolTableRecord
100
AcDbLinetypeTableRecord
  2
Amconstr
 70
     0
  3
_______________________
 72
    65
 73
     2
 40
9999.0
 49
9999.0
 74
     0
 49
0.0
 74
     0
  0
LTYPE
  5
68
330
5
100
AcDbSymbolTableRecord
100
AcDbLinetypeTableRecord
  2
AM_ISO08W050x2
 70
     0
  3
__ . __ . __ . __ . __ . __
 72
    65
 73
     4
 40
9.0
 49
6.0
 74
     0
 49
-0.75
 74
     0
 49
1.5
 74
     0
 49
-0.75
 74
     0
  0
LTYPE
  5
69
330
5
100
AcDbSymbolTableRecord
100
AcDbLinetypeTableRecord
  2
AM_ISO02W050x2
 70
     0
  3
 _ _ _ _ _ _ _ _ _ _ _ _
 72
    65
 73
     2
 40
3.75
 49
3.0
 74
     0
 49
-0.75
 74
     0
  0
LTYPE
  5
6C
330
5
100
AcDbSymbolTableRecord
100
AcDbLinetypeTableRecord
  2
Amzigzag
 70
     0
  3
/\/-/\/-/\/-/\/-/\/-/\/
 72
    65
 73
     2
 40
11.0001
 49
0.0001
 74
     4
 75
   135
340
6B
 46
0.04
 50
0.0
 44
0.0
 45
0.0
 49
-11.0
 74
     0
  0
LTYPE
  5
7A
330
5
100
AcDbSymbolTableRecord
100
AcDbLinetypeTableRecord
  2
ACISOWELD
 70
     0
  3
_ _ _ _ _
 72
    65
 73
     2
 40
2.0
 49
2.0
 74
     0
 49
-1.0
 74
     0
  0
LTYPE
  5
7B
330
5
100
AcDbSymbolTableRecord
100
AcDbLinetypeTableRecord
  2
ACISOTGB
 70
     0
  3
__ . . __ . .
 72
    65
 73
     6
 40
9.0
 49
4.0
 74
     0
 49
-1.0
 74
     0
 49
1.0
 74
     0
 49
-1.0
 74
     0
 49
1.0
 74
     0
 49
-1.0
 74
     0
  0
LTYPE
  5
7C
330
5
100
AcDbSymbolTableRecord
100
AcDbLinetypeTableRecord
  2
ACISOTGL
 70
     0
  3
_ _ _ _ _
 72
    65
 73
     2
 40
3.0
 49
2.0
 74
     0
 49
-1.0
 74
     0
  0
LTYPE
  5
7E
330
5
100
AcDbSymbolTableRecord
100
AcDbLinetypeTableRecord
  2
CENTER
 70
     0
  3
__ . __
 72
    65
 73
     4
 40
7.0
 49
4.0
 74
     0
 49
-1.0
 74
     0
 49
1.0
 74
     0
 49
-1.0
 74
     0
  0
LTYPE
  5
D8
330
5
100
AcDbSymbolTableRecord
100
AcDbLinetypeTableRecord
  2
HIDDEN
 70
     0
  3
Hidden __ __ __ __ __ __ __ __ __ __ __ __ __ _
 72
    65
 73
     2
 40
9.524999999999998
 49
6.349999999999999
 74
     0
 49
-3.174999999999999
 74
     0
  0
LTYPE
  5
D9
330
5
100
AcDbSymbolTableRecord
100
AcDbLinetypeTableRecord
  2
PHANTOM2
 70
     0
  3
Phantom (.5x) ___ _ _ ___ _ _ ___ _ _ ___ _ _
 72
    65
 73
     6
 40
31.75
 49
15.875
 74
     0
 49
-3.174999999999999
 74
     0
 49
3.174999999999999
 74
     0
 49
-3.174999999999999
 74
     0
 49
3.174999999999999
 74
     0
 49
-3.174999999999999
 74
     0
  0
LTYPE
  5
38D
330
5
100
AcDbSymbolTableRecord
100
AcDbLinetypeTableRecord
  2
ACJISTGB
 70
     0
  3
__ . . __ . .
 72
    65
 73
     6
 40
9.0
 49
4.0
 74
     0
 49
-1.0
 74
     0
 49
1.0
 74
     0
 49
-1.0
 74
     0
 49
1.0
 74
     0
 49
-1.0
 74
     0
  0
LTYPE
  5
38E
330
5
100
AcDbSymbolTableRecord
100
AcDbLinetypeTableRecord
  2
ACJISTGL
 70
     0
  3
_ _ _ _ _
 72
    65
 73
     2
 40
3.0
 49
2.0
 74
     0
 49
-1.0
 74
     0
  0
ENDTAB
  0
TABLE
  2
LAYER
  5
2
102
{ACAD_XDICTIONARY
360
3A3
102
}
330
0
100
AcDbSymbolTable
 70
     6
  0
LAYER
  5
10
330
2
100
AcDbSymbolTableRecord
100
AcDbLayerTableRecord
  2
0
 70
     0
 62
     7
  6
Continuous
370
    -3
390
F
  0
LAYER
  5
38F
330
2
100
AcDbSymbolTableRecord
100
AcDbLayerTableRecord
  2
Defpoints
 70
     0
 62
     7
  6
Continuous
290
     0
370
    -3
390
F
  0
LAYER
  5
390
330
2
100
AcDbSymbolTableRecord
100
AcDbLayerTableRecord
  2
AM_VIS
 70
     2
 62
     7
  6
Continuous
370
    50
390
F
  0
LAYER
  5
391
330
2
100
AcDbSymbolTableRecord
100
AcDbLayerTableRecord
  2
AM_7
 70
     0
 62
     1
  6
AM_ISO08W050
370
    25
390
F
  0
LAYER
  5
392
330
2
100
AcDbSymbolTableRecord
100
AcDbLayerTableRecord
  2
AM_6
 70
     0
 62
     2
  6
Continuous
370
    35
390
F
  0
LAYER
  5
393
330
2
100
AcDbSymbolTableRecord
100
AcDbLayerTableRecord
  2
LOGO
 70
     0
 62
     7
  6
Continuous
370
    -3
390
F
  0
ENDTAB
  0
TABLE
  2
STYLE
  5
3
330
0
100
AcDbSymbolTable
 70
     8
  0
STYLE
  5
11
330
3
100
AcDbSymbolTableRecord
100
AcDbTextStyleTableRecord
  2
STANDARD
 70
     0
 40
0.0
 41
1.0
 50
0.0
 71
     0
 42
3.0
  3
ISOCP.SHX
  4
CHINESET.SHX
  0
STYLE
  5
6B
330
3
100
AcDbSymbolTableRecord
100
AcDbTextStyleTableRecord
  2

 70
     1
 40
0.0
 41
1.0
 50
0.0
 71
     0
 42
2.5
  3
ltypeshp.shx
  4

  0
STYLE
  5
6D
330
3
100
AcDbSymbolTableRecord
100
AcDbTextStyleTableRecord
  2
ACISOTS
 70
     0
 40
1.0
 41
1.0
 50
0.0
 71
     0
 42
1.0
  3
isocp.shx
  4
chineset.shx
  0
STYLE
  5
79
330
3
100
AcDbSymbolTableRecord
100
AcDbTextStyleTableRecord
  2
ACISOGDT
 70
     0
 40
0.0
 41
1.0
 50
0.0
 71
     0
 42
2.5
  3
amgdt.shx
  4
chineset.shx
  0
STYLE
  5
394
330
3
100
AcDbSymbolTableRecord
100
AcDbTextStyleTableRecord
  2
CHINESET
 70
     0
 40
0.0
 41
1.0
 50
0.0
 71
     0
 42
2.5
  3
simplex.shx
  4
CHINESET.shx
  0
STYLE
  5
395
330
3
100
AcDbSymbolTableRecord
100
AcDbTextStyleTableRecord
  2
ACJISTS
 70
     0
 40
1.0
 41
1.0
 50
0.0
 71
     0
 42
2.5
  3
isocp.shx
  4
chineset.shx
  0
STYLE
  5
396
330
3
100
AcDbSymbolTableRecord
100
AcDbTextStyleTableRecord
  2
ACJISGDT
 70
     0
 40
0.0
 41
1.0
 50
0.0
 71
     0
 42
2.5
  3
amgdt.shx
  4

  0
ENDTAB
  0
TABLE
  2
VIEW
  5
6
330
0
100
AcDbSymbolTable
 70
     0
  0
ENDTAB
  0
TABLE
  2
UCS
  5
7
330
0
100
AcDbSymbolTable
 70
     0
  0
ENDTAB
  0
TABLE
  2
APPID
  5
9
330
0
100
AcDbSymbolTable
 70
    18
  0
APPID
  5
12
330
9
100
AcDbSymbolTableRecord
100
AcDbRegAppTableRecord
  2
ACAD
 70
     0
  0
APPID
  5
46
330
9
100
AcDbSymbolTableRecord
100
AcDbRegAppTableRecord
  2
MCAD_NO_VIS
 70
     0
  0
APPID
  5
47
330
9
100
AcDbSymbolTableRecord
100
AcDbRegAppTableRecord
  2
ACAD_TEMP_GRAPHIC
 70
     0
  0
APPID
  5
58
330
9
100
AcDbSymbolTableRecord
100
AcDbRegAppTableRecord
  2
ACATTRIBSERVICES
 70
     0
  0
APPID
  5
EE
330
9
100
AcDbSymbolTableRecord
100
AcDbRegAppTableRecord
  2
AD_DRAW
 70
     0
  0
APPID
  5
10C
330
9
100
AcDbSymbolTableRecord
100
AcDbRegAppTableRecord
  2
DESIGNERASSEMBLIES
 70
     0
  0
APPID
  5
111
330
9
100
AcDbSymbolTableRecord
100
AcDbRegAppTableRecord
  2
ACADM_DIM_EDIT
 70
     0
  0
APPID
  5
112
330
9
100
AcDbSymbolTableRecord
100
AcDbRegAppTableRecord
  2
AMDT_DM_ADJ
 70
     0
  0
APPID
  5
1FE
330
9
100
AcDbSymbolTableRecord
100
AcDbRegAppTableRecord
  2
ACAD_DSTYLE_DIMTEXT_FILL
 70
     0
  0
APPID
  5
2B5
330
9
100
AcDbSymbolTableRecord
100
AcDbRegAppTableRecord
  2
GENIUS_GENOLIS_13
 70
     0
  0
APPID
  5
2B6
330
9
100
AcDbSymbolTableRecord
100
AcDbRegAppTableRecord
  2
GENIUS_GENOENT_13
 70
     0
  0
APPID
  5
2B7
330
9
100
AcDbSymbolTableRecord
100
AcDbRegAppTableRecord
  2
GENIUS_GENOBJ-N-CRS_13
 70
     0
  0
APPID
  5
2B8
330
9
100
AcDbSymbolTableRecord
100
AcDbRegAppTableRecord
  2
GENIUS_GENODEF_13
 70
     0
  0
APPID
  5
2B9
330
9
100
AcDbSymbolTableRecord
100
AcDbRegAppTableRecord
  2
GENIUS_GENOREF_13
 70
     0
  0
APPID
  5
39F
330
9
100
AcDbSymbolTableRecord
100
AcDbRegAppTableRecord
  2
ACAD_PSEXT
 70
     0
  0
APPID
  5
3A0
330
9
100
AcDbSymbolTableRecord
100
AcDbRegAppTableRecord
  2
GENIUS_AMGTXT_16
 70
     0
  0
APPID
  5
3A1
330
9
100
AcDbSymbolTableRecord
100
AcDbRegAppTableRecord
  2
GENIUS_GENREC_14
 70
     0
  0
APPID
  5
3A2
330
9
100
AcDbSymbolTableRecord
100
AcDbRegAppTableRecord
  2
GENIUS_GENOBJ-N-REC_13
 70
     0
  0
ENDTAB
  0
TABLE
  2
DIMSTYLE
  5
A
330
0
100
AcDbSymbolTable
 70
    17
100
AcDbDimStyleTable
 71
     1
340
81
  0
DIMSTYLE
105
81
330
A
100
AcDbSymbolTableRecord
100
AcDbDimStyleTableRecord
  2
AM_ISO
 70
     0
  4
"
 41
3.0
 42
1.5
 43
8.0
 44
1.5
 47
0.1
 48
0.1
 73
     0
 74
     0
 77
     1
 78
     8
 79
     2
140
3.5
141
0.0
143
0.0393701
146
0.71
147
1.5
172
     1
176
   256
177
   256
178
   256
271
     2
272
     2
283
     0
284
     8
340
11
371
    -1
372
    -1
  0
DIMSTYLE
105
82
330
A
100
AcDbSymbolTableRecord
100
AcDbDimStyleTableRecord
  2
AM_ISO$3
 70
     0
  4
"
 41
3.0
 42
1.5
 43
8.0
 44
1.5
 47
0.1
 48
0.1
 73
     0
 77
     1
 78
     8
 79
     2
140
3.5
141
0.0
143
0.0393701
146
0.71
147
1.5
176
   256
177
   256
178
   256
271
     2
272
     2
283
     0
284
     8
288
     1
289
     0
340
11
371
    -1
372
    -1
  0
DIMSTYLE
105
83
330
A
100
AcDbSymbolTableRecord
100
AcDbDimStyleTableRecord
  2
AM_ISO$4
 70
     0
  4
"
 41
3.0
 42
1.5
 43
8.0
 44
1.5
 47
0.1
 48
0.1
 73
     0
 77
     1
 78
     8
 79
     2
140
3.5
141
0.0
143
0.0393701
146
0.71
147
1.5
176
   256
177
   256
178
   256
271
     2
272
     2
283
     0
284
     8
288
     1
289
     0
340
11
371
    -1
372
    -1
  0
DIMSTYLE
105
84
330
A
100
AcDbSymbolTableRecord
100
AcDbDimStyleTableRecord
  2
AM_ISO$6
 70
     0
  4
"
 41
3.0
 42
1.5
 43
8.0
 44
1.5
 47
0.1
 48
0.1
 73
     0
 74
     0
 78
     8
 79
     2
140
3.5
141
0.0
143
0.0393701
146
0.71
147
1.5
172
     1
176
   256
177
   256
178
   256
271
     2
272
     2
283
     0
284
     8
340
11
371
    -1
372
    -1
  0
DIMSTYLE
105
85
330
A
100
AcDbSymbolTableRecord
100
AcDbDimStyleTableRecord
  2
AM_ISO$7
 70
     0
  4
"
 41
3.0
 42
1.5
 43
8.0
 44
1.5
 47
0.1
 48
0.1
 73
     0
 74
     0
 77
     1
 78
     8
 79
     2
140
5.0
141
0.0
143
0.0393701
146
0.71
147
1.5
172
     1
176
   256
177
   256
178
   256
271
     2
272
     2
283
     0
284
     8
340
11
371
    -1
372
    -1
  0
DIMSTYLE
105
86
330
A
100
AcDbSymbolTableRecord
100
AcDbDimStyleTableRecord
  2
AM_ISO$SF
 70
     0
  4
"
 41
2.5
 42
1.0
 43
10.0
 44
1.0
 47
0.1
 48
0.1
 73
     0
 74
     0
 75
     1
 76
     1
 77
     1
 78
     8
 79
     2
140
3.5
141
0.0
143
0.0393701
146
0.71
147
1.5
172
     1
176
   256
177
   256
178
     2
271
     2
272
     3
274
     4
283
     0
284
     8
340
11
371
    -1
372
    -1
  0
DIMSTYLE
105
8B
330
A
100
AcDbSymbolTableRecord
100
AcDbDimStyleTableRecord
  2
AM_ISO$SH
 70
     0
  4
"
 41
2.5
 42
1.0
 43
10.0
 44
1.0
 47
0.1
 48
0.1
 73
     0
 74
     0
 75
     1
 76
     1
 77
     1
 78
     8
 79
     2
140
3.5
141
0.0
143
0.0393701
144
2.0
146
0.71
147
1.5
172
     1
173
     1
176
   256
177
   256
178
     2
271
     2
272
     3
274
     4
283
     0
284
     8
340
11
343
87
371
    -1
372
    -1
  0
DIMSTYLE
105
27B
330
A
100
AcDbSymbolTableRecord
100
AcDbDimStyleTableRecord
  2
AM_ISO$0
 70
     0
  4
"
 41
3.0
 42
1.5
 43
8.0
 44
1.5
 47
0.1
 48
0.1
 73
     0
 74
     0
 77
     1
 78
     8
 79
     2
140
3.5
141
0.0
143
0.0393701
146
0.71
147
1.5
172
     1
176
   256
177
   256
178
   256
271
     2
272
     2
283
     0
284
     8
340
11
371
    -1
372
    -1
  0
DIMSTYLE
105
397
102
{ACAD_REACTORS
330
431
330
42F
330
432
330
435
330
433
330
54C
330
54E
330
54F
330
552
102
}
330
A
100
AcDbSymbolTableRecord
100
AcDbDimStyleTableRecord
  2
STANDARD
 70
     0
 41
3.0
 42
2.0
 43
8.0
 44
2.0
 48
0.000000001
 73
     0
 74
     0
 77
     1
 78
     8
 79
     2
140
3.0
141
1.0
146
0.6
147
1.0
176
   256
177
   256
178
   256
179
     2
271
     2
272
     2
279
     2
284
     8
340
394
371
    -1
  0
DIMSTYLE
105
398
330
A
100
AcDbSymbolTableRecord
100
AcDbDimStyleTableRecord
  2
AM_JIS
 70
     0
  4
"
 41
2.5
 42
1.0
 43
10.0
 44
1.0
 47
0.1
 48
0.1
 73
     0
 74
     0
 77
     3
 78
     8
 79
     2
140
3.5
141
0.0
143
0.0393701
146
0.71
147
1.5
172
     1
176
   256
177
   256
178
     2
271
     2
272
     3
274
     4
283
     0
340
11
341
357
342
357
343
357
344
357
371
    -1
372
    -1
  0
DIMSTYLE
105
399
330
A
100
AcDbSymbolTableRecord
100
AcDbDimStyleTableRecord
  2
AM_JIS$3
 70
     0
  4
"
 41
2.5
 42
1.0
 43
10.0
 44
1.0
 47
0.1
 48
0.1
 73
     0
 77
     3
 78
     8
 79
     2
140
3.5
141
0.0
143
0.0393701
146
0.71
147
1.5
176
   256
177
   256
178
     2
271
     2
272
     3
274
     4
283
     0
288
     1
289
     0
340
11
341
357
342
357
343
357
344
357
371
    -1
372
    -1
  0
DIMSTYLE
105
39A
330
A
100
AcDbSymbolTableRecord
100
AcDbDimStyleTableRecord
  2
AM_JIS$4
 70
     0
  4
"
 41
2.5
 42
1.0
 43
10.0
 44
1.0
 47
0.1
 48
0.1
 73
     0
 77
     3
 78
     8
 79
     2
140
3.5
141
0.0
143
0.0393701
146
0.71
147
1.5
176
   256
177
   256
178
     2
271
     2
272
     3
274
     4
283
     0
288
     1
289
     0
340
11
341
357
342
357
343
357
344
357
371
    -1
372
    -1
  0
DIMSTYLE
105
39B
330
A
100
AcDbSymbolTableRecord
100
AcDbDimStyleTableRecord
  2
AM_JIS$6
 70
     0
  4
"
 41
2.5
 42
1.0
 43
10.0
 44
1.0
 47
0.1
 48
0.1
 73
     0
 74
     0
 78
     8
 79
     2
140
3.5
141
0.0
143
0.0393701
146
0.71
147
1.5
172
     1
176
   256
177
   256
178
     2
271
     2
272
     3
274
     4
283
     0
340
11
341
357
342
357
343
357
344
357
371
    -1
372
    -1
  0
DIMSTYLE
105
39C
330
A
100
AcDbSymbolTableRecord
100
AcDbDimStyleTableRecord
  2
AM_JIS$7
 70
     0
  4
"
 41
2.5
 42
1.0
 43
10.0
 44
1.0
 47
0.1
 48
0.1
 73
     0
 74
     0
 77
     3
 78
     8
 79
     2
140
5.0
141
0.0
143
0.0393701
146
0.71
147
1.5
172
     1
176
   256
177
   256
178
     2
271
     2
272
     3
274
     4
283
     0
340
11
341
357
342
357
343
357
344
357
371
    -1
372
    -1
  0
DIMSTYLE
105
39D
330
A
100
AcDbSymbolTableRecord
100
AcDbDimStyleTableRecord
  2
AM_JIS$SF
 70
     0
  4
"
 41
2.5
 42
1.0
 43
10.0
 44
1.0
 47
0.1
 48
0.1
 73
     0
 74
     0
 75
     1
 76
     1
 77
     3
 78
     8
 79
     2
140
3.5
141
0.0
143
0.0393701
146
0.71
147
1.5
172
     1
176
   256
177
   256
178
     2
271
     2
272
     3
274
     4
283
     0
340
11
341
357
342
357
343
357
344
357
371
    -1
372
    -1
  0
DIMSTYLE
105
39E
330
A
100
AcDbSymbolTableRecord
100
AcDbDimStyleTableRecord
  2
AM_JIS$SH
 70
     0
  4
"
 41
2.5
 42
1.0
 43
10.0
 44
1.0
 47
0.1
 48
0.1
 73
     0
 74
     0
 75
     1
 76
     1
 77
     3
 78
     8
 79
     2
140
3.5
141
0.0
143
0.0393701
144
2.0
146
0.71
147
1.5
172
     1
173
     1
176
   256
177
   256
178
     2
271
     2
272
     3
274
     4
283
     0
340
11
341
357
342
357
343
87
344
357
371
    -1
372
    -1
  0
ENDTAB
  0
TABLE
  2
BLOCK_RECORD
  5
1
330
0
100
AcDbSymbolTable
 70
    14
  0
BLOCK_RECORD
  5
1F
102
{ACAD_XDICTIONARY
360
8F
102
}
330
1
100
AcDbSymbolTableRecord
100
AcDbBlockTableRecord
  2
*Model_Space
340
22
  0
BLOCK_RECORD
  5
1B
330
1
100
AcDbSymbolTableRecord
100
AcDbBlockTableRecord
  2
*Paper_Space
340
1E
  0
BLOCK_RECORD
  5
23
330
1
100
AcDbSymbolTableRecord
100
AcDbBlockTableRecord
  2
*Paper_Space0
340
26
  0
BLOCK_RECORD
  5
87
330
1
100
AcDbSymbolTableRecord
100
AcDbBlockTableRecord
  2
GENAXEH
340
0
  0
BLOCK_RECORD
  5
357
330
1
100
AcDbSymbolTableRecord
100
AcDbBlockTableRecord
  2
_Open30
340
0
  0
BLOCK_RECORD
  5
35D
330
1
100
AcDbSymbolTableRecord
100
AcDbBlockTableRecord
  2
*D4
340
0
  0
BLOCK_RECORD
  5
369
330
1
100
AcDbSymbolTableRecord
100
AcDbBlockTableRecord
  2
*D5
340
0
  0
BLOCK_RECORD
  5
375
330
1
100
AcDbSymbolTableRecord
100
AcDbBlockTableRecord
  2
*D6
340
0
  0
BLOCK_RECORD
  5
381
330
1
100
AcDbSymbolTableRecord
100
AcDbBlockTableRecord
  2
*D7
340
0
  0
BLOCK_RECORD
  5
5C6
330
1
100
AcDbSymbolTableRecord
100
AcDbBlockTableRecord
  2
*D9
340
0
  0
BLOCK_RECORD
  5
5D2
330
1
100
AcDbSymbolTableRecord
100
AcDbBlockTableRecord
  2
*D10
340
0
  0
BLOCK_RECORD
  5
5DE
330
1
100
AcDbSymbolTableRecord
100
AcDbBlockTableRecord
  2
*D11
340
0
  0
BLOCK_RECORD
  5
5EA
330
1
100
AcDbSymbolTableRecord
100
AcDbBlockTableRecord
  2
*D12
340
0
  0
ENDTAB
  0
ENDSEC
  0
SECTION
  2
BLOCKS
  0
BLOCK
  5
20
330
1F
100
AcDbEntity
  8
0
100
AcDbBlockBegin
  2
*Model_Space
 70
     0
 10
0.0
 20
0.0
 30
0.0
  3
*Model_Space
  1

  0
ENDBLK
  5
21
330
1F
100
AcDbEntity
  8
0
100
AcDbBlockEnd
  0
BLOCK
  5
1C
330
1B
100
AcDbEntity
 67
     1
  8
0
100
AcDbBlockBegin
  2
*Paper_Space
 70
     0
 10
0.0
 20
0.0
 30
0.0
  3
*Paper_Space
  1

  0
ENDBLK
  5
1D
330
1B
100
AcDbEntity
 67
     1
  8
0
100
AcDbBlockEnd
  0
BLOCK
  5
24
330
23
100
AcDbEntity
  8
0
100
AcDbBlockBegin
  2
*Paper_Space0
 70
     0
 10
0.0
 20
0.0
 30
0.0
  3
*Paper_Space0
  1

  0
ENDBLK
  5
25
330
23
100
AcDbEntity
  8
0
100
AcDbBlockEnd
  0
BLOCK
  5
89
330
87
100
AcDbEntity
  8
0
100
AcDbBlockBegin
  2
GENAXEH
 70
     0
 10
0.0
 20
0.0
 30
0.0
  3
GENAXEH
  1

  0
LINE
  5
88
330
87
100
AcDbEntity
  8
0
100
AcDbLine
 10
-1.0
 20
0.0
 30
0.0
 11
1.0
 21
0.0
 31
0.0
  0
ENDBLK
  5
8A
330
87
100
AcDbEntity
  8
0
100
AcDbBlockEnd
  0
BLOCK
  5
358
330
357
100
AcDbEntity
  8
0
100
AcDbBlockBegin
  2
_Open30
 70
     0
 10
0.0
 20
0.0
 30
0.0
  3
_Open30
  1

  0
LINE
  5
359
330
357
100
AcDbEntity
  8
0
 62
     0
370
    -2
100
AcDbLine
 10
-1.0
 20
0.26794919
 30
0.0
 11
0.0
 21
0.0
 31
0.0
  0
LINE
  5
35A
330
357
100
AcDbEntity
  8
0
 62
     0
370
    -2
100
AcDbLine
 10
0.0
 20
0.0
 30
0.0
 11
-1.0
 21
-0.26794919
 31
0.0
  0
LINE
  5
35B
330
357
100
AcDbEntity
  8
0
 62
     0
370
    -2
100
AcDbLine
 10
0.0
 20
0.0
 30
0.0
 11
-1.0
 21
0.0
 31
0.0
  0
ENDBLK
  5
35C
330
357
100
AcDbEntity
  8
0
100
AcDbBlockEnd
  0
BLOCK
  5
35E
330
35D
100
AcDbEntity
  8
0
100
AcDbBlockBegin
  2
*D4
 70
     1
 10
0.0
 20
0.0
 30
0.0
  3
*D4
  1

  0
LINE
  5
35F
330
35D
100
AcDbEntity
  8
0
 62
     5
370
    -2
100
AcDbLine
 10
101.6977632668397
 20
155.1220024744478
 30
0.0
 11
101.6977632668397
 21
140.7823317118237
 31
0.0
  0
LINE
  5
360
330
35D
100
AcDbEntity
  8
0
 62
     5
370
    -2
100
AcDbLine
 10
42.6977632668399
 20
155.1220024744476
 30
0.0
 11
42.6977632668399
 21
140.7823317118237
 31
0.0
  0
LINE
  5
361
330
35D
100
AcDbEntity
  8
0
 62
     5
100
AcDbLine
 10
98.69776326683973
 20
142.7823317118237
 30
0.0
 11
45.6977632668399
 21
142.7823317118237
 31
0.0
  0
SOLID
  5
362
330
35D
100
AcDbEntity
  8
0
 62
     5
100
AcDbTrace
 10
98.69776326683973
 20
143.2823317118237
 30
0.0
 11
98.69776326683973
 21
142.2823317118237
 31
0.0
 12
101.6977632668397
 22
142.7823317118237
 32
0.0
 13
101.6977632668397
 23
142.7823317118237
 33
0.0
  0
SOLID
  5
363
330
35D
100
AcDbEntity
  8
0
 62
     5
100
AcDbTrace
 10
45.6977632668399
 20
143.2823317118237
 30
0.0
 11
45.6977632668399
 21
142.2823317118237
 31
0.0
 12
42.6977632668399
 22
142.7823317118237
 32
0.0
 13
42.6977632668399
 23
142.7823317118237
 33
0.0
  0
MTEXT
  5
364
330
35D
100
AcDbEntity
  8
0
 62
     5
100
AcDbMText
 10
72.19776326683981
 20
145.2823317118237
 30
0.0
 40
3.0
 41
0.0
 71
     5
 72
     1
  1
\A1;59
  7
CHINESET
 73
     1
 44
1.0
1001
ACAD
1000
MTEXTBEGIN
1070
    73
1070
     1
1070
    44
1040
1.0
1070
    74
1070
     0
1000
MTEXTEND
  0
POINT
  5
365
330
35D
100
AcDbEntity
  8
Defpoints
 62
     0
100
AcDbPoint
 10
101.6977632668397
 20
157.1220024744478
 30
0.0
  0
POINT
  5
366
330
35D
100
AcDbEntity
  8
Defpoints
 62
     0
100
AcDbPoint
 10
42.6977632668399
 20
157.1220024744476
 30
0.0
  0
POINT
  5
367
330
35D
100
AcDbEntity
  8
Defpoints
 62
     0
100
AcDbPoint
 10
42.6977632668399
 20
142.7823317118237
 30
0.0
  0
ENDBLK
  5
368
330
35D
100
AcDbEntity
  8
0
100
AcDbBlockEnd
  0
BLOCK
  5
36A
330
369
100
AcDbEntity
  8
0
100
AcDbBlockBegin
  2
*D5
 70
     1
 10
0.0
 20
0.0
 30
0.0
  3
*D5
  1

  0
LINE
  5
36B
330
369
100
AcDbEntity
  8
0
 62
     5
370
    -2
100
AcDbLine
 10
6.701608474552784
 20
228.3941658382089
 30
0.0
 11
6.701608474552778
 21
123.433215505373
 31
0.0
  0
LINE
  5
36C
330
369
100
AcDbEntity
  8
0
 62
     5
370
    -2
100
AcDbLine
 10
101.6977632668397
 20
155.1220024744478
 30
0.0
 11
101.6977632668397
 21
123.433215505373
 31
0.0
  0
LINE
  5
36D
330
369
100
AcDbEntity
  8
0
 62
     5
100
AcDbLine
 10
9.701608474552777
 20
125.433215505373
 30
0.0
 11
98.69776326683973
 21
125.433215505373
 31
0.0
  0
SOLID
  5
36E
330
369
100
AcDbEntity
  8
0
 62
     5
100
AcDbTrace
 10
9.701608474552777
 20
125.933215505373
 30
0.0
 11
9.701608474552777
 21
124.933215505373
 31
0.0
 12
6.701608474552778
 22
125.433215505373
 32
0.0
 13
6.701608474552778
 23
125.433215505373
 33
0.0
  0
SOLID
  5
36F
330
369
100
AcDbEntity
  8
0
 62
     5
100
AcDbTrace
 10
98.69776326683973
 20
125.933215505373
 30
0.0
 11
98.69776326683973
 21
124.933215505373
 31
0.0
 12
101.6977632668397
 22
125.433215505373
 32
0.0
 13
101.6977632668397
 23
125.433215505373
 33
0.0
  0
MTEXT
  5
370
330
369
100
AcDbEntity
  8
0
 62
     5
100
AcDbMText
 10
54.19968587069625
 20
127.933215505373
 30
0.0
 40
3.0
 41
0.0
 71
     5
 72
     1
  1
\A1;95
  7
CHINESET
 73
     1
 44
1.0
1001
ACAD
1000
MTEXTBEGIN
1070
    73
1070
     1
1070
    44
1040
1.0
1070
    74
1070
     0
1000
MTEXTEND
  0
POINT
  5
371
330
369
100
AcDbEntity
  8
Defpoints
 62
     0
100
AcDbPoint
 10
6.701608474552784
 20
230.3941658382089
 30
0.0
  0
POINT
  5
372
330
369
100
AcDbEntity
  8
Defpoints
 62
     0
100
AcDbPoint
 10
101.6977632668397
 20
157.1220024744478
 30
0.0
  0
POINT
  5
373
330
369
100
AcDbEntity
  8
Defpoints
 62
     0
100
AcDbPoint
 10
101.6977632668397
 20
125.433215505373
 30
0.0
  0
ENDBLK
  5
374
330
369
100
AcDbEntity
  8
0
100
AcDbBlockEnd
  0
BLOCK
  5
376
330
375
100
AcDbEntity
  8
0
100
AcDbBlockBegin
  2
*D6
 70
     1
 10
0.0
 20
0.0
 30
0.0
  3
*D6
  1

  0
LINE
  5
377
330
375
100
AcDbEntity
  8
0
 62
     5
370
    -2
100
AcDbLine
 10
58.0233977326618
 20
275.1175784779106
 30
0.0
 11
123.1962645441608
 21
275.1175784779106
 31
0.0
  0
LINE
  5
378
330
375
100
AcDbEntity
  8
0
 62
     5
370
    -2
100
AcDbLine
 10
103.6977632668397
 20
157.1220024744478
 30
0.0
 11
123.1962645441608
 21
157.1220024744478
 31
0.0
  0
LINE
  5
379
330
375
100
AcDbEntity
  8
0
 62
     5
100
AcDbLine
 10
121.1962645441609
 20
272.1175784779106
 30
0.0
 11
121.1962645441608
 21
160.1220024744478
 31
0.0
  0
SOLID
  5
37A
330
375
100
AcDbEntity
  8
0
 62
     5
100
AcDbTrace
 10
120.6962645441608
 20
272.1175784779106
 30
0.0
 11
121.6962645441608
 21
272.1175784779106
 31
0.0
 12
121.1962645441609
 22
275.1175784779106
 32
0.0
 13
121.1962645441609
 23
275.1175784779106
 33
0.0
  0
SOLID
  5
37B
330
375
100
AcDbEntity
  8
0
 62
     5
100
AcDbTrace
 10
120.6962645441608
 20
160.1220024744478
 30
0.0
 11
121.6962645441608
 21
160.1220024744478
 31
0.0
 12
121.1962645441608
 22
157.1220024744478
 32
0.0
 13
121.1962645441608
 23
157.1220024744478
 33
0.0
  0
MTEXT
  5
37C
330
375
100
AcDbEntity
  8
0
 62
     5
100
AcDbMText
 10
118.6962645441608
 20
216.1197904761792
 30
0.0
 40
3.0
 41
0.0
 71
     5
 72
     1
  1
\A1;118
  7
CHINESET
 11
0.0000000000000001
 21
1.0
 31
0.0
 73
     1
 44
1.0
1001
ACAD
1000
MTEXTBEGIN
1070
    73
1070
     1
1070
    44
1040
1.0
1070
    74
1070
     0
1000
MTEXTEND
  0
POINT
  5
37D
330
375
100
AcDbEntity
  8
Defpoints
 62
     0
100
AcDbPoint
 10
56.0233977326618
 20
275.1175784779106
 30
0.0
  0
POINT
  5
37E
330
375
100
AcDbEntity
  8
Defpoints
 62
     0
100
AcDbPoint
 10
101.6977632668397
 20
157.1220024744478
 30
0.0
  0
POINT
  5
37F
330
375
100
AcDbEntity
  8
Defpoints
 62
     0
100
AcDbPoint
 10
121.1962645441608
 20
157.1220024744478
 30
0.0
  0
ENDBLK
  5
380
330
375
100
AcDbEntity
  8
0
100
AcDbBlockEnd
  0
BLOCK
  5
382
330
381
100
AcDbEntity
  8
0
100
AcDbBlockBegin
  2
*D7
 70
     1
 10
0.0
 20
0.0
 30
0.0
  3
*D7
  1

  0
LINE
  5
383
330
381
100
AcDbEntity
  8
0
 62
     5
370
    -2
100
AcDbLine
 10
103.6977632668397
 20
72.32037925186054
 30
0.0
 11
113.9259007830886
 21
72.32037925186054
 31
0.0
  0
LINE
  5
384
330
381
100
AcDbEntity
  8
0
 62
     5
370
    -2
100
AcDbLine
 10
103.6977632668398
 20
59.32037925186055
 30
0.0
 11
113.9259007830886
 21
59.32037925186055
 31
0.0
  0
LINE
  5
385
330
381
100
AcDbEntity
  8
0
 62
     5
100
AcDbLine
 10
111.9259007830886
 20
69.32037925186055
 30
0.0
 11
111.9259007830886
 21
62.32037925186055
 31
0.0
  0
SOLID
  5
386
330
381
100
AcDbEntity
  8
0
 62
     5
100
AcDbTrace
 10
111.4259007830886
 20
69.32037925186055
 30
0.0
 11
112.4259007830886
 21
69.32037925186055
 31
0.0
 12
111.9259007830886
 22
72.32037925186054
 32
0.0
 13
111.9259007830886
 23
72.32037925186054
 33
0.0
  0
SOLID
  5
387
330
381
100
AcDbEntity
  8
0
 62
     5
100
AcDbTrace
 10
111.4259007830886
 20
62.32037925186055
 30
0.0
 11
112.4259007830886
 21
62.32037925186054
 31
0.0
 12
111.9259007830886
 22
59.32037925186055
 32
0.0
 13
111.9259007830886
 23
59.32037925186055
 33
0.0
  0
MTEXT
  5
388
330
381
100
AcDbEntity
  8
0
 62
     5
100
AcDbMText
 10
109.4259007830886
 20
65.82037925186057
 30
0.0
 40
3.0
 41
0.0
 71
     5
 72
     1
  1
\A1;13
  7
CHINESET
 11
0.0000000000000001
 21
1.0
 31
0.0
 73
     1
 44
1.0
1001
ACAD
1000
MTEXTBEGIN
1070
    73
1070
     1
1070
    44
1040
1.0
1070
    74
1070
     0
1000
MTEXTEND
  0
POINT
  5
389
330
381
100
AcDbEntity
  8
Defpoints
 62
     0
100
AcDbPoint
 10
101.6977632668397
 20
72.32037925186054
 30
0.0
  0
POINT
  5
38A
330
381
100
AcDbEntity
  8
Defpoints
 62
     0
100
AcDbPoint
 10
101.6977632668398
 20
59.32037925186055
 30
0.0
  0
POINT
  5
38B
330
381
100
AcDbEntity
  8
Defpoints
 62
     0
100
AcDbPoint
 10
111.9259007830886
 20
59.32037925186055
 30
0.0
  0
ENDBLK
  5
38C
330
381
100
AcDbEntity
  8
0
100
AcDbBlockEnd
  0
BLOCK
  5
5D0
330
5C6
100
AcDbEntity
  8
0
100
AcDbBlockBegin
  2
*D9
 70
     1
 10
0.0
 20
0.0
 30
0.0
  3
*D9
  1

  0
LINE
  5
5F6
330
5C6
100
AcDbEntity
  8
0
 62
     5
370
    -2
100
AcDbLine
 10
284.0717145387245
 20
296.9936587546807
 30
0.0
 11
284.0717145387245
 21
282.6539879920566
 31
0.0
  0
LINE
  5
5F7
330
5C6
100
AcDbEntity
  8
0
 62
     5
370
    -2
100
AcDbLine
 10
225.0717145387246
 20
296.9936587546804
 30
0.0
 11
225.0717145387246
 21
282.6539879920566
 31
0.0
  0
LINE
  5
5F8
330
5C6
100
AcDbEntity
  8
0
 62
     5
100
AcDbLine
 10
281.0717145387244
 20
284.6539879920566
 30
0.0
 11
228.0717145387246
 21
284.6539879920566
 31
0.0
  0
SOLID
  5
5F9
330
5C6
100
AcDbEntity
  8
0
 62
     5
100
AcDbTrace
 10
281.0717145387244
 20
285.1539879920566
 30
0.0
 11
281.0717145387244
 21
284.1539879920566
 31
0.0
 12
284.0717145387245
 22
284.6539879920566
 32
0.0
 13
284.0717145387245
 23
284.6539879920566
 33
0.0
  0
SOLID
  5
5FA
330
5C6
100
AcDbEntity
  8
0
 62
     5
100
AcDbTrace
 10
228.0717145387246
 20
285.1539879920566
 30
0.0
 11
228.0717145387246
 21
284.1539879920566
 31
0.0
 12
225.0717145387246
 22
284.6539879920566
 32
0.0
 13
225.0717145387246
 23
284.6539879920566
 33
0.0
  0
MTEXT
  5
5FB
330
5C6
100
AcDbEntity
  8
0
 62
     5
100
AcDbMText
 10
254.5717145387246
 20
287.1539879920566
 30
0.0
 40
3.0
 41
0.0
 71
     5
 72
     1
  1
\A1;59
  7
CHINESET
 73
     1
 44
1.0
1001
ACAD
1000
MTEXTBEGIN
1070
    73
1070
     1
1070
    44
1040
1.0
1070
    74
1070
     0
1000
MTEXTEND
  0
POINT
  5
5FC
330
5C6
100
AcDbEntity
  8
Defpoints
 62
     0
100
AcDbPoint
 10
284.0717145387245
 20
298.9936587546807
 30
0.0
  0
POINT
  5
5FD
330
5C6
100
AcDbEntity
  8
Defpoints
 62
     0
100
AcDbPoint
 10
225.0717145387246
 20
298.9936587546804
 30
0.0
  0
POINT
  5
5FE
330
5C6
100
AcDbEntity
  8
Defpoints
 62
     0
100
AcDbPoint
 10
225.0717145387246
 20
284.6539879920566
 30
0.0
  0
ENDBLK
  5
5D1
330
5C6
100
AcDbEntity
  8
0
100
AcDbBlockEnd
  0
BLOCK
  5
5DC
330
5D2
100
AcDbEntity
  8
0
100
AcDbBlockBegin
  2
*D10
 70
     1
 10
0.0
 20
0.0
 30
0.0
  3
*D10
  1

  0
LINE
  5
5FF
330
5D2
100
AcDbEntity
  8
0
 62
     5
370
    -2
100
AcDbLine
 10
189.0755597464375
 20
370.2658221184417
 30
0.0
 11
189.0755597464375
 21
265.3048717856059
 31
0.0
  0
LINE
  5
600
330
5D2
100
AcDbEntity
  8
0
 62
     5
370
    -2
100
AcDbLine
 10
284.0717145387245
 20
296.9936587546807
 30
0.0
 11
284.0717145387245
 21
265.3048717856059
 31
0.0
  0
LINE
  5
601
330
5D2
100
AcDbEntity
  8
0
 62
     5
100
AcDbLine
 10
192.0755597464375
 20
267.3048717856059
 30
0.0
 11
281.0717145387244
 21
267.3048717856059
 31
0.0
  0
SOLID
  5
602
330
5D2
100
AcDbEntity
  8
0
 62
     5
100
AcDbTrace
 10
192.0755597464375
 20
267.8048717856059
 30
0.0
 11
192.0755597464375
 21
266.8048717856059
 31
0.0
 12
189.0755597464375
 22
267.3048717856059
 32
0.0
 13
189.0755597464375
 23
267.3048717856059
 33
0.0
  0
SOLID
  5
603
330
5D2
100
AcDbEntity
  8
0
 62
     5
100
AcDbTrace
 10
281.0717145387244
 20
267.8048717856059
 30
0.0
 11
281.0717145387244
 21
266.8048717856059
 31
0.0
 12
284.0717145387245
 22
267.3048717856059
 32
0.0
 13
284.0717145387245
 23
267.3048717856059
 33
0.0
  0
MTEXT
  5
604
330
5D2
100
AcDbEntity
  8
0
 62
     5
100
AcDbMText
 10
236.573637142581
 20
269.8048717856059
 30
0.0
 40
3.0
 41
0.0
 71
     5
 72
     1
  1
\A1;95
  7
CHINESET
 73
     1
 44
1.0
1001
ACAD
1000
MTEXTBEGIN
1070
    73
1070
     1
1070
    44
1040
1.0
1070
    74
1070
     0
1000
MTEXTEND
  0
POINT
  5
605
330
5D2
100
AcDbEntity
  8
Defpoints
 62
     0
100
AcDbPoint
 10
189.0755597464375
 20
372.2658221184417
 30
0.0
  0
POINT
  5
606
330
5D2
100
AcDbEntity
  8
Defpoints
 62
     0
100
AcDbPoint
 10
284.0717145387245
 20
298.9936587546807
 30
0.0
  0
POINT
  5
607
330
5D2
100
AcDbEntity
  8
Defpoints
 62
     0
100
AcDbPoint
 10
284.0717145387245
 20
267.3048717856059
 30
0.0
  0
ENDBLK
  5
5DD
330
5D2
100
AcDbEntity
  8
0
100
AcDbBlockEnd
  0
BLOCK
  5
5E8
330
5DE
100
AcDbEntity
  8
0
100
AcDbBlockBegin
  2
*D11
 70
     1
 10
0.0
 20
0.0
 30
0.0
  3
*D11
  1

  0
LINE
  5
608
330
5DE
100
AcDbEntity
  8
0
 62
     5
370
    -2
100
AcDbLine
 10
240.3973490045465
 20
416.9892347581434
 30
0.0
 11
305.5702158160456
 21
416.9892347581434
 31
0.0
  0
LINE
  5
609
330
5DE
100
AcDbEntity
  8
0
 62
     5
370
    -2
100
AcDbLine
 10
286.0717145387244
 20
298.9936587546807
 30
0.0
 11
305.5702158160455
 21
298.9936587546807
 31
0.0
  0
LINE
  5
60A
330
5DE
100
AcDbEntity
  8
0
 62
     5
100
AcDbLine
 10
303.5702158160456
 20
413.9892347581434
 30
0.0
 11
303.5702158160455
 21
301.9936587546807
 31
0.0
  0
SOLID
  5
60B
330
5DE
100
AcDbEntity
  8
0
 62
     5
100
AcDbTrace
 10
303.0702158160456
 20
413.9892347581434
 30
0.0
 11
304.0702158160456
 21
413.9892347581434
 31
0.0
 12
303.5702158160456
 22
416.9892347581434
 32
0.0
 13
303.5702158160456
 23
416.9892347581434
 33
0.0
  0
SOLID
  5
60C
330
5DE
100
AcDbEntity
  8
0
 62
     5
100
AcDbTrace
 10
303.0702158160456
 20
301.9936587546807
 30
0.0
 11
304.0702158160456
 21
301.9936587546807
 31
0.0
 12
303.5702158160455
 22
298.9936587546807
 32
0.0
 13
303.5702158160455
 23
298.9936587546807
 33
0.0
  0
MTEXT
  5
60D
330
5DE
100
AcDbEntity
  8
0
 62
     5
100
AcDbMText
 10
301.0702158160455
 20
357.9914467564121
 30
0.0
 40
3.0
 41
0.0
 71
     5
 72
     1
  1
\A1;118
  7
CHINESET
 11
0.0000000000000001
 21
1.0
 31
0.0
 73
     1
 44
1.0
1001
ACAD
1000
MTEXTBEGIN
1070
    73
1070
     1
1070
    44
1040
1.0
1070
    74
1070
     0
1000
MTEXTEND
  0
POINT
  5
60E
330
5DE
100
AcDbEntity
  8
Defpoints
 62
     0
100
AcDbPoint
 10
238.3973490045465
 20
416.9892347581434
 30
0.0
  0
POINT
  5
60F
330
5DE
100
AcDbEntity
  8
Defpoints
 62
     0
100
AcDbPoint
 10
284.0717145387245
 20
298.9936587546807
 30
0.0
  0
POINT
  5
610
330
5DE
100
AcDbEntity
  8
Defpoints
 62
     0
100
AcDbPoint
 10
303.5702158160455
 20
298.9936587546807
 30
0.0
  0
ENDBLK
  5
5E9
330
5DE
100
AcDbEntity
  8
0
100
AcDbBlockEnd
  0
BLOCK
  5
5F4
330
5EA
100
AcDbEntity
  8
0
100
AcDbBlockBegin
  2
*D12
 70
     1
 10
0.0
 20
0.0
 30
0.0
  3
*D12
  1

  0
LINE
  5
611
330
5EA
100
AcDbEntity
  8
0
 62
     5
370
    -2
100
AcDbLine
 10
286.0717145387244
 20
214.1920355320934
 30
0.0
 11
296.2998520549734
 21
214.1920355320934
 31
0.0
  0
LINE
  5
612
330
5EA
100
AcDbEntity
  8
0
 62
     5
370
    -2
100
AcDbLine
 10
286.0717145387245
 20
201.1920355320934
 30
0.0
 11
296.2998520549734
 21
201.1920355320934
 31
0.0
  0
LINE
  5
613
330
5EA
100
AcDbEntity
  8
0
 62
     5
100
AcDbLine
 10
294.2998520549734
 20
211.1920355320934
 30
0.0
 11
294.2998520549734
 21
204.1920355320934
 31
0.0
  0
SOLID
  5
614
330
5EA
100
AcDbEntity
  8
0
 62
     5
100
AcDbTrace
 10
293.7998520549734
 20
211.1920355320934
 30
0.0
 11
294.7998520549734
 21
211.1920355320934
 31
0.0
 12
294.2998520549734
 22
214.1920355320934
 32
0.0
 13
294.2998520549734
 23
214.1920355320934
 33
0.0
  0
SOLID
  5
615
330
5EA
100
AcDbEntity
  8
0
 62
     5
100
AcDbTrace
 10
293.7998520549734
 20
204.1920355320934
 30
0.0
 11
294.7998520549734
 21
204.1920355320934
 31
0.0
 12
294.2998520549734
 22
201.1920355320934
 32
0.0
 13
294.2998520549734
 23
201.1920355320934
 33
0.0
  0
MTEXT
  5
616
330
5EA
100
AcDbEntity
  8
0
 62
     5
100
AcDbMText
 10
291.7998520549733
 20
207.6920355320934
 30
0.0
 40
3.0
 41
0.0
 71
     5
 72
     1
  1
\A1;13
  7
CHINESET
 11
0.0000000000000001
 21
1.0
 31
0.0
 73
     1
 44
1.0
1001
ACAD
1000
MTEXTBEGIN
1070
    73
1070
     1
1070
    44
1040
1.0
1070
    74
1070
     0
1000
MTEXTEND
  0
POINT
  5
617
330
5EA
100
AcDbEntity
  8
Defpoints
 62
     0
100
AcDbPoint
 10
284.0717145387245
 20
214.1920355320934
 30
0.0
  0
POINT
  5
618
330
5EA
100
AcDbEntity
  8
Defpoints
 62
     0
100
AcDbPoint
 10
284.0717145387245
 20
201.1920355320934
 30
0.0
  0
POINT
  5
619
330
5EA
100
AcDbEntity
  8
Defpoints
 62
     0
100
AcDbPoint
 10
294.2998520549734
 20
201.1920355320934
 30
0.0
  0
ENDBLK
  5
5F5
330
5EA
100
AcDbEntity
  8
0
100
AcDbBlockEnd
  0
ENDSEC
  0
SECTION
  2
ENTITIES
  0
LINE
  5
4C3
330
1F
100
AcDbEntity
  8
AM_7
 62
     1
100
AcDbLine
 10
188.3074793382639
 20
214.1920355320934
 30
0.0
 11
285.6385719656575
 21
214.1920355320934
 31
0.0
  0
LINE
  5
4C4
330
1F
100
AcDbEntity
  8
AM_7
 62
     1
100
AcDbLine
 10
228.6735394928842
 20
352.4668322452184
 30
0.0
 11
243.5227818978017
 21
337.6175898403009
 31
0.0
  0
LINE
  5
4C5
330
1F
100
AcDbEntity
  8
AM_VIS
100
AcDbLine
 10
220.1882581186456
 20
228.6920355320935
 30
0.0
 11
189.782666527624
 21
228.6920355320935
 31
0.0
  0
LINE
  5
4C6
330
1F
100
AcDbEntity
  8
AM_VIS
100
AcDbLine
 10
189.782666527624
 20
199.6920355320935
 30
0.0
 11
220.1882581186456
 21
199.6920355320934
 31
0.0
  0
LINE
  5
4C7
330
1F
100
AcDbEntity
  8
AM_VIS
100
AcDbLine
 10
189.782666527624
 20
228.6920355320935
 30
0.0
 11
189.782666527624
 21
199.6920355320935
 31
0.0
  0
LINE
  5
4C8
330
1F
100
AcDbEntity
  8
AM_VIS
100
AcDbLine
 10
220.1882581186456
 20
228.6920355320935
 30
0.0
 11
220.1882581186456
 21
199.6920355320934
 31
0.0
  0
LINE
  5
4C9
330
1F
100
AcDbEntity
  8
AM_VIS
100
AcDbLine
 10
244.5834420695815
 20
228.6920355320935
 30
0.0
 11
220.1882581186456
 21
228.6920355320935
 31
0.0
  0
LINE
  5
4CA
330
1F
100
AcDbEntity
  8
AM_VIS
100
AcDbLine
 10
220.1882581186456
 20
199.6920355320934
 30
0.0
 11
244.5834420695815
 21
199.6920355320935
 31
0.0
  0
LINE
  5
4CB
330
1F
100
AcDbEntity
  8
AM_VIS
100
AcDbLine
 10
244.5834420695815
 20
228.6920355320935
 30
0.0
 11
244.5834420695815
 21
227.5199425732284
 31
0.0
  0
LINE
  5
4CC
330
1F
100
AcDbEntity
  8
AM_VIS
100
AcDbLine
 10
244.5834420695815
 20
200.8641284909585
 30
0.0
 11
244.5834420695815
 21
199.6920355320935
 31
0.0
  0
LINE
  5
4CD
330
1F
100
AcDbEntity
  8
AM_VIS
100
AcDbLine
 10
245.7832419775109
 20
201.3920355320935
 30
0.0
 11
256.2507039591595
 21
201.3920355320935
 31
0.0
  0
LINE
  5
4CE
330
1F
100
AcDbEntity
  8
AM_VIS
100
AcDbLine
 10
245.7832419775107
 20
226.9920355320935
 30
0.0
 11
256.2507039591595
 21
226.9920355320935
 31
0.0
  0
LINE
  5
4CF
330
1F
100
AcDbEntity
  8
AM_VIS
100
AcDbLine
 10
256.2507039591595
 20
226.1920355320934
 30
0.0
 11
256.2507039591595
 21
226.9920355320935
 31
0.0
  0
LINE
  5
4D0
330
1F
100
AcDbEntity
  8
AM_VIS
100
AcDbLine
 10
256.2507039591595
 20
201.3920355320935
 30
0.0
 11
256.2507039591595
 21
202.1920355320934
 31
0.0
  0
LINE
  5
4D1
330
1F
100
AcDbEntity
  8
AM_VIS
100
AcDbLine
 10
225.0717145387246
 20
207.4097055489682
 30
0.0
 11
224.4308988057649
 21
207.4097055489682
 31
0.0
  0
LINE
  5
4D2
330
1F
100
AcDbEntity
  8
AM_VIS
100
AcDbLine
 10
224.4308988057649
 20
207.4097055489682
 30
0.0
 11
224.4308988057649
 21
220.9743655152187
 31
0.0
  0
LINE
  5
4D3
330
1F
100
AcDbEntity
  8
AM_VIS
100
AcDbLine
 10
224.4308988057649
 20
220.9743655152187
 30
0.0
 11
225.0717145387246
 21
220.9743655152187
 31
0.0
  0
LINE
  5
4D4
330
1F
100
AcDbEntity
  8
AM_VIS
100
AcDbLine
 10
267.5717145387245
 20
227.1920355320934
 30
0.0
 11
284.0717145387245
 21
227.1920355320934
 31
0.0
  0
LINE
  5
4D5
330
1F
100
AcDbEntity
  8
AM_VIS
100
AcDbLine
 10
284.0717145387245
 20
219.5768118429437
 30
0.0
 11
284.0717145387245
 21
227.1920355320935
 31
0.0
  0
LINE
  5
4D6
330
1F
100
AcDbEntity
  8
AM_VIS
100
AcDbLine
 10
267.5717145387245
 20
219.5768118429437
 30
0.0
 11
284.0717145387245
 21
219.5768118429437
 31
0.0
  0
LINE
  5
4D7
330
1F
100
AcDbEntity
  8
AM_VIS
100
AcDbLine
 10
284.0717145387245
 20
208.8072592212431
 30
0.0
 11
284.0717145387245
 21
219.5768118429437
 31
0.0
  0
LINE
  5
4D8
330
1F
100
AcDbEntity
  8
AM_VIS
100
AcDbLine
 10
267.5717145387245
 20
208.8072592212431
 30
0.0
 11
284.0717145387245
 21
208.8072592212431
 31
0.0
  0
LINE
  5
4D9
330
1F
100
AcDbEntity
  8
AM_VIS
100
AcDbLine
 10
284.0717145387245
 20
201.1920355320934
 30
0.0
 11
284.0717145387245
 21
208.8072592212431
 31
0.0
  0
LINE
  5
4DA
330
1F
100
AcDbEntity
  8
AM_VIS
100
AcDbLine
 10
267.5717145387245
 20
201.1920355320934
 30
0.0
 11
284.0717145387245
 21
201.1920355320934
 31
0.0
  0
LINE
  5
4DB
330
1F
100
AcDbEntity
  8
AM_VIS
100
AcDbLine
 10
267.5717145387245
 20
219.5768118429437
 30
0.0
 11
267.5717145387245
 21
227.1920355320934
 31
0.0
  0
LINE
  5
4DC
330
1F
100
AcDbEntity
  8
AM_VIS
100
AcDbLine
 10
267.5717145387245
 20
208.8072592212431
 30
0.0
 11
267.5717145387245
 21
219.5768118429437
 31
0.0
  0
LINE
  5
4DD
330
1F
100
AcDbEntity
  8
AM_VIS
100
AcDbLine
 10
267.5717145387245
 20
201.1920355320934
 30
0.0
 11
267.5717145387245
 21
208.8072592212431
 31
0.0
  0
LINE
  5
4DE
330
1F
100
AcDbEntity
  8
AM_VIS
100
AcDbLine
 10
241.5717145387246
 20
201.1920355320934
 30
0.0
 11
225.0717145387246
 21
201.1920355320934
 31
0.0
  0
LINE
  5
4DF
330
1F
100
AcDbEntity
  8
AM_VIS
100
AcDbLine
 10
225.0717145387246
 20
208.8072592212431
 30
0.0
 11
225.0717145387246
 21
201.1920355320934
 31
0.0
  0
LINE
  5
4E0
330
1F
100
AcDbEntity
  8
AM_VIS
100
AcDbLine
 10
241.5717145387246
 20
208.8072592212431
 30
0.0
 11
225.0717145387246
 21
208.8072592212431
 31
0.0
  0
LINE
  5
4E1
330
1F
100
AcDbEntity
  8
AM_VIS
100
AcDbLine
 10
225.0717145387246
 20
219.5768118429436
 30
0.0
 11
225.0717145387246
 21
208.8072592212431
 31
0.0
  0
LINE
  5
4E2
330
1F
100
AcDbEntity
  8
AM_VIS
100
AcDbLine
 10
241.5717145387246
 20
227.1920355320934
 30
0.0
 11
225.0717145387246
 21
227.1920355320934
 31
0.0
  0
LINE
  5
4E3
330
1F
100
AcDbEntity
  8
AM_VIS
100
AcDbLine
 10
241.5717145387246
 20
219.5768118429436
 30
0.0
 11
225.0717145387246
 21
219.5768118429436
 31
0.0
  0
LINE
  5
4E4
330
1F
100
AcDbEntity
  8
AM_VIS
100
AcDbLine
 10
225.0717145387246
 20
227.1920355320934
 30
0.0
 11
225.0717145387246
 21
219.5768118429436
 31
0.0
  0
LINE
  5
4E5
330
1F
100
AcDbEntity
  8
AM_VIS
100
AcDbLine
 10
241.5717145387246
 20
208.8072592212431
 30
0.0
 11
241.5717145387246
 21
201.1920355320934
 31
0.0
  0
LINE
  5
4E6
330
1F
100
AcDbEntity
  8
AM_VIS
100
AcDbLine
 10
241.5717145387246
 20
219.5768118429436
 30
0.0
 11
241.5717145387246
 21
208.8072592212431
 31
0.0
  0
LINE
  5
4E7
330
1F
100
AcDbEntity
  8
AM_VIS
100
AcDbLine
 10
241.5717145387246
 20
227.1920355320934
 30
0.0
 11
241.5717145387246
 21
219.5768118429436
 31
0.0
  0
ARC
  5
4E8
330
1F
100
AcDbEntity
  8
AM_VIS
100
AcDbCircle
 10
242.0073660860898
 20
219.8996787623945
 30
0.0
 40
8.042993491629429
100
AcDbArc
 50
51.47533992210678
 51
89.27904768459976
  0
ARC
  5
4E9
330
1F
100
AcDbEntity
  8
AM_VIS
100
AcDbCircle
 10
242.006800635565
 20
208.4859782734219
 30
0.0
 40
8.044586471068953
100
AcDbArc
 50
270.7248371619627
 51
308.5207752313311
  0
LINE
  5
4EA
330
1F
100
AcDbEntity
  8
AM_VIS
100
AcDbLine
 10
236.4517140859362
 20
200.4420355320934
 30
0.0
 11
242.1085683354286
 21
200.4420355320934
 31
0.0
  0
LINE
  5
4EB
330
1F
100
AcDbEntity
  8
AM_VIS
100
AcDbLine
 10
236.4517140859362
 20
227.9420355320934
 30
0.0
 11
242.1085683354286
 21
227.9420355320934
 31
0.0
  0
ARC
  5
4EC
330
1F
100
AcDbEntity
  8
AM_VIS
100
AcDbCircle
 10
236.481945612863
 20
220.2717775678321
 30
0.0
 40
7.67031754124525
100
AcDbArc
 50
90.22582420825024
 51
115.5495404024677
  0
ARC
  5
4ED
330
1F
100
AcDbEntity
  8
AM_VIS
100
AcDbCircle
 10
236.4804675374185
 20
208.1058334984902
 30
0.0
 40
7.663851905583636
100
AcDbArc
 50
244.4395997833856
 51
269.7850356058976
  0
LINE
  5
4EE
330
1F
100
AcDbEntity
  8
AM_VIS
100
AcDbLine
 10
241.5717145387246
 20
202.9420355320934
 30
0.0
 11
267.5717145387245
 21
202.9420355320934
 31
0.0
  0
LINE
  5
4EF
330
1F
100
AcDbEntity
  8
AM_VIS
100
AcDbLine
 10
241.5717145387246
 20
225.4420355320934
 30
0.0
 11
267.5717145387245
 21
225.4420355320934
 31
0.0
  0
LINE
  5
4F0
330
1F
100
AcDbEntity
  8
AM_VIS
100
AcDbLine
 10
242.8156751166151
 20
202.1920355320935
 30
0.0
 11
262.9682183804317
 21
202.1920355320934
 31
0.0
  0
LINE
  5
4F1
330
1F
100
AcDbEntity
  8
AM_VIS
100
AcDbLine
 10
242.8156751166151
 20
226.1920355320935
 30
0.0
 11
262.9682183804318
 21
226.1920355320934
 31
0.0
  0
ELLIPSE
  5
4F2
330
1F
100
AcDbEntity
  8
AM_VIS
100
AcDbEllipse
 10
231.8555200082236
 20
214.1920355320935
 30
0.0
 11
0.0
 21
-12.5
 31
0.0
210
0.0
220
0.0
230
1.0
 40
0.7071067811865471
 41
5.285902084807787
 42
5.408253208463016
  0
ELLIPSE
  5
4F3
330
1F
100
AcDbEntity
  8
AM_VIS
100
AcDbEllipse
 10
231.8555200082236
 20
214.1920355320935
 30
0.0
 11
0.0
 21
-12.5
 31
0.0
210
0.0
220
0.0
230
1.0
 40
0.7071067811865471
 41
4.016524752306364
 42
4.138875875961593
  0
ELLIPSE
  5
4F4
330
1F
100
AcDbEntity
  8
AM_VIS
100
AcDbEllipse
 10
262.9682183804317
 20
214.1920355320934
 30
0.0
 11
0.0
 21
-12.0
 31
0.0
210
0.0
220
0.0
230
1.0
 40
0.7071067811865471
 41
5.927764105489363
 42
6.638606508869807
  0
ELLIPSE
  5
4F5
330
1F
100
AcDbEntity
  8
AM_VIS
100
AcDbEllipse
 10
262.9682183804317
 20
214.1920355320934
 30
0.0
 11
0.0
 21
-12.0
 31
0.0
210
0.0
220
0.0
230
1.0
 40
0.7071067811865471
 41
2.786171451899567
 42
3.497013855280017
  0
ELLIPSE
  5
4F6
330
1F
100
AcDbEntity
  8
AM_VIS
100
AcDbEllipse
 10
242.8156751166151
 20
214.1920355320935
 30
0.0
 11
0.0
 21
-12.0
 31
0.0
210
0.0
220
0.0
230
1.0
 40
0.7071067811865471
 41
3.141592653589792
 42
3.288725092038738
  0
ELLIPSE
  5
4F7
330
1F
100
AcDbEntity
  8
AM_VIS
100
AcDbEllipse
 10
242.8156751166151
 20
214.1920355320935
 30
0.0
 11
0.0
 21
-12.0
 31
0.0
210
0.0
220
0.0
230
1.0
 40
0.7071067811865471
 41
6.136052868730642
 42
6.283185307179585
  0
LINE
  5
4F8
330
1F
100
AcDbEntity
  8
AM_VIS
100
AcDbLine
 10
220.1882581186456
 20
341.1531237462336
 30
0.0
 11
189.0755597464375
 21
372.2658221184417
 31
0.0
  0
LINE
  5
4F9
330
1F
100
AcDbEntity
  8
AM_VIS
100
AcDbLine
 10
189.0755597464375
 20
372.2658221184417
 30
0.0
 11
213.4707436973734
 21
396.6610060693777
 31
0.0
  0
LINE
  5
4FA
330
1F
100
AcDbEntity
  8
AM_VIS
100
AcDbLine
 10
244.5834420695815
 20
365.5483076971695
 30
0.0
 11
220.1882581186456
 21
341.1531237462336
 31
0.0
  0
LINE
  5
4FB
330
1F
100
AcDbEntity
  8
AM_VIS
100
AcDbLine
 10
238.3609023951398
 20
378.8419151834767
 30
0.0
 11
217.3527599260875
 21
399.850057652529
 31
0.0
  0
LINE
  5
4FC
330
1F
100
AcDbEntity
  8
AM_VIS
100
AcDbLine
 10
213.8172260201548
 20
396.3145237465963
 30
0.0
 11
217.3527599260875
 21
399.850057652529
 31
0.0
  0
LINE
  5
4FD
330
1F
100
AcDbEntity
  8
AM_VIS
100
AcDbLine
 10
217.9962270969673
 20
399.2065904816492
 30
0.0
 11
220.8246542217135
 21
402.0350176063954
 31
0.0
  0
LINE
  5
4FE
330
1F
100
AcDbEntity
  8
AM_VIS
100
AcDbLine
 10
222.133893037256
 20
400.7257787908529
 30
0.0
 11
238.3973490045465
 21
416.9892347581434
 31
0.0
  0
LINE
  5
4FF
330
1F
100
AcDbEntity
  8
AM_VIS
100
AcDbLine
 10
240.3408013824622
 20
382.5188704456467
 30
0.0
 11
221.5317610029
 21
401.3279108252088
 31
0.0
  0
LINE
  5
500
330
1F
100
AcDbEntity
  8
AM_VIS
100
AcDbLine
 10
238.2194810389025
 20
378.9833365397139
 30
0.0
 11
241.0479081636487
 21
381.8117636644601
 31
0.0
  0
LINE
  5
501
330
1F
100
AcDbEntity
  8
AM_VIS
100
AcDbLine
 10
240.1286693481062
 20
382.7310024800027
 30
0.0
 11
256.3921253153968
 21
398.9944584472933
 31
0.0
  0
LINE
  5
502
330
1F
100
AcDbEntity
  8
AM_VIS
100
AcDbLine
 10
256.2507039591595
 20
399.1358798035305
 30
0.0
 11
238.3973490045465
 21
416.9892347581434
 31
0.0
  0
LINE
  5
503
330
1F
100
AcDbEntity
  8
AM_VIS
100
AcDbLine
 10
235.5324752703936
 20
376.0134880587305
 30
0.0
 11
238.3609023951398
 21
378.8419151834767
 31
0.0
  0
LINE
  5
504
330
1F
100
AcDbEntity
  8
AM_VIS
100
AcDbLine
 10
243.8763352883949
 20
366.2554144783561
 30
0.0
 11
244.5834420695815
 21
365.5483076971695
 31
0.0
  0
LINE
  5
505
330
1F
100
AcDbEntity
  8
AM_VIS
100
AcDbLine
 10
235.5324752703936
 20
376.0134880587305
 30
0.0
 11
243.8763352883949
 21
366.2554144783561
 31
0.0
  0
LINE
  5
506
330
1F
100
AcDbEntity
  8
AM_VIS
100
AcDbLine
 10
267.9092007701838
 20
385.3385324918392
 30
0.0
 11
271.0204706074046
 21
382.2272626546184
 31
0.0
  0
LINE
  5
507
330
1F
100
AcDbEntity
  8
AM_VIS
100
AcDbLine
 10
267.7544842836937
 20
378.9612763309074
 30
0.0
 11
271.0204706074046
 21
382.2272626546184
 31
0.0
  0
LINE
  5
508
330
1F
100
AcDbEntity
  8
AM_VIS
100
AcDbLine
 10
264.6432144464729
 20
382.0725461681283
 30
0.0
 11
267.7544842836937
 21
378.9612763309074
 31
0.0
  0
LINE
  5
509
330
1F
100
AcDbEntity
  8
AM_VIS
100
AcDbLine
 10
261.2225116362719
 20
372.4293036834856
 30
0.0
 11
267.7544842836937
 21
378.9612763309074
 31
0.0
  0
LINE
  5
50A
330
1F
100
AcDbEntity
  8
AM_VIS
100
AcDbLine
 10
258.1112417990511
 20
375.5405735207064
 30
0.0
 11
261.2225116362719
 21
372.4293036834856
 31
0.0
  0
LINE
  5
50B
330
1F
100
AcDbEntity
  8
AM_VIS
100
AcDbLine
 10
257.956525312561
 20
369.1633173597747
 30
0.0
 11
261.2225116362719
 21
372.4293036834856
 31
0.0
  0
LINE
  5
50C
330
1F
100
AcDbEntity
  8
AM_VIS
100
AcDbLine
 10
254.8452554753402
 20
372.2745871969955
 30
0.0
 11
257.956525312561
 21
369.1633173597747
 31
0.0
  0
LINE
  5
50D
330
1F
100
AcDbEntity
  8
AM_VIS
100
AcDbLine
 10
264.6432144464729
 20
382.0725461681283
 30
0.0
 11
267.9092007701838
 21
385.3385324918392
 31
0.0
  0
LINE
  5
50E
330
1F
100
AcDbEntity
  8
AM_VIS
100
AcDbLine
 10
258.1112417990511
 20
375.5405735207064
 30
0.0
 11
264.6432144464729
 21
382.0725461681283
 31
0.0
  0
LINE
  5
50F
330
1F
100
AcDbEntity
  8
AM_VIS
100
AcDbLine
 10
254.8452554753402
 20
372.2745871969955
 30
0.0
 11
258.1112417990511
 21
375.5405735207064
 31
0.0
  0
LINE
  5
510
330
1F
100
AcDbEntity
  8
AM_VIS
100
AcDbLine
 10
224.4308988057649
 20
341.8602305274202
 30
0.0
 11
227.2593259305111
 21
339.031803402674
 31
0.0
  0
LINE
  5
511
330
1F
100
AcDbEntity
  8
AM_VIS
100
AcDbLine
 10
242.1085683354286
 20
353.8810458075915
 30
0.0
 11
239.2801412106824
 21
356.7094729323377
 31
0.0
  0
LINE
  5
512
330
1F
100
AcDbEntity
  8
AM_VIS
100
AcDbLine
 10
284.0717145387245
 20
306.6088824438304
 30
0.0
 11
284.0717145387245
 21
317.3784350655309
 31
0.0
  0
LINE
  5
513
330
1F
100
AcDbEntity
  8
AM_VIS
100
AcDbLine
 10
267.5717145387245
 20
306.6088824438304
 30
0.0
 11
284.0717145387245
 21
306.6088824438304
 31
0.0
  0
LINE
  5
514
330
1F
100
AcDbEntity
  8
AM_VIS
100
AcDbLine
 10
284.0717145387245
 20
298.9936587546807
 30
0.0
 11
284.0717145387245
 21
306.6088824438304
 31
0.0
  0
LINE
  5
515
330
1F
100
AcDbEntity
  8
AM_VIS
100
AcDbLine
 10
267.5717145387245
 20
298.9936587546807
 30
0.0
 11
284.0717145387245
 21
298.9936587546807
 31
0.0
  0
LINE
  5
516
330
1F
100
AcDbEntity
  8
AM_VIS
100
AcDbLine
 10
267.5717145387245
 20
306.6088824438304
 30
0.0
 11
267.5717145387245
 21
317.3784350655309
 31
0.0
  0
LINE
  5
517
330
1F
100
AcDbEntity
  8
AM_VIS
100
AcDbLine
 10
267.5717145387245
 20
298.9936587546807
 30
0.0
 11
267.5717145387245
 21
306.6088824438304
 31
0.0
  0
LINE
  5
518
330
1F
100
AcDbEntity
  8
AM_VIS
100
AcDbLine
 10
269.7897237774415
 20
324.9936587546806
 30
0.0
 11
284.0717145387246
 21
324.9936587546806
 31
0.0
  0
LINE
  5
519
330
1F
100
AcDbEntity
  8
AM_VIS
100
AcDbLine
 10
284.0717145387245
 20
317.3784350655309
 30
0.0
 11
284.0717145387247
 21
324.9936587546806
 31
0.0
  0
LINE
  5
51A
330
1F
100
AcDbEntity
  8
AM_VIS
100
AcDbLine
 10
267.5717145387245
 20
317.3784350655309
 30
0.0
 11
284.0717145387245
 21
317.3784350655309
 31
0.0
  0
LINE
  5
51B
330
1F
100
AcDbEntity
  8
AM_VIS
100
AcDbLine
 10
267.5717145387245
 20
317.3784350655309
 30
0.0
 11
267.5717145387246
 21
322.7756495159638
 31
0.0
  0
LINE
  5
51C
330
1F
100
AcDbEntity
  8
AM_VIS
100
AcDbLine
 10
241.6083617096429
 20
323.0450034565002
 30
0.0
 11
259.5051650371704
 21
314.7586490581775
 31
0.0
  0
LINE
  5
51D
330
1F
100
AcDbEntity
  8
AM_VIS
100
AcDbLine
 10
225.0717145387246
 20
317.3784350655307
 30
0.0
 11
225.0717145387246
 21
306.6088824438303
 31
0.0
  0
LINE
  5
51E
330
1F
100
AcDbEntity
  8
AM_VIS
100
AcDbLine
 10
241.5717145387246
 20
317.3784350655307
 30
0.0
 11
225.0717145387246
 21
317.3784350655307
 31
0.0
  0
LINE
  5
51F
330
1F
100
AcDbEntity
  8
AM_VIS
100
AcDbLine
 10
225.0717145387246
 20
324.9936587546805
 30
0.0
 11
225.0717145387246
 21
317.3784350655307
 31
0.0
  0
ELLIPSE
  5
520
330
1F
100
AcDbEntity
  8
AM_VIS
100
AcDbEllipse
 10
250.7619366725719
 20
330.3784350655308
 30
0.0
 11
-20.4852813742386
 21
8.485281374238608
 31
0.0000000000000004
210
0.0
220
0.0
230
1.0
 40
0.4142135623730948
 41
1.250743405148224
 42
1.282704018989932
  0
LINE
  5
521
330
1F
100
AcDbEntity
  8
AM_VIS
100
AcDbLine
 10
240.9806862076244
 20
324.9936587546805
 30
0.0
 11
225.0717145387246
 21
324.9936587546805
 31
0.0
  0
LINE
  5
522
330
1F
100
AcDbEntity
  8
AM_VIS
100
AcDbLine
 10
241.5717145387246
 20
306.6088824438303
 30
0.0
 11
225.0717145387246
 21
306.6088824438303
 31
0.0
  0
LINE
  5
523
330
1F
100
AcDbEntity
  8
AM_VIS
100
AcDbLine
 10
241.5717145387246
 20
298.9936587546805
 30
0.0
 11
225.0717145387246
 21
298.9936587546805
 31
0.0
  0
LINE
  5
524
330
1F
100
AcDbEntity
  8
AM_VIS
100
AcDbLine
 10
225.0717145387246
 20
306.6088824438303
 30
0.0
 11
225.0717145387246
 21
298.9936587546804
 31
0.0
  0
LINE
  5
525
330
1F
100
AcDbEntity
  8
AM_VIS
100
AcDbLine
 10
241.5717145387246
 20
306.6088824438303
 30
0.0
 11
241.5717145387246
 21
298.9936587546804
 31
0.0
  0
LINE
  5
526
330
1F
100
AcDbEntity
  8
AM_VIS
100
AcDbLine
 10
241.5717145387246
 20
317.3784350655307
 30
0.0
 11
241.5717145387246
 21
306.6088824438303
 31
0.0
  0
LINE
  5
527
330
1F
100
AcDbEntity
  8
AM_VIS
100
AcDbLine
 10
241.5717145387246
 20
324.6537214569745
 30
0.0
 11
241.5717145387246
 21
317.3784350655307
 31
0.0
  0
LINE
  5
528
330
1F
100
AcDbEntity
  8
AM_VIS
100
AcDbLine
 10
241.189329519886
 20
383.7916626517825
 30
0.0
 11
252.3616166626335
 21
372.619375509035
 31
0.0
  0
LINE
  5
529
330
1F
100
AcDbEntity
  8
AM_VIS
100
AcDbLine
 10
256.2507039591595
 20
399.1358798035305
 30
0.0
 11
267.5644124581443
 21
387.8221713045458
 31
0.0
  0
LINE
  5
52A
330
1F
100
AcDbEntity
  8
AM_VIS
100
AcDbLine
 10
255.1900437873797
 20
375.4478026337813
 30
0.0
 11
256.6042573497528
 21
374.0335890714082
 31
0.0
  0
LINE
  5
52B
330
1F
100
AcDbEntity
  8
AM_VIS
100
AcDbLine
 10
264.7359853333981
 20
384.9937441797996
 30
0.0
 11
266.1501988957712
 21
383.5795306174265
 31
0.0
  0
LINE
  5
52C
330
1F
100
AcDbEntity
  8
AM_VIS
100
AcDbLine
 10
225.4915589775447
 20
346.4564246051327
 30
0.0
 11
227.2593259305111
 21
344.6886576521664
 31
0.0
  0
LINE
  5
52D
330
1F
100
AcDbEntity
  8
AM_VIS
100
AcDbLine
 10
234.6839471329698
 20
355.6488127605579
 30
0.0
 11
236.4517140859362
 21
353.8810458075915
 31
0.0
  0
LINE
  5
52E
330
1F
100
AcDbEntity
  8
AM_VIS
100
AcDbLine
 10
225.845112368138
 20
337.6175898403009
 30
0.0
 11
226.9057725399178
 21
336.5569296685211
 31
0.0
  0
LINE
  5
52F
330
1F
100
AcDbEntity
  8
AM_VIS
100
AcDbLine
 10
243.5227818978017
 20
355.2952593699646
 30
0.0
 11
244.5834420695815
 21
354.2345991981848
 31
0.0
  0
LINE
  5
530
330
1F
100
AcDbEntity
  8
AM_VIS
100
AcDbLine
 10
271.4534997546703
 20
326.6574347319095
 30
0.0
 11
280.1155578242055
 21
335.3194928014446
 31
0.0
  0
LINE
  5
531
330
1F
100
AcDbEntity
  8
AM_VIS
100
AcDbLine
 10
263.6753251616183
 20
335.8498228873346
 30
0.0
 11
271.6302764499669
 21
343.8047741756832
 31
0.0
  0
SPLINE
  5
532
330
1F
100
AcDbEntity
  8
AM_VIS
100
AcDbSpline
210
0.0
220
0.0
230
1.0
 70
     8
 71
     1
 72
     8
 73
     6
 74
     0
 42
0.0000000001
 43
0.0000000001
 40
0.0
 40
0.0
 40
0.3242914597325164
 40
0.6427247929607029
 40
0.9613684318616698
 40
1.28000458791187
 40
1.564303757276938
 40
1.564303757276938
 10
262.2611115992452
 20
335.8498228873346
 30
0.0
 10
262.5245672318838
 20
335.6607301045891
 30
0.0
 10
262.828799711744
 20
335.5666961431235
 30
0.0
 10
263.1473787972026
 20
335.5731097942237
 30
0.0
 10
263.4477603990739
 20
335.6794107500034
 30
0.0
 10
263.6753251616183
 20
335.8498228873346
 30
0.0
  0
LINE
  5
533
330
1F
100
AcDbEntity
  8
AM_VIS
100
AcDbLine
 10
203.7480254560584
 20
386.9382878280626
 30
0.0
 11
201.6267051124987
 21
389.0596081716223
 31
0.0
  0
LINE
  5
534
330
1F
100
AcDbEntity
  8
AM_VIS
100
AcDbLine
 10
194.2020839100399
 20
377.3923462820442
 30
0.0
 11
192.0807635664803
 21
379.5136666256038
 31
0.0
  0
LINE
  5
535
330
1F
100
AcDbEntity
  8
AM_VIS
100
AcDbLine
 10
226.7289958446212
 20
334.9659394108514
 30
0.0
 11
232.3858500941136
 21
329.309085161359
 31
0.0
  0
LINE
  5
536
330
1F
100
AcDbEntity
  8
AM_VIS
100
AcDbLine
 10
246.1744323272512
 20
354.4113758934814
 30
0.0
 11
251.8312865767436
 21
348.7545216439891
 31
0.0
  0
LINE
  5
537
330
1F
100
AcDbEntity
  8
AM_VIS
100
AcDbLine
 10
241.5717145387246
 20
300.7436587546806
 30
0.0
 11
267.5717145387245
 21
300.7436587546806
 31
0.0
  0
LINE
  5
538
330
1F
100
AcDbEntity
  8
AM_VIS
100
AcDbLine
 10
234.3303937423766
 20
329.8394152472489
 30
0.0
 11
239.176150234945
 21
324.9936587546805
 31
0.0
  0
LINE
  5
539
330
1F
100
AcDbEntity
  8
AM_VIS
100
AcDbLine
 10
251.3009564908537
 20
346.8099779957261
 30
0.0
 11
262.2611115992452
 21
335.8498228873346
 31
0.0
  0
LINE
  5
53A
330
1F
100
AcDbEntity
  8
AM_VIS
100
AcDbLine
 10
220.8246542217135
 20
402.0350176063954
 30
0.0
 11
221.5317610029
 21
401.3279108252088
 31
0.0
  0
LINE
  5
53B
330
1F
100
AcDbEntity
  8
AM_VIS
100
AcDbLine
 10
240.3408013824622
 20
382.5188704456467
 30
0.0
 11
241.0479081636487
 21
381.8117636644601
 31
0.0
  0
LINE
  5
53C
330
1F
100
AcDbEntity
  8
AM_VIS
100
AcDbLine
 10
267.5644124581443
 20
387.8221713045458
 30
0.0
 11
252.3616166626335
 21
372.619375509035
 31
0.0
  0
LINE
  5
53D
330
1F
100
AcDbEntity
  8
AM_VIS
100
AcDbLine
 10
224.4308988057649
 20
341.8602305274202
 30
0.0
 11
239.2801412106824
 21
356.7094729323377
 31
0.0
  0
LINE
  5
53E
330
1F
100
AcDbEntity
  8
AM_VIS
100
AcDbLine
 10
225.845112368138
 20
337.6175898403009
 30
0.0
 11
227.2593259305111
 21
339.031803402674
 31
0.0
  0
LINE
  5
53F
330
1F
100
AcDbEntity
  8
AM_VIS
100
AcDbLine
 10
242.1085683354286
 20
353.8810458075915
 30
0.0
 11
243.5227818978017
 21
355.2952593699646
 31
0.0
  0
LINE
  5
540
330
1F
100
AcDbEntity
  8
AM_VIS
100
AcDbLine
 10
273.04449001234
 20
343.8047741756832
 30
0.0
 11
280.1155578242055
 21
336.7337063638178
 31
0.0
  0
LINE
  5
541
330
1F
100
AcDbEntity
  8
AM_VIS
100
AcDbLine
 10
192.0807635664803
 20
379.5136666256038
 30
0.0
 11
201.6267051124987
 21
389.0596081716223
 31
0.0
  0
LINE
  5
542
330
1F
100
AcDbEntity
  8
AM_VIS
100
AcDbLine
 10
251.8312865767436
 20
347.3403080816159
 30
0.0
 11
233.8000636564867
 21
329.309085161359
 31
0.0
  0
LINE
  5
543
330
1F
100
AcDbEntity
  8
AM_VIS
100
AcDbLine
 10
226.7289958446212
 20
336.3801529732244
 30
0.0
 11
244.7602187648781
 21
354.4113758934814
 31
0.0
  0
LINE
  5
544
330
1F
100
AcDbEntity
  8
AM_VIS
100
AcDbLine
 10
271.4534997546703
 20
326.6574347319095
 30
0.0
 11
271.1206130254886
 21
326.3245480027277
 31
0.0
  0
LINE
  5
545
330
1F
100
AcDbEntity
  8
AM_VIS
100
AcDbLine
 10
271.1206130254886
 20
326.3245480027277
 30
0.0
 11
259.4624426898811
 21
314.6663776671202
 31
0.0
  0
ARC
  5
546
330
1F
100
AcDbEntity
  8
AM_VIS
100
AcDbCircle
 10
279.408451043019
 20
336.0265995826312
 30
0.0
 40
1.0
100
AcDbArc
 50
315.0
 51
45.0
  0
ARC
  5
547
330
1F
100
AcDbEntity
  8
AM_VIS
100
AcDbCircle
 10
272.3373832311535
 20
343.0976673944967
 30
0.0
 40
1.0
100
AcDbArc
 50
45.0
 51
135.0
  0
ARC
  5
548
330
1F
100
AcDbEntity
  8
AM_VIS
100
AcDbCircle
 10
233.0929568753001
 20
330.0161919425456
 30
0.0
 40
1.0
100
AcDbArc
 50
225.0
 51
315.0
  0
ARC
  5
549
330
1F
100
AcDbEntity
  8
AM_VIS
100
AcDbCircle
 10
251.1241797955571
 20
348.0474148628025
 30
0.0
 40
1.0
100
AcDbArc
 50
315.0
 51
45.0
  0
ARC
  5
54A
330
1F
100
AcDbEntity
  8
AM_VIS
100
AcDbCircle
 10
245.4673255460647
 20
353.7042691122949
 30
0.0
 40
1.0
100
AcDbArc
 50
45.0
 51
135.0
  0
ARC
  5
54B
330
1F
100
AcDbEntity
  8
AM_VIS
100
AcDbCircle
 10
227.4361026258077
 20
335.6730461920379
 30
0.0
 40
1.0
100
AcDbArc
 50
135.0
 51
225.0
  0
DIMENSION
  5
54C
330
1F
100
AcDbEntity
  8
0
100
AcDbDimension
  2
*D9
 10
225.0717145387246
 20
284.6539879920566
 30
0.0
 11
254.5717145387246
 21
287.1539879920566
 31
0.0
 70
    32
 71
     5
 42
58.99999999999983
  3
STANDARD
100
AcDbAlignedDimension
 13
284.0717145387245
 23
298.9936587546807
 33
0.0
 14
225.0717145387246
 24
298.9936587546804
 34
0.0
100
AcDbRotatedDimension
1001
ACAD
1000
DSTYLE
1002
{
1070
   176
1070
     5
1070
   177
1070
     5
1070
   178
1070
     5
1070
   272
1070
     8
1002
}
  0
LINE
  5
54D
330
1F
100
AcDbEntity
  8
0
100
AcDbLine
 10
213.8172260201548
 20
396.3145237465963
 30
0.0
 11
213.4707436973734
 21
396.6610060693776
 31
0.0
  0
DIMENSION
  5
54E
330
1F
100
AcDbEntity
  8
0
100
AcDbDimension
  2
*D10
 10
284.0717145387245
 20
267.3048717856059
 30
0.0
 11
236.573637142581
 21
269.8048717856059
 31
0.0
 70
    32
 71
     5
 42
94.99615479228694
  3
STANDARD
100
AcDbAlignedDimension
 13
189.0755597464375
 23
372.2658221184417
 33
0.0
 14
284.0717145387245
 24
298.9936587546807
 34
0.0
100
AcDbRotatedDimension
1001
ACAD
1000
DSTYLE
1002
{
1070
   178
1070
     5
1070
   177
1070
     5
1070
   176
1070
     5
1070
   272
1070
     8
1002
}
  0
DIMENSION
  5
54F
330
1F
100
AcDbEntity
  8
0
100
AcDbDimension
  2
*D11
 10
303.5702158160455
 20
298.9936587546807
 30
0.0
 11
301.0702158160455
 21
357.9914467564121
 31
0.0
 70
    32
 71
     5
 42
117.9955760034627
  3
STANDARD
100
AcDbAlignedDimension
 13
238.3973490045465
 23
416.9892347581434
 33
0.0
 14
284.0717145387245
 24
298.9936587546807
 34
0.0
 50
90.0
100
AcDbRotatedDimension
1001
ACAD
1000
DSTYLE
1002
{
1070
   176
1070
     5
1070
   177
1070
     5
1070
   178
1070
     5
1070
   272
1070
     8
1002
}
  0
LEADER
  5
550
330
1F
100
AcDbEntity
  8
0
100
AcDbLeader
  3
STANDARD
 76
     3
 10
284.0717145387245
 20
214.1920355320934
 30
0.0
 10
291.74797731076
 20
226.525696629786
 30
0.0
 10
308.0425606118179
 20
226.525696629786
 30
0.0
1001
ACAD
1000
DSTYLE
1002
{
1070
   176
1070
     5
1070
   177
1070
     5
1070
   178
1070
     5
1070
   272
1070
     8
1002
}
  0
MTEXT
  5
551
330
1F
100
AcDbEntity
  8
AM_6
100
AcDbMText
 10
291.1353977855213
 20
231.6696866289684
 30
0.0
 40
3.5
 41
16.9071628262966
 71
     1
 72
     5
  1
{\C5;2-PT3/8}
 73
     1
 44
1.0
1001
GENIUS_AMGTXT_16
1040
3.5
1040
0.12
1001
ACAD
1000
MTEXTBEGIN
1070
    73
1070
     1
1070
    44
1040
1.0
1070
    74
1070
     0
1000
MTEXTEND
  0
DIMENSION
  5
552
330
1F
100
AcDbEntity
  8
0
100
AcDbDimension
  2
*D12
 10
294.2998520549734
 20
201.1920355320934
 30
0.0
 11
291.7998520549733
 21
207.6920355320934
 31
0.0
 70
    32
 71
     5
 42
13.0
  3
STANDARD
100
AcDbAlignedDimension
 13
284.0717145387245
 23
214.1920355320934
 33
0.0
 14
284.0717145387245
 24
201.1920355320934
 34
0.0
 50
90.0
100
AcDbRotatedDimension
1001
ACAD
1000
DSTYLE
1002
{
1070
   176
1070
     5
1070
   177
1070
     5
1070
   178
1070
     5
1070
   272
1070
     8
1002
}
  0
TEXT
  5
553
330
1F
100
AcDbEntity
  8
LOGO
 62
     7
100
AcDbText
 10
207.0539155730337
 20
168.0521143064556
 30
0.0
 40
3.871439348416289
  1
Order example:
 41
0.8
  7
CHINESET
100
AcDbText
  0
TEXT
  5
554
330
1F
100
AcDbEntity
  8
LOGO
 62
     7
100
AcDbText
 10
207.7484838076406
 20
173.5022993172808
 30
0.0
 40
5.807159022624434
  1
訂購代號：
  7
CHINESET
100
AcDbText
  0
LINE
  5
555
330
1F
100
AcDbEntity
  8
LOGO
 62
     4
100
AcDbLine
 10
355.6389870507008
 20
180.7722020592414
 30
0.0
 11
141.4930127961107
 21
180.7722020592414
 31
0.0
  0
LINE
  5
556
330
1F
100
AcDbEntity
  8
LOGO
 62
     4
100
AcDbLine
 10
205.3717620449795
 20
151.7364069461186
 30
0.0
 11
205.3717620449795
 21
180.7722020592414
 31
0.0
  0
TEXT
  5
557
330
1F
100
AcDbEntity
  8
LOGO
  6
Continuous
100
AcDbText
 10
151.9228009191685
 20
157.4404450772561
 30
0.0
 40
4.355369266968326
  1
金器工業股份有限公司
  7
CHINESET
100
AcDbText
  0
TEXT
  5
558
330
1F
100
AcDbEntity
  8
LOGO
  6
Continuous
100
AcDbText
 10
143.9228492430642
 20
153.0842224993856
 30
0.0
 40
2.903579511312217
  1
MINDMAN INDUSTRIAL CO., LTD.
 41
0.85
  7
CHINESET
100
AcDbText
  0
LINE
  5
559
330
1F
100
AcDbEntity
  8
LOGO
 62
     4
100
AcDbLine
 10
205.3717620449795
 20
174.9650430366165
 30
0.0
 11
162.7859292124
 21
174.9650430366165
 31
0.0
  0
LINE
  5
55A
330
1F
100
AcDbEntity
  8
LOGO
 62
     4
100
AcDbLine
 10
205.3717620449795
 20
169.1578840139924
 30
0.0
 11
162.7859292124
 21
169.1578840139924
 31
0.0
  0
LINE
  5
55B
330
1F
100
AcDbEntity
  8
LOGO
 62
     4
100
AcDbLine
 10
205.3717620449795
 20
163.3507249913683
 30
0.0
 11
141.4930127961107
 21
163.3507249913683
 31
0.0
  0
LINE
  5
55C
330
1F
100
AcDbEntity
  8
LOGO
 62
     4
100
AcDbLine
 10
162.7859292124
 20
163.3507249913683
 30
0.0
 11
162.7859292124
 21
180.7722020592414
 31
0.0
  0
TEXT
  5
55D
330
1F
100
AcDbEntity
  8
LOGO
100
AcDbText
 10
191.8913359327748
 20
164.8025147470239
 30
0.0
 40
2.903579511312217
  1
mm
  7
CHINESET
 72
     1
 11
195.4862438991613
 21
166.25430450268
 31
0.0
100
AcDbText
 73
     2
  0
TEXT
  5
55E
330
1F
100
AcDbEntity
  8
LOGO
100
AcDbText
 10
190.3704133316113
 20
176.4168327922728
 30
0.0
 40
2.903579511312217
  1
1 : 1
  7
CHINESET
 72
     1
 11
195.4862438991613
 21
177.8686225479289
 31
0.0
100
AcDbText
 73
     2
  0
LINE
  5
55F
330
1F
100
AcDbEntity
  8
LOGO
 62
     4
100
AcDbLine
 10
186.0145653028979
 20
163.3507249913683
 30
0.0
 11
186.0145653028979
 21
180.7722020592414
 31
0.0
  0
TEXT
  5
560
330
1F
100
AcDbEntity
  8
LOGO
100
AcDbText
 10
165.1800860683794
 20
176.4182617191977
 30
190.2958178035923
 40
2.903579511312217
  1
比例 Scale:
 41
0.9
  7
CHINESET
 72
     4
 11
174.400247257649
 21
177.8686225479289
 31
190.2958178035923
100
AcDbText
  0
TEXT
  5
561
330
1F
100
AcDbEntity
  8
LOGO
100
AcDbText
 10
165.0128709983083
 20
170.6505172642503
 30
190.2958178035923
 40
2.903579511312217
  1
投影  View:
 41
0.9
  7
CHINESET
 72
     4
 11
174.400247257649
 21
172.0614635253042
 31
190.2958178035923
100
AcDbText
  0
TEXT
  5
562
330
1F
100
AcDbEntity
  8
LOGO
100
AcDbText
 10
165.2967477451732
 20
164.8025147470239
 30
190.2958178035923
 40
2.903579511312217
  1
單位  Unit:
 41
0.9
  7
CHINESET
 72
     4
 11
174.400247257649
 21
166.25430450268
 31
190.2958178035923
100
AcDbText
  0
LWPOLYLINE
  5
563
330
1F
100
AcDbEntity
  8
LOGO
 62
     4
100
AcDbPolyline
 90
        4
 70
     1
 43
0.0
 10
141.4930127961106
 20
180.7722020592414
 10
355.6389870507008
 20
180.7722020592414
 10
355.6389870507008
 20
442.1364069461183
 10
141.4930127961106
 20
442.1364069461183
1001
GENIUS_GENREC_14
1002
{
1000
PYDIR
1011
141.4930127961106
1021
442.1364069461183
1031
0.0
1002
}
1002
{
1000
PXDIR
1011
355.6389870507008
1021
180.7722020592414
1031
0.0
1002
}
1002
{
1000
PORI
1011
141.4930127961106
1021
180.7722020592414
1031
0.0
1002
}
1002
{
1000
PINS
1011
141.4930127961106
1021
180.7722020592414
1031
0.0
1002
}
1002
{
1000
PINS2
1011
355.6389870507008
1021
442.1364069461183
1031
0.0
1002
}
1002
{
1000
C
1070
     1
1002
}
1001
GENIUS_GENODEF_13
1002
{
1000
HIER
1070
     0
1002
}
1002
{
1000
MANEDIT
1070
     0
1002
}
1002
{
1000
NOSEL
1070
     0
1002
}
1002
{
1000
BEHIND
1070
     0
1002
}
1002
{
1000
OTHER
1070
     0
1002
}
1002
{
1000
REACTOR
1002
}
1001
GENIUS_GENOBJ-N-REC_13
1002
{
1000
OWNER
1000
GEN
1002
}
  0
SOLID
  5
564
330
1F
100
AcDbEntity
  8
LOGO
 62
     5
100
AcDbTrace
 10
144.5055231380037
 20
168.1775126369257
 30
0.0
 11
145.7609547287687
 21
168.1775126369257
 31
0.0
 12
150.9991348143742
 22
180.0824673769395
 32
0.0
 13
152.2545664051399
 23
180.0824673769388
 33
0.0
  0
SOLID
  5
565
330
1F
100
AcDbEntity
  8
LOGO
 62
     5
100
AcDbTrace
 10
146.2804436628797
 20
168.1775126369257
 30
0.0
 11
147.5358752536447
 21
168.1775126369257
 31
0.0
 12
152.2545664051399
 22
179.1300709977379
 32
0.0
 13
150.9991348143742
 23
174.5268218315994
 33
0.0
  0
SOLID
  5
566
330
1F
100
AcDbEntity
  8
LOGO
 62
     2
100
AcDbTrace
 10
145.7609547287687
 20
168.1775126369257
 30
0.0
 11
146.2804436628797
 21
168.1775126369257
 31
0.0
 12
152.2545664051399
 22
180.0824673769388
 32
0.0
 13
152.7740553392503
 23
180.0824673769388
 33
0.0
  0
SOLID
  5
567
330
1F
100
AcDbEntity
  8
LOGO
 62
     5
100
AcDbTrace
 10
142.4927584284694
 20
163.8484381860125
 30
0.0
 11
142.9256658735613
 21
163.8484381860125
 31
0.0
 12
144.1447669337613
 22
166.0129754114691
 32
0.0
 13
144.5776743788518
 23
166.0129754114691
 33
0.0
  0
SOLID
  5
568
330
1F
100
AcDbEntity
  8
LOGO
 62
     5
100
AcDbTrace
 10
144.1447669337613
 20
166.0129754114691
 30
0.0
 11
144.5776743788518
 21
166.0129754114691
 31
0.0
 12
144.1447669337613
 22
163.8484381860125
 32
0.0
 13
144.5776743788518
 23
163.8484381860125
 33
0.0
  0
SOLID
  5
569
330
1F
100
AcDbEntity
  8
LOGO
 62
     5
100
AcDbTrace
 10
144.1447669337613
 20
163.8484381860125
 30
0.0
 11
144.5776743788518
 21
163.8484381860125
 31
0.0
 12
145.7967754390538
 22
166.0129754114691
 32
0.0
 13
146.229682884145
 23
166.0129754114691
 33
0.0
  0
SOLID
  5
56A
330
1F
100
AcDbEntity
  8
LOGO
 62
     5
100
AcDbTrace
 10
145.7967754390538
 20
166.0129754114691
 30
0.0
 11
146.229682884145
 21
166.0129754114691
 31
0.0
 12
145.7967754390538
 22
163.8484381860125
 32
0.0
 13
146.229682884145
 23
163.8484381860125
 33
0.0
  0
POLYLINE
  5
56B
330
1F
100
AcDbEntity
  8
LOGO
 62
     5
100
AcDb2dPolyline
 66
     1
 10
0.0
 20
0.0
 30
0.0
 40
0.4336012070226245
 41
0.4336012070226245
  0
VERTEX
  5
56C
330
56B
100
AcDbEntity
  8
LOGO
 62
     5
100
AcDbVertex
100
AcDb2dVertex
 10
160.3076855267372
 20
165.147160521286
 30
0.0
 42
1.0
  0
VERTEX
  5
56D
330
56B
100
AcDbEntity
  8
LOGO
 62
     5
100
AcDbVertex
100
AcDb2dVertex
 10
159.006881905669
 20
165.147160521286
 30
0.0
 42
1.0
  0
SEQEND
  5
56E
330
56B
100
AcDbEntity
  8
LOGO
 62
     5
  0
POLYLINE
  5
56F
330
1F
100
AcDbEntity
  8
LOGO
 62
     5
100
AcDb2dPolyline
 66
     1
 10
0.0
 20
0.0
 30
0.0
 70
     1
  0
VERTEX
  5
570
330
56F
100
AcDbEntity
  8
LOGO
 62
     5
100
AcDbVertex
100
AcDb2dVertex
 10
156.5548092202102
 20
164.9307067987404
 30
0.0
 42
1.000000057330635
  0
VERTEX
  5
571
330
56F
100
AcDbEntity
  8
LOGO
 62
     5
100
AcDbVertex
100
AcDb2dVertex
 10
157.8535315554845
 20
164.9307067987404
 30
0.0
 42
1.000000057330635
  0
SEQEND
  5
572
330
56F
100
AcDbEntity
  8
LOGO
 62
     5
  0
CIRCLE
  5
573
330
1F
100
AcDbEntity
  8
LOGO
 62
     5
100
AcDbCircle
 10
157.2041703878484
 20
164.9307067987404
 30
0.0
 40
0.6493611676370826
  0
POLYLINE
  5
574
330
1F
100
AcDbEntity
  8
LOGO
 62
     5
100
AcDb2dPolyline
 66
     1
 10
0.0
 20
0.0
 30
0.0
 70
     1
 40
0.4336012070226245
 41
0.4336012070226245
  0
VERTEX
  5
575
330
574
100
AcDbEntity
  8
LOGO
 62
     5
100
AcDbVertex
100
AcDb2dVertex
 10
156.3369679738025
 20
164.9307067987404
 30
0.0
 42
1.0
  0
VERTEX
  5
576
330
574
100
AcDbEntity
  8
LOGO
 62
     5
100
AcDbVertex
100
AcDb2dVertex
 10
158.0713728018929
 20
164.9307067987404
 30
0.0
 42
1.0
  0
SEQEND
  5
577
330
574
100
AcDbEntity
  8
LOGO
 62
     5
  0
LINE
  5
578
330
1F
100
AcDbEntity
  8
LOGO
100
AcDbLine
 10
160.5230986063852
 20
163.8484381860125
 30
0.0
 11
160.5230986063852
 21
165.147160521286
 31
0.0
  0
SOLID
  5
579
330
1F
100
AcDbEntity
  8
LOGO
 62
     5
100
AcDbTrace
 10
157.8534882647419
 20
166.0129754114691
 30
0.0
 11
158.2863957098325
 21
166.0129754114691
 31
0.0
 12
157.8534882647419
 22
163.8484381860125
 32
0.0
 13
158.2863957098325
 23
163.8484381860125
 33
0.0
  0
SOLID
  5
57A
330
1F
100
AcDbEntity
  8
LOGO
 62
     5
100
AcDbTrace
 10
158.7914688260197
 20
163.8484381860125
 30
0.0
 11
159.2243762711115
 21
163.8484381860125
 31
0.0
 12
158.7914688260197
 22
166.0129754114691
 32
0.0
 13
159.2243762711115
 23
166.0129754114691
 33
0.0
  0
SOLID
  5
57B
330
1F
100
AcDbEntity
  8
LOGO
 62
     5
100
AcDbTrace
 10
160.0901911612946
 20
165.147160521286
 30
0.0
 11
160.5230986063852
 21
165.147160521286
 31
0.0
 12
160.0901911612946
 22
163.8484381860125
 32
0.0
 13
160.5230986063852
 23
163.8484381860125
 33
0.0
  0
SOLID
  5
57C
330
1F
100
AcDbEntity
  8
LOGO
 62
     5
100
AcDbTrace
 10
158.7481780815105
 20
179.1300709977379
 30
0.0
 11
157.4927464907461
 21
174.5268218315994
 31
0.0
 12
158.7481780815105
 22
168.1775126369257
 32
0.0
 13
157.4927464907461
 23
168.1775126369257
 33
0.0
  0
SOLID
  5
57D
330
1F
100
AcDbEntity
  8
LOGO
 62
     5
100
AcDbTrace
 10
159.2676670156208
 20
168.1775126369257
 30
0.0
 11
160.5230986063852
 21
168.1775126369257
 31
0.0
 12
159.2676670156208
 22
180.0824673769388
 32
0.0
 13
160.5230986063852
 23
180.0824673769395
 33
0.0
  0
SOLID
  5
57E
330
1F
100
AcDbEntity
  8
LOGO
 62
     2
100
AcDbTrace
 10
158.7481780815105
 20
180.0824673769395
 30
0.0
 11
159.2676670156208
 21
180.0824673769388
 31
0.0
 12
158.7481780815105
 22
168.1775126369257
 32
0.0
 13
159.2676670156208
 23
168.1775126369257
 33
0.0
  0
POLYLINE
  5
57F
330
1F
100
AcDbEntity
  8
LOGO
 62
     5
100
AcDb2dPolyline
 66
     1
 10
0.0
 20
0.0
 30
0.0
 40
0.4336012070226245
 41
0.4336012070226245
  0
VERTEX
  5
580
330
57F
100
AcDbEntity
  8
LOGO
 62
     5
100
AcDbVertex
100
AcDb2dVertex
 10
154.1026499532644
 20
165.147160521286
 30
0.0
 42
1.0
  0
VERTEX
  5
581
330
57F
100
AcDbEntity
  8
LOGO
 62
     5
100
AcDbVertex
100
AcDb2dVertex
 10
152.8018463321962
 20
165.147160521286
 30
0.0
 42
1.0
  0
SEQEND
  5
582
330
57F
100
AcDbEntity
  8
LOGO
 62
     5
  0
POLYLINE
  5
583
330
1F
100
AcDbEntity
  8
LOGO
 62
     5
100
AcDb2dPolyline
 66
     1
 10
0.0
 20
0.0
 30
0.0
 40
0.4336012070226245
 41
0.4336012070226245
  0
VERTEX
  5
584
330
583
100
AcDbEntity
  8
LOGO
 62
     5
100
AcDbVertex
100
AcDb2dVertex
 10
155.4013722885373
 20
165.147160521286
 30
0.0
 42
1.0
  0
VERTEX
  5
585
330
583
100
AcDbEntity
  8
LOGO
 62
     5
100
AcDbVertex
100
AcDb2dVertex
 10
154.1005686674698
 20
165.147160521286
 30
0.0
 42
1.0
  0
SEQEND
  5
586
330
583
100
AcDbEntity
  8
LOGO
 62
     5
  0
POLYLINE
  5
587
330
1F
100
AcDbEntity
  8
LOGO
 62
     5
100
AcDb2dPolyline
 66
     1
 10
0.0
 20
0.0
 30
0.0
 40
0.4336012070226245
 41
0.4336012070226245
  0
VERTEX
  5
588
330
587
100
AcDbEntity
  8
LOGO
 62
     5
100
AcDbVertex
100
AcDb2dVertex
 10
149.1963367150645
 20
165.147160521286
 30
0.0
 42
1.0
  0
VERTEX
  5
589
330
587
100
AcDbEntity
  8
LOGO
 62
     5
100
AcDbVertex
100
AcDb2dVertex
 10
147.895533093997
 20
165.147160521286
 30
0.0
 42
1.0
  0
SEQEND
  5
58A
330
587
100
AcDbEntity
  8
LOGO
 62
     5
  0
SOLID
  5
58B
330
1F
100
AcDbEntity
  8
LOGO
 62
     5
100
AcDbTrace
 10
147.6801200143484
 20
166.0129754114691
 30
0.0
 11
148.1130274594389
 21
166.0129754114691
 31
0.0
 12
147.6801200143484
 22
163.8484381860125
 32
0.0
 13
148.1130274594389
 23
163.8484381860125
 33
0.0
  0
SOLID
  5
58C
330
1F
100
AcDbEntity
  8
LOGO
 62
     5
100
AcDbTrace
 10
148.9788423496226
 20
165.147160521286
 30
0.0
 11
149.4117497947144
 21
165.147160521286
 31
0.0
 12
148.9788423496226
 22
163.8484381860125
 32
0.0
 13
149.4117497947144
 23
163.8484381860125
 33
0.0
  0
POLYLINE
  5
58D
330
1F
100
AcDbEntity
  8
LOGO
 62
     5
100
AcDb2dPolyline
 66
     1
 10
0.0
 20
0.0
 30
0.0
 70
     1
 40
0.4336012070226245
 41
0.4336012070226245
  0
VERTEX
  5
58E
330
58D
100
AcDbEntity
  8
LOGO
 62
     5
100
AcDbVertex
100
AcDb2dVertex
 10
150.131932400329
 20
164.9307067987404
 30
0.0
 42
1.0
  0
VERTEX
  5
58F
330
58D
100
AcDbEntity
  8
LOGO
 62
     5
100
AcDbVertex
100
AcDb2dVertex
 10
151.8663372284201
 20
164.9307067987404
 30
0.0
 42
1.0
  0
SEQEND
  5
590
330
58D
100
AcDbEntity
  8
LOGO
 62
     5
  0
SOLID
  5
591
330
1F
100
AcDbEntity
  8
LOGO
 62
     5
100
AcDbTrace
 10
151.6484526912678
 20
166.6623365791065
 30
0.0
 11
152.081360136359
 21
166.6623365791065
 31
0.0
 12
151.6484526912678
 22
163.8484381860125
 32
0.0
 13
152.081360136359
 23
163.8484381860125
 33
0.0
  0
SOLID
  5
592
330
1F
100
AcDbEntity
  8
LOGO
 62
     5
100
AcDbTrace
 10
152.5864332525482
 20
166.0129754114691
 30
0.0
 11
153.0193406976388
 21
166.0129754114691
 31
0.0
 12
152.5864332525482
 22
163.8484381860125
 32
0.0
 13
153.0193406976388
 23
163.8484381860125
 33
0.0
  0
SOLID
  5
593
330
1F
100
AcDbEntity
  8
LOGO
 62
     5
100
AcDbTrace
 10
153.8851555878211
 20
165.147160521286
 30
0.0
 11
154.318063032913
 21
165.147160521286
 31
0.0
 12
153.8851555878211
 22
163.8484381860125
 32
0.0
 13
154.318063032913
 23
163.8484381860125
 33
0.0
  0
SOLID
  5
594
330
1F
100
AcDbEntity
  8
LOGO
 62
     5
100
AcDbTrace
 10
155.1838779230954
 20
165.147160521286
 30
0.0
 11
155.6167853681866
 21
165.147160521286
 31
0.0
 12
155.1838779230954
 22
163.8484381860118
 32
0.0
 13
155.6167853681866
 23
163.8484381860118
 33
0.0
  0
SOLID
  5
595
330
1F
100
AcDbEntity
  8
LOGO
 62
     5
100
AcDbTrace
 10
146.7421394530686
 20
166.3160106230332
 30
0.0
 11
147.1750468981611
 21
166.3160106230332
 31
0.0
 12
146.7421394530686
 22
166.6623365791065
 32
0.0
 13
147.1750468981611
 23
166.6623365791065
 33
0.0
  0
SOLID
  5
596
330
1F
100
AcDbEntity
  8
LOGO
 62
     5
100
AcDbTrace
 10
146.7421394530686
 20
166.0129754114691
 30
0.0
 11
147.1750468981611
 21
166.0129754114691
 31
0.0
 12
146.7421394530686
 22
163.8484381860118
 32
0.0
 13
147.1750468981611
 23
163.8484381860125
 33
0.0
  0
SOLID
  5
597
330
1F
100
AcDbEntity
  8
LOGO
 62
     5
100
AcDbTrace
 10
150.9991348143742
 20
168.1775126369257
 30
0.0
 11
152.2545664051399
 21
168.1775126369257
 31
0.0
 12
150.9991348143742
 22
174.5268218315994
 32
0.0
 13
152.2545664051399
 23
179.1300709977379
 33
0.0
  0
SOLID
  5
598
330
1F
100
AcDbEntity
  8
LOGO
 62
     5
100
AcDbTrace
 10
152.7740553392503
 20
180.0824673769388
 30
0.0
 11
154.0294869300146
 21
180.0824673769395
 31
0.0
 12
152.7740553392503
 22
169.1299090161266
 32
0.0
 13
154.0294869300146
 23
173.7331581822651
 33
0.0
  0
SOLID
  5
599
330
1F
100
AcDbEntity
  8
LOGO
 62
     2
100
AcDbTrace
 10
152.2545664051399
 20
180.0824673769388
 30
0.0
 11
152.7740553392503
 21
180.0824673769388
 31
0.0
 12
152.2545664051399
 22
168.1775126369257
 32
0.0
 13
152.7740553392503
 23
168.1775126369257
 33
0.0
  0
SOLID
  5
59A
330
1F
100
AcDbEntity
  8
LOGO
 62
     5
100
AcDbTrace
 10
152.7740553392503
 20
169.1299090161266
 30
0.0
 11
154.0294869300146
 21
173.7331581822651
 31
0.0
 12
158.7481780815105
 22
180.0824673769395
 32
0.0
 13
157.4927464907461
 23
180.0824673769395
 33
0.0
  0
SOLID
  5
59B
330
1F
100
AcDbEntity
  8
LOGO
 62
     5
100
AcDbTrace
 10
152.7740553392503
 20
168.1775126369257
 30
0.0
 11
154.0294869300146
 21
168.1775126369257
 31
0.0
 12
158.7481780815105
 22
179.1300709977379
 32
0.0
 13
157.4927464907461
 23
174.5268218315994
 33
0.0
  0
SOLID
  5
59C
330
1F
100
AcDbEntity
  8
LOGO
 62
     2
100
AcDbTrace
 10
152.2545664051399
 20
168.1775126369257
 30
0.0
 11
152.7740553392503
 21
168.1775126369257
 31
0.0
 12
158.7481780815105
 22
180.0824673769395
 32
0.0
 13
159.2676670156208
 23
180.0824673769388
 33
0.0
  0
LWPOLYLINE
  5
59D
330
1F
100
AcDbEntity
  8
LOGO
 62
     4
100
AcDbPolyline
 90
        4
 70
     1
 43
0.0
 10
141.4930127961106
 20
180.7722020592414
 10
355.6389870507008
 20
180.7722020592414
 10
355.6389870507008
 20
151.7364069461186
 10
141.4930127961106
 20
151.7364069461186
1001
GENIUS_GENREC_14
1002
{
1000
PYDIR
1011
141.4930127961106
1021
151.7364069461186
1031
0.0
1002
}
1002
{
1000
PXDIR
1011
355.6389870507008
1021
180.7722020592414
1031
0.0
1002
}
1002
{
1000
PORI
1011
141.4930127961106
1021
180.7722020592414
1031
0.0
1002
}
1002
{
1000
PINS
1011
141.4930127961106
1021
180.7722020592414
1031
0.0
1002
}
1002
{
1000
PINS2
1011
355.6389870507008
1021
151.7364069461186
1031
0.0
1002
}
1002
{
1000
C
1070
     1
1002
}
1001
GENIUS_GENOBJ-N-REC_13
1002
{
1000
OWNER
1000
GEN
1002
}
1001
GENIUS_GENODEF_13
1002
{
1000
HIER
1070
     0
1002
}
1002
{
1000
MANEDIT
1070
     0
1002
}
1002
{
1000
NOSEL
1070
     0
1002
}
1002
{
1000
BEHIND
1070
     0
1002
}
1002
{
1000
OTHER
1070
     0
1002
}
1002
{
1000
REACTOR
1002
}
  0
TEXT
  5
59E
330
1F
100
AcDbEntity
  8
LOGO
100
AcDbText
 10
206.9590917234566
 20
153.2810997858925
 30
0.0
 40
2.904
  1
10603201
 41
0.7
  7
CHINESET
 72
     1
 11
213.7834917234566
 21
153.2810997858925
 31
0.0
100
AcDbText
  0
LINE
  5
59F
330
1F
100
AcDbEntity
  8
LOGO
 62
     4
100
AcDbLine
 10
222.7957620449782
 20
157.5435659687441
 30
0.0
 11
222.7957620449795
 21
151.7364069461193
 31
0.0
  0
LINE
  5
5A0
330
1F
100
AcDbEntity
  8
LOGO
 62
     4
100
AcDbLine
 10
222.7957620449782
 20
157.5435659687441
 30
0.0
 11
205.3717620449795
 21
157.5435659687441
 31
0.0
  0
CIRCLE
  5
5A1
330
1F
100
AcDbEntity
  8
LOGO
  6
Continuous
100
AcDbCircle
 10
191.3909059420766
 20
172.0676743031273
 30
0.0
 40
1.685886606825557
  0
CIRCLE
  5
5A2
330
1F
100
AcDbEntity
  8
LOGO
  6
Continuous
100
AcDbCircle
 10
191.3909059420766
 20
172.0676743031273
 30
0.0
 40
0.9877803085024472
  0
LINE
  5
5A3
330
1F
100
AcDbEntity
  8
LOGO
100
AcDbLine
 10
201.9852130013777
 20
170.3817876963014
 30
0.0
 11
201.9852130013777
 21
173.7535609099532
 31
0.0
  0
LINE
  5
5A4
330
1F
100
AcDbEntity
  8
LOGO
100
AcDbLine
 10
196.7000552634886
 20
171.0798939946247
 30
0.0
 11
196.7000552634886
 21
173.0554546116299
 31
0.0
  0
LINE
  5
5A5
330
1F
100
AcDbEntity
  8
LOGO
  6
Continuous
100
AcDbLine
 10
196.7000552634886
 20
173.0554546116299
 30
0.0
 11
201.9852130013777
 21
173.7535609099532
 31
0.0
  0
LINE
  5
5A6
330
1F
100
AcDbEntity
  8
LOGO
  6
Continuous
100
AcDbLine
 10
196.7000552634886
 20
171.0798939946247
 30
0.0
 11
201.9852130013777
 21
170.3817876963014
 31
0.0
  0
LINE
  5
5A7
330
1F
100
AcDbEntity
  8
LOGO
  6
AM_ISO08W050x2
 48
0.3
100
AcDbLine
 10
189.0668860104035
 20
172.0676743031273
 30
0.0
 11
193.7149258737497
 21
172.0676743031273
 31
0.0
1001
GENIUS_GENOREF_13
1005
5C5
  0
LINE
  5
5A8
330
1F
100
AcDbEntity
  8
LOGO
  6
AM_ISO08W050x2
 48
0.3
100
AcDbLine
 10
191.3909059420766
 20
169.7436543714542
 30
0.0
 11
191.3909059420766
 21
174.3916942348004
 31
0.0
1001
GENIUS_GENOREF_13
1005
5C4
  0
LINE
  5
5A9
330
1F
100
AcDbEntity
  8
LOGO
  6
CENTER
 48
0.5
100
AcDbLine
 10
196.2773895447295
 20
172.0676743031273
 30
0.0
 11
202.5174112766454
 21
172.0676743031273
 31
0.0
1001
GENIUS_GENOREF_13
1005
5C3
  0
LINE
  5
5AA
330
1F
100
AcDbEntity
  8
LOGO
 62
     4
100
AcDbLine
 10
266.3567813043166
 20
164.8025147470248
 30
0.0
 11
266.3567813043166
 21
154.1560565388794
 31
0.0
  0
LINE
  5
5AB
330
1F
100
AcDbEntity
  8
LOGO
 62
     4
100
AcDbLine
 10
247.5333873462811
 20
164.8025147470248
 30
0.0
 11
247.5333873462811
 21
154.1560565388794
 31
0.0
  0
LINE
  5
5AC
330
1F
100
AcDbEntity
  8
LOGO
 62
     4
100
AcDbLine
 10
266.3567813043166
 20
154.1560565388794
 30
0.0
 11
247.5333873462811
 21
154.1560565388794
 31
0.0
  0
LINE
  5
5AD
330
1F
100
AcDbEntity
  8
LOGO
 62
     4
100
AcDbLine
 10
268.3748947983858
 20
177.8686225479289
 30
0.0
 11
245.3092095490723
 21
177.8686225479289
 31
0.0
  0
LINE
  5
5AE
330
1F
100
AcDbEntity
  8
LOGO
 62
     4
100
AcDbLine
 10
268.3748947983858
 20
169.1578840139927
 30
0.0
 11
245.3092095490723
 21
169.1578840139927
 31
0.0
  0
LINE
  5
5AF
330
1F
100
AcDbEntity
  8
LOGO
 62
     4
100
AcDbLine
 10
245.3092095490723
 20
177.8686225479289
 30
0.0
 11
245.3092095490723
 21
169.1578840139927
 31
0.0
  0
LINE
  5
5B0
330
1F
100
AcDbEntity
  8
LOGO
 62
     4
100
AcDbLine
 10
268.3748947983858
 20
177.8686225479289
 30
0.0
 11
268.3748947983858
 21
169.1578840139927
 31
0.0
  0
LINE
  5
5B1
330
1F
100
AcDbEntity
  8
LOGO
 62
     4
100
AcDbLine
 10
255.9977673973123
 20
169.1578840139927
 30
0.0
 11
255.9977673973123
 21
164.8025147470248
 31
0.0
  0
LINE
  5
5B2
330
1F
100
AcDbEntity
  8
LOGO
 62
     4
100
AcDbLine
 10
266.3567813043166
 20
164.8025147470248
 30
0.0
 11
247.5333873462811
 21
164.8025147470248
 31
0.0
  0
TEXT
  5
5B3
330
1F
100
AcDbEntity
  8
LOGO
  6
Continuous
100
AcDbText
 10
253.7450504968628
 20
155.65878153862
 30
190.2958178035923
 40
2.177999999999999
  1
Model
 41
0.8
  7
CHINESET
100
AcDbText
  0
TEXT
  5
5B4
330
1F
100
AcDbEntity
  8
LOGO
100
AcDbText
 10
253.1653376992881
 20
159.6963241461186
 30
190.2958178035923
 40
3.63
  1
型號
  7
CHINESET
100
AcDbText
  0
LINE
  5
5B5
330
1F
100
AcDbEntity
  8
LOGO
  6
Continuous
 62
     7
100
AcDbLine
 10
269.3009182978061
 20
173.4823984684519
 30
0.0
 11
273.1472625936663
 21
173.4823984684519
 31
0.0
  0
LINE
  5
5B6
330
1F
100
AcDbEntity
  8
LOGO
 62
     4
100
AcDbLine
 10
273.0028210873016
 20
164.8025147470248
 30
0.0
 11
273.0028210873016
 21
154.1560565388794
 31
0.0
  0
LINE
  5
5B7
330
1F
100
AcDbEntity
  8
LOGO
 62
     4
100
AcDbLine
 10
286.9522356306175
 20
154.1560565388794
 30
0.0
 11
273.0028210873016
 21
154.1560565388794
 31
0.0
  0
LINE
  5
5B8
330
1F
100
AcDbEntity
  8
LOGO
 62
     4
100
AcDbLine
 10
285.5779405041931
 20
177.8686225479289
 30
0.0
 11
274.3605814661025
 21
177.8686225479289
 31
0.0
  0
LINE
  5
5B9
330
1F
100
AcDbEntity
  8
LOGO
 62
     4
100
AcDbLine
 10
285.5779405041931
 20
169.1578840139927
 30
0.0
 11
274.3605814661025
 21
169.1578840139927
 31
0.0
  0
LINE
  5
5BA
330
1F
100
AcDbEntity
  8
LOGO
 62
     4
100
AcDbLine
 10
274.3605814661025
 20
177.8686225479289
 30
0.0
 11
274.3605814661025
 21
169.1578840139927
 31
0.0
  0
LINE
  5
5BB
330
1F
100
AcDbEntity
  8
LOGO
 62
     4
100
AcDbLine
 10
285.5779405041931
 20
177.8686225479289
 30
0.0
 11
285.5779405041931
 21
169.1578840139927
 31
0.0
  0
LINE
  5
5BC
330
1F
100
AcDbEntity
  8
LOGO
 62
     4
100
AcDbLine
 10
279.9692609851475
 20
169.1578840139927
 30
0.0
 11
279.9692609851475
 21
164.8025147470248
 31
0.0
  0
LINE
  5
5BD
330
1F
100
AcDbEntity
  8
LOGO
 62
     4
100
AcDbLine
 10
286.9522356306175
 20
164.8025147470248
 30
0.0
 11
273.0028210873016
 21
164.8025147470248
 31
0.0
  0
TEXT
  5
5BE
330
1F
100
AcDbEntity
  8
LOGO
  6
Continuous
100
AcDbText
 10
275.9952915174468
 20
155.65878153862
 30
190.2958178035923
 40
2.177999999999999
  1
CODE
 41
0.8
  7
CHINESET
100
AcDbText
  0
TEXT
  5
5BF
330
1F
100
AcDbEntity
  8
LOGO
100
AcDbText
 10
275.9747740031002
 20
159.6963241461186
 30
190.2958178035923
 40
3.63
  1
記號
  7
CHINESET
100
AcDbText
  0
TEXT
  5
5C0
330
1F
100
AcDbEntity
  8
LOGO
100
AcDbText
 10
250.9411599020792
 20
172.1439745228454
 30
190.2958178035923
 40
3.63
  1
MYA
  7
CHINESET
100
AcDbText
  0
TEXT
  5
5C1
330
1F
100
AcDbEntity
  8
LOGO
100
AcDbText
 10
277.4004951979712
 20
172.1439745228454
 30
190.2958178035923
 40
3.63
  1
10
  7
CHINESET
100
AcDbText
  0
LINE
  5
5C2
330
1F
100
AcDbEntity
  8
LOGO
 62
     4
100
AcDbLine
 10
286.9522356306175
 20
164.8025147470248
 30
0.0
 11
286.9522356306175
 21
154.1560565388794
 31
0.0
  0
POINT
  5
5C3
330
1F
100
AcDbEntity
  8
0
 60
     1
100
AcDbPoint
 10
-1923.71425175944
 20
-728.7173037363687
 30
0.0
1001
GENIUS_GENOBJ-N-CRS_13
1002
{
1000
OWNER
1000
GEN
1002
}
1001
GENIUS_GENOLIS_13
1002
{
1000
ENT
1005
0
1005
0
1005
0
1005
5A9
1002
}
1001
GENIUS_GENOENT_13
1002
{
1000
MYREF
1005
5C3
1002
}
1002
{
1000
GRP
1005
0
1002
}
1001
GENIUS_GENODEF_13
1002
{
1000
HIER
1070
    10
1002
}
1002
{
1000
MANEDIT
1070
     1
1002
}
1002
{
1000
NOSEL
1070
     0
1002
}
1002
{
1000
BEHIND
1070
     0
1002
}
1002
{
1000
OTHER
1070
     0
1002
}
1002
{
1000
REACTOR
1002
}
  0
POINT
  5
5C4
330
1F
100
AcDbEntity
  8
0
 60
     1
100
AcDbPoint
 10
-1935.038836982295
 20
-719.8417172577324
 30
0.0
1001
GENIUS_GENOBJ-N-CRS_13
1002
{
1000
OWNER
1000
GEN
1002
}
1001
GENIUS_GENOLIS_13
1002
{
1000
ENT
1005
0
1005
0
1005
0
1005
5A8
1002
}
1001
GENIUS_GENOENT_13
1002
{
1000
MYREF
1005
5C4
1002
}
1002
{
1000
GRP
1005
0
1002
}
1001
GENIUS_GENODEF_13
1002
{
1000
HIER
1070
    10
1002
}
1002
{
1000
MANEDIT
1070
     1
1002
}
1002
{
1000
NOSEL
1070
     0
1002
}
1002
{
1000
BEHIND
1070
     0
1002
}
1002
{
1000
OTHER
1070
     0
1002
}
1002
{
1000
REACTOR
1002
}
  0
POINT
  5
5C5
330
1F
100
AcDbEntity
  8
0
 60
     1
100
AcDbPoint
 10
-1928.680163284458
 20
-728.7173037363687
 30
0.0
1001
GENIUS_GENOBJ-N-CRS_13
1002
{
1000
OWNER
1000
GEN
1002
}
1001
GENIUS_GENOLIS_13
1002
{
1000
ENT
1005
0
1005
0
1005
0
1005
5A7
1002
}
1001
GENIUS_GENOENT_13
1002
{
1000
MYREF
1005
5C5
1002
}
1002
{
1000
GRP
1005
0
1002
}
1001
GENIUS_GENODEF_13
1002
{
1000
HIER
1070
    10
1002
}
1002
{
1000
MANEDIT
1070
     1
1002
}
1002
{
1000
NOSEL
1070
     0
1002
}
1002
{
1000
BEHIND
1070
     0
1002
}
1002
{
1000
OTHER
1070
     0
1002
}
1002
{
1000
REACTOR
1002
}
  0
ENDSEC
  0
SECTION
  2
OBJECTS
  0
DICTIONARY
  5
C
330
0
100
AcDbDictionary
281
     1
  3
ACAD_COLOR
350
BE
  3
ACAD_GROUP
350
D
  3
ACAD_LAYOUT
350
1A
  3
ACAD_MATERIAL
350
BD
  3
ACAD_MLINESTYLE
350
17
  3
ACAD_PLOTSETTINGS
350
19
  3
ACAD_PLOTSTYLENAME
350
E
  3
ACAD_TABLESTYLE
350
11A
  3
ACDBHEADERROUNDTRIPXREC
350
63E
  3
AcDbVariableDictionary
350
94
  3
AcmDictionary
350
5B
  3
AMG
350
41
  3
AMGSNAPSETTINGS
350
1B8
  3
DWGPROPS
350
63D
  0
DICTIONARY
  5
3A3
330
2
100
AcDbDictionary
280
     1
281
     1
  3
ACAD_LAYERSTATES
360
3A4
  0
DICTIONARY
  5
8F
330
1F
100
AcDbDictionary
280
     1
281
     1
  0
DICTIONARY
  5
BE
102
{ACAD_REACTORS
330
C
102
}
330
C
100
AcDbDictionary
281
     1
  0
DICTIONARY
  5
D
102
{ACAD_REACTORS
330
C
102
}
330
C
100
AcDbDictionary
281
     1
  0
DICTIONARY
  5
1A
102
{ACAD_REACTORS
330
C
102
}
330
C
100
AcDbDictionary
281
     1
  3
Model
350
22
  3
配置1
350
1E
  3
配置2
350
26
  0
DICTIONARY
  5
BD
102
{ACAD_REACTORS
330
C
102
}
330
C
100
AcDbDictionary
281
     1
  0
DICTIONARY
  5
17
102
{ACAD_REACTORS
330
C
102
}
330
C
100
AcDbDictionary
281
     1
  3
Standard
350
18
  0
DICTIONARY
  5
19
102
{ACAD_REACTORS
330
C
102
}
330
C
100
AcDbDictionary
281
     1
  0
ACDBDICTIONARYWDFLT
  5
E
102
{ACAD_REACTORS
330
C
102
}
330
C
100
AcDbDictionary
281
     1
  3
Normal
350
F
100
AcDbDictionaryWithDefault
340
F
  0
DICTIONARY
  5
11A
102
{ACAD_REACTORS
330
C
102
}
330
C
100
AcDbDictionary
281
     1
  3
Standard
350
11B
  0
DICTIONARY
  5
63E
102
{ACAD_REACTORS
330
C
102
}
330
C
100
AcDbDictionary
281
     1
  0
DICTIONARY
  5
94
102
{ACAD_REACTORS
330
C
102
}
330
C
100
AcDbDictionary
281
     1
  3
CTABLESTYLE
350
138
  3
DIMASSOC
350
96
  3
INDEXCTL
350
95
  3
PROJECTNAME
350
63B
  0
DICTIONARY
  5
5B
102
{ACAD_REACTORS
330
C
102
}
330
C
100
AcDbDictionary
281
     1
  3
AcmBOM
350
1B5
  3
AcmStdDictionary
350
61
  3
AMDTSECTSYM_ARROWCOLOR
350
123
  0
DICTIONARY
  5
41
102
{ACAD_REACTORS
330
C
102
}
330
C
100
AcDbDictionary
281
     1
  0
DICTIONARY
  5
1B8
102
{ACAD_REACTORS
330
C
102
}
330
C
100
AcDbDictionary
281
     1
  0
XRECORD
  5
63D
102
{ACAD_REACTORS
330
C
102
}
330
C
100
AcDbXrecord
280
     1
  1
DWGPROPS COOKIE
  2

  3

  4

  6

  7

  8

  9

300
AmdtFileType=84
301
=
302
=
303
=
304
=
305
=
306
=
307
=
308
=
309
=
 40
0.005318287037037
 41
2453883.452848669
 42
2453883.458166227
  1

 90
        1
  0
DICTIONARY
  5
3A4
102
{ACAD_REACTORS
330
3A3
102
}
330
3A3
100
AcDbDictionary
281
     1
  0
LAYOUT
  5
22
102
{ACAD_XDICTIONARY
360
641
102
}
102
{ACAD_REACTORS
330
1A
102
}
330
1A
100
AcDbPlotSettings
  1

  2
\\RDS1\iR3300影印機
  4
A4
  6

 40
6.805083274841308
 41
5.619736671447753
 42
6.974411010742187
 43
5.027069091796875
 44
209.9733276367187
 45
296.9259948730469
 46
0.0
 47
0.0
 48
0.0
 49
0.0
140
0.0
141
0.0
142
1.0
143
1.491396423076278
 70
 11952
 72
     1
 73
     1
 74
     0
  7
單色出圖.ctb
 75
     0
147
0.6705125374629212
148
-70.22645664378865
149
-150.6350163013651
100
AcDbLayout
  1
Model
 70
     1
 71
     0
 10
0.0
 20
0.0
 11
12.0
 21
9.0
 12
0.0
 22
0.0
 32
0.0
 14
0.0
 24
0.0
 34
0.0
 15
0.0
 25
0.0
 35
0.0
146
0.0
 13
0.0
 23
0.0
 33
0.0
 16
1.0
 26
0.0
 36
0.0
 17
0.0
 27
1.0
 37
0.0
 76
     0
330
1F
1001
ACAD_PSEXT
1000
\\RDS1\iR3300影印機
1000
Canon iR2200-3300 PCL5e
1000
\\RDS1
1000

1070
     0
  0
LAYOUT
  5
1E
102
{ACAD_XDICTIONARY
360
63F
102
}
102
{ACAD_REACTORS
330
1A
102
}
330
1A
100
AcDbPlotSettings
  1

  2

  4

  6

 40
0.0
 41
0.0
 42
0.0
 43
0.0
 44
0.0
 45
0.0
 46
0.0
 47
0.0
 48
0.0
 49
0.0
140
0.0
141
0.0
142
1.0
143
1.0
 70
   688
 72
     0
 73
     0
 74
     5
  7
單色出圖.ctb
 75
    16
147
1.0
148
0.0
149
0.0
100
AcDbLayout
  1
配置1
 70
     1
 71
     1
 10
0.0
 20
0.0
 11
420.0
 21
297.0
 12
0.0
 22
0.0
 32
0.0
 14
1.000000000000000E+20
 24
1.000000000000000E+20
 34
1.000000000000000E+20
 15
-1.000000000000000E+20
 25
-1.000000000000000E+20
 35
-1.000000000000000E+20
146
0.0
 13
0.0
 23
0.0
 33
0.0
 16
1.0
 26
0.0
 36
0.0
 17
0.0
 27
1.0
 37
0.0
 76
     0
330
1B
  0
LAYOUT
  5
26
102
{ACAD_XDICTIONARY
360
643
102
}
102
{ACAD_REACTORS
330
1A
102
}
330
1A
100
AcDbPlotSettings
  1

  2

  4

  6

 40
0.0
 41
0.0
 42
0.0
 43
0.0
 44
0.0
 45
0.0
 46
0.0
 47
0.0
 48
0.0
 49
0.0
140
0.0
141
0.0
142
1.0
143
1.0
 70
   688
 72
     0
 73
     0
 74
     5
  7
單色出圖.ctb
 75
    16
147
1.0
148
0.0
149
0.0
100
AcDbLayout
  1
配置2
 70
     1
 71
     2
 10
0.0
 20
0.0
 11
12.0
 21
9.0
 12
0.0
 22
0.0
 32
0.0
 14
0.0
 24
0.0
 34
0.0
 15
0.0
 25
0.0
 35
0.0
146
0.0
 13
0.0
 23
0.0
 33
0.0
 16
1.0
 26
0.0
 36
0.0
 17
0.0
 27
1.0
 37
0.0
 76
     0
330
23
  0
MLINESTYLE
  5
18
102
{ACAD_REACTORS
330
17
102
}
330
17
100
AcDbMlineStyle
  2
STANDARD
 70
     0
  3

 62
   256
 51
90.0
 52
90.0
 71
     2
 49
0.5
 62
   256
  6
BYLAYER
 49
-0.5
 62
   256
  6
BYLAYER
  0
ACDBPLACEHOLDER
  5
F
102
{ACAD_REACTORS
330
E
102
}
330
E
  0
TABLESTYLE
  5
11B
102
{ACAD_REACTORS
330
11A
102
}
330
11A
100
AcDbTableStyle
  3
Standard
 70
     0
 71
     0
 40
1.5
 41
1.5
280
     0
281
     0
  7
STANDARD
140
4.5
170
     2
 62
     0
 63
     7
283
     0
274
    -2
284
     1
 64
     0
275
    -2
285
     1
 65
     0
276
    -2
286
     1
 66
     0
277
    -2
287
     1
 67
     0
278
    -2
288
     1
 68
     0
279
    -2
289
     1
 69
     0
  7
STANDARD
140
6.0
170
     5
 62
     0
 63
     7
283
     0
274
    -2
284
     1
 64
     0
275
    -2
285
     1
 65
     0
276
    -2
286
     1
 66
     0
277
    -2
287
     1
 67
     0
278
    -2
288
     1
 68
     0
279
    -2
289
     1
 69
     0
  7
STANDARD
140
4.5
170
     5
 62
     0
 63
     7
283
     0
274
    -2
284
     1
 64
     0
275
    -2
285
     1
 65
     0
276
    -2
286
     1
 66
     0
277
    -2
287
     1
 67
     0
278
    -2
288
     1
 68
     0
279
    -2
289
     1
 69
     0
  0
DICTIONARYVAR
  5
138
102
{ACAD_REACTORS
330
94
102
}
330
94
100
DictionaryVariables
280
     0
  1
STANDARD
  0
DICTIONARYVAR
  5
96
102
{ACAD_REACTORS
330
94
102
}
330
94
100
DictionaryVariables
280
     0
  1
2
  0
DICTIONARYVAR
  5
95
102
{ACAD_REACTORS
330
94
102
}
330
94
100
DictionaryVariables
280
     0
  1
0
  0
DICTIONARYVAR
  5
63B
102
{ACAD_REACTORS
330
94
102
}
330
94
100
DictionaryVariables
280
     0
  1

  0
DICTIONARY
  5
1B5
102
{ACAD_REACTORS
330
5B
102
}
330
5B
100
AcDbDictionary
281
     1
  0
DICTIONARY
  5
61
102
{ACAD_REACTORS
330
5B
102
}
330
5B
100
AcDbDictionary
281
     1
  0
XRECORD
  5
123
102
{ACAD_REACTORS
330
5B
102
}
330
5B
100
AcDbXrecord
280
     1
 90
-1023410169
  0
DICTIONARY
  5
641
330
22
100
AcDbDictionary
280
     1
281
     1
  3
ACAD_XREC_ROUNDTRIP
360
642
  0
DICTIONARY
  5
63F
330
1E
100
AcDbDictionary
280
     1
281
     1
  3
ACAD_XREC_ROUNDTRIP
360
640
  0
DICTIONARY
  5
643
330
26
100
AcDbDictionary
280
     1
281
     1
  3
ACAD_XREC_ROUNDTRIP
360
644
  0
XRECORD
  5
642
102
{ACAD_REACTORS
330
641
102
}
330
641
100
AcDbXrecord
280
     1
102
SHADEPLOT
 70
     0
102
SHADEPLOTRESLEVEL
 70
     2
102
SHADEPLOTCUSTOMDPI
 70
   300
  0
XRECORD
  5
640
102
{ACAD_REACTORS
330
63F
102
}
330
63F
100
AcDbXrecord
280
     1
102
SHADEPLOT
 70
     0
102
SHADEPLOTRESLEVEL
 70
     2
102
SHADEPLOTCUSTOMDPI
 70
   300
  0
XRECORD
  5
644
102
{ACAD_REACTORS
330
643
102
}
330
643
100
AcDbXrecord
280
     1
102
SHADEPLOT
 70
     0
102
SHADEPLOTRESLEVEL
 70
     2
102
SHADEPLOTCUSTOMDPI
 70
   300
  0
ENDSEC
  0
EOF
