  0
SECTION
  2
HEADER
  9
$ACADVER
  1
AC1009
  9
$INSBASE
 10
0.0
 20
0.0
 30
0.0
  9
$EXTMIN
 10
180.00141851494121
 20
130.19825580332571
 30
-0.010075130386042
  9
$EXTMAX
 10
509.41069620154298
 20
382.33413569460271
 30
188.7288859026236
  9
$LIMMIN
 10
0.0
 20
0.0
  9
$LIMMAX
 10
420.0
 20
297.0
  9
$ORTHOMODE
 70
     1
  9
$REGENMODE
 70
     1
  9
$FILLMODE
 70
     1
  9
$QTEXTMODE
 70
     0
  9
$MIRRTEXT
 70
     1
  9
$DRAGMODE
 70
     2
  9
$LTSCALE
 40
1.0
  9
$OSMODE
 70
    37
  9
$ATTMODE
 70
     1
  9
$TEXTSIZE
 40
3.0
  9
$TRACEWID
 40
1.0
  9
$TEXTSTYLE
  7
STANDARD
  9
$CLAYER
  8
0
  9
$CELTYPE
  6
BYLAYER
  9
$CECOLOR
 62
   256
  9
$DIMSCALE
 40
1.0
  9
$DIMASZ
 40
3.5
  9
$DIMEXO
 40
1.0
  9
$DIMDLI
 40
8.0
  9
$DIMRND
 40
0.0
  9
$DIMDLE
 40
0.0
  9
$DIMEXE
 40
1.0
  9
$DIMTP
 40
0.1
  9
$DIMTM
 40
0.1
  9
$DIMTXT
 40
3.5
  9
$DIMCEN
 40
0.0
  9
$DIMTSZ
 40
0.0
  9
$DIMTOL
 70
     0
  9
$DIMLIM
 70
     0
  9
$DIMTIH
 70
     0
  9
$DIMTOH
 70
     0
  9
$DIMSE1
 70
     0
  9
$DIMSE2
 70
     0
  9
$DIMTAD
 70
     1
  9
$DIMZIN
 70
     8
  9
$DIMBLK
  1

  9
$DIMASO
 70
     1
  9
$DIMSHO
 70
     1
  9
$DIMPOST
  1

  9
$DIMAPOST
  1
"
  9
$DIMALT
 70
     0
  9
$DIMALTD
 70
     2
  9
$DIMALTF
 40
0.0393701
  9
$DIMLFAC
 40
1.0
  9
$DIMTOFL
 70
     1
  9
$DIMTVP
 40
0.0
  9
$DIMTIX
 70
     0
  9
$DIMSOXD
 70
     0
  9
$DIMSAH
 70
     0
  9
$DIMBLK1
  1

  9
$DIMBLK2
  1

  9
$DIMSTYLE
  2
AM_ISO
  9
$DIMCLRD
 70
   256
  9
$DIMCLRE
 70
   256
  9
$DIMCLRT
 70
   256
  9
$DIMTFAC
 40
0.6
  9
$DIMGAP
 40
1.0
  9
$LUNITS
 70
     2
  9
$LUPREC
 70
     2
  9
$SKETCHINC
 40
1.0
  9
$FILLETRAD
 40
2.5
  9
$AUNITS
 70
     0
  9
$AUPREC
 70
     0
  9
$MENU
  1
.
  9
$ELEVATION
 40
0.0
  9
$PELEVATION
 40
0.0
  9
$THICKNESS
 40
0.0
  9
$LIMCHECK
 70
     0
  9
$BLIPMODE
 70
     0
  9
$CHAMFERA
 40
2.5
  9
$CHAMFERB
 40
2.5
  9
$SKPOLY
 70
     0
  9
$TDCREATE
 40
2454013.6303242482
  9
$TDUPDATE
 40
2454915.6090328242
  9
$TDINDWG
 40
0.0731865046
  9
$TDUSRTIMER
 40
0.0731865046
  9
$USRTIMER
 70
     1
  9
$ANGBASE
 50
0.0
  9
$ANGDIR
 70
     0
  9
$PDMODE
 70
     0
  9
$PDSIZE
 40
0.0
  9
$PLINEWID
 40
0.0
  9
$COORDS
 70
     1
  9
$SPLFRAME
 70
     0
  9
$SPLINETYPE
 70
     6
  9
$SPLINESEGS
 70
     8
  9
$ATTDIA
 70
     1
  9
$ATTREQ
 70
     1
  9
$HANDLING
 70
     1
  9
$HANDSEED
  5
236D
  9
$SURFTAB1
 70
     6
  9
$SURFTAB2
 70
     6
  9
$SURFTYPE
 70
     6
  9
$SURFU
 70
     6
  9
$SURFV
 70
     6
  9
$UCSNAME
  2

  9
$UCSORG
 10
0.0
 20
0.0
 30
0.0
  9
$UCSXDIR
 10
1.0
 20
0.0
 30
0.0
  9
$UCSYDIR
 10
0.0
 20
1.0
 30
0.0
  9
$PUCSNAME
  2

  9
$PUCSORG
 10
0.0
 20
0.0
 30
0.0
  9
$PUCSXDIR
 10
1.0
 20
0.0
 30
0.0
  9
$PUCSYDIR
 10
0.0
 20
1.0
 30
0.0
  9
$USERI1
 70
     0
  9
$USERI2
 70
     0
  9
$USERI3
 70
     0
  9
$USERI4
 70
     0
  9
$USERI5
 70
     0
  9
$USERR1
 40
0.0
  9
$USERR2
 40
0.0
  9
$USERR3
 40
0.0
  9
$USERR4
 40
0.0
  9
$USERR5
 40
0.0
  9
$WORLDVIEW
 70
     1
  9
$SHADEDGE
 70
     3
  9
$SHADEDIF
 70
    70
  9
$TILEMODE
 70
     1
  9
$MAXACTVP
 70
    64
  9
$PLIMCHECK
 70
     0
  9
$PEXTMIN
 10
1.0000000000000000E+020
 20
1.0000000000000000E+020
 30
1.0000000000000000E+020
  9
$PEXTMAX
 10
-1.0000000000000000E+020
 20
-1.0000000000000000E+020
 30
-1.0000000000000000E+020
  9
$PLIMMIN
 10
0.0
 20
0.0
  9
$PLIMMAX
 10
420.0
 20
297.0
  9
$UNITMODE
 70
     0
  9
$VISRETAIN
 70
     1
  9
$PLINEGEN
 70
     0
  9
$PSLTSCALE
 70
     1
  0
ENDSEC
  0
SECTION
  2
TABLES
  0
TABLE
  2
VPORT
 70
     6
  0
VPORT
  2
*ACTIVE
 70
     0
 10
0.0
 20
0.0
 11
1.0
 21
1.0
 12
344.70605735824211
 22
256.26619574896421
 13
0.0
 23
0.0
 14
2.5
 24
2.5
 15
10.0
 25
10.0
 16
0.0
 26
0.0
 36
1.0
 17
0.0
 27
0.0
 37
0.0
 40
345.26300772996677
 41
0.961892247043364
 42
50.0
 43
0.0
 44
0.0
 50
0.0
 51
0.0
 71
     0
 72
   100
 73
     1
 74
     3
 75
     0
 76
     0
 77
     0
 78
     0
  0
ENDTAB
  0
TABLE
  2
LTYPE
 70
    14
  0
LTYPE
  2
CONTINUOUS
 70
     0
  3
Solid line
 72
    65
 73
     0
 40
0.0
  0
LTYPE
  2
AM_ISO02W050
 70
     0
  3
__ __ __ __ __ __ __ __ __ __ __ __ __ __ __
 72
    65
 73
     2
 40
7.5
 49
6.0
 49
-1.5
  0
LTYPE
  2
AM_ISO08W050
 70
     0
  3
____ . ____ . ____ . ____ . ____ . ____ . ____
 72
    65
 73
     4
 40
18.0
 49
12.0
 49
-1.5
 49
3.0
 49
-1.5
  0
LTYPE
  2
AM_ISO09W050
 70
     0
  3
_____ . . _____ . . _____ . . ____ .. ____
 72
    65
 73
     6
 40
22.5
 49
12.0
 49
-1.5
 49
3.0
 49
-1.5
 49
3.0
 49
-1.5
  0
LTYPE
  2
AMCONSTR
 70
     0
  3
_______________________
 72
    65
 73
     2
 40
9999.0
 49
9999.0
 49
0.0
  0
LTYPE
  2
AM_ISO08W050X2
 70
     0
  3
__ . __ . __ . __ . __ . __
 72
    65
 73
     4
 40
9.0
 49
6.0
 49
-0.75
 49
1.5
 49
-0.75
  0
LTYPE
  2
AM_ISO02W050X2
 70
     0
  3
 _ _ _ _ _ _ _ _ _ _ _ _
 72
    65
 73
     2
 40
3.75
 49
3.0
 49
-0.75
  0
LTYPE
  2
AMZIGZAG
 70
     0
  3
/\/-/\/-/\/-/\/-/\/-/\/
 72
    65
 73
     2
 40
11.0001
 49
0.0001
 49
-11.0
  0
LTYPE
  2
ACISOWELD
 70
     0
  3
_ _ _ _ _
 72
    65
 73
     2
 40
2.0
 49
2.0
 49
-1.0
  0
LTYPE
  2
ACISOTGB
 70
     0
  3
__ . . __ . .
 72
    65
 73
     6
 40
9.0
 49
4.0
 49
-1.0
 49
1.0
 49
-1.0
 49
1.0
 49
-1.0
  0
LTYPE
  2
ACISOTGL
 70
     0
  3
_ _ _ _ _
 72
    65
 73
     2
 40
3.0
 49
2.0
 49
-1.0
  0
LTYPE
  2
CENTER
 70
     0
  3
__ . __
 72
    65
 73
     4
 40
7.0
 49
4.0
 49
-1.0
 49
1.0
 49
-1.0
  0
LTYPE
  2
HIDDEN
 70
     0
  3
Hidden __ __ __ __ __ __ __ __ __ __ __ __ __ _
 72
    65
 73
     2
 40
9.5249999999999986
 49
6.3499999999999988
 49
-3.1749999999999989
  0
LTYPE
  2
PHANTOM2
 70
     0
  3
Phantom (.5x) ___ _ _ ___ _ _ ___ _ _ ___ _ _
 72
    65
 73
     6
 40
31.75
 49
15.875
 49
-3.1749999999999989
 49
3.1749999999999989
 49
-3.1749999999999989
 49
3.1749999999999989
 49
-3.1749999999999989
  0
ENDTAB
  0
TABLE
  2
LAYER
 70
     8
  0
LAYER
  2
0
 70
     0
 62
     7
  6
CONTINUOUS
  0
LAYER
  2
DEFPOINTS
 70
     0
 62
     7
  6
CONTINUOUS
  0
LAYER
  2
AM_7
 70
     0
 62
     1
  6
CENTER
  0
LAYER
  2
AM_VIS
 70
     0
 62
     7
  6
CONTINUOUS
  0
LAYER
  2
AM_5
 70
     0
 62
     5
  6
CONTINUOUS
  0
LAYER
  2
LOGO
 70
     0
 62
     7
  6
CONTINUOUS
  0
LAYER
  2
SL
 70
     0
 62
     4
  6
CONTINUOUS
  0
LAYER
  2
AM_4
 70
     0
 62
     3
  6
CONTINUOUS
  0
ENDTAB
  0
TABLE
  2
STYLE
 70
     7
  0
STYLE
  2
STANDARD
 70
     0
 40
0.0
 41
1.0
 50
0.0
 71
     0
 42
3.0
  3
ISOCP.SHX
  4
CHINESET.SHX
  0
STYLE
  2

 70
     1
 40
0.0
 41
1.0
 50
0.0
 71
     0
 42
2.5
  3
ltypeshp.shx
  4

  0
STYLE
  2
ACISOTS
 70
     0
 40
1.0
 41
1.0
 50
0.0
 71
     0
 42
1.0
  3
isocp.shx
  4
chineset.shx
  0
STYLE
  2
ACISOGDT
 70
     0
 40
0.0
 41
1.0
 50
0.0
 71
     0
 42
2.5
  3
amgdt.shx
  4
chineset.shx
  0
STYLE
  2
CHINESET
 70
     0
 40
0.0
 41
1.0
 50
0.0
 71
     0
 42
3.0
  3
simplex.shx
  4
CHINESET.SHX
  0
STYLE
  2
DAYUS
 70
     0
 40
0.0
 41
1.0
 50
0.0
 71
     0
 42
2.3100000000000001
  3
simplex.shx
  4
dayus.shx
  0
ENDTAB
  0
TABLE
  2
VIEW
 70
     0
  0
ENDTAB
  0
TABLE
  2
UCS
 70
     0
  0
ENDTAB
  0
TABLE
  2
APPID
 70
    26
  0
APPID
  2
ACAD
 70
     0
  0
APPID
  2
MCAD_NO_VIS
 70
     0
  0
APPID
  2
ACAD_TEMP_GRAPHIC
 70
     0
  0
APPID
  2
ACATTRIBSERVICES
 70
     0
  0
APPID
  2
AD_DRAW
 70
     0
  0
APPID
  2
DESIGNERASSEMBLIES
 70
     0
  0
APPID
  2
ACADM_DIM_EDIT
 70
     0
  0
APPID
  2
AMDT_DM_ADJ
 70
     0
  0
APPID
  2
ACAD_DSTYLE_DIMTEXT_FILL
 70
     0
  0
APPID
  2
GENIUS_GENOENT_13
 70
     0
  0
APPID
  2
GENIUS_GENOBJ-N-CRS_13
 70
     0
  0
APPID
  2
GENIUS_GENOLIS_13
 70
     0
  0
APPID
  2
GENIUS_GENODEF_13
 70
     0
  0
APPID
  2
GENIUS_GENOREF_13
 70
     0
  0
APPID
  2
ACAD_PSEXT
 70
     0
  0
APPID
  2
GENIUS_GENDTOL_13
 70
     0
  0
APPID
  2
GENIUS_GENREC_14
 70
     0
  0
APPID
  2
GENIUS_GENOBJ-N-REC_13
 70
     0
  0
APPID
  2
ACAECLAYERSTANDARD
 70
     0
  0
APPID
  2
GENIUS_GENOBJ-N-CEN_13
 70
     0
  0
APPID
  2
GENIUS_GENCEN_19
 70
     0
  0
APPID
  2
GEVID1159932960
 70
     0
  0
APPID
  2
GEVDC
 70
     0
  0
APPID
  2
AMG_2DHIDE
 70
     0
  0
APPID
  2
AMG_2DSTRUCT_BTR
 70
     0
  0
APPID
  2
ACADM_2DVIEW_IGN_NOTIFY
 70
     0
  0
ENDTAB
  0
TABLE
  2
DIMSTYLE
 70
    11
  0
DIMSTYLE
  2
AM_ISO
 70
     0
  3

  4
"
  5

  6

  7

 40
1.0
 41
3.5
 42
1.0
 43
8.0
 44
1.0
 45
0.0
 46
0.0
 47
0.1
 48
0.1
140
3.5
141
0.0
142
0.0
143
0.0393701
144
1.0
145
0.0
146
0.6
147
1.0
 71
     0
 72
     0
 73
     0
 74
     0
 75
     0
 76
     0
 77
     1
 78
     8
170
     0
171
     2
172
     1
173
     0
174
     0
175
     0
176
   256
177
   256
178
   256
  0
DIMSTYLE
  2
AM_ISO$3
 70
     0
  3

  4
"
  5

  6

  7

 40
1.0
 41
3.5
 42
1.0
 43
8.0
 44
1.0
 45
0.0
 46
0.0
 47
0.1
 48
0.1
140
3.5
141
0.0
142
0.0
143
0.0393701
144
1.0
145
0.0
146
0.6
147
1.0
 71
     0
 72
     0
 73
     0
 74
     1
 75
     0
 76
     0
 77
     1
 78
     8
170
     0
171
     2
172
     0
173
     0
174
     0
175
     0
176
   256
177
   256
178
   256
  0
DIMSTYLE
  2
AM_ISO$4
 70
     0
  3

  4
"
  5

  6

  7

 40
1.0
 41
3.5
 42
1.0
 43
8.0
 44
1.0
 45
0.0
 46
0.0
 47
0.1
 48
0.1
140
3.5
141
0.0
142
0.0
143
0.0393701
144
1.0
145
0.0
146
0.6
147
1.0
 71
     0
 72
     0
 73
     0
 74
     1
 75
     0
 76
     0
 77
     1
 78
     8
170
     0
171
     2
172
     0
173
     0
174
     0
175
     0
176
   256
177
   256
178
   256
  0
DIMSTYLE
  2
AM_ISO$6
 70
     0
  3

  4
"
  5

  6

  7

 40
1.0
 41
3.5
 42
1.0
 43
8.0
 44
1.0
 45
0.0
 46
0.0
 47
0.1
 48
0.1
140
3.5
141
0.0
142
0.0
143
0.0393701
144
1.0
145
0.0
146
0.6
147
1.0
 71
     0
 72
     0
 73
     0
 74
     0
 75
     0
 76
     0
 77
     0
 78
     8
170
     0
171
     2
172
     1
173
     0
174
     0
175
     0
176
   256
177
   256
178
   256
  0
DIMSTYLE
  2
AM_ISO$7
 70
     0
  3

  4
"
  5

  6

  7

 40
1.0
 41
3.5
 42
1.0
 43
8.0
 44
1.0
 45
0.0
 46
0.0
 47
0.1
 48
0.1
140
5.0
141
0.0
142
0.0
143
0.0393701
144
1.0
145
0.0
146
0.6
147
1.0
 71
     0
 72
     0
 73
     0
 74
     0
 75
     0
 76
     0
 77
     1
 78
     8
170
     0
171
     2
172
     1
173
     0
174
     0
175
     0
176
   256
177
   256
178
   256
  0
DIMSTYLE
  2
AM_ISO$SF
 70
     0
  3

  4
"
  5

  6

  7

 40
1.0
 41
2.5
 42
1.0
 43
10.0
 44
1.0
 45
0.0
 46
0.0
 47
0.1
 48
0.1
140
3.5
141
0.0
142
0.0
143
0.0393701
144
1.0
145
0.0
146
0.71
147
1.5
 71
     0
 72
     0
 73
     0
 74
     0
 75
     1
 76
     1
 77
     1
 78
     8
170
     0
171
     2
172
     1
173
     0
174
     0
175
     0
176
   256
177
   256
178
     2
  0
DIMSTYLE
  2
AM_ISO$SH
 70
     0
  3

  4
"
  5

  6
GENAXEH
  7

 40
1.0
 41
2.5
 42
1.0
 43
10.0
 44
1.0
 45
0.0
 46
0.0
 47
0.1
 48
0.1
140
3.5
141
0.0
142
0.0
143
0.0393701
144
2.0
145
0.0
146
0.71
147
1.5
 71
     0
 72
     0
 73
     0
 74
     0
 75
     1
 76
     1
 77
     1
 78
     8
170
     0
171
     2
172
     1
173
     1
174
     0
175
     0
176
   256
177
   256
178
     2
  0
DIMSTYLE
  2
AM_ISO$0
 70
     0
  3

  4
"
  5

  6

  7

 40
1.0
 41
3.5
 42
1.0
 43
8.0
 44
1.0
 45
0.0
 46
0.0
 47
0.1
 48
0.1
140
3.5
141
0.0
142
0.0
143
0.0393701
144
1.0
145
0.0
146
0.6
147
1.0
 71
     0
 72
     0
 73
     0
 74
     0
 75
     0
 76
     0
 77
     1
 78
     8
170
     0
171
     2
172
     1
173
     0
174
     0
175
     0
176
   256
177
   256
178
   256
  0
DIMSTYLE
  2
AM_ANSI
 70
     0
  3

  4
"
  5

  6

  7

 40
0.7692307692307692
 41
3.0
 42
1.5
 43
5.7142799999999996
 44
2.0
 45
0.0
 46
0.0
 47
0.1
 48
0.1
140
3.0
141
0.0
142
0.0
143
0.0393701
144
1.0
145
0.0
146
0.6
147
0.8
 71
     0
 72
     0
 73
     0
 74
     0
 75
     0
 76
     0
 77
     3
 78
     8
170
     0
171
     2
172
     1
173
     0
174
     0
175
     0
176
   256
177
   256
178
   256
  0
DIMSTYLE
  2
AM_ANSI$3
 70
     0
  3

  4
"
  5

  6

  7

 40
0.7692307692307692
 41
3.0
 42
1.5
 43
5.7142799999999996
 44
2.0
 45
0.0
 46
0.0
 47
0.1
 48
0.1
140
3.0
141
0.0
142
0.0
143
0.0393701
144
1.0
145
0.0
146
0.6
147
0.8
 71
     0
 72
     0
 73
     0
 74
     0
 75
     0
 76
     0
 77
     3
 78
     8
170
     0
171
     2
172
     1
173
     0
174
     0
175
     0
176
   256
177
   256
178
   256
  0
ENDTAB
  0
ENDSEC
  0
SECTION
  2
BLOCKS
  0
BLOCK
  8
0
  2
$MODEL_SPACE
 70
     0
 10
0.0
 20
0.0
 30
0.0
  3
$MODEL_SPACE
  1

  0
ENDBLK
  5
21
  8
0
  0
BLOCK
 67
     1
  8
0
  2
$PAPER_SPACE
 70
     0
 10
0.0
 20
0.0
 30
0.0
  3
$PAPER_SPACE
  1

  0
ENDBLK
  5
1D
 67
     1
  8
0
  0
BLOCK
  8
0
  2
GENAXEH
 70
     0
 10
0.0
 20
0.0
 30
0.0
  3
GENAXEH
  1

  0
LINE
  5
88
  8
0
 10
-1.0
 20
0.0
 30
0.0
 11
1.0
 21
0.0
 31
0.0
  0
ENDBLK
  5
8A
  8
0
  0
BLOCK
  8
0
  2
A$C6EA13D03
 70
     0
 10
0.0
 20
0.0
 30
0.0
  3
A$C6EA13D03
  1

  0
CIRCLE
  5
ABC
  8
0
 10
-1.6787168025275601
 20
1.5537358360913911
 30
0.0
 40
0.5114189482687835
  0
CIRCLE
  5
ABD
  8
0
 10
-1.6787168025275601
 20
1.5537358360913911
 30
0.0
 40
0.8573095028873468
  0
ENDBLK
  5
ABE
  8
0
  0
BLOCK
  8
0
  2
A$C5E79093D
 70
     0
 10
0.0
 20
0.0
 30
0.0
  3
A$C5E79093D
  1

  0
LINE
  5
1527
  8
0
 62
     4
 10
30.000000000000458
 20
22.694203062485322
 30
0.0
 11
30.000000000000458
 21
35.200793156498378
 31
0.0
  0
TEXT
  5
1528
  8
0
 62
     4
 10
29.36967310213868
 20
38.369276084597288
 30
0.0
 40
3.0
  1
2
 41
0.75
  7
CHINESET
  0
LINE
  5
1529
  8
0
 62
     4
 10
46.000000000000448
 20
22.694203062485322
 30
0.0
 11
46.000000000000448
 21
35.200793156498378
 31
0.0
  0
TEXT
  5
152A
  8
0
 62
     4
 10
45.36967310213867
 20
38.369276084597288
 30
0.0
 40
3.0
  1
3
 41
0.75
  7
CHINESET
  0
LINE
  5
152B
  8
0
 62
     4
 10
62.000000000000448
 20
22.694203062485322
 30
0.0
 11
62.000000000000448
 21
35.200793156498378
 31
0.0
  0
TEXT
  5
152C
  8
0
 62
     4
 10
61.369673102138677
 20
38.369276084597288
 30
0.0
 40
3.0
  1
4
 41
0.75
  7
CHINESET
  0
LINE
  5
152D
  8
0
 62
     4
 10
78.000000000000455
 20
22.694203062485322
 30
0.0
 11
78.000000000000455
 21
35.200793156498378
 31
0.0
  0
TEXT
  5
152E
  8
0
 62
     4
 10
77.369673102138677
 20
38.369276084597288
 30
0.0
 40
3.0
  1
5
 41
0.75
  7
CHINESET
  0
LINE
  5
152F
  8
0
 62
     4
 10
94.000000000000455
 20
22.694203062485322
 30
0.0
 11
94.000000000000455
 21
35.200793156498378
 31
0.0
  0
TEXT
  5
1530
  8
0
 62
     4
 10
93.369673102138677
 20
38.369276084597288
 30
0.0
 40
3.0
  1
6
 41
0.75
  7
CHINESET
  0
LINE
  5
1531
  8
0
 62
     4
 10
110.0000000000004
 20
22.694203062485322
 30
0.0
 11
110.0000000000004
 21
35.200793156498378
 31
0.0
  0
TEXT
  5
1532
  8
0
 62
     4
 10
109.36967310213861
 20
38.369276084597288
 30
0.0
 40
3.0
  1
7
 41
0.75
  7
CHINESET
  0
LINE
  5
1533
  8
0
 62
     4
 10
126.0000000000004
 20
22.694203062485322
 30
0.0
 11
126.0000000000004
 21
35.200793156498378
 31
0.0
  0
TEXT
  5
1534
  8
0
 62
     4
 10
125.36967310213871
 20
38.369276084597288
 30
0.0
 40
3.0
  1
8
 41
0.75
  7
CHINESET
  0
LINE
  5
1535
  8
0
 62
     4
 10
142.0000000000004
 20
22.694203062485322
 30
0.0
 11
142.0000000000004
 21
35.200793156498378
 31
0.0
  0
TEXT
  5
1536
  8
0
 62
     4
 10
141.36967310213871
 20
38.369276084597288
 30
0.0
 40
3.0
  1
9
 41
0.75
  7
CHINESET
  0
LINE
  5
1537
  8
0
 62
     4
 10
158.0000000000004
 20
22.694203062485322
 30
0.0
 11
158.0000000000004
 21
35.200793156498378
 31
0.0
  0
TEXT
  5
1538
  8
0
 62
     4
 10
157.36967310213859
 20
38.369276084597288
 30
0.0
 40
3.0
  1
10
 41
0.75
  7
CHINESET
  0
ENDBLK
  5
153C
  8
0
  0
BLOCK
  8
0
  2
*D4
 70
     1
 10
0.0
 20
0.0
 30
0.0
  3
*D4
  1

  0
LINE
  5
2166
  8
AM_5
 10
307.08031284414938
 20
252.34873412383931
 30
0.0
 11
307.08031284414938
 21
224.59873412383931
 31
0.0
  0
LINE
  5
2167
  8
AM_5
 10
297.08031284414938
 20
236.59873412383939
 30
0.0
 11
297.08031284414938
 21
224.59873412383931
 31
0.0
  0
LINE
  5
2168
  8
AM_5
 10
303.58031284414938
 20
225.59873412383931
 30
0.0
 11
300.58031284414938
 21
225.59873412383931
 31
0.0
  0
SOLID
  5
2169
  8
AM_5
 10
303.58031284414938
 20
226.18206745717271
 30
0.0
 11
303.58031284414938
 21
225.01540079050599
 31
0.0
 12
307.08031284414938
 22
225.59873412383931
 32
0.0
 13
307.08031284414938
 23
225.59873412383931
 33
0.0
  0
SOLID
  5
216A
  8
AM_5
 10
300.58031284414938
 20
226.18206745717271
 30
0.0
 11
300.58031284414938
 21
225.01540079050599
 31
0.0
 12
297.08031284414938
 22
225.59873412383931
 32
0.0
 13
297.08031284414938
 23
225.59873412383931
 33
0.0
  0
INSERT
  5
216B
  8
0
  2
*U21
 10
0.0
 20
0.0
 30
0.0
  0
POINT
  5
216C
  8
DEFPOINTS
 62
     0
 10
307.08031284414938
 20
253.34873412383939
 30
0.0
  0
POINT
  5
216D
  8
DEFPOINTS
 62
     0
 10
297.08031284414938
 20
237.59873412383931
 30
0.0
  0
POINT
  5
216E
  8
DEFPOINTS
 62
     0
 10
297.08031284414938
 20
225.59873412383931
 30
0.0
  0
ENDBLK
  5
1A9B
  8
0
  0
BLOCK
  8
0
  2
*D5
 70
     1
 10
0.0
 20
0.0
 30
0.0
  3
*D5
  1

  0
LINE
  5
22F0
  8
AM_5
 10
307.08031284414938
 20
252.34873412383931
 30
0.0
 11
307.08031284414938
 21
224.59873412383931
 31
0.0
  0
LINE
  5
22F1
  8
AM_5
 10
347.08031284414938
 20
252.34873412383931
 30
0.0
 11
347.08031284414938
 21
224.59873412383931
 31
0.0
  0
LINE
  5
22F2
  8
AM_5
 10
310.58031284414938
 20
225.59873412383931
 30
0.0
 11
343.58031284414938
 21
225.59873412383931
 31
0.0
  0
SOLID
  5
22F3
  8
AM_5
 10
310.58031284414938
 20
226.18206745717271
 30
0.0
 11
310.58031284414938
 21
225.01540079050599
 31
0.0
 12
307.08031284414938
 22
225.59873412383931
 32
0.0
 13
307.08031284414938
 23
225.59873412383931
 33
0.0
  0
SOLID
  5
22F4
  8
AM_5
 10
343.58031284414938
 20
226.18206745717271
 30
0.0
 11
343.58031284414938
 21
225.01540079050599
 31
0.0
 12
347.08031284414938
 22
225.59873412383931
 32
0.0
 13
347.08031284414938
 23
225.59873412383931
 33
0.0
  0
INSERT
  5
22F5
  8
0
  2
*U33
 10
0.0
 20
0.0
 30
0.0
  0
POINT
  5
22F6
  8
DEFPOINTS
 62
     0
 10
307.08031284414938
 20
253.34873412383939
 30
0.0
  0
POINT
  5
22F7
  8
DEFPOINTS
 62
     0
 10
347.08031284414938
 20
253.34873412383939
 30
0.0
  0
POINT
  5
22F8
  8
DEFPOINTS
 62
     0
 10
347.08031284414938
 20
225.59873412383931
 30
0.0
  0
ENDBLK
  5
1AA7
  8
0
  0
BLOCK
  8
0
  2
*D6
 70
     1
 10
0.0
 20
0.0
 30
0.0
  3
*D6
  1

  0
LINE
  5
22FA
  8
AM_5
 10
297.08031284414938
 20
236.59873412383939
 30
0.0
 11
297.08031284414938
 21
216.59873412383931
 31
0.0
  0
LINE
  5
22FB
  8
AM_5
 10
357.08031284414938
 20
236.59873412383939
 30
0.0
 11
357.08031284414938
 21
216.59873412383931
 31
0.0
  0
LINE
  5
22FC
  8
AM_5
 10
300.58031284414938
 20
217.59873412383931
 30
0.0
 11
353.58031284414938
 21
217.59873412383931
 31
0.0
  0
SOLID
  5
22FD
  8
AM_5
 10
300.58031284414938
 20
218.18206745717271
 30
0.0
 11
300.58031284414938
 21
217.01540079050599
 31
0.0
 12
297.08031284414938
 22
217.59873412383931
 32
0.0
 13
297.08031284414938
 23
217.59873412383931
 33
0.0
  0
SOLID
  5
22FE
  8
AM_5
 10
353.58031284414938
 20
218.18206745717271
 30
0.0
 11
353.58031284414938
 21
217.01540079050599
 31
0.0
 12
357.08031284414938
 22
217.59873412383931
 32
0.0
 13
357.08031284414938
 23
217.59873412383931
 33
0.0
  0
INSERT
  5
22FF
  8
0
  2
*U34
 10
0.0
 20
0.0
 30
0.0
  0
POINT
  5
2300
  8
DEFPOINTS
 62
     0
 10
297.08031284414938
 20
237.59873412383931
 30
0.0
  0
POINT
  5
2301
  8
DEFPOINTS
 62
     0
 10
357.08031284414938
 20
237.59873412383931
 30
0.0
  0
POINT
  5
2302
  8
DEFPOINTS
 62
     0
 10
357.08031284414938
 20
217.59873412383931
 30
0.0
  0
ENDBLK
  5
1ACB
  8
0
  0
BLOCK
  8
0
  2
*D7
 70
     1
 10
0.0
 20
0.0
 30
0.0
  3
*D7
  1

  0
LINE
  5
21F6
  8
AM_5
 10
352.33031284414938
 20
277.59873412383928
 30
0.0
 11
365.33085892891432
 21
277.59873412383928
 31
0.0
  0
LINE
  5
21F7
  8
AM_5
 10
352.33031284414938
 20
257.59873412383939
 30
0.0
 11
365.33085892891432
 21
257.59873412383939
 31
0.0
  0
LINE
  5
21F8
  8
AM_5
 10
364.33085892891432
 20
274.09873412383939
 30
0.0
 11
364.33085892891432
 21
261.09873412383928
 31
0.0
  0
SOLID
  5
21F9
  8
AM_5
 10
363.74752559558101
 20
274.09873412383939
 30
0.0
 11
364.91419226224758
 21
274.09873412383939
 31
0.0
 12
364.33085892891432
 22
277.59873412383928
 32
0.0
 13
364.33085892891432
 23
277.59873412383928
 33
0.0
  0
SOLID
  5
21FA
  8
AM_5
 10
363.74752559558101
 20
261.09873412383928
 30
0.0
 11
364.91419226224758
 21
261.09873412383928
 31
0.0
 12
364.33085892891432
 22
257.59873412383939
 32
0.0
 13
364.33085892891432
 23
257.59873412383939
 33
0.0
  0
INSERT
  5
21FB
  8
0
  2
*U29
 10
0.0
 20
0.0
 30
0.0
  0
POINT
  5
21FC
  8
DEFPOINTS
 62
     0
 10
351.33031284414938
 20
277.59873412383928
 30
0.0
  0
POINT
  5
21FD
  8
DEFPOINTS
 62
     0
 10
351.33031284414938
 20
257.59873412383939
 30
0.0
  0
POINT
  5
21FE
  8
DEFPOINTS
 62
     0
 10
364.33085892891432
 20
257.59873412383939
 30
0.0
  0
ENDBLK
  5
1AE3
  8
0
  0
BLOCK
  8
0
  2
*D8
 70
     1
 10
0.0
 20
0.0
 30
0.0
  3
*D8
  1

  0
LINE
  5
232E
  8
AM_5
 10
390.58622502954682
 20
235.12072183029929
 30
0.0
 11
366.91452173284318
 21
235.1207218302992
 31
0.0
  0
LINE
  5
232F
  8
AM_5
 10
366.91452173284318
 20
235.1207218302992
 30
0.0
 11
350.09583784655018
 21
254.18125433143459
 31
0.0
  0
TEXT
  8
AM_5
  40
2.30769
  5
236C
  72
0
  71
0
 10
374.443
 20
232.805
 30
0.000000
  1
2×2-%%c4.5貫通
  7
DAYUS
  0
SOLID
  5
2331
  8
AM_5
 10
350.38423276574048
 20
254.43572901518141
 30
0.0
 11
349.80744292736011
 21
253.92677964768771
 31
0.0
 12
348.56898974406892
 22
255.91162384657611
 32
0.0
 13
348.56898974406892
 23
255.91162384657611
 33
0.0
  0
POINT
  5
2332
  8
DEFPOINTS
 62
     0
 10
348.56898974406892
 20
255.91162384657611
 30
0.0
  0
POINT
  5
2333
  8
DEFPOINTS
 62
     0
 10
345.59163594423018
 20
259.285844401102
 30
0.0
  0
ENDBLK
  5
1AEF
  8
0
  0
BLOCK
  8
0
  2
*D9
 70
     1
 10
0.0
 20
0.0
 30
0.0
  3
*D9
  1

  0
LINE
  5
225F
  8
AM_5
 10
293.90397927422168
 20
267.59873412383939
 30
0.0
 11
289.83031284414938
 21
267.59873412383939
 31
0.0
  0
LINE
  5
2260
  8
AM_5
 10
320.58081284414942
 20
285.59873412383928
 30
0.0
 11
289.83031284414938
 21
285.59873412383928
 31
0.0
  0
LINE
  5
2261
  8
AM_5
 10
290.83031284414938
 20
271.09873412383951
 30
0.0
 11
290.83031284414938
 21
282.09873412383928
 31
0.0
  0
SOLID
  5
2262
  8
AM_5
 10
290.246979510816
 20
271.09873412383951
 30
0.0
 11
291.41364617748269
 21
271.09873412383951
 31
0.0
 12
290.83031284414938
 22
267.59873412383939
 32
0.0
 13
290.83031284414938
 23
267.59873412383939
 33
0.0
  0
SOLID
  5
2263
  8
AM_5
 10
290.246979510816
 20
282.09873412383928
 30
0.0
 11
291.41364617748269
 21
282.09873412383928
 31
0.0
 12
290.83031284414938
 22
285.59873412383928
 32
0.0
 13
290.83031284414938
 23
285.59873412383928
 33
0.0
  0
INSERT
  5
2264
  8
0
  2
*U32
 10
0.0
 20
0.0
 30
0.0
  0
POINT
  5
2265
  8
DEFPOINTS
 62
     0
 10
294.90397927422168
 20
267.59873412383939
 30
0.0
  0
POINT
  5
2266
  8
DEFPOINTS
 62
     0
 10
321.58081284414942
 20
285.59873412383928
 30
0.0
  0
POINT
  5
2267
  8
DEFPOINTS
 62
     0
 10
290.83031284414938
 20
285.59873412383928
 30
0.0
  0
ENDBLK
  5
1B47
  8
0
  0
BLOCK
  8
0
  2
*D10
 70
     1
 10
0.0
 20
0.0
 30
0.0
  3
*D10
  1

  0
LINE
  5
2256
  8
AM_5
 10
292.90397927422168
 20
267.59873412383939
 30
0.0
 11
289.83031284414938
 21
267.59873412383939
 31
0.0
  0
LINE
  5
2257
  8
AM_5
 10
308.98081284414928
 20
249.59873412383931
 30
0.0
 11
289.83031284414938
 21
249.59873412383931
 31
0.0
  0
LINE
  5
2258
  8
AM_5
 10
290.83031284414938
 20
264.09873412383939
 30
0.0
 11
290.83031284414938
 21
253.09873412383931
 31
0.0
  0
SOLID
  5
2259
  8
AM_5
 10
290.246979510816
 20
264.09873412383939
 30
0.0
 11
291.41364617748269
 21
264.09873412383939
 31
0.0
 12
290.83031284414938
 22
267.59873412383939
 32
0.0
 13
290.83031284414938
 23
267.59873412383939
 33
0.0
  0
SOLID
  5
225A
  8
AM_5
 10
290.246979510816
 20
253.09873412383931
 30
0.0
 11
291.41364617748269
 21
253.09873412383931
 31
0.0
 12
290.83031284414938
 22
249.59873412383931
 32
0.0
 13
290.83031284414938
 23
249.59873412383931
 33
0.0
  0
INSERT
  5
225B
  8
0
  2
*U31
 10
0.0
 20
0.0
 30
0.0
  0
POINT
  5
225C
  8
DEFPOINTS
 62
     0
 10
293.90397927422168
 20
267.59873412383939
 30
0.0
  0
POINT
  5
225D
  8
DEFPOINTS
 62
     0
 10
309.98081284414928
 20
249.59873412383931
 30
0.0
  0
POINT
  5
225E
  8
DEFPOINTS
 62
     0
 10
290.83031284414938
 20
249.59873412383931
 30
0.0
  0
ENDBLK
  5
1B53
  8
0
  0
BLOCK
  8
0
  2
*D11
 70
     1
 10
0.0
 20
0.0
 30
0.0
  3
*D11
  1

  0
LINE
  5
21B4
  8
AM_5
 10
244.0772969147898
 20
236.8987341238394
 30
0.0
 11
244.0772969147898
 21
216.59873412383951
 31
0.0
  0
LINE
  5
21B5
  8
AM_5
 10
260.57729691478983
 20
255.09873412383939
 30
0.0
 11
260.57729691478983
 21
216.59873412383951
 31
0.0
  0
LINE
  5
21B6
  8
AM_5
 10
247.5772969147898
 20
217.59873412383939
 30
0.0
 11
257.07729691478983
 21
217.59873412383939
 31
0.0
  0
SOLID
  5
21B7
  8
AM_5
 10
247.5772969147898
 20
218.18206745717279
 30
0.0
 11
247.5772969147898
 21
217.01540079050611
 31
0.0
 12
244.0772969147898
 22
217.59873412383939
 32
0.0
 13
244.0772969147898
 23
217.59873412383939
 33
0.0
  0
SOLID
  5
21B8
  8
AM_5
 10
257.07729691478983
 20
218.18206745717279
 30
0.0
 11
257.07729691478983
 21
217.01540079050611
 31
0.0
 12
260.57729691478983
 22
217.59873412383939
 32
0.0
 13
260.57729691478983
 23
217.59873412383939
 33
0.0
  0
INSERT
  5
21B9
  8
0
  2
*U22
 10
0.0
 20
0.0
 30
0.0
  0
POINT
  5
21BA
  8
DEFPOINTS
 62
     0
 10
244.0772969147898
 20
237.8987341238394
 30
0.0
  0
POINT
  5
21BB
  8
DEFPOINTS
 62
     0
 10
260.57729691478983
 20
256.09873412383939
 30
0.0
  0
POINT
  5
21BC
  8
DEFPOINTS
 62
     0
 10
260.57729691478983
 20
217.59873412383939
 30
0.0
  0
ENDBLK
  5
1B8E
  8
0
  0
BLOCK
  8
0
  2
*D12
 70
     1
 10
0.0
 20
0.0
 30
0.0
  3
*D12
  1

  0
LINE
  5
21BD
  8
AM_5
 10
244.0772969147898
 20
236.8987341238394
 30
0.0
 11
244.0772969147898
 21
208.59873412383951
 31
0.0
  0
LINE
  5
21BE
  8
AM_5
 10
270.07729691478983
 20
237.59873412383951
 30
0.0
 11
270.07729691478983
 21
208.59873412383951
 31
0.0
  0
LINE
  5
21BF
  8
AM_5
 10
247.5772969147898
 20
209.59873412383939
 30
0.0
 11
266.57729691478983
 21
209.59873412383939
 31
0.0
  0
SOLID
  5
21C0
  8
AM_5
 10
247.5772969147898
 20
210.18206745717279
 30
0.0
 11
247.5772969147898
 21
209.01540079050611
 31
0.0
 12
244.0772969147898
 22
209.59873412383939
 32
0.0
 13
244.0772969147898
 23
209.59873412383939
 33
0.0
  0
SOLID
  5
21C1
  8
AM_5
 10
266.57729691478983
 20
210.18206745717279
 30
0.0
 11
266.57729691478983
 21
209.01540079050611
 31
0.0
 12
270.07729691478983
 22
209.59873412383939
 32
0.0
 13
270.07729691478983
 23
209.59873412383939
 33
0.0
  0
INSERT
  5
21C2
  8
0
  2
*U23
 10
0.0
 20
0.0
 30
0.0
  0
POINT
  5
21C3
  8
DEFPOINTS
 62
     0
 10
244.0772969147898
 20
237.8987341238394
 30
0.0
  0
POINT
  5
21C4
  8
DEFPOINTS
 62
     0
 10
270.07729691478983
 20
238.59873412383939
 30
0.0
  0
POINT
  5
21C5
  8
DEFPOINTS
 62
     0
 10
270.07729691478983
 20
209.59873412383939
 30
0.0
  0
ENDBLK
  5
1B9A
  8
0
  0
BLOCK
  8
0
  2
*D13
 70
     1
 10
0.0
 20
0.0
 30
0.0
  3
*D13
  1

  0
LINE
  5
21C6
  8
AM_5
 10
248.0772969147898
 20
267.59873412383939
 30
0.0
 11
235.75786060779259
 21
267.59873412383939
 31
0.0
  0
LINE
  5
21C7
  8
AM_5
 10
243.0772969147898
 20
288.59873412383939
 30
0.0
 11
235.75786060779259
 21
288.59873412383939
 31
0.0
  0
LINE
  5
21C8
  8
AM_5
 10
236.75786060779259
 20
271.09873412383951
 30
0.0
 11
236.75786060779259
 21
285.09873412383939
 31
0.0
  0
SOLID
  5
21C9
  8
AM_5
 10
236.17452727445931
 20
271.09873412383951
 30
0.0
 11
237.34119394112599
 21
271.09873412383951
 31
0.0
 12
236.75786060779259
 22
267.59873412383939
 32
0.0
 13
236.75786060779259
 23
267.59873412383939
 33
0.0
  0
SOLID
  5
21CA
  8
AM_5
 10
236.17452727445931
 20
285.09873412383939
 30
0.0
 11
237.34119394112599
 21
285.09873412383939
 31
0.0
 12
236.75786060779259
 22
288.59873412383939
 32
0.0
 13
236.75786060779259
 23
288.59873412383939
 33
0.0
  0
INSERT
  5
21CB
  8
0
  2
*U24
 10
0.0
 20
0.0
 30
0.0
  0
POINT
  5
21CC
  8
DEFPOINTS
 62
     0
 10
249.0772969147898
 20
267.59873412383939
 30
0.0
  0
POINT
  5
21CD
  8
DEFPOINTS
 62
     0
 10
244.0772969147898
 20
288.59873412383939
 30
0.0
  0
POINT
  5
21CE
  8
DEFPOINTS
 62
     0
 10
236.75786060779259
 20
288.59873412383939
 30
0.0
  0
ENDBLK
  5
1BB2
  8
0
  0
BLOCK
  8
0
  2
*D14
 70
     1
 10
0.0
 20
0.0
 30
0.0
  3
*D14
  1

  0
LINE
  5
21CF
  8
AM_5
 10
248.0772969147898
 20
267.59873412383939
 30
0.0
 11
235.7578606177926
 21
267.59873412383939
 31
0.0
  0
LINE
  5
21D0
  8
AM_5
 10
243.0772969147898
 20
246.59873412383951
 30
0.0
 11
235.7578606177926
 21
246.59873412383951
 31
0.0
  0
LINE
  5
21D1
  8
AM_5
 10
236.7578606177926
 20
264.09873412383939
 30
0.0
 11
236.7578606177926
 21
250.09873412383951
 31
0.0
  0
SOLID
  5
21D2
  8
AM_5
 10
236.17452728445929
 20
264.09873412383939
 30
0.0
 11
237.341193951126
 21
264.09873412383939
 31
0.0
 12
236.7578606177926
 22
267.59873412383939
 32
0.0
 13
236.7578606177926
 23
267.59873412383939
 33
0.0
  0
SOLID
  5
21D3
  8
AM_5
 10
236.17452728445929
 20
250.09873412383951
 30
0.0
 11
237.341193951126
 21
250.09873412383951
 31
0.0
 12
236.7578606177926
 22
246.59873412383951
 32
0.0
 13
236.7578606177926
 23
246.59873412383951
 33
0.0
  0
INSERT
  5
21D4
  8
0
  2
*U25
 10
0.0
 20
0.0
 30
0.0
  0
POINT
  5
21D5
  8
DEFPOINTS
 62
     0
 10
249.0772969147898
 20
267.59873412383939
 30
0.0
  0
POINT
  5
21D6
  8
DEFPOINTS
 62
     0
 10
244.0772969147898
 20
246.59873412383951
 30
0.0
  0
POINT
  5
21D7
  8
DEFPOINTS
 62
     0
 10
236.7578606177926
 20
246.59873412383951
 30
0.0
  0
ENDBLK
  5
1BBE
  8
0
  0
BLOCK
  8
0
  2
*D15
 70
     1
 10
0.0
 20
0.0
 30
0.0
  3
*D15
  1

  0
LINE
  5
21D8
  8
AM_5
 10
243.37729691478989
 20
297.59873412383939
 30
0.0
 11
229.4776648484989
 21
297.59873412383939
 31
0.0
  0
LINE
  5
21D9
  8
AM_5
 10
243.37729691478989
 20
237.59873412383951
 30
0.0
 11
229.4776648484989
 21
237.59873412383951
 31
0.0
  0
LINE
  5
21DA
  8
AM_5
 10
230.4776648484989
 20
294.09873412383951
 30
0.0
 11
230.4776648484989
 21
241.09873412383939
 31
0.0
  0
SOLID
  5
21DB
  8
AM_5
 10
229.8943315151655
 20
294.09873412383951
 30
0.0
 11
231.06099818183219
 21
294.09873412383951
 31
0.0
 12
230.4776648484989
 22
297.59873412383939
 32
0.0
 13
230.4776648484989
 23
297.59873412383939
 33
0.0
  0
SOLID
  5
21DC
  8
AM_5
 10
229.8943315151655
 20
241.09873412383939
 30
0.0
 11
231.06099818183219
 21
241.09873412383939
 31
0.0
 12
230.4776648484989
 22
237.59873412383951
 32
0.0
 13
230.4776648484989
 23
237.59873412383951
 33
0.0
  0
INSERT
  5
21DD
  8
0
  2
*U26
 10
0.0
 20
0.0
 30
0.0
  0
POINT
  5
21DE
  8
DEFPOINTS
 62
     0
 10
244.37729691478989
 20
297.59873412383939
 30
0.0
  0
POINT
  5
21DF
  8
DEFPOINTS
 62
     0
 10
244.37729691478989
 20
237.59873412383951
 30
0.0
  0
POINT
  5
21E0
  8
DEFPOINTS
 62
     0
 10
230.4776648484989
 20
237.59873412383951
 30
0.0
  0
ENDBLK
  5
1BCA
  8
0
  0
BLOCK
  8
0
  2
*D16
 70
     1
 10
0.0
 20
0.0
 30
0.0
  3
*D16
  1

  0
LINE
  5
21E1
  8
AM_5
 10
244.0772969147898
 20
236.8987341238394
 30
0.0
 11
244.0772969147898
 21
224.59873412383951
 31
0.0
  0
LINE
  5
21E2
  8
AM_5
 10
255.5772969147898
 20
234.09873412383951
 30
0.0
 11
255.5772969147898
 21
224.59873412383951
 31
0.0
  0
LINE
  5
21E3
  8
AM_5
 10
247.5772969147898
 20
225.59873412383951
 30
0.0
 11
252.0772969147898
 21
225.59873412383951
 31
0.0
  0
SOLID
  5
21E4
  8
AM_5
 10
247.5772969147898
 20
226.18206745717279
 30
0.0
 11
247.5772969147898
 21
225.01540079050611
 31
0.0
 12
244.0772969147898
 22
225.59873412383951
 32
0.0
 13
244.0772969147898
 23
225.59873412383951
 33
0.0
  0
SOLID
  5
21E5
  8
AM_5
 10
252.0772969147898
 20
226.18206745717279
 30
0.0
 11
252.0772969147898
 21
225.01540079050611
 31
0.0
 12
255.5772969147898
 22
225.59873412383951
 32
0.0
 13
255.5772969147898
 23
225.59873412383951
 33
0.0
  0
INSERT
  5
21E6
  8
0
  2
*U27
 10
0.0
 20
0.0
 30
0.0
  0
POINT
  5
21E7
  8
DEFPOINTS
 62
     0
 10
244.0772969147898
 20
237.8987341238394
 30
0.0
  0
POINT
  5
21E8
  8
DEFPOINTS
 62
     0
 10
255.5772969147898
 20
235.09873412383939
 30
0.0
  0
POINT
  5
21E9
  8
DEFPOINTS
 62
     0
 10
255.5772969147898
 20
225.59873412383951
 30
0.0
  0
ENDBLK
  5
1ED5
  8
0
  0
BLOCK
  8
0
  2
*D17
 70
     1
 10
0.0
 20
0.0
 30
0.0
  3
*D17
  1

  0
LINE
  5
21EA
  8
AM_5
 10
251.16041454933929
 20
297.6578352061639
 30
0.0
 11
246.39229456769709
 21
307.4373306313139
 31
0.0
  0
LINE
  5
21EB
  8
AM_5
 10
246.39229456769709
 20
307.4373306313139
 30
0.0
 11
222.99229456769709
 21
307.4373306313139
 31
0.0
  0
SOLID
  5
21EC
  8
AM_5
 10
251.68474610972589
 20
297.9134798668951
 30
0.0
 11
250.63608298895281
 21
297.40219054543257
 31
0.0
 12
252.69428251372651
 22
294.51184584384453
 32
0.0
 13
252.69428251372651
 23
294.51184584384453
 33
0.0
  0
INSERT
  5
21ED
  8
0
  2
*U28
 10
0.0
 20
0.0
 30
0.0
  0
POINT
  5
21EE
  8
DEFPOINTS
 62
     0
 10
252.69428251372651
 20
294.51184584384453
 30
0.0
  0
POINT
  5
21EF
  8
DEFPOINTS
 62
     0
 10
255.5772969147898
 20
288.59873412383911
 30
0.0
  0
ENDBLK
  5
2027
  8
0
  0
BLOCK
  8
0
  2
A$C117B347F
 70
     0
 10
0.0
 20
0.0
 30
0.0
  3
A$C117B347F
  1

  0
LINE
  5
221A
  8
SL
 10
9.5323901535774667
 20
0.4838234405690401
 30
0.0
 11
3.7709946545206772
 21
0.4838234405690401
 31
0.0
  0
LINE
  5
221B
  8
SL
 10
3.7709946545206772
 20
0.4838234405690401
 30
0.0
 11
-0.000000055813473
 21
0.4838234405690401
 31
0.0
  0
TRACE
  5
221C
  8
SL
 10
7.6377222414751591
 20
0.9676463670439829
 30
0.0
 11
7.6377222414751591
 21
0.0000005140940971
 31
0.0
 12
11.31272224147477
 22
0.4838234405690401
 32
0.0
 13
11.31272224147477
 23
0.4838234405690401
 33
0.0
  0
INSERT
  5
221D
  8
0
  2
*U30
 10
0.0
 20
0.0
 30
0.0
  0
ENDBLK
  5
2221
  8
0
  0
BLOCK
  8
0
  2
*U21
 70
     1
 10
0.0
 20
0.0
 30
0.0
  3
*U21
  1

  0
TEXT
  5
2335
  8
AM_5
 10
299.97893489139352
 20
226.59873412383931
 30
0.0
 40
3.5
  1
10
  0
ENDBLK
  5
2337
  8
0
  0
BLOCK
  8
0
  2
*U22
 70
     1
 10
0.0
 20
0.0
 30
0.0
  3
*U22
  1

  0
TEXT
  5
2339
  8
AM_5
 10
247.0772969147898
 20
218.77373412383949
 30
0.0
 40
3.5
  1
(16.5)
  0
ENDBLK
  5
233B
  8
0
  0
BLOCK
  8
0
  2
*U23
 70
     1
 10
0.0
 20
0.0
 30
0.0
  3
*U23
  1

  0
TEXT
  5
233D
  8
AM_5
 10
254.58492486754579
 20
210.59873412383951
 30
0.0
 40
3.5
  1
26
  0
ENDBLK
  5
233F
  8
0
  0
BLOCK
  8
0
  2
*U24
 70
     1
 10
0.0
 20
0.0
 30
0.0
  3
*U24
  1

  0
TEXT
  5
2341
  8
AM_5
 10
235.58286060779261
 20
274.59873412383951
 30
0.0
 40
3.5
  1
(21)
 50
90.0
  0
ENDBLK
  5
2343
  8
0
  0
BLOCK
  8
0
  2
*U25
 70
     1
 10
0.0
 20
0.0
 30
0.0
  3
*U25
  1

  0
TEXT
  5
2345
  8
AM_5
 10
235.58286061779259
 20
253.59873412383951
 30
0.0
 40
3.5
  1
(21)
 50
90.0
  0
ENDBLK
  5
2347
  8
0
  0
BLOCK
  8
0
  2
*U26
 70
     1
 10
0.0
 20
0.0
 30
0.0
  3
*U26
  1

  0
TEXT
  5
2349
  8
AM_5
 10
229.47766484849879
 20
265.25208058053238
 30
0.0
 40
3.5
  1
60
 50
90.0
  0
ENDBLK
  5
234B
  8
0
  0
BLOCK
  8
0
  2
*U27
 70
     1
 10
0.0
 20
0.0
 30
0.0
  3
*U27
  1

  0
TEXT
  5
234D
  8
AM_5
 10
244.92729691478979
 20
226.77373412383949
 30
0.0
 40
3.5
  1
(11.5)
  0
ENDBLK
  5
234F
  8
0
  0
BLOCK
  8
0
  2
*U28
 70
     1
 10
0.0
 20
0.0
 30
0.0
  3
*U28
  1

  0
TEXT
  5
2351
  8
AM_5
 10
222.46729456769711
 20
308.43733063131401
 30
0.0
 40
3.5
  1
3×2-PT1/4
  0
ENDBLK
  5
2353
  8
0
  0
BLOCK
  8
0
  2
*U29
 70
     1
 10
0.0
 20
0.0
 30
0.0
  3
*U29
  1

  0
TEXT
  5
2355
  8
AM_5
 10
363.33085892891421
 20
265.19179514746151
 30
0.0
 40
3.5
  1
20
 50
90.0
  0
ENDBLK
  5
2357
  8
0
  0
BLOCK
  8
0
  2
*U30
 70
     1
 10
0.0
 20
0.0
 30
0.0
  3
*U30
  1

  0
TEXT
  5
2359
  8
SL
 10
2.9749829374392651
 20
1.492139750780495
 30
0.0
 40
2.5724999999997489
  1
SL
  7
ACISOTS
  0
ENDBLK
  5
235B
  8
0
  0
BLOCK
  8
0
  2
*U31
 70
     1
 10
0.0
 20
0.0
 30
0.0
  3
*U31
  1

  0
TEXT
  5
235D
  8
AM_5
 10
289.83031284414932
 20
256.49873412383948
 30
0.0
 40
3.5
  1
18
 50
90.0
  0
ENDBLK
  5
235F
  8
0
  0
BLOCK
  8
0
  2
*U32
 70
     1
 10
0.0
 20
0.0
 30
0.0
  3
*U32
  1

  0
TEXT
  5
2361
  8
AM_5
 10
289.83031284414932
 20
274.49873412383948
 30
0.0
 40
3.5
  1
18
 50
90.0
  0
ENDBLK
  5
2363
  8
0
  0
BLOCK
  8
0
  2
*U33
 70
     1
 10
0.0
 20
0.0
 30
0.0
  3
*U33
  1

  0
TEXT
  5
2365
  8
AM_5
 10
325.50531284414939
 20
226.59873412383931
 30
0.0
 40
3.5
  1
Y
  0
ENDBLK
  5
2367
  8
0
  0
BLOCK
  8
0
  2
*U34
 70
     1
 10
0.0
 20
0.0
 30
0.0
  3
*U34
  1

  0
TEXT
  5
2369
  8
AM_5
 10
325.85531284414941
 20
218.59873412383931
 30
0.0
 40
3.5
  1
L
  0
ENDBLK
  5
236B
  8
0
  0
ENDSEC
  0
SECTION
  2
ENTITIES
  0
LINE
  5
D66
  8
0
 10
418.1487109119862
 20
229.80581264826671
 30
0.0
 11
418.1487109119862
 21
187.5658126482669
 31
0.0
  0
LINE
  5
D67
  8
0
 10
457.92979895845338
 20
229.80581264826699
 30
0.0
 11
457.92979895845338
 21
221.3578126482667
 31
0.0
  0
LINE
  5
D68
  8
0
 10
473.7697989584538
 20
229.80581264826699
 30
0.0
 11
473.7697989584538
 21
221.35781264826699
 31
0.0
  0
LINE
  5
D69
  8
0
 10
442.089798958453
 20
229.80581264826671
 30
0.0
 11
442.08979895845528
 21
187.5658126482669
 31
0.0
  0
LINE
  5
D6A
  8
0
 10
418.1487109119862
 20
221.3578126482667
 30
0.0
 11
473.7697989584538
 21
221.3578126482667
 31
0.0
  0
LINE
  5
D6B
  8
0
 10
418.1487109119862
 20
225.581812648267
 30
0.0
 11
473.7697989584538
 21
225.581812648267
 31
0.0
  0
TEXT
  5
D6C
  8
0
 10
429.48319550670328
 20
222.0758314485218
 30
0.0
 40
2.6519833914900488
  1
2
 41
0.8
  7
CHINESET
 72
     4
 11
430.19039107776729
 21
223.40182314426681
 31
0.0
  0
TEXT
  5
D6D
  8
0
 10
419.69239506107567
 20
226.87564287161231
 30
0.0
 40
2.1120000000000001
  1
No. of stations
 41
0.8
  7
CHINESET
  0
TEXT
  5
D6E
  8
0
 10
446.0366941309851
 20
222.09771386714539
 30
0.0
 40
2.6400000000000001
  1
40
 41
0.8
  7
CHINESET
  0
TEXT
  5
D6F
  8
0
 10
448.60325378493991
 20
226.34086604050941
 30
0.0
 40
2.6400000000000001
  1
Y
 41
0.8
  7
CHINESET
  0
LINE
  5
D70
  8
0
 10
418.1487109119862
 20
229.80581264826699
 30
0.0
 11
473.7697989584538
 21
229.80581264826699
 31
0.0
  0
LINE
  5
D71
  8
0
 10
457.92979895845292
 20
229.80581264826671
 30
0.0
 11
457.92979895845559
 21
187.5658126482669
 31
0.0
  0
LINE
  5
D72
  8
0
 10
473.76979895845318
 20
229.80581264826671
 30
0.0
 11
473.7697989584554
 21
187.5658126482669
 31
0.0
  0
LINE
  5
D73
  8
0
 10
418.1487109119862
 20
217.133812648267
 30
0.0
 11
473.7697989584538
 21
217.133812648267
 31
0.0
  0
LINE
  5
D74
  8
0
 10
418.1487109119862
 20
212.90981264826701
 30
0.0
 11
473.7697989584538
 21
212.90981264826701
 31
0.0
  0
LINE
  5
D75
  8
0
 10
418.1487109119862
 20
208.6858126482671
 30
0.0
 11
473.7697989584538
 21
208.6858126482671
 31
0.0
  0
LINE
  5
D76
  8
0
 10
418.1487109119862
 20
204.4618126482668
 30
0.0
 11
473.7697989584538
 21
204.4618126482668
 31
0.0
  0
LINE
  5
D77
  8
0
 10
418.1487109119862
 20
200.23781264826681
 30
0.0
 11
473.7697989584538
 21
200.23781264826681
 31
0.0
  0
LINE
  5
D78
  8
0
 10
418.1487109119862
 20
196.01381264826711
 30
0.0
 11
473.7697989584538
 21
196.01381264826711
 31
0.0
  0
LINE
  5
D79
  8
0
 10
418.1487109119862
 20
191.78981264826689
 30
0.0
 11
473.7697989584538
 21
191.78981264826689
 31
0.0
  0
LINE
  5
D7A
  8
0
 10
418.1487109119862
 20
187.5658126482669
 30
0.0
 11
473.7697989584538
 21
187.5658126482669
 31
0.0
  0
TEXT
  5
D7B
  8
0
 10
429.48319550670328
 20
217.85183144852181
 30
0.0
 40
2.6519833914900488
  1
3
 41
0.8
  7
CHINESET
 72
     4
 11
430.19039107776729
 21
219.1778231442668
 31
0.0
  0
TEXT
  5
D7C
  8
0
 10
429.43268153734209
 20
213.6278314485219
 30
0.0
 40
2.6519833914900488
  1
4
 41
0.8
  7
CHINESET
 72
     4
 11
430.19039107776791
 21
214.95382314426689
 31
0.0
  0
TEXT
  5
D7D
  8
0
 10
429.48319550670442
 20
209.4038314485222
 30
0.0
 40
2.6519833914900488
  1
5
 41
0.8
  7
CHINESET
 72
     4
 11
430.19039107776842
 21
210.72982314426719
 31
0.0
  0
TEXT
  5
D7E
  8
0
 10
429.53370947606612
 20
205.1798314485219
 30
0.0
 40
2.6519833914900488
  1
6
 41
0.8
  7
CHINESET
 72
     4
 11
430.19039107776842
 21
206.50582314426691
 31
0.0
  0
TEXT
  5
D7F
  8
0
 10
429.48319550670442
 20
200.95583144852191
 30
0.0
 40
2.6519833914900488
  1
7
 41
0.8
  7
CHINESET
 72
     4
 11
430.19039107776842
 21
202.28182314426689
 31
0.0
  0
TEXT
  5
D80
  8
0
 10
429.48319550670487
 20
196.73183144852189
 30
0.0
 40
2.6519833914900488
  1
8
 41
0.8
  7
CHINESET
 72
     4
 11
430.19039107776888
 21
198.05782314426691
 31
0.0
  0
TEXT
  5
D81
  8
0
 10
429.53370947606658
 20
192.5078314485217
 30
0.0
 40
2.6519833914900488
  1
9
 41
0.8
  7
CHINESET
 72
     4
 11
430.19039107776888
 21
193.83382314426669
 31
0.0
  0
TEXT
  5
D82
  8
0
 10
428.67497199691752
 20
188.28383144852199
 30
0.0
 40
2.6519833914900488
  1
10
 41
0.8
  7
CHINESET
 72
     4
 11
430.19039107776888
 21
189.60982314426701
 31
0.0
  0
TEXT
  5
D83
  8
0
 10
461.87669413098553
 20
222.09771386714539
 30
0.0
 40
2.6400000000000001
  1
60
 41
0.8
  7
CHINESET
  0
TEXT
  5
D84
  8
0
 10
446.0366941309851
 20
217.8737138671454
 30
0.0
 40
2.6400000000000001
  1
56
 41
0.8
  7
CHINESET
  0
TEXT
  5
D85
  8
0
 10
461.87669413098553
 20
217.8737138671454
 30
0.0
 40
2.6400000000000001
  1
76
 41
0.8
  7
CHINESET
  0
TEXT
  5
D86
  8
0
 10
446.0366941309851
 20
213.6497138671451
 30
0.0
 40
2.6400000000000001
  1
72
 41
0.8
  7
CHINESET
  0
TEXT
  5
D87
  8
0
 10
461.87669413098553
 20
213.6497138671451
 30
0.0
 40
2.6400000000000001
  1
92
 41
0.8
  7
CHINESET
  0
TEXT
  5
D88
  8
0
 10
446.03669413098578
 20
209.42571386714511
 30
0.0
 40
2.6400000000000001
  1
88
 41
0.8
  7
CHINESET
  0
TEXT
  5
D89
  8
0
 10
461.8766941309861
 20
209.42571386714511
 30
0.0
 40
2.6400000000000001
  1
108
 41
0.8
  7
CHINESET
  0
TEXT
  5
D8A
  8
0
 10
446.03669413098578
 20
205.2017138671454
 30
0.0
 40
2.6400000000000001
  1
104
 41
0.8
  7
CHINESET
  0
TEXT
  5
D8B
  8
0
 10
461.8766941309861
 20
205.2017138671454
 30
0.0
 40
2.6400000000000001
  1
124
 41
0.8
  7
CHINESET
  0
TEXT
  5
D8C
  8
0
 10
446.03669413098578
 20
200.97771386714521
 30
0.0
 40
2.6400000000000001
  1
120
 41
0.8
  7
CHINESET
  0
TEXT
  5
D8D
  8
0
 10
461.8766941309861
 20
200.97771386714521
 30
0.0
 40
2.6400000000000001
  1
140
 41
0.8
  7
CHINESET
  0
TEXT
  5
D8E
  8
0
 10
446.03669413098629
 20
196.75371386714519
 30
0.0
 40
2.6400000000000001
  1
136
 41
0.8
  7
CHINESET
  0
TEXT
  5
D8F
  8
0
 10
461.87669413098661
 20
196.75371386714519
 30
0.0
 40
2.6400000000000001
  1
156
 41
0.8
  7
CHINESET
  0
TEXT
  5
D90
  8
0
 10
446.03669413098743
 20
192.5297138671452
 30
0.0
 40
2.6400000000000001
  1
152
 41
0.8
  7
CHINESET
  0
TEXT
  5
D91
  8
0
 10
461.87669413098712
 20
192.5297138671452
 30
0.0
 40
2.6400000000000001
  1
172
 41
0.8
  7
CHINESET
  0
TEXT
  5
D92
  8
0
 10
446.03669413098743
 20
188.30571386714499
 30
0.0
 40
2.6400000000000001
  1
168
 41
0.8
  7
CHINESET
  0
TEXT
  5
D93
  8
0
 10
461.87669413098712
 20
188.30571386714499
 30
0.0
 40
2.6400000000000001
  1
188
 41
0.8
  7
CHINESET
  0
TEXT
  5
D94
  8
0
 10
464.44325378493983
 20
226.34086604050941
 30
0.0
 40
2.6400000000000001
  1
L
 41
0.8
  7
CHINESET
  0
INSERT
  5
F4E
  8
0
  2
A$C6EA13D03
 10
418.1487109119862
 20
221.3578126482667
 30
0.0
 41
1.1999999999999991
 42
1.1999999999999991
 43
1.1999999999999991
  0
TEXT
  5
F4F
  8
0
 10
190.9467420085781
 20
368.13076751945209
 30
0.0
 40
4.7999999999999998
  1
MVSY-156-5B2
 41
0.75
  7
CHINESET
  0
LINE
  5
F50
  8
SL
  6
ACISOTGB
 10
329.05906541202359
 20
265.79254157899248
 30
0.0
 11
329.05906541202359
 21
307.36263062981061
 31
0.0
  0
LINE
  5
F51
  8
LOGO
 62
     4
 10
243.36372162318551
 20
130.22436790510281
 30
0.0
 11
243.36372162318551
 21
159.02019776935629
 31
0.0
  0
TEXT
  5
F52
  8
LOGO
  6
CONTINUOUS
 10
190.35648744882749
 20
135.8812652252391
 30
0.0
 40
4.3193744796380082
  1
金器工業股份有限公司
  7
CHINESET
  0
TEXT
  5
F53
  8
LOGO
  6
CONTINUOUS
 10
182.42265107583151
 20
131.5610444868552
 30
0.0
 40
2.8795829864253388
  1
MINDMAN INDUSTRIAL CO., LTD.
 41
0.85
  7
CHINESET
  0
LINE
  5
F54
  8
LOGO
 62
     4
 10
243.36372162318551
 20
153.26103179650551
 30
0.0
 11
201.12983782228059
 21
153.26103179650551
 31
0.0
  0
LINE
  5
F55
  8
LOGO
 62
     4
 10
243.36372162318551
 20
147.50186582365481
 30
0.0
 11
201.12983782228059
 21
147.50186582365481
 31
0.0
  0
LINE
  5
F56
  8
LOGO
 62
     4
 10
243.36372162318551
 20
141.74269985080451
 30
0.0
 11
180.01289592182781
 21
141.74269985080451
 31
0.0
  0
LINE
  5
F57
  8
LOGO
 62
     4
 10
201.12983782228059
 20
141.74269985080451
 30
0.0
 11
201.12983782228059
 21
159.02019776935629
 31
0.0
  0
TEXT
  5
F58
  8
LOGO
 10
229.99470399124721
 20
143.1824913440166
 30
0.0
 40
2.8795829864253388
  1
mm
  7
CHINESET
 72
     1
 11
233.55990197444041
 21
144.62228283722931
 31
0.0
 73
     2
  0
TEXT
  5
F59
  8
LOGO
 10
228.48635099835769
 20
154.7008232897181
 30
0.0
 40
2.8795829864253388
  1
1 : 1
  7
CHINESET
 72
     1
 11
233.55990197444041
 21
156.14061478293081
 31
0.0
 73
     2
  0
LINE
  5
F5A
  8
LOGO
 62
     4
 10
224.16650171368309
 20
141.74269985080451
 30
0.0
 11
224.16650171368309
 21
159.02019776935629
 31
0.0
  0
TEXT
  5
F5B
  8
LOGO
 10
203.5042082579622
 20
154.70224040732961
 30
188.7231250944717
 40
2.8795829864253388
  1
比例 Scale:
 41
0.9
  7
CHINESET
 72
     4
 11
212.64816976798161
 21
156.14061478293081
 31
188.7231250944717
  0
TEXT
  5
F5C
  8
LOGO
 10
203.33837513061891
 20
148.98216326192741
 30
188.7231250944717
 40
2.8795829864253388
  1
投影  View:
 41
0.9
  7
CHINESET
 72
     4
 11
212.64816976798161
 21
150.38144881008
 31
188.7231250944717
  0
TEXT
  5
F5D
  8
LOGO
 10
203.61990578866681
 20
143.1824913440166
 30
188.7231250944717
 40
2.8795829864253388
  1
單位  Unit:
 41
0.9
  7
CHINESET
 72
     4
 11
212.64816976798161
 21
144.62228283722931
 31
188.7231250944717
  0
POLYLINE
  5
F5E
  8
LOGO
 62
     4
 66
     1
 10
0.0
 20
0.0
 30
0.0
 70
     1
1001
GENIUS_GENREC_14
1002
{
1000
PYDIR
1011
180.01289592182781
1021
-0.0
1031
5.0660447295845733E+076
1021
382.30503911936933
1031
0.0
1002
}
1002
{
1000
PXDIR
1011
509.38882207667569
1021
-0.0
1031
5.0660447295845733E+076
1021
159.02019776935629
1031
0.0
1002
}
1002
{
1000
PORI
1011
180.01289592182781
1021
-0.0
1031
5.0660447295845733E+076
1021
159.02019776935629
1031
0.0
1002
}
1002
{
1000
PINS
1011
180.01289592182781
1021
-0.0
1031
5.0660447295845733E+076
1021
159.02019776935629
1031
0.0
1002
}
1002
{
1000
PINS2
1011
509.38882207667569
1021
-0.0
1031
5.0660447295845733E+076
1021
382.30503911936933
1031
0.0
1002
}
1002
{
1000
C
1070
     1
1002
}
1001
GENIUS_GENODEF_13
1002
{
1000
HIER
1070
     0
1002
}
1002
{
1000
MANEDIT
1070
     0
1002
}
1002
{
1000
NOSEL
1070
     0
1002
}
1002
{
1000
BEHIND
1070
     0
1002
}
1002
{
1000
OTHER
1070
     0
1002
}
1002
{
1000
REACTOR
1002
}
1001
GENIUS_GENOBJ-N-REC_13
1002
{
1000
OWNER
1000
GEN
1002
}
  0
VERTEX
  5
2324
  8
LOGO
 62
     4
 10
180.01289592182781
 20
159.02019776935629
 30
0.0
  0
VERTEX
  5
2325
  8
LOGO
 62
     4
 10
509.38882207667569
 20
159.02019776935629
 30
0.0
  0
VERTEX
  5
2326
  8
LOGO
 62
     4
 10
509.38882207667569
 20
382.30503911936933
 30
0.0
  0
VERTEX
  5
2327
  8
LOGO
 62
     4
 10
180.01289592182781
 20
382.30503911936933
 30
0.0
  0
SEQEND
  5
2328
  8
LOGO
 62
     4
  0
SOLID
  5
F5F
  8
LOGO
 62
     5
 10
183.000509484036
 20
146.52959668937419
 30
0.0
 11
184.245565607109
 21
146.5295966893739
 31
0.0
 12
189.44045494820531
 22
158.33616337368491
 32
0.0
 13
190.6855110712788
 23
158.3361633736844
 33
0.0
  0
SOLID
  5
F60
  8
LOGO
 62
     5
 10
184.76076124424341
 20
146.52959668937419
 30
0.0
 11
186.00581736731641
 21
146.52959668937419
 31
0.0
 12
190.6855110712788
 22
157.3916380389397
 32
0.0
 13
189.44045494820531
 23
152.82643225433961
 33
0.0
  0
SOLID
  5
F61
  8
LOGO
 62
     2
 10
184.245565607109
 20
146.5295966893739
 30
0.0
 11
184.76076124424341
 21
146.52959668937419
 31
0.0
 12
190.6855110712788
 22
158.3361633736844
 32
0.0
 13
191.2007067084127
 23
158.3361633736844
 33
0.0
  0
SOLID
  5
F62
  8
LOGO
 62
     5
 10
181.00437919358899
 20
142.23629971326159
 30
0.0
 11
181.4337088912003
 21
142.23629971326159
 31
0.0
 12
182.6427347360268
 22
144.38294820131759
 32
0.0
 13
183.07206443363759
 23
144.38294820131759
 33
0.0
  0
SOLID
  5
F63
  8
LOGO
 62
     5
 10
182.6427347360268
 20
144.38294820131759
 30
0.0
 11
183.07206443363759
 21
144.38294820131759
 31
0.0
 12
182.6427347360268
 22
142.23629971326159
 32
0.0
 13
183.07206443363759
 23
142.23629971326159
 33
0.0
  0
SOLID
  5
F64
  8
LOGO
 62
     5
 10
182.6427347360268
 20
142.23629971326159
 30
0.0
 11
183.07206443363759
 21
142.23629971326159
 31
0.0
 12
184.28109027846571
 22
144.38294820131759
 32
0.0
 13
184.71041997607699
 23
144.38294820131759
 33
0.0
  0
SOLID
  5
F65
  8
LOGO
 62
     5
 10
184.28109027846571
 20
144.38294820131759
 30
0.0
 11
184.71041997607699
 21
144.38294820131759
 31
0.0
 12
184.28109027846571
 22
142.23629971326159
 32
0.0
 13
184.71041997607699
 23
142.23629971326159
 33
0.0
  0
POLYLINE
  5
F66
  8
LOGO
 62
     5
 66
     1
 10
0.0
 20
0.0
 30
0.0
 40
0.4300177259728506
 41
0.4300177259728506
  0
VERTEX
  5
F67
  8
LOGO
 62
     5
 10
198.67207548939129
 20
143.5242888060952
 30
0.0
 42
1.0
  0
VERTEX
  5
F68
  8
LOGO
 62
     5
 10
197.38202231147261
 20
143.5242888060952
 30
0.0
 42
1.0
  0
SEQEND
  5
F69
  8
LOGO
 62
     5
  0
POLYLINE
  5
F6A
  8
LOGO
 62
     5
 66
     1
 10
0.0
 20
0.0
 30
0.0
 70
     1
  0
VERTEX
  5
F6B
  8
LOGO
 62
     5
 10
194.95021468953041
 20
143.30962395728929
 30
0.0
 42
1.0000000573306349
  0
VERTEX
  5
F6C
  8
LOGO
 62
     5
 10
196.23820378236431
 20
143.30962395728929
 30
0.0
 42
1.0000000573306349
  0
SEQEND
  5
F6D
  8
LOGO
 62
     5
  0
CIRCLE
  5
F6E
  8
LOGO
 62
     5
 10
195.59420923594789
 20
143.30962395728929
 30
0.0
 40
0.6439945464169412
  0
POLYLINE
  5
F6F
  8
LOGO
 62
     5
 66
     1
 10
0.0
 20
0.0
 30
0.0
 70
     1
 40
0.4300177259728506
 41
0.4300177259728506
  0
VERTEX
  5
F70
  8
LOGO
 62
     5
 10
194.73417378400191
 20
143.30962395728929
 30
0.0
 42
1.0
  0
VERTEX
  5
F71
  8
LOGO
 62
     5
 10
196.45424468789329
 20
143.30962395728929
 30
0.0
 42
1.0
  0
SEQEND
  5
F72
  8
LOGO
 62
     5
  0
LINE
  5
F73
  8
LOGO
 10
198.88570829565381
 20
142.23629971326159
 30
0.0
 11
198.88570829565381
 21
143.5242888060952
 31
0.0
  0
SOLID
  5
F74
  8
LOGO
 62
     5
 10
196.23816084939631
 20
144.38294820131759
 30
0.0
 11
196.66749054700651
 21
144.38294820131759
 31
0.0
 12
196.23816084939631
 22
142.23629971326159
 32
0.0
 13
196.66749054700651
 23
142.23629971326159
 33
0.0
  0
SOLID
  5
F75
  8
LOGO
 62
     5
 10
197.16838950520901
 20
142.23629971326159
 30
0.0
 11
197.59771920282091
 21
142.23629971326159
 31
0.0
 12
197.16838950520901
 22
144.38294820131759
 32
0.0
 13
197.59771920282091
 23
144.38294820131759
 33
0.0
  0
SOLID
  5
F76
  8
LOGO
 62
     5
 10
198.45637859804361
 20
143.5242888060952
 30
0.0
 11
198.88570829565381
 21
143.5242888060952
 31
0.0
 12
198.45637859804361
 22
142.23629971326159
 32
0.0
 13
198.88570829565381
 23
142.23629971326159
 33
0.0
  0
SOLID
  5
F77
  8
LOGO
 62
     5
 10
197.12545653544751
 20
157.3916380389397
 30
0.0
 11
195.88040041237559
 21
152.82643225433961
 31
0.0
 12
197.12545653544751
 22
146.5295966893739
 32
0.0
 13
195.88040041237559
 23
146.5295966893739
 33
0.0
  0
SOLID
  5
F78
  8
LOGO
 62
     5
 10
197.64065217258189
 20
146.5295966893739
 30
0.0
 11
198.88570829565381
 21
146.5295966893739
 31
0.0
 12
197.64065217258189
 22
158.3361633736844
 32
0.0
 13
198.88570829565381
 23
158.33616337368491
 33
0.0
  0
SOLID
  5
F79
  8
LOGO
 62
     2
 10
197.12545653544751
 20
158.33616337368491
 30
0.0
 11
197.64065217258189
 21
158.3361633736844
 31
0.0
 12
197.12545653544751
 22
146.5295966893739
 32
0.0
 13
197.64065217258189
 23
146.5295966893739
 33
0.0
  0
POLYLINE
  5
F7A
  8
LOGO
 62
     5
 66
     1
 10
0.0
 20
0.0
 30
0.0
 40
0.4300177259728506
 41
0.4300177259728506
  0
VERTEX
  5
F7B
  8
LOGO
 62
     5
 10
192.5183212016498
 20
143.5242888060952
 30
0.0
 42
1.0
  0
VERTEX
  5
F7C
  8
LOGO
 62
     5
 10
191.22826802373109
 20
143.5242888060952
 30
0.0
 42
1.0
  0
SEQEND
  5
F7D
  8
LOGO
 62
     5
  0
POLYLINE
  5
F7E
  8
LOGO
 62
     5
 66
     1
 10
0.0
 20
0.0
 30
0.0
 40
0.4300177259728506
 41
0.4300177259728506
  0
VERTEX
  5
F7F
  8
LOGO
 62
     5
 10
193.8063102944827
 20
143.5242888060952
 30
0.0
 42
1.0
  0
VERTEX
  5
F80
  8
LOGO
 62
     5
 10
192.5162571165645
 20
143.5242888060952
 30
0.0
 42
1.0
  0
SEQEND
  5
F81
  8
LOGO
 62
     5
  0
POLYLINE
  5
F82
  8
LOGO
 62
     5
 66
     1
 10
0.0
 20
0.0
 30
0.0
 40
0.4300177259728506
 41
0.4300177259728506
  0
VERTEX
  5
F83
  8
LOGO
 62
     5
 10
187.65255600674121
 20
143.5242888060952
 30
0.0
 42
1.0
  0
VERTEX
  5
F84
  8
LOGO
 62
     5
 10
186.36250282882301
 20
143.5242888060952
 30
0.0
 42
1.0
  0
SEQEND
  5
F85
  8
LOGO
 62
     5
  0
SOLID
  5
F86
  8
LOGO
 62
     5
 10
186.14887002255949
 20
144.38294820131759
 30
0.0
 11
186.5781997201702
 21
144.38294820131759
 31
0.0
 12
186.14887002255949
 22
142.23629971326159
 32
0.0
 13
186.5781997201702
 23
142.23629971326159
 33
0.0
  0
SOLID
  5
F87
  8
LOGO
 62
     5
 10
187.43685911539339
 20
143.5242888060952
 30
0.0
 11
187.86618881300529
 21
143.5242888060952
 31
0.0
 12
187.43685911539339
 22
142.23629971326159
 32
0.0
 13
187.86618881300529
 23
142.23629971326159
 33
0.0
  0
POLYLINE
  5
F88
  8
LOGO
 62
     5
 66
     1
 10
0.0
 20
0.0
 30
0.0
 70
     1
 40
0.4300177259728506
 41
0.4300177259728506
  0
VERTEX
  5
F89
  8
LOGO
 62
     5
 10
188.58041949625931
 20
143.30962395728929
 30
0.0
 42
1.0
  0
VERTEX
  5
F8A
  8
LOGO
 62
     5
 10
190.30049040015129
 20
143.30962395728929
 30
0.0
 42
1.0
  0
SEQEND
  5
F8B
  8
LOGO
 62
     5
  0
SOLID
  5
F8C
  8
LOGO
 62
     5
 10
190.08440656165311
 20
145.02694274773509
 30
0.0
 11
190.5137362592645
 21
145.02694274773509
 31
0.0
 12
190.08440656165311
 22
142.23629971326159
 32
0.0
 13
190.5137362592645
 23
142.23629971326159
 33
0.0
  0
SOLID
  5
F8D
  8
LOGO
 62
     5
 10
191.01463521746859
 20
144.38294820131759
 30
0.0
 11
191.44396491507891
 21
144.38294820131759
 31
0.0
 12
191.01463521746859
 22
142.23629971326159
 32
0.0
 13
191.44396491507891
 23
142.23629971326159
 33
0.0
  0
SOLID
  5
F8E
  8
LOGO
 62
     5
 10
192.3026243103015
 20
143.5242888060952
 30
0.0
 11
192.7319540079128
 21
143.5242888060952
 31
0.0
 12
192.3026243103015
 22
142.23629971326159
 32
0.0
 13
192.7319540079128
 23
142.23629971326159
 33
0.0
  0
SOLID
  5
F8F
  8
LOGO
 62
     5
 10
193.59061340313551
 20
143.5242888060952
 30
0.0
 11
194.0199431007463
 21
143.5242888060952
 31
0.0
 12
193.59061340313551
 22
142.23629971326099
 32
0.0
 13
194.0199431007463
 23
142.23629971326099
 33
0.0
  0
SOLID
  5
F90
  8
LOGO
 62
     5
 10
185.218641366745
 20
144.68347898964589
 30
0.0
 11
185.64797106435751
 21
144.68347898964589
 31
0.0
 12
185.218641366745
 22
145.02694274773509
 32
0.0
 13
185.64797106435751
 23
145.02694274773509
 33
0.0
  0
SOLID
  5
F91
  8
LOGO
 62
     5
 10
185.218641366745
 20
144.38294820131759
 30
0.0
 11
185.64797106435751
 21
144.38294820131759
 31
0.0
 12
185.218641366745
 22
142.23629971326099
 32
0.0
 13
185.64797106435751
 23
142.23629971326159
 33
0.0
  0
SOLID
  5
F92
  8
LOGO
 62
     5
 10
189.44045494820531
 20
146.52959668937419
 30
0.0
 11
190.6855110712788
 21
146.52959668937419
 31
0.0
 12
189.44045494820531
 22
152.82643225433961
 32
0.0
 13
190.6855110712788
 23
157.3916380389397
 33
0.0
  0
SOLID
  5
F93
  8
LOGO
 62
     5
 10
191.2007067084127
 20
158.3361633736844
 30
0.0
 11
192.4457628314851
 21
158.33616337368491
 31
0.0
 12
191.2007067084127
 22
147.47412202411891
 32
0.0
 13
192.4457628314851
 23
152.03932780871901
 33
0.0
  0
SOLID
  5
F94
  8
LOGO
 62
     2
 10
190.6855110712788
 20
158.3361633736844
 30
0.0
 11
191.2007067084127
 21
158.3361633736844
 31
0.0
 12
190.6855110712788
 22
146.52959668937419
 32
0.0
 13
191.2007067084127
 23
146.52959668937419
 33
0.0
  0
SOLID
  5
F95
  8
LOGO
 62
     5
 10
191.2007067084127
 20
147.47412202411891
 30
0.0
 11
192.4457628314851
 21
152.03932780871901
 31
0.0
 12
197.12545653544751
 22
158.33616337368491
 32
0.0
 13
195.88040041237559
 23
158.33616337368491
 33
0.0
  0
SOLID
  5
F96
  8
LOGO
 62
     5
 10
191.2007067084127
 20
146.52959668937419
 30
0.0
 11
192.4457628314851
 21
146.52959668937419
 31
0.0
 12
197.12545653544751
 22
157.3916380389397
 32
0.0
 13
195.88040041237559
 23
152.82643225433961
 33
0.0
  0
SOLID
  5
F97
  8
LOGO
 62
     2
 10
190.6855110712788
 20
146.52959668937419
 30
0.0
 11
191.2007067084127
 21
146.52959668937419
 31
0.0
 12
197.12545653544751
 22
158.33616337368491
 32
0.0
 13
197.64065217258189
 23
158.3361633736844
 33
0.0
  0
POLYLINE
  5
F98
  8
LOGO
 62
     4
 66
     1
 10
0.0
 20
0.0
 30
0.0
 70
     1
1001
GENIUS_GENREC_14
1002
{
1000
PYDIR
1011
180.01289592182781
1021
-0.0
1031
5.0660447295845733E+076
1021
130.2243679051025
1031
0.0
1002
}
1002
{
1000
PXDIR
1011
509.38882207667569
1021
-0.0
1031
5.0660447295845733E+076
1021
159.02019776935629
1031
0.0
1002
}
1002
{
1000
PORI
1011
180.01289592182781
1021
-0.0
1031
5.0660447295845733E+076
1021
159.02019776935629
1031
0.0
1002
}
1002
{
1000
PINS
1011
180.01289592182781
1021
-0.0
1031
5.0660447295845733E+076
1021
159.02019776935629
1031
0.0
1002
}
1002
{
1000
PINS2
1011
509.38882207667569
1021
-0.0
1031
5.0660447295845733E+076
1021
130.2243679051025
1031
0.0
1002
}
1002
{
1000
C
1070
     1
1002
}
1001
GENIUS_GENOBJ-N-REC_13
1002
{
1000
OWNER
1000
GEN
1002
}
1001
GENIUS_GENODEF_13
1002
{
1000
HIER
1070
     0
1002
}
1002
{
1000
MANEDIT
1070
     0
1002
}
1002
{
1000
NOSEL
1070
     0
1002
}
1002
{
1000
BEHIND
1070
     0
1002
}
1002
{
1000
OTHER
1070
     0
1002
}
1002
{
1000
REACTOR
1002
}
  0
VERTEX
  5
2329
  8
LOGO
 62
     4
 10
180.01289592182781
 20
159.02019776935629
 30
0.0
  0
VERTEX
  5
232A
  8
LOGO
 62
     4
 10
509.38882207667569
 20
159.02019776935629
 30
0.0
  0
VERTEX
  5
232B
  8
LOGO
 62
     4
 10
509.38882207667569
 20
130.2243679051025
 30
0.0
  0
VERTEX
  5
232C
  8
LOGO
 62
     4
 10
180.01289592182781
 20
130.2243679051025
 30
0.0
  0
SEQEND
  5
232D
  8
LOGO
 62
     4
  0
CIRCLE
  5
F99
  8
LOGO
  6
CONTINUOUS
 10
229.4984097855959
 20
150.3876082591606
 30
0.0
 40
1.6719536596617091
  0
CIRCLE
  5
F9A
  8
LOGO
  6
CONTINUOUS
 10
229.4984097855959
 20
150.3876082591606
 30
0.0
 40
0.9796168348784599
  0
LINE
  5
F9B
  8
LOGO
 10
240.0051605882087
 20
148.71565459949849
 30
0.0
 11
240.0051605882087
 21
152.05956191882271
 31
0.0
  0
LINE
  5
F9C
  8
LOGO
 10
234.7636818398891
 20
149.4079914242823
 30
0.0
 11
234.7636818398891
 21
151.36722509403921
 31
0.0
  0
LINE
  5
F9D
  8
LOGO
  6
CONTINUOUS
 10
234.7636818398891
 20
151.36722509403921
 30
0.0
 11
240.0051605882087
 21
152.05956191882271
 31
0.0
  0
LINE
  5
F9E
  8
LOGO
  6
CONTINUOUS
 10
234.7636818398891
 20
149.4079914242823
 30
0.0
 11
240.0051605882087
 21
148.71565459949849
 31
0.0
  0
LINE
  5
F9F
  8
LOGO
  6
AM_ISO08W050X2
 10
227.19359663021771
 20
150.3876082591606
 30
0.0
 11
231.80322294097411
 21
150.3876082591606
 31
0.0
1001
GENIUS_GENOREF_13
1005
FE7
  0
LINE
  5
FA0
  8
LOGO
  6
AM_ISO08W050X2
 10
229.4984097855959
 20
148.08279510378219
 30
0.0
 11
229.4984097855959
 21
152.69242141453881
 31
0.0
1001
GENIUS_GENOREF_13
1005
FE6
  0
LINE
  5
FA1
  8
LOGO
  6
CENTER
 10
234.3445092262437
 20
150.3876082591606
 30
0.0
 11
240.532960530623
 21
150.3876082591606
 31
0.0
1001
GENIUS_GENOREF_13
1005
FE5
  0
TEXT
  5
FA2
  8
LOGO
 62
     7
 10
245.0319730559664
 20
146.40523470874271
 30
0.0
 40
3.8394439819004522
  1
Order example:
 41
0.8
  7
CHINESET
  0
TEXT
  5
FA3
  8
LOGO
 62
     7
 10
245.72080105722941
 20
151.81037686823839
 30
0.0
 40
5.7591659728506777
  1
訂購代號：
  7
CHINESET
  0
TEXT
  5
FA4
  8
LOGO
 10
244.26593287456799
 20
131.75629468834961
 30
0.0
 40
2.8799999999999999
  1
20903244
 41
0.7
  7
CHINESET
 72
     1
 11
251.70593287456799
 21
131.75629468834961
 31
0.0
  0
LINE
  5
FA5
  8
LOGO
 62
     4
 10
260.64372162318449
 20
135.98353387795399
 30
0.0
 11
260.64372162318563
 21
130.22436790510301
 31
0.0
  0
LINE
  5
FA6
  8
LOGO
 62
     4
 10
260.64372162318449
 20
135.98353387795399
 30
0.0
 11
243.36372162318551
 21
135.98353387795399
 31
0.0
  0
LINE
  5
FA7
  8
LOGO
 62
     4
 10
302.1683274871599
 20
143.18249134401731
 30
0.0
 11
302.1683274871599
 21
132.62402039379069
 31
0.0
  0
LINE
  5
FA8
  8
LOGO
 62
     4
 10
282.97110757765751
 20
143.18249134401731
 30
0.0
 11
282.97110757765751
 21
132.62402039379069
 31
0.0
  0
LINE
  5
FA9
  8
LOGO
 62
     4
 10
302.1683274871599
 20
132.62402039379069
 30
0.0
 11
282.97110757765751
 21
132.62402039379069
 31
0.0
  0
LINE
  5
FAA
  8
LOGO
 62
     4
 10
305.7269063553673
 20
156.14061478293081
 30
0.0
 11
282.97110757765751
 21
156.14061478293081
 31
0.0
  0
LINE
  5
FAB
  8
LOGO
 62
     4
 10
305.7269063553673
 20
147.50186582365481
 30
0.0
 11
282.97110757765751
 21
147.50186582365481
 31
0.0
  0
LINE
  5
FAC
  8
LOGO
 62
     4
 10
282.97110757765751
 20
156.14061478293081
 30
0.0
 11
282.97110757765751
 21
147.50186582365481
 31
0.0
  0
LINE
  5
FAD
  8
LOGO
 62
     4
 10
305.7269063553673
 20
156.14061478293081
 30
0.0
 11
305.7269063553673
 21
147.50186582365481
 31
0.0
  0
LINE
  5
FAE
  8
LOGO
 62
     4
 10
293.57133023706939
 20
147.50186582365481
 30
0.0
 11
293.57133023706939
 21
143.18249134401731
 31
0.0
  0
TEXT
  5
FAF
  8
LOGO
  6
CONTINUOUS
 62
     7
 10
284.50607797278099
 20
149.3051920390543
 30
0.0
 40
5.04
  1
MVSY
  7
CHINESET
  0
LINE
  5
FB0
  8
LOGO
 62
     4
 10
302.1683274871599
 20
143.18249134401731
 30
0.0
 11
282.97110757765751
 21
143.18249134401731
 31
0.0
  0
TEXT
  5
FB1
  8
LOGO
  6
CONTINUOUS
 10
289.13143466914391
 20
134.11432617865739
 30
188.7231250944717
 40
2.1600000000000001
  1
Model
 41
0.8
  7
CHINESET
  0
TEXT
  5
FB2
  8
LOGO
 10
288.55651288642503
 20
138.11850066543249
 30
188.7231250944717
 40
3.5999999999999992
  1
型號
  7
CHINESET
  0
LINE
  5
FB3
  8
LOGO
  6
CONTINUOUS
 62
     7
 10
306.64527676801572
 20
151.79064048923411
 30
0.0
 11
310.45983309448849
 21
151.79064048923411
 31
0.0
  0
TEXT
  5
FB4
  8
LOGO
  6
CONTINUOUS
 62
     7
 10
312.09139456997929
 20
149.3051920390543
 30
0.0
 40
5.04
  1
156
  7
CHINESET
  0
LINE
  5
FB5
  8
LOGO
  6
CONTINUOUS
 62
     7
 10
325.67473326669261
 20
151.79064048923411
 30
0.0
 11
329.48928959316601
 21
151.79064048923411
 31
0.0
  0
LINE
  5
FB6
  8
LOGO
 62
     4
 10
328.33416129108321
 20
143.18249134401731
 30
0.0
 11
328.33416129108321
 21
132.62402039379069
 31
0.0
  0
LINE
  5
FB7
  8
LOGO
 62
     4
 10
310.79969113288428
 20
143.18249134401731
 30
0.0
 11
310.79969113288428
 21
132.62402039379069
 31
0.0
  0
LINE
  5
FB8
  8
LOGO
 62
     4
 10
328.33416129108321
 20
132.62402039379069
 30
0.0
 11
310.79969113288428
 21
132.62402039379069
 31
0.0
  0
LINE
  5
FB9
  8
LOGO
 62
     4
 10
341.617451672046
 20
156.14061478293081
 30
0.0
 11
330.69258103690407
 21
156.14061478293081
 31
0.0
  0
LINE
  5
FBA
  8
LOGO
 62
     4
 10
341.617451672046
 20
147.50186582365481
 30
0.0
 11
330.69258103690407
 21
147.50186582365481
 31
0.0
  0
LINE
  5
FBB
  8
LOGO
 62
     4
 10
330.69258103690407
 20
156.14061478293081
 30
0.0
 11
330.69258103690407
 21
147.50186582365481
 31
0.0
  0
LINE
  5
FBC
  8
LOGO
 62
     4
 10
341.617451672046
 20
156.14061478293081
 30
0.0
 11
341.617451672046
 21
147.50186582365481
 31
0.0
  0
LINE
  5
FBD
  8
LOGO
 62
     4
 10
337.32989176536461
 20
147.50186582365481
 30
0.0
 11
337.32989176536461
 21
145.34217858383619
 31
0.0
  0
TEXT
  5
FBE
  8
LOGO
  6
CONTINUOUS
 62
     7
 10
331.84237542338428
 20
149.3051920390543
 30
0.0
 40
5.04
  1
5B
  7
CHINESET
  0
LINE
  5
FBF
  8
LOGO
 62
     4
 10
328.33416129108321
 20
143.18249134401731
 30
0.0
 11
310.79969113288428
 21
143.18249134401731
 31
0.0
  0
LINE
  5
FC0
  8
LOGO
 62
     4
 10
350.11780522304338
 20
143.18249134401731
 30
0.0
 11
350.11780522304338
 21
132.62402039379069
 31
0.0
  0
LINE
  5
FC1
  8
LOGO
 62
     4
 10
334.4786091645168
 20
143.18249134401731
 30
0.0
 11
334.4786091645168
 21
132.62402039379069
 31
0.0
  0
LINE
  5
FC2
  8
LOGO
 62
     4
 10
350.11780522304338
 20
132.62402039379069
 30
0.0
 11
334.4786091645168
 21
132.62402039379069
 31
0.0
  0
LINE
  5
FC3
  8
LOGO
 62
     4
 10
350.10901804812181
 20
156.14061478293081
 30
0.0
 11
342.78472487044348
 21
156.14061478293081
 31
0.0
  0
LINE
  5
FC4
  8
LOGO
 62
     4
 10
350.10901804812181
 20
147.50186582365481
 30
0.0
 11
342.78472487044348
 21
147.50186582365481
 31
0.0
  0
LINE
  5
FC5
  8
LOGO
 62
     4
 10
342.78472487044348
 20
156.14061478293081
 30
0.0
 11
342.78472487044348
 21
147.50186582365481
 31
0.0
  0
LINE
  5
FC6
  8
LOGO
 62
     4
 10
350.10901804812181
 20
156.14061478293081
 30
0.0
 11
350.10901804812181
 21
147.50186582365481
 31
0.0
  0
LINE
  5
FC7
  8
LOGO
 62
     4
 10
347.38041936860458
 20
147.50186582365481
 30
0.0
 11
347.38041936860412
 21
145.34217858383619
 31
0.0
  0
TEXT
  5
FC8
  8
LOGO
  6
CONTINUOUS
 62
     7
 10
344.71572397809109
 20
149.3051920390543
 30
0.0
 40
5.04
  1
*
  7
CHINESET
  0
LINE
  5
FC9
  8
LOGO
 62
     4
 10
350.11780522304338
 20
143.18249134401731
 30
0.0
 11
334.4786091645168
 21
143.18249134401731
 31
0.0
  0
TEXT
  5
FCA
  8
LOGO
  6
CONTINUOUS
 10
314.82072409268102
 20
134.11432617865739
 30
188.7231250944717
 40
2.1600000000000001
  1
Manifold
 41
0.8
  7
CHINESET
  0
TEXT
  5
FCB
  8
LOGO
 10
315.69165936448587
 20
138.11850066543249
 30
188.7231250944717
 40
3.5999999999999992
  1
連座
  7
CHINESET
  0
TEXT
  5
FCC
  8
LOGO
  6
CONTINUOUS
 10
337.11260553132439
 20
134.11432617865739
 30
188.7231250944717
 40
2.1600000000000001
  1
Number
 41
0.8
  7
CHINESET
  0
TEXT
  5
FCD
  8
LOGO
 10
336.96283823184018
 20
138.11850066543249
 30
188.7231250944717
 40
3.5999999999999992
  1
連座數
  7
CHINESET
  0
LINE
  5
FCE
  8
LOGO
 62
     4
 10
337.32989176536461
 20
145.34217858383619
 30
0.0
 11
320.39830108763539
 21
145.34217858383619
 31
0.0
  0
LINE
  5
FCF
  8
LOGO
 62
     4
 10
320.39830108763539
 20
143.18249134401731
 30
0.0
 11
320.39830108763539
 21
145.34217858383619
 31
0.0
  0
LINE
  5
FD0
  8
LOGO
 62
     4
 10
342.29820719377989
 20
143.18249134401731
 30
0.0
 11
342.29820719377989
 21
145.34217858383619
 31
0.0
  0
LINE
  5
FD1
  8
LOGO
 62
     4
 10
347.38041936860458
 20
145.34217858383619
 30
0.0
 11
342.29820719377989
 21
145.34217858383619
 31
0.0
  0
POINT
  5
FE5
  8
0
 10
-1885.9186160609679
 20
-475.755636894764
 30
0.0
1001
GENIUS_GENOBJ-N-CRS_13
1002
{
1000
OWNER
1000
GEN
1002
}
1001
GENIUS_GENOLIS_13
1002
{
1000
ENT
1005
0
1005
0
1005
0
1005
FA1
1002
}
1001
GENIUS_GENOENT_13
1002
{
1000
MYREF
1005
FE5
1002
}
1002
{
1000
GRP
1005
0
1002
}
1001
GENIUS_GENODEF_13
1002
{
1000
HIER
1070
    10
1002
}
1002
{
1000
MANEDIT
1070
     1
1002
}
1002
{
1000
NOSEL
1070
     0
1002
}
1002
{
1000
BEHIND
1070
     0
1002
}
1002
{
1000
OTHER
1070
     0
1002
}
1002
{
1000
REACTOR
1002
}
  0
POINT
  5
FE6
  8
0
 10
-1897.2432012838231
 20
-466.8800504161278
 30
0.0
1001
GENIUS_GENOBJ-N-CRS_13
1002
{
1000
OWNER
1000
GEN
1002
}
1001
GENIUS_GENOLIS_13
1002
{
1000
ENT
1005
0
1005
0
1005
0
1005
FA0
1002
}
1001
GENIUS_GENOENT_13
1002
{
1000
MYREF
1005
FE6
1002
}
1002
{
1000
GRP
1005
0
1002
}
1001
GENIUS_GENODEF_13
1002
{
1000
HIER
1070
    10
1002
}
1002
{
1000
MANEDIT
1070
     1
1002
}
1002
{
1000
NOSEL
1070
     0
1002
}
1002
{
1000
BEHIND
1070
     0
1002
}
1002
{
1000
OTHER
1070
     0
1002
}
1002
{
1000
REACTOR
1002
}
  0
POINT
  5
FE7
  8
0
 10
-1890.884527585986
 20
-475.755636894764
 30
0.0
1001
GENIUS_GENOBJ-N-CRS_13
1002
{
1000
OWNER
1000
GEN
1002
}
1001
GENIUS_GENOLIS_13
1002
{
1000
ENT
1005
0
1005
0
1005
0
1005
F9F
1002
}
1001
GENIUS_GENOENT_13
1002
{
1000
MYREF
1005
FE7
1002
}
1002
{
1000
GRP
1005
0
1002
}
1001
GENIUS_GENODEF_13
1002
{
1000
HIER
1070
    10
1002
}
1002
{
1000
MANEDIT
1070
     1
1002
}
1002
{
1000
NOSEL
1070
     0
1002
}
1002
{
1000
BEHIND
1070
     0
1002
}
1002
{
1000
OTHER
1070
     0
1002
}
1002
{
1000
REACTOR
1002
}
  0
INSERT
  5
153D
  8
0
  2
A$C5E79093D
 10
299.05906541202319
 20
292.31975586828838
 30
0.0
  0
LINE
  5
1967
  8
AM_7
 10
255.5772969147898
 20
247.34873412383939
 30
0.0
 11
255.5772969147898
 21
245.84873412383951
 31
0.0
  0
LINE
  5
1968
  8
AM_7
 10
254.8272969147898
 20
246.59873412383951
 30
0.0
 11
256.32729691478983
 21
246.59873412383951
 31
0.0
  0
LINE
  5
1969
  8
AM_7
 10
255.5772969147898
 20
258.09873412383939
 30
0.0
 11
255.5772969147898
 21
248.1487341238394
 31
0.0
  0
LINE
  5
196A
  8
AM_7
 10
255.5772969147898
 20
245.04873412383949
 30
0.0
 11
255.5772969147898
 21
235.09873412383939
 31
0.0
  0
LINE
  5
196B
  8
AM_7
 10
244.0772969147898
 20
246.59873412383951
 30
0.0
 11
254.02729691478979
 21
246.59873412383951
 31
0.0
  0
LINE
  5
196C
  8
AM_7
 10
257.12729691478989
 20
246.59873412383951
 30
0.0
 11
267.07729691478983
 21
246.59873412383951
 31
0.0
  0
LINE
  5
196D
  8
AM_7
 10
260.57729691478983
 20
268.34873412383939
 30
0.0
 11
260.57729691478983
 21
266.84873412383951
 31
0.0
  0
LINE
  5
196E
  8
AM_7
 10
259.82729691478983
 20
267.59873412383939
 30
0.0
 11
261.32729691478983
 21
267.59873412383939
 31
0.0
  0
LINE
  5
196F
  8
AM_7
 10
260.57729691478983
 20
279.09873412383951
 30
0.0
 11
260.57729691478983
 21
269.1487341238394
 31
0.0
  0
LINE
  5
1970
  8
AM_7
 10
260.57729691478983
 20
266.04873412383949
 30
0.0
 11
260.57729691478983
 21
256.09873412383939
 31
0.0
  0
LINE
  5
1971
  8
AM_7
 10
249.0772969147898
 20
267.59873412383939
 30
0.0
 11
259.02729691478982
 21
267.59873412383939
 31
0.0
  0
LINE
  5
1972
  8
AM_7
 10
262.12729691478989
 20
267.59873412383939
 30
0.0
 11
272.07729691478983
 21
267.59873412383939
 31
0.0
  0
LINE
  5
1973
  8
AM_7
 10
255.5772969147898
 20
289.34873412383939
 30
0.0
 11
255.5772969147898
 21
287.84873412383951
 31
0.0
  0
LINE
  5
1974
  8
AM_7
 10
254.8272969147898
 20
288.59873412383939
 30
0.0
 11
256.32729691478983
 21
288.59873412383939
 31
0.0
  0
LINE
  5
1975
  8
AM_7
 10
255.5772969147898
 20
300.09873412383951
 30
0.0
 11
255.5772969147898
 21
290.1487341238394
 31
0.0
  0
LINE
  5
1976
  8
AM_7
 10
255.5772969147898
 20
287.04873412383949
 30
0.0
 11
255.5772969147898
 21
277.09873412383951
 31
0.0
  0
LINE
  5
1977
  8
AM_7
 10
244.0772969147898
 20
288.59873412383939
 30
0.0
 11
254.02729691478979
 21
288.59873412383939
 31
0.0
  0
LINE
  5
1978
  8
AM_7
 10
257.12729691478989
 20
288.59873412383939
 30
0.0
 11
267.07729691478983
 21
288.59873412383939
 31
0.0
  0
ARC
  5
1979
  8
AM_4
  6
AM_ISO02W050X2
 10
255.5772969147898
 20
288.59873412383939
 30
0.0
 40
6.5785
 50
252.4892666395553
 51
199.92925575911599
  0
LINE
  5
1986
  8
AM_7
 10
318.28031284414942
 20
287.29873412383938
 30
0.0
 11
318.28031284414942
 21
243.50328612456431
 31
0.0
  0
LINE
  5
198A
  8
AM_7
 10
324.88031284414927
 20
286.34873412383928
 30
0.0
 11
324.88031284414927
 21
284.84873412383939
 31
0.0
  0
LINE
  5
198B
  8
AM_7
 10
324.13031284414927
 20
285.59873412383928
 30
0.0
 11
325.63031284414927
 21
285.59873412383928
 31
0.0
  0
LINE
  5
198C
  8
AM_7
 10
324.88031284414927
 20
288.8982341238393
 30
0.0
 11
324.88031284414927
 21
287.14873412383929
 31
0.0
  0
LINE
  5
198D
  8
AM_7
 10
324.88031284414927
 20
284.04873412383938
 30
0.0
 11
324.88031284414927
 21
282.29923412383943
 31
0.0
  0
LINE
  5
198E
  8
AM_7
 10
321.58081284414942
 20
285.59873412383928
 30
0.0
 11
323.33031284414938
 21
285.59873412383928
 31
0.0
  0
LINE
  5
198F
  8
AM_7
 10
326.4303128441494
 20
285.59873412383928
 30
0.0
 11
328.17981284414941
 21
285.59873412383928
 31
0.0
  0
LINE
  5
1990
  8
AM_7
 10
313.28031284414942
 20
250.34873412383931
 30
0.0
 11
313.28031284414942
 21
248.84873412383931
 31
0.0
  0
LINE
  5
1991
  8
AM_7
 10
312.53031284414942
 20
249.59873412383931
 30
0.0
 11
314.03031284414942
 21
249.59873412383931
 31
0.0
  0
LINE
  5
1992
  8
AM_7
 10
313.28031284414942
 20
252.8982341238393
 30
0.0
 11
313.28031284414942
 21
251.14873412383929
 31
0.0
  0
LINE
  5
1993
  8
AM_7
 10
313.28031284414942
 20
248.04873412383941
 30
0.0
 11
313.28031284414942
 21
246.2992341238394
 31
0.0
  0
LINE
  5
1994
  8
AM_7
 10
309.98081284414928
 20
249.59873412383931
 30
0.0
 11
311.73031284414941
 21
249.59873412383931
 31
0.0
  0
LINE
  5
1995
  8
AM_7
 10
314.83031284414938
 20
249.59873412383931
 30
0.0
 11
316.57981284414939
 21
249.59873412383931
 31
0.0
  0
LINE
  5
1996
  8
AM_7
 10
307.08031284414938
 20
278.34873412383939
 30
0.0
 11
307.08031284414938
 21
276.84873412383928
 31
0.0
  0
LINE
  5
1997
  8
AM_7
 10
306.33031284414938
 20
277.59873412383928
 30
0.0
 11
307.83031284414938
 21
277.59873412383928
 31
0.0
  0
LINE
  5
1998
  8
AM_7
 10
307.08031284414938
 20
281.84873412383928
 30
0.0
 11
307.08031284414938
 21
279.14873412383929
 31
0.0
  0
LINE
  5
1999
  8
AM_7
 10
307.08031284414938
 20
276.04873412383938
 30
0.0
 11
307.08031284414938
 21
273.34873412383928
 31
0.0
  0
LINE
  5
199A
  8
AM_7
 10
302.83031284414938
 20
277.59873412383928
 30
0.0
 11
305.53031284414942
 21
277.59873412383928
 31
0.0
  0
LINE
  5
199B
  8
AM_7
 10
308.63031284414927
 20
277.59873412383928
 30
0.0
 11
311.33031284414938
 21
277.59873412383928
 31
0.0
  0
LINE
  5
199C
  8
AM_7
 10
307.08031284414938
 20
258.34873412383928
 30
0.0
 11
307.08031284414938
 21
256.84873412383928
 31
0.0
  0
LINE
  5
199D
  8
AM_7
 10
306.33031284414938
 20
257.59873412383939
 30
0.0
 11
307.83031284414938
 21
257.59873412383939
 31
0.0
  0
LINE
  5
199E
  8
AM_7
 10
307.08031284414938
 20
261.84873412383928
 30
0.0
 11
307.08031284414938
 21
259.14873412383929
 31
0.0
  0
LINE
  5
199F
  8
AM_7
 10
307.08031284414938
 20
256.04873412383938
 30
0.0
 11
307.08031284414938
 21
253.34873412383939
 31
0.0
  0
LINE
  5
19A0
  8
AM_7
 10
302.83031284414938
 20
257.59873412383939
 30
0.0
 11
305.53031284414942
 21
257.59873412383939
 31
0.0
  0
LINE
  5
19A1
  8
AM_7
 10
308.63031284414927
 20
257.59873412383939
 30
0.0
 11
311.33031284414938
 21
257.59873412383939
 31
0.0
  0
LINE
  5
19A2
  8
AM_7
 10
347.08031284414938
 20
278.34873412383939
 30
0.0
 11
347.08031284414938
 21
276.84873412383928
 31
0.0
  0
LINE
  5
19A3
  8
AM_7
 10
346.33031284414938
 20
277.59873412383928
 30
0.0
 11
347.83031284414938
 21
277.59873412383928
 31
0.0
  0
LINE
  5
19A4
  8
AM_7
 10
347.08031284414938
 20
281.84873412383928
 30
0.0
 11
347.08031284414938
 21
279.14873412383929
 31
0.0
  0
LINE
  5
19A5
  8
AM_7
 10
347.08031284414938
 20
276.04873412383938
 30
0.0
 11
347.08031284414938
 21
273.34873412383928
 31
0.0
  0
LINE
  5
19A6
  8
AM_7
 10
342.83031284414938
 20
277.59873412383928
 30
0.0
 11
345.53031284414942
 21
277.59873412383928
 31
0.0
  0
LINE
  5
19A7
  8
AM_7
 10
348.63031284414927
 20
277.59873412383928
 30
0.0
 11
351.33031284414938
 21
277.59873412383928
 31
0.0
  0
LINE
  5
19A8
  8
AM_7
 10
347.08031284414938
 20
258.34873412383928
 30
0.0
 11
347.08031284414938
 21
256.84873412383928
 31
0.0
  0
LINE
  5
19A9
  8
AM_7
 10
346.33031284414938
 20
257.59873412383939
 30
0.0
 11
347.83031284414938
 21
257.59873412383939
 31
0.0
  0
LINE
  5
19AA
  8
AM_7
 10
347.08031284414938
 20
261.84873412383928
 30
0.0
 11
347.08031284414938
 21
259.14873412383929
 31
0.0
  0
LINE
  5
19AB
  8
AM_7
 10
347.08031284414938
 20
256.04873412383938
 30
0.0
 11
347.08031284414938
 21
253.34873412383939
 31
0.0
  0
LINE
  5
19AC
  8
AM_7
 10
342.83031284414938
 20
257.59873412383939
 30
0.0
 11
345.53031284414942
 21
257.59873412383939
 31
0.0
  0
LINE
  5
19AD
  8
AM_7
 10
348.63031284414927
 20
257.59873412383939
 30
0.0
 11
351.33031284414938
 21
257.59873412383939
 31
0.0
  0
ARC
  5
19B4
  8
AM_4
  6
AM_ISO02W050X2
 10
324.88031284414939
 20
285.59873412383928
 30
0.0
 40
1.5860000000000001
 50
248.33869186959049
 51
202.4989651794215
  0
LINE
  5
19BE
  8
AM_7
 10
334.28031284414942
 20
287.29873412383938
 30
0.0
 11
334.28031284414942
 21
243.40903404882721
 31
0.0
  0
LINE
  5
19C2
  8
AM_7
 10
340.88031284414927
 20
286.34873412383928
 30
0.0
 11
340.88031284414927
 21
284.84873412383939
 31
0.0
  0
LINE
  5
19C3
  8
AM_7
 10
340.13031284414927
 20
285.59873412383928
 30
0.0
 11
341.63031284414927
 21
285.59873412383928
 31
0.0
  0
LINE
  5
19C4
  8
AM_7
 10
340.88031284414927
 20
288.8982341238393
 30
0.0
 11
340.88031284414927
 21
287.14873412383929
 31
0.0
  0
LINE
  5
19C5
  8
AM_7
 10
340.88031284414927
 20
284.04873412383938
 30
0.0
 11
340.88031284414927
 21
282.29923412383943
 31
0.0
  0
LINE
  5
19C6
  8
AM_7
 10
337.58081284414942
 20
285.59873412383928
 30
0.0
 11
339.33031284414938
 21
285.59873412383928
 31
0.0
  0
LINE
  5
19C7
  8
AM_7
 10
342.4303128441494
 20
285.59873412383928
 30
0.0
 11
344.17981284414941
 21
285.59873412383928
 31
0.0
  0
LINE
  5
19C8
  8
AM_7
 10
329.28031284414942
 20
250.34873412383931
 30
0.0
 11
329.28031284414942
 21
248.84873412383931
 31
0.0
  0
LINE
  5
19C9
  8
AM_7
 10
328.53031284414942
 20
249.59873412383931
 30
0.0
 11
330.03031284414942
 21
249.59873412383931
 31
0.0
  0
LINE
  5
19CA
  8
AM_7
 10
329.28031284414942
 20
252.8982341238393
 30
0.0
 11
329.28031284414942
 21
251.14873412383929
 31
0.0
  0
LINE
  5
19CB
  8
AM_7
 10
329.28031284414942
 20
248.04873412383941
 30
0.0
 11
329.28031284414942
 21
246.2992341238394
 31
0.0
  0
LINE
  5
19CC
  8
AM_7
 10
325.98081284414928
 20
249.59873412383931
 30
0.0
 11
327.73031284414941
 21
249.59873412383931
 31
0.0
  0
LINE
  5
19CD
  8
AM_7
 10
330.83031284414938
 20
249.59873412383931
 30
0.0
 11
332.57981284414939
 21
249.59873412383931
 31
0.0
  0
LINE
  5
19F8
  8
AM_7
 10
272.07729691478983
 20
267.59873412383939
 30
0.0
 11
263.36504168660042
 21
267.59873412383939
 31
0.0
  0
DIMENSION
  5
1A03
  8
AM_5
  2
*D4
 10
297.08031284414938
 20
225.59873412383931
 30
0.0
 11
302.08031284414938
 21
228.34873412383939
 31
0.0
 70
     0
 13
307.08031284414938
 23
253.34873412383939
 33
0.0
 14
297.08031284414938
 24
237.59873412383931
 34
0.0
  0
DIMENSION
  5
1A04
  8
AM_5
  2
*D5
 10
347.08031284414938
 20
225.59873412383931
 30
0.0
 11
327.08031284414938
 21
228.34873412383939
 31
0.0
 70
     0
  1
Y
 13
307.08031284414938
 23
253.34873412383939
 33
0.0
 14
347.08031284414938
 24
253.34873412383939
 34
0.0
  0
DIMENSION
  5
1A07
  8
AM_5
  2
*D6
 10
357.08031284414938
 20
217.59873412383931
 30
0.0
 11
327.08031284414938
 21
220.34873412383931
 31
0.0
 70
     0
  1
L
 13
297.08031284414938
 23
237.59873412383931
 33
0.0
 14
357.08031284414938
 24
237.59873412383931
 34
0.0
  0
DIMENSION
  5
1A09
  8
AM_5
  2
*D7
 10
364.33085892891432
 20
257.59873412383939
 30
0.0
 11
361.58051444072521
 21
267.59873412383939
 31
0.0
 70
     0
 13
351.33031284414938
 23
277.59873412383928
 33
0.0
 14
351.33031284414938
 24
257.59873412383939
 34
0.0
 50
270.0
  0
DIMENSION
  5
1A0A
  8
AM_5
  2
*D8
 10
345.59163594423018
 20
259.285844401102
 30
0.0
 11
379.0580656888875
 21
235.12072183029929
 31
0.0
 70
   131
  1
2×2-<>貫通
 15
348.56898974406892
 25
255.91162384657611
 35
0.0
 40
0.0
1001
ACAD
1000
DSTYLE
1002
{
1070
   287
1070
     3
1070
    74
1070
     1
1070
   172
1070
     0
1070
   271
1070
     1
1070
   289
1070
     3
1002
}
  0
DIMENSION
  5
1A11
  8
AM_5
  2
*D9
 10
290.83031284414938
 20
285.59873412383928
 30
0.0
 11
288.08031284414932
 21
276.59873412383939
 31
0.0
 70
     0
 13
294.90397927422168
 23
267.59873412383939
 33
0.0
 14
321.58081284414942
 24
285.59873412383928
 34
0.0
 50
270.0
  0
DIMENSION
  5
1A12
  8
AM_5
  2
*D10
 10
290.83031284414938
 20
249.59873412383931
 30
0.0
 11
288.08031284414932
 21
258.59873412383951
 31
0.0
 70
     0
 13
293.90397927422168
 23
267.59873412383939
 33
0.0
 14
309.98081284414928
 24
249.59873412383931
 34
0.0
 50
270.0
  0
DIMENSION
  5
1A1F
  8
AM_5
  2
*D11
 10
260.57729691478983
 20
217.59873412383939
 30
0.0
 11
252.3272969147898
 21
220.52373412383949
 31
0.0
 70
     0
  1
(<>)
 13
244.0772969147898
 23
237.8987341238394
 33
0.0
 14
260.57729691478983
 24
256.09873412383939
 34
0.0
  0
DIMENSION
  5
1A20
  8
AM_5
  2
*D12
 10
270.07729691478983
 20
209.59873412383939
 30
0.0
 11
257.07729691478983
 21
212.34907861202839
 31
0.0
 70
     0
  1
<>
 13
244.0772969147898
 23
237.8987341238394
 33
0.0
 14
270.07729691478983
 24
238.59873412383939
 34
0.0
  0
DIMENSION
  5
1A29
  8
AM_5
  2
*D13
 10
236.75786060779259
 20
288.59873412383939
 30
0.0
 11
233.83286060779261
 21
278.09873412383951
 31
0.0
 70
     0
  1
(<>)
 13
249.0772969147898
 23
267.59873412383939
 33
0.0
 14
244.0772969147898
 24
288.59873412383939
 34
0.0
 50
270.0
  0
DIMENSION
  5
1A2A
  8
AM_5
  2
*D14
 10
236.7578606177926
 20
246.59873412383951
 30
0.0
 11
233.83286061779259
 21
257.09873412383951
 31
0.0
 70
     0
  1
(<>)
 13
249.0772969147898
 23
267.59873412383939
 33
0.0
 14
244.0772969147898
 24
246.59873412383951
 34
0.0
 50
270.0
  0
DIMENSION
  5
1A2B
  8
AM_5
  2
*D15
 10
230.4776648484989
 20
237.59873412383951
 30
0.0
 11
227.72766484849879
 21
267.59873412383951
 31
0.0
 70
     0
 13
244.37729691478989
 23
297.59873412383939
 33
0.0
 14
244.37729691478989
 24
237.59873412383951
 34
0.0
 50
270.0
  0
LINE
  5
1A2C
  8
AM_VIS
 10
244.37729691478989
 20
237.59873412383951
 30
0.0
 11
269.07729691478983
 21
237.59873412383951
 31
0.0
  0
LINE
  5
1A2D
  8
AM_VIS
 10
244.0772969147898
 20
240.29873412383949
 30
0.0
 11
244.0772969147898
 21
237.8987341238394
 31
0.0
  0
LINE
  5
1A2E
  8
AM_VIS
 10
246.3442042584802
 20
240.59873412383939
 30
0.0
 11
244.37729691478989
 21
240.59873412383939
 31
0.0
  0
LINE
  5
1A2F
  8
AM_VIS
 10
244.37729691478989
 20
294.59873412383939
 30
0.0
 11
246.3442042584802
 21
294.59873412383939
 31
0.0
  0
LINE
  5
1A30
  8
AM_VIS
 10
244.0772969147898
 20
297.29873412383949
 30
0.0
 11
244.0772969147898
 21
294.8987341238394
 31
0.0
  0
LINE
  5
1A31
  8
AM_VIS
 10
269.07729691478983
 20
297.59873412383939
 30
0.0
 11
244.37729691478989
 21
297.59873412383939
 31
0.0
  0
LINE
  5
1A32
  8
AM_VIS
 10
253.5772969147898
 20
279.31164631333598
 30
0.0
 11
255.5772969147898
 21
275.67648133454122
 31
0.0
  0
LINE
  5
1A33
  8
AM_VIS
 10
255.5772969147898
 20
259.52098691313768
 30
0.0
 11
253.5772969147898
 21
255.88582193434291
 31
0.0
  0
LINE
  5
1A34
  8
AM_VIS
 10
270.07729691478983
 20
238.59873412383939
 30
0.0
 11
270.07729691478983
 21
296.59873412383951
 31
0.0
  0
CIRCLE
  5
1A50
  8
AM_VIS
 10
255.5772969147898
 20
288.59873412383939
 30
0.0
 40
5.7225000000000001
  0
ARC
  5
1A55
  8
AM_VIS
 10
244.37729691478989
 20
237.89873412383929
 30
0.0
 40
0.3
 50
180.0
 51
270.0
  0
ARC
  5
1A56
  8
AM_VIS
 10
244.37729691478989
 20
240.29873412383941
 30
0.0
 40
0.3
 50
89.999999999999986
 51
180.0
  0
ARC
  5
1A57
  8
AM_VIS
 10
246.3442042584802
 20
241.59873412383931
 30
0.0
 40
1.0
 50
270.0
 51
28.436890148855301
  0
ARC
  5
1A58
  8
AM_VIS
 10
255.5772969147898
 20
246.59873412383931
 30
0.0
 40
9.5
 50
102.15319746900749
 51
208.4368901488553
  0
ARC
  5
1A59
  8
AM_VIS
 10
246.3442042584802
 20
293.59873412383928
 30
0.0
 40
1.0
 50
331.56310985114459
 51
89.999999999999986
  0
ARC
  5
1A5A
  8
AM_VIS
 10
244.37729691478989
 20
294.89873412383929
 30
0.0
 40
0.3
 50
180.0
 51
270.0
  0
ARC
  5
1A5B
  8
AM_VIS
 10
244.37729691478989
 20
297.29873412383938
 30
0.0
 40
0.3
 50
89.999999999999986
 51
180.0
  0
ARC
  5
1A5C
  8
AM_VIS
 10
269.07729691478983
 20
296.59873412383928
 30
0.0
 40
0.9999999999999998
 50
0.0
 51
89.999999999999986
  0
ARC
  5
1A5D
  8
AM_VIS
 10
269.07729691478983
 20
238.59873412383939
 30
0.0
 40
0.9999999999999998
 50
270.0
 51
0.0
  0
ARC
  5
1A61
  8
AM_VIS
 10
260.57729691478983
 20
267.59873412383928
 30
0.0
 40
9.5
 50
121.75686385929551
 51
238.24313614070309
  0
ARC
  5
1A62
  8
AM_VIS
 10
255.5772969147898
 20
288.59873412383939
 30
0.0
 40
9.5
 50
151.5631098511447
 51
257.84680253099248
  0
CIRCLE
  5
1A76
  8
AM_VIS
 10
347.08031284414949
 20
257.59873412383939
 30
0.0
 40
2.25
  0
CIRCLE
  5
1A77
  8
AM_VIS
 10
347.08031284414949
 20
277.59873412383928
 30
0.0
 40
2.25
  0
CIRCLE
  5
1A78
  8
AM_VIS
 10
307.08031284414949
 20
257.59873412383939
 30
0.0
 40
2.25
  0
CIRCLE
  5
1A79
  8
AM_VIS
 10
307.08031284414949
 20
277.59873412383928
 30
0.0
 40
2.25
  0
CIRCLE
  5
1A7E
  8
AM_VIS
 10
329.28031284414942
 20
249.59873412383931
 30
0.0
 40
1.2995000000000001
  0
CIRCLE
  5
1A7F
  8
AM_VIS
 10
340.8803128441495
 20
285.59873412383928
 30
0.0
 40
1.2995000000000001
  0
CIRCLE
  5
1A80
  8
AM_VIS
 10
313.28031284414942
 20
249.59873412383931
 30
0.0
 40
1.2995000000000001
  0
CIRCLE
  5
1A81
  8
AM_VIS
 10
324.88031284414939
 20
285.59873412383928
 30
0.0
 40
1.2995000000000001
  0
LINE
  5
1A82
  8
AM_VIS
 10
297.08031284414938
 20
237.59873412383931
 30
0.0
 11
297.08031284414938
 21
238.59873412383939
 31
0.0
  0
LINE
  5
1A83
  8
AM_VIS
 10
297.08031284414938
 20
296.59873412383928
 30
0.0
 11
297.08031284414938
 21
297.59873412383928
 31
0.0
  0
LINE
  5
1A84
  8
AM_VIS
 10
357.08031284414938
 20
238.59873412383939
 30
0.0
 11
357.08031284414938
 21
237.59873412383931
 31
0.0
  0
LINE
  5
1A85
  8
AM_VIS
 10
357.08031284414938
 20
297.59873412383928
 30
0.0
 11
357.08031284414938
 21
296.59873412383928
 31
0.0
  0
LINE
  5
1A86
  8
AM_VIS
 10
357.08031284414938
 20
238.59873412383939
 30
0.0
 11
357.08031284414938
 21
296.59873412383928
 31
0.0
  0
LINE
  5
1A87
  8
AM_VIS
 10
297.08031284414938
 20
238.59873412383939
 30
0.0
 11
297.08031284414938
 21
296.59873412383928
 31
0.0
  0
LINE
  5
1A8E
  8
AM_VIS
 10
297.08031284414938
 20
237.59873412383931
 30
0.0
 11
357.08031284414938
 21
237.59873412383931
 31
0.0
  0
LINE
  5
1A8F
  8
AM_VIS
 10
357.08031284414938
 20
297.59873412383928
 30
0.0
 11
297.08031284414938
 21
297.59873412383928
 31
0.0
  0
DIMENSION
  5
1EC9
  8
AM_5
  2
*D16
 10
255.5772969147898
 20
225.59873412383951
 30
0.0
 11
249.8272969147898
 21
228.52373412383949
 31
0.0
 70
     0
  1
(<>)
 13
244.0772969147898
 23
237.8987341238394
 33
0.0
 14
255.5772969147898
 24
235.09873412383939
 34
0.0
 50
0.0000000000002036
  0
DIMENSION
  5
201E
  8
AM_5
  2
*D17
 10
255.5772969147898
 20
288.59873412383911
 30
0.0
 11
234.1922945676971
 21
307.43733063131401
 31
0.0
 70
   132
  1
3×2-PT1/4
 15
252.69428251372651
 25
294.51184584384453
 35
0.0
 40
0.0
1001
ACAD
1000
DSTYLE
1002
{
1070
    40
1040
1.0
1070
   144
1040
1.0
1002
}
  0
ARC
  5
204E
  8
AM_4
  6
AM_ISO02W050X2
 10
260.57729691478983
 20
267.59873412383928
 30
0.0
 40
6.5785
 50
252.4892666395553
 51
199.92925575911599
  0
CIRCLE
  5
204F
  8
AM_VIS
 10
260.57729691478983
 20
267.59873412383928
 30
0.0
 40
5.7225000000000001
  0
ARC
  5
2050
  8
AM_4
  6
AM_ISO02W050X2
 10
255.5772969147898
 20
246.59873412383931
 30
0.0
 40
6.5785
 50
252.4892666395553
 51
199.92925575911599
  0
CIRCLE
  5
2051
  8
AM_VIS
 10
255.5772969147898
 20
246.59873412383931
 30
0.0
 40
5.7225000000000001
  0
ARC
  5
20B7
  8
AM_4
  6
AM_ISO02W050X2
 10
340.8803128441495
 20
285.59873412383928
 30
0.0
 40
1.5860000000000001
 50
248.33869186959049
 51
202.4989651794215
  0
ARC
  5
20BA
  8
AM_4
  6
AM_ISO02W050X2
 10
313.28031284414942
 20
249.59873412383931
 30
0.0
 40
1.5860000000000001
 50
248.33869186959049
 51
202.4989651794215
  0
ARC
  5
20BB
  8
AM_4
  6
AM_ISO02W050X2
 10
329.28031284414942
 20
249.59873412383931
 30
0.0
 40
1.5860000000000001
 50
248.33869186959049
 51
202.4989651794215
  0
INSERT
  5
2222
  8
0
  2
A$C117B347F
 10
317.74634317054893
 20
305.77883292068577
 30
0.0
  0
LINE
  5
2223
  8
SL
  6
ACISOTGB
 10
329.05906541202359
 20
265.79254157899248
 30
0.0
 11
323.03300336334399
 21
265.79254157899248
 31
0.0
  0
LINE
  5
2224
  8
SL
  6
ACISOTGB
 10
323.03300336334399
 20
265.79254157899248
 30
0.0
 11
323.03300336334399
 21
234.5812345671898
 31
0.0
  0
LINE
  5
2225
  8
AM_7
 10
358.53963145418862
 20
267.59873412383939
 30
0.0
 11
294.90397927422168
 21
267.59873412383939
 31
0.0
  0
ENDSEC
  0
EOF
