  0
SECTION
  2
HEADER
  9
$ACADVER
  1
AC1012
  9
$DWGCODEPAGE
  3
big5
  9
$INSBASE
 10
0.0
 20
0.0
 30
0.0
  9
$EXTMIN
 10
1261.440412984887
 20
175.4075311848801
 30
0.0
  9
$EXTMAX
 10
1552.756159033255
 20
489.4983489988332
 30
0.0
  9
$LIMMIN
 10
0.0
 20
0.0
  9
$LIMMAX
 10
420.0
 20
297.0
  9
$ORTHOMODE
 70
     0
  9
$REGENMODE
 70
     1
  9
$FILLMODE
 70
     1
  9
$QTEXTMODE
 70
     0
  9
$MIRRTEXT
 70
     1
  9
$DRAGMODE
 70
     2
  9
$LTSCALE
 40
1.0
  9
$OSMODE
 70
    37
  9
$ATTMODE
 70
     1
  9
$TEXTSIZE
 40
2.5
  9
$TRACEWID
 40
1.0
  9
$TEXTSTYLE
  7
DAYUS
  9
$CLAYER
  8
0
  9
$CELTYPE
  6
BYLAYER
  9
$CECOLOR
 62
   256
  9
$CELTSCALE
 40
1.0
  9
$DELOBJ
 70
     1
  9
$DISPSILH
 70
     0
  9
$DIMSCALE
 40
1.0
  9
$DIMASZ
 40
3.0
  9
$DIMEXO
 40
1.5
  9
$DIMDLI
 40
10.0
  9
$DIMRND
 40
0.0
  9
$DIMDLE
 40
0.0
  9
$DIMEXE
 40
2.0
  9
$DIMTP
 40
0.01
  9
$DIMTM
 40
0.01
  9
$DIMTXT
 40
3.5
  9
$DIMCEN
 40
3.0
  9
$DIMTSZ
 40
0.0
  9
$DIMTOL
 70
     0
  9
$DIMLIM
 70
     0
  9
$DIMTIH
 70
     0
  9
$DIMTOH
 70
     0
  9
$DIMSE1
 70
     0
  9
$DIMSE2
 70
     0
  9
$DIMTAD
 70
     1
  9
$DIMZIN
 70
     8
  9
$DIMBLK
  1

  9
$DIMASO
 70
     1
  9
$DIMSHO
 70
     1
  9
$DIMPOST
  1

  9
$DIMAPOST
  1

  9
$DIMALT
 70
     0
  9
$DIMALTD
 70
     2
  9
$DIMALTF
 40
25.4
  9
$DIMLFAC
 40
1.0
  9
$DIMTOFL
 70
     1
  9
$DIMTVP
 40
0.0
  9
$DIMTIX
 70
     0
  9
$DIMSOXD
 70
     0
  9
$DIMSAH
 70
     0
  9
$DIMBLK1
  1

  9
$DIMBLK2
  1

  9
$DIMSTYLE
  2
STANDARD
  9
$DIMCLRD
 70
   256
  9
$DIMCLRE
 70
   256
  9
$DIMCLRT
 70
   256
  9
$DIMTFAC
 40
0.6
  9
$DIMGAP
 40
0.8
  9
$DIMJUST
 70
     0
  9
$DIMSD1
 70
     0
  9
$DIMSD2
 70
     0
  9
$DIMTOLJ
 70
     0
  9
$DIMTZIN
 70
     8
  9
$DIMALTZ
 70
     0
  9
$DIMALTTZ
 70
     0
  9
$DIMFIT
 70
     3
  9
$DIMUPT
 70
     0
  9
$DIMUNIT
 70
     2
  9
$DIMDEC
 70
     2
  9
$DIMTDEC
 70
     2
  9
$DIMALTU
 70
     2
  9
$DIMALTTD
 70
     2
  9
$DIMTXSTY
  7
STANDARD
  9
$DIMAUNIT
 70
     0
  9
$LUNITS
 70
     2
  9
$LUPREC
 70
     2
  9
$SKETCHINC
 40
1.0
  9
$FILLETRAD
 40
5.0
  9
$AUNITS
 70
     0
  9
$AUPREC
 70
     0
  9
$MENU
  1
.
  9
$ELEVATION
 40
0.0
  9
$PELEVATION
 40
0.0
  9
$THICKNESS
 40
0.0
  9
$LIMCHECK
 70
     0
  9
$BLIPMODE
 70
     0
  9
$CHAMFERA
 40
2.5
  9
$CHAMFERB
 40
2.5
  9
$CHAMFERC
 40
20.0
  9
$CHAMFERD
 40
0.0
  9
$SKPOLY
 70
     0
  9
$TDCREATE
 40
2452292.457678333
  9
$TDUPDATE
 40
2453057.564203368
  9
$TDINDWG
 40
2.4911432176
  9
$TDUSRTIMER
 40
2.4911431019
  9
$USRTIMER
 70
     1
  9
$ANGBASE
 50
0.0
  9
$ANGDIR
 70
     0
  9
$PDMODE
 70
     0
  9
$PDSIZE
 40
0.0
  9
$PLINEWID
 40
0.0
  9
$COORDS
 70
     1
  9
$SPLFRAME
 70
     0
  9
$SPLINETYPE
 70
     6
  9
$SPLINESEGS
 70
     8
  9
$ATTDIA
 70
     1
  9
$ATTREQ
 70
     1
  9
$HANDLING
 70
 22529
  9
$HANDSEED
  5
168BB
  9
$SURFTAB1
 70
     6
  9
$SURFTAB2
 70
     6
  9
$SURFTYPE
 70
     6
  9
$SURFU
 70
     6
  9
$SURFV
 70
     6
  9
$UCSNAME
  2

  9
$UCSORG
 10
0.0
 20
0.0
 30
0.0
  9
$UCSXDIR
 10
1.0
 20
0.0
 30
0.0
  9
$UCSYDIR
 10
0.0
 20
1.0
 30
0.0
  9
$PUCSNAME
  2

  9
$PUCSORG
 10
0.0
 20
0.0
 30
0.0
  9
$PUCSXDIR
 10
1.0
 20
0.0
 30
0.0
  9
$PUCSYDIR
 10
0.0
 20
1.0
 30
0.0
  9
$USERI1
 70
     0
  9
$USERI2
 70
     0
  9
$USERI3
 70
     0
  9
$USERI4
 70
     0
  9
$USERI5
 70
     0
  9
$USERR1
 40
0.0
  9
$USERR2
 40
0.0
  9
$USERR3
 40
0.0
  9
$USERR4
 40
0.0
  9
$USERR5
 40
0.0
  9
$WORLDVIEW
 70
     1
  9
$SHADEDGE
 70
     3
  9
$SHADEDIF
 70
    70
  9
$TILEMODE
 70
     1
  9
$MAXACTVP
 70
    48
  9
$PINSBASE
 10
0.0
 20
0.0
 30
0.0
  9
$PLIMCHECK
 70
     0
  9
$PEXTMIN
 10
1.000000000000000E+20
 20
1.000000000000000E+20
 30
1.000000000000000E+20
  9
$PEXTMAX
 10
-1.000000000000000E+20
 20
-1.000000000000000E+20
 30
-1.000000000000000E+20
  9
$PLIMMIN
 10
0.0
 20
0.0
  9
$PLIMMAX
 10
420.0
 20
297.0
  9
$UNITMODE
 70
     0
  9
$VISRETAIN
 70
     1
  9
$PLINEGEN
 70
     0
  9
$PSLTSCALE
 70
     1
  9
$TREEDEPTH
 70
  3020
  9
$PICKSTYLE
 70
     1
  9
$CMLSTYLE
  2
STANDARD
  9
$CMLJUST
 70
     0
  9
$CMLSCALE
 40
20.0
  9
$SAVEIMAGES
 70
     1
  0
ENDSEC
  0
SECTION
  2
CLASSES
  0
CLASS
  1
ACDBDICTIONARYWDFLT
  2
AcDbDictionaryWithDefault
  3
AutoCAD 2000
 90
    32768
280
     0
281
     0
  0
CLASS
  1
ACDBPLACEHOLDER
  2
AcDbPlaceHolder
  3
AutoCAD 2000
 90
    32768
280
     0
281
     0
  0
CLASS
  1
LAYOUT
  2
AcDbLayout
  3
AutoCAD 2000
 90
    32768
280
     0
281
     0
  0
CLASS
  1
AMGSETTINGSOBJ
  2
AmgSettingsObj
  3
"AcadM|Product Description: AutoCAD Mechanical 2000|Company: Autodesk"
 90
    32768
280
     0
281
     0
  0
CLASS
  1
ACME_DOCUMENT
  2
AcMeDbDoc
  3
AcMeServices
 90
    32768
280
     0
281
     0
  0
CLASS
  1
ACMESCOPE
  2
AcMeScope
  3
AcMeServices
 90
    32768
280
     0
281
     0
  0
CLASS
  1
ACMECOMMANDHISTORY
  2
AcMeCommandHistory
  3
AcMeServices
 90
    32768
280
     0
281
     0
  0
CLASS
  1
DICTIONARYVAR
  2
AcDbDictionaryVar
  3
AutoCAD 2000
 90
    32768
280
     0
281
     0
  0
CLASS
  1
ACIMSYSVARMAN
  2
AcImSysVarManager
  3
AcMeServices
 90
    32768
280
     0
281
     0
  0
CLASS
  1
ACIMREALSYSVAR
  2
AcImRealSysVar
  3
AcMeServices
 90
    32768
280
     0
281
     0
  0
CLASS
  1
ACIMINTSYSVAR
  2
AcImIntSysVar
  3
AcMeServices
 90
    32768
280
     0
281
     0
  0
CLASS
  1
ACMEDRAWINGMAN
  2
AcMeDrawingMan
  3
AcMeServices
 90
    32768
280
     0
281
     0
  0
CLASS
  1
ACMEVIEW
  2
AcMeView
  3
AcMeServices
 90
    32768
280
     0
281
     0
  0
CLASS
  1
ACDBENTITYCACHE
  2
AcMeEntityCache
  3
AcMeServices
 90
    32768
280
     0
281
     0
  0
CLASS
  1
GSMANAGER
  2
AcMeGSManager
  3
AcMeServices
 90
    32768
280
     0
281
     0
  0
CLASS
  1
AMDTINTERNALREACTOR
  2
AmdtInternalReactor
  3
AcMeServices
 90
    32768
280
     0
281
     0
  0
CLASS
  1
ACMESTATEMGR
  2
AcMeStateMgr
  3
AcMeServices
 90
    32768
280
     0
281
     0
  0
CLASS
  1
ACME_DATABASE
  2
AcMeDbDatabase
  3
AcMeServices
 90
    32768
280
     0
281
     0
  0
CLASS
  1
ACRFINSADJUSTERMGR
  2
AcRfInsAdjusterMgr
  3
AcMeServices
 90
    32768
280
     0
281
     0
  0
CLASS
  1
ACMDATADICTIONARY
  2
AcmDataDictionary
  3
"AcmSymBB|Product Description: AutoCAD Mechanical 2000|Company: Autodesk"
 90
    32768
280
     0
281
     0
  0
CLASS
  1
ACMDATAENTRYBLOCK
  2
AcmDataEntryBlock
  3
"AcmSymBB|Product Description: AutoCAD Mechanical 2000|Company: Autodesk"
 90
    32768
280
     0
281
     0
  0
CLASS
  1
AMGOBJPROPCFG
  2
AmgObjPropCfg
  3
"AmgLay|Product Description: AutoCAD Mechanical 2000|Company: Autodesk"
 90
    32769
280
     0
281
     0
  0
CLASS
  1
ACAMGFILTERDAT
  2
AcAmgFilterDat
  3
"AcadM|Product Description: AutoCAD Mechanical 2000|Company: Autodesk"
 90
    32768
280
     0
281
     0
  0
CLASS
  1
LAYER_INDEX
  2
AcDbLayerIndex
  3
AutoCAD 2000
 90
    32768
280
     0
281
     0
  0
CLASS
  1
IDBUFFER
  2
AcDbIdBuffer
  3
AutoCAD 2000
 90
    32768
280
     0
281
     0
  0
CLASS
  1
ACIMSTRSYSVAR
  2
AcImStrSysVar
  3
AcMeServices
 90
    32768
280
     0
281
     0
  0
CLASS
  1
ACMSTANDARDISO
  2
AcmStandardISO
  3
"Amdt_StdImp|Product Description: AutoCAD Mechanical 2000|Company: Autodesk"
 90
    32768
280
     0
281
     0
  0
CLASS
  1
AMDTEDGESTANDARDISO
  2
AmdtEdgeStdISO
  3
"Amdt_StdImp|Product Description: AutoCAD Mechanical 2000|Company: Autodesk"
 90
    32768
280
     0
281
     0
  0
CLASS
  1
ACMSURFSTANDARDISO
  2
AcmSurfTextStdISO
  3
"Amdt_StdImp|Product Description: AutoCAD Mechanical 2000|Company: Autodesk"
 90
    32768
280
     0
281
     0
  0
CLASS
  1
ACMFCFSTANDARDISO
  2
AcmFCFStdISO
  3
"Amdt_StdImp|Product Description: AutoCAD Mechanical 2000|Company: Autodesk"
 90
    32768
280
     0
281
     0
  0
CLASS
  1
ACMWELDSTANDARDISO
  2
AcmWeldingStdISO
  3
"Amdt_StdImp|Product Description: AutoCAD Mechanical 2000|Company: Autodesk"
 90
    32768
280
     0
281
     0
  0
CLASS
  1
ACMIDSTANDARDISO
  2
AcmIdStdISO
  3
"Amdt_StdImp|Product Description: AutoCAD Mechanical 2000|Company: Autodesk"
 90
    32768
280
     0
281
     0
  0
CLASS
  1
ACMDATUMSTANDARDISO
  2
AcmDatumStdISO
  3
"Amdt_StdImp|Product Description: AutoCAD Mechanical 2000|Company: Autodesk"
 90
    32768
280
     0
281
     0
  0
CLASS
  1
ACMBOMSTANDARDISO
  2
AcmBOMStdISO
  3
"Amdt_StdImp|Product Description: AutoCAD Mechanical 2000|Company: Autodesk"
 90
    32768
280
     0
281
     0
  0
CLASS
  1
AMDTNOTE
  2
AmdtNote
  3
"AcmSymBB|Product Description: AutoCAD Mechanical 2000|Company: Autodesk"
 90
    33791
280
     0
281
     1
  0
CLASS
  1
ACGREFMASTER
  2
AcGrefMaster
  3
AcAttribServices
 90
    32768
280
     0
281
     0
  0
CLASS
  1
ACGREFACADMASTER
  2
AcGrefacadMaster
  3
AcGrefServices
 90
    32768
280
     0
281
     0
  0
CLASS
  1
AMIMASTER
  2
AmiMaster
  3
AmiServices
 90
    32768
280
     0
281
     0
  0
CLASS
  1
ACAMGTITLESTD
  2
AcAmgTitleStd
  3
"TITLEAPP"
 90
    32768
280
     0
281
     0
  0
CLASS
  1
ACMDETAILSTANDARDISO
  2
AmdtDetailSymStdISO
  3
"Amdt_StdImp|Product Description: AutoCAD Mechanical 2000|Company: Autodesk"
 90
    32768
280
     0
281
     0
  0
CLASS
  1
ACMSECTIONSTANDARDISO
  2
AmdtSectionSymStdISO
  3
"Amdt_StdImp|Product Description: AutoCAD Mechanical 2000|Company: Autodesk"
 90
    32768
280
     0
281
     0
  0
CLASS
  1
ACMCENTERLINESTANDARDISO
  2
AmdtCenterLineStdISO
  3
"Amdt_StdImp|Product Description: AutoCAD Mechanical 2000|Company: Autodesk"
 90
    32768
280
     0
281
     0
  0
CLASS
  1
ACMNOTESTANDARDISO
  2
AmdtNoteStdISO
  3
"Amdt_StdImp|Product Description: AutoCAD Mechanical 2000|Company: Autodesk"
 90
    32768
280
     0
281
     0
  0
CLASS
  1
ACAMGLAYSTD
  2
AcAmgLayStd
  3
"AcAmgLayStd|Product Description: AutoCAD Mechanical 2000|Company: Autodesk"
 90
    32768
280
     0
281
     0
  0
CLASS
  1
ACAMGDIMSTD
  2
AcAmgDimStd
  3
"AcAmgDimStd|Product Description: AutoCAD Mechanical 2000|Company: Autodesk"
 90
    32768
280
     0
281
     0
  0
CLASS
  1
ACAMGHOLECHARTSTDISO
  2
AcAmgHoleChartStdISO
  3
ACMSYMBB_MODULE_NAME
 90
    32768
280
     0
281
     0
  0
CLASS
  1
AMDTFORMULAUPDATEDISPATCHER
  2
AmdtFormulaUpdateDispatcher
  3
AcMeServices
 90
    32768
280
     0
281
     0
  0
CLASS
  1
ACMSTANDARDANSI
  2
AcmStandardANSI
  3
"Amdt_StdImp|Product Description: AutoCAD Mechanical 2000|Company: Autodesk"
 90
    32768
280
     0
281
     0
  0
CLASS
  1
ACMSURFSTANDARDANSI
  2
AcmSurfTextStdANSI
  3
"Amdt_StdImp|Product Description: AutoCAD Mechanical 2000|Company: Autodesk"
 90
    32768
280
     0
281
     0
  0
CLASS
  1
ACMFCFSTANDARDANSI
  2
AcmFCFStdANSI
  3
"Amdt_StdImp|Product Description: AutoCAD Mechanical 2000|Company: Autodesk"
 90
    32768
280
     0
281
     0
  0
CLASS
  1
ACMWELDSTANDARDANSI
  2
AcmWeldingStdANSI
  3
"Amdt_StdImp|Product Description: AutoCAD Mechanical 2000|Company: Autodesk"
 90
    32768
280
     0
281
     0
  0
CLASS
  1
ACMIDSTANDARDANSI
  2
AcmIdStdANSI
  3
"Amdt_StdImp|Product Description: AutoCAD Mechanical 2000|Company: Autodesk"
 90
    32768
280
     0
281
     0
  0
CLASS
  1
ACMDATUMSTANDARDANSI
  2
AcmDatumStdANSI
  3
"Amdt_StdImp|Product Description: AutoCAD Mechanical 2000|Company: Autodesk"
 90
    32768
280
     0
281
     0
  0
CLASS
  1
ACMBOMSTANDARDANSI
  2
AcmBOMStdANSI
  3
"Amdt_StdImp|Product Description: AutoCAD Mechanical 2000|Company: Autodesk"
 90
    32768
280
     0
281
     0
  0
CLASS
  1
ACMDETAILSTANDARDANSI
  2
AmdtDetailSymStdANSI
  3
"Amdt_StdImp|Product Description: AutoCAD Mechanical 2000|Company: Autodesk"
 90
    32768
280
     0
281
     0
  0
CLASS
  1
ACMSECTIONSTANDARDANSI
  2
AmdtSectionSymStdANSI
  3
"Amdt_StdImp|Product Description: AutoCAD Mechanical 2000|Company: Autodesk"
 90
    32768
280
     0
281
     0
  0
CLASS
  1
ACMCENTERLINESTANDARDANSI
  2
AmdtCenterLineStdANSI
  3
"Amdt_StdImp|Product Description: AutoCAD Mechanical 2000|Company: Autodesk"
 90
    32768
280
     0
281
     0
  0
CLASS
  1
ACMNOTESTANDARDANSI
  2
AmdtNoteStdANSI
  3
"Amdt_StdImp|Product Description: AutoCAD Mechanical 2000|Company: Autodesk"
 90
    32768
280
     0
281
     0
  0
CLASS
  1
ACAMGHOLECHARTSTDANSI
  2
AcAmgHoleChartStdANSI
  3
ACMSYMBB_MODULE_NAME
 90
    32768
280
     0
281
     0
  0
CLASS
  1
STDPART2D
  2
AmgStdPart
  3
"AmgStdPart|Product Description: AutoCAD Mechanical 2000|Company: Autodesk"
 90
    33791
280
     0
281
     1
  0
CLASS
  1
ACMDATAENTRYPART
  2
AcmDataEntryPart
  3
"AcmSymBB|Product Description: AutoCAD Mechanical 2000|Company: Autodesk"
 90
    32768
280
     0
281
     0
  0
CLASS
  1
ACMPARTREF
  2
AcmPartRef
  3
"AcmSymBB|Product Description: AutoCAD Mechanical 2000|Company: Autodesk"
 90
    33791
280
     0
281
     1
  0
CLASS
  1
ACDBSTDPARTRES_LINE
  2
AcDbStdPartRes_Line
  3
"AcDbStdPartRes_Line|Product Description: AutoCAD Mechanical 2000|Company: Autodesk"
 90
    32768
280
     0
281
     0
  0
CLASS
  1
RASTERVARIABLES
  2
AcDbRasterVariables
  3
ISM
 90
    32768
280
     0
281
     0
  0
CLASS
  1
IMAGEDEF
  2
AcDbRasterImageDef
  3
ISM
 90
    32768
280
     0
281
     0
  0
CLASS
  1
IMAGEDEF_REACTOR
  2
AcDbRasterImageDefReactor
  3
ISM
 90
    32769
280
     0
281
     0
  0
CLASS
  1
IMAGE
  2
AcDbRasterImage
  3
ISM
 90
    32895
280
     0
281
     1
  0
CLASS
  1
DIMASSOC
  2
AcDbDimAssoc
  3
"AcDbDimAssoc|Product Desc:     AcDim ARX App For Dimension|Company:          Autodesk, Inc.|WEB Address:      www.autodesk.com"
 90
    32768
280
     0
281
     0
  0
CLASS
  1
LONG_TRANSACTION
  2
AcDbLongTransaction
  3
AutoCAD 2000
 90
    32768
280
     0
281
     0
  0
CLASS
  1
LWPOLYLINE
  2
AcDbPolyline
  3
AutoCAD 2000
 90
    32768
280
     0
281
     1
  0
CLASS
  1
HATCH
  2
AcDbHatch
  3
AutoCAD 2000
 90
    32768
280
     0
281
     1
  0
CLASS
  1
XRECORD
  2
AcDbXrecord
  3
AutoCAD 2000
 90
    32768
280
     0
281
     0
  0
CLASS
  1
LONG_TRANSACTION
  2
AcDbLongTransaction
  3
AutoCAD 2000
 90
    32768
280
     0
281
     0
  0
CLASS
  1
LWPOLYLINE
  2
AcDbPolyline
  3
AutoCAD 2000
 90
    32768
280
     0
281
     1
  0
CLASS
  1
HATCH
  2
AcDbHatch
  3
AutoCAD 2000
 90
    32768
280
     0
281
     1
  0
CLASS
  1
XRECORD
  2
AcDbXrecord
  3
AutoCAD 2000
 90
    32768
280
     0
281
     0
  0
ENDSEC
  0
SECTION
  2
TABLES
  0
TABLE
  2
VPORT
  5
8
330
0
100
AcDbSymbolTable
 70
     4
  0
VPORT
  5
1689A
330
8
100
AcDbSymbolTableRecord
100
AcDbViewportTableRecord
  2
*ACTIVE
 70
     0
 10
0.0
 20
0.0
 11
1.0
 21
1.0
 12
1416.371742690578
 22
332.4658402498247
 13
0.0
 23
0.0
 14
2.5
 24
2.5
 15
10.0
 25
10.0
 16
0.0
 26
0.0
 36
1.0
 17
0.0
 27
0.0
 37
0.0
 40
317.4724647413747
 41
1.775280898876404
 42
50.0
 43
0.0
 44
0.0
 50
0.0
 51
0.0
 71
     0
 72
   100
 73
     1
 74
     3
 75
     0
 76
     0
 77
     0
 78
     0
  0
ENDTAB
  0
TABLE
  2
LTYPE
  5
5
330
0
100
AcDbSymbolTable
 70
    15
  0
LTYPE
  5
14
330
5
100
AcDbSymbolTableRecord
100
AcDbLinetypeTableRecord
  2
BYBLOCK
 70
     0
  3

 72
    65
 73
     0
 40
0.0
  0
LTYPE
  5
15
330
5
100
AcDbSymbolTableRecord
100
AcDbLinetypeTableRecord
  2
BYLAYER
 70
     0
  3

 72
    65
 73
     0
 40
0.0
  0
LTYPE
  5
16
330
5
100
AcDbSymbolTableRecord
100
AcDbLinetypeTableRecord
  2
CONTINUOUS
 70
     0
  3
Solid line
 72
    65
 73
     0
 40
0.0
  0
LTYPE
  5
4B
330
5
100
AcDbSymbolTableRecord
100
AcDbLinetypeTableRecord
  2
AM_ISO02W050
 70
     0
  3
__ __ __ __ __ __ __ __ __ __ __ __ __ __ __
 72
    65
 73
     2
 40
7.5
 49
6.0
 74
     0
 49
-1.5
 74
     0
  0
LTYPE
  5
4C
330
5
100
AcDbSymbolTableRecord
100
AcDbLinetypeTableRecord
  2
AM_ISO08W050
 70
     0
  3
____ . ____ . ____ . ____ . ____ . ____ . ____
 72
    65
 73
     4
 40
18.0
 49
12.0
 74
     0
 49
-1.5
 74
     0
 49
3.0
 74
     0
 49
-1.5
 74
     0
  0
LTYPE
  5
4D
330
5
100
AcDbSymbolTableRecord
100
AcDbLinetypeTableRecord
  2
AM_ISO09W050
 70
     0
  3
_____ . . _____ . . _____ . . ____ .. ____
 72
    65
 73
     6
 40
22.5
 49
12.0
 74
     0
 49
-1.5
 74
     0
 49
3.0
 74
     0
 49
-1.5
 74
     0
 49
3.0
 74
     0
 49
-1.5
 74
     0
  0
LTYPE
  5
4E
330
5
100
AcDbSymbolTableRecord
100
AcDbLinetypeTableRecord
  2
AMCONSTR
 70
     0
  3
_______________________
 72
    65
 73
     2
 40
9999.0
 49
9999.0
 74
     0
 49
0.0
 74
     0
  0
LTYPE
  5
4F
330
5
100
AcDbSymbolTableRecord
100
AcDbLinetypeTableRecord
  2
AM_ISO02W050X2
 70
     0
  3
 _ _ _ _ _ _ _ _ _ _ _ _
 72
    65
 73
     2
 40
3.75
 49
3.0
 74
     0
 49
-0.75
 74
     0
  0
LTYPE
  5
50
330
5
100
AcDbSymbolTableRecord
100
AcDbLinetypeTableRecord
  2
AM_ISO08W050X2
 70
     0
  3
__ . __ . __ . __ . __ . __
 72
    65
 73
     4
 40
9.0
 49
6.0
 74
     0
 49
-0.75
 74
     0
 49
1.5
 74
     0
 49
-0.75
 74
     0
  0
LTYPE
  5
53
330
5
100
AcDbSymbolTableRecord
100
AcDbLinetypeTableRecord
  2
AMZIGZAG
 70
     0
  3
/\/-/\/-/\/-/\/-/\/-/\/
 72
    65
 73
     2
 40
11.00009999999999
 49
0.0001
 74
     4
 75
   135
340
52
 46
0.04
 50
0.0
 44
0.0
 45
0.0
 49
-11.0
 74
     0
  0
LTYPE
  5
144B
330
5
100
AcDbSymbolTableRecord
100
AcDbLinetypeTableRecord
  2
ACISOWELD
 70
     0
  3
_ _ _ _ _
 72
    65
 73
     2
 40
2.0
 49
2.0
 74
     0
 49
-1.0
 74
     0
  0
LTYPE
  5
144C
330
5
100
AcDbSymbolTableRecord
100
AcDbLinetypeTableRecord
  2
ACISOTGB
 70
     0
  3
__ . . __ . .
 72
    65
 73
     6
 40
9.0
 49
4.0
 74
     0
 49
-1.0
 74
     0
 49
1.0
 74
     0
 49
-1.0
 74
     0
 49
1.0
 74
     0
 49
-1.0
 74
     0
  0
LTYPE
  5
144D
330
5
100
AcDbSymbolTableRecord
100
AcDbLinetypeTableRecord
  2
ACISOTGL
 70
     0
  3
_ _ _ _ _
 72
    65
 73
     2
 40
3.0
 49
2.0
 74
     0
 49
-1.0
 74
     0
  0
LTYPE
  5
1C35
330
5
100
AcDbSymbolTableRecord
100
AcDbLinetypeTableRecord
  2
CENTER
 70
     0
  3
Center ____ _ ____ _ ____ _ ____ _ ____ _ ____
 72
    65
 73
     4
 40
2.0
 49
1.25
 74
     0
 49
-0.25
 74
     0
 49
0.25
 74
     0
 49
-0.25
 74
     0
  0
LTYPE
  5
B899
330
5
100
AcDbSymbolTableRecord
100
AcDbLinetypeTableRecord
  2
PHANTOM2
 70
     0
  3
Phantom (.5x) ___ _ _ ___ _ _ ___ _ _ ___ _ _
 72
    65
 73
     6
 40
31.75
 49
15.875
 74
     0
 49
-3.174999999999999
 74
     0
 49
3.174999999999999
 74
     0
 49
-3.174999999999999
 74
     0
 49
3.174999999999999
 74
     0
 49
-3.174999999999999
 74
     0
  0
LTYPE
  5
BE5A
330
5
100
AcDbSymbolTableRecord
100
AcDbLinetypeTableRecord
  2
ACANSTGB
 70
     0
  3
__ . . __ . .
 72
    65
 73
     6
 40
0.35433070866
 49
0.15748031496
 74
     0
 49
-0.03937007874
 74
     0
 49
0.03937007874
 74
     0
 49
-0.03937007874
 74
     0
 49
0.03937007874
 74
     0
 49
-0.03937007874
 74
     0
  0
LTYPE
  5
BE5B
330
5
100
AcDbSymbolTableRecord
100
AcDbLinetypeTableRecord
  2
ACANSTGL
 70
     0
  3
_ _ _ _ _
 72
    65
 73
     2
 40
0.11811023622
 49
0.07874015748
 74
     0
 49
-0.03937007874
 74
     0
  0
ENDTAB
  0
TABLE
  2
LAYER
  5
2
330
0
100
AcDbSymbolTable
 70
     9
  0
LAYER
  5
10
330
2
100
AcDbSymbolTableRecord
100
AcDbLayerTableRecord
  2
0
 70
     0
 62
     7
  6
CONTINUOUS
  0
LAYER
  5
D0
330
2
100
AcDbSymbolTableRecord
100
AcDbLayerTableRecord
  2
圖層2
 70
     0
 62
     3
  6
CONTINUOUS
  0
LAYER
  5
450
330
2
100
AcDbSymbolTableRecord
100
AcDbLayerTableRecord
  2
DEFPOINTS
 70
     0
 62
    -7
  6
CONTINUOUS
  0
LAYER
  5
989
330
2
100
AcDbSymbolTableRecord
100
AcDbLayerTableRecord
  2
AM_5
 70
     0
 62
     5
  6
CONTINUOUS
  0
LAYER
  5
1C3A
330
2
100
AcDbSymbolTableRecord
100
AcDbLayerTableRecord
  2
AM_REFDIM
 70
     0
 62
     5
  6
CONTINUOUS
  0
LAYER
  5
DF31
330
2
100
AcDbSymbolTableRecord
100
AcDbLayerTableRecord
  2
AM_7
 70
     0
 62
     1
  6
AM_ISO08W050
  0
LAYER
  5
E91C
330
2
100
AcDbSymbolTableRecord
100
AcDbLayerTableRecord
  2
圖層4
 70
     0
 62
     7
  6
CONTINUOUS
  0
LAYER
  5
135C4
330
2
100
AcDbSymbolTableRecord
100
AcDbLayerTableRecord
  2
AM_VIS
 70
     0
 62
     7
  6
CONTINUOUS
  0
LAYER
  5
1637F
330
2
100
AcDbSymbolTableRecord
100
AcDbLayerTableRecord
  2
LOGO
 70
     0
 62
     7
  6
CONTINUOUS
  0
ENDTAB
  0
TABLE
  2
STYLE
  5
3
330
0
100
AcDbSymbolTable
 70
    11
  0
STYLE
  5
11
330
3
100
AcDbSymbolTableRecord
100
AcDbTextStyleTableRecord
  2
STANDARD
 70
     0
 40
0.0
 41
1.0
 50
0.0
 71
     0
 42
3.0
  3
ISOCP.SHX
  4
CHINESET.SHX
  0
STYLE
  5
52
330
3
100
AcDbSymbolTableRecord
100
AcDbTextStyleTableRecord
  2

 70
     1
 40
0.0
 41
1.0
 50
0.0
 71
     0
 42
2.5
  3
ltypeshp.shx
  4

  0
STYLE
  5
D3
330
3
100
AcDbSymbolTableRecord
100
AcDbTextStyleTableRecord
  2
ROMAND
 70
     0
 40
0.0
 41
1.0
 50
0.0
 71
     0
 42
6.0
  3
romand.shx
  4
chineset.shx
  0
STYLE
  5
D4
330
3
100
AcDbSymbolTableRecord
100
AcDbTextStyleTableRecord
  2
ROMANS
 70
     0
 40
0.0
 41
1.0
 50
0.0
 71
     0
 42
1.5
  3
romans
  4

  0
STYLE
  5
1442
330
3
100
AcDbSymbolTableRecord
100
AcDbTextStyleTableRecord
  2
ACISOTS
 70
     0
 40
1.0
 41
1.0
 50
0.0
 71
     0
 42
1.0
  3
isocp.shx
  4
chineset.shx
  0
STYLE
  5
144A
330
3
100
AcDbSymbolTableRecord
100
AcDbTextStyleTableRecord
  2
ACISOGDT
 70
     0
 40
0.0
 41
1.0
 50
0.0
 71
     0
 42
2.5
  3
amgdt.shx
  4

  0
STYLE
  5
167B
330
3
100
AcDbSymbolTableRecord
100
AcDbTextStyleTableRecord
  2
DAYUS
 70
     0
 40
0.0
 41
1.0
 50
0.0
 71
     0
 42
2.5
  3
simplex
  4
dayus
  0
STYLE
  5
BE5E
330
3
100
AcDbSymbolTableRecord
100
AcDbTextStyleTableRecord
  2
ACANSTS
 70
     0
 40
1.0
 41
1.0
 50
0.0
 71
     0
 42
1.5
  3
romans.shx
  4
chineset.shx
  0
STYLE
  5
BE5F
330
3
100
AcDbSymbolTableRecord
100
AcDbTextStyleTableRecord
  2
ACANSGDT
 70
     0
 40
0.0
 41
1.0
 50
0.0
 71
     0
 42
1.5
  3
amgdtans.shx
  4

  0
STYLE
  5
16381
330
3
100
AcDbSymbolTableRecord
100
AcDbTextStyleTableRecord
  2
CHINESET
 70
     0
 40
0.0
 41
1.0
 50
0.0
 71
     0
 42
5.0
  3
simplex.shx
  4
chineset.shx
  0
STYLE
  5
16382
330
3
100
AcDbSymbolTableRecord
100
AcDbTextStyleTableRecord
  2
LOGO
 70
     0
 40
0.0
 41
1.0
 50
0.0
 71
     0
 42
5.0
  3
LEI00DP.TTF
  4

1001
ACAD
1000
文鼎中粗隸
1071
    34865
  0
ENDTAB
  0
TABLE
  2
VIEW
  5
6
330
0
100
AcDbSymbolTable
 70
     0
  0
ENDTAB
  0
TABLE
  2
UCS
  5
7
330
0
100
AcDbSymbolTable
 70
     0
  0
ENDTAB
  0
TABLE
  2
APPID
  5
9
330
0
100
AcDbSymbolTable
 70
    19
  0
APPID
  5
12
330
9
100
AcDbSymbolTableRecord
100
AcDbRegAppTableRecord
  2
ACAD
 70
     0
  0
APPID
  5
30
330
9
100
AcDbSymbolTableRecord
100
AcDbRegAppTableRecord
  2
MCAD_NO_VIS
 70
     0
  0
APPID
  5
31
330
9
100
AcDbSymbolTableRecord
100
AcDbRegAppTableRecord
  2
ACAD_TEMP_GRAPHIC
 70
     0
  0
APPID
  5
455
330
9
100
AcDbSymbolTableRecord
100
AcDbRegAppTableRecord
  2
GENIUS_GENDTOL_13
 70
     0
  0
APPID
  5
6B34
330
9
100
AcDbSymbolTableRecord
100
AcDbRegAppTableRecord
  2
ACATTRIBSERVICES
 70
     0
  0
APPID
  5
DF34
330
9
100
AcDbSymbolTableRecord
100
AcDbRegAppTableRecord
  2
GENIUS_GENOREF_13
 70
     0
  0
APPID
  5
E304
330
9
100
AcDbSymbolTableRecord
100
AcDbRegAppTableRecord
  2
GENIUS_GENREC_14
 70
     0
  0
APPID
  5
E305
330
9
100
AcDbSymbolTableRecord
100
AcDbRegAppTableRecord
  2
GENIUS_GENODEF_13
 70
     0
  0
APPID
  5
E306
330
9
100
AcDbSymbolTableRecord
100
AcDbRegAppTableRecord
  2
GENIUS_GENOBJ-N-REC_13
 70
     0
  0
APPID
  5
E7E4
330
9
100
AcDbSymbolTableRecord
100
AcDbRegAppTableRecord
  2
GEVID1067829771
 70
     0
  0
APPID
  5
E7E5
330
9
100
AcDbSymbolTableRecord
100
AcDbRegAppTableRecord
  2
GEVDC
 70
     0
  0
APPID
  5
E7E6
330
9
100
AcDbSymbolTableRecord
100
AcDbRegAppTableRecord
  2
GEVRADREF
 70
     0
  0
APPID
  5
E7E9
330
9
100
AcDbSymbolTableRecord
100
AcDbRegAppTableRecord
  2
GENIUS_GENBH_13
 70
     0
  0
APPID
  5
E7EC
330
9
100
AcDbSymbolTableRecord
100
AcDbRegAppTableRecord
  2
GENIUS_GENOBJ-NBEHI-BHF_13
 70
     0
  0
APPID
  5
E7ED
330
9
100
AcDbSymbolTableRecord
100
AcDbRegAppTableRecord
  2
GENIUS_GENOENT_13
 70
     0
  0
APPID
  5
E7EE
330
9
100
AcDbSymbolTableRecord
100
AcDbRegAppTableRecord
  2
GENIUS_GENOLIS_13
 70
     0
  0
APPID
  5
E7F0
330
9
100
AcDbSymbolTableRecord
100
AcDbRegAppTableRecord
  2
GENIUS_GENOBJ-NBEHI-BHB_13
 70
     0
  0
APPID
  5
E805
330
9
100
AcDbSymbolTableRecord
100
AcDbRegAppTableRecord
  2
GEVID1067829772
 70
     0
  0
APPID
  5
135CA
330
9
100
AcDbSymbolTableRecord
100
AcDbRegAppTableRecord
  2
GENIUS_GENOBJ-N-CRS_13
 70
     0
  0
ENDTAB
  0
TABLE
  2
DIMSTYLE
  5
A
330
0
100
AcDbSymbolTable
 70
    14
  0
DIMSTYLE
105
98A
330
A
100
AcDbSymbolTableRecord
100
AcDbDimStyleTableRecord
  2
AM_ISO
 70
     0
  3

  4
"
  5

  6

  7

 40
0.6
 41
3.0
 42
2.0
 43
10.0
 44
1.5
 45
0.0
 46
0.0
 47
0.1
 48
0.1
140
3.0
141
0.0
142
0.0
143
0.0393701
144
1.0
145
0.0
146
0.71
147
0.8
 71
     0
 72
     0
 73
     0
 74
     0
 75
     0
 76
     0
 77
     1
 78
     8
170
     0
171
     2
172
     1
173
     0
174
     0
175
     0
176
     5
177
   256
178
     5
270
     2
271
     2
272
     2
273
     2
274
     2
340
11
275
     0
280
     0
281
     0
282
     0
283
     0
284
     0
285
     0
286
     0
287
     3
288
     0
  0
DIMSTYLE
105
98B
330
A
100
AcDbSymbolTableRecord
100
AcDbDimStyleTableRecord
  2
AM_ISO$3
 70
     0
  3

  4
"
  5

  6

  7

 40
0.6
 41
3.0
 42
2.0
 43
10.0
 44
1.5
 45
0.0
 46
0.0
 47
0.1
 48
0.1
140
3.0
141
0.0
142
0.0
143
0.0393701
144
1.0
145
0.0
146
0.71
147
0.8
 71
     0
 72
     0
 73
     0
 74
     1
 75
     0
 76
     0
 77
     1
 78
     8
170
     0
171
     2
172
     0
173
     0
174
     0
175
     0
176
     5
177
   256
178
     5
270
     2
271
     2
272
     2
273
     2
274
     2
340
11
275
     0
280
     0
281
     0
282
     0
283
     0
284
     0
285
     0
286
     0
287
     0
288
     1
  0
DIMSTYLE
105
98C
330
A
100
AcDbSymbolTableRecord
100
AcDbDimStyleTableRecord
  2
AM_ISO$4
 70
     0
  3

  4
"
  5

  6

  7

 40
0.6
 41
3.0
 42
2.0
 43
10.0
 44
1.5
 45
0.0
 46
0.0
 47
0.1
 48
0.1
140
3.0
141
0.0
142
0.0
143
0.0393701
144
1.0
145
0.0
146
0.71
147
0.8
 71
     0
 72
     0
 73
     0
 74
     1
 75
     0
 76
     0
 77
     1
 78
     8
170
     0
171
     2
172
     0
173
     0
174
     0
175
     0
176
     5
177
   256
178
     5
270
     2
271
     2
272
     2
273
     2
274
     2
340
11
275
     0
280
     0
281
     0
282
     0
283
     0
284
     0
285
     0
286
     0
287
     0
288
     1
  0
DIMSTYLE
105
98D
330
A
100
AcDbSymbolTableRecord
100
AcDbDimStyleTableRecord
  2
AM_ISO$6
 70
     0
  3

  4
"
  5

  6

  7

 40
0.6
 41
3.0
 42
2.0
 43
10.0
 44
1.5
 45
0.0
 46
0.0
 47
0.1
 48
0.1
140
3.0
141
0.0
142
0.0
143
0.0393701
144
1.0
145
0.0
146
0.71
147
0.8
 71
     0
 72
     0
 73
     0
 74
     0
 75
     0
 76
     0
 77
     0
 78
     8
170
     0
171
     2
172
     1
173
     0
174
     0
175
     0
176
     5
177
   256
178
     5
270
     2
271
     2
272
     2
273
     2
274
     2
340
11
275
     0
280
     0
281
     0
282
     0
283
     0
284
     0
285
     0
286
     0
287
     3
288
     0
  0
DIMSTYLE
105
98E
330
A
100
AcDbSymbolTableRecord
100
AcDbDimStyleTableRecord
  2
AM_ISO$7
 70
     0
  3

  4
"
  5

  6

  7

 40
0.6
 41
3.0
 42
2.0
 43
10.0
 44
1.5
 45
0.0
 46
0.0
 47
0.1
 48
0.1
140
5.0
141
0.0
142
0.0
143
0.0393701
144
1.0
145
0.0
146
0.71
147
0.8
 71
     0
 72
     0
 73
     0
 74
     0
 75
     0
 76
     0
 77
     1
 78
     8
170
     0
171
     2
172
     1
173
     0
174
     0
175
     0
176
     5
177
   256
178
     5
270
     2
271
     2
272
     2
273
     2
274
     2
340
11
275
     0
280
     0
281
     0
282
     0
283
     0
284
     0
285
     0
286
     0
287
     3
288
     0
  0
DIMSTYLE
105
98F
330
A
100
AcDbSymbolTableRecord
100
AcDbDimStyleTableRecord
  2
AM_ISO$SF
 70
     0
  3

  4
"
  5

  6

  7

 40
0.5
 41
2.5
 42
1.0
 43
10.0
 44
1.0
 45
0.0
 46
0.0
 47
0.1
 48
0.1
140
3.5
141
0.0
142
0.0
143
0.0393701
144
1.0
145
0.0
146
0.71
147
1.5
 71
     0
 72
     0
 73
     0
 74
     0
 75
     1
 76
     1
 77
     1
 78
     8
170
     0
171
     2
172
     1
173
     0
174
     0
175
     0
176
   256
177
   256
178
     2
270
     2
271
     2
272
     2
273
     2
274
     2
340
11
275
     0
280
     0
281
     0
282
     0
283
     0
284
     0
285
     0
286
     0
287
     3
288
     0
  0
DIMSTYLE
105
994
330
A
100
AcDbSymbolTableRecord
100
AcDbDimStyleTableRecord
  2
AM_ISO$SH
 70
     0
  3

  4
"
  5

  6
GENAXEH
  7

 40
0.5
 41
2.5
 42
1.0
 43
10.0
 44
1.0
 45
0.0
 46
0.0
 47
0.1
 48
0.1
140
3.5
141
0.0
142
0.0
143
0.0393701
144
2.0
145
0.0
146
0.71
147
1.5
 71
     0
 72
     0
 73
     0
 74
     0
 75
     1
 76
     1
 77
     1
 78
     8
170
     0
171
     2
172
     1
173
     1
174
     0
175
     0
176
   256
177
   256
178
     2
270
     2
271
     2
272
     2
273
     2
274
     2
340
11
275
     0
280
     0
281
     0
282
     0
283
     0
284
     0
285
     0
286
     0
287
     3
288
     0
  0
DIMSTYLE
105
6E5D
330
A
100
AcDbSymbolTableRecord
100
AcDbDimStyleTableRecord
  2
AM_ANSI
 70
     0
  3

  4
"
  5

  6

  7

 40
0.8
 41
3.0
 42
1.5
 43
5.0
 44
2.0
 45
0.0
 46
0.0
 47
0.1
 48
0.1
140
3.0
141
-1.5
142
0.0
143
0.0393701
144
0.833333333
145
0.0
146
0.6
147
0.8
 71
     0
 72
     0
 73
     0
 74
     0
 75
     0
 76
     0
 77
     1
 78
     8
170
     0
171
     2
172
     1
173
     0
174
     0
175
     0
176
   256
177
   256
178
   256
270
     2
271
     2
272
     2
273
     2
274
     2
340
167B
275
     0
280
     0
281
     0
282
     0
283
     1
284
     8
285
     0
286
     0
287
     3
288
     0
  0
DIMSTYLE
105
6E5E
330
A
100
AcDbSymbolTableRecord
100
AcDbDimStyleTableRecord
  2
AM_ANSI$3
 70
     0
  3

  4
"
  5

  6

  7

 40
0.8
 41
3.0
 42
1.5
 43
5.0
 44
2.0
 45
0.0
 46
0.0
 47
0.1
 48
0.1
140
3.0
141
-1.5
142
0.0
143
0.0393701
144
0.833333333
145
0.0
146
0.6
147
0.8
 71
     0
 72
     0
 73
     0
 74
     0
 75
     0
 76
     0
 77
     1
 78
     8
170
     0
171
     2
172
     1
173
     0
174
     0
175
     0
176
   256
177
   256
178
   256
270
     2
271
     2
272
     2
273
     2
274
     2
340
167B
275
     0
280
     0
281
     0
282
     0
283
     1
284
     8
285
     0
286
     0
287
     0
288
     1
  0
DIMSTYLE
105
6E5F
330
A
100
AcDbSymbolTableRecord
100
AcDbDimStyleTableRecord
  2
AM_ANSI$7
 70
     0
  3

  4
"
  5

  6

  7

 40
0.8
 41
3.0
 42
1.5
 43
5.0
 44
2.0
 45
0.0
 46
0.0
 47
0.1
 48
0.1
140
5.0
141
-1.5
142
0.0
143
0.0393701
144
0.833333333
145
0.0
146
0.6
147
0.8
 71
     0
 72
     0
 73
     0
 74
     0
 75
     0
 76
     0
 77
     1
 78
     8
170
     0
171
     2
172
     1
173
     0
174
     0
175
     0
176
   256
177
   256
178
   256
270
     2
271
     2
272
     2
273
     2
274
     2
340
167B
275
     0
280
     0
281
     0
282
     0
283
     1
284
     8
285
     0
286
     0
287
     3
288
     0
  0
DIMSTYLE
105
B991
102
{ACAD_REACTORS
330
154D0
330
154AC
330
15518
330
154F4
330
15590
330
155B4
330
1553C
330
1568C
330
1577C
330
15644
330
15620
330
155FC
330
155D8
102
}
330
A
100
AcDbSymbolTableRecord
100
AcDbDimStyleTableRecord
  2
STANDARD
 70
     0
  3

  4

  5

  6

  7

 40
1.0
 41
3.0
 42
1.5
 43
10.0
 44
2.0
 45
0.0
 46
0.0
 47
0.01
 48
0.01
140
3.5
141
3.0
142
0.0
143
25.4
144
1.0
145
0.0
146
0.6
147
0.8
 71
     0
 72
     0
 73
     0
 74
     0
 75
     0
 76
     0
 77
     1
 78
     8
170
     0
171
     2
172
     1
173
     0
174
     0
175
     0
176
   256
177
   256
178
   256
270
     2
271
     2
272
     2
273
     2
274
     2
340
11
275
     0
280
     0
281
     0
282
     0
283
     0
284
     8
285
     0
286
     0
287
     3
288
     0
  0
DIMSTYLE
105
BE61
330
A
100
AcDbSymbolTableRecord
100
AcDbDimStyleTableRecord
  2
AM_ANSI$4
 70
     0
  3

  4
mm
  5

  6

  7

 40
1.0
 41
0.1
 42
0.05
 43
0.5
 44
0.1
 45
0.0
 46
0.0
 47
0.1
 48
0.1
140
0.12
141
0.0
142
0.0
143
25.4
144
1.0
145
0.0
146
0.71
147
0.06
 71
     0
 72
     0
 73
     1
 74
     1
 75
     0
 76
     0
 77
     0
 78
     7
170
     0
171
     2
172
     0
173
     0
174
     0
175
     0
176
   256
177
   256
178
     2
270
     2
271
     4
272
     4
273
     2
274
     4
340
11
275
     0
280
     0
281
     0
282
     0
283
     1
284
     7
285
     0
286
     0
287
     0
288
     1
  0
DIMSTYLE
105
BE62
330
A
100
AcDbSymbolTableRecord
100
AcDbDimStyleTableRecord
  2
AM_ANSI$SF
 70
     0
  3

  4
mm
  5

  6

  7

 40
1.0
 41
0.1
 42
0.05
 43
0.5
 44
0.1
 45
0.0
 46
0.0
 47
0.1
 48
0.1
140
0.12
141
0.0
142
0.0
143
25.4
144
1.0
145
0.0
146
0.71
147
0.06
 71
     0
 72
     0
 73
     1
 74
     1
 75
     1
 76
     1
 77
     0
 78
     7
170
     0
171
     2
172
     0
173
     0
174
     0
175
     0
176
   256
177
   256
178
     2
270
     2
271
     4
272
     4
273
     2
274
     4
340
11
275
     0
280
     0
281
     0
282
     0
283
     1
284
     7
285
     0
286
     0
287
     3
288
     0
  0
DIMSTYLE
105
BE63
330
A
100
AcDbSymbolTableRecord
100
AcDbDimStyleTableRecord
  2
AM_ANSI$SH
 70
     0
  3

  4
mm
  5

  6
GENAXEH
  7

 40
1.0
 41
0.1
 42
0.05
 43
0.5
 44
0.1
 45
0.0
 46
0.0
 47
0.1
 48
0.1
140
0.12
141
0.0
142
0.0
143
25.4
144
1.0
145
0.0
146
0.71
147
0.06
 71
     0
 72
     0
 73
     1
 74
     1
 75
     1
 76
     1
 77
     0
 78
     7
170
     0
171
     2
172
     0
173
     1
174
     0
175
     0
176
   256
177
   256
178
     2
270
     2
271
     4
272
     4
273
     2
274
     4
340
11
275
     0
280
     0
281
     0
282
     0
283
     1
284
     7
285
     0
286
     0
287
     3
288
     0
  0
ENDTAB
  0
TABLE
  2
BLOCK_RECORD
  5
1
330
0
100
AcDbSymbolTable
 70
    17
  0
BLOCK_RECORD
  5
1F
102
{ACAD_XDICTIONARY
360
3A4
102
}
330
1
100
AcDbSymbolTableRecord
100
AcDbBlockTableRecord
  2
*MODEL_SPACE
  0
BLOCK_RECORD
  5
1B
102
{ACAD_XDICTIONARY
360
1674E
102
}
330
1
100
AcDbSymbolTableRecord
100
AcDbBlockTableRecord
  2
*PAPER_SPACE
  0
BLOCK_RECORD
  5
990
330
1
100
AcDbSymbolTableRecord
100
AcDbBlockTableRecord
  2
GENAXEH
  0
BLOCK_RECORD
  5
154AD
330
1
100
AcDbSymbolTableRecord
100
AcDbBlockTableRecord
  2
*D2
  0
BLOCK_RECORD
  5
154D1
330
1
100
AcDbSymbolTableRecord
100
AcDbBlockTableRecord
  2
*D3
  0
BLOCK_RECORD
  5
154F5
330
1
100
AcDbSymbolTableRecord
100
AcDbBlockTableRecord
  2
*D4
  0
BLOCK_RECORD
  5
15519
330
1
100
AcDbSymbolTableRecord
100
AcDbBlockTableRecord
  2
*D5
  0
BLOCK_RECORD
  5
1553D
330
1
100
AcDbSymbolTableRecord
100
AcDbBlockTableRecord
  2
*D6
  0
BLOCK_RECORD
  5
15591
330
1
100
AcDbSymbolTableRecord
100
AcDbBlockTableRecord
  2
*D7
  0
BLOCK_RECORD
  5
155B5
330
1
100
AcDbSymbolTableRecord
100
AcDbBlockTableRecord
  2
*D8
  0
BLOCK_RECORD
  5
155D9
330
1
100
AcDbSymbolTableRecord
100
AcDbBlockTableRecord
  2
*D9
  0
BLOCK_RECORD
  5
155FD
330
1
100
AcDbSymbolTableRecord
100
AcDbBlockTableRecord
  2
*D10
  0
BLOCK_RECORD
  5
15621
330
1
100
AcDbSymbolTableRecord
100
AcDbBlockTableRecord
  2
*D11
  0
BLOCK_RECORD
  5
15645
330
1
100
AcDbSymbolTableRecord
100
AcDbBlockTableRecord
  2
*D12
  0
BLOCK_RECORD
  5
1568D
330
1
100
AcDbSymbolTableRecord
100
AcDbBlockTableRecord
  2
*D13
  0
BLOCK_RECORD
  5
1577D
330
1
100
AcDbSymbolTableRecord
100
AcDbBlockTableRecord
  2
*D14
  0
BLOCK_RECORD
  5
15BBA
330
1
100
AcDbSymbolTableRecord
100
AcDbBlockTableRecord
  2
GENDOT
  0
BLOCK_RECORD
  5
167D0
330
1
100
AcDbSymbolTableRecord
100
AcDbBlockTableRecord
  2
*S16
  0
ENDTAB
  0
ENDSEC
  0
SECTION
  2
BLOCKS
  0
BLOCK
  5
20
330
1F
100
AcDbEntity
  8
0
100
AcDbBlockBegin
  2
*MODEL_SPACE
 70
     0
 10
0.0
 20
0.0
 30
0.0
  3
*MODEL_SPACE
  1

  0
ENDBLK
  5
21
330
1F
100
AcDbEntity
  8
0
100
AcDbBlockEnd
  0
BLOCK
  5
1C
330
1B
100
AcDbEntity
 67
     1
  8
0
100
AcDbBlockBegin
  2
*PAPER_SPACE
 70
     0
 10
0.0
 20
0.0
 30
0.0
  3
*PAPER_SPACE
  1

  0
ENDBLK
  5
1D
330
1B
100
AcDbEntity
 67
     1
  8
0
100
AcDbBlockEnd
  0
BLOCK
  5
992
330
990
100
AcDbEntity
  8
0
100
AcDbBlockBegin
  2
GENAXEH
 70
     0
 10
0.0
 20
0.0
 30
0.0
  3
GENAXEH
  1

  0
LINE
  5
991
330
990
100
AcDbEntity
  8
0
100
AcDbLine
 10
-1.0
 20
0.0
 30
0.0
 11
1.0
 21
0.0
 31
0.0
  0
ENDBLK
  5
993
330
990
100
AcDbEntity
  8
0
100
AcDbBlockEnd
  0
BLOCK
  5
154B7
330
154AD
100
AcDbEntity
  8
0
100
AcDbBlockBegin
  2
*D2
 70
     1
 10
0.0
 20
0.0
 30
0.0
  3
*D2
  1

  0
LINE
  5
1668E
330
154AD
100
AcDbEntity
  8
AM_5
100
AcDbLine
 10
1311.081540663653
 20
414.6343273427424
 30
0.0
 11
1311.081540663653
 21
427.3843273427424
 31
0.0
  0
LINE
  5
1668F
330
154AD
100
AcDbEntity
  8
AM_5
100
AcDbLine
 10
1339.581540663653
 20
412.8843273427424
 30
0.0
 11
1339.581540663653
 21
427.3843273427424
 31
0.0
  0
LINE
  5
16690
330
154AD
100
AcDbEntity
  8
AM_5
100
AcDbLine
 10
1314.831540663653
 20
424.8843273427424
 30
0.0
 11
1335.831540663653
 21
424.8843273427424
 31
0.0
  0
SOLID
  5
16691
330
154AD
100
AcDbEntity
  8
AM_5
100
AcDbTrace
 10
1314.831540663653
 20
425.5093273427424
 30
0.0
 11
1314.831540663653
 21
424.2593273427424
 31
0.0
 12
1311.081540663653
 22
424.8843273427424
 32
0.0
 13
1311.081540663653
 23
424.8843273427424
 33
0.0
  0
SOLID
  5
16692
330
154AD
100
AcDbEntity
  8
AM_5
100
AcDbTrace
 10
1335.831540663653
 20
425.5093273427424
 30
0.0
 11
1335.831540663653
 21
424.2593273427424
 31
0.0
 12
1339.581540663653
 22
424.8843273427424
 32
0.0
 13
1339.581540663653
 23
424.8843273427424
 33
0.0
  0
MTEXT
  5
16693
330
154AD
100
AcDbEntity
  8
AM_5
100
AcDbMText
 10
1325.331540663652
 20
428.0722579529786
 30
0.0
 40
4.375
 41
0.0
 71
     5
 72
     1
  1
28.5
1001
ACAD
1000
MTEXTBEGIN
1070
    73
1070
     1
1070
    44
1040
1.0
1070
    74
1070
     0
1000
MTEXTEND
  0
POINT
  5
16694
330
154AD
100
AcDbEntity
  8
DEFPOINTS
 62
     0
100
AcDbPoint
 10
1311.081540663653
 20
412.7593273427424
 30
0.0
  0
POINT
  5
16695
330
154AD
100
AcDbEntity
  8
DEFPOINTS
 62
     0
100
AcDbPoint
 10
1339.581540663653
 20
411.0093273427424
 30
0.0
  0
POINT
  5
16696
330
154AD
100
AcDbEntity
  8
DEFPOINTS
 62
     0
100
AcDbPoint
 10
1339.581540663653
 20
424.8843273427424
 30
0.0
  0
ENDBLK
  5
154B8
330
154AD
100
AcDbEntity
  8
0
100
AcDbBlockEnd
  0
BLOCK
  5
154DB
330
154D1
100
AcDbEntity
  8
0
100
AcDbBlockBegin
  2
*D3
 70
     1
 10
0.0
 20
0.0
 30
0.0
  3
*D3
  1

  0
LINE
  5
16697
330
154D1
100
AcDbEntity
  8
AM_5
100
AcDbLine
 10
1339.581540663653
 20
412.8843273427424
 30
0.0
 11
1339.581540663653
 21
427.3843273427424
 31
0.0
  0
LINE
  5
16698
330
154D1
100
AcDbEntity
  8
AM_5
100
AcDbLine
 10
1357.581540663653
 20
412.8843273427424
 30
0.0
 11
1357.581540663653
 21
427.3843273427424
 31
0.0
  0
LINE
  5
16699
330
154D1
100
AcDbEntity
  8
AM_5
100
AcDbLine
 10
1343.331540663653
 20
424.8843273427424
 30
0.0
 11
1353.831540663652
 21
424.8843273427424
 31
0.0
  0
SOLID
  5
1669A
330
154D1
100
AcDbEntity
  8
AM_5
100
AcDbTrace
 10
1343.331540663653
 20
425.5093273427424
 30
0.0
 11
1343.331540663653
 21
424.2593273427424
 31
0.0
 12
1339.581540663653
 22
424.8843273427424
 32
0.0
 13
1339.581540663653
 23
424.8843273427424
 33
0.0
  0
SOLID
  5
1669B
330
154D1
100
AcDbEntity
  8
AM_5
100
AcDbTrace
 10
1353.831540663652
 20
425.5093273427424
 30
0.0
 11
1353.831540663652
 21
424.2593273427424
 31
0.0
 12
1357.581540663653
 22
424.8843273427424
 32
0.0
 13
1357.581540663653
 23
424.8843273427424
 33
0.0
  0
MTEXT
  5
1669C
330
154D1
100
AcDbEntity
  8
AM_5
100
AcDbMText
 10
1348.581540663652
 20
428.0718273427424
 30
0.0
 40
4.375
 41
0.0
 71
     5
 72
     1
  1
18
1001
ACAD
1000
MTEXTBEGIN
1070
    73
1070
     1
1070
    44
1040
1.0
1070
    74
1070
     0
1000
MTEXTEND
  0
POINT
  5
1669D
330
154D1
100
AcDbEntity
  8
DEFPOINTS
 62
     0
100
AcDbPoint
 10
1339.581540663653
 20
411.0093273427424
 30
0.0
  0
POINT
  5
1669E
330
154D1
100
AcDbEntity
  8
DEFPOINTS
 62
     0
100
AcDbPoint
 10
1357.581540663653
 20
411.0093273427424
 30
0.0
  0
POINT
  5
1669F
330
154D1
100
AcDbEntity
  8
DEFPOINTS
 62
     0
100
AcDbPoint
 10
1357.581540663653
 20
424.8843273427424
 30
0.0
  0
ENDBLK
  5
154DC
330
154D1
100
AcDbEntity
  8
0
100
AcDbBlockEnd
  0
BLOCK
  5
154FF
330
154F5
100
AcDbEntity
  8
0
100
AcDbBlockBegin
  2
*D4
 70
     1
 10
0.0
 20
0.0
 30
0.0
  3
*D4
  1

  0
LINE
  5
16658
330
154F5
100
AcDbEntity
  8
AM_5
100
AcDbLine
 10
1330.956540663652
 20
404.2593273427424
 30
0.0
 11
1296.581540663653
 21
404.2593273427424
 31
0.0
  0
LINE
  5
16659
330
154F5
100
AcDbEntity
  8
AM_5
100
AcDbLine
 10
1321.956540663653
 20
376.2593273427424
 30
0.0
 11
1296.581540663653
 21
376.2593273427424
 31
0.0
  0
LINE
  5
1665A
330
154F5
100
AcDbEntity
  8
AM_5
100
AcDbLine
 10
1299.081540663653
 20
400.5093273427424
 30
0.0
 11
1299.081540663653
 21
380.0093273427424
 31
0.0
  0
SOLID
  5
1665B
330
154F5
100
AcDbEntity
  8
AM_5
100
AcDbTrace
 10
1298.456540663653
 20
400.5093273427424
 30
0.0
 11
1299.706540663652
 21
400.5093273427424
 31
0.0
 12
1299.081540663653
 22
404.2593273427424
 32
0.0
 13
1299.081540663653
 23
404.2593273427424
 33
0.0
  0
SOLID
  5
1665C
330
154F5
100
AcDbEntity
  8
AM_5
100
AcDbTrace
 10
1298.456540663653
 20
380.0093273427424
 30
0.0
 11
1299.706540663652
 21
380.0093273427424
 31
0.0
 12
1299.081540663653
 22
376.2593273427424
 32
0.0
 13
1299.081540663653
 23
376.2593273427424
 33
0.0
  0
MTEXT
  5
1665D
330
154F5
100
AcDbEntity
  8
AM_5
100
AcDbMText
 10
1295.893610053416
 20
390.2593273427426
 30
0.0
 40
4.375
 41
0.0
 71
     5
 72
     1
  1
28
 11
0.0000000000000001
 21
1.0
 31
0.0
1001
ACAD
1000
MTEXTBEGIN
1070
    73
1070
     1
1070
    44
1040
1.0
1070
    74
1070
     0
1000
MTEXTEND
  0
POINT
  5
1665E
330
154F5
100
AcDbEntity
  8
DEFPOINTS
 62
     0
100
AcDbPoint
 10
1332.831540663653
 20
404.2593273427424
 30
0.0
  0
POINT
  5
1665F
330
154F5
100
AcDbEntity
  8
DEFPOINTS
 62
     0
100
AcDbPoint
 10
1323.831540663653
 20
376.2593273427424
 30
0.0
  0
POINT
  5
16660
330
154F5
100
AcDbEntity
  8
DEFPOINTS
 62
     0
100
AcDbPoint
 10
1299.081540663653
 20
376.2593273427424
 30
0.0
  0
ENDBLK
  5
15500
330
154F5
100
AcDbEntity
  8
0
100
AcDbBlockEnd
  0
BLOCK
  5
15523
330
15519
100
AcDbEntity
  8
0
100
AcDbBlockBegin
  2
*D5
 70
     1
 10
0.0
 20
0.0
 30
0.0
  3
*D5
  1

  0
LINE
  5
16661
330
15519
100
AcDbEntity
  8
AM_5
100
AcDbLine
 10
1309.206540663653
 20
412.7593273427424
 30
0.0
 11
1286.581540663653
 21
412.7593273427424
 31
0.0
  0
LINE
  5
16662
330
15519
100
AcDbEntity
  8
AM_5
100
AcDbLine
 10
1309.206540663653
 20
367.7593273427424
 30
0.0
 11
1286.581540663653
 21
367.7593273427424
 31
0.0
  0
LINE
  5
16663
330
15519
100
AcDbEntity
  8
AM_5
100
AcDbLine
 10
1289.081540663653
 20
409.0093273427424
 30
0.0
 11
1289.081540663653
 21
371.5093273427424
 31
0.0
  0
SOLID
  5
16664
330
15519
100
AcDbEntity
  8
AM_5
100
AcDbTrace
 10
1288.456540663653
 20
409.0093273427424
 30
0.0
 11
1289.706540663653
 21
409.0093273427424
 31
0.0
 12
1289.081540663653
 22
412.7593273427424
 32
0.0
 13
1289.081540663653
 23
412.7593273427424
 33
0.0
  0
SOLID
  5
16665
330
15519
100
AcDbEntity
  8
AM_5
100
AcDbTrace
 10
1288.456540663653
 20
371.5093273427424
 30
0.0
 11
1289.706540663653
 21
371.5093273427424
 31
0.0
 12
1289.081540663653
 22
367.7593273427424
 32
0.0
 13
1289.081540663653
 23
367.7593273427424
 33
0.0
  0
MTEXT
  5
16666
330
15519
100
AcDbEntity
  8
AM_5
100
AcDbMText
 10
1285.894040663652
 20
390.2593273427426
 30
0.0
 40
4.375
 41
0.0
 71
     5
 72
     1
  1
45
 11
0.0000000000000001
 21
1.0
 31
0.0
1001
ACAD
1000
MTEXTBEGIN
1070
    73
1070
     1
1070
    44
1040
1.0
1070
    74
1070
     0
1000
MTEXTEND
  0
POINT
  5
16667
330
15519
100
AcDbEntity
  8
DEFPOINTS
 62
     0
100
AcDbPoint
 10
1311.081540663653
 20
412.7593273427424
 30
0.0
  0
POINT
  5
16668
330
15519
100
AcDbEntity
  8
DEFPOINTS
 62
     0
100
AcDbPoint
 10
1311.081540663653
 20
367.7593273427424
 30
0.0
  0
POINT
  5
16669
330
15519
100
AcDbEntity
  8
DEFPOINTS
 62
     0
100
AcDbPoint
 10
1289.081540663653
 20
367.7593273427424
 30
0.0
  0
ENDBLK
  5
15524
330
15519
100
AcDbEntity
  8
0
100
AcDbBlockEnd
  0
BLOCK
  5
15547
330
1553D
100
AcDbEntity
  8
0
100
AcDbBlockBegin
  2
*D6
 70
     1
 10
0.0
 20
0.0
 30
0.0
  3
*D6
  1

  0
LINE
  5
1667C
330
1553D
100
AcDbEntity
  8
AM_5
100
AcDbLine
 10
1311.081540663653
 20
365.8843273427424
 30
0.0
 11
1311.081540663653
 21
353.2593273427423
 31
0.0
  0
LINE
  5
1667D
330
1553D
100
AcDbEntity
  8
AM_5
100
AcDbLine
 10
1330.581540663652
 20
367.6343273427424
 30
0.0
 11
1330.581540663652
 21
353.2593273427423
 31
0.0
  0
LINE
  5
1667E
330
1553D
100
AcDbEntity
  8
AM_5
100
AcDbLine
 10
1314.831540663653
 20
355.7593273427424
 30
0.0
 11
1326.831540663653
 21
355.7593273427424
 31
0.0
  0
SOLID
  5
1667F
330
1553D
100
AcDbEntity
  8
AM_5
100
AcDbTrace
 10
1314.831540663653
 20
356.3843273427423
 30
0.0
 11
1314.831540663653
 21
355.1343273427423
 31
0.0
 12
1311.081540663653
 22
355.7593273427424
 32
0.0
 13
1311.081540663653
 23
355.7593273427424
 33
0.0
  0
SOLID
  5
16680
330
1553D
100
AcDbEntity
  8
AM_5
100
AcDbTrace
 10
1326.831540663653
 20
356.3843273427423
 30
0.0
 11
1326.831540663653
 21
355.1343273427423
 31
0.0
 12
1330.581540663652
 22
355.7593273427424
 32
0.0
 13
1330.581540663652
 23
355.7593273427424
 33
0.0
  0
MTEXT
  5
16681
330
1553D
100
AcDbEntity
  8
AM_5
100
AcDbMText
 10
1320.831540663653
 20
358.9468273427423
 30
0.0
 40
4.375
 41
0.0
 71
     5
 72
     1
  1
19.5
1001
ACAD
1000
MTEXTBEGIN
1070
    73
1070
     1
1070
    44
1040
1.0
1070
    74
1070
     0
1000
MTEXTEND
  0
POINT
  5
16682
330
1553D
100
AcDbEntity
  8
DEFPOINTS
 62
     0
100
AcDbPoint
 10
1311.081540663653
 20
367.7593273427424
 30
0.0
  0
POINT
  5
16683
330
1553D
100
AcDbEntity
  8
DEFPOINTS
 62
     0
100
AcDbPoint
 10
1330.581540663652
 20
369.5093273427424
 30
0.0
  0
POINT
  5
16684
330
1553D
100
AcDbEntity
  8
DEFPOINTS
 62
     0
100
AcDbPoint
 10
1330.581540663652
 20
355.7593273427424
 30
0.0
  0
ENDBLK
  5
15548
330
1553D
100
AcDbEntity
  8
0
100
AcDbBlockEnd
  0
BLOCK
  5
1559B
330
15591
100
AcDbEntity
  8
0
100
AcDbBlockBegin
  2
*D7
 70
     1
 10
0.0
 20
0.0
 30
0.0
  3
*D7
  1

  0
LINE
  5
16685
330
15591
100
AcDbEntity
  8
AM_5
100
AcDbLine
 10
1330.581540663652
 20
367.6343273427424
 30
0.0
 11
1330.581540663652
 21
353.2593273427424
 31
0.0
  0
LINE
  5
16686
330
15591
100
AcDbEntity
  8
AM_5
100
AcDbLine
 10
1366.581540663653
 20
367.6343273427424
 30
0.0
 11
1366.581540663653
 21
353.2593273427424
 31
0.0
  0
LINE
  5
16687
330
15591
100
AcDbEntity
  8
AM_5
100
AcDbLine
 10
1334.331540663653
 20
355.7593273427424
 30
0.0
 11
1362.831540663653
 21
355.7593273427424
 31
0.0
  0
SOLID
  5
16688
330
15591
100
AcDbEntity
  8
AM_5
100
AcDbTrace
 10
1334.331540663653
 20
356.3843273427424
 30
0.0
 11
1334.331540663653
 21
355.1343273427424
 31
0.0
 12
1330.581540663652
 22
355.7593273427424
 32
0.0
 13
1330.581540663652
 23
355.7593273427424
 33
0.0
  0
SOLID
  5
16689
330
15591
100
AcDbEntity
  8
AM_5
100
AcDbTrace
 10
1362.831540663653
 20
356.3843273427424
 30
0.0
 11
1362.831540663653
 21
355.1343273427424
 31
0.0
 12
1366.581540663653
 22
355.7593273427424
 32
0.0
 13
1366.581540663653
 23
355.7593273427424
 33
0.0
  0
MTEXT
  5
1668A
330
15591
100
AcDbEntity
  8
AM_5
100
AcDbMText
 10
1348.581540663652
 20
358.9468273427424
 30
0.0
 40
4.375
 41
0.0
 71
     5
 72
     1
  1
36
1001
ACAD
1000
MTEXTBEGIN
1070
    73
1070
     1
1070
    44
1040
1.0
1070
    74
1070
     0
1000
MTEXTEND
  0
POINT
  5
1668B
330
15591
100
AcDbEntity
  8
DEFPOINTS
 62
     0
100
AcDbPoint
 10
1330.581540663652
 20
369.5093273427424
 30
0.0
  0
POINT
  5
1668C
330
15591
100
AcDbEntity
  8
DEFPOINTS
 62
     0
100
AcDbPoint
 10
1366.581540663653
 20
369.5093273427424
 30
0.0
  0
POINT
  5
1668D
330
15591
100
AcDbEntity
  8
DEFPOINTS
 62
     0
100
AcDbPoint
 10
1366.581540663653
 20
355.7593273427424
 30
0.0
  0
ENDBLK
  5
1559C
330
15591
100
AcDbEntity
  8
0
100
AcDbBlockEnd
  0
BLOCK
  5
155BF
330
155B5
100
AcDbEntity
  8
0
100
AcDbBlockBegin
  2
*D8
 70
     1
 10
0.0
 20
0.0
 30
0.0
  3
*D8
  1

  0
LINE
  5
1664F
330
155B5
100
AcDbEntity
  8
AM_5
100
AcDbLine
 10
1311.081540663653
 20
365.8843273427424
 30
0.0
 11
1311.081540663653
 21
343.2593273427424
 31
0.0
  0
LINE
  5
16650
330
155B5
100
AcDbEntity
  8
AM_5
100
AcDbLine
 10
1402.081540663653
 20
365.8843273427424
 30
0.0
 11
1402.081540663653
 21
343.2593273427424
 31
0.0
  0
LINE
  5
16651
330
155B5
100
AcDbEntity
  8
AM_5
100
AcDbLine
 10
1314.831540663653
 20
345.7593273427424
 30
0.0
 11
1398.331540663653
 21
345.7593273427424
 31
0.0
  0
SOLID
  5
16652
330
155B5
100
AcDbEntity
  8
AM_5
100
AcDbTrace
 10
1314.831540663653
 20
346.3843273427424
 30
0.0
 11
1314.831540663653
 21
345.1343273427425
 31
0.0
 12
1311.081540663653
 22
345.7593273427424
 32
0.0
 13
1311.081540663653
 23
345.7593273427424
 33
0.0
  0
SOLID
  5
16653
330
155B5
100
AcDbEntity
  8
AM_5
100
AcDbTrace
 10
1398.331540663653
 20
346.3843273427424
 30
0.0
 11
1398.331540663653
 21
345.1343273427425
 31
0.0
 12
1402.081540663653
 22
345.7593273427424
 32
0.0
 13
1402.081540663653
 23
345.7593273427424
 33
0.0
  0
MTEXT
  5
16654
330
155B5
100
AcDbEntity
  8
AM_5
100
AcDbMText
 10
1356.581540663652
 20
348.9468273427425
 30
0.0
 40
4.375
 41
0.0
 71
     5
 72
     1
  1
91
1001
ACAD
1000
MTEXTBEGIN
1070
    73
1070
     1
1070
    44
1040
1.0
1070
    74
1070
     0
1000
MTEXTEND
  0
POINT
  5
16655
330
155B5
100
AcDbEntity
  8
DEFPOINTS
 62
     0
100
AcDbPoint
 10
1311.081540663653
 20
367.7593273427424
 30
0.0
  0
POINT
  5
16656
330
155B5
100
AcDbEntity
  8
DEFPOINTS
 62
     0
100
AcDbPoint
 10
1402.081540663653
 20
367.7593273427424
 30
0.0
  0
POINT
  5
16657
330
155B5
100
AcDbEntity
  8
DEFPOINTS
 62
     0
100
AcDbPoint
 10
1402.081540663653
 20
345.7593273427424
 30
0.0
  0
ENDBLK
  5
155C0
330
155B5
100
AcDbEntity
  8
0
100
AcDbBlockEnd
  0
BLOCK
  5
155E3
330
155D9
100
AcDbEntity
  8
0
100
AcDbBlockBegin
  2
*D9
 70
     1
 10
0.0
 20
0.0
 30
0.0
  3
*D9
  1

  0
LINE
  5
16673
330
155D9
100
AcDbEntity
  8
AM_5
100
AcDbLine
 10
1309.206540663653
 20
238.4870654848305
 30
0.0
 11
1296.581540663652
 21
238.4870654848305
 31
0.0
  0
LINE
  5
16674
330
155D9
100
AcDbEntity
  8
AM_5
100
AcDbLine
 10
1309.206540663653
 20
264.4870654848305
 30
0.0
 11
1296.581540663652
 21
264.4870654848305
 31
0.0
  0
LINE
  5
16675
330
155D9
100
AcDbEntity
  8
AM_5
100
AcDbLine
 10
1299.081540663652
 20
242.2370654848305
 30
0.0
 11
1299.081540663652
 21
260.7370654848305
 31
0.0
  0
SOLID
  5
16676
330
155D9
100
AcDbEntity
  8
AM_5
100
AcDbTrace
 10
1298.456540663652
 20
242.2370654848305
 30
0.0
 11
1299.706540663652
 21
242.2370654848305
 31
0.0
 12
1299.081540663652
 22
238.4870654848305
 32
0.0
 13
1299.081540663652
 23
238.4870654848305
 33
0.0
  0
SOLID
  5
16677
330
155D9
100
AcDbEntity
  8
AM_5
100
AcDbTrace
 10
1298.456540663652
 20
260.7370654848305
 30
0.0
 11
1299.706540663652
 21
260.7370654848305
 31
0.0
 12
1299.081540663652
 22
264.4870654848305
 32
0.0
 13
1299.081540663652
 23
264.4870654848305
 33
0.0
  0
MTEXT
  5
16678
330
155D9
100
AcDbEntity
  8
AM_5
100
AcDbMText
 10
1295.893610053416
 20
251.4870654848307
 30
0.0
 40
4.375
 41
0.0
 71
     5
 72
     1
  1
26
 11
0.0000000000000001
 21
1.0
 31
0.0
1001
ACAD
1000
MTEXTBEGIN
1070
    73
1070
     1
1070
    44
1040
1.0
1070
    74
1070
     0
1000
MTEXTEND
  0
POINT
  5
16679
330
155D9
100
AcDbEntity
  8
DEFPOINTS
 62
     0
100
AcDbPoint
 10
1311.081540663653
 20
238.4870654848305
 30
0.0
  0
POINT
  5
1667A
330
155D9
100
AcDbEntity
  8
DEFPOINTS
 62
     0
100
AcDbPoint
 10
1311.081540663653
 20
264.4870654848305
 30
0.0
  0
POINT
  5
1667B
330
155D9
100
AcDbEntity
  8
DEFPOINTS
 62
     0
100
AcDbPoint
 10
1299.081540663652
 20
264.4870654848305
 30
0.0
  0
ENDBLK
  5
155E4
330
155D9
100
AcDbEntity
  8
0
100
AcDbBlockEnd
  0
BLOCK
  5
15607
330
155FD
100
AcDbEntity
  8
0
100
AcDbBlockBegin
  2
*D10
 70
     1
 10
0.0
 20
0.0
 30
0.0
  3
*D10
  1

  0
LINE
  5
1666A
330
155FD
100
AcDbEntity
  8
AM_5
100
AcDbLine
 10
1309.206540663653
 20
238.4870654848305
 30
0.0
 11
1286.581540663652
 21
238.4870654848305
 31
0.0
  0
LINE
  5
1666B
330
155FD
100
AcDbEntity
  8
AM_5
100
AcDbLine
 10
1379.706540663652
 20
318.9870654848305
 30
0.0
 11
1286.581540663652
 21
318.9870654848305
 31
0.0
  0
LINE
  5
1666C
330
155FD
100
AcDbEntity
  8
AM_5
100
AcDbLine
 10
1289.081540663652
 20
242.2370654848305
 30
0.0
 11
1289.081540663652
 21
315.2370654848305
 31
0.0
  0
SOLID
  5
1666D
330
155FD
100
AcDbEntity
  8
AM_5
100
AcDbTrace
 10
1288.456540663652
 20
242.2370654848305
 30
0.0
 11
1289.706540663652
 21
242.2370654848305
 31
0.0
 12
1289.081540663652
 22
238.4870654848305
 32
0.0
 13
1289.081540663652
 23
238.4870654848305
 33
0.0
  0
SOLID
  5
1666E
330
155FD
100
AcDbEntity
  8
AM_5
100
AcDbTrace
 10
1288.456540663652
 20
315.2370654848305
 30
0.0
 11
1289.706540663652
 21
315.2370654848305
 31
0.0
 12
1289.081540663652
 22
318.9870654848305
 32
0.0
 13
1289.081540663652
 23
318.9870654848305
 33
0.0
  0
MTEXT
  5
1666F
330
155FD
100
AcDbEntity
  8
AM_5
100
AcDbMText
 10
1285.894040663652
 20
278.7370654848308
 30
0.0
 40
4.375
 41
0.0
 71
     5
 72
     1
  1
80.5
 11
0.0000000000000001
 21
1.0
 31
0.0
1001
ACAD
1000
MTEXTBEGIN
1070
    73
1070
     1
1070
    44
1040
1.0
1070
    74
1070
     0
1000
MTEXTEND
  0
POINT
  5
16670
330
155FD
100
AcDbEntity
  8
DEFPOINTS
 62
     0
100
AcDbPoint
 10
1311.081540663653
 20
238.4870654848305
 30
0.0
  0
POINT
  5
16671
330
155FD
100
AcDbEntity
  8
DEFPOINTS
 62
     0
100
AcDbPoint
 10
1381.581540663652
 20
318.9870654848305
 30
0.0
  0
POINT
  5
16672
330
155FD
100
AcDbEntity
  8
DEFPOINTS
 62
     0
100
AcDbPoint
 10
1289.081540663652
 20
318.9870654848305
 30
0.0
  0
ENDBLK
  5
15608
330
155FD
100
AcDbEntity
  8
0
100
AcDbBlockEnd
  0
BLOCK
  5
1562B
330
15621
100
AcDbEntity
  8
0
100
AcDbBlockBegin
  2
*D11
 70
     1
 10
0.0
 20
0.0
 30
0.0
  3
*D11
  1

  0
LINE
  5
16646
330
15621
100
AcDbEntity
  8
AM_5
100
AcDbLine
 10
1311.081540663653
 20
236.6120654848305
 30
0.0
 11
1311.081540663653
 21
223.9870654848306
 31
0.0
  0
LINE
  5
16647
330
15621
100
AcDbEntity
  8
AM_5
100
AcDbLine
 10
1439.081540663652
 20
309.1120654848305
 30
0.0
 11
1439.081540663652
 21
223.9870654848306
 31
0.0
  0
LINE
  5
16648
330
15621
100
AcDbEntity
  8
AM_5
100
AcDbLine
 10
1314.831540663653
 20
226.4870654848306
 30
0.0
 11
1435.331540663652
 21
226.4870654848306
 31
0.0
  0
SOLID
  5
16649
330
15621
100
AcDbEntity
  8
AM_5
100
AcDbTrace
 10
1314.831540663653
 20
227.1120654848306
 30
0.0
 11
1314.831540663653
 21
225.8620654848306
 31
0.0
 12
1311.081540663653
 22
226.4870654848306
 32
0.0
 13
1311.081540663653
 23
226.4870654848306
 33
0.0
  0
SOLID
  5
1664A
330
15621
100
AcDbEntity
  8
AM_5
100
AcDbTrace
 10
1435.331540663652
 20
227.1120654848306
 30
0.0
 11
1435.331540663652
 21
225.8620654848306
 31
0.0
 12
1439.081540663652
 22
226.4870654848306
 32
0.0
 13
1439.081540663652
 23
226.4870654848306
 33
0.0
  0
MTEXT
  5
1664B
330
15621
100
AcDbEntity
  8
AM_5
100
AcDbMText
 10
1375.081540663653
 20
229.6749960950668
 30
0.0
 40
4.375
 41
0.0
 71
     5
 72
     1
  1
128
1001
ACAD
1000
MTEXTBEGIN
1070
    73
1070
     1
1070
    44
1040
1.0
1070
    74
1070
     0
1000
MTEXTEND
  0
POINT
  5
1664C
330
15621
100
AcDbEntity
  8
DEFPOINTS
 62
     0
100
AcDbPoint
 10
1311.081540663653
 20
238.4870654848305
 30
0.0
  0
POINT
  5
1664D
330
15621
100
AcDbEntity
  8
DEFPOINTS
 62
     0
100
AcDbPoint
 10
1439.081540663652
 20
310.9870654848305
 30
0.0
  0
POINT
  5
1664E
330
15621
100
AcDbEntity
  8
DEFPOINTS
 62
     0
100
AcDbPoint
 10
1439.081540663652
 20
226.4870654848306
 30
0.0
  0
ENDBLK
  5
1562C
330
15621
100
AcDbEntity
  8
0
100
AcDbBlockEnd
  0
BLOCK
  5
1564F
330
15645
100
AcDbEntity
  8
0
100
AcDbBlockBegin
  2
*D12
 70
     1
 10
0.0
 20
0.0
 30
0.0
  3
*D12
  1

  0
LINE
  5
166A9
330
15645
100
AcDbEntity
  8
AM_5
100
AcDbLine
 10
1484.029290694484
 20
238.4870654848305
 30
0.0
 11
1471.404290694484
 21
238.4870654848305
 31
0.0
  0
LINE
  5
166AA
330
15645
100
AcDbEntity
  8
AM_5
100
AcDbLine
 10
1493.029290694484
 20
330.0870654848305
 30
0.0
 11
1471.404290694484
 21
330.0870654848305
 31
0.0
  0
LINE
  5
166AB
330
15645
100
AcDbEntity
  8
AM_5
100
AcDbLine
 10
1473.904290694484
 20
242.2370654848305
 30
0.0
 11
1473.904290694484
 21
326.3370654848305
 31
0.0
  0
SOLID
  5
166AC
330
15645
100
AcDbEntity
  8
AM_5
100
AcDbTrace
 10
1473.279290694484
 20
242.2370654848305
 30
0.0
 11
1474.529290694484
 21
242.2370654848305
 31
0.0
 12
1473.904290694484
 22
238.4870654848305
 32
0.0
 13
1473.904290694484
 23
238.4870654848305
 33
0.0
  0
SOLID
  5
166AD
330
15645
100
AcDbEntity
  8
AM_5
100
AcDbTrace
 10
1473.279290694484
 20
326.3370654848305
 30
0.0
 11
1474.529290694484
 21
326.3370654848305
 31
0.0
 12
1473.904290694484
 22
330.0870654848305
 32
0.0
 13
1473.904290694484
 23
330.0870654848305
 33
0.0
  0
MTEXT
  5
166AE
330
15645
100
AcDbEntity
  8
AM_5
100
AcDbMText
 10
1470.715302736393
 20
284.2870654848307
 30
0.0
 40
4.375
 41
0.0
 71
     5
 72
     1
  1
92
 11
0.0000000000000001
 21
1.0
 31
0.0
1001
ACAD
1000
MTEXTBEGIN
1070
    73
1070
     1
1070
    44
1040
1.0
1070
    74
1070
     0
1000
MTEXTEND
  0
POINT
  5
166AF
330
15645
100
AcDbEntity
  8
DEFPOINTS
 62
     0
100
AcDbPoint
 10
1485.904290694484
 20
238.4870654848305
 30
0.0
  0
POINT
  5
166B0
330
15645
100
AcDbEntity
  8
DEFPOINTS
 62
     0
100
AcDbPoint
 10
1494.904290694484
 20
330.0870654848305
 30
0.0
  0
POINT
  5
166B1
330
15645
100
AcDbEntity
  8
DEFPOINTS
 62
     0
100
AcDbPoint
 10
1473.904290694484
 20
330.0870654848305
 30
0.0
  0
ENDBLK
  5
15650
330
15645
100
AcDbEntity
  8
0
100
AcDbBlockEnd
  0
BLOCK
  5
15699
330
1568D
100
AcDbEntity
  8
0
100
AcDbBlockBegin
  2
*D13
 70
     1
 10
0.0
 20
0.0
 30
0.0
  3
*D13
  1

  0
LINE
  5
167BC
330
1568D
100
AcDbEntity
  8
AM_5
100
AcDbLine
 10
1403.956540663653
 20
367.7593273427424
 30
0.0
 11
1453.571296706737
 21
367.7593273427423
 31
0.0
  0
LINE
  5
167BD
330
1568D
100
AcDbEntity
  8
AM_5
100
AcDbLine
 10
1410.456540663652
 20
373.7593273427423
 30
0.0
 11
1453.571296706737
 21
373.7593273427423
 31
0.0
  0
LINE
  5
167BE
330
1568D
100
AcDbEntity
  8
AM_5
100
AcDbLine
 10
1451.071296706737
 20
364.0093273427424
 30
0.0
 11
1451.071296706737
 21
360.2593273427423
 31
0.0
  0
LINE
  5
167BF
330
1568D
100
AcDbEntity
  8
AM_5
100
AcDbLine
 10
1451.071296706737
 20
377.5093273427423
 30
0.0
 11
1451.071296706737
 21
381.2593273427424
 31
0.0
  0
LINE
  5
167C0
330
1568D
100
AcDbEntity
  8
AM_5
100
AcDbLine
 10
1451.071296706737
 20
367.7593273427423
 30
0.0
 11
1451.071296706737
 21
373.7593273427423
 31
0.0
  0
SOLID
  5
167C1
330
1568D
100
AcDbEntity
  8
AM_5
100
AcDbTrace
 10
1450.446296706737
 20
364.0093273427424
 30
0.0
 11
1451.696296706737
 21
364.0093273427424
 31
0.0
 12
1451.071296706737
 22
367.7593273427423
 32
0.0
 13
1451.071296706737
 23
367.7593273427423
 33
0.0
  0
INSERT
  5
167C2
330
1568D
100
AcDbEntity
  8
AM_5
100
AcDbBlockReference
  2
GENDOT
 10
1451.071296706737
 20
373.7593273427423
 30
0.0
 41
3.75
 42
3.75
 43
3.75
 50
270.0
  0
MTEXT
  5
167C3
330
1568D
100
AcDbEntity
  8
AM_5
100
AcDbMText
 10
1447.883796706737
 20
370.7593273427426
 30
0.0
 40
4.375
 41
0.0
 71
     5
 72
     1
  1
6
 11
0.0000000000000001
 21
1.0
 31
0.0
1001
ACAD
1000
MTEXTBEGIN
1070
    73
1070
     1
1070
    44
1040
1.0
1070
    74
1070
     0
1000
MTEXTEND
  0
POINT
  5
167C4
330
1568D
100
AcDbEntity
  8
DEFPOINTS
 62
     0
100
AcDbPoint
 10
1402.081540663653
 20
367.7593273427424
 30
0.0
  0
POINT
  5
167C5
330
1568D
100
AcDbEntity
  8
DEFPOINTS
 62
     0
100
AcDbPoint
 10
1408.581540663652
 20
373.7593273427423
 30
0.0
  0
POINT
  5
167C6
330
1568D
100
AcDbEntity
  8
DEFPOINTS
 62
     0
100
AcDbPoint
 10
1451.071296706737
 20
373.7593273427423
 30
0.0
  0
ENDBLK
  5
1569A
330
1568D
100
AcDbEntity
  8
0
100
AcDbBlockEnd
  0
BLOCK
  5
15787
330
1577D
100
AcDbEntity
  8
0
100
AcDbBlockBegin
  2
*D14
 70
     1
 10
0.0
 20
0.0
 30
0.0
  3
*D14
  1

  0
LINE
  5
167C7
330
1577D
100
AcDbEntity
  8
AM_5
100
AcDbLine
 10
1410.456540663652
 20
395.7593273427423
 30
0.0
 11
1453.571296706737
 21
395.7593273427423
 31
0.0
  0
LINE
  5
167C8
330
1577D
100
AcDbEntity
  8
AM_5
100
AcDbLine
 10
1410.456540663652
 20
373.7593273427423
 30
0.0
 11
1453.571296706737
 21
373.7593273427423
 31
0.0
  0
LINE
  5
167C9
330
1577D
100
AcDbEntity
  8
AM_5
100
AcDbLine
 10
1451.071296706737
 20
392.0093273427423
 30
0.0
 11
1451.071296706737
 21
377.5093273427423
 31
0.0
  0
SOLID
  5
167CA
330
1577D
100
AcDbEntity
  8
AM_5
100
AcDbTrace
 10
1450.446296706737
 20
392.0093273427423
 30
0.0
 11
1451.696296706737
 21
392.0093273427423
 31
0.0
 12
1451.071296706737
 22
395.7593273427423
 32
0.0
 13
1451.071296706737
 23
395.7593273427423
 33
0.0
  0
INSERT
  5
167CB
330
1577D
100
AcDbEntity
  8
AM_5
100
AcDbBlockReference
  2
GENDOT
 10
1451.071296706737
 20
373.7593273427423
 30
0.0
 41
3.75
 42
3.75
 43
3.75
 50
270.0
  0
MTEXT
  5
167CC
330
1577D
100
AcDbEntity
  8
AM_5
100
AcDbMText
 10
1447.8833660965
 20
384.7593273427426
 30
0.0
 40
4.375
 41
0.0
 71
     5
 72
     1
  1
22
 11
0.0000000000000001
 21
1.0
 31
0.0
1001
ACAD
1000
MTEXTBEGIN
1070
    73
1070
     1
1070
    44
1040
1.0
1070
    74
1070
     0
1000
MTEXTEND
  0
POINT
  5
167CD
330
1577D
100
AcDbEntity
  8
DEFPOINTS
 62
     0
100
AcDbPoint
 10
1408.581540663652
 20
395.7593273427423
 30
0.0
  0
POINT
  5
167CE
330
1577D
100
AcDbEntity
  8
DEFPOINTS
 62
     0
100
AcDbPoint
 10
1408.581540663652
 20
373.7593273427423
 30
0.0
  0
POINT
  5
167CF
330
1577D
100
AcDbEntity
  8
DEFPOINTS
 62
     0
100
AcDbPoint
 10
1451.071296706737
 20
373.7593273427423
 30
0.0
  0
ENDBLK
  5
15788
330
1577D
100
AcDbEntity
  8
0
100
AcDbBlockEnd
  0
BLOCK
  5
15BBD
330
15BBA
100
AcDbEntity
  8
0
100
AcDbBlockBegin
  2
GENDOT
 70
     0
 10
0.0
 20
0.0
 30
0.0
  3
GENDOT
  1

  0
LINE
  5
15BBB
330
15BBA
100
AcDbEntity
  8
0
100
AcDbLine
 10
0.0
 20
0.0
 30
0.0
 11
-1.0
 21
0.0
 31
0.0
  0
POLYLINE
  5
15BBC
330
15BBA
100
AcDbEntity
  8
0
100
AcDb2dPolyline
 66
     1
 10
0.0
 20
0.0
 30
0.0
 70
     1
 40
0.25
 41
0.25
  0
VERTEX
  5
1689E
330
15BBC
100
AcDbEntity
  8
0
100
AcDbVertex
100
AcDb2dVertex
 10
-0.125
 20
0.0
 30
0.0
 42
1.0
  0
VERTEX
  5
1689F
330
15BBC
100
AcDbEntity
  8
0
100
AcDbVertex
100
AcDb2dVertex
 10
0.125
 20
0.0
 30
0.0
 42
1.0
  0
SEQEND
  5
168A0
330
15BBC
100
AcDbEntity
  8
0
  0
ENDBLK
  5
15BBE
330
15BBA
100
AcDbEntity
  8
0
100
AcDbBlockEnd
  0
BLOCK
  5
167D5
330
167D0
100
AcDbEntity
  8
0
100
AcDbBlockBegin
  2
*S16
 70
     1
 10
0.0
 20
0.0
 30
0.0
  3
*S16
  1

  0
LINE
  5
167D1
330
167D0
100
AcDbEntity
  8
AM_5
100
AcDbLine
 10
1406.829386711807
 20
424.7594652427446
 30
0.0
 11
1377.182436088409
 21
424.7594652427446
 31
0.0
  0
LINE
  5
167D2
330
167D0
100
AcDbEntity
  8
AM_5
100
AcDbLine
 10
1377.182436088409
 20
424.7594652427446
 30
0.0
 11
1364.287273150856
 21
411.0492359538777
 31
0.0
  0
TRACE
  5
167D3
330
167D0
100
AcDbEntity
  8
AM_5
100
AcDbTrace
 10
1363.855726290377
 20
411.455127566908
 30
0.0
 11
1364.718820011336
 21
410.6433443408473
 31
0.0
 12
1361.204220248104
 22
407.7713120989304
 32
0.0
 13
1361.204220248104
 23
407.7713120989304
 33
0.0
  0
MTEXT
  5
167D4
330
167D0
100
AcDbEntity
  8
AM_5
 62
     2
100
AcDbMText
 10
1406.829386711807
 20
417.9290193393458
 30
0.0
 40
8.75
 41
0.0
 71
     9
 72
     1
  1

  7
ACISOTS
210
0.0
220
0.0
230
-1.0
 11
-1.0
 21
0.0
 31
0.0
1001
ACAD
1000
MTEXTBEGIN
1070
    73
1070
     1
1070
    44
1040
1.0
1070
    74
1070
     0
1000
MTEXTEND
  0
ENDBLK
  5
167D6
330
167D0
100
AcDbEntity
  8
0
100
AcDbBlockEnd
  0
ENDSEC
  0
SECTION
  2
ENTITIES
  0
MTEXT
  5
20A1
330
1F
100
AcDbEntity
  8
AM_REFDIM
100
AcDbMText
 10
561.1885018225272
 20
211.9777653808241
 30
0.0
 40
5.0
 41
0.0
 71
     9
 72
     1
  1

  7
DAYUS
1001
ACAD
1000
MTEXTBEGIN
1070
    73
1070
     1
1070
    44
1040
1.0
1070
    74
1070
     0
1000
MTEXTEND
  0
MTEXT
  5
21E1
330
1F
100
AcDbEntity
  8
AM_REFDIM
100
AcDbMText
 10
755.6608394056113
 20
277.1617022919267
 30
0.0
 40
5.0
 41
0.0
 71
     9
 72
     1
  1

  7
DAYUS
1001
ACAD
1000
MTEXTBEGIN
1070
    73
1070
     1
1070
    44
1040
1.0
1070
    74
1070
     0
1000
MTEXTEND
  0
MTEXT
  5
21E8
330
1F
100
AcDbEntity
  8
AM_REFDIM
100
AcDbMText
 10
749.57448324194
 20
209.4269307825009
 30
0.0
 40
5.0
 41
0.0
 71
     9
 72
     1
  1

  7
DAYUS
1001
ACAD
1000
MTEXTBEGIN
1070
    73
1070
     1
1070
    44
1040
1.0
1070
    74
1070
     0
1000
MTEXTEND
  0
MTEXT
  5
950E
330
1F
100
AcDbEntity
  8
AM_REFDIM
100
AcDbMText
 10
883.1481342807478
 20
-16.56429920726827
 30
0.0
 40
5.0
 41
0.0
 71
     9
 72
     1
  1

  7
DAYUS
1001
ACAD
1000
MTEXTBEGIN
1070
    73
1070
     1
1070
    44
1040
1.0
1070
    74
1070
     0
1000
MTEXTEND
  0
MTEXT
  5
9515
330
1F
100
AcDbEntity
  8
AM_REFDIM
100
AcDbMText
 10
877.0617781170765
 20
-84.29907071669413
 30
0.0
 40
5.0
 41
0.0
 71
     9
 72
     1
  1

  7
DAYUS
1001
ACAD
1000
MTEXTBEGIN
1070
    73
1070
     1
1070
    44
1040
1.0
1070
    74
1070
     0
1000
MTEXTEND
  0
MTEXT
  5
9538
330
1F
100
AcDbEntity
  8
AM_REFDIM
100
AcDbMText
 10
688.6757966976639
 20
-81.74823611837087
 30
0.0
 40
5.0
 41
0.0
 71
     9
 72
     1
  1

  7
DAYUS
1001
ACAD
1000
MTEXTBEGIN
1070
    73
1070
     1
1070
    44
1040
1.0
1070
    74
1070
     0
1000
MTEXTEND
  0
MTEXT
  5
D169
330
1F
100
AcDbEntity
  8
圖層2
100
AcDbMText
 10
715.61673495723
 20
206.7204113137814
 30
0.0
 40
2.4
 41
0.0
 71
     1
 72
     1
  1

  7
DAYUS
1001
ACAD
1000
MTEXTBEGIN
1070
    73
1070
     1
1070
    44
1040
1.0
1070
    74
1070
     0
1000
MTEXTEND
  0
MTEXT
  5
D16D
330
1F
100
AcDbEntity
  8
圖層2
100
AcDbMText
 10
487.3356342227076
 20
201.008806919202
 30
0.0
 40
2.4
 41
0.0
 71
     9
 72
     1
  1

  7
DAYUS
1001
ACAD
1000
MTEXTBEGIN
1070
    73
1070
     1
1070
    44
1040
1.0
1070
    74
1070
     0
1000
MTEXTEND
  0
MTEXT
  5
D622
330
1F
100
AcDbEntity
  8
AM_5
 62
     2
100
AcDbMText
 10
364.1980009625231
 20
217.5933376591914
 30
0.0
 40
3.5
 41
0.0
 71
     7
 72
     1
  1

  7
ACISOTS
1001
ACAD
1000
MTEXTBEGIN
1070
    73
1070
     1
1070
    44
1040
1.0
1070
    74
1070
     0
1000
MTEXTEND
  0
MTEXT
  5
D62D
330
1F
100
AcDbEntity
  8
AM_5
 62
     2
100
AcDbMText
 10
375.2854589832454
 20
224.3263974052412
 30
0.0
 40
3.5
 41
0.0
 71
     9
 72
     1
  1

  7
ACISOTS
1001
ACAD
1000
MTEXTBEGIN
1070
    73
1070
     1
1070
    44
1040
1.0
1070
    74
1070
     0
1000
MTEXTEND
  0
MTEXT
  5
DBAB
330
1F
100
AcDbEntity
  8
圖層2
100
AcDbMText
 10
403.5453401996071
 20
241.6457643110565
 30
0.0
 40
6.0
 41
29.7
 71
     1
 72
     1
  1

  7
ROMAND
1001
ACAD
1000
MTEXTBEGIN
1070
    73
1070
     1
1070
    44
1040
1.0
1070
    74
1070
     0
1000
MTEXTEND
  0
MTEXT
  5
DBAC
330
1F
100
AcDbEntity
  8
圖層2
100
AcDbMText
 10
405.9710179574619
 20
231.7492930806483
 30
0.0
 40
4.3125
 41
25.28999999999999
 71
     1
 72
     1
  1
{\FARIAL.TTF;}
  7
ROMAND
1001
ACAD
1000
MTEXTBEGIN
1070
    73
1070
     1
1070
    44
1040
1.0
1070
    74
1070
     0
1000
MTEXTEND
  0
LINE
  5
14B38
330
1F
100
AcDbEntity
  8
AM_VIS
100
AcDbLine
 10
1378.081540663653
 20
264.4870654848304
 30
0.0
 11
1319.081540663653
 21
264.4870654848304
 31
0.0
  0
LINE
  5
14B39
330
1F
100
AcDbEntity
  8
AM_VIS
100
AcDbLine
 10
1378.081540663653
 20
238.4870654848305
 30
0.0
 11
1319.081540663653
 21
238.4870654848305
 31
0.0
  0
CIRCLE
  5
14B3A
330
1F
100
AcDbEntity
  8
AM_VIS
100
AcDbCircle
 10
1366.581540663653
 20
376.2593273427424
 30
0.0
 40
4.75
  0
LINE
  5
14B3B
330
1F
100
AcDbEntity
  8
AM_VIS
100
AcDbLine
 10
1378.081540663653
 20
367.7593273427424
 30
0.0
 11
1319.081540663653
 21
367.7593273427424
 31
0.0
  0
LINE
  5
14B3C
330
1F
100
AcDbEntity
  8
AM_VIS
100
AcDbLine
 10
1378.081540663653
 20
412.7593273427424
 30
0.0
 11
1319.081540663653
 21
412.7593273427424
 31
0.0
  0
CIRCLE
  5
14B3D
330
1F
100
AcDbEntity
  8
AM_VIS
100
AcDbCircle
 10
1348.581540663652
 20
251.4870654848305
 30
0.0
 40
1.399999999999999
  0
LINE
  5
14B3E
330
1F
100
AcDbEntity
  8
AM_VIS
100
AcDbLine
 10
1319.081540663653
 20
264.4870654848304
 30
0.0
 11
1319.081540663653
 21
238.4870654848305
 31
0.0
  0
LINE
  5
14B3F
330
1F
100
AcDbEntity
  8
AM_VIS
100
AcDbLine
 10
1319.081540663653
 20
239.4870654848305
 30
0.0
 11
1319.081540663653
 21
263.4870654848305
 31
0.0
  0
LINE
  5
14B40
330
1F
100
AcDbEntity
  8
AM_VIS
100
AcDbLine
 10
1311.081540663653
 20
239.4870654848305
 30
0.0
 11
1311.081540663653
 21
263.4870654848305
 31
0.0
  0
LINE
  5
14B41
330
1F
100
AcDbEntity
  8
AM_VIS
100
AcDbLine
 10
1349.581540663653
 20
250.5072695877172
 30
0.0
 11
1349.581540663653
 21
252.4668613819438
 31
0.0
  0
LINE
  5
14B42
330
1F
100
AcDbEntity
  8
AM_VIS
100
AcDbLine
 10
1349.481540663652
 20
252.5594460143069
 30
0.0
 11
1349.481540663652
 21
250.4146849553541
 31
0.0
  0
LINE
  5
14B43
330
1F
100
AcDbEntity
  8
AM_VIS
100
AcDbLine
 10
1348.381540663653
 20
252.8727061308857
 30
0.0
 11
1348.381540663653
 21
250.1014248387754
 31
0.0
  0
LINE
  5
14B44
330
1F
100
AcDbEntity
  8
AM_VIS
100
AcDbLine
 10
1311.081540663653
 20
238.4870654848305
 30
0.0
 11
1319.081540663653
 21
238.4870654848305
 31
0.0
  0
LINE
  5
14B46
330
1F
100
AcDbEntity
  8
AM_VIS
100
AcDbLine
 10
1311.081540663653
 20
239.4870654848305
 30
0.0
 11
1311.081540663653
 21
238.4870654848305
 31
0.0
  0
LINE
  5
14B48
330
1F
100
AcDbEntity
  8
AM_VIS
100
AcDbLine
 10
1319.081540663653
 20
264.4870654848305
 30
0.0
 11
1311.081540663653
 21
264.4870654848305
 31
0.0
  0
LINE
  5
14B49
330
1F
100
AcDbEntity
  8
AM_VIS
100
AcDbLine
 10
1311.081540663653
 20
264.4870654848305
 30
0.0
 11
1311.081540663653
 21
263.4870654848305
 31
0.0
  0
LINE
  5
14B4A
330
1F
100
AcDbEntity
  8
AM_VIS
100
AcDbLine
 10
1319.081540663653
 20
368.7593273427424
 30
0.0
 11
1319.081540663653
 21
411.7593273427424
 31
0.0
  0
LINE
  5
14B4B
330
1F
100
AcDbEntity
  8
AM_VIS
100
AcDbLine
 10
1311.081540663653
 20
368.7593273427424
 30
0.0
 11
1311.081540663653
 21
411.7593273427424
 31
0.0
  0
LINE
  5
14B4C
330
1F
100
AcDbEntity
  8
AM_VIS
100
AcDbLine
 10
1319.081540663653
 20
412.7593273427424
 30
0.0
 11
1319.081540663653
 21
367.7593273427424
 31
0.0
  0
LINE
  5
14B4D
330
1F
100
AcDbEntity
  8
AM_VIS
100
AcDbLine
 10
1311.081540663653
 20
367.7593273427424
 30
0.0
 11
1319.081540663653
 21
367.7593273427424
 31
0.0
  0
LINE
  5
14B4F
330
1F
100
AcDbEntity
  8
AM_VIS
100
AcDbLine
 10
1311.081540663653
 20
368.7593273427424
 30
0.0
 11
1311.081540663653
 21
367.7593273427424
 31
0.0
  0
CIRCLE
  5
14B50
330
1F
100
AcDbEntity
  8
AM_VIS
100
AcDbCircle
 10
1330.581540663652
 20
376.2593273427424
 30
0.0
 40
4.75
  0
CIRCLE
  5
14B51
330
1F
100
AcDbEntity
  8
AM_VIS
100
AcDbCircle
 10
1330.581540663652
 20
376.2593273427424
 30
0.0
 40
2.6
  0
CIRCLE
  5
14B52
330
1F
100
AcDbEntity
  8
AM_VIS
100
AcDbCircle
 10
1366.581540663653
 20
376.2593273427424
 30
0.0
 40
2.6
  0
CIRCLE
  5
14B53
330
1F
100
AcDbEntity
  8
AM_VIS
100
AcDbCircle
 10
1339.581540663653
 20
404.2593273427424
 30
0.0
 40
4.75
  0
CIRCLE
  5
14B54
330
1F
100
AcDbEntity
  8
AM_VIS
100
AcDbCircle
 10
1339.581540663653
 20
404.2593273427424
 30
0.0
 40
2.6
  0
LINE
  5
14B56
330
1F
100
AcDbEntity
  8
AM_VIS
100
AcDbLine
 10
1319.081540663653
 20
412.7593273427424
 30
0.0
 11
1311.081540663653
 21
412.7593273427424
 31
0.0
  0
LINE
  5
14B57
330
1F
100
AcDbEntity
  8
AM_VIS
100
AcDbLine
 10
1311.081540663653
 20
412.7593273427424
 30
0.0
 11
1311.081540663653
 21
411.7593273427424
 31
0.0
  0
CIRCLE
  5
14B58
330
1F
100
AcDbEntity
  8
AM_VIS
100
AcDbCircle
 10
1357.581540663653
 20
404.2593273427424
 30
0.0
 40
4.75
  0
CIRCLE
  5
14B59
330
1F
100
AcDbEntity
  8
AM_VIS
100
AcDbCircle
 10
1357.581540663653
 20
404.2593273427424
 30
0.0
 40
2.6
  0
LINE
  5
14B5A
330
1F
100
AcDbEntity
  8
AM_VIS
100
AcDbLine
 10
1378.081540663653
 20
264.4870654848304
 30
0.0
 11
1378.081540663653
 21
238.4870654848305
 31
0.0
  0
CIRCLE
  5
14B5B
330
1F
100
AcDbEntity
  8
AM_VIS
100
AcDbCircle
 10
1391.081540663653
 20
251.4870654848305
 30
0.0
 40
1.399999999999999
  0
LINE
  5
14B5C
330
1F
100
AcDbEntity
  8
AM_VIS
100
AcDbLine
 10
1402.081540663653
 20
263.4870654848305
 30
0.0
 11
1402.081540663653
 21
239.4870654848304
 31
0.0
  0
LINE
  5
14B5D
330
1F
100
AcDbEntity
  8
AM_VIS
100
AcDbLine
 10
1378.081540663653
 20
263.4870654848305
 30
0.0
 11
1378.081540663653
 21
239.4870654848304
 31
0.0
  0
LINE
  5
14B5F
330
1F
100
AcDbEntity
  8
AM_VIS
100
AcDbLine
 10
1378.081540663653
 20
238.4870654848305
 30
0.0
 11
1402.081540663653
 21
238.4870654848305
 31
0.0
  0
LINE
  5
14B60
330
1F
100
AcDbEntity
  8
AM_VIS
100
AcDbLine
 10
1402.081540663653
 20
238.4870654848305
 30
0.0
 11
1402.081540663653
 21
239.4870654848304
 31
0.0
  0
LINE
  5
14B61
330
1F
100
AcDbEntity
  8
AM_VIS
100
AcDbLine
 10
1431.831540663653
 20
324.5870654848305
 30
0.0
 11
1434.700342817169
 21
324.5870654848305
 31
0.0
  0
LINE
  5
14B62
330
1F
100
AcDbEntity
  8
AM_VIS
100
AcDbLine
 10
1431.831540663653
 20
330.0870654848305
 30
0.0
 11
1434.700342817169
 21
330.0870654848305
 31
0.0
  0
LINE
  5
14B63
330
1F
100
AcDbEntity
  8
AM_VIS
100
AcDbLine
 10
1439.081540663652
 20
310.9870654848305
 30
0.0
 11
1424.42468641416
 21
310.9870654848305
 31
0.0
  0
LINE
  5
14B64
330
1F
100
AcDbEntity
  8
AM_VIS
100
AcDbLine
 10
1430.081540663653
 20
322.9870654848305
 30
0.0
 11
1439.081540663653
 21
322.9870654848305
 31
0.0
  0
SPLINE
  5
14B65
330
1F
100
AcDbEntity
  8
AM_VIS
100
AcDbSpline
210
0.0
220
0.0
230
1.0
 70
     8
 71
     3
 72
    22
 73
    18
 74
     0
 42
0.0000000001
 43
0.0000000001
 40
9.329211228246744
 40
9.329211228246744
 40
9.329211228246744
 40
9.329211228246744
 40
9.987850373432095
 40
9.987850373432095
 40
11.36034008068873
 40
11.36034008068873
 40
12.73282978794537
 40
12.73282978794537
 40
14.10531949520201
 40
14.10531949520201
 40
15.47780920245866
 40
15.47780920245866
 40
16.85029890971531
 40
16.85029890971531
 40
18.22278861697195
 40
18.22278861697195
 40
18.54268538390729
 40
18.54268538390729
 40
18.54268538390729
 40
18.54268538390729
 10
1433.581540663652
 20
310.7751184266296
 30
0.0
 10
1433.364064351621
 20
310.7458911757748
 30
0.0
 10
1433.142372203034
 20
310.716339922218
 30
0.0
 10
1432.45024972931
 20
310.6294215390576
 30
0.0
 10
1431.970181236495
 20
310.577111334414
 30
0.0
 10
1431.014581991382
 20
310.5065264434709
 30
0.0
 10
1430.539037232738
 20
310.4884092893009
 30
0.0
 10
1429.624044094567
 20
310.4884092893009
 30
0.0
 10
1429.148499335923
 20
310.5065264434709
 30
0.0
 10
1428.19290009081
 20
310.577111334414
 30
0.0
 10
1427.712831597995
 20
310.6294215390576
 30
0.0
 10
1426.777459161918
 20
310.7468878298994
 30
0.0
 10
1426.321788346905
 20
310.8117953885207
 30
0.0
 10
1425.460299761802
 20
310.9213745522959
 30
0.0
 10
1425.054442633509
 20
310.9659761492822
 30
0.0
 10
1424.598789091764
 20
310.9849514721527
 30
0.0
 10
1424.511574982312
 20
310.9870654848305
 30
0.0
 10
1424.42468641416
 20
310.9870654848305
 30
0.0
  0
LINE
  5
14B66
330
1F
100
AcDbEntity
  8
AM_VIS
100
AcDbLine
 10
1408.581540663652
 20
281.9870654848305
 30
0.0
 11
1433.581540663652
 21
281.9870654848305
 31
0.0
  0
LINE
  5
14B67
330
1F
100
AcDbEntity
  8
AM_VIS
100
AcDbLine
 10
1408.581540663652
 20
281.4870654848305
 30
0.0
 11
1408.581540663652
 21
310.9870654848305
 31
0.0
  0
LINE
  5
14B68
330
1F
100
AcDbEntity
  8
AM_VIS
100
AcDbLine
 10
1380.081540663652
 20
310.9870654848305
 30
0.0
 11
1380.081540663652
 21
281.4870654848305
 31
0.0
  0
LINE
  5
14B6A
330
1F
100
AcDbEntity
  8
AM_VIS
100
AcDbLine
 10
1402.081540663653
 20
264.4870654848304
 30
0.0
 11
1378.081540663653
 21
264.4870654848304
 31
0.0
  0
LINE
  5
14B6B
330
1F
100
AcDbEntity
  8
AM_VIS
100
AcDbLine
 10
1384.081540663652
 20
281.4870654848305
 30
0.0
 11
1408.581540663652
 21
281.4870654848305
 31
0.0
  0
LINE
  5
14B6C
330
1F
100
AcDbEntity
  8
AM_VIS
100
AcDbLine
 10
1402.081540663652
 20
279.4870654848305
 30
0.0
 11
1387.081540663652
 21
279.4870654848305
 31
0.0
  0
LINE
  5
14B6D
330
1F
100
AcDbEntity
  8
AM_VIS
100
AcDbLine
 10
1402.081540663652
 20
281.4870654848305
 30
0.0
 11
1387.081540663652
 21
281.4870654848305
 31
0.0
  0
LINE
  5
14B6E
330
1F
100
AcDbEntity
  8
AM_VIS
100
AcDbLine
 10
1380.081540663652
 20
279.4870654848305
 30
0.0
 11
1380.081540663652
 21
264.4870654848304
 31
0.0
  0
LINE
  5
14B6F
330
1F
100
AcDbEntity
  8
AM_VIS
100
AcDbLine
 10
1399.581540663652
 20
279.4870654848305
 30
0.0
 11
1382.581540663652
 21
279.4870654848305
 31
0.0
  0
LINE
  5
14B70
330
1F
100
AcDbEntity
  8
AM_VIS
100
AcDbLine
 10
1384.081540663652
 20
281.4870654848305
 30
0.0
 11
1380.081540663652
 21
281.4870654848305
 31
0.0
  0
LINE
  5
14B71
330
1F
100
AcDbEntity
  8
AM_VIS
100
AcDbLine
 10
1380.081540663652
 20
279.4870654848305
 30
0.0
 11
1382.581540663652
 21
279.4870654848305
 31
0.0
  0
LINE
  5
14B72
330
1F
100
AcDbEntity
  8
AM_VIS
100
AcDbLine
 10
1380.081540663652
 20
279.4870654848305
 30
0.0
 11
1380.081540663652
 21
281.4870654848305
 31
0.0
  0
LINE
  5
14B73
330
1F
100
AcDbEntity
  8
AM_VIS
100
AcDbLine
 10
1387.081540663652
 20
281.4870654848305
 30
0.0
 11
1387.081540663652
 21
279.4870654848305
 31
0.0
  0
LINE
  5
14B74
330
1F
100
AcDbEntity
  8
AM_VIS
100
AcDbLine
 10
1404.081540663652
 20
272.1870654848305
 30
0.0
 11
1404.081540663652
 21
271.1870654848305
 31
0.0
  0
LINE
  5
14B75
330
1F
100
AcDbEntity
  8
AM_VIS
100
AcDbLine
 10
1403.581540663652
 20
271.1870654848305
 30
0.0
 11
1403.581540663652
 21
272.6870654848305
 31
0.0
  0
LINE
  5
14B76
330
1F
100
AcDbEntity
  8
AM_VIS
100
AcDbLine
 10
1402.081540663652
 20
264.4870654848304
 30
0.0
 11
1402.081540663652
 21
279.4870654848305
 31
0.0
  0
LINE
  5
14B77
330
1F
100
AcDbEntity
  8
AM_VIS
100
AcDbLine
 10
1402.081540663653
 20
263.4870654848305
 30
0.0
 11
1402.081540663653
 21
264.4870654848304
 31
0.0
  0
LINE
  5
14B78
330
1F
100
AcDbEntity
  8
AM_VIS
100
AcDbLine
 10
1402.581540663652
 20
271.1870654848305
 30
0.0
 11
1402.581540663652
 21
270.1870654848305
 31
0.0
  0
LINE
  5
14B79
330
1F
100
AcDbEntity
  8
AM_VIS
100
AcDbLine
 10
1404.081540663652
 20
270.1870654848305
 30
0.0
 11
1404.081540663652
 21
269.1870654848305
 31
0.0
  0
LINE
  5
14B7A
330
1F
100
AcDbEntity
  8
AM_VIS
100
AcDbLine
 10
1403.581540663652
 20
268.6870654848305
 30
0.0
 11
1403.581540663652
 21
270.1870654848305
 31
0.0
  0
LINE
  5
14B7B
330
1F
100
AcDbEntity
  8
AM_VIS
100
AcDbLine
 10
1403.581540663652
 20
268.6870654848305
 30
0.0
 11
1402.081540663652
 21
268.6870654848305
 31
0.0
  0
LINE
  5
14B7C
330
1F
100
AcDbEntity
  8
AM_VIS
100
AcDbLine
 10
1404.081540663652
 20
269.1870654848305
 30
0.0
 11
1403.581540663652
 21
268.6870654848305
 31
0.0
  0
LINE
  5
14B7D
330
1F
100
AcDbEntity
  8
AM_VIS
100
AcDbLine
 10
1403.581540663652
 20
271.1870654848305
 30
0.0
 11
1404.081540663652
 21
271.1870654848305
 31
0.0
  0
LINE
  5
14B7E
330
1F
100
AcDbEntity
  8
AM_VIS
100
AcDbLine
 10
1402.581540663652
 20
271.1870654848305
 30
0.0
 11
1403.581540663652
 21
271.1870654848305
 31
0.0
  0
LINE
  5
14B7F
330
1F
100
AcDbEntity
  8
AM_VIS
100
AcDbLine
 10
1403.581540663652
 20
270.1870654848305
 30
0.0
 11
1402.581540663652
 21
270.1870654848305
 31
0.0
  0
LINE
  5
14B80
330
1F
100
AcDbEntity
  8
AM_VIS
100
AcDbLine
 10
1403.581540663652
 20
270.1870654848305
 30
0.0
 11
1404.081540663652
 21
270.1870654848305
 31
0.0
  0
LINE
  5
14B81
330
1F
100
AcDbEntity
  8
AM_VIS
100
AcDbLine
 10
1404.081540663652
 20
272.1870654848305
 30
0.0
 11
1403.581540663652
 21
272.6870654848305
 31
0.0
  0
LINE
  5
14B82
330
1F
100
AcDbEntity
  8
AM_VIS
100
AcDbLine
 10
1403.581540663652
 20
272.6870654848305
 30
0.0
 11
1402.081540663653
 21
272.6870654848305
 31
0.0
  0
LINE
  5
14B83
330
1F
100
AcDbEntity
  8
AM_VIS
100
AcDbLine
 10
1402.081540663652
 20
279.4870654848305
 30
0.0
 11
1402.081540663652
 21
281.4870654848305
 31
0.0
  0
LINE
  5
14B84
330
1F
100
AcDbEntity
  8
AM_VIS
100
AcDbLine
 10
1408.581540663652
 20
310.9870654848305
 30
0.0
 11
1384.081540663652
 21
310.9870654848305
 31
0.0
  0
LINE
  5
14B85
330
1F
100
AcDbEntity
  8
AM_VIS
100
AcDbLine
 10
1398.581540663653
 20
311.9870654848305
 30
0.0
 11
1398.581540663653
 21
312.7870654848305
 31
0.0
  0
LINE
  5
14B86
330
1F
100
AcDbEntity
  8
AM_VIS
100
AcDbLine
 10
1383.581540663652
 20
311.9870654848305
 30
0.0
 11
1383.581540663652
 21
312.7870654848305
 31
0.0
  0
LINE
  5
14B87
330
1F
100
AcDbEntity
  8
AM_VIS
100
AcDbLine
 10
1398.581540663652
 20
311.9870654848305
 30
0.0
 11
1383.581540663652
 21
311.9870654848305
 31
0.0
  0
LINE
  5
14B88
330
1F
100
AcDbEntity
  8
AM_VIS
100
AcDbLine
 10
1381.081540663652
 20
311.4870654848305
 30
0.0
 11
1401.081540663652
 21
311.4870654848305
 31
0.0
  0
LINE
  5
14B89
330
1F
100
AcDbEntity
  8
AM_VIS
100
AcDbLine
 10
1383.581540663652
 20
311.9870654848305
 30
0.0
 11
1381.081540663652
 21
311.4870654848305
 31
0.0
  0
LINE
  5
14B8A
330
1F
100
AcDbEntity
  8
AM_VIS
100
AcDbLine
 10
1380.081540663652
 20
310.9870654848305
 30
0.0
 11
1384.081540663652
 21
310.9870654848305
 31
0.0
  0
LINE
  5
14B8B
330
1F
100
AcDbEntity
  8
AM_VIS
100
AcDbLine
 10
1381.081540663652
 20
310.9870654848305
 30
0.0
 11
1381.081540663652
 21
311.4870654848305
 31
0.0
  0
LINE
  5
14B8C
330
1F
100
AcDbEntity
  8
AM_VIS
100
AcDbLine
 10
1398.581540663653
 20
311.9870654848305
 30
0.0
 11
1401.081540663652
 21
311.4870654848305
 31
0.0
  0
LINE
  5
14B8D
330
1F
100
AcDbEntity
  8
AM_VIS
100
AcDbLine
 10
1401.081540663652
 20
310.9870654848305
 30
0.0
 11
1401.081540663652
 21
311.4870654848305
 31
0.0
  0
LINE
  5
14B8E
330
1F
100
AcDbEntity
  8
AM_VIS
100
AcDbLine
 10
1387.715306189685
 20
318.4870654848305
 30
0.0
 11
1384.609821967296
 21
318.4870654848305
 31
0.0
  0
LINE
  5
14B8F
330
1F
100
AcDbEntity
  8
AM_VIS
100
AcDbLine
 10
1387.715306189685
 20
317.3370654848305
 30
0.0
 11
1384.609821967296
 21
317.3370654848305
 31
0.0
  0
LINE
  5
14B90
330
1F
100
AcDbEntity
  8
AM_VIS
100
AcDbLine
 10
1384.609821967296
 20
315.8370654848305
 30
0.0
 11
1387.715306189685
 21
315.8370654848305
 31
0.0
  0
LINE
  5
14B91
330
1F
100
AcDbEntity
  8
AM_VIS
100
AcDbLine
 10
1387.715306189685
 20
312.9870654848305
 30
0.0
 11
1384.609821967296
 21
312.9870654848305
 31
0.0
  0
LINE
  5
14B92
330
1F
100
AcDbEntity
  8
AM_VIS
100
AcDbLine
 10
1398.581540663652
 20
312.7870654848305
 30
0.0
 11
1383.581540663652
 21
312.7870654848305
 31
0.0
  0
LINE
  5
14B93
330
1F
100
AcDbEntity
  8
AM_VIS
100
AcDbLine
 10
1384.434856848129
 20
318.9870654848305
 30
0.0
 11
1388.526643405444
 21
318.9870654848305
 31
0.0
  0
LINE
  5
14B94
330
1F
100
AcDbEntity
  8
AM_VIS
100
AcDbLine
 10
1381.081540663652
 20
317.3370654848305
 30
0.0
 11
1381.081540663652
 21
318.4870654848305
 31
0.0
  0
LINE
  5
14B95
330
1F
100
AcDbEntity
  8
AM_VIS
100
AcDbLine
 10
1381.243587493328
 20
317.3370654848305
 30
0.0
 11
1381.243587493328
 21
318.4870654848305
 31
0.0
  0
LINE
  5
14B96
330
1F
100
AcDbEntity
  8
AM_VIS
100
AcDbLine
 10
1384.609821967296
 20
318.4870654848305
 30
0.0
 11
1384.609821967296
 21
317.3370654848305
 31
0.0
  0
LINE
  5
14B97
330
1F
100
AcDbEntity
  8
AM_VIS
100
AcDbLine
 10
1381.243587493328
 20
317.3370654848305
 30
0.0
 11
1384.609821967296
 21
317.3370654848305
 31
0.0
  0
LINE
  5
14B98
330
1F
100
AcDbEntity
  8
AM_VIS
100
AcDbLine
 10
1384.609821967296
 20
315.8370654848305
 30
0.0
 11
1381.243587493328
 21
315.8370654848305
 31
0.0
  0
LINE
  5
14B99
330
1F
100
AcDbEntity
  8
AM_VIS
100
AcDbLine
 10
1383.581540663652
 20
312.7870654848305
 30
0.0
 11
1381.081540663652
 21
312.9870654848305
 31
0.0
  0
SPLINE
  5
14B9A
330
1F
100
AcDbEntity
  8
AM_VIS
100
AcDbSpline
210
0.0
220
0.0
230
1.0
 70
     8
 71
     3
 72
    14
 73
    10
 74
     0
 42
0.0000000001
 43
0.0000000001
 40
13.28006742556183
 40
13.28006742556183
 40
13.28006742556183
 40
13.28006742556183
 40
14.274483813056
 40
14.274483813056
 40
16.65382904986486
 40
16.65382904986486
 40
19.03317428667369
 40
19.03317428667369
 40
20.02759067416779
 40
20.02759067416779
 40
20.02759067416779
 40
20.02759067416779
 10
1384.609821967296
 20
312.9870654848305
 30
0.0
 10
1384.554851688516
 20
312.9693195097116
 30
0.0
 10
1384.481689565072
 20
312.953543916008
 30
0.0
 10
1384.174464040374
 20
312.9083351040976
 30
0.0
 10
1383.857074649818
 20
312.8910654848305
 30
0.0
 10
1383.063959570881
 20
312.8910654848305
 30
0.0
 10
1382.572083620805
 20
312.9083351040976
 30
0.0
 10
1381.761315813875
 20
312.9535439160081
 30
0.0
 10
1381.508509483418
 20
312.9693195097116
 30
0.0
 10
1381.243587493328
 20
312.9870654848305
 30
0.0
  0
LINE
  5
14B9B
330
1F
100
AcDbEntity
  8
AM_VIS
100
AcDbLine
 10
1381.243587493328
 20
317.3370654848305
 30
0.0
 11
1381.081540663652
 21
317.3370654848305
 31
0.0
  0
LINE
  5
14B9C
330
1F
100
AcDbEntity
  8
AM_VIS
100
AcDbLine
 10
1381.081540663652
 20
315.8370654848305
 30
0.0
 11
1381.243587493328
 21
315.8370654848305
 31
0.0
  0
LINE
  5
14B9D
330
1F
100
AcDbEntity
  8
AM_VIS
100
AcDbLine
 10
1381.243587493328
 20
312.9870654848305
 30
0.0
 11
1381.081540663652
 21
312.9870654848305
 31
0.0
  0
LINE
  5
14B9E
330
1F
100
AcDbEntity
  8
AM_VIS
100
AcDbLine
 10
1381.081540663652
 20
312.9870654848305
 30
0.0
 11
1381.081540663652
 21
315.8370654848305
 31
0.0
  0
LINE
  5
14B9F
330
1F
100
AcDbEntity
  8
AM_VIS
100
AcDbLine
 10
1381.243587493328
 20
312.9870654848305
 30
0.0
 11
1381.243587493328
 21
315.8370654848305
 31
0.0
  0
ARC
  5
14BA0
330
1F
100
AcDbEntity
  8
AM_VIS
100
AcDbCircle
 10
1384.081540663652
 20
316.5870654848305
 30
0.0
 40
0.75
100
AcDbArc
 50
270.0
 51
318.1896851042182
  0
ARC
  5
14BA1
330
1F
100
AcDbEntity
  8
AM_VIS
100
AcDbCircle
 10
1384.081540663652
 20
316.5870654848305
 30
0.0
 40
0.75
100
AcDbArc
 50
41.81031489577503
 51
90.0
  0
LINE
  5
14BA2
330
1F
100
AcDbEntity
  8
AM_VIS
100
AcDbLine
 10
1384.609821967296
 20
315.8370654848305
 30
0.0
 11
1384.609821967296
 21
312.9870654848305
 31
0.0
  0
SPLINE
  5
14BA3
330
1F
100
AcDbEntity
  8
AM_VIS
100
AcDbSpline
210
0.0
220
0.0
230
1.0
 70
    11
 71
     3
 72
    58
 73
    54
 74
     0
 42
0.0000000001
 43
0.0000000001
 40
-3.363896419206848
 40
-3.363896419206848
 40
-3.363896419206848
 40
-3.363896419206848
 40
-3.330080057161157
 40
-3.330080057161157
 40
-3.276087946130379
 40
-3.276087946130379
 40
-3.130129325352126
 40
-3.130129325352126
 40
-2.864475625688879
 40
-2.864475625688879
 40
-2.670984402665324
 40
-2.670984402665324
 40
-2.529876972570241
 40
-2.529876972570241
 40
-2.394146079242185
 40
-2.394146079242185
 40
-2.234845146626472
 40
-2.234845146626472
 40
-1.995446372912342
 40
-1.995446372912342
 40
-1.792732498438366
 40
-1.792732498438366
 40
-1.655061185971928
 40
-1.655061185971928
 40
-1.604023047287223
 40
-1.604023047287223
 40
-1.569394244699424
 40
-1.569394244699424
 40
-1.535224675006395
 40
-1.535224675006395
 40
-1.486406948944837
 40
-1.486406948944837
 40
-1.367760828093762
 40
-1.367760828093762
 40
-1.211422564665596
 40
-1.211422564665596
 40
-1.00947781377736
 40
-1.00947781377736
 40
-0.8308451466681658
 40
-0.8308451466681658
 40
-0.6546659190334039
 40
-0.6546659190334039
 40
-0.4706948991975911
 40
-0.4706948991975911
 40
-0.3083260207092203
 40
-0.3083260207092203
 40
-0.1833529844650886
 40
-0.1833529844650886
 40
-0.0782943285699142
 40
-0.0782943285699142
 40
-0.0333492537438367
 40
-0.0333492537438367
 40
0.0
 40
0.0
 40
0.0
 40
0.0
 10
1384.958938106018
 20
317.0870654848305
 30
0.0
 10
1384.962438230354
 20
317.0870654848305
 30
0.0
 10
1384.96625541309
 20
317.086721331097
 30
0.0
 10
1384.976925757871
 20
317.0849886285599
 30
0.0
 10
1384.984197001429
 20
317.0831058242624
 30
0.0
 10
1385.013219332188
 20
317.0734685056708
 30
0.0
 10
1385.038671937056
 20
317.0611394274266
 30
0.0
 10
1385.113928235453
 20
317.0156870751199
 30
0.0
 10
1385.169241189172
 20
316.9721470279118
 30
0.0
 10
1385.253201280499
 20
316.87731908386
 30
0.0
 10
1385.286356805603
 20
316.8299192031125
 30
0.0
 10
1385.329114772486
 20
316.7362770896818
 30
0.0
 10
1385.342478085628
 20
316.6935424028459
 30
0.0
 10
1385.355180077505
 20
316.6047302195934
 30
0.0
 10
1385.354716891392
 20
316.5609802118078
 30
0.0
 10
1385.339525865392
 20
316.4671831165792
 30
0.0
 10
1385.322823993132
 20
316.4201909094989
 30
0.0
 10
1385.268370298359
 20
316.3137666000738
 30
0.0
 10
1385.223678836999
 20
316.2588727037182
 30
0.0
 10
1385.137474187631
 20
316.1772530707606
 30
0.0
 10
1385.095816537189
 20
316.146838221418
 30
0.0
 10
1385.03319240542
 20
316.1102475296531
 30
0.0
 10
1385.009313471717
 20
316.0990833665116
 30
0.0
 10
1384.982130905301
 20
316.0904699575819
 30
0.0
 10
1384.975340437412
 20
316.0888139276219
 30
0.0
 10
1384.965064150046
 20
316.0872765620531
 30
0.0
 10
1384.961229378324
 20
316.0869977357723
 30
0.0
 10
1384.954287536588
 20
316.08715991797
 30
0.0
 10
1384.951181646312
 20
316.0875911488304
 30
0.0
 10
1384.944491427519
 20
316.0895249137878
 30
0.0
 10
1384.941295415883
 20
316.0914003645168
 30
0.0
 10
1384.932821877003
 20
316.100471275616
 30
0.0
 10
1384.931295833863
 20
316.1112546044144
 30
0.0
 10
1384.935302034201
 20
316.1461850998778
 30
0.0
 10
1384.943064245806
 20
316.1729927284348
 30
0.0
 10
1384.964570759266
 20
316.2472603157964
 30
0.0
 10
1384.979770665808
 20
316.299759391164
 30
0.0
 10
1385.002563198033
 20
316.4156391047819
 30
0.0
 10
1385.010318458393
 20
316.4747549145575
 30
0.0
 10
1385.015777552794
 20
316.5965298196047
 30
0.0
 10
1385.013539174339
 20
316.6571082622075
 30
0.0
 10
1385.000138202637
 20
316.7760973423858
 30
0.0
 10
1384.98876291225
 20
316.8325725415338
 30
0.0
 10
1384.965246340584
 20
316.9261554518237
 30
0.0
 10
1384.953455206538
 20
316.9644373209855
 30
0.0
 10
1384.938015809445
 20
317.0197890392357
 30
0.0
 10
1384.933204796845
 20
317.0396058536417
 30
0.0
 10
1384.931825971188
 20
317.0671142316953
 30
0.0
 10
1384.9341086096
 20
317.0759856646629
 30
0.0
 10
1384.942573819703
 20
317.0835314971948
 30
0.0
 10
1384.945742094275
 20
317.0851064522172
 30
0.0
 10
1384.952344956744
 20
317.0867308558253
 30
0.0
 10
1384.955486329199
 20
317.0870654848305
 30
0.0
 10
1384.958938106018
 20
317.0870654848305
 30
0.0
  0
ARC
  5
14BA4
330
1F
100
AcDbEntity
  8
AM_VIS
100
AcDbCircle
 10
1384.150518061175
 20
316.5870850135215
 30
0.0
 40
0.6997982445397635
100
AcDbArc
 50
314.4224702407696
 51
45.57529238903278
  0
LINE
  5
14BA5
330
1F
100
AcDbEntity
  8
AM_VIS
100
AcDbLine
 10
1381.879959589921
 20
318.9870654848305
 30
0.0
 11
1384.434856848129
 21
318.9870654848305
 31
0.0
  0
LINE
  5
14BA6
330
1F
100
AcDbEntity
  8
AM_VIS
100
AcDbLine
 10
1381.243587493328
 20
318.4870654848305
 30
0.0
 11
1381.081540663652
 21
318.4870654848305
 31
0.0
  0
LINE
  5
14BA7
330
1F
100
AcDbEntity
  8
AM_VIS
100
AcDbLine
 10
1381.581540663652
 20
318.9870654848305
 30
0.0
 11
1381.879959589921
 21
318.9870654848305
 31
0.0
  0
LINE
  5
14BA8
330
1F
100
AcDbEntity
  8
AM_VIS
100
AcDbLine
 10
1381.581540663652
 20
318.9870654848305
 30
0.0
 11
1381.081540663652
 21
318.4870654848305
 31
0.0
  0
SPLINE
  5
14BA9
330
1F
100
AcDbEntity
  8
AM_VIS
100
AcDbSpline
210
0.0
220
0.0
230
1.0
 70
     8
 71
     3
 72
     8
 73
     4
 74
     0
 42
0.0000000001
 43
0.0000000001
 40
1.630155803927002
 40
1.630155803927002
 40
1.630155803927002
 40
1.630155803927002
 40
2.566002662426968
 40
2.566002662426968
 40
2.566002662426968
 40
2.566002662426968
 10
1381.243587493328
 20
318.4870654848305
 30
0.0
 10
1381.458393140327
 20
318.6669267180257
 30
0.0
 10
1381.671651941858
 20
318.8360263393992
 30
0.0
 10
1381.879959589921
 20
318.9870654848305
 30
0.0
  0
SPLINE
  5
14BAA
330
1F
100
AcDbEntity
  8
AM_VIS
100
AcDbSpline
210
0.0
220
0.0
230
1.0
 70
     8
 71
     3
 72
     8
 73
     4
 74
     0
 42
0.0000000001
 43
0.0000000001
 40
7.860869802063071
 40
7.860869802063071
 40
7.860869802063071
 40
7.860869802063071
 40
8.796716660561775
 40
8.796716660561775
 40
8.796716660561775
 40
8.796716660561775
 10
1384.434856848129
 20
318.9870654848305
 30
0.0
 10
1384.50735728514
 20
318.8360264487962
 30
0.0
 10
1384.565250605566
 20
318.6669268330519
 30
0.0
 10
1384.609821967296
 20
318.4870654848305
 30
0.0
  0
LINE
  5
14BAB
330
1F
100
AcDbEntity
  8
AM_VIS
100
AcDbLine
 10
1387.715306189685
 20
317.3370654848305
 30
0.0
 11
1394.44777513762
 21
317.3370654848305
 31
0.0
  0
LINE
  5
14BAC
330
1F
100
AcDbEntity
  8
AM_VIS
100
AcDbLine
 10
1394.44777513762
 20
315.8370654848305
 30
0.0
 11
1387.715306189685
 21
315.8370654848305
 31
0.0
  0
LINE
  5
14BAD
330
1F
100
AcDbEntity
  8
AM_VIS
100
AcDbLine
 10
1393.636437921861
 20
318.9870654848305
 30
0.0
 11
1397.728224479176
 21
318.9870654848305
 31
0.0
  0
SPLINE
  5
14BAE
330
1F
100
AcDbEntity
  8
AM_VIS
100
AcDbSpline
210
0.0
220
0.0
230
1.0
 70
     8
 71
     3
 72
     8
 73
     4
 74
     0
 42
0.0000000001
 43
0.0000000001
 40
7.8606508081159
 40
7.8606508081159
 40
7.8606508081159
 40
7.8606508081159
 40
8.796495530230886
 40
8.796495530230886
 40
8.796495530230886
 40
8.796495530230886
 10
1393.636437921861
 20
318.9870654848305
 30
0.0
 10
1393.917246284444
 20
318.8360262183788
 30
0.0
 10
1394.188398504858
 20
318.666926477083
 30
0.0
 10
1394.44777513762
 20
318.4870654848305
 30
0.0
  0
ARC
  5
14BAF
330
1F
100
AcDbEntity
  8
AM_VIS
100
AcDbCircle
 10
1391.081540663652
 20
372.1628703160557
 30
0.0
 40
59.27135386823313
100
AcDbArc
 50
266.7442201741542
 51
273.2557798258457
  0
LINE
  5
14BB0
330
1F
100
AcDbEntity
  8
AM_VIS
100
AcDbLine
 10
1387.715306189685
 20
317.3370654848305
 30
0.0
 11
1387.715306189685
 21
318.4870654848305
 31
0.0
  0
CIRCLE
  5
14BB1
330
1F
100
AcDbEntity
  8
AM_VIS
100
AcDbCircle
 10
1389.831540663652
 20
316.5870654848305
 30
0.0
 40
0.5000000000000063
  0
LINE
  5
14BB2
330
1F
100
AcDbEntity
  8
AM_VIS
100
AcDbLine
 10
1387.715306189685
 20
312.9870654848305
 30
0.0
 11
1387.715306189685
 21
315.8370654848305
 31
0.0
  0
CIRCLE
  5
14BB3
330
1F
100
AcDbEntity
  8
AM_VIS
100
AcDbCircle
 10
1392.331540663652
 20
316.5870654848305
 30
0.0
 40
0.4999999999999967
  0
LINE
  5
14BB4
330
1F
100
AcDbEntity
  8
AM_VIS
100
AcDbLine
 10
1388.526643405444
 20
318.9870654848305
 30
0.0
 11
1393.636437921861
 21
318.9870654848305
 31
0.0
  0
SPLINE
  5
14BB5
330
1F
100
AcDbEntity
  8
AM_VIS
100
AcDbSpline
210
0.0
220
0.0
230
1.0
 70
     8
 71
     3
 72
     8
 73
     4
 74
     0
 42
0.0000000001
 43
0.0000000001
 40
1.629958734905461
 40
1.629958734905461
 40
1.629958734905461
 40
1.629958734905461
 40
2.565803457021723
 40
2.565803457021723
 40
2.565803457021723
 40
2.565803457021723
 10
1387.715306189685
 20
318.4870654848305
 30
0.0
 10
1387.974682656179
 20
318.6669263617866
 30
0.0
 10
1388.245834839031
 20
318.836026108744
 30
0.0
 10
1388.526643405444
 20
318.9870654848305
 30
0.0
  0
LINE
  5
14BB6
330
1F
100
AcDbEntity
  8
AM_VIS
100
AcDbLine
 10
1401.081540663652
 20
317.3370654848305
 30
0.0
 11
1401.081540663652
 21
318.4870654848305
 31
0.0
  0
LINE
  5
14BB7
330
1F
100
AcDbEntity
  8
AM_VIS
100
AcDbLine
 10
1394.44777513762
 20
318.4870654848305
 30
0.0
 11
1394.44777513762
 21
317.3370654848305
 31
0.0
  0
LINE
  5
14BB8
330
1F
100
AcDbEntity
  8
AM_VIS
100
AcDbLine
 10
1397.553259360009
 20
317.3370654848305
 30
0.0
 11
1397.553259360009
 21
318.4870654848305
 31
0.0
  0
LINE
  5
14BB9
330
1F
100
AcDbEntity
  8
AM_VIS
100
AcDbLine
 10
1400.919493833977
 20
318.4870654848305
 30
0.0
 11
1400.919493833977
 21
317.3370654848305
 31
0.0
  0
LINE
  5
14BBA
330
1F
100
AcDbEntity
  8
AM_VIS
100
AcDbLine
 10
1397.553259360009
 20
317.3370654848305
 30
0.0
 11
1400.919493833977
 21
317.3370654848305
 31
0.0
  0
LINE
  5
14BBB
330
1F
100
AcDbEntity
  8
AM_VIS
100
AcDbLine
 10
1400.919493833977
 20
315.8370654848305
 30
0.0
 11
1397.553259360009
 21
315.8370654848305
 31
0.0
  0
SPLINE
  5
14BBC
330
1F
100
AcDbEntity
  8
AM_VIS
100
AcDbSpline
210
0.0
220
0.0
230
1.0
 70
     8
 71
     3
 72
    14
 73
    10
 74
     0
 42
0.0000000001
 43
0.0000000001
 40
13.28006742556176
 40
13.28006742556176
 40
13.28006742556176
 40
13.28006742556176
 40
14.27448381305588
 40
14.27448381305588
 40
16.65382904986474
 40
16.65382904986474
 40
19.03317428667358
 40
19.03317428667358
 40
20.02759067416758
 40
20.02759067416758
 40
20.02759067416758
 40
20.02759067416758
 10
1400.919493833977
 20
312.9870654848305
 30
0.0
 10
1400.654571843887
 20
312.9693195097116
 30
0.0
 10
1400.40176551343
 20
312.953543916008
 30
0.0
 10
1399.5909977065
 20
312.9083351040976
 30
0.0
 10
1399.099121756424
 20
312.8910654848305
 30
0.0
 10
1398.306006677487
 20
312.8910654848305
 30
0.0
 10
1397.988617286931
 20
312.9083351040976
 30
0.0
 10
1397.681391762233
 20
312.953543916008
 30
0.0
 10
1397.608229638789
 20
312.9693195097116
 30
0.0
 10
1397.553259360009
 20
312.9870654848305
 30
0.0
  0
ARC
  5
14BBD
330
1F
100
AcDbEntity
  8
AM_VIS
100
AcDbCircle
 10
1398.081540663652
 20
316.5870654848305
 30
0.0
 40
0.75
100
AcDbArc
 50
90.0
 51
138.1896851042237
  0
ARC
  5
14BBE
330
1F
100
AcDbEntity
  8
AM_VIS
100
AcDbCircle
 10
1398.081540663652
 20
316.5870654848305
 30
0.0
 40
0.75
100
AcDbArc
 50
221.8103148957762
 51
270.0
  0
LINE
  5
14BBF
330
1F
100
AcDbEntity
  8
AM_VIS
100
AcDbLine
 10
1397.553259360009
 20
317.3370654848305
 30
0.0
 11
1394.44777513762
 21
317.3370654848305
 31
0.0
  0
LINE
  5
14BC0
330
1F
100
AcDbEntity
  8
AM_VIS
100
AcDbLine
 10
1394.44777513762
 20
315.8370654848305
 30
0.0
 11
1397.553259360009
 21
315.8370654848305
 31
0.0
  0
LINE
  5
14BC1
330
1F
100
AcDbEntity
  8
AM_VIS
100
AcDbLine
 10
1397.553259360009
 20
312.9870654848305
 30
0.0
 11
1394.44777513762
 21
312.9870654848305
 31
0.0
  0
LINE
  5
14BC2
330
1F
100
AcDbEntity
  8
AM_VIS
100
AcDbLine
 10
1397.553259360009
 20
312.9870654848305
 30
0.0
 11
1397.553259360009
 21
315.8370654848305
 31
0.0
  0
LINE
  5
14BC3
330
1F
100
AcDbEntity
  8
AM_VIS
100
AcDbLine
 10
1394.44777513762
 20
315.8370654848305
 30
0.0
 11
1394.44777513762
 21
312.9870654848305
 31
0.0
  0
SPLINE
  5
14BC4
330
1F
100
AcDbEntity
  8
AM_VIS
100
AcDbSpline
210
0.0
220
0.0
230
1.0
 70
    11
 71
     3
 72
    58
 73
    54
 74
     0
 42
0.0000000001
 43
0.0000000001
 40
-3.310941722041909
 40
-3.310941722041909
 40
-3.310941722041909
 40
-3.310941722041909
 40
-3.295630163526127
 40
-3.295630163526127
 40
-3.258885216857127
 40
-3.258885216857127
 40
-3.197166102530552
 40
-3.197166102530552
 40
-3.038165220187092
 40
-3.038165220187092
 40
-2.856291614874425
 40
-2.856291614874425
 40
-2.666842086900363
 40
-2.666842086900363
 40
-2.492578752010307
 40
-2.492578752010307
 40
-2.312125783734306
 40
-2.312125783734306
 40
-2.134512493780222
 40
-2.134512493780222
 40
-1.991913706755022
 40
-1.991913706755022
 40
-1.842368186772041
 40
-1.842368186772041
 40
-1.791323432474765
 40
-1.791323432474765
 40
-1.757111173267642
 40
-1.757111173267642
 40
-1.723565230360897
 40
-1.723565230360897
 40
-1.676146471110933
 40
-1.676146471110933
 40
-1.559264165848294
 40
-1.559264165848294
 40
-1.304423753582546
 40
-1.304423753582546
 40
-1.102534997057311
 40
-1.102534997057311
 40
-0.9616332280766684
 40
-0.9616332280766684
 40
-0.8335600122348491
 40
-0.8335600122348491
 40
-0.6887403587823754
 40
-0.6887403587823754
 40
-0.4760113448005606
 40
-0.4760113448005606
 40
-0.2570316117940582
 40
-0.2570316117940582
 40
-0.0905362468526998
 40
-0.0905362468526998
 40
-0.0354113089024487
 40
-0.0354113089024487
 40
0.0
 40
0.0
 40
0.0
 40
0.0
 10
1397.204143221287
 20
317.0870654848305
 30
0.0
 10
1397.205728026847
 20
317.0870654848305
 30
0.0
 10
1397.207246539684
 20
317.0869948849658
 30
0.0
 10
1397.212178163129
 20
317.086508614208
 30
0.0
 10
1397.215251971236
 20
317.0857501361113
 30
0.0
 10
1397.222377192061
 20
317.0825567781189
 30
0.0
 10
1397.225629814908
 20
317.0793535738437
 30
0.0
 10
1397.233162146342
 20
317.0634133633361
 30
0.0
 10
1397.230712442719
 20
317.0440659708901
 30
0.0
 10
1397.216716497449
 20
316.9874913543496
 30
0.0
 10
1397.203939059047
 20
316.9477779182447
 30
0.0
 10
1397.178051612168
 20
316.8493681948749
 30
0.0
 10
1397.165517027962
 20
316.7915550610662
 30
0.0
 10
1397.150561754127
 20
316.6715585871791
 30
0.0
 10
1397.147551777228
 20
316.6115760123818
 30
0.0
 10
1397.151365833895
 20
316.4893956313662
 30
0.0
 10
1397.158480901284
 20
316.4293551707678
 30
0.0
 10
1397.178923077113
 20
316.319445603978
 30
0.0
 10
1397.192001056767
 20
316.2703202722358
 30
0.0
 10
1397.213405175304
 20
316.1955106131031
 30
0.0
 10
1397.222118749247
 20
316.1670958931641
 30
0.0
 10
1397.231961868595
 20
316.1211092963075
 30
0.0
 10
1397.232465666291
 20
316.10458999764
 30
0.0
 10
1397.223030301138
 20
316.0923057993068
 30
0.0
 10
1397.219798075816
 20
316.0900878571186
 30
0.0
 10
1397.213001327418
 20
316.0878072898194
 30
0.0
 10
1397.209913439941
 20
316.0872806430535
 30
0.0
 10
1397.203116624173
 20
316.0869608756724
 30
0.0
 10
1397.199431314929
 20
316.0871542089376
 30
0.0
 10
1397.189826439176
 20
316.0884113185748
 30
0.0
 10
1397.183626777138
 20
316.0897999005155
 30
0.0
 10
1397.160486095879
 20
316.0966380960029
 30
0.0
 10
1397.14108804903
 20
316.1050575711548
 30
0.0
 10
1397.075233453389
 20
316.1404109598304
 30
0.0
 10
1397.021060600858
 20
316.178991304829
 30
0.0
 10
1396.931559328708
 20
316.2691256412435
 30
0.0
 10
1396.893299443012
 20
316.3176298192502
 30
0.0
 10
1396.843319223789
 20
316.41349352499
 30
0.0
 10
1396.827114390668
 20
316.4567488128515
 30
0.0
 10
1396.809685794085
 20
316.5453361941331
 30
0.0
 10
1396.80759970196
 20
316.5883283798034
 30
0.0
 10
1396.817075295443
 20
316.6800337377416
 30
0.0
 10
1396.830146094589
 20
316.7259245796386
 30
0.0
 10
1396.875775158741
 20
316.8303545512173
 30
0.0
 10
1396.914020188843
 20
316.883643464888
 30
0.0
 10
1396.995862341395
 20
316.9723028286741
 30
0.0
 10
1397.041475432524
 20
317.0090244591548
 30
0.0
 10
1397.11463324736
 20
317.0562380125555
 30
0.0
 10
1397.145019933369
 20
317.071659587351
 30
0.0
 10
1397.177813144856
 20
317.0828092994814
 30
0.0
 10
1397.185346297492
 20
317.0848112313689
 30
0.0
 10
1397.196459262755
 20
317.0866880931076
 30
0.0
 10
1397.200478013779
 20
317.0870654848305
 30
0.0
 10
1397.204143221287
 20
317.0870654848305
 30
0.0
  0
ARC
  5
14BC5
330
1F
100
AcDbEntity
  8
AM_VIS
100
AcDbCircle
 10
1398.012568593843
 20
316.5870270603118
 30
0.0
 40
0.6998062945020339
100
AcDbArc
 50
134.42169926757
 51
225.5738984971954
  0
LINE
  5
14BC6
330
1F
100
AcDbEntity
  8
AM_VIS
100
AcDbLine
 10
1401.081540663652
 20
317.3370654848305
 30
0.0
 11
1400.919493833977
 21
317.3370654848305
 31
0.0
  0
LINE
  5
14BC7
330
1F
100
AcDbEntity
  8
AM_VIS
100
AcDbLine
 10
1400.919493833977
 20
315.8370654848305
 30
0.0
 11
1401.081540663652
 21
315.8370654848305
 31
0.0
  0
LINE
  5
14BC8
330
1F
100
AcDbEntity
  8
AM_VIS
100
AcDbLine
 10
1401.081540663652
 20
312.9870654848305
 30
0.0
 11
1400.919493833977
 21
312.9870654848305
 31
0.0
  0
LINE
  5
14BC9
330
1F
100
AcDbEntity
  8
AM_VIS
100
AcDbLine
 10
1401.081540663652
 20
312.9870654848305
 30
0.0
 11
1401.081540663652
 21
315.8370654848305
 31
0.0
  0
LINE
  5
14BCA
330
1F
100
AcDbEntity
  8
AM_VIS
100
AcDbLine
 10
1398.581540663653
 20
312.7870654848305
 30
0.0
 11
1401.081540663652
 21
312.9870654848305
 31
0.0
  0
LINE
  5
14BCB
330
1F
100
AcDbEntity
  8
AM_VIS
100
AcDbLine
 10
1400.919493833977
 20
315.8370654848305
 30
0.0
 11
1400.919493833977
 21
312.9870654848305
 31
0.0
  0
LINE
  5
14BCC
330
1F
100
AcDbEntity
  8
AM_VIS
100
AcDbLine
 10
1397.728224479176
 20
318.9870654848305
 30
0.0
 11
1400.283121737384
 21
318.9870654848305
 31
0.0
  0
LINE
  5
14BCD
330
1F
100
AcDbEntity
  8
AM_VIS
100
AcDbLine
 10
1397.553259360009
 20
318.4870654848305
 30
0.0
 11
1394.44777513762
 21
318.4870654848305
 31
0.0
  0
SPLINE
  5
14BCE
330
1F
100
AcDbEntity
  8
AM_VIS
100
AcDbSpline
210
0.0
220
0.0
230
1.0
 70
     8
 71
     3
 72
     8
 73
     4
 74
     0
 42
0.0000000001
 43
0.0000000001
 40
1.630155802117218
 40
1.630155802117218
 40
1.630155802117218
 40
1.630155802117218
 40
2.566002660597602
 40
2.566002660597602
 40
2.566002660597602
 40
2.566002660597602
 10
1397.553259360009
 20
318.4870654848305
 30
0.0
 10
1397.597830693234
 20
318.6669267180224
 30
0.0
 10
1397.655723989652
 20
318.836026339397
 30
0.0
 10
1397.728224479176
 20
318.9870654848305
 30
0.0
  0
LINE
  5
14BCF
330
1F
100
AcDbEntity
  8
AM_VIS
100
AcDbLine
 10
1401.081540663652
 20
318.4870654848305
 30
0.0
 11
1400.919493833977
 21
318.4870654848305
 31
0.0
  0
LINE
  5
14BD0
330
1F
100
AcDbEntity
  8
AM_VIS
100
AcDbLine
 10
1400.283121737384
 20
318.9870654848305
 30
0.0
 11
1400.581540663652
 21
318.9870654848305
 31
0.0
  0
LINE
  5
14BD1
330
1F
100
AcDbEntity
  8
AM_VIS
100
AcDbLine
 10
1400.581540663652
 20
318.9870654848305
 30
0.0
 11
1401.081540663652
 21
318.4870654848305
 31
0.0
  0
SPLINE
  5
14BD2
330
1F
100
AcDbEntity
  8
AM_VIS
100
AcDbSpline
210
0.0
220
0.0
230
1.0
 70
     8
 71
     3
 72
     8
 73
     4
 74
     0
 42
0.0000000001
 43
0.0000000001
 40
7.860869800051694
 40
7.860869800051694
 40
7.860869800051694
 40
7.860869800051694
 40
8.796716658530822
 40
8.796716658530822
 40
8.796716658530822
 40
8.796716658530822
 10
1400.283121737384
 20
318.9870654848305
 30
0.0
 10
1400.491429234573
 20
318.836026448794
 30
0.0
 10
1400.704688049608
 20
318.6669268330486
 30
0.0
 10
1400.919493833977
 20
318.4870654848305
 30
0.0
  0
LINE
  5
14BD3
330
1F
100
AcDbEntity
  8
AM_VIS
100
AcDbLine
 10
1421.081540663652
 20
310.9870654848305
 30
0.0
 11
1421.081540663652
 21
322.9870654848305
 31
0.0
  0
LINE
  5
14BD4
330
1F
100
AcDbEntity
  8
AM_VIS
100
AcDbLine
 10
1424.42468641416
 20
310.9870654848305
 30
0.0
 11
1408.581540663652
 21
310.9870654848305
 31
0.0
  0
LINE
  5
14BD5
330
1F
100
AcDbEntity
  8
AM_VIS
100
AcDbLine
 10
1425.462738510135
 20
324.5870654848305
 30
0.0
 11
1428.331540663653
 21
324.5870654848305
 31
0.0
  0
LINE
  5
14BD6
330
1F
100
AcDbEntity
  8
AM_VIS
100
AcDbLine
 10
1425.462738510135
 20
330.0870654848305
 30
0.0
 11
1428.331540663653
 21
330.0870654848305
 31
0.0
  0
LINE
  5
14BD7
330
1F
100
AcDbEntity
  8
AM_VIS
100
AcDbLine
 10
1421.081540663652
 20
322.9870654848305
 30
0.0
 11
1430.081540663653
 21
322.9870654848305
 31
0.0
  0
LINE
  5
14BD8
330
1F
100
AcDbEntity
  8
AM_VIS
100
AcDbLine
 10
1420.843936356618
 20
330.0870654848305
 30
0.0
 11
1420.843936356618
 21
324.5870654848305
 31
0.0
  0
LINE
  5
14BD9
330
1F
100
AcDbEntity
  8
AM_VIS
100
AcDbLine
 10
1425.462738510135
 20
330.0870654848305
 30
0.0
 11
1425.462738510135
 21
324.5870654848305
 31
0.0
  0
LINE
  5
14BDA
330
1F
100
AcDbEntity
  8
AM_VIS
100
AcDbLine
 10
1424.028337433377
 20
330.0870654848305
 30
0.0
 11
1424.028337433377
 21
324.5870654848305
 31
0.0
  0
LINE
  5
14BDB
330
1F
100
AcDbEntity
  8
AM_VIS
100
AcDbLine
 10
1422.278337433377
 20
324.5870654848305
 30
0.0
 11
1422.278337433377
 21
330.0870654848305
 31
0.0
  0
LINE
  5
14BDC
330
1F
100
AcDbEntity
  8
AM_VIS
100
AcDbLine
 10
1422.961350135269
 20
330.0870654848305
 30
0.0
 11
1422.961350135269
 21
324.5870654848305
 31
0.0
  0
LINE
  5
14BDD
330
1F
100
AcDbEntity
  8
AM_VIS
100
AcDbLine
 10
1420.843936356618
 20
324.5870654848305
 30
0.0
 11
1422.278337433377
 21
324.5870654848305
 31
0.0
  0
LINE
  5
14BDE
330
1F
100
AcDbEntity
  8
AM_VIS
100
AcDbLine
 10
1423.331540663653
 20
324.5870654848305
 30
0.0
 11
1423.331540663653
 21
322.9870654848305
 31
0.0
  0
LINE
  5
14BDF
330
1F
100
AcDbEntity
  8
AM_VIS
100
AcDbLine
 10
1422.961350135269
 20
324.5870654848305
 30
0.0
 11
1422.278337433377
 21
324.5870654848305
 31
0.0
  0
LINE
  5
14BE0
330
1F
100
AcDbEntity
  8
AM_VIS
100
AcDbLine
 10
1424.028337433377
 20
324.5870654848305
 30
0.0
 11
1422.961350135269
 21
324.5870654848305
 31
0.0
  0
LINE
  5
14BE1
330
1F
100
AcDbEntity
  8
AM_VIS
100
AcDbLine
 10
1424.028337433377
 20
324.5870654848305
 30
0.0
 11
1425.462738510135
 21
324.5870654848305
 31
0.0
  0
LINE
  5
14BE2
330
1F
100
AcDbEntity
  8
AM_VIS
100
AcDbLine
 10
1420.843936356618
 20
330.0870654848305
 30
0.0
 11
1422.278337433377
 21
330.0870654848305
 31
0.0
  0
LINE
  5
14BE3
330
1F
100
AcDbEntity
  8
AM_VIS
100
AcDbLine
 10
1424.028337433377
 20
330.0870654848305
 30
0.0
 11
1425.462738510135
 21
330.0870654848305
 31
0.0
  0
LINE
  5
14BE4
330
1F
100
AcDbEntity
  8
AM_VIS
100
AcDbLine
 10
1422.961350135269
 20
330.0870654848305
 30
0.0
 11
1424.028337433377
 21
330.0870654848305
 31
0.0
  0
LINE
  5
14BE5
330
1F
100
AcDbEntity
  8
AM_VIS
100
AcDbLine
 10
1422.278337433377
 20
330.0870654848305
 30
0.0
 11
1422.961350135269
 21
330.0870654848305
 31
0.0
  0
LINE
  5
14BE6
330
1F
100
AcDbEntity
  8
AM_VIS
100
AcDbLine
 10
1431.831540663653
 20
330.0870654848305
 30
0.0
 11
1431.831540663653
 21
324.5870654848305
 31
0.0
  0
LINE
  5
14BE7
330
1F
100
AcDbEntity
  8
AM_VIS
100
AcDbLine
 10
1428.331540663653
 20
324.5870654848305
 30
0.0
 11
1428.331540663653
 21
330.0870654848305
 31
0.0
  0
LINE
  5
14BE8
330
1F
100
AcDbEntity
  8
AM_VIS
100
AcDbLine
 10
1428.831540663653
 20
330.0870654848305
 30
0.0
 11
1428.831540663653
 21
324.5870654848305
 31
0.0
  0
LINE
  5
14BE9
330
1F
100
AcDbEntity
  8
AM_VIS
100
AcDbLine
 10
1431.331540663653
 20
330.0870654848305
 30
0.0
 11
1431.331540663653
 21
324.5870654848305
 31
0.0
  0
LINE
  5
14BEA
330
1F
100
AcDbEntity
  8
AM_VIS
100
AcDbLine
 10
1431.331540663653
 20
324.5870654848305
 30
0.0
 11
1428.831540663653
 21
324.5870654848305
 31
0.0
  0
LINE
  5
14BEB
330
1F
100
AcDbEntity
  8
AM_VIS
100
AcDbLine
 10
1428.831540663653
 20
324.5870654848305
 30
0.0
 11
1428.331540663653
 21
324.5870654848305
 31
0.0
  0
LINE
  5
14BEC
330
1F
100
AcDbEntity
  8
AM_VIS
100
AcDbLine
 10
1431.831540663653
 20
324.5870654848305
 30
0.0
 11
1431.331540663653
 21
324.5870654848305
 31
0.0
  0
LINE
  5
14BED
330
1F
100
AcDbEntity
  8
AM_VIS
100
AcDbLine
 10
1428.831540663653
 20
330.0870654848305
 30
0.0
 11
1431.331540663653
 21
330.0870654848305
 31
0.0
  0
LINE
  5
14BEE
330
1F
100
AcDbEntity
  8
AM_VIS
100
AcDbLine
 10
1428.331540663653
 20
330.0870654848305
 30
0.0
 11
1428.831540663653
 21
330.0870654848305
 31
0.0
  0
LINE
  5
14BEF
330
1F
100
AcDbEntity
  8
AM_VIS
100
AcDbLine
 10
1431.331540663653
 20
330.0870654848305
 30
0.0
 11
1431.831540663653
 21
330.0870654848305
 31
0.0
  0
LINE
  5
14BF0
330
1F
100
AcDbEntity
  8
AM_VIS
100
AcDbLine
 10
1437.081540663652
 20
285.4870654848305
 30
0.0
 11
1437.081540663652
 21
307.4870654848305
 31
0.0
  0
ARC
  5
14BF1
330
1F
100
AcDbEntity
  8
AM_VIS
100
AcDbCircle
 10
1433.581540663652
 20
285.4870654848305
 30
0.0
 40
3.5
100
AcDbArc
 50
270.0
 51
0.0
  0
LINE
  5
14BF2
330
1F
100
AcDbEntity
  8
AM_VIS
100
AcDbLine
 10
1439.081540663652
 20
310.9870654848305
 30
0.0
 11
1439.081540663652
 21
322.9870654848305
 31
0.0
  0
LINE
  5
14BF3
330
1F
100
AcDbEntity
  8
AM_VIS
100
AcDbLine
 10
1437.081540663652
 20
305.9870654848305
 30
0.0
 11
1439.081540663652
 21
310.9870654848305
 31
0.0
  0
ARC
  5
14BF4
330
1F
100
AcDbEntity
  8
AM_VIS
100
AcDbCircle
 10
1433.581540663652
 20
307.4870654848305
 30
0.0
 40
3.5
100
AcDbArc
 50
0.0
 51
58.58523229075917
  0
SPLINE
  5
14BF5
330
1F
100
AcDbEntity
  8
AM_VIS
100
AcDbSpline
210
0.0
220
0.0
230
1.0
 70
     8
 71
     3
 72
    18
 73
    14
 74
     0
 42
0.0000000001
 43
0.0000000001
 40
4.975287104260677
 40
4.975287104260677
 40
4.975287104260677
 40
4.975287104260677
 40
5.086400028382842
 40
5.086400028382842
 40
5.588960013482415
 40
5.588960013482415
 40
6.091519998581987
 40
6.091519998581987
 40
6.59407998368156
 40
6.59407998368156
 40
7.096639968781131
 40
7.096639968781131
 40
7.11590156427612
 40
7.11590156427612
 40
7.11590156427612
 40
7.11590156427612
 10
1435.405844309537
 20
310.4740231690996
 30
0.0
 10
1435.381345270361
 20
310.4889861150843
 30
0.0
 10
1435.356270294565
 20
310.5035429091808
 30
0.0
 10
1435.214730447873
 20
310.5815167911682
 30
0.0
 10
1435.08737458451
 20
310.6362693519024
 30
0.0
 10
1434.816110123346
 20
310.7236346846514
 30
0.0
 10
1434.672039451402
 20
310.7563044260928
 30
0.0
 10
1434.376197744981
 20
310.7989327299695
 30
0.0
 10
1434.224424308376
 20
310.8088891408478
 30
0.0
 10
1433.924755431188
 20
310.8088891408477
 30
0.0
 10
1433.765114717434
 20
310.7989327299695
 30
0.0
 10
1433.594181240547
 20
310.7768016714227
 30
0.0
 10
1433.587864441347
 20
310.7759682968306
 30
0.0
 10
1433.581540663652
 20
310.7751184266296
 30
0.0
  0
LINE
  5
14BF6
330
1F
100
AcDbEntity
  8
AM_VIS
100
AcDbLine
 10
1434.700342817169
 20
330.0870654848305
 30
0.0
 11
1434.700342817169
 21
324.5870654848305
 31
0.0
  0
LINE
  5
14BF7
330
1F
100
AcDbEntity
  8
AM_VIS
100
AcDbLine
 10
1439.319144970687
 20
330.0870654848305
 30
0.0
 11
1439.319144970687
 21
324.5870654848305
 31
0.0
  0
LINE
  5
14BF8
330
1F
100
AcDbEntity
  8
AM_VIS
100
AcDbLine
 10
1437.884743893928
 20
330.0870654848305
 30
0.0
 11
1437.884743893928
 21
324.5870654848305
 31
0.0
  0
LINE
  5
14BF9
330
1F
100
AcDbEntity
  8
AM_VIS
100
AcDbLine
 10
1436.134743893928
 20
324.5870654848305
 30
0.0
 11
1436.134743893928
 21
330.0870654848305
 31
0.0
  0
LINE
  5
14BFA
330
1F
100
AcDbEntity
  8
AM_VIS
100
AcDbLine
 10
1437.201731192036
 20
330.0870654848305
 30
0.0
 11
1437.201731192036
 21
324.5870654848305
 31
0.0
  0
LINE
  5
14BFB
330
1F
100
AcDbEntity
  8
AM_VIS
100
AcDbLine
 10
1437.884743893928
 20
324.5870654848305
 30
0.0
 11
1437.201731192036
 21
324.5870654848305
 31
0.0
  0
LINE
  5
14BFC
330
1F
100
AcDbEntity
  8
AM_VIS
100
AcDbLine
 10
1436.831540663653
 20
324.5870654848305
 30
0.0
 11
1436.831540663653
 21
322.9870654848305
 31
0.0
  0
LINE
  5
14BFD
330
1F
100
AcDbEntity
  8
AM_VIS
100
AcDbLine
 10
1434.70034281717
 20
324.5870654848305
 30
0.0
 11
1436.134743893928
 21
324.5870654848305
 31
0.0
  0
LINE
  5
14BFE
330
1F
100
AcDbEntity
  8
AM_VIS
100
AcDbLine
 10
1437.201731192036
 20
324.5870654848305
 30
0.0
 11
1436.134743893928
 21
324.5870654848305
 31
0.0
  0
LINE
  5
14BFF
330
1F
100
AcDbEntity
  8
AM_VIS
100
AcDbLine
 10
1437.884743893928
 20
324.5870654848305
 30
0.0
 11
1439.319144970687
 21
324.5870654848305
 31
0.0
  0
LINE
  5
14C00
330
1F
100
AcDbEntity
  8
AM_VIS
100
AcDbLine
 10
1437.201731192036
 20
330.0870654848305
 30
0.0
 11
1437.884743893928
 21
330.0870654848305
 31
0.0
  0
LINE
  5
14C01
330
1F
100
AcDbEntity
  8
AM_VIS
100
AcDbLine
 10
1436.134743893928
 20
330.0870654848305
 30
0.0
 11
1437.201731192036
 21
330.0870654848305
 31
0.0
  0
LINE
  5
14C02
330
1F
100
AcDbEntity
  8
AM_VIS
100
AcDbLine
 10
1434.70034281717
 20
330.0870654848305
 30
0.0
 11
1436.134743893928
 21
330.0870654848305
 31
0.0
  0
LINE
  5
14C03
330
1F
100
AcDbEntity
  8
AM_VIS
100
AcDbLine
 10
1437.884743893928
 20
330.0870654848305
 30
0.0
 11
1439.319144970687
 21
330.0870654848305
 31
0.0
  0
CIRCLE
  5
14C04
330
1F
100
AcDbEntity
  8
AM_VIS
100
AcDbCircle
 10
1430.081540663652
 20
384.7593273427424
 30
0.0
 40
5.25
  0
LINE
  5
14C05
330
1F
100
AcDbEntity
  8
AM_VIS
100
AcDbLine
 10
1431.831540663653
 20
376.7593273427424
 30
0.0
 11
1434.700342817169
 21
376.7593273427424
 31
0.0
  0
LINE
  5
14C06
330
1F
100
AcDbEntity
  8
AM_VIS
100
AcDbLine
 10
1434.700342817169
 20
392.7593273427423
 30
0.0
 11
1431.831540663652
 21
392.7593273427423
 31
0.0
  0
ARC
  5
14C07
330
1F
100
AcDbEntity
  8
AM_VIS
100
AcDbCircle
 10
1430.081540663652
 20
384.7593273427424
 30
0.0
 40
9.0
100
AcDbArc
 50
270.0
 51
297.2660444507322
  0
ARC
  5
14C08
330
1F
100
AcDbEntity
  8
AM_VIS
100
AcDbCircle
 10
1430.081540663652
 20
384.7593273427424
 30
0.0
 40
9.0
100
AcDbArc
 50
62.73395554926779
 51
117.2660444507322
  0
CIRCLE
  5
14C09
330
1F
100
AcDbEntity
  8
AM_VIS
100
AcDbCircle
 10
1430.081540663652
 20
384.7593273427424
 30
0.0
 40
5.0
  0
LINE
  5
14C0A
330
1F
100
AcDbEntity
  8
AM_VIS
100
AcDbLine
 10
1433.581540663652
 20
395.2593273427424
 30
0.0
 11
1408.581540663652
 21
395.2593273427424
 31
0.0
  0
LINE
  5
14C0B
330
1F
100
AcDbEntity
  8
AM_VIS
100
AcDbLine
 10
1408.581540663652
 20
374.2593273427424
 30
0.0
 11
1433.581540663652
 21
374.2593273427424
 31
0.0
  0
LINE
  5
14C0C
330
1F
100
AcDbEntity
  8
AM_VIS
100
AcDbLine
 10
1378.081540663653
 20
411.7593273427424
 30
0.0
 11
1378.081540663653
 21
368.7593273427424
 31
0.0
  0
ARC
  5
14C0D
330
1F
100
AcDbEntity
  8
AM_VIS
100
AcDbCircle
 10
1391.081540663652
 20
384.7593273427424
 30
0.0
 40
10.0
100
AcDbArc
 50
349.6712892167071
 51
10.32871078329286
  0
ARC
  5
14C0E
330
1F
100
AcDbEntity
  8
AM_VIS
100
AcDbCircle
 10
1391.081540663652
 20
384.7593273427424
 30
0.0
 40
10.0
100
AcDbArc
 50
169.6712892167071
 51
190.3287107832928
  0
ARC
  5
14C0F
330
1F
100
AcDbEntity
  8
AM_VIS
100
AcDbCircle
 10
1391.081540663652
 20
384.7593273427424
 30
0.0
 40
9.5
100
AcDbArc
 50
165.6009953934895
 51
194.399004606512
  0
ARC
  5
14C10
330
1F
100
AcDbEntity
  8
AM_VIS
100
AcDbCircle
 10
1391.081540663652
 20
384.7593273427424
 30
0.0
 40
9.5
100
AcDbArc
 50
345.6009953934879
 51
14.39900460651202
  0
CIRCLE
  5
14C11
330
1F
100
AcDbEntity
  8
AM_VIS
100
AcDbCircle
 10
1391.081540663652
 20
384.7593273427424
 30
0.0
 40
1.25
  0
LINE
  5
14C12
330
1F
100
AcDbEntity
  8
AM_VIS
100
AcDbLine
 10
1420.843936356618
 20
384.7593273427424
 30
0.0
 11
1422.278337433377
 21
382.2748717993651
 31
0.0
  0
ARC
  5
14C13
330
1F
100
AcDbEntity
  8
AM_VIS
100
AcDbCircle
 10
1430.081540663652
 20
384.7593273427424
 30
0.0
 40
9.0
100
AcDbArc
 50
182.7339555492661
 51
237.2660444507303
  0
LINE
  5
14C14
330
1F
100
AcDbEntity
  8
AM_VIS
100
AcDbLine
 10
1408.581540663652
 20
391.7593273427423
 30
0.0
 11
1408.581540663652
 21
377.7593273427423
 31
0.0
  0
LINE
  5
14C15
330
1F
100
AcDbEntity
  8
AM_VIS
100
AcDbLine
 10
1408.581540663652
 20
395.7593273427423
 30
0.0
 11
1408.581540663652
 21
373.7593273427423
 31
0.0
  0
LINE
  5
14C16
330
1F
100
AcDbEntity
  8
AM_VIS
100
AcDbLine
 10
1380.081540663652
 20
377.7593273427423
 30
0.0
 11
1380.081540663652
 21
391.7593273427423
 31
0.0
  0
LINE
  5
14C17
330
1F
100
AcDbEntity
  8
AM_VIS
100
AcDbLine
 10
1378.081540663653
 20
412.7593273427424
 30
0.0
 11
1378.081540663653
 21
367.7593273427424
 31
0.0
  0
LINE
  5
14C18
330
1F
100
AcDbEntity
  8
AM_VIS
100
AcDbLine
 10
1378.081540663653
 20
367.7593273427424
 30
0.0
 11
1402.081540663653
 21
367.7593273427424
 31
0.0
  0
LINE
  5
14C1A
330
1F
100
AcDbEntity
  8
AM_VIS
100
AcDbLine
 10
1408.581540663652
 20
373.7593273427423
 30
0.0
 11
1384.081540663652
 21
373.7593273427423
 31
0.0
  0
ARC
  5
14C1B
330
1F
100
AcDbEntity
  8
AM_VIS
100
AcDbCircle
 10
1391.081540663652
 20
384.7593273427424
 30
0.0
 40
10.0
100
AcDbArc
 50
229.6712892167069
 51
250.3287107832935
  0
ARC
  5
14C1C
330
1F
100
AcDbEntity
  8
AM_VIS
100
AcDbCircle
 10
1391.081540663652
 20
384.7593273427424
 30
0.0
 40
9.5
100
AcDbArc
 50
225.6009953934893
 51
254.3990046065132
  0
ARC
  5
14C1D
330
1F
100
AcDbEntity
  8
AM_VIS
100
AcDbCircle
 10
1384.081540663652
 20
377.7593273427423
 30
0.0
 40
3.999999999999999
100
AcDbArc
 50
180.0
 51
270.0
  0
ARC
  5
14C1E
330
1F
100
AcDbEntity
  8
AM_VIS
100
AcDbCircle
 10
1382.581540663652
 20
376.2593273427423
 30
0.0
 40
2.5
100
AcDbArc
 50
180.0
 51
270.0
  0
ARC
  5
14C1F
330
1F
100
AcDbEntity
  8
AM_VIS
100
AcDbCircle
 10
1391.081540663652
 20
384.7593273427424
 30
0.0
 40
10.0
100
AcDbArc
 50
190.3287107832928
 51
229.6712892167069
  0
ARC
  5
14C20
330
1F
100
AcDbEntity
  8
AM_VIS
100
AcDbCircle
 10
1375.233275774397
 20
375.6093273427421
 30
0.0
 40
9.5
100
AcDbArc
 50
14.39900460651202
 51
45.60099539348935
  0
LINE
  5
14C21
330
1F
100
AcDbEntity
  8
AM_VIS
100
AcDbLine
 10
1380.081540663652
 20
376.2593273427423
 30
0.0
 11
1380.081540663652
 21
377.7593273427423
 31
0.0
  0
SPLINE
  5
14C22
330
1F
100
AcDbEntity
  8
AM_VIS
100
AcDbSpline
210
0.0
220
0.0
230
1.0
 70
     8
 71
     3
 72
     8
 73
     4
 74
     0
 42
0.0000000001
 43
0.0000000001
 40
7.860869802063071
 40
7.860869802063071
 40
7.860869802063071
 40
7.860869802063071
 40
8.796716660561775
 40
8.796716660561775
 40
8.796716660561775
 40
8.796716660561775
 10
1384.434856848129
 20
377.9717214130747
 30
0.0
 10
1384.50735728514
 20
377.6893304871008
 30
0.0
 10
1384.565250605566
 20
377.4096556944356
 30
0.0
 10
1384.609821967296
 20
377.1358860518799
 30
0.0
  0
LINE
  5
14C23
330
1F
100
AcDbEntity
  8
AM_VIS
100
AcDbLine
 10
1384.081540663652
 20
373.7593273427423
 30
0.0
 11
1382.581540663652
 21
373.7593273427423
 31
0.0
  0
SPLINE
  5
14C24
330
1F
100
AcDbEntity
  8
AM_VIS
100
AcDbSpline
210
0.0
220
0.0
230
1.0
 70
     8
 71
     3
 72
     8
 73
     4
 74
     0
 42
0.0000000001
 43
0.0000000001
 40
1.630155803927002
 40
1.630155803927002
 40
1.630155803927002
 40
1.630155803927002
 40
2.566002662426968
 40
2.566002662426968
 40
2.566002662426968
 40
2.566002662426968
 10
1381.243587493328
 20
382.9663751909817
 30
0.0
 10
1381.458393140327
 20
382.7908905503917
 30
0.0
 10
1381.671651941858
 20
382.6009161033775
 30
0.0
 10
1381.879959589921
 20
382.3969332724099
 30
0.0
  0
ARC
  5
14C25
330
1F
100
AcDbEntity
  8
AM_VIS
100
AcDbCircle
 10
1391.081540663652
 20
384.7593273427424
 30
0.0
 40
10.0
100
AcDbArc
 50
250.3287107832935
 51
289.6712892167064
  0
ARC
  5
14C26
330
1F
100
AcDbEntity
  8
AM_VIS
100
AcDbCircle
 10
1391.081540663652
 20
384.7593273427424
 30
0.0
 40
9.5
100
AcDbArc
 50
285.6009953934867
 51
314.3990046065117
  0
SPLINE
  5
14C27
330
1F
100
AcDbEntity
  8
AM_VIS
100
AcDbSpline
210
0.0
220
0.0
230
1.0
 70
     8
 71
     3
 72
     8
 73
     4
 74
     0
 42
0.0000000001
 43
0.0000000001
 40
7.8606508081159
 40
7.8606508081159
 40
7.8606508081159
 40
7.8606508081159
 40
8.796495530230886
 40
8.796495530230886
 40
8.796495530230886
 40
8.796495530230886
 10
1393.636437921861
 20
375.6093273427424
 30
0.0
 10
1393.917246284444
 20
375.5309189803767
 30
0.0
 10
1394.188398504858
 20
375.4412185953393
 30
0.0
 10
1394.44777513762
 20
375.3429339001194
 30
0.0
  0
ARC
  5
14C28
330
1F
100
AcDbEntity
  8
AM_VIS
100
AcDbCircle
 10
1391.081540663652
 20
366.4593273427423
 30
0.0
 40
9.5
100
AcDbArc
 50
74.39900460651326
 51
105.6009953934867
  0
SPLINE
  5
14C29
330
1F
100
AcDbEntity
  8
AM_VIS
100
AcDbSpline
210
0.0
220
0.0
230
1.0
 70
     8
 71
     3
 72
     8
 73
     4
 74
     0
 42
0.0000000001
 43
0.0000000001
 40
1.629958734905461
 40
1.629958734905461
 40
1.629958734905461
 40
1.629958734905461
 40
2.565803457021723
 40
2.565803457021723
 40
2.565803457021723
 40
2.565803457021723
 10
1387.715306189685
 20
375.3429339001194
 30
0.0
 10
1387.974682656179
 20
375.4412185323359
 30
0.0
 10
1388.245834839031
 20
375.5309189234625
 30
0.0
 10
1388.526643405444
 20
375.6093273427424
 30
0.0
  0
ARC
  5
14C2A
330
1F
100
AcDbEntity
  8
AM_VIS
100
AcDbCircle
 10
1391.081540663652
 20
384.7593273427424
 30
0.0
 40
10.0
100
AcDbArc
 50
310.3287107832941
 51
349.6712892167071
  0
ARC
  5
14C2B
330
1F
100
AcDbEntity
  8
AM_VIS
100
AcDbCircle
 10
1406.929805552907
 20
375.6093273427424
 30
0.0
 40
9.5
100
AcDbArc
 50
134.3990046065106
 51
165.6009953934879
  0
ARC
  5
14C2C
330
1F
100
AcDbEntity
  8
AM_VIS
100
AcDbCircle
 10
1391.081540663652
 20
384.7593273427424
 30
0.0
 40
10.0
100
AcDbArc
 50
289.6712892167064
 51
310.3287107832941
  0
SPLINE
  5
14C2D
330
1F
100
AcDbEntity
  8
AM_VIS
100
AcDbSpline
210
0.0
220
0.0
230
1.0
 70
     8
 71
     3
 72
     8
 73
     4
 74
     0
 42
0.0000000001
 43
0.0000000001
 40
1.630155802117218
 40
1.630155802117218
 40
1.630155802117218
 40
1.630155802117218
 40
2.566002660597602
 40
2.566002660597602
 40
2.566002660597602
 40
2.566002660597602
 10
1397.553259360009
 20
377.1358860518801
 30
0.0
 10
1397.597830693234
 20
377.4096555193477
 30
0.0
 10
1397.655723989652
 20
377.6893302825623
 30
0.0
 10
1397.728224479176
 20
377.9717214130748
 30
0.0
  0
SPLINE
  5
14C2E
330
1F
100
AcDbEntity
  8
AM_VIS
100
AcDbSpline
210
0.0
220
0.0
230
1.0
 70
     8
 71
     3
 72
     8
 73
     4
 74
     0
 42
0.0000000001
 43
0.0000000001
 40
7.860869800051694
 40
7.860869800051694
 40
7.860869800051694
 40
7.860869800051694
 40
8.796716658530822
 40
8.796716658530822
 40
8.796716658530822
 40
8.796716658530822
 10
1400.283121737384
 20
382.3969332724099
 30
0.0
 10
1400.491429234573
 20
382.6009159556365
 30
0.0
 10
1400.704688049608
 20
382.7908904381676
 30
0.0
 10
1400.919493833977
 20
382.9663751909817
 30
0.0
  0
LINE
  5
14C2F
330
1F
100
AcDbEntity
  8
AM_VIS
100
AcDbLine
 10
1402.081540663653
 20
373.7593273427423
 30
0.0
 11
1402.081540663653
 21
368.7593273427424
 31
0.0
  0
LINE
  5
14C30
330
1F
100
AcDbEntity
  8
AM_VIS
100
AcDbLine
 10
1402.081540663653
 20
367.7593273427424
 30
0.0
 11
1402.081540663653
 21
368.7593273427424
 31
0.0
  0
LINE
  5
14C31
330
1F
100
AcDbEntity
  8
AM_VIS
100
AcDbLine
 10
1425.462738510135
 20
376.7593273427424
 30
0.0
 11
1428.331540663653
 21
376.7593273427424
 31
0.0
  0
LINE
  5
14C32
330
1F
100
AcDbEntity
  8
AM_VIS
100
AcDbLine
 10
1424.028337433377
 20
379.2437828861195
 30
0.0
 11
1425.462738510135
 21
376.7593273427424
 31
0.0
  0
LINE
  5
14C33
330
1F
100
AcDbEntity
  8
AM_VIS
100
AcDbLine
 10
1424.211350135269
 20
379.9267955880118
 30
0.0
 11
1424.028337433377
 21
379.2437828861196
 31
0.0
  0
LINE
  5
14C34
330
1F
100
AcDbEntity
  8
AM_VIS
100
AcDbLine
 10
1422.961350135269
 20
382.0918590974729
 30
0.0
 11
1424.211350135269
 21
379.9267955880118
 31
0.0
  0
LINE
  5
14C35
330
1F
100
AcDbEntity
  8
AM_VIS
100
AcDbLine
 10
1422.278337433377
 20
382.2748717993651
 30
0.0
 11
1422.961350135269
 21
382.0918590974729
 31
0.0
  0
LINE
  5
14C36
330
1F
100
AcDbEntity
  8
AM_VIS
100
AcDbLine
 10
1428.831540663653
 20
377.2593273427423
 30
0.0
 11
1431.331540663653
 21
377.2593273427423
 31
0.0
  0
ARC
  5
14C37
330
1F
100
AcDbEntity
  8
AM_VIS
100
AcDbCircle
 10
1430.081540663652
 20
384.7593273427424
 30
0.0
 40
9.0
100
AcDbArc
 50
242.7339555492677
 51
270.0
  0
LINE
  5
14C38
330
1F
100
AcDbEntity
  8
AM_VIS
100
AcDbLine
 10
1428.331540663653
 20
376.7593273427424
 30
0.0
 11
1428.831540663653
 21
377.2593273427423
 31
0.0
  0
LINE
  5
14C39
330
1F
100
AcDbEntity
  8
AM_VIS
100
AcDbLine
 10
1431.331540663653
 20
377.2593273427423
 30
0.0
 11
1431.831540663653
 21
376.7593273427424
 31
0.0
  0
LINE
  5
14C3A
330
1F
100
AcDbEntity
  8
AM_VIS
100
AcDbLine
 10
1402.081540663653
 20
412.7593273427424
 30
0.0
 11
1378.081540663653
 21
412.7593273427424
 31
0.0
  0
LINE
  5
14C3C
330
1F
100
AcDbEntity
  8
AM_VIS
100
AcDbLine
 10
1384.081540663652
 20
395.7593273427423
 30
0.0
 11
1408.581540663652
 21
395.7593273427423
 31
0.0
  0
ARC
  5
14C3D
330
1F
100
AcDbEntity
  8
AM_VIS
100
AcDbCircle
 10
1391.081540663652
 20
384.7593273427424
 30
0.0
 40
10.0
100
AcDbArc
 50
109.6712892167064
 51
130.3287107832941
  0
ARC
  5
14C3E
330
1F
100
AcDbEntity
  8
AM_VIS
100
AcDbCircle
 10
1391.081540663652
 20
384.7593273427424
 30
0.0
 40
9.5
100
AcDbArc
 50
105.6009953934867
 51
134.3990046065117
  0
ARC
  5
14C3F
330
1F
100
AcDbEntity
  8
AM_VIS
100
AcDbCircle
 10
1384.081540663652
 20
391.7593273427423
 30
0.0
 40
3.999999999999999
100
AcDbArc
 50
90.0
 51
180.0
  0
LINE
  5
14C40
330
1F
100
AcDbEntity
  8
AM_VIS
100
AcDbLine
 10
1380.081540663652
 20
391.7593273427423
 30
0.0
 11
1380.081540663652
 21
395.4593273427424
 31
0.0
  0
ARC
  5
14C41
330
1F
100
AcDbEntity
  8
AM_VIS
100
AcDbCircle
 10
1391.081540663652
 20
384.7593273427424
 30
0.0
 40
10.0
100
AcDbArc
 50
130.3287107832941
 51
169.6712892167071
  0
ARC
  5
14C42
330
1F
100
AcDbEntity
  8
AM_VIS
100
AcDbCircle
 10
1375.233275774397
 20
393.9093273427422
 30
0.0
 40
9.5
100
AcDbArc
 50
314.3990046065106
 51
345.6009953934895
  0
SPLINE
  5
14C43
330
1F
100
AcDbEntity
  8
AM_VIS
100
AcDbSpline
210
0.0
220
0.0
230
1.0
 70
     8
 71
     3
 72
     8
 73
     4
 74
     0
 42
0.0000000001
 43
0.0000000001
 40
7.860869802063004
 40
7.860869802063004
 40
7.860869802063004
 40
7.860869802063004
 40
8.796716660561713
 40
8.796716660561713
 40
8.796716660561713
 40
8.796716660561713
 10
1381.879959589921
 20
387.1217214130747
 30
0.0
 10
1381.671652092735
 20
386.9177387298509
 30
0.0
 10
1381.458393277701
 20
386.7277642473201
 30
0.0
 10
1381.243587493328
 20
386.5522794945029
 30
0.0
  0
SPLINE
  5
14C44
330
1F
100
AcDbEntity
  8
AM_VIS
100
AcDbSpline
210
0.0
220
0.0
230
1.0
 70
     8
 71
     3
 72
     8
 73
     4
 74
     0
 42
0.0000000001
 43
0.0000000001
 40
1.630155803927018
 40
1.630155803927018
 40
1.630155803927018
 40
1.630155803927018
 40
2.566002662426996
 40
2.566002662426996
 40
2.566002662426996
 40
2.566002662426996
 10
1384.609821967295
 20
392.3827686336046
 30
0.0
 10
1384.56525063407
 20
392.108999166132
 30
0.0
 10
1384.507357337652
 20
391.8293244029184
 30
0.0
 10
1384.434856848129
 20
391.5469332724098
 30
0.0
  0
LINE
  5
14C45
330
1F
100
AcDbEntity
  8
AM_VIS
100
AcDbLine
 10
1380.381540663652
 20
395.7593273427423
 30
0.0
 11
1384.081540663652
 21
395.7593273427423
 31
0.0
  0
ARC
  5
14C46
330
1F
100
AcDbEntity
  8
AM_VIS
100
AcDbCircle
 10
1380.381540663652
 20
395.4593273427423
 30
0.0
 40
0.2999999999999999
100
AcDbArc
 50
90.0
 51
180.0
  0
ARC
  5
14C47
330
1F
100
AcDbEntity
  8
AM_VIS
100
AcDbCircle
 10
1391.081540663652
 20
384.7593273427424
 30
0.0
 40
10.0
100
AcDbArc
 50
49.67128921670695
 51
70.32871078329356
  0
ARC
  5
14C48
330
1F
100
AcDbEntity
  8
AM_VIS
100
AcDbCircle
 10
1391.081540663652
 20
384.7593273427424
 30
0.0
 40
9.5
100
AcDbArc
 50
45.60099539348821
 51
74.39900460651326
  0
SPLINE
  5
14C49
330
1F
100
AcDbEntity
  8
AM_VIS
100
AcDbSpline
210
0.0
220
0.0
230
1.0
 70
     8
 71
     3
 72
     8
 73
     4
 74
     0
 42
0.0000000001
 43
0.0000000001
 40
1.63015580392704
 40
1.63015580392704
 40
1.63015580392704
 40
1.63015580392704
 40
2.566002662427006
 40
2.566002662427006
 40
2.566002662427006
 40
2.566002662427006
 10
1394.44777513762
 20
394.1757207853653
 30
0.0
 10
1394.188398157395
 20
394.0774359584827
 30
0.0
 10
1393.917246059446
 20
393.9877356422832
 30
0.0
 10
1393.636437921861
 20
393.9093273427424
 30
0.0
  0
SPLINE
  5
14C4A
330
1F
100
AcDbEntity
  8
AM_VIS
100
AcDbSpline
210
0.0
220
0.0
230
1.0
 70
     8
 71
     3
 72
     8
 73
     4
 74
     0
 42
0.0000000001
 43
0.0000000001
 40
7.860869802062977
 40
7.860869802062977
 40
7.860869802062977
 40
7.860869802062977
 40
8.796716660561656
 40
8.796716660561656
 40
8.796716660561656
 40
8.796716660561656
 10
1388.526643405444
 20
393.9093273427423
 30
0.0
 10
1388.245835471247
 20
393.9877355854924
 30
0.0
 10
1387.974683335788
 20
394.0774358956268
 30
0.0
 10
1387.715306189685
 20
394.1757207853653
 30
0.0
  0
ARC
  5
14C4B
330
1F
100
AcDbEntity
  8
AM_VIS
100
AcDbCircle
 10
1391.081540663652
 20
403.0593273427424
 30
0.0
 40
9.5
100
AcDbArc
 50
254.3990046065132
 51
285.6009953934867
  0
ARC
  5
14C4C
330
1F
100
AcDbEntity
  8
AM_VIS
100
AcDbCircle
 10
1391.081540663652
 20
384.7593273427424
 30
0.0
 40
10.0
100
AcDbArc
 50
10.32871078329286
 51
49.67128921670695
  0
ARC
  5
14C4D
330
1F
100
AcDbEntity
  8
AM_VIS
100
AcDbCircle
 10
1406.929805552907
 20
393.9093273427424
 30
0.0
 40
9.500000000000001
100
AcDbArc
 50
194.399004606512
 51
225.6009953934893
  0
SPLINE
  5
14C4E
330
1F
100
AcDbEntity
  8
AM_VIS
100
AcDbSpline
210
0.0
220
0.0
230
1.0
 70
     8
 71
     3
 72
     8
 73
     4
 74
     0
 42
0.0000000001
 43
0.0000000001
 40
1.630155803927018
 40
1.630155803927018
 40
1.630155803927018
 40
1.630155803927018
 40
2.566002662426991
 40
2.566002662426991
 40
2.566002662426991
 40
2.566002662426991
 10
1400.919493833977
 20
386.552279494503
 30
0.0
 10
1400.704688186978
 20
386.727764135093
 30
0.0
 10
1400.491429385446
 20
386.9177385821071
 30
0.0
 10
1400.283121737384
 20
387.1217214130748
 30
0.0
  0
SPLINE
  5
14C4F
330
1F
100
AcDbEntity
  8
AM_VIS
100
AcDbSpline
210
0.0
220
0.0
230
1.0
 70
     8
 71
     3
 72
     8
 73
     4
 74
     0
 42
0.0000000001
 43
0.0000000001
 40
7.860869802063005
 40
7.860869802063005
 40
7.860869802063005
 40
7.860869802063005
 40
8.796716660561699
 40
8.796716660561699
 40
8.796716660561699
 40
8.796716660561699
 10
1397.728224479176
 20
391.54693327241
 30
0.0
 10
1397.655724042165
 20
391.8293241983838
 30
0.0
 10
1397.597830721739
 20
392.108998991049
 30
0.0
 10
1397.553259360009
 20
392.3827686336047
 30
0.0
  0
ARC
  5
14C50
330
1F
100
AcDbEntity
  8
AM_VIS
100
AcDbCircle
 10
1391.081540663652
 20
384.7593273427424
 30
0.0
 40
10.0
100
AcDbArc
 50
70.32871078329356
 51
90.0
  0
ARC
  5
14C51
330
1F
100
AcDbEntity
  8
AM_VIS
100
AcDbCircle
 10
1391.081540663652
 20
384.7593273427424
 30
0.0
 40
10.0
100
AcDbArc
 50
90.0
 51
109.6712892167064
  0
LINE
  5
14C52
330
1F
100
AcDbEntity
  8
AM_VIS
100
AcDbLine
 10
1402.081540663653
 20
411.7593273427424
 30
0.0
 11
1402.081540663653
 21
395.7593273427423
 31
0.0
  0
LINE
  5
14C53
330
1F
100
AcDbEntity
  8
AM_VIS
100
AcDbLine
 10
1428.331540663652
 20
392.7593273427423
 30
0.0
 11
1425.462738510135
 21
392.7593273427423
 31
0.0
  0
LINE
  5
14C54
330
1F
100
AcDbEntity
  8
AM_VIS
100
AcDbLine
 10
1424.211350135269
 20
389.5918590974728
 30
0.0
 11
1422.961350135269
 21
387.4267955880117
 31
0.0
  0
ARC
  5
14C55
330
1F
100
AcDbEntity
  8
AM_VIS
100
AcDbCircle
 10
1430.081540663652
 20
384.7593273427424
 30
0.0
 40
9.0
100
AcDbArc
 50
122.7339555492641
 51
177.2660444507337
  0
LINE
  5
14C56
330
1F
100
AcDbEntity
  8
AM_VIS
100
AcDbLine
 10
1422.278337433377
 20
387.2437828861195
 30
0.0
 11
1420.843936356618
 21
384.7593273427424
 31
0.0
  0
LINE
  5
14C57
330
1F
100
AcDbEntity
  8
AM_VIS
100
AcDbLine
 10
1422.961350135269
 20
387.4267955880117
 30
0.0
 11
1422.278337433377
 21
387.2437828861195
 31
0.0
  0
LINE
  5
14C58
330
1F
100
AcDbEntity
  8
AM_VIS
100
AcDbLine
 10
1424.028337433377
 20
390.2748717993651
 30
0.0
 11
1424.211350135269
 21
389.5918590974728
 31
0.0
  0
LINE
  5
14C59
330
1F
100
AcDbEntity
  8
AM_VIS
100
AcDbLine
 10
1425.462738510135
 20
392.7593273427423
 30
0.0
 11
1424.028337433377
 21
390.2748717993651
 31
0.0
  0
LINE
  5
14C5A
330
1F
100
AcDbEntity
  8
AM_VIS
100
AcDbLine
 10
1431.331540663652
 20
392.2593273427423
 30
0.0
 11
1428.831540663652
 21
392.2593273427423
 31
0.0
  0
LINE
  5
14C5B
330
1F
100
AcDbEntity
  8
AM_VIS
100
AcDbLine
 10
1428.831540663652
 20
392.2593273427423
 30
0.0
 11
1428.331540663652
 21
392.7593273427423
 31
0.0
  0
LINE
  5
14C5C
330
1F
100
AcDbEntity
  8
AM_VIS
100
AcDbLine
 10
1431.831540663652
 20
392.7593273427423
 30
0.0
 11
1431.331540663652
 21
392.2593273427423
 31
0.0
  0
LINE
  5
14C5D
330
1F
100
AcDbEntity
  8
AM_VIS
100
AcDbLine
 10
1402.081540663653
 20
411.7593273427424
 30
0.0
 11
1402.081540663653
 21
412.7593273427424
 31
0.0
  0
LINE
  5
14C5E
330
1F
100
AcDbEntity
  8
AM_VIS
100
AcDbLine
 10
1437.884743893928
 20
382.2748717993651
 30
0.0
 11
1439.319144970687
 21
384.7593273427424
 31
0.0
  0
ARC
  5
14C5F
330
1F
100
AcDbEntity
  8
AM_VIS
100
AcDbCircle
 10
1430.081540663652
 20
384.7593273427424
 30
0.0
 40
9.0
100
AcDbArc
 50
302.7339555492705
 51
357.2660444507322
  0
LINE
  5
14C60
330
1F
100
AcDbEntity
  8
AM_VIS
100
AcDbLine
 10
1434.700342817169
 20
376.7593273427424
 30
0.0
 11
1436.134743893928
 21
379.2437828861196
 31
0.0
  0
LINE
  5
14C61
330
1F
100
AcDbEntity
  8
AM_VIS
100
AcDbLine
 10
1437.081540663652
 20
377.7593273427423
 30
0.0
 11
1437.081540663652
 21
379.10247309325
 31
0.0
  0
ARC
  5
14C62
330
1F
100
AcDbEntity
  8
AM_VIS
100
AcDbCircle
 10
1433.581540663652
 20
377.7593273427423
 30
0.0
 40
3.5
100
AcDbArc
 50
270.0
 51
0.0
  0
LINE
  5
14C63
330
1F
100
AcDbEntity
  8
AM_VIS
100
AcDbLine
 10
1437.201731192036
 20
382.0918590974729
 30
0.0
 11
1437.884743893928
 21
382.2748717993651
 31
0.0
  0
LINE
  5
14C64
330
1F
100
AcDbEntity
  8
AM_VIS
100
AcDbLine
 10
1435.951731192036
 20
379.9267955880119
 30
0.0
 11
1437.201731192036
 21
382.0918590974729
 31
0.0
  0
LINE
  5
14C65
330
1F
100
AcDbEntity
  8
AM_VIS
100
AcDbLine
 10
1436.134743893928
 20
379.2437828861196
 30
0.0
 11
1435.951731192036
 21
379.9267955880119
 31
0.0
  0
ARC
  5
14C66
330
1F
100
AcDbEntity
  8
AM_VIS
100
AcDbCircle
 10
1433.581540663652
 20
391.7593273427423
 30
0.0
 40
3.5
100
AcDbArc
 50
0.0
 51
90.0
  0
LINE
  5
14C67
330
1F
100
AcDbEntity
  8
AM_VIS
100
AcDbLine
 10
1437.201731192036
 20
387.4267955880119
 30
0.0
 11
1435.951731192036
 21
389.591859097473
 31
0.0
  0
ARC
  5
14C68
330
1F
100
AcDbEntity
  8
AM_VIS
100
AcDbCircle
 10
1430.081540663652
 20
384.7593273427424
 30
0.0
 40
9.0
100
AcDbArc
 50
2.733955549266189
 51
57.26604445073033
  0
LINE
  5
14C69
330
1F
100
AcDbEntity
  8
AM_VIS
100
AcDbLine
 10
1437.884743893928
 20
387.2437828861198
 30
0.0
 11
1437.201731192036
 21
387.4267955880119
 31
0.0
  0
LINE
  5
14C6A
330
1F
100
AcDbEntity
  8
AM_VIS
100
AcDbLine
 10
1439.319144970687
 20
384.7593273427424
 30
0.0
 11
1437.884743893928
 21
387.2437828861197
 31
0.0
  0
LINE
  5
14C6B
330
1F
100
AcDbEntity
  8
AM_VIS
100
AcDbLine
 10
1436.134743893928
 20
390.2748717993653
 30
0.0
 11
1434.700342817169
 21
392.7593273427423
 31
0.0
  0
LINE
  5
14C6C
330
1F
100
AcDbEntity
  8
AM_VIS
100
AcDbLine
 10
1435.951731192036
 20
389.591859097473
 30
0.0
 11
1436.134743893928
 21
390.2748717993653
 31
0.0
  0
LINE
  5
14C6D
330
1F
100
AcDbEntity
  8
AM_VIS
100
AcDbLine
 10
1437.081540663652
 20
390.4161815922347
 30
0.0
 11
1437.081540663652
 21
391.7593273427423
 31
0.0
  0
LINE
  5
14C6E
330
1F
100
AcDbEntity
  8
AM_VIS
100
AcDbLine
 10
1486.904290694484
 20
238.4870654848305
 30
0.0
 11
1529.904290694484
 21
238.4870654848305
 31
0.0
  0
LINE
  5
14C6F
330
1F
100
AcDbEntity
  8
AM_VIS
100
AcDbLine
 10
1529.904290694484
 20
264.4870654848304
 30
0.0
 11
1486.904290694484
 21
264.4870654848304
 31
0.0
  0
LINE
  5
14C70
330
1F
100
AcDbEntity
  8
AM_VIS
100
AcDbLine
 10
1494.904290694484
 20
324.5870654848305
 30
0.0
 11
1497.388746237862
 21
324.5870654848305
 31
0.0
  0
LINE
  5
14C71
330
1F
100
AcDbEntity
  8
AM_VIS
100
AcDbLine
 10
1494.904290694484
 20
330.0870654848305
 30
0.0
 11
1497.388746237862
 21
330.0870654848305
 31
0.0
  0
LINE
  5
14C72
330
1F
100
AcDbEntity
  8
AM_VIS
100
AcDbLine
 10
1511.904290694484
 20
310.9870654848305
 30
0.0
 11
1493.904290694484
 21
310.9870654848305
 31
0.0
  0
LINE
  5
14C73
330
1F
100
AcDbEntity
  8
AM_VIS
100
AcDbLine
 10
1493.904290694484
 20
322.9870654848305
 30
0.0
 11
1511.904290694484
 21
322.9870654848305
 31
0.0
  0
SPLINE
  5
14C74
330
1F
100
AcDbEntity
  8
AM_VIS
100
AcDbSpline
210
0.0
220
0.0
230
1.0
 70
     8
 71
     3
 72
    16
 73
    12
 74
     0
 42
0.0000000001
 43
0.0000000001
 40
13.44245735600753
 40
13.44245735600753
 40
13.44245735600753
 40
13.44245735600753
 40
14.73830257098713
 40
14.73830257098713
 40
16.09309933183528
 40
16.09309933183528
 40
17.1151508050885
 40
17.1151508050885
 40
18.13720227834172
 40
18.13720227834172
 40
18.55503350861849
 40
18.55503350861849
 40
18.55503350861849
 40
18.55503350861849
 10
1499.944560977095
 20
307.4870654848305
 30
0.0
 10
1499.632794714531
 20
307.7905996533142
 30
0.0
 10
1499.272694355624
 20
308.0935989332674
 30
0.0
 10
1498.529098087652
 20
308.6868573054242
 30
0.0
 10
1498.144730248615
 20
308.9749398563427
 30
0.0
 10
1497.536089815587
 20
309.415136715553
 30
0.0
 10
1497.265320104041
 20
309.6050698061371
 30
0.0
 10
1496.72838424819
 20
309.9673139463951
 30
0.0
 10
1496.462222410018
 20
310.1396329307157
 30
0.0
 10
1496.10488666305
 20
310.3572316408033
 30
0.0
 10
1496.003246362218
 20
310.4174099206985
 30
0.0
 10
1495.904290694484
 20
310.4740231690996
 30
0.0
  0
LINE
  5
14C75
330
1F
100
AcDbEntity
  8
AM_VIS
100
AcDbLine
 10
1495.904290694484
 20
281.9870654848305
 30
0.0
 11
1509.904290694484
 21
281.9870654848305
 31
0.0
  0
LINE
  5
14C76
330
1F
100
AcDbEntity
  8
AM_VIS
100
AcDbLine
 10
1491.904290694484
 20
281.4870654848305
 30
0.0
 11
1513.904290694484
 21
281.4870654848305
 31
0.0
  0
LINE
  5
14C77
330
1F
100
AcDbEntity
  8
AM_VIS
100
AcDbLine
 10
1506.904290694484
 20
279.4870654848305
 30
0.0
 11
1491.904290694484
 21
279.4870654848305
 31
0.0
  0
LINE
  5
14C78
330
1F
100
AcDbEntity
  8
AM_VIS
100
AcDbLine
 10
1511.404290694484
 20
264.4870654848304
 30
0.0
 11
1494.404290694484
 21
264.4870654848304
 31
0.0
  0
LINE
  5
14C79
330
1F
100
AcDbEntity
  8
AM_VIS
100
AcDbLine
 10
1511.404290694484
 20
279.4870654848305
 30
0.0
 11
1494.404290694484
 21
279.4870654848305
 31
0.0
  0
LINE
  5
14C7A
330
1F
100
AcDbEntity
  8
AM_VIS
100
AcDbLine
 10
1485.904290694484
 20
263.4870654848305
 30
0.0
 11
1485.904290694484
 21
239.4870654848304
 31
0.0
  0
LINE
  5
14C7B
330
1F
100
AcDbEntity
  8
AM_VIS
100
AcDbLine
 10
1485.904290694484
 20
238.4870654848305
 30
0.0
 11
1486.904290694484
 21
238.4870654848305
 31
0.0
  0
LINE
  5
14C7C
330
1F
100
AcDbEntity
  8
AM_VIS
100
AcDbLine
 10
1485.904290694484
 20
239.4870654848304
 30
0.0
 11
1485.904290694484
 21
238.4870654848305
 31
0.0
  0
LINE
  5
14C7D
330
1F
100
AcDbEntity
  8
AM_VIS
100
AcDbLine
 10
1486.904290694484
 20
238.4870654848305
 30
0.0
 11
1485.904290694484
 21
239.4870654848304
 31
0.0
  0
LINE
  5
14C7E
330
1F
100
AcDbEntity
  8
AM_VIS
100
AcDbLine
 10
1492.404290694484
 20
307.4870654848305
 30
0.0
 11
1492.404290694484
 21
285.4870654848305
 31
0.0
  0
LINE
  5
14C7F
330
1F
100
AcDbEntity
  8
AM_VIS
100
AcDbLine
 10
1491.904290694484
 20
281.4870654848305
 30
0.0
 11
1491.904290694484
 21
310.9870654848305
 31
0.0
  0
LINE
  5
14C80
330
1F
100
AcDbEntity
  8
AM_VIS
100
AcDbLine
 10
1491.904290694484
 20
279.4870654848305
 30
0.0
 11
1491.904290694484
 21
264.4870654848304
 31
0.0
  0
LINE
  5
14C81
330
1F
100
AcDbEntity
  8
AM_VIS
100
AcDbLine
 10
1490.092790694486
 20
262.2812683044637
 30
0.0
 11
1490.092790694486
 21
260.2985654848305
 31
0.0
  0
LINE
  5
14C82
330
1F
100
AcDbEntity
  8
AM_VIS
100
AcDbLine
 10
1490.715790694486
 20
260.2985654848305
 30
0.0
 11
1490.715790694486
 21
262.2812683044636
 31
0.0
  0
CIRCLE
  5
14C83
330
1F
100
AcDbEntity
  8
AM_VIS
100
AcDbCircle
 10
1490.404290694484
 20
259.9870654848305
 30
0.0
 40
3.699999999999999
  0
LINE
  5
14C84
330
1F
100
AcDbEntity
  8
AM_VIS
100
AcDbLine
 10
1490.092790694486
 20
260.2985654848305
 30
0.0
 11
1488.110087874851
 21
260.2985654848305
 31
0.0
  0
LINE
  5
14C85
330
1F
100
AcDbEntity
  8
AM_VIS
100
AcDbLine
 10
1488.110087874851
 20
259.6755654848304
 30
0.0
 11
1490.092790694486
 21
259.6755654848304
 31
0.0
  0
ELLIPSE
  5
14C86
330
1F
100
AcDbEntity
  8
AM_VIS
100
AcDbEllipse
 10
1492.294927992054
 20
259.9870654848305
 30
0.0
 11
0.0
 21
5.924134808644344
 31
0.0
210
0.0
220
0.0
230
1.0
 40
0.70738385147065
 41
1.518190549077107
 42
1.623402104512686
  0
LINE
  5
14C87
330
1F
100
AcDbEntity
  8
AM_VIS
100
AcDbLine
 10
1490.715790694486
 20
259.6755654848304
 30
0.0
 11
1492.698493514118
 21
259.6755654848304
 31
0.0
  0
LINE
  5
14C88
330
1F
100
AcDbEntity
  8
AM_VIS
100
AcDbLine
 10
1492.698493514118
 20
260.2985654848305
 30
0.0
 11
1490.715790694486
 21
260.2985654848305
 31
0.0
  0
LINE
  5
14C89
330
1F
100
AcDbEntity
  8
AM_VIS
100
AcDbLine
 10
1490.715790694486
 20
257.6928626651973
 30
0.0
 11
1490.715790694486
 21
259.6755654848304
 31
0.0
  0
LINE
  5
14C8A
330
1F
100
AcDbEntity
  8
AM_VIS
100
AcDbLine
 10
1490.092790694486
 20
259.6755654848304
 30
0.0
 11
1490.092790694486
 21
257.6928626651972
 31
0.0
  0
ELLIPSE
  5
14C8B
330
1F
100
AcDbEntity
  8
AM_VIS
100
AcDbEllipse
 10
1490.404290694484
 20
261.8777027824006
 30
0.0
 11
-5.924134808644347
 21
0.0
 31
0.0
210
0.0
220
0.0
230
1.0
 40
0.7073838514706481
 41
1.518190549077444
 42
1.623402104513021
  0
LINE
  5
14C8C
330
1F
100
AcDbEntity
  8
AM_VIS
100
AcDbLine
 10
1490.404290694484
 20
260.2985654848305
 30
0.0
 11
1490.404290694484
 21
259.9870654848305
 31
0.0
  0
LINE
  5
14C8D
330
1F
100
AcDbEntity
  8
AM_VIS
100
AcDbLine
 10
1490.404290694484
 20
259.9870654848305
 30
0.0
 11
1490.404290694484
 21
259.6755654848304
 31
0.0
  0
LINE
  5
14C8E
330
1F
100
AcDbEntity
  8
AM_VIS
100
AcDbLine
 10
1490.404290694484
 20
259.9870654848305
 30
0.0
 11
1490.715790694485
 21
260.2985654848311
 31
0.0
  0
LINE
  5
14C8F
330
1F
100
AcDbEntity
  8
AM_VIS
100
AcDbLine
 10
1490.092790694485
 20
260.2985654848298
 30
0.0
 11
1490.404290694484
 21
259.9870654848305
 31
0.0
  0
LINE
  5
14C90
330
1F
100
AcDbEntity
  8
AM_VIS
100
AcDbLine
 10
1490.715790694486
 20
260.2985654848305
 30
0.0
 11
1490.092790694486
 21
260.2985654848305
 31
0.0
  0
LINE
  5
14C91
330
1F
100
AcDbEntity
  8
AM_VIS
100
AcDbLine
 10
1490.092790694486
 20
259.6755654848304
 30
0.0
 11
1490.092790694486
 21
260.2985654848305
 31
0.0
  0
LINE
  5
14C92
330
1F
100
AcDbEntity
  8
AM_VIS
100
AcDbLine
 10
1490.715790694486
 20
259.9870654848305
 30
0.0
 11
1490.404290694484
 21
259.9870654848305
 31
0.0
  0
LINE
  5
14C93
330
1F
100
AcDbEntity
  8
AM_VIS
100
AcDbLine
 10
1490.715790694485
 20
259.6755654848298
 30
0.0
 11
1490.404290694484
 21
259.9870654848305
 31
0.0
  0
LINE
  5
14C94
330
1F
100
AcDbEntity
  8
AM_VIS
100
AcDbLine
 10
1490.092790694486
 20
259.6755654848304
 30
0.0
 11
1490.715790694486
 21
259.6755654848304
 31
0.0
  0
LINE
  5
14C95
330
1F
100
AcDbEntity
  8
AM_VIS
100
AcDbLine
 10
1490.404290694484
 20
259.9870654848305
 30
0.0
 11
1490.092790694486
 21
259.9870654848305
 31
0.0
  0
LINE
  5
14C96
330
1F
100
AcDbEntity
  8
AM_VIS
100
AcDbLine
 10
1490.404290694484
 20
259.9870654848305
 30
0.0
 11
1490.092790694485
 21
259.6755654848311
 31
0.0
  0
LINE
  5
14C97
330
1F
100
AcDbEntity
  8
AM_VIS
100
AcDbLine
 10
1490.715790694486
 20
260.2985654848305
 30
0.0
 11
1490.715790694486
 21
259.6755654848304
 31
0.0
  0
ELLIPSE
  5
14C98
330
1F
100
AcDbEntity
  8
AM_VIS
100
AcDbEllipse
 10
1488.513653396914
 20
259.9870654848305
 30
0.0
 11
0.0
 21
5.924134808644344
 31
0.0
210
0.0
220
0.0
230
1.0
 40
0.7073838514706498
 41
4.659783202666901
 42
4.764994758102479
  0
LINE
  5
14C99
330
1F
100
AcDbEntity
  8
AM_VIS
100
AcDbLine
 10
1486.904290694484
 20
264.4870654848304
 30
0.0
 11
1485.904290694484
 21
264.4870654848304
 31
0.0
  0
LINE
  5
14C9A
330
1F
100
AcDbEntity
  8
AM_VIS
100
AcDbLine
 10
1485.904290694484
 20
264.4870654848304
 30
0.0
 11
1485.904290694484
 21
263.4870654848305
 31
0.0
  0
LINE
  5
14C9B
330
1F
100
AcDbEntity
  8
AM_VIS
100
AcDbLine
 10
1485.904290694484
 20
263.4870654848305
 30
0.0
 11
1486.904290694484
 21
264.4870654848304
 31
0.0
  0
ELLIPSE
  5
14C9C
330
1F
100
AcDbEntity
  8
AM_VIS
100
AcDbEllipse
 10
1490.404290694484
 20
258.0964281872603
 30
0.0
 11
-5.924134808644345
 21
0.0
 31
0.0
210
0.0
220
0.0
230
1.0
 40
0.7073838514706484
 41
4.659783202666564
 42
4.764994758102141
  0
ARC
  5
14C9D
330
1F
100
AcDbEntity
  8
AM_VIS
100
AcDbCircle
 10
1495.904290694484
 20
285.4870654848305
 30
0.0
 40
3.5
100
AcDbArc
 50
180.0
 51
270.0
  0
LINE
  5
14C9E
330
1F
100
AcDbEntity
  8
AM_VIS
100
AcDbLine
 10
1491.904290694484
 20
279.4870654848305
 30
0.0
 11
1491.904290694484
 21
281.4870654848305
 31
0.0
  0
LINE
  5
14C9F
330
1F
100
AcDbEntity
  8
AM_VIS
100
AcDbLine
 10
1493.904290694484
 20
310.9870654848305
 30
0.0
 11
1493.904290694484
 21
322.9870654848305
 31
0.0
  0
ARC
  5
14CA0
330
1F
100
AcDbEntity
  8
AM_VIS
100
AcDbCircle
 10
1495.904290694484
 20
307.4870654848305
 30
0.0
 40
3.499999999999999
100
AcDbArc
 50
110.0416584085646
 51
180.0
  0
LINE
  5
14CA1
330
1F
100
AcDbEntity
  8
AM_VIS
100
AcDbLine
 10
1493.904290694484
 20
310.9870654848305
 30
0.0
 11
1491.904290694484
 21
310.9870654848305
 31
0.0
  0
LINE
  5
14CA2
330
1F
100
AcDbEntity
  8
AM_VIS
100
AcDbLine
 10
1492.904290694484
 20
311.4870654848305
 30
0.0
 11
1493.904290694484
 21
311.4870654848305
 31
0.0
  0
LINE
  5
14CA3
330
1F
100
AcDbEntity
  8
AM_VIS
100
AcDbLine
 10
1493.904290694484
 20
311.6870654848305
 30
0.0
 11
1492.904290694484
 21
311.4870654848305
 31
0.0
  0
LINE
  5
14CA4
330
1F
100
AcDbEntity
  8
AM_VIS
100
AcDbLine
 10
1492.904290694484
 20
310.9870654848305
 30
0.0
 11
1492.904290694484
 21
311.4870654848305
 31
0.0
  0
LINE
  5
14CA5
330
1F
100
AcDbEntity
  8
AM_VIS
100
AcDbLine
 10
1494.103753172696
 20
310.4884092893009
 30
0.0
 11
1493.904290694484
 21
310.9870654848305
 31
0.0
  0
SPLINE
  5
14CA6
330
1F
100
AcDbEntity
  8
AM_VIS
100
AcDbSpline
210
0.0
220
0.0
230
1.0
 70
     8
 71
     3
 72
    18
 73
    14
 74
     0
 42
0.0000000001
 43
0.0000000001
 40
4.975287104260677
 40
4.975287104260677
 40
4.975287104260677
 40
4.975287104260677
 40
5.086400028382842
 40
5.086400028382842
 40
5.588960013482415
 40
5.588960013482415
 40
6.091519998581987
 40
6.091519998581987
 40
6.59407998368156
 40
6.59407998368156
 40
7.096639968781131
 40
7.096639968781131
 40
7.11590156427612
 40
7.11590156427612
 40
7.11590156427612
 40
7.11590156427612
 10
1495.904290694484
 20
310.4740231690996
 30
0.0
 10
1495.87813659888
 20
310.4889861150843
 30
0.0
 10
1495.852016270861
 20
310.5035429091808
 30
0.0
 10
1495.70822390913
 20
310.5815167911682
 30
0.0
 10
1495.592262769882
 20
310.6362693519024
 30
0.0
 10
1495.372463388606
 20
310.7236346846514
 30
0.0
 10
1495.268508891347
 20
310.7563044260928
 30
0.0
 10
1495.07883031626
 20
310.7989327299695
 30
0.0
 10
1494.993109501522
 20
310.8088891408478
 30
0.0
 10
1494.843275062929
 20
310.8088891408477
 30
0.0
 10
1494.773288802487
 20
310.7989327299695
 30
0.0
 10
1494.70950114821
 20
310.7768016714227
 30
0.0
 10
1494.70715893769
 20
310.7759682968306
 30
0.0
 10
1494.704829210348
 20
310.7751184266296
 30
0.0
  0
LINE
  5
14CA7
330
1F
100
AcDbEntity
  8
AM_VIS
100
AcDbLine
 10
1493.487897251861
 20
318.4870654848305
 30
0.0
 11
1493.487897251861
 21
317.3370654848305
 31
0.0
  0
LINE
  5
14CA8
330
1F
100
AcDbEntity
  8
AM_VIS
100
AcDbLine
 10
1493.904290694484
 20
317.3370654848305
 30
0.0
 11
1493.487897251861
 21
317.3370654848305
 31
0.0
  0
LINE
  5
14CA9
330
1F
100
AcDbEntity
  8
AM_VIS
100
AcDbLine
 10
1493.487897251861
 20
315.8370654848305
 30
0.0
 11
1493.904290694484
 21
315.8370654848305
 31
0.0
  0
LINE
  5
14CAA
330
1F
100
AcDbEntity
  8
AM_VIS
100
AcDbLine
 10
1493.904290694484
 20
312.9870654848305
 30
0.0
 11
1493.487897251861
 21
312.9870654848305
 31
0.0
  0
LINE
  5
14CAB
330
1F
100
AcDbEntity
  8
AM_VIS
100
AcDbLine
 10
1493.487897251861
 20
315.8370654848305
 30
0.0
 11
1493.487897251861
 21
312.9870654848305
 31
0.0
  0
ARC
  5
14CAC
330
1F
100
AcDbEntity
  8
AM_VIS
100
AcDbCircle
 10
1488.640251072835
 20
279.7910008192853
 30
0.0
 40
33.54815021362703
100
AcDbArc
 50
80.97241426085069
 51
81.69177981886367
  0
LINE
  5
14CAD
330
1F
100
AcDbEntity
  8
AM_VIS
100
AcDbLine
 10
1493.904290694484
 20
318.4870654848305
 30
0.0
 11
1493.487897251861
 21
318.4870654848305
 31
0.0
  0
LINE
  5
14CAE
330
1F
100
AcDbEntity
  8
AM_VIS
100
AcDbLine
 10
1493.754290694484
 20
318.9870654848305
 30
0.0
 11
1493.904290694484
 21
318.9870654848305
 31
0.0
  0
SPLINE
  5
14CAF
330
1F
100
AcDbEntity
  8
AM_VIS
100
AcDbSpline
210
0.0
220
0.0
230
1.0
 70
     8
 71
     3
 72
     8
 73
     4
 74
     0
 42
0.0000000001
 43
0.0000000001
 40
7.8606508081159
 40
7.8606508081159
 40
7.8606508081159
 40
7.8606508081159
 40
8.796495530230886
 40
8.796495530230886
 40
8.796495530230886
 40
8.796495530230886
 10
1493.754290694484
 20
318.9870654848305
 30
0.0
 10
1493.675882332119
 20
318.8360262183788
 30
0.0
 10
1493.586181947081
 20
318.666926477083
 30
0.0
 10
1493.487897251861
 20
318.4870654848305
 30
0.0
  0
LINE
  5
14CB0
330
1F
100
AcDbEntity
  8
AM_VIS
100
AcDbLine
 10
1494.904290694484
 20
330.0870654848305
 30
0.0
 11
1494.904290694484
 21
324.5870654848305
 31
0.0
  0
LINE
  5
14CB1
330
1F
100
AcDbEntity
  8
AM_VIS
100
AcDbLine
 10
1530.904290694484
 20
239.4870654848305
 30
0.0
 11
1530.904290694484
 21
263.4870654848305
 31
0.0
  0
LINE
  5
14CB2
330
1F
100
AcDbEntity
  8
AM_VIS
100
AcDbLine
 10
1526.715790694486
 20
242.6755654848305
 30
0.0
 11
1528.698493514117
 21
242.6755654848305
 31
0.0
  0
LINE
  5
14CB3
330
1F
100
AcDbEntity
  8
AM_VIS
100
AcDbLine
 10
1528.698493514117
 20
243.2985654848305
 30
0.0
 11
1526.715790694486
 21
243.2985654848305
 31
0.0
  0
CIRCLE
  5
14CB4
330
1F
100
AcDbEntity
  8
AM_VIS
100
AcDbCircle
 10
1526.404290694484
 20
242.9870654848305
 30
0.0
 40
3.699999999999999
  0
LINE
  5
14CB5
330
1F
100
AcDbEntity
  8
AM_VIS
100
AcDbLine
 10
1526.092790694486
 20
243.2985654848305
 30
0.0
 11
1524.110087874851
 21
243.2985654848305
 31
0.0
  0
ELLIPSE
  5
14CB6
330
1F
100
AcDbEntity
  8
AM_VIS
100
AcDbEllipse
 10
1528.294927992055
 20
242.9870654848305
 30
0.0
 11
0.0
 21
5.924134808644344
 31
0.0
210
0.0
220
0.0
230
1.0
 40
0.70738385147065
 41
1.518190549077107
 42
1.623402104512687
  0
LINE
  5
14CB7
330
1F
100
AcDbEntity
  8
AM_VIS
100
AcDbLine
 10
1524.110087874851
 20
242.6755654848305
 30
0.0
 11
1526.092790694486
 21
242.6755654848305
 31
0.0
  0
LINE
  5
14CB8
330
1F
100
AcDbEntity
  8
AM_VIS
100
AcDbLine
 10
1526.715790694486
 20
240.6928626651974
 30
0.0
 11
1526.715790694486
 21
242.6755654848305
 31
0.0
  0
ELLIPSE
  5
14CB9
330
1F
100
AcDbEntity
  8
AM_VIS
100
AcDbEllipse
 10
1526.404290694484
 20
241.0964281872603
 30
0.0
 11
-5.924134808644345
 21
0.0
 31
0.0
210
0.0
220
0.0
230
1.0
 40
0.7073838514706484
 41
4.659783202666564
 42
4.764994758102141
  0
LINE
  5
14CBA
330
1F
100
AcDbEntity
  8
AM_VIS
100
AcDbLine
 10
1526.092790694486
 20
242.6755654848305
 30
0.0
 11
1526.092790694486
 21
240.6928626651972
 31
0.0
  0
LINE
  5
14CBB
330
1F
100
AcDbEntity
  8
AM_VIS
100
AcDbLine
 10
1526.092790694486
 20
245.2812683044638
 30
0.0
 11
1526.092790694486
 21
243.2985654848305
 31
0.0
  0
ELLIPSE
  5
14CBC
330
1F
100
AcDbEntity
  8
AM_VIS
100
AcDbEllipse
 10
1526.404290694484
 20
244.8777027824007
 30
0.0
 11
-5.924134808644347
 21
0.0
 31
0.0
210
0.0
220
0.0
230
1.0
 40
0.7073838514706481
 41
1.518190549077444
 42
1.623402104513021
  0
LINE
  5
14CBD
330
1F
100
AcDbEntity
  8
AM_VIS
100
AcDbLine
 10
1526.715790694486
 20
243.2985654848305
 30
0.0
 11
1526.715790694486
 21
245.2812683044637
 31
0.0
  0
LINE
  5
14CBE
330
1F
100
AcDbEntity
  8
AM_VIS
100
AcDbLine
 10
1526.404290694484
 20
243.2985654848305
 30
0.0
 11
1526.404290694484
 21
242.9870654848305
 31
0.0
  0
LINE
  5
14CBF
330
1F
100
AcDbEntity
  8
AM_VIS
100
AcDbLine
 10
1526.404290694484
 20
242.9870654848305
 30
0.0
 11
1526.404290694484
 21
242.6755654848305
 31
0.0
  0
LINE
  5
14CC0
330
1F
100
AcDbEntity
  8
AM_VIS
100
AcDbLine
 10
1526.404290694484
 20
242.9870654848305
 30
0.0
 11
1526.715790694485
 21
243.2985654848311
 31
0.0
  0
LINE
  5
14CC1
330
1F
100
AcDbEntity
  8
AM_VIS
100
AcDbLine
 10
1526.092790694485
 20
243.2985654848298
 30
0.0
 11
1526.404290694484
 21
242.9870654848305
 31
0.0
  0
LINE
  5
14CC2
330
1F
100
AcDbEntity
  8
AM_VIS
100
AcDbLine
 10
1526.715790694486
 20
243.2985654848305
 30
0.0
 11
1526.092790694486
 21
243.2985654848305
 31
0.0
  0
LINE
  5
14CC3
330
1F
100
AcDbEntity
  8
AM_VIS
100
AcDbLine
 10
1526.092790694486
 20
242.6755654848305
 30
0.0
 11
1526.092790694486
 21
243.2985654848305
 31
0.0
  0
LINE
  5
14CC4
330
1F
100
AcDbEntity
  8
AM_VIS
100
AcDbLine
 10
1526.715790694486
 20
242.9870654848305
 30
0.0
 11
1526.404290694484
 21
242.9870654848305
 31
0.0
  0
LINE
  5
14CC5
330
1F
100
AcDbEntity
  8
AM_VIS
100
AcDbLine
 10
1526.715790694485
 20
242.6755654848298
 30
0.0
 11
1526.404290694484
 21
242.9870654848305
 31
0.0
  0
LINE
  5
14CC6
330
1F
100
AcDbEntity
  8
AM_VIS
100
AcDbLine
 10
1526.092790694486
 20
242.6755654848305
 30
0.0
 11
1526.715790694486
 21
242.6755654848305
 31
0.0
  0
LINE
  5
14CC7
330
1F
100
AcDbEntity
  8
AM_VIS
100
AcDbLine
 10
1526.404290694484
 20
242.9870654848305
 30
0.0
 11
1526.092790694486
 21
242.9870654848305
 31
0.0
  0
LINE
  5
14CC8
330
1F
100
AcDbEntity
  8
AM_VIS
100
AcDbLine
 10
1526.404290694484
 20
242.9870654848305
 30
0.0
 11
1526.092790694485
 21
242.6755654848312
 31
0.0
  0
LINE
  5
14CC9
330
1F
100
AcDbEntity
  8
AM_VIS
100
AcDbLine
 10
1526.715790694486
 20
243.2985654848305
 30
0.0
 11
1526.715790694486
 21
242.6755654848305
 31
0.0
  0
LINE
  5
14CCA
330
1F
100
AcDbEntity
  8
AM_VIS
100
AcDbLine
 10
1530.904290694484
 20
238.4870654848305
 30
0.0
 11
1530.904290694484
 21
239.4870654848305
 31
0.0
  0
LINE
  5
14CCB
330
1F
100
AcDbEntity
  8
AM_VIS
100
AcDbLine
 10
1529.904290694484
 20
238.4870654848305
 30
0.0
 11
1530.904290694484
 21
238.4870654848305
 31
0.0
  0
LINE
  5
14CCC
330
1F
100
AcDbEntity
  8
AM_VIS
100
AcDbLine
 10
1530.904290694484
 20
239.4870654848305
 30
0.0
 11
1529.904290694484
 21
238.4870654848305
 31
0.0
  0
ELLIPSE
  5
14CCD
330
1F
100
AcDbEntity
  8
AM_VIS
100
AcDbEllipse
 10
1524.513653396914
 20
242.9870654848305
 30
0.0
 11
0.0
 21
5.924134808644344
 31
0.0
210
0.0
220
0.0
230
1.0
 40
0.7073838514706498
 41
4.6597832026669
 42
4.764994758102479
  0
LINE
  5
14CCE
330
1F
100
AcDbEntity
  8
AM_VIS
100
AcDbLine
 10
1513.404290694484
 20
285.4870654848305
 30
0.0
 11
1513.404290694484
 21
307.4870654848305
 31
0.0
  0
LINE
  5
14CCF
330
1F
100
AcDbEntity
  8
AM_VIS
100
AcDbLine
 10
1513.904290694484
 20
281.4870654848305
 30
0.0
 11
1513.904290694484
 21
310.9870654848305
 31
0.0
  0
ARC
  5
14CD0
330
1F
100
AcDbEntity
  8
AM_VIS
100
AcDbCircle
 10
1502.904290694484
 20
270.6870654848305
 30
0.0
 40
1.5
100
AcDbArc
 50
19.47122063449033
 51
160.5287793655111
  0
ARC
  5
14CD1
330
1F
100
AcDbEntity
  8
AM_VIS
100
AcDbCircle
 10
1502.904290694484
 20
270.6870654848305
 30
0.0
 40
2.0
100
AcDbArc
 50
14.47751218592945
 51
165.5224878140705
  0
CIRCLE
  5
14CD2
330
1F
100
AcDbEntity
  8
AM_VIS
100
AcDbCircle
 10
1502.904290694484
 20
270.6870654848305
 30
0.0
 40
2.049999999999999
  0
LINE
  5
14CD3
330
1F
100
AcDbEntity
  8
AM_VIS
100
AcDbLine
 10
1513.904290694484
 20
264.4870654848304
 30
0.0
 11
1513.904290694484
 21
279.4870654848305
 31
0.0
  0
ARC
  5
14CD4
330
1F
100
AcDbEntity
  8
AM_VIS
100
AcDbCircle
 10
1502.904290694484
 20
270.6870654848305
 30
0.0
 40
1.5
100
AcDbArc
 50
199.4712206344903
 51
340.5287793655111
  0
ARC
  5
14CD5
330
1F
100
AcDbEntity
  8
AM_VIS
100
AcDbCircle
 10
1502.904290694484
 20
270.6870654848305
 30
0.0
 40
2.0
100
AcDbArc
 50
194.4775121859294
 51
345.5224878140705
  0
LINE
  5
14CD6
330
1F
100
AcDbEntity
  8
AM_VIS
100
AcDbLine
 10
1501.490077132111
 20
271.1870654848305
 30
0.0
 11
1504.318504256858
 21
271.1870654848305
 31
0.0
  0
LINE
  5
14CD7
330
1F
100
AcDbEntity
  8
AM_VIS
100
AcDbLine
 10
1504.318504256858
 20
270.1870654848305
 30
0.0
 11
1501.490077132111
 21
270.1870654848305
 31
0.0
  0
ARC
  5
14CD8
330
1F
100
AcDbEntity
  8
AM_VIS
100
AcDbCircle
 10
1502.904290694484
 20
270.6870654848305
 30
0.0
 40
2.0
100
AcDbArc
 50
165.5224878140689
 51
194.4775121859294
  0
LINE
  5
14CD9
330
1F
100
AcDbEntity
  8
AM_VIS
100
AcDbLine
 10
1500.967799021381
 20
271.1870654848305
 30
0.0
 11
1501.490077132111
 21
271.1870654848305
 31
0.0
  0
LINE
  5
14CDA
330
1F
100
AcDbEntity
  8
AM_VIS
100
AcDbLine
 10
1500.967799021381
 20
270.1870654848305
 30
0.0
 11
1501.490077132111
 21
270.1870654848305
 31
0.0
  0
ARC
  5
14CDB
330
1F
100
AcDbEntity
  8
AM_VIS
100
AcDbCircle
 10
1502.904290694484
 20
270.6870654848305
 30
0.0
 40
2.0
100
AcDbArc
 50
345.5224878140705
 51
14.47751218592945
  0
LINE
  5
14CDC
330
1F
100
AcDbEntity
  8
AM_VIS
100
AcDbLine
 10
1504.318504256858
 20
271.1870654848305
 30
0.0
 11
1504.840782367588
 21
271.1870654848305
 31
0.0
  0
LINE
  5
14CDD
330
1F
100
AcDbEntity
  8
AM_VIS
100
AcDbLine
 10
1504.318504256858
 20
270.1870654848305
 30
0.0
 11
1504.840782367588
 21
270.1870654848305
 31
0.0
  0
ARC
  5
14CDE
330
1F
100
AcDbEntity
  8
AM_VIS
100
AcDbCircle
 10
1509.904290694484
 20
285.4870654848305
 30
0.0
 40
3.5
100
AcDbArc
 50
270.0
 51
0.0
  0
LINE
  5
14CDF
330
1F
100
AcDbEntity
  8
AM_VIS
100
AcDbLine
 10
1511.404290694484
 20
279.4870654848305
 30
0.0
 11
1513.904290694484
 21
279.4870654848305
 31
0.0
  0
LINE
  5
14CE0
330
1F
100
AcDbEntity
  8
AM_VIS
100
AcDbLine
 10
1503.404290694484
 20
272.6235571579342
 30
0.0
 11
1503.404290694484
 21
272.6751550200376
 31
0.0
  0
LINE
  5
14CE1
330
1F
100
AcDbEntity
  8
AM_VIS
100
AcDbLine
 10
1502.404290694484
 20
272.6235571579342
 30
0.0
 11
1502.404290694484
 21
272.6751550200376
 31
0.0
  0
LINE
  5
14CE2
330
1F
100
AcDbEntity
  8
AM_VIS
100
AcDbLine
 10
1506.904290694484
 20
279.4870654848305
 30
0.0
 11
1506.904290694484
 21
281.4870654848305
 31
0.0
  0
LINE
  5
14CE3
330
1F
100
AcDbEntity
  8
AM_VIS
100
AcDbLine
 10
1513.904290694484
 20
281.4870654848305
 30
0.0
 11
1513.904290694484
 21
279.4870654848305
 31
0.0
  0
LINE
  5
14CE4
330
1F
100
AcDbEntity
  8
AM_VIS
100
AcDbLine
 10
1530.904290694484
 20
264.4870654848304
 30
0.0
 11
1529.904290694484
 21
264.4870654848304
 31
0.0
  0
LINE
  5
14CE5
330
1F
100
AcDbEntity
  8
AM_VIS
100
AcDbLine
 10
1530.904290694484
 20
263.4870654848305
 30
0.0
 11
1530.904290694484
 21
264.4870654848304
 31
0.0
  0
LINE
  5
14CE6
330
1F
100
AcDbEntity
  8
AM_VIS
100
AcDbLine
 10
1529.904290694484
 20
264.4870654848304
 30
0.0
 11
1530.904290694484
 21
263.4870654848305
 31
0.0
  0
LINE
  5
14CE7
330
1F
100
AcDbEntity
  8
AM_VIS
100
AcDbLine
 10
1511.904290694484
 20
310.9870654848305
 30
0.0
 11
1511.904290694484
 21
322.9870654848305
 31
0.0
  0
ARC
  5
14CE8
330
1F
100
AcDbEntity
  8
AM_VIS
100
AcDbCircle
 10
1509.904290694484
 20
307.4870654848305
 30
0.0
 40
3.5
100
AcDbArc
 50
0.0
 51
69.95834159142924
  0
CIRCLE
  5
14CE9
330
1F
100
AcDbEntity
  8
AM_VIS
100
AcDbCircle
 10
1502.904290694484
 20
296.4870654848305
 30
0.0
 40
3.5
  0
CIRCLE
  5
14CEA
330
1F
100
AcDbEntity
  8
AM_VIS
100
AcDbCircle
 10
1502.904290694484
 20
296.4870654848305
 30
0.0
 40
1.25
  0
SPLINE
  5
14CEB
330
1F
100
AcDbEntity
  8
AM_VIS
100
AcDbSpline
210
0.0
220
0.0
230
1.0
 70
    12
 71
     2
 72
     6
 73
     3
 74
     0
 42
0.0000000001
 43
0.0000000001
 40
0.0
 40
0.0
 40
0.0
 40
3.381727793507036
 40
3.381727793507036
 40
3.381727793507036
 10
1505.864020411874
 20
307.4870654848305
 30
0.0
 41
1.0
 10
1504.323339189123
 20
305.9870654848305
 30
0.0
 41
1.021203771466384
 10
1502.904290694484
 20
305.9870654848305
 30
0.0
 41
1.0
  0
SPLINE
  5
14CEC
330
1F
100
AcDbEntity
  8
AM_VIS
100
AcDbSpline
210
0.0
220
0.0
230
1.0
 70
    12
 71
     2
 72
     6
 73
     3
 74
     0
 42
0.0000000001
 43
0.0000000001
 40
3.381727793507036
 40
3.381727793507036
 40
3.381727793507036
 40
6.763455587014078
 40
6.763455587014078
 40
6.763455587014078
 10
1502.904290694484
 20
305.9870654848305
 30
0.0
 41
1.0
 10
1501.485242199845
 20
305.9870654848305
 30
0.0
 41
1.021203771466384
 10
1499.944560977095
 20
307.4870654848305
 30
0.0
 41
1.0
  0
SPLINE
  5
14CED
330
1F
100
AcDbEntity
  8
AM_VIS
100
AcDbSpline
210
0.0
220
0.0
230
1.0
 70
     8
 71
     3
 72
    16
 73
    12
 74
     0
 42
0.0000000001
 43
0.0000000001
 40
1.626271716229691
 40
1.626271716229691
 40
1.626271716229691
 40
1.626271716229691
 40
2.044102946506439
 40
2.044102946506439
 40
3.066154419759659
 40
3.066154419759659
 40
4.088205893012879
 40
4.088205893012879
 40
5.443002653861024
 40
5.443002653861024
 40
6.738847868840626
 40
6.738847868840626
 40
6.738847868840626
 40
6.738847868840626
 10
1509.904290694484
 20
310.4740231690996
 30
0.0
 10
1509.80533502675
 20
310.4174099206985
 30
0.0
 10
1509.703694725918
 20
310.3572316408033
 30
0.0
 10
1509.346358978951
 20
310.1396329307157
 30
0.0
 10
1509.080197140779
 20
309.9673139463951
 30
0.0
 10
1508.543261284927
 20
309.6050698061371
 30
0.0
 10
1508.272491573381
 20
309.415136715553
 30
0.0
 10
1507.663851140354
 20
308.9749398563427
 30
0.0
 10
1507.279483301317
 20
308.6868573054242
 30
0.0
 10
1506.535887033345
 20
308.0935989332674
 30
0.0
 10
1506.175786674438
 20
307.7905996533142
 30
0.0
 10
1505.864020411874
 20
307.4870654848305
 30
0.0
  0
SPLINE
  5
14CEE
330
1F
100
AcDbEntity
  8
AM_VIS
100
AcDbSpline
210
0.0
220
0.0
230
1.0
 70
     8
 71
     3
 72
    18
 73
    14
 74
     0
 42
0.0000000001
 43
0.0000000001
 40
6.072258403086962
 40
6.072258403086962
 40
6.072258403086962
 40
6.072258403086962
 40
6.091519998582311
 40
6.091519998582311
 40
6.594079983681931
 40
6.594079983681931
 40
7.096639968781531
 40
7.096639968781531
 40
7.59919995388113
 40
7.59919995388113
 40
8.101759938980729
 40
8.101759938980729
 40
8.212872863102431
 40
8.212872863102431
 40
8.212872863102431
 40
8.212872863102431
 10
1511.103752178621
 20
310.7751184266296
 30
0.0
 10
1511.101422451279
 20
310.7759682968307
 30
0.0
 10
1511.099080240759
 20
310.7768016714228
 30
0.0
 10
1511.035292586482
 20
310.7989327299696
 30
0.0
 10
1510.96530632604
 20
310.8088891408478
 30
0.0
 10
1510.815471887446
 20
310.8088891408478
 30
0.0
 10
1510.729751072708
 20
310.7989327299695
 30
0.0
 10
1510.540072497621
 20
310.7563044260928
 30
0.0
 10
1510.436118000363
 20
310.7236346846513
 30
0.0
 10
1510.216318619086
 20
310.6362693519023
 30
0.0
 10
1510.100357479838
 20
310.5815167911681
 30
0.0
 10
1509.956565118107
 20
310.5035429091806
 30
0.0
 10
1509.930444790089
 20
310.4889861150842
 30
0.0
 10
1509.904290694484
 20
310.4740231690996
 30
0.0
  0
LINE
  5
14CEF
330
1F
100
AcDbEntity
  8
AM_VIS
100
AcDbLine
 10
1511.904290694484
 20
311.4870654848305
 30
0.0
 11
1512.904290694484
 21
311.4870654848305
 31
0.0
  0
LINE
  5
14CF0
330
1F
100
AcDbEntity
  8
AM_VIS
100
AcDbLine
 10
1511.904290694484
 20
311.6870654848305
 30
0.0
 11
1512.904290694484
 21
311.4870654848305
 31
0.0
  0
LINE
  5
14CF1
330
1F
100
AcDbEntity
  8
AM_VIS
100
AcDbLine
 10
1512.904290694484
 20
310.9870654848305
 30
0.0
 11
1512.904290694484
 21
311.4870654848305
 31
0.0
  0
LINE
  5
14CF2
330
1F
100
AcDbEntity
  8
AM_VIS
100
AcDbLine
 10
1511.704828216272
 20
310.4884092893009
 30
0.0
 11
1511.904290694484
 21
310.9870654848305
 31
0.0
  0
LINE
  5
14CF3
330
1F
100
AcDbEntity
  8
AM_VIS
100
AcDbLine
 10
1513.904290694484
 20
310.9870654848305
 30
0.0
 11
1511.904290694484
 21
310.9870654848305
 31
0.0
  0
LINE
  5
14CF4
330
1F
100
AcDbEntity
  8
AM_VIS
100
AcDbLine
 10
1502.904290694484
 20
324.5870654848305
 30
0.0
 11
1505.388746237862
 21
324.5870654848305
 31
0.0
  0
LINE
  5
14CF5
330
1F
100
AcDbEntity
  8
AM_VIS
100
AcDbLine
 10
1502.904290694484
 20
330.0870654848305
 30
0.0
 11
1505.388746237862
 21
330.0870654848305
 31
0.0
  0
LINE
  5
14CF6
330
1F
100
AcDbEntity
  8
AM_VIS
100
AcDbLine
 10
1502.904290694484
 20
330.0870654848305
 30
0.0
 11
1502.904290694484
 21
324.5870654848305
 31
0.0
  0
LINE
  5
14CF7
330
1F
100
AcDbEntity
  8
AM_VIS
100
AcDbLine
 10
1500.419835151107
 20
330.0870654848305
 30
0.0
 11
1500.419835151107
 21
324.5870654848305
 31
0.0
  0
LINE
  5
14CF8
330
1F
100
AcDbEntity
  8
AM_VIS
100
AcDbLine
 10
1497.388746237862
 20
324.5870654848305
 30
0.0
 11
1497.388746237862
 21
330.0870654848305
 31
0.0
  0
LINE
  5
14CF9
330
1F
100
AcDbEntity
  8
AM_VIS
100
AcDbLine
 10
1498.071758939754
 20
330.0870654848305
 30
0.0
 11
1498.071758939754
 21
324.5870654848305
 31
0.0
  0
LINE
  5
14CFA
330
1F
100
AcDbEntity
  8
AM_VIS
100
AcDbLine
 10
1500.236822449215
 20
330.0870654848305
 30
0.0
 11
1500.236822449215
 21
324.5870654848305
 31
0.0
  0
LINE
  5
14CFB
330
1F
100
AcDbEntity
  8
AM_VIS
100
AcDbLine
 10
1500.236822449215
 20
324.5870654848305
 30
0.0
 11
1498.071758939754
 21
324.5870654848305
 31
0.0
  0
LINE
  5
14CFC
330
1F
100
AcDbEntity
  8
AM_VIS
100
AcDbLine
 10
1496.154290694484
 20
324.5870654848305
 30
0.0
 11
1496.154290694484
 21
322.9870654848305
 31
0.0
  0
LINE
  5
14CFD
330
1F
100
AcDbEntity
  8
AM_VIS
100
AcDbLine
 10
1498.071758939754
 20
324.5870654848305
 30
0.0
 11
1497.388746237862
 21
324.5870654848305
 31
0.0
  0
LINE
  5
14CFE
330
1F
100
AcDbEntity
  8
AM_VIS
100
AcDbLine
 10
1500.419835151107
 20
324.5870654848305
 30
0.0
 11
1500.236822449215
 21
324.5870654848305
 31
0.0
  0
LINE
  5
14CFF
330
1F
100
AcDbEntity
  8
AM_VIS
100
AcDbLine
 10
1500.419835151107
 20
324.5870654848305
 30
0.0
 11
1502.904290694484
 21
324.5870654848305
 31
0.0
  0
LINE
  5
14D00
330
1F
100
AcDbEntity
  8
AM_VIS
100
AcDbLine
 10
1498.071758939754
 20
330.0870654848305
 30
0.0
 11
1500.236822449215
 21
330.0870654848305
 31
0.0
  0
LINE
  5
14D01
330
1F
100
AcDbEntity
  8
AM_VIS
100
AcDbLine
 10
1497.388746237862
 20
330.0870654848305
 30
0.0
 11
1498.071758939754
 21
330.0870654848305
 31
0.0
  0
LINE
  5
14D02
330
1F
100
AcDbEntity
  8
AM_VIS
100
AcDbLine
 10
1500.419835151107
 20
330.0870654848305
 30
0.0
 11
1502.904290694484
 21
330.0870654848305
 31
0.0
  0
LINE
  5
14D03
330
1F
100
AcDbEntity
  8
AM_VIS
100
AcDbLine
 10
1500.236822449215
 20
330.0870654848305
 30
0.0
 11
1500.419835151107
 21
330.0870654848305
 31
0.0
  0
LINE
  5
14D04
330
1F
100
AcDbEntity
  8
AM_VIS
100
AcDbLine
 10
1510.904290694484
 20
330.0870654848305
 30
0.0
 11
1510.904290694484
 21
324.5870654848305
 31
0.0
  0
LINE
  5
14D05
330
1F
100
AcDbEntity
  8
AM_VIS
100
AcDbLine
 10
1508.419835151107
 20
330.0870654848305
 30
0.0
 11
1508.419835151107
 21
324.5870654848305
 31
0.0
  0
LINE
  5
14D06
330
1F
100
AcDbEntity
  8
AM_VIS
100
AcDbLine
 10
1505.388746237862
 20
324.5870654848305
 30
0.0
 11
1505.388746237862
 21
330.0870654848305
 31
0.0
  0
LINE
  5
14D07
330
1F
100
AcDbEntity
  8
AM_VIS
100
AcDbLine
 10
1505.571758939754
 20
330.0870654848305
 30
0.0
 11
1505.571758939754
 21
324.5870654848305
 31
0.0
  0
LINE
  5
14D08
330
1F
100
AcDbEntity
  8
AM_VIS
100
AcDbLine
 10
1507.736822449215
 20
330.0870654848305
 30
0.0
 11
1507.736822449215
 21
324.5870654848305
 31
0.0
  0
LINE
  5
14D09
330
1F
100
AcDbEntity
  8
AM_VIS
100
AcDbLine
 10
1507.736822449215
 20
324.5870654848305
 30
0.0
 11
1505.571758939754
 21
324.5870654848304
 31
0.0
  0
LINE
  5
14D0A
330
1F
100
AcDbEntity
  8
AM_VIS
100
AcDbLine
 10
1505.571758939754
 20
324.5870654848305
 30
0.0
 11
1505.388746237862
 21
324.5870654848304
 31
0.0
  0
LINE
  5
14D0B
330
1F
100
AcDbEntity
  8
AM_VIS
100
AcDbLine
 10
1509.654290694484
 20
324.5870654848305
 30
0.0
 11
1509.654290694484
 21
322.9870654848305
 31
0.0
  0
LINE
  5
14D0C
330
1F
100
AcDbEntity
  8
AM_VIS
100
AcDbLine
 10
1508.419835151107
 20
324.5870654848305
 30
0.0
 11
1510.904290694484
 21
324.5870654848305
 31
0.0
  0
LINE
  5
14D0D
330
1F
100
AcDbEntity
  8
AM_VIS
100
AcDbLine
 10
1508.419835151107
 20
324.5870654848305
 30
0.0
 11
1507.736822449215
 21
324.5870654848305
 31
0.0
  0
LINE
  5
14D0E
330
1F
100
AcDbEntity
  8
AM_VIS
100
AcDbLine
 10
1505.571758939754
 20
330.0870654848305
 30
0.0
 11
1507.736822449215
 21
330.0870654848305
 31
0.0
  0
LINE
  5
14D0F
330
1F
100
AcDbEntity
  8
AM_VIS
100
AcDbLine
 10
1505.388746237862
 20
330.0870654848305
 30
0.0
 11
1505.571758939754
 21
330.0870654848305
 31
0.0
  0
LINE
  5
14D10
330
1F
100
AcDbEntity
  8
AM_VIS
100
AcDbLine
 10
1508.419835151107
 20
330.0870654848305
 30
0.0
 11
1510.904290694484
 21
330.0870654848305
 31
0.0
  0
LINE
  5
14D11
330
1F
100
AcDbEntity
  8
AM_VIS
100
AcDbLine
 10
1507.736822449215
 20
330.0870654848305
 30
0.0
 11
1508.419835151107
 21
330.0870654848305
 31
0.0
  0
LINE
  5
14D12
330
1F
100
AcDbEntity
  8
AM_VIS
100
AcDbLine
 10
1512.320684137107
 20
317.3370654848305
 30
0.0
 11
1512.320684137107
 21
318.4870654848305
 31
0.0
  0
LINE
  5
14D13
330
1F
100
AcDbEntity
  8
AM_VIS
100
AcDbLine
 10
1512.320684137107
 20
317.3370654848305
 30
0.0
 11
1511.904290694484
 21
317.3370654848305
 31
0.0
  0
LINE
  5
14D14
330
1F
100
AcDbEntity
  8
AM_VIS
100
AcDbLine
 10
1511.904290694484
 20
315.8370654848305
 30
0.0
 11
1512.320684137107
 21
315.8370654848305
 31
0.0
  0
LINE
  5
14D15
330
1F
100
AcDbEntity
  8
AM_VIS
100
AcDbLine
 10
1512.320684137107
 20
312.9870654848305
 30
0.0
 11
1511.904290694484
 21
312.9870654848305
 31
0.0
  0
LINE
  5
14D16
330
1F
100
AcDbEntity
  8
AM_VIS
100
AcDbLine
 10
1512.320684137107
 20
312.9870654848305
 30
0.0
 11
1512.320684137107
 21
315.8370654848305
 31
0.0
  0
ARC
  5
14D17
330
1F
100
AcDbEntity
  8
AM_VIS
100
AcDbCircle
 10
1517.16833031618
 20
279.7910008189745
 30
0.0
 40
33.54815021394129
100
AcDbArc
 50
98.30822018114277
 51
99.02758573914262
  0
LINE
  5
14D18
330
1F
100
AcDbEntity
  8
AM_VIS
100
AcDbLine
 10
1512.320684137107
 20
318.4870654848305
 30
0.0
 11
1511.904290694484
 21
318.4870654848305
 31
0.0
  0
LINE
  5
14D19
330
1F
100
AcDbEntity
  8
AM_VIS
100
AcDbLine
 10
1511.904290694484
 20
318.9870654848305
 30
0.0
 11
1512.054290694484
 21
318.9870654848305
 31
0.0
  0
SPLINE
  5
14D1A
330
1F
100
AcDbEntity
  8
AM_VIS
100
AcDbSpline
210
0.0
220
0.0
230
1.0
 70
     8
 71
     3
 72
     8
 73
     4
 74
     0
 42
0.0000000001
 43
0.0000000001
 40
1.63015580392704
 40
1.63015580392704
 40
1.63015580392704
 40
1.63015580392704
 40
2.566002662427006
 40
2.566002662427006
 40
2.566002662427006
 40
2.566002662427006
 10
1512.320684137107
 20
318.4870654848305
 30
0.0
 10
1512.222399310225
 20
318.6669267180257
 30
0.0
 10
1512.132698994025
 20
318.8360263393991
 30
0.0
 10
1512.054290694484
 20
318.9870654848305
 30
0.0
  0
LINE
  5
153E1
330
1F
100
AcDbEntity
  8
AM_7
  6
AM_ISO08W050X2
100
AcDbLine
 10
1339.581540663653
 20
404.2593273427424
 30
0.0
 11
1346.331540663653
 21
404.2593273427424
 31
0.0
1001
GENIUS_GENOREF_13
1005
153E5
  0
LINE
  5
153E2
330
1F
100
AcDbEntity
  8
AM_7
  6
AM_ISO08W050X2
100
AcDbLine
 10
1339.581540663653
 20
404.2593273427424
 30
0.0
 11
1339.581540663653
 21
411.0093273427424
 31
0.0
1001
GENIUS_GENOREF_13
1005
153E5
  0
LINE
  5
153E3
330
1F
100
AcDbEntity
  8
AM_7
  6
AM_ISO08W050X2
100
AcDbLine
 10
1339.581540663653
 20
404.2593273427424
 30
0.0
 11
1332.831540663653
 21
404.2593273427424
 31
0.0
1001
GENIUS_GENOREF_13
1005
153E5
  0
LINE
  5
153E4
330
1F
100
AcDbEntity
  8
AM_7
  6
AM_ISO08W050X2
100
AcDbLine
 10
1339.581540663653
 20
404.2593273427424
 30
0.0
 11
1339.581540663653
 21
397.5093273427424
 31
0.0
1001
GENIUS_GENOREF_13
1005
153E5
  0
POINT
  5
153E5
330
1F
100
AcDbEntity
  8
0
 60
     1
100
AcDbPoint
 10
0.0
 20
0.0
 30
0.0
1001
GENIUS_GENOBJ-N-CRS_13
1002
{
1000
OWNER
1000
GEN
1002
}
1001
GENIUS_GENOENT_13
1002
{
1000
MYREF
1005
153E5
1002
}
1002
{
1000
GRP
1005
0
1002
}
1001
GENIUS_GENOLIS_13
1002
{
1000
ENT
1005
153E4
1005
153E3
1005
153E2
1005
153E1
1002
}
1001
GENIUS_GENODEF_13
1002
{
1000
HIER
1070
    10
1002
}
1002
{
1000
MANEDIT
1070
     0
1002
}
1002
{
1000
NOSEL
1070
     0
1002
}
1002
{
1000
BEHIND
1070
     0
1002
}
1002
{
1000
OTHER
1070
     0
1002
}
1002
{
1000
REACTOR
1002
}
  0
LINE
  5
153F3
330
1F
100
AcDbEntity
  8
AM_7
  6
AM_ISO08W050X2
100
AcDbLine
 10
1357.581540663653
 20
404.2593273427424
 30
0.0
 11
1364.331540663653
 21
404.2593273427424
 31
0.0
1001
GENIUS_GENOREF_13
1005
153F7
  0
LINE
  5
153F4
330
1F
100
AcDbEntity
  8
AM_7
  6
AM_ISO08W050X2
100
AcDbLine
 10
1357.581540663653
 20
404.2593273427424
 30
0.0
 11
1357.581540663653
 21
411.0093273427424
 31
0.0
1001
GENIUS_GENOREF_13
1005
153F7
  0
LINE
  5
153F5
330
1F
100
AcDbEntity
  8
AM_7
  6
AM_ISO08W050X2
100
AcDbLine
 10
1357.581540663653
 20
404.2593273427424
 30
0.0
 11
1350.831540663653
 21
404.2593273427424
 31
0.0
1001
GENIUS_GENOREF_13
1005
153F7
  0
LINE
  5
153F6
330
1F
100
AcDbEntity
  8
AM_7
  6
AM_ISO08W050X2
100
AcDbLine
 10
1357.581540663653
 20
404.2593273427424
 30
0.0
 11
1357.581540663653
 21
397.5093273427424
 31
0.0
1001
GENIUS_GENOREF_13
1005
153F7
  0
POINT
  5
153F7
330
1F
100
AcDbEntity
  8
0
 60
     1
100
AcDbPoint
 10
0.0
 20
0.0
 30
0.0
1001
GENIUS_GENOENT_13
1002
{
1000
MYREF
1005
153F7
1002
}
1002
{
1000
GRP
1005
0
1002
}
1001
GENIUS_GENOBJ-N-CRS_13
1002
{
1000
OWNER
1000
GEN
1002
}
1001
GENIUS_GENOLIS_13
1002
{
1000
ENT
1005
153F6
1005
153F5
1005
153F4
1005
153F3
1002
}
1001
GENIUS_GENODEF_13
1002
{
1000
HIER
1070
    10
1002
}
1002
{
1000
MANEDIT
1070
     0
1002
}
1002
{
1000
NOSEL
1070
     0
1002
}
1002
{
1000
BEHIND
1070
     0
1002
}
1002
{
1000
OTHER
1070
     0
1002
}
1002
{
1000
REACTOR
1002
}
  0
LINE
  5
15405
330
1F
100
AcDbEntity
  8
AM_7
  6
AM_ISO08W050X2
100
AcDbLine
 10
1330.581540663652
 20
376.2593273427424
 30
0.0
 11
1337.331540663653
 21
376.2593273427424
 31
0.0
1001
GENIUS_GENOREF_13
1005
15409
  0
LINE
  5
15406
330
1F
100
AcDbEntity
  8
AM_7
  6
AM_ISO08W050X2
100
AcDbLine
 10
1330.581540663652
 20
376.2593273427424
 30
0.0
 11
1330.581540663652
 21
383.0093273427424
 31
0.0
1001
GENIUS_GENOREF_13
1005
15409
  0
LINE
  5
15407
330
1F
100
AcDbEntity
  8
AM_7
  6
AM_ISO08W050X2
100
AcDbLine
 10
1330.581540663652
 20
376.2593273427424
 30
0.0
 11
1323.831540663653
 21
376.2593273427424
 31
0.0
1001
GENIUS_GENOREF_13
1005
15409
  0
LINE
  5
15408
330
1F
100
AcDbEntity
  8
AM_7
  6
AM_ISO08W050X2
100
AcDbLine
 10
1330.581540663652
 20
376.2593273427424
 30
0.0
 11
1330.581540663652
 21
369.5093273427424
 31
0.0
1001
GENIUS_GENOREF_13
1005
15409
  0
POINT
  5
15409
330
1F
100
AcDbEntity
  8
0
 60
     1
100
AcDbPoint
 10
0.0
 20
0.0
 30
0.0
1001
GENIUS_GENOLIS_13
1002
{
1000
ENT
1005
15408
1005
15407
1005
15406
1005
15405
1002
}
1001
GENIUS_GENOENT_13
1002
{
1000
MYREF
1005
15409
1002
}
1002
{
1000
GRP
1005
0
1002
}
1001
GENIUS_GENODEF_13
1002
{
1000
HIER
1070
    10
1002
}
1002
{
1000
MANEDIT
1070
     0
1002
}
1002
{
1000
NOSEL
1070
     0
1002
}
1002
{
1000
BEHIND
1070
     0
1002
}
1002
{
1000
OTHER
1070
     0
1002
}
1002
{
1000
REACTOR
1002
}
1001
GENIUS_GENOBJ-N-CRS_13
1002
{
1000
OWNER
1000
GEN
1002
}
  0
LINE
  5
15417
330
1F
100
AcDbEntity
  8
AM_7
100
AcDbLine
 10
1430.081540663652
 20
384.7593273427424
 30
0.0
 11
1441.081540663653
 21
384.7593273427424
 31
0.0
1001
GENIUS_GENOREF_13
1005
1541B
  0
LINE
  5
15418
330
1F
100
AcDbEntity
  8
AM_7
100
AcDbLine
 10
1430.081540663652
 20
384.7593273427424
 30
0.0
 11
1430.081540663652
 21
395.7593273427423
 31
0.0
1001
GENIUS_GENOREF_13
1005
1541B
  0
LINE
  5
15419
330
1F
100
AcDbEntity
  8
AM_7
100
AcDbLine
 10
1430.081540663652
 20
384.7593273427424
 30
0.0
 11
1419.081540663652
 21
384.7593273427424
 31
0.0
1001
GENIUS_GENOREF_13
1005
1541B
  0
LINE
  5
1541A
330
1F
100
AcDbEntity
  8
AM_7
100
AcDbLine
 10
1430.081540663652
 20
384.7593273427424
 30
0.0
 11
1430.081540663652
 21
373.7593273427423
 31
0.0
1001
GENIUS_GENOREF_13
1005
1541B
  0
POINT
  5
1541B
330
1F
100
AcDbEntity
  8
0
 60
     1
100
AcDbPoint
 10
0.0
 20
0.0
 30
0.0
1001
GENIUS_GENOBJ-N-CRS_13
1002
{
1000
OWNER
1000
GEN
1002
}
1001
GENIUS_GENODEF_13
1002
{
1000
HIER
1070
    10
1002
}
1002
{
1000
MANEDIT
1070
     0
1002
}
1002
{
1000
NOSEL
1070
     0
1002
}
1002
{
1000
BEHIND
1070
     0
1002
}
1002
{
1000
OTHER
1070
     0
1002
}
1002
{
1000
REACTOR
1002
}
1001
GENIUS_GENOENT_13
1002
{
1000
MYREF
1005
1541B
1002
}
1002
{
1000
GRP
1005
0
1002
}
1001
GENIUS_GENOLIS_13
1002
{
1000
ENT
1005
1541A
1005
15419
1005
15418
1005
15417
1002
}
  0
DIMENSION
  5
154AC
330
1F
100
AcDbEntity
  8
AM_5
100
AcDbDimension
  2
*D2
 10
1339.581540663653
 20
424.8843273427424
 30
0.0
 11
1325.331540663652
 21
428.0722579529786
 31
0.0
 70
    32
  3
STANDARD
100
AcDbAlignedDimension
 13
1311.081540663653
 23
412.7593273427424
 33
0.0
 14
1339.581540663653
 24
411.0093273427424
 34
0.0
100
AcDbRotatedDimension
1001
ACAD
1000
DSTYLE
1002
{
1070
    40
1040
1.25
1002
}
  0
DIMENSION
  5
154D0
330
1F
100
AcDbEntity
  8
AM_5
100
AcDbDimension
  2
*D3
 10
1357.581540663653
 20
424.8843273427424
 30
0.0
 11
1348.581540663652
 21
428.0718273427424
 31
0.0
 70
    32
  3
STANDARD
100
AcDbAlignedDimension
 13
1339.581540663653
 23
411.0093273427424
 33
0.0
 14
1357.581540663653
 24
411.0093273427424
 34
0.0
100
AcDbRotatedDimension
1001
ACAD
1000
DSTYLE
1002
{
1070
    40
1040
1.25
1002
}
  0
DIMENSION
  5
154F4
330
1F
100
AcDbEntity
  8
AM_5
100
AcDbDimension
  2
*D4
 10
1299.081540663653
 20
376.2593273427424
 30
0.0
 11
1295.893610053416
 21
390.2593273427426
 31
0.0
 70
    32
  3
STANDARD
100
AcDbAlignedDimension
 13
1332.831540663653
 23
404.2593273427424
 33
0.0
 14
1323.831540663653
 24
376.2593273427424
 34
0.0
 50
90.0
100
AcDbRotatedDimension
1001
ACAD
1000
DSTYLE
1002
{
1070
    40
1040
1.25
1002
}
  0
DIMENSION
  5
15518
330
1F
100
AcDbEntity
  8
AM_5
100
AcDbDimension
  2
*D5
 10
1289.081540663653
 20
367.7593273427424
 30
0.0
 11
1285.894040663652
 21
390.2593273427426
 31
0.0
 70
    32
  3
STANDARD
100
AcDbAlignedDimension
 13
1311.081540663653
 23
412.7593273427424
 33
0.0
 14
1311.081540663653
 24
367.7593273427424
 34
0.0
 50
90.0
100
AcDbRotatedDimension
1001
ACAD
1000
DSTYLE
1002
{
1070
    40
1040
1.25
1002
}
  0
DIMENSION
  5
1553C
330
1F
100
AcDbEntity
  8
AM_5
100
AcDbDimension
  2
*D6
 10
1330.581540663652
 20
355.7593273427424
 30
0.0
 11
1320.831540663653
 21
358.9468273427423
 31
0.0
 70
    32
  3
STANDARD
100
AcDbAlignedDimension
 13
1311.081540663653
 23
367.7593273427424
 33
0.0
 14
1330.581540663652
 24
369.5093273427424
 34
0.0
 50
0.0000000000001018
100
AcDbRotatedDimension
1001
ACAD
1000
DSTYLE
1002
{
1070
    40
1040
1.25
1002
}
  0
LINE
  5
1557C
330
1F
100
AcDbEntity
  8
AM_7
  6
AM_ISO08W050X2
100
AcDbLine
 10
1366.581540663653
 20
376.2593273427424
 30
0.0
 11
1373.331540663653
 21
376.2593273427424
 31
0.0
1001
GENIUS_GENOREF_13
1005
15580
  0
LINE
  5
1557D
330
1F
100
AcDbEntity
  8
AM_7
  6
AM_ISO08W050X2
100
AcDbLine
 10
1366.581540663653
 20
376.2593273427424
 30
0.0
 11
1366.581540663653
 21
383.0093273427424
 31
0.0
1001
GENIUS_GENOREF_13
1005
15580
  0
LINE
  5
1557E
330
1F
100
AcDbEntity
  8
AM_7
  6
AM_ISO08W050X2
100
AcDbLine
 10
1366.581540663653
 20
376.2593273427424
 30
0.0
 11
1359.831540663653
 21
376.2593273427424
 31
0.0
1001
GENIUS_GENOREF_13
1005
15580
  0
LINE
  5
1557F
330
1F
100
AcDbEntity
  8
AM_7
  6
AM_ISO08W050X2
100
AcDbLine
 10
1366.581540663653
 20
376.2593273427424
 30
0.0
 11
1366.581540663653
 21
369.5093273427424
 31
0.0
1001
GENIUS_GENOREF_13
1005
15580
  0
POINT
  5
15580
330
1F
100
AcDbEntity
  8
0
 60
     1
100
AcDbPoint
 10
0.0
 20
0.0
 30
0.0
1001
GENIUS_GENOLIS_13
1002
{
1000
ENT
1005
1557F
1005
1557E
1005
1557D
1005
1557C
1002
}
1001
GENIUS_GENODEF_13
1002
{
1000
HIER
1070
    10
1002
}
1002
{
1000
MANEDIT
1070
     0
1002
}
1002
{
1000
NOSEL
1070
     0
1002
}
1002
{
1000
BEHIND
1070
     0
1002
}
1002
{
1000
OTHER
1070
     0
1002
}
1002
{
1000
REACTOR
1002
}
1001
GENIUS_GENOENT_13
1002
{
1000
MYREF
1005
15580
1002
}
1002
{
1000
GRP
1005
0
1002
}
1001
GENIUS_GENOBJ-N-CRS_13
1002
{
1000
OWNER
1000
GEN
1002
}
  0
DIMENSION
  5
15590
330
1F
100
AcDbEntity
  8
AM_5
100
AcDbDimension
  2
*D7
 10
1366.581540663653
 20
355.7593273427424
 30
0.0
 11
1348.581540663652
 21
358.9468273427424
 31
0.0
 70
    32
  3
STANDARD
100
AcDbAlignedDimension
 13
1330.581540663652
 23
369.5093273427424
 33
0.0
 14
1366.581540663653
 24
369.5093273427424
 34
0.0
 50
0.0000000000001018
100
AcDbRotatedDimension
1001
ACAD
1000
DSTYLE
1002
{
1070
    40
1040
1.25
1002
}
  0
DIMENSION
  5
155B4
330
1F
100
AcDbEntity
  8
AM_5
100
AcDbDimension
  2
*D8
 10
1402.081540663653
 20
345.7593273427424
 30
0.0
 11
1356.581540663652
 21
348.9468273427425
 31
0.0
 70
    32
  3
STANDARD
100
AcDbAlignedDimension
 13
1311.081540663653
 23
367.7593273427424
 33
0.0
 14
1402.081540663653
 24
367.7593273427424
 34
0.0
 50
0.0000000000001018
100
AcDbRotatedDimension
1001
ACAD
1000
DSTYLE
1002
{
1070
    40
1040
1.25
1002
}
  0
DIMENSION
  5
155D8
330
1F
100
AcDbEntity
  8
AM_5
100
AcDbDimension
  2
*D9
 10
1299.081540663652
 20
264.4870654848305
 30
0.0
 11
1295.893610053416
 21
251.4870654848307
 31
0.0
 70
    32
  3
STANDARD
100
AcDbAlignedDimension
 13
1311.081540663653
 23
238.4870654848305
 33
0.0
 14
1311.081540663653
 24
264.4870654848305
 34
0.0
 50
90.0
100
AcDbRotatedDimension
1001
ACAD
1000
DSTYLE
1002
{
1070
    40
1040
1.25
1002
}
  0
DIMENSION
  5
155FC
330
1F
100
AcDbEntity
  8
AM_5
100
AcDbDimension
  2
*D10
 10
1289.081540663652
 20
318.9870654848305
 30
0.0
 11
1285.894040663652
 21
278.7370654848308
 31
0.0
 70
    32
  3
STANDARD
100
AcDbAlignedDimension
 13
1311.081540663653
 23
238.4870654848305
 33
0.0
 14
1381.581540663652
 24
318.9870654848305
 34
0.0
 50
90.0
100
AcDbRotatedDimension
1001
ACAD
1000
DSTYLE
1002
{
1070
    40
1040
1.25
1002
}
  0
DIMENSION
  5
15620
330
1F
100
AcDbEntity
  8
AM_5
100
AcDbDimension
  2
*D11
 10
1439.081540663652
 20
226.4870654848306
 30
0.0
 11
1375.081540663653
 21
229.6749960950668
 31
0.0
 70
    32
  3
STANDARD
100
AcDbAlignedDimension
 13
1311.081540663653
 23
238.4870654848305
 33
0.0
 14
1439.081540663652
 24
310.9870654848305
 34
0.0
 50
0.0000000000001018
100
AcDbRotatedDimension
1001
ACAD
1000
DSTYLE
1002
{
1070
    40
1040
1.25
1002
}
  0
DIMENSION
  5
15644
330
1F
100
AcDbEntity
  8
AM_5
100
AcDbDimension
  2
*D12
 10
1473.904290694484
 20
330.0870654848305
 30
0.0
 11
1470.715302736393
 21
284.2870654848307
 31
0.0
 70
    32
  3
STANDARD
100
AcDbAlignedDimension
 13
1485.904290694484
 23
238.4870654848305
 33
0.0
 14
1494.904290694484
 24
330.0870654848305
 34
0.0
 50
90.0
100
AcDbRotatedDimension
1001
ACAD
1000
DSTYLE
1002
{
1070
    40
1040
1.25
1070
   271
1070
     0
1002
}
  0
DIMENSION
  5
1568C
330
1F
100
AcDbEntity
  8
AM_5
100
AcDbDimension
  2
*D13
 10
1451.071296706737
 20
373.7593273427423
 30
0.0
 11
1447.883796706737
 21
370.7593273427426
 31
0.0
 70
    32
  3
STANDARD
100
AcDbAlignedDimension
 13
1402.081540663653
 23
367.7593273427424
 33
0.0
 14
1408.581540663652
 24
373.7593273427423
 34
0.0
 50
90.0
100
AcDbRotatedDimension
1001
ACAD
1000
DSTYLE
1002
{
1070
    40
1040
1.25
1070
   173
1070
     1
1070
     7
1000
GENDOT
1002
}
  0
DIMENSION
  5
1577C
330
1F
100
AcDbEntity
  8
AM_5
100
AcDbDimension
  2
*D14
 10
1451.071296706737
 20
373.7593273427423
 30
0.0
 11
1447.8833660965
 21
384.7593273427426
 31
0.0
 70
    32
  3
STANDARD
100
AcDbAlignedDimension
 13
1408.581540663652
 23
395.7593273427423
 33
0.0
 14
1408.581540663652
 24
373.7593273427423
 34
0.0
 50
90.0
100
AcDbRotatedDimension
1001
ACAD
1000
DSTYLE
1002
{
1070
    40
1040
1.25
1070
   173
1070
     1
1070
     7
1000
GENDOT
1002
}
  0
TEXT
  5
15947
330
1F
100
AcDbEntity
  8
圖層4
 62
     5
100
AcDbText
 10
1377.325343241376
 20
425.9907998946518
 30
0.0
 40
4.4
  1
4-%%c5.2 通孔
 41
0.9
100
AcDbText
  0
INSERT
  5
15948
330
1F
100
AcDbEntity
  8
AM_5
100
AcDbBlockReference
  2
*S16
 10
0.0
 20
0.0
 30
0.0
  0
TEXT
  5
1594A
330
1F
100
AcDbEntity
  8
圖層4
 62
     5
100
AcDbText
 10
1377.325343241376
 20
418.9132195055883
 30
0.0
 40
4.4
  1
4-%%c9.5x7 深
 41
0.9
100
AcDbText
  0
POLYLINE
  5
1643F
330
1F
100
AcDbEntity
  8
0
 62
     4
100
AcDb2dPolyline
 66
     1
 10
0.0
 20
0.0
 30
0.0
 70
     1
  0
VERTEX
  5
168A1
330
1643F
100
AcDbEntity
  8
0
 62
     4
100
AcDbVertex
100
AcDb2dVertex
 10
1261.440412984887
 20
489.4983489988332
 30
0.0
  0
VERTEX
  5
168A2
330
1643F
100
AcDbEntity
  8
0
 62
     4
100
AcDbVertex
100
AcDb2dVertex
 10
1552.756159033255
 20
489.4983489988332
 30
0.0
  0
VERTEX
  5
168A3
330
1643F
100
AcDbEntity
  8
0
 62
     4
100
AcDbVertex
100
AcDb2dVertex
 10
1552.756159033255
 20
211.6709020622703
 30
0.0
  0
VERTEX
  5
168A4
330
1643F
100
AcDbEntity
  8
0
 62
     4
100
AcDbVertex
100
AcDb2dVertex
 10
1261.440412984887
 20
211.6709020622703
 30
0.0
  0
SEQEND
  5
168A5
330
1643F
100
AcDbEntity
  8
0
 62
     4
  0
LINE
  5
16440
330
1F
100
AcDbEntity
  8
0
100
AcDbLine
 10
1460.482597629992
 20
466.5262202527117
 30
0.0
 11
1462.761699416678
 21
470.405512016083
 31
0.0
  0
TEXT
  5
16441
330
1F
100
AcDbEntity
  8
0
100
AcDbText
 10
1269.427271063675
 20
465.9488227279157
 30
0.0
 40
10.0
  1
MVSI-450-4E1
  7
ROMAND
100
AcDbText
  0
LINE
  5
16442
330
1F
100
AcDbEntity
  8
0
100
AcDbLine
 10
1460.482597629992
 20
466.5262202527117
 30
0.0
 11
1458.203495843307
 21
470.405512016083
 31
0.0
  0
LINE
  5
16443
330
1F
100
AcDbEntity
  8
0
100
AcDbLine
 10
1455.924394056621
 20
466.5262202527117
 30
0.0
 11
1458.203495843307
 21
470.405512016083
 31
0.0
  0
LINE
  5
16444
330
1F
100
AcDbEntity
  8
0
 62
     7
100
AcDbLine
 10
1465.040801203364
 20
474.8348361284504
 30
0.0
 11
1524.992518712656
 21
474.8348361284504
 31
0.0
  0
LINE
  5
16445
330
1F
100
AcDbEntity
  8
0
 62
     7
100
AcDbLine
 10
1465.040801203363
 20
458.9782280489491
 30
0.0
 11
1510.90870486986
 21
458.9782280489496
 31
0.0
  0
TEXT
  5
16446
330
1F
100
AcDbEntity
  8
0
 62
     7
100
AcDbText
 10
1477.567537272651
 20
475.9821215027971
 30
0.0
 40
5.76
  1
B
  7
ROMANS
100
AcDbText
  0
LINE
  5
16447
330
1F
100
AcDbEntity
  8
0
 62
     7
100
AcDbLine
 10
1481.03562523883
 20
464.5419608083746
 30
0.0
 11
1478.277657609022
 21
474.83483612845
 31
0.0
  0
LINE
  5
16448
330
1F
100
AcDbEntity
  8
0
 62
     7
100
AcDbLine
 10
1473.574587950597
 20
469.271103369025
 30
0.0
 11
1476.332555580405
 21
458.9782280489491
 31
0.0
  0
LINE
  5
16449
330
1F
100
AcDbEntity
  8
0
100
AcDbLine
 10
1465.040801203364
 20
466.5262202527117
 30
0.0
 11
1462.761699416678
 21
470.405512016083
 31
0.0
  0
LINE
  5
1644A
330
1F
100
AcDbEntity
  8
0
 62
     7
100
AcDbLine
 10
1465.040801203364
 20
474.8348361284504
 30
0.0
 11
1465.040801203363
 21
458.9782280489491
 31
0.0
  0
LINE
  5
1644B
330
1F
100
AcDbEntity
  8
0
 62
     7
100
AcDbLine
 10
1472.451209665243
 20
462.1978412088667
 30
0.0
 11
1468.185599118074
 21
462.1978412088667
 31
0.0
  0
TEXT
  5
1644C
330
1F
100
AcDbEntity
  8
0
 62
     7
100
AcDbText
 10
1464.573529566597
 20
451.8014851616724
 30
0.0
 40
5.76
  1
R
  7
ROMANS
100
AcDbText
  0
TEXT
  5
1644D
330
1F
100
AcDbEntity
  8
0
 62
     7
100
AcDbText
 10
1473.538999929133
 20
451.7842122937966
 30
0.0
 40
5.76
  1
P
  7
ROMANS
100
AcDbText
  0
TEXT
  5
1644E
330
1F
100
AcDbEntity
  8
0
 62
     7
100
AcDbText
 10
1469.834959257594
 20
452.0854059184436
 30
0.0
 40
3.839999999999999
  1
1
  7
ROMANS
100
AcDbText
  0
LINE
  5
1644F
330
1F
100
AcDbEntity
  8
0
 62
     7
100
AcDbLine
 10
1470.318404391659
 20
462.1978412088667
 30
0.0
 11
1470.318404391659
 21
458.9782280489496
 31
0.0
  0
TEXT
  5
16450
330
1F
100
AcDbEntity
  8
0
 62
     7
100
AcDbText
 10
1466.627293702509
 20
475.8547035714321
 30
0.0
 40
5.76
  1
A
  7
ROMANS
100
AcDbText
  0
SOLID
  5
16451
330
1F
100
AcDbEntity
  8
0
 62
     7
100
AcDbTrace
 10
1472.647299157359
 20
469.0226370857269
 30
0.0
 11
1474.501876743834
 21
469.5195696523235
 31
0.0
 12
1472.083790250806
 22
474.83483612845
 32
0.0
 13
1472.083790250806
 23
474.83483612845
 33
0.0
  0
LINE
  5
16452
330
1F
100
AcDbEntity
  8
0
 62
     7
100
AcDbLine
 10
1487.974753036612
 20
474.8348361284504
 30
0.0
 11
1487.974753036612
 21
458.9782280489491
 31
0.0
  0
LINE
  5
16453
330
1F
100
AcDbEntity
  8
0
 62
     7
100
AcDbLine
 10
1493.275540096659
 20
464.7382280489494
 30
0.0
 11
1493.275540096659
 21
474.83483612845
 31
0.0
  0
TEXT
  5
16454
330
1F
100
AcDbEntity
  8
0
 62
     7
100
AcDbText
 10
1486.462549665645
 20
451.7523555637687
 30
0.0
 40
3.839999999999999
  1
2
  7
ROMANS
100
AcDbText
  0
TEXT
  5
16455
330
1F
100
AcDbEntity
  8
0
 62
     7
100
AcDbText
 10
1480.332219763301
 20
451.6704788930931
 30
0.0
 40
5.76
  1
R
  7
ROMANS
100
AcDbText
  0
SOLID
  5
16456
330
1F
100
AcDbEntity
  8
0
 62
     7
100
AcDbTrace
 10
1480.108336445593
 20
464.293494525076
 30
0.0
 11
1481.962914032068
 21
464.7904270916731
 31
0.0
 12
1482.526422938621
 22
458.9782280489496
 32
0.0
 13
1482.526422938621
 23
458.9782280489496
 33
0.0
  0
SOLID
  5
16457
330
1F
100
AcDbEntity
  8
0
 62
     7
100
AcDbTrace
 10
1494.235540096659
 20
464.7382280489494
 30
0.0
 11
1492.315540096659
 21
464.7382280489494
 31
0.0
 12
1493.275540096659
 22
458.9782280489496
 32
0.0
 13
1493.275540096659
 23
458.9782280489496
 33
0.0
  0
LINE
  5
16458
330
1F
100
AcDbEntity
  8
0
 62
     7
100
AcDbLine
 10
1511.999592113866
 20
470.8706841085747
 30
0.0
 11
1516.216606998694
 21
474.8348361284504
 31
0.0
  0
LINE
  5
16459
330
1F
100
AcDbEntity
  8
0
 62
     7
100
AcDbLine
 10
1511.999592113866
 20
470.8706841085747
 30
0.0
 11
1516.216606998694
 21
466.9065320886991
 31
0.0
  0
LINE
  5
1645A
330
1F
100
AcDbEntity
  8
0
 62
     7
100
AcDbLine
 10
1510.90870486986
 20
466.9065320887
 30
0.0
 11
1524.992518712656
 21
466.9065320887
 31
0.0
  0
LINE
  5
1645B
330
1F
100
AcDbEntity
  8
0
 62
     7
100
AcDbLine
 10
1510.90870486986
 20
474.8348361284504
 30
0.0
 11
1510.90870486986
 21
458.9782280489491
 31
0.0
  0
LINE
  5
1645C
330
1F
100
AcDbEntity
  8
0
 62
     7
100
AcDbLine
 10
1499.894590945716
 20
469.0748361284502
 30
0.0
 11
1499.894590945716
 21
458.9782280489496
 31
0.0
  0
LINE
  5
1645D
330
1F
100
AcDbEntity
  8
0
 62
     7
100
AcDbLine
 10
1503.49829640798
 20
462.1978412088667
 30
0.0
 11
1507.76390695515
 21
462.1978412088667
 31
0.0
  0
LINE
  5
1645E
330
1F
100
AcDbEntity
  8
0
 62
     7
100
AcDbLine
 10
1505.631101681565
 20
462.1978412088667
 30
0.0
 11
1505.631101681565
 21
458.9782280489496
 31
0.0
  0
SOLID
  5
1645F
330
1F
100
AcDbEntity
  8
0
 62
     7
100
AcDbTrace
 10
1500.854590945716
 20
469.0748361284502
 30
0.0
 11
1498.934590945716
 21
469.0748361284502
 31
0.0
 12
1499.894590945716
 22
474.83483612845
 32
0.0
 13
1499.894590945716
 23
474.83483612845
 33
0.0
  0
LINE
  5
16460
330
1F
100
AcDbEntity
  8
0
 62
     7
100
AcDbLine
 10
1524.992518712656
 20
466.9065320887
 30
0.0
 11
1524.992518712656
 21
474.8348361284504
 31
0.0
  0
LINE
  5
16461
330
1F
100
AcDbEntity
  8
0
 62
     7
100
AcDbLine
 10
1518.496055413261
 20
474.8348361284504
 30
0.0
 11
1522.156987715445
 21
466.9065320887
 31
0.0
  0
LINE
  5
16462
330
1F
100
AcDbEntity
  8
0
 62
     7
100
AcDbLine
 10
1516.216606998694
 20
474.8348361284504
 30
0.0
 11
1516.216606998694
 21
466.9065320886991
 31
0.0
  0
LINE
  5
16463
330
1F
100
AcDbEntity
  8
LOGO
 62
     6
100
AcDbLine
 10
1477.649617312107
 20
194.4458008955101
 30
0.0
 11
1486.715460031454
 21
194.4458008955101
 31
0.0
  0
LINE
  5
16464
330
1F
100
AcDbEntity
  8
LOGO
 62
     1
100
AcDbLine
 10
1552.756159033255
 20
175.4075311848801
 30
0.0
 11
1261.440412984887
 21
175.4075311848801
 31
0.0
  0
LINE
  5
16465
330
1F
100
AcDbEntity
  8
LOGO
 62
     1
100
AcDbLine
 10
1552.756159033255
 20
211.6709020622703
 30
0.0
 11
1261.440412984887
 21
211.6709020622703
 31
0.0
  0
TEXT
  5
16466
330
1F
100
AcDbEntity
  8
LOGO
  6
CONTINUOUS
 62
     6
100
AcDbText
 10
1473.418890709745
 20
180.4441104734067
 30
0.0
 40
3.021947573115846
  1
Single solenoid
 41
0.8
  7
CHINESET
 72
     4
 11
1486.715460031454
 21
181.4514263311119
 31
0.0
100
AcDbText
  0
LINE
  5
16467
330
1F
100
AcDbEntity
  8
LOGO
 62
     6
100
AcDbLine
 10
1482.882674461058
 20
208.0445649745314
 30
0.0
 11
1472.416560163156
 21
208.0445649745314
 31
0.0
  0
TEXT
  5
16468
330
1F
100
AcDbEntity
  8
LOGO
 62
     6
100
AcDbText
 10
1480.278711700718
 20
185.077763418851
 30
0.0
 40
4.835116116985354
  1
單線圈
 41
0.9
  7
CHINESET
 72
     4
 11
1486.715460031454
 21
187.4953214773436
 31
0.0
100
AcDbText
  0
LINE
  5
16469
330
1F
100
AcDbEntity
  8
LOGO
 62
     6
100
AcDbLine
 10
1501.014359899754
 20
178.4294787579961
 30
0.0
 11
1472.416560163156
 21
178.4294787579961
 31
0.0
  0
LINE
  5
1646A
330
1F
100
AcDbEntity
  8
LOGO
 62
     6
100
AcDbLine
 10
1482.882674461058
 20
197.1655537113144
 30
0.0
 11
1472.416560163156
 21
197.1655537113144
 31
0.0
  0
LINE
  5
1646B
330
1F
100
AcDbEntity
  8
LOGO
 62
     6
100
AcDbLine
 10
1501.014359899754
 20
191.7260480797058
 30
0.0
 11
1472.416560163156
 21
191.7260480797058
 31
0.0
  0
LINE
  5
1646C
330
1F
100
AcDbEntity
  8
LOGO
 62
     6
100
AcDbLine
 10
1472.416560163156
 20
208.0445649745314
 30
0.0
 11
1472.416560163156
 21
197.1655537113143
 31
0.0
  0
SOLID
  5
1646D
330
1F
100
AcDbEntity
  8
LOGO
 62
     2
100
AcDbTrace
 10
1282.99072548218
 20
210.8094789638546
 30
0.0
 11
1283.639525344933
 21
210.8094789638534
 31
0.0
 12
1282.99072548218
 22
195.9411487757634
 32
0.0
 13
1283.639525344933
 23
195.9411487757634
 33
0.0
  0
SOLID
  5
1646E
330
1F
100
AcDbEntity
  8
LOGO
 62
     2
100
AcDbTrace
 10
1274.880727197767
 20
195.9411487757639
 30
0.0
 11
1275.529527060521
 21
195.9411487757639
 31
0.0
 12
1282.99072548218
 22
210.8094789638546
 32
0.0
 13
1283.639525344933
 23
210.8094789638534
 33
0.0
  0
SOLID
  5
1646F
330
1F
100
AcDbEntity
  8
LOGO
 62
     2
100
AcDbTrace
 10
1274.880727197767
 20
210.8094789638534
 30
0.0
 11
1275.529527060521
 21
210.8094789638534
 31
0.0
 12
1274.880727197767
 22
195.9411487757639
 32
0.0
 13
1275.529527060521
 23
195.9411487757639
 33
0.0
  0
SOLID
  5
16470
330
1F
100
AcDbEntity
  8
LOGO
 62
     2
100
AcDbTrace
 10
1266.770728913354
 20
195.9411487757634
 30
0.0
 11
1267.419528776108
 21
195.9411487757639
 31
0.0
 12
1274.880727197767
 22
210.8094789638534
 32
0.0
 13
1275.529527060521
 23
210.8094789638534
 33
0.0
  0
SOLID
  5
16471
330
1F
100
AcDbEntity
  8
LOGO
 62
     5
100
AcDbTrace
 10
1283.639525344933
 20
195.9411487757634
 30
0.0
 11
1285.207458346586
 21
195.9411487757634
 31
0.0
 12
1283.639525344933
 22
210.8094789638534
 32
0.0
 13
1285.207458346586
 23
210.8094789638546
 33
0.0
  0
SOLID
  5
16472
330
1F
100
AcDbEntity
  8
LOGO
 62
     5
100
AcDbTrace
 10
1282.99072548218
 20
209.6200125488068
 30
0.0
 11
1281.422792480527
 21
203.8709248760782
 31
0.0
 12
1282.99072548218
 22
195.9411487757634
 32
0.0
 13
1281.422792480527
 23
195.9411487757634
 33
0.0
  0
SOLID
  5
16473
330
1F
100
AcDbEntity
  8
LOGO
 62
     5
100
AcDbTrace
 10
1275.529527060521
 20
195.9411487757639
 30
0.0
 11
1277.097460062173
 21
195.9411487757639
 31
0.0
 12
1282.99072548218
 22
209.6200125488068
 32
0.0
 13
1281.422792480527
 23
203.8709248760782
 33
0.0
  0
SOLID
  5
16474
330
1F
100
AcDbEntity
  8
LOGO
 62
     5
100
AcDbTrace
 10
1275.529527060521
 20
197.1306151908107
 30
0.0
 11
1277.097460062173
 21
202.8797028635392
 31
0.0
 12
1282.99072548218
 22
210.8094789638546
 32
0.0
 13
1281.422792480527
 23
210.8094789638546
 33
0.0
  0
SOLID
  5
16475
330
1F
100
AcDbEntity
  8
LOGO
 62
     5
100
AcDbTrace
 10
1275.529527060521
 20
210.8094789638534
 30
0.0
 11
1277.097460062173
 21
210.8094789638546
 31
0.0
 12
1275.529527060521
 22
197.1306151908107
 32
0.0
 13
1277.097460062173
 23
202.8797028635392
 33
0.0
  0
SOLID
  5
16476
330
1F
100
AcDbEntity
  8
LOGO
 62
     5
100
AcDbTrace
 10
1273.312794196114
 20
195.9411487757639
 30
0.0
 11
1274.880727197767
 21
195.9411487757639
 31
0.0
 12
1273.312794196114
 22
203.8709248760782
 32
0.0
 13
1274.880727197767
 23
209.6200125488068
 33
0.0
  0
SOLID
  5
16477
330
1F
100
AcDbEntity
  8
LOGO
 62
     5
100
AcDbTrace
 10
1267.419528776108
 20
195.9411487757639
 30
0.0
 11
1268.987461777761
 21
195.9411487757639
 31
0.0
 12
1274.880727197767
 22
209.6200125488068
 32
0.0
 13
1273.312794196114
 23
203.8709248760782
 33
0.0
  0
SOLID
  5
16478
330
1F
100
AcDbEntity
  8
LOGO
 62
     5
100
AcDbTrace
 10
1265.202795911701
 20
195.9411487757639
 30
0.0
 11
1266.770728913354
 21
195.9411487757634
 31
0.0
 12
1273.312794196114
 22
210.8094789638546
 32
0.0
 13
1274.880727197767
 23
210.8094789638534
 33
0.0
  0
LINE
  5
16479
330
1F
100
AcDbEntity
  8
LOGO
 62
     1
100
AcDbLine
 10
1288.033551628307
 20
189.9128795358362
 30
0.0
 11
1288.033551628307
 21
211.6709020622703
 31
0.0
  0
LINE
  5
1647A
330
1F
100
AcDbEntity
  8
LOGO
 62
     6
100
AcDbLine
 10
1471.20778113391
 20
208.0445649745314
 30
0.0
 11
1471.20778113391
 21
197.1655537113143
 31
0.0
  0
LINE
  5
1647B
330
1F
100
AcDbEntity
  8
LOGO
 62
     6
100
AcDbLine
 10
1463.888135744389
 20
208.0445649745314
 30
0.0
 11
1463.888135744389
 21
197.1655537113143
 31
0.0
  0
LINE
  5
1647C
330
1F
100
AcDbEntity
  8
LOGO
 62
     6
100
AcDbLine
 10
1420.109182808805
 20
208.0445649745313
 30
0.0
 11
1420.109182808805
 21
197.1655537113142
 31
0.0
  0
LINE
  5
1647D
330
1F
100
AcDbEntity
  8
LOGO
 62
     1
100
AcDbLine
 10
1341.219828915146
 20
175.4075311848801
 30
0.0
 11
1341.219828915146
 21
211.6709020622703
 31
0.0
  0
LINE
  5
1647E
330
1F
100
AcDbEntity
  8
LOGO
 62
     6
100
AcDbLine
 10
1455.328714205328
 20
208.0445649745314
 30
0.0
 11
1455.328714205328
 21
197.1655537113142
 31
0.0
  0
LINE
  5
1647F
330
1F
100
AcDbEntity
  8
LOGO
 62
     6
100
AcDbLine
 10
1428.668604347866
 20
208.0445649745313
 30
0.0
 11
1428.668604347866
 21
197.1655537113142
 31
0.0
  0
LINE
  5
16480
330
1F
100
AcDbEntity
  8
LOGO
 62
     6
100
AcDbLine
 10
1391.098486106893
 20
208.0445649745313
 30
0.0
 11
1391.098486106893
 21
197.1655537113142
 31
0.0
  0
TEXT
  5
16481
330
1F
100
AcDbEntity
  8
LOGO
 62
     7
100
AcDbText
 10
1344.188163083918
 20
202.5913787240192
 30
0.0
 40
7.252674175478031
  1
訂購代號:
  7
CHINESET
100
AcDbText
  0
LINE
  5
16482
330
1F
100
AcDbEntity
  8
LOGO
 62
     1
100
AcDbLine
 10
1261.440412984887
 20
175.4075311848801
 30
0.0
 11
1261.440412984887
 21
211.6709020622703
 31
0.0
  0
LINE
  5
16483
330
1F
100
AcDbEntity
  8
LOGO
 62
     1
100
AcDbLine
 10
1317.044248330219
 20
189.9128795358362
 30
0.0
 11
1317.044248330219
 21
211.6709020622703
 31
0.0
  0
TEXT
  5
16484
330
1F
100
AcDbEntity
  8
LOGO
 62
     6
100
AcDbText
 10
1291.023660825206
 20
206.2331810453703
 30
0.0
 40
3.626337087739015
  1
比例 Scale:
 41
0.9
  7
CHINESET
 72
     4
 11
1302.538899979263
 21
208.0445649745313
 31
0.0
100
AcDbText
  0
TEXT
  5
16485
330
1F
100
AcDbEntity
  8
LOGO
 62
     6
100
AcDbText
 10
1322.484351896711
 20
206.2313964306618
 30
0.0
 40
3.626337087739015
  1
1 : 1
  7
CHINESET
 72
     1
 11
1328.87361247987
 21
208.0445649745313
 31
0.0
100
AcDbText
 73
     2
  0
TEXT
  5
16486
330
1F
100
AcDbEntity
  8
LOGO
 62
     7
100
AcDbText
 10
1343.320703267747
 20
195.7845363548701
 30
0.0
 40
4.835116116985354
  1
Order example:
 41
0.8
  7
CHINESET
100
AcDbText
  0
TEXT
  5
16487
330
1F
100
AcDbEntity
  8
LOGO
  6
CONTINUOUS
 62
     5
100
AcDbText
 10
1264.18492067436
 20
177.0908443193065
 30
0.0
 40
3.626337087739015
  1
MINDMAN INDUSTRIAL CO.,LTD
 41
0.85
  7
CHINESET
100
AcDbText
  0
TEXT
  5
16488
330
1F
100
AcDbEntity
  8
LOGO
  6
CONTINUOUS
 62
     5
100
AcDbText
 10
1262.627374341165
 20
182.5314156675451
 30
0.0
 40
5.439505631608523
  1
金器工業股份有限公司
 41
0.8
  7
LOGO
100
AcDbText
  0
LINE
  5
16489
330
1F
100
AcDbEntity
  8
LOGO
 62
     1
100
AcDbLine
 10
1341.219828915146
 20
189.9128795358362
 30
0.0
 11
1261.440412984887
 21
189.9128795358362
 31
0.0
  0
SOLID
  5
1648A
330
1F
100
AcDbEntity
  8
LOGO
 62
     5
100
AcDbTrace
 10
1264.752240451456
 20
190.5344832528222
 30
0.0
 11
1265.29290700375
 21
190.5344832528222
 31
0.0
 12
1266.815466097133
 22
193.2378160142927
 32
0.0
 13
1267.356132649426
 23
193.2378160142927
 33
0.0
  0
SOLID
  5
1648B
330
1F
100
AcDbEntity
  8
LOGO
 62
     5
100
AcDbTrace
 10
1264.752240451456
 20
193.2378160142927
 30
0.0
 11
1265.29290700375
 21
193.2378160142927
 31
0.0
 12
1264.752240451456
 22
190.5344832528222
 32
0.0
 13
1265.29290700375
 23
190.5344832528222
 33
0.0
  0
SOLID
  5
1648C
330
1F
100
AcDbEntity
  8
LOGO
 62
     5
100
AcDbTrace
 10
1262.68901480578
 20
190.5344832528222
 30
0.0
 11
1263.229681358075
 21
190.5344832528222
 31
0.0
 12
1264.752240451456
 22
193.2378160142927
 32
0.0
 13
1265.29290700375
 23
193.2378160142927
 33
0.0
  0
SOLID
  5
1648D
330
1F
100
AcDbEntity
  8
LOGO
 62
     5
100
AcDbTrace
 10
1274.1237399579
 20
194.0488158427343
 30
0.0
 11
1274.664406510194
 21
194.0488158427343
 31
0.0
 12
1274.1237399579
 22
190.5344832528222
 32
0.0
 13
1274.664406510194
 23
190.5344832528222
 33
0.0
  0
SOLID
  5
1648E
330
1F
100
AcDbEntity
  8
LOGO
 62
     5
100
AcDbTrace
 10
1267.996149654129
 20
193.6162826008985
 30
0.0
 11
1268.536816206424
 21
193.6162826008985
 31
0.0
 12
1267.996149654129
 22
194.0488158427343
 32
0.0
 13
1268.536816206424
 23
194.0488158427343
 33
0.0
  0
SOLID
  5
1648F
330
1F
100
AcDbEntity
  8
LOGO
 62
     5
100
AcDbTrace
 10
1270.789611529867
 20
192.1564829097043
 30
0.0
 11
1271.330278082162
 21
192.1564829097043
 31
0.0
 12
1270.789611529867
 22
190.5344832528222
 32
0.0
 13
1271.330278082162
 23
190.5344832528222
 33
0.0
  0
POLYLINE
  5
16490
330
1F
100
AcDbEntity
  8
LOGO
 62
     5
100
AcDb2dPolyline
 66
     1
 10
0.0
 20
0.0
 30
0.0
 40
0.5415330051023596
 41
0.5415330051023596
  0
VERTEX
  5
168A6
330
16490
100
AcDbEntity
  8
LOGO
 62
     5
100
AcDbVertex
100
AcDb2dVertex
 10
1271.061244485227
 20
192.1564829097043
 30
0.0
 42
1.0
  0
VERTEX
  5
168A7
330
16490
100
AcDbEntity
  8
LOGO
 62
     5
100
AcDbVertex
100
AcDb2dVertex
 10
1269.436645469919
 20
192.1564829097043
 30
0.0
 42
1.0
  0
SEQEND
  5
168A8
330
16490
100
AcDbEntity
  8
LOGO
 62
     5
  0
SOLID
  5
16491
330
1F
100
AcDbEntity
  8
LOGO
 62
     5
100
AcDbTrace
 10
1269.167611872985
 20
193.2378160142927
 30
0.0
 11
1269.708278425279
 21
193.2378160142927
 31
0.0
 12
1269.167611872985
 22
190.5344832528222
 32
0.0
 13
1269.708278425279
 23
190.5344832528222
 33
0.0
  0
SOLID
  5
16492
330
1F
100
AcDbEntity
  8
LOGO
 62
     5
100
AcDbTrace
 10
1267.996149654129
 20
193.2378160142927
 30
0.0
 11
1268.536816206424
 21
193.2378160142927
 31
0.0
 12
1267.996149654129
 22
190.5344832528212
 32
0.0
 13
1268.536816206424
 23
190.5344832528222
 33
0.0
  0
SOLID
  5
16493
330
1F
100
AcDbEntity
  8
LOGO
 62
     5
100
AcDbTrace
 10
1266.815466097133
 20
193.2378160142927
 30
0.0
 11
1267.356132649426
 21
193.2378160142927
 31
0.0
 12
1266.815466097133
 22
190.5344832528222
 32
0.0
 13
1267.356132649426
 23
190.5344832528222
 33
0.0
  0
POLYLINE
  5
16494
330
1F
100
AcDbEntity
  8
LOGO
 62
     5
100
AcDb2dPolyline
 66
     1
 10
0.0
 20
0.0
 30
0.0
 70
     1
 40
0.5415330051023596
 41
0.5415330051023596
  0
VERTEX
  5
168A9
330
16494
100
AcDbEntity
  8
LOGO
 62
     5
100
AcDbVertex
100
AcDb2dVertex
 10
1272.229728185909
 20
191.8861496335572
 30
0.0
 42
1.0
  0
VERTEX
  5
168AA
330
16494
100
AcDbEntity
  8
LOGO
 62
     5
100
AcDbVertex
100
AcDb2dVertex
 10
1274.395860206318
 20
191.8861496335572
 30
0.0
 42
1.0
  0
SEQEND
  5
168AB
330
16494
100
AcDbEntity
  8
LOGO
 62
     5
  0
TEXT
  5
16495
330
1F
100
AcDbEntity
  8
LOGO
 62
     6
100
AcDbText
 10
1292.291259905429
 20
199.0297324922693
 30
0.0
 40
3.626337087739015
  1
投影 View:
 41
0.9
  7
CHINESET
 72
     4
 11
1302.538899979263
 21
200.7918907990533
 31
0.0
100
AcDbText
  0
LINE
  5
16496
330
1F
100
AcDbEntity
  8
LOGO
 62
     1
100
AcDbLine
 10
1341.219828915146
 20
197.1655537113142
 30
0.0
 11
1288.033551628307
 21
197.1655537113142
 31
0.0
  0
LINE
  5
16497
330
1F
100
AcDbEntity
  8
LOGO
 62
     1
100
AcDbLine
 10
1341.219828915146
 20
204.4182278867923
 30
0.0
 11
1288.033551628307
 21
204.4182278867923
 31
0.0
  0
TEXT
  5
16498
330
1F
100
AcDbEntity
  8
LOGO
 62
     6
100
AcDbText
 10
1292.645799111775
 20
191.7260480797057
 30
0.0
 40
3.626337087739015
  1
單位 Unit:
 41
0.9
  7
CHINESET
 72
     4
 11
1302.538899979263
 21
193.5392166235752
 31
0.0
100
AcDbText
  0
POLYLINE
  5
16499
330
1F
100
AcDbEntity
  8
LOGO
 62
     5
100
AcDb2dPolyline
 66
     1
 10
0.0
 20
0.0
 30
0.0
 40
0.5415330051023596
 41
0.5415330051023596
  0
VERTEX
  5
168AC
330
16499
100
AcDbEntity
  8
LOGO
 62
     5
100
AcDbVertex
100
AcDb2dVertex
 10
1284.938424749652
 20
192.1564829097043
 30
0.0
 42
1.0
  0
VERTEX
  5
168AD
330
16499
100
AcDbEntity
  8
LOGO
 62
     5
100
AcDbVertex
100
AcDb2dVertex
 10
1283.313825734345
 20
192.1564829097043
 30
0.0
 42
1.0
  0
SEQEND
  5
168AE
330
16499
100
AcDbEntity
  8
LOGO
 62
     5
  0
SOLID
  5
1649A
330
1F
100
AcDbEntity
  8
LOGO
 62
     5
100
AcDbTrace
 10
1278.539201490521
 20
192.1564829097043
 30
0.0
 11
1279.079868042815
 21
192.1564829097043
 31
0.0
 12
1278.539201490521
 22
190.5344832528212
 32
0.0
 13
1279.079868042815
 23
190.5344832528212
 33
0.0
  0
SOLID
  5
1649B
330
1F
100
AcDbEntity
  8
LOGO
 62
     5
100
AcDbTrace
 10
1276.917201833639
 20
192.1564829097043
 30
0.0
 11
1277.457868385933
 21
192.1564829097043
 31
0.0
 12
1276.917201833639
 22
190.5344832528222
 32
0.0
 13
1277.457868385933
 23
190.5344832528222
 33
0.0
  0
POLYLINE
  5
1649C
330
1F
100
AcDbEntity
  8
LOGO
 62
     5
100
AcDb2dPolyline
 66
     1
 10
0.0
 20
0.0
 30
0.0
 40
0.5415330051023596
 41
0.5415330051023596
  0
VERTEX
  5
168AF
330
1649C
100
AcDbEntity
  8
LOGO
 62
     5
100
AcDbVertex
100
AcDb2dVertex
 10
1278.81083444588
 20
192.1564829097043
 30
0.0
 42
1.0
  0
VERTEX
  5
168B0
330
1649C
100
AcDbEntity
  8
LOGO
 62
     5
100
AcDbVertex
100
AcDb2dVertex
 10
1277.186235430573
 20
192.1564829097043
 30
0.0
 42
1.0
  0
SEQEND
  5
168B1
330
1649C
100
AcDbEntity
  8
LOGO
 62
     5
  0
POLYLINE
  5
1649D
330
1F
100
AcDbEntity
  8
LOGO
 62
     5
100
AcDb2dPolyline
 66
     1
 10
0.0
 20
0.0
 30
0.0
 40
0.5415330051023596
 41
0.5415330051023596
  0
VERTEX
  5
168B2
330
1649D
100
AcDbEntity
  8
LOGO
 62
     5
100
AcDbVertex
100
AcDb2dVertex
 10
1277.188834788998
 20
192.1564829097043
 30
0.0
 42
1.0
  0
VERTEX
  5
168B3
330
1649D
100
AcDbEntity
  8
LOGO
 62
     5
100
AcDbVertex
100
AcDb2dVertex
 10
1275.564235773691
 20
192.1564829097043
 30
0.0
 42
1.0
  0
SEQEND
  5
168B4
330
1649D
100
AcDbEntity
  8
LOGO
 62
     5
  0
SOLID
  5
1649E
330
1F
100
AcDbEntity
  8
LOGO
 62
     5
100
AcDbTrace
 10
1275.295202176757
 20
193.2378160142927
 30
0.0
 11
1275.83586872905
 21
193.2378160142927
 31
0.0
 12
1275.295202176757
 22
190.5344832528222
 32
0.0
 13
1275.83586872905
 23
190.5344832528222
 33
0.0
  0
SOLID
  5
1649F
330
1F
100
AcDbEntity
  8
LOGO
 62
     5
100
AcDbTrace
 10
1283.044792137409
 20
190.5344832528222
 30
0.0
 11
1283.585458689704
 21
190.5344832528222
 31
0.0
 12
1283.044792137409
 22
193.2378160142927
 32
0.0
 13
1283.585458689704
 23
193.2378160142927
 33
0.0
  0
SOLID
  5
164A0
330
1F
100
AcDbEntity
  8
LOGO
 62
     5
100
AcDbTrace
 10
1281.873329918555
 20
193.2378160142927
 30
0.0
 11
1282.413996470848
 21
193.2378160142927
 31
0.0
 12
1281.873329918555
 22
190.5344832528222
 32
0.0
 13
1282.413996470848
 23
190.5344832528222
 33
0.0
  0
POLYLINE
  5
164A1
330
1F
100
AcDbEntity
  8
LOGO
 62
     5
100
AcDb2dPolyline
 66
     1
 10
0.0
 20
0.0
 30
0.0
 70
     1
 40
0.5415330051023596
 41
0.5415330051023596
  0
VERTEX
  5
168B5
330
164A1
100
AcDbEntity
  8
LOGO
 62
     5
100
AcDbVertex
100
AcDb2dVertex
 10
1279.979318146563
 20
191.8861496335572
 30
0.0
 42
1.0
  0
VERTEX
  5
168B6
330
164A1
100
AcDbEntity
  8
LOGO
 62
     5
100
AcDbVertex
100
AcDb2dVertex
 10
1282.145450166972
 20
191.8861496335572
 30
0.0
 42
1.0
  0
SEQEND
  5
168B7
330
164A1
100
AcDbEntity
  8
LOGO
 62
     5
  0
CIRCLE
  5
164A2
330
1F
100
AcDbEntity
  8
LOGO
 62
     5
100
AcDbCircle
 10
1281.062384156768
 20
191.8861496335575
 30
0.0
 40
0.810999828441294
  0
POLYLINE
  5
164A3
330
1F
100
AcDbEntity
  8
LOGO
 62
     5
100
AcDb2dPolyline
 66
     1
 10
0.0
 20
0.0
 30
0.0
 70
     1
  0
VERTEX
  5
168B8
330
164A3
100
AcDbEntity
  8
LOGO
 62
     5
100
AcDbVertex
100
AcDb2dVertex
 10
1280.251384328326
 20
191.8861496335575
 30
0.0
 42
1.000000057330635
  0
VERTEX
  5
168B9
330
164A3
100
AcDbEntity
  8
LOGO
 62
     5
100
AcDbVertex
100
AcDb2dVertex
 10
1281.873383985209
 20
191.8861496335575
 30
0.0
 42
1.000000057330635
  0
SEQEND
  5
168BA
330
164A3
100
AcDbEntity
  8
LOGO
 62
     5
  0
SOLID
  5
164A4
330
1F
100
AcDbEntity
  8
LOGO
 62
     5
100
AcDbTrace
 10
1284.666791794293
 20
192.1564829097043
 30
0.0
 11
1285.207458346586
 21
192.1564829097043
 31
0.0
 12
1284.666791794293
 22
190.5344832528222
 32
0.0
 13
1285.207458346586
 23
190.5344832528222
 33
0.0
  0
LINE
  5
164A5
330
1F
100
AcDbEntity
  8
LOGO
 62
     5
100
AcDbLine
 10
1285.207458346586
 20
190.5344832528222
 30
0.0
 11
1285.207458346586
 21
192.1564829097043
 31
0.0
  0
TEXT
  5
164A6
330
1F
100
AcDbEntity
  8
LOGO
 62
     6
100
AcDbText
 10
1322.484351896711
 20
191.7260480797057
 30
0.0
 40
3.626337087739015
  1
m/m
  7
CHINESET
 72
     1
 11
1328.87361247987
 21
193.5392166235752
 31
0.0
100
AcDbText
 73
     2
  0
CIRCLE
  5
164A7
330
1F
100
AcDbEntity
  8
LOGO
  6
CONTINUOUS
 62
     6
100
AcDbCircle
 10
1323.758865023241
 20
200.7996475606208
 30
0.0
 40
1.23365809453652
  0
CIRCLE
  5
164A8
330
1F
100
AcDbEntity
  8
LOGO
  6
CONTINUOUS
 62
     6
100
AcDbCircle
 10
1323.758865023241
 20
200.7996475606208
 30
0.0
 40
2.105536667494626
  0
LINE
  5
164A9
330
1F
100
AcDbEntity
  8
LOGO
  6
CONTINUOUS
 62
     6
100
AcDbLine
 10
1330.389565168896
 20
199.5659894660843
 30
0.0
 11
1336.99030175792
 21
198.6941108931262
 31
0.0
  0
LINE
  5
164AA
330
1F
100
AcDbEntity
  8
LOGO
  6
CONTINUOUS
 62
     6
100
AcDbLine
 10
1330.389565168896
 20
202.0333056551573
 30
0.0
 11
1336.99030175792
 21
202.9051842281154
 31
0.0
  0
LINE
  5
164AB
330
1F
100
AcDbEntity
  8
LOGO
 62
     6
100
AcDbLine
 10
1330.389565168896
 20
199.5659894660843
 30
0.0
 11
1330.389565168896
 21
202.0333056551573
 31
0.0
  0
LINE
  5
164AC
330
1F
100
AcDbEntity
  8
LOGO
 62
     6
100
AcDbLine
 10
1336.99030175792
 20
198.6941108931262
 30
0.0
 11
1336.99030175792
 21
202.9051842281154
 31
0.0
  0
LINE
  5
164AD
330
1F
100
AcDbEntity
  8
LOGO
 62
     6
100
AcDbLine
 10
1417.691624750312
 20
178.429478757996
 30
0.0
 11
1393.516044165385
 21
178.429478757996
 31
0.0
  0
LINE
  5
164AE
330
1F
100
AcDbEntity
  8
LOGO
 62
     6
100
AcDbLine
 10
1417.691624750312
 20
191.7260480797057
 30
0.0
 11
1393.516044165385
 21
191.7260480797057
 31
0.0
  0
LINE
  5
164AF
330
1F
100
AcDbEntity
  8
LOGO
 62
     6
100
AcDbLine
 10
1420.109182808805
 20
197.1655537113142
 30
0.0
 11
1391.098486106893
 21
197.1655537113142
 31
0.0
  0
TEXT
  5
164B0
330
1F
100
AcDbEntity
  8
LOGO
  6
CONTINUOUS
 62
     7
100
AcDbText
 10
1396.394089473115
 20
199.5831117698069
 30
0.0
 40
6.043895146231692
  1
MVSI
  7
CHINESET
 72
     1
 11
1405.603834457849
 21
202.6050593429228
 31
0.0
100
AcDbText
 73
     2
  0
LINE
  5
164B1
330
1F
100
AcDbEntity
  8
LOGO
 62
     6
100
AcDbLine
 10
1393.516044165385
 20
191.7260480797057
 30
0.0
 11
1393.516044165385
 21
178.429478757996
 31
0.0
  0
TEXT
  5
164B2
330
1F
100
AcDbEntity
  8
LOGO
  6
CONTINUOUS
 62
     6
100
AcDbText
 10
1399.84774384239
 20
179.9404525445539
 30
0.0
 40
3.021947573115846
  1
Model
  7
CHINESET
 72
     4
 11
1405.603834457849
 21
181.4514263311118
 31
0.0
100
AcDbText
  0
TEXT
  5
164B3
330
1F
100
AcDbEntity
  8
LOGO
 62
     6
100
AcDbText
 10
1400.768718340863
 20
185.2014967053091
 30
0.0
 40
4.835116116985354
  1
型式
  7
CHINESET
 72
     4
 11
1405.603834457849
 21
187.4953214773435
 31
0.0
100
AcDbText
  0
LINE
  5
164B4
330
1F
100
AcDbEntity
  8
LOGO
 62
     6
100
AcDbLine
 10
1405.603834457849
 20
197.1655537113142
 30
0.0
 11
1405.603834457849
 21
191.7260480797057
 31
0.0
  0
TEXT
  5
164B5
330
1F
100
AcDbEntity
  8
LOGO
  6
CONTINUOUS
 62
     7
100
AcDbText
 10
1434.227936945728
 20
199.514573618006
 30
0.0
 40
6.043895146231692
  1
450
  7
CHINESET
 72
     1
 11
1441.998659276597
 21
202.5365211911219
 31
0.0
100
AcDbText
 73
     2
  0
LINE
  5
164B6
330
1F
100
AcDbEntity
  8
LOGO
 62
     6
100
AcDbLine
 10
1455.328714205328
 20
197.1655537113142
 30
0.0
 11
1428.668604347866
 21
197.1655537113142
 31
0.0
  0
LINE
  5
164B7
330
1F
100
AcDbEntity
  8
LOGO
 62
     6
100
AcDbLine
 10
1448.07604002985
 20
191.7260480797057
 30
0.0
 11
1421.415930172388
 21
191.7260480797057
 31
0.0
  0
LINE
  5
164B8
330
1F
100
AcDbEntity
  8
LOGO
 62
     6
100
AcDbLine
 10
1448.07604002985
 20
178.429478757996
 30
0.0
 11
1421.415930172388
 21
178.429478757996
 31
0.0
  0
TEXT
  5
164B9
330
1F
100
AcDbEntity
  8
LOGO
  6
CONTINUOUS
 62
     6
100
AcDbText
 10
1422.658194808656
 20
180.4441104734065
 30
0.0
 40
3.021947573115846
  1
Body width
  7
CHINESET
 72
     4
 11
1434.745985101119
 21
181.4514263311118
 31
0.0
100
AcDbText
  0
TEXT
  5
164BA
330
1F
100
AcDbEntity
  8
LOGO
 62
     6
100
AcDbText
 10
1425.075752867148
 20
185.1628300532909
 30
0.0
 40
4.835116116985354
  1
本體寬幅
  7
CHINESET
 72
     4
 11
1434.745985101119
 21
187.4953214773435
 31
0.0
100
AcDbText
  0
LINE
  5
164BB
330
1F
100
AcDbEntity
  8
LOGO
 62
     6
100
AcDbLine
 10
1417.691624750312
 20
191.7260480797057
 30
0.0
 11
1417.691624750312
 21
178.429478757996
 31
0.0
  0
LINE
  5
164BC
330
1F
100
AcDbEntity
  8
LOGO
 62
     6
100
AcDbLine
 10
1421.415930172388
 20
191.7260480797057
 30
0.0
 11
1421.415930172388
 21
178.429478757996
 31
0.0
  0
LINE
  5
164BD
330
1F
100
AcDbEntity
  8
LOGO
  6
CONTINUOUS
 62
     7
100
AcDbLine
 10
1421.983472954298
 20
202.5665241657383
 30
0.0
 11
1426.787247370652
 21
202.5665241657383
 31
0.0
  0
LINE
  5
164BE
330
1F
100
AcDbEntity
  8
LOGO
 62
     6
100
AcDbLine
 10
1441.998659276597
 20
194.4458008955099
 30
0.0
 11
1434.745985101119
 21
194.4458008955099
 31
0.0
  0
LINE
  5
164BF
330
1F
100
AcDbEntity
  8
LOGO
 62
     6
100
AcDbLine
 10
1434.745985101119
 20
191.7260480797057
 30
0.0
 11
1434.745985101119
 21
194.4458008955099
 31
0.0
  0
LINE
  5
164C0
330
1F
100
AcDbEntity
  8
LOGO
 62
     6
100
AcDbLine
 10
1441.998659276597
 20
197.1655537113142
 30
0.0
 11
1441.998659276597
 21
194.4458008955099
 31
0.0
  0
LINE
  5
164C1
330
1F
100
AcDbEntity
  8
LOGO
 62
     6
100
AcDbLine
 10
1467.547958160423
 20
194.44580089551
 30
0.0
 11
1461.504063292918
 21
194.44580089551
 31
0.0
  0
TEXT
  5
164C2
330
1F
100
AcDbEntity
  8
LOGO
  6
CONTINUOUS
 62
     6
100
AcDbText
 10
1456.035777208232
 20
180.4441104734065
 30
0.0
 40
3.021947573115846
  1
4 Way
 41
0.8
  7
CHINESET
 72
     4
 11
1461.504063292918
 21
181.4514263311118
 31
0.0
100
AcDbText
  0
LINE
  5
164C3
330
1F
100
AcDbEntity
  8
LOGO
 62
     6
100
AcDbLine
 10
1471.20778113391
 20
178.4294787579961
 30
0.0
 11
1451.800345451925
 21
178.429478757996
 31
0.0
  0
TEXT
  5
164C4
330
1F
100
AcDbEntity
  8
LOGO
 62
     6
100
AcDbText
 10
1453.338329243562
 20
185.0944198227971
 30
0.0
 40
4.835116116985354
  1
4 方向
 41
0.9
  7
CHINESET
 72
     4
 11
1461.504063292918
 21
187.4953214773435
 31
0.0
100
AcDbText
  0
LINE
  5
164C5
330
1F
100
AcDbEntity
  8
LOGO
 62
     6
100
AcDbLine
 10
1471.20778113391
 20
197.1655537113143
 30
0.0
 11
1463.888135744389
 21
197.1655537113143
 31
0.0
  0
LINE
  5
164C6
330
1F
100
AcDbEntity
  8
LOGO
 62
     6
100
AcDbLine
 10
1471.20778113391
 20
191.7260480797058
 30
0.0
 11
1451.800345451925
 21
191.7260480797058
 31
0.0
  0
LINE
  5
164C7
330
1F
100
AcDbEntity
  8
LOGO
 62
     6
100
AcDbLine
 10
1451.800345451925
 20
191.7260480797058
 30
0.0
 11
1451.800345451925
 21
178.4294787579961
 31
0.0
  0
LINE
  5
164C8
330
1F
100
AcDbEntity
  8
LOGO
 62
     6
100
AcDbLine
 10
1448.07604002985
 20
191.7260480797057
 30
0.0
 11
1448.07604002985
 21
178.429478757996
 31
0.0
  0
LINE
  5
164C9
330
1F
100
AcDbEntity
  8
LOGO
 62
     6
100
AcDbLine
 10
1461.504063292918
 20
191.7260480797058
 30
0.0
 11
1461.504063292918
 21
194.44580089551
 31
0.0
  0
LINE
  5
164CA
330
1F
100
AcDbEntity
  8
LOGO
  6
CONTINUOUS
 62
     7
100
AcDbLine
 10
1457.203004350821
 20
202.5665241657383
 30
0.0
 11
1462.006778767175
 21
202.5665241657383
 31
0.0
  0
LINE
  5
164CB
330
1F
100
AcDbEntity
  8
LOGO
 62
     6
100
AcDbLine
 10
1471.20778113391
 20
191.7260480797058
 30
0.0
 11
1471.20778113391
 21
178.4294787579961
 31
0.0
  0
LINE
  5
164CC
330
1F
100
AcDbEntity
  8
LOGO
 62
     6
100
AcDbLine
 10
1472.416560163156
 20
191.7260480797058
 30
0.0
 11
1472.416560163156
 21
178.4294787579961
 31
0.0
  0
TEXT
  5
164CD
330
1F
100
AcDbEntity
  8
LOGO
  6
CONTINUOUS
 62
     7
100
AcDbText
 10
1465.389424458352
 20
199.583111769807
 30
0.0
 40
6.043895146231692
  1
4
  7
CHINESET
 72
     1
 11
1467.547958439149
 21
202.6050593429228
 31
0.0
100
AcDbText
 73
     2
  0
LINE
  5
164CE
330
1F
100
AcDbEntity
  8
LOGO
 62
     6
100
AcDbLine
 10
1467.547958160423
 20
197.1655537113143
 30
0.0
 11
1467.547958160423
 21
194.44580089551
 31
0.0
  0
TEXT
  5
164CF
330
1F
100
AcDbEntity
  8
LOGO
  6
CONTINUOUS
 62
     7
100
AcDbText
 10
1474.760059978827
 20
199.5145736180061
 30
0.0
 40
6.043895146231692
  1
E1
  7
CHINESET
 72
     1
 11
1478.213714348102
 21
202.5365211911219
 31
0.0
100
AcDbText
 73
     2
  0
LINE
  5
164D0
330
1F
100
AcDbEntity
  8
LOGO
 62
     6
100
AcDbLine
 10
1477.649617312107
 20
197.1655537113144
 30
0.0
 11
1477.649617312107
 21
194.4458008955101
 31
0.0
  0
LINE
  5
164D1
330
1F
100
AcDbEntity
  8
LOGO
 62
     6
100
AcDbLine
 10
1420.109182808805
 20
208.0445649745313
 30
0.0
 11
1391.098486106893
 21
208.0445649745313
 31
0.0
  0
LINE
  5
164D2
330
1F
100
AcDbEntity
  8
LOGO
 62
     6
100
AcDbLine
 10
1455.328714205328
 20
208.0445649745314
 30
0.0
 11
1428.668604347866
 21
208.0445649745313
 31
0.0
  0
LINE
  5
164D3
330
1F
100
AcDbEntity
  8
LOGO
 62
     6
100
AcDbLine
 10
1471.20778113391
 20
208.0445649745314
 30
0.0
 11
1463.888135744389
 21
208.0445649745314
 31
0.0
  0
LINE
  5
164D4
330
1F
100
AcDbEntity
  8
LOGO
 62
     6
100
AcDbLine
 10
1538.180000583669
 20
208.0445649745314
 30
0.0
 11
1538.180000583669
 21
197.1655537113144
 31
0.0
  0
LINE
  5
164D5
330
1F
100
AcDbEntity
  8
LOGO
 62
     6
100
AcDbLine
 10
1530.860355194148
 20
208.0445649745314
 30
0.0
 11
1530.860355194148
 21
197.1655537113144
 31
0.0
  0
LINE
  5
164D6
330
1F
100
AcDbEntity
  8
LOGO
 62
     6
100
AcDbLine
 10
1522.300933655087
 20
208.0445649745314
 30
0.0
 11
1522.300933655087
 21
197.1655537113143
 31
0.0
  0
LINE
  5
164D7
330
1F
100
AcDbEntity
  8
LOGO
 62
     6
100
AcDbLine
 10
1491.287717951371
 20
208.0831001517159
 30
0.0
 11
1491.287717951371
 21
197.2040888884988
 31
0.0
  0
LINE
  5
164D8
330
1F
100
AcDbEntity
  8
LOGO
 62
     6
100
AcDbLine
 10
1482.882674461058
 20
208.0445649745314
 30
0.0
 11
1482.882674461058
 21
197.1655537113144
 31
0.0
  0
LINE
  5
164D9
330
1F
100
AcDbEntity
  8
LOGO
 62
     1
100
AcDbLine
 10
1552.756159033255
 20
175.4075311848801
 30
0.0
 11
1552.756159033255
 21
211.6709020622703
 31
0.0
  0
TEXT
  5
164DA
330
1F
100
AcDbEntity
  8
LOGO
  6
CONTINUOUS
 62
     6
100
AcDbText
 10
1505.677446493987
 20
180.4441104734066
 30
0.0
 40
3.021947573115846
  1
Voltage
 41
0.8
  7
CHINESET
 72
     4
 11
1512.066707077146
 21
181.4514263311119
 31
0.0
100
AcDbText
  0
LINE
  5
164DB
330
1F
100
AcDbEntity
  8
LOGO
 62
     6
100
AcDbLine
 10
1520.074868145903
 20
191.7260480797058
 30
0.0
 11
1504.058546008389
 21
191.7260480797058
 31
0.0
  0
LINE
  5
164DC
330
1F
100
AcDbEntity
  8
LOGO
 62
     6
100
AcDbLine
 10
1522.300933655087
 20
197.1655537113143
 30
0.0
 11
1491.287717951371
 21
197.1655537113143
 31
0.0
  0
TEXT
  5
164DD
330
1F
100
AcDbEntity
  8
LOGO
 62
     6
100
AcDbText
 10
1507.669773358263
 20
185.1293189548752
 30
0.0
 40
4.835116116985354
  1
電壓
 41
0.9
  7
CHINESET
 72
     4
 11
1512.066707077146
 21
187.4953214773436
 31
0.0
100
AcDbText
  0
LINE
  5
164DE
330
1F
100
AcDbEntity
  8
LOGO
 62
     6
100
AcDbLine
 10
1520.074868145903
 20
178.4294787579961
 30
0.0
 11
1504.058546008389
 21
178.4294787579961
 31
0.0
  0
LINE
  5
164DF
330
1F
100
AcDbEntity
  8
LOGO
 62
     6
100
AcDbLine
 10
1486.715460031454
 20
191.7260480797058
 30
0.0
 11
1486.715460031454
 21
194.4458008955101
 31
0.0
  0
LINE
  5
164E0
330
1F
100
AcDbEntity
  8
LOGO
  6
CONTINUOUS
 62
     7
100
AcDbLine
 10
1484.695843004928
 20
202.6050593429228
 30
0.0
 11
1489.499617421282
 21
202.6050593429228
 31
0.0
  0
LINE
  5
164E1
330
1F
100
AcDbEntity
  8
LOGO
 62
     6
100
AcDbLine
 10
1504.058546008389
 20
191.7260480797058
 30
0.0
 11
1504.058546008389
 21
178.3793418749902
 31
0.0
  0
LINE
  5
164E2
330
1F
100
AcDbEntity
  8
LOGO
 62
     6
100
AcDbLine
 10
1501.014359899754
 20
191.7260480797058
 30
0.0
 11
1501.014359899754
 21
178.3793418749902
 31
0.0
  0
LINE
  5
164E3
330
1F
100
AcDbEntity
  8
LOGO
 62
     6
100
AcDbLine
 10
1506.794325803229
 20
194.44580089551
 30
0.0
 11
1512.066707077146
 21
194.44580089551
 31
0.0
  0
TEXT
  5
164E4
330
1F
100
AcDbEntity
  8
LOGO
  6
CONTINUOUS
 62
     7
100
AcDbText
 10
1505.692574414744
 20
199.5145736180061
 30
0.0
 40
6.043895146231692
  1
?
  7
CHINESET
 72
     1
 11
1507.275499333995
 21
202.5365211911219
 31
0.0
100
AcDbText
 73
     2
  0
LINE
  5
164E5
330
1F
100
AcDbEntity
  8
LOGO
 62
     6
100
AcDbLine
 10
1506.794325803229
 20
197.1655537113143
 30
0.0
 11
1506.794325803229
 21
194.44580089551
 31
0.0
  0
LINE
  5
164E6
330
1F
100
AcDbEntity
  8
LOGO
 62
     6
100
AcDbLine
 10
1512.066707077146
 20
194.44580089551
 30
0.0
 11
1512.066707077146
 21
191.7260480797058
 31
0.0
  0
TEXT
  5
164E7
330
1F
100
AcDbEntity
  8
LOGO
  6
CONTINUOUS
 62
     6
100
AcDbText
 10
1525.569456703145
 20
179.940452544554
 30
0.0
 40
3.021947573115846
  1
LED indicator
 41
0.8
  7
CHINESET
 72
     4
 11
1537.542125183299
 21
181.4514263311119
 31
0.0
100
AcDbText
  0
LINE
  5
164E8
330
1F
100
AcDbEntity
  8
LOGO
 62
     6
100
AcDbLine
 10
1550.267790597407
 20
178.4294787579961
 30
0.0
 11
1524.816459769191
 21
178.4294787579961
 31
0.0
  0
LINE
  5
164E9
330
1F
100
AcDbEntity
  8
LOGO
 62
     6
100
AcDbLine
 10
1550.267790597407
 20
191.7260480797058
 30
0.0
 11
1524.816459769191
 21
191.7260480797058
 31
0.0
  0
TEXT
  5
164EA
330
1F
100
AcDbEntity
  8
LOGO
 62
     6
100
AcDbText
 10
1531.060047638965
 20
185.1281292117363
 30
0.0
 40
4.835116116985354
  1
附燈型
 41
0.9
  7
CHINESET
 72
     4
 11
1537.542125183299
 21
187.4953214773436
 31
0.0
100
AcDbText
  0
TEXT
  5
164EB
330
1F
100
AcDbEntity
  8
LOGO
  6
CONTINUOUS
 62
     7
100
AcDbText
 10
1532.793350704271
 20
199.583111769807
 30
0.0
 40
6.043895146231692
  1
L
  7
CHINESET
 72
     1
 11
1534.520177888909
 21
202.6050593429228
 31
0.0
100
AcDbText
 73
     2
  0
LINE
  5
164EC
330
1F
100
AcDbEntity
  8
LOGO
 62
     6
100
AcDbLine
 10
1538.180000583669
 20
197.1655537113144
 30
0.0
 11
1530.860355194148
 21
197.1655537113144
 31
0.0
  0
LINE
  5
164ED
330
1F
100
AcDbEntity
  8
LOGO
 62
     6
100
AcDbLine
 10
1524.816459769191
 20
191.7260480797058
 30
0.0
 11
1524.816459769191
 21
178.4294787579961
 31
0.0
  0
LINE
  5
164EE
330
1F
100
AcDbEntity
  8
LOGO
 62
     6
100
AcDbLine
 10
1520.074868145903
 20
191.7260480797058
 30
0.0
 11
1520.074868145903
 21
178.4294787579961
 31
0.0
  0
LINE
  5
164EF
330
1F
100
AcDbEntity
  8
LOGO
  6
CONTINUOUS
 62
     7
100
AcDbLine
 10
1524.175223800581
 20
202.5665241657384
 30
0.0
 11
1528.978998216935
 21
202.5665241657384
 31
0.0
  0
LINE
  5
164F0
330
1F
100
AcDbEntity
  8
LOGO
 62
     6
100
AcDbLine
 10
1550.267790597407
 20
191.7260480797058
 30
0.0
 11
1550.267790597407
 21
178.4294787579961
 31
0.0
  0
LINE
  5
164F1
330
1F
100
AcDbEntity
  8
LOGO
 62
     6
100
AcDbLine
 10
1534.520177610183
 20
197.1655537113144
 30
0.0
 11
1534.520177610183
 21
191.7260480797058
 31
0.0
  0
LINE
  5
164F2
330
1F
100
AcDbEntity
  8
LOGO
 62
     6
100
AcDbLine
 10
1522.300933655087
 20
208.0445649745314
 30
0.0
 11
1491.287717951371
 21
208.0445649745314
 31
0.0
  0
LINE
  5
164F3
330
1F
100
AcDbEntity
  8
LOGO
 62
     6
100
AcDbLine
 10
1538.180000583669
 20
208.0445649745314
 30
0.0
 11
1530.860355194148
 21
208.0445649745314
 31
0.0
  0
ENDSEC
  0
SECTION
  2
OBJECTS
  0
DICTIONARY
  5
C
330
0
100
AcDbDictionary
  3
ACAD_GROUP
350
D
  3
ACAD_IMAGE_DICT
350
1129C
  3
ACAD_IMAGE_VARS
350
1129D
  3
ACAD_LAYOUT
350
1A
  3
ACAD_MLINESTYLE
350
17
  3
ACAD_PLOTSETTINGS
350
19
  3
ACMDICTIONARY
350
43
  3
AMG
350
2B
  3
AMGSNAPSETTINGS
350
240
  3
DWGPROPS
350
1682E
1001
ACAD
1000
TREAT_AS_HARD
1070
     0
  0
DICTIONARY
  5
3A4
330
1F
100
AcDbDictionary
  3
ACAD_INDEX
350
1680F
  3
ACAD_LAYOUTSELFREF
350
1689C
1001
ACAD
1000
TREAT_AS_HARD
1070
     1
  0
DICTIONARY
  5
1674E
330
1B
100
AcDbDictionary
  3
ACAD_LAYOUTSELFREF
350
1689B
1001
ACAD
1000
TREAT_AS_HARD
1070
     1
  0
DICTIONARY
  5
D
102
{ACAD_REACTORS
330
C
102
}
330
C
100
AcDbDictionary
1001
ACAD
1000
TREAT_AS_HARD
1070
     0
  0
DICTIONARY
  5
1129C
102
{ACAD_REACTORS
330
C
102
}
330
C
100
AcDbDictionary
1001
ACAD
1000
TREAT_AS_HARD
1070
     0
  0
RASTERVARIABLES
  5
1129D
102
{ACAD_REACTORS
330
C
102
}
330
C
100
AcDbRasterVariables
 90
        0
 70
     1
 71
     1
 72
     1
  0
DICTIONARY
  5
1A
102
{ACAD_REACTORS
330
C
102
}
330
C
100
AcDbDictionary
1001
ACAD
1000
TREAT_AS_HARD
1070
     0
  0
DICTIONARY
  5
17
102
{ACAD_REACTORS
330
C
102
}
330
C
100
AcDbDictionary
  3
STANDARD
350
18
1001
ACAD
1000
TREAT_AS_HARD
1070
     0
  0
DICTIONARY
  5
19
102
{ACAD_REACTORS
330
C
102
}
330
C
100
AcDbDictionary
1001
ACAD
1000
TREAT_AS_HARD
1070
     0
  0
DICTIONARY
  5
43
102
{ACAD_REACTORS
330
C
102
}
330
C
100
AcDbDictionary
  3
ACMSTDDICTIONARY
350
1440
1001
ACAD
1000
TREAT_AS_HARD
1070
     0
  0
DICTIONARY
  5
2B
102
{ACAD_REACTORS
330
C
102
}
330
C
100
AcDbDictionary
  3
ACMGSETTINGS
350
2C
1001
ACAD
1000
TREAT_AS_HARD
1070
     0
  0
DICTIONARY
  5
240
102
{ACAD_REACTORS
330
C
102
}
330
C
100
AcDbDictionary
1001
ACAD
1000
TREAT_AS_HARD
1070
     0
  0
XRECORD
  5
1682E
102
{ACAD_REACTORS
330
C
102
}
330
C
100
AcDbXrecord
  1
DWGPROPS COOKIE
  2

  3

  4

  6

  7

  8

  9

300
AmdtFileType=84
301
=
302
=
303
=
304
=
305
=
306
=
307
=
308
=
309
=
 40
2.490911192129629
 41
2452292.457678333
 42
2452990.54681427
  1

 90
        1
  0
DICTIONARY
  5
1680F
102
{ACAD_REACTORS
330
3A4
102
}
330
3A4
100
AcDbDictionary
  3
*A1
350
16810
1001
ACAD
1000
TREAT_AS_HARD
1070
     0
  0
XRECORD
  5
1689C
102
{ACAD_REACTORS
330
3A4
102
}
330
3A4
100
AcDbXrecord
340
1F
  0
XRECORD
  5
1689B
102
{ACAD_REACTORS
330
1674E
102
}
330
1674E
100
AcDbXrecord
340
1B
  0
MLINESTYLE
  5
18
102
{ACAD_REACTORS
330
17
102
}
330
17
100
AcDbMlineStyle
  2
STANDARD
 70
     0
  3

 62
   256
 51
90.0
 52
90.0
 71
     2
 49
0.5
 62
   256
  6
BYLAYER
 49
-0.5
 62
   256
  6
BYLAYER
  0
DICTIONARY
  5
1440
102
{ACAD_REACTORS
330
43
102
}
330
43
100
AcDbDictionary
1001
ACAD
1000
TREAT_AS_HARD
1070
     0
  0
DICTIONARY
  5
2C
102
{ACAD_REACTORS
330
2B
102
}
330
2B
100
AcDbDictionary
  3
DWGSETTINGS
350
167E5
1001
ACAD
1000
TREAT_AS_HARD
1070
     0
  0
LAYER_INDEX
  5
16810
102
{ACAD_REACTORS
330
1680F
102
}
330
1680F
100
AcDbIndex
 40
2453057.564203368
100
AcDbLayerIndex
  8
0
360
16811
 90
       41
  8
圖層2
360
16812
 90
        4
  8
Defpoints
360
16813
 90
        0
  8
AM_5
360
16814
 90
       16
  8
AM_REFDIM
360
16815
 90
        6
  8
AM_7
360
16816
 90
       20
  8
圖層4
360
16817
 90
        2
  8
AM_VIS
360
16818
 90
      475
  8
LOGO
360
16819
 90
      145
  0
XRECORD
  5
167E5
102
{ACAD_REACTORS
330
2C
102
}
330
2C
100
AcDbXrecord
  1
VERSION
140
15.0
  1
PRODUCT
  2
AutoCAD Mechanical 2000
  0
IDBUFFER
  5
16811
330
0
100
AcDbIdBuffer
330
1644A
330
1644B
330
1644C
330
1644D
330
1644E
330
1644F
330
16450
330
16451
330
16452
330
16453
330
16454
330
16455
330
16456
330
16457
330
16458
330
16459
330
1645A
330
1645B
330
1645C
330
1645D
330
1645E
330
1645F
330
16460
330
16461
330
16462
330
153E5
330
153F7
330
15409
330
1541B
330
15580
330
1643F
330
16440
330
16441
330
16442
330
16443
330
16444
330
16445
330
16446
330
16447
330
16448
330
16449
  0
IDBUFFER
  5
16812
330
0
100
AcDbIdBuffer
330
D169
330
D16D
330
DBAB
330
DBAC
  0
IDBUFFER
  5
16813
330
0
100
AcDbIdBuffer
  0
IDBUFFER
  5
16814
330
0
100
AcDbIdBuffer
330
D622
330
D62D
330
154AC
330
154D0
330
154F4
330
15518
330
1553C
330
15590
330
155B4
330
155D8
330
155FC
330
15620
330
15644
330
1568C
330
1577C
330
15948
  0
IDBUFFER
  5
16815
330
0
100
AcDbIdBuffer
330
20A1
330
21E1
330
21E8
330
950E
330
9515
330
9538
  0
IDBUFFER
  5
16816
330
0
100
AcDbIdBuffer
330
1557C
330
1557D
330
1557E
330
1557F
330
153E1
330
153E2
330
153E3
330
153E4
330
153F3
330
153F4
330
153F5
330
153F6
330
15405
330
15406
330
15407
330
15408
330
15417
330
15418
330
15419
330
1541A
  0
IDBUFFER
  5
16817
330
0
100
AcDbIdBuffer
330
15947
330
1594A
  0
IDBUFFER
  5
16818
330
0
100
AcDbIdBuffer
330
14C2F
330
14C30
330
14C31
330
14C32
330
14C33
330
14C34
330
14C35
330
14C36
330
14C37
330
14C38
330
14C39
330
14C3A
330
14C3C
330
14C3D
330
14C3E
330
14C3F
330
14C40
330
14C41
330
14C42
330
14C43
330
14C44
330
14C45
330
14C46
330
14C47
330
14C48
330
14C49
330
14C4A
330
14C4B
330
14C4C
330
14C4D
330
14C4E
330
14C4F
330
14C50
330
14C51
330
14C52
330
14C53
330
14C54
330
14C55
330
14C56
330
14C57
330
14C58
330
14C59
330
14C5A
330
14C5B
330
14C5C
330
14C5D
330
14C5E
330
14C5F
330
14C60
330
14C61
330
14C62
330
14C63
330
14C64
330
14C65
330
14C66
330
14C67
330
14C68
330
14C69
330
14C6A
330
14C6B
330
14C6C
330
14C6D
330
14C6E
330
14C6F
330
14C70
330
14C71
330
14C72
330
14C73
330
14C74
330
14C75
330
14C76
330
14C77
330
14C78
330
14C79
330
14C7A
330
14C7B
330
14C7C
330
14C7D
330
14C7E
330
14C7F
330
14C80
330
14C81
330
14C82
330
14C83
330
14C84
330
14C85
330
14C86
330
14C87
330
14C88
330
14C89
330
14C8A
330
14C8B
330
14C8C
330
14C8D
330
14C8E
330
14C8F
330
14C90
330
14C91
330
14C92
330
14C93
330
14C94
330
14C95
330
14C96
330
14C97
330
14C98
330
14C99
330
14C9A
330
14C9B
330
14C9C
330
14C9D
330
14C9E
330
14C9F
330
14CA0
330
14CA1
330
14CA2
330
14CA3
330
14CA4
330
14CA5
330
14CA6
330
14CA7
330
14CA8
330
14CA9
330
14CAA
330
14CAB
330
14CAC
330
14CAD
330
14CAE
330
14CAF
330
14CB0
330
14CB1
330
14CB2
330
14CB3
330
14CB4
330
14CB5
330
14CB6
330
14CB7
330
14CB8
330
14CB9
330
14CBA
330
14CBB
330
14CBC
330
14CBD
330
14CBE
330
14CBF
330
14CC0
330
14CC1
330
14CC2
330
14CC3
330
14CC4
330
14CC5
330
14CC6
330
14CC7
330
14CC8
330
14CC9
330
14CCA
330
14CCB
330
14CCC
330
14CCD
330
14CCE
330
14CCF
330
14CD0
330
14CD1
330
14CD2
330
14CD3
330
14CD4
330
14CD5
330
14CD6
330
14CD7
330
14CD8
330
14CD9
330
14CDA
330
14CDB
330
14CDC
330
14CDD
330
14CDE
330
14CDF
330
14CE0
330
14CE1
330
14CE2
330
14CE3
330
14CE4
330
14CE5
330
14CE6
330
14CE7
330
14CE8
330
14CE9
330
14CEA
330
14CEB
330
14CEC
330
14CED
330
14CEE
330
14CEF
330
14CF0
330
14CF1
330
14CF2
330
14CF3
330
14CF4
330
14CF5
330
14CF6
330
14CF7
330
14CF8
330
14CF9
330
14CFA
330
14CFB
330
14CFC
330
14CFD
330
14CFE
330
14CFF
330
14D00
330
14D01
330
14D02
330
14D03
330
14D04
330
14D05
330
14D06
330
14D07
330
14D08
330
14D09
330
14D0A
330
14D0B
330
14D0C
330
14D0D
330
14D0E
330
14D0F
330
14D10
330
14D11
330
14D12
330
14D13
330
14D14
330
14D15
330
14D16
330
14D17
330
14D18
330
14D19
330
14D1A
330
14B38
330
14B39
330
14B3A
330
14B3B
330
14B3C
330
14B3D
330
14B3E
330
14B3F
330
14B40
330
14B41
330
14B42
330
14B43
330
14B44
330
14B46
330
14B48
330
14B49
330
14B4A
330
14B4B
330
14B4C
330
14B4D
330
14B4F
330
14B50
330
14B51
330
14B52
330
14B53
330
14B54
330
14B56
330
14B57
330
14B58
330
14B59
330
14B5A
330
14B5B
330
14B5C
330
14B5D
330
14B5F
330
14B60
330
14B61
330
14B62
330
14B63
330
14B64
330
14B65
330
14B66
330
14B67
330
14B68
330
14B6A
330
14B6B
330
14B6C
330
14B6D
330
14B6E
330
14B6F
330
14B70
330
14B71
330
14B72
330
14B73
330
14B74
330
14B75
330
14B76
330
14B77
330
14B78
330
14B79
330
14B7A
330
14B7B
330
14B7C
330
14B7D
330
14B7E
330
14B7F
330
14B80
330
14B81
330
14B82
330
14B83
330
14B84
330
14B85
330
14B86
330
14B87
330
14B88
330
14B89
330
14B8A
330
14B8B
330
14B8C
330
14B8D
330
14B8E
330
14B8F
330
14B90
330
14B91
330
14B92
330
14B93
330
14B94
330
14B95
330
14B96
330
14B97
330
14B98
330
14B99
330
14B9A
330
14B9B
330
14B9C
330
14B9D
330
14B9E
330
14B9F
330
14BA0
330
14BA1
330
14BA2
330
14BA3
330
14BA4
330
14BA5
330
14BA6
330
14BA7
330
14BA8
330
14BA9
330
14BAA
330
14BAB
330
14BAC
330
14BAD
330
14BAE
330
14BAF
330
14BB0
330
14BB1
330
14BB2
330
14BB3
330
14BB4
330
14BB5
330
14BB6
330
14BB7
330
14BB8
330
14BB9
330
14BBA
330
14BBB
330
14BBC
330
14BBD
330
14BBE
330
14BBF
330
14BC0
330
14BC1
330
14BC2
330
14BC3
330
14BC4
330
14BC5
330
14BC6
330
14BC7
330
14BC8
330
14BC9
330
14BCA
330
14BCB
330
14BCC
330
14BCD
330
14BCE
330
14BCF
330
14BD0
330
14BD1
330
14BD2
330
14BD3
330
14BD4
330
14BD5
330
14BD6
330
14BD7
330
14BD8
330
14BD9
330
14BDA
330
14BDB
330
14BDC
330
14BDD
330
14BDE
330
14BDF
330
14BE0
330
14BE1
330
14BE2
330
14BE3
330
14BE4
330
14BE5
330
14BE6
330
14BE7
330
14BE8
330
14BE9
330
14BEA
330
14BEB
330
14BEC
330
14BED
330
14BEE
330
14BEF
330
14BF0
330
14BF1
330
14BF2
330
14BF3
330
14BF4
330
14BF5
330
14BF6
330
14BF7
330
14BF8
330
14BF9
330
14BFA
330
14BFB
330
14BFC
330
14BFD
330
14BFE
330
14BFF
330
14C00
330
14C01
330
14C02
330
14C03
330
14C04
330
14C05
330
14C06
330
14C07
330
14C08
330
14C09
330
14C0A
330
14C0B
330
14C0C
330
14C0D
330
14C0E
330
14C0F
330
14C10
330
14C11
330
14C12
330
14C13
330
14C14
330
14C15
330
14C16
330
14C17
330
14C18
330
14C1A
330
14C1B
330
14C1C
330
14C1D
330
14C1E
330
14C1F
330
14C20
330
14C21
330
14C22
330
14C23
330
14C24
330
14C25
330
14C26
330
14C27
330
14C28
330
14C29
330
14C2A
330
14C2B
330
14C2C
330
14C2D
330
14C2E
  0
IDBUFFER
  5
16819
330
0
100
AcDbIdBuffer
330
164D3
330
164D4
330
164D5
330
164D6
330
164D7
330
164D8
330
164D9
330
164DA
330
164DB
330
164DC
330
164DD
330
164DE
330
164DF
330
164E0
330
164E1
330
164E2
330
164E3
330
164E4
330
164E5
330
164E6
330
164E7
330
164E8
330
164E9
330
164EA
330
164EB
330
164EC
330
164ED
330
164EE
330
164EF
330
164F0
330
164F1
330
164F2
330
164F3
330
16463
330
16464
330
16465
330
16466
330
16467
330
16468
330
16469
330
1646A
330
1646B
330
1646C
330
1646D
330
1646E
330
1646F
330
16470
330
16471
330
16472
330
16473
330
16474
330
16475
330
16476
330
16477
330
16478
330
16479
330
1647A
330
1647B
330
1647C
330
1647D
330
1647E
330
1647F
330
16480
330
16481
330
16482
330
16483
330
16484
330
16485
330
16486
330
16487
330
16488
330
16489
330
1648A
330
1648B
330
1648C
330
1648D
330
1648E
330
1648F
330
16490
330
16491
330
16492
330
16493
330
16494
330
16495
330
16496
330
16497
330
16498
330
16499
330
1649A
330
1649B
330
1649C
330
1649D
330
1649E
330
1649F
330
164A0
330
164A1
330
164A2
330
164A3
330
164A4
330
164A5
330
164A6
330
164A7
330
164A8
330
164A9
330
164AA
330
164AB
330
164AC
330
164AD
330
164AE
330
164AF
330
164B0
330
164B1
330
164B2
330
164B3
330
164B4
330
164B5
330
164B6
330
164B7
330
164B8
330
164B9
330
164BA
330
164BB
330
164BC
330
164BD
330
164BE
330
164BF
330
164C0
330
164C1
330
164C2
330
164C3
330
164C4
330
164C5
330
164C6
330
164C7
330
164C8
330
164C9
330
164CA
330
164CB
330
164CC
330
164CD
330
164CE
330
164CF
330
164D0
330
164D1
330
164D2
  0
ENDSEC
  0
EOF
