  0
SECTION
  2
HEADER
  9
$ACADVER
  1
AC1012
  9
$DWGCODEPAGE
  3
big5
  9
$INSBASE
 10
0.0
 20
0.0
 30
0.0
  9
$EXTMIN
 10
-20.63340080252741
 20
315.654974150663
 30
0.0
  9
$EXTMAX
 10
270.6823452458402
 20
695.2917865409683
 30
0.0
  9
$LIMMIN
 10
0.0
 20
0.0
  9
$LIMMAX
 10
420.0
 20
297.0
  9
$ORTHOMODE
 70
     0
  9
$REGENMODE
 70
     1
  9
$FILLMODE
 70
     1
  9
$QTEXTMODE
 70
     0
  9
$MIRRTEXT
 70
     1
  9
$DRAGMODE
 70
     2
  9
$LTSCALE
 40
1.0
  9
$OSMODE
 70
    39
  9
$ATTMODE
 70
     1
  9
$TEXTSIZE
 40
2.5
  9
$TRACEWID
 40
1.0
  9
$TEXTSTYLE
  7
STANDARD
  9
$CLAYER
  8
0
  9
$CELTYPE
  6
BYLAYER
  9
$CECOLOR
 62
   256
  9
$CELTSCALE
 40
1.0
  9
$DELOBJ
 70
     1
  9
$DISPSILH
 70
     0
  9
$DIMSCALE
 40
1.0
  9
$DIMASZ
 40
2.5
  9
$DIMEXO
 40
1.0
  9
$DIMDLI
 40
10.0
  9
$DIMRND
 40
0.0
  9
$DIMDLE
 40
0.0
  9
$DIMEXE
 40
1.0
  9
$DIMTP
 40
0.1
  9
$DIMTM
 40
0.1
  9
$DIMTXT
 40
3.5
  9
$DIMCEN
 40
0.0
  9
$DIMTSZ
 40
0.0
  9
$DIMTOL
 70
     0
  9
$DIMLIM
 70
     0
  9
$DIMTIH
 70
     0
  9
$DIMTOH
 70
     0
  9
$DIMSE1
 70
     0
  9
$DIMSE2
 70
     0
  9
$DIMTAD
 70
     1
  9
$DIMZIN
 70
     8
  9
$DIMBLK
  1

  9
$DIMASO
 70
     1
  9
$DIMSHO
 70
     1
  9
$DIMPOST
  1

  9
$DIMAPOST
  1
"
  9
$DIMALT
 70
     0
  9
$DIMALTD
 70
     2
  9
$DIMALTF
 40
0.0393701
  9
$DIMLFAC
 40
1.0
  9
$DIMTOFL
 70
     1
  9
$DIMTVP
 40
0.0
  9
$DIMTIX
 70
     0
  9
$DIMSOXD
 70
     0
  9
$DIMSAH
 70
     0
  9
$DIMBLK1
  1

  9
$DIMBLK2
  1

  9
$DIMSTYLE
  2
AM_ISO
  9
$DIMCLRD
 70
   256
  9
$DIMCLRE
 70
   256
  9
$DIMCLRT
 70
     2
  9
$DIMTFAC
 40
0.71
  9
$DIMGAP
 40
1.5
  9
$DIMJUST
 70
     0
  9
$DIMSD1
 70
     0
  9
$DIMSD2
 70
     0
  9
$DIMTOLJ
 70
     0
  9
$DIMTZIN
 70
     0
  9
$DIMALTZ
 70
     0
  9
$DIMALTTZ
 70
     0
  9
$DIMFIT
 70
     3
  9
$DIMUPT
 70
     0
  9
$DIMUNIT
 70
     2
  9
$DIMDEC
 70
     2
  9
$DIMTDEC
 70
     3
  9
$DIMALTU
 70
     2
  9
$DIMALTTD
 70
     4
  9
$DIMTXSTY
  7
STANDARD
  9
$DIMAUNIT
 70
     0
  9
$LUNITS
 70
     2
  9
$LUPREC
 70
     4
  9
$SKETCHINC
 40
1.0
  9
$FILLETRAD
 40
10.0
  9
$AUNITS
 70
     0
  9
$AUPREC
 70
     0
  9
$MENU
  1
.
  9
$ELEVATION
 40
0.0
  9
$PELEVATION
 40
0.0
  9
$THICKNESS
 40
0.0
  9
$LIMCHECK
 70
     0
  9
$BLIPMODE
 70
     0
  9
$CHAMFERA
 40
10.0
  9
$CHAMFERB
 40
10.0
  9
$CHAMFERC
 40
20.0
  9
$CHAMFERD
 40
0.0
  9
$SKPOLY
 70
     0
  9
$TDCREATE
 40
2451852.499556226
  9
$TDUPDATE
 40
2452655.705720116
  9
$TDINDWG
 40
0.3902770139
  9
$TDUSRTIMER
 40
0.3902768981
  9
$USRTIMER
 70
     1
  9
$ANGBASE
 50
0.0
  9
$ANGDIR
 70
     0
  9
$PDMODE
 70
     0
  9
$PDSIZE
 40
0.0
  9
$PLINEWID
 40
0.0
  9
$COORDS
 70
     2
  9
$SPLFRAME
 70
     0
  9
$SPLINETYPE
 70
     6
  9
$SPLINESEGS
 70
     8
  9
$ATTDIA
 70
     0
  9
$ATTREQ
 70
     1
  9
$HANDLING
 70
 22529
  9
$HANDSEED
  5
4BB7
  9
$SURFTAB1
 70
     6
  9
$SURFTAB2
 70
     6
  9
$SURFTYPE
 70
     6
  9
$SURFU
 70
     6
  9
$SURFV
 70
     6
  9
$UCSNAME
  2

  9
$UCSORG
 10
0.0
 20
0.0
 30
0.0
  9
$UCSXDIR
 10
1.0
 20
0.0
 30
0.0
  9
$UCSYDIR
 10
0.0
 20
1.0
 30
0.0
  9
$PUCSNAME
  2

  9
$PUCSORG
 10
0.0
 20
0.0
 30
0.0
  9
$PUCSXDIR
 10
1.0
 20
0.0
 30
0.0
  9
$PUCSYDIR
 10
0.0
 20
1.0
 30
0.0
  9
$USERI1
 70
     0
  9
$USERI2
 70
     0
  9
$USERI3
 70
     0
  9
$USERI4
 70
     0
  9
$USERI5
 70
     0
  9
$USERR1
 40
0.0
  9
$USERR2
 40
0.0
  9
$USERR3
 40
0.0
  9
$USERR4
 40
0.0
  9
$USERR5
 40
0.0
  9
$WORLDVIEW
 70
     1
  9
$SHADEDGE
 70
     3
  9
$SHADEDIF
 70
    70
  9
$TILEMODE
 70
     1
  9
$MAXACTVP
 70
    48
  9
$PINSBASE
 10
0.0
 20
0.0
 30
0.0
  9
$PLIMCHECK
 70
     0
  9
$PEXTMIN
 10
1.000000000000000E+20
 20
1.000000000000000E+20
 30
1.000000000000000E+20
  9
$PEXTMAX
 10
-1.000000000000000E+20
 20
-1.000000000000000E+20
 30
-1.000000000000000E+20
  9
$PLIMMIN
 10
0.0
 20
0.0
  9
$PLIMMAX
 10
420.0
 20
297.0
  9
$UNITMODE
 70
     0
  9
$VISRETAIN
 70
     1
  9
$PLINEGEN
 70
     0
  9
$PSLTSCALE
 70
     1
  9
$TREEDEPTH
 70
  3020
  9
$PICKSTYLE
 70
     1
  9
$CMLSTYLE
  2
STANDARD
  9
$CMLJUST
 70
     0
  9
$CMLSCALE
 40
20.0
  9
$SAVEIMAGES
 70
     1
  0
ENDSEC
  0
SECTION
  2
CLASSES
  0
CLASS
  1
ACDBDICTIONARYWDFLT
  2
AcDbDictionaryWithDefault
  3
AutoCAD 2000
 90
    32768
280
     0
281
     0
  0
CLASS
  1
ACDBPLACEHOLDER
  2
AcDbPlaceHolder
  3
AutoCAD 2000
 90
    32768
280
     0
281
     0
  0
CLASS
  1
LAYOUT
  2
AcDbLayout
  3
AutoCAD 2000
 90
    32768
280
     0
281
     0
  0
CLASS
  1
ACME_DOCUMENT
  2
AcMeDbDoc
  3
AcMeServices
 90
    32768
280
     0
281
     0
  0
CLASS
  1
ACMESCOPE
  2
AcMeScope
  3
AcMeServices
 90
    32768
280
     0
281
     0
  0
CLASS
  1
ACMECOMMANDHISTORY
  2
AcMeCommandHistory
  3
AcMeServices
 90
    32768
280
     0
281
     0
  0
CLASS
  1
DICTIONARYVAR
  2
AcDbDictionaryVar
  3
AutoCAD 2000
 90
    32768
280
     0
281
     0
  0
CLASS
  1
ACIMSYSVARMAN
  2
AcImSysVarManager
  3
AcMeServices
 90
    32768
280
     0
281
     0
  0
CLASS
  1
ACIMREALSYSVAR
  2
AcImRealSysVar
  3
AcMeServices
 90
    32768
280
     0
281
     0
  0
CLASS
  1
ACIMINTSYSVAR
  2
AcImIntSysVar
  3
AcMeServices
 90
    32768
280
     0
281
     0
  0
CLASS
  1
ACMEDRAWINGMAN
  2
AcMeDrawingMan
  3
AcMeServices
 90
    32768
280
     0
281
     0
  0
CLASS
  1
ACMEVIEW
  2
AcMeView
  3
AcMeServices
 90
    32768
280
     0
281
     0
  0
CLASS
  1
ACDBENTITYCACHE
  2
AcMeEntityCache
  3
AcMeServices
 90
    32768
280
     0
281
     0
  0
CLASS
  1
GSMANAGER
  2
AcMeGSManager
  3
AcMeServices
 90
    32768
280
     0
281
     0
  0
CLASS
  1
AmdtInternalReactor
  2
AmdtInternalReactor
  3
AcMeServices
 90
    32768
280
     0
281
     0
  0
CLASS
  1
ACMESTATEMGR
  2
AcMeStateMgr
  3
AcMeServices
 90
    32768
280
     0
281
     0
  0
CLASS
  1
ACME_DATABASE
  2
AcMeDbDatabase
  3
AcMeServices
 90
    32768
280
     0
281
     0
  0
CLASS
  1
ACRFINSADJUSTERMGR
  2
AcRfInsAdjusterMgr
  3
AcMeServices
 90
    32768
280
     0
281
     0
  0
CLASS
  1
AMGSETTINGSOBJ
  2
AmgSettingsObj
  3
"AcadM|Product Description: AutoCAD Mechanical 2000|Company: Autodesk"
 90
    32768
280
     0
281
     0
  0
CLASS
  1
ACMDATADICTIONARY
  2
AcmDataDictionary
  3
"AcmSymBB|Product Description: AutoCAD Mechanical 2000|Company: Autodesk"
 90
    32768
280
     0
281
     0
  0
CLASS
  1
ACMDATAENTRYBLOCK
  2
AcmDataEntryBlock
  3
"AcmSymBB|Product Description: AutoCAD Mechanical 2000|Company: Autodesk"
 90
    32768
280
     0
281
     0
  0
CLASS
  1
AMGOBJPROPCFG
  2
AmgObjPropCfg
  3
"AmgLay|Product Description: AutoCAD Mechanical 2000|Company: Autodesk"
 90
    32769
280
     0
281
     0
  0
CLASS
  1
ACAMGFILTERDAT
  2
AcAmgFilterDat
  3
"AcadM|Product Description: AutoCAD Mechanical 2000|Company: Autodesk"
 90
    32768
280
     0
281
     0
  0
CLASS
  1
LAYER_INDEX
  2
AcDbLayerIndex
  3
AutoCAD 2000
 90
    32768
280
     0
281
     0
  0
CLASS
  1
IDBUFFER
  2
AcDbIdBuffer
  3
AutoCAD 2000
 90
    32768
280
     0
281
     0
  0
CLASS
  1
ACAD_PROXY_OBJECT_WRAPPER
  2
AcDbProxyObjectWrapper
  3
AutoCAD 2000
 90
    32768
280
     0
281
     0
  0
CLASS
  1
LONG_TRANSACTION
  2
AcDbLongTransaction
  3
AutoCAD 2000
 90
    32768
280
     0
281
     0
  0
CLASS
  1
LWPOLYLINE
  2
AcDbPolyline
  3
AutoCAD 2000
 90
    32768
280
     0
281
     1
  0
CLASS
  1
HATCH
  2
AcDbHatch
  3
AutoCAD 2000
 90
    32768
280
     0
281
     1
  0
CLASS
  1
XRECORD
  2
AcDbXrecord
  3
AutoCAD 2000
 90
    32768
280
     0
281
     0
  0
CLASS
  1
LONG_TRANSACTION
  2
AcDbLongTransaction
  3
AutoCAD 2000
 90
    32768
280
     0
281
     0
  0
CLASS
  1
LWPOLYLINE
  2
AcDbPolyline
  3
AutoCAD 2000
 90
    32768
280
     0
281
     1
  0
CLASS
  1
HATCH
  2
AcDbHatch
  3
AutoCAD 2000
 90
    32768
280
     0
281
     1
  0
CLASS
  1
XRECORD
  2
AcDbXrecord
  3
AutoCAD 2000
 90
    32768
280
     0
281
     0
  0
ENDSEC
  0
SECTION
  2
TABLES
  0
TABLE
  2
VPORT
  5
8
330
0
100
AcDbSymbolTable
 70
     3
  0
VPORT
  5
4B99
330
8
100
AcDbSymbolTableRecord
100
AcDbViewportTableRecord
  2
*ACTIVE
 70
     0
 10
0.0
 20
0.0
 11
1.0
 21
1.0
 12
139.6813806222804
 22
505.4836970847143
 13
0.0
 23
0.0
 14
10.0
 24
10.0
 15
10.0
 25
10.0
 16
0.0
 26
0.0
 36
1.0
 17
0.0
 27
0.0
 37
0.0
 40
384.0860718662513
 41
1.442990654205607
 42
50.0
 43
0.0
 44
0.0
 50
0.0
 51
0.0
 71
     0
 72
   100
 73
     1
 74
     3
 75
     0
 76
     0
 77
     0
 78
     0
  0
ENDTAB
  0
TABLE
  2
LTYPE
  5
5
330
0
100
AcDbSymbolTable
 70
     9
  0
LTYPE
  5
14
330
5
100
AcDbSymbolTableRecord
100
AcDbLinetypeTableRecord
  2
BYBLOCK
 70
     0
  3

 72
    65
 73
     0
 40
0.0
  0
LTYPE
  5
15
330
5
100
AcDbSymbolTableRecord
100
AcDbLinetypeTableRecord
  2
BYLAYER
 70
     0
  3

 72
    65
 73
     0
 40
0.0
  0
LTYPE
  5
16
330
5
100
AcDbSymbolTableRecord
100
AcDbLinetypeTableRecord
  2
CONTINUOUS
 70
     0
  3
Solid line
 72
    65
 73
     0
 40
0.0
  0
LTYPE
  5
23B
330
5
100
AcDbSymbolTableRecord
100
AcDbLinetypeTableRecord
  2
AM_ISO02W050
 70
     0
  3
__ __ __ __ __ __ __ __ __ __ __ __ __ __ __
 72
    65
 73
     2
 40
7.5
 49
6.0
 74
     0
 49
-1.5
 74
     0
  0
LTYPE
  5
23C
330
5
100
AcDbSymbolTableRecord
100
AcDbLinetypeTableRecord
  2
AM_ISO08W050
 70
     0
  3
____ . ____ . ____ . ____ . ____ . ____ . ____
 72
    65
 73
     4
 40
18.0
 49
12.0
 74
     0
 49
-1.5
 74
     0
 49
3.0
 74
     0
 49
-1.5
 74
     0
  0
LTYPE
  5
23D
330
5
100
AcDbSymbolTableRecord
100
AcDbLinetypeTableRecord
  2
AM_ISO09W050
 70
     0
  3
_____ . . _____ . . _____ . . ____ .. ____
 72
    65
 73
     6
 40
22.5
 49
12.0
 74
     0
 49
-1.5
 74
     0
 49
3.0
 74
     0
 49
-1.5
 74
     0
 49
3.0
 74
     0
 49
-1.5
 74
     0
  0
LTYPE
  5
23E
330
5
100
AcDbSymbolTableRecord
100
AcDbLinetypeTableRecord
  2
AMCONSTR
 70
     0
  3
_______________________
 72
    65
 73
     2
 40
9999.0
 49
9999.0
 74
     0
 49
0.0
 74
     0
  0
LTYPE
  5
23F
330
5
100
AcDbSymbolTableRecord
100
AcDbLinetypeTableRecord
  2
AM_ISO02W050X2
 70
     0
  3
 _ _ _ _ _ _ _ _ _ _ _ _
 72
    65
 73
     2
 40
3.75
 49
3.0
 74
     0
 49
-0.75
 74
     0
  0
LTYPE
  5
240
330
5
100
AcDbSymbolTableRecord
100
AcDbLinetypeTableRecord
  2
AM_ISO08W050X2
 70
     0
  3
__ . __ . __ . __ . __ . __
 72
    65
 73
     4
 40
9.0
 49
6.0
 74
     0
 49
-0.75
 74
     0
 49
1.5
 74
     0
 49
-0.75
 74
     0
  0
LTYPE
  5
243
330
5
100
AcDbSymbolTableRecord
100
AcDbLinetypeTableRecord
  2
AMZIGZAG
 70
     0
  3
/\/-/\/-/\/-/\/-/\/-/\/
 72
    65
 73
     2
 40
11.00009999999999
 49
0.0001
 74
     4
 75
   135
340
242
 46
0.04
 50
0.0
 44
0.0
 45
0.0
 49
-11.0
 74
     0
  0
LTYPE
  5
4967
330
5
100
AcDbSymbolTableRecord
100
AcDbLinetypeTableRecord
  2
CENTER
 70
     0
  3
Center ____ _ ____ _ ____ _ ____ _ ____ _ ____
 72
    65
 73
     4
 40
2.0
 49
1.25
 74
     0
 49
-0.25
 74
     0
 49
0.25
 74
     0
 49
-0.25
 74
     0
  0
ENDTAB
  0
TABLE
  2
LAYER
  5
2
330
0
100
AcDbSymbolTable
 70
     6
  0
LAYER
  5
10
330
2
100
AcDbSymbolTableRecord
100
AcDbLayerTableRecord
  2
0
 70
     0
 62
     7
  6
CONTINUOUS
  0
LAYER
  5
250
330
2
100
AcDbSymbolTableRecord
100
AcDbLayerTableRecord
  2
AM_VIS
 70
     2
 62
     7
  6
CONTINUOUS
  0
LAYER
  5
7A6
330
2
100
AcDbSymbolTableRecord
100
AcDbLayerTableRecord
  2
DEFPOINTS
 70
     0
 62
     7
  6
CONTINUOUS
  0
LAYER
  5
4968
330
2
100
AcDbSymbolTableRecord
100
AcDbLayerTableRecord
  2
LOGO
 70
     0
 62
     7
  6
CONTINUOUS
  0
LAYER
  5
4969
330
2
100
AcDbSymbolTableRecord
100
AcDbLayerTableRecord
  2
CENTER
 70
     0
 62
     1
  6
CENTER
  0
LAYER
  5
496B
330
2
100
AcDbSymbolTableRecord
100
AcDbLayerTableRecord
  2
DIM
 70
     0
 62
     5
  6
CONTINUOUS
  0
ENDTAB
  0
TABLE
  2
STYLE
  5
3
330
0
100
AcDbSymbolTable
 70
     8
  0
STYLE
  5
11
330
3
100
AcDbSymbolTableRecord
100
AcDbTextStyleTableRecord
  2
STANDARD
 70
     0
 40
0.0
 41
1.0
 50
0.0
 71
     0
 42
2.5
  3
txt
  4

  0
STYLE
  5
242
330
3
100
AcDbSymbolTableRecord
100
AcDbTextStyleTableRecord
  2

 70
     1
 40
0.0
 41
1.0
 50
0.0
 71
     0
 42
2.5
  3
ltypeshp.shx
  4

  0
STYLE
  5
3BB
330
3
100
AcDbSymbolTableRecord
100
AcDbTextStyleTableRecord
  2
ITALICT
 70
     0
 40
0.0
 41
1.0
 50
0.0
 71
     0
 42
6.0
  3
italict
  4

  0
STYLE
  5
1495
330
3
100
AcDbSymbolTableRecord
100
AcDbTextStyleTableRecord
  2
ROMANS
 70
     0
 40
0.0
 41
1.0
 50
0.0
 71
     0
 42
2.0
  3
romans
  4

  0
STYLE
  5
2424
330
3
100
AcDbSymbolTableRecord
100
AcDbTextStyleTableRecord
  2
DAYUS
 70
     0
 40
0.0
 41
1.0
 50
0.0
 71
     0
 42
4.0
  3
simplex.shx
  4
dayus.shx
  0
STYLE
  5
496C
330
3
100
AcDbSymbolTableRecord
100
AcDbTextStyleTableRecord
  2
CHINESET
 70
     0
 40
0.0
 41
1.0
 50
0.0
 71
     0
 42
5.0
  3
simplex.shx
  4
chineset.shx
  0
STYLE
  5
496D
330
3
100
AcDbSymbolTableRecord
100
AcDbTextStyleTableRecord
  2
LOGO
 70
     0
 40
0.0
 41
1.0
 50
0.0
 71
     0
 42
5.0
  3
LEI00DP.TTF
  4

1001
ACAD
1000
文鼎中粗隸
1071
    34865
  0
ENDTAB
  0
TABLE
  2
VIEW
  5
6
330
0
100
AcDbSymbolTable
 70
     0
  0
ENDTAB
  0
TABLE
  2
UCS
  5
7
330
0
100
AcDbSymbolTable
 70
     0
  0
ENDTAB
  0
TABLE
  2
APPID
  5
9
330
0
100
AcDbSymbolTable
 70
     9
  0
APPID
  5
12
330
9
100
AcDbSymbolTableRecord
100
AcDbRegAppTableRecord
  2
ACAD
 70
     0
  0
APPID
  5
21F
330
9
100
AcDbSymbolTableRecord
100
AcDbRegAppTableRecord
  2
MCAD_NO_VIS
 70
     0
  0
APPID
  5
220
330
9
100
AcDbSymbolTableRecord
100
AcDbRegAppTableRecord
  2
ACAD_TEMP_GRAPHIC
 70
     0
  0
APPID
  5
549
330
9
100
AcDbSymbolTableRecord
100
AcDbRegAppTableRecord
  2
GENIUS_GENREC_14
 70
     0
  0
APPID
  5
54A
330
9
100
AcDbSymbolTableRecord
100
AcDbRegAppTableRecord
  2
GENIUS_GENODEF_13
 70
     0
  0
APPID
  5
54B
330
9
100
AcDbSymbolTableRecord
100
AcDbRegAppTableRecord
  2
GENIUS_GENOBJ-N-REC_13
 70
     0
  0
APPID
  5
7AC
330
9
100
AcDbSymbolTableRecord
100
AcDbRegAppTableRecord
  2
GENIUS_GENDTOL_13
 70
     0
  0
APPID
  5
3C89
330
9
100
AcDbSymbolTableRecord
100
AcDbRegAppTableRecord
  2
ACADM_DIM_EDIT
 70
     0
  0
APPID
  5
496E
330
9
100
AcDbSymbolTableRecord
100
AcDbRegAppTableRecord
  2
TCAD
 70
     0
  0
ENDTAB
  0
TABLE
  2
DIMSTYLE
  5
A
330
0
100
AcDbSymbolTable
 70
     8
  0
DIMSTYLE
105
2425
102
{ACAD_REACTORS
330
2A77
330
2A8B
330
2A8C
330
2A8D
330
2A8E
330
2A8F
330
2A91
330
2A93
330
2A94
330
2A95
330
2A96
330
2A97
330
2A98
330
2A99
330
2A8A
330
30EB
102
}
330
A
100
AcDbSymbolTableRecord
100
AcDbDimStyleTableRecord
  2
STANDARD
 70
     0
  3

  4

  5

  6

  7

 40
2.0
 41
0.18
 42
0.0625
 43
0.38
 44
0.18
 45
0.0
 46
0.0
 47
0.0
 48
0.0
140
0.18
141
0.09
142
0.0
143
25.4
144
1.0
145
0.0
146
1.0
147
0.09
 71
     0
 72
     0
 73
     1
 74
     1
 75
     0
 76
     0
 77
     0
 78
     0
170
     0
171
     2
172
     0
173
     0
174
     0
175
     0
176
     0
177
     0
178
     0
270
     2
271
     4
272
     4
273
     2
274
     2
340
11
275
     0
280
     0
281
     0
282
     0
283
     1
284
     0
285
     0
286
     0
287
     3
288
     0
  0
DIMSTYLE
105
2F0B
330
A
100
AcDbSymbolTableRecord
100
AcDbDimStyleTableRecord
  2
AM_ISO
 70
     0
  3

  4
"
  5

  6

  7

 40
1.0
 41
2.5
 42
1.0
 43
10.0
 44
1.0
 45
0.0
 46
0.0
 47
0.1
 48
0.1
140
3.5
141
0.0
142
0.0
143
0.0393701
144
1.0
145
0.0
146
0.71
147
1.5
 71
     0
 72
     0
 73
     0
 74
     0
 75
     0
 76
     0
 77
     1
 78
     8
170
     0
171
     2
172
     1
173
     0
174
     0
175
     0
176
   256
177
   256
178
     2
270
     2
271
     2
272
     3
273
     2
274
     4
340
11
275
     0
280
     0
281
     0
282
     0
283
     0
284
     0
285
     0
286
     0
287
     3
288
     0
  0
DIMSTYLE
105
2F0C
330
A
100
AcDbSymbolTableRecord
100
AcDbDimStyleTableRecord
  2
AM_ISO$3
 70
     0
  3

  4
"
  5

  6

  7

 40
1.0
 41
2.5
 42
1.0
 43
10.0
 44
1.0
 45
0.0
 46
0.0
 47
0.1
 48
0.1
140
3.5
141
0.0
142
0.0
143
0.0393701
144
1.0
145
0.0
146
0.71
147
1.5
 71
     0
 72
     0
 73
     0
 74
     1
 75
     0
 76
     0
 77
     1
 78
     8
170
     0
171
     2
172
     0
173
     0
174
     0
175
     0
176
   256
177
   256
178
     2
270
     2
271
     2
272
     3
273
     2
274
     4
340
11
275
     0
280
     0
281
     0
282
     0
283
     0
284
     0
285
     0
286
     0
287
     0
288
     1
  0
DIMSTYLE
105
2F0D
330
A
100
AcDbSymbolTableRecord
100
AcDbDimStyleTableRecord
  2
AM_ISO$4
 70
     0
  3

  4
"
  5

  6

  7

 40
1.0
 41
2.5
 42
1.0
 43
10.0
 44
1.0
 45
0.0
 46
0.0
 47
0.1
 48
0.1
140
3.5
141
0.0
142
0.0
143
0.0393701
144
1.0
145
0.0
146
0.71
147
1.5
 71
     0
 72
     0
 73
     0
 74
     1
 75
     0
 76
     0
 77
     1
 78
     8
170
     0
171
     2
172
     0
173
     0
174
     0
175
     0
176
   256
177
   256
178
     2
270
     2
271
     2
272
     3
273
     2
274
     4
340
11
275
     0
280
     0
281
     0
282
     0
283
     0
284
     0
285
     0
286
     0
287
     0
288
     1
  0
DIMSTYLE
105
2F0E
330
A
100
AcDbSymbolTableRecord
100
AcDbDimStyleTableRecord
  2
AM_ISO$6
 70
     0
  3

  4
"
  5

  6

  7

 40
1.0
 41
2.5
 42
1.0
 43
10.0
 44
1.0
 45
0.0
 46
0.0
 47
0.1
 48
0.1
140
3.5
141
0.0
142
0.0
143
0.0393701
144
1.0
145
0.0
146
0.71
147
1.5
 71
     0
 72
     0
 73
     0
 74
     0
 75
     0
 76
     0
 77
     0
 78
     8
170
     0
171
     2
172
     1
173
     0
174
     0
175
     0
176
   256
177
   256
178
     2
270
     2
271
     2
272
     3
273
     2
274
     4
340
11
275
     0
280
     0
281
     0
282
     0
283
     0
284
     0
285
     0
286
     0
287
     3
288
     0
  0
DIMSTYLE
105
2F0F
330
A
100
AcDbSymbolTableRecord
100
AcDbDimStyleTableRecord
  2
AM_ISO$7
 70
     0
  3

  4
"
  5

  6

  7

 40
1.0
 41
2.5
 42
1.0
 43
10.0
 44
1.0
 45
0.0
 46
0.0
 47
0.1
 48
0.1
140
5.0
141
0.0
142
0.0
143
0.0393701
144
1.0
145
0.0
146
0.71
147
1.5
 71
     0
 72
     0
 73
     0
 74
     0
 75
     0
 76
     0
 77
     1
 78
     8
170
     0
171
     2
172
     1
173
     0
174
     0
175
     0
176
   256
177
   256
178
     2
270
     2
271
     2
272
     3
273
     2
274
     4
340
11
275
     0
280
     0
281
     0
282
     0
283
     0
284
     0
285
     0
286
     0
287
     3
288
     0
  0
DIMSTYLE
105
2F10
330
A
100
AcDbSymbolTableRecord
100
AcDbDimStyleTableRecord
  2
AM_ISO$SF
 70
     0
  3

  4
"
  5

  6

  7

 40
1.0
 41
2.5
 42
1.0
 43
10.0
 44
1.0
 45
0.0
 46
0.0
 47
0.1
 48
0.1
140
3.5
141
0.0
142
0.0
143
0.0393701
144
1.0
145
0.0
146
0.71
147
1.5
 71
     0
 72
     0
 73
     0
 74
     0
 75
     1
 76
     1
 77
     1
 78
     8
170
     0
171
     2
172
     1
173
     0
174
     0
175
     0
176
   256
177
   256
178
     2
270
     2
271
     2
272
     3
273
     2
274
     4
340
11
275
     0
280
     0
281
     0
282
     0
283
     0
284
     0
285
     0
286
     0
287
     3
288
     0
  0
DIMSTYLE
105
2F15
330
A
100
AcDbSymbolTableRecord
100
AcDbDimStyleTableRecord
  2
AM_ISO$SH
 70
     0
  3

  4
"
  5

  6
GENAXEH
  7

 40
1.0
 41
2.5
 42
1.0
 43
10.0
 44
1.0
 45
0.0
 46
0.0
 47
0.1
 48
0.1
140
3.5
141
0.0
142
0.0
143
0.0393701
144
2.0
145
0.0
146
0.71
147
1.5
 71
     0
 72
     0
 73
     0
 74
     0
 75
     1
 76
     1
 77
     1
 78
     8
170
     0
171
     2
172
     1
173
     1
174
     0
175
     0
176
   256
177
   256
178
     2
270
     2
271
     2
272
     3
273
     2
274
     4
340
11
275
     0
280
     0
281
     0
282
     0
283
     0
284
     0
285
     0
286
     0
287
     3
288
     0
  0
ENDTAB
  0
TABLE
  2
BLOCK_RECORD
  5
1
330
0
100
AcDbSymbolTable
 70
    18
  0
BLOCK_RECORD
  5
1F
102
{ACAD_XDICTIONARY
360
4FD
102
}
330
1
100
AcDbSymbolTableRecord
100
AcDbBlockTableRecord
  2
*MODEL_SPACE
  0
BLOCK_RECORD
  5
1B
102
{ACAD_XDICTIONARY
360
4AB4
102
}
330
1
100
AcDbSymbolTableRecord
100
AcDbBlockTableRecord
  2
*PAPER_SPACE
  0
BLOCK_RECORD
  5
2B4B
330
1
100
AcDbSymbolTableRecord
100
AcDbBlockTableRecord
  2
*D1
  0
BLOCK_RECORD
  5
2BEB
330
1
100
AcDbSymbolTableRecord
100
AcDbBlockTableRecord
  2
*D2
  0
BLOCK_RECORD
  5
2BF7
330
1
100
AcDbSymbolTableRecord
100
AcDbBlockTableRecord
  2
*D3
  0
BLOCK_RECORD
  5
2C03
330
1
100
AcDbSymbolTableRecord
100
AcDbBlockTableRecord
  2
*D4
  0
BLOCK_RECORD
  5
2C0F
330
1
100
AcDbSymbolTableRecord
100
AcDbBlockTableRecord
  2
*D5
  0
BLOCK_RECORD
  5
2C1B
330
1
100
AcDbSymbolTableRecord
100
AcDbBlockTableRecord
  2
*D6
  0
BLOCK_RECORD
  5
2C27
330
1
100
AcDbSymbolTableRecord
100
AcDbBlockTableRecord
  2
*D7
  0
BLOCK_RECORD
  5
2C33
330
1
100
AcDbSymbolTableRecord
100
AcDbBlockTableRecord
  2
*D8
  0
BLOCK_RECORD
  5
2C4B
330
1
100
AcDbSymbolTableRecord
100
AcDbBlockTableRecord
  2
*D9
  0
BLOCK_RECORD
  5
2C57
330
1
100
AcDbSymbolTableRecord
100
AcDbBlockTableRecord
  2
*D10
  0
BLOCK_RECORD
  5
2C63
330
1
100
AcDbSymbolTableRecord
100
AcDbBlockTableRecord
  2
*D11
  0
BLOCK_RECORD
  5
2C6F
330
1
100
AcDbSymbolTableRecord
100
AcDbBlockTableRecord
  2
*D12
  0
BLOCK_RECORD
  5
2C7B
330
1
100
AcDbSymbolTableRecord
100
AcDbBlockTableRecord
  2
*D13
  0
BLOCK_RECORD
  5
2C87
330
1
100
AcDbSymbolTableRecord
100
AcDbBlockTableRecord
  2
*D14
  0
BLOCK_RECORD
  5
2C93
330
1
100
AcDbSymbolTableRecord
100
AcDbBlockTableRecord
  2
*D15
  0
BLOCK_RECORD
  5
2F11
330
1
100
AcDbSymbolTableRecord
100
AcDbBlockTableRecord
  2
GENAXEH
  0
BLOCK_RECORD
  5
30EC
330
1
100
AcDbSymbolTableRecord
100
AcDbBlockTableRecord
  2
*D17
  0
ENDTAB
  0
ENDSEC
  0
SECTION
  2
BLOCKS
  0
BLOCK
  5
20
330
1F
100
AcDbEntity
  8
0
100
AcDbBlockBegin
  2
*MODEL_SPACE
 70
     0
 10
0.0
 20
0.0
 30
0.0
  3
*MODEL_SPACE
  1

  0
ENDBLK
  5
21
330
1F
100
AcDbEntity
  8
0
100
AcDbBlockEnd
  0
BLOCK
  5
1C
330
1B
100
AcDbEntity
 67
     1
  8
0
100
AcDbBlockBegin
  2
*PAPER_SPACE
 70
     0
 10
0.0
 20
0.0
 30
0.0
  3
*PAPER_SPACE
  1

  0
ENDBLK
  5
1D
330
1B
100
AcDbEntity
 67
     1
  8
0
100
AcDbBlockEnd
  0
BLOCK
  5
2B55
330
2B4B
100
AcDbEntity
  8
0
100
AcDbBlockBegin
  2
*D1
 70
     1
 10
0.0
 20
0.0
 30
0.0
  3
*D1
  1

  0
LINE
  5
4A02
330
2B4B
100
AcDbEntity
  8
DIM
100
AcDbLine
 10
217.2004481423812
 20
425.0466552188007
 30
0.0
 11
233.8684803295165
 21
425.0466552188007
 31
0.0
  0
LINE
  5
4A03
330
2B4B
100
AcDbEntity
  8
DIM
100
AcDbLine
 10
208.5004481423812
 20
442.0466552188008
 30
0.0
 11
233.8684803295165
 21
442.0466552188008
 31
0.0
  0
LINE
  5
4A04
330
2B4B
100
AcDbEntity
  8
DIM
100
AcDbLine
 10
230.6684803295165
 20
431.0466552188008
 30
0.0
 11
230.6684803295165
 21
436.0466552188007
 31
0.0
  0
SOLID
  5
4A05
330
2B4B
100
AcDbEntity
  8
DIM
100
AcDbTrace
 10
229.6684803295165
 20
431.0466552188008
 30
0.0
 11
231.6684803295165
 21
431.0466552188008
 31
0.0
 12
230.6684803295165
 22
425.0466552188007
 32
0.0
 13
230.6684803295165
 23
425.0466552188007
 33
0.0
  0
SOLID
  5
4A06
330
2B4B
100
AcDbEntity
  8
DIM
100
AcDbTrace
 10
229.6684803295165
 20
436.0466552188007
 30
0.0
 11
231.6684803295165
 21
436.0466552188007
 31
0.0
 12
230.6684803295165
 22
442.0466552188008
 32
0.0
 13
230.6684803295165
 23
442.0466552188008
 33
0.0
  0
MTEXT
  5
4A07
330
2B4B
100
AcDbEntity
  8
DIM
100
AcDbMText
 10
226.0684803295165
 20
433.5466552188008
 30
0.0
 40
6.0
 41
0.0
 71
     5
 72
     1
  1
\A1;17
  7
DAYUS
 11
0.0000000000000001
 21
1.0
 31
0.0
1001
ACAD
1000
MTEXTBEGIN
1070
    73
1070
     1
1070
    44
1040
1.0
1070
    74
1070
     0
1000
MTEXTEND
  0
POINT
  5
4A08
330
2B4B
100
AcDbEntity
  8
DEFPOINTS
 62
     0
100
AcDbPoint
 10
213.2004481423812
 20
425.0466552188007
 30
0.0
  0
POINT
  5
4A09
330
2B4B
100
AcDbEntity
  8
DEFPOINTS
 62
     0
100
AcDbPoint
 10
204.5004481423812
 20
442.0466552188008
 30
0.0
  0
POINT
  5
4A0A
330
2B4B
100
AcDbEntity
  8
DEFPOINTS
 62
     0
100
AcDbPoint
 10
230.6684803295165
 20
442.0466552188008
 30
0.0
  0
ENDBLK
  5
2B56
330
2B4B
100
AcDbEntity
  8
0
100
AcDbBlockEnd
  0
BLOCK
  5
2BF5
330
2BEB
100
AcDbEntity
  8
0
100
AcDbBlockBegin
  2
*D2
 70
     1
 10
0.0
 20
0.0
 30
0.0
  3
*D2
  1

  0
LINE
  5
4A0B
330
2BEB
100
AcDbEntity
  8
DIM
100
AcDbLine
 10
16.82571104823232
 20
398.6466552188007
 30
0.0
 11
2.08710676591707
 21
398.6466552188007
 31
0.0
  0
LINE
  5
4A0C
330
2BEB
100
AcDbEntity
  8
DIM
100
AcDbLine
 10
79.12412997450061
 20
479.5466552188007
 30
0.0
 11
2.087106765917091
 21
479.5466552188007
 31
0.0
  0
LINE
  5
4A0D
330
2BEB
100
AcDbEntity
  8
DIM
100
AcDbLine
 10
5.28710676591707
 20
404.6466552188007
 30
0.0
 11
5.287106765917085
 21
473.5466552188007
 31
0.0
  0
SOLID
  5
4A0E
330
2BEB
100
AcDbEntity
  8
DIM
100
AcDbTrace
 10
4.28710676591707
 20
404.6466552188007
 30
0.0
 11
6.28710676591707
 21
404.6466552188007
 31
0.0
 12
5.287106765917069
 22
398.6466552188007
 32
0.0
 13
5.287106765917069
 23
398.6466552188007
 33
0.0
  0
SOLID
  5
4A0F
330
2BEB
100
AcDbEntity
  8
DIM
100
AcDbTrace
 10
4.287106765917085
 20
473.5466552188007
 30
0.0
 11
6.287106765917085
 21
473.5466552188007
 31
0.0
 12
5.287106765917087
 22
479.5466552188007
 32
0.0
 13
5.287106765917087
 23
479.5466552188007
 33
0.0
  0
MTEXT
  5
4A10
330
2BEB
100
AcDbEntity
  8
DIM
100
AcDbMText
 10
0.6871067659170065
 20
439.0966552188007
 30
0.0
 40
6.0
 41
0.0
 71
     5
 72
     1
  1
\A1;80.9
  7
DAYUS
 11
0.0000000000000001
 21
1.0
 31
0.0
1001
ACAD
1000
MTEXTBEGIN
1070
    73
1070
     1
1070
    44
1040
1.0
1070
    74
1070
     0
1000
MTEXTEND
  0
POINT
  5
4A11
330
2BEB
100
AcDbEntity
  8
DEFPOINTS
 62
     0
100
AcDbPoint
 10
20.82571104823232
 20
398.6466552188007
 30
0.0
  0
POINT
  5
4A12
330
2BEB
100
AcDbEntity
  8
DEFPOINTS
 62
     0
100
AcDbPoint
 10
83.12412997450062
 20
479.5466552188007
 30
0.0
  0
POINT
  5
4A13
330
2BEB
100
AcDbEntity
  8
DEFPOINTS
 62
     0
100
AcDbPoint
 10
5.287106765917087
 20
479.5466552188007
 30
0.0
  0
ENDBLK
  5
2BF6
330
2BEB
100
AcDbEntity
  8
0
100
AcDbBlockEnd
  0
BLOCK
  5
2C01
330
2BF7
100
AcDbEntity
  8
0
100
AcDbBlockBegin
  2
*D3
 70
     1
 10
0.0
 20
0.0
 30
0.0
  3
*D3
  1

  0
LINE
  5
4A14
330
2BF7
100
AcDbEntity
  8
DIM
100
AcDbLine
 10
217.2004481423812
 20
398.6466552188007
 30
0.0
 11
247.171815776073
 21
398.6466552188007
 31
0.0
  0
LINE
  5
4A15
330
2BF7
100
AcDbEntity
  8
DIM
100
AcDbLine
 10
205.5004481423813
 20
490.6466552188008
 30
0.0
 11
247.171815776073
 21
490.6466552188008
 31
0.0
  0
LINE
  5
4A16
330
2BF7
100
AcDbEntity
  8
DIM
100
AcDbLine
 10
243.971815776073
 20
404.6466552188007
 30
0.0
 11
243.971815776073
 21
484.6466552188007
 31
0.0
  0
SOLID
  5
4A17
330
2BF7
100
AcDbEntity
  8
DIM
100
AcDbTrace
 10
242.971815776073
 20
404.6466552188007
 30
0.0
 11
244.971815776073
 21
404.6466552188007
 31
0.0
 12
243.971815776073
 22
398.6466552188007
 32
0.0
 13
243.971815776073
 23
398.6466552188007
 33
0.0
  0
SOLID
  5
4A18
330
2BF7
100
AcDbEntity
  8
DIM
100
AcDbTrace
 10
242.971815776073
 20
484.6466552188007
 30
0.0
 11
244.971815776073
 21
484.6466552188007
 31
0.0
 12
243.971815776073
 22
490.6466552188008
 32
0.0
 13
243.971815776073
 23
490.6466552188008
 33
0.0
  0
MTEXT
  5
4A19
330
2BF7
100
AcDbEntity
  8
DIM
100
AcDbMText
 10
239.371815776073
 20
444.6466552188008
 30
0.0
 40
6.0
 41
0.0
 71
     5
 72
     1
  1
\A1;92
  7
DAYUS
 11
0.0000000000000001
 21
1.0
 31
0.0
1001
ACAD
1000
MTEXTBEGIN
1070
    73
1070
     1
1070
    44
1040
1.0
1070
    74
1070
     0
1000
MTEXTEND
  0
POINT
  5
4A1A
330
2BF7
100
AcDbEntity
  8
DEFPOINTS
 62
     0
100
AcDbPoint
 10
213.2004481423812
 20
398.6466552188007
 30
0.0
  0
POINT
  5
4A1B
330
2BF7
100
AcDbEntity
  8
DEFPOINTS
 62
     0
100
AcDbPoint
 10
201.5004481423813
 20
490.6466552188008
 30
0.0
  0
POINT
  5
4A1C
330
2BF7
100
AcDbEntity
  8
DEFPOINTS
 62
     0
100
AcDbPoint
 10
243.971815776073
 20
490.6466552188008
 30
0.0
  0
ENDBLK
  5
2C02
330
2BF7
100
AcDbEntity
  8
0
100
AcDbBlockEnd
  0
BLOCK
  5
2C0D
330
2C03
100
AcDbEntity
  8
0
100
AcDbBlockBegin
  2
*D4
 70
     1
 10
0.0
 20
0.0
 30
0.0
  3
*D4
  1

  0
LINE
  5
4A1D
330
2C03
100
AcDbEntity
  8
DIM
100
AcDbLine
 10
217.2004481423812
 20
398.6466552188007
 30
0.0
 11
233.8684803295165
 21
398.6466552188007
 31
0.0
  0
LINE
  5
4A1E
330
2C03
100
AcDbEntity
  8
DIM
100
AcDbLine
 10
217.2004481423812
 20
425.0466552188007
 30
0.0
 11
233.8684803295165
 21
425.0466552188007
 31
0.0
  0
LINE
  5
4A1F
330
2C03
100
AcDbEntity
  8
DIM
100
AcDbLine
 10
230.6684803295165
 20
404.6466552188007
 30
0.0
 11
230.6684803295165
 21
419.0466552188008
 31
0.0
  0
SOLID
  5
4A20
330
2C03
100
AcDbEntity
  8
DIM
100
AcDbTrace
 10
229.6684803295165
 20
404.6466552188007
 30
0.0
 11
231.6684803295165
 21
404.6466552188007
 31
0.0
 12
230.6684803295165
 22
398.6466552188007
 32
0.0
 13
230.6684803295165
 23
398.6466552188007
 33
0.0
  0
SOLID
  5
4A21
330
2C03
100
AcDbEntity
  8
DIM
100
AcDbTrace
 10
229.6684803295165
 20
419.0466552188008
 30
0.0
 11
231.6684803295165
 21
419.0466552188008
 31
0.0
 12
230.6684803295165
 22
425.0466552188007
 32
0.0
 13
230.6684803295165
 23
425.0466552188007
 33
0.0
  0
MTEXT
  5
4A22
330
2C03
100
AcDbEntity
  8
DIM
100
AcDbMText
 10
226.0684803295165
 20
411.8466552188008
 30
0.0
 40
6.0
 41
0.0
 71
     5
 72
     1
  1
\A1;26.4
  7
DAYUS
 11
0.0000000000000001
 21
1.0
 31
0.0
1001
ACAD
1000
MTEXTBEGIN
1070
    73
1070
     1
1070
    44
1040
1.0
1070
    74
1070
     0
1000
MTEXTEND
  0
POINT
  5
4A23
330
2C03
100
AcDbEntity
  8
DEFPOINTS
 62
     0
100
AcDbPoint
 10
213.2004481423812
 20
398.6466552188007
 30
0.0
  0
POINT
  5
4A24
330
2C03
100
AcDbEntity
  8
DEFPOINTS
 62
     0
100
AcDbPoint
 10
213.2004481423812
 20
425.0466552188007
 30
0.0
  0
POINT
  5
4A25
330
2C03
100
AcDbEntity
  8
DEFPOINTS
 62
     0
100
AcDbPoint
 10
230.6684803295165
 20
425.0466552188007
 30
0.0
  0
ENDBLK
  5
2C0E
330
2C03
100
AcDbEntity
  8
0
100
AcDbBlockEnd
  0
BLOCK
  5
2C19
330
2C0F
100
AcDbEntity
  8
0
100
AcDbBlockBegin
  2
*D5
 70
     1
 10
0.0
 20
0.0
 30
0.0
  3
*D5
  1

  0
LINE
  5
4A26
330
2C0F
100
AcDbEntity
  8
DIM
100
AcDbLine
 10
177.8004481423812
 20
394.6466552188007
 30
0.0
 11
177.8004481423812
 21
363.7504342056632
 31
0.0
  0
LINE
  5
4A27
330
2C0F
100
AcDbEntity
  8
DIM
100
AcDbLine
 10
213.2004481423812
 20
394.6466552188007
 30
0.0
 11
213.2004481423812
 21
363.7504342056632
 31
0.0
  0
LINE
  5
4A28
330
2C0F
100
AcDbEntity
  8
DIM
100
AcDbLine
 10
183.8004481423812
 20
366.9504342056632
 30
0.0
 11
207.2004481423812
 21
366.9504342056632
 31
0.0
  0
SOLID
  5
4A29
330
2C0F
100
AcDbEntity
  8
DIM
100
AcDbTrace
 10
183.8004481423812
 20
367.9504342056632
 30
0.0
 11
183.8004481423812
 21
365.9504342056631
 31
0.0
 12
177.8004481423812
 22
366.9504342056632
 32
0.0
 13
177.8004481423812
 23
366.9504342056632
 33
0.0
  0
SOLID
  5
4A2A
330
2C0F
100
AcDbEntity
  8
DIM
100
AcDbTrace
 10
207.2004481423812
 20
367.9504342056632
 30
0.0
 11
207.2004481423812
 21
365.9504342056631
 31
0.0
 12
213.2004481423812
 22
366.9504342056632
 32
0.0
 13
213.2004481423812
 23
366.9504342056632
 33
0.0
  0
MTEXT
  5
4A2B
330
2C0F
100
AcDbEntity
  8
DIM
100
AcDbMText
 10
195.5004481423813
 20
371.5504342056632
 30
0.0
 40
6.0
 41
0.0
 71
     5
 72
     1
  1
\A1;35.4
  7
DAYUS
1001
ACAD
1000
MTEXTBEGIN
1070
    73
1070
     1
1070
    44
1040
1.0
1070
    74
1070
     0
1000
MTEXTEND
  0
POINT
  5
4A2C
330
2C0F
100
AcDbEntity
  8
DEFPOINTS
 62
     0
100
AcDbPoint
 10
177.8004481423812
 20
398.6466552188007
 30
0.0
  0
POINT
  5
4A2D
330
2C0F
100
AcDbEntity
  8
DEFPOINTS
 62
     0
100
AcDbPoint
 10
213.2004481423812
 20
398.6466552188007
 30
0.0
  0
POINT
  5
4A2E
330
2C0F
100
AcDbEntity
  8
DEFPOINTS
 62
     0
100
AcDbPoint
 10
213.2004481423812
 20
366.9504342056632
 30
0.0
  0
ENDBLK
  5
2C1A
330
2C0F
100
AcDbEntity
  8
0
100
AcDbBlockEnd
  0
BLOCK
  5
2C25
330
2C1B
100
AcDbEntity
  8
0
100
AcDbBlockBegin
  2
*D6
 70
     1
 10
0.0
 20
0.0
 30
0.0
  3
*D6
  1

  0
LINE
  5
4A2F
330
2C1B
100
AcDbEntity
  8
DIM
100
AcDbLine
 10
193.5004481423812
 20
423.5966552188007
 30
0.0
 11
193.5004481423812
 21
380.4941402190398
 31
0.0
  0
LINE
  5
4A30
330
2C1B
100
AcDbEntity
  8
DIM
100
AcDbLine
 10
177.8004481423812
 20
394.6466552188007
 30
0.0
 11
177.8004481423812
 21
380.4941402190398
 31
0.0
  0
LINE
  5
4A31
330
2C1B
100
AcDbEntity
  8
DIM
100
AcDbLine
 10
187.5004481423812
 20
383.6941402190398
 30
0.0
 11
183.8004481423812
 21
383.6941402190398
 31
0.0
  0
LINE
  5
4A32
330
2C1B
100
AcDbEntity
  8
DIM
100
AcDbLine
 10
177.8004481423812
 20
383.6941402190398
 30
0.0
 11
151.4575909995241
 21
383.6941402190398
 31
0.0
  0
SOLID
  5
4A33
330
2C1B
100
AcDbEntity
  8
DIM
100
AcDbTrace
 10
187.5004481423812
 20
384.6941402190399
 30
0.0
 11
187.5004481423812
 21
382.6941402190398
 31
0.0
 12
193.5004481423812
 22
383.6941402190398
 32
0.0
 13
193.5004481423812
 23
383.6941402190398
 33
0.0
  0
SOLID
  5
4A34
330
2C1B
100
AcDbEntity
  8
DIM
100
AcDbTrace
 10
183.8004481423812
 20
384.6941402190399
 30
0.0
 11
183.8004481423812
 21
382.6941402190398
 31
0.0
 12
177.8004481423812
 22
383.6941402190398
 32
0.0
 13
177.8004481423812
 23
383.6941402190398
 33
0.0
  0
MTEXT
  5
4A35
330
2C1B
100
AcDbEntity
  8
DIM
100
AcDbMText
 10
161.6290195709527
 20
388.2941402190398
 30
0.0
 40
6.0
 41
0.0
 71
     5
 72
     1
  1
\A1;15.7
  7
DAYUS
1001
ACAD
1000
MTEXTBEGIN
1070
    73
1070
     1
1070
    44
1040
1.0
1070
    74
1070
     0
1000
MTEXTEND
  0
POINT
  5
4A36
330
2C1B
100
AcDbEntity
  8
DEFPOINTS
 62
     0
100
AcDbPoint
 10
193.5004481423812
 20
427.5966552188007
 30
0.0
  0
POINT
  5
4A37
330
2C1B
100
AcDbEntity
  8
DEFPOINTS
 62
     0
100
AcDbPoint
 10
177.8004481423812
 20
398.6466552188007
 30
0.0
  0
POINT
  5
4A38
330
2C1B
100
AcDbEntity
  8
DEFPOINTS
 62
     0
100
AcDbPoint
 10
177.8004481423812
 20
383.6941402190398
 30
0.0
  0
ENDBLK
  5
2C26
330
2C1B
100
AcDbEntity
  8
0
100
AcDbBlockEnd
  0
BLOCK
  5
2C31
330
2C27
100
AcDbEntity
  8
0
100
AcDbBlockBegin
  2
*D7
 70
     1
 10
0.0
 20
0.0
 30
0.0
  3
*D7
  1

  0
LINE
  5
4A39
330
2C27
100
AcDbEntity
  8
DIM
100
AcDbLine
 10
193.5004481423812
 20
423.5966552188007
 30
0.0
 11
193.5004481423812
 21
380.4941402190398
 31
0.0
  0
LINE
  5
4A3A
330
2C27
100
AcDbEntity
  8
DIM
100
AcDbLine
 10
213.2004481423812
 20
394.6466552188007
 30
0.0
 11
213.2004481423812
 21
380.4941402190398
 31
0.0
  0
LINE
  5
4A3B
330
2C27
100
AcDbEntity
  8
DIM
100
AcDbLine
 10
199.5004481423812
 20
383.6941402190398
 30
0.0
 11
207.2004481423812
 21
383.6941402190398
 31
0.0
  0
LINE
  5
4A3C
330
2C27
100
AcDbEntity
  8
DIM
100
AcDbLine
 10
213.2004481423812
 20
383.6941402190398
 30
0.0
 11
239.5433052852384
 21
383.6941402190398
 31
0.0
  0
SOLID
  5
4A3D
330
2C27
100
AcDbEntity
  8
DIM
100
AcDbTrace
 10
199.5004481423812
 20
384.6941402190397
 30
0.0
 11
199.5004481423812
 21
382.6941402190398
 31
0.0
 12
193.5004481423812
 22
383.6941402190398
 32
0.0
 13
193.5004481423812
 23
383.6941402190398
 33
0.0
  0
SOLID
  5
4A3E
330
2C27
100
AcDbEntity
  8
DIM
100
AcDbTrace
 10
207.2004481423812
 20
384.6941402190397
 30
0.0
 11
207.2004481423812
 21
382.6941402190398
 31
0.0
 12
213.2004481423812
 22
383.6941402190398
 32
0.0
 13
213.2004481423812
 23
383.6941402190398
 33
0.0
  0
MTEXT
  5
4A3F
330
2C27
100
AcDbEntity
  8
DIM
100
AcDbMText
 10
229.3718767138098
 20
388.2941402190398
 30
0.0
 40
6.0
 41
0.0
 71
     5
 72
     1
  1
\A1;19.7
  7
DAYUS
1001
ACAD
1000
MTEXTBEGIN
1070
    73
1070
     1
1070
    44
1040
1.0
1070
    74
1070
     0
1000
MTEXTEND
  0
POINT
  5
4A40
330
2C27
100
AcDbEntity
  8
DEFPOINTS
 62
     0
100
AcDbPoint
 10
193.5004481423812
 20
427.5966552188007
 30
0.0
  0
POINT
  5
4A41
330
2C27
100
AcDbEntity
  8
DEFPOINTS
 62
     0
100
AcDbPoint
 10
213.2004481423812
 20
398.6466552188007
 30
0.0
  0
POINT
  5
4A42
330
2C27
100
AcDbEntity
  8
DEFPOINTS
 62
     0
100
AcDbPoint
 10
213.2004481423812
 20
383.6941402190398
 30
0.0
  0
ENDBLK
  5
2C32
330
2C27
100
AcDbEntity
  8
0
100
AcDbBlockEnd
  0
BLOCK
  5
2C3D
330
2C33
100
AcDbEntity
  8
0
100
AcDbBlockBegin
  2
*D8
 70
     1
 10
0.0
 20
0.0
 30
0.0
  3
*D8
  1

  0
LINE
  5
4A43
330
2C33
100
AcDbEntity
  8
DIM
100
AcDbLine
 10
120.7264500251374
 20
585.9569570786122
 30
0.0
 11
72.51930716799461
 21
585.9569570786122
 31
0.0
  0
LINE
  5
4A44
330
2C33
100
AcDbEntity
  8
DIM
100
AcDbLine
 10
72.51930716799461
 20
585.9569570786122
 30
0.0
 11
68.5356375297361
 21
581.4702682980951
 31
0.0
  0
MTEXT
  5
4A45
330
2C33
100
AcDbEntity
  8
DIM
100
AcDbMText
 10
97.42287859656599
 20
590.5569570786123
 30
0.0
 40
6.0
 41
0.0
 71
     5
 72
     1
  1
\A1;4-\U+22055.2貫通
  7
DAYUS
1001
ACAD
1000
MTEXTBEGIN
1070
    73
1070
     1
1070
    44
1040
1.0
1070
    74
1070
     0
1000
MTEXTEND
  0
SOLID
  5
4A46
330
2C33
100
AcDbEntity
  8
DIM
100
AcDbTrace
 10
67.78785606631661
 20
582.1342132378049
 30
0.0
 11
69.28341899315563
 21
580.8063233583855
 31
0.0
 12
64.5519678914776
 22
576.9835795175781
 32
0.0
 13
64.5519678914776
 23
576.9835795175781
 33
0.0
  0
POINT
  5
4A47
330
2C33
100
AcDbEntity
  8
DEFPOINTS
 62
     0
100
AcDbPoint
 10
64.5519678914776
 20
576.9835795175781
 30
0.0
  0
POINT
  5
4A48
330
2C33
100
AcDbEntity
  8
DEFPOINTS
 62
     0
100
AcDbPoint
 10
61.09945420498689
 20
573.0951159077967
 30
0.0
  0
ENDBLK
  5
2C3E
330
2C33
100
AcDbEntity
  8
0
100
AcDbBlockEnd
  0
BLOCK
  5
2C55
330
2C4B
100
AcDbEntity
  8
0
100
AcDbBlockBegin
  2
*D9
 70
     1
 10
0.0
 20
0.0
 30
0.0
  3
*D9
  1

  0
LINE
  5
4A49
330
2C4B
100
AcDbEntity
  8
DIM
100
AcDbLine
 10
27.62571104823232
 20
547.0393477126872
 30
0.0
 11
8.36370304147049
 21
547.0393477126872
 31
0.0
  0
LINE
  5
4A4A
330
2C4B
100
AcDbEntity
  8
DIM
100
AcDbLine
 10
36.62571104823232
 20
575.0393477126872
 30
0.0
 11
8.363703041470493
 21
575.0393477126872
 31
0.0
  0
LINE
  5
4A4B
330
2C4B
100
AcDbEntity
  8
DIM
100
AcDbLine
 10
11.56370304147048
 20
553.0393477126872
 30
0.0
 11
11.56370304147049
 21
569.0393477126872
 31
0.0
  0
SOLID
  5
4A4C
330
2C4B
100
AcDbEntity
  8
DIM
100
AcDbTrace
 10
10.56370304147048
 20
553.0393477126872
 30
0.0
 11
12.56370304147049
 21
553.0393477126872
 31
0.0
 12
11.56370304147048
 22
547.0393477126872
 32
0.0
 13
11.56370304147048
 23
547.0393477126872
 33
0.0
  0
SOLID
  5
4A4D
330
2C4B
100
AcDbEntity
  8
DIM
100
AcDbTrace
 10
10.56370304147049
 20
569.0393477126872
 30
0.0
 11
12.56370304147049
 21
569.0393477126872
 31
0.0
 12
11.56370304147049
 22
575.0393477126872
 32
0.0
 13
11.56370304147049
 23
575.0393477126872
 33
0.0
  0
MTEXT
  5
4A4E
330
2C4B
100
AcDbEntity
  8
DIM
100
AcDbMText
 10
6.963703041470401
 20
561.0393477126872
 30
0.0
 40
6.0
 41
0.0
 71
     5
 72
     1
  1
\A1;28
  7
DAYUS
 11
0.0000000000000001
 21
1.0
 31
0.0
1001
ACAD
1000
MTEXTBEGIN
1070
    73
1070
     1
1070
    44
1040
1.0
1070
    74
1070
     0
1000
MTEXTEND
  0
POINT
  5
4A4F
330
2C4B
100
AcDbEntity
  8
DEFPOINTS
 62
     0
100
AcDbPoint
 10
31.62571104823232
 20
547.0393477126872
 30
0.0
  0
POINT
  5
4A50
330
2C4B
100
AcDbEntity
  8
DEFPOINTS
 62
     0
100
AcDbPoint
 10
40.62571104823232
 20
575.0393477126872
 30
0.0
  0
POINT
  5
4A51
330
2C4B
100
AcDbEntity
  8
DEFPOINTS
 62
     0
100
AcDbPoint
 10
11.56370304147049
 20
575.0393477126872
 30
0.0
  0
ENDBLK
  5
2C56
330
2C4B
100
AcDbEntity
  8
0
100
AcDbBlockEnd
  0
BLOCK
  5
2C61
330
2C57
100
AcDbEntity
  8
0
100
AcDbBlockBegin
  2
*D10
 70
     1
 10
0.0
 20
0.0
 30
0.0
  3
*D10
  1

  0
LINE
  5
4A52
330
2C57
100
AcDbEntity
  8
DIM
100
AcDbLine
 10
109.8257110482323
 20
574.0393477126872
 30
0.0
 11
109.8257110482323
 21
610.6799120491286
 31
0.0
  0
LINE
  5
4A53
330
2C57
100
AcDbEntity
  8
DIM
100
AcDbLine
 10
19.82571104823232
 20
581.6893477126873
 30
0.0
 11
19.82571104823233
 21
610.6799120491286
 31
0.0
  0
LINE
  5
4A54
330
2C57
100
AcDbEntity
  8
DIM
100
AcDbLine
 10
103.8257110482323
 20
607.4799120491286
 30
0.0
 11
25.82571104823233
 21
607.4799120491286
 31
0.0
  0
SOLID
  5
4A55
330
2C57
100
AcDbEntity
  8
DIM
100
AcDbTrace
 10
103.8257110482323
 20
608.4799120491286
 30
0.0
 11
103.8257110482323
 21
606.4799120491286
 31
0.0
 12
109.8257110482323
 22
607.4799120491286
 32
0.0
 13
109.8257110482323
 23
607.4799120491286
 33
0.0
  0
SOLID
  5
4A56
330
2C57
100
AcDbEntity
  8
DIM
100
AcDbTrace
 10
25.82571104823233
 20
608.4799120491286
 30
0.0
 11
25.82571104823233
 21
606.4799120491286
 31
0.0
 12
19.82571104823233
 22
607.4799120491286
 32
0.0
 13
19.82571104823233
 23
607.4799120491286
 33
0.0
  0
MTEXT
  5
4A57
330
2C57
100
AcDbEntity
  8
DIM
100
AcDbMText
 10
64.82571104823233
 20
612.0799120491287
 30
0.0
 40
6.0
 41
0.0
 71
     5
 72
     1
  1
\A1;90
  7
DAYUS
1001
ACAD
1000
MTEXTBEGIN
1070
    73
1070
     1
1070
    44
1040
1.0
1070
    74
1070
     0
1000
MTEXTEND
  0
POINT
  5
4A58
330
2C57
100
AcDbEntity
  8
DEFPOINTS
 62
     0
100
AcDbPoint
 10
109.8257110482323
 20
570.0393477126872
 30
0.0
  0
POINT
  5
4A59
330
2C57
100
AcDbEntity
  8
DEFPOINTS
 62
     0
100
AcDbPoint
 10
19.82571104823232
 20
577.6893477126873
 30
0.0
  0
POINT
  5
4A5A
330
2C57
100
AcDbEntity
  8
DEFPOINTS
 62
     0
100
AcDbPoint
 10
19.82571104823233
 20
607.4799120491286
 30
0.0
  0
ENDBLK
  5
2C62
330
2C57
100
AcDbEntity
  8
0
100
AcDbBlockEnd
  0
BLOCK
  5
2C6D
330
2C63
100
AcDbEntity
  8
0
100
AcDbBlockBegin
  2
*D11
 70
     1
 10
0.0
 20
0.0
 30
0.0
  3
*D11
  1

  0
LINE
  5
4A5B
330
2C63
100
AcDbEntity
  8
DIM
100
AcDbLine
 10
19.82571104823232
 20
540.3893477126874
 30
0.0
 11
19.82571104823231
 21
509.6639780031515
 31
0.0
  0
LINE
  5
4A5C
330
2C63
100
AcDbEntity
  8
DIM
100
AcDbLine
 10
103.3257110482323
 20
539.3393477126872
 30
0.0
 11
103.3257110482323
 21
509.6639780031515
 31
0.0
  0
LINE
  5
4A5D
330
2C63
100
AcDbEntity
  8
DIM
100
AcDbLine
 10
25.82571104823232
 20
512.8639780031514
 30
0.0
 11
97.32571104823232
 21
512.8639780031514
 31
0.0
  0
SOLID
  5
4A5E
330
2C63
100
AcDbEntity
  8
DIM
100
AcDbTrace
 10
25.82571104823232
 20
513.8639780031515
 30
0.0
 11
25.82571104823232
 21
511.8639780031514
 31
0.0
 12
19.82571104823231
 22
512.8639780031514
 32
0.0
 13
19.82571104823231
 23
512.8639780031514
 33
0.0
  0
SOLID
  5
4A5F
330
2C63
100
AcDbEntity
  8
DIM
100
AcDbTrace
 10
97.32571104823232
 20
513.8639780031515
 30
0.0
 11
97.32571104823232
 21
511.8639780031514
 31
0.0
 12
103.3257110482323
 22
512.8639780031514
 32
0.0
 13
103.3257110482323
 23
512.8639780031514
 33
0.0
  0
MTEXT
  5
4A60
330
2C63
100
AcDbEntity
  8
DIM
100
AcDbMText
 10
61.57571104823232
 20
517.4639780031514
 30
0.0
 40
6.0
 41
0.0
 71
     5
 72
     1
  1
\A1;83.5
  7
DAYUS
1001
ACAD
1000
MTEXTBEGIN
1070
    73
1070
     1
1070
    44
1040
1.0
1070
    74
1070
     0
1000
MTEXTEND
  0
POINT
  5
4A61
330
2C63
100
AcDbEntity
  8
DEFPOINTS
 62
     0
100
AcDbPoint
 10
19.82571104823232
 20
544.3893477126874
 30
0.0
  0
POINT
  5
4A62
330
2C63
100
AcDbEntity
  8
DEFPOINTS
 62
     0
100
AcDbPoint
 10
103.3257110482323
 20
543.3393477126872
 30
0.0
  0
POINT
  5
4A63
330
2C63
100
AcDbEntity
  8
DEFPOINTS
 62
     0
100
AcDbPoint
 10
103.3257110482323
 20
512.8639780031514
 30
0.0
  0
ENDBLK
  5
2C6E
330
2C63
100
AcDbEntity
  8
0
100
AcDbBlockEnd
  0
BLOCK
  5
2C79
330
2C6F
100
AcDbEntity
  8
0
100
AcDbBlockBegin
  2
*D12
 70
     1
 10
0.0
 20
0.0
 30
0.0
  3
*D12
  1

  0
LINE
  5
4A64
330
2C6F
100
AcDbEntity
  8
DIM
100
AcDbLine
 10
35.82571104823232
 20
538.8393477126872
 30
0.0
 11
35.82571104823232
 21
528.975633502797
 31
0.0
  0
LINE
  5
4A65
330
2C6F
100
AcDbEntity
  8
DIM
100
AcDbLine
 10
71.82571104823232
 20
538.8393477126872
 30
0.0
 11
71.82571104823232
 21
528.975633502797
 31
0.0
  0
LINE
  5
4A66
330
2C6F
100
AcDbEntity
  8
DIM
100
AcDbLine
 10
41.82571104823232
 20
532.175633502797
 30
0.0
 11
65.82571104823232
 21
532.175633502797
 31
0.0
  0
SOLID
  5
4A67
330
2C6F
100
AcDbEntity
  8
DIM
100
AcDbTrace
 10
41.82571104823232
 20
533.175633502797
 30
0.0
 11
41.82571104823232
 21
531.175633502797
 31
0.0
 12
35.82571104823232
 22
532.175633502797
 32
0.0
 13
35.82571104823232
 23
532.175633502797
 33
0.0
  0
SOLID
  5
4A68
330
2C6F
100
AcDbEntity
  8
DIM
100
AcDbTrace
 10
65.82571104823232
 20
533.175633502797
 30
0.0
 11
65.82571104823232
 21
531.175633502797
 31
0.0
 12
71.82571104823232
 22
532.175633502797
 32
0.0
 13
71.82571104823232
 23
532.175633502797
 33
0.0
  0
MTEXT
  5
4A69
330
2C6F
100
AcDbEntity
  8
DIM
100
AcDbMText
 10
53.82571104823232
 20
536.775633502797
 30
0.0
 40
6.0
 41
0.0
 71
     5
 72
     1
  1
\A1;36
  7
DAYUS
1001
ACAD
1000
MTEXTBEGIN
1070
    73
1070
     1
1070
    44
1040
1.0
1070
    74
1070
     0
1000
MTEXTEND
  0
POINT
  5
4A6A
330
2C6F
100
AcDbEntity
  8
DEFPOINTS
 62
     0
100
AcDbPoint
 10
35.82571104823232
 20
542.8393477126872
 30
0.0
  0
POINT
  5
4A6B
330
2C6F
100
AcDbEntity
  8
DEFPOINTS
 62
     0
100
AcDbPoint
 10
71.82571104823232
 20
542.8393477126872
 30
0.0
  0
POINT
  5
4A6C
330
2C6F
100
AcDbEntity
  8
DEFPOINTS
 62
     0
100
AcDbPoint
 10
71.82571104823232
 20
532.175633502797
 30
0.0
  0
ENDBLK
  5
2C7A
330
2C6F
100
AcDbEntity
  8
0
100
AcDbBlockEnd
  0
BLOCK
  5
2C85
330
2C7B
100
AcDbEntity
  8
0
100
AcDbBlockBegin
  2
*D13
 70
     1
 10
0.0
 20
0.0
 30
0.0
  3
*D13
  1

  0
LINE
  5
4A6D
330
2C7B
100
AcDbEntity
  8
DIM
100
AcDbLine
 10
35.82571104823232
 20
538.8393477126872
 30
0.0
 11
35.82571104823232
 21
528.9756335027968
 31
0.0
  0
LINE
  5
4A6E
330
2C7B
100
AcDbEntity
  8
DIM
100
AcDbLine
 10
19.82571104823232
 20
540.3893477126874
 30
0.0
 11
19.82571104823232
 21
528.9756335027968
 31
0.0
  0
LINE
  5
4A6F
330
2C7B
100
AcDbEntity
  8
DIM
100
AcDbLine
 10
29.82571104823232
 20
532.1756335027969
 30
0.0
 11
25.82571104823232
 21
532.1756335027969
 31
0.0
  0
SOLID
  5
4A70
330
2C7B
100
AcDbEntity
  8
DIM
100
AcDbTrace
 10
29.82571104823232
 20
533.1756335027969
 30
0.0
 11
29.82571104823232
 21
531.1756335027969
 31
0.0
 12
35.82571104823232
 22
532.1756335027969
 32
0.0
 13
35.82571104823232
 23
532.1756335027969
 33
0.0
  0
SOLID
  5
4A71
330
2C7B
100
AcDbEntity
  8
DIM
100
AcDbTrace
 10
25.82571104823232
 20
533.1756335027969
 30
0.0
 11
25.82571104823232
 21
531.1756335027969
 31
0.0
 12
19.82571104823232
 22
532.1756335027969
 32
0.0
 13
19.82571104823232
 23
532.1756335027969
 33
0.0
  0
MTEXT
  5
4A72
330
2C7B
100
AcDbEntity
  8
DIM
100
AcDbMText
 10
27.82571104823232
 20
536.7756335027969
 30
0.0
 40
6.0
 41
0.0
 71
     5
 72
     1
  1
\A1;16
  7
DAYUS
1001
ACAD
1000
MTEXTBEGIN
1070
    73
1070
     1
1070
    44
1040
1.0
1070
    74
1070
     0
1000
MTEXTEND
  0
POINT
  5
4A73
330
2C7B
100
AcDbEntity
  8
DEFPOINTS
 62
     0
100
AcDbPoint
 10
35.82571104823232
 20
542.8393477126872
 30
0.0
  0
POINT
  5
4A74
330
2C7B
100
AcDbEntity
  8
DEFPOINTS
 62
     0
100
AcDbPoint
 10
19.82571104823232
 20
544.3893477126874
 30
0.0
  0
POINT
  5
4A75
330
2C7B
100
AcDbEntity
  8
DEFPOINTS
 62
     0
100
AcDbPoint
 10
19.82571104823232
 20
532.1756335027969
 30
0.0
  0
ENDBLK
  5
2C86
330
2C7B
100
AcDbEntity
  8
0
100
AcDbBlockEnd
  0
BLOCK
  5
2C91
330
2C87
100
AcDbEntity
  8
0
100
AcDbBlockBegin
  2
*D14
 70
     1
 10
0.0
 20
0.0
 30
0.0
  3
*D14
  1

  0
LINE
  5
4A76
330
2C87
100
AcDbEntity
  8
DIM
100
AcDbLine
 10
44.82571104823231
 20
583.2393477126872
 30
0.0
 11
44.82571104823231
 21
597.6460852610553
 31
0.0
  0
LINE
  5
4A77
330
2C87
100
AcDbEntity
  8
DIM
100
AcDbLine
 10
62.82571104823232
 20
583.2393477126872
 30
0.0
 11
62.82571104823232
 21
597.6460852610553
 31
0.0
  0
LINE
  5
4A78
330
2C87
100
AcDbEntity
  8
DIM
100
AcDbLine
 10
50.82571104823232
 20
594.4460852610553
 30
0.0
 11
56.82571104823232
 21
594.4460852610553
 31
0.0
  0
SOLID
  5
4A79
330
2C87
100
AcDbEntity
  8
DIM
100
AcDbTrace
 10
50.82571104823232
 20
595.4460852610552
 30
0.0
 11
50.82571104823232
 21
593.4460852610552
 31
0.0
 12
44.82571104823231
 22
594.4460852610553
 32
0.0
 13
44.82571104823231
 23
594.4460852610553
 33
0.0
  0
SOLID
  5
4A7A
330
2C87
100
AcDbEntity
  8
DIM
100
AcDbTrace
 10
56.82571104823232
 20
595.4460852610552
 30
0.0
 11
56.82571104823232
 21
593.4460852610552
 31
0.0
 12
62.82571104823232
 22
594.4460852610553
 32
0.0
 13
62.82571104823232
 23
594.4460852610553
 33
0.0
  0
MTEXT
  5
4A7B
330
2C87
100
AcDbEntity
  8
DIM
100
AcDbMText
 10
53.82571104823232
 20
599.0460852610553
 30
0.0
 40
6.0
 41
0.0
 71
     5
 72
     1
  1
\A1;18
  7
DAYUS
1001
ACAD
1000
MTEXTBEGIN
1070
    73
1070
     1
1070
    44
1040
1.0
1070
    74
1070
     0
1000
MTEXTEND
  0
POINT
  5
4A7C
330
2C87
100
AcDbEntity
  8
DEFPOINTS
 62
     0
100
AcDbPoint
 10
44.82571104823231
 20
579.2393477126872
 30
0.0
  0
POINT
  5
4A7D
330
2C87
100
AcDbEntity
  8
DEFPOINTS
 62
     0
100
AcDbPoint
 10
62.82571104823232
 20
579.2393477126872
 30
0.0
  0
POINT
  5
4A7E
330
2C87
100
AcDbEntity
  8
DEFPOINTS
 62
     0
100
AcDbPoint
 10
62.82571104823232
 20
594.4460852610553
 30
0.0
  0
ENDBLK
  5
2C92
330
2C87
100
AcDbEntity
  8
0
100
AcDbBlockEnd
  0
BLOCK
  5
2C9D
330
2C93
100
AcDbEntity
  8
0
100
AcDbBlockBegin
  2
*D15
 70
     1
 10
0.0
 20
0.0
 30
0.0
  3
*D15
  1

  0
LINE
  5
4A7F
330
2C93
100
AcDbEntity
  8
DIM
100
AcDbLine
 10
44.82571104823231
 20
583.2393477126872
 30
0.0
 11
44.82571104823231
 21
597.6460852610553
 31
0.0
  0
LINE
  5
4A80
330
2C93
100
AcDbEntity
  8
DIM
100
AcDbLine
 10
19.82571104823232
 20
581.6893477126873
 30
0.0
 11
19.82571104823232
 21
597.6460852610553
 31
0.0
  0
LINE
  5
4A81
330
2C93
100
AcDbEntity
  8
DIM
100
AcDbLine
 10
38.82571104823232
 20
594.4460852610553
 30
0.0
 11
25.82571104823232
 21
594.4460852610553
 31
0.0
  0
SOLID
  5
4A82
330
2C93
100
AcDbEntity
  8
DIM
100
AcDbTrace
 10
38.82571104823232
 20
595.4460852610552
 30
0.0
 11
38.82571104823232
 21
593.4460852610552
 31
0.0
 12
44.82571104823231
 22
594.4460852610553
 32
0.0
 13
44.82571104823231
 23
594.4460852610553
 33
0.0
  0
SOLID
  5
4A83
330
2C93
100
AcDbEntity
  8
DIM
100
AcDbTrace
 10
25.82571104823232
 20
595.4460852610552
 30
0.0
 11
25.82571104823232
 21
593.4460852610552
 31
0.0
 12
19.82571104823232
 22
594.4460852610553
 32
0.0
 13
19.82571104823232
 23
594.4460852610553
 33
0.0
  0
MTEXT
  5
4A84
330
2C93
100
AcDbEntity
  8
DIM
100
AcDbMText
 10
32.32571104823232
 20
599.0460852610553
 30
0.0
 40
6.0
 41
0.0
 71
     5
 72
     1
  1
\A1;25
  7
DAYUS
1001
ACAD
1000
MTEXTBEGIN
1070
    73
1070
     1
1070
    44
1040
1.0
1070
    74
1070
     0
1000
MTEXTEND
  0
POINT
  5
4A85
330
2C93
100
AcDbEntity
  8
DEFPOINTS
 62
     0
100
AcDbPoint
 10
44.82571104823231
 20
579.2393477126872
 30
0.0
  0
POINT
  5
4A86
330
2C93
100
AcDbEntity
  8
DEFPOINTS
 62
     0
100
AcDbPoint
 10
19.82571104823232
 20
577.6893477126873
 30
0.0
  0
POINT
  5
4A87
330
2C93
100
AcDbEntity
  8
DEFPOINTS
 62
     0
100
AcDbPoint
 10
19.82571104823232
 20
594.4460852610553
 30
0.0
  0
ENDBLK
  5
2C9E
330
2C93
100
AcDbEntity
  8
0
100
AcDbBlockEnd
  0
BLOCK
  5
2F13
330
2F11
100
AcDbEntity
  8
0
100
AcDbBlockBegin
  2
GENAXEH
 70
     0
 10
0.0
 20
0.0
 30
0.0
  3
GENAXEH
  1

  0
LINE
  5
2F12
330
2F11
100
AcDbEntity
  8
0
100
AcDbLine
 10
-1.0
 20
0.0
 30
0.0
 11
1.0
 21
0.0
 31
0.0
  0
ENDBLK
  5
2F14
330
2F11
100
AcDbEntity
  8
0
100
AcDbBlockEnd
  0
BLOCK
  5
30F6
330
30EC
100
AcDbEntity
  8
0
100
AcDbBlockBegin
  2
*D17
 70
     1
 10
0.0
 20
0.0
 30
0.0
  3
*D17
  1

  0
LINE
  5
4A88
330
30EC
100
AcDbEntity
  8
DIM
100
AcDbLine
 10
19.82571104823233
 20
395.6466552188008
 30
0.0
 11
19.82571104823233
 21
377.6279274071028
 31
0.0
  0
LINE
  5
4A89
330
30EC
100
AcDbEntity
  8
DIM
100
AcDbLine
 10
138.3257110482323
 20
442.0466552188007
 30
0.0
 11
138.3257110482323
 21
377.6279274071028
 31
0.0
  0
LINE
  5
4A8A
330
30EC
100
AcDbEntity
  8
DIM
100
AcDbLine
 10
25.82571104823233
 20
380.8279274071028
 30
0.0
 11
132.3257110482323
 21
380.8279274071028
 31
0.0
  0
SOLID
  5
4A8B
330
30EC
100
AcDbEntity
  8
DIM
100
AcDbTrace
 10
25.82571104823233
 20
381.8279274071028
 30
0.0
 11
25.82571104823233
 21
379.8279274071028
 31
0.0
 12
19.82571104823233
 22
380.8279274071028
 32
0.0
 13
19.82571104823233
 23
380.8279274071028
 33
0.0
  0
SOLID
  5
4A8C
330
30EC
100
AcDbEntity
  8
DIM
100
AcDbTrace
 10
132.3257110482323
 20
381.8279274071028
 30
0.0
 11
132.3257110482323
 21
379.8279274071028
 31
0.0
 12
138.3257110482323
 22
380.8279274071028
 32
0.0
 13
138.3257110482323
 23
380.8279274071028
 33
0.0
  0
MTEXT
  5
4A8D
330
30EC
100
AcDbEntity
  8
DIM
100
AcDbMText
 10
79.07571104823233
 20
385.4279274071028
 30
0.0
 40
6.0
 41
0.0
 71
     5
 72
     1
  1
\A1;118.5
  7
DAYUS
1001
ACAD
1000
MTEXTBEGIN
1070
    73
1070
     1
1070
    44
1040
1.0
1070
    74
1070
     0
1000
MTEXTEND
  0
POINT
  5
4A8E
330
30EC
100
AcDbEntity
  8
DEFPOINTS
 62
     0
100
AcDbPoint
 10
19.82571104823233
 20
399.6466552188008
 30
0.0
  0
POINT
  5
4A8F
330
30EC
100
AcDbEntity
  8
DEFPOINTS
 62
     0
100
AcDbPoint
 10
138.3257110482323
 20
446.0466552188007
 30
0.0
  0
POINT
  5
4A90
330
30EC
100
AcDbEntity
  8
DEFPOINTS
 62
     0
100
AcDbPoint
 10
138.3257110482323
 20
380.8279274071028
 30
0.0
  0
ENDBLK
  5
30F7
330
30EC
100
AcDbEntity
  8
0
100
AcDbBlockEnd
  0
ENDSEC
  0
SECTION
  2
ENTITIES
  0
TEXT
  5
728
330
1F
100
AcDbEntity
  8
0
100
AcDbText
 10
6.393497822634913
 20
676.9743888021054
 30
0.0
 40
10.0
  1
MVSI-260-4E1
  7
ITALICT
100
AcDbText
  0
SOLID
  5
14EA
330
1F
100
AcDbEntity
  8
0
 62
     7
100
AcDbTrace
 10
72.98277563773251
 20
648.3243791837366
 30
0.0
 11
74.8373532242075
 21
648.8213117503331
 31
0.0
 12
72.41926673117939
 22
654.1365782264596
 32
0.0
 13
72.41926673117939
 23
654.1365782264596
 33
0.0
  0
LINE
  5
14EB
330
1F
100
AcDbEntity
  8
0
 62
     7
100
AcDbLine
 10
72.78668614561673
 20
641.4995833068764
 30
0.0
 11
68.52107559844705
 21
641.4995833068764
 31
0.0
  0
LINE
  5
14EC
330
1F
100
AcDbEntity
  8
0
 62
     7
100
AcDbLine
 10
65.37627768373647
 20
638.2799701469588
 30
0.0
 11
111.2441813502335
 21
638.2799701469592
 31
0.0
  0
LINE
  5
14ED
330
1F
100
AcDbEntity
  8
0
 62
     7
100
AcDbLine
 10
65.37627768373693
 20
654.13657822646
 30
0.0
 11
125.3279951930297
 21
654.13657822646
 31
0.0
  0
LINE
  5
14EE
330
1F
100
AcDbEntity
  8
0
100
AcDbLine
 10
56.25987053699453
 20
645.8279623507213
 30
0.0
 11
58.53897232368024
 21
649.7072541140927
 31
0.0
  0
LINE
  5
14EF
330
1F
100
AcDbEntity
  8
0
 62
     7
100
AcDbLine
 10
65.37627768373693
 20
654.13657822646
 30
0.0
 11
65.37627768373647
 21
638.2799701469588
 31
0.0
  0
LINE
  5
14F0
330
1F
100
AcDbEntity
  8
0
100
AcDbLine
 10
65.37627768373693
 20
645.8279623507213
 30
0.0
 11
63.09717589705122
 21
649.7072541140927
 31
0.0
  0
LINE
  5
14F1
330
1F
100
AcDbEntity
  8
0
100
AcDbLine
 10
60.8180741103655
 20
645.8279623507213
 30
0.0
 11
63.09717589705122
 21
649.7072541140927
 31
0.0
  0
LINE
  5
14F2
330
1F
100
AcDbEntity
  8
0
100
AcDbLine
 10
60.8180741103655
 20
645.8279623507213
 30
0.0
 11
58.53897232368024
 21
649.7072541140927
 31
0.0
  0
LINE
  5
14F3
330
1F
100
AcDbEntity
  8
0
 62
     7
100
AcDbLine
 10
70.65388087203189
 20
641.4995833068764
 30
0.0
 11
70.65388087203189
 21
638.2799701469592
 31
0.0
  0
TEXT
  5
14F4
330
1F
100
AcDbEntity
  8
0
 62
     7
100
AcDbText
 10
70.17043573796707
 20
631.3871480164533
 30
0.0
 40
3.839999999999999
  1
1
  7
ROMANS
100
AcDbText
  0
TEXT
  5
14F5
330
1F
100
AcDbEntity
  8
0
 62
     7
100
AcDbText
 10
64.9090060469706
 20
631.103227259682
 30
0.0
 40
5.76
  1
R
  7
ROMANS
100
AcDbText
  0
TEXT
  5
14F6
330
1F
100
AcDbEntity
  8
0
 62
     7
100
AcDbText
 10
66.96277018288208
 20
655.1564456694417
 30
0.0
 40
5.76
  1
A
  7
ROMANS
100
AcDbText
  0
TEXT
  5
14F7
330
1F
100
AcDbEntity
  8
0
 62
     7
100
AcDbText
 10
86.79802614601829
 20
631.0540976617784
 30
0.0
 40
3.839999999999999
  1
2
  7
ROMANS
100
AcDbText
  0
LINE
  5
14F8
330
1F
100
AcDbEntity
  8
0
 62
     7
100
AcDbLine
 10
81.37110171920392
 20
643.8437029063842
 30
0.0
 11
78.61313408939565
 21
654.1365782264596
 31
0.0
  0
LINE
  5
14F9
330
1F
100
AcDbEntity
  8
0
 62
     7
100
AcDbLine
 10
73.91006443097001
 20
648.5728454670346
 30
0.0
 11
76.66803206077827
 21
638.2799701469588
 31
0.0
  0
TEXT
  5
14FA
330
1F
100
AcDbEntity
  8
0
 62
     7
100
AcDbText
 10
73.87447640950665
 20
631.0859543918062
 30
0.0
 40
5.76
  1
P
  7
ROMANS
100
AcDbText
  0
SOLID
  5
14FB
330
1F
100
AcDbEntity
  8
0
 62
     7
100
AcDbTrace
 10
80.44381292596643
 20
643.5952366230857
 30
0.0
 11
82.29839051244141
 21
644.0921691896827
 31
0.0
 12
82.86189941899454
 22
638.2799701469592
 32
0.0
 13
82.86189941899454
 23
638.2799701469592
 33
0.0
  0
TEXT
  5
14FC
330
1F
100
AcDbEntity
  8
0
 62
     7
100
AcDbText
 10
80.66769624367442
 20
630.9722209911027
 30
0.0
 40
5.76
  1
R
  7
ROMANS
100
AcDbText
  0
TEXT
  5
14FD
330
1F
100
AcDbEntity
  8
0
 62
     7
100
AcDbText
 10
77.90301375302476
 20
655.2838636008067
 30
0.0
 40
5.76
  1
B
  7
ROMANS
100
AcDbText
  0
LINE
  5
14FF
330
1F
100
AcDbEntity
  8
0
 62
     7
100
AcDbLine
 10
93.61101657703228
 20
644.039970146959
 30
0.0
 11
93.61101657703228
 21
654.1365782264596
 31
0.0
  0
LINE
  5
1500
330
1F
100
AcDbEntity
  8
0
 62
     7
100
AcDbLine
 10
88.31022951698503
 20
654.13657822646
 30
0.0
 11
88.31022951698503
 21
638.2799701469588
 31
0.0
  0
SOLID
  5
1501
330
1F
100
AcDbEntity
  8
0
 62
     7
100
AcDbTrace
 10
101.190067426089
 20
648.3765782264598
 30
0.0
 11
99.27006742608945
 21
648.3765782264598
 31
0.0
 12
100.2300674260894
 22
654.1365782264596
 32
0.0
 13
100.2300674260894
 23
654.1365782264596
 33
0.0
  0
SOLID
  5
1502
330
1F
100
AcDbEntity
  8
0
 62
     7
100
AcDbTrace
 10
94.57101657703232
 20
644.039970146959
 30
0.0
 11
92.65101657703269
 21
644.039970146959
 31
0.0
 12
93.61101657703228
 22
638.2799701469592
 32
0.0
 13
93.61101657703228
 23
638.2799701469592
 33
0.0
  0
LINE
  5
1503
330
1F
100
AcDbEntity
  8
0
 62
     7
100
AcDbLine
 10
100.2300674260894
 20
648.3765782264598
 30
0.0
 11
100.2300674260894
 21
638.2799701469592
 31
0.0
  0
LINE
  5
1504
330
1F
100
AcDbEntity
  8
0
 62
     7
100
AcDbLine
 10
111.2441813502335
 20
646.2082741867097
 30
0.0
 11
125.3279951930297
 21
646.2082741867097
 31
0.0
  0
LINE
  5
1506
330
1F
100
AcDbEntity
  8
0
 62
     7
100
AcDbLine
 10
116.5520834790671
 20
654.13657822646
 30
0.0
 11
116.5520834790671
 21
646.2082741867087
 31
0.0
  0
LINE
  5
1507
330
1F
100
AcDbEntity
  8
0
 62
     7
100
AcDbLine
 10
111.2441813502335
 20
654.13657822646
 30
0.0
 11
111.2441813502335
 21
638.2799701469588
 31
0.0
  0
LINE
  5
1508
330
1F
100
AcDbEntity
  8
0
 62
     7
100
AcDbLine
 10
112.3350685942394
 20
650.1724262065843
 30
0.0
 11
116.5520834790671
 21
646.2082741867087
 31
0.0
  0
LINE
  5
1509
330
1F
100
AcDbEntity
  8
0
 62
     7
100
AcDbLine
 10
105.9665781619386
 20
641.4995833068764
 30
0.0
 11
105.9665781619386
 21
638.2799701469592
 31
0.0
  0
LINE
  5
150A
330
1F
100
AcDbEntity
  8
0
 62
     7
100
AcDbLine
 10
103.8337728883533
 20
641.4995833068764
 30
0.0
 11
108.0993834355234
 21
641.4995833068764
 31
0.0
  0
LINE
  5
150B
330
1F
100
AcDbEntity
  8
0
 62
     7
100
AcDbLine
 10
112.3350685942394
 20
650.1724262065843
 30
0.0
 11
116.5520834790671
 21
654.13657822646
 31
0.0
  0
LINE
  5
150C
330
1F
100
AcDbEntity
  8
0
 62
     7
100
AcDbLine
 10
118.8315318936346
 20
654.13657822646
 30
0.0
 11
122.4924641958185
 21
646.2082741867097
 31
0.0
  0
LINE
  5
150D
330
1F
100
AcDbEntity
  8
0
 62
     7
100
AcDbLine
 10
125.3279951930297
 20
646.2082741867097
 30
0.0
 11
125.3279951930297
 21
654.13657822646
 31
0.0
  0
LINE
  5
27BB
330
1F
100
AcDbEntity
  8
AM_VIS
100
AcDbLine
 10
184.5004481423812
 20
472.2466552188007
 30
0.0
 11
183.5004481423812
 21
472.0466552188007
 31
0.0
  0
LINE
  5
27BC
330
1F
100
AcDbEntity
  8
AM_VIS
100
AcDbLine
 10
202.5004481423812
 20
472.2466552188007
 30
0.0
 11
203.5004481423812
 21
472.0466552188007
 31
0.0
  0
LINE
  5
27BD
330
1F
100
AcDbEntity
  8
AM_VIS
100
AcDbLine
 10
203.5004481423812
 20
471.5466552188007
 30
0.0
 11
203.5004481423812
 21
472.0466552188007
 31
0.0
  0
LINE
  5
27BE
330
1F
100
AcDbEntity
  8
AM_VIS
100
AcDbLine
 10
183.5004481423812
 20
471.5466552188007
 30
0.0
 11
183.5004481423812
 21
472.0466552188007
 31
0.0
  0
LINE
  5
27BF
330
1F
100
AcDbEntity
  8
AM_VIS
100
AcDbLine
 10
186.7504481423812
 20
485.1466552188007
 30
0.0
 11
186.7504481423812
 21
483.5466552188007
 31
0.0
  0
LINE
  5
27C0
330
1F
100
AcDbEntity
  8
AM_VIS
100
AcDbLine
 10
200.2504481423812
 20
485.1466552188007
 30
0.0
 11
200.2504481423812
 21
483.5466552188007
 31
0.0
  0
LINE
  5
27C1
330
1F
100
AcDbEntity
  8
AM_VIS
100
AcDbLine
 10
202.3009856641694
 20
471.0479990232711
 30
0.0
 11
202.5004481423812
 21
471.5466552188007
 31
0.0
  0
LINE
  5
27C2
330
1F
100
AcDbEntity
  8
AM_VIS
100
AcDbLine
 10
184.6999106205931
 20
471.0479990232711
 30
0.0
 11
184.5004481423812
 21
471.5466552188007
 31
0.0
  0
LINE
  5
27C3
330
1F
100
AcDbEntity
  8
AM_VIS
100
AcDbLine
 10
202.5004481423812
 20
471.5466552188007
 30
0.0
 11
202.5004481423812
 21
483.5466552188007
 31
0.0
  0
LINE
  5
27C4
330
1F
100
AcDbEntity
  8
AM_VIS
100
AcDbLine
 10
184.5004481423812
 20
471.5466552188007
 30
0.0
 11
184.5004481423812
 21
483.5466552188007
 31
0.0
  0
LINE
  5
27C5
330
1F
100
AcDbEntity
  8
AM_VIS
100
AcDbLine
 10
194.0004481423812
 20
433.1831468919045
 30
0.0
 11
194.0004481423812
 21
433.2347447540079
 31
0.0
  0
LINE
  5
27C6
330
1F
100
AcDbEntity
  8
AM_VIS
100
AcDbLine
 10
193.0004481423812
 20
433.1831468919045
 30
0.0
 11
193.0004481423812
 21
433.2347447540079
 31
0.0
  0
LINE
  5
27C7
330
1F
100
AcDbEntity
  8
AM_VIS
100
AcDbLine
 10
182.8119481423812
 20
403.3466552188007
 30
0.0
 11
182.5004481423812
 21
403.3466552188007
 31
0.0
  0
LINE
  5
27C8
330
1F
100
AcDbEntity
  8
AM_VIS
100
AcDbLine
 10
205.5004481423813
 20
420.0351552188007
 30
0.0
 11
205.5004481423813
 21
420.3466552188007
 31
0.0
  0
LINE
  5
27C9
330
1F
100
AcDbEntity
  8
AM_VIS
100
AcDbLine
 10
182.5004481423812
 20
403.3466552188007
 30
0.0
 11
182.1889481423812
 21
403.3466552188007
 31
0.0
  0
LINE
  5
27CA
330
1F
100
AcDbEntity
  8
AM_VIS
100
AcDbLine
 10
205.5004481423813
 20
420.3466552188007
 30
0.0
 11
205.5004481423813
 21
420.6581552188007
 31
0.0
  0
LINE
  5
27CB
330
1F
100
AcDbEntity
  8
AM_VIS
100
AcDbLine
 10
182.1889481423812
 20
403.0351552187987
 30
0.0
 11
182.1889481423812
 21
401.0524523991655
 31
0.0
  0
LINE
  5
27CC
330
1F
100
AcDbEntity
  8
AM_VIS
100
AcDbLine
 10
205.1889481423792
 20
420.6581552188007
 30
0.0
 11
203.206245322746
 21
420.6581552188007
 31
0.0
  0
ELLIPSE
  5
27CD
330
1F
100
AcDbEntity
  8
AM_VIS
100
AcDbEllipse
 10
182.5004481423812
 20
405.2372925163719
 30
0.0
 11
5.92413480864247
 21
-0.0000000000000007
 31
0.0
210
0.0
220
0.0
230
1.0
 40
0.707383851471375
 41
4.659783202666883
 42
4.764994758102496
  0
ELLIPSE
  5
27CE
330
1F
100
AcDbEntity
  8
AM_VIS
100
AcDbEllipse
 10
207.3910854399524
 20
420.3466552188007
 30
0.0
 11
-0.000000000000002
 21
-5.92413480864247
 31
0.0
210
0.0
220
0.0
230
1.0
 40
0.707383851471375
 41
4.659783202666882
 42
4.764994758102495
  0
LINE
  5
27CF
330
1F
100
AcDbEntity
  8
AM_VIS
100
AcDbLine
 10
182.8119481423812
 20
401.0524523991655
 30
0.0
 11
182.8119481423812
 21
403.0351552187987
 31
0.0
  0
LINE
  5
27D0
330
1F
100
AcDbEntity
  8
AM_VIS
100
AcDbLine
 10
203.2062453227461
 20
420.0351552188007
 30
0.0
 11
205.1889481423792
 21
420.0351552188007
 31
0.0
  0
LINE
  5
27D1
330
1F
100
AcDbEntity
  8
AM_VIS
100
AcDbLine
 10
182.8119481423812
 20
403.6581552187987
 30
0.0
 11
182.8119481423812
 21
405.6408580384319
 31
0.0
  0
LINE
  5
27D2
330
1F
100
AcDbEntity
  8
AM_VIS
100
AcDbLine
 10
205.8119481423792
 20
420.0351552188007
 30
0.0
 11
207.7946509620125
 21
420.0351552188007
 31
0.0
  0
ELLIPSE
  5
27D3
330
1F
100
AcDbEntity
  8
AM_VIS
100
AcDbEllipse
 10
182.5004481423812
 20
401.4560179212296
 30
0.0
 11
-5.924134808643903
 21
0.0000000000000007
 31
0.0
210
0.0
220
0.0
230
1.0
 40
0.7073838514705365
 41
4.659783202666895
 42
4.764994758102482
  0
ELLIPSE
  5
27D4
330
1F
100
AcDbEntity
  8
AM_VIS
100
AcDbEllipse
 10
203.6098108448101
 20
420.3466552188007
 30
0.0
 11
-0.0000000000000006
 21
5.924134808643903
 31
0.0
210
0.0
220
0.0
230
1.0
 40
0.7073838514705365
 41
4.659783202666897
 42
4.764994758102484
  0
LINE
  5
27D5
330
1F
100
AcDbEntity
  8
AM_VIS
100
AcDbLine
 10
182.1889481423812
 20
405.6408580384319
 30
0.0
 11
182.1889481423812
 21
403.6581552187987
 31
0.0
  0
LINE
  5
27D6
330
1F
100
AcDbEntity
  8
AM_VIS
100
AcDbLine
 10
207.7946509620125
 20
420.6581552188007
 30
0.0
 11
205.8119481423792
 21
420.6581552188007
 31
0.0
  0
LINE
  5
27D7
330
1F
100
AcDbEntity
  8
AM_VIS
100
AcDbLine
 10
180.2062453227481
 20
403.0351552187987
 30
0.0
 11
182.1889481423812
 21
403.0351552187987
 31
0.0
  0
LINE
  5
27D8
330
1F
100
AcDbEntity
  8
AM_VIS
100
AcDbLine
 10
205.1889481423792
 20
422.6408580384338
 30
0.0
 11
205.1889481423792
 21
420.6581552188007
 31
0.0
  0
LINE
  5
27D9
330
1F
100
AcDbEntity
  8
AM_VIS
100
AcDbLine
 10
182.5004481423825
 20
403.3466552188014
 30
0.0
 11
182.8119481423823
 21
403.035155218801
 31
0.0
  0
LINE
  5
27DA
330
1F
100
AcDbEntity
  8
AM_VIS
100
AcDbLine
 10
205.5004481423819
 20
420.3466552187994
 30
0.0
 11
205.1889481423815
 21
420.0351552187997
 31
0.0
  0
LINE
  5
27DB
330
1F
100
AcDbEntity
  8
AM_VIS
100
AcDbLine
 10
182.8119481423812
 20
403.6581552187986
 30
0.0
 11
182.5004481423812
 21
403.3466552187987
 31
0.0
  0
LINE
  5
27DC
330
1F
100
AcDbEntity
  8
AM_VIS
100
AcDbLine
 10
205.8119481423791
 20
420.0351552188006
 30
0.0
 11
205.5004481423792
 21
420.3466552188007
 31
0.0
  0
LINE
  5
27DD
330
1F
100
AcDbEntity
  8
AM_VIS
100
AcDbLine
 10
182.8119481423812
 20
403.0351552187987
 30
0.0
 11
182.8119481423812
 21
403.6581552187987
 31
0.0
  0
LINE
  5
27DE
330
1F
100
AcDbEntity
  8
AM_VIS
100
AcDbLine
 10
205.1889481423792
 20
420.0351552188007
 30
0.0
 11
205.8119481423792
 21
420.0351552188007
 31
0.0
  0
ELLIPSE
  5
27DF
330
1F
100
AcDbEntity
  8
AM_VIS
100
AcDbEllipse
 10
180.6098108448111
 20
403.3466552188007
 30
0.0
 11
0.000000000000002
 21
5.924134808644348
 31
0.0
210
0.0
220
0.0
230
1.0
 40
0.7073838514706481
 41
4.659783202666563
 42
4.76499475810214
  0
ELLIPSE
  5
27E0
330
1F
100
AcDbEntity
  8
AM_VIS
100
AcDbEllipse
 10
205.5004481423813
 20
422.2372925163709
 30
0.0
 11
5.924134808644348
 21
-0.000000000000002
 31
0.0
210
0.0
220
0.0
230
1.0
 40
0.7073838514706483
 41
4.659783202666563
 42
4.76499475810214
  0
LINE
  5
27E1
330
1F
100
AcDbEntity
  8
AM_VIS
100
AcDbLine
 10
182.1889481423812
 20
403.6581552187987
 30
0.0
 11
180.2062453227479
 21
403.6581552187987
 31
0.0
  0
LINE
  5
27E2
330
1F
100
AcDbEntity
  8
AM_VIS
100
AcDbLine
 10
205.8119481423792
 20
420.6581552188007
 30
0.0
 11
205.8119481423792
 21
422.640858038434
 31
0.0
  0
LINE
  5
27E3
330
1F
100
AcDbEntity
  8
AM_VIS
100
AcDbLine
 10
184.7946509620145
 20
403.6581552187987
 30
0.0
 11
182.8119481423812
 21
403.6581552187987
 31
0.0
  0
LINE
  5
27E4
330
1F
100
AcDbEntity
  8
AM_VIS
100
AcDbLine
 10
205.8119481423792
 20
418.0524523991675
 30
0.0
 11
205.8119481423792
 21
420.0351552188007
 31
0.0
  0
LINE
  5
27E5
330
1F
100
AcDbEntity
  8
AM_VIS
100
AcDbLine
 10
182.1889481423812
 20
403.6581552187987
 30
0.0
 11
182.8119481423812
 21
403.6581552187987
 31
0.0
  0
LINE
  5
27E6
330
1F
100
AcDbEntity
  8
AM_VIS
100
AcDbLine
 10
205.8119481423792
 20
420.6581552188007
 30
0.0
 11
205.8119481423792
 21
420.0351552188007
 31
0.0
  0
LINE
  5
27E7
330
1F
100
AcDbEntity
  8
AM_VIS
100
AcDbLine
 10
182.5004481423812
 20
403.0351552187987
 30
0.0
 11
182.5004481423812
 21
403.3466552187987
 31
0.0
  0
LINE
  5
27E8
330
1F
100
AcDbEntity
  8
AM_VIS
100
AcDbLine
 10
205.1889481423792
 20
420.3466552188007
 30
0.0
 11
205.5004481423793
 21
420.3466552188007
 31
0.0
  0
LINE
  5
27E9
330
1F
100
AcDbEntity
  8
AM_VIS
100
AcDbLine
 10
182.1889481423801
 20
403.035155218801
 30
0.0
 11
182.5004481423799
 21
403.3466552188014
 31
0.0
  0
LINE
  5
27EA
330
1F
100
AcDbEntity
  8
AM_VIS
100
AcDbLine
 10
205.1889481423815
 20
420.6581552188018
 30
0.0
 11
205.5004481423819
 21
420.3466552188021
 31
0.0
  0
LINE
  5
27EB
330
1F
100
AcDbEntity
  8
AM_VIS
100
AcDbLine
 10
182.1889481423812
 20
403.6581552187987
 30
0.0
 11
182.1889481423812
 21
403.0351552187987
 31
0.0
  0
LINE
  5
27EC
330
1F
100
AcDbEntity
  8
AM_VIS
100
AcDbLine
 10
205.8119481423792
 20
420.6581552188007
 30
0.0
 11
205.1889481423792
 21
420.6581552188007
 31
0.0
  0
ELLIPSE
  5
27ED
330
1F
100
AcDbEntity
  8
AM_VIS
100
AcDbEllipse
 10
184.3910854399514
 20
403.3466552188007
 30
0.0
 11
0.0000000000000006
 21
-5.924134808644347
 31
0.0
210
0.0
220
0.0
230
1.0
 40
0.7073838514706483
 41
4.659783202667238
 42
4.764994758102815
  0
ELLIPSE
  5
27EE
330
1F
100
AcDbEntity
  8
AM_VIS
100
AcDbEllipse
 10
205.5004481423813
 20
418.4560179212305
 30
0.0
 11
-5.924134808644347
 21
-0.0000000000000006
 31
0.0
210
0.0
220
0.0
230
1.0
 40
0.7073838514706481
 41
4.659783202667238
 42
4.764994758102815
  0
LINE
  5
27EF
330
1F
100
AcDbEntity
  8
AM_VIS
100
AcDbLine
 10
182.5004481423812
 20
403.3466552187987
 30
0.0
 11
182.5004481423812
 21
403.6581552187987
 31
0.0
  0
LINE
  5
27F0
330
1F
100
AcDbEntity
  8
AM_VIS
100
AcDbLine
 10
205.5004481423793
 20
420.3466552188007
 30
0.0
 11
205.8119481423792
 21
420.3466552188007
 31
0.0
  0
LINE
  5
27F1
330
1F
100
AcDbEntity
  8
AM_VIS
100
AcDbLine
 10
182.5004481423812
 20
403.3466552187987
 30
0.0
 11
182.1889481423812
 21
403.6581552187986
 31
0.0
  0
LINE
  5
27F2
330
1F
100
AcDbEntity
  8
AM_VIS
100
AcDbLine
 10
205.5004481423792
 20
420.3466552188007
 30
0.0
 11
205.8119481423791
 21
420.6581552188008
 31
0.0
  0
LINE
  5
27F3
330
1F
100
AcDbEntity
  8
AM_VIS
100
AcDbLine
 10
182.8119481423812
 20
403.0351552187987
 30
0.0
 11
184.7946509620143
 21
403.0351552187987
 31
0.0
  0
LINE
  5
27F4
330
1F
100
AcDbEntity
  8
AM_VIS
100
AcDbLine
 10
205.1889481423792
 20
420.0351552188007
 30
0.0
 11
205.1889481423792
 21
418.0524523991675
 31
0.0
  0
LINE
  5
27F5
330
1F
100
AcDbEntity
  8
AM_VIS
100
AcDbLine
 10
182.8119481423812
 20
403.0351552187988
 30
0.0
 11
182.1889481423812
 21
403.0351552187988
 31
0.0
  0
LINE
  5
27F6
330
1F
100
AcDbEntity
  8
AM_VIS
100
AcDbLine
 10
205.1889481423793
 20
420.0351552188007
 30
0.0
 11
205.1889481423793
 21
420.6581552188007
 31
0.0
  0
LINE
  5
27F7
330
1F
100
AcDbEntity
  8
AM_VIS
100
AcDbLine
 10
202.9168415850042
 20
479.0466552188007
 30
0.0
 11
202.5004481423812
 21
479.0466552188007
 31
0.0
  0
LINE
  5
27F8
330
1F
100
AcDbEntity
  8
AM_VIS
100
AcDbLine
 10
184.5004481423812
 20
479.0466552188007
 30
0.0
 11
184.0840546997583
 21
479.0466552188007
 31
0.0
  0
SPLINE
  5
27F9
330
1F
100
AcDbEntity
  8
AM_VIS
100
AcDbSpline
210
0.0
220
0.0
230
1.0
 70
     8
 71
     3
 72
     8
 73
     4
 74
     0
 42
0.0000000001
 43
0.0000000001
 40
7.8606508081159
 40
7.8606508081159
 40
7.8606508081159
 40
7.8606508081159
 40
8.796495530230886
 40
8.796495530230886
 40
8.796495530230886
 40
8.796495530230886
 10
184.3504481423812
 20
479.5466552188007
 30
0.0
 10
184.2720397800156
 20
479.395615952349
 30
0.0
 10
184.1823393949782
 20
479.2265162110533
 30
0.0
 10
184.0840546997583
 20
479.0466552188007
 30
0.0
  0
LINE
  5
27FA
330
1F
100
AcDbEntity
  8
AM_VIS
100
AcDbLine
 10
184.0840546997583
 20
479.0466552188007
 30
0.0
 11
184.0840546997583
 21
477.8966552188007
 31
0.0
  0
LINE
  5
27FB
330
1F
100
AcDbEntity
  8
AM_VIS
100
AcDbLine
 10
202.9168415850042
 20
477.8966552188007
 30
0.0
 11
202.9168415850042
 21
479.0466552188007
 31
0.0
  0
SPLINE
  5
27FC
330
1F
100
AcDbEntity
  8
AM_VIS
100
AcDbSpline
210
0.0
220
0.0
230
1.0
 70
     8
 71
     3
 72
     8
 73
     4
 74
     0
 42
0.0000000001
 43
0.0000000001
 40
1.63015580392704
 40
1.63015580392704
 40
1.63015580392704
 40
1.63015580392704
 40
2.566002662427006
 40
2.566002662427006
 40
2.566002662427006
 40
2.566002662427006
 10
202.9168415850042
 20
479.0466552188007
 30
0.0
 10
202.8185567581216
 20
479.2265164519959
 30
0.0
 10
202.7288564419221
 20
479.3956160733694
 30
0.0
 10
202.6504481423812
 20
479.5466552188007
 30
0.0
  0
LINE
  5
27FD
330
1F
100
AcDbEntity
  8
AM_VIS
100
AcDbLine
 10
184.5004481423812
 20
477.8966552188007
 30
0.0
 11
184.0840546997583
 21
477.8966552188007
 31
0.0
  0
LINE
  5
27FE
330
1F
100
AcDbEntity
  8
AM_VIS
100
AcDbLine
 10
202.9168415850042
 20
477.8966552188007
 30
0.0
 11
202.5004481423812
 21
477.8966552188007
 31
0.0
  0
LINE
  5
27FF
330
1F
100
AcDbEntity
  8
AM_VIS
100
AcDbLine
 10
202.5004481423812
 20
476.3966552188008
 30
0.0
 11
202.9168415850042
 21
476.3966552188008
 31
0.0
  0
LINE
  5
2800
330
1F
100
AcDbEntity
  8
AM_VIS
100
AcDbLine
 10
202.9168415850042
 20
473.5466552188007
 30
0.0
 11
202.9168415850042
 21
476.3966552188008
 31
0.0
  0
LINE
  5
2801
330
1F
100
AcDbEntity
  8
AM_VIS
100
AcDbLine
 10
184.0840546997583
 20
476.3966552188008
 30
0.0
 11
184.5004481423812
 21
476.3966552188008
 31
0.0
  0
LINE
  5
2802
330
1F
100
AcDbEntity
  8
AM_VIS
100
AcDbLine
 10
184.0840546997583
 20
476.3966552188008
 30
0.0
 11
184.0840546997583
 21
473.5466552188007
 31
0.0
  0
SPLINE
  5
2803
330
1F
100
AcDbEntity
  8
AM_VIS
100
AcDbSpline
210
0.0
220
0.0
230
1.0
 70
     8
 71
     3
 72
    10
 73
     6
 74
     0
 42
0.0000000001
 43
0.0000000001
 40
13.28006742556183
 40
13.28006742556183
 40
13.28006742556183
 40
13.28006742556183
 40
14.27448381305596
 40
14.27448381305596
 40
14.72692911995446
 40
14.72692911995446
 40
14.72692911995446
 40
14.72692911995446
 10
184.0840546997583
 20
473.5466552188007
 30
0.0
 10
184.2052703768001
 20
473.5289092436818
 30
0.0
 10
184.3089880080773
 20
473.5131336499782
 30
0.0
 10
184.4336654667905
 20
473.4937455290953
 30
0.0
 10
184.4688820614571
 20
473.4882111323086
 30
0.0
 10
184.5004481423812
 20
473.4831767731357
 30
0.0
  0
LINE
  5
2804
330
1F
100
AcDbEntity
  8
AM_VIS
100
AcDbLine
 10
184.5004481423812
 20
473.5466552188007
 30
0.0
 11
184.0840546997583
 21
473.5466552188007
 31
0.0
  0
LINE
  5
2805
330
1F
100
AcDbEntity
  8
AM_VIS
100
AcDbLine
 10
202.9168415850042
 20
473.5466552188007
 30
0.0
 11
202.5004481423812
 21
473.5466552188007
 31
0.0
  0
SPLINE
  5
2806
330
1F
100
AcDbEntity
  8
AM_VIS
100
AcDbSpline
210
0.0
220
0.0
230
1.0
 70
     8
 71
     3
 72
    10
 73
     6
 74
     0
 42
0.0000000001
 43
0.0000000001
 40
18.58072897977493
 40
18.58072897977493
 40
18.58072897977493
 40
18.58072897977493
 40
19.03317428667361
 40
19.03317428667361
 40
20.02759067416767
 40
20.02759067416767
 40
20.02759067416767
 40
20.02759067416767
 10
202.5004481423812
 20
473.4831767731357
 30
0.0
 10
202.5320142233053
 20
473.4882111323086
 30
0.0
 10
202.567230817972
 20
473.4937455290953
 30
0.0
 10
202.6919082766852
 20
473.5131336499782
 30
0.0
 10
202.7956259079624
 20
473.5289092436818
 30
0.0
 10
202.9168415850042
 20
473.5466552188007
 30
0.0
  0
LINE
  5
2807
330
1F
100
AcDbEntity
  8
AM_VIS
100
AcDbLine
 10
183.5004481423812
 20
472.0466552188007
 30
0.0
 11
184.5004481423812
 21
472.0466552188007
 31
0.0
  0
LINE
  5
2808
330
1F
100
AcDbEntity
  8
AM_VIS
100
AcDbLine
 10
202.5004481423812
 20
472.0466552188007
 30
0.0
 11
203.5004481423812
 21
472.0466552188007
 31
0.0
  0
LINE
  5
2809
330
1F
100
AcDbEntity
  8
AM_VIS
100
AcDbLine
 10
202.5004481423812
 20
479.5466552188007
 30
0.0
 11
202.6504481423813
 21
479.5466552188007
 31
0.0
  0
LINE
  5
280A
330
1F
100
AcDbEntity
  8
AM_VIS
100
AcDbLine
 10
184.3504481423812
 20
479.5466552188007
 30
0.0
 11
184.5004481423812
 21
479.5466552188007
 31
0.0
  0
LINE
  5
280B
330
1F
100
AcDbEntity
  8
AM_VIS
100
AcDbLine
 10
185.5004481423812
 20
490.6466552188008
 30
0.0
 11
185.5004481423812
 21
485.1466552188007
 31
0.0
  0
LINE
  5
280C
330
1F
100
AcDbEntity
  8
AM_VIS
100
AcDbLine
 10
193.5004481423812
 20
490.6466552188008
 30
0.0
 11
193.5004481423812
 21
485.1466552188007
 31
0.0
  0
LINE
  5
280D
330
1F
100
AcDbEntity
  8
AM_VIS
100
AcDbLine
 10
191.0159925990041
 20
490.6466552188008
 30
0.0
 11
191.0159925990041
 21
485.1466552188007
 31
0.0
  0
LINE
  5
280E
330
1F
100
AcDbEntity
  8
AM_VIS
100
AcDbLine
 10
187.9849036857585
 20
485.1466552188007
 30
0.0
 11
187.9849036857585
 21
490.6466552188008
 31
0.0
  0
LINE
  5
280F
330
1F
100
AcDbEntity
  8
AM_VIS
100
AcDbLine
 10
188.6679163876507
 20
490.6466552188008
 30
0.0
 11
188.6679163876507
 21
485.1466552188007
 31
0.0
  0
LINE
  5
2810
330
1F
100
AcDbEntity
  8
AM_VIS
100
AcDbLine
 10
190.8329798971118
 20
490.6466552188008
 30
0.0
 11
190.8329798971118
 21
485.1466552188007
 31
0.0
  0
LINE
  5
2811
330
1F
100
AcDbEntity
  8
AM_VIS
100
AcDbLine
 10
185.5004481423812
 20
485.1466552188007
 30
0.0
 11
187.9849036857585
 21
485.1466552188007
 31
0.0
  0
LINE
  5
2812
330
1F
100
AcDbEntity
  8
AM_VIS
100
AcDbLine
 10
188.6679163876507
 20
485.1466552188007
 30
0.0
 11
187.9849036857585
 21
485.1466552188007
 31
0.0
  0
LINE
  5
2813
330
1F
100
AcDbEntity
  8
AM_VIS
100
AcDbLine
 10
190.8329798971118
 20
485.1466552188007
 30
0.0
 11
188.6679163876507
 21
485.1466552188007
 31
0.0
  0
LINE
  5
2814
330
1F
100
AcDbEntity
  8
AM_VIS
100
AcDbLine
 10
191.015992599004
 20
485.1466552188007
 30
0.0
 11
190.8329798971118
 21
485.1466552188007
 31
0.0
  0
LINE
  5
2815
330
1F
100
AcDbEntity
  8
AM_VIS
100
AcDbLine
 10
191.015992599004
 20
485.1466552188007
 30
0.0
 11
193.5004481423812
 21
485.1466552188007
 31
0.0
  0
LINE
  5
2816
330
1F
100
AcDbEntity
  8
AM_VIS
100
AcDbLine
 10
193.5004481423812
 20
485.1466552188007
 30
0.0
 11
195.9849036857586
 21
485.1466552188007
 31
0.0
  0
LINE
  5
2817
330
1F
100
AcDbEntity
  8
AM_VIS
100
AcDbLine
 10
201.5004481423812
 20
490.6466552188008
 30
0.0
 11
201.5004481423812
 21
485.1466552188007
 31
0.0
  0
LINE
  5
2818
330
1F
100
AcDbEntity
  8
AM_VIS
100
AcDbLine
 10
199.0159925990041
 20
485.1466552188007
 30
0.0
 11
201.5004481423812
 21
485.1466552188007
 31
0.0
  0
LINE
  5
2819
330
1F
100
AcDbEntity
  8
AM_VIS
100
AcDbLine
 10
193.5004481423812
 20
490.6466552188008
 30
0.0
 11
195.9849036857586
 21
490.6466552188008
 31
0.0
  0
LINE
  5
281A
330
1F
100
AcDbEntity
  8
AM_VIS
100
AcDbLine
 10
191.015992599004
 20
490.6466552188008
 30
0.0
 11
193.5004481423812
 21
490.6466552188008
 31
0.0
  0
LINE
  5
281B
330
1F
100
AcDbEntity
  8
AM_VIS
100
AcDbLine
 10
190.8329798971118
 20
490.6466552188008
 30
0.0
 11
191.015992599004
 21
490.6466552188008
 31
0.0
  0
LINE
  5
281C
330
1F
100
AcDbEntity
  8
AM_VIS
100
AcDbLine
 10
188.6679163876507
 20
490.6466552188008
 30
0.0
 11
190.8329798971118
 21
490.6466552188008
 31
0.0
  0
LINE
  5
281D
330
1F
100
AcDbEntity
  8
AM_VIS
100
AcDbLine
 10
187.9849036857585
 20
490.6466552188008
 30
0.0
 11
188.6679163876507
 21
490.6466552188008
 31
0.0
  0
LINE
  5
281E
330
1F
100
AcDbEntity
  8
AM_VIS
100
AcDbLine
 10
185.5004481423812
 20
490.6466552188008
 30
0.0
 11
187.9849036857585
 21
490.6466552188008
 31
0.0
  0
LINE
  5
281F
330
1F
100
AcDbEntity
  8
AM_VIS
100
AcDbLine
 10
199.0159925990041
 20
490.6466552188008
 30
0.0
 11
201.5004481423812
 21
490.6466552188008
 31
0.0
  0
LINE
  5
2820
330
1F
100
AcDbEntity
  8
AM_VIS
100
AcDbLine
 10
198.3329798971118
 20
490.6466552188008
 30
0.0
 11
199.0159925990041
 21
490.6466552188008
 31
0.0
  0
LINE
  5
2821
330
1F
100
AcDbEntity
  8
AM_VIS
100
AcDbLine
 10
199.0159925990042
 20
490.6466552188008
 30
0.0
 11
199.0159925990042
 21
485.1466552188007
 31
0.0
  0
LINE
  5
2822
330
1F
100
AcDbEntity
  8
AM_VIS
100
AcDbLine
 10
199.0159925990041
 20
485.1466552188007
 30
0.0
 11
198.3329798971118
 21
485.1466552188007
 31
0.0
  0
LINE
  5
2823
330
1F
100
AcDbEntity
  8
AM_VIS
100
AcDbLine
 10
195.9849036857585
 20
485.1466552188007
 30
0.0
 11
195.9849036857585
 21
490.6466552188008
 31
0.0
  0
LINE
  5
2824
330
1F
100
AcDbEntity
  8
AM_VIS
100
AcDbLine
 10
195.9849036857586
 20
490.6466552188008
 30
0.0
 11
196.1679163876508
 21
490.6466552188008
 31
0.0
  0
LINE
  5
2825
330
1F
100
AcDbEntity
  8
AM_VIS
100
AcDbLine
 10
196.1679163876508
 20
485.1466552188007
 30
0.0
 11
195.9849036857585
 21
485.1466552188007
 31
0.0
  0
LINE
  5
2826
330
1F
100
AcDbEntity
  8
AM_VIS
100
AcDbLine
 10
196.1679163876508
 20
490.6466552188008
 30
0.0
 11
196.1679163876508
 21
485.1466552188007
 31
0.0
  0
LINE
  5
2827
330
1F
100
AcDbEntity
  8
AM_VIS
100
AcDbLine
 10
196.1679163876508
 20
490.6466552188008
 30
0.0
 11
198.3329798971118
 21
490.6466552188008
 31
0.0
  0
LINE
  5
2828
330
1F
100
AcDbEntity
  8
AM_VIS
100
AcDbLine
 10
198.3329798971118
 20
490.6466552188008
 30
0.0
 11
198.3329798971118
 21
485.1466552188007
 31
0.0
  0
LINE
  5
2829
330
1F
100
AcDbEntity
  8
AM_VIS
100
AcDbLine
 10
198.3329798971118
 20
485.1466552188007
 30
0.0
 11
196.1679163876508
 21
485.1466552188007
 31
0.0
  0
ARC
  5
282A
330
1F
100
AcDbEntity
  8
AM_VIS
100
AcDbCircle
 10
200.5004481423812
 20
468.0466552188007
 30
0.0
 40
3.5
100
AcDbArc
 50
0.0
 51
69.95834159143192
  0
SPLINE
  5
282B
330
1F
100
AcDbEntity
  8
AM_VIS
100
AcDbSpline
210
0.0
220
0.0
230
1.0
 70
     8
 71
     3
 72
    18
 73
    14
 74
     0
 42
0.0000000001
 43
0.0000000001
 40
6.072258403086962
 40
6.072258403086962
 40
6.072258403086962
 40
6.072258403086962
 40
6.091519998582311
 40
6.091519998582311
 40
6.594079983681931
 40
6.594079983681931
 40
7.096639968781531
 40
7.096639968781531
 40
7.59919995388113
 40
7.59919995388113
 40
8.101759938980729
 40
8.101759938980729
 40
8.212872863102431
 40
8.212872863102431
 40
8.212872863102431
 40
8.212872863102431
 10
201.6999096265173
 20
471.3347081605999
 30
0.0
 10
201.6975798991758
 20
471.3355580308009
 30
0.0
 10
201.6952376886556
 20
471.3363914053931
 30
0.0
 10
201.6314500343785
 20
471.3585224639398
 30
0.0
 10
201.5614637739368
 20
471.368478874818
 30
0.0
 10
201.4116293353429
 20
471.368478874818
 30
0.0
 10
201.3259085206049
 20
471.3585224639398
 30
0.0
 10
201.1362299455182
 20
471.3158941600631
 30
0.0
 10
201.0322754482595
 20
471.2832244186215
 30
0.0
 10
200.8124760669829
 20
471.1958590858726
 30
0.0
 10
200.6965149277351
 20
471.1411065251383
 30
0.0
 10
200.5527225660042
 20
471.0631326431509
 30
0.0
 10
200.5266022379859
 20
471.0485758490545
 30
0.0
 10
200.5004481423812
 20
471.0336129030698
 30
0.0
  0
SPLINE
  5
282C
330
1F
100
AcDbEntity
  8
AM_VIS
100
AcDbSpline
210
0.0
220
0.0
230
1.0
 70
     8
 71
     3
 72
    16
 73
    12
 74
     0
 42
0.0000000001
 43
0.0000000001
 40
1.626271716229691
 40
1.626271716229691
 40
1.626271716229691
 40
1.626271716229691
 40
2.044102946506439
 40
2.044102946506439
 40
3.066154419759659
 40
3.066154419759659
 40
4.088205893012879
 40
4.088205893012879
 40
5.443002653861024
 40
5.443002653861024
 40
6.738847868840626
 40
6.738847868840626
 40
6.738847868840626
 40
6.738847868840626
 10
200.5004481423812
 20
471.0336129030698
 30
0.0
 10
200.4014924746473
 20
470.9769996546688
 30
0.0
 10
200.299852173815
 20
470.9168213747736
 30
0.0
 10
199.9425164268479
 20
470.699222664686
 30
0.0
 10
199.6763545886757
 20
470.5269036803654
 30
0.0
 10
199.1394187328243
 20
470.1646595401073
 30
0.0
 10
198.8686490212781
 20
469.9747264495234
 30
0.0
 10
198.2600085882508
 20
469.534529590313
 30
0.0
 10
197.8756407492141
 20
469.2464470393945
 30
0.0
 10
197.1320444812415
 20
468.6531886672376
 30
0.0
 10
196.7719441223351
 20
468.3501893872844
 30
0.0
 10
196.4601778597709
 20
468.0466552188007
 30
0.0
  0
LINE
  5
282D
330
1F
100
AcDbEntity
  8
AM_VIS
100
AcDbLine
 10
202.5004481423812
 20
471.5466552188007
 30
0.0
 11
184.5004481423812
 21
471.5466552188007
 31
0.0
  0
LINE
  5
282E
330
1F
100
AcDbEntity
  8
AM_VIS
100
AcDbLine
 10
184.5004481423812
 20
483.5466552188007
 30
0.0
 11
202.5004481423812
 21
483.5466552188007
 31
0.0
  0
ARC
  5
282F
330
1F
100
AcDbEntity
  8
AM_VIS
100
AcDbCircle
 10
186.5004481423812
 20
446.0466552188007
 30
0.0
 40
3.5
100
AcDbArc
 50
180.0
 51
270.0
  0
ARC
  5
2830
330
1F
100
AcDbEntity
  8
AM_VIS
100
AcDbCircle
 10
186.5004481423812
 20
468.0466552188007
 30
0.0
 40
3.499999999999999
100
AcDbArc
 50
110.0416584085678
 51
180.0
  0
SPLINE
  5
2831
330
1F
100
AcDbEntity
  8
AM_VIS
100
AcDbSpline
210
0.0
220
0.0
230
1.0
 70
     8
 71
     3
 72
    18
 73
    14
 74
     0
 42
0.0000000001
 43
0.0000000001
 40
4.975287104260677
 40
4.975287104260677
 40
4.975287104260677
 40
4.975287104260677
 40
5.086400028382842
 40
5.086400028382842
 40
5.588960013482415
 40
5.588960013482415
 40
6.091519998581987
 40
6.091519998581987
 40
6.59407998368156
 40
6.59407998368156
 40
7.096639968781131
 40
7.096639968781131
 40
7.11590156427612
 40
7.11590156427612
 40
7.11590156427612
 40
7.11590156427612
 10
186.5004481423812
 20
471.0336129030698
 30
0.0
 10
186.4742940467764
 20
471.0485758490545
 30
0.0
 10
186.4481737187579
 20
471.0631326431509
 30
0.0
 10
186.304381357027
 20
471.1411065251385
 30
0.0
 10
186.1884202177792
 20
471.1958590858727
 30
0.0
 10
185.9686208365027
 20
471.2832244186216
 30
0.0
 10
185.864666339244
 20
471.3158941600631
 30
0.0
 10
185.6749877641573
 20
471.3585224639398
 30
0.0
 10
185.5892669494194
 20
471.368478874818
 30
0.0
 10
185.4394325108255
 20
471.368478874818
 30
0.0
 10
185.3694462503838
 20
471.3585224639398
 30
0.0
 10
185.3056585961067
 20
471.3363914053929
 30
0.0
 10
185.3033163855867
 20
471.3355580308009
 30
0.0
 10
185.3009866582451
 20
471.3347081605999
 30
0.0
  0
ARC
  5
2832
330
1F
100
AcDbEntity
  8
AM_VIS
100
AcDbCircle
 10
200.5004481423812
 20
446.0466552188007
 30
0.0
 40
3.5
100
AcDbArc
 50
270.0
 51
0.0
  0
SPLINE
  5
2833
330
1F
100
AcDbEntity
  8
AM_VIS
100
AcDbSpline
210
0.0
220
0.0
230
1.0
 70
     8
 71
     3
 72
    16
 73
    12
 74
     0
 42
0.0000000001
 43
0.0000000001
 40
13.44245735600753
 40
13.44245735600753
 40
13.44245735600753
 40
13.44245735600753
 40
14.73830257098713
 40
14.73830257098713
 40
16.09309933183528
 40
16.09309933183528
 40
17.1151508050885
 40
17.1151508050885
 40
18.13720227834172
 40
18.13720227834172
 40
18.55503350861849
 40
18.55503350861849
 40
18.55503350861849
 40
18.55503350861849
 10
190.5407184249915
 20
468.0466552188007
 30
0.0
 10
190.2289521624273
 20
468.3501893872844
 30
0.0
 10
189.868851803521
 20
468.6531886672375
 30
0.0
 10
189.1252555355483
 20
469.2464470393945
 30
0.0
 10
188.7408876965116
 20
469.534529590313
 30
0.0
 10
188.1322472634843
 20
469.9747264495234
 30
0.0
 10
187.8614775519381
 20
470.1646595401073
 30
0.0
 10
187.3245416960867
 20
470.5269036803654
 30
0.0
 10
187.0583798579145
 20
470.699222664686
 30
0.0
 10
186.7010441109474
 20
470.9168213747735
 30
0.0
 10
186.5994038101151
 20
470.9769996546688
 30
0.0
 10
186.5004481423812
 20
471.0336129030698
 30
0.0
  0
LINE
  5
2834
330
1F
100
AcDbEntity
  8
AM_VIS
100
AcDbLine
 10
204.0004481423812
 20
446.0466552188007
 30
0.0
 11
204.0004481423812
 21
468.0466552188007
 31
0.0
  0
SPLINE
  5
2835
330
1F
100
AcDbEntity
  8
AM_VIS
100
AcDbSpline
210
0.0
220
0.0
230
1.0
 70
    12
 71
     2
 72
     6
 73
     3
 74
     0
 42
0.0000000001
 43
0.0000000001
 40
0.0
 40
0.0
 40
0.0
 40
3.381727793507036
 40
3.381727793507036
 40
3.381727793507036
 10
196.4601778597709
 20
468.0466552188007
 30
0.0
 41
1.0
 10
194.9194966370201
 20
466.5466552188007
 30
0.0
 41
1.021203771466384
 10
193.5004481423812
 20
466.5466552188007
 30
0.0
 41
1.0
  0
SPLINE
  5
2836
330
1F
100
AcDbEntity
  8
AM_VIS
100
AcDbSpline
210
0.0
220
0.0
230
1.0
 70
    12
 71
     2
 72
     6
 73
     3
 74
     0
 42
0.0000000001
 43
0.0000000001
 40
3.381727793507036
 40
3.381727793507036
 40
3.381727793507036
 40
6.763455587014078
 40
6.763455587014078
 40
6.763455587014078
 10
193.5004481423812
 20
466.5466552188007
 30
0.0
 41
1.0
 10
192.0813996477423
 20
466.5466552188007
 30
0.0
 41
1.021203771466384
 10
190.5407184249915
 20
468.0466552188007
 30
0.0
 41
1.0
  0
CIRCLE
  5
2837
330
1F
100
AcDbEntity
  8
AM_VIS
100
AcDbCircle
 10
193.5004481423812
 20
457.0466552188007
 30
0.0
 40
3.5
  0
LINE
  5
2838
330
1F
100
AcDbEntity
  8
AM_VIS
100
AcDbLine
 10
186.5004481423812
 20
442.5466552188007
 30
0.0
 11
200.5004481423812
 21
442.5466552188007
 31
0.0
  0
LINE
  5
2839
330
1F
100
AcDbEntity
  8
AM_VIS
100
AcDbLine
 10
183.0004481423812
 20
468.0466552188007
 30
0.0
 11
183.0004481423812
 21
446.0466552188007
 31
0.0
  0
LINE
  5
283A
330
1F
100
AcDbEntity
  8
AM_VIS
100
AcDbLine
 10
182.5004481423812
 20
442.0466552188007
 30
0.0
 11
204.5004481423812
 21
442.0466552188007
 31
0.0
  0
LINE
  5
283B
330
1F
100
AcDbEntity
  8
AM_VIS
100
AcDbLine
 10
182.5004481423812
 20
442.0466552188007
 30
0.0
 11
182.5004481423812
 21
471.5466552188007
 31
0.0
  0
LINE
  5
283C
330
1F
100
AcDbEntity
  8
AM_VIS
100
AcDbLine
 10
204.5004481423812
 20
442.0466552188007
 30
0.0
 11
204.5004481423812
 21
471.5466552188007
 31
0.0
  0
LINE
  5
283D
330
1F
100
AcDbEntity
  8
AM_VIS
100
AcDbLine
 10
184.5004481423812
 20
471.5466552188007
 30
0.0
 11
182.5004481423812
 21
471.5466552188007
 31
0.0
  0
LINE
  5
283E
330
1F
100
AcDbEntity
  8
AM_VIS
100
AcDbLine
 10
204.5004481423812
 20
471.5466552188007
 30
0.0
 11
202.5004481423812
 21
471.5466552188007
 31
0.0
  0
CIRCLE
  5
283F
330
1F
100
AcDbEntity
  8
AM_VIS
100
AcDbCircle
 10
193.5004481423812
 20
456.0466552188008
 30
0.0
 40
1.25
  0
LINE
  5
2840
330
1F
100
AcDbEntity
  8
AM_VIS
100
AcDbLine
 10
182.5004481423812
 20
440.0466552188007
 30
0.0
 11
182.5004481423812
 21
442.0466552188007
 31
0.0
  0
LINE
  5
2841
330
1F
100
AcDbEntity
  8
AM_VIS
100
AcDbLine
 10
197.5004481423812
 20
440.0466552188007
 30
0.0
 11
182.5004481423812
 21
440.0466552188007
 31
0.0
  0
LINE
  5
2842
330
1F
100
AcDbEntity
  8
AM_VIS
100
AcDbLine
 10
204.5004481423812
 20
442.0466552188008
 30
0.0
 11
204.5004481423812
 21
440.0466552188007
 31
0.0
  0
LINE
  5
2843
330
1F
100
AcDbEntity
  8
AM_VIS
100
AcDbLine
 10
197.5004481423812
 20
440.0466552188007
 30
0.0
 11
197.5004481423812
 21
442.0466552188007
 31
0.0
  0
LINE
  5
2844
330
1F
100
AcDbEntity
  8
AM_VIS
100
AcDbLine
 10
192.0862345800082
 20
431.7466552188007
 30
0.0
 11
194.9146617047544
 21
431.7466552188007
 31
0.0
  0
SPLINE
  5
2845
330
1F
100
AcDbEntity
  8
AM_VIS
100
AcDbSpline
210
0.0
220
0.0
230
1.0
 70
    28
 71
     2
 72
     6
 73
     3
 74
     0
 42
0.0000000001
 43
0.0000000001
 40
0.0
 40
0.0
 40
0.0
 40
0.9032970360342511
 40
0.9032970360342511
 40
0.9032970360342511
 10
194.9146617047544
 20
431.7466552188007
 30
0.0
 41
1.0
 10
195.1384951807828
 20
431.7466552188007
 30
0.0
 41
1.027113857111303
 10
195.436939815485
 20
431.7466552188007
 30
0.0
 41
1.031471700637818
  0
ARC
  5
2846
330
1F
100
AcDbEntity
  8
AM_VIS
100
AcDbCircle
 10
193.5004481423813
 20
431.2466552188007
 30
0.0
 40
1.5
100
AcDbArc
 50
19.47122063448966
 51
160.5287793655072
  0
SPLINE
  5
2847
330
1F
100
AcDbEntity
  8
AM_VIS
100
AcDbSpline
210
0.0
220
0.0
230
1.0
 70
    28
 71
     2
 72
     6
 73
     3
 74
     0
 42
0.0000000001
 43
0.0000000001
 40
1.249265113989211
 40
1.249265113989211
 40
1.249265113989211
 40
2.152562150030378
 40
2.152562150030378
 40
2.152562150030378
 10
191.5639564692775
 20
431.7466552188007
 30
0.0
 41
1.031471700637885
 10
191.8624011039781
 20
431.7466552188007
 30
0.0
 41
1.027113857111511
 10
192.0862345800082
 20
431.7466552188007
 30
0.0
 41
1.0
  0
ARC
  5
2848
330
1F
100
AcDbEntity
  8
AM_VIS
100
AcDbCircle
 10
193.5004481423813
 20
431.2466552188007
 30
0.0
 40
2.0
100
AcDbArc
 50
345.52248781407
 51
14.47751218592991
  0
ARC
  5
2849
330
1F
100
AcDbEntity
  8
AM_VIS
100
AcDbCircle
 10
193.5004481423813
 20
431.2466552188007
 30
0.0
 40
2.0
100
AcDbArc
 50
14.47751218592992
 51
165.52248781407
  0
ARC
  5
284A
330
1F
100
AcDbEntity
  8
AM_VIS
100
AcDbCircle
 10
193.5004481423813
 20
431.2466552188007
 30
0.0
 40
2.0
100
AcDbArc
 50
165.52248781407
 51
194.4775121859299
  0
LINE
  5
284B
330
1F
100
AcDbEntity
  8
AM_VIS
100
AcDbLine
 10
194.9146617047544
 20
430.7466552188008
 30
0.0
 11
192.0862345800082
 21
430.7466552188008
 31
0.0
  0
SPLINE
  5
284C
330
1F
100
AcDbEntity
  8
AM_VIS
100
AcDbSpline
210
0.0
220
0.0
230
1.0
 70
    28
 71
     2
 72
     6
 73
     3
 74
     0
 42
0.0000000001
 43
0.0000000001
 40
0.0
 40
0.0
 40
0.0
 40
0.9032970360342469
 40
0.9032970360342469
 40
0.9032970360342469
 10
192.0862345800082
 20
430.7466552188008
 30
0.0
 41
1.0
 10
191.8624011039798
 20
430.7466552188008
 30
0.0
 41
1.027113857111303
 10
191.5639564692775
 20
430.7466552188008
 30
0.0
 41
1.031471700637818
  0
ARC
  5
284D
330
1F
100
AcDbEntity
  8
AM_VIS
100
AcDbCircle
 10
193.5004481423813
 20
431.2466552188007
 30
0.0
 40
1.5
100
AcDbArc
 50
199.4712206344896
 51
340.5287793655103
  0
SPLINE
  5
284E
330
1F
100
AcDbEntity
  8
AM_VIS
100
AcDbSpline
210
0.0
220
0.0
230
1.0
 70
    28
 71
     2
 72
     6
 73
     3
 74
     0
 42
0.0000000001
 43
0.0000000001
 40
1.249265113989207
 40
1.249265113989207
 40
1.249265113989207
 40
2.152562150030378
 40
2.152562150030378
 40
2.152562150030378
 10
195.436939815485
 20
430.7466552188008
 30
0.0
 41
1.031471700637885
 10
195.1384951807844
 20
430.7466552188008
 30
0.0
 41
1.027113857111511
 10
194.9146617047544
 20
430.7466552188008
 30
0.0
 41
1.0
  0
ARC
  5
284F
330
1F
100
AcDbEntity
  8
AM_VIS
100
AcDbCircle
 10
193.5004481423813
 20
431.2466552188007
 30
0.0
 40
2.0
100
AcDbArc
 50
194.4775121859299
 51
345.52248781407
  0
LINE
  5
2850
330
1F
100
AcDbEntity
  8
AM_VIS
100
AcDbLine
 10
204.5004481423812
 20
425.0466552188007
 30
0.0
 11
204.5004481423812
 21
440.0466552188007
 31
0.0
  0
LINE
  5
2851
330
1F
100
AcDbEntity
  8
AM_VIS
100
AcDbLine
 10
202.0004481423812
 20
425.0466552188007
 30
0.0
 11
185.0004481423812
 21
425.0466552188007
 31
0.0
  0
LINE
  5
2852
330
1F
100
AcDbEntity
  8
AM_VIS
100
AcDbLine
 10
182.5004481423812
 20
440.0466552188007
 30
0.0
 11
182.5004481423812
 21
425.0466552188007
 31
0.0
  0
CIRCLE
  5
2853
330
1F
100
AcDbEntity
  8
AM_VIS
100
AcDbCircle
 10
193.5004481423812
 20
431.2466552188007
 30
0.0
 40
2.049999999999999
  0
LINE
  5
2854
330
1F
100
AcDbEntity
  8
AM_VIS
100
AcDbLine
 10
202.0004481423812
 20
440.0466552188007
 30
0.0
 11
204.5004481423812
 21
440.0466552188007
 31
0.0
  0
LINE
  5
2855
330
1F
100
AcDbEntity
  8
AM_VIS
100
AcDbLine
 10
202.0004481423812
 20
440.0466552188007
 30
0.0
 11
185.0004481423812
 21
440.0466552188007
 31
0.0
  0
LINE
  5
2856
330
1F
100
AcDbEntity
  8
AM_VIS
100
AcDbLine
 10
213.2004481423812
 20
425.0466552188007
 30
0.0
 11
213.2004481423812
 21
398.6466552188007
 31
0.0
  0
LINE
  5
2857
330
1F
100
AcDbEntity
  8
AM_VIS
100
AcDbLine
 10
177.8004481423812
 20
425.0466552188007
 30
0.0
 11
213.2004481423812
 21
425.0466552188007
 31
0.0
  0
LINE
  5
2858
330
1F
100
AcDbEntity
  8
AM_VIS
100
AcDbLine
 10
177.8004481423812
 20
398.6466552188007
 30
0.0
 11
177.8004481423812
 21
425.0466552188007
 31
0.0
  0
CIRCLE
  5
2859
330
1F
100
AcDbEntity
  8
AM_VIS
100
AcDbCircle
 10
205.5004481423813
 20
420.3466552188007
 30
0.0
 40
3.699999999999999
  0
CIRCLE
  5
285A
330
1F
100
AcDbEntity
  8
AM_VIS
100
AcDbCircle
 10
182.5004481423812
 20
403.3466552188007
 30
0.0
 40
3.699999999999999
  0
LINE
  5
285B
330
1F
100
AcDbEntity
  8
AM_VIS
100
AcDbLine
 10
213.2004481423812
 20
398.6466552188007
 30
0.0
 11
177.8004481423812
 21
398.6466552188007
 31
0.0
  0
ARC
  5
28FE
330
1F
100
AcDbEntity
  8
AM_VIS
100
AcDbCircle
 10
21.90622272450076
 20
418.033211763441
 30
0.0
 40
1.6
100
AcDbArc
 50
208.1727341318648
 51
264.9999999999992
  0
ARC
  5
28FF
330
1F
100
AcDbEntity
  8
AM_VIS
100
AcDbCircle
 10
21.90622272450076
 20
422.6600986741605
 30
0.0
 40
1.6
100
AcDbArc
 50
95.00000000000076
 51
151.8272658681351
  0
LINE
  5
2900
330
1F
100
AcDbEntity
  8
AM_VIS
100
AcDbLine
 10
21.76677353610449
 20
416.4393002464942
 30
0.0
 11
22.82571104823233
 21
416.3466552188007
 31
0.0
  0
LINE
  5
2901
330
1F
100
AcDbEntity
  8
AM_VIS
100
AcDbLine
 10
21.76677353610449
 20
424.2540101911073
 30
0.0
 11
22.82571104823233
 21
424.3466552188007
 31
0.0
  0
ARC
  5
2902
330
1F
100
AcDbEntity
  8
AM_VIS
100
AcDbCircle
 10
26.22571104823231
 20
420.3466552188007
 30
0.0
 40
6.499999999999998
100
AcDbArc
 50
200.7227443815913
 51
208.1727341318648
  0
ARC
  5
2903
330
1F
100
AcDbEntity
  8
AM_VIS
100
AcDbCircle
 10
26.22571104823231
 20
420.3466552188007
 30
0.0
 40
6.499999999999998
100
AcDbArc
 50
151.8272658681351
 51
159.2772556184086
  0
LINE
  5
2904
330
1F
100
AcDbEntity
  8
AM_VIS
100
AcDbLine
 10
22.82571104823233
 20
416.5466552188007
 30
0.0
 11
23.82571104823233
 21
416.5466552188007
 31
0.0
  0
LINE
  5
2905
330
1F
100
AcDbEntity
  8
AM_VIS
100
AcDbLine
 10
22.82571104823233
 20
424.1466552188008
 30
0.0
 11
23.82571104823233
 21
424.1466552188008
 31
0.0
  0
LINE
  5
2906
330
1F
100
AcDbEntity
  8
AM_VIS
100
AcDbLine
 10
101.8257110482323
 20
479.5466552188007
 30
0.0
 11
102.3257110482323
 21
479.0466552188007
 31
0.0
  0
LINE
  5
2907
330
1F
100
AcDbEntity
  8
AM_VIS
100
AcDbLine
 10
82.82571104823233
 20
479.5466552188007
 30
0.0
 11
82.32571104823234
 21
479.0466552188007
 31
0.0
  0
LINE
  5
2908
330
1F
100
AcDbEntity
  8
AM_VIS
100
AcDbLine
 10
102.3257110482323
 20
477.8966552188007
 30
0.0
 11
102.3257110482323
 21
479.0466552188007
 31
0.0
  0
LINE
  5
2909
330
1F
100
AcDbEntity
  8
AM_VIS
100
AcDbLine
 10
82.32571104823234
 20
477.8966552188007
 30
0.0
 11
82.32571104823234
 21
479.0466552188007
 31
0.0
  0
ARC
  5
290A
330
1F
100
AcDbEntity
  8
AM_VIS
100
AcDbCircle
 10
85.32571104823235
 20
477.1466552188008
 30
0.0
 40
0.75
100
AcDbArc
 50
270.0
 51
318.1896851042206
  0
ARC
  5
290B
330
1F
100
AcDbEntity
  8
AM_VIS
100
AcDbCircle
 10
85.32571104823235
 20
477.1466552188008
 30
0.0
 40
0.75
100
AcDbArc
 50
41.81031489577936
 51
89.9999999999998
  0
ARC
  5
290C
330
1F
100
AcDbEntity
  8
AM_VIS
100
AcDbCircle
 10
99.32571104823235
 20
477.1466552188008
 30
0.0
 40
0.75
100
AcDbArc
 50
90.0
 51
138.1896851042236
  0
ARC
  5
290D
330
1F
100
AcDbEntity
  8
AM_VIS
100
AcDbCircle
 10
99.32571104823235
 20
477.1466552188008
 30
0.0
 40
0.75
100
AcDbArc
 50
221.8103148957796
 51
269.9999999999993
  0
LINE
  5
290E
330
1F
100
AcDbEntity
  8
AM_VIS
100
AcDbLine
 10
102.3257110482323
 20
473.5466552188007
 30
0.0
 11
102.3257110482323
 21
476.3966552188008
 31
0.0
  0
LINE
  5
290F
330
1F
100
AcDbEntity
  8
AM_VIS
100
AcDbLine
 10
82.32571104823234
 20
473.5466552188007
 30
0.0
 11
82.32571104823234
 21
476.3966552188008
 31
0.0
  0
LINE
  5
2910
330
1F
100
AcDbEntity
  8
AM_VIS
100
AcDbLine
 10
99.82571104823236
 20
473.3466552188008
 30
0.0
 11
102.3257110482323
 21
473.5466552188007
 31
0.0
  0
LINE
  5
2911
330
1F
100
AcDbEntity
  8
AM_VIS
100
AcDbLine
 10
84.82571104823234
 20
473.3466552188008
 30
0.0
 11
82.32571104823234
 21
473.5466552188007
 31
0.0
  0
LINE
  5
2912
330
1F
100
AcDbEntity
  8
AM_VIS
100
AcDbLine
 10
84.82571104823234
 20
472.5466552188008
 30
0.0
 11
82.32571104823234
 21
472.0466552188007
 31
0.0
  0
LINE
  5
2913
330
1F
100
AcDbEntity
  8
AM_VIS
100
AcDbLine
 10
99.82571104823236
 20
472.5466552188008
 30
0.0
 11
102.3257110482323
 21
472.0466552188007
 31
0.0
  0
LINE
  5
2914
330
1F
100
AcDbEntity
  8
AM_VIS
100
AcDbLine
 10
99.82571104823236
 20
472.5466552188008
 30
0.0
 11
99.82571104823236
 21
473.3466552188008
 31
0.0
  0
LINE
  5
2915
330
1F
100
AcDbEntity
  8
AM_VIS
100
AcDbLine
 10
84.82571104823234
 20
472.5466552188008
 30
0.0
 11
84.82571104823234
 21
473.3466552188008
 31
0.0
  0
LINE
  5
2916
330
1F
100
AcDbEntity
  8
AM_VIS
100
AcDbLine
 10
102.3257110482323
 20
471.5466552188007
 30
0.0
 11
102.3257110482323
 21
472.0466552188007
 31
0.0
  0
LINE
  5
2917
330
1F
100
AcDbEntity
  8
AM_VIS
100
AcDbLine
 10
82.32571104823234
 20
471.5466552188007
 30
0.0
 11
82.32571104823234
 21
472.0466552188007
 31
0.0
  0
LINE
  5
2918
330
1F
100
AcDbEntity
  8
AM_VIS
100
AcDbLine
 10
124.5757110482323
 20
485.1466552188007
 30
0.0
 11
124.5757110482323
 21
483.5466552188007
 31
0.0
  0
LINE
  5
2919
330
1F
100
AcDbEntity
  8
AM_VIS
100
AcDbLine
 10
138.0757110482323
 20
485.1466552188007
 30
0.0
 11
138.0757110482323
 21
483.5466552188007
 31
0.0
  0
LINE
  5
291A
330
1F
100
AcDbEntity
  8
AM_VIS
100
AcDbLine
 10
138.3257110482323
 20
466.5466552188007
 30
0.0
 11
140.3257110482323
 21
471.5466552188007
 31
0.0
  0
LINE
  5
291B
330
1F
100
AcDbEntity
  8
AM_VIS
100
AcDbLine
 10
140.3257110482323
 20
471.5466552188007
 30
0.0
 11
140.3257110482323
 21
483.5466552188007
 31
0.0
  0
LINE
  5
291C
330
1F
100
AcDbEntity
  8
AM_VIS
100
AcDbLine
 10
122.3257110482323
 20
471.5466552188007
 30
0.0
 11
122.3257110482323
 21
483.5466552188007
 31
0.0
  0
LINE
  5
291D
330
1F
100
AcDbEntity
  8
AM_VIS
100
AcDbLine
 10
105.3257110482323
 20
432.7466552188008
 30
0.0
 11
104.8257110482323
 21
433.2466552188008
 31
0.0
  0
LINE
  5
291E
330
1F
100
AcDbEntity
  8
AM_VIS
100
AcDbLine
 10
104.8257110482323
 20
433.2466552188008
 30
0.0
 11
103.3257110482323
 21
433.2466552188008
 31
0.0
  0
LINE
  5
291F
330
1F
100
AcDbEntity
  8
AM_VIS
100
AcDbLine
 10
104.8257110482323
 20
429.2466552188008
 30
0.0
 11
103.3257110482323
 21
429.2466552188008
 31
0.0
  0
LINE
  5
2920
330
1F
100
AcDbEntity
  8
AM_VIS
100
AcDbLine
 10
105.3257110482323
 20
429.7466552188008
 30
0.0
 11
104.8257110482323
 21
429.2466552188008
 31
0.0
  0
LINE
  5
2921
330
1F
100
AcDbEntity
  8
AM_VIS
100
AcDbLine
 10
22.82571104823233
 20
424.3466552188008
 30
0.0
 11
22.82571104823233
 21
416.3466552188006
 31
0.0
  0
LINE
  5
2922
330
1F
100
AcDbEntity
  8
AM_VIS
100
AcDbLine
 10
19.74065626820163
 20
420.0351552188008
 30
0.0
 11
20.15203002496662
 21
420.0351552188008
 31
0.0
  0
LINE
  5
2923
330
1F
100
AcDbEntity
  8
AM_VIS
100
AcDbLine
 10
19.74065626820163
 20
403.0351552188007
 30
0.0
 11
19.82571104823233
 21
403.0351552188007
 31
0.0
  0
ELLIPSE
  5
2924
330
1F
100
AcDbEntity
  8
AM_VIS
100
AcDbEllipse
 10
24.333591237527
 20
420.3466552188007
 30
0.0
 11
0.0
 21
-5.92413480864247
 31
0.0
210
0.0
220
0.0
230
1.0
 40
0.7068296022928891
 41
4.659783202666883
 42
4.764994758102496
  0
LINE
  5
2925
330
1F
100
AcDbEntity
  8
AM_VIS
100
AcDbLine
 10
20.15203002496662
 20
420.6581552188007
 30
0.0
 11
19.74065626820163
 21
420.6581552188007
 31
0.0
  0
LINE
  5
2926
330
1F
100
AcDbEntity
  8
AM_VIS
100
AcDbLine
 10
19.82571104823233
 20
403.6581552188007
 30
0.0
 11
19.74065626820163
 21
403.6581552188007
 31
0.0
  0
ARC
  5
2927
330
1F
100
AcDbEntity
  8
AM_VIS
100
AcDbCircle
 10
26.22571104823231
 20
420.3466552188007
 30
0.0
 40
6.492531690334577
100
AcDbArc
 50
182.7500042419909
 51
200.6929831855788
  0
ARC
  5
2928
330
1F
100
AcDbEntity
  8
AM_VIS
100
AcDbCircle
 10
26.22571104823231
 20
403.3466552188007
 30
0.0
 40
6.492531690334577
100
AcDbArc
 50
182.7500042419909
 51
189.684852033527
  0
LINE
  5
2929
330
1F
100
AcDbEntity
  8
AM_VIS
100
AcDbLine
 10
20.15203002496594
 20
422.6408580384338
 30
0.0
 11
20.14623738680404
 21
422.6466552188007
 31
0.0
  0
LINE
  5
292A
330
1F
100
AcDbEntity
  8
AM_VIS
100
AcDbLine
 10
20.14623738680404
 20
418.0466552188007
 30
0.0
 11
20.15203002496594
 21
418.0524523991676
 31
0.0
  0
ARC
  5
292B
330
1F
100
AcDbEntity
  8
AM_VIS
100
AcDbCircle
 10
26.22571104823231
 20
420.3466552188007
 30
0.0
 40
6.492531690334577
100
AcDbArc
 50
159.3070168144211
 51
177.249995758009
  0
ARC
  5
292C
330
1F
100
AcDbEntity
  8
AM_VIS
100
AcDbCircle
 10
26.22571104823231
 20
403.3466552188007
 30
0.0
 40
6.492531690334577
100
AcDbArc
 50
170.3151479664729
 51
177.249995758009
  0
ARC
  5
292D
330
1F
100
AcDbEntity
  8
AM_VIS
100
AcDbCircle
 10
96.92571104823235
 20
403.3466552188007
 30
0.0
 40
6.492531690334672
100
AcDbArc
 50
350.3151479664695
 51
357.2499957579895
  0
LINE
  5
292E
330
1F
100
AcDbEntity
  8
AM_VIS
100
AcDbLine
 10
103.410765828263
 20
420.6581552188007
 30
0.0
 11
103.3257110482323
 21
420.6581552188007
 31
0.0
  0
LINE
  5
292F
330
1F
100
AcDbEntity
  8
AM_VIS
100
AcDbLine
 10
103.3257110482323
 20
420.0351552188007
 30
0.0
 11
103.410765828263
 21
420.0351552188007
 31
0.0
  0
ARC
  5
2930
330
1F
100
AcDbEntity
  8
AM_VIS
100
AcDbCircle
 10
96.92571104823235
 20
403.3466552188007
 30
0.0
 40
6.492531690334672
100
AcDbArc
 50
2.750004241974645
 51
9.684852033530436
  0
LINE
  5
2931
330
1F
100
AcDbEntity
  8
AM_VIS
100
AcDbLine
 10
103.3257110482323
 20
403.0351552187987
 30
0.0
 11
103.410765828263
 21
403.0351552187987
 31
0.0
  0
ARC
  5
2932
330
1F
100
AcDbEntity
  8
AM_VIS
100
AcDbCircle
 10
96.92571104823233
 20
420.3466552188007
 30
0.0
 40
6.492531690334577
100
AcDbArc
 50
2.750004241990952
 51
9.684852033527072
  0
LINE
  5
2933
330
1F
100
AcDbEntity
  8
AM_VIS
100
AcDbLine
 10
103.4107658282632
 20
403.6581552187987
 30
0.0
 11
103.3257110482323
 21
403.6581552187987
 31
0.0
  0
ARC
  5
2934
330
1F
100
AcDbEntity
  8
AM_VIS
100
AcDbCircle
 10
96.92571104823233
 20
420.3466552188007
 30
0.0
 40
6.492531690334577
100
AcDbArc
 50
350.3151479664729
 51
357.249995758009
  0
ELLIPSE
  5
2935
330
1F
100
AcDbEntity
  8
AM_VIS
100
AcDbEllipse
 10
23.27621556434141
 20
420.3466552188007
 30
0.0
 11
10.43832331602555
 21
0.580758757880744
 31
-0.0000000000000001
210
0.0
220
0.0
230
1.0
 40
0.3597664707423005
 41
1.498126703203123
 42
1.59394607472888
  0
ELLIPSE
  5
2936
330
1F
100
AcDbEntity
  8
AM_VIS
100
AcDbEllipse
 10
24.37520653212323
 20
420.3466552188007
 30
0.0
 11
10.43832331602541
 21
0.580758757880746
 31
-0.0000000000000001
210
0.0
220
0.0
230
1.0
 40
0.3597664707423056
 41
1.603438519726256
 42
1.69974614016453
  0
LINE
  5
2937
330
1F
100
AcDbEntity
  8
AM_VIS
100
AcDbLine
 10
23.82571104823233
 20
424.0466552188007
 30
0.0
 11
23.82571104823233
 21
425.0466552188007
 31
0.0
  0
LINE
  5
2938
330
1F
100
AcDbEntity
  8
AM_VIS
100
AcDbLine
 10
20.82571104823233
 20
398.6466552188007
 30
0.0
 11
26.32571104823233
 21
398.6466552188007
 31
0.0
  0
LINE
  5
2939
330
1F
100
AcDbEntity
  8
AM_VIS
100
AcDbLine
 10
23.82571104823233
 20
424.0466552188007
 30
0.0
 11
23.82571104823233
 21
416.3466552188007
 31
0.0
  0
LINE
  5
293A
330
1F
100
AcDbEntity
  8
AM_VIS
100
AcDbLine
 10
26.32571104823233
 20
399.6466552188008
 30
0.0
 11
26.32571104823233
 21
424.0466552188007
 31
0.0
  0
LINE
  5
293B
330
1F
100
AcDbEntity
  8
AM_VIS
100
AcDbLine
 10
23.82571104823233
 20
416.3466552188007
 30
0.0
 11
20.82571104823233
 21
416.3466552188007
 31
0.0
  0
LINE
  5
293C
330
1F
100
AcDbEntity
  8
AM_VIS
100
AcDbLine
 10
26.32571104823233
 20
425.0466552188007
 30
0.0
 11
23.82571104823233
 21
425.0466552188007
 31
0.0
  0
LINE
  5
293D
330
1F
100
AcDbEntity
  8
AM_VIS
100
AcDbLine
 10
20.82571104823233
 20
425.0466552188007
 30
0.0
 11
23.82571104823233
 21
425.0466552188007
 31
0.0
  0
ARC
  5
293E
330
1F
100
AcDbEntity
  8
AM_VIS
100
AcDbCircle
 10
20.82571104823233
 20
399.6466552188008
 30
0.0
 40
1.0
100
AcDbArc
 50
180.0
 51
270.0
  0
LINE
  5
293F
330
1F
100
AcDbEntity
  8
AM_VIS
100
AcDbLine
 10
19.82571104823233
 20
420.6581552188008
 30
0.0
 11
19.82571104823233
 21
420.3466552188007
 31
0.0
  0
LINE
  5
2940
330
1F
100
AcDbEntity
  8
AM_VIS
100
AcDbLine
 10
19.82571104823233
 20
424.0466552188007
 30
0.0
 11
19.82571104823233
 21
421.4388858492082
 31
0.0
  0
LINE
  5
2941
330
1F
100
AcDbEntity
  8
AM_VIS
100
AcDbLine
 10
19.82571104823233
 20
419.2544245883933
 30
0.0
 11
19.82571104823233
 21
415.3466552188008
 31
0.0
  0
LINE
  5
2942
330
1F
100
AcDbEntity
  8
AM_VIS
100
AcDbLine
 10
19.82571104823233
 20
420.3466552188007
 30
0.0
 11
19.82571104823233
 21
420.0351552188008
 31
0.0
  0
LINE
  5
2943
330
1F
100
AcDbEntity
  8
AM_VIS
100
AcDbLine
 10
19.82571104823233
 20
415.3466552188008
 30
0.0
 11
19.82571104823233
 21
399.6466552188008
 31
0.0
  0
ARC
  5
2944
330
1F
100
AcDbEntity
  8
AM_VIS
100
AcDbCircle
 10
20.82571104823233
 20
415.3466552188008
 30
0.0
 40
1.0
100
AcDbArc
 50
90.00000000000019
 51
180.0
  0
ARC
  5
2945
330
1F
100
AcDbEntity
  8
AM_VIS
100
AcDbCircle
 10
20.82571104823233
 20
424.0466552188007
 30
0.0
 40
1.0
100
AcDbArc
 50
90.00000000000019
 51
180.0
  0
LINE
  5
2946
330
1F
100
AcDbEntity
  8
AM_VIS
100
AcDbLine
 10
102.3257110482323
 20
479.0466552188007
 30
0.0
 11
102.1636642185567
 21
479.0466552188007
 31
0.0
  0
LINE
  5
2947
330
1F
100
AcDbEntity
  8
AM_VIS
100
AcDbLine
 10
82.48775787790791
 20
479.0466552188007
 30
0.0
 11
82.32571104823234
 21
479.0466552188007
 31
0.0
  0
LINE
  5
2948
330
1F
100
AcDbEntity
  8
AM_VIS
100
AcDbLine
 10
98.79742974458933
 20
479.0466552188007
 30
0.0
 11
95.69194552219988
 21
479.0466552188007
 31
0.0
  0
LINE
  5
2949
330
1F
100
AcDbEntity
  8
AM_VIS
100
AcDbLine
 10
88.95947657426479
 20
479.0466552188007
 30
0.0
 11
85.85399235187555
 21
479.0466552188007
 31
0.0
  0
LINE
  5
294A
330
1F
100
AcDbEntity
  8
AM_VIS
100
AcDbLine
 10
88.9594765742648
 20
477.8966552188007
 30
0.0
 11
88.9594765742648
 21
479.0466552188007
 31
0.0
  0
SPLINE
  5
294B
330
1F
100
AcDbEntity
  8
AM_VIS
100
AcDbSpline
210
0.0
220
0.0
230
1.0
 70
     8
 71
     3
 72
     8
 73
     4
 74
     0
 42
0.0000000001
 43
0.0000000001
 40
1.629958734905461
 40
1.629958734905461
 40
1.629958734905461
 40
1.629958734905461
 40
2.565803457021723
 40
2.565803457021723
 40
2.565803457021723
 40
2.565803457021723
 10
88.9594765742648
 20
479.0466552188007
 30
0.0
 10
89.21885304075873
 20
479.2265160957568
 30
0.0
 10
89.49000522361085
 20
479.3956158427143
 30
0.0
 10
89.77081379002409
 20
479.5466552188007
 30
0.0
  0
SPLINE
  5
294C
330
1F
100
AcDbEntity
  8
AM_VIS
100
AcDbSpline
210
0.0
220
0.0
230
1.0
 70
     8
 71
     3
 72
     8
 73
     4
 74
     0
 42
0.0000000001
 43
0.0000000001
 40
7.8606508081159
 40
7.8606508081159
 40
7.8606508081159
 40
7.8606508081159
 40
8.796495530230886
 40
8.796495530230886
 40
8.796495530230886
 40
8.796495530230886
 10
94.88060830644061
 20
479.5466552188007
 30
0.0
 10
95.16141666902367
 20
479.395615952349
 30
0.0
 10
95.43256888943769
 20
479.2265162110533
 30
0.0
 10
95.6919455221999
 20
479.0466552188007
 30
0.0
  0
LINE
  5
294D
330
1F
100
AcDbEntity
  8
AM_VIS
100
AcDbLine
 10
95.6919455221999
 20
479.0466552188007
 30
0.0
 11
95.6919455221999
 21
477.8966552188007
 31
0.0
  0
LINE
  5
294E
330
1F
100
AcDbEntity
  8
AM_VIS
100
AcDbLine
 10
98.79742974458935
 20
477.8966552188007
 30
0.0
 11
98.79742974458935
 21
479.0466552188007
 31
0.0
  0
SPLINE
  5
294F
330
1F
100
AcDbEntity
  8
AM_VIS
100
AcDbSpline
210
0.0
220
0.0
230
1.0
 70
     8
 71
     3
 72
     8
 73
     4
 74
     0
 42
0.0000000001
 43
0.0000000001
 40
1.630155802117218
 40
1.630155802117218
 40
1.630155802117218
 40
1.630155802117218
 40
2.566002660597602
 40
2.566002660597602
 40
2.566002660597602
 40
2.566002660597602
 10
98.79742974458935
 20
479.0466552188007
 30
0.0
 10
98.84200107781387
 20
479.2265164519927
 30
0.0
 10
98.89989437423224
 20
479.3956160733674
 30
0.0
 10
98.97239486375589
 20
479.5466552188007
 30
0.0
  0
SPLINE
  5
2950
330
1F
100
AcDbEntity
  8
AM_VIS
100
AcDbSpline
210
0.0
220
0.0
230
1.0
 70
     8
 71
     3
 72
     8
 73
     4
 74
     0
 42
0.0000000001
 43
0.0000000001
 40
7.860869800051694
 40
7.860869800051694
 40
7.860869800051694
 40
7.860869800051694
 40
8.796716658530822
 40
8.796716658530822
 40
8.796716658530822
 40
8.796716658530822
 10
101.527292121964
 20
479.5466552188007
 30
0.0
 10
101.7355996191531
 20
479.3956161827643
 30
0.0
 10
101.9488584341874
 20
479.226516567019
 30
0.0
 10
102.1636642185568
 20
479.0466552188007
 30
0.0
  0
LINE
  5
2951
330
1F
100
AcDbEntity
  8
AM_VIS
100
AcDbLine
 10
102.1636642185568
 20
479.0466552188007
 30
0.0
 11
102.1636642185568
 21
477.8966552188007
 31
0.0
  0
LINE
  5
2952
330
1F
100
AcDbEntity
  8
AM_VIS
100
AcDbLine
 10
82.48775787790789
 20
477.8966552188007
 30
0.0
 11
82.48775787790789
 21
479.0466552188007
 31
0.0
  0
SPLINE
  5
2953
330
1F
100
AcDbEntity
  8
AM_VIS
100
AcDbSpline
210
0.0
220
0.0
230
1.0
 70
     8
 71
     3
 72
     8
 73
     4
 74
     0
 42
0.0000000001
 43
0.0000000001
 40
1.630155803927002
 40
1.630155803927002
 40
1.630155803927002
 40
1.630155803927002
 40
2.566002662426968
 40
2.566002662426968
 40
2.566002662426968
 40
2.566002662426968
 10
82.48775787790789
 20
479.0466552188007
 30
0.0
 10
82.70256352490706
 20
479.2265164519959
 30
0.0
 10
82.91582232643815
 20
479.3956160733694
 30
0.0
 10
83.1241299745006
 20
479.5466552188007
 30
0.0
  0
SPLINE
  5
2954
330
1F
100
AcDbEntity
  8
AM_VIS
100
AcDbSpline
210
0.0
220
0.0
230
1.0
 70
     8
 71
     3
 72
     8
 73
     4
 74
     0
 42
0.0000000001
 43
0.0000000001
 40
7.860869802063071
 40
7.860869802063071
 40
7.860869802063071
 40
7.860869802063071
 40
8.796716660561775
 40
8.796716660561775
 40
8.796716660561775
 40
8.796716660561775
 10
85.67902723270897
 20
479.5466552188007
 30
0.0
 10
85.75152766971983
 20
479.3956161827663
 30
0.0
 10
85.80942099014565
 20
479.2265165670221
 30
0.0
 10
85.85399235187557
 20
479.0466552188007
 30
0.0
  0
LINE
  5
2955
330
1F
100
AcDbEntity
  8
AM_VIS
100
AcDbLine
 10
85.85399235187557
 20
479.0466552188007
 30
0.0
 11
85.85399235187557
 21
477.8966552188007
 31
0.0
  0
LINE
  5
2956
330
1F
100
AcDbEntity
  8
AM_VIS
100
AcDbLine
 10
82.48775787790791
 20
477.8966552188007
 30
0.0
 11
82.32571104823234
 21
477.8966552188007
 31
0.0
  0
LINE
  5
2957
330
1F
100
AcDbEntity
  8
AM_VIS
100
AcDbLine
 10
82.48775787790789
 20
477.8966552188007
 30
0.0
 11
85.85399235187557
 21
477.8966552188007
 31
0.0
  0
LINE
  5
2958
330
1F
100
AcDbEntity
  8
AM_VIS
100
AcDbLine
 10
88.95947657426479
 20
477.8966552188007
 30
0.0
 11
85.85399235187555
 21
477.8966552188007
 31
0.0
  0
LINE
  5
2959
330
1F
100
AcDbEntity
  8
AM_VIS
100
AcDbLine
 10
88.9594765742648
 20
477.8966552188007
 30
0.0
 11
95.69194552220002
 21
477.8966552188007
 31
0.0
  0
LINE
  5
295A
330
1F
100
AcDbEntity
  8
AM_VIS
100
AcDbLine
 10
98.79742974458933
 20
477.8966552188007
 30
0.0
 11
95.69194552219988
 21
477.8966552188007
 31
0.0
  0
LINE
  5
295B
330
1F
100
AcDbEntity
  8
AM_VIS
100
AcDbLine
 10
98.79742974458933
 20
477.8966552188007
 30
0.0
 11
102.1636642185569
 21
477.8966552188007
 31
0.0
  0
LINE
  5
295C
330
1F
100
AcDbEntity
  8
AM_VIS
100
AcDbLine
 10
102.3257110482323
 20
477.8966552188007
 30
0.0
 11
102.1636642185568
 21
477.8966552188007
 31
0.0
  0
LINE
  5
295D
330
1F
100
AcDbEntity
  8
AM_VIS
100
AcDbLine
 10
102.1636642185568
 20
476.3966552188008
 30
0.0
 11
98.79742974458929
 21
476.3966552188008
 31
0.0
  0
LINE
  5
295E
330
1F
100
AcDbEntity
  8
AM_VIS
100
AcDbLine
 10
102.1636642185568
 20
476.3966552188008
 30
0.0
 11
102.1636642185568
 21
473.5466552188007
 31
0.0
  0
LINE
  5
295F
330
1F
100
AcDbEntity
  8
AM_VIS
100
AcDbLine
 10
102.1636642185568
 20
476.3966552188008
 30
0.0
 11
102.3257110482323
 21
476.3966552188008
 31
0.0
  0
LINE
  5
2960
330
1F
100
AcDbEntity
  8
AM_VIS
100
AcDbLine
 10
95.69194552219988
 20
476.3966552188008
 30
0.0
 11
98.79742974458933
 21
476.3966552188008
 31
0.0
  0
LINE
  5
2961
330
1F
100
AcDbEntity
  8
AM_VIS
100
AcDbLine
 10
98.79742974458935
 20
473.5466552188007
 30
0.0
 11
98.79742974458935
 21
476.3966552188008
 31
0.0
  0
LINE
  5
2962
330
1F
100
AcDbEntity
  8
AM_VIS
100
AcDbLine
 10
85.85399235187557
 20
476.3966552188008
 30
0.0
 11
88.95947657426479
 21
476.3966552188008
 31
0.0
  0
LINE
  5
2963
330
1F
100
AcDbEntity
  8
AM_VIS
100
AcDbLine
 10
82.32571104823234
 20
476.3966552188008
 30
0.0
 11
82.48775787790791
 21
476.3966552188008
 31
0.0
  0
LINE
  5
2964
330
1F
100
AcDbEntity
  8
AM_VIS
100
AcDbLine
 10
88.9594765742648
 20
473.5466552188007
 30
0.0
 11
88.9594765742648
 21
476.3966552188008
 31
0.0
  0
LINE
  5
2965
330
1F
100
AcDbEntity
  8
AM_VIS
100
AcDbLine
 10
95.69194552219988
 20
476.3966552188008
 30
0.0
 11
88.95947657426466
 21
476.3966552188008
 31
0.0
  0
LINE
  5
2966
330
1F
100
AcDbEntity
  8
AM_VIS
100
AcDbLine
 10
95.6919455221999
 20
476.3966552188008
 30
0.0
 11
95.6919455221999
 21
473.5466552188007
 31
0.0
  0
LINE
  5
2967
330
1F
100
AcDbEntity
  8
AM_VIS
100
AcDbLine
 10
82.48775787790789
 20
473.5466552188007
 30
0.0
 11
82.48775787790789
 21
476.3966552188008
 31
0.0
  0
LINE
  5
2968
330
1F
100
AcDbEntity
  8
AM_VIS
100
AcDbLine
 10
85.85399235187557
 20
476.3966552188008
 30
0.0
 11
82.4877578779078
 21
476.3966552188008
 31
0.0
  0
LINE
  5
2969
330
1F
100
AcDbEntity
  8
AM_VIS
100
AcDbLine
 10
85.85399235187557
 20
476.3966552188008
 30
0.0
 11
85.85399235187557
 21
473.5466552188007
 31
0.0
  0
LINE
  5
296A
330
1F
100
AcDbEntity
  8
AM_VIS
100
AcDbLine
 10
82.48775787790791
 20
473.5466552188007
 30
0.0
 11
82.32571104823234
 21
473.5466552188007
 31
0.0
  0
SPLINE
  5
296B
330
1F
100
AcDbEntity
  8
AM_VIS
100
AcDbSpline
210
0.0
220
0.0
230
1.0
 70
     8
 71
     3
 72
    14
 73
    10
 74
     0
 42
0.0000000001
 43
0.0000000001
 40
13.28006742556183
 40
13.28006742556183
 40
13.28006742556183
 40
13.28006742556183
 40
14.274483813056
 40
14.274483813056
 40
16.65382904986486
 40
16.65382904986486
 40
19.03317428667369
 40
19.03317428667369
 40
20.02759067416779
 40
20.02759067416779
 40
20.02759067416779
 40
20.02759067416779
 10
85.85399235187557
 20
473.5466552188007
 30
0.0
 10
85.79902207309578
 20
473.5289092436818
 30
0.0
 10
85.72585994965173
 20
473.5131336499782
 30
0.0
 10
85.4186344249538
 20
473.4679248380678
 30
0.0
 10
85.10124503439747
 20
473.4506552188007
 30
0.0
 10
84.30812995546117
 20
473.4506552188007
 30
0.0
 10
83.81625400538455
 20
473.4679248380678
 30
0.0
 10
83.00548619845478
 20
473.5131336499782
 30
0.0
 10
82.75267986799791
 20
473.5289092436818
 30
0.0
 10
82.48775787790789
 20
473.5466552188007
 30
0.0
  0
LINE
  5
296C
330
1F
100
AcDbEntity
  8
AM_VIS
100
AcDbLine
 10
88.95947657426479
 20
473.5466552188007
 30
0.0
 11
85.85399235187555
 21
473.5466552188007
 31
0.0
  0
SPLINE
  5
296D
330
1F
100
AcDbEntity
  8
AM_VIS
100
AcDbSpline
210
0.0
220
0.0
230
1.0
 70
     8
 71
     3
 72
    14
 73
    10
 74
     0
 42
0.0000000001
 43
0.0000000001
 40
13.28006742556183
 40
13.28006742556183
 40
13.28006742556183
 40
13.28006742556183
 40
14.27448381305596
 40
14.27448381305596
 40
16.65382904986481
 40
16.65382904986481
 40
19.03317428667365
 40
19.03317428667365
 40
20.02759067416773
 40
20.02759067416773
 40
20.02759067416773
 40
20.02759067416773
 10
95.69194552219988
 20
473.5466552188007
 30
0.0
 10
95.37205325333008
 20
473.5289092436818
 30
0.0
 10
95.04608479942925
 20
473.5131336499782
 30
0.0
 10
93.92809146780152
 20
473.4679248380678
 30
0.0
 10
93.11882612716857
 20
473.4506552188007
 30
0.0
 10
91.53259596929601
 20
473.4506552188007
 30
0.0
 10
90.72333062866315
 20
473.4679248380678
 30
0.0
 10
89.60533729703547
 20
473.5131336499782
 30
0.0
 10
89.27936884313458
 20
473.5289092436818
 30
0.0
 10
88.95947657426479
 20
473.5466552188007
 30
0.0
  0
LINE
  5
296E
330
1F
100
AcDbEntity
  8
AM_VIS
100
AcDbLine
 10
98.79742974458933
 20
473.5466552188007
 30
0.0
 11
95.69194552219988
 21
473.5466552188007
 31
0.0
  0
SPLINE
  5
296F
330
1F
100
AcDbEntity
  8
AM_VIS
100
AcDbSpline
210
0.0
220
0.0
230
1.0
 70
     8
 71
     3
 72
    14
 73
    10
 74
     0
 42
0.0000000001
 43
0.0000000001
 40
13.28006742556176
 40
13.28006742556176
 40
13.28006742556176
 40
13.28006742556176
 40
14.27448381305588
 40
14.27448381305588
 40
16.65382904986474
 40
16.65382904986474
 40
19.03317428667358
 40
19.03317428667358
 40
20.02759067416758
 40
20.02759067416758
 40
20.02759067416758
 40
20.02759067416758
 10
102.1636642185568
 20
473.5466552188007
 30
0.0
 10
101.8987422284668
 20
473.5289092436818
 30
0.0
 10
101.6459358980099
 20
473.5131336499782
 30
0.0
 10
100.8351680910801
 20
473.4679248380678
 30
0.0
 10
100.3432921410035
 20
473.4506552188007
 30
0.0
 10
99.55017706206731
 20
473.4506552188007
 30
0.0
 10
99.23278767151099
 20
473.4679248380678
 30
0.0
 10
98.92556214681311
 20
473.5131336499782
 30
0.0
 10
98.85240002336914
 20
473.5289092436818
 30
0.0
 10
98.79742974458935
 20
473.5466552188007
 30
0.0
  0
LINE
  5
2970
330
1F
100
AcDbEntity
  8
AM_VIS
100
AcDbLine
 10
102.3257110482323
 20
473.5466552188007
 30
0.0
 11
102.1636642185568
 21
473.5466552188007
 31
0.0
  0
LINE
  5
2971
330
1F
100
AcDbEntity
  8
AM_VIS
100
AcDbLine
 10
99.82571104823236
 20
473.3466552188008
 30
0.0
 11
84.82571104823234
 21
473.3466552188008
 31
0.0
  0
LINE
  5
2972
330
1F
100
AcDbEntity
  8
AM_VIS
100
AcDbLine
 10
99.82571104823236
 20
472.5466552188008
 30
0.0
 11
84.82571104823234
 21
472.5466552188008
 31
0.0
  0
SPLINE
  5
2973
330
1F
100
AcDbEntity
  8
AM_VIS
100
AcDbSpline
210
0.0
220
0.0
230
1.0
 70
    11
 71
     3
 72
    58
 73
    54
 74
     0
 42
0.0000000001
 43
0.0000000001
 40
-3.310941722041909
 40
-3.310941722041909
 40
-3.310941722041909
 40
-3.310941722041909
 40
-3.295630163526127
 40
-3.295630163526127
 40
-3.258885216857127
 40
-3.258885216857127
 40
-3.197166102530552
 40
-3.197166102530552
 40
-3.038165220187092
 40
-3.038165220187092
 40
-2.856291614874425
 40
-2.856291614874425
 40
-2.666842086900363
 40
-2.666842086900363
 40
-2.492578752010307
 40
-2.492578752010307
 40
-2.312125783734306
 40
-2.312125783734306
 40
-2.134512493780222
 40
-2.134512493780222
 40
-1.991913706755022
 40
-1.991913706755022
 40
-1.842368186772041
 40
-1.842368186772041
 40
-1.791323432474765
 40
-1.791323432474765
 40
-1.757111173267642
 40
-1.757111173267642
 40
-1.723565230360897
 40
-1.723565230360897
 40
-1.676146471110933
 40
-1.676146471110933
 40
-1.559264165848294
 40
-1.559264165848294
 40
-1.304423753582546
 40
-1.304423753582546
 40
-1.102534997057311
 40
-1.102534997057311
 40
-0.9616332280766684
 40
-0.9616332280766684
 40
-0.8335600122348491
 40
-0.8335600122348491
 40
-0.6887403587823754
 40
-0.6887403587823754
 40
-0.4760113448005606
 40
-0.4760113448005606
 40
-0.2570316117940582
 40
-0.2570316117940582
 40
-0.0905362468526998
 40
-0.0905362468526998
 40
-0.0354113089024487
 40
-0.0354113089024487
 40
0.0
 40
0.0
 40
0.0
 40
0.0
 10
98.44831360586672
 20
477.6466552188008
 30
0.0
 10
98.44989841142641
 20
477.6466552188008
 30
0.0
 10
98.45141692426366
 20
477.6465846189361
 30
0.0
 10
98.45634854770874
 20
477.6460983481782
 30
0.0
 10
98.45942235581556
 20
477.6453398700815
 30
0.0
 10
98.46654757664145
 20
477.6421465120892
 30
0.0
 10
98.4698001994883
 20
477.6389433078139
 30
0.0
 10
98.47733253092194
 20
477.6230030973064
 30
0.0
 10
98.47488282729871
 20
477.6036557048603
 30
0.0
 10
98.46088688202922
 20
477.5470810883198
 30
0.0
 10
98.44810944362665
 20
477.5073676522151
 30
0.0
 10
98.4222219967477
 20
477.4089579288451
 30
0.0
 10
98.40968741254206
 20
477.3511447950364
 30
0.0
 10
98.39473213870705
 20
477.2311483211494
 30
0.0
 10
98.39172216180758
 20
477.1711657463519
 30
0.0
 10
98.39553621847535
 20
477.0489853653364
 30
0.0
 10
98.40265128586331
 20
476.9889449047379
 30
0.0
 10
98.42309346169331
 20
476.8790353379483
 30
0.0
 10
98.4361714413473
 20
476.829910006206
 30
0.0
 10
98.45757555988376
 20
476.7551003470734
 30
0.0
 10
98.4662891338266
 20
476.7266856271342
 30
0.0
 10
98.4761322531747
 20
476.6806990302777
 30
0.0
 10
98.4766360508707
 20
476.6641797316102
 30
0.0
 10
98.46720068571775
 20
476.651895533277
 30
0.0
 10
98.46396846039635
 20
476.6496775910889
 30
0.0
 10
98.45717171199838
 20
476.6473970237895
 30
0.0
 10
98.45408382452117
 20
476.6468703770238
 30
0.0
 10
98.44728700875279
 20
476.6465506096426
 30
0.0
 10
98.44360169950904
 20
476.6467439429079
 30
0.0
 10
98.43399682375595
 20
476.648001052545
 30
0.0
 10
98.42779716171792
 20
476.6493896344858
 30
0.0
 10
98.40465648045922
 20
476.6562278299732
 30
0.0
 10
98.38525843361017
 20
476.6646473051251
 30
0.0
 10
98.31940383796863
 20
476.7000006938006
 30
0.0
 10
98.26523098543779
 20
476.7385810387993
 30
0.0
 10
98.17572971328786
 20
476.8287153752137
 30
0.0
 10
98.13746982759191
 20
476.8772195532204
 30
0.0
 10
98.08748960836924
 20
476.9730832589602
 30
0.0
 10
98.07128477524749
 20
477.0163385468217
 30
0.0
 10
98.05385617866511
 20
477.1049259281032
 30
0.0
 10
98.05177008653943
 20
477.1479181137736
 30
0.0
 10
98.06124568002271
 20
477.2396234717119
 30
0.0
 10
98.07431647916857
 20
477.2855143136089
 30
0.0
 10
98.11994554332098
 20
477.3899442851875
 30
0.0
 10
98.15819057342325
 20
477.4432331988582
 30
0.0
 10
98.24003272597519
 20
477.5318925626444
 30
0.0
 10
98.28564581710415
 20
477.5686141931251
 30
0.0
 10
98.35880363194023
 20
477.6158277465258
 30
0.0
 10
98.3891903179496
 20
477.6312493213213
 30
0.0
 10
98.42198352943576
 20
477.6423990334517
 30
0.0
 10
98.42951668207234
 20
477.6444009653391
 30
0.0
 10
98.4406296473354
 20
477.6462778270779
 30
0.0
 10
98.44464839835914
 20
477.6466552188008
 30
0.0
 10
98.44831360586672
 20
477.6466552188008
 30
0.0
  0
SPLINE
  5
2974
330
1F
100
AcDbEntity
  8
AM_VIS
100
AcDbSpline
210
0.0
220
0.0
230
1.0
 70
    11
 71
     3
 72
    60
 73
    56
 74
     0
 42
0.0000000001
 43
0.0000000001
 40
-3.339179844007151
 40
-3.339179844007151
 40
-3.339179844007151
 40
-3.339179844007151
 40
-3.338178520696156
 40
-3.338178520696156
 40
-3.307426451266925
 40
-3.307426451266925
 40
-3.260257452756732
 40
-3.260257452756732
 40
-3.131698041358982
 40
-3.131698041358982
 40
-2.911444239533808
 40
-2.911444239533808
 40
-2.707105948080839
 40
-2.707105948080839
 40
-2.555612065231917
 40
-2.555612065231917
 40
-2.41171336204705
 40
-2.41171336204705
 40
-2.246665158525234
 40
-2.246665158525234
 40
-2.021546198507155
 40
-2.021546198507155
 40
-1.783002479289418
 40
-1.783002479289418
 40
-1.68307629336666
 40
-1.68307629336666
 40
-1.640889767965192
 40
-1.640889767965192
 40
-1.610262997986963
 40
-1.610262997986963
 40
-1.578336364028082
 40
-1.578336364028082
 40
-1.529528059672249
 40
-1.529528059672249
 40
-1.393989387710077
 40
-1.393989387710077
 40
-1.223638689239261
 40
-1.223638689239261
 40
-1.012165487156113
 40
-1.012165487156113
 40
-0.8368093105576882
 40
-0.8368093105576882
 40
-0.6617329507481107
 40
-0.6617329507481107
 40
-0.4713557789971429
 40
-0.4713557789971429
 40
-0.3001652836474973
 40
-0.3001652836474973
 40
-0.1716500352891663
 40
-0.1716500352891663
 40
-0.0705730179627588
 40
-0.0705730179627588
 40
-0.0295050875810497
 40
-0.0295050875810497
 40
0.0
 40
0.0
 40
0.0
 40
0.0
 10
93.57571104823234
 20
477.6466552188008
 30
0.0
 10
93.5760384768602
 20
477.6466552188008
 30
0.0
 10
93.57636584410851
 20
477.6466548971725
 30
0.0
 10
93.58674517805885
 20
477.646634510011
 30
0.0
 10
93.59672229979866
 20
477.6463120011229
 30
0.0
 10
93.62180571106133
 20
477.6447583434092
 30
0.0
 10
93.63674597492432
 20
477.6431381795851
 30
0.0
 10
93.69144042883412
 20
477.634759057701
 30
0.0
 10
93.72927874298603
 20
477.624000609122
 30
0.0
 10
93.82467779860311
 20
477.5851151676659
 30
0.0
 10
93.87878758376768
 20
477.5493947923678
 30
0.0
 10
93.96675752814461
 20
477.4637867519008
 30
0.0
 10
94.00304725342438
 20
477.4138725312687
 30
0.0
 10
94.04934912725428
 20
477.3136202260839
 30
0.0
 10
94.06355295358618
 20
477.2670982509103
 30
0.0
 10
94.07738400270272
 20
477.1706650046264
 30
0.0
 10
94.07740653446966
 20
477.1231596399452
 30
0.0
 10
94.06305383987596
 20
477.0223269252424
 30
0.0
 10
94.04696935973989
 20
476.9720114249723
 30
0.0
 10
93.99401853604322
 20
476.8641173269941
 30
0.0
 10
93.95201824499325
 20
476.8111380008293
 30
0.0
 10
93.85140039199281
 20
476.7239406962869
 30
0.0
 10
93.79067683076632
 20
476.689930285132
 30
0.0
 10
93.69674683776443
 20
476.6606572481004
 30
0.0
 10
93.66763637492203
 20
476.6542311600131
 30
0.0
 10
93.62455681166501
 20
476.6488800136853
 30
0.0
 10
93.61159869256518
 20
476.6477719307078
 30
0.0
 10
93.58895600202332
 20
476.646739760038
 30
0.0
 10
93.5793728179731
 20
476.6465756942412
 30
0.0
 10
93.55968404114063
 20
476.6468111121164
 30
0.0
 10
93.54960334077359
 20
476.6472344177316
 30
0.0
 10
93.52403781685472
 20
476.6490911386802
 30
0.0
 10
93.50861063904837
 20
476.6509326453246
 30
0.0
 10
93.45050039990407
 20
476.6606523687691
 30
0.0
 10
93.40933797039365
 20
476.6732219971495
 30
0.0
 10
93.3215687604134
 20
476.7127368967826
 30
0.0
 10
93.27704016252132
 20
476.7422396138056
 30
0.0
 10
93.1901997795763
 20
476.8216495478803
 30
0.0
 10
93.1494571098595
 20
476.8761784115167
 30
0.0
 10
93.09669456746435
 20
476.9921297451742
 30
0.0
 10
93.08184696739566
 20
477.0488137231465
 30
0.0
 10
93.07264091362187
 20
477.1662523605471
 30
0.0
 10
93.07842029224907
 20
477.2247449819396
 30
0.0
 10
93.11107639445856
 20
477.3419250086103
 30
0.0
 10
93.13922583786725
 20
477.3982147451381
 30
0.0
 10
93.209675037287
 20
477.4917516250676
 30
0.0
 10
93.25011099841793
 20
477.5301418318255
 30
0.0
 10
93.33062464958631
 20
477.5844530967406
 30
0.0
 10
93.36835602252405
 20
477.6036218396074
 30
0.0
 10
93.44007589573552
 20
477.6290716149417
 30
0.0
 10
93.47267214333793
 20
477.6370799887877
 30
0.0
 10
93.51955595503929
 20
477.6436800890254
 30
0.0
 10
93.53310301034495
 20
477.645021099331
 30
0.0
 10
93.55637345664478
 20
477.6463761705796
 30
0.0
 10
93.56606300525205
 20
477.6466552188008
 30
0.0
 10
93.57571104823234
 20
477.6466552188008
 30
0.0
  0
SPLINE
  5
2975
330
1F
100
AcDbEntity
  8
AM_VIS
100
AcDbSpline
210
0.0
220
0.0
230
1.0
 70
    11
 71
     3
 72
    58
 73
    54
 74
     0
 42
0.0000000001
 43
0.0000000001
 40
-3.363896419206848
 40
-3.363896419206848
 40
-3.363896419206848
 40
-3.363896419206848
 40
-3.330080057161157
 40
-3.330080057161157
 40
-3.276087946130379
 40
-3.276087946130379
 40
-3.130129325352126
 40
-3.130129325352126
 40
-2.864475625688879
 40
-2.864475625688879
 40
-2.670984402665324
 40
-2.670984402665324
 40
-2.529876972570241
 40
-2.529876972570241
 40
-2.394146079242185
 40
-2.394146079242185
 40
-2.234845146626472
 40
-2.234845146626472
 40
-1.995446372912342
 40
-1.995446372912342
 40
-1.792732498438366
 40
-1.792732498438366
 40
-1.655061185971928
 40
-1.655061185971928
 40
-1.604023047287223
 40
-1.604023047287223
 40
-1.569394244699424
 40
-1.569394244699424
 40
-1.535224675006395
 40
-1.535224675006395
 40
-1.486406948944837
 40
-1.486406948944837
 40
-1.367760828093762
 40
-1.367760828093762
 40
-1.211422564665596
 40
-1.211422564665596
 40
-1.00947781377736
 40
-1.00947781377736
 40
-0.8308451466681658
 40
-0.8308451466681658
 40
-0.6546659190334039
 40
-0.6546659190334039
 40
-0.4706948991975911
 40
-0.4706948991975911
 40
-0.3083260207092203
 40
-0.3083260207092203
 40
-0.1833529844650886
 40
-0.1833529844650886
 40
-0.0782943285699142
 40
-0.0782943285699142
 40
-0.0333492537438367
 40
-0.0333492537438367
 40
0.0
 40
0.0
 40
0.0
 40
0.0
 10
86.20310849059798
 20
477.6466552188008
 30
0.0
 10
86.20660861493368
 20
477.6466552188008
 30
0.0
 10
86.21042579767017
 20
477.6463110650673
 30
0.0
 10
86.22109614245081
 20
477.6445783625302
 30
0.0
 10
86.22836738600883
 20
477.6426955582327
 30
0.0
 10
86.2573897167673
 20
477.633058239641
 30
0.0
 10
86.28284232163641
 20
477.6207291613968
 30
0.0
 10
86.35809862003306
 20
477.5752768090901
 30
0.0
 10
86.41341157375235
 20
477.531736761882
 30
0.0
 10
86.49737166507843
 20
477.4369088178302
 30
0.0
 10
86.53052719018324
 20
477.3895089370828
 30
0.0
 10
86.57328515706586
 20
477.2958668236519
 30
0.0
 10
86.58664847020803
 20
477.2531321368162
 30
0.0
 10
86.5993504620849
 20
477.1643199535636
 30
0.0
 10
86.59888727597122
 20
477.1205699457781
 30
0.0
 10
86.58369624997146
 20
477.0267728505494
 30
0.0
 10
86.56699437771242
 20
476.9797806434691
 30
0.0
 10
86.51254068293939
 20
476.873356334044
 30
0.0
 10
86.46784922157896
 20
476.8184624376885
 30
0.0
 10
86.38164457221092
 20
476.7368428047308
 30
0.0
 10
86.33998692176881
 20
476.7064279553883
 30
0.0
 10
86.27736279000016
 20
476.6698372636233
 30
0.0
 10
86.2534838562966
 20
476.6586731004819
 30
0.0
 10
86.22630128988125
 20
476.6500596915522
 30
0.0
 10
86.21951082199176
 20
476.6484036615922
 30
0.0
 10
86.20923453462591
 20
476.6468662960233
 30
0.0
 10
86.20539976290407
 20
476.6465874697425
 30
0.0
 10
86.19845792116807
 20
476.6467496519403
 30
0.0
 10
86.19535203089144
 20
476.6471808828007
 30
0.0
 10
86.18866181209925
 20
476.6491146477581
 30
0.0
 10
86.18546580046309
 20
476.6509900984869
 30
0.0
 10
86.17699226158318
 20
476.6600610095863
 30
0.0
 10
86.17546621844327
 20
476.6708443383846
 30
0.0
 10
86.17947241878095
 20
476.7057748338479
 30
0.0
 10
86.18723463038545
 20
476.7325824624051
 30
0.0
 10
86.20874114384632
 20
476.8068500497665
 30
0.0
 10
86.22394105038832
 20
476.8593491251342
 30
0.0
 10
86.24673358261238
 20
476.9752288387521
 30
0.0
 10
86.25448884297314
 20
477.0343446485278
 30
0.0
 10
86.25994793737406
 20
477.1561195535749
 30
0.0
 10
86.25770955891862
 20
477.2166979961777
 30
0.0
 10
86.24430858721687
 20
477.3356870763559
 30
0.0
 10
86.23293329682963
 20
477.392162275504
 30
0.0
 10
86.20941672516387
 20
477.485745185794
 30
0.0
 10
86.19762559111775
 20
477.5240270549558
 30
0.0
 10
86.1821861940249
 20
477.5793787732059
 30
0.0
 10
86.17737518142483
 20
477.599195587612
 30
0.0
 10
86.17599635576819
 20
477.6267039656654
 30
0.0
 10
86.17827899418042
 20
477.6355753986331
 30
0.0
 10
86.18674420428282
 20
477.643121231165
 30
0.0
 10
86.18991247885439
 20
477.6446961861875
 30
0.0
 10
86.19651534132435
 20
477.6463205897955
 30
0.0
 10
86.19965671377917
 20
477.6466552188008
 30
0.0
 10
86.20310849059798
 20
477.6466552188008
 30
0.0
  0
SPLINE
  5
2976
330
1F
100
AcDbEntity
  8
AM_VIS
100
AcDbSpline
210
0.0
220
0.0
230
1.0
 70
    11
 71
     3
 72
    60
 73
    56
 74
     0
 42
0.0000000001
 43
0.0000000001
 40
-3.310750712816652
 40
-3.310750712816652
 40
-3.310750712816652
 40
-3.310750712816652
 40
-3.302671059125519
 40
-3.302671059125519
 40
-3.271516879648076
 40
-3.271516879648076
 40
-3.222342999562159
 40
-3.222342999562159
 40
-3.075760487521823
 40
-3.075760487521823
 40
-2.908994890068949
 40
-2.908994890068949
 40
-2.706317539053631
 40
-2.706317539053631
 40
-2.531583211411222
 40
-2.531583211411222
 40
-2.354322289708455
 40
-2.354322289708455
 40
-2.162856293862051
 40
-2.162856293862051
 40
-1.995635058289954
 40
-1.995635058289954
 40
-1.870614094148073
 40
-1.870614094148073
 40
-1.77765316190416
 40
-1.77765316190416
 40
-1.737876373527406
 40
-1.737876373527406
 40
-1.708569587915623
 40
-1.708569587915623
 40
-1.67759753243844
 40
-1.67759753243844
 40
-1.629510029901636
 40
-1.629510029901636
 40
-1.49514387547256
 40
-1.49514387547256
 40
-1.274685715457794
 40
-1.274685715457794
 40
-1.0731360304824
 40
-1.0731360304824
 40
-0.9227343317460663
 40
-0.9227343317460663
 40
-0.7786617880805702
 40
-0.7786617880805702
 40
-0.6125360661046729
 40
-0.6125360661046729
 40
-0.3879513966054244
 40
-0.3879513966054244
 40
-0.2081380036627772
 40
-0.2081380036627772
 40
-0.0765520961402888
 40
-0.0765520961402888
 40
-0.030511565745947
 40
-0.030511565745947
 40
0.0
 40
0.0
 40
0.0
 40
0.0
 10
91.07571104823238
 20
477.6466552188008
 30
0.0
 10
91.07835306194827
 20
477.6466552188008
 30
0.0
 10
91.08099876233685
 20
477.6466342792154
 30
0.0
 10
91.09386364282231
 20
477.6464300349653
 30
0.0
 10
91.10411174825719
 20
477.6459544016611
 30
0.0
 10
91.13061264959466
 20
477.6438981979149
 30
0.0
 10
91.14679758436681
 20
477.6418471755769
 30
0.0
 10
91.21101285894518
 20
477.6304713955233
 30
0.0
 10
91.25699131265141
 20
477.6150872308788
 30
0.0
 10
91.34846267505629
 20
477.5692330147141
 30
0.0
 10
91.39243443606096
 20
477.5372420944328
 30
0.0
 10
91.47615259222662
 20
477.4530673629611
 30
0.0
 10
91.51316361921294
 20
477.3978020915854
 30
0.0
 10
91.56018415706343
 20
477.2829840574782
 30
0.0
 10
91.57280756271203
 20
477.2261537105817
 30
0.0
 10
91.57776544754522
 20
477.1083655556894
 30
0.0
 10
91.569710299682
 20
477.0496986768058
 30
0.0
 10
91.53245617804399
 20
476.933600170791
 30
0.0
 10
91.50215452166868
 20
476.878416808552
 30
0.0
 10
91.4291031475504
 20
476.7888604794092
 30
0.0
 10
91.38847774958545
 20
476.7528161329476
 30
0.0
 10
91.30846338977413
 20
476.7022844754746
 30
0.0
 10
91.27131205011883
 20
476.6846424467347
 30
0.0
 10
91.20271209581437
 20
476.6620737099933
 30
0.0
 10
91.17267647511376
 20
476.6551760177898
 30
0.0
 10
91.12896124939039
 20
476.6493232375234
 30
0.0
 10
91.11586262196942
 20
476.6480975673249
 30
0.0
 10
91.09312622258752
 20
476.6468652463845
 30
0.0
 10
91.08351932821895
 20
476.6466246732991
 30
0.0
 10
91.06384310430017
 20
476.6466938570306
 30
0.0
 10
91.05380745120553
 20
476.6470355581764
 30
0.0
 10
91.02838770325668
 20
476.6486587018469
 30
0.0
 10
91.01317770116516
 20
476.6503505464577
 30
0.0
 10
90.95648578857684
 20
476.6592423592916
 30
0.0
 10
90.91709907509985
 20
476.6708310044122
 30
0.0
 10
90.82086451224855
 20
476.7116034077526
 30
0.0
 10
90.76719144951745
 20
476.7480390852904
 30
0.0
 10
90.68076920424097
 20
476.8345168192484
 30
0.0
 10
90.64546257150929
 20
476.8843049635008
 30
0.0
 10
90.60049392869787
 20
476.9842868793213
 30
0.0
 10
90.58679398957783
 20
477.0307494609178
 30
0.0
 10
90.57382030834201
 20
477.12726763786
 30
0.0
 10
90.57425211109931
 20
477.1749141544708
 30
0.0
 10
90.58965603126448
 20
477.2760957903922
 30
0.0
 10
90.60641010284575
 20
477.3265814465259
 30
0.0
 10
90.66068940954663
 20
477.433952289363
 30
0.0
 10
90.70321298283841
 20
477.4863976867102
 30
0.0
 10
90.79204329622211
 20
477.5616395409444
 30
0.0
 10
90.83702590806304
 20
477.5892133761242
 30
0.0
 10
90.92225727648047
 20
477.6241136543549
 30
0.0
 10
90.96107959033339
 20
477.6351065840699
 30
0.0
 10
91.01653656046757
 20
477.6433538923067
 30
0.0
 10
91.03115118591571
 20
477.6448875299064
 30
0.0
 10
91.05582641689855
 20
477.646356798795
 30
0.0
 10
91.06573389100807
 20
477.6466552188008
 30
0.0
 10
91.07571104823238
 20
477.6466552188008
 30
0.0
  0
SPLINE
  5
2977
330
1F
100
AcDbEntity
  8
AM_VIS
100
AcDbSpline
210
0.0
220
0.0
230
1.0
 70
     8
 71
     3
 72
    36
 73
    32
 74
     0
 42
0.0000000001
 43
0.0000000001
 40
-1.621485579433078
 40
-1.621485579433078
 40
-1.621485579433078
 40
-1.621485579433078
 40
-1.617034276867391
 40
-1.617034276867391
 40
-1.602410840687001
 40
-1.602410840687001
 40
-1.577730896454621
 40
-1.577730896454621
 40
-1.493746788175254
 40
-1.493746788175254
 40
-1.335788681406827
 40
-1.335788681406827
 40
-1.113984476308351
 40
-1.113984476308351
 40
-0.9389257066208507
 40
-0.9389257066208507
 40
-0.7838246799157116
 40
-0.7838246799157116
 40
-0.6181835689282919
 40
-0.6181835689282919
 40
-0.4198265361936239
 40
-0.4198265361936239
 40
-0.2496966909615617
 40
-0.2496966909615617
 40
-0.0820325103092844
 40
-0.0820325103092844
 40
-0.0326671281496289
 40
-0.0326671281496289
 40
-0.0134203911006947
 40
-0.0134203911006947
 40
0.0
 40
0.0
 40
0.0
 40
0.0
 10
98.7666940538574
 20
476.6466552188007
 30
0.0
 10
98.76669405304937
 20
476.6466552179537
 30
0.0
 10
98.76668765126652
 20
476.6466618052314
 30
0.0
 10
98.76663285842521
 20
476.6467181771106
 30
0.0
 10
98.7665219651261
 20
476.6468322504054
 30
0.0
 10
98.76604140540353
 20
476.6473272415494
 30
0.0
 10
98.76554637383355
 20
476.6478374453464
 30
0.0
 10
98.76254409910403
 20
476.650946190568
 30
0.0
 10
98.75807098557952
 20
476.6555891712223
 30
0.0
 10
98.74030541637353
 20
476.6748694654602
 30
0.0
 10
98.72290830020041
 20
476.6945508395912
 30
0.0
 10
98.67701907737087
 20
476.7549290572626
 30
0.0
 10
98.64564953159543
 20
476.8025572125735
 30
0.0
 10
98.59771735554119
 20
476.9071832759322
 30
0.0
 10
98.57976086464423
 20
476.9594066877645
 30
0.0
 10
98.55854863237412
 20
477.0665001677518
 30
0.0
 10
98.55417183406478
 20
477.1187946128862
 30
0.0
 10
98.55825161415557
 20
477.227967943367
 30
0.0
 10
98.56749623667729
 20
477.2822269672099
 30
0.0
 10
98.59932679584717
 20
477.3932856015386
 30
0.0
 10
98.62373820760709
 20
477.4468885523592
 30
0.0
 10
98.67161647768575
 20
477.5303320991853
 30
0.0
 10
98.69493735671516
 20
477.5628470236455
 30
0.0
 10
98.73483011241878
 20
477.6128696511559
 30
0.0
 10
98.75158368241377
 20
477.6308252331332
 30
0.0
 10
98.76277912390342
 20
477.6426117931528
 30
0.0
 10
98.76460729577754
 20
477.6445025062305
 30
0.0
 10
98.76606233447215
 20
477.6460049150095
 30
0.0
 10
98.766350709649
 20
477.6463018402603
 30
0.0
 10
98.7666356866995
 20
477.6465951925058
 30
0.0
 10
98.7666940538574
 20
477.6466552188008
 30
0.0
 10
98.7666940538574
 20
477.6466552188008
 30
0.0
  0
SPLINE
  5
2978
330
1F
100
AcDbEntity
  8
AM_VIS
100
AcDbSpline
210
0.0
220
0.0
230
1.0
 70
     8
 71
     3
 72
    36
 73
    32
 74
     0
 42
0.0000000001
 43
0.0000000001
 40
-3.2466674604212
 40
-3.2466674604212
 40
-3.2466674604212
 40
-3.2466674604212
 40
-3.240528861961698
 40
-3.240528861961698
 40
-3.225316105687085
 40
-3.225316105687085
 40
-3.197858110269299
 40
-3.197858110269299
 40
-3.085497932818032
 40
-3.085497932818032
 40
-2.929559394761196
 40
-2.929559394761196
 40
-2.706187994250027
 40
-2.706187994250027
 40
-2.536659659208809
 40
-2.536659659208809
 40
-2.380946020260897
 40
-2.380946020260897
 40
-2.210294442618852
 40
-2.210294442618852
 40
-2.011324497642604
 40
-2.011324497642604
 40
-1.849339815029246
 40
-1.849339815029246
 40
-1.67839970224743
 40
-1.67839970224743
 40
-1.646194555250903
 40
-1.646194555250903
 40
-1.629980055907951
 40
-1.629980055907951
 40
-1.621485579624575
 40
-1.621485579624575
 40
-1.621485579624575
 40
-1.621485579624575
 10
85.8847280426073
 20
477.6466552188008
 30
0.0
 10
85.8847280426073
 20
477.6466552188008
 30
0.0
 10
85.88474025280188
 20
477.6466426584
 30
0.0
 10
85.88482516611277
 20
477.6465552926252
 30
0.0
 10
85.88496049763021
 20
477.6464160623355
 30
0.0
 10
85.88554674685214
 20
477.645812013509
 30
0.0
 10
85.88616378158901
 20
477.6451757583056
 30
0.0
 10
85.89047893565011
 20
477.64070034128
 30
0.0
 10
85.89778393131863
 20
477.6331072119949
 30
0.0
 10
85.9214289607137
 20
477.6066517837017
 30
0.0
 10
85.93998349819909
 20
477.5846644922786
 30
0.0
 10
85.98742846631235
 20
477.5187832652614
 30
0.0
 10
86.01860078449501
 20
477.4677507919646
 30
0.0
 10
86.06314263096964
 20
477.3593438586236
 30
0.0
 10
86.07864121868114
 20
477.3072926560867
 30
0.0
 10
86.0956077601649
 20
477.2001220864072
 30
0.0
 10
86.09781358037624
 20
477.1474573670836
 30
0.0
 10
86.08927376457454
 20
477.037421684829
 30
0.0
 10
86.07748447987638
 20
476.9828001318757
 30
0.0
 10
86.0414035447542
 20
476.8743034216188
 30
0.0
 10
86.01570203834063
 20
476.8231228764484
 30
0.0
 10
85.96844083165505
 20
476.7465392854112
 30
0.0
 10
85.94673864075428
 20
476.7176738534367
 30
0.0
 10
85.90933340192306
 20
476.6722650763197
 30
0.0
 10
85.89409344398019
 20
476.656379864316
 30
0.0
 10
85.88668835370844
 20
476.648676369452
 30
0.0
 10
85.88583774059179
 20
476.647798582901
 30
0.0
 10
85.88506187770004
 20
476.6469987310361
 30
0.0
 10
85.88488734955099
 20
476.6468191373348
 30
0.0
 10
85.88475135969423
 20
476.6466792032156
 30
0.0
 10
85.88472804451022
 20
476.646655216805
 30
0.0
 10
85.8847280426073
 20
476.6466552188007
 30
0.0
  0
LINE
  5
2979
330
1F
100
AcDbEntity
  8
AM_VIS
100
AcDbLine
 10
82.32571104823234
 20
472.0466552188007
 30
0.0
 11
102.3257110482323
 21
472.0466552188007
 31
0.0
  0
LINE
  5
297A
330
1F
100
AcDbEntity
  8
AM_VIS
100
AcDbLine
 10
82.82571104823235
 20
479.5466552188007
 30
0.0
 11
83.12412997450062
 21
479.5466552188007
 31
0.0
  0
LINE
  5
297B
330
1F
100
AcDbEntity
  8
AM_VIS
100
AcDbLine
 10
101.527292121964
 20
479.5466552188007
 30
0.0
 11
101.8257110482323
 21
479.5466552188007
 31
0.0
  0
LINE
  5
297C
330
1F
100
AcDbEntity
  8
AM_VIS
100
AcDbLine
 10
98.97239486375591
 20
479.5466552188007
 30
0.0
 11
101.5272921219641
 21
479.5466552188007
 31
0.0
  0
LINE
  5
297D
330
1F
100
AcDbEntity
  8
AM_VIS
100
AcDbLine
 10
94.88060830644059
 20
479.5466552188007
 30
0.0
 11
98.97239486375591
 21
479.5466552188007
 31
0.0
  0
LINE
  5
297E
330
1F
100
AcDbEntity
  8
AM_VIS
100
AcDbLine
 10
89.77081379002408
 20
479.5466552188007
 30
0.0
 11
94.88060830644073
 21
479.5466552188007
 31
0.0
  0
LINE
  5
297F
330
1F
100
AcDbEntity
  8
AM_VIS
100
AcDbLine
 10
85.67902723270899
 20
479.5466552188007
 30
0.0
 11
89.77081379002408
 21
479.5466552188007
 31
0.0
  0
LINE
  5
2980
330
1F
100
AcDbEntity
  8
AM_VIS
100
AcDbLine
 10
83.12412997450062
 20
479.5466552188007
 30
0.0
 11
85.67902723270902
 21
479.5466552188007
 31
0.0
  0
LINE
  5
2981
330
1F
100
AcDbEntity
  8
AM_VIS
100
AcDbLine
 10
122.0881067411983
 20
490.6466552188008
 30
0.0
 11
122.0881067411983
 21
485.1466552188007
 31
0.0
  0
LINE
  5
2982
330
1F
100
AcDbEntity
  8
AM_VIS
100
AcDbLine
 10
126.7069088947152
 20
490.6466552188008
 30
0.0
 11
126.7069088947152
 21
485.1466552188007
 31
0.0
  0
LINE
  5
2983
330
1F
100
AcDbEntity
  8
AM_VIS
100
AcDbLine
 10
125.2725078179569
 20
490.6466552188008
 30
0.0
 11
125.2725078179569
 21
485.1466552188007
 31
0.0
  0
LINE
  5
2984
330
1F
100
AcDbEntity
  8
AM_VIS
100
AcDbLine
 10
123.5225078179568
 20
485.1466552188007
 30
0.0
 11
123.5225078179568
 21
490.6466552188008
 31
0.0
  0
LINE
  5
2985
330
1F
100
AcDbEntity
  8
AM_VIS
100
AcDbLine
 10
124.2055205198491
 20
490.6466552188008
 30
0.0
 11
124.2055205198491
 21
485.1466552188007
 31
0.0
  0
LINE
  5
2986
330
1F
100
AcDbEntity
  8
AM_VIS
100
AcDbLine
 10
135.9445132017494
 20
490.6466552188008
 30
0.0
 11
135.9445132017494
 21
485.1466552188007
 31
0.0
  0
LINE
  5
2987
330
1F
100
AcDbEntity
  8
AM_VIS
100
AcDbLine
 10
133.0757110482325
 20
490.6466552188008
 30
0.0
 11
133.0757110482325
 21
485.1466552188007
 31
0.0
  0
LINE
  5
2988
330
1F
100
AcDbEntity
  8
AM_VIS
100
AcDbLine
 10
129.5757110482325
 20
485.1466552188007
 30
0.0
 11
129.5757110482325
 21
490.6466552188008
 31
0.0
  0
LINE
  5
2989
330
1F
100
AcDbEntity
  8
AM_VIS
100
AcDbLine
 10
130.0757110482325
 20
490.6466552188008
 30
0.0
 11
130.0757110482325
 21
485.1466552188007
 31
0.0
  0
LINE
  5
298A
330
1F
100
AcDbEntity
  8
AM_VIS
100
AcDbLine
 10
132.5757110482325
 20
490.6466552188008
 30
0.0
 11
132.5757110482325
 21
485.1466552188007
 31
0.0
  0
LINE
  5
298B
330
1F
100
AcDbEntity
  8
AM_VIS
100
AcDbLine
 10
140.5633153552664
 20
490.6466552188008
 30
0.0
 11
140.5633153552664
 21
485.1466552188007
 31
0.0
  0
LINE
  5
298C
330
1F
100
AcDbEntity
  8
AM_VIS
100
AcDbLine
 10
139.1289142785079
 20
490.6466552188008
 30
0.0
 11
139.1289142785079
 21
485.1466552188007
 31
0.0
  0
LINE
  5
298D
330
1F
100
AcDbEntity
  8
AM_VIS
100
AcDbLine
 10
137.3789142785079
 20
485.1466552188007
 30
0.0
 11
137.3789142785079
 21
490.6466552188008
 31
0.0
  0
LINE
  5
298E
330
1F
100
AcDbEntity
  8
AM_VIS
100
AcDbLine
 10
138.4459015766157
 20
490.6466552188008
 30
0.0
 11
138.4459015766157
 21
485.1466552188007
 31
0.0
  0
LINE
  5
298F
330
1F
100
AcDbEntity
  8
AM_VIS
100
AcDbLine
 10
122.0881067411983
 20
485.1466552188007
 30
0.0
 11
123.5225078179569
 21
485.1466552188007
 31
0.0
  0
LINE
  5
2990
330
1F
100
AcDbEntity
  8
AM_VIS
100
AcDbLine
 10
124.2055205198491
 20
485.1466552188007
 30
0.0
 11
123.5225078179569
 21
485.1466552188007
 31
0.0
  0
LINE
  5
2991
330
1F
100
AcDbEntity
  8
AM_VIS
100
AcDbLine
 10
125.2725078179569
 20
485.1466552188007
 30
0.0
 11
124.2055205198491
 21
485.1466552188007
 31
0.0
  0
LINE
  5
2992
330
1F
100
AcDbEntity
  8
AM_VIS
100
AcDbLine
 10
125.2725078179568
 20
485.1466552188007
 30
0.0
 11
126.7069088947153
 21
485.1466552188007
 31
0.0
  0
LINE
  5
2993
330
1F
100
AcDbEntity
  8
AM_VIS
100
AcDbLine
 10
126.7069088947152
 20
485.1466552188007
 30
0.0
 11
129.5757110482324
 21
485.1466552188007
 31
0.0
  0
LINE
  5
2994
330
1F
100
AcDbEntity
  8
AM_VIS
100
AcDbLine
 10
130.0757110482325
 20
485.1466552188007
 30
0.0
 11
129.5757110482325
 21
485.1466552188007
 31
0.0
  0
LINE
  5
2995
330
1F
100
AcDbEntity
  8
AM_VIS
100
AcDbLine
 10
132.5757110482325
 20
485.1466552188007
 30
0.0
 11
130.0757110482325
 21
485.1466552188007
 31
0.0
  0
LINE
  5
2996
330
1F
100
AcDbEntity
  8
AM_VIS
100
AcDbLine
 10
133.0757110482325
 20
485.1466552188007
 30
0.0
 11
132.5757110482325
 21
485.1466552188007
 31
0.0
  0
LINE
  5
2997
330
1F
100
AcDbEntity
  8
AM_VIS
100
AcDbLine
 10
133.0757110482325
 20
485.1466552188007
 30
0.0
 11
135.9445132017494
 21
485.1466552188007
 31
0.0
  0
LINE
  5
2998
330
1F
100
AcDbEntity
  8
AM_VIS
100
AcDbLine
 10
135.9445132017494
 20
485.1466552188007
 30
0.0
 11
137.3789142785079
 21
485.1466552188007
 31
0.0
  0
LINE
  5
2999
330
1F
100
AcDbEntity
  8
AM_VIS
100
AcDbLine
 10
138.4459015766157
 20
485.1466552188007
 30
0.0
 11
137.3789142785079
 21
485.1466552188007
 31
0.0
  0
LINE
  5
299A
330
1F
100
AcDbEntity
  8
AM_VIS
100
AcDbLine
 10
139.1289142785079
 20
485.1466552188007
 30
0.0
 11
138.4459015766157
 21
485.1466552188007
 31
0.0
  0
LINE
  5
299B
330
1F
100
AcDbEntity
  8
AM_VIS
100
AcDbLine
 10
139.1289142785079
 20
485.1466552188007
 30
0.0
 11
140.5633153552664
 21
485.1466552188007
 31
0.0
  0
LINE
  5
299C
330
1F
100
AcDbEntity
  8
AM_VIS
100
AcDbLine
 10
139.1289142785079
 20
490.6466552188008
 30
0.0
 11
140.5633153552664
 21
490.6466552188008
 31
0.0
  0
LINE
  5
299D
330
1F
100
AcDbEntity
  8
AM_VIS
100
AcDbLine
 10
138.4459015766157
 20
490.6466552188008
 30
0.0
 11
139.1289142785079
 21
490.6466552188008
 31
0.0
  0
LINE
  5
299E
330
1F
100
AcDbEntity
  8
AM_VIS
100
AcDbLine
 10
137.3789142785079
 20
490.6466552188008
 30
0.0
 11
138.4459015766157
 21
490.6466552188008
 31
0.0
  0
LINE
  5
299F
330
1F
100
AcDbEntity
  8
AM_VIS
100
AcDbLine
 10
135.9445132017494
 20
490.6466552188008
 30
0.0
 11
137.3789142785079
 21
490.6466552188008
 31
0.0
  0
LINE
  5
29A0
330
1F
100
AcDbEntity
  8
AM_VIS
100
AcDbLine
 10
133.0757110482325
 20
490.6466552188008
 30
0.0
 11
135.9445132017494
 21
490.6466552188008
 31
0.0
  0
LINE
  5
29A1
330
1F
100
AcDbEntity
  8
AM_VIS
100
AcDbLine
 10
132.5757110482325
 20
490.6466552188008
 30
0.0
 11
133.0757110482325
 21
490.6466552188008
 31
0.0
  0
LINE
  5
29A2
330
1F
100
AcDbEntity
  8
AM_VIS
100
AcDbLine
 10
130.0757110482325
 20
490.6466552188008
 30
0.0
 11
132.5757110482325
 21
490.6466552188008
 31
0.0
  0
LINE
  5
29A3
330
1F
100
AcDbEntity
  8
AM_VIS
100
AcDbLine
 10
129.5757110482325
 20
490.6466552188008
 30
0.0
 11
130.0757110482325
 21
490.6466552188008
 31
0.0
  0
LINE
  5
29A4
330
1F
100
AcDbEntity
  8
AM_VIS
100
AcDbLine
 10
126.7069088947152
 20
490.6466552188008
 30
0.0
 11
129.5757110482324
 21
490.6466552188008
 31
0.0
  0
LINE
  5
29A5
330
1F
100
AcDbEntity
  8
AM_VIS
100
AcDbLine
 10
125.2725078179568
 20
490.6466552188008
 30
0.0
 11
126.7069088947153
 21
490.6466552188008
 31
0.0
  0
LINE
  5
29A6
330
1F
100
AcDbEntity
  8
AM_VIS
100
AcDbLine
 10
124.2055205198491
 20
490.6466552188008
 30
0.0
 11
125.2725078179569
 21
490.6466552188008
 31
0.0
  0
LINE
  5
29A7
330
1F
100
AcDbEntity
  8
AM_VIS
100
AcDbLine
 10
123.5225078179569
 20
490.6466552188008
 30
0.0
 11
124.2055205198491
 21
490.6466552188008
 31
0.0
  0
LINE
  5
29A8
330
1F
100
AcDbEntity
  8
AM_VIS
100
AcDbLine
 10
122.0881067411983
 20
490.6466552188008
 30
0.0
 11
123.5225078179569
 21
490.6466552188008
 31
0.0
  0
SPLINE
  5
29A9
330
1F
100
AcDbEntity
  8
AM_VIS
100
AcDbSpline
210
0.0
220
0.0
230
1.0
 70
     8
 71
     3
 72
    22
 73
    18
 74
     0
 42
0.0000000001
 43
0.0000000001
 40
9.329211228246744
 40
9.329211228246744
 40
9.329211228246744
 40
9.329211228246744
 40
9.987850373432095
 40
9.987850373432095
 40
11.36034008068873
 40
11.36034008068873
 40
12.73282978794537
 40
12.73282978794537
 40
14.10531949520201
 40
14.10531949520201
 40
15.47780920245866
 40
15.47780920245866
 40
16.85029890971531
 40
16.85029890971531
 40
18.22278861697195
 40
18.22278861697195
 40
18.54268538390729
 40
18.54268538390729
 40
18.54268538390729
 40
18.54268538390729
 10
134.8257110482323
 20
471.3347081605999
 30
0.0
 10
134.6082347362013
 20
471.305480909745
 30
0.0
 10
134.3865425876139
 20
471.2759296561882
 30
0.0
 10
133.6944201138897
 20
471.1890112730278
 30
0.0
 10
133.214351621075
 20
471.1367010683842
 30
0.0
 10
132.2587523759619
 20
471.0661161774412
 30
0.0
 10
131.7832076173178
 20
471.0479990232711
 30
0.0
 10
130.8682144791467
 20
471.0479990232711
 30
0.0
 10
130.3926697205027
 20
471.0661161774412
 30
0.0
 10
129.4370704753896
 20
471.1367010683842
 30
0.0
 10
128.9570019825749
 20
471.1890112730278
 30
0.0
 10
128.0216295464978
 20
471.3064775638697
 30
0.0
 10
127.565958731485
 20
471.371385122491
 30
0.0
 10
126.7044701463819
 20
471.4809642862662
 30
0.0
 10
126.2986130180889
 20
471.5255658832525
 30
0.0
 10
125.8429594763436
 20
471.5445412061229
 30
0.0
 10
125.7557453668917
 20
471.5466552188007
 30
0.0
 10
125.6688567987399
 20
471.5466552188007
 30
0.0
  0
LINE
  5
29AA
330
1F
100
AcDbEntity
  8
AM_VIS
100
AcDbLine
 10
140.3257110482323
 20
471.5466552188007
 30
0.0
 11
125.6688567987399
 21
471.5466552188007
 31
0.0
  0
LINE
  5
29AB
330
1F
100
AcDbEntity
  8
AM_VIS
100
AcDbLine
 10
131.3257110482322
 20
483.5466552188007
 30
0.0
 11
140.3257110482323
 21
483.5466552188007
 31
0.0
  0
LINE
  5
29AC
330
1F
100
AcDbEntity
  8
AM_VIS
100
AcDbLine
 10
122.3257110482323
 20
483.5466552188007
 30
0.0
 11
131.3257110482323
 21
483.5466552188007
 31
0.0
  0
ARC
  5
29AD
330
1F
100
AcDbEntity
  8
AM_VIS
100
AcDbCircle
 10
134.8257110482323
 20
446.0466552188007
 30
0.0
 40
3.5
100
AcDbArc
 50
270.0000000000004
 51
0.0
  0
SPLINE
  5
29AE
330
1F
100
AcDbEntity
  8
AM_VIS
100
AcDbSpline
210
0.0
220
0.0
230
1.0
 70
     8
 71
     3
 72
    18
 73
    14
 74
     0
 42
0.0000000001
 43
0.0000000001
 40
4.975287104260677
 40
4.975287104260677
 40
4.975287104260677
 40
4.975287104260677
 40
5.086400028382842
 40
5.086400028382842
 40
5.588960013482415
 40
5.588960013482415
 40
6.091519998581987
 40
6.091519998581987
 40
6.59407998368156
 40
6.59407998368156
 40
7.096639968781131
 40
7.096639968781131
 40
7.11590156427612
 40
7.11590156427612
 40
7.11590156427612
 40
7.11590156427612
 10
136.6500146941164
 20
471.0336129030698
 30
0.0
 10
136.625515654941
 20
471.0485758490545
 30
0.0
 10
136.6004406791452
 20
471.0631326431509
 30
0.0
 10
136.4589008324534
 20
471.1411065251385
 30
0.0
 10
136.3315449690895
 20
471.1958590858727
 30
0.0
 10
136.0602805079263
 20
471.2832244186216
 30
0.0
 10
135.9162098359815
 20
471.3158941600631
 30
0.0
 10
135.6203681295611
 20
471.3585224639398
 30
0.0
 10
135.4685946929555
 20
471.368478874818
 30
0.0
 10
135.1689258157678
 20
471.368478874818
 30
0.0
 10
135.0092851020141
 20
471.3585224639398
 30
0.0
 10
134.8383516251265
 20
471.3363914053929
 30
0.0
 10
134.8320348259268
 20
471.3355580308009
 30
0.0
 10
134.8257110482323
 20
471.3347081605999
 30
0.0
  0
ARC
  5
29AF
330
1F
100
AcDbEntity
  8
AM_VIS
100
AcDbCircle
 10
134.8257110482323
 20
468.0466552188007
 30
0.0
 40
3.5
100
AcDbArc
 50
0.0
 51
58.58523229075988
  0
LINE
  5
29B0
330
1F
100
AcDbEntity
  8
AM_VIS
100
AcDbLine
 10
125.6688567987399
 20
471.5466552188007
 30
0.0
 11
109.8257110482323
 21
471.5466552188007
 31
0.0
  0
LINE
  5
29B1
330
1F
100
AcDbEntity
  8
AM_VIS
100
AcDbLine
 10
138.3257110482323
 20
446.0466552188007
 30
0.0
 11
138.3257110482323
 21
468.0466552188007
 31
0.0
  0
LINE
  5
29B2
330
1F
100
AcDbEntity
  8
AM_VIS
100
AcDbLine
 10
109.8257110482323
 20
442.5466552188007
 30
0.0
 11
134.8257110482323
 21
442.5466552188007
 31
0.0
  0
LINE
  5
29B3
330
1F
100
AcDbEntity
  8
AM_VIS
100
AcDbLine
 10
85.32571104823231
 20
442.0466552188007
 30
0.0
 11
109.8257110482323
 21
442.0466552188007
 31
0.0
  0
LINE
  5
29B4
330
1F
100
AcDbEntity
  8
AM_VIS
100
AcDbLine
 10
109.8257110482323
 20
442.0466552188007
 30
0.0
 11
109.8257110482323
 21
471.5466552188007
 31
0.0
  0
LINE
  5
29B5
330
1F
100
AcDbEntity
  8
AM_VIS
100
AcDbLine
 10
109.8257110482323
 20
471.5466552188007
 30
0.0
 11
85.32571104823233
 21
471.5466552188007
 31
0.0
  0
LINE
  5
29B6
330
1F
100
AcDbEntity
  8
AM_VIS
100
AcDbLine
 10
85.32571104823233
 20
442.0466552188007
 30
0.0
 11
81.32571104823233
 21
442.0466552188007
 31
0.0
  0
LINE
  5
29B7
330
1F
100
AcDbEntity
  8
AM_VIS
100
AcDbLine
 10
81.32571104823233
 20
471.5466552188007
 30
0.0
 11
81.32571104823233
 21
442.0466552188007
 31
0.0
  0
LINE
  5
29B8
330
1F
100
AcDbEntity
  8
AM_VIS
100
AcDbLine
 10
81.32571104823233
 20
471.5466552188007
 30
0.0
 11
85.32571104823233
 21
471.5466552188007
 31
0.0
  0
LINE
  5
29B9
330
1F
100
AcDbEntity
  8
AM_VIS
100
AcDbLine
 10
103.3257110482323
 20
440.0466552188007
 30
0.0
 11
103.3257110482323
 21
442.0466552188007
 31
0.0
  0
LINE
  5
29BA
330
1F
100
AcDbEntity
  8
AM_VIS
100
AcDbLine
 10
103.3257110482323
 20
440.0466552188007
 30
0.0
 11
88.32571104823236
 21
440.0466552188007
 31
0.0
  0
LINE
  5
29BB
330
1F
100
AcDbEntity
  8
AM_VIS
100
AcDbLine
 10
81.32571104823234
 20
440.0466552188007
 30
0.0
 11
81.32571104823234
 21
442.0466552188008
 31
0.0
  0
LINE
  5
29BC
330
1F
100
AcDbEntity
  8
AM_VIS
100
AcDbLine
 10
88.32571104823236
 20
442.0466552188007
 30
0.0
 11
88.32571104823236
 21
440.0466552188007
 31
0.0
  0
LINE
  5
29BD
330
1F
100
AcDbEntity
  8
AM_VIS
100
AcDbLine
 10
103.3257110482323
 20
442.0466552188007
 30
0.0
 11
88.32571104823236
 21
442.0466552188007
 31
0.0
  0
LINE
  5
29BE
330
1F
100
AcDbEntity
  8
AM_VIS
100
AcDbLine
 10
105.3257110482323
 20
432.7466552188008
 30
0.0
 11
105.3257110482323
 21
431.7466552188007
 31
0.0
  0
SPLINE
  5
29BF
330
1F
100
AcDbEntity
  8
AM_VIS
100
AcDbSpline
210
0.0
220
0.0
230
1.0
 70
    28
 71
     2
 72
     6
 73
     3
 74
     0
 42
0.0000000001
 43
0.0000000001
 40
1.249265113989211
 40
1.249265113989211
 40
1.249265113989211
 40
2.152562150030378
 40
2.152562150030378
 40
2.152562150030378
 10
104.8257110482322
 20
431.7466552188007
 30
0.0
 41
1.031471700637885
 10
105.1146788232224
 20
431.7466552188007
 30
0.0
 41
1.027113857111511
 10
105.3257110482323
 20
431.7466552188007
 30
0.0
 41
1.0
  0
LINE
  5
29C0
330
1F
100
AcDbEntity
  8
AM_VIS
100
AcDbLine
 10
104.8257110482323
 20
431.7466552188007
 30
0.0
 11
104.8257110482323
 21
433.2466552188008
 31
0.0
  0
LINE
  5
29C1
330
1F
100
AcDbEntity
  8
AM_VIS
100
AcDbLine
 10
103.8257110482323
 20
431.7466552188007
 30
0.0
 11
104.8257110482323
 21
431.7466552188007
 31
0.0
  0
LINE
  5
29C2
330
1F
100
AcDbEntity
  8
AM_VIS
100
AcDbLine
 10
103.8257110482323
 20
431.7466552188008
 30
0.0
 11
103.8257110482323
 21
430.7466552188008
 31
0.0
  0
LINE
  5
29C3
330
1F
100
AcDbEntity
  8
AM_VIS
100
AcDbLine
 10
104.8257110482323
 20
430.7466552188008
 30
0.0
 11
103.8257110482323
 21
430.7466552188008
 31
0.0
  0
SPLINE
  5
29C4
330
1F
100
AcDbEntity
  8
AM_VIS
100
AcDbSpline
210
0.0
220
0.0
230
1.0
 70
    28
 71
     2
 72
     6
 73
     3
 74
     0
 42
0.0000000001
 43
0.0000000001
 40
0.0
 40
0.0
 40
0.0
 40
0.9032970360342469
 40
0.9032970360342469
 40
0.9032970360342469
 10
105.3257110482323
 20
430.7466552188008
 30
0.0
 41
1.0
 10
105.1146788232239
 20
430.7466552188008
 30
0.0
 41
1.027113857111303
 10
104.8257110482323
 20
430.7466552188008
 30
0.0
 41
1.031471700637818
  0
LINE
  5
29C5
330
1F
100
AcDbEntity
  8
AM_VIS
100
AcDbLine
 10
105.3257110482323
 20
430.7466552188008
 30
0.0
 11
105.3257110482323
 21
429.7466552188008
 31
0.0
  0
LINE
  5
29C6
330
1F
100
AcDbEntity
  8
AM_VIS
100
AcDbLine
 10
104.8257110482323
 20
429.2466552188008
 30
0.0
 11
104.8257110482323
 21
430.7466552188008
 31
0.0
  0
LINE
  5
29C7
330
1F
100
AcDbEntity
  8
AM_VIS
100
AcDbLine
 10
81.32571104823233
 20
440.0466552188007
 30
0.0
 11
81.32571104823233
 21
425.0466552188007
 31
0.0
  0
LINE
  5
29C8
330
1F
100
AcDbEntity
  8
AM_VIS
100
AcDbLine
 10
103.3257110482323
 20
425.0466552188007
 30
0.0
 11
103.3257110482323
 21
440.0466552188007
 31
0.0
  0
LINE
  5
29C9
330
1F
100
AcDbEntity
  8
AM_VIS
100
AcDbLine
 10
100.8257110482323
 20
440.0466552188007
 30
0.0
 11
83.82571104823233
 21
440.0466552188007
 31
0.0
  0
LINE
  5
29CA
330
1F
100
AcDbEntity
  8
AM_VIS
100
AcDbLine
 10
81.32571104823233
 20
440.0466552188007
 30
0.0
 11
83.82571104823233
 21
440.0466552188007
 31
0.0
  0
LINE
  5
29CB
330
1F
100
AcDbEntity
  8
AM_VIS
100
AcDbLine
 10
81.32571104823233
 20
425.0466552188007
 30
0.0
 11
103.3257110482323
 21
425.0466552188007
 31
0.0
  0
LINE
  5
29CC
330
1F
100
AcDbEntity
  8
AM_VIS
100
AcDbLine
 10
103.3257110482323
 20
398.6466552188007
 30
0.0
 11
103.3257110482323
 21
425.0466552188007
 31
0.0
  0
LINE
  5
29CD
330
1F
100
AcDbEntity
  8
AM_VIS
100
AcDbLine
 10
81.32571104823233
 20
398.6466552188007
 30
0.0
 11
81.32571104823233
 21
425.0466552188007
 31
0.0
  0
LINE
  5
29CE
330
1F
100
AcDbEntity
  8
AM_VIS
100
AcDbLine
 10
81.32571104823233
 20
398.6466552188007
 30
0.0
 11
103.3257110482323
 21
398.6466552188007
 31
0.0
  0
LINE
  5
29CF
330
1F
100
AcDbEntity
  8
AM_VIS
100
AcDbLine
 10
26.32571104823233
 20
425.0466552188007
 30
0.0
 11
81.32571104823233
 21
425.0466552188007
 31
0.0
  0
LINE
  5
29D0
330
1F
100
AcDbEntity
  8
AM_VIS
100
AcDbLine
 10
26.32571104823233
 20
398.6466552188007
 30
0.0
 11
81.32571104823233
 21
398.6466552188007
 31
0.0
  0
LINE
  5
29D1
330
1F
100
AcDbEntity
  8
AM_VIS
100
AcDbLine
 10
26.32571104823233
 20
398.6466552188007
 30
0.0
 11
26.32571104823233
 21
425.0466552188007
 31
0.0
  0
ARC
  5
29D2
330
1F
100
AcDbEntity
  8
AM_VIS
100
AcDbCircle
 10
21.90622272450076
 20
545.7259042573276
 30
0.0
 40
1.6
100
AcDbArc
 50
208.1727341318648
 51
264.9999999999992
  0
ARC
  5
29D3
330
1F
100
AcDbEntity
  8
AM_VIS
100
AcDbCircle
 10
21.90622272450076
 20
550.352791168047
 30
0.0
 40
1.6
100
AcDbArc
 50
95.00000000000076
 51
151.8272658681351
  0
LINE
  5
29D4
330
1F
100
AcDbEntity
  8
AM_VIS
100
AcDbLine
 10
21.76677353610449
 20
544.1319927403808
 30
0.0
 11
22.82571104823233
 21
544.0393477126872
 31
0.0
  0
LINE
  5
29D5
330
1F
100
AcDbEntity
  8
AM_VIS
100
AcDbLine
 10
21.76677353610449
 20
551.9467026849938
 30
0.0
 11
22.82571104823233
 21
552.0393477126873
 31
0.0
  0
ARC
  5
29D6
330
1F
100
AcDbEntity
  8
AM_VIS
100
AcDbCircle
 10
26.22571104823231
 20
548.0393477126872
 30
0.0
 40
6.5
100
AcDbArc
 50
151.8272658681351
 51
159.2772556184292
  0
ARC
  5
29D7
330
1F
100
AcDbEntity
  8
AM_VIS
100
AcDbCircle
 10
26.22571104823231
 20
548.0393477126872
 30
0.0
 40
6.5
100
AcDbArc
 50
200.7227443816088
 51
208.1727341318648
  0
LINE
  5
29D8
330
1F
100
AcDbEntity
  8
AM_VIS
100
AcDbLine
 10
22.82571104823233
 20
544.2393477126873
 30
0.0
 11
23.82571104823233
 21
544.2393477126873
 31
0.0
  0
LINE
  5
29D9
330
1F
100
AcDbEntity
  8
AM_VIS
100
AcDbLine
 10
22.82571104823233
 20
551.8393477126872
 30
0.0
 11
23.82571104823233
 21
551.8393477126872
 31
0.0
  0
LINE
  5
29DA
330
1F
100
AcDbEntity
  8
AM_VIS
100
AcDbLine
 10
22.82571104823233
 20
552.0393477126873
 30
0.0
 11
22.82571104823233
 21
544.0393477126872
 31
0.0
  0
LINE
  5
29DB
330
1F
100
AcDbEntity
  8
AM_VIS
100
AcDbLine
 10
23.79629604823236
 20
547.7220980306395
 30
0.0
 11
23.79629604823236
 21
547.5592604725234
 31
0.0
  0
LINE
  5
29DC
330
1F
100
AcDbEntity
  8
AM_VIS
100
AcDbLine
 10
20.14623738680478
 20
545.7393477126853
 30
0.0
 11
20.15203002496659
 21
545.7451448930521
 31
0.0
  0
ARC
  5
29DD
330
1F
100
AcDbEntity
  8
AM_VIS
100
AcDbCircle
 10
26.22571104823231
 20
548.0393477126872
 30
0.0
 40
6.492531690334672
100
AcDbArc
 50
182.7500042420105
 51
200.6929831855994
  0
ARC
  5
29DE
330
1F
100
AcDbEntity
  8
AM_VIS
100
AcDbCircle
 10
26.22571104823231
 20
571.0393477126872
 30
0.0
 40
6.492531690334672
100
AcDbArc
 50
182.7500042420105
 51
189.6848520335304
  0
ARC
  5
29DF
330
1F
100
AcDbEntity
  8
AM_VIS
100
AcDbCircle
 10
26.22571104823231
 20
548.0393477126872
 30
0.0
 40
6.492531690334672
100
AcDbArc
 50
159.3070168144386
 51
177.2499957580253
  0
ARC
  5
29E0
330
1F
100
AcDbEntity
  8
AM_VIS
100
AcDbCircle
 10
26.22571104823231
 20
571.0393477126872
 30
0.0
 40
6.492531690334672
100
AcDbArc
 50
170.3151479664695
 51
177.2499957580253
  0
LINE
  5
29E1
330
1F
100
AcDbEntity
  8
AM_VIS
100
AcDbLine
 10
20.15203002496511
 20
550.3335505323185
 30
0.0
 11
20.1462373868033
 21
550.3393477126853
 31
0.0
  0
ELLIPSE
  5
29E2
330
1F
100
AcDbEntity
  8
AM_VIS
100
AcDbEllipse
 10
24.33359123753189
 20
548.0393477126872
 30
0.0
 11
0.0
 21
-5.924134808644348
 31
0.0
210
0.0
220
0.0
230
1.0
 40
0.7068296022936167
 41
4.659783202667236
 42
4.764994758102814
  0
LINE
  5
29E3
330
1F
100
AcDbEntity
  8
AM_VIS
100
AcDbLine
 10
20.15203002496576
 20
548.3508477126853
 30
0.0
 11
19.74065626820143
 21
548.3508477126853
 31
0.0
  0
LINE
  5
29E4
330
1F
100
AcDbEntity
  8
AM_VIS
100
AcDbLine
 10
19.82571104823233
 20
571.3508477126853
 30
0.0
 11
19.74065626820143
 21
571.3508477126853
 31
0.0
  0
LINE
  5
29E5
330
1F
100
AcDbEntity
  8
AM_VIS
100
AcDbLine
 10
19.74065626820163
 20
547.7278477126852
 30
0.0
 11
20.15203002496594
 21
547.7278477126852
 31
0.0
  0
LINE
  5
29E6
330
1F
100
AcDbEntity
  8
AM_VIS
100
AcDbLine
 10
19.74065626820163
 20
570.7278477126853
 30
0.0
 11
19.82571104823233
 21
570.7278477126853
 31
0.0
  0
ARC
  5
29E7
330
1F
100
AcDbEntity
  8
AM_VIS
100
AcDbCircle
 10
96.92571104823233
 20
571.0393477126873
 30
0.0
 40
6.492531690334672
100
AcDbArc
 50
351.1398550683307
 51
357.2499957579895
  0
LINE
  5
29E8
330
1F
100
AcDbEntity
  8
AM_VIS
100
AcDbLine
 10
103.3257110482323
 20
547.7278477126873
 30
0.0
 11
103.4107658282632
 21
547.7278477126873
 31
0.0
  0
ARC
  5
29E9
330
1F
100
AcDbEntity
  8
AM_VIS
100
AcDbCircle
 10
96.92571104823233
 20
571.0393477126873
 30
0.0
 40
6.492531690334672
100
AcDbArc
 50
2.750004241974645
 51
9.684852033530418
  0
LINE
  5
29EA
330
1F
100
AcDbEntity
  8
AM_VIS
100
AcDbLine
 10
103.3257110482323
 20
570.7278477126854
 30
0.0
 11
103.410765828263
 21
570.7278477126854
 31
0.0
  0
ARC
  5
29EB
330
1F
100
AcDbEntity
  8
AM_VIS
100
AcDbCircle
 10
96.92571104823235
 20
548.0393477126872
 30
0.0
 40
6.492531690334768
100
AcDbArc
 50
350.3151479664629
 51
357.249995758009
  0
LINE
  5
29EC
330
1F
100
AcDbEntity
  8
AM_VIS
100
AcDbLine
 10
103.4107658282632
 20
571.3508477126853
 30
0.0
 11
103.3257110482323
 21
571.3508477126853
 31
0.0
  0
ELLIPSE
  5
29ED
330
1F
100
AcDbEntity
  8
AM_VIS
100
AcDbEllipse
 10
23.27621556434141
 20
548.0393477126872
 30
0.0
 11
10.43916303175864
 21
3.773603176934467
 31
0.0
210
0.0
220
0.0
230
1.0
 40
0.0428313165240931
 41
4.653743866120652
 42
4.749563237646409
  0
ELLIPSE
  5
29EE
330
1F
100
AcDbEntity
  8
AM_VIS
100
AcDbEllipse
 10
24.37520653212323
 20
548.0393477126872
 30
0.0
 11
5.631653740817102
 21
2.035759608609389
 31
0.0
210
0.0
220
0.0
230
1.0
 40
0.0428313165240936
 41
4.418205885652897
 42
4.599190920535711
  0
ELLIPSE
  5
29EF
330
1F
100
AcDbEntity
  8
AM_VIS
100
AcDbEllipse
 10
24.37520653212323
 20
548.0393477126872
 30
0.0
 11
10.4391630317585
 21
3.773603176934467
 31
0.0
210
0.0
220
0.0
230
1.0
 40
0.0428313165240936
 41
4.547943800684974
 42
4.644251421123247
  0
LINE
  5
29F0
330
1F
100
AcDbEntity
  8
AM_VIS
100
AcDbLine
 10
23.82571104823233
 20
543.3893477126872
 30
0.0
 11
23.82571104823233
 21
544.3893477126872
 31
0.0
  0
LINE
  5
29F1
330
1F
100
AcDbEntity
  8
AM_VIS
100
AcDbLine
 10
26.32571104823233
 20
578.6893477126873
 30
0.0
 11
20.82571104823233
 21
578.6893477126873
 31
0.0
  0
LINE
  5
29F2
330
1F
100
AcDbEntity
  8
AM_VIS
100
AcDbLine
 10
23.82571104823233
 20
543.3893477126872
 30
0.0
 11
26.32571104823233
 21
543.3893477126872
 31
0.0
  0
LINE
  5
29F3
330
1F
100
AcDbEntity
  8
AM_VIS
100
AcDbLine
 10
23.82571104823233
 20
543.3893477126872
 30
0.0
 11
20.82571104823233
 21
543.3893477126872
 31
0.0
  0
LINE
  5
29F4
330
1F
100
AcDbEntity
  8
AM_VIS
100
AcDbLine
 10
26.32571104823233
 20
544.3893477126872
 30
0.0
 11
26.32571104823233
 21
577.6893477126873
 31
0.0
  0
LINE
  5
29F5
330
1F
100
AcDbEntity
  8
AM_VIS
100
AcDbLine
 10
23.82571104823233
 20
552.0393477126872
 30
0.0
 11
23.82571104823233
 21
544.3893477126872
 31
0.0
  0
LINE
  5
29F6
330
1F
100
AcDbEntity
  8
AM_VIS
100
AcDbLine
 10
20.82571104823233
 20
552.0393477126872
 30
0.0
 11
23.82571104823233
 21
552.0393477126872
 31
0.0
  0
LINE
  5
29F7
330
1F
100
AcDbEntity
  8
AM_VIS
100
AcDbLine
 10
19.82571104823233
 20
548.3508477126853
 30
0.0
 11
19.82571104823233
 21
548.0393477126872
 31
0.0
  0
LINE
  5
29F8
330
1F
100
AcDbEntity
  8
AM_VIS
100
AcDbLine
 10
19.82571104823233
 20
553.0393477126872
 30
0.0
 11
19.82571104823233
 21
549.1315783430946
 31
0.0
  0
LINE
  5
29F9
330
1F
100
AcDbEntity
  8
AM_VIS
100
AcDbLine
 10
19.82571104823233
 20
546.9471170822798
 30
0.0
 11
19.82571104823233
 21
544.3893477126872
 31
0.0
  0
LINE
  5
29FA
330
1F
100
AcDbEntity
  8
AM_VIS
100
AcDbLine
 10
19.82571104823233
 20
548.0393477126872
 30
0.0
 11
19.82571104823233
 21
547.7278477126852
 31
0.0
  0
ARC
  5
29FB
330
1F
100
AcDbEntity
  8
AM_VIS
100
AcDbCircle
 10
20.82571104823233
 20
544.3893477126872
 30
0.0
 40
1.0
100
AcDbArc
 50
180.0
 51
269.9999999999997
  0
ARC
  5
29FC
330
1F
100
AcDbEntity
  8
AM_VIS
100
AcDbCircle
 10
20.82571104823233
 20
553.0393477126872
 30
0.0
 40
1.0
100
AcDbArc
 50
180.0
 51
269.9999999999997
  0
LINE
  5
29FD
330
1F
100
AcDbEntity
  8
AM_VIS
100
AcDbLine
 10
19.82571104823233
 20
577.6893477126873
 30
0.0
 11
19.82571104823233
 21
553.0393477126872
 31
0.0
  0
ARC
  5
29FE
330
1F
100
AcDbEntity
  8
AM_VIS
100
AcDbCircle
 10
20.82571104823233
 20
577.6893477126873
 30
0.0
 40
1.0
100
AcDbArc
 50
90.0
 51
180.0
  0
ARC
  5
29FF
330
1F
100
AcDbEntity
  8
AM_VIS
100
AcDbCircle
 10
92.32571104823234
 20
559.0393477126872
 30
0.0
 40
10.0
100
AcDbArc
 50
109.6712892167077
 51
130.3287107832933
  0
ARC
  5
2A00
330
1F
100
AcDbEntity
  8
AM_VIS
100
AcDbCircle
 10
92.32571104823234
 20
559.0393477126872
 30
0.0
 40
10.0
100
AcDbArc
 50
49.67128921670697
 51
70.3287107832928
  0
ARC
  5
2A01
330
1F
100
AcDbEntity
  8
AM_VIS
100
AcDbCircle
 10
92.32571104823234
 20
559.0393477126872
 30
0.0
 40
10.0
100
AcDbArc
 50
349.6712892167071
 51
10.32871078329288
  0
ARC
  5
2A02
330
1F
100
AcDbEntity
  8
AM_VIS
100
AcDbCircle
 10
92.32571104823234
 20
559.0393477126872
 30
0.0
 40
10.0
100
AcDbArc
 50
169.6712892167071
 51
190.3287107832928
  0
ARC
  5
2A03
330
1F
100
AcDbEntity
  8
AM_VIS
100
AcDbCircle
 10
92.32571104823234
 20
559.0393477126872
 30
0.0
 40
10.0
100
AcDbArc
 50
289.6712892167075
 51
310.3287107832934
  0
ARC
  5
2A04
330
1F
100
AcDbEntity
  8
AM_VIS
100
AcDbCircle
 10
92.32571104823234
 20
559.0393477126872
 30
0.0
 40
10.0
100
AcDbArc
 50
229.6712892167073
 51
250.3287107832922
  0
SPLINE
  5
2A05
330
1F
100
AcDbEntity
  8
AM_VIS
100
AcDbSpline
210
0.0
220
0.0
230
1.0
 70
     8
 71
     3
 72
     8
 73
     4
 74
     0
 42
0.0000000001
 43
0.0000000001
 40
1.629958734905461
 40
1.629958734905461
 40
1.629958734905461
 40
1.629958734905461
 40
2.565803457021723
 40
2.565803457021723
 40
2.565803457021723
 40
2.565803457021723
 10
88.9594765742648
 20
549.6229542700644
 30
0.0
 10
89.21885304075873
 20
549.7212389022808
 30
0.0
 10
89.49000522361085
 20
549.8109392934074
 30
0.0
 10
89.77081379002409
 20
549.8893477126873
 30
0.0
  0
SPLINE
  5
2A06
330
1F
100
AcDbEntity
  8
AM_VIS
100
AcDbSpline
210
0.0
220
0.0
230
1.0
 70
     8
 71
     3
 72
     8
 73
     4
 74
     0
 42
0.0000000001
 43
0.0000000001
 40
7.8606508081159
 40
7.8606508081159
 40
7.8606508081159
 40
7.8606508081159
 40
8.796495530230886
 40
8.796495530230886
 40
8.796495530230886
 40
8.796495530230886
 10
94.88060830644061
 20
549.8893477126872
 30
0.0
 10
95.16141666902367
 20
549.8109393503216
 30
0.0
 10
95.43256888943769
 20
549.7212389652843
 30
0.0
 10
95.6919455221999
 20
549.6229542700644
 30
0.0
  0
SPLINE
  5
2A07
330
1F
100
AcDbEntity
  8
AM_VIS
100
AcDbSpline
210
0.0
220
0.0
230
1.0
 70
     8
 71
     3
 72
     8
 73
     4
 74
     0
 42
0.0000000001
 43
0.0000000001
 40
1.630155802117218
 40
1.630155802117218
 40
1.630155802117218
 40
1.630155802117218
 40
2.566002660597602
 40
2.566002660597602
 40
2.566002660597602
 40
2.566002660597602
 10
98.79742974458935
 20
551.415906421825
 30
0.0
 10
98.84200107781387
 20
551.6896758892926
 30
0.0
 10
98.89989437423224
 20
551.9693506525072
 30
0.0
 10
98.97239486375589
 20
552.2517417830198
 30
0.0
  0
SPLINE
  5
2A08
330
1F
100
AcDbEntity
  8
AM_VIS
100
AcDbSpline
210
0.0
220
0.0
230
1.0
 70
     8
 71
     3
 72
     8
 73
     4
 74
     0
 42
0.0000000001
 43
0.0000000001
 40
7.860869800051694
 40
7.860869800051694
 40
7.860869800051694
 40
7.860869800051694
 40
8.796716658530822
 40
8.796716658530822
 40
8.796716658530822
 40
8.796716658530822
 10
101.527292121964
 20
556.6769536423548
 30
0.0
 10
101.7355996191531
 20
556.8809363255815
 30
0.0
 10
101.9488584341874
 20
557.0709108081125
 30
0.0
 10
102.1636642185568
 20
557.2463955609266
 30
0.0
  0
SPLINE
  5
2A09
330
1F
100
AcDbEntity
  8
AM_VIS
100
AcDbSpline
210
0.0
220
0.0
230
1.0
 70
     8
 71
     3
 72
     8
 73
     4
 74
     0
 42
0.0000000001
 43
0.0000000001
 40
1.630155803927002
 40
1.630155803927002
 40
1.630155803927002
 40
1.630155803927002
 40
2.566002662426968
 40
2.566002662426968
 40
2.566002662426968
 40
2.566002662426968
 10
82.48775787790789
 20
557.2463955609266
 30
0.0
 10
82.70256352490706
 20
557.0709109203366
 30
0.0
 10
82.91582232643815
 20
556.8809364733224
 30
0.0
 10
83.1241299745006
 20
556.6769536423548
 30
0.0
  0
SPLINE
  5
2A0A
330
1F
100
AcDbEntity
  8
AM_VIS
100
AcDbSpline
210
0.0
220
0.0
230
1.0
 70
     8
 71
     3
 72
     8
 73
     4
 74
     0
 42
0.0000000001
 43
0.0000000001
 40
7.860869802063071
 40
7.860869802063071
 40
7.860869802063071
 40
7.860869802063071
 40
8.796716660561775
 40
8.796716660561775
 40
8.796716660561775
 40
8.796716660561775
 10
85.67902723270897
 20
552.2517417830195
 30
0.0
 10
85.75152766971983
 20
551.9693508570457
 30
0.0
 10
85.80942099014565
 20
551.6896760643805
 30
0.0
 10
85.85399235187557
 20
551.4159064218249
 30
0.0
  0
SPLINE
  5
2A0B
330
1F
100
AcDbEntity
  8
AM_VIS
100
AcDbSpline
210
0.0
220
0.0
230
1.0
 70
     8
 71
     3
 72
     8
 73
     4
 74
     0
 42
0.0000000001
 43
0.0000000001
 40
1.630155803927018
 40
1.630155803927018
 40
1.630155803927018
 40
1.630155803927018
 40
2.566002662426991
 40
2.566002662426991
 40
2.566002662426991
 40
2.566002662426991
 10
102.1636642185567
 20
560.832299864448
 30
0.0
 10
101.9488585715576
 20
561.007784505038
 30
0.0
 10
101.7355997700265
 20
561.1977589520519
 30
0.0
 10
101.527292121964
 20
561.4017417830198
 30
0.0
  0
SPLINE
  5
2A0C
330
1F
100
AcDbEntity
  8
AM_VIS
100
AcDbSpline
210
0.0
220
0.0
230
1.0
 70
     8
 71
     3
 72
     8
 73
     4
 74
     0
 42
0.0000000001
 43
0.0000000001
 40
7.860869802063005
 40
7.860869802063005
 40
7.860869802063005
 40
7.860869802063005
 40
8.796716660561699
 40
8.796716660561699
 40
8.796716660561699
 40
8.796716660561699
 10
98.97239486375582
 20
565.8269536423548
 30
0.0
 10
98.89989442674497
 20
566.1093445683287
 30
0.0
 10
98.84200110631915
 20
566.3890193609939
 30
0.0
 10
98.79742974458924
 20
566.6627890035496
 30
0.0
  0
SPLINE
  5
2A0D
330
1F
100
AcDbEntity
  8
AM_VIS
100
AcDbSpline
210
0.0
220
0.0
230
1.0
 70
     8
 71
     3
 72
     8
 73
     4
 74
     0
 42
0.0000000001
 43
0.0000000001
 40
1.630155803927018
 40
1.630155803927018
 40
1.630155803927018
 40
1.630155803927018
 40
2.566002662426996
 40
2.566002662426996
 40
2.566002662426996
 40
2.566002662426996
 10
85.85399235187541
 20
566.6627890035495
 30
0.0
 10
85.80942101865007
 20
566.3890195360769
 30
0.0
 10
85.75152772223146
 20
566.1093447728632
 30
0.0
 10
85.67902723270883
 20
565.8269536423547
 30
0.0
  0
SPLINE
  5
2A0E
330
1F
100
AcDbEntity
  8
AM_VIS
100
AcDbSpline
210
0.0
220
0.0
230
1.0
 70
     8
 71
     3
 72
     8
 73
     4
 74
     0
 42
0.0000000001
 43
0.0000000001
 40
7.860869802063004
 40
7.860869802063004
 40
7.860869802063004
 40
7.860869802063004
 40
8.796716660561713
 40
8.796716660561713
 40
8.796716660561713
 40
8.796716660561713
 10
83.12412997450058
 20
561.4017417830196
 30
0.0
 10
82.91582247731442
 20
561.1977590997959
 30
0.0
 10
82.70256366228116
 20
561.007784617265
 30
0.0
 10
82.48775787790789
 20
560.8322998644478
 30
0.0
  0
SPLINE
  5
2A0F
330
1F
100
AcDbEntity
  8
AM_VIS
100
AcDbSpline
210
0.0
220
0.0
230
1.0
 70
     8
 71
     3
 72
     8
 73
     4
 74
     0
 42
0.0000000001
 43
0.0000000001
 40
1.63015580392704
 40
1.63015580392704
 40
1.63015580392704
 40
1.63015580392704
 40
2.566002662427006
 40
2.566002662427006
 40
2.566002662427006
 40
2.566002662427006
 10
95.69194552219983
 20
568.4557411553103
 30
0.0
 10
95.43256854197535
 20
568.3574563284276
 30
0.0
 10
95.16141644402569
 20
568.267756012228
 30
0.0
 10
94.88060830644053
 20
568.1893477126873
 30
0.0
  0
SPLINE
  5
2A10
330
1F
100
AcDbEntity
  8
AM_VIS
100
AcDbSpline
210
0.0
220
0.0
230
1.0
 70
     8
 71
     3
 72
     8
 73
     4
 74
     0
 42
0.0000000001
 43
0.0000000001
 40
7.860869802062977
 40
7.860869802062977
 40
7.860869802062977
 40
7.860869802062977
 40
8.796716660561656
 40
8.796716660561656
 40
8.796716660561656
 40
8.796716660561656
 10
89.77081379002408
 20
568.1893477126873
 30
0.0
 10
89.49000585582709
 20
568.2677559554373
 30
0.0
 10
89.21885372036795
 20
568.3574562655717
 30
0.0
 10
88.95947657426479
 20
568.4557411553103
 30
0.0
  0
ARC
  5
2A11
330
1F
100
AcDbEntity
  8
AM_VIS
100
AcDbCircle
 10
92.32571104823234
 20
559.0393477126872
 30
0.0
 40
10.0
100
AcDbArc
 50
89.99999999999959
 51
109.6712892167077
  0
ARC
  5
2A12
330
1F
100
AcDbEntity
  8
AM_VIS
100
AcDbCircle
 10
92.32571104823234
 20
559.0393477126872
 30
0.0
 40
10.0
100
AcDbArc
 50
130.3287107832933
 51
169.6712892167071
  0
ARC
  5
2A13
330
1F
100
AcDbEntity
  8
AM_VIS
100
AcDbCircle
 10
92.32571104823234
 20
559.0393477126872
 30
0.0
 40
10.0
100
AcDbArc
 50
190.3287107832928
 51
229.6712892167074
  0
ARC
  5
2A14
330
1F
100
AcDbEntity
  8
AM_VIS
100
AcDbCircle
 10
92.32571104823234
 20
559.0393477126872
 30
0.0
 40
10.0
100
AcDbArc
 50
250.3287107832922
 51
289.6712892167075
  0
ARC
  5
2A15
330
1F
100
AcDbEntity
  8
AM_VIS
100
AcDbCircle
 10
92.32571104823234
 20
559.0393477126872
 30
0.0
 40
10.0
100
AcDbArc
 50
310.3287107832934
 51
349.6712892167071
  0
ARC
  5
2A16
330
1F
100
AcDbEntity
  8
AM_VIS
100
AcDbCircle
 10
92.32571104823234
 20
559.0393477126872
 30
0.0
 40
10.0
100
AcDbArc
 50
10.32871078329288
 51
49.67128921670697
  0
ARC
  5
2A17
330
1F
100
AcDbEntity
  8
AM_VIS
100
AcDbCircle
 10
92.32571104823234
 20
559.0393477126872
 30
0.0
 40
10.0
100
AcDbArc
 50
70.3287107832928
 51
90.00000000000039
  0
ARC
  5
2A18
330
1F
100
AcDbEntity
  8
AM_VIS
100
AcDbCircle
 10
92.32571104823234
 20
559.0393477126872
 30
0.0
 40
9.5
100
AcDbArc
 50
165.6009953934884
 51
194.3990046065115
  0
ARC
  5
2A19
330
1F
100
AcDbEntity
  8
AM_VIS
100
AcDbCircle
 10
76.47744615897707
 20
568.1893477126871
 30
0.0
 40
9.5
100
AcDbArc
 50
314.39900460651
 51
345.6009953934885
  0
ARC
  5
2A1A
330
1F
100
AcDbEntity
  8
AM_VIS
100
AcDbCircle
 10
92.32571104823234
 20
559.0393477126872
 30
0.0
 40
9.5
100
AcDbArc
 50
105.6009953934888
 51
134.3990046065105
  0
ARC
  5
2A1B
330
1F
100
AcDbEntity
  8
AM_VIS
100
AcDbCircle
 10
92.32571104823222
 20
577.3393477126872
 30
0.0
 40
9.5
100
AcDbArc
 50
254.3990046065111
 51
285.6009953934888
  0
ARC
  5
2A1C
330
1F
100
AcDbEntity
  8
AM_VIS
100
AcDbCircle
 10
92.32571104823234
 20
559.0393477126872
 30
0.0
 40
9.5
100
AcDbArc
 50
45.60099539348974
 51
74.39900460651189
  0
ARC
  5
2A1D
330
1F
100
AcDbEntity
  8
AM_VIS
100
AcDbCircle
 10
108.1739759374875
 20
568.1893477126873
 30
0.0
 40
9.500000000000001
100
AcDbArc
 50
194.3990046065115
 51
225.6009953934897
  0
ARC
  5
2A1E
330
1F
100
AcDbEntity
  8
AM_VIS
100
AcDbCircle
 10
92.32571104823234
 20
559.0393477126872
 30
0.0
 40
9.5
100
AcDbArc
 50
345.6009953934884
 51
14.39900460651154
  0
ARC
  5
2A1F
330
1F
100
AcDbEntity
  8
AM_VIS
100
AcDbCircle
 10
108.1739759374876
 20
549.8893477126873
 30
0.0
 40
9.5
100
AcDbArc
 50
134.3990046065103
 51
165.6009953934884
  0
ARC
  5
2A20
330
1F
100
AcDbEntity
  8
AM_VIS
100
AcDbCircle
 10
92.32571104823234
 20
559.0393477126872
 30
0.0
 40
9.5
100
AcDbArc
 50
285.6009953934885
 51
314.3990046065106
  0
ARC
  5
2A21
330
1F
100
AcDbEntity
  8
AM_VIS
100
AcDbCircle
 10
92.32571104823234
 20
540.7393477126873
 30
0.0
 40
9.5
100
AcDbArc
 50
74.39900460650969
 51
105.6009953934886
  0
ARC
  5
2A22
330
1F
100
AcDbEntity
  8
AM_VIS
100
AcDbCircle
 10
92.32571104823234
 20
559.0393477126872
 30
0.0
 40
9.5
100
AcDbArc
 50
225.6009953934901
 51
254.3990046065113
  0
ARC
  5
2A23
330
1F
100
AcDbEntity
  8
AM_VIS
100
AcDbCircle
 10
76.47744615897726
 20
549.8893477126871
 30
0.0
 40
9.5
100
AcDbArc
 50
14.39900460651149
 51
45.60099539349023
  0
CIRCLE
  5
2A24
330
1F
100
AcDbEntity
  8
AM_VIS
100
AcDbCircle
 10
92.32571104823234
 20
559.0393477126872
 30
0.0
 40
1.25
  0
LINE
  5
2A25
330
1F
100
AcDbEntity
  8
AM_VIS
100
AcDbLine
 10
140.5633153552664
 20
559.0393477126872
 30
0.0
 11
139.1289142785078
 21
561.5238032560646
 31
0.0
  0
LINE
  5
2A26
330
1F
100
AcDbEntity
  8
AM_VIS
100
AcDbLine
 10
139.1289142785079
 20
556.55489216931
 30
0.0
 11
140.5633153552664
 21
559.0393477126872
 31
0.0
  0
LINE
  5
2A27
330
1F
100
AcDbEntity
  8
AM_VIS
100
AcDbLine
 10
138.4459015766157
 20
556.3718794674179
 30
0.0
 11
139.1289142785079
 21
556.5548921693102
 31
0.0
  0
LINE
  5
2A28
330
1F
100
AcDbEntity
  8
AM_VIS
100
AcDbLine
 10
137.1959015766157
 20
554.2068159579567
 30
0.0
 11
138.4459015766157
 21
556.3718794674179
 31
0.0
  0
LINE
  5
2A29
330
1F
100
AcDbEntity
  8
AM_VIS
100
AcDbLine
 10
137.3789142785079
 20
553.5238032560646
 30
0.0
 11
137.1959015766157
 21
554.2068159579567
 31
0.0
  0
LINE
  5
2A2A
330
1F
100
AcDbEntity
  8
AM_VIS
100
AcDbLine
 10
135.9445132017494
 20
551.0393477126872
 30
0.0
 11
137.3789142785079
 21
553.5238032560646
 31
0.0
  0
LINE
  5
2A2B
330
1F
100
AcDbEntity
  8
AM_VIS
100
AcDbLine
 10
133.0757110482325
 20
551.0393477126872
 30
0.0
 11
135.9445132017494
 21
551.0393477126872
 31
0.0
  0
LINE
  5
2A2C
330
1F
100
AcDbEntity
  8
AM_VIS
100
AcDbLine
 10
132.5757110482325
 20
551.5393477126873
 30
0.0
 11
133.0757110482325
 21
551.0393477126873
 31
0.0
  0
LINE
  5
2A2D
330
1F
100
AcDbEntity
  8
AM_VIS
100
AcDbLine
 10
130.0757110482325
 20
551.5393477126872
 30
0.0
 11
132.5757110482325
 21
551.5393477126873
 31
0.0
  0
LINE
  5
2A2E
330
1F
100
AcDbEntity
  8
AM_VIS
100
AcDbLine
 10
129.5757110482325
 20
551.0393477126872
 30
0.0
 11
130.0757110482325
 21
551.5393477126872
 31
0.0
  0
LINE
  5
2A2F
330
1F
100
AcDbEntity
  8
AM_VIS
100
AcDbLine
 10
126.7069088947152
 20
551.0393477126872
 30
0.0
 11
129.5757110482324
 21
551.0393477126872
 31
0.0
  0
LINE
  5
2A30
330
1F
100
AcDbEntity
  8
AM_VIS
100
AcDbLine
 10
125.2725078179568
 20
553.5238032560644
 30
0.0
 11
126.7069088947153
 21
551.0393477126873
 31
0.0
  0
LINE
  5
2A31
330
1F
100
AcDbEntity
  8
AM_VIS
100
AcDbLine
 10
125.4555205198491
 20
554.2068159579566
 30
0.0
 11
125.2725078179569
 21
553.5238032560645
 31
0.0
  0
LINE
  5
2A32
330
1F
100
AcDbEntity
  8
AM_VIS
100
AcDbLine
 10
124.2055205198491
 20
556.3718794674177
 30
0.0
 11
125.4555205198491
 21
554.2068159579566
 31
0.0
  0
LINE
  5
2A33
330
1F
100
AcDbEntity
  8
AM_VIS
100
AcDbLine
 10
123.5225078179569
 20
556.55489216931
 30
0.0
 11
124.2055205198491
 21
556.3718794674177
 31
0.0
  0
LINE
  5
2A34
330
1F
100
AcDbEntity
  8
AM_VIS
100
AcDbLine
 10
122.0881067411983
 20
559.0393477126872
 30
0.0
 11
123.5225078179569
 21
556.55489216931
 31
0.0
  0
LINE
  5
2A35
330
1F
100
AcDbEntity
  8
AM_VIS
100
AcDbLine
 10
123.5225078179568
 20
561.5238032560644
 30
0.0
 11
122.0881067411983
 21
559.0393477126872
 31
0.0
  0
LINE
  5
2A36
330
1F
100
AcDbEntity
  8
AM_VIS
100
AcDbLine
 10
124.205520519849
 20
561.7068159579567
 30
0.0
 11
123.5225078179568
 21
561.5238032560644
 31
0.0
  0
LINE
  5
2A37
330
1F
100
AcDbEntity
  8
AM_VIS
100
AcDbLine
 10
125.455520519849
 20
563.8718794674177
 30
0.0
 11
124.205520519849
 21
561.7068159579567
 31
0.0
  0
LINE
  5
2A38
330
1F
100
AcDbEntity
  8
AM_VIS
100
AcDbLine
 10
125.2725078179568
 20
564.55489216931
 30
0.0
 11
125.455520519849
 21
563.8718794674177
 31
0.0
  0
LINE
  5
2A39
330
1F
100
AcDbEntity
  8
AM_VIS
100
AcDbLine
 10
126.7069088947153
 20
567.0393477126873
 30
0.0
 11
125.2725078179568
 21
564.55489216931
 31
0.0
  0
LINE
  5
2A3A
330
1F
100
AcDbEntity
  8
AM_VIS
100
AcDbLine
 10
129.5757110482323
 20
567.0393477126872
 30
0.0
 11
126.7069088947153
 21
567.0393477126872
 31
0.0
  0
LINE
  5
2A3B
330
1F
100
AcDbEntity
  8
AM_VIS
100
AcDbLine
 10
130.0757110482323
 20
566.5393477126872
 30
0.0
 11
129.5757110482323
 21
567.0393477126872
 31
0.0
  0
LINE
  5
2A3C
330
1F
100
AcDbEntity
  8
AM_VIS
100
AcDbLine
 10
132.5757110482323
 20
566.5393477126872
 30
0.0
 11
130.0757110482323
 21
566.5393477126872
 31
0.0
  0
LINE
  5
2A3D
330
1F
100
AcDbEntity
  8
AM_VIS
100
AcDbLine
 10
133.0757110482323
 20
567.0393477126872
 30
0.0
 11
132.5757110482323
 21
566.5393477126872
 31
0.0
  0
LINE
  5
2A3E
330
1F
100
AcDbEntity
  8
AM_VIS
100
AcDbLine
 10
135.9445132017494
 20
567.0393477126872
 30
0.0
 11
133.0757110482323
 21
567.0393477126872
 31
0.0
  0
LINE
  5
2A3F
330
1F
100
AcDbEntity
  8
AM_VIS
100
AcDbLine
 10
137.3789142785078
 20
564.5548921693102
 30
0.0
 11
135.9445132017494
 21
567.0393477126872
 31
0.0
  0
CIRCLE
  5
2A40
330
1F
100
AcDbEntity
  8
AM_VIS
100
AcDbCircle
 10
131.3257110482323
 20
559.0393477126872
 30
0.0
 40
5.25
  0
LINE
  5
2A41
330
1F
100
AcDbEntity
  8
AM_VIS
100
AcDbLine
 10
137.1959015766156
 20
563.8718794674178
 30
0.0
 11
137.3789142785078
 21
564.5548921693102
 31
0.0
  0
LINE
  5
2A42
330
1F
100
AcDbEntity
  8
AM_VIS
100
AcDbLine
 10
139.1289142785078
 20
561.5238032560646
 30
0.0
 11
138.4459015766155
 21
561.7068159579568
 31
0.0
  0
LINE
  5
2A43
330
1F
100
AcDbEntity
  8
AM_VIS
100
AcDbLine
 10
138.4459015766156
 20
561.7068159579568
 30
0.0
 11
137.1959015766155
 21
563.8718794674178
 31
0.0
  0
ARC
  5
2A44
330
1F
100
AcDbEntity
  8
AM_VIS
100
AcDbCircle
 10
131.3257110482323
 20
559.0393477126872
 30
0.0
 40
9.0
100
AcDbArc
 50
269.9999999999992
 51
297.2660444507314
  0
ARC
  5
2A45
330
1F
100
AcDbEntity
  8
AM_VIS
100
AcDbCircle
 10
131.3257110482323
 20
559.0393477126872
 30
0.0
 40
9.0
100
AcDbArc
 50
302.7339555492677
 51
357.2660444507304
  0
ARC
  5
2A46
330
1F
100
AcDbEntity
  8
AM_VIS
100
AcDbCircle
 10
131.3257110482323
 20
559.0393477126872
 30
0.0
 40
9.0
100
AcDbArc
 50
2.733955549266315
 51
57.26604445073134
  0
ARC
  5
2A47
330
1F
100
AcDbEntity
  8
AM_VIS
100
AcDbCircle
 10
131.3257110482323
 20
559.0393477126872
 30
0.0
 40
9.0
100
AcDbArc
 50
62.73395554926556
 51
117.2660444507323
  0
ARC
  5
2A48
330
1F
100
AcDbEntity
  8
AM_VIS
100
AcDbCircle
 10
131.3257110482323
 20
559.0393477126872
 30
0.0
 40
9.0
100
AcDbArc
 50
122.7339555492674
 51
177.2660444507336
  0
ARC
  5
2A49
330
1F
100
AcDbEntity
  8
AM_VIS
100
AcDbCircle
 10
131.3257110482323
 20
559.0393477126872
 30
0.0
 40
9.0
100
AcDbArc
 50
182.7339555492663
 51
237.2660444507324
  0
ARC
  5
2A4A
330
1F
100
AcDbEntity
  8
AM_VIS
100
AcDbCircle
 10
131.3257110482323
 20
559.0393477126872
 30
0.0
 40
9.0
100
AcDbArc
 50
242.7339555492679
 51
270.0
  0
ARC
  5
2A4B
330
1F
100
AcDbEntity
  8
AM_VIS
100
AcDbCircle
 10
134.8257110482323
 20
552.0393477126872
 30
0.0
 40
3.5
100
AcDbArc
 50
270.0
 51
0.0
  0
ARC
  5
2A4C
330
1F
100
AcDbEntity
  8
AM_VIS
100
AcDbCircle
 10
134.8257110482323
 20
566.0393477126872
 30
0.0
 40
3.5
100
AcDbArc
 50
0.0
 51
90.0
  0
LINE
  5
2A4D
330
1F
100
AcDbEntity
  8
AM_VIS
100
AcDbLine
 10
134.8257110482323
 20
569.5393477126872
 30
0.0
 11
109.8257110482323
 21
569.5393477126872
 31
0.0
  0
LINE
  5
2A4E
330
1F
100
AcDbEntity
  8
AM_VIS
100
AcDbLine
 10
109.8257110482323
 20
566.0393477126873
 30
0.0
 11
109.8257110482323
 21
552.0393477126873
 31
0.0
  0
LINE
  5
2A4F
330
1F
100
AcDbEntity
  8
AM_VIS
100
AcDbLine
 10
138.3257110482323
 20
564.6962019621796
 30
0.0
 11
138.3257110482323
 21
566.0393477126872
 31
0.0
  0
LINE
  5
2A50
330
1F
100
AcDbEntity
  8
AM_VIS
100
AcDbLine
 10
138.3257110482323
 20
552.0393477126872
 30
0.0
 11
138.3257110482323
 21
553.3824934631949
 31
0.0
  0
LINE
  5
2A51
330
1F
100
AcDbEntity
  8
AM_VIS
100
AcDbLine
 10
109.8257110482323
 20
548.5393477126873
 30
0.0
 11
134.8257110482323
 21
548.5393477126873
 31
0.0
  0
CIRCLE
  5
2A52
330
1F
100
AcDbEntity
  8
AM_VIS
100
AcDbCircle
 10
131.3257110482323
 20
559.0393477126872
 30
0.0
 40
5.0
  0
ARC
  5
2A53
330
1F
100
AcDbEntity
  8
AM_VIS
100
AcDbCircle
 10
85.32571104823233
 20
566.0393477126873
 30
0.0
 40
3.999999999999999
100
AcDbArc
 50
90.0
 51
180.0
  0
LINE
  5
2A54
330
1F
100
AcDbEntity
  8
AM_VIS
100
AcDbLine
 10
85.32571104823235
 20
570.0393477126873
 30
0.0
 11
109.8257110482323
 21
570.0393477126873
 31
0.0
  0
LINE
  5
2A55
330
1F
100
AcDbEntity
  8
AM_VIS
100
AcDbLine
 10
109.8257110482323
 20
570.0393477126872
 30
0.0
 11
109.8257110482323
 21
548.0393477126872
 31
0.0
  0
LINE
  5
2A56
330
1F
100
AcDbEntity
  8
AM_VIS
100
AcDbLine
 10
109.8257110482323
 20
548.0393477126872
 30
0.0
 11
85.32571104823233
 21
548.0393477126872
 31
0.0
  0
LINE
  5
2A57
330
1F
100
AcDbEntity
  8
AM_VIS
100
AcDbLine
 10
81.32571104823233
 20
552.0393477126872
 30
0.0
 11
81.32571104823233
 21
566.0393477126872
 31
0.0
  0
ARC
  5
2A58
330
1F
100
AcDbEntity
  8
AM_VIS
100
AcDbCircle
 10
85.32571104823233
 20
552.0393477126872
 30
0.0
 40
3.999999999999999
100
AcDbArc
 50
180.0
 51
270.0
  0
LINE
  5
2A59
330
1F
100
AcDbEntity
  8
AM_VIS
100
AcDbLine
 10
81.32571104823234
 20
566.0393477126873
 30
0.0
 11
81.32571104823234
 21
569.7393477126873
 31
0.0
  0
ARC
  5
2A5A
330
1F
100
AcDbEntity
  8
AM_VIS
100
AcDbCircle
 10
81.62571104823236
 20
569.7393477126873
 30
0.0
 40
0.2999999999999999
100
AcDbArc
 50
90.00000000000062
 51
180.0
  0
LINE
  5
2A5B
330
1F
100
AcDbEntity
  8
AM_VIS
100
AcDbLine
 10
81.62571104823236
 20
570.0393477126872
 30
0.0
 11
85.32571104823233
 21
570.0393477126872
 31
0.0
  0
LINE
  5
2A5C
330
1F
100
AcDbEntity
  8
AM_VIS
100
AcDbLine
 10
85.32571104823233
 20
548.0393477126873
 30
0.0
 11
83.82571104823233
 21
548.0393477126873
 31
0.0
  0
ARC
  5
2A5D
330
1F
100
AcDbEntity
  8
AM_VIS
100
AcDbCircle
 10
83.82571104823233
 20
550.5393477126871
 30
0.0
 40
2.499999999999999
100
AcDbArc
 50
180.0
 51
270.0
  0
LINE
  5
2A5E
330
1F
100
AcDbEntity
  8
AM_VIS
100
AcDbLine
 10
81.32571104823233
 20
550.5393477126871
 30
0.0
 11
81.32571104823233
 21
552.0393477126872
 31
0.0
  0
LINE
  5
2A5F
330
1F
100
AcDbEntity
  8
AM_VIS
100
AcDbLine
 10
81.32571104823233
 20
578.7393477126872
 30
0.0
 11
103.3257110482323
 21
578.7393477126872
 31
0.0
  0
LINE
  5
2A60
330
1F
100
AcDbEntity
  8
AM_VIS
100
AcDbLine
 10
103.3257110482323
 20
570.0393477126872
 30
0.0
 11
103.3257110482323
 21
578.7393477126872
 31
0.0
  0
LINE
  5
2A61
330
1F
100
AcDbEntity
  8
AM_VIS
100
AcDbLine
 10
103.3257110482323
 20
543.3393477126872
 30
0.0
 11
103.3257110482323
 21
548.0393477126872
 31
0.0
  0
LINE
  5
2A62
330
1F
100
AcDbEntity
  8
AM_VIS
100
AcDbLine
 10
81.32571104823233
 20
543.3393477126872
 30
0.0
 11
103.3257110482323
 21
543.3393477126872
 31
0.0
  0
LINE
  5
2A63
330
1F
100
AcDbEntity
  8
AM_VIS
100
AcDbLine
 10
81.32571104823233
 20
543.3393477126872
 30
0.0
 11
81.32571104823233
 21
550.5393477126871
 31
0.0
  0
LINE
  5
2A64
330
1F
100
AcDbEntity
  8
AM_VIS
100
AcDbLine
 10
81.32571104823233
 20
569.7393477126873
 30
0.0
 11
81.32571104823233
 21
578.7393477126872
 31
0.0
  0
LINE
  5
2A65
330
1F
100
AcDbEntity
  8
AM_VIS
100
AcDbLine
 10
26.32571104823233
 20
578.6893477126872
 30
0.0
 11
81.32571104823233
 21
578.6893477126872
 31
0.0
  0
LINE
  5
2A66
330
1F
100
AcDbEntity
  8
AM_VIS
100
AcDbLine
 10
81.32571104823233
 20
569.7393477126873
 30
0.0
 11
81.32571104823233
 21
578.6893477126872
 31
0.0
  0
LINE
  5
2A67
330
1F
100
AcDbEntity
  8
AM_VIS
100
AcDbLine
 10
81.32571104823233
 20
543.3893477126872
 30
0.0
 11
81.32571104823233
 21
550.5393477126871
 31
0.0
  0
LINE
  5
2A68
330
1F
100
AcDbEntity
  8
AM_VIS
100
AcDbLine
 10
26.32571104823233
 20
543.3893477126872
 30
0.0
 11
81.32571104823233
 21
543.3893477126872
 31
0.0
  0
CIRCLE
  5
2A69
330
1F
100
AcDbEntity
  8
AM_VIS
100
AcDbCircle
 10
62.82571104823232
 20
575.0393477126872
 30
0.0
 40
2.6
  0
CIRCLE
  5
2A6A
330
1F
100
AcDbEntity
  8
AM_VIS
100
AcDbCircle
 10
44.82571104823231
 20
575.0393477126872
 30
0.0
 40
2.6
  0
CIRCLE
  5
2A6B
330
1F
100
AcDbEntity
  8
AM_VIS
100
AcDbCircle
 10
71.82571104823232
 20
547.0393477126872
 30
0.0
 40
2.6
  0
CIRCLE
  5
2A6C
330
1F
100
AcDbEntity
  8
AM_VIS
100
AcDbCircle
 10
35.82571104823233
 20
547.0393477126872
 30
0.0
 40
2.6
  0
LINE
  5
2A6D
330
1F
100
AcDbEntity
  8
AM_VIS
100
AcDbLine
 10
53.46773605658859
 20
568.8928076882158
 30
0.0
 11
53.81946417298698
 21
566.539339907985
 31
0.0
  0
SPLINE
  5
2A6E
330
1F
100
AcDbEntity
  8
AM_VIS
100
AcDbSpline
210
0.0
220
0.0
230
1.0
 70
     8
 71
     3
 72
    10
 73
     6
 74
     0
 42
0.0000000001
 43
0.0000000001
 40
2.103526775732485
 40
2.103526775732485
 40
2.103526775732485
 40
2.103526775732485
 40
2.463720305679783
 40
2.463720305679783
 40
3.281997594450785
 40
3.281997594450785
 40
3.281997594450785
 40
3.281997594450785
 10
53.81946417298698
 20
566.539339907985
 30
0.0
 10
53.76590751645621
 20
566.5392060828664
 30
0.0
 10
53.71602279314949
 20
566.5373319842559
 30
0.0
 10
53.57157646516322
 20
566.5284263609192
 30
0.0
 10
53.50031248310608
 20
566.5180875798996
 30
0.0
 10
53.4997995272178
 20
566.5180130149154
 30
0.0
  0
SPLINE
  5
2A6F
330
1F
100
AcDbEntity
  8
AM_VIS
100
AcDbSpline
210
0.0
220
0.0
230
1.0
 70
     8
 71
     3
 72
    44
 73
    40
 74
     0
 42
0.0000000001
 43
0.0000000001
 40
2.008016768488805
 40
2.008016768488805
 40
2.008016768488805
 40
2.008016768488805
 40
2.052739871529543
 40
2.052739871529543
 40
2.394863183451133
 40
2.394863183451133
 40
2.736986495372724
 40
2.736986495372724
 40
2.944678495598887
 40
2.944678495598887
 40
3.15237049582505
 40
3.15237049582505
 40
3.358564591398053
 40
3.358564591398053
 40
3.534810407682721
 40
3.534810407682721
 40
3.582669875061952
 40
3.582669875061952
 40
3.594520552676524
 40
3.594520552676524
 40
3.599254850417121
 40
3.599254850417121
 40
3.603989148157717
 40
3.603989148157717
 40
3.631121931480734
 40
3.631121931480734
 40
3.658254714803751
 40
3.658254714803751
 40
3.712520281449784
 40
3.712520281449784
 40
3.821051414741851
 40
3.821051414741851
 40
4.038113681325985
 40
4.038113681325985
 40
4.255175947910117
 40
4.255175947910117
 40
4.472238214494251
 40
4.472238214494251
 40
4.69321802389045
 40
4.69321802389045
 40
4.69321802389045
 40
4.69321802389045
 10
53.40395016204176
 20
568.8743075453713
 30
0.0
 10
53.39805490102917
 20
568.8611572709314
 30
0.0
 10
53.39217525924444
 20
568.8480027287253
 30
0.0
 10
53.34145576374336
 20
568.7341799163792
 30
0.0
 10
53.2975739502496
 20
568.6333068561177
 30
0.0
 10
53.21171482682126
 20
568.4305279170787
 30
0.0
 10
53.16977309077447
 20
568.3286199853443
 30
0.0
 10
53.10294841077736
 20
568.1630047341217
 30
0.0
 10
53.07520755358449
 20
568.0934529241501
 30
0.0
 10
53.01937316110451
 20
567.9533421138156
 30
0.0
 10
52.99121632136539
 20
567.882787518168
 30
0.0
 10
52.93943521435969
 20
567.7550475341929
 30
0.0
 10
52.90820133617332
 20
567.6793465431127
 30
0.0
 10
52.85937985748228
 20
567.5639627262826
 30
0.0
 10
52.83212780380971
 20
567.501158344943
 30
0.0
 10
52.80337201045283
 20
567.4353918808624
 30
0.0
 10
52.79571490421417
 20
567.4187834210239
 30
0.0
 10
52.78906434672197
 20
567.400805761214
 30
0.0
 10
52.78746233744278
 20
567.39653720305
 30
0.0
 10
52.78754490605503
 20
567.3910250518523
 30
0.0
 10
52.78790959680491
 20
567.3893731816503
 30
0.0
 10
52.78918407712011
 20
567.3862860605653
 30
0.0
 10
52.79005650338392
 20
567.384831789735
 30
0.0
 10
52.79569110255154
 20
567.3762033517155
 30
0.0
 10
52.80148282978173
 20
567.3698493637874
 30
0.0
 10
52.81275688446118
 20
567.3565517696081
 30
0.0
 10
52.8184863637929
 20
567.3498890150439
 30
0.0
 10
52.83581963230727
 20
567.3297272611062
 30
0.0
 10
52.84756950674655
 20
567.3160822863202
 30
0.0
 10
52.88318076107093
 20
567.2745364115548
 30
0.0
 10
52.90740717656252
 20
567.2460479700074
 30
0.0
 10
52.98071097473407
 20
567.1589505484562
 30
0.0
 10
53.0305008060484
 20
567.0985700040765
 30
0.0
 10
53.12899014000276
 20
566.9773610389626
 30
0.0
 10
53.17798402103569
 20
566.916228779352
 30
0.0
 10
53.27349128037827
 20
566.7969786462322
 30
0.0
 10
53.32003502358984
 20
566.7388678123652
 30
0.0
 10
53.40941723863072
 20
566.6282279513194
 30
0.0
 10
53.45448814921103
 20
566.5729230028938
 30
0.0
 10
53.49979952721747
 20
566.5180130149154
 30
0.0
  0
SPLINE
  5
2A70
330
1F
100
AcDbEntity
  8
AM_VIS
100
AcDbSpline
210
0.0
220
0.0
230
1.0
 70
     8
 71
     3
 72
    10
 73
     6
 74
     0
 42
0.0000000001
 43
0.0000000001
 40
1.911368473193924
 40
1.911368473193924
 40
1.911368473193924
 40
1.911368473193924
 40
2.265428879798962
 40
2.265428879798962
 40
2.457507168602467
 40
2.457507168602467
 40
2.457507168602467
 40
2.457507168602467
 10
53.0090678443489
 20
566.4022048555444
 30
0.0
 10
53.1110321895867
 20
566.4374454496821
 30
0.0
 10
53.21547877676038
 20
566.4661966943266
 30
0.0
 10
53.38085370347556
 20
566.5001661941923
 30
0.0
 10
53.43983499100073
 20
566.5101284759307
 30
0.0
 10
53.49979952721747
 20
566.5180130149154
 30
0.0
  0
CIRCLE
  5
2A71
330
1F
100
AcDbEntity
  8
AM_VIS
100
AcDbCircle
 10
53.82571104823232
 20
567.5393477126872
 30
0.0
 40
1.399999999999999
  0
LINE
  5
2A72
330
1F
100
AcDbEntity
  8
AM_VIS
100
AcDbLine
 10
26.32571104823233
 20
543.3893477126872
 30
0.0
 11
26.32571104823233
 21
559.5393477126872
 31
0.0
  0
LINE
  5
2A73
330
1F
100
AcDbEntity
  8
AM_VIS
100
AcDbLine
 10
26.32571104823233
 20
562.5393477126872
 30
0.0
 11
26.32571104823233
 21
578.6893477126872
 31
0.0
  0
LINE
  5
2A74
330
1F
100
AcDbEntity
  8
AM_VIS
100
AcDbLine
 10
26.32571104823233
 20
562.5393477126872
 30
0.0
 11
27.32571104823233
 21
562.5393477126872
 31
0.0
  0
LINE
  5
2A75
330
1F
100
AcDbEntity
  8
AM_VIS
100
AcDbLine
 10
27.32571104823233
 20
562.5393477126872
 30
0.0
 11
27.32571104823233
 21
559.5393477126872
 31
0.0
  0
LINE
  5
2A76
330
1F
100
AcDbEntity
  8
AM_VIS
100
AcDbLine
 10
27.32571104823233
 20
559.5393477126872
 30
0.0
 11
26.32571104823233
 21
559.5393477126872
 31
0.0
  0
DIMENSION
  5
2A77
330
1F
100
AcDbEntity
  8
DIM
100
AcDbDimension
  2
*D1
 10
230.6684803295165
 20
442.0466552188008
 30
0.0
 11
226.0684803295165
 21
433.5466552188008
 31
0.0
 70
    32
  1
<>
  3
STANDARD
100
AcDbAlignedDimension
 13
213.2004481423812
 23
425.0466552188007
 33
0.0
 14
204.5004481423812
 24
442.0466552188008
 34
0.0
 50
90.0
100
AcDbRotatedDimension
1001
ACAD
1000
DSTYLE
1002
{
1070
   271
1070
     2
1070
    41
1040
3.0
1070
    42
1040
2.0
1070
    43
1040
2.0
1070
    44
1040
1.6
1070
    48
1040
0.000000001
1070
    73
1070
     0
1070
    74
1070
     0
1070
    77
1070
     1
1070
    78
1070
     8
1070
    79
1070
     2
1070
   140
1040
3.0
1070
   141
1040
2.0
1070
   146
1040
0.6
1070
   147
1040
0.8
1070
   172
1070
     1
1070
   176
1070
   256
1070
   177
1070
   256
1070
   178
1070
   256
1070
   340
1005
2424
1070
   371
1070
    -1
1070
   372
1070
    -1
1002
}
1001
GENIUS_GENDTOL_13
1000

1000
lc3
1000

1040
0.0
  0
DIMENSION
  5
2A8A
330
1F
100
AcDbEntity
  8
DIM
100
AcDbDimension
  2
*D2
 10
5.287106765917087
 20
479.5466552188007
 30
0.0
 11
0.6871067659170065
 21
439.0966552188007
 31
0.0
 70
    32
  1
<>
  3
STANDARD
100
AcDbAlignedDimension
 13
20.82571104823232
 23
398.6466552188007
 33
0.0
 14
83.12412997450062
 24
479.5466552188007
 34
0.0
 50
270.0
100
AcDbRotatedDimension
1001
ACAD
1000
DSTYLE
1002
{
1070
   271
1070
     2
1070
    41
1040
3.0
1070
    42
1040
2.0
1070
    43
1040
2.0
1070
    44
1040
1.6
1070
    48
1040
0.000000001
1070
    73
1070
     0
1070
    74
1070
     0
1070
    77
1070
     1
1070
    78
1070
     8
1070
    79
1070
     2
1070
   140
1040
3.0
1070
   141
1040
2.0
1070
   146
1040
0.6
1070
   147
1040
0.8
1070
   172
1070
     1
1070
   176
1070
   256
1070
   177
1070
   256
1070
   178
1070
   256
1070
   340
1005
2424
1070
   371
1070
    -1
1070
   372
1070
    -1
1002
}
1001
GENIUS_GENDTOL_13
1000

1000
lc3
1000

1040
0.0
  0
DIMENSION
  5
2A8B
330
1F
100
AcDbEntity
  8
DIM
100
AcDbDimension
  2
*D3
 10
243.971815776073
 20
490.6466552188008
 30
0.0
 11
239.371815776073
 21
444.6466552188008
 31
0.0
 70
    32
  1
<>
  3
STANDARD
100
AcDbAlignedDimension
 13
213.2004481423812
 23
398.6466552188007
 33
0.0
 14
201.5004481423813
 24
490.6466552188008
 34
0.0
 50
90.0
100
AcDbRotatedDimension
1001
ACAD
1000
DSTYLE
1002
{
1070
   271
1070
     2
1070
    41
1040
3.0
1070
    42
1040
2.0
1070
    43
1040
2.0
1070
    44
1040
1.6
1070
    48
1040
0.000000001
1070
    73
1070
     0
1070
    74
1070
     0
1070
    77
1070
     1
1070
    78
1070
     8
1070
    79
1070
     2
1070
   140
1040
3.0
1070
   141
1040
2.0
1070
   146
1040
0.6
1070
   147
1040
0.8
1070
   172
1070
     1
1070
   176
1070
   256
1070
   177
1070
   256
1070
   178
1070
   256
1070
   340
1005
2424
1070
   371
1070
    -1
1070
   372
1070
    -1
1002
}
1001
GENIUS_GENDTOL_13
1000

1000
lc3
1000

1040
0.0
  0
DIMENSION
  5
2A8C
330
1F
100
AcDbEntity
  8
DIM
100
AcDbDimension
  2
*D4
 10
230.6684803295165
 20
425.0466552188007
 30
0.0
 11
226.0684803295165
 21
411.8466552188008
 31
0.0
 70
    32
  1
<>
  3
STANDARD
100
AcDbAlignedDimension
 13
213.2004481423812
 23
398.6466552188007
 33
0.0
 14
213.2004481423812
 24
425.0466552188007
 34
0.0
 50
90.0
100
AcDbRotatedDimension
1001
ACAD
1000
DSTYLE
1002
{
1070
   271
1070
     2
1070
    41
1040
3.0
1070
    42
1040
2.0
1070
    43
1040
2.0
1070
    44
1040
1.6
1070
    48
1040
0.000000001
1070
    73
1070
     0
1070
    74
1070
     0
1070
    77
1070
     1
1070
    78
1070
     8
1070
    79
1070
     2
1070
   140
1040
3.0
1070
   141
1040
2.0
1070
   146
1040
0.6
1070
   147
1040
0.8
1070
   172
1070
     1
1070
   176
1070
   256
1070
   177
1070
   256
1070
   178
1070
   256
1070
   340
1005
2424
1070
   371
1070
    -1
1070
   372
1070
    -1
1002
}
1001
GENIUS_GENDTOL_13
1000

1000
lc3
1000

1040
0.0
  0
DIMENSION
  5
2A8D
330
1F
100
AcDbEntity
  8
DIM
100
AcDbDimension
  2
*D5
 10
213.2004481423812
 20
366.9504342056632
 30
0.0
 11
195.5004481423813
 21
371.5504342056632
 31
0.0
 70
    32
  1
<>
  3
STANDARD
100
AcDbAlignedDimension
 13
177.8004481423812
 23
398.6466552188007
 33
0.0
 14
213.2004481423812
 24
398.6466552188007
 34
0.0
100
AcDbRotatedDimension
1001
ACAD
1000
DSTYLE
1002
{
1070
   271
1070
     2
1070
    41
1040
3.0
1070
    42
1040
2.0
1070
    43
1040
2.0
1070
    44
1040
1.6
1070
    48
1040
0.000000001
1070
    73
1070
     0
1070
    74
1070
     0
1070
    77
1070
     1
1070
    78
1070
     8
1070
    79
1070
     2
1070
   140
1040
3.0
1070
   141
1040
2.0
1070
   146
1040
0.6
1070
   147
1040
0.8
1070
   172
1070
     1
1070
   176
1070
   256
1070
   177
1070
   256
1070
   178
1070
   256
1070
   340
1005
2424
1070
   371
1070
    -1
1070
   372
1070
    -1
1002
}
1001
GENIUS_GENDTOL_13
1000

1000
lc3
1000

1040
0.0
  0
DIMENSION
  5
2A8E
330
1F
100
AcDbEntity
  8
DIM
100
AcDbDimension
  2
*D6
 10
177.8004481423812
 20
383.6941402190398
 30
0.0
 11
161.6290195709527
 21
388.2941402190398
 31
0.0
 70
    32
  1
<>
  3
STANDARD
100
AcDbAlignedDimension
 13
193.5004481423812
 23
427.5966552188007
 33
0.0
 14
177.8004481423812
 24
398.6466552188007
 34
0.0
100
AcDbRotatedDimension
1001
ACAD
1000
DSTYLE
1002
{
1070
   271
1070
     2
1070
    41
1040
3.0
1070
    42
1040
2.0
1070
    43
1040
2.0
1070
    44
1040
1.6
1070
    48
1040
0.000000001
1070
    73
1070
     0
1070
    74
1070
     0
1070
    77
1070
     1
1070
    78
1070
     8
1070
    79
1070
     2
1070
   140
1040
3.0
1070
   141
1040
2.0
1070
   146
1040
0.6
1070
   147
1040
0.8
1070
   172
1070
     1
1070
   176
1070
   256
1070
   177
1070
   256
1070
   178
1070
   256
1070
   340
1005
2424
1070
   371
1070
    -1
1070
   372
1070
    -1
1002
}
1001
GENIUS_GENDTOL_13
1000

1000
lc3
1000

1040
0.0
  0
DIMENSION
  5
2A8F
330
1F
100
AcDbEntity
  8
DIM
100
AcDbDimension
  2
*D7
 10
213.2004481423812
 20
383.6941402190398
 30
0.0
 11
229.3718767138098
 21
388.2941402190398
 31
0.0
 70
    32
  1
<>
  3
STANDARD
100
AcDbAlignedDimension
 13
193.5004481423812
 23
427.5966552188007
 33
0.0
 14
213.2004481423812
 24
398.6466552188007
 34
0.0
100
AcDbRotatedDimension
1001
ACAD
1000
DSTYLE
1002
{
1070
   271
1070
     2
1070
    41
1040
3.0
1070
    42
1040
2.0
1070
    43
1040
2.0
1070
    44
1040
1.6
1070
    48
1040
0.000000001
1070
    73
1070
     0
1070
    74
1070
     0
1070
    77
1070
     1
1070
    78
1070
     8
1070
    79
1070
     2
1070
   140
1040
3.0
1070
   141
1040
2.0
1070
   146
1040
0.6
1070
   147
1040
0.8
1070
   172
1070
     1
1070
   176
1070
   256
1070
   177
1070
   256
1070
   178
1070
   256
1070
   340
1005
2424
1070
   371
1070
    -1
1070
   372
1070
    -1
1002
}
1001
GENIUS_GENDTOL_13
1000

1000
lc3
1000

1040
0.0
  0
TEXT
  5
2A90
330
1F
100
AcDbEntity
  8
DIM
100
AcDbText
 10
89.35708687434544
 20
615.0175621894701
 30
0.0
 40
4.0
  1

  7
DAYUS
100
AcDbText
  0
DIMENSION
  5
2A91
330
1F
100
AcDbEntity
  8
DIM
100
AcDbDimension
  2
*D8
 10
61.09945420498689
 20
573.0951159077967
 30
0.0
 11
97.42287859656599
 21
590.5569570786123
 31
0.0
 70
    35
  1
4-<>貫通
  3
STANDARD
100
AcDbDiametricDimension
 15
64.5519678914776
 25
576.9835795175781
 35
0.0
 40
0.0
1001
GENIUS_GENDTOL_13
1000

1000
lc3
1000

1040
0.0
1001
ACAD
1000
DSTYLE
1002
{
1070
   271
1070
     2
1070
   288
1070
     1
1070
   289
1070
     3
1070
    41
1040
3.0
1070
    42
1040
2.0
1070
    43
1040
2.0
1070
    44
1040
1.6
1070
    48
1040
0.000000001
1070
    73
1070
     0
1070
    74
1070
     1
1070
    77
1070
     1
1070
    78
1070
     8
1070
    79
1070
     2
1070
   140
1040
3.0
1070
   141
1040
0.0
1070
   146
1040
0.6
1070
   147
1040
0.8
1070
   172
1070
     0
1070
   176
1070
   256
1070
   177
1070
   256
1070
   178
1070
   256
1070
   340
1005
2424
1070
   371
1070
    -1
1070
   372
1070
    -1
1002
}
  0
DIMENSION
  5
2A93
330
1F
100
AcDbEntity
  8
DIM
100
AcDbDimension
  2
*D9
 10
11.56370304147049
 20
575.0393477126872
 30
0.0
 11
6.963703041470401
 21
561.0393477126872
 31
0.0
 70
    32
  1
<>
  3
STANDARD
100
AcDbAlignedDimension
 13
31.62571104823232
 23
547.0393477126872
 33
0.0
 14
40.62571104823232
 24
575.0393477126872
 34
0.0
 50
270.0
100
AcDbRotatedDimension
1001
ACAD
1000
DSTYLE
1002
{
1070
   271
1070
     2
1070
    41
1040
3.0
1070
    42
1040
2.0
1070
    43
1040
2.0
1070
    44
1040
1.6
1070
    48
1040
0.000000001
1070
    73
1070
     0
1070
    74
1070
     0
1070
    77
1070
     1
1070
    78
1070
     8
1070
    79
1070
     2
1070
   140
1040
3.0
1070
   141
1040
2.0
1070
   146
1040
0.6
1070
   147
1040
0.8
1070
   172
1070
     1
1070
   176
1070
   256
1070
   177
1070
   256
1070
   178
1070
   256
1070
   340
1005
2424
1070
   371
1070
    -1
1070
   372
1070
    -1
1002
}
1001
GENIUS_GENDTOL_13
1000

1000
lc3
1000

1040
0.0
  0
DIMENSION
  5
2A94
330
1F
100
AcDbEntity
  8
DIM
100
AcDbDimension
  2
*D10
 10
19.82571104823233
 20
607.4799120491286
 30
0.0
 11
64.82571104823233
 21
612.0799120491287
 31
0.0
 70
    32
  1
<>
  3
STANDARD
100
AcDbAlignedDimension
 13
109.8257110482323
 23
570.0393477126872
 33
0.0
 14
19.82571104823232
 24
577.6893477126873
 34
0.0
 50
180.0
100
AcDbRotatedDimension
1001
ACAD
1000
DSTYLE
1002
{
1070
   271
1070
     2
1070
    41
1040
3.0
1070
    42
1040
2.0
1070
    43
1040
2.0
1070
    44
1040
1.6
1070
    48
1040
0.000000001
1070
    73
1070
     0
1070
    74
1070
     0
1070
    77
1070
     1
1070
    78
1070
     8
1070
    79
1070
     2
1070
   140
1040
3.0
1070
   141
1040
2.0
1070
   146
1040
0.6
1070
   147
1040
0.8
1070
   172
1070
     1
1070
   176
1070
   256
1070
   177
1070
   256
1070
   178
1070
   256
1070
   340
1005
2424
1070
   371
1070
    -1
1070
   372
1070
    -1
1002
}
1001
GENIUS_GENDTOL_13
1000

1000
lc3
1000

1040
0.0
  0
DIMENSION
  5
2A95
330
1F
100
AcDbEntity
  8
DIM
100
AcDbDimension
  2
*D11
 10
103.3257110482323
 20
512.8639780031514
 30
0.0
 11
61.57571104823232
 21
517.4639780031514
 31
0.0
 70
    32
  1
<>
  3
STANDARD
100
AcDbAlignedDimension
 13
19.82571104823232
 23
544.3893477126874
 33
0.0
 14
103.3257110482323
 24
543.3393477126872
 34
0.0
100
AcDbRotatedDimension
1001
ACAD
1000
DSTYLE
1002
{
1070
   271
1070
     2
1070
    41
1040
3.0
1070
    42
1040
2.0
1070
    43
1040
2.0
1070
    44
1040
1.6
1070
    48
1040
0.000000001
1070
    73
1070
     0
1070
    74
1070
     0
1070
    77
1070
     1
1070
    78
1070
     8
1070
    79
1070
     2
1070
   140
1040
3.0
1070
   141
1040
2.0
1070
   146
1040
0.6
1070
   147
1040
0.8
1070
   172
1070
     1
1070
   176
1070
   256
1070
   177
1070
   256
1070
   178
1070
   256
1070
   340
1005
2424
1070
   371
1070
    -1
1070
   372
1070
    -1
1002
}
1001
GENIUS_GENDTOL_13
1000

1000
lc3
1000

1040
0.0
  0
DIMENSION
  5
2A96
330
1F
100
AcDbEntity
  8
DIM
100
AcDbDimension
  2
*D12
 10
71.82571104823232
 20
532.175633502797
 30
0.0
 11
53.82571104823232
 21
536.775633502797
 31
0.0
 70
    32
  1
<>
  3
STANDARD
100
AcDbAlignedDimension
 13
35.82571104823232
 23
542.8393477126872
 33
0.0
 14
71.82571104823232
 24
542.8393477126872
 34
0.0
100
AcDbRotatedDimension
1001
ACAD
1000
DSTYLE
1002
{
1070
   271
1070
     2
1070
    41
1040
3.0
1070
    42
1040
2.0
1070
    43
1040
2.0
1070
    44
1040
1.6
1070
    48
1040
0.000000001
1070
    73
1070
     0
1070
    74
1070
     0
1070
    77
1070
     1
1070
    78
1070
     8
1070
    79
1070
     2
1070
   140
1040
3.0
1070
   141
1040
2.0
1070
   146
1040
0.6
1070
   147
1040
0.8
1070
   172
1070
     1
1070
   176
1070
   256
1070
   177
1070
   256
1070
   178
1070
   256
1070
   340
1005
2424
1070
   371
1070
    -1
1070
   372
1070
    -1
1002
}
1001
GENIUS_GENDTOL_13
1000

1000
lc3
1000

1040
0.0
  0
DIMENSION
  5
2A97
330
1F
100
AcDbEntity
  8
DIM
100
AcDbDimension
  2
*D13
 10
19.82571104823232
 20
532.1756335027969
 30
0.0
 11
27.82571104823232
 21
536.7756335027969
 31
0.0
 70
    32
  1
<>
  3
STANDARD
100
AcDbAlignedDimension
 13
35.82571104823232
 23
542.8393477126872
 33
0.0
 14
19.82571104823232
 24
544.3893477126874
 34
0.0
100
AcDbRotatedDimension
1001
ACAD
1000
DSTYLE
1002
{
1070
   271
1070
     2
1070
    41
1040
3.0
1070
    42
1040
2.0
1070
    43
1040
2.0
1070
    44
1040
1.6
1070
    48
1040
0.000000001
1070
    73
1070
     0
1070
    74
1070
     0
1070
    77
1070
     1
1070
    78
1070
     8
1070
    79
1070
     2
1070
   140
1040
3.0
1070
   141
1040
2.0
1070
   146
1040
0.6
1070
   147
1040
0.8
1070
   172
1070
     1
1070
   176
1070
   256
1070
   177
1070
   256
1070
   178
1070
   256
1070
   340
1005
2424
1070
   371
1070
    -1
1070
   372
1070
    -1
1002
}
1001
GENIUS_GENDTOL_13
1000

1000
lc3
1000

1040
0.0
  0
DIMENSION
  5
2A98
330
1F
100
AcDbEntity
  8
DIM
100
AcDbDimension
  2
*D14
 10
62.82571104823232
 20
594.4460852610553
 30
0.0
 11
53.82571104823232
 21
599.0460852610553
 31
0.0
 70
    32
  1
<>
  3
STANDARD
100
AcDbAlignedDimension
 13
44.82571104823231
 23
579.2393477126872
 33
0.0
 14
62.82571104823232
 24
579.2393477126872
 34
0.0
 50
180.0
100
AcDbRotatedDimension
1001
ACAD
1000
DSTYLE
1002
{
1070
   271
1070
     2
1070
    41
1040
3.0
1070
    42
1040
2.0
1070
    43
1040
2.0
1070
    44
1040
1.6
1070
    48
1040
0.000000001
1070
    73
1070
     0
1070
    74
1070
     0
1070
    77
1070
     1
1070
    78
1070
     8
1070
    79
1070
     2
1070
   140
1040
3.0
1070
   141
1040
2.0
1070
   146
1040
0.6
1070
   147
1040
0.8
1070
   172
1070
     1
1070
   176
1070
   256
1070
   177
1070
   256
1070
   178
1070
   256
1070
   340
1005
2424
1070
   371
1070
    -1
1070
   372
1070
    -1
1002
}
1001
GENIUS_GENDTOL_13
1000

1000
lc3
1000

1040
0.0
  0
DIMENSION
  5
2A99
330
1F
100
AcDbEntity
  8
DIM
100
AcDbDimension
  2
*D15
 10
19.82571104823232
 20
594.4460852610553
 30
0.0
 11
32.32571104823232
 21
599.0460852610553
 31
0.0
 70
    32
  1
<>
  3
STANDARD
100
AcDbAlignedDimension
 13
44.82571104823231
 23
579.2393477126872
 33
0.0
 14
19.82571104823232
 24
577.6893477126873
 34
0.0
 50
180.0
100
AcDbRotatedDimension
1001
ACAD
1000
DSTYLE
1002
{
1070
   271
1070
     2
1070
    41
1040
3.0
1070
    42
1040
2.0
1070
    43
1040
2.0
1070
    44
1040
1.6
1070
    48
1040
0.000000001
1070
    73
1070
     0
1070
    74
1070
     0
1070
    77
1070
     1
1070
    78
1070
     8
1070
    79
1070
     2
1070
   140
1040
3.0
1070
   141
1040
2.0
1070
   146
1040
0.6
1070
   147
1040
0.8
1070
   172
1070
     1
1070
   176
1070
   256
1070
   177
1070
   256
1070
   178
1070
   256
1070
   340
1005
2424
1070
   371
1070
    -1
1070
   372
1070
    -1
1002
}
1001
GENIUS_GENDTOL_13
1000

1000
lc3
1000

1040
0.0
  0
LINE
  5
2A9A
330
1F
100
AcDbEntity
  8
CENTER
100
AcDbLine
 10
193.5004481423812
 20
429.4466552188008
 30
0.0
 11
193.5004481423812
 21
441.6466552188007
 31
0.0
  0
LINE
  5
2A9B
330
1F
100
AcDbEntity
  8
CENTER
100
AcDbLine
 10
193.5004481423812
 20
486.7466552188006
 30
0.0
 11
193.5004481423812
 21
464.9466552188007
 31
0.0
  0
LINE
  5
2A9C
330
1F
100
AcDbEntity
  8
CENTER
100
AcDbLine
 10
193.5004481423812
 20
458.8466552188008
 30
0.0
 11
193.5004481423812
 21
462.1466552188008
 31
0.0
  0
LINE
  5
2A9D
330
1F
100
AcDbEntity
  8
CENTER
100
AcDbLine
 10
193.5004481423812
 20
451.9466552188007
 30
0.0
 11
193.5004481423812
 21
455.2466552188008
 31
0.0
  0
LINE
  5
2A9E
330
1F
100
AcDbEntity
  8
CENTER
100
AcDbLine
 10
195.3004481423812
 20
457.0466552188007
 30
0.0
 11
198.6004481423812
 21
457.0466552188007
 31
0.0
  0
LINE
  5
2A9F
330
1F
100
AcDbEntity
  8
CENTER
100
AcDbLine
 10
188.4004481423813
 20
457.0466552188007
 30
0.0
 11
191.7004481423812
 21
457.0466552188007
 31
0.0
  0
LINE
  5
2AA0
330
1F
100
AcDbEntity
  8
CENTER
100
AcDbLine
 10
193.5004481423812
 20
456.0466552188008
 30
0.0
 11
193.5004481423812
 21
458.0466552188007
 31
0.0
  0
LINE
  5
2AA1
330
1F
100
AcDbEntity
  8
CENTER
100
AcDbLine
 10
192.5004481423813
 20
457.0466552188007
 30
0.0
 11
194.5004481423812
 21
457.0466552188007
 31
0.0
  0
LINE
  5
2AA2
330
1F
100
AcDbEntity
  8
CENTER
100
AcDbLine
 10
193.5004481423812
 20
457.8466552188008
 30
0.0
 11
193.5004481423812
 21
458.8966552188008
 31
0.0
  0
LINE
  5
2AA3
330
1F
100
AcDbEntity
  8
CENTER
100
AcDbLine
 10
193.5004481423812
 20
453.1966552188007
 30
0.0
 11
193.5004481423812
 21
454.2466552188008
 31
0.0
  0
LINE
  5
2AA4
330
1F
100
AcDbEntity
  8
CENTER
100
AcDbLine
 10
195.3004481423812
 20
456.0466552188008
 30
0.0
 11
196.3504481423812
 21
456.0466552188008
 31
0.0
  0
LINE
  5
2AA5
330
1F
100
AcDbEntity
  8
CENTER
100
AcDbLine
 10
190.6504481423812
 20
456.0466552188008
 30
0.0
 11
191.7004481423812
 21
456.0466552188008
 31
0.0
  0
LINE
  5
2AA6
330
1F
100
AcDbEntity
  8
CENTER
100
AcDbLine
 10
193.5004481423812
 20
455.0466552188007
 30
0.0
 11
193.5004481423812
 21
457.0466552188007
 31
0.0
  0
LINE
  5
2AA7
330
1F
100
AcDbEntity
  8
CENTER
100
AcDbLine
 10
192.5004481423813
 20
456.0466552188008
 30
0.0
 11
194.5004481423812
 21
456.0466552188008
 31
0.0
  0
LINE
  5
2AA8
330
1F
100
AcDbEntity
  8
CENTER
100
AcDbLine
 10
193.5004481423812
 20
433.0466552188007
 30
0.0
 11
193.5004481423812
 21
434.8966552188008
 31
0.0
  0
LINE
  5
2AA9
330
1F
100
AcDbEntity
  8
CENTER
100
AcDbLine
 10
193.5004481423812
 20
427.5966552188007
 30
0.0
 11
193.5004481423812
 21
429.4466552188008
 31
0.0
  0
LINE
  5
2AAA
330
1F
100
AcDbEntity
  8
CENTER
100
AcDbLine
 10
195.3004481423812
 20
431.2466552188007
 30
0.0
 11
197.1504481423812
 21
431.2466552188007
 31
0.0
  0
LINE
  5
2AAB
330
1F
100
AcDbEntity
  8
CENTER
100
AcDbLine
 10
189.8504481423812
 20
431.2466552188007
 30
0.0
 11
191.7004481423812
 21
431.2466552188007
 31
0.0
  0
LINE
  5
2AAC
330
1F
100
AcDbEntity
  8
CENTER
100
AcDbLine
 10
193.5004481423812
 20
430.2466552188008
 30
0.0
 11
193.5004481423812
 21
432.2466552188008
 31
0.0
  0
LINE
  5
2AAD
330
1F
100
AcDbEntity
  8
CENTER
100
AcDbLine
 10
192.5004481423812
 20
431.2466552188007
 30
0.0
 11
194.5004481423812
 21
431.2466552188007
 31
0.0
  0
LINE
  5
2AAE
330
1F
100
AcDbEntity
  8
CENTER
100
AcDbLine
 10
205.5004481423813
 20
422.1466552188007
 30
0.0
 11
205.5004481423813
 21
425.6466552188007
 31
0.0
  0
LINE
  5
2AAF
330
1F
100
AcDbEntity
  8
CENTER
100
AcDbLine
 10
205.5004481423813
 20
415.0466552188007
 30
0.0
 11
205.5004481423813
 21
418.5466552188008
 31
0.0
  0
LINE
  5
2AB0
330
1F
100
AcDbEntity
  8
CENTER
100
AcDbLine
 10
207.3004481423812
 20
420.3466552188007
 30
0.0
 11
210.8004481423813
 21
420.3466552188007
 31
0.0
  0
LINE
  5
2AB1
330
1F
100
AcDbEntity
  8
CENTER
100
AcDbLine
 10
200.2004481423812
 20
420.3466552188007
 30
0.0
 11
203.7004481423812
 21
420.3466552188007
 31
0.0
  0
LINE
  5
2AB2
330
1F
100
AcDbEntity
  8
CENTER
100
AcDbLine
 10
205.5004481423813
 20
419.3466552188008
 30
0.0
 11
205.5004481423813
 21
421.3466552188007
 31
0.0
  0
LINE
  5
2AB3
330
1F
100
AcDbEntity
  8
CENTER
100
AcDbLine
 10
204.5004481423812
 20
420.3466552188007
 30
0.0
 11
206.5004481423812
 21
420.3466552188007
 31
0.0
  0
LINE
  5
2AB4
330
1F
100
AcDbEntity
  8
CENTER
100
AcDbLine
 10
182.5004481423812
 20
405.1466552188007
 30
0.0
 11
182.5004481423812
 21
408.6466552188007
 31
0.0
  0
LINE
  5
2AB5
330
1F
100
AcDbEntity
  8
CENTER
100
AcDbLine
 10
182.5004481423812
 20
398.0466552188007
 30
0.0
 11
182.5004481423812
 21
401.5466552188007
 31
0.0
  0
LINE
  5
2AB6
330
1F
100
AcDbEntity
  8
CENTER
100
AcDbLine
 10
184.3004481423813
 20
403.3466552188007
 30
0.0
 11
187.8004481423813
 21
403.3466552188007
 31
0.0
  0
LINE
  5
2AB7
330
1F
100
AcDbEntity
  8
CENTER
100
AcDbLine
 10
177.2004481423812
 20
403.3466552188007
 30
0.0
 11
180.7004481423812
 21
403.3466552188007
 31
0.0
  0
LINE
  5
2AB8
330
1F
100
AcDbEntity
  8
CENTER
100
AcDbLine
 10
182.5004481423812
 20
402.3466552188008
 30
0.0
 11
182.5004481423812
 21
404.3466552188007
 31
0.0
  0
LINE
  5
2AB9
330
1F
100
AcDbEntity
  8
CENTER
100
AcDbLine
 10
181.5004481423812
 20
403.3466552188007
 30
0.0
 11
183.5004481423812
 21
403.3466552188007
 31
0.0
  0
LINE
  5
2B10
330
1F
100
AcDbEntity
  8
CENTER
100
AcDbLine
 10
93.57571104823236
 20
478.9466552188007
 30
0.0
 11
93.57571104823236
 21
479.2466552188007
 31
0.0
  0
LINE
  5
2B11
330
1F
100
AcDbEntity
  8
CENTER
100
AcDbLine
 10
93.57571104823236
 20
475.0466552188007
 30
0.0
 11
93.57571104823236
 21
475.3466552188007
 31
0.0
  0
LINE
  5
2B12
330
1F
100
AcDbEntity
  8
CENTER
100
AcDbLine
 10
95.37571104823237
 20
477.1466552188008
 30
0.0
 11
95.67571104823235
 21
477.1466552188008
 31
0.0
  0
LINE
  5
2B13
330
1F
100
AcDbEntity
  8
CENTER
100
AcDbLine
 10
91.47571104823237
 20
477.1466552188008
 30
0.0
 11
91.77571104823236
 21
477.1466552188008
 31
0.0
  0
LINE
  5
2B14
330
1F
100
AcDbEntity
  8
CENTER
100
AcDbLine
 10
93.57571104823236
 20
476.1466552188007
 30
0.0
 11
93.57571104823236
 21
478.1466552188008
 31
0.0
  0
LINE
  5
2B15
330
1F
100
AcDbEntity
  8
CENTER
100
AcDbLine
 10
92.57571104823236
 20
477.1466552188008
 30
0.0
 11
94.57571104823236
 21
477.1466552188008
 31
0.0
  0
LINE
  5
2B16
330
1F
100
AcDbEntity
  8
CENTER
100
AcDbLine
 10
91.07571104823234
 20
478.9466552188007
 30
0.0
 11
91.07571104823234
 21
479.2466552188007
 31
0.0
  0
LINE
  5
2B17
330
1F
100
AcDbEntity
  8
CENTER
100
AcDbLine
 10
91.07571104823234
 20
475.0466552188007
 30
0.0
 11
91.07571104823234
 21
475.3466552188007
 31
0.0
  0
LINE
  5
2B18
330
1F
100
AcDbEntity
  8
CENTER
100
AcDbLine
 10
92.87571104823234
 20
477.1466552188008
 30
0.0
 11
93.17571104823235
 21
477.1466552188008
 31
0.0
  0
LINE
  5
2B19
330
1F
100
AcDbEntity
  8
CENTER
100
AcDbLine
 10
88.97571104823235
 20
477.1466552188008
 30
0.0
 11
89.27571104823234
 21
477.1466552188008
 31
0.0
  0
LINE
  5
2B1A
330
1F
100
AcDbEntity
  8
CENTER
100
AcDbLine
 10
91.07571104823234
 20
476.1466552188007
 30
0.0
 11
91.07571104823234
 21
478.1466552188008
 31
0.0
  0
LINE
  5
2B1B
330
1F
100
AcDbEntity
  8
CENTER
100
AcDbLine
 10
90.07571104823234
 20
477.1466552188008
 30
0.0
 11
92.07571104823236
 21
477.1466552188008
 31
0.0
  0
LINE
  5
2B1C
330
1F
100
AcDbEntity
  8
CENTER
100
AcDbLine
 10
100.3666940538574
 20
477.1466552188008
 30
0.0
 11
84.28472804260731
 21
477.1466552188008
 31
0.0
  0
LINE
  5
2B1D
330
1F
100
AcDbEntity
  8
CENTER
100
AcDbLine
 10
92.32571104823234
 20
481.1466552188007
 30
0.0
 11
92.32571104823234
 21
469.9466552188007
 31
0.0
  0
LINE
  5
2B1E
330
1F
100
AcDbEntity
  8
CENTER
100
AcDbLine
 10
131.3257110482323
 20
486.7466552188006
 30
0.0
 11
131.3257110482323
 21
464.9466552188007
 31
0.0
  0
LINE
  5
2B1F
330
1F
100
AcDbEntity
  8
CENTER
100
AcDbLine
 10
106.4257110482323
 20
431.2466552188007
 30
0.0
 11
98.72571104823231
 21
431.2466552188007
 31
0.0
  0
LINE
  5
2B20
330
1F
100
AcDbEntity
  8
CENTER
100
AcDbLine
 10
71.82571104823232
 20
548.8393477126873
 30
0.0
 11
71.82571104823232
 21
551.2393477126872
 31
0.0
  0
LINE
  5
2B21
330
1F
100
AcDbEntity
  8
CENTER
100
AcDbLine
 10
71.82571104823232
 20
542.8393477126872
 30
0.0
 11
71.82571104823232
 21
545.2393477126872
 31
0.0
  0
LINE
  5
2B22
330
1F
100
AcDbEntity
  8
CENTER
100
AcDbLine
 10
73.62571104823231
 20
547.0393477126872
 30
0.0
 11
76.02571104823231
 21
547.0393477126872
 31
0.0
  0
LINE
  5
2B23
330
1F
100
AcDbEntity
  8
CENTER
100
AcDbLine
 10
67.62571104823233
 20
547.0393477126872
 30
0.0
 11
70.02571104823232
 21
547.0393477126872
 31
0.0
  0
LINE
  5
2B24
330
1F
100
AcDbEntity
  8
CENTER
100
AcDbLine
 10
71.82571104823232
 20
546.0393477126872
 30
0.0
 11
71.82571104823232
 21
548.0393477126872
 31
0.0
  0
LINE
  5
2B25
330
1F
100
AcDbEntity
  8
CENTER
100
AcDbLine
 10
70.82571104823232
 20
547.0393477126872
 30
0.0
 11
72.82571104823232
 21
547.0393477126872
 31
0.0
  0
LINE
  5
2B26
330
1F
100
AcDbEntity
  8
CENTER
100
AcDbLine
 10
92.32571104823234
 20
560.8393477126873
 30
0.0
 11
92.32571104823234
 21
570.6393477126873
 31
0.0
  0
LINE
  5
2B27
330
1F
100
AcDbEntity
  8
CENTER
100
AcDbLine
 10
92.32571104823234
 20
547.4393477126873
 30
0.0
 11
92.32571104823234
 21
557.2393477126873
 31
0.0
  0
LINE
  5
2B28
330
1F
100
AcDbEntity
  8
CENTER
100
AcDbLine
 10
94.12571104823234
 20
559.0393477126873
 30
0.0
 11
103.9257110482323
 21
559.0393477126873
 31
0.0
  0
LINE
  5
2B29
330
1F
100
AcDbEntity
  8
CENTER
100
AcDbLine
 10
80.72571104823236
 20
559.0393477126873
 30
0.0
 11
90.52571104823234
 21
559.0393477126873
 31
0.0
  0
LINE
  5
2B2A
330
1F
100
AcDbEntity
  8
CENTER
100
AcDbLine
 10
92.32571104823234
 20
558.0393477126873
 30
0.0
 11
92.32571104823234
 21
560.0393477126873
 31
0.0
  0
LINE
  5
2B2B
330
1F
100
AcDbEntity
  8
CENTER
100
AcDbLine
 10
91.32571104823234
 20
559.0393477126873
 30
0.0
 11
93.32571104823234
 21
559.0393477126873
 31
0.0
  0
LINE
  5
2B2C
330
1F
100
AcDbEntity
  8
CENTER
100
AcDbLine
 10
92.32571104823234
 20
542.5393477126873
 30
0.0
 11
92.32571104823234
 21
551.8393477126872
 31
0.0
  0
LINE
  5
2B2D
330
1F
100
AcDbEntity
  8
CENTER
100
AcDbLine
 10
131.3257110482323
 20
560.8393477126873
 30
0.0
 11
131.3257110482323
 21
569.6393477126873
 31
0.0
  0
LINE
  5
2B2E
330
1F
100
AcDbEntity
  8
CENTER
100
AcDbLine
 10
131.3257110482323
 20
548.4393477126872
 30
0.0
 11
131.3257110482323
 21
557.2393477126873
 31
0.0
  0
LINE
  5
2B2F
330
1F
100
AcDbEntity
  8
CENTER
100
AcDbLine
 10
133.1257110482323
 20
559.0393477126873
 30
0.0
 11
141.9257110482323
 21
559.0393477126873
 31
0.0
  0
LINE
  5
2B30
330
1F
100
AcDbEntity
  8
CENTER
100
AcDbLine
 10
120.7257110482323
 20
559.0393477126873
 30
0.0
 11
129.5257110482323
 21
559.0393477126873
 31
0.0
  0
LINE
  5
2B31
330
1F
100
AcDbEntity
  8
CENTER
100
AcDbLine
 10
131.3257110482323
 20
558.0393477126873
 30
0.0
 11
131.3257110482323
 21
560.0393477126873
 31
0.0
  0
LINE
  5
2B32
330
1F
100
AcDbEntity
  8
CENTER
100
AcDbLine
 10
130.3257110482323
 20
559.0393477126873
 30
0.0
 11
132.3257110482323
 21
559.0393477126873
 31
0.0
  0
LINE
  5
2B33
330
1F
100
AcDbEntity
  8
CENTER
100
AcDbLine
 10
53.82571104823232
 20
569.3393477126873
 30
0.0
 11
53.82571104823232
 21
570.5393477126872
 31
0.0
  0
LINE
  5
2B34
330
1F
100
AcDbEntity
  8
CENTER
100
AcDbLine
 10
55.62571104823232
 20
567.5393477126872
 30
0.0
 11
56.82571104823232
 21
567.5393477126872
 31
0.0
  0
LINE
  5
2B35
330
1F
100
AcDbEntity
  8
CENTER
100
AcDbLine
 10
50.82571104823232
 20
567.5393477126872
 30
0.0
 11
52.02571104823232
 21
567.5393477126872
 31
0.0
  0
LINE
  5
2B36
330
1F
100
AcDbEntity
  8
CENTER
100
AcDbLine
 10
53.82571104823232
 20
566.5393477126872
 30
0.0
 11
53.82571104823232
 21
568.5393477126872
 31
0.0
  0
LINE
  5
2B37
330
1F
100
AcDbEntity
  8
CENTER
100
AcDbLine
 10
52.82571104823232
 20
567.5393477126872
 30
0.0
 11
54.82571104823232
 21
567.5393477126872
 31
0.0
  0
LINE
  5
2B38
330
1F
100
AcDbEntity
  8
CENTER
100
AcDbLine
 10
53.82571104823232
 20
565.8393477126873
 30
0.0
 11
53.82571104823232
 21
568.1393477126873
 31
0.0
  0
LINE
  5
2B39
330
1F
100
AcDbEntity
  8
CENTER
100
AcDbLine
 10
35.82571104823233
 20
548.8393477126873
 30
0.0
 11
35.82571104823233
 21
551.2393477126872
 31
0.0
  0
LINE
  5
2B3A
330
1F
100
AcDbEntity
  8
CENTER
100
AcDbLine
 10
35.82571104823233
 20
542.8393477126872
 30
0.0
 11
35.82571104823233
 21
545.2393477126872
 31
0.0
  0
LINE
  5
2B3B
330
1F
100
AcDbEntity
  8
CENTER
100
AcDbLine
 10
37.62571104823232
 20
547.0393477126872
 30
0.0
 11
40.02571104823232
 21
547.0393477126872
 31
0.0
  0
LINE
  5
2B3C
330
1F
100
AcDbEntity
  8
CENTER
100
AcDbLine
 10
31.62571104823232
 20
547.0393477126872
 30
0.0
 11
34.02571104823232
 21
547.0393477126872
 31
0.0
  0
LINE
  5
2B3D
330
1F
100
AcDbEntity
  8
CENTER
100
AcDbLine
 10
35.82571104823233
 20
546.0393477126872
 30
0.0
 11
35.82571104823233
 21
548.0393477126872
 31
0.0
  0
LINE
  5
2B3E
330
1F
100
AcDbEntity
  8
CENTER
100
AcDbLine
 10
34.82571104823233
 20
547.0393477126872
 30
0.0
 11
36.82571104823233
 21
547.0393477126872
 31
0.0
  0
LINE
  5
2B3F
330
1F
100
AcDbEntity
  8
CENTER
100
AcDbLine
 10
44.82571104823231
 20
576.8393477126872
 30
0.0
 11
44.82571104823231
 21
579.2393477126872
 31
0.0
  0
LINE
  5
2B40
330
1F
100
AcDbEntity
  8
CENTER
100
AcDbLine
 10
44.82571104823231
 20
570.8393477126873
 30
0.0
 11
44.82571104823231
 21
573.2393477126873
 31
0.0
  0
LINE
  5
2B41
330
1F
100
AcDbEntity
  8
CENTER
100
AcDbLine
 10
46.62571104823231
 20
575.0393477126872
 30
0.0
 11
49.02571104823232
 21
575.0393477126872
 31
0.0
  0
LINE
  5
2B42
330
1F
100
AcDbEntity
  8
CENTER
100
AcDbLine
 10
40.62571104823232
 20
575.0393477126872
 30
0.0
 11
43.02571104823232
 21
575.0393477126872
 31
0.0
  0
LINE
  5
2B43
330
1F
100
AcDbEntity
  8
CENTER
100
AcDbLine
 10
44.82571104823231
 20
574.0393477126872
 30
0.0
 11
44.82571104823231
 21
576.0393477126872
 31
0.0
  0
LINE
  5
2B44
330
1F
100
AcDbEntity
  8
CENTER
100
AcDbLine
 10
43.82571104823232
 20
575.0393477126872
 30
0.0
 11
45.82571104823232
 21
575.0393477126872
 31
0.0
  0
LINE
  5
2B45
330
1F
100
AcDbEntity
  8
CENTER
100
AcDbLine
 10
62.82571104823232
 20
576.8393477126872
 30
0.0
 11
62.82571104823232
 21
579.2393477126872
 31
0.0
  0
LINE
  5
2B46
330
1F
100
AcDbEntity
  8
CENTER
100
AcDbLine
 10
62.82571104823232
 20
570.8393477126873
 30
0.0
 11
62.82571104823232
 21
573.2393477126873
 31
0.0
  0
LINE
  5
2B47
330
1F
100
AcDbEntity
  8
CENTER
100
AcDbLine
 10
64.62571104823232
 20
575.0393477126872
 30
0.0
 11
67.02571104823232
 21
575.0393477126872
 31
0.0
  0
LINE
  5
2B48
330
1F
100
AcDbEntity
  8
CENTER
100
AcDbLine
 10
58.62571104823231
 20
575.0393477126872
 30
0.0
 11
61.02571104823232
 21
575.0393477126872
 31
0.0
  0
LINE
  5
2B49
330
1F
100
AcDbEntity
  8
CENTER
100
AcDbLine
 10
62.82571104823232
 20
574.0393477126872
 30
0.0
 11
62.82571104823232
 21
576.0393477126872
 31
0.0
  0
LINE
  5
2B4A
330
1F
100
AcDbEntity
  8
CENTER
100
AcDbLine
 10
61.82571104823232
 20
575.0393477126872
 30
0.0
 11
63.82571104823232
 21
575.0393477126872
 31
0.0
  0
DIMENSION
  5
30EB
330
1F
100
AcDbEntity
  8
DIM
100
AcDbDimension
  2
*D17
 10
138.3257110482323
 20
380.8279274071028
 30
0.0
 11
79.07571104823233
 21
385.4279274071028
 31
0.0
 70
    32
  1
<>
  3
STANDARD
100
AcDbAlignedDimension
 13
19.82571104823233
 23
399.6466552188008
 33
0.0
 14
138.3257110482323
 24
446.0466552188007
 34
0.0
 50
0.0000000000001132
100
AcDbRotatedDimension
1001
GENIUS_GENDTOL_13
1000

1000
h7
1000

1040
0.0
1001
ACAD
1000
DSTYLE
1002
{
1070
    41
1040
3.0
1070
    42
1040
2.0
1070
    43
1040
2.0
1070
    44
1040
1.6
1070
    48
1040
0.000000001
1070
    73
1070
     0
1070
    74
1070
     0
1070
    77
1070
     1
1070
    78
1070
     8
1070
    79
1070
     2
1070
   140
1040
3.0
1070
   141
1040
2.0
1070
   146
1040
0.6
1070
   147
1040
0.8
1070
   172
1070
     1
1070
   176
1070
   256
1070
   177
1070
   256
1070
   178
1070
   256
1070
   271
1070
     2
1070
   340
1005
2424
1070
   371
1070
    -1
1070
   372
1070
    -1
1002
}
  0
TEXT
  5
3985
330
1F
100
AcDbEntity
  8
DIM
100
AcDbText
 10
409.0289726105932
 20
580.776481623152
 30
0.0
 40
4.0
  1

  7
DAYUS
100
AcDbText
  0
POLYLINE
  5
4965
330
1F
100
AcDbEntity
  8
0
 62
     4
100
AcDb2dPolyline
 66
     1
 10
0.0
 20
0.0
 30
0.0
 70
     1
  0
VERTEX
  5
4B9D
330
4965
100
AcDbEntity
  8
0
 62
     4
100
AcDbVertex
100
AcDb2dVertex
 10
-20.63340080252737
 20
695.2917865409683
 30
0.0
  0
VERTEX
  5
4B9E
330
4965
100
AcDbEntity
  8
0
 62
     4
100
AcDbVertex
100
AcDb2dVertex
 10
270.6823452458402
 20
695.2917865409683
 30
0.0
  0
VERTEX
  5
4B9F
330
4965
100
AcDbEntity
  8
0
 62
     4
100
AcDbVertex
100
AcDb2dVertex
 10
270.6823452458402
 20
351.9183450280531
 30
0.0
  0
VERTEX
  5
4BA0
330
4965
100
AcDbEntity
  8
0
 62
     4
100
AcDbVertex
100
AcDb2dVertex
 10
-20.63340080252737
 20
351.9183450280531
 30
0.0
  0
SEQEND
  5
4BA1
330
4965
100
AcDbEntity
  8
0
 62
     4
  0
TEXT
  5
496F
330
1F
100
AcDbEntity
  8
LOGO
 62
     6
100
AcDbText
 10
40.41053810929587
 20
331.9734910454886
 30
0.0
 40
3.626337087739015
  1
m/m
  7
CHINESET
 72
     1
 11
46.79979869245508
 21
333.7866595893581
 31
0.0
100
AcDbText
 73
     2
  0
TEXT
  5
4970
330
1F
100
AcDbEntity
  8
LOGO
 62
     6
100
AcDbText
 10
40.41053810929587
 20
346.4788393964447
 30
0.0
 40
3.626337087739015
  1
1 : 1
  7
CHINESET
 72
     1
 11
46.79979869245508
 21
348.2920079403141
 31
0.0
100
AcDbText
 73
     2
  0
TEXT
  5
4971
330
1F
100
AcDbEntity
  8
LOGO
 62
     6
100
AcDbText
 10
10.57198532436013
 20
331.9734910454886
 30
0.0
 40
3.626337087739015
  1
單位 Unit:
 41
0.9
  7
CHINESET
 72
     4
 11
20.46508619184812
 21
333.7866595893581
 31
0.0
100
AcDbText
  0
TEXT
  5
4972
330
1F
100
AcDbEntity
  8
LOGO
 62
     6
100
AcDbText
 10
8.949847037791153
 20
346.4806240111532
 30
0.0
 40
3.626337087739015
  1
比例 Scale:
 41
0.9
  7
CHINESET
 72
     4
 11
20.46508619184812
 21
348.2920079403141
 31
0.0
100
AcDbText
  0
LINE
  5
4973
330
1F
100
AcDbEntity
  8
LOGO
 62
     1
100
AcDbLine
 10
270.6823452458402
 20
315.654974150663
 30
0.0
 11
270.6823452458402
 21
351.9183450280531
 31
0.0
  0
LINE
  5
4974
330
1F
100
AcDbEntity
  8
LOGO
 62
     1
100
AcDbLine
 10
34.9704345428042
 20
330.160322501619
 30
0.0
 11
34.9704345428042
 21
351.9183450280531
 31
0.0
  0
LINE
  5
4975
330
1F
100
AcDbEntity
  8
LOGO
 62
     1
100
AcDbLine
 10
59.14601512773093
 20
344.6656708525751
 30
0.0
 11
5.959737840892071
 21
344.6656708525751
 31
0.0
  0
LINE
  5
4976
330
1F
100
AcDbEntity
  8
LOGO
 62
     1
100
AcDbLine
 10
59.14601512773093
 20
337.4129966770971
 30
0.0
 11
5.959737840892071
 21
337.4129966770971
 31
0.0
  0
LINE
  5
4977
330
1F
100
AcDbEntity
  8
LOGO
 62
     1
100
AcDbLine
 10
-20.63340080252737
 20
315.654974150663
 30
0.0
 11
-20.63340080252737
 21
351.9183450280531
 31
0.0
  0
LINE
  5
4978
330
1F
100
AcDbEntity
  8
LOGO
 62
     1
100
AcDbLine
 10
59.14601512773093
 20
330.1603225016191
 30
0.0
 11
-20.63340080252741
 21
330.1603225016191
 31
0.0
  0
TEXT
  5
4979
330
1F
100
AcDbEntity
  8
LOGO
 62
     6
100
AcDbText
 10
10.21744611801422
 20
339.2771754580522
 30
0.0
 40
3.626337087739015
  1
投影 View:
 41
0.9
  7
CHINESET
 72
     4
 11
20.46508619184812
 21
341.0393337648361
 31
0.0
100
AcDbText
  0
CIRCLE
  5
497A
330
1F
100
AcDbEntity
  8
LOGO
  6
CONTINUOUS
 62
     6
100
AcDbCircle
 10
41.68505123582598
 20
341.0470905264036
 30
0.0
 40
2.105536667494626
  0
CIRCLE
  5
497B
330
1F
100
AcDbEntity
  8
LOGO
  6
CONTINUOUS
 62
     6
100
AcDbCircle
 10
41.68505123582598
 20
341.0470905264036
 30
0.0
 40
1.23365809453652
  0
LINE
  5
497C
330
1F
100
AcDbEntity
  8
LOGO
  6
CONTINUOUS
 62
     6
100
AcDbLine
 10
48.31575138148155
 20
342.2807486209401
 30
0.0
 11
54.91648797050569
 21
343.1526271938983
 31
0.0
  0
LINE
  5
497D
330
1F
100
AcDbEntity
  8
LOGO
  6
CONTINUOUS
 62
     6
100
AcDbLine
 10
48.31575138148155
 20
339.8134324318671
 30
0.0
 11
54.91648797050569
 21
338.941553858909
 31
0.0
  0
LINE
  5
497E
330
1F
100
AcDbEntity
  8
LOGO
 62
     6
100
AcDbLine
 10
48.31575138148162
 20
339.8134324318671
 30
0.0
 11
48.31575138148155
 21
342.2807486209401
 31
0.0
  0
LINE
  5
497F
330
1F
100
AcDbEntity
  8
LOGO
 62
     6
100
AcDbLine
 10
54.91648797050569
 20
338.941553858909
 30
0.0
 11
54.91648797050569
 21
343.1526271938983
 31
0.0
  0
LINE
  5
4980
330
1F
100
AcDbEntity
  8
LOGO
 62
     6
100
AcDbLine
 10
218.9405461123384
 20
331.9734910454887
 30
0.0
 11
190.3427463757411
 21
331.9734910454887
 31
0.0
  0
LINE
  5
4981
330
1F
100
AcDbEntity
  8
LOGO
 62
     6
100
AcDbLine
 10
200.8088606736433
 20
337.4129966770972
 30
0.0
 11
190.3427463757411
 21
337.4129966770972
 31
0.0
  0
LINE
  5
4982
330
1F
100
AcDbEntity
  8
LOGO
 62
     6
100
AcDbLine
 10
218.9405461123384
 20
318.6769217237789
 30
0.0
 11
190.3427463757411
 21
318.6769217237789
 31
0.0
  0
LINE
  5
4983
330
1F
100
AcDbEntity
  8
LOGO
 62
     6
100
AcDbLine
 10
218.9405461123384
 20
331.9734910454887
 30
0.0
 11
218.9405461123384
 21
318.6267848407731
 31
0.0
  0
LINE
  5
4984
330
1F
100
AcDbEntity
  8
LOGO
 62
     6
100
AcDbLine
 10
238.0010543584882
 20
318.6769217237789
 30
0.0
 11
221.9847322209743
 21
318.6769217237789
 31
0.0
  0
TEXT
  5
4985
330
1F
100
AcDbEntity
  8
LOGO
 62
     6
100
AcDbText
 10
225.5959595708477
 20
325.376761920658
 30
0.0
 40
4.835116116985354
  1
電壓
 41
0.9
  7
CHINESET
 72
     4
 11
229.9928932897312
 21
327.7427644431264
 31
0.0
100
AcDbText
  0
LINE
  5
4986
330
1F
100
AcDbEntity
  8
LOGO
 62
     6
100
AcDbLine
 10
240.2271198676726
 20
337.4129966770971
 30
0.0
 11
209.2139041639557
 21
337.4129966770971
 31
0.0
  0
LINE
  5
4987
330
1F
100
AcDbEntity
  8
LOGO
 62
     6
100
AcDbLine
 10
238.0010543584882
 20
331.9734910454887
 30
0.0
 11
221.9847322209743
 21
331.9734910454887
 31
0.0
  0
TEXT
  5
4988
330
1F
100
AcDbEntity
  8
LOGO
 62
     6
100
AcDbText
 10
118.6949045534486
 20
325.448939671092
 30
0.0
 40
4.835116116985354
  1
型式
  7
CHINESET
 72
     4
 11
123.5300206704339
 21
327.7427644431264
 31
0.0
100
AcDbText
  0
TEXT
  5
4989
330
1F
100
AcDbEntity
  8
LOGO
 62
     7
100
AcDbText
 10
61.24688948033228
 20
336.031979320653
 30
0.0
 40
4.835116116985354
  1
Order example:
 41
0.8
  7
CHINESET
100
AcDbText
  0
LINE
  5
498A
330
1F
100
AcDbEntity
  8
LOGO
 62
     6
100
AcDbLine
 10
190.3427463757411
 20
331.9734910454887
 30
0.0
 11
190.3427463757411
 21
318.6769217237789
 31
0.0
  0
LINE
  5
498B
330
1F
100
AcDbEntity
  8
LOGO
 62
     6
100
AcDbLine
 10
166.0022262424351
 20
331.9734910454885
 30
0.0
 11
166.0022262424351
 21
318.6769217237789
 31
0.0
  0
LINE
  5
498C
330
1F
100
AcDbEntity
  8
LOGO
 62
     6
100
AcDbLine
 10
139.3421163849727
 20
331.9734910454885
 30
0.0
 11
139.3421163849727
 21
318.6769217237789
 31
0.0
  0
LINE
  5
498D
330
1F
100
AcDbEntity
  8
LOGO
 62
     6
100
AcDbLine
 10
166.0022262424351
 20
318.6769217237789
 30
0.0
 11
139.3421163849727
 21
318.6769217237789
 31
0.0
  0
LINE
  5
498E
330
1F
100
AcDbEntity
  8
LOGO
 62
     6
100
AcDbLine
 10
195.5758035246923
 20
337.4129966770972
 30
0.0
 11
195.5758035246923
 21
334.693243861293
 31
0.0
  0
TEXT
  5
498F
330
1F
100
AcDbEntity
  8
LOGO
 62
     6
100
AcDbText
 10
198.204897913303
 20
325.3252063846338
 30
0.0
 40
4.835116116985354
  1
單線圈
 41
0.9
  7
CHINESET
 72
     4
 11
204.6416462440398
 21
327.7427644431265
 31
0.0
100
AcDbText
  0
LINE
  5
4990
330
1F
100
AcDbEntity
  8
LOGO
 62
     6
100
AcDbLine
 10
166.0022262424351
 20
331.9734910454885
 30
0.0
 11
139.3421163849727
 21
331.9734910454885
 31
0.0
  0
LINE
  5
4991
330
1F
100
AcDbEntity
  8
LOGO
 62
     6
100
AcDbLine
 10
173.2549004179131
 20
337.4129966770971
 30
0.0
 11
146.5947905604507
 21
337.4129966770971
 31
0.0
  0
LINE
  5
4992
330
1F
100
AcDbEntity
  8
LOGO
 62
     6
100
AcDbLine
 10
159.9248454891819
 20
337.4129966770971
 30
0.0
 11
159.9248454891819
 21
334.6932438612928
 31
0.0
  0
TEXT
  5
4993
330
1F
100
AcDbEntity
  8
LOGO
 62
     6
100
AcDbText
 10
143.0019390797332
 20
325.4102730190738
 30
0.0
 40
4.835116116985354
  1
本體寬幅
  7
CHINESET
 72
     4
 11
152.6721713137039
 21
327.7427644431264
 31
0.0
100
AcDbText
  0
LINE
  5
4994
330
1F
100
AcDbEntity
  8
LOGO
 62
     6
100
AcDbLine
 10
123.5300206704339
 20
337.4129966770971
 30
0.0
 11
123.5300206704339
 21
331.9734910454885
 31
0.0
  0
LINE
  5
4995
330
1F
100
AcDbEntity
  8
LOGO
 62
     6
100
AcDbLine
 10
111.4422303779706
 20
331.9734910454885
 30
0.0
 11
111.4422303779706
 21
318.6769217237789
 31
0.0
  0
TEXT
  5
4996
330
1F
100
AcDbEntity
  8
LOGO
 62
     7
100
AcDbText
 10
62.11434929650289
 20
342.8388216898021
 30
0.0
 40
7.252674175478031
  1
訂購代號:
  7
CHINESET
100
AcDbText
  0
LINE
  5
4997
330
1F
100
AcDbEntity
  8
LOGO
 62
     6
100
AcDbLine
 10
238.0010543584882
 20
331.9734910454887
 30
0.0
 11
238.0010543584882
 21
318.6769217237789
 31
0.0
  0
LINE
  5
4998
330
1F
100
AcDbEntity
  8
LOGO
  6
CONTINUOUS
 62
     7
100
AcDbLine
 10
202.6220292175129
 20
342.8525023087057
 30
0.0
 11
207.4258036338674
 21
342.8525023087057
 31
0.0
  0
LINE
  5
4999
330
1F
100
AcDbEntity
  8
LOGO
 62
     6
100
AcDbLine
 10
229.9928932897312
 20
334.6932438612928
 30
0.0
 11
229.9928932897312
 21
331.9734910454887
 31
0.0
  0
LINE
  5
499A
330
1F
100
AcDbEntity
  8
LOGO
 62
     6
100
AcDbLine
 10
200.8088606736434
 20
348.2920079403143
 30
0.0
 11
190.3427463757411
 21
348.2920079403143
 31
0.0
  0
LINE
  5
499B
330
1F
100
AcDbEntity
  8
LOGO
 62
     6
100
AcDbLine
 10
240.2271198676726
 20
348.2920079403143
 30
0.0
 11
209.2139041639557
 21
348.2920079403143
 31
0.0
  0
LINE
  5
499C
330
1F
100
AcDbEntity
  8
LOGO
 62
     6
100
AcDbLine
 10
173.2549004179131
 20
348.2920079403142
 30
0.0
 11
146.5947905604507
 21
348.2920079403141
 31
0.0
  0
LINE
  5
499D
330
1F
100
AcDbEntity
  8
LOGO
 62
     6
100
AcDbLine
 10
109.0246723194779
 20
348.2920079403141
 30
0.0
 11
109.0246723194779
 21
337.4129966770971
 31
0.0
  0
LINE
  5
499E
330
1F
100
AcDbEntity
  8
LOGO
 62
     6
100
AcDbLine
 10
146.5947905604507
 20
348.2920079403141
 30
0.0
 11
146.5947905604507
 21
337.4129966770971
 31
0.0
  0
LINE
  5
499F
330
1F
100
AcDbEntity
  8
LOGO
 62
     6
100
AcDbLine
 10
173.2549004179131
 20
348.2920079403142
 30
0.0
 11
173.2549004179131
 21
337.4129966770971
 31
0.0
  0
LINE
  5
49A0
330
1F
100
AcDbEntity
  8
LOGO
 62
     6
100
AcDbLine
 10
200.8088606736434
 20
348.2920079403143
 30
0.0
 11
200.8088606736433
 21
337.4129966770972
 31
0.0
  0
LINE
  5
49A1
330
1F
100
AcDbEntity
  8
LOGO
 62
     6
100
AcDbLine
 10
209.2139041639556
 20
348.3305431174987
 30
0.0
 11
209.2139041639556
 21
337.4515318542816
 31
0.0
  0
LINE
  5
49A2
330
1F
100
AcDbEntity
  8
LOGO
 62
     6
100
AcDbLine
 10
240.2271198676726
 20
348.2920079403143
 30
0.0
 11
240.2271198676726
 21
337.4129966770971
 31
0.0
  0
TEXT
  5
49A3
330
1F
100
AcDbEntity
  8
LOGO
  6
CONTINUOUS
 62
     6
100
AcDbText
 10
191.34507692233
 20
320.6915534391895
 30
0.0
 40
3.021947573115846
  1
Single solenoid
 41
0.8
  7
CHINESET
 72
     4
 11
204.6416462440398
 21
321.6988692968948
 31
0.0
100
AcDbText
  0
TEXT
  5
49A4
330
1F
100
AcDbEntity
  8
LOGO
  6
CONTINUOUS
 62
     6
100
AcDbText
 10
223.603632706572
 20
320.6915534391894
 30
0.0
 40
3.021947573115846
  1
Voltage
 41
0.8
  7
CHINESET
 72
     4
 11
229.9928932897312
 21
321.6988692968947
 31
0.0
100
AcDbText
  0
TEXT
  5
49A5
330
1F
100
AcDbEntity
  8
LOGO
  6
CONTINUOUS
 62
     6
100
AcDbText
 10
140.5843810212405
 20
320.6915534391894
 30
0.0
 40
3.021947573115846
  1
Body width
  7
CHINESET
 72
     4
 11
152.6721713137039
 21
321.6988692968947
 31
0.0
100
AcDbText
  0
TEXT
  5
49A6
330
1F
100
AcDbEntity
  8
LOGO
  6
CONTINUOUS
 62
     6
100
AcDbText
 10
117.7739300549752
 20
320.1878955103367
 30
0.0
 40
3.021947573115846
  1
Model
  7
CHINESET
 72
     4
 11
123.5300206704339
 21
321.6988692968947
 31
0.0
100
AcDbText
  0
TEXT
  5
49A7
330
1F
100
AcDbEntity
  8
LOGO
  6
CONTINUOUS
 62
     7
100
AcDbText
 10
192.6862461914114
 20
339.762016583789
 30
0.0
 40
6.043895146231692
  1
E1
  7
CHINESET
 72
     1
 11
196.1399005606867
 21
342.7839641569048
 31
0.0
100
AcDbText
 73
     2
  0
TEXT
  5
49A8
330
1F
100
AcDbEntity
  8
LOGO
  6
CONTINUOUS
 62
     7
100
AcDbText
 10
152.1541231583126
 20
339.7620165837889
 30
0.0
 40
6.043895146231692
  1
260
  7
CHINESET
 72
     1
 11
159.9248454891819
 21
342.7839641569047
 31
0.0
100
AcDbText
 73
     2
  0
TEXT
  5
49A9
330
1F
100
AcDbEntity
  8
LOGO
  6
CONTINUOUS
 62
     7
100
AcDbText
 10
114.3202756856999
 20
339.8305547355898
 30
0.0
 40
6.043895146231692
  1
MVSI
  7
CHINESET
 72
     1
 11
123.5300206704339
 21
342.8525023087056
 31
0.0
100
AcDbText
 73
     2
  0
LINE
  5
49AA
330
1F
100
AcDbEntity
  8
LOGO
 62
     1
100
AcDbLine
 10
59.14601512773093
 20
315.654974150663
 30
0.0
 11
59.14601512773093
 21
351.9183450280531
 31
0.0
  0
LINE
  5
49AB
330
1F
100
AcDbEntity
  8
LOGO
 62
     1
100
AcDbLine
 10
270.6823452458402
 20
351.9183450280531
 30
0.0
 11
-20.63340080252737
 21
351.9183450280531
 31
0.0
  0
LINE
  5
49AC
330
1F
100
AcDbEntity
  8
LOGO
 62
     1
100
AcDbLine
 10
270.6823452458402
 20
315.654974150663
 30
0.0
 11
-20.63340080252737
 21
315.654974150663
 31
0.0
  0
LINE
  5
49AD
330
1F
100
AcDbEntity
  8
LOGO
 62
     6
100
AcDbLine
 10
138.03536902139
 20
348.2920079403141
 30
0.0
 11
138.03536902139
 21
337.4129966770971
 31
0.0
  0
LINE
  5
49AE
330
1F
100
AcDbEntity
  8
LOGO
 62
     6
100
AcDbLine
 10
135.6178109628974
 20
331.9734910454885
 30
0.0
 11
135.6178109628974
 21
318.6769217237789
 31
0.0
  0
LINE
  5
49AF
330
1F
100
AcDbEntity
  8
LOGO
 62
     6
100
AcDbLine
 10
138.03536902139
 20
348.2920079403141
 30
0.0
 11
109.0246723194779
 21
348.2920079403141
 31
0.0
  0
LINE
  5
49B0
330
1F
100
AcDbEntity
  8
LOGO
 62
     6
100
AcDbLine
 10
138.03536902139
 20
337.4129966770971
 30
0.0
 11
109.0246723194779
 21
337.4129966770971
 31
0.0
  0
LINE
  5
49B1
330
1F
100
AcDbEntity
  8
LOGO
 62
     6
100
AcDbLine
 10
135.6178109628973
 20
331.9734910454885
 30
0.0
 11
111.4422303779706
 21
331.9734910454885
 31
0.0
  0
LINE
  5
49B2
330
1F
100
AcDbEntity
  8
LOGO
 62
     6
100
AcDbLine
 10
135.6178109628973
 20
318.6769217237789
 30
0.0
 11
111.4422303779706
 21
318.6769217237789
 31
0.0
  0
TEXT
  5
49B3
330
1F
100
AcDbEntity
  8
LOGO
  6
CONTINUOUS
 62
     7
100
AcDbText
 10
223.6187606273291
 20
339.7620165837889
 30
0.0
 40
6.043895146231692
  1
?
  7
CHINESET
 72
     1
 11
225.2016855465802
 21
342.7839641569048
 31
0.0
100
AcDbText
 73
     2
  0
TEXT
  5
49B4
330
1F
100
AcDbEntity
  8
LOGO
  6
CONTINUOUS
 62
     7
100
AcDbText
 10
183.3156106709373
 20
339.8305547355898
 30
0.0
 40
6.043895146231692
  1
4
  7
CHINESET
 72
     1
 11
185.4741446517343
 21
342.8525023087057
 31
0.0
100
AcDbText
 73
     2
  0
LINE
  5
49B5
330
1F
100
AcDbEntity
  8
LOGO
 62
     6
100
AcDbLine
 10
189.1339673464948
 20
348.2920079403143
 30
0.0
 11
181.8143219569738
 21
348.2920079403142
 31
0.0
  0
LINE
  5
49B6
330
1F
100
AcDbEntity
  8
LOGO
 62
     6
100
AcDbLine
 10
189.1339673464948
 20
331.9734910454887
 30
0.0
 11
169.7265316645104
 21
331.9734910454887
 31
0.0
  0
LINE
  5
49B7
330
1F
100
AcDbEntity
  8
LOGO
 62
     6
100
AcDbLine
 10
189.1339673464948
 20
337.4129966770971
 30
0.0
 11
181.8143219569738
 21
337.4129966770971
 31
0.0
  0
TEXT
  5
49B8
330
1F
100
AcDbEntity
  8
LOGO
 62
     6
100
AcDbText
 10
171.2645154561475
 20
325.34186278858
 30
0.0
 40
4.835116116985354
  1
4 方向
 41
0.9
  7
CHINESET
 72
     4
 11
179.4302495055026
 21
327.7427644431264
 31
0.0
100
AcDbText
  0
LINE
  5
49B9
330
1F
100
AcDbEntity
  8
LOGO
 62
     6
100
AcDbLine
 10
189.1339673464948
 20
318.6769217237789
 30
0.0
 11
169.7265316645104
 21
318.6769217237789
 31
0.0
  0
TEXT
  5
49BA
330
1F
100
AcDbEntity
  8
LOGO
  6
CONTINUOUS
 62
     6
100
AcDbText
 10
173.9619634208168
 20
320.6915534391894
 30
0.0
 40
3.021947573115846
  1
4 Way
 41
0.8
  7
CHINESET
 72
     4
 11
179.4302495055026
 21
321.6988692968947
 31
0.0
100
AcDbText
  0
LINE
  5
49BB
330
1F
100
AcDbEntity
  8
LOGO
 62
     6
100
AcDbLine
 10
181.8143219569738
 20
348.2920079403142
 30
0.0
 11
181.8143219569738
 21
337.4129966770971
 31
0.0
  0
LINE
  5
49BC
330
1F
100
AcDbEntity
  8
LOGO
 62
     6
100
AcDbLine
 10
169.7265316645104
 20
331.9734910454887
 30
0.0
 11
169.7265316645104
 21
318.6769217237789
 31
0.0
  0
LINE
  5
49BD
330
1F
100
AcDbEntity
  8
LOGO
 62
     6
100
AcDbLine
 10
189.1339673464948
 20
348.2920079403143
 30
0.0
 11
189.1339673464948
 21
337.4129966770971
 31
0.0
  0
LINE
  5
49BE
330
1F
100
AcDbEntity
  8
LOGO
 62
     6
100
AcDbLine
 10
189.1339673464948
 20
331.9734910454887
 30
0.0
 11
189.1339673464948
 21
318.6769217237789
 31
0.0
  0
LINE
  5
49BF
330
1F
100
AcDbEntity
  8
LOGO
 62
     6
100
AcDbLine
 10
185.4741443730086
 20
337.4129966770971
 30
0.0
 11
185.4741443730086
 21
334.6932438612928
 31
0.0
  0
LINE
  5
49C0
330
1F
100
AcDbEntity
  8
LOGO
  6
CONTINUOUS
 62
     7
100
AcDbLine
 10
139.909659166883
 20
342.8139671315211
 30
0.0
 11
144.7134335832375
 21
342.8139671315211
 31
0.0
  0
LINE
  5
49C1
330
1F
100
AcDbEntity
  8
LOGO
  6
CONTINUOUS
 62
     7
100
AcDbLine
 10
175.1291905634061
 20
342.8139671315212
 30
0.0
 11
179.9329649797606
 21
342.8139671315212
 31
0.0
  0
LINE
  5
49C2
330
1F
100
AcDbEntity
  8
LOGO
 62
     1
100
AcDbLine
 10
5.959737840892071
 20
330.160322501619
 30
0.0
 11
5.959737840892071
 21
351.9183450280531
 31
0.0
  0
POLYLINE
  5
49C3
330
1F
100
AcDbEntity
  8
LOGO
 62
     5
100
AcDb2dPolyline
 66
     1
 10
0.0
 20
0.0
 30
0.0
 70
     1
  0
VERTEX
  5
4BA2
330
49C3
100
AcDbEntity
  8
LOGO
 62
     5
100
AcDbVertex
100
AcDb2dVertex
 10
-1.822429459088617
 20
332.1335925993403
 30
0.0
 42
1.000000057330635
  0
VERTEX
  5
4BA3
330
49C3
100
AcDbEntity
  8
LOGO
 62
     5
100
AcDbVertex
100
AcDb2dVertex
 10
-0.2004298022057682
 20
332.1335925993403
 30
0.0
 42
1.000000057330635
  0
SEQEND
  5
4BA4
330
49C3
100
AcDbEntity
  8
LOGO
 62
     5
  0
CIRCLE
  5
49C4
330
1F
100
AcDbEntity
  8
LOGO
 62
     5
100
AcDbCircle
 10
-1.011429630647228
 20
332.1335925993403
 30
0.0
 40
0.810999828441294
  0
SOLID
  5
49C5
330
1F
100
AcDbEntity
  8
LOGO
 62
     5
100
AcDbTrace
 10
-16.87101787571418
 20
336.1885917415468
 30
0.0
 11
-15.30308487406108
 21
336.1885917415462
 31
0.0
 12
-8.761019591300827
 22
351.0569219296375
 32
0.0
 13
-7.193086589647867
 23
351.0569219296363
 33
0.0
  0
SOLID
  5
49C6
330
1F
100
AcDbEntity
  8
LOGO
 62
     5
100
AcDbTrace
 10
-14.65428501130709
 20
336.1885917415468
 30
0.0
 11
-13.08635200965413
 21
336.1885917415468
 31
0.0
 12
-7.193086589647867
 22
349.8674555145896
 32
0.0
 13
-8.761019591300827
 23
344.118367841861
 33
0.0
  0
SOLID
  5
49C7
330
1F
100
AcDbEntity
  8
LOGO
 62
     5
100
AcDbTrace
 10
-8.761019591300827
 20
336.1885917415468
 30
0.0
 11
-7.193086589647867
 21
336.1885917415468
 31
0.0
 12
-8.761019591300827
 22
344.118367841861
 32
0.0
 13
-7.193086589647867
 23
349.8674555145896
 33
0.0
  0
SOLID
  5
49C8
330
1F
100
AcDbEntity
  8
LOGO
 62
     5
100
AcDbTrace
 10
-6.544286726894355
 20
351.0569219296363
 30
0.0
 11
-4.976353725241464
 21
351.0569219296375
 31
0.0
 12
-6.544286726894355
 22
337.3780581565935
 32
0.0
 13
-4.976353725241464
 23
343.127145829322
 33
0.0
  0
SOLID
  5
49C9
330
1F
100
AcDbEntity
  8
LOGO
 62
     5
100
AcDbTrace
 10
-6.544286726894355
 20
337.3780581565935
 30
0.0
 11
-4.976353725241464
 21
343.127145829322
 31
0.0
 12
0.9169116947648667
 22
351.0569219296375
 32
0.0
 13
-0.6510213068882287
 23
351.0569219296375
 33
0.0
  0
SOLID
  5
49CA
330
1F
100
AcDbEntity
  8
LOGO
 62
     5
100
AcDbTrace
 10
-6.544286726894355
 20
336.1885917415468
 30
0.0
 11
-4.976353725241464
 21
336.1885917415468
 31
0.0
 12
0.9169116947648667
 22
349.8674555145896
 32
0.0
 13
-0.6510213068882287
 23
344.118367841861
 33
0.0
  0
SOLID
  5
49CB
330
1F
100
AcDbEntity
  8
LOGO
 62
     5
100
AcDbTrace
 10
0.9169116947648667
 20
349.8674555145896
 30
0.0
 11
-0.6510213068882287
 21
344.118367841861
 31
0.0
 12
0.9169116947648667
 22
336.1885917415462
 32
0.0
 13
-0.6510213068882287
 23
336.1885917415462
 33
0.0
  0
SOLID
  5
49CC
330
1F
100
AcDbEntity
  8
LOGO
 62
     5
100
AcDbTrace
 10
1.56571155751838
 20
336.1885917415462
 30
0.0
 11
3.13364455917134
 21
336.1885917415462
 31
0.0
 12
1.56571155751838
 22
351.0569219296363
 32
0.0
 13
3.13364455917134
 23
351.0569219296375
 33
0.0
  0
SOLID
  5
49CD
330
1F
100
AcDbEntity
  8
LOGO
 62
     5
100
AcDbTrace
 10
-19.38479898163516
 20
330.7819262186051
 30
0.0
 11
-18.8441324293404
 21
330.7819262186051
 31
0.0
 12
-17.32157333595897
 22
333.4852589800756
 32
0.0
 13
-16.78090678366516
 23
333.4852589800756
 33
0.0
  0
SOLID
  5
49CE
330
1F
100
AcDbEntity
  8
LOGO
 62
     5
100
AcDbTrace
 10
-17.32157333595897
 20
333.4852589800756
 30
0.0
 11
-16.78090678366516
 21
333.4852589800756
 31
0.0
 12
-17.32157333595897
 22
330.7819262186051
 32
0.0
 13
-16.78090678366516
 23
330.7819262186051
 33
0.0
  0
SOLID
  5
49CF
330
1F
100
AcDbEntity
  8
LOGO
 62
     5
100
AcDbTrace
 10
-17.32157333595897
 20
330.7819262186051
 30
0.0
 11
-16.78090678366516
 21
330.7819262186051
 31
0.0
 12
-15.25834769028208
 22
333.4852589800756
 32
0.0
 13
-14.71768113798842
 23
333.4852589800756
 33
0.0
  0
SOLID
  5
49D0
330
1F
100
AcDbEntity
  8
LOGO
 62
     5
100
AcDbTrace
 10
-15.25834769028208
 20
333.4852589800756
 30
0.0
 11
-14.71768113798842
 21
333.4852589800756
 31
0.0
 12
-15.25834769028208
 22
330.7819262186051
 32
0.0
 13
-14.71768113798842
 23
330.7819262186051
 33
0.0
  0
SOLID
  5
49D1
330
1F
100
AcDbEntity
  8
LOGO
 62
     5
100
AcDbTrace
 10
-14.07766413328597
 20
333.8637255666813
 30
0.0
 11
-13.53699758099073
 21
333.8637255666813
 31
0.0
 12
-14.07766413328597
 22
334.2962588085172
 32
0.0
 13
-13.53699758099073
 23
334.2962588085172
 33
0.0
  0
SOLID
  5
49D2
330
1F
100
AcDbEntity
  8
LOGO
 62
     5
100
AcDbTrace
 10
-14.07766413328597
 20
333.4852589800756
 30
0.0
 11
-13.53699758099073
 21
333.4852589800756
 31
0.0
 12
-14.07766413328597
 22
330.7819262186041
 32
0.0
 13
-13.53699758099073
 23
330.7819262186051
 33
0.0
  0
POLYLINE
  5
49D3
330
1F
100
AcDbEntity
  8
LOGO
 62
     5
100
AcDb2dPolyline
 66
     1
 10
0.0
 20
0.0
 30
0.0
 40
0.5415330051023596
 41
0.5415330051023596
  0
VERTEX
  5
4BA5
330
49D3
100
AcDbEntity
  8
LOGO
 62
     5
100
AcDbVertex
100
AcDb2dVertex
 10
-11.01256930218807
 20
332.4039258754872
 30
0.0
 42
1.0
  0
VERTEX
  5
4BA6
330
49D3
100
AcDbEntity
  8
LOGO
 62
     5
100
AcDbVertex
100
AcDb2dVertex
 10
-12.63716831749521
 20
332.4039258754872
 30
0.0
 42
1.0
  0
SEQEND
  5
4BA7
330
49D3
100
AcDbEntity
  8
LOGO
 62
     5
  0
SOLID
  5
49D4
330
1F
100
AcDbEntity
  8
LOGO
 62
     5
100
AcDbTrace
 10
-12.90620191442959
 20
333.4852589800756
 30
0.0
 11
-12.36553536213592
 21
333.4852589800756
 31
0.0
 12
-12.90620191442959
 22
330.7819262186051
 32
0.0
 13
-12.36553536213592
 23
330.7819262186051
 33
0.0
  0
SOLID
  5
49D5
330
1F
100
AcDbEntity
  8
LOGO
 62
     5
100
AcDbTrace
 10
-11.28420225754756
 20
332.4039258754872
 30
0.0
 11
-10.74353570525287
 21
332.4039258754872
 31
0.0
 12
-11.28420225754756
 22
330.7819262186051
 32
0.0
 13
-10.74353570525287
 23
330.7819262186051
 33
0.0
  0
POLYLINE
  5
49D6
330
1F
100
AcDbEntity
  8
LOGO
 62
     5
100
AcDb2dPolyline
 66
     1
 10
0.0
 20
0.0
 30
0.0
 70
     1
 40
0.5415330051023596
 41
0.5415330051023596
  0
VERTEX
  5
4BA8
330
49D6
100
AcDbEntity
  8
LOGO
 62
     5
100
AcDbVertex
100
AcDb2dVertex
 10
-9.844085601505909
 20
332.13359259934
 30
0.0
 42
1.0
  0
VERTEX
  5
4BA9
330
49D6
100
AcDbEntity
  8
LOGO
 62
     5
100
AcDbVertex
100
AcDb2dVertex
 10
-7.677953581096432
 20
332.13359259934
 30
0.0
 42
1.0
  0
SEQEND
  5
4BAA
330
49D6
100
AcDbEntity
  8
LOGO
 62
     5
  0
SOLID
  5
49D7
330
1F
100
AcDbEntity
  8
LOGO
 62
     5
100
AcDbTrace
 10
-7.950073829514398
 20
334.2962588085172
 30
0.0
 11
-7.409407277220735
 21
334.2962588085172
 31
0.0
 12
-7.950073829514398
 22
330.7819262186051
 32
0.0
 13
-7.409407277220735
 23
330.7819262186051
 33
0.0
  0
SOLID
  5
49D8
330
1F
100
AcDbEntity
  8
LOGO
 62
     5
100
AcDbTrace
 10
-6.778611610658154
 20
333.4852589800756
 30
0.0
 11
-6.237945058364422
 21
333.4852589800756
 31
0.0
 12
-6.778611610658154
 22
330.7819262186051
 32
0.0
 13
-6.237945058364422
 23
330.7819262186051
 33
0.0
  0
POLYLINE
  5
49D9
330
1F
100
AcDbEntity
  8
LOGO
 62
     5
100
AcDb2dPolyline
 66
     1
 10
0.0
 20
0.0
 30
0.0
 40
0.5415330051023596
 41
0.5415330051023596
  0
VERTEX
  5
4BAB
330
49D9
100
AcDbEntity
  8
LOGO
 62
     5
100
AcDbVertex
100
AcDb2dVertex
 10
-4.884978998416637
 20
332.4039258754872
 30
0.0
 42
1.0
  0
VERTEX
  5
4BAC
330
49D9
100
AcDbEntity
  8
LOGO
 62
     5
100
AcDbVertex
100
AcDb2dVertex
 10
-6.509578013723777
 20
332.4039258754872
 30
0.0
 42
1.0
  0
SEQEND
  5
4BAD
330
49D9
100
AcDbEntity
  8
LOGO
 62
     5
  0
POLYLINE
  5
49DA
330
1F
100
AcDbEntity
  8
LOGO
 62
     5
100
AcDb2dPolyline
 66
     1
 10
0.0
 20
0.0
 30
0.0
 40
0.5415330051023596
 41
0.5415330051023596
  0
VERTEX
  5
4BAE
330
49DA
100
AcDbEntity
  8
LOGO
 62
     5
100
AcDbVertex
100
AcDb2dVertex
 10
-3.262979341534474
 20
332.4039258754872
 30
0.0
 42
1.0
  0
VERTEX
  5
4BAF
330
49DA
100
AcDbEntity
  8
LOGO
 62
     5
100
AcDbVertex
100
AcDb2dVertex
 10
-4.887578356841616
 20
332.4039258754872
 30
0.0
 42
1.0
  0
SEQEND
  5
4BB0
330
49DA
100
AcDbEntity
  8
LOGO
 62
     5
  0
SOLID
  5
49DB
330
1F
100
AcDbEntity
  8
LOGO
 62
     5
100
AcDbTrace
 10
-5.156611953775993
 20
332.4039258754872
 30
0.0
 11
-4.61594540148226
 21
332.4039258754872
 31
0.0
 12
-5.156611953775993
 22
330.7819262186051
 32
0.0
 13
-4.61594540148226
 23
330.7819262186051
 33
0.0
  0
SOLID
  5
49DC
330
1F
100
AcDbEntity
  8
LOGO
 62
     5
100
AcDbTrace
 10
-3.534612296893762
 20
332.4039258754872
 30
0.0
 11
-2.993945744600097
 21
332.4039258754872
 31
0.0
 12
-3.534612296893762
 22
330.7819262186041
 32
0.0
 13
-2.993945744600097
 23
330.7819262186041
 33
0.0
  0
POLYLINE
  5
49DD
330
1F
100
AcDbEntity
  8
LOGO
 62
     5
100
AcDb2dPolyline
 66
     1
 10
0.0
 20
0.0
 30
0.0
 70
     1
 40
0.5415330051023596
 41
0.5415330051023596
  0
VERTEX
  5
4BB1
330
49DD
100
AcDbEntity
  8
LOGO
 62
     5
100
AcDbVertex
100
AcDb2dVertex
 10
-2.094495640852239
 20
332.13359259934
 30
0.0
 42
1.0
  0
VERTEX
  5
4BB2
330
49DD
100
AcDbEntity
  8
LOGO
 62
     5
100
AcDbVertex
100
AcDb2dVertex
 10
0.0716363795571669
 20
332.13359259934
 30
0.0
 42
1.0
  0
SEQEND
  5
4BB3
330
49DD
100
AcDbEntity
  8
LOGO
 62
     5
  0
LINE
  5
49DE
330
1F
100
AcDbEntity
  8
LOGO
 62
     5
100
AcDbLine
 10
3.13364455917134
 20
330.7819262186051
 30
0.0
 11
3.13364455917134
 21
332.4039258754872
 31
0.0
  0
POLYLINE
  5
49DF
330
1F
100
AcDbEntity
  8
LOGO
 62
     5
100
AcDb2dPolyline
 66
     1
 10
0.0
 20
0.0
 30
0.0
 40
0.5415330051023596
 41
0.5415330051023596
  0
VERTEX
  5
4BB4
330
49DF
100
AcDbEntity
  8
LOGO
 62
     5
100
AcDbVertex
100
AcDb2dVertex
 10
2.864610962237031
 20
332.4039258754872
 30
0.0
 42
1.0
  0
VERTEX
  5
4BB5
330
49DF
100
AcDbEntity
  8
LOGO
 62
     5
100
AcDbVertex
100
AcDb2dVertex
 10
1.24001194692989
 20
332.4039258754872
 30
0.0
 42
1.0
  0
SEQEND
  5
4BB6
330
49DF
100
AcDbEntity
  8
LOGO
 62
     5
  0
SOLID
  5
49E0
330
1F
100
AcDbEntity
  8
LOGO
 62
     5
100
AcDbTrace
 10
-0.2004838688602497
 20
333.4852589800756
 30
0.0
 11
0.3401826834334827
 21
333.4852589800756
 31
0.0
 12
-0.2004838688602497
 22
330.7819262186051
 32
0.0
 13
0.3401826834334827
 23
330.7819262186051
 33
0.0
  0
SOLID
  5
49E1
330
1F
100
AcDbEntity
  8
LOGO
 62
     5
100
AcDbTrace
 10
0.9709783499944819
 20
330.7819262186051
 30
0.0
 11
1.511644902289177
 21
330.7819262186051
 31
0.0
 12
0.9709783499944819
 22
333.4852589800756
 32
0.0
 13
1.511644902289177
 23
333.4852589800756
 33
0.0
  0
SOLID
  5
49E2
330
1F
100
AcDbEntity
  8
LOGO
 62
     5
100
AcDbTrace
 10
2.592978006877675
 20
332.4039258754872
 30
0.0
 11
3.13364455917134
 21
332.4039258754871
 31
0.0
 12
2.592978006877675
 22
330.7819262186051
 32
0.0
 13
3.13364455917134
 23
330.7819262186051
 33
0.0
  0
SOLID
  5
49E3
330
1F
100
AcDbEntity
  8
LOGO
 62
     2
100
AcDbTrace
 10
-15.30308487406108
 20
336.1885917415462
 30
0.0
 11
-14.65428501130709
 21
336.1885917415468
 31
0.0
 12
-7.193086589647867
 22
351.0569219296363
 32
0.0
 13
-6.544286726894355
 23
351.0569219296363
 33
0.0
  0
SOLID
  5
49E4
330
1F
100
AcDbEntity
  8
LOGO
 62
     2
100
AcDbTrace
 10
-7.193086589647867
 20
351.0569219296363
 30
0.0
 11
-6.544286726894355
 21
351.0569219296363
 31
0.0
 12
-7.193086589647867
 22
336.1885917415468
 32
0.0
 13
-6.544286726894355
 23
336.1885917415468
 33
0.0
  0
SOLID
  5
49E5
330
1F
100
AcDbEntity
  8
LOGO
 62
     2
100
AcDbTrace
 10
-7.193086589647867
 20
336.1885917415468
 30
0.0
 11
-6.544286726894355
 21
336.1885917415468
 31
0.0
 12
0.9169116947648667
 22
351.0569219296375
 32
0.0
 13
1.56571155751838
 23
351.0569219296363
 33
0.0
  0
SOLID
  5
49E6
330
1F
100
AcDbEntity
  8
LOGO
 62
     2
100
AcDbTrace
 10
0.9169116947648667
 20
351.0569219296375
 30
0.0
 11
1.56571155751838
 21
351.0569219296363
 31
0.0
 12
0.9169116947648667
 22
336.1885917415462
 32
0.0
 13
1.56571155751838
 23
336.1885917415462
 33
0.0
  0
TEXT
  5
49E7
330
1F
100
AcDbEntity
  8
LOGO
  6
CONTINUOUS
 62
     5
100
AcDbText
 10
-19.44643944624995
 20
322.778858633328
 30
0.0
 40
5.439505631608523
  1
金器工業股份有限公司
 41
0.8
  7
LOGO
100
AcDbText
  0
TEXT
  5
49E8
330
1F
100
AcDbEntity
  8
LOGO
  6
CONTINUOUS
 62
     5
100
AcDbText
 10
-17.8888931130555
 20
317.3382872850893
 30
0.0
 40
3.626337087739015
  1
MINDMAN INDUSTRIAL CO.,LTD
 41
0.85
  7
CHINESET
100
AcDbText
  0
LINE
  5
49E9
330
1F
100
AcDbEntity
  8
LOGO
 62
     6
100
AcDbLine
 10
190.3427463757411
 20
348.2920079403143
 30
0.0
 11
190.3427463757411
 21
337.4129966770971
 31
0.0
  0
LINE
  5
49EA
330
1F
100
AcDbEntity
  8
LOGO
 62
     6
100
AcDbLine
 10
185.4741443730086
 20
334.6932438612928
 30
0.0
 11
179.4302495055026
 21
334.6932438612928
 31
0.0
  0
LINE
  5
49EB
330
1F
100
AcDbEntity
  8
LOGO
 62
     6
100
AcDbLine
 10
179.4302495055026
 20
331.9734910454887
 30
0.0
 11
179.4302495055026
 21
334.6932438612928
 31
0.0
  0
LINE
  5
49EC
330
1F
100
AcDbEntity
  8
LOGO
 62
     6
100
AcDbLine
 10
159.9248454891819
 20
334.6932438612928
 30
0.0
 11
152.6721713137039
 21
334.6932438612928
 31
0.0
  0
LINE
  5
49ED
330
1F
100
AcDbEntity
  8
LOGO
 62
     6
100
AcDbLine
 10
152.6721713137039
 20
331.9734910454885
 30
0.0
 11
152.6721713137039
 21
334.6932438612928
 31
0.0
  0
LINE
  5
49EE
330
1F
100
AcDbEntity
  8
LOGO
 62
     6
100
AcDbLine
 10
195.5758035246923
 20
334.693243861293
 30
0.0
 11
204.6416462440398
 21
334.693243861293
 31
0.0
  0
LINE
  5
49EF
330
1F
100
AcDbEntity
  8
LOGO
 62
     6
100
AcDbLine
 10
204.6416462440398
 20
331.9734910454887
 30
0.0
 11
204.6416462440398
 21
334.693243861293
 31
0.0
  0
LINE
  5
49F0
330
1F
100
AcDbEntity
  8
LOGO
 62
     6
100
AcDbLine
 10
221.9847322209743
 20
331.9734910454887
 30
0.0
 11
221.9847322209743
 21
318.6267848407731
 31
0.0
  0
LINE
  5
49F1
330
1F
100
AcDbEntity
  8
LOGO
 62
     6
100
AcDbLine
 10
224.7205120158141
 20
334.6932438612928
 30
0.0
 11
229.9928932897312
 21
334.6932438612928
 31
0.0
  0
LINE
  5
49F2
330
1F
100
AcDbEntity
  8
LOGO
 62
     6
100
AcDbLine
 10
224.7205120158141
 20
337.4129966770971
 30
0.0
 11
224.7205120158141
 21
334.6932438612928
 31
0.0
  0
LINE
  5
49F3
330
1F
100
AcDbEntity
  8
LOGO
 62
     6
100
AcDbLine
 10
248.7865414067333
 20
348.2920079403143
 30
0.0
 11
248.7865414067333
 21
337.4129966770972
 31
0.0
  0
LINE
  5
49F4
330
1F
100
AcDbEntity
  8
LOGO
 62
     6
100
AcDbLine
 10
256.1061867962543
 20
337.4129966770972
 30
0.0
 11
248.7865414067333
 21
337.4129966770972
 31
0.0
  0
LINE
  5
49F5
330
1F
100
AcDbEntity
  8
LOGO
 62
     6
100
AcDbLine
 10
252.4463638227682
 20
337.4129966770972
 30
0.0
 11
252.4463638227682
 21
331.9734910454887
 31
0.0
  0
LINE
  5
49F6
330
1F
100
AcDbEntity
  8
LOGO
 62
     6
100
AcDbLine
 10
256.1061867962543
 20
348.2920079403143
 30
0.0
 11
248.7865414067333
 21
348.2920079403143
 31
0.0
  0
TEXT
  5
49F7
330
1F
100
AcDbEntity
  8
LOGO
  6
CONTINUOUS
 62
     7
100
AcDbText
 10
250.7195369168562
 20
339.8305547355899
 30
0.0
 40
6.043895146231692
  1
L
  7
CHINESET
 72
     1
 11
252.4463641014938
 21
342.8525023087057
 31
0.0
100
AcDbText
 73
     2
  0
LINE
  5
49F8
330
1F
100
AcDbEntity
  8
LOGO
 62
     6
100
AcDbLine
 10
256.1061867962543
 20
348.2920079403143
 30
0.0
 11
256.1061867962543
 21
337.4129966770972
 31
0.0
  0
TEXT
  5
49F9
330
1F
100
AcDbEntity
  8
LOGO
 62
     6
100
AcDbText
 10
248.9862338515505
 20
325.3755721775191
 30
0.0
 40
4.835116116985354
  1
附燈型
 41
0.9
  7
CHINESET
 72
     4
 11
255.468311395884
 21
327.7427644431265
 31
0.0
100
AcDbText
  0
LINE
  5
49FA
330
1F
100
AcDbEntity
  8
LOGO
 62
     6
100
AcDbLine
 10
268.193976809992
 20
331.9734910454887
 30
0.0
 11
242.7426459817759
 21
331.9734910454887
 31
0.0
  0
LINE
  5
49FB
330
1F
100
AcDbEntity
  8
LOGO
 62
     6
100
AcDbLine
 10
268.193976809992
 20
318.6769217237789
 30
0.0
 11
242.7426459817759
 21
318.6769217237789
 31
0.0
  0
TEXT
  5
49FC
330
1F
100
AcDbEntity
  8
LOGO
  6
CONTINUOUS
 62
     6
100
AcDbText
 10
243.4956429157298
 20
320.1878955103369
 30
0.0
 40
3.021947573115846
  1
LED indicator
 41
0.8
  7
CHINESET
 72
     4
 11
255.468311395884
 21
321.6988692968948
 31
0.0
100
AcDbText
  0
LINE
  5
49FD
330
1F
100
AcDbEntity
  8
LOGO
 62
     6
100
AcDbLine
 10
268.193976809992
 20
331.9734910454887
 30
0.0
 11
268.193976809992
 21
318.6769217237789
 31
0.0
  0
LINE
  5
49FE
330
1F
100
AcDbEntity
  8
LOGO
  6
CONTINUOUS
 62
     7
100
AcDbLine
 10
242.1014100131656
 20
342.8139671315213
 30
0.0
 11
246.9051844295201
 21
342.8139671315213
 31
0.0
  0
LINE
  5
49FF
330
1F
100
AcDbEntity
  8
LOGO
 62
     6
100
AcDbLine
 10
242.7426459817759
 20
331.9734910454887
 30
0.0
 11
242.7426459817759
 21
318.6769217237789
 31
0.0
  0
ENDSEC
  0
SECTION
  2
OBJECTS
  0
DICTIONARY
  5
C
330
0
100
AcDbDictionary
  3
ACAD_GROUP
350
D
  3
ACAD_LAYOUT
350
1A
  3
ACAD_MLINESTYLE
350
17
  3
ACAD_PLOTSETTINGS
350
19
  3
ACMDICTIONARY
350
236
  3
ACME_BOM_MANAGER_NAME
350
229
  3
ACME_COMMAND_HISTORY
350
222
  3
ACME_SCOPE_NAME
350
221
  3
ACMESTATEMGR
350
22E
  3
ACMESYSVARMANAGER
350
225
  3
AMG
350
232
  3
AMGSNAPSETTINGS
350
245
  3
DWGPROPS
350
494F
1001
ACAD
1000
TREAT_AS_HARD
1070
     0
  0
DICTIONARY
  5
4FD
330
1F
100
AcDbDictionary
  3
ACAD_INDEX
350
4FE
  3
ACAD_LAYOUTSELFREF
350
4B9B
1001
ACAD
1000
TREAT_AS_HARD
1070
     1
  0
DICTIONARY
  5
4AB4
330
1B
100
AcDbDictionary
  3
ACAD_LAYOUTSELFREF
350
4B9A
1001
ACAD
1000
TREAT_AS_HARD
1070
     1
  0
DICTIONARY
  5
D
102
{ACAD_REACTORS
330
C
102
}
330
C
100
AcDbDictionary
1001
ACAD
1000
TREAT_AS_HARD
1070
     0
  0
DICTIONARY
  5
1A
102
{ACAD_REACTORS
330
C
102
}
330
C
100
AcDbDictionary
1001
ACAD
1000
TREAT_AS_HARD
1070
     0
  0
DICTIONARY
  5
17
102
{ACAD_REACTORS
330
C
102
}
330
C
100
AcDbDictionary
  3
STANDARD
350
18
1001
ACAD
1000
TREAT_AS_HARD
1070
     0
  0
DICTIONARY
  5
19
102
{ACAD_REACTORS
330
C
102
}
330
C
100
AcDbDictionary
1001
ACAD
1000
TREAT_AS_HARD
1070
     0
  0
DICTIONARY
  5
236
102
{ACAD_REACTORS
330
C
102
}
330
C
100
AcDbDictionary
  3
ACMBOMDATA
350
237
1001
ACAD
1000
TREAT_AS_HARD
1070
     0
  0
ACAD_ZOMBIE_OBJECT
  5
229
102
{ACAD_REACTORS
330
C
102
}
330
C
100
AcDbZombieObject
 90
      499
 91
      525
 93
       52
310
00010040400063
330
0
330
0
330
22A
 94
        0
1001
ACAD
1000
AcadProxyRoundTripData
1071
      510
1071
   851991
1070
     0
  0
ACAD_ZOMBIE_OBJECT
  5
222
102
{ACAD_REACTORS
330
C
102
}
330
C
100
AcDbZombieObject
 90
      499
 91
      525
 93
     2912
310
478050C475249505F535452455443488050C475249505F535452455443488050C475249505F535452455443488050C475249505F535452455443488050C475249505F535452455443488050C475249505F5354524554434880507454C4C49505345805045452494D8050C475249505F535452455443488050C475249505F53
310
54524554434880505504C494E45805075354524554434840405184D5347202D20436F6D6D616E642043414E43454C4C45442E014154115112552014110D3D416601411693D3D3601411693D3D36014191111151125510101461354D1C80B4810DBDB5B585B990810D05390D1531311510B8050644444544495440405184D53
310
47202D20436F6D6D616E642043414E43454C4C45442E0141911111511255201411693D3D360142985B5BD89A9C1D5C99D9601415454D055916014115539113E014115539113E014115539113E014115539113E014115539113E014110D3D416601411693D3D3601415454D05591600
 94
        0
1001
ACAD
1000
AcadProxyRoundTripData
1071
      505
1071
   851991
1070
     0
  0
ACAD_ZOMBIE_OBJECT
  5
221
102
{ACAD_REACTORS
330
C
102
}
330
C
100
AcDbZombieObject
 90
      499
 91
      525
 93
      202
310
04000043C000000000000000000010441600000000AAA406AA92
360
226
360
227
360
228
360
22A
 94
        0
1001
ACAD
1000
AcadProxyRoundTripData
1071
      504
1071
   851991
1070
     0
  0
ACAD_ZOMBIE_OBJECT
  5
22E
102
{ACAD_REACTORS
330
C
102
}
330
C
100
AcDbZombieObject
 90
      499
 91
      525
 93
       50
310
04000040E412B4
 94
        0
1001
ACAD
1000
AcadProxyRoundTripData
1071
      515
1071
   851991
1070
     0
  0
ACAD_ZOMBIE_OBJECT
  5
225
102
{ACAD_REACTORS
330
C
102
}
330
C
100
AcDbZombieObject
 90
      499
 91
      525
 93
       48
310
90341200000011
330
226
330
227
330
228
 94
        0
1001
ACAD
1000
AcadProxyRoundTripData
1071
      507
1071
   851991
1070
     0
  0
DICTIONARY
  5
232
102
{ACAD_REACTORS
330
C
102
}
330
C
100
AcDbDictionary
  3
ACMGSETTINGS
350
233
  3
AMGLAYCFG
350
23A
1001
ACAD
1000
TREAT_AS_HARD
1070
     0
  0
DICTIONARY
  5
245
102
{ACAD_REACTORS
330
C
102
}
330
C
100
AcDbDictionary
  3
DIMENSION
350
24A
  3
FEA
350
249
  3
HATCH__1_
350
246
  3
HATCH__2_
350
247
  3
SYMBOLS
350
248
1001
ACAD
1000
TREAT_AS_HARD
1070
     0
  0
XRECORD
  5
494F
102
{ACAD_REACTORS
330
C
102
}
330
C
100
AcDbXrecord
  1
DWGPROPS COOKIE
  2

  3

  4

  6

  7

  8

  9

300
AmdtFileType=84
301
=
302
=
303
=
304
=
305
=
306
=
307
=
308
=
309
=
 40
0.3545898611111111
 41
2451852.499556226
 42
2451873.390871134
  1

 90
        1
  0
DICTIONARY
  5
4FE
102
{ACAD_REACTORS
330
4FD
102
}
330
4FD
100
AcDbDictionary
  3
*A1
350
4FF
1001
ACAD
1000
TREAT_AS_HARD
1070
     0
  0
XRECORD
  5
4B9B
102
{ACAD_REACTORS
330
4FD
102
}
330
4FD
100
AcDbXrecord
340
1F
  0
XRECORD
  5
4B9A
102
{ACAD_REACTORS
330
4AB4
102
}
330
4AB4
100
AcDbXrecord
340
1B
  0
MLINESTYLE
  5
18
102
{ACAD_REACTORS
330
17
102
}
330
17
100
AcDbMlineStyle
  2
STANDARD
 70
     0
  3

 62
   256
 51
90.0
 52
90.0
 71
     2
 49
0.5
 62
   256
  6
BYLAYER
 49
-0.5
 62
   256
  6
BYLAYER
  0
ACAD_ZOMBIE_OBJECT
  5
237
102
{ACAD_REACTORS
330
236
102
}
330
236
100
AcDbZombieObject
 90
      499
 91
      525
 93
      118
310
405010040CA904C415CD5B074D5049
350
238
 94
        0
1001
ACAD
1000
AcadProxyRoundTripData
1071
      519
1071
   851991
1070
     0
  0
ACAD_ZOMBIE_OBJECT
  5
226
330
0
100
AcDbZombieObject
 90
      499
 91
      525
 93
      156
310
00010143D050D351505391D5531054925390D496
330
221
 94
        0
1001
ACAD
1000
AcadProxyRoundTripData
1071
      508
1071
   851991
1070
     0
  0
ACAD_ZOMBIE_OBJECT
  5
227
330
0
100
AcDbZombieObject
 90
      499
 91
      525
 93
      148
310
000101439050D351531253915054925390D490
330
221
 94
        0
1001
ACAD
1000
AcadProxyRoundTripData
1071
      508
1071
   851991
1070
     0
  0
ACAD_ZOMBIE_OBJECT
  5
228
330
0
100
AcDbZombieObject
 90
      499
 91
      525
 93
      156
310
000101439050D35154D6535093D314D256915086
330
221
 94
        0
1001
ACAD
1000
AcadProxyRoundTripData
1071
      509
1071
   851991
1070
     0
  0
ACAD_ZOMBIE_OBJECT
  5
22A
330
0
100
AcDbZombieObject
 90
      499
 91
      525
 93
       88
310
000101411093D34C402B0000
330
221
330
0
330
0
 94
        0
1001
ACAD
1000
AcadProxyRoundTripData
1071
      511
1071
   851991
1070
     0
  0
DICTIONARY
  5
233
102
{ACAD_REACTORS
330
232
102
}
330
232
100
AcDbDictionary
  3
DIMENSION
350
C5C
  3
DWGSETTINGS
350
234
  3
TRANSSETTINGS
350
235
1001
ACAD
1000
TREAT_AS_HARD
1070
     0
  0
ACAD_ZOMBIE_OBJECT
  5
23A
102
{ACAD_REACTORS
330
232
102
}
330
232
100
AcDbZombieObject
 90
      499
 91
      525
 93
    16368
310
40902491013041105357CC1074CA404C504414D5F31439329013241105357CC9054CA404CD04414D5F33419199013441105357CD103466404D504414D5F3540D199013641105357CD90248E404DD04414D5F37411199013841105357CE101466404E504414D5F397F641102324141505357CC4C1074CA408D10505414D5F31
310
3140D19902495041505357CC4C9074C902408C13905414D5F304E41D32902314E41505357CC5390E4CA408C93905414D5F324E41532902334E41505357CCD3906466408D13905414D5F344E40D19902354E41505357CD53903466408D93905414D5F364E40923902374E41505357CDD3904466408E13905414D5F384E40519
310
902394E41505357CE539FD90440CC9053906414D5F31304E41D3290334414E41905357CC4C5390346640D25413906414D5F31324E41D32409044B4C494E41505357D0D3101465094112539193D08414D5F50415245464111942D055241484D3541905357D093D49074C9094115925155D08414D5F56494557534051942D064
310
24548494E4441905357D253959FD90D415514905253105414D5F545240D194250348494441905357D212511074650940D59254D06414D5F56495341D324250650415244494D42505357D410549112535034650941949151911253509414D5F52454644494D411194257641105315149013441D32411091531250134CFFFFFF
310
FF411092139590139CFFFFFFFF415092139594D06424548494E44CFFFFFFFF41109312511023441CFFFFFFFF411093D0541023441CFFFFFFFF411093D48C9055241484D3540519411093D48CD055241484D3540923411093D48D5055241484D35CFFFFFFFF411093D48DD055241484D354794641109410541023441CFFFFFF
310
FF41109411561023441CFFFFFFFF411095111250135CFFFFFFFF4110D0530C90134CFFFFFFFF4110D0530CD0134409234110D0530D5013441D324110D0530DD0134479464110D1539390137CFFFFFFFF4110D15395D0137CFFFFFFFF4110D312539044B4C494ECFFFFFFFF4110D3D38C50130CFFFFFFFF4110D3D38C90131C
310
FFFFFFFF4110D3D38CD0132CFFFFFFFF4110D3D38D10132CFFFFFFFF411111549410134CFFFFFFFF411111551050134CFFFFFFFF4111125051D0135CFFFFFFFF411112531250135CFFFFFFFF411112535410650415244494DCFFFFFFFF411112535490652454644494DCFFFFFFFF41115613541023441CFFFFFFFF41119153
310
5390138CFFFFFFFF4151915354139013840CFFFFFFFF4151915354D41023441CFFFFFFFF4151915354D5102344140D1941519153559390132CFFFFFFFF4151915355951013240D19411193105510130CFFFFFFFF41119490549023441CFFFFFFFF4111D4931250135CFFFFFFFF4111D593125023441CFFFFFFFF4112105510
310
D0138CFFFFFFFF411212511390133CFFFFFFFF4112125115D0133CFFFFFFFF411213125390134CFFFFFFFF411213D0D390137CFFFFFFFF411213D0D5D0137CFFFFFFFF4112539193D04494E464FCFFFFFFFF411310511250134CFFFFFFFF411311505110135CFFFFFFFF419397D0921395902394ECFFFFFFFF419397D0D3D3
310
8C502304ECFFFFFFFF419397D0D3D38C902314ECFFFFFFFF419397D0D3D38CD02324ECFFFFFFFF419397D0D3D38D102324ECFFFFFFFF419397D0D15393902374ECFFFFFFFF419397D0D15395D02374ECFFFFFFFF419397D1125312502354ECFFFFFFFF419397D2105510D02384ECFFFFFFFF419397D2125113902334ECFFFF
310
FFFF419397D2125115D02334ECFFFFFFFF419397D3115051102354ECFFFFFFFF419397D391D25410349504ECFFFFFFFF419397D412105390334414ECFFFFFFFF419397D510D3D3902304ECFFFFFFFF419397D5121312502344ECFFFFFFFF419397D5131153902304ECFFFFFFFF419397D516150CD02364ECFFFFFFFF419397
310
D594131250332414ECFFFFFFFF411391D2541024950CFFFFFFFF411410530C9055241484D3540519411410530CD055241484D3540923411410530D5055241484D35CFFFFFFFF411410530DD055241484D354794641141210539023441CFFFFFFFF411413D4D39013641D32419413D4D491519013641532411413D4D610136C
310
FFFFFFFF411414D150D023441CFFFFFFFF411490D1D390137CFFFFFFFF411490D1D5D0137CFFFFFFFF411491911250134CFFFFFFFF41149455149013441D32411494D093D0134CFFFFFFFF4114D09492D0134CFFFFFFFF4114D0D15390137CFFFFFFFF4114D150D510134CFFFFFFFF4114D1531390137CFFFFFFFF4114D153
310
15D0137CFFFFFFFF4114D4D654D0130CFFFFFFFF4114D513125013441D324114D6508C50135CFFFFFFFF4114D6508C90135CFFFFFFFF4114D6508CD0135409234114D6508D5013541D324114D6535390137CFFFFFFFF4114D65355D0137CFFFFFFFF411510D3D390130CFFFFFFFF411512131250134CFFFFFFFF411512550C
310
9055241484D3540519411512550CD055241484D3540923411512550D5055241484D35CFFFFFFFF411512550DD055241484D3547946411513115390130CFFFFFFFF415514905253105545241494CCFFFFFFFF41151492D390137CFFFFFFFF41151492D5D0137CFFFFFFFF411514931250134CFFFFFFFF411516150C5013640D
310
19411516150C9013640D19411516150CD0136CFFFFFFFF411516150D5013641D32411516150DD0136479464115925155D0456494557CFFFFFFFF4115915112103484944CFFFFFFFF4115915115903564953CFFFFFFFF41159413125023241CFFFFFFFF411692569050134CFFFFFFFFAA7F5013F90A4393241D324191941532
310
4111940D194092340519479467F683
340
16
340
16
340
16
340
23B
340
16
340
16
340
16
340
23C
340
16
340
16
340
23C
340
23D
340
16
340
16
340
16
340
16
340
23B
340
16
340
16
340
16
340
23C
340
16
340
16
340
23C
340
23D
340
16
340
23E
340
16
340
16
340
16
340
16
340
16
340
23B
340
16
340
16
340
16
340
23F
340
15
340
15
340
15
340
15
340
15
340
15
340
15
340
15
340
15
340
15
340
15
340
15
340
15
340
15
340
15
340
15
340
240
340
15
340
15
340
15
340
15
340
15
340
15
340
15
340
15
340
15
340
15
340
15
340
15
340
15
340
15
340
15
340
16
340
15
340
15
340
15
340
15
340
15
340
15
340
15
340
15
340
23F
340
15
340
15
340
240
340
15
340
15
340
15
340
15
340
15
340
15
340
15
340
15
340
15
340
240
340
15
340
15
340
15
340
23F
340
15
340
15
340
15
340
15
340
15
340
15
340
15
340
15
340
15
340
15
340
15
340
15
340
15
340
15
340
15
340
15
340
15
340
15
340
15
340
240
340
15
340
15
340
240
340
15
340
15
340
16
340
15
340
240
340
15
340
15
340
23F
340
15
340
15
340
16
340
15
340
240
340
15
340
15
340
15
340
15
340
15
340
15
340
15
340
15
340
15
340
240
340
15
340
15
340
15
340
15
340
15
340
15
340
15
340
15
340
15
340
15
340
15
340
243
 94
        0
1001
ACAD
1000
AcadProxyRoundTripData
1071
      521
1071
   851991
1070
     0
  0
ACAD_ZOMBIE_OBJECT
  5
24A
102
{ACAD_REACTORS
330
245
102
}
330
245
100
AcDbZombieObject
 90
      499
 91
      525
 93
      253
310
43D1444494D454E53494F4E2C414D44545F2A5F44494D404A9012A404A9012AD
 94
        0
1001
ACAD
1000
AcadProxyRoundTripData
1071
      522
1071
   851991
1070
     0
  0
ACAD_ZOMBIE_OBJECT
  5
249
102
{ACAD_REACTORS
330
245
102
}
330
245
100
AcDbZombieObject
 90
      499
 91
      525
 93
      181
310
43D012A42D05357D191504B505357CA9012A404A9012AC
 94
        0
1001
ACAD
1000
AcadProxyRoundTripData
1071
      522
1071
   851991
1070
     0
  0
ACAD_ZOMBIE_OBJECT
  5
246
102
{ACAD_REACTORS
330
245
102
}
330
245
100
AcDbZombieObject
 90
      499
 91
      525
 93
      133
310
43D054841544348404A9012A404A9012A8
 94
        0
1001
ACAD
1000
AcadProxyRoundTripData
1071
      522
1071
   851991
1070
     0
  0
ACAD_ZOMBIE_OBJECT
  5
247
102
{ACAD_REACTORS
330
245
102
}
330
245
100
AcDbZombieObject
 90
      499
 91
      525
 93
      549
310
43D044C494E4549CE0B0E138B0A8B4E0B0A8B4E138B105357CE0B105357CE138B0A8B505357CE0B0A8B505357CE139012A404A910494E534552542C535444504152543244C
 94
        0
1001
ACAD
1000
AcadProxyRoundTripData
1071
      522
1071
   851991
1070
     0
  0
ACAD_ZOMBIE_OBJECT
  5
248
102
{ACAD_REACTORS
330
245
102
}
330
245
100
AcDbZombieObject
 90
      499
 91
      525
 93
      909
310
43D6641434D46434652414D452C41434D444154554D5441524745542C41434D444154554D49442C41434D57454C4453594D2C41434D5355524653594D2C41434D4645415449442C41434D504152545245462C41434D42414C4C4F4F4E2C414D44544544474553594D404A9012A404A9012A8
 94
        0
1001
ACAD
1000
AcadProxyRoundTripData
1071
      522
1071
   851991
1070
     0
  0
LAYER_INDEX
  5
4FF
102
{ACAD_REACTORS
330
4FE
102
}
330
4FE
100
AcDbIndex
 40
2452655.705720116
100
AcDbLayerIndex
  8
0
360
500
 90
       36
  8
AM_VIS
360
501
 90
      538
  8
Defpoints
360
502
 90
        0
  8
LOGO
360
503
 90
      145
  8
center
360
1C7D
 90
       91
  8
dim
360
1C7F
 90
       18
  0
ACAD_ZOMBIE_OBJECT
  5
238
102
{ACAD_REACTORS
330
237
102
}
330
237
100
AcDbZombieObject
 90
      499
 91
      525
 93
      139
310
057356C1D35406406AA8FFFFFFFF09AA4044
330
1F
330
0
330
0
 94
        0
1001
ACAD
1000
AcadProxyRoundTripData
1071
      520
1071
   851991
1070
     0
  0
ACAD_ZOMBIE_OBJECT
  5
C5C
102
{ACAD_REACTORS
330
233
102
}
330
233
100
AcDbZombieObject
 90
      499
 91
      525
 93
     1935
310
4050944696D656E73696F6E21688D2DA88D8D28CD2E4E6E89400000000000005080832234B6A9BA3220A81A4A9A7A108CD2E88EE4C2C8CA82A04D06E86A837B4B73A26B0B5B2A234B9BA250000000000000122020AA6E8F2D8CA2A00800020EA6E8F2D8CA48602A00800020EA6E8F2D8CA48642A00800020EA6E8F2D8CA486
310
62A00800020EA6E8F2D8CA48682A00800020EA6E8F2D8CA486C2A00800020EA6E8F2D8CA486E2A008000210A6E8F2D8CA48A68C2A008000210A6E8F2D8CA48A6902A008000212A8CAF0E89AD2DCEAE682A04787C842A32BC3A28363AB9A0A811E1F220F688AE8EA68AA8A8929C8EA68A9C88FA
340
2F0B
340
0
340
0
340
2F0C
340
2F0D
340
2F0E
340
2F0F
340
2F10
340
2F15
 94
        0
1001
ACAD
1000
AcadProxyRoundTripData
1071
      518
1071
   851991
1070
     0
  0
ACAD_ZOMBIE_OBJECT
  5
234
102
{ACAD_REACTORS
330
233
102
}
330
233
100
AcDbZombieObject
 90
      499
 91
      525
 93
     2491
310
4050B44574753455454494E4753A0E8482A68AA6A88882A0692A69E84A1A0A723A0A92920ACA0A8419983E1A1ABE1B1820C868A9C829C8E82A12686AF87260F862666A8321A2A72224A0A50000000000000122020E868A9C889282A682A106260F86460F8666083A1A2A72224A9AA250000000000000042020C868A9C988A9
310
C94000000000000048808321A2A727A32325000000000000012202128698929C82A4A482B282A066C5C6C8421A624A722AA2CA820A82AC2624A722A1288AE8EAAA68682988A94283A620A9AA27A12520A80982109A82968AAC928AAE9FA04832922AB24A9A4A0A809820AA68682988A82A066274628429AA20A72220A92220
310
A81A4A9A7A12A8929A8AA6A8829AA09412698F4822C26E68283AB22A929A4A7A720A82989A971818220F688AE8EA68AA8A8929C8EA68A9C88FA4
 94
        0
1001
ACAD
1000
AcadProxyRoundTripData
1071
      518
1071
   851991
1070
     0
  0
ACAD_ZOMBIE_OBJECT
  5
235
102
{ACAD_REACTORS
330
233
102
}
330
233
100
AcDbZombieObject
 90
      499
 91
      525
 93
      852
310
4050D5452414E5353455454494E4753A2488A482AE929C8EA8A4829CA69882A8929E9C0C00800050D4F524947494E414C4C595F4F4E0600400008529A7AAA921A2A620A723A0A81A1A42A212AAA0A48AA68AA4AC8A0C0080001107B44574753455454494E4753454E447D0
 94
        0
1001
ACAD
1000
AcadProxyRoundTripData
1071
      518
1071
   851991
1070
     0
  0
IDBUFFER
  5
500
330
0
100
AcDbIdBuffer
330
728
330
14EA
330
14EB
330
14EC
330
14ED
330
14EE
330
14EF
330
14F0
330
14F1
330
14F2
330
14F3
330
14F4
330
14F5
330
14F6
330
14F7
330
14F8
330
14F9
330
14FA
330
14FB
330
14FC
330
14FD
330
14FF
330
1500
330
1501
330
1502
330
1503
330
1504
330
1506
330
1507
330
1508
330
1509
330
150A
330
150B
330
150C
330
150D
330
4965
  0
IDBUFFER
  5
501
330
0
100
AcDbIdBuffer
330
27BB
330
27BC
330
27BD
330
27BE
330
27BF
330
27C0
330
27C1
330
27C2
330
27C3
330
27C4
330
27C5
330
27C6
330
27C7
330
27C8
330
27C9
330
27CA
330
27CB
330
27CC
330
27CD
330
27CE
330
27CF
330
27D0
330
27D1
330
27D2
330
27D3
330
27D4
330
27D5
330
27D6
330
27D7
330
27D8
330
27D9
330
27DA
330
27DB
330
27DC
330
27DD
330
27DE
330
27DF
330
27E0
330
27E1
330
27E2
330
27E3
330
27E4
330
27E5
330
27E6
330
27E7
330
27E8
330
27E9
330
27EA
330
27EB
330
27EC
330
27ED
330
27EE
330
27EF
330
27F0
330
27F1
330
27F2
330
27F3
330
27F4
330
27F5
330
27F6
330
27F7
330
27F8
330
27F9
330
27FA
330
27FB
330
27FC
330
27FD
330
27FE
330
27FF
330
2800
330
2801
330
2802
330
2803
330
2804
330
2805
330
2806
330
2807
330
2808
330
2809
330
280A
330
280B
330
280C
330
280D
330
280E
330
280F
330
2810
330
2811
330
2812
330
2813
330
2814
330
2815
330
2816
330
2817
330
2818
330
2819
330
281A
330
281B
330
281C
330
281D
330
281E
330
281F
330
2820
330
2821
330
2822
330
2823
330
2824
330
2825
330
2826
330
2827
330
2828
330
2829
330
282A
330
282B
330
282C
330
282D
330
282E
330
282F
330
2830
330
2831
330
2832
330
2833
330
2834
330
2835
330
2836
330
2837
330
2838
330
2839
330
283A
330
283B
330
283C
330
283D
330
283E
330
283F
330
2840
330
2841
330
2842
330
2843
330
2844
330
2845
330
2846
330
2847
330
2848
330
2849
330
284A
330
284B
330
284C
330
284D
330
284E
330
284F
330
2850
330
2851
330
2852
330
2853
330
2854
330
2855
330
2856
330
2857
330
2858
330
2859
330
285A
330
285B
330
28FE
330
28FF
330
2900
330
2901
330
2902
330
2903
330
2904
330
2905
330
2906
330
2907
330
2908
330
2909
330
290A
330
290B
330
290C
330
290D
330
290E
330
290F
330
2910
330
2911
330
2912
330
2913
330
2914
330
2915
330
2916
330
2917
330
2918
330
2919
330
291A
330
291B
330
291C
330
291D
330
291E
330
291F
330
2920
330
2921
330
2922
330
2923
330
2924
330
2925
330
2926
330
2927
330
2928
330
2929
330
292A
330
292B
330
292C
330
292D
330
292E
330
292F
330
2930
330
2931
330
2932
330
2933
330
2934
330
2935
330
2936
330
2937
330
2938
330
2939
330
293A
330
293B
330
293C
330
293D
330
293E
330
293F
330
2940
330
2941
330
2942
330
2943
330
2944
330
2945
330
2946
330
2947
330
2948
330
2949
330
294A
330
294B
330
294C
330
294D
330
294E
330
294F
330
2950
330
2951
330
2952
330
2953
330
2954
330
2955
330
2956
330
2957
330
2958
330
2959
330
295A
330
295B
330
295C
330
295D
330
295E
330
295F
330
2960
330
2961
330
2962
330
2963
330
2964
330
2965
330
2966
330
2967
330
2968
330
2969
330
296A
330
296B
330
296C
330
296D
330
296E
330
296F
330
2970
330
2971
330
2972
330
2973
330
2974
330
2975
330
2976
330
2977
330
2978
330
2979
330
297A
330
297B
330
297C
330
297D
330
297E
330
297F
330
2980
330
2981
330
2982
330
2983
330
2984
330
2985
330
2986
330
2987
330
2988
330
2989
330
298A
330
298B
330
298C
330
298D
330
298E
330
298F
330
2990
330
2991
330
2992
330
2993
330
2994
330
2995
330
2996
330
2997
330
2998
330
2999
330
299A
330
299B
330
299C
330
299D
330
299E
330
299F
330
29A0
330
29A1
330
29A2
330
29A3
330
29A4
330
29A5
330
29A6
330
29A7
330
29A8
330
29A9
330
29AA
330
29AB
330
29AC
330
29AD
330
29AE
330
29AF
330
29B0
330
29B1
330
29B2
330
29B3
330
29B4
330
29B5
330
29B6
330
29B7
330
29B8
330
29B9
330
29BA
330
29BB
330
29BC
330
29BD
330
29BE
330
29BF
330
29C0
330
29C1
330
29C2
330
29C3
330
29C4
330
29C5
330
29C6
330
29C7
330
29C8
330
29C9
330
29CA
330
29CB
330
29CC
330
29CD
330
29CE
330
29CF
330
29D0
330
29D1
330
29D2
330
29D3
330
29D4
330
29D5
330
29D6
330
29D7
330
29D8
330
29D9
330
29DA
330
29DB
330
29DC
330
29DD
330
29DE
330
29DF
330
29E0
330
29E1
330
29E2
330
29E3
330
29E4
330
29E5
330
29E6
330
29E7
330
29E8
330
29E9
330
29EA
330
29EB
330
29EC
330
29ED
330
29EE
330
29EF
330
29F0
330
29F1
330
29F2
330
29F3
330
29F4
330
29F5
330
29F6
330
29F7
330
29F8
330
29F9
330
29FA
330
29FB
330
29FC
330
29FD
330
29FE
330
29FF
330
2A00
330
2A01
330
2A02
330
2A03
330
2A04
330
2A05
330
2A06
330
2A07
330
2A08
330
2A09
330
2A0A
330
2A0B
330
2A0C
330
2A0D
330
2A0E
330
2A0F
330
2A10
330
2A11
330
2A12
330
2A13
330
2A14
330
2A15
330
2A16
330
2A17
330
2A18
330
2A19
330
2A1A
330
2A1B
330
2A1C
330
2A1D
330
2A1E
330
2A1F
330
2A20
330
2A21
330
2A22
330
2A23
330
2A24
330
2A25
330
2A26
330
2A27
330
2A28
330
2A29
330
2A2A
330
2A2B
330
2A2C
330
2A2D
330
2A2E
330
2A2F
330
2A30
330
2A31
330
2A32
330
2A33
330
2A34
330
2A35
330
2A36
330
2A37
330
2A38
330
2A39
330
2A3A
330
2A3B
330
2A3C
330
2A3D
330
2A3E
330
2A3F
330
2A40
330
2A41
330
2A42
330
2A43
330
2A44
330
2A45
330
2A46
330
2A47
330
2A48
330
2A49
330
2A4A
330
2A4B
330
2A4C
330
2A4D
330
2A4E
330
2A4F
330
2A50
330
2A51
330
2A52
330
2A53
330
2A54
330
2A55
330
2A56
330
2A57
330
2A58
330
2A59
330
2A5A
330
2A5B
330
2A5C
330
2A5D
330
2A5E
330
2A5F
330
2A60
330
2A61
330
2A62
330
2A63
330
2A64
330
2A65
330
2A66
330
2A67
330
2A68
330
2A69
330
2A6A
330
2A6B
330
2A6C
330
2A6D
330
2A6E
330
2A6F
330
2A70
330
2A71
330
2A72
330
2A73
330
2A74
330
2A75
330
2A76
  0
IDBUFFER
  5
502
330
0
100
AcDbIdBuffer
  0
IDBUFFER
  5
503
330
0
100
AcDbIdBuffer
330
496F
330
4970
330
4971
330
4972
330
4973
330
4974
330
4975
330
4976
330
4977
330
4978
330
4979
330
497A
330
497B
330
497C
330
497D
330
497E
330
497F
330
4980
330
4981
330
4982
330
4983
330
4984
330
4985
330
4986
330
4987
330
4988
330
4989
330
498A
330
498B
330
498C
330
498D
330
498E
330
498F
330
4990
330
4991
330
4992
330
4993
330
4994
330
4995
330
4996
330
4997
330
4998
330
4999
330
499A
330
499B
330
499C
330
499D
330
499E
330
499F
330
49A0
330
49A1
330
49A2
330
49A3
330
49A4
330
49A5
330
49A6
330
49A7
330
49A8
330
49A9
330
49AA
330
49AB
330
49AC
330
49AD
330
49AE
330
49AF
330
49B0
330
49B1
330
49B2
330
49B3
330
49B4
330
49B5
330
49B6
330
49B7
330
49B8
330
49B9
330
49BA
330
49BB
330
49BC
330
49BD
330
49BE
330
49BF
330
49C0
330
49C1
330
49C2
330
49C3
330
49C4
330
49C5
330
49C6
330
49C7
330
49C8
330
49C9
330
49CA
330
49CB
330
49CC
330
49CD
330
49CE
330
49CF
330
49D0
330
49D1
330
49D2
330
49D3
330
49D4
330
49D5
330
49D6
330
49D7
330
49D8
330
49D9
330
49DA
330
49DB
330
49DC
330
49DD
330
49DE
330
49DF
330
49E0
330
49E1
330
49E2
330
49E3
330
49E4
330
49E5
330
49E6
330
49E7
330
49E8
330
49E9
330
49EA
330
49EB
330
49EC
330
49ED
330
49EE
330
49EF
330
49F0
330
49F1
330
49F2
330
49F3
330
49F4
330
49F5
330
49F6
330
49F7
330
49F8
330
49F9
330
49FA
330
49FB
330
49FC
330
49FD
330
49FE
330
49FF
  0
IDBUFFER
  5
1C7D
330
0
100
AcDbIdBuffer
330
2A9A
330
2A9B
330
2A9C
330
2A9D
330
2A9E
330
2A9F
330
2AA0
330
2AA1
330
2AA2
330
2AA3
330
2AA4
330
2AA5
330
2AA6
330
2AA7
330
2AA8
330
2AA9
330
2AAA
330
2AAB
330
2AAC
330
2AAD
330
2AAE
330
2AAF
330
2AB0
330
2AB1
330
2AB2
330
2AB3
330
2AB4
330
2AB5
330
2AB6
330
2AB7
330
2AB8
330
2AB9
330
2B10
330
2B11
330
2B12
330
2B13
330
2B14
330
2B15
330
2B16
330
2B17
330
2B18
330
2B19
330
2B1A
330
2B1B
330
2B1C
330
2B1D
330
2B1E
330
2B1F
330
2B20
330
2B21
330
2B22
330
2B23
330
2B24
330
2B25
330
2B26
330
2B27
330
2B28
330
2B29
330
2B2A
330
2B2B
330
2B2C
330
2B2D
330
2B2E
330
2B2F
330
2B30
330
2B31
330
2B32
330
2B33
330
2B34
330
2B35
330
2B36
330
2B37
330
2B38
330
2B39
330
2B3A
330
2B3B
330
2B3C
330
2B3D
330
2B3E
330
2B3F
330
2B40
330
2B41
330
2B42
330
2B43
330
2B44
330
2B45
330
2B46
330
2B47
330
2B48
330
2B49
330
2B4A
  0
IDBUFFER
  5
1C7F
330
0
100
AcDbIdBuffer
330
2A77
330
2A8A
330
2A8B
330
2A8C
330
2A8D
330
2A8E
330
2A8F
330
2A90
330
2A91
330
2A93
330
2A94
330
2A95
330
2A96
330
2A97
330
2A98
330
2A99
330
30EB
330
3985
  0
ENDSEC
  0
EOF
