  0
SECTION
  2
HEADER
  9
$ACADVER
  1
AC1015
  9
$ACADMAINTVER
 70
    20
  9
$DWGCODEPAGE
  3
ANSI_950
  9
$INSBASE
 10
0.0
 20
0.0
 30
0.0
  9
$EXTMIN
 10
213.3929376197498
 20
11.45654367359418
 30
-0.0009005508617577
  9
$EXTMAX
 10
455.7663633859537
 20
187.7232519070655
 30
115.5049238053264
  9
$LIMMIN
 10
0.0
 20
0.0
  9
$LIMMAX
 10
420.0
 20
297.0
  9
$ORTHOMODE
 70
     0
  9
$REGENMODE
 70
     1
  9
$FILLMODE
 70
     1
  9
$QTEXTMODE
 70
     0
  9
$MIRRTEXT
 70
     1
  9
$LTSCALE
 40
1.0
  9
$ATTMODE
 70
     1
  9
$TEXTSIZE
 40
3.0
  9
$TRACEWID
 40
1.0
  9
$TEXTSTYLE
  7
STANDARD
  9
$CLAYER
  8
0
  9
$CELTYPE
  6
ByLayer
  9
$CECOLOR
 62
   256
  9
$CELTSCALE
 40
1.0
  9
$DISPSILH
 70
     0
  9
$DIMSCALE
 40
1.0
  9
$DIMASZ
 40
3.0
  9
$DIMEXO
 40
1.0
  9
$DIMDLI
 40
7.0
  9
$DIMRND
 40
0.0
  9
$DIMDLE
 40
0.0
  9
$DIMEXE
 40
1.5
  9
$DIMTP
 40
0.1
  9
$DIMTM
 40
0.1
  9
$DIMTXT
 40
3.5
  9
$DIMCEN
 40
0.0
  9
$DIMTSZ
 40
0.0
  9
$DIMTOL
 70
     0
  9
$DIMLIM
 70
     0
  9
$DIMTIH
 70
     0
  9
$DIMTOH
 70
     0
  9
$DIMSE1
 70
     0
  9
$DIMSE2
 70
     0
  9
$DIMTAD
 70
     1
  9
$DIMZIN
 70
     8
  9
$DIMBLK
  1

  9
$DIMASO
 70
     1
  9
$DIMSHO
 70
     1
  9
$DIMPOST
  1

  9
$DIMAPOST
  1
"
  9
$DIMALT
 70
     0
  9
$DIMALTD
 70
     2
  9
$DIMALTF
 40
0.0393701
  9
$DIMLFAC
 40
1.0
  9
$DIMTOFL
 70
     1
  9
$DIMTVP
 40
0.0
  9
$DIMTIX
 70
     0
  9
$DIMSOXD
 70
     0
  9
$DIMSAH
 70
     0
  9
$DIMBLK1
  1

  9
$DIMBLK2
  1

  9
$DIMSTYLE
  2
AM_ISO
  9
$DIMCLRD
 70
   256
  9
$DIMCLRE
 70
   256
  9
$DIMCLRT
 70
   256
  9
$DIMTFAC
 40
0.6
  9
$DIMGAP
 40
0.7
  9
$DIMJUST
 70
     0
  9
$DIMSD1
 70
     0
  9
$DIMSD2
 70
     0
  9
$DIMTOLJ
 70
     0
  9
$DIMTZIN
 70
     8
  9
$DIMALTZ
 70
     0
  9
$DIMALTTZ
 70
     0
  9
$DIMUPT
 70
     0
  9
$DIMDEC
 70
     2
  9
$DIMTDEC
 70
     2
  9
$DIMALTU
 70
     2
  9
$DIMALTTD
 70
     2
  9
$DIMTXSTY
  7
STANDARD
  9
$DIMAUNIT
 70
     0
  9
$DIMADEC
 70
     0
  9
$DIMALTRND
 40
0.0
  9
$DIMAZIN
 70
     2
  9
$DIMDSEP
 70
    46
  9
$DIMATFIT
 70
     3
  9
$DIMFRAC
 70
     0
  9
$DIMLDRBLK
  1

  9
$DIMLUNIT
 70
     2
  9
$DIMLWD
 70
    -1
  9
$DIMLWE
 70
    -1
  9
$DIMTMOVE
 70
     0
  9
$LUNITS
 70
     2
  9
$LUPREC
 70
     2
  9
$SKETCHINC
 40
1.0
  9
$FILLETRAD
 40
2.5
  9
$AUNITS
 70
     0
  9
$AUPREC
 70
     0
  9
$MENU
  1
.
  9
$ELEVATION
 40
0.0
  9
$PELEVATION
 40
0.0
  9
$THICKNESS
 40
0.0
  9
$LIMCHECK
 70
     0
  9
$CHAMFERA
 40
2.5
  9
$CHAMFERB
 40
2.5
  9
$CHAMFERC
 40
20.0
  9
$CHAMFERD
 40
0.0
  9
$SKPOLY
 70
     0
  9
$TDCREATE
 40
2454013.612854456
  9
$TDUCREATE
 40
2454013.279521123
  9
$TDUPDATE
 40
2454658.585834236
  9
$TDUUPDATE
 40
2454658.252500903
  9
$TDINDWG
 40
0.1508624306
  9
$TDUSRTIMER
 40
0.1508624306
  9
$USRTIMER
 70
     1
  9
$ANGBASE
 50
0.0
  9
$ANGDIR
 70
     0
  9
$PDMODE
 70
     0
  9
$PDSIZE
 40
0.0
  9
$PLINEWID
 40
0.0
  9
$SPLFRAME
 70
     0
  9
$SPLINETYPE
 70
     6
  9
$SPLINESEGS
 70
     8
  9
$HANDSEED
  5
2A3E
  9
$SURFTAB1
 70
     6
  9
$SURFTAB2
 70
     6
  9
$SURFTYPE
 70
     6
  9
$SURFU
 70
     6
  9
$SURFV
 70
     6
  9
$UCSBASE
  2

  9
$UCSNAME
  2

  9
$UCSORG
 10
0.0
 20
0.0
 30
0.0
  9
$UCSXDIR
 10
1.0
 20
0.0
 30
0.0
  9
$UCSYDIR
 10
0.0
 20
1.0
 30
0.0
  9
$UCSORTHOREF
  2

  9
$UCSORTHOVIEW
 70
     0
  9
$UCSORGTOP
 10
0.0
 20
0.0
 30
0.0
  9
$UCSORGBOTTOM
 10
0.0
 20
0.0
 30
0.0
  9
$UCSORGLEFT
 10
0.0
 20
0.0
 30
0.0
  9
$UCSORGRIGHT
 10
0.0
 20
0.0
 30
0.0
  9
$UCSORGFRONT
 10
0.0
 20
0.0
 30
0.0
  9
$UCSORGBACK
 10
0.0
 20
0.0
 30
0.0
  9
$PUCSBASE
  2

  9
$PUCSNAME
  2

  9
$PUCSORG
 10
0.0
 20
0.0
 30
0.0
  9
$PUCSXDIR
 10
1.0
 20
0.0
 30
0.0
  9
$PUCSYDIR
 10
0.0
 20
1.0
 30
0.0
  9
$PUCSORTHOREF
  2

  9
$PUCSORTHOVIEW
 70
     0
  9
$PUCSORGTOP
 10
0.0
 20
0.0
 30
0.0
  9
$PUCSORGBOTTOM
 10
0.0
 20
0.0
 30
0.0
  9
$PUCSORGLEFT
 10
0.0
 20
0.0
 30
0.0
  9
$PUCSORGRIGHT
 10
0.0
 20
0.0
 30
0.0
  9
$PUCSORGFRONT
 10
0.0
 20
0.0
 30
0.0
  9
$PUCSORGBACK
 10
0.0
 20
0.0
 30
0.0
  9
$USERI1
 70
     0
  9
$USERI2
 70
     0
  9
$USERI3
 70
     0
  9
$USERI4
 70
     0
  9
$USERI5
 70
     0
  9
$USERR1
 40
0.0
  9
$USERR2
 40
0.0
  9
$USERR3
 40
0.0
  9
$USERR4
 40
0.0
  9
$USERR5
 40
0.0
  9
$WORLDVIEW
 70
     1
  9
$SHADEDGE
 70
     3
  9
$SHADEDIF
 70
    70
  9
$TILEMODE
 70
     1
  9
$MAXACTVP
 70
    64
  9
$PINSBASE
 10
0.0
 20
0.0
 30
0.0
  9
$PLIMCHECK
 70
     0
  9
$PEXTMIN
 10
1.000000000000000E+20
 20
1.000000000000000E+20
 30
1.000000000000000E+20
  9
$PEXTMAX
 10
-1.000000000000000E+20
 20
-1.000000000000000E+20
 30
-1.000000000000000E+20
  9
$PLIMMIN
 10
0.0
 20
0.0
  9
$PLIMMAX
 10
420.0
 20
297.0
  9
$UNITMODE
 70
     0
  9
$VISRETAIN
 70
     1
  9
$PLINEGEN
 70
     0
  9
$PSLTSCALE
 70
     1
  9
$TREEDEPTH
 70
  3020
  9
$CMLSTYLE
  2
Standard
  9
$CMLJUST
 70
     0
  9
$CMLSCALE
 40
20.0
  9
$PROXYGRAPHICS
 70
     1
  9
$MEASUREMENT
 70
     1
  9
$CELWEIGHT
370
    -1
  9
$ENDCAPS
280
     0
  9
$JOINSTYLE
280
     0
  9
$LWDISPLAY
290
     0
  9
$INSUNITS
 70
     4
  9
$HYPERLINKBASE
  1

  9
$STYLESHEET
  1
單色出圖.ctb
  9
$XEDIT
290
     1
  9
$CEPSNTYPE
380
     0
  9
$PSTYLEMODE
290
     1
  9
$FINGERPRINTGUID
  2
{25AFC6F0-9DA1-4431-A483-4DF0D038E6B1}
  9
$VERSIONGUID
  2
{6094966A-1D84-408F-A8F9-CBA43D9EE2A2}
  9
$EXTNAMES
290
     1
  9
$PSVPSCALE
 40
0.0
  9
$OLESTARTUP
290
     0
  0
ENDSEC
  0
SECTION
  2
CLASSES
  0
CLASS
  1
ACDBDICTIONARYWDFLT
  2
AcDbDictionaryWithDefault
  3
ObjectDBX Classes
 90
        0
280
     0
281
     0
  0
CLASS
  1
ACDBPLACEHOLDER
  2
AcDbPlaceHolder
  3
ObjectDBX Classes
 90
        0
280
     0
281
     0
  0
CLASS
  1
LAYOUT
  2
AcDbLayout
  3
ObjectDBX Classes
 90
        0
280
     0
281
     0
  0
CLASS
  1
ACME_DOCUMENT
  2
AcMeDbDoc
  3
AcMeServices
 90
        0
280
     0
281
     0
  0
CLASS
  1
AMGSETTINGSOBJ
  2
AmgSettingsObj
  3
"AcadM|Product Description: AutoCAD Mechanical 2000|Company: Autodesk"
 90
        0
280
     0
281
     0
  0
CLASS
  1
ACMESCOPE
  2
AcMeScope
  3
AcMeServices
 90
        0
280
     0
281
     0
  0
CLASS
  1
ACMECOMMANDHISTORY
  2
AcMeCommandHistory
  3
AcMeServices
 90
        0
280
     0
281
     0
  0
CLASS
  1
ACIMSYSVARMAN
  2
AcImSysVarManager
  3
AcMeServices
 90
        0
280
     0
281
     0
  0
CLASS
  1
ACIMREALSYSVAR
  2
AcImRealSysVar
  3
AcMeServices
 90
        0
280
     0
281
     0
  0
CLASS
  1
ACIMINTSYSVAR
  2
AcImIntSysVar
  3
AcMeServices
 90
        0
280
     0
281
     0
  0
CLASS
  1
ACMEDRAWINGMAN
  2
AcMeDrawingMan
  3
AcMeServices
 90
        0
280
     0
281
     0
  0
CLASS
  1
ACMEVIEW
  2
AcMeView
  3
AcMeServices
 90
        0
280
     0
281
     0
  0
CLASS
  1
ACDBENTITYCACHE
  2
AcMeEntityCache
  3
AcMeServices
 90
        0
280
     0
281
     0
  0
CLASS
  1
GSMANAGER
  2
AcMeGSManager
  3
AcMeServices
 90
        0
280
     0
281
     0
  0
CLASS
  1
AMDTINTERNALREACTOR
  2
AmdtInternalReactor
  3
AcMeServices
 90
        0
280
     0
281
     0
  0
CLASS
  1
ACMESTATEMGR
  2
AcMeStateMgr
  3
AcMeServices
 90
        0
280
     0
281
     0
  0
CLASS
  1
ACGREFMASTER
  2
AcGrefMaster
  3
AcAttribServices
 90
        0
280
     0
281
     0
  0
CLASS
  1
ACME_DATABASE
  2
AcMeDbDatabase
  3
AcMeServices
 90
        0
280
     0
281
     0
  0
CLASS
  1
ACRFINSADJUSTERMGR
  2
AcRfInsAdjusterMgr
  3
AcMeServices
 90
        0
280
     0
281
     0
  0
CLASS
  1
ACGREFACADMASTER
  2
AcGrefacadMaster
  3
AcGrefServices
 90
        0
280
     0
281
     0
  0
CLASS
  1
AMIMASTER
  2
AmiMaster
  3
AmiServices
 90
        0
280
     0
281
     0
  0
CLASS
  1
ACMDATADICTIONARY
  2
AcmDataDictionary
  3
"AcmSymBB|Product Description: AutoCAD Mechanical 2004 DX|Company: Autodesk"
 90
        0
280
     0
281
     0
  0
CLASS
  1
ACMDATAENTRYBLOCK
  2
AcmDataEntryBlock
  3
"AcmSymBB|Product Description: AutoCAD Mechanical 2004 DX|Company: Autodesk"
 90
    32768
280
     0
281
     0
  0
CLASS
  1
ACIMSTRSYSVAR
  2
AcImStrSysVar
  3
AcMeServices
 90
        0
280
     0
281
     0
  0
CLASS
  1
ACMSTANDARDISO
  2
AcmStandardISO
  3
"Amdt_StdImp|Product Description: AutoCAD Mechanical 2004 DX|Company: Autodesk"
 90
        0
280
     0
281
     0
  0
CLASS
  1
AMGOBJPROPCFG
  2
AmgObjPropCfg
  3
"AmgLay|Product Description: AutoCAD Mechanical 2000|Company: Autodesk"
 90
        1
280
     0
281
     0
  0
CLASS
  1
AMDTEDGESTANDARDISO
  2
AmdtEdgeStdISO
  3
"Amdt_StdImp|Product Description: AutoCAD Mechanical 2004 DX|Company: Autodesk"
 90
    32768
280
     0
281
     0
  0
CLASS
  1
ACMSURFSTANDARDISO
  2
AcmSurfTextStdISO
  3
"Amdt_StdImp|Product Description: AutoCAD Mechanical 2004 DX|Company: Autodesk"
 90
        0
280
     0
281
     0
  0
CLASS
  1
ACMFCFSTANDARDISO
  2
AcmFCFStdISO
  3
"Amdt_StdImp|Product Description: AutoCAD Mechanical 2004 DX|Company: Autodesk"
 90
        0
280
     0
281
     0
  0
CLASS
  1
ACMWELDSTANDARDISO
  2
AcmWeldingStdISO
  3
"Amdt_StdImp|Product Description: AutoCAD Mechanical 2004 DX|Company: Autodesk"
 90
        0
280
     0
281
     0
  0
CLASS
  1
ACMIDSTANDARDISO
  2
AcmIdStdISO
  3
"Amdt_StdImp|Product Description: AutoCAD Mechanical 2004 DX|Company: Autodesk"
 90
        0
280
     0
281
     0
  0
CLASS
  1
ACMDATUMSTANDARDISO
  2
AcmDatumStdISO
  3
"Amdt_StdImp|Product Description: AutoCAD Mechanical 2004 DX|Company: Autodesk"
 90
        0
280
     0
281
     0
  0
CLASS
  1
ACMBOMSTANDARDISO
  2
AcmBOMStdISO
  3
"Amdt_StdImp|Product Description: AutoCAD Mechanical 2004 DX|Company: Autodesk"
 90
        0
280
     0
281
     0
  0
CLASS
  1
ACMDETAILSTANDARDISO
  2
AmdtDetailSymStdISO
  3
"Amdt_StdImp|Product Description: AutoCAD Mechanical 2004 DX|Company: Autodesk"
 90
        0
280
     0
281
     0
  0
CLASS
  1
ACMSECTIONSTANDARDISO
  2
AmdtSectionSymStdISO
  3
"Amdt_StdImp|Product Description: AutoCAD Mechanical 2004 DX|Company: Autodesk"
 90
        0
280
     0
281
     0
  0
CLASS
  1
ACMCENTERLINESTANDARDISO
  2
AmdtCenterLineStdISO
  3
"Amdt_StdImp|Product Description: AutoCAD Mechanical 2004 DX|Company: Autodesk"
 90
        0
280
     0
281
     0
  0
CLASS
  1
ACMNOTESTANDARDISO
  2
AmdtNoteStdISO
  3
"Amdt_StdImp|Product Description: AutoCAD Mechanical 2004 DX|Company: Autodesk"
 90
        0
280
     0
281
     0
  0
CLASS
  1
ACAMGLAYSTD
  2
AcAmgLayStd
  3
"AcAmgLayStd|Product Description: AutoCAD Mechanical 2000|Company: Autodesk"
 90
        0
280
     0
281
     0
  0
CLASS
  1
ACAMGDIMSTD
  2
AcAmgDimStd
  3
"AcAmgDimStd|Product Description: AutoCAD Mechanical 2000|Company: Autodesk"
 90
        0
280
     0
281
     0
  0
CLASS
  1
ACAMGHOLECHARTSTDISO
  2
AcAmgHoleChartStdISO
  3
ACMSYMBB_MODULE_NAME
 90
        0
280
     0
281
     0
  0
CLASS
  1
ACAMGTITLESTD
  2
AcAmgTitleStd
  3
"TITLEAPP"
 90
        0
280
     0
281
     0
  0
CLASS
  1
LAYER_INDEX
  2
AcDbLayerIndex
  3
ObjectDBX Classes
 90
    32768
280
     0
281
     0
  0
CLASS
  1
IDBUFFER
  2
AcDbIdBuffer
  3
ObjectDBX Classes
 90
    32768
280
     0
281
     0
  0
CLASS
  1
DICTIONARYVAR
  2
AcDbDictionaryVar
  3
ObjectDBX Classes
 90
        0
280
     0
281
     0
  0
CLASS
  1
AM_DRAWING_MGR
  2
AcDmDwgMgr
  3
AcMechDwgViewMgmt
 90
        0
280
     0
281
     0
  0
CLASS
  1
AM_DWG_DOCUMENT
  2
AcDmDwgDocument
  3
AcMechDwgViewMgmt
 90
        0
280
     0
281
     0
  0
CLASS
  1
AM_DWG_SHEET
  2
AcDmSheet
  3
AcMechDwgViewMgmt
 90
        0
280
     0
281
     0
  0
CLASS
  1
AM_VIEWDIMPARMAP
  2
AcDmViewDimParMap
  3
AcMechDwgViewMgmt
 90
        0
280
     0
281
     0
  0
CLASS
  1
AM_DWGMGR_NAME
  2
AcDmDwgMgrName
  3
AcMechDwgViewMgmt
 90
        0
280
     0
281
     0
  0
CLASS
  1
AMDTMENUSTATEMGR
  2
AmdtMenuStateMgr
  3
McadcomServices
 90
        0
280
     0
281
     0
  0
CLASS
  1
AMDTMCOMMENUSTATE
  2
AmdtMcomMenuState
  3
McadcomServices
 90
        0
280
     0
281
     0
  0
CLASS
  1
MAPIAMMOUDLE
  2
MApiAmModule
  3
MApiAmServices
 90
        0
280
     0
281
     0
  0
CLASS
  1
AMDTADMENUSTATE
  2
AmdtAdMenuState
  3
DesignerServices
 90
        0
280
     0
281
     0
  0
CLASS
  1
ADAPPL
  2
AcAdAppl
  3
DesignerServices
 90
        0
280
     0
281
     0
  0
CLASS
  1
DEPMGR
  2
AcAdDepMgr
  3
DesignerServices
 90
        0
280
     0
281
     0
  0
CLASS
  1
PARAMMGR
  2
AcAdParamMgr
  3
DesignerServices
 90
        0
280
     0
281
     0
  0
CLASS
  1
PARAMSCOPE
  2
AcAdParamScope
  3
DesignerServices
 90
        0
280
     0
281
     0
  0
CLASS
  1
NAMEDAPPL
  2
AcAdNamedAppl
  3
DesignerServices
 90
        0
280
     0
281
     0
  0
CLASS
  1
AMDTDMMENUSTATE
  2
AmdtDmMenuState
  3
AcMechDwgViewMgmt
 90
        0
280
     0
281
     0
  0
CLASS
  1
AMDTAMMENUSTATE
  2
AmdtAmMenuState
  3
DesignerAssemblies
 90
        0
280
     0
281
     0
  0
CLASS
  1
ACAMPROJECT
  2
AcAmProject
  3
DesignerAssemblies
 90
        0
280
     0
281
     0
  0
CLASS
  1
ACAMGRCOMPDEF
  2
AcAmGrCompDef
  3
DesignerAssemblies
 90
        0
280
     0
281
     0
  0
CLASS
  1
ACCMCONTEXT
  2
AcCmContext
  3
DesignerAssemblies
 90
        0
280
     0
281
     0
  0
CLASS
  1
ACAMCOMPDEF
  2
AcAmCompDef
  3
DesignerAssemblies
 90
        0
280
     0
281
     0
  0
CLASS
  1
ACAMCOMPDEFMGR
  2
AcAmCompDefMgr
  3
DesignerAssemblies
 90
        0
280
     0
281
     0
  0
CLASS
  1
AMCONTEXTMGR
  2
AcAmContextMgr
  3
DesignerAssemblies
 90
        0
280
     0
281
     0
  0
CLASS
  1
ACAMCONTEXTMODELER
  2
AcAmContextModeler
  3
DesignerAssemblies
 90
        0
280
     0
281
     0
  0
CLASS
  1
ACMTHREADLINESTANDARDISO
  2
AmdtThreadLineStdISO
  3
"Amdt_StdImp|Product Description: AutoCAD Mechanical 2004 DX|Company: Autodesk"
 90
        0
280
     0
281
     0
  0
CLASS
  1
CATALOGSTATE
  2
AcAmCatalogState
  3
DesignerAssemblies
 90
        0
280
     0
281
     0
  0
CLASS
  1
ACAMGRCOMPDEFSET
  2
AcAmGrCompDefSet
  3
DesignerAssemblies
 90
        0
280
     0
281
     0
  0
CLASS
  1
AMDTBROWSERDBTAB
  2
AmdtBrowserDbTab
  3
McadcomServices
 90
        0
280
     0
281
     0
  0
CLASS
  1
CBROWSERAPPOBJECT
  2
CBrowserAppObject
  3
McadcomServices
 90
        0
280
     0
281
     0
  0
CLASS
  1
DM_PLACEHOLDER
  2
AcDmSelsetPlaceholder
  3
AcMechDwgViewMgmt
 90
        0
280
     0
281
     0
  0
CLASS
  1
TABLESTYLE
  2
AcDbTableStyle
  3
ObjectDBX Classes
 90
     2047
280
     0
281
     0
  0
CLASS
  1
VAACXREFPANELOBJECT
  2
VaAcXREFPanelObject
  3
VAAC_ADDIN
 90
    32768
280
     0
281
     0
  0
CLASS
  1
VAACIMAGEINVENTORY
  2
VaAcImageInventory
  3
VAAC_ADDIN
 90
    32768
280
     0
281
     0
  0
CLASS
  1
AMDTNOTETEMPLATEDB
  2
AmdtNoteTemplateDB
  3
AMDT_STDIMP_MODULE_NAME
 90
        0
280
     0
281
     0
  0
CLASS
  1
ACMBOM
  2
AcmBom
  3
"AcmSymBB|Product Description: AutoCAD Mechanical 2004 DX|Company: Autodesk"
 90
    32768
280
     0
281
     0
  0
CLASS
  1
AMDTFORMULAUPDATEDISPATCHER
  2
AmdtFormulaUpdateDispatcher
  3
AcMeServices
 90
    32768
280
     0
281
     0
  0
CLASS
  1
ACMPARTLIST
  2
AcmPartList
  3
"AcmSymBB|Product Description: AutoCAD Mechanical 2004 DX|Company: Autodesk"
 90
    33791
280
     0
281
     1
  0
CLASS
  1
ACAMGFILTERDAT
  2
AcAmgFilterDat
  3
"AcadM|Product Description: AutoCAD Mechanical 2000|Company: Autodesk"
 90
    32768
280
     0
281
     0
  0
CLASS
  1
DIMASSOC
  2
AcDbDimAssoc
  3
"AcDbDimAssoc|Product Desc:     AcDim ARX App For Dimension|Company:          Autodesk, Inc.|WEB Address:      www.autodesk.com"
 90
        0
280
     0
281
     0
  0
CLASS
  1
SORTENTSTABLE
  2
AcDbSortentsTable
  3
ObjectDBX Classes
 90
        0
280
     0
281
     0
  0
CLASS
  1
AMDTNOTE
  2
AmdtNote
  3
"AcmSymBB|Product Description: AutoCAD Mechanical 2004 DX|Company: Autodesk"
 90
    33791
280
     0
281
     1
  0
CLASS
  1
AMDTEDGESTANDARDISO13715
  2
AmdtEdgeStdISO13715
  3
"Amdt_StdImp|Product Description: AutoCAD Mechanical 2004 DX|Company: Autodesk"
 90
        0
280
     0
281
     0
  0
CLASS
  1
ACRFATTGENMGR
  2
AcRfAttGeneralMgr
  3
AcAttribServices
 90
    32768
280
     0
281
     0
  0
ENDSEC
  0
SECTION
  2
TABLES
  0
TABLE
  2
VPORT
  5
8
330
0
100
AcDbSymbolTable
 70
     3
  0
VPORT
  5
2A35
330
8
100
AcDbSymbolTableRecord
100
AcDbViewportTableRecord
  2
*Active
 70
     0
 10
0.0
 20
0.0
 11
1.0
 21
1.0
 12
334.5796505028518
 22
99.58989779032988
 13
0.0
 23
0.0
 14
2.5
 24
2.5
 15
10.0
 25
10.0
 16
0.0
 26
0.0
 36
1.0
 17
0.0
 27
0.0
 37
0.0
 40
261.3193608551851
 41
0.9354838709677418
 42
50.0
 43
0.0
 44
0.0
 50
0.0
 51
0.0
 71
     0
 72
   100
 73
     1
 74
     3
 75
     0
 76
     0
 77
     0
 78
     0
281
     0
 65
     1
110
0.0
120
0.0
130
0.0
111
1.0
121
0.0
131
0.0
112
0.0
122
1.0
132
0.0
 79
     0
146
0.0
  0
ENDTAB
  0
TABLE
  2
LTYPE
  5
5
330
0
100
AcDbSymbolTable
 70
    15
  0
LTYPE
  5
14
330
5
100
AcDbSymbolTableRecord
100
AcDbLinetypeTableRecord
  2
ByBlock
 70
     0
  3

 72
    65
 73
     0
 40
0.0
  0
LTYPE
  5
15
330
5
100
AcDbSymbolTableRecord
100
AcDbLinetypeTableRecord
  2
ByLayer
 70
     0
  3

 72
    65
 73
     0
 40
0.0
  0
LTYPE
  5
16
330
5
100
AcDbSymbolTableRecord
100
AcDbLinetypeTableRecord
  2
Continuous
 70
     0
  3
Solid line
 72
    65
 73
     0
 40
0.0
  0
LTYPE
  5
64
330
5
100
AcDbSymbolTableRecord
100
AcDbLinetypeTableRecord
  2
AM_ISO02W050
 70
     0
  3
__ __ __ __ __ __ __ __ __ __ __ __ __ __ __
 72
    65
 73
     2
 40
7.5
 49
6.0
 74
     0
 49
-1.5
 74
     0
  0
LTYPE
  5
65
330
5
100
AcDbSymbolTableRecord
100
AcDbLinetypeTableRecord
  2
AM_ISO08W050
 70
     0
  3
____ . ____ . ____ . ____ . ____ . ____ . ____
 72
    65
 73
     4
 40
18.0
 49
12.0
 74
     0
 49
-1.5
 74
     0
 49
3.0
 74
     0
 49
-1.5
 74
     0
  0
LTYPE
  5
66
330
5
100
AcDbSymbolTableRecord
100
AcDbLinetypeTableRecord
  2
AM_ISO09W050
 70
     0
  3
_____ . . _____ . . _____ . . ____ .. ____
 72
    65
 73
     6
 40
22.5
 49
12.0
 74
     0
 49
-1.5
 74
     0
 49
3.0
 74
     0
 49
-1.5
 74
     0
 49
3.0
 74
     0
 49
-1.5
 74
     0
  0
LTYPE
  5
67
330
5
100
AcDbSymbolTableRecord
100
AcDbLinetypeTableRecord
  2
Amconstr
 70
     0
  3
_______________________
 72
    65
 73
     2
 40
9999.0
 49
9999.0
 74
     0
 49
0.0
 74
     0
  0
LTYPE
  5
68
330
5
100
AcDbSymbolTableRecord
100
AcDbLinetypeTableRecord
  2
AM_ISO08W050x2
 70
     0
  3
__ . __ . __ . __ . __ . __
 72
    65
 73
     4
 40
9.0
 49
6.0
 74
     0
 49
-0.75
 74
     0
 49
1.5
 74
     0
 49
-0.75
 74
     0
  0
LTYPE
  5
69
330
5
100
AcDbSymbolTableRecord
100
AcDbLinetypeTableRecord
  2
AM_ISO02W050x2
 70
     0
  3
 _ _ _ _ _ _ _ _ _ _ _ _
 72
    65
 73
     2
 40
3.75
 49
3.0
 74
     0
 49
-0.75
 74
     0
  0
LTYPE
  5
6C
330
5
100
AcDbSymbolTableRecord
100
AcDbLinetypeTableRecord
  2
Amzigzag
 70
     0
  3
/\/-/\/-/\/-/\/-/\/-/\/
 72
    65
 73
     2
 40
11.0001
 49
0.0001
 74
     4
 75
   135
340
6B
 46
0.04
 50
0.0
 44
0.0
 45
0.0
 49
-11.0
 74
     0
  0
LTYPE
  5
7A
330
5
100
AcDbSymbolTableRecord
100
AcDbLinetypeTableRecord
  2
ACISOWELD
 70
     0
  3
_ _ _ _ _
 72
    65
 73
     2
 40
2.0
 49
2.0
 74
     0
 49
-1.0
 74
     0
  0
LTYPE
  5
7B
330
5
100
AcDbSymbolTableRecord
100
AcDbLinetypeTableRecord
  2
ACISOTGB
 70
     0
  3
__ . . __ . .
 72
    65
 73
     6
 40
9.0
 49
4.0
 74
     0
 49
-1.0
 74
     0
 49
1.0
 74
     0
 49
-1.0
 74
     0
 49
1.0
 74
     0
 49
-1.0
 74
     0
  0
LTYPE
  5
7C
330
5
100
AcDbSymbolTableRecord
100
AcDbLinetypeTableRecord
  2
ACISOTGL
 70
     0
  3
_ _ _ _ _
 72
    65
 73
     2
 40
3.0
 49
2.0
 74
     0
 49
-1.0
 74
     0
  0
LTYPE
  5
7E
330
5
100
AcDbSymbolTableRecord
100
AcDbLinetypeTableRecord
  2
CENTER
 70
     0
  3
__ . __
 72
    65
 73
     4
 40
7.0
 49
4.0
 74
     0
 49
-1.0
 74
     0
 49
1.0
 74
     0
 49
-1.0
 74
     0
  0
LTYPE
  5
D8
330
5
100
AcDbSymbolTableRecord
100
AcDbLinetypeTableRecord
  2
HIDDEN
 70
     0
  3
Hidden __ __ __ __ __ __ __ __ __ __ __ __ __ _
 72
    65
 73
     2
 40
9.524999999999998
 49
6.349999999999999
 74
     0
 49
-3.174999999999999
 74
     0
  0
LTYPE
  5
D9
330
5
100
AcDbSymbolTableRecord
100
AcDbLinetypeTableRecord
  2
PHANTOM2
 70
     0
  3
Phantom (.5x) ___ _ _ ___ _ _ ___ _ _ ___ _ _
 72
    65
 73
     6
 40
31.75
 49
15.875
 74
     0
 49
-3.174999999999999
 74
     0
 49
3.174999999999999
 74
     0
 49
-3.174999999999999
 74
     0
 49
3.174999999999999
 74
     0
 49
-3.174999999999999
 74
     0
  0
LTYPE
  5
1ED2
330
5
100
AcDbSymbolTableRecord
100
AcDbLinetypeTableRecord
  2
HIDDEN2
 70
     0
  3
Hidden (.5x) _ _ _ _ _ _ _ _ _ _ _ _ _ _ _ _ _
 72
    65
 73
     2
 40
0.1875
 49
0.125
 74
     0
 49
-0.0625
 74
     0
  0
ENDTAB
  0
TABLE
  2
LAYER
  5
2
102
{ACAD_XDICTIONARY
360
3F9
102
}
330
0
100
AcDbSymbolTable
 70
     8
  0
LAYER
  5
10
330
2
100
AcDbSymbolTableRecord
100
AcDbLayerTableRecord
  2
0
 70
     0
 62
     7
  6
Continuous
370
    -3
390
F
  0
LAYER
  5
AB7
330
2
100
AcDbSymbolTableRecord
100
AcDbLayerTableRecord
  2
AM_5
 70
     0
 62
     5
  6
Continuous
370
    50
390
F
  0
LAYER
  5
AB8
330
2
100
AcDbSymbolTableRecord
100
AcDbLayerTableRecord
  2
Defpoints
 70
     0
 62
     7
  6
Continuous
290
     0
370
    -3
390
F
  0
LAYER
  5
AB9
330
2
100
AcDbSymbolTableRecord
100
AcDbLayerTableRecord
  2
LOGO
 70
     0
 62
     7
  6
Continuous
370
    -3
390
F
  0
LAYER
  5
ABA
330
2
100
AcDbSymbolTableRecord
100
AcDbLayerTableRecord
  2
AM_VIS
 70
     0
 62
     7
  6
Continuous
370
    50
390
F
  0
LAYER
  5
ABB
330
2
100
AcDbSymbolTableRecord
100
AcDbLayerTableRecord
  2
AM_7
 70
     0
 62
     1
  6
CENTER
370
    25
390
F
  0
LAYER
  5
ABC
330
2
100
AcDbSymbolTableRecord
100
AcDbLayerTableRecord
  2
AM_4
 70
     0
 62
     3
  6
Continuous
370
    25
390
F
  0
LAYER
  5
EF2
330
2
100
AcDbSymbolTableRecord
100
AcDbLayerTableRecord
  2
SL
 70
     0
 62
     4
  6
Continuous
370
    -3
390
F
1001
AcAecLayerStandard
1000

1000

  0
ENDTAB
  0
TABLE
  2
STYLE
  5
3
330
0
100
AcDbSymbolTable
 70
     6
  0
STYLE
  5
11
330
3
100
AcDbSymbolTableRecord
100
AcDbTextStyleTableRecord
  2
STANDARD
 70
     0
 40
0.0
 41
1.0
 50
0.0
 71
     0
 42
3.0
  3
ISOCP.SHX
  4
CHINESET.SHX
  0
STYLE
  5
6B
330
3
100
AcDbSymbolTableRecord
100
AcDbTextStyleTableRecord
  2

 70
     1
 40
0.0
 41
1.0
 50
0.0
 71
     0
 42
2.5
  3
ltypeshp.shx
  4

  0
STYLE
  5
6D
330
3
100
AcDbSymbolTableRecord
100
AcDbTextStyleTableRecord
  2
ACISOTS
 70
     0
 40
1.0
 41
1.0
 50
0.0
 71
     0
 42
1.0
  3
isocp.shx
  4
chineset.shx
  0
STYLE
  5
79
330
3
100
AcDbSymbolTableRecord
100
AcDbTextStyleTableRecord
  2
ACISOGDT
 70
     0
 40
0.0
 41
1.0
 50
0.0
 71
     0
 42
2.5
  3
amgdt.shx
  4
chineset.shx
  0
STYLE
  5
ABE
330
3
100
AcDbSymbolTableRecord
100
AcDbTextStyleTableRecord
  2
CHINESET
 70
     0
 40
0.0
 41
0.75
 50
0.0
 71
     0
 42
3.0
  3
simplex.shx
  4
CHINESET.SHX
  0
STYLE
  5
10CF
330
3
100
AcDbSymbolTableRecord
100
AcDbTextStyleTableRecord
  2
dayus
 70
     0
 40
0.0
 41
1.0
 50
0.0
 71
     0
 42
5.0
  3
simplex.shx
  4
dayus.shx
  0
ENDTAB
  0
TABLE
  2
VIEW
  5
6
330
0
100
AcDbSymbolTable
 70
     0
  0
ENDTAB
  0
TABLE
  2
UCS
  5
7
330
0
100
AcDbSymbolTable
 70
     0
  0
ENDTAB
  0
TABLE
  2
APPID
  5
9
330
0
100
AcDbSymbolTable
 70
    22
  0
APPID
  5
12
330
9
100
AcDbSymbolTableRecord
100
AcDbRegAppTableRecord
  2
ACAD
 70
     0
  0
APPID
  5
46
330
9
100
AcDbSymbolTableRecord
100
AcDbRegAppTableRecord
  2
MCAD_NO_VIS
 70
     0
  0
APPID
  5
47
330
9
100
AcDbSymbolTableRecord
100
AcDbRegAppTableRecord
  2
ACAD_TEMP_GRAPHIC
 70
     0
  0
APPID
  5
58
330
9
100
AcDbSymbolTableRecord
100
AcDbRegAppTableRecord
  2
ACATTRIBSERVICES
 70
     0
  0
APPID
  5
EE
330
9
100
AcDbSymbolTableRecord
100
AcDbRegAppTableRecord
  2
AD_DRAW
 70
     0
  0
APPID
  5
10C
330
9
100
AcDbSymbolTableRecord
100
AcDbRegAppTableRecord
  2
DESIGNERASSEMBLIES
 70
     0
  0
APPID
  5
111
330
9
100
AcDbSymbolTableRecord
100
AcDbRegAppTableRecord
  2
ACADM_DIM_EDIT
 70
     0
  0
APPID
  5
112
330
9
100
AcDbSymbolTableRecord
100
AcDbRegAppTableRecord
  2
AMDT_DM_ADJ
 70
     0
  0
APPID
  5
22C
330
9
100
AcDbSymbolTableRecord
100
AcDbRegAppTableRecord
  2
ACAD_DSTYLE_DIMTEXT_FILL
 70
     0
  0
APPID
  5
452
330
9
100
AcDbSymbolTableRecord
100
AcDbRegAppTableRecord
  2
GENIUS_GENOENT_13
 70
     0
  0
APPID
  5
453
330
9
100
AcDbSymbolTableRecord
100
AcDbRegAppTableRecord
  2
GENIUS_GENOBJ-N-CRS_13
 70
     0
  0
APPID
  5
454
330
9
100
AcDbSymbolTableRecord
100
AcDbRegAppTableRecord
  2
GENIUS_GENOLIS_13
 70
     0
  0
APPID
  5
455
330
9
100
AcDbSymbolTableRecord
100
AcDbRegAppTableRecord
  2
GENIUS_GENODEF_13
 70
     0
  0
APPID
  5
456
330
9
100
AcDbSymbolTableRecord
100
AcDbRegAppTableRecord
  2
GENIUS_GENOREF_13
 70
     0
  0
APPID
  5
6F3
330
9
100
AcDbSymbolTableRecord
100
AcDbRegAppTableRecord
  2
ACAD_PSEXT
 70
     0
  0
APPID
  5
808
330
9
100
AcDbSymbolTableRecord
100
AcDbRegAppTableRecord
  2
GENIUS_GENDTOL_13
 70
     0
  0
APPID
  5
AC0
330
9
100
AcDbSymbolTableRecord
100
AcDbRegAppTableRecord
  2
GENIUS_GENREC_14
 70
     0
  0
APPID
  5
AC1
330
9
100
AcDbSymbolTableRecord
100
AcDbRegAppTableRecord
  2
GENIUS_GENOBJ-N-REC_13
 70
     0
  0
APPID
  5
AC2
330
9
100
AcDbSymbolTableRecord
100
AcDbRegAppTableRecord
  2
GENIUS_GENOBJ-N-CEN_13
 70
     0
  0
APPID
  5
AC3
330
9
100
AcDbSymbolTableRecord
100
AcDbRegAppTableRecord
  2
GENIUS_GENCEN_19
 70
     0
  0
APPID
  5
EF3
330
9
100
AcDbSymbolTableRecord
100
AcDbRegAppTableRecord
  2
AcAecLayerStandard
 70
     0
  0
APPID
  5
18BA
330
9
100
AcDbSymbolTableRecord
100
AcDbRegAppTableRecord
  2
GENIUS_GENDIMSH_14
 70
     0
  0
ENDTAB
  0
TABLE
  2
DIMSTYLE
  5
A
330
0
100
AcDbSymbolTable
 70
     9
100
AcDbDimStyleTable
 71
     3
340
81
340
8B
340
86
  0
DIMSTYLE
105
81
330
A
100
AcDbSymbolTableRecord
100
AcDbDimStyleTableRecord
  2
AM_ISO
 70
     0
  4
"
 41
3.0
 42
1.0
 43
8.0
 44
1.5
 47
0.1
 48
0.1
 73
     0
 74
     0
 77
     1
 78
     8
 79
     2
140
3.5
141
0.0
143
0.0393701
146
0.6
147
0.7
172
     1
176
   256
177
   256
178
   256
271
     2
272
     2
283
     0
284
     8
340
11
371
    -1
372
    -1
  0
DIMSTYLE
105
82
102
{ACAD_REACTORS
330
2360
330
2521
102
}
330
A
100
AcDbSymbolTableRecord
100
AcDbDimStyleTableRecord
  2
AM_ISO$3
 70
     0
  4
"
 41
3.0
 42
1.0
 43
8.0
 44
1.5
 47
0.1
 48
0.1
 73
     0
 77
     1
 78
     8
 79
     2
140
3.5
141
0.0
143
0.0393701
146
0.6
147
0.7
176
   256
177
   256
178
   256
271
     2
272
     2
283
     0
284
     8
288
     1
289
     0
340
11
371
    -1
372
    -1
  0
DIMSTYLE
105
83
330
A
100
AcDbSymbolTableRecord
100
AcDbDimStyleTableRecord
  2
AM_ISO$4
 70
     0
  4
"
 41
3.0
 42
1.0
 43
8.0
 44
1.5
 47
0.1
 48
0.1
 73
     0
 77
     1
 78
     8
 79
     2
140
3.5
141
0.0
143
0.0393701
146
0.6
147
0.7
176
   256
177
   256
178
   256
271
     2
272
     2
283
     0
284
     8
288
     1
289
     0
340
11
371
    -1
372
    -1
  0
DIMSTYLE
105
84
330
A
100
AcDbSymbolTableRecord
100
AcDbDimStyleTableRecord
  2
AM_ISO$6
 70
     0
  4
"
 41
3.0
 42
1.0
 43
8.0
 44
1.5
 47
0.1
 48
0.1
 73
     0
 74
     0
 78
     8
 79
     2
140
3.5
141
0.0
143
0.0393701
146
0.6
147
0.7
172
     1
176
   256
177
   256
178
   256
271
     2
272
     2
283
     0
284
     8
340
11
371
    -1
372
    -1
  0
DIMSTYLE
105
85
330
A
100
AcDbSymbolTableRecord
100
AcDbDimStyleTableRecord
  2
AM_ISO$7
 70
     0
  4
"
 41
3.0
 42
1.0
 43
8.0
 44
1.5
 47
0.1
 48
0.1
 73
     0
 74
     0
 77
     1
 78
     8
 79
     2
140
5.0
141
0.0
143
0.0393701
146
0.6
147
0.7
172
     1
176
   256
177
   256
178
   256
271
     2
272
     2
283
     0
284
     8
340
11
371
    -1
372
    -1
  0
DIMSTYLE
105
86
330
A
100
AcDbSymbolTableRecord
100
AcDbDimStyleTableRecord
  2
AM_ISO$SF
 70
     0
  4
"
 41
2.5
 42
1.0
 43
10.0
 44
1.0
 47
0.1
 48
0.1
 73
     0
 74
     0
 75
     1
 76
     1
 77
     1
 78
     8
 79
     2
140
3.5
141
0.0
143
0.0393701
146
0.71
147
1.5
172
     1
176
   256
177
   256
178
     2
271
     2
272
     3
274
     4
283
     0
284
     8
340
11
371
    -1
372
    -1
  0
DIMSTYLE
105
8B
330
A
100
AcDbSymbolTableRecord
100
AcDbDimStyleTableRecord
  2
AM_ISO$SH
 70
     0
  4
"
 41
2.5
 42
1.0
 43
10.0
 44
1.0
 47
0.1
 48
0.1
 73
     0
 74
     0
 75
     1
 76
     1
 77
     1
 78
     8
 79
     2
140
3.5
141
0.0
143
0.0393701
144
2.0
146
0.71
147
1.5
172
     1
173
     1
176
   256
177
   256
178
     2
271
     2
272
     3
274
     4
283
     0
284
     8
340
11
343
87
371
    -1
372
    -1
  0
DIMSTYLE
105
40B
102
{ACAD_REACTORS
330
21F1
330
2221
330
224B
330
2269
330
2317
330
2345
330
23B4
330
23DA
330
2400
330
24A7
330
24D1
330
24FF
330
255B
102
}
330
A
100
AcDbSymbolTableRecord
100
AcDbDimStyleTableRecord
  2
AM_ISO$0
 70
     0
  4
"
 41
3.0
 42
1.0
 43
8.0
 44
1.5
 47
0.1
 48
0.1
 73
     0
 74
     0
 77
     1
 78
     8
 79
     2
140
3.5
141
0.0
143
0.0393701
146
0.6
147
0.7
172
     1
176
   256
177
   256
178
   256
271
     2
272
     2
283
     0
284
     8
340
11
371
    -1
372
    -1
  0
DIMSTYLE
105
10D1
330
A
100
AcDbSymbolTableRecord
100
AcDbDimStyleTableRecord
  2
Standard
 70
     0
 41
3.0
 42
1.0
 43
8.0
 44
1.0
 73
     0
 74
     0
 77
     1
 78
     8
 79
     2
140
3.5
141
0.0
146
0.6
147
1.0
172
     1
176
   256
177
   256
178
   256
271
     2
272
     2
284
     8
285
     8
340
11
371
    -1
372
    -1
  0
ENDTAB
  0
TABLE
  2
BLOCK_RECORD
  5
1
330
0
100
AcDbSymbolTable
 70
    20
  0
BLOCK_RECORD
  5
1F
102
{ACAD_XDICTIONARY
360
8F
102
}
330
1
100
AcDbSymbolTableRecord
100
AcDbBlockTableRecord
  2
*Model_Space
340
22
  0
BLOCK_RECORD
  5
1B
330
1
100
AcDbSymbolTableRecord
100
AcDbBlockTableRecord
  2
*Paper_Space
340
1E
  0
BLOCK_RECORD
  5
23
330
1
100
AcDbSymbolTableRecord
100
AcDbBlockTableRecord
  2
*Paper_Space0
340
26
  0
BLOCK_RECORD
  5
87
330
1
100
AcDbSymbolTableRecord
100
AcDbBlockTableRecord
  2
GENAXEH
340
0
  0
BLOCK_RECORD
  5
21F2
330
1
100
AcDbSymbolTableRecord
100
AcDbBlockTableRecord
  2
*D3
340
0
  0
BLOCK_RECORD
  5
2222
330
1
100
AcDbSymbolTableRecord
100
AcDbBlockTableRecord
  2
*D4
340
0
  0
BLOCK_RECORD
  5
224C
330
1
100
AcDbSymbolTableRecord
100
AcDbBlockTableRecord
  2
*D5
340
0
  0
BLOCK_RECORD
  5
226A
330
1
100
AcDbSymbolTableRecord
100
AcDbBlockTableRecord
  2
*D6
340
0
  0
BLOCK_RECORD
  5
2318
330
1
100
AcDbSymbolTableRecord
100
AcDbBlockTableRecord
  2
*D7
340
0
  0
BLOCK_RECORD
  5
2346
330
1
100
AcDbSymbolTableRecord
100
AcDbBlockTableRecord
  2
*D8
340
0
  0
BLOCK_RECORD
  5
2361
330
1
100
AcDbSymbolTableRecord
100
AcDbBlockTableRecord
  2
*D9
340
0
  0
BLOCK_RECORD
  5
23B5
330
1
100
AcDbSymbolTableRecord
100
AcDbBlockTableRecord
  2
*D10
340
0
  0
BLOCK_RECORD
  5
23DB
330
1
100
AcDbSymbolTableRecord
100
AcDbBlockTableRecord
  2
*D11
340
0
  0
BLOCK_RECORD
  5
2401
330
1
100
AcDbSymbolTableRecord
100
AcDbBlockTableRecord
  2
*D12
340
0
  0
BLOCK_RECORD
  5
24A8
330
1
100
AcDbSymbolTableRecord
100
AcDbBlockTableRecord
  2
*D13
340
0
  0
BLOCK_RECORD
  5
24D2
330
1
100
AcDbSymbolTableRecord
100
AcDbBlockTableRecord
  2
*D14
340
0
  0
BLOCK_RECORD
  5
2500
330
1
100
AcDbSymbolTableRecord
100
AcDbBlockTableRecord
  2
*D15
340
0
  0
BLOCK_RECORD
  5
2522
330
1
100
AcDbSymbolTableRecord
100
AcDbBlockTableRecord
  2
*D16
340
0
  0
BLOCK_RECORD
  5
255C
330
1
100
AcDbSymbolTableRecord
100
AcDbBlockTableRecord
  2
*D17
340
0
  0
BLOCK_RECORD
  5
29A6
102
{ACAD_XDICTIONARY
360
29AA
102
}
330
1
100
AcDbSymbolTableRecord
100
AcDbBlockTableRecord
  2
A$C4CDC6EB8
340
0
102
{BLKREFS
331
29AE
331
29AF
102
}
  0
BLOCK_RECORD
  5
29D9
102
{ACAD_XDICTIONARY
360
29EC
102
}
330
1
100
AcDbSymbolTableRecord
100
AcDbBlockTableRecord
  2
A$C14DD61F2
340
0
102
{BLKREFS
331
29F0
102
}
  0
ENDTAB
  0
ENDSEC
  0
SECTION
  2
BLOCKS
  0
BLOCK
  5
20
330
1F
100
AcDbEntity
  8
0
100
AcDbBlockBegin
  2
*Model_Space
 70
     0
 10
0.0
 20
0.0
 30
0.0
  3
*Model_Space
  1

  0
ENDBLK
  5
21
330
1F
100
AcDbEntity
  8
0
100
AcDbBlockEnd
  0
BLOCK
  5
1C
330
1B
100
AcDbEntity
 67
     1
  8
0
100
AcDbBlockBegin
  2
*Paper_Space
 70
     0
 10
0.0
 20
0.0
 30
0.0
  3
*Paper_Space
  1

  0
ENDBLK
  5
1D
330
1B
100
AcDbEntity
 67
     1
  8
0
100
AcDbBlockEnd
  0
BLOCK
  5
24
330
23
100
AcDbEntity
  8
0
100
AcDbBlockBegin
  2
*Paper_Space0
 70
     0
 10
0.0
 20
0.0
 30
0.0
  3
*Paper_Space0
  1

  0
ENDBLK
  5
25
330
23
100
AcDbEntity
  8
0
100
AcDbBlockEnd
  0
BLOCK
  5
89
330
87
100
AcDbEntity
  8
0
100
AcDbBlockBegin
  2
GENAXEH
 70
     0
 10
0.0
 20
0.0
 30
0.0
  3
GENAXEH
  1

  0
LINE
  5
88
330
87
100
AcDbEntity
  8
0
100
AcDbLine
 10
-1.0
 20
0.0
 30
0.0
 11
1.0
 21
0.0
 31
0.0
  0
ENDBLK
  5
8A
330
87
100
AcDbEntity
  8
0
100
AcDbBlockEnd
  0
BLOCK
  5
21FC
330
21F2
100
AcDbEntity
  8
0
100
AcDbBlockBegin
  2
*D3
 70
     1
 10
0.0
 20
0.0
 30
0.0
  3
*D3
  1

  0
LINE
  5
2879
330
21F2
100
AcDbEntity
  8
AM_5
100
AcDbLine
 10
288.8274787345752
 20
98.73949550652838
 30
0.0
 11
288.8274787345752
 21
82.2394955065285
 31
0.0
  0
LINE
  5
287A
330
21F2
100
AcDbEntity
  8
AM_5
100
AcDbLine
 10
330.3274787345752
 20
98.73949550652838
 30
0.0
 11
330.3274787345752
 21
82.2394955065285
 31
0.0
  0
LINE
  5
287B
330
21F2
100
AcDbEntity
  8
AM_5
100
AcDbLine
 10
291.8274787345751
 20
83.7394955065285
 30
0.0
 11
327.3274787345751
 21
83.7394955065285
 31
0.0
  0
SOLID
  5
287C
330
21F2
100
AcDbEntity
  8
AM_5
100
AcDbTrace
 10
291.8274787345751
 20
84.23949550652849
 30
0.0
 11
291.8274787345751
 21
83.2394955065285
 31
0.0
 12
288.8274787345752
 22
83.7394955065285
 32
0.0
 13
288.8274787345752
 23
83.7394955065285
 33
0.0
  0
SOLID
  5
287D
330
21F2
100
AcDbEntity
  8
AM_5
100
AcDbTrace
 10
327.3274787345751
 20
84.23949550652849
 30
0.0
 11
327.3274787345751
 21
83.2394955065285
 31
0.0
 12
330.3274787345752
 22
83.7394955065285
 32
0.0
 13
330.3274787345752
 23
83.7394955065285
 33
0.0
  0
MTEXT
  5
287E
330
21F2
100
AcDbEntity
  8
AM_5
100
AcDbMText
 10
309.5774787345752
 20
86.1894955065285
 30
0.0
 40
3.5
 41
0.0
 71
     5
 72
     1
  1
L
 73
     1
 44
1.0
1001
ACAD
1000
MTEXTBEGIN
1070
    73
1070
     1
1070
    44
1040
1.0
1070
    74
1070
     0
1000
MTEXTEND
  0
POINT
  5
287F
330
21F2
100
AcDbEntity
  8
Defpoints
 62
     0
100
AcDbPoint
 10
288.8274787345752
 20
99.73949550652839
 30
0.0
  0
POINT
  5
2880
330
21F2
100
AcDbEntity
  8
Defpoints
 62
     0
100
AcDbPoint
 10
330.3274787345752
 20
99.73949550652839
 30
0.0
  0
POINT
  5
2881
330
21F2
100
AcDbEntity
  8
Defpoints
 62
     0
100
AcDbPoint
 10
330.3274787345752
 20
83.7394955065285
 30
0.0
  0
ENDBLK
  5
21FD
330
21F2
100
AcDbEntity
  8
0
100
AcDbBlockEnd
  0
BLOCK
  5
222E
330
2222
100
AcDbEntity
  8
0
100
AcDbBlockBegin
  2
*D4
 70
     1
 10
0.0
 20
0.0
 30
0.0
  3
*D4
  1

  0
LINE
  5
2882
330
2222
100
AcDbEntity
  8
AM_5
100
AcDbLine
 10
331.3274787345751
 20
48.97162348382716
 30
0.0
 11
337.2610407231679
 21
48.97162348382715
 31
0.0
  0
LINE
  5
2883
330
2222
100
AcDbEntity
  8
AM_5
100
AcDbLine
 10
321.0274787345751
 20
54.17162348382714
 30
0.0
 11
337.2610407231679
 21
54.17162348382714
 31
0.0
  0
LINE
  5
2884
330
2222
100
AcDbEntity
  8
AM_5
100
AcDbLine
 10
335.7610407231679
 20
57.17162348382714
 30
0.0
 11
335.7610407231679
 21
60.17162348382715
 31
0.0
  0
LINE
  5
2885
330
2222
100
AcDbEntity
  8
AM_5
100
AcDbLine
 10
335.7610407231679
 20
45.97162348382716
 30
0.0
 11
335.7610407231679
 21
36.46141679091377
 31
0.0
  0
LINE
  5
2886
330
2222
100
AcDbEntity
  8
AM_5
100
AcDbLine
 10
335.7610407231679
 20
54.17162348382714
 30
0.0
 11
335.7610407231679
 21
48.97162348382716
 31
0.0
  0
SOLID
  5
2887
330
2222
100
AcDbEntity
  8
AM_5
100
AcDbTrace
 10
335.2610407231679
 20
57.17162348382714
 30
0.0
 11
336.2610407231679
 21
57.17162348382714
 31
0.0
 12
335.7610407231679
 22
54.17162348382714
 32
0.0
 13
335.7610407231679
 23
54.17162348382714
 33
0.0
  0
SOLID
  5
2888
330
2222
100
AcDbEntity
  8
AM_5
100
AcDbTrace
 10
335.2610407231679
 20
45.97162348382716
 30
0.0
 11
336.2610407231679
 21
45.97162348382715
 31
0.0
 12
335.7610407231679
 22
48.97162348382716
 32
0.0
 13
335.7610407231679
 23
48.97162348382716
 33
0.0
  0
MTEXT
  5
2889
330
2222
100
AcDbEntity
  8
AM_5
100
AcDbMText
 10
333.3106962349789
 20
39.71652013737052
 30
0.0
 40
3.5
 41
0.0
 71
     5
 72
     1
  1
5.2
 11
0.0000000000000001
 21
1.0
 31
0.0
 73
     1
 44
1.0
1001
ACAD
1000
MTEXTBEGIN
1070
    73
1070
     1
1070
    44
1040
1.0
1070
    74
1070
     0
1000
MTEXTEND
  0
POINT
  5
288A
330
2222
100
AcDbEntity
  8
Defpoints
 62
     0
100
AcDbPoint
 10
330.3274787345752
 20
48.97162348382716
 30
0.0
  0
POINT
  5
288B
330
2222
100
AcDbEntity
  8
Defpoints
 62
     0
100
AcDbPoint
 10
320.0274787345751
 20
54.17162348382714
 30
0.0
  0
POINT
  5
288C
330
2222
100
AcDbEntity
  8
Defpoints
 62
     0
100
AcDbPoint
 10
335.7610407231679
 20
54.17162348382714
 30
0.0
  0
ENDBLK
  5
222F
330
2222
100
AcDbEntity
  8
0
100
AcDbBlockEnd
  0
BLOCK
  5
2256
330
224C
100
AcDbEntity
  8
0
100
AcDbBlockBegin
  2
*D5
 70
     1
 10
0.0
 20
0.0
 30
0.0
  3
*D5
  1

  0
LINE
  5
288D
330
224C
100
AcDbEntity
  8
AM_5
100
AcDbLine
 10
331.3274787345751
 20
48.97162348382716
 30
0.0
 11
344.261040723168
 21
48.97162348382715
 31
0.0
  0
LINE
  5
288E
330
224C
100
AcDbEntity
  8
AM_5
100
AcDbLine
 10
317.5274787345752
 20
63.97162348382716
 30
0.0
 11
344.261040723168
 21
63.97162348382715
 31
0.0
  0
LINE
  5
288F
330
224C
100
AcDbEntity
  8
AM_5
100
AcDbLine
 10
342.761040723168
 20
51.97162348382715
 30
0.0
 11
342.761040723168
 21
60.97162348382715
 31
0.0
  0
SOLID
  5
2890
330
224C
100
AcDbEntity
  8
AM_5
100
AcDbTrace
 10
342.261040723168
 20
51.97162348382715
 30
0.0
 11
343.261040723168
 21
51.97162348382715
 31
0.0
 12
342.761040723168
 22
48.97162348382715
 32
0.0
 13
342.761040723168
 23
48.97162348382715
 33
0.0
  0
SOLID
  5
2891
330
224C
100
AcDbEntity
  8
AM_5
100
AcDbTrace
 10
342.261040723168
 20
60.97162348382715
 30
0.0
 11
343.261040723168
 21
60.97162348382715
 31
0.0
 12
342.761040723168
 22
63.97162348382715
 32
0.0
 13
342.761040723168
 23
63.97162348382715
 33
0.0
  0
MTEXT
  5
2892
330
224C
100
AcDbEntity
  8
AM_5
100
AcDbMText
 10
340.311040723168
 20
56.47162348382721
 30
0.0
 40
3.5
 41
0.0
 71
     5
 72
     1
  1
15
 11
0.0000000000000001
 21
1.0
 31
0.0
 73
     1
 44
1.0
1001
ACAD
1000
MTEXTBEGIN
1070
    73
1070
     1
1070
    44
1040
1.0
1070
    74
1070
     0
1000
MTEXTEND
  0
POINT
  5
2893
330
224C
100
AcDbEntity
  8
Defpoints
 62
     0
100
AcDbPoint
 10
330.3274787345752
 20
48.97162348382716
 30
0.0
  0
POINT
  5
2894
330
224C
100
AcDbEntity
  8
Defpoints
 62
     0
100
AcDbPoint
 10
316.5274787345751
 20
63.97162348382716
 30
0.0
  0
POINT
  5
2895
330
224C
100
AcDbEntity
  8
Defpoints
 62
     0
100
AcDbPoint
 10
342.761040723168
 20
63.97162348382715
 30
0.0
  0
ENDBLK
  5
2257
330
224C
100
AcDbEntity
  8
0
100
AcDbBlockEnd
  0
BLOCK
  5
2274
330
226A
100
AcDbEntity
  8
0
100
AcDbBlockBegin
  2
*D6
 70
     1
 10
0.0
 20
0.0
 30
0.0
  3
*D6
  1

  0
LINE
  5
2896
330
226A
100
AcDbEntity
  8
AM_5
100
AcDbLine
 10
331.3274787345751
 20
48.97162348382716
 30
0.0
 11
351.261040723168
 21
48.97162348382715
 31
0.0
  0
LINE
  5
2897
330
226A
100
AcDbEntity
  8
AM_5
100
AcDbLine
 10
331.3274787345751
 20
68.97162348382716
 30
0.0
 11
351.261040723168
 21
68.97162348382716
 31
0.0
  0
LINE
  5
2898
330
226A
100
AcDbEntity
  8
AM_5
100
AcDbLine
 10
349.761040723168
 20
51.97162348382715
 30
0.0
 11
349.761040723168
 21
65.97162348382716
 31
0.0
  0
SOLID
  5
2899
330
226A
100
AcDbEntity
  8
AM_5
100
AcDbTrace
 10
349.261040723168
 20
51.97162348382715
 30
0.0
 11
350.261040723168
 21
51.97162348382715
 31
0.0
 12
349.761040723168
 22
48.97162348382715
 32
0.0
 13
349.761040723168
 23
48.97162348382715
 33
0.0
  0
SOLID
  5
289A
330
226A
100
AcDbEntity
  8
AM_5
100
AcDbTrace
 10
349.261040723168
 20
65.97162348382716
 30
0.0
 11
350.261040723168
 21
65.97162348382716
 31
0.0
 12
349.761040723168
 22
68.97162348382716
 32
0.0
 13
349.761040723168
 23
68.97162348382716
 33
0.0
  0
MTEXT
  5
289B
330
226A
100
AcDbEntity
  8
AM_5
100
AcDbMText
 10
347.310696234979
 20
58.97162348382721
 30
0.0
 40
3.5
 41
0.0
 71
     5
 72
     1
  1
20
 11
0.0000000000000001
 21
1.0
 31
0.0
 73
     1
 44
1.0
1001
ACAD
1000
MTEXTBEGIN
1070
    73
1070
     1
1070
    44
1040
1.0
1070
    74
1070
     0
1000
MTEXTEND
  0
POINT
  5
289C
330
226A
100
AcDbEntity
  8
Defpoints
 62
     0
100
AcDbPoint
 10
330.3274787345752
 20
48.97162348382716
 30
0.0
  0
POINT
  5
289D
330
226A
100
AcDbEntity
  8
Defpoints
 62
     0
100
AcDbPoint
 10
330.3274787345752
 20
68.97162348382716
 30
0.0
  0
POINT
  5
289E
330
226A
100
AcDbEntity
  8
Defpoints
 62
     0
100
AcDbPoint
 10
349.761040723168
 20
68.97162348382716
 30
0.0
  0
ENDBLK
  5
2275
330
226A
100
AcDbEntity
  8
0
100
AcDbBlockEnd
  0
BLOCK
  5
2324
330
2318
100
AcDbEntity
  8
0
100
AcDbBlockBegin
  2
*D7
 70
     1
 10
0.0
 20
0.0
 30
0.0
  3
*D7
  1

  0
LINE
  5
289F
330
2318
100
AcDbEntity
  8
AM_5
100
AcDbLine
 10
331.1774787345752
 20
102.7394955065284
 30
0.0
 11
339.8274787345751
 21
102.7394955065284
 31
0.0
  0
LINE
  5
28A0
330
2318
100
AcDbEntity
  8
AM_5
100
AcDbLine
 10
331.3274787345751
 20
99.73949550652839
 30
0.0
 11
339.8274787345751
 21
99.73949550652839
 31
0.0
  0
LINE
  5
28A1
330
2318
100
AcDbEntity
  8
AM_5
100
AcDbLine
 10
338.3274787345751
 20
96.73949550652839
 30
0.0
 11
338.3274787345751
 21
93.73949550652838
 31
0.0
  0
LINE
  5
28A2
330
2318
100
AcDbEntity
  8
AM_5
100
AcDbLine
 10
338.3274787345751
 20
105.7394955065284
 30
0.0
 11
338.3274787345751
 21
111.6844702533589
 31
0.0
  0
LINE
  5
28A3
330
2318
100
AcDbEntity
  8
AM_5
100
AcDbLine
 10
338.3274787345751
 20
99.73949550652839
 30
0.0
 11
338.3274787345751
 21
102.7394955065284
 31
0.0
  0
SOLID
  5
28A4
330
2318
100
AcDbEntity
  8
AM_5
100
AcDbTrace
 10
337.8274787345751
 20
96.73949550652839
 30
0.0
 11
338.8274787345751
 21
96.73949550652839
 31
0.0
 12
338.3274787345751
 22
99.73949550652839
 32
0.0
 13
338.3274787345751
 23
99.73949550652839
 33
0.0
  0
SOLID
  5
28A5
330
2318
100
AcDbEntity
  8
AM_5
100
AcDbTrace
 10
337.8274787345751
 20
105.7394955065284
 30
0.0
 11
338.8274787345751
 21
105.7394955065284
 31
0.0
 12
338.3274787345751
 22
102.7394955065284
 32
0.0
 13
338.3274787345751
 23
102.7394955065284
 33
0.0
  0
MTEXT
  5
28A6
330
2318
100
AcDbEntity
  8
AM_5
100
AcDbMText
 10
335.8774787345751
 20
110.2119828799437
 30
0.0
 40
3.5
 41
0.0
 71
     5
 72
     1
  1
3
 11
0.0000000000000001
 21
1.0
 31
0.0
 73
     1
 44
1.0
1001
ACAD
1000
MTEXTBEGIN
1070
    73
1070
     1
1070
    44
1040
1.0
1070
    74
1070
     0
1000
MTEXTEND
  0
POINT
  5
28A7
330
2318
100
AcDbEntity
  8
Defpoints
 62
     0
100
AcDbPoint
 10
330.1774787345752
 20
102.7394955065284
 30
0.0
  0
POINT
  5
28A8
330
2318
100
AcDbEntity
  8
Defpoints
 62
     0
100
AcDbPoint
 10
330.3274787345752
 20
99.73949550652839
 30
0.0
  0
POINT
  5
28A9
330
2318
100
AcDbEntity
  8
Defpoints
 62
     0
100
AcDbPoint
 10
338.3274787345751
 20
99.73949550652839
 30
0.0
  0
ENDBLK
  5
2325
330
2318
100
AcDbEntity
  8
0
100
AcDbBlockEnd
  0
BLOCK
  5
2350
330
2346
100
AcDbEntity
  8
0
100
AcDbBlockBegin
  2
*D8
 70
     1
 10
0.0
 20
0.0
 30
0.0
  3
*D8
  1

  0
LINE
  5
28AA
330
2346
100
AcDbEntity
  8
AM_5
100
AcDbLine
 10
331.3274787345751
 20
99.73949550652839
 30
0.0
 11
346.8274787345751
 21
99.73949550652839
 31
0.0
  0
LINE
  5
28AB
330
2346
100
AcDbEntity
  8
AM_5
100
AcDbLine
 10
331.3274787345751
 20
136.2394955065284
 30
0.0
 11
346.8274787345752
 21
136.2394955065284
 31
0.0
  0
LINE
  5
28AC
330
2346
100
AcDbEntity
  8
AM_5
100
AcDbLine
 10
345.3274787345751
 20
102.7394955065284
 30
0.0
 11
345.3274787345752
 21
133.2394955065284
 31
0.0
  0
SOLID
  5
28AD
330
2346
100
AcDbEntity
  8
AM_5
100
AcDbTrace
 10
344.8274787345751
 20
102.7394955065284
 30
0.0
 11
345.8274787345751
 21
102.7394955065284
 31
0.0
 12
345.3274787345751
 22
99.73949550652839
 32
0.0
 13
345.3274787345751
 23
99.73949550652839
 33
0.0
  0
SOLID
  5
28AE
330
2346
100
AcDbEntity
  8
AM_5
100
AcDbTrace
 10
344.8274787345752
 20
133.2394955065284
 30
0.0
 11
345.8274787345751
 21
133.2394955065284
 31
0.0
 12
345.3274787345752
 22
136.2394955065284
 32
0.0
 13
345.3274787345752
 23
136.2394955065284
 33
0.0
  0
MTEXT
  5
28AF
330
2346
100
AcDbEntity
  8
AM_5
100
AcDbMText
 10
342.8774787345751
 20
117.9894955065284
 30
0.0
 40
3.5
 41
0.0
 71
     5
 72
     1
  1
36.5
 11
0.0000000000000001
 21
1.0
 31
0.0
 73
     1
 44
1.0
1001
ACAD
1000
MTEXTBEGIN
1070
    73
1070
     1
1070
    44
1040
1.0
1070
    74
1070
     0
1000
MTEXTEND
  0
POINT
  5
28B0
330
2346
100
AcDbEntity
  8
Defpoints
 62
     0
100
AcDbPoint
 10
330.3274787345752
 20
99.73949550652839
 30
0.0
  0
POINT
  5
28B1
330
2346
100
AcDbEntity
  8
Defpoints
 62
     0
100
AcDbPoint
 10
330.3274787345752
 20
136.2394955065284
 30
0.0
  0
POINT
  5
28B2
330
2346
100
AcDbEntity
  8
Defpoints
 62
     0
100
AcDbPoint
 10
345.3274787345752
 20
136.2394955065284
 30
0.0
  0
ENDBLK
  5
2351
330
2346
100
AcDbEntity
  8
0
100
AcDbBlockEnd
  0
BLOCK
  5
236A
330
2361
100
AcDbEntity
  8
0
100
AcDbBlockBegin
  2
*D9
 70
     1
 10
0.0
 20
0.0
 30
0.0
  3
*D9
  1

  0
LINE
  5
28FE
330
2361
100
AcDbEntity
  8
AM_5
100
AcDbLine
 10
289.8639297725728
 20
98.40591989857884
 30
0.0
 11
283.8807633930764
 21
89.65678019718167
 31
0.0
  0
LINE
  5
28FF
330
2361
100
AcDbEntity
  8
AM_5
100
AcDbLine
 10
283.8807633930764
 20
89.65678019718167
 30
0.0
 11
259.2918854403205
 21
89.65678019718167
 31
0.0
  0
SOLID
  5
2900
330
2361
100
AcDbEntity
  8
AM_5
100
AcDbTrace
 10
289.4512082861014
 20
98.68816265686477
 30
0.0
 11
290.2766512590442
 21
98.1236771402929
 31
0.0
 12
291.5573863222885
 22
100.8822488174071
 32
0.0
 13
291.5573863222885
 23
100.8822488174071
 33
0.0
  0
MTEXT
  5
2901
330
2361
100
AcDbEntity
  8
AM_5
100
AcDbMText
 10
271.2363244166986
 20
92.10712468537057
 30
0.0
 40
3.5
 41
0.0
 71
     5
 72
     1
  1
2-\U+22054.5 thru
 73
     1
 44
1.0
1001
ACAD
1000
MTEXTBEGIN
1070
    73
1070
     1
1070
    44
1040
1.0
1070
    74
1070
     0
1000
MTEXTEND
  0
POINT
  5
2902
330
2361
100
AcDbEntity
  8
Defpoints
 62
     0
100
AcDbPoint
 10
291.5573863222885
 20
100.8822488174071
 30
0.0
  0
POINT
  5
2903
330
2361
100
AcDbEntity
  8
Defpoints
 62
     0
100
AcDbPoint
 10
294.097571146862
 20
104.5967421956497
 30
0.0
  0
ENDBLK
  5
236B
330
2361
100
AcDbEntity
  8
0
100
AcDbBlockEnd
  0
BLOCK
  5
23BF
330
23B5
100
AcDbEntity
  8
0
100
AcDbBlockBegin
  2
*D10
 70
     1
 10
0.0
 20
0.0
 30
0.0
  3
*D10
  1

  0
LINE
  5
28B9
330
23B5
100
AcDbEntity
  8
AM_5
100
AcDbLine
 10
385.3611418070785
 20
137.2394955065284
 30
0.0
 11
385.3611418070785
 21
149.7394965065284
 31
0.0
  0
LINE
  5
28BA
330
23B5
100
AcDbEntity
  8
AM_5
100
AcDbLine
 10
375.3611418070785
 20
133.6894955065283
 30
0.0
 11
375.3611418070785
 21
149.7394965065284
 31
0.0
  0
LINE
  5
28BB
330
23B5
100
AcDbEntity
  8
AM_5
100
AcDbLine
 10
382.3611418070785
 20
148.2394965065284
 30
0.0
 11
378.3611418070785
 21
148.2394965065284
 31
0.0
  0
SOLID
  5
28BC
330
23B5
100
AcDbEntity
  8
AM_5
100
AcDbTrace
 10
382.3611418070785
 20
148.7394965065284
 30
0.0
 11
382.3611418070785
 21
147.7394965065284
 31
0.0
 12
385.3611418070785
 22
148.2394965065284
 32
0.0
 13
385.3611418070785
 23
148.2394965065284
 33
0.0
  0
SOLID
  5
28BD
330
23B5
100
AcDbEntity
  8
AM_5
100
AcDbTrace
 10
378.3611418070785
 20
148.7394965065284
 30
0.0
 11
378.3611418070785
 21
147.7394965065284
 31
0.0
 12
375.3611418070785
 22
148.2394965065284
 32
0.0
 13
375.3611418070785
 23
148.2394965065284
 33
0.0
  0
MTEXT
  5
28BE
330
23B5
100
AcDbEntity
  8
AM_5
100
AcDbMText
 10
380.3611418070785
 20
150.6894965065284
 30
0.0
 40
3.5
 41
0.0
 71
     5
 72
     1
  1
10
 73
     1
 44
1.0
1001
ACAD
1000
MTEXTBEGIN
1070
    73
1070
     1
1070
    44
1040
1.0
1070
    74
1070
     0
1000
MTEXTEND
  0
POINT
  5
28BF
330
23B5
100
AcDbEntity
  8
Defpoints
 62
     0
100
AcDbPoint
 10
385.3611418070785
 20
136.2394955065284
 30
0.0
  0
POINT
  5
28C0
330
23B5
100
AcDbEntity
  8
Defpoints
 62
     0
100
AcDbPoint
 10
375.3611418070785
 20
132.6894955065283
 30
0.0
  0
POINT
  5
28C1
330
23B5
100
AcDbEntity
  8
Defpoints
 62
     0
100
AcDbPoint
 10
375.3611418070785
 20
148.2394965065284
 30
0.0
  0
ENDBLK
  5
23C0
330
23B5
100
AcDbEntity
  8
0
100
AcDbBlockEnd
  0
BLOCK
  5
23E5
330
23DB
100
AcDbEntity
  8
0
100
AcDbBlockBegin
  2
*D11
 70
     1
 10
0.0
 20
0.0
 30
0.0
  3
*D11
  1

  0
LINE
  5
29B9
330
23DB
100
AcDbEntity
  8
AM_5
100
AcDbLine
 10
386.3611418070785
 20
136.2394955065284
 30
0.0
 11
402.4111418070786
 21
136.2394955065284
 31
0.0
  0
LINE
  5
29BA
330
23DB
100
AcDbEntity
  8
AM_5
100
AcDbLine
 10
386.3611418070785
 20
99.73949550652839
 30
0.0
 11
402.4111418070785
 21
99.73949550652839
 31
0.0
  0
LINE
  5
29BB
330
23DB
100
AcDbEntity
  8
AM_5
100
AcDbLine
 10
400.9111418070785
 20
133.2394955065284
 30
0.0
 11
400.9111418070785
 21
102.7394955065284
 31
0.0
  0
SOLID
  5
29BC
330
23DB
100
AcDbEntity
  8
AM_5
100
AcDbTrace
 10
400.4111418070785
 20
133.2394955065284
 30
0.0
 11
401.4111418070785
 21
133.2394955065284
 31
0.0
 12
400.9111418070785
 22
136.2394955065284
 32
0.0
 13
400.9111418070785
 23
136.2394955065284
 33
0.0
  0
SOLID
  5
29BD
330
23DB
100
AcDbEntity
  8
AM_5
100
AcDbTrace
 10
400.4111418070785
 20
102.7394955065284
 30
0.0
 11
401.4111418070785
 21
102.7394955065284
 31
0.0
 12
400.9111418070785
 22
99.73949550652839
 32
0.0
 13
400.9111418070785
 23
99.73949550652839
 33
0.0
  0
MTEXT
  5
29BE
330
23DB
100
AcDbEntity
  8
AM_5
100
AcDbMText
 10
398.4611418070786
 20
117.9894955065284
 30
0.0
 40
3.5
 41
0.0
 71
     5
 72
     1
  1
36.5
 11
0.0000000000000001
 21
1.0
 31
0.0
 73
     1
 44
1.0
1001
ACAD
1000
MTEXTBEGIN
1070
    73
1070
     1
1070
    44
1040
1.0
1070
    74
1070
     0
1000
MTEXTEND
  0
POINT
  5
29BF
330
23DB
100
AcDbEntity
  8
Defpoints
 62
     0
100
AcDbPoint
 10
385.3611418070785
 20
136.2394955065284
 30
0.0
  0
POINT
  5
29C0
330
23DB
100
AcDbEntity
  8
Defpoints
 62
     0
100
AcDbPoint
 10
385.3611418070785
 20
99.73949550652839
 30
0.0
  0
POINT
  5
29C1
330
23DB
100
AcDbEntity
  8
Defpoints
 62
     0
100
AcDbPoint
 10
400.9111418070785
 20
99.73949550652839
 30
0.0
  0
ENDBLK
  5
23E6
330
23DB
100
AcDbEntity
  8
0
100
AcDbBlockEnd
  0
BLOCK
  5
240B
330
2401
100
AcDbEntity
  8
0
100
AcDbBlockBegin
  2
*D12
 70
     1
 10
0.0
 20
0.0
 30
0.0
  3
*D12
  1

  0
LINE
  5
29B0
330
2401
100
AcDbEntity
  8
AM_5
100
AcDbLine
 10
386.3611418070785
 20
99.73949550652839
 30
0.0
 11
395.4107973188895
 21
99.73949550652839
 31
0.0
  0
LINE
  5
29B1
330
2401
100
AcDbEntity
  8
AM_5
100
AcDbLine
 10
382.0111418070785
 20
121.2394955065284
 30
0.0
 11
395.4107973188895
 21
121.2394955065284
 31
0.0
  0
LINE
  5
29B2
330
2401
100
AcDbEntity
  8
AM_5
100
AcDbLine
 10
393.9107973188896
 20
102.7394955065284
 30
0.0
 11
393.9107973188896
 21
118.2394955065284
 31
0.0
  0
SOLID
  5
29B3
330
2401
100
AcDbEntity
  8
AM_5
100
AcDbTrace
 10
393.4107973188895
 20
102.7394955065284
 30
0.0
 11
394.4107973188895
 21
102.7394955065284
 31
0.0
 12
393.9107973188896
 22
99.73949550652839
 32
0.0
 13
393.9107973188896
 23
99.73949550652839
 33
0.0
  0
SOLID
  5
29B4
330
2401
100
AcDbEntity
  8
AM_5
100
AcDbTrace
 10
393.4107973188895
 20
118.2394955065284
 30
0.0
 11
394.4107973188895
 21
118.2394955065284
 31
0.0
 12
393.9107973188896
 22
121.2394955065284
 32
0.0
 13
393.9107973188896
 23
121.2394955065284
 33
0.0
  0
MTEXT
  5
29B5
330
2401
100
AcDbEntity
  8
AM_5
100
AcDbMText
 10
391.4604528307005
 20
110.4894955065284
 30
0.0
 40
3.5
 41
0.0
 71
     5
 72
     1
  1
21.5
 11
0.0000000000000001
 21
1.0
 31
0.0
 73
     1
 44
1.0
1001
ACAD
1000
MTEXTBEGIN
1070
    73
1070
     1
1070
    44
1040
1.0
1070
    74
1070
     0
1000
MTEXTEND
  0
POINT
  5
29B6
330
2401
100
AcDbEntity
  8
Defpoints
 62
     0
100
AcDbPoint
 10
385.3611418070785
 20
99.73949550652839
 30
0.0
  0
POINT
  5
29B7
330
2401
100
AcDbEntity
  8
Defpoints
 62
     0
100
AcDbPoint
 10
381.0111418070785
 20
121.2394955065284
 30
0.0
  0
POINT
  5
29B8
330
2401
100
AcDbEntity
  8
Defpoints
 62
     0
100
AcDbPoint
 10
393.9107973188896
 20
121.2394955065284
 30
0.0
  0
ENDBLK
  5
240C
330
2401
100
AcDbEntity
  8
0
100
AcDbBlockEnd
  0
BLOCK
  5
24B2
330
24A8
100
AcDbEntity
  8
0
100
AcDbBlockBegin
  2
*D13
 70
     1
 10
0.0
 20
0.0
 30
0.0
  3
*D13
  1

  0
LINE
  5
2978
330
24A8
100
AcDbEntity
  8
AM_5
100
AcDbLine
 10
240.9870833094856
 20
99.73949550652839
 30
0.0
 11
234.1689487520472
 21
99.73949550652839
 31
0.0
  0
LINE
  5
2979
330
24A8
100
AcDbEntity
  8
AM_5
100
AcDbLine
 10
245.3370833094856
 20
111.2394955065284
 30
0.0
 11
234.1689487520472
 21
111.2394955065284
 31
0.0
  0
LINE
  5
297A
330
24A8
100
AcDbEntity
  8
AM_5
100
AcDbLine
 10
235.6689487520472
 20
102.7394955065284
 30
0.0
 11
235.6689487520472
 21
108.2394955065284
 31
0.0
  0
SOLID
  5
297B
330
24A8
100
AcDbEntity
  8
AM_5
100
AcDbTrace
 10
235.1689487520472
 20
102.7394955065284
 30
0.0
 11
236.1689487520472
 21
102.7394955065284
 31
0.0
 12
235.6689487520472
 22
99.73949550652839
 32
0.0
 13
235.6689487520472
 23
99.73949550652839
 33
0.0
  0
SOLID
  5
297C
330
24A8
100
AcDbEntity
  8
AM_5
100
AcDbTrace
 10
235.1689487520472
 20
108.2394955065284
 30
0.0
 11
236.1689487520472
 21
108.2394955065284
 31
0.0
 12
235.6689487520472
 22
111.2394955065284
 32
0.0
 13
235.6689487520472
 23
111.2394955065284
 33
0.0
  0
MTEXT
  5
297D
330
24A8
100
AcDbEntity
  8
AM_5
100
AcDbMText
 10
233.2189487520472
 20
105.4894955065284
 30
0.0
 40
3.5
 41
0.0
 71
     5
 72
     1
  1
11.5
 11
0.0000000000000001
 21
1.0
 31
0.0
 73
     1
 44
1.0
1001
ACAD
1000
MTEXTBEGIN
1070
    73
1070
     1
1070
    44
1040
1.0
1070
    74
1070
     0
1000
MTEXTEND
  0
POINT
  5
297E
330
24A8
100
AcDbEntity
  8
Defpoints
 62
     0
100
AcDbPoint
 10
241.9870833094856
 20
99.73949550652839
 30
0.0
  0
POINT
  5
297F
330
24A8
100
AcDbEntity
  8
Defpoints
 62
     0
100
AcDbPoint
 10
246.3370833094856
 20
111.2394955065284
 30
0.0
  0
POINT
  5
2980
330
24A8
100
AcDbEntity
  8
Defpoints
 62
     0
100
AcDbPoint
 10
235.6689487520472
 20
111.2394955065284
 30
0.0
  0
ENDBLK
  5
24B3
330
24A8
100
AcDbEntity
  8
0
100
AcDbBlockEnd
  0
BLOCK
  5
24DC
330
24D2
100
AcDbEntity
  8
0
100
AcDbBlockBegin
  2
*D14
 70
     1
 10
0.0
 20
0.0
 30
0.0
  3
*D14
  1

  0
LINE
  5
2981
330
24D2
100
AcDbEntity
  8
AM_5
100
AcDbLine
 10
245.3370833094856
 20
129.2394955065284
 30
0.0
 11
234.1689487520472
 21
129.2394955065284
 31
0.0
  0
LINE
  5
2982
330
24D2
100
AcDbEntity
  8
AM_5
100
AcDbLine
 10
245.3370833094856
 20
111.2394955065284
 30
0.0
 11
234.1689487520472
 21
111.2394955065284
 31
0.0
  0
LINE
  5
2983
330
24D2
100
AcDbEntity
  8
AM_5
100
AcDbLine
 10
235.6689487520472
 20
126.2394955065284
 30
0.0
 11
235.6689487520472
 21
114.2394955065284
 31
0.0
  0
SOLID
  5
2984
330
24D2
100
AcDbEntity
  8
AM_5
100
AcDbTrace
 10
235.1689487520472
 20
126.2394955065284
 30
0.0
 11
236.1689487520472
 21
126.2394955065284
 31
0.0
 12
235.6689487520472
 22
129.2394955065284
 32
0.0
 13
235.6689487520472
 23
129.2394955065284
 33
0.0
  0
SOLID
  5
2985
330
24D2
100
AcDbEntity
  8
AM_5
100
AcDbTrace
 10
235.1689487520472
 20
114.2394955065284
 30
0.0
 11
236.1689487520472
 21
114.2394955065284
 31
0.0
 12
235.6689487520472
 22
111.2394955065284
 32
0.0
 13
235.6689487520472
 23
111.2394955065284
 33
0.0
  0
MTEXT
  5
2986
330
24D2
100
AcDbEntity
  8
AM_5
100
AcDbMText
 10
233.2189487520472
 20
120.2394955065284
 30
0.0
 40
3.5
 41
0.0
 71
     5
 72
     1
  1
18
 11
0.0000000000000001
 21
1.0
 31
0.0
 73
     1
 44
1.0
1001
ACAD
1000
MTEXTBEGIN
1070
    73
1070
     1
1070
    44
1040
1.0
1070
    74
1070
     0
1000
MTEXTEND
  0
POINT
  5
2987
330
24D2
100
AcDbEntity
  8
Defpoints
 62
     0
100
AcDbPoint
 10
246.3370833094856
 20
129.2394955065284
 30
0.0
  0
POINT
  5
2988
330
24D2
100
AcDbEntity
  8
Defpoints
 62
     0
100
AcDbPoint
 10
246.3370833094856
 20
111.2394955065284
 30
0.0
  0
POINT
  5
2989
330
24D2
100
AcDbEntity
  8
Defpoints
 62
     0
100
AcDbPoint
 10
235.6689487520472
 20
111.2394955065284
 30
0.0
  0
ENDBLK
  5
24DD
330
24D2
100
AcDbEntity
  8
0
100
AcDbBlockEnd
  0
BLOCK
  5
250A
330
2500
100
AcDbEntity
  8
0
100
AcDbBlockBegin
  2
*D15
 70
     1
 10
0.0
 20
0.0
 30
0.0
  3
*D15
  1

  0
LINE
  5
298A
330
2500
100
AcDbEntity
  8
AM_5
100
AcDbLine
 10
241.9870833094856
 20
98.73949550652838
 30
0.0
 11
241.9870833094856
 21
86.23949450652839
 31
0.0
  0
LINE
  5
298B
330
2500
100
AcDbEntity
  8
AM_5
100
AcDbLine
 10
251.9870833094856
 20
104.5894955065283
 30
0.0
 11
251.9870833094856
 21
86.23949450652839
 31
0.0
  0
LINE
  5
298C
330
2500
100
AcDbEntity
  8
AM_5
100
AcDbLine
 10
244.9870833094855
 20
87.73949450652839
 30
0.0
 11
248.9870833094856
 21
87.73949450652839
 31
0.0
  0
SOLID
  5
298D
330
2500
100
AcDbEntity
  8
AM_5
100
AcDbTrace
 10
244.9870833094855
 20
88.23949450652838
 30
0.0
 11
244.9870833094855
 21
87.23949450652838
 31
0.0
 12
241.9870833094856
 22
87.73949450652839
 32
0.0
 13
241.9870833094856
 23
87.73949450652839
 33
0.0
  0
SOLID
  5
298E
330
2500
100
AcDbEntity
  8
AM_5
100
AcDbTrace
 10
248.9870833094856
 20
88.23949450652838
 30
0.0
 11
248.9870833094856
 21
87.23949450652838
 31
0.0
 12
251.9870833094856
 22
87.73949450652839
 32
0.0
 13
251.9870833094856
 23
87.73949450652839
 33
0.0
  0
MTEXT
  5
298F
330
2500
100
AcDbEntity
  8
AM_5
100
AcDbMText
 10
246.9870833094855
 20
90.18949450652838
 30
0.0
 40
3.5
 41
0.0
 71
     5
 72
     1
  1
10
 73
     1
 44
1.0
1001
ACAD
1000
MTEXTBEGIN
1070
    73
1070
     1
1070
    44
1040
1.0
1070
    74
1070
     0
1000
MTEXTEND
  0
POINT
  5
2990
330
2500
100
AcDbEntity
  8
Defpoints
 62
     0
100
AcDbPoint
 10
241.9870833094856
 20
99.73949550652839
 30
0.0
  0
POINT
  5
2991
330
2500
100
AcDbEntity
  8
Defpoints
 62
     0
100
AcDbPoint
 10
251.9870833094856
 20
105.5894955065283
 30
0.0
  0
POINT
  5
2992
330
2500
100
AcDbEntity
  8
Defpoints
 62
     0
100
AcDbPoint
 10
251.9870833094856
 20
87.73949450652839
 30
0.0
  0
ENDBLK
  5
250B
330
2500
100
AcDbEntity
  8
0
100
AcDbBlockEnd
  0
BLOCK
  5
2528
330
2522
100
AcDbEntity
  8
0
100
AcDbBlockBegin
  2
*D16
 70
     1
 10
0.0
 20
0.0
 30
0.0
  3
*D16
  1

  0
LINE
  5
2999
330
2522
100
AcDbEntity
  8
AM_5
100
AcDbLine
 10
249.3889444498397
 20
135.7932863535113
 30
0.0
 11
246.7246429701701
 21
142.5139720421288
 31
0.0
  0
LINE
  5
299A
330
2522
100
AcDbEntity
  8
AM_5
100
AcDbLine
 10
246.7246429701701
 20
142.5139720421288
 30
0.0
 11
228.5246429701701
 21
142.5139720421288
 31
0.0
  0
SOLID
  5
299B
330
2522
100
AcDbEntity
  8
AM_5
100
AcDbTrace
 10
249.8537523113279
 20
135.9775515208621
 30
0.0
 11
248.9241365883516
 21
135.6090211861606
 31
0.0
 12
250.4945354539444
 22
133.0044391845824
 32
0.0
 13
250.4945354539444
 23
133.0044391845824
 33
0.0
  0
MTEXT
  5
299C
330
2522
100
AcDbEntity
  8
AM_5
100
AcDbMText
 10
237.2746429701702
 20
144.9639720421288
 30
0.0
 40
3.5
 41
0.0
 71
     5
 72
     1
  1
3-PT 1/8
 73
     1
 44
1.0
1001
ACAD
1000
MTEXTBEGIN
1070
    73
1070
     1
1070
    44
1040
1.0
1070
    74
1070
     0
1000
MTEXTEND
  0
POINT
  5
299D
330
2522
100
AcDbEntity
  8
Defpoints
 62
     0
100
AcDbPoint
 10
250.4945354539444
 20
133.0044391845824
 30
0.0
  0
POINT
  5
299E
330
2522
100
AcDbEntity
  8
Defpoints
 62
     0
100
AcDbPoint
 10
253.4796311650268
 20
125.4745518284744
 30
0.0
  0
ENDBLK
  5
2529
330
2522
100
AcDbEntity
  8
0
100
AcDbBlockEnd
  0
BLOCK
  5
2566
330
255C
100
AcDbEntity
  8
0
100
AcDbBlockBegin
  2
*D17
 70
     1
 10
0.0
 20
0.0
 30
0.0
  3
*D17
  1

  0
LINE
  5
28F5
330
255C
100
AcDbEntity
  8
AM_5
100
AcDbLine
 10
292.8274787345752
 20
97.88949550652843
 30
0.0
 11
292.8274787345752
 21
89.23949550652849
 31
0.0
  0
LINE
  5
28F6
330
255C
100
AcDbEntity
  8
AM_5
100
AcDbLine
 10
326.3274787345752
 20
97.88949550652843
 30
0.0
 11
326.3274787345752
 21
89.23949550652849
 31
0.0
  0
LINE
  5
28F7
330
255C
100
AcDbEntity
  8
AM_5
100
AcDbLine
 10
295.8274787345752
 20
90.7394955065285
 30
0.0
 11
323.3274787345751
 21
90.7394955065285
 31
0.0
  0
SOLID
  5
28F8
330
255C
100
AcDbEntity
  8
AM_5
100
AcDbTrace
 10
295.8274787345752
 20
91.2394955065285
 30
0.0
 11
295.8274787345752
 21
90.23949550652849
 31
0.0
 12
292.8274787345752
 22
90.7394955065285
 32
0.0
 13
292.8274787345752
 23
90.7394955065285
 33
0.0
  0
SOLID
  5
28F9
330
255C
100
AcDbEntity
  8
AM_5
100
AcDbTrace
 10
323.3274787345751
 20
91.2394955065285
 30
0.0
 11
323.3274787345751
 21
90.23949550652849
 31
0.0
 12
326.3274787345752
 22
90.7394955065285
 32
0.0
 13
326.3274787345752
 23
90.7394955065285
 33
0.0
  0
MTEXT
  5
28FA
330
255C
100
AcDbEntity
  8
AM_5
100
AcDbMText
 10
309.5774787345752
 20
93.18949550652851
 30
0.0
 40
3.5
 41
0.0
 71
     5
 72
     1
  1
P
 73
     1
 44
1.0
1001
ACAD
1000
MTEXTBEGIN
1070
    73
1070
     1
1070
    44
1040
1.0
1070
    74
1070
     0
1000
MTEXTEND
  0
POINT
  5
28FB
330
255C
100
AcDbEntity
  8
Defpoints
 62
     0
100
AcDbPoint
 10
292.8274787345752
 20
98.88949550652842
 30
0.0
  0
POINT
  5
28FC
330
255C
100
AcDbEntity
  8
Defpoints
 62
     0
100
AcDbPoint
 10
326.3274787345752
 20
98.88949550652842
 30
0.0
  0
POINT
  5
28FD
330
255C
100
AcDbEntity
  8
Defpoints
 62
     0
100
AcDbPoint
 10
326.3274787345752
 20
90.7394955065285
 30
0.0
  0
ENDBLK
  5
2567
330
255C
100
AcDbEntity
  8
0
100
AcDbBlockEnd
  0
BLOCK
  5
29AC
330
29A6
100
AcDbEntity
  8
0
100
AcDbBlockBegin
  2
A$C4CDC6EB8
 70
     0
 10
0.0
 20
0.0
 30
0.0
  3
A$C4CDC6EB8
  1

  0
LINE
  5
29A7
330
29A6
100
AcDbEntity
  8
SL
100
AcDbLine
 10
0.0000000695677045
 20
0.6911753572408088
 30
0.0
 11
9.676884223841682
 21
0.6911753572408088
 31
0.0
  0
TRACE
  5
29A8
330
29A6
100
AcDbEntity
  8
SL
370
    35
100
AcDbTrace
 10
9.676884223841682
 20
1.382350966490776
 30
0.0
 11
9.676884223841682
 21
-0.0000002520091584
 31
0.0
 12
14.92688422384168
 22
0.6911753572408088
 32
0.0
 13
14.92688422384168
 23
0.6911753572408088
 33
0.0
  0
MTEXT
  5
29A9
330
29A6
100
AcDbEntity
  8
SL
100
AcDbMText
 10
4.309871006659022
 20
2.131627228971581
 30
0.0
 40
3.674999999999999
 41
0.0
 71
     7
 72
     5
  1
SL
  7
ACISOTS
 73
     1
 44
1.0
1001
ACAD
1000
MTEXTBEGIN
1070
    73
1070
     1
1070
    44
1040
1.0
1070
    74
1070
     0
1000
MTEXTEND
  0
ENDBLK
  5
29AD
330
29A6
100
AcDbEntity
  8
0
100
AcDbBlockEnd
  0
BLOCK
  5
29EE
330
29D9
100
AcDbEntity
  8
0
100
AcDbBlockBegin
  2
A$C14DD61F2
 70
     0
 10
0.0
 20
0.0
 30
0.0
  3
A$C14DD61F2
  1

  0
LINE
  5
29DA
330
29D9
100
AcDbEntity
  8
0
 62
     4
100
AcDbLine
 10
75.37861742422115
 20
0.0000000956281383
 30
0.0
 11
75.37861742422115
 21
12.5065901896412
 31
0.0
  0
LINE
  5
29DB
330
29D9
100
AcDbEntity
  8
0
 62
     4
100
AcDbLine
 10
85.87861742422115
 20
0.0000000956281383
 30
0.0
 11
85.87861742422115
 21
12.5065901896412
 31
0.0
  0
TEXT
  5
29DC
330
29D9
100
AcDbEntity
  8
0
 62
     4
100
AcDbText
 10
74.7482905263596
 20
15.67507311774011
 30
0.0
 40
3.0
  1
9
 41
0.75
  7
CHINESET
100
AcDbText
  0
TEXT
  5
29DD
330
29D9
100
AcDbEntity
  8
0
 62
     4
100
AcDbText
 10
63.76738962682998
 20
15.67507311774011
 30
0.0
 40
3.0
  1
8
 41
0.75
  7
CHINESET
100
AcDbText
  0
TEXT
  5
29DE
330
29D9
100
AcDbEntity
  8
0
 62
     4
100
AcDbText
 10
53.79450611940632
 20
15.67507311774011
 30
0.0
 40
3.0
  1
7
 41
0.75
  7
CHINESET
100
AcDbText
  0
TEXT
  5
29DF
330
29D9
100
AcDbEntity
  8
0
 62
     4
100
AcDbText
 10
42.7658574687004
 20
15.67507311774011
 30
0.0
 40
3.0
  1
6
 41
0.75
  7
CHINESET
100
AcDbText
  0
TEXT
  5
29E0
330
29D9
100
AcDbEntity
  8
0
 62
     4
100
AcDbText
 10
32.59549648757087
 20
15.67507311774011
 30
0.0
 40
3.0
  1
5
 41
0.75
  7
CHINESET
100
AcDbText
  0
TEXT
  5
29E1
330
29D9
100
AcDbEntity
  8
0
 62
     4
100
AcDbText
 10
22.05729705160542
 20
15.67507311774011
 30
0.0
 40
3.0
  1
4
 41
0.75
  7
CHINESET
100
AcDbText
  0
TEXT
  5
29E2
330
29D9
100
AcDbEntity
  8
0
 62
     4
100
AcDbText
 10
11.02864840089972
 20
15.67507311774011
 30
0.0
 40
3.0
  1
3
 41
0.75
  7
CHINESET
100
AcDbText
  0
TEXT
  5
29E3
330
29D9
100
AcDbEntity
  8
0
 62
     4
100
AcDbText
 10
-0.0000002498061917
 20
15.67507311774011
 30
0.0
 40
3.0
  1
2
 41
0.75
  7
CHINESET
100
AcDbText
  0
LINE
  5
29E4
330
29D9
100
AcDbEntity
  8
0
 62
     4
100
AcDbLine
 10
64.87861742422115
 20
0.0000000956281383
 30
0.0
 11
64.87861742422115
 21
12.5065901896412
 31
0.0
  0
LINE
  5
29E5
330
29D9
100
AcDbEntity
  8
0
 62
     4
100
AcDbLine
 10
54.37861742422109
 20
0.0000000956281383
 30
0.0
 11
54.37861742422109
 21
12.5065901896412
 31
0.0
  0
LINE
  5
29E6
330
29D9
100
AcDbEntity
  8
0
 62
     4
100
AcDbLine
 10
43.87861742422109
 20
0.0000000956281383
 30
0.0
 11
43.87861742422109
 21
12.5065901896412
 31
0.0
  0
LINE
  5
29E7
330
29D9
100
AcDbEntity
  8
0
 62
     4
100
AcDbLine
 10
33.37861742422109
 20
0.0000000956281383
 30
0.0
 11
33.37861742422109
 21
12.5065901896412
 31
0.0
  0
LINE
  5
29E8
330
29D9
100
AcDbEntity
  8
0
 62
     4
100
AcDbLine
 10
22.87861742422109
 20
0.0000000956281383
 30
0.0
 11
22.87861742422109
 21
12.5065901896412
 31
0.0
  0
LINE
  5
29E9
330
29D9
100
AcDbEntity
  8
0
 62
     4
100
AcDbLine
 10
12.37861742422109
 20
0.0000000956281383
 30
0.0
 11
12.37861742422109
 21
12.5065901896412
 31
0.0
  0
LINE
  5
29EA
330
29D9
100
AcDbEntity
  8
0
 62
     4
100
AcDbLine
 10
1.87861742422109
 20
0.0000000956281383
 30
0.0
 11
1.87861742422109
 21
12.5065901896412
 31
0.0
  0
TEXT
  5
29EB
330
29D9
100
AcDbEntity
  8
0
 62
     4
100
AcDbText
 10
84.50743201369254
 20
15.67507311774011
 30
0.0
 40
3.0
  1
10
 41
0.75
  7
CHINESET
100
AcDbText
  0
ENDBLK
  5
29EF
330
29D9
100
AcDbEntity
  8
0
100
AcDbBlockEnd
  0
ENDSEC
  0
SECTION
  2
ENTITIES
  0
LINE
  5
C92
330
1F
100
AcDbEntity
  8
0
100
AcDbLine
 10
380.613426485959
 20
80.47053098158324
 30
0.0
 11
380.613426485959
 21
40.15053098158347
 31
0.0
  0
LINE
  5
C93
330
1F
100
AcDbEntity
  8
0
100
AcDbLine
 10
418.5862832575873
 20
80.47053098158352
 30
0.0
 11
418.5862832575873
 21
72.4065309815835
 31
0.0
  0
LINE
  5
C94
330
1F
100
AcDbEntity
  8
0
100
AcDbLine
 10
433.7062832575871
 20
80.47053098158352
 30
0.0
 11
433.7062832575871
 21
72.40653098158372
 31
0.0
  0
LINE
  5
C95
330
1F
100
AcDbEntity
  8
0
100
AcDbLine
 10
403.4662832575866
 20
80.47053098158324
 30
0.0
 11
403.4662832575892
 21
40.15053098158347
 31
0.0
  0
LINE
  5
C96
330
1F
100
AcDbEntity
  8
0
100
AcDbLine
 10
380.613426485959
 20
72.4065309815835
 30
0.0
 11
433.7062832575871
 21
72.4065309815835
 31
0.0
  0
LINE
  5
C97
330
1F
100
AcDbEntity
  8
0
100
AcDbLine
 10
380.613426485959
 20
76.43853098158349
 30
0.0
 11
433.7062832575871
 21
76.43853098158349
 31
0.0
  0
TEXT
  5
C98
330
1F
100
AcDbEntity
  8
0
100
AcDbText
 10
391.4327072354617
 20
73.09191256364503
 30
0.0
 40
2.531438691876864
  1
2
 41
0.8
  7
CHINESET
 72
     4
 11
392.1077575532955
 21
74.35763190958346
 31
0.0
100
AcDbText
  0
TEXT
  5
C99
330
1F
100
AcDbEntity
  8
0
100
AcDbText
 10
382.0869431737261
 20
77.67355074023123
 30
0.0
 40
2.016
  1
No. of stations
 41
0.8
  7
CHINESET
100
AcDbText
  0
TEXT
  5
C9A
330
1F
100
AcDbEntity
  8
0
100
AcDbText
 10
407.2337741040943
 20
73.11280032687648
 30
0.0
 40
2.519999999999999
  1
33.5
 41
0.8
  7
CHINESET
100
AcDbText
  0
TEXT
  5
C9B
330
1F
100
AcDbEntity
  8
0
100
AcDbText
 10
409.6836719555966
 20
77.16308194690566
 30
0.0
 40
2.519999999999999
  1
P
 41
0.8
  7
CHINESET
100
AcDbText
  0
LINE
  5
C9C
330
1F
100
AcDbEntity
  8
0
100
AcDbLine
 10
380.613426485959
 20
80.47053098158352
 30
0.0
 11
433.7062832575871
 21
80.47053098158352
 31
0.0
  0
LINE
  5
C9D
330
1F
100
AcDbEntity
  8
0
100
AcDbLine
 10
418.5862832575868
 20
80.47053098158324
 30
0.0
 11
418.5862832575891
 21
40.15053098158347
 31
0.0
  0
LINE
  5
C9E
330
1F
100
AcDbEntity
  8
0
100
AcDbLine
 10
433.7062832575869
 20
80.47053098158324
 30
0.0
 11
433.706283257589
 21
40.15053098158347
 31
0.0
  0
LINE
  5
C9F
330
1F
100
AcDbEntity
  8
0
100
AcDbLine
 10
380.613426485959
 20
68.37453098158352
 30
0.0
 11
433.7062832575871
 21
68.37453098158352
 31
0.0
  0
LINE
  5
CA0
330
1F
100
AcDbEntity
  8
0
100
AcDbLine
 10
380.613426485959
 20
64.34253098158354
 30
0.0
 11
433.7062832575871
 21
64.34253098158354
 31
0.0
  0
LINE
  5
CA1
330
1F
100
AcDbEntity
  8
0
100
AcDbLine
 10
380.613426485959
 20
60.31053098158349
 30
0.0
 11
433.7062832575871
 21
60.31053098158349
 31
0.0
  0
LINE
  5
CA2
330
1F
100
AcDbEntity
  8
0
100
AcDbLine
 10
380.613426485959
 20
56.27853098158346
 30
0.0
 11
433.7062832575871
 21
56.27853098158346
 31
0.0
  0
LINE
  5
CA3
330
1F
100
AcDbEntity
  8
0
100
AcDbLine
 10
380.613426485959
 20
52.24653098158348
 30
0.0
 11
433.7062832575871
 21
52.24653098158348
 31
0.0
  0
LINE
  5
CA4
330
1F
100
AcDbEntity
  8
0
100
AcDbLine
 10
380.613426485959
 20
48.21453098158349
 30
0.0
 11
433.7062832575871
 21
48.21453098158349
 31
0.0
  0
LINE
  5
CA5
330
1F
100
AcDbEntity
  8
0
100
AcDbLine
 10
380.613426485959
 20
44.18253098158351
 30
0.0
 11
433.7062832575871
 21
44.18253098158351
 31
0.0
  0
LINE
  5
CA6
330
1F
100
AcDbEntity
  8
0
100
AcDbLine
 10
380.613426485959
 20
40.15053098158347
 30
0.0
 11
433.7062832575871
 21
40.15053098158347
 31
0.0
  0
TEXT
  5
CA7
330
1F
100
AcDbEntity
  8
0
100
AcDbText
 10
391.4327072354617
 20
69.05991256364498
 30
0.0
 40
2.531438691876864
  1
3
 41
0.8
  7
CHINESET
 72
     4
 11
392.1077575532955
 21
70.32563190958342
 31
0.0
100
AcDbText
  0
TEXT
  5
CA8
330
1F
100
AcDbEntity
  8
0
100
AcDbText
 10
391.3844893556169
 20
65.02791256364506
 30
0.0
 40
2.531438691876864
  1
4
 41
0.8
  7
CHINESET
 72
     4
 11
392.107757553296
 21
66.2936319095835
 31
0.0
100
AcDbText
  0
TEXT
  5
CA9
330
1F
100
AcDbEntity
  8
0
100
AcDbText
 10
391.4327072354626
 20
60.99591256364502
 30
0.0
 40
2.531438691876864
  1
5
 41
0.8
  7
CHINESET
 72
     4
 11
392.1077575532964
 21
62.26163190958345
 31
0.0
100
AcDbText
  0
TEXT
  5
CAA
330
1F
100
AcDbEntity
  8
0
100
AcDbText
 10
391.4809251153079
 20
56.96391256364504
 30
0.0
 40
2.531438691876864
  1
6
 41
0.8
  7
CHINESET
 72
     4
 11
392.1077575532964
 21
58.22963190958347
 31
0.0
100
AcDbText
  0
TEXT
  5
CAB
330
1F
100
AcDbEntity
  8
0
100
AcDbText
 10
391.4327072354626
 20
52.93191256364505
 30
0.0
 40
2.531438691876864
  1
7
 41
0.8
  7
CHINESET
 72
     4
 11
392.1077575532964
 21
54.19763190958349
 31
0.0
100
AcDbText
  0
TEXT
  5
CAC
330
1F
100
AcDbEntity
  8
0
100
AcDbText
 10
391.4327072354631
 20
48.89991256364502
 30
0.0
 40
2.531438691876864
  1
8
 41
0.8
  7
CHINESET
 72
     4
 11
392.1077575532969
 21
50.16563190958345
 31
0.0
100
AcDbText
  0
TEXT
  5
CAD
330
1F
100
AcDbEntity
  8
0
100
AcDbText
 10
391.4809251153087
 20
44.86791256364504
 30
0.0
 40
2.531438691876864
  1
9
 41
0.8
  7
CHINESET
 72
     4
 11
392.1077575532974
 21
46.13363190958347
 31
0.0
100
AcDbText
  0
TEXT
  5
CAE
330
1F
100
AcDbEntity
  8
0
100
AcDbText
 10
390.6612211579392
 20
40.83591256364505
 30
0.0
 40
2.531438691876864
  1
10
 41
0.8
  7
CHINESET
 72
     4
 11
392.1077575532974
 21
42.10163190958349
 31
0.0
100
AcDbText
  0
TEXT
  5
CAF
330
1F
100
AcDbEntity
  8
0
100
AcDbText
 10
422.3537741040944
 20
73.11280032687648
 30
0.0
 40
2.519999999999999
  1
41.5
 41
0.8
  7
CHINESET
100
AcDbText
  0
TEXT
  5
CB0
330
1F
100
AcDbEntity
  8
0
100
AcDbText
 10
407.2337741040943
 20
69.08080032687644
 30
0.0
 40
2.519999999999999
  1
44
 41
0.8
  7
CHINESET
100
AcDbText
  0
TEXT
  5
CB1
330
1F
100
AcDbEntity
  8
0
100
AcDbText
 10
422.3537741040944
 20
69.08080032687644
 30
0.0
 40
2.519999999999999
  1
52
 41
0.8
  7
CHINESET
100
AcDbText
  0
TEXT
  5
CB2
330
1F
100
AcDbEntity
  8
0
100
AcDbText
 10
407.233774104095
 20
65.04880032687641
 30
0.0
 40
2.519999999999999
  1
54.5
 41
0.8
  7
CHINESET
100
AcDbText
  0
TEXT
  5
CB3
330
1F
100
AcDbEntity
  8
0
100
AcDbText
 10
422.3537741040948
 20
65.04880032687641
 30
0.0
 40
2.519999999999999
  1
62.5
 41
0.8
  7
CHINESET
100
AcDbText
  0
TEXT
  5
CB4
330
1F
100
AcDbEntity
  8
0
100
AcDbText
 10
407.2337741040954
 20
61.01680032687642
 30
0.0
 40
2.519999999999999
  1
65
 41
0.8
  7
CHINESET
100
AcDbText
  0
TEXT
  5
CB5
330
1F
100
AcDbEntity
  8
0
100
AcDbText
 10
422.3537741040953
 20
61.01680032687642
 30
0.0
 40
2.519999999999999
  1
73
 41
0.8
  7
CHINESET
100
AcDbText
  0
TEXT
  5
CB6
330
1F
100
AcDbEntity
  8
0
100
AcDbText
 10
407.2337741040954
 20
56.98480032687644
 30
0.0
 40
2.519999999999999
  1
75.5
 41
0.8
  7
CHINESET
100
AcDbText
  0
TEXT
  5
CB7
330
1F
100
AcDbEntity
  8
0
100
AcDbText
 10
422.3537741040953
 20
56.98480032687644
 30
0.0
 40
2.519999999999999
  1
83.5
 41
0.8
  7
CHINESET
100
AcDbText
  0
TEXT
  5
CB8
330
1F
100
AcDbEntity
  8
0
100
AcDbText
 10
407.2337741040954
 20
52.95280032687646
 30
0.0
 40
2.519999999999999
  1
86
 41
0.8
  7
CHINESET
100
AcDbText
  0
TEXT
  5
CB9
330
1F
100
AcDbEntity
  8
0
100
AcDbText
 10
422.3537741040953
 20
52.95280032687646
 30
0.0
 40
2.519999999999999
  1
94
 41
0.8
  7
CHINESET
100
AcDbText
  0
TEXT
  5
CBA
330
1F
100
AcDbEntity
  8
0
100
AcDbText
 10
407.2337741040959
 20
48.92080032687641
 30
0.0
 40
2.519999999999999
  1
96.5
 41
0.8
  7
CHINESET
100
AcDbText
  0
TEXT
  5
CBB
330
1F
100
AcDbEntity
  8
0
100
AcDbText
 10
422.3537741040957
 20
48.92080032687641
 30
0.0
 40
2.519999999999999
  1
104.5
 41
0.8
  7
CHINESET
100
AcDbText
  0
TEXT
  5
CBC
330
1F
100
AcDbEntity
  8
0
100
AcDbText
 10
407.2337741040963
 20
44.88880032687643
 30
0.0
 40
2.519999999999999
  1
107
 41
0.8
  7
CHINESET
100
AcDbText
  0
TEXT
  5
CBD
330
1F
100
AcDbEntity
  8
0
100
AcDbText
 10
422.3537741040962
 20
44.88880032687643
 30
0.0
 40
2.519999999999999
  1
115
 41
0.8
  7
CHINESET
100
AcDbText
  0
TEXT
  5
CBE
330
1F
100
AcDbEntity
  8
0
100
AcDbText
 10
407.2337741040963
 20
40.8568003268764
 30
0.0
 40
2.519999999999999
  1
117.5
 41
0.8
  7
CHINESET
100
AcDbText
  0
TEXT
  5
CBF
330
1F
100
AcDbEntity
  8
0
100
AcDbText
 10
422.3537741040962
 20
40.8568003268764
 30
0.0
 40
2.519999999999999
  1
125.5
 41
0.8
  7
CHINESET
100
AcDbText
  0
TEXT
  5
CC0
330
1F
100
AcDbEntity
  8
0
100
AcDbText
 10
424.8036719555965
 20
77.16308194690566
 30
0.0
 40
2.519999999999999
  1
L
 41
0.8
  7
CHINESET
100
AcDbText
  0
CIRCLE
  5
CC2
330
1F
100
AcDbEntity
  8
0
100
AcDbCircle
 10
378.6978172252694
 20
74.29830745344628
 30
0.0
 40
1.026978008781671
  0
CIRCLE
  5
CC3
330
1F
100
AcDbEntity
  8
0
100
AcDbCircle
 10
378.6978172252694
 20
74.29830745344628
 30
0.0
 40
0.6682580190975268
  0
LINE
  5
205A
330
1F
100
AcDbEntity
  8
AM_7
100
AcDbLine
 10
325.3274787345751
 20
102.7394955065284
 30
0.0
 11
327.3274787345751
 21
102.7394955065284
 31
0.0
  0
LINE
  5
205B
330
1F
100
AcDbEntity
  8
AM_7
100
AcDbLine
 10
326.3274787345752
 20
101.7394955065284
 30
0.0
 11
326.3274787345752
 21
103.7394955065284
 31
0.0
  0
LINE
  5
205C
330
1F
100
AcDbEntity
  8
AM_7
100
AcDbLine
 10
322.4774787345751
 20
102.7394955065284
 30
0.0
 11
324.5274787345751
 21
102.7394955065284
 31
0.0
  0
LINE
  5
205D
102
{ACAD_REACTORS
330
2327
102
}
330
1F
100
AcDbEntity
  8
AM_7
100
AcDbLine
 10
328.1274787345751
 20
102.7394955065284
 30
0.0
 11
330.1774787345752
 21
102.7394955065284
 31
0.0
  0
LINE
  5
205E
102
{ACAD_REACTORS
330
2569
102
}
330
1F
100
AcDbEntity
  8
AM_7
100
AcDbLine
 10
326.3274787345752
 20
98.88949550652842
 30
0.0
 11
326.3274787345752
 21
100.9394955065283
 31
0.0
  0
LINE
  5
205F
330
1F
100
AcDbEntity
  8
AM_7
100
AcDbLine
 10
326.3274787345752
 20
104.5394955065284
 30
0.0
 11
326.3274787345752
 21
106.5894955065283
 31
0.0
  0
LINE
  5
2060
330
1F
100
AcDbEntity
  8
AM_7
100
AcDbLine
 10
291.8274787345751
 20
102.7394955065284
 30
0.0
 11
293.8274787345751
 21
102.7394955065284
 31
0.0
  0
LINE
  5
2061
330
1F
100
AcDbEntity
  8
AM_7
100
AcDbLine
 10
292.8274787345752
 20
101.7394955065284
 30
0.0
 11
292.8274787345752
 21
103.7394955065284
 31
0.0
  0
LINE
  5
2062
330
1F
100
AcDbEntity
  8
AM_7
100
AcDbLine
 10
288.9774787345751
 20
102.7394955065284
 30
0.0
 11
291.0274787345752
 21
102.7394955065284
 31
0.0
  0
LINE
  5
2063
330
1F
100
AcDbEntity
  8
AM_7
100
AcDbLine
 10
294.6274787345751
 20
102.7394955065284
 30
0.0
 11
296.6774787345752
 21
102.7394955065284
 31
0.0
  0
LINE
  5
2064
102
{ACAD_REACTORS
330
2569
102
}
330
1F
100
AcDbEntity
  8
AM_7
100
AcDbLine
 10
292.8274787345752
 20
98.88949550652842
 30
0.0
 11
292.8274787345752
 21
100.9394955065283
 31
0.0
  0
LINE
  5
2065
330
1F
100
AcDbEntity
  8
AM_7
100
AcDbLine
 10
292.8274787345752
 20
104.5394955065284
 30
0.0
 11
292.8274787345752
 21
106.5894955065283
 31
0.0
  0
LINE
  5
2072
330
1F
100
AcDbEntity
  8
AM_7
100
AcDbLine
 10
250.9870833094856
 20
111.2394955065284
 30
0.0
 11
252.9870833094856
 21
111.2394955065284
 31
0.0
  0
LINE
  5
2073
330
1F
100
AcDbEntity
  8
AM_7
100
AcDbLine
 10
251.9870833094856
 20
110.2394955065284
 30
0.0
 11
251.9870833094856
 21
112.2394955065284
 31
0.0
  0
LINE
  5
2074
102
{ACAD_REACTORS
330
24B5
330
24DF
102
}
330
1F
100
AcDbEntity
  8
AM_7
100
AcDbLine
 10
246.3370833094856
 20
111.2394955065284
 30
0.0
 11
250.1870833094856
 21
111.2394955065284
 31
0.0
  0
LINE
  5
2075
330
1F
100
AcDbEntity
  8
AM_7
100
AcDbLine
 10
253.7870833094856
 20
111.2394955065284
 30
0.0
 11
257.6370833094856
 21
111.2394955065284
 31
0.0
  0
LINE
  5
2076
102
{ACAD_REACTORS
330
250D
102
}
330
1F
100
AcDbEntity
  8
AM_7
100
AcDbLine
 10
251.9870833094856
 20
105.5894955065283
 30
0.0
 11
251.9870833094856
 21
109.4394955065284
 31
0.0
  0
LINE
  5
2077
330
1F
100
AcDbEntity
  8
AM_7
100
AcDbLine
 10
251.9870833094856
 20
113.0394955065284
 30
0.0
 11
251.9870833094856
 21
116.8894955065284
 31
0.0
  0
LINE
  5
2078
330
1F
100
AcDbEntity
  8
AM_7
100
AcDbLine
 10
250.9870833094856
 20
113.2394955065284
 30
0.0
 11
252.9870833094856
 21
113.2394955065284
 31
0.0
  0
LINE
  5
2079
330
1F
100
AcDbEntity
  8
AM_7
100
AcDbLine
 10
251.9870833094856
 20
112.2394955065284
 30
0.0
 11
251.9870833094856
 21
114.2394955065284
 31
0.0
  0
LINE
  5
207A
330
1F
100
AcDbEntity
  8
AM_7
100
AcDbLine
 10
248.6370833094856
 20
113.2394955065284
 30
0.0
 11
250.1870833094856
 21
113.2394955065284
 31
0.0
  0
LINE
  5
207B
330
1F
100
AcDbEntity
  8
AM_7
100
AcDbLine
 10
253.7870833094856
 20
113.2394955065284
 30
0.0
 11
255.3370833094856
 21
113.2394955065284
 31
0.0
  0
LINE
  5
207C
330
1F
100
AcDbEntity
  8
AM_7
100
AcDbLine
 10
251.9870833094856
 20
109.8894955065284
 30
0.0
 11
251.9870833094856
 21
111.4394955065284
 31
0.0
  0
LINE
  5
207D
330
1F
100
AcDbEntity
  8
AM_7
100
AcDbLine
 10
251.9870833094856
 20
115.0394955065284
 30
0.0
 11
251.9870833094856
 21
116.5894955065283
 31
0.0
  0
LINE
  5
207E
330
1F
100
AcDbEntity
  8
AM_7
100
AcDbLine
 10
250.9870833094856
 20
129.2394955065284
 30
0.0
 11
252.9870833094856
 21
129.2394955065284
 31
0.0
  0
LINE
  5
207F
330
1F
100
AcDbEntity
  8
AM_7
100
AcDbLine
 10
251.9870833094856
 20
128.2394955065283
 30
0.0
 11
251.9870833094856
 21
130.2394955065284
 31
0.0
  0
LINE
  5
2080
102
{ACAD_REACTORS
330
24DF
102
}
330
1F
100
AcDbEntity
  8
AM_7
100
AcDbLine
 10
246.3370833094856
 20
129.2394955065284
 30
0.0
 11
250.1870833094856
 21
129.2394955065284
 31
0.0
  0
LINE
  5
2081
330
1F
100
AcDbEntity
  8
AM_7
100
AcDbLine
 10
253.7870833094856
 20
129.2394955065284
 30
0.0
 11
257.6370833094856
 21
129.2394955065284
 31
0.0
  0
LINE
  5
2082
330
1F
100
AcDbEntity
  8
AM_7
100
AcDbLine
 10
251.9870833094856
 20
123.5894955065283
 30
0.0
 11
251.9870833094856
 21
127.4394955065283
 31
0.0
  0
LINE
  5
2083
330
1F
100
AcDbEntity
  8
AM_7
100
AcDbLine
 10
251.9870833094856
 20
131.0394955065284
 30
0.0
 11
251.9870833094856
 21
134.8894955065284
 31
0.0
  0
LINE
  5
2084
330
1F
100
AcDbEntity
  8
AM_7
100
AcDbLine
 10
374.3611418070785
 20
121.2394955065284
 30
0.0
 11
376.3611418070785
 21
121.2394955065284
 31
0.0
  0
LINE
  5
2085
330
1F
100
AcDbEntity
  8
AM_7
100
AcDbLine
 10
375.3611418070785
 20
120.2394955065284
 30
0.0
 11
375.3611418070785
 21
122.2394955065284
 31
0.0
  0
LINE
  5
2086
330
1F
100
AcDbEntity
  8
AM_7
100
AcDbLine
 10
369.7111418070786
 20
121.2394955065284
 30
0.0
 11
373.5611418070785
 21
121.2394955065284
 31
0.0
  0
LINE
  5
2087
102
{ACAD_REACTORS
330
240E
102
}
330
1F
100
AcDbEntity
  8
AM_7
100
AcDbLine
 10
377.1611418070786
 20
121.2394955065284
 30
0.0
 11
381.0111418070785
 21
121.2394955065284
 31
0.0
  0
LINE
  5
2088
330
1F
100
AcDbEntity
  8
AM_7
100
AcDbLine
 10
375.3611418070785
 20
115.5894955065283
 30
0.0
 11
375.3611418070785
 21
119.4394955065283
 31
0.0
  0
LINE
  5
2089
330
1F
100
AcDbEntity
  8
AM_7
100
AcDbLine
 10
375.3611418070785
 20
123.0394955065284
 30
0.0
 11
375.3611418070785
 21
126.8894955065284
 31
0.0
  0
LINE
  5
20A2
330
1F
100
AcDbEntity
  8
AM_7
100
AcDbLine
 10
315.3274787345751
 20
54.17162348382714
 30
0.0
 11
317.3274787345751
 21
54.17162348382714
 31
0.0
  0
LINE
  5
20A3
330
1F
100
AcDbEntity
  8
AM_7
100
AcDbLine
 10
316.3274787345752
 20
53.17162348382715
 30
0.0
 11
316.3274787345752
 21
55.17162348382715
 31
0.0
  0
LINE
  5
20A4
330
1F
100
AcDbEntity
  8
AM_7
100
AcDbLine
 10
312.6274787345752
 20
54.17162348382714
 30
0.0
 11
314.5274787345751
 21
54.17162348382714
 31
0.0
  0
LINE
  5
20A5
102
{ACAD_REACTORS
330
2231
102
}
330
1F
100
AcDbEntity
  8
AM_7
100
AcDbLine
 10
318.1274787345752
 20
54.17162348382714
 30
0.0
 11
320.0274787345751
 21
54.17162348382714
 31
0.0
  0
LINE
  5
20A6
330
1F
100
AcDbEntity
  8
AM_7
100
AcDbLine
 10
316.3274787345752
 20
50.47162348382716
 30
0.0
 11
316.3274787345752
 21
52.37162348382719
 31
0.0
  0
LINE
  5
20A7
330
1F
100
AcDbEntity
  8
AM_7
100
AcDbLine
 10
316.3274787345752
 20
55.97162348382716
 30
0.0
 11
316.3274787345752
 21
57.87162348382719
 31
0.0
  0
LINE
  5
20A8
330
1F
100
AcDbEntity
  8
AM_7
100
AcDbLine
 10
304.8274787345751
 20
54.17162348382714
 30
0.0
 11
306.8274787345751
 21
54.17162348382714
 31
0.0
  0
LINE
  5
20A9
330
1F
100
AcDbEntity
  8
AM_7
100
AcDbLine
 10
305.8274787345752
 20
53.17162348382715
 30
0.0
 11
305.8274787345752
 21
55.17162348382715
 31
0.0
  0
LINE
  5
20AA
330
1F
100
AcDbEntity
  8
AM_7
100
AcDbLine
 10
302.1274787345752
 20
54.17162348382714
 30
0.0
 11
304.0274787345751
 21
54.17162348382714
 31
0.0
  0
LINE
  5
20AB
330
1F
100
AcDbEntity
  8
AM_7
100
AcDbLine
 10
307.6274787345752
 20
54.17162348382714
 30
0.0
 11
309.5274787345752
 21
54.17162348382714
 31
0.0
  0
LINE
  5
20AC
330
1F
100
AcDbEntity
  8
AM_7
100
AcDbLine
 10
305.8274787345752
 20
50.47162348382716
 30
0.0
 11
305.8274787345752
 21
52.37162348382719
 31
0.0
  0
LINE
  5
20AD
330
1F
100
AcDbEntity
  8
AM_7
100
AcDbLine
 10
305.8274787345752
 20
55.97162348382716
 30
0.0
 11
305.8274787345752
 21
57.87162348382719
 31
0.0
  0
LINE
  5
20AE
330
1F
100
AcDbEntity
  8
AM_7
100
AcDbLine
 10
315.8274787345752
 20
54.17162348382714
 30
0.0
 11
317.8274787345752
 21
54.17162348382714
 31
0.0
  0
LINE
  5
20AF
330
1F
100
AcDbEntity
  8
AM_7
100
AcDbLine
 10
316.8274787345751
 20
53.17162348382715
 30
0.0
 11
316.8274787345751
 21
55.17162348382715
 31
0.0
  0
LINE
  5
20B0
330
1F
100
AcDbEntity
  8
AM_7
100
AcDbLine
 10
314.2274787345751
 20
54.17162348382714
 30
0.0
 11
315.0274787345751
 21
54.17162348382714
 31
0.0
  0
LINE
  5
20B1
330
1F
100
AcDbEntity
  8
AM_7
100
AcDbLine
 10
318.6274787345752
 20
54.17162348382714
 30
0.0
 11
319.4274787345752
 21
54.17162348382714
 31
0.0
  0
LINE
  5
20B2
330
1F
100
AcDbEntity
  8
AM_7
100
AcDbLine
 10
316.8274787345751
 20
51.57162348382718
 30
0.0
 11
316.8274787345751
 21
52.37162348382719
 31
0.0
  0
LINE
  5
20B3
330
1F
100
AcDbEntity
  8
AM_7
100
AcDbLine
 10
316.8274787345751
 20
55.97162348382716
 30
0.0
 11
316.8274787345751
 21
56.77162348382717
 31
0.0
  0
LINE
  5
20B4
330
1F
100
AcDbEntity
  8
AM_7
100
AcDbLine
 10
305.3274787345752
 20
54.17162348382714
 30
0.0
 11
307.3274787345752
 21
54.17162348382714
 31
0.0
  0
LINE
  5
20B5
330
1F
100
AcDbEntity
  8
AM_7
100
AcDbLine
 10
306.3274787345751
 20
53.17162348382715
 30
0.0
 11
306.3274787345751
 21
55.17162348382715
 31
0.0
  0
LINE
  5
20B6
330
1F
100
AcDbEntity
  8
AM_7
100
AcDbLine
 10
303.7274787345751
 20
54.17162348382714
 30
0.0
 11
304.5274787345751
 21
54.17162348382714
 31
0.0
  0
LINE
  5
20B7
330
1F
100
AcDbEntity
  8
AM_7
100
AcDbLine
 10
308.1274787345752
 20
54.17162348382714
 30
0.0
 11
308.9274787345752
 21
54.17162348382714
 31
0.0
  0
LINE
  5
20B8
330
1F
100
AcDbEntity
  8
AM_7
100
AcDbLine
 10
306.3274787345751
 20
51.57162348382718
 30
0.0
 11
306.3274787345751
 21
52.37162348382719
 31
0.0
  0
LINE
  5
20B9
330
1F
100
AcDbEntity
  8
AM_7
100
AcDbLine
 10
306.3274787345751
 20
55.97162348382716
 30
0.0
 11
306.3274787345751
 21
56.77162348382717
 31
0.0
  0
LINE
  5
20BA
330
1F
100
AcDbEntity
  8
AM_7
100
AcDbLine
 10
311.8274787345752
 20
63.97162348382716
 30
0.0
 11
313.8274787345752
 21
63.97162348382716
 31
0.0
  0
LINE
  5
20BB
330
1F
100
AcDbEntity
  8
AM_7
100
AcDbLine
 10
312.8274787345751
 20
62.97162348382716
 30
0.0
 11
312.8274787345751
 21
64.97162348382715
 31
0.0
  0
LINE
  5
20BC
330
1F
100
AcDbEntity
  8
AM_7
100
AcDbLine
 10
309.1274787345752
 20
63.97162348382716
 30
0.0
 11
311.0274787345752
 21
63.97162348382716
 31
0.0
  0
LINE
  5
20BD
102
{ACAD_REACTORS
330
2259
102
}
330
1F
100
AcDbEntity
  8
AM_7
100
AcDbLine
 10
314.6274787345752
 20
63.97162348382716
 30
0.0
 11
316.5274787345751
 21
63.97162348382716
 31
0.0
  0
LINE
  5
20BE
330
1F
100
AcDbEntity
  8
AM_7
100
AcDbLine
 10
312.8274787345751
 20
60.27162348382717
 30
0.0
 11
312.8274787345751
 21
62.17162348382714
 31
0.0
  0
LINE
  5
20BF
330
1F
100
AcDbEntity
  8
AM_7
100
AcDbLine
 10
312.8274787345751
 20
65.77162348382717
 30
0.0
 11
312.8274787345751
 21
67.67162348382715
 31
0.0
  0
LINE
  5
20C0
330
1F
100
AcDbEntity
  8
AM_7
100
AcDbLine
 10
301.3274787345752
 20
63.97162348382716
 30
0.0
 11
303.3274787345752
 21
63.97162348382716
 31
0.0
  0
LINE
  5
20C1
330
1F
100
AcDbEntity
  8
AM_7
100
AcDbLine
 10
302.3274787345751
 20
62.97162348382716
 30
0.0
 11
302.3274787345751
 21
64.97162348382715
 31
0.0
  0
LINE
  5
20C2
330
1F
100
AcDbEntity
  8
AM_7
100
AcDbLine
 10
298.6274787345752
 20
63.97162348382716
 30
0.0
 11
300.5274787345751
 21
63.97162348382716
 31
0.0
  0
LINE
  5
20C3
330
1F
100
AcDbEntity
  8
AM_7
100
AcDbLine
 10
304.1274787345752
 20
63.97162348382716
 30
0.0
 11
306.0274787345751
 21
63.97162348382716
 31
0.0
  0
LINE
  5
20C4
330
1F
100
AcDbEntity
  8
AM_7
100
AcDbLine
 10
302.3274787345751
 20
60.27162348382717
 30
0.0
 11
302.3274787345751
 21
62.17162348382714
 31
0.0
  0
LINE
  5
20C5
330
1F
100
AcDbEntity
  8
AM_7
100
AcDbLine
 10
302.3274787345751
 20
65.77162348382717
 30
0.0
 11
302.3274787345751
 21
67.67162348382715
 31
0.0
  0
LINE
  5
20C6
330
1F
100
AcDbEntity
  8
AM_7
100
AcDbLine
 10
311.3274787345752
 20
63.97162348382716
 30
0.0
 11
313.3274787345751
 21
63.97162348382716
 31
0.0
  0
LINE
  5
20C7
330
1F
100
AcDbEntity
  8
AM_7
100
AcDbLine
 10
312.3274787345752
 20
62.97162348382716
 30
0.0
 11
312.3274787345752
 21
64.97162348382715
 31
0.0
  0
LINE
  5
20C8
330
1F
100
AcDbEntity
  8
AM_7
100
AcDbLine
 10
309.7274787345751
 20
63.97162348382716
 30
0.0
 11
310.5274787345751
 21
63.97162348382716
 31
0.0
  0
LINE
  5
20C9
330
1F
100
AcDbEntity
  8
AM_7
100
AcDbLine
 10
314.1274787345752
 20
63.97162348382716
 30
0.0
 11
314.9274787345752
 21
63.97162348382716
 31
0.0
  0
LINE
  5
20CA
330
1F
100
AcDbEntity
  8
AM_7
100
AcDbLine
 10
312.3274787345752
 20
61.3716234838272
 30
0.0
 11
312.3274787345752
 21
62.17162348382714
 31
0.0
  0
LINE
  5
20CB
330
1F
100
AcDbEntity
  8
AM_7
100
AcDbLine
 10
312.3274787345752
 20
65.77162348382717
 30
0.0
 11
312.3274787345752
 21
66.57162348382712
 31
0.0
  0
LINE
  5
20CC
330
1F
100
AcDbEntity
  8
AM_7
100
AcDbLine
 10
300.8274787345751
 20
63.97162348382716
 30
0.0
 11
302.8274787345751
 21
63.97162348382716
 31
0.0
  0
LINE
  5
20CD
330
1F
100
AcDbEntity
  8
AM_7
100
AcDbLine
 10
301.8274787345752
 20
62.97162348382716
 30
0.0
 11
301.8274787345752
 21
64.97162348382715
 31
0.0
  0
LINE
  5
20CE
330
1F
100
AcDbEntity
  8
AM_7
100
AcDbLine
 10
299.2274787345751
 20
63.97162348382716
 30
0.0
 11
300.0274787345751
 21
63.97162348382716
 31
0.0
  0
LINE
  5
20CF
330
1F
100
AcDbEntity
  8
AM_7
100
AcDbLine
 10
303.6274787345752
 20
63.97162348382716
 30
0.0
 11
304.4274787345752
 21
63.97162348382716
 31
0.0
  0
LINE
  5
20D0
330
1F
100
AcDbEntity
  8
AM_7
100
AcDbLine
 10
301.8274787345752
 20
61.3716234838272
 30
0.0
 11
301.8274787345752
 21
62.17162348382714
 31
0.0
  0
LINE
  5
20D1
330
1F
100
AcDbEntity
  8
AM_7
100
AcDbLine
 10
301.8274787345752
 20
65.77162348382717
 30
0.0
 11
301.8274787345752
 21
66.57162348382712
 31
0.0
  0
LINE
  5
20D2
330
1F
100
AcDbEntity
  8
AM_7
100
AcDbLine
 10
250.9870833094856
 20
121.2394955065284
 30
0.0
 11
252.9870833094856
 21
121.2394955065284
 31
0.0
  0
LINE
  5
20D3
330
1F
100
AcDbEntity
  8
AM_7
100
AcDbLine
 10
251.9870833094856
 20
120.2394955065284
 30
0.0
 11
251.9870833094856
 21
122.2394955065284
 31
0.0
  0
LINE
  5
20D4
330
1F
100
AcDbEntity
  8
AM_7
100
AcDbLine
 10
248.5370833094856
 20
121.2394955065284
 30
0.0
 11
250.1870833094856
 21
121.2394955065284
 31
0.0
  0
LINE
  5
20D5
330
1F
100
AcDbEntity
  8
AM_7
100
AcDbLine
 10
253.7870833094856
 20
121.2394955065284
 30
0.0
 11
255.4370833094856
 21
121.2394955065284
 31
0.0
  0
LINE
  5
20D6
330
1F
100
AcDbEntity
  8
AM_7
100
AcDbLine
 10
251.9870833094856
 20
117.7894955065284
 30
0.0
 11
251.9870833094856
 21
119.4394955065283
 31
0.0
  0
LINE
  5
20D7
330
1F
100
AcDbEntity
  8
AM_7
100
AcDbLine
 10
251.9870833094856
 20
123.0394955065284
 30
0.0
 11
251.9870833094856
 21
124.6894955065283
 31
0.0
  0
LINE
  5
20D8
330
1F
100
AcDbEntity
  8
AM_7
100
AcDbLine
 10
374.3611418070785
 20
129.2394955065284
 30
0.0
 11
376.3611418070785
 21
129.2394955065284
 31
0.0
  0
LINE
  5
20D9
330
1F
100
AcDbEntity
  8
AM_7
100
AcDbLine
 10
375.3611418070785
 20
128.2394955065283
 30
0.0
 11
375.3611418070785
 21
130.2394955065284
 31
0.0
  0
LINE
  5
20DA
330
1F
100
AcDbEntity
  8
AM_7
100
AcDbLine
 10
371.9111418070786
 20
129.2394955065284
 30
0.0
 11
373.5611418070785
 21
129.2394955065284
 31
0.0
  0
LINE
  5
20DB
330
1F
100
AcDbEntity
  8
AM_7
100
AcDbLine
 10
377.1611418070786
 20
129.2394955065284
 30
0.0
 11
378.8111418070784
 21
129.2394955065284
 31
0.0
  0
LINE
  5
20DC
330
1F
100
AcDbEntity
  8
AM_7
100
AcDbLine
 10
375.3611418070785
 20
125.7894955065284
 30
0.0
 11
375.3611418070785
 21
127.4394955065283
 31
0.0
  0
LINE
  5
20DD
102
{ACAD_REACTORS
330
23C2
102
}
330
1F
100
AcDbEntity
  8
AM_7
100
AcDbLine
 10
375.3611418070785
 20
131.0394955065284
 30
0.0
 11
375.3611418070785
 21
132.6894955065283
 31
0.0
  0
LINE
  5
20DE
330
1F
100
AcDbEntity
  8
AM_7
100
AcDbLine
 10
374.3611418070785
 20
113.2394955065284
 30
0.0
 11
376.3611418070785
 21
113.2394955065284
 31
0.0
  0
LINE
  5
20DF
330
1F
100
AcDbEntity
  8
AM_7
100
AcDbLine
 10
375.3611418070785
 20
112.2394955065284
 30
0.0
 11
375.3611418070785
 21
114.2394955065284
 31
0.0
  0
LINE
  5
20E0
330
1F
100
AcDbEntity
  8
AM_7
100
AcDbLine
 10
371.9111418070786
 20
113.2394955065284
 30
0.0
 11
373.5611418070785
 21
113.2394955065284
 31
0.0
  0
LINE
  5
20E1
330
1F
100
AcDbEntity
  8
AM_7
100
AcDbLine
 10
377.1611418070786
 20
113.2394955065284
 30
0.0
 11
378.8111418070784
 21
113.2394955065284
 31
0.0
  0
LINE
  5
20E2
330
1F
100
AcDbEntity
  8
AM_7
100
AcDbLine
 10
375.3611418070785
 20
109.7894955065284
 30
0.0
 11
375.3611418070785
 21
111.4394955065284
 31
0.0
  0
LINE
  5
20E3
330
1F
100
AcDbEntity
  8
AM_7
100
AcDbLine
 10
375.3611418070785
 20
115.0394955065284
 30
0.0
 11
375.3611418070785
 21
116.6894955065284
 31
0.0
  0
LINE
  5
2104
330
1F
100
AcDbEntity
  8
AM_7
100
AcDbLine
 10
317.9274787345752
 20
126.4894955065284
 30
0.0
 11
319.9274787345752
 21
126.4894955065284
 31
0.0
  0
LINE
  5
2105
330
1F
100
AcDbEntity
  8
AM_7
100
AcDbLine
 10
318.9274787345752
 20
125.4894955065284
 30
0.0
 11
318.9274787345752
 21
127.4894955065284
 31
0.0
  0
LINE
  5
210A
330
1F
100
AcDbEntity
  8
AM_7
100
AcDbLine
 10
307.4274787345752
 20
126.4894955065284
 30
0.0
 11
309.4274787345752
 21
126.4894955065284
 31
0.0
  0
LINE
  5
210B
330
1F
100
AcDbEntity
  8
AM_7
100
AcDbLine
 10
308.4274787345752
 20
125.4894955065284
 30
0.0
 11
308.4274787345752
 21
127.4894955065284
 31
0.0
  0
LINE
  5
2115
330
1F
100
AcDbEntity
  8
AM_7
100
AcDbLine
 10
314.8274787345751
 20
112.3408976355882
 30
0.0
 11
314.8274787345751
 21
131.6894955065283
 31
0.0
  0
LINE
  5
211B
330
1F
100
AcDbEntity
  8
AM_7
100
AcDbLine
 10
304.3274787345751
 20
112.1170828464181
 30
0.0
 11
304.3274787345751
 21
131.6894955065283
 31
0.0
  0
LINE
  5
214C
330
1F
100
AcDbEntity
  8
AM_7
100
AcDbLine
 10
309.7274787345751
 20
119.4894955065284
 30
0.0
 11
311.7274787345751
 21
119.4894955065284
 31
0.0
  0
LINE
  5
214D
330
1F
100
AcDbEntity
  8
AM_7
100
AcDbLine
 10
310.7274787345752
 20
118.4894955065284
 30
0.0
 11
310.7274787345752
 21
120.4894955065284
 31
0.0
  0
LINE
  5
2152
330
1F
100
AcDbEntity
  8
AM_7
100
AcDbLine
 10
299.2274787345751
 20
119.4894955065284
 30
0.0
 11
301.2274787345751
 21
119.4894955065284
 31
0.0
  0
LINE
  5
2153
330
1F
100
AcDbEntity
  8
AM_7
100
AcDbLine
 10
300.2274787345751
 20
118.4894955065284
 30
0.0
 11
300.2274787345751
 21
120.4894955065284
 31
0.0
  0
LINE
  5
215A
330
1F
100
AcDbEntity
  8
AM_7
100
AcDbLine
 10
312.8274787345751
 20
70.17162348382715
 30
0.0
 11
312.8274787345751
 21
61.37162348382713
 31
0.0
  0
LINE
  5
215B
330
1F
100
AcDbEntity
  8
AM_7
100
AcDbLine
 10
302.3274787345751
 20
70.17162348382715
 30
0.0
 11
302.3274787345751
 21
61.37162348382713
 31
0.0
  0
CIRCLE
  5
2162
330
1F
100
AcDbEntity
  8
AM_4
  6
HIDDEN2
100
AcDbCircle
 10
316.3274787345752
 20
54.17162348382714
 30
0.0
 40
2.5
  0
CIRCLE
  5
2163
330
1F
100
AcDbEntity
  8
AM_4
  6
HIDDEN2
100
AcDbCircle
 10
305.8274787345752
 20
54.17162348382714
 30
0.0
 40
2.5
  0
CIRCLE
  5
2164
330
1F
100
AcDbEntity
  8
AM_4
  6
HIDDEN2
100
AcDbCircle
 10
312.8274787345751
 20
63.97162348382716
 30
0.0
 40
2.5
  0
CIRCLE
  5
2165
330
1F
100
AcDbEntity
  8
AM_4
  6
HIDDEN2
100
AcDbCircle
 10
302.3274787345751
 20
63.97162348382716
 30
0.0
 40
2.5
  0
ARC
  5
2169
330
1F
100
AcDbEntity
  8
AM_4
100
AcDbCircle
 10
251.9870833094856
 20
129.2394955065284
 30
0.0
 40
4.849999999999999
100
AcDbArc
 50
251.3235651711887
 51
194.007887056372
  0
CIRCLE
  5
2177
330
1F
100
AcDbEntity
  8
AM_VIS
100
AcDbCircle
 10
300.2274787345751
 20
119.4894955065284
 30
0.0
 40
0.625
  0
CIRCLE
  5
2178
330
1F
100
AcDbEntity
  8
AM_VIS
100
AcDbCircle
 10
308.4274787345752
 20
126.4894955065284
 30
0.0
 40
0.625
  0
CIRCLE
  5
217E
330
1F
100
AcDbEntity
  8
AM_VIS
100
AcDbCircle
 10
310.7274787345752
 20
119.4894955065284
 30
0.0
 40
0.625
  0
CIRCLE
  5
2181
102
{ACAD_REACTORS
330
236D
102
}
330
1F
100
AcDbEntity
  8
AM_VIS
100
AcDbCircle
 10
292.8274787345752
 20
102.7394955065284
 30
0.0
 40
2.25
  0
CIRCLE
  5
2182
330
1F
100
AcDbEntity
  8
AM_VIS
100
AcDbCircle
 10
326.3274787345752
 20
102.7394955065284
 30
0.0
 40
2.25
  0
CIRCLE
  5
2196
330
1F
100
AcDbEntity
  8
AM_VIS
100
AcDbCircle
 10
318.9274787345752
 20
126.4894955065284
 30
0.0
 40
0.625
  0
LINE
  5
2197
102
{ACAD_REACTORS
330
21FF
102
}
330
1F
100
AcDbEntity
  8
AM_VIS
100
AcDbLine
 10
288.8274787345752
 20
99.73949550652839
 30
0.0
 11
330.3274787345752
 21
99.73949550652839
 31
0.0
  0
LINE
  5
2198
330
1F
100
AcDbEntity
  8
AM_VIS
100
AcDbLine
 10
288.8274787345752
 20
99.73949550652839
 30
0.0
 11
288.8274787345752
 21
136.2394955065284
 31
0.0
  0
LINE
  5
2199
330
1F
100
AcDbEntity
  8
AM_VIS
100
AcDbLine
 10
288.8274787345752
 20
136.2394955065284
 30
0.0
 11
330.3274787345752
 21
136.2394955065284
 31
0.0
  0
LINE
  5
219A
102
{ACAD_REACTORS
330
2327
330
2353
102
}
330
1F
100
AcDbEntity
  8
AM_VIS
100
AcDbLine
 10
330.3274787345752
 20
99.73949550652839
 30
0.0
 11
330.3274787345752
 21
136.2394955065284
 31
0.0
  0
LINE
  5
219B
330
1F
100
AcDbEntity
  8
AM_VIS
100
AcDbLine
 10
288.8274787345752
 20
68.97162348382716
 30
0.0
 11
330.3274787345752
 21
68.97162348382716
 31
0.0
  0
SPLINE
  5
219C
330
1F
100
AcDbEntity
  8
AM_VIS
100
AcDbSpline
210
0.0
220
0.0
230
1.0
 70
    11
 71
     3
 72
    40
 73
    36
 74
     0
 42
0.0000000001
 43
0.0000000001
 40
0.0
 40
0.0
 40
0.0
 40
0.0
 40
0.05132215184669
 40
0.05132215184669
 40
0.1084909796590789
 40
0.1084909796590789
 40
0.1800129249508479
 40
0.1800129249508479
 40
0.2624577065767642
 40
0.2624577065767642
 40
0.3444866948628799
 40
0.3444866948628799
 40
0.4254020369695701
 40
0.4254020369695701
 40
0.4956180407388914
 40
0.4956180407388914
 40
0.5507437859178362
 40
0.5507437859178362
 40
0.6009391978066187
 40
0.6009391978066187
 40
0.6526001172065907
 40
0.6526001172065907
 40
0.7155882580134935
 40
0.7155882580134935
 40
0.7943860942982019
 40
0.7943860942982019
 40
0.8734298539249
 40
0.8734298539249
 40
0.952114634292079
 40
0.952114634292079
 40
1.02832557532352
 40
1.02832557532352
 40
1.089824468438065
 40
1.089824468438065
 40
1.129132818024135
 40
1.129132818024135
 40
1.129132818024135
 40
1.129132818024135
 10
317.0297354125788
 20
54.17162348382714
 30
0.0
 10
317.0297354125788
 20
54.18873086777603
 30
0.0
 10
317.02643057715
 20
54.2055005124684
 30
0.0
 10
317.0132459360394
 20
54.23926337937837
 30
0.0
 10
317.0028655019939
 20
54.25554426175086
 30
0.0
 10
316.974230735597
 20
54.28776272820835
 30
0.0
 10
316.9547180685452
 20
54.30254884309523
 30
0.0
 10
316.9085664328099
 20
54.32671157135132
 30
0.0
 10
316.8813403148889
 20
54.33491844440595
 30
0.0
 10
316.8253728962745
 20
54.34116379526329
 30
0.0
 10
316.7970062746905
 20
54.3392114093881
 30
0.0
 10
316.7428262199773
 20
54.32526880572249
 30
0.0
 10
316.7172318855839
 20
54.31347423937757
 30
0.0
 10
316.675535781981
 20
54.28292891391532
 30
0.0
 10
316.6585981378996
 20
54.26525362420694
 30
0.0
 10
316.6364441893377
 20
54.22843468455358
 30
0.0
 10
316.6296460825371
 20
54.21065355148209
 30
0.0
 10
316.6241375842028
 20
54.17466673394773
 30
0.0
 10
316.6248729955811
 20
54.15737230807167
 30
0.0
 10
316.6330757984557
 20
54.12298388558298
 30
0.0
 10
316.640579004515
 20
54.10658636681609
 30
0.0
 10
316.6628220509756
 20
54.07352233529696
 30
0.0
 10
316.6786348126911
 20
54.05778908334713
 30
0.0
 10
316.7189536038049
 20
54.02886313848262
 30
0.0
 10
316.7446605310222
 20
54.01724915947164
 30
0.0
 10
316.7990017174968
 20
54.00380014024165
 30
0.0
 10
316.8273806063465
 20
54.00205775485466
 30
0.0
 10
316.883275108691
 20
54.00881217555616
 30
0.0
 10
316.9104342961213
 20
54.01721949656303
 30
0.0
 10
316.9590405975715
 20
54.04326816367978
 30
0.0
 10
316.9796374795704
 20
54.06009629726657
 30
0.0
 10
317.0082427981379
 20
54.095456929747
 30
0.0
 10
317.0182370687958
 20
54.11343838729937
 30
0.0
 10
317.0277964591621
 20
54.14559636844813
 30
0.0
 10
317.0297354125788
 20
54.15852070063181
 30
0.0
 10
317.0297354125788
 20
54.17162348382714
 30
0.0
  0
ARC
  5
219D
330
1F
100
AcDbEntity
  8
AM_VIS
100
AcDbCircle
 10
314.710637276038
 20
54.17162348382714
 30
0.0
 40
1.347048923694666
100
AcDbArc
 50
338.2114816013196
 51
21.78851839868037
  0
ARC
  5
219E
330
1F
100
AcDbEntity
  8
AM_VIS
100
AcDbCircle
 10
318.9443201931122
 20
54.17162348382714
 30
0.0
 40
1.347048923694637
100
AcDbArc
 50
158.2114816013166
 51
201.7885183986804
  0
SPLINE
  5
219F
330
1F
100
AcDbEntity
  8
AM_VIS
100
AcDbSpline
210
0.0
220
0.0
230
1.0
 70
     8
 71
     3
 72
    34
 73
    30
 74
     0
 42
0.0000000001
 43
0.0000000001
 40
1.184453448732195
 40
1.184453448732195
 40
1.184453448732195
 40
1.184453448732195
 40
1.224221877266777
 40
1.224221877266777
 40
1.484022108063337
 40
1.484022108063337
 40
1.743822338859897
 40
1.743822338859897
 40
1.904537629253901
 40
1.904537629253901
 40
2.065252919647905
 40
2.065252919647905
 40
2.22596821004191
 40
2.22596821004191
 40
2.386683500435914
 40
2.386683500435914
 40
2.547398790829918
 40
2.547398790829918
 40
2.708114081223922
 40
2.708114081223922
 40
2.868829371617927
 40
2.868829371617927
 40
3.029544662011931
 40
3.029544662011931
 40
3.289344892808491
 40
3.289344892808491
 40
3.549145123605051
 40
3.549145123605051
 40
3.588913552140736
 40
3.588913552140736
 40
3.588913552140736
 40
3.588913552140736
 10
311.9614533307907
 20
63.0410186247251
 30
0.0
 10
311.9654358445157
 20
63.05178835042159
 30
0.0
 10
311.9695087424411
 20
63.06246216437154
 30
0.0
 10
312.000866864878
 20
63.1421045718269
 30
0.0
 10
312.0357251168408
 20
63.21587645855567
 30
0.0
 10
312.1206333603425
 20
63.35514252776545
 30
0.0
 10
312.1711936883426
 20
63.42030384615753
 30
0.0
 10
312.2559131574341
 20
63.51168023304194
 30
0.0
 10
312.2921547595316
 20
63.54684882905974
 30
0.0
 10
312.3666847436788
 20
63.6184654610704
 30
0.0
 10
312.4048601625606
 20
63.65510013549408
 30
0.0
 10
312.4729594621101
 20
63.73400278201825
 30
0.0
 10
312.5027216716047
 20
63.77641450345345
 30
0.0
 10
312.5447293488975
 20
63.86851992221733
 30
0.0
 10
312.5572544943328
 20
63.91805172036248
 30
0.0
 10
312.5572544943328
 20
64.02519524729183
 30
0.0
 10
312.5447293488975
 20
64.07472704543699
 30
0.0
 10
312.5027216716047
 20
64.16683246420086
 30
0.0
 10
312.4729594621101
 20
64.20924418563607
 30
0.0
 10
312.4048601625606
 20
64.28814683216029
 30
0.0
 10
312.3666847436789
 20
64.32478150658392
 30
0.0
 10
312.2921547595316
 20
64.39639813859457
 30
0.0
 10
312.2559131574341
 20
64.43156673461237
 30
0.0
 10
312.1711936883426
 20
64.52294312149678
 30
0.0
 10
312.1206333603425
 20
64.58810443988887
 30
0.0
 10
312.0357251168408
 20
64.72737050909865
 30
0.0
 10
312.000866864878
 20
64.80114239582741
 30
0.0
 10
311.969508742441
 20
64.88078480328306
 30
0.0
 10
311.9654358445158
 20
64.89145861723239
 30
0.0
 10
311.9614533307907
 20
64.90222834292922
 30
0.0
  0
SPLINE
  5
21A0
330
1F
100
AcDbEntity
  8
AM_VIS
100
AcDbSpline
210
0.0
220
0.0
230
1.0
 70
    11
 71
     3
 72
    40
 73
    36
 74
     0
 42
0.0000000001
 43
0.0000000001
 40
0.0
 40
0.0
 40
0.0
 40
0.0
 40
0.05132215184669
 40
0.05132215184669
 40
0.1084909796590789
 40
0.1084909796590789
 40
0.1800129249508479
 40
0.1800129249508479
 40
0.2624577065767642
 40
0.2624577065767642
 40
0.3444866948628799
 40
0.3444866948628799
 40
0.4254020369695701
 40
0.4254020369695701
 40
0.4956180407388914
 40
0.4956180407388914
 40
0.5507437859178362
 40
0.5507437859178362
 40
0.6009391978066187
 40
0.6009391978066187
 40
0.6526001172065907
 40
0.6526001172065907
 40
0.7155882580134935
 40
0.7155882580134935
 40
0.7943860942982019
 40
0.7943860942982019
 40
0.8734298539249
 40
0.8734298539249
 40
0.952114634292079
 40
0.952114634292079
 40
1.02832557532352
 40
1.02832557532352
 40
1.089824468438065
 40
1.089824468438065
 40
1.129132818024135
 40
1.129132818024135
 40
1.129132818024135
 40
1.129132818024135
 10
306.5297354125788
 20
54.17162348382714
 30
0.0
 10
306.5297354125788
 20
54.18873086777603
 30
0.0
 10
306.52643057715
 20
54.2055005124684
 30
0.0
 10
306.5132459360394
 20
54.23926337937837
 30
0.0
 10
306.5028655019939
 20
54.25554426175086
 30
0.0
 10
306.474230735597
 20
54.28776272820835
 30
0.0
 10
306.4547180685452
 20
54.30254884309523
 30
0.0
 10
306.4085664328099
 20
54.32671157135132
 30
0.0
 10
306.3813403148889
 20
54.33491844440595
 30
0.0
 10
306.3253728962745
 20
54.34116379526329
 30
0.0
 10
306.2970062746905
 20
54.3392114093881
 30
0.0
 10
306.2428262199773
 20
54.32526880572249
 30
0.0
 10
306.2172318855839
 20
54.31347423937757
 30
0.0
 10
306.175535781981
 20
54.28292891391532
 30
0.0
 10
306.1585981378996
 20
54.26525362420694
 30
0.0
 10
306.1364441893377
 20
54.22843468455358
 30
0.0
 10
306.1296460825371
 20
54.21065355148209
 30
0.0
 10
306.1241375842028
 20
54.17466673394773
 30
0.0
 10
306.1248729955811
 20
54.15737230807167
 30
0.0
 10
306.1330757984557
 20
54.12298388558298
 30
0.0
 10
306.140579004515
 20
54.10658636681609
 30
0.0
 10
306.1628220509756
 20
54.07352233529696
 30
0.0
 10
306.1786348126911
 20
54.05778908334713
 30
0.0
 10
306.2189536038049
 20
54.02886313848262
 30
0.0
 10
306.2446605310222
 20
54.01724915947164
 30
0.0
 10
306.2990017174968
 20
54.00380014024165
 30
0.0
 10
306.3273806063465
 20
54.00205775485466
 30
0.0
 10
306.383275108691
 20
54.00881217555616
 30
0.0
 10
306.4104342961213
 20
54.01721949656303
 30
0.0
 10
306.4590405975715
 20
54.04326816367978
 30
0.0
 10
306.4796374795704
 20
54.06009629726657
 30
0.0
 10
306.5082427981379
 20
54.095456929747
 30
0.0
 10
306.5182370687958
 20
54.11343838729937
 30
0.0
 10
306.5277964591621
 20
54.14559636844813
 30
0.0
 10
306.5297354125788
 20
54.15852070063181
 30
0.0
 10
306.5297354125788
 20
54.17162348382714
 30
0.0
  0
ARC
  5
21A1
330
1F
100
AcDbEntity
  8
AM_VIS
100
AcDbCircle
 10
304.2106372760378
 20
54.17162348382714
 30
0.0
 40
1.34704892369485
100
AcDbArc
 50
338.2114816013239
 51
21.78851839867614
  0
ARC
  5
21A2
330
1F
100
AcDbEntity
  8
AM_VIS
100
AcDbCircle
 10
308.4443201931122
 20
54.17162348382714
 30
0.0
 40
1.347048923694636
100
AcDbArc
 50
158.2114816013166
 51
201.7885183986834
  0
SPLINE
  5
21A3
330
1F
100
AcDbEntity
  8
AM_VIS
100
AcDbSpline
210
0.0
220
0.0
230
1.0
 70
     8
 71
     3
 72
    34
 73
    30
 74
     0
 42
0.0000000001
 43
0.0000000001
 40
1.184453448732195
 40
1.184453448732195
 40
1.184453448732195
 40
1.184453448732195
 40
1.224221877266777
 40
1.224221877266777
 40
1.484022108063337
 40
1.484022108063337
 40
1.743822338859897
 40
1.743822338859897
 40
1.904537629253901
 40
1.904537629253901
 40
2.065252919647905
 40
2.065252919647905
 40
2.22596821004191
 40
2.22596821004191
 40
2.386683500435914
 40
2.386683500435914
 40
2.547398790829918
 40
2.547398790829918
 40
2.708114081223922
 40
2.708114081223922
 40
2.868829371617927
 40
2.868829371617927
 40
3.029544662011931
 40
3.029544662011931
 40
3.289344892808491
 40
3.289344892808491
 40
3.549145123605051
 40
3.549145123605051
 40
3.588913552140736
 40
3.588913552140736
 40
3.588913552140736
 40
3.588913552140736
 10
301.4614533307907
 20
63.0410186247251
 30
0.0
 10
301.4654358445157
 20
63.05178835042159
 30
0.0
 10
301.4695087424411
 20
63.06246216437154
 30
0.0
 10
301.500866864878
 20
63.1421045718269
 30
0.0
 10
301.5357251168408
 20
63.21587645855567
 30
0.0
 10
301.6206333603425
 20
63.35514252776545
 30
0.0
 10
301.6711936883426
 20
63.42030384615753
 30
0.0
 10
301.7559131574341
 20
63.51168023304194
 30
0.0
 10
301.7921547595316
 20
63.5468488290598
 30
0.0
 10
301.8666847436789
 20
63.6184654610704
 30
0.0
 10
301.9048601625606
 20
63.65510013549402
 30
0.0
 10
301.9729594621101
 20
63.73400278201825
 30
0.0
 10
302.0027216716047
 20
63.77641450345345
 30
0.0
 10
302.0447293488975
 20
63.86851992221733
 30
0.0
 10
302.0572544943328
 20
63.91805172036248
 30
0.0
 10
302.0572544943328
 20
64.02519524729183
 30
0.0
 10
302.0447293488975
 20
64.07472704543699
 30
0.0
 10
302.0027216716047
 20
64.16683246420086
 30
0.0
 10
301.9729594621101
 20
64.20924418563607
 30
0.0
 10
301.9048601625606
 20
64.28814683216029
 30
0.0
 10
301.8666847436789
 20
64.32478150658392
 30
0.0
 10
301.7921547595316
 20
64.39639813859457
 30
0.0
 10
301.7559131574341
 20
64.43156673461237
 30
0.0
 10
301.6711936883426
 20
64.52294312149678
 30
0.0
 10
301.6206333603425
 20
64.58810443988887
 30
0.0
 10
301.5357251168408
 20
64.72737050909865
 30
0.0
 10
301.500866864878
 20
64.80114239582741
 30
0.0
 10
301.469508742441
 20
64.88078480328306
 30
0.0
 10
301.4654358445158
 20
64.89145861723239
 30
0.0
 10
301.4614533307907
 20
64.90222834292922
 30
0.0
  0
LINE
  5
21A4
102
{ACAD_REACTORS
330
2277
102
}
330
1F
100
AcDbEntity
  8
AM_VIS
100
AcDbLine
 10
330.3274787345752
 20
48.97162348382716
 30
0.0
 11
330.3274787345752
 21
68.97162348382716
 31
0.0
  0
LINE
  5
21A5
330
1F
100
AcDbEntity
  8
AM_VIS
100
AcDbLine
 10
288.8274787345752
 20
48.97162348382716
 30
0.0
 11
288.8274787345752
 21
68.97162348382716
 31
0.0
  0
LINE
  5
21A6
102
{ACAD_REACTORS
330
2231
330
2259
102
}
330
1F
100
AcDbEntity
  8
AM_VIS
100
AcDbLine
 10
288.8274787345752
 20
48.97162348382716
 30
0.0
 11
330.3274787345752
 21
48.97162348382716
 31
0.0
  0
CIRCLE
  5
21AB
330
1F
100
AcDbEntity
  8
AM_VIS
100
AcDbCircle
 10
312.3274787345752
 20
63.97162348382716
 30
0.0
 40
1.0
  0
CIRCLE
  5
21AC
330
1F
100
AcDbEntity
  8
AM_VIS
100
AcDbCircle
 10
301.8274787345752
 20
63.97162348382716
 30
0.0
 40
1.0
  0
CIRCLE
  5
21AD
330
1F
100
AcDbEntity
  8
AM_VIS
100
AcDbCircle
 10
316.3274787345752
 20
54.17162348382714
 30
0.0
 40
2.1
  0
CIRCLE
  5
21AE
330
1F
100
AcDbEntity
  8
AM_VIS
100
AcDbCircle
 10
316.3274787345752
 20
54.17162348382714
 30
0.0
 40
2.6
  0
CIRCLE
  5
21AF
330
1F
100
AcDbEntity
  8
AM_VIS
100
AcDbCircle
 10
312.8274787345751
 20
63.97162348382716
 30
0.0
 40
2.6
  0
CIRCLE
  5
21B0
330
1F
100
AcDbEntity
  8
AM_VIS
100
AcDbCircle
 10
302.3274787345751
 20
63.97162348382716
 30
0.0
 40
2.6
  0
CIRCLE
  5
21B3
330
1F
100
AcDbEntity
  8
AM_VIS
100
AcDbCircle
 10
305.8274787345752
 20
54.17162348382714
 30
0.0
 40
2.6
  0
CIRCLE
  5
21B4
330
1F
100
AcDbEntity
  8
AM_VIS
100
AcDbCircle
 10
316.8274787345751
 20
54.17162348382714
 30
0.0
 40
1.0
  0
CIRCLE
  5
21B5
330
1F
100
AcDbEntity
  8
AM_VIS
100
AcDbCircle
 10
312.8274787345751
 20
63.97162348382716
 30
0.0
 40
2.1
  0
CIRCLE
  5
21B6
330
1F
100
AcDbEntity
  8
AM_VIS
100
AcDbCircle
 10
305.8274787345752
 20
54.17162348382714
 30
0.0
 40
2.1
  0
CIRCLE
  5
21B7
330
1F
100
AcDbEntity
  8
AM_VIS
100
AcDbCircle
 10
306.3274787345751
 20
54.17162348382714
 30
0.0
 40
1.0
  0
CIRCLE
  5
21B8
330
1F
100
AcDbEntity
  8
AM_VIS
100
AcDbCircle
 10
302.3274787345751
 20
63.97162348382716
 30
0.0
 40
2.1
  0
LINE
  5
21BD
330
1F
100
AcDbEntity
  8
AM_VIS
100
AcDbLine
 10
261.9870833094856
 20
99.73949550652839
 30
0.0
 11
261.9870833094856
 21
136.2394955065284
 31
0.0
  0
LINE
  5
21BE
102
{ACAD_REACTORS
330
250D
102
}
330
1F
100
AcDbEntity
  8
AM_VIS
100
AcDbLine
 10
241.9870833094856
 20
99.73949550652839
 30
0.0
 11
261.9870833094856
 21
99.73949550652839
 31
0.0
  0
LINE
  5
21BF
330
1F
100
AcDbEntity
  8
AM_VIS
100
AcDbLine
 10
242.9870833094856
 20
113.2394955065284
 30
0.0
 11
241.9870833094856
 21
112.2394955065284
 31
0.0
  0
LINE
  5
21C0
102
{ACAD_REACTORS
330
24B5
102
}
330
1F
100
AcDbEntity
  8
AM_VIS
100
AcDbLine
 10
241.9870833094856
 20
112.2394955065284
 30
0.0
 11
241.9870833094856
 21
99.73949550652839
 31
0.0
  0
LINE
  5
21C1
330
1F
100
AcDbEntity
  8
AM_VIS
100
AcDbLine
 10
261.9870833094856
 20
136.2394955065284
 30
0.0
 11
241.9870833094856
 21
136.2394955065284
 31
0.0
  0
LINE
  5
21C2
330
1F
100
AcDbEntity
  8
AM_VIS
100
AcDbLine
 10
241.9870833094856
 20
136.2394955065284
 30
0.0
 11
241.9870833094856
 21
132.2394955065284
 31
0.0
  0
LINE
  5
21C3
330
1F
100
AcDbEntity
  8
AM_VIS
100
AcDbLine
 10
241.9870833094856
 20
132.2394955065284
 30
0.0
 11
242.9870833094856
 21
131.2394955065284
 31
0.0
  0
LINE
  5
21C4
330
1F
100
AcDbEntity
  8
AM_VIS
100
AcDbLine
 10
242.9870833094856
 20
131.2394955065284
 30
0.0
 11
242.9870833094856
 21
113.2394955065284
 31
0.0
  0
CIRCLE
  5
21C5
330
1F
100
AcDbEntity
  8
AM_VIS
100
AcDbCircle
 10
251.9870833094856
 20
121.2394955065284
 30
0.0
 40
1.75
  0
CIRCLE
  5
21C6
330
1F
100
AcDbEntity
  8
AM_VIS
100
AcDbCircle
 10
251.9870833094856
 20
121.2394955065284
 30
0.0
 40
1.849999999999999
  0
CIRCLE
  5
21C7
330
1F
100
AcDbEntity
  8
AM_VIS
100
AcDbCircle
 10
251.9870833094856
 20
111.2394955065284
 30
0.0
 40
4.049999999999999
  0
CIRCLE
  5
21CA
330
1F
100
AcDbEntity
  8
AM_VIS
100
AcDbCircle
 10
251.9870833094856
 20
113.2394955065284
 30
0.0
 40
1.75
  0
CIRCLE
  5
21CB
102
{ACAD_REACTORS
330
252B
102
}
330
1F
100
AcDbEntity
  8
AM_VIS
100
AcDbCircle
 10
251.9870833094856
 20
129.2394955065284
 30
0.0
 40
4.049999999999999
  0
CIRCLE
  5
21CC
330
1F
100
AcDbEntity
  8
AM_VIS
100
AcDbCircle
 10
251.9870833094856
 20
129.2394955065284
 30
0.0
 40
1.75
  0
LINE
  5
21CD
330
1F
100
AcDbEntity
  8
AM_VIS
100
AcDbLine
 10
365.3611418070785
 20
99.73949550652839
 30
0.0
 11
365.3611418070785
 21
136.2394955065284
 31
0.0
  0
LINE
  5
21CE
330
1F
100
AcDbEntity
  8
AM_VIS
100
AcDbLine
 10
385.3611418070785
 20
99.73949550652839
 30
0.0
 11
365.3611418070785
 21
99.73949550652839
 31
0.0
  0
LINE
  5
21CF
330
1F
100
AcDbEntity
  8
AM_VIS
100
AcDbLine
 10
385.3611418070785
 20
112.2394955065284
 30
0.0
 11
384.3611418070785
 21
113.2394955065284
 31
0.0
  0
LINE
  5
21D0
330
1F
100
AcDbEntity
  8
AM_VIS
100
AcDbLine
 10
384.3611418070785
 20
113.2394955065284
 30
0.0
 11
384.3611418070785
 21
131.2394955065284
 31
0.0
  0
LINE
  5
21D1
330
1F
100
AcDbEntity
  8
AM_VIS
100
AcDbLine
 10
384.3611418070785
 20
131.2394955065284
 30
0.0
 11
385.3611418070785
 21
132.2394955065284
 31
0.0
  0
LINE
  5
21D2
330
1F
100
AcDbEntity
  8
AM_VIS
100
AcDbLine
 10
385.3611418070785
 20
136.2394955065284
 30
0.0
 11
385.3611418070785
 21
132.2394955065284
 31
0.0
  0
LINE
  5
21D3
102
{ACAD_REACTORS
330
23C2
330
23E8
102
}
330
1F
100
AcDbEntity
  8
AM_VIS
100
AcDbLine
 10
365.3611418070785
 20
136.2394955065284
 30
0.0
 11
385.3611418070785
 21
136.2394955065284
 31
0.0
  0
LINE
  5
21D4
102
{ACAD_REACTORS
330
23E8
330
240E
102
}
330
1F
100
AcDbEntity
  8
AM_VIS
100
AcDbLine
 10
385.3611418070785
 20
112.2394955065284
 30
0.0
 11
385.3611418070785
 21
99.73949550652839
 31
0.0
  0
CIRCLE
  5
21D5
330
1F
100
AcDbEntity
  8
AM_VIS
100
AcDbCircle
 10
375.3611418070785
 20
129.2394955065284
 30
0.0
 40
1.75
  0
CIRCLE
  5
21D6
330
1F
100
AcDbEntity
  8
AM_VIS
100
AcDbCircle
 10
375.3611418070785
 20
129.2394955065284
 30
0.0
 40
1.849999999999999
  0
CIRCLE
  5
21D7
330
1F
100
AcDbEntity
  8
AM_VIS
100
AcDbCircle
 10
375.3611418070785
 20
113.2394955065284
 30
0.0
 40
1.75
  0
CIRCLE
  5
21D8
330
1F
100
AcDbEntity
  8
AM_VIS
100
AcDbCircle
 10
375.3611418070785
 20
113.2394955065284
 30
0.0
 40
1.849999999999999
  0
CIRCLE
  5
21D9
330
1F
100
AcDbEntity
  8
AM_VIS
100
AcDbCircle
 10
375.3611418070785
 20
121.2394955065284
 30
0.0
 40
4.049999999999999
  0
CIRCLE
  5
21DB
330
1F
100
AcDbEntity
  8
AM_VIS
100
AcDbCircle
 10
375.3611418070785
 20
121.2394955065284
 30
0.0
 40
1.75
  0
ARC
  5
21DF
330
1F
100
AcDbEntity
  8
AM_4
100
AcDbCircle
 10
300.2274787345751
 20
119.4894955065284
 30
0.0
 40
0.8
100
AcDbArc
 50
262.524240280596
 51
200.3651311824263
  0
ARC
  5
21E0
330
1F
100
AcDbEntity
  8
AM_4
100
AcDbCircle
 10
308.4274787345752
 20
126.4894955065284
 30
0.0
 40
0.8
100
AcDbArc
 50
262.524240280596
 51
200.3651311824263
  0
ARC
  5
21E1
330
1F
100
AcDbEntity
  8
AM_4
100
AcDbCircle
 10
310.7274787345752
 20
119.4894955065284
 30
0.0
 40
0.8
100
AcDbArc
 50
262.524240280596
 51
200.3651311824263
  0
ARC
  5
21E2
330
1F
100
AcDbEntity
  8
AM_4
100
AcDbCircle
 10
318.9274787345752
 20
126.4894955065284
 30
0.0
 40
0.8
100
AcDbArc
 50
262.524240280596
 51
200.3651311824263
  0
DIMENSION
  5
21F1
102
{ACAD_XDICTIONARY
360
21FE
102
}
102
{ACAD_REACTORS
330
21FF
102
}
330
1F
100
AcDbEntity
  8
AM_5
100
AcDbDimension
  2
*D3
 10
330.3274787345752
 20
83.7394955065285
 30
0.0
 11
309.5774787345752
 21
86.1894955065285
 31
0.0
 70
    32
  1
L
 71
     5
 42
41.5
  3
AM_ISO$0
100
AcDbAlignedDimension
 13
288.8274787345752
 23
99.73949550652839
 33
0.0
 14
330.3274787345752
 24
99.73949550652839
 34
0.0
100
AcDbRotatedDimension
1001
ACAD
1000
DSTYLE
1002
{
1070
    40
1040
1.0
1070
   144
1040
1.0
1070
   272
1070
     8
1002
}
  0
TEXT
  5
220C
330
1F
100
AcDbEntity
  8
0
100
AcDbText
 10
293.5445818131575
 20
62.53352263835927
 30
0.0
 40
3.0
  1
A
  7
dayus
100
AcDbText
  0
TEXT
  5
220D
330
1F
100
AcDbEntity
  8
0
100
AcDbText
 10
320.4802712325175
 20
62.53352263835927
 30
0.0
 40
3.0
  1
A
  7
dayus
100
AcDbText
  0
TEXT
  5
220E
330
1F
100
AcDbEntity
  8
0
100
AcDbText
 10
296.7648560061202
 20
52.7716672999843
 30
0.0
 40
3.0
  1
B
  7
dayus
100
AcDbText
  0
TEXT
  5
220F
330
1F
100
AcDbEntity
  8
0
100
AcDbText
 10
323.7005454254802
 20
52.7716672999843
 30
0.0
 40
3.0
  1
B
  7
dayus
100
AcDbText
  0
DIMENSION
  5
2221
102
{ACAD_XDICTIONARY
360
2230
102
}
102
{ACAD_REACTORS
330
2231
102
}
330
1F
100
AcDbEntity
  8
AM_5
100
AcDbDimension
  2
*D4
 10
335.7610407231679
 20
54.17162348382714
 30
0.0
 11
335.7610407231679
 21
39.71652013737052
 31
0.0
 70
   160
 71
     5
 42
5.199999999999988
  3
AM_ISO$0
100
AcDbAlignedDimension
 13
330.3274787345752
 23
48.97162348382716
 33
0.0
 14
320.0274787345751
 24
54.17162348382714
 34
0.0
 50
90.0
100
AcDbRotatedDimension
1001
ACAD
1000
DSTYLE
1002
{
1070
    40
1040
1.0
1070
   144
1040
1.0
1070
   272
1070
     8
1002
}
  0
DIMENSION
  5
224B
102
{ACAD_XDICTIONARY
360
2258
102
}
102
{ACAD_REACTORS
330
2259
102
}
330
1F
100
AcDbEntity
  8
AM_5
100
AcDbDimension
  2
*D5
 10
342.761040723168
 20
63.97162348382715
 30
0.0
 11
340.311040723168
 21
56.47162348382721
 31
0.0
 70
    32
 71
     5
 42
15.0
  3
AM_ISO$0
100
AcDbAlignedDimension
 13
330.3274787345752
 23
48.97162348382716
 33
0.0
 14
316.5274787345751
 24
63.97162348382716
 34
0.0
 50
90.0
100
AcDbRotatedDimension
1001
ACAD
1000
DSTYLE
1002
{
1070
    40
1040
1.0
1070
   144
1040
1.0
1070
   272
1070
     8
1002
}
  0
DIMENSION
  5
2269
102
{ACAD_XDICTIONARY
360
2276
102
}
102
{ACAD_REACTORS
330
2277
102
}
330
1F
100
AcDbEntity
  8
AM_5
100
AcDbDimension
  2
*D6
 10
349.761040723168
 20
68.97162348382716
 30
0.0
 11
347.310696234979
 21
58.97162348382721
 31
0.0
 70
    32
 71
     5
 42
20.0
  3
AM_ISO$0
100
AcDbAlignedDimension
 13
330.3274787345752
 23
48.97162348382716
 33
0.0
 14
330.3274787345752
 24
68.97162348382716
 34
0.0
 50
90.0
100
AcDbRotatedDimension
1001
ACAD
1000
DSTYLE
1002
{
1070
    40
1040
1.0
1070
   144
1040
1.0
1070
   272
1070
     8
1002
}
  0
DIMENSION
  5
2317
102
{ACAD_XDICTIONARY
360
2326
102
}
102
{ACAD_REACTORS
330
2327
102
}
330
1F
100
AcDbEntity
  8
AM_5
100
AcDbDimension
  2
*D7
 10
338.3274787345751
 20
99.73949550652839
 30
0.0
 11
338.3274787345751
 21
110.2119828799437
 31
0.0
 70
   160
 71
     5
 42
3.0
  3
AM_ISO$0
100
AcDbAlignedDimension
 13
330.1774787345752
 23
102.7394955065284
 33
0.0
 14
330.3274787345752
 24
99.73949550652839
 34
0.0
 50
90.0
100
AcDbRotatedDimension
1001
ACAD
1000
DSTYLE
1002
{
1070
    40
1040
1.0
1070
   144
1040
1.0
1070
    43
1040
7.0
1002
}
  0
DIMENSION
  5
2345
102
{ACAD_XDICTIONARY
360
2352
102
}
102
{ACAD_REACTORS
330
2353
102
}
330
1F
100
AcDbEntity
  8
AM_5
100
AcDbDimension
  2
*D8
 10
345.3274787345752
 20
136.2394955065284
 30
0.0
 11
342.8774787345751
 21
117.9894955065284
 31
0.0
 70
    32
 71
     5
 42
36.50000000000002
  3
AM_ISO$0
100
AcDbAlignedDimension
 13
330.3274787345752
 23
99.73949550652839
 33
0.0
 14
330.3274787345752
 24
136.2394955065284
 34
0.0
 50
90.0
100
AcDbRotatedDimension
1001
ACAD
1000
DSTYLE
1002
{
1070
    40
1040
1.0
1070
   144
1040
1.0
1070
    43
1040
7.0
1002
}
  0
DIMENSION
  5
2360
102
{ACAD_XDICTIONARY
360
236C
102
}
102
{ACAD_REACTORS
330
236D
102
}
330
1F
100
AcDbEntity
  8
AM_5
100
AcDbDimension
  2
*D9
 10
294.097571146862
 20
104.5967421956497
 30
0.0
 11
271.2363244166986
 21
89.6567801971816
 31
0.0
 70
   163
  1
2-<> thru
 71
     5
 42
4.500000000000142
  3
AM_ISO$3
100
AcDbDiametricDimension
 15
291.5573863222885
 25
100.8822488174071
 35
0.0
 40
0.0
1001
ACAD
1000
DSTYLE
1002
{
1070
    40
1040
1.0
1070
   144
1040
1.0
1070
    43
1040
7.0
1002
}
  0
DIMENSION
  5
23B4
102
{ACAD_XDICTIONARY
360
23C1
102
}
102
{ACAD_REACTORS
330
23C2
102
}
330
1F
100
AcDbEntity
  8
AM_5
100
AcDbDimension
  2
*D10
 10
375.3611418070785
 20
148.2394965065284
 30
0.0
 11
380.3611418070785
 21
150.6894965065284
 31
0.0
 70
    32
 71
     5
 42
10.0
  3
AM_ISO$0
100
AcDbAlignedDimension
 13
385.3611418070785
 23
136.2394955065284
 33
0.0
 14
375.3611418070785
 24
132.6894955065283
 34
0.0
100
AcDbRotatedDimension
1001
ACAD
1000
DSTYLE
1002
{
1070
    40
1040
1.0
1070
   144
1040
1.0
1070
    43
1040
7.0
1002
}
  0
DIMENSION
  5
23DA
102
{ACAD_XDICTIONARY
360
23E7
102
}
102
{ACAD_REACTORS
330
23E8
102
}
330
1F
100
AcDbEntity
  8
AM_5
100
AcDbDimension
  2
*D11
 10
400.9111418070785
 20
99.73949550652839
 30
0.0
 11
400.9111418070785
 21
117.9894955065284
 31
0.0
 70
   160
 71
     5
 42
36.5
  3
AM_ISO$0
100
AcDbAlignedDimension
 13
385.3611418070785
 23
136.2394955065284
 33
0.0
 14
385.3611418070785
 24
99.73949550652839
 34
0.0
 50
90.0
100
AcDbRotatedDimension
1001
ACAD
1000
DSTYLE
1002
{
1070
    40
1040
1.0
1070
   144
1040
1.0
1070
    43
1040
7.0
1002
}
  0
DIMENSION
  5
2400
102
{ACAD_XDICTIONARY
360
240D
102
}
102
{ACAD_REACTORS
330
240E
102
}
330
1F
100
AcDbEntity
  8
AM_5
100
AcDbDimension
  2
*D12
 10
393.9107973188896
 20
121.2394955065284
 30
0.0
 11
393.9107973188896
 21
110.4894955065284
 31
0.0
 70
   160
 71
     5
 42
21.5
  3
AM_ISO$0
100
AcDbAlignedDimension
 13
385.3611418070785
 23
99.73949550652839
 33
0.0
 14
381.0111418070785
 24
121.2394955065284
 34
0.0
 50
90.0
100
AcDbRotatedDimension
1001
ACAD
1000
DSTYLE
1002
{
1070
    40
1040
1.0
1070
   144
1040
1.0
1070
    43
1040
7.0
1002
}
  0
DIMENSION
  5
24A7
102
{ACAD_XDICTIONARY
360
24B4
102
}
102
{ACAD_REACTORS
330
24B5
102
}
330
1F
100
AcDbEntity
  8
AM_5
100
AcDbDimension
  2
*D13
 10
235.6689487520472
 20
111.2394955065284
 30
0.0
 11
233.2189487520472
 21
105.4894955065284
 31
0.0
 70
    32
 71
     5
 42
11.5
  3
AM_ISO$0
100
AcDbAlignedDimension
 13
241.9870833094856
 23
99.73949550652839
 33
0.0
 14
246.3370833094856
 24
111.2394955065284
 34
0.0
 50
90.0
100
AcDbRotatedDimension
1001
ACAD
1000
DSTYLE
1002
{
1070
    43
1040
7.0
1070
   174
1070
     1
1002
}
  0
DIMENSION
  5
24D1
102
{ACAD_XDICTIONARY
360
24DE
102
}
102
{ACAD_REACTORS
330
24DF
102
}
330
1F
100
AcDbEntity
  8
AM_5
100
AcDbDimension
  2
*D14
 10
235.6689487520472
 20
111.2394955065284
 30
0.0
 11
233.2189487520472
 21
120.2394955065284
 31
0.0
 70
    32
 71
     5
 42
18.0
  3
AM_ISO$0
100
AcDbAlignedDimension
 13
246.3370833094856
 23
129.2394955065284
 33
0.0
 14
246.3370833094856
 24
111.2394955065284
 34
0.0
 50
90.0
100
AcDbRotatedDimension
1001
ACAD
1000
DSTYLE
1002
{
1070
   174
1070
     1
1070
    40
1040
1.0
1070
   144
1040
1.0
1070
    43
1040
7.0
1002
}
  0
DIMENSION
  5
24FF
102
{ACAD_XDICTIONARY
360
250C
102
}
102
{ACAD_REACTORS
330
250D
102
}
330
1F
100
AcDbEntity
  8
AM_5
100
AcDbDimension
  2
*D15
 10
251.9870833094856
 20
87.73949450652839
 30
0.0
 11
246.9870833094855
 21
90.18949450652838
 31
0.0
 70
    32
 71
     5
 42
10.0
  3
AM_ISO$0
100
AcDbAlignedDimension
 13
241.9870833094856
 23
99.73949550652839
 33
0.0
 14
251.9870833094856
 24
105.5894955065283
 34
0.0
100
AcDbRotatedDimension
1001
ACAD
1000
DSTYLE
1002
{
1070
    40
1040
1.0
1070
   144
1040
1.0
1070
    43
1040
7.0
1002
}
  0
ARC
  5
251C
330
1F
100
AcDbEntity
  8
AM_4
100
AcDbCircle
 10
251.9870833094856
 20
111.2394955065284
 30
0.0
 40
4.849999999999999
100
AcDbArc
 50
251.3235651711887
 51
194.007887056372
  0
DIMENSION
  5
2521
102
{ACAD_XDICTIONARY
360
252A
102
}
102
{ACAD_REACTORS
330
252B
102
}
330
1F
100
AcDbEntity
  8
AM_5
100
AcDbDimension
  2
*D16
 10
253.4796311650268
 20
125.4745518284744
 30
0.0
 11
237.2746429701702
 21
142.5139720421289
 31
0.0
 70
   163
  1
3-PT 1/8
 71
     5
 42
8.09999999999988
  3
AM_ISO$3
100
AcDbDiametricDimension
 15
250.4945354539444
 25
133.0044391845824
 35
0.0
 40
0.0
1001
ACAD
1000
DSTYLE
1002
{
1070
    40
1040
1.0
1070
   144
1040
1.0
1070
    43
1040
7.0
1002
}
  0
ARC
  5
254A
330
1F
100
AcDbEntity
  8
AM_4
100
AcDbCircle
 10
375.3611418070785
 20
121.2394955065284
 30
0.0
 40
4.849999999999999
100
AcDbArc
 50
251.3235651711887
 51
194.007887056372
  0
DIMENSION
  5
255B
102
{ACAD_XDICTIONARY
360
2568
102
}
102
{ACAD_REACTORS
330
2569
102
}
330
1F
100
AcDbEntity
  8
AM_5
100
AcDbDimension
  2
*D17
 10
326.3274787345752
 20
90.7394955065285
 30
0.0
 11
309.5774787345752
 21
93.18949550652851
 31
0.0
 70
    32
  1
P
 71
     5
 42
33.5
  3
AM_ISO$0
100
AcDbAlignedDimension
 13
292.8274787345752
 23
98.88949550652842
 33
0.0
 14
326.3274787345752
 24
98.88949550652842
 34
0.0
100
AcDbRotatedDimension
1001
ACAD
1000
DSTYLE
1002
{
1070
    40
1040
1.0
1070
   144
1040
1.0
1070
    43
1040
7.0
1002
}
  0
LINE
  5
25D0
330
1F
100
AcDbEntity
  8
SL
  6
ACISOTGB
 62
     4
100
AcDbLine
 10
310.3083625654874
 20
122.7010984712502
 30
0.0
 11
310.3083625654874
 21
145.4876615809236
 31
0.0
  0
LINE
  5
25D1
330
1F
100
AcDbEntity
  8
SL
  6
ACISOTGB
 62
     4
100
AcDbLine
 10
307.5150273621002
 20
122.7010984712503
 30
0.0
 11
310.3083625654874
 21
122.7010984712502
 31
0.0
  0
LINE
  5
25D2
330
1F
100
AcDbEntity
  8
SL
  6
ACISOTGB
 62
     4
100
AcDbLine
 10
307.5150273621002
 20
96.70434985791496
 30
0.0
 11
307.5150273621002
 21
122.7010984712503
 31
0.0
  0
LINE
  5
267F
330
1F
100
AcDbEntity
  8
SL
  6
ACISOTGB
 62
     4
100
AcDbLine
 10
307.481556324022
 20
59.38300100725587
 30
0.0
 11
307.481556324022
 21
74.13301343449439
 31
0.0
  0
LINE
  5
2680
330
1F
100
AcDbEntity
  8
SL
  6
ACISOTGB
 62
     4
100
AcDbLine
 10
310.8058478961563
 20
59.38300100725593
 30
0.0
 11
307.481556324022
 21
59.38300100725587
 31
0.0
  0
LINE
  5
2681
330
1F
100
AcDbEntity
  8
SL
  6
ACISOTGB
 62
     4
100
AcDbLine
 10
310.8058478961563
 20
43.16071168509711
 30
0.0
 11
310.8058478961563
 21
59.38300100725593
 31
0.0
  0
LINE
  5
276A
330
1F
100
AcDbEntity
  8
LOGO
 62
     4
100
AcDbLine
 10
252.1768432218095
 20
11.45658065305065
 30
0.0
 11
252.1768432218095
 21
29.07962852997387
 31
0.0
  0
TEXT
  5
276B
330
1F
100
AcDbEntity
  8
LOGO
  6
Continuous
100
AcDbText
 10
219.7364159071024
 20
14.91860181297409
 30
0.0
 40
2.643457181538461
  1
金器工業股份有限公司
  7
CHINESET
100
AcDbText
  0
TEXT
  5
276C
330
1F
100
AcDbEntity
  8
LOGO
  6
Continuous
100
AcDbText
 10
214.8809080468289
 20
12.27462672108312
 30
0.0
 40
1.762304787692307
  1
MINDMAN INDUSTRIAL CO., LTD.
 41
0.85
  7
CHINESET
100
AcDbText
  0
LINE
  5
276D
330
1F
100
AcDbEntity
  8
LOGO
 62
     4
100
AcDbLine
 10
252.1768432218095
 20
25.55501895458922
 30
0.0
 11
226.3297063356555
 21
25.55501895458922
 31
0.0
  0
LINE
  5
276E
330
1F
100
AcDbEntity
  8
LOGO
 62
     4
100
AcDbLine
 10
252.1768432218095
 20
22.03040937920457
 30
0.0
 11
226.3297063356555
 21
22.03040937920457
 31
0.0
  0
LINE
  5
276F
330
1F
100
AcDbEntity
  8
LOGO
 62
     4
100
AcDbLine
 10
252.1768432218095
 20
18.50579980382014
 30
0.0
 11
213.4061378925787
 21
18.50579980382014
 31
0.0
  0
LINE
  5
2770
330
1F
100
AcDbEntity
  8
LOGO
 62
     4
100
AcDbLine
 10
226.3297063356555
 20
18.50579980382014
 30
0.0
 11
226.3297063356555
 21
29.07962852997387
 31
0.0
  0
TEXT
  5
2771
330
1F
100
AcDbEntity
  8
LOGO
100
AcDbText
 10
243.9950044310632
 20
19.38695219766598
 30
0.0
 40
1.762304787692307
  1
mm
  7
CHINESET
 72
     1
 11
246.1769055967775
 21
20.26810459151214
 31
0.0
100
AcDbText
 73
     2
  0
TEXT
  5
2772
330
1F
100
AcDbEntity
  8
LOGO
100
AcDbText
 10
243.0718923994148
 20
26.4361713484353
 30
0.0
 40
1.762304787692307
  1
1 : 1
  7
CHINESET
 72
     1
 11
246.1769055967775
 21
27.31732374228145
 31
0.0
100
AcDbText
 73
     2
  0
LINE
  5
2773
330
1F
100
AcDbEntity
  8
LOGO
 62
     4
100
AcDbLine
 10
240.428144637194
 20
18.50579980382014
 30
0.0
 11
240.428144637194
 21
29.07962852997387
 31
0.0
  0
TEXT
  5
2774
330
1F
100
AcDbEntity
  8
LOGO
100
AcDbText
 10
227.7828210422929
 20
26.43703862441349
 30
115.4985525578167
 40
1.762304787692307
  1
比例 Scale:
 41
0.9
  7
CHINESET
 72
     4
 11
233.3789254864247
 21
27.31732374228145
 31
115.4985525578167
100
AcDbText
  0
TEXT
  5
2775
330
1F
100
AcDbEntity
  8
LOGO
100
AcDbText
 10
227.6813311683588
 20
22.93635141142738
 30
115.4985525578167
 40
1.762304787692307
  1
投影  View:
 41
0.9
  7
CHINESET
 72
     4
 11
233.3789254864247
 21
23.79271416689679
 31
115.4985525578167
100
AcDbText
  0
TEXT
  5
2776
330
1F
100
AcDbEntity
  8
LOGO
100
AcDbText
 10
227.8536279310841
 20
19.38695219766598
 30
115.4985525578167
 40
1.762304787692307
  1
單位  Unit:
 41
0.9
  7
CHINESET
 72
     4
 11
233.3789254864247
 21
20.26810459151214
 31
115.4985525578167
100
AcDbText
  0
LWPOLYLINE
  5
2777
330
1F
100
AcDbEntity
  8
LOGO
 62
     4
100
AcDbPolyline
 90
        4
 70
     1
 43
0.0
 10
213.4061378925786
 20
29.07962852997387
 10
455.7581378925787
 20
29.07962852997387
 10
455.7581378925787
 20
187.7125806530503
 10
213.4061378925786
 20
187.7125806530503
1001
GENIUS_GENREC_14
1002
{
1000
PYDIR
1011
213.4061378925786
1021
187.7125806530503
1031
0.0
1002
}
1002
{
1000
PXDIR
1011
455.7581378925787
1021
29.07962852997387
1031
0.0
1002
}
1002
{
1000
PORI
1011
213.4061378925786
1021
29.07962852997387
1031
0.0
1002
}
1002
{
1000
PINS
1011
213.4061378925786
1021
29.07962852997387
1031
0.0
1002
}
1002
{
1000
PINS2
1011
455.7581378925787
1021
187.7125806530503
1031
0.0
1002
}
1002
{
1000
C
1070
     1
1002
}
1001
GENIUS_GENODEF_13
1002
{
1000
HIER
1070
     0
1002
}
1002
{
1000
MANEDIT
1070
     0
1002
}
1002
{
1000
NOSEL
1070
     0
1002
}
1002
{
1000
BEHIND
1070
     0
1002
}
1002
{
1000
OTHER
1070
     0
1002
}
1002
{
1000
REACTOR
1002
}
1001
GENIUS_GENOBJ-N-REC_13
1002
{
1000
OWNER
1000
GEN
1002
}
  0
SOLID
  5
2778
330
1F
100
AcDbEntity
  8
LOGO
 62
     5
100
AcDbTrace
 10
215.23455739265
 20
21.43538066902483
 30
0.0
 11
215.9965317399705
 21
21.43538066902459
 31
0.0
 12
219.1758040167215
 22
28.66099947982306
 32
0.0
 13
219.9377783640425
 23
28.66099947982266
 33
0.0
  0
SOLID
  5
2779
330
1F
100
AcDbEntity
  8
LOGO
 62
     5
100
AcDbTrace
 10
216.311831469897
 20
21.43538066902483
 30
0.0
 11
217.0738058172176
 21
21.43538066902483
 31
0.0
 12
219.9377783640425
 22
28.08294997495892
 32
0.0
 13
219.1758040167215
 23
25.2890440347836
 33
0.0
  0
SOLID
  5
277A
330
1F
100
AcDbEntity
  8
LOGO
 62
     2
100
AcDbTrace
 10
215.9965317399705
 20
21.43538066902459
 30
0.0
 11
216.311831469897
 21
21.43538066902483
 31
0.0
 12
219.9377783640425
 22
28.66099947982266
 32
0.0
 13
220.2530780939685
 23
28.66099947982266
 33
0.0
  0
SOLID
  5
277B
330
1F
100
AcDbEntity
  8
LOGO
 62
     5
100
AcDbTrace
 10
214.0129256548963
 20
18.80788291964386
 30
0.0
 11
214.2756754298346
 21
18.80788291964386
 31
0.0
 12
215.0155992468684
 22
20.12163179433422
 32
0.0
 13
215.278349021806
 23
20.12163179433422
 33
0.0
  0
SOLID
  5
277C
330
1F
100
AcDbEntity
  8
LOGO
 62
     5
100
AcDbTrace
 10
215.0155992468684
 20
20.12163179433422
 30
0.0
 11
215.278349021806
 21
20.12163179433422
 31
0.0
 12
215.0155992468684
 22
18.80788291964386
 32
0.0
 13
215.278349021806
 23
18.80788291964386
 33
0.0
  0
SOLID
  5
277D
330
1F
100
AcDbEntity
  8
LOGO
 62
     5
100
AcDbTrace
 10
215.0155992468684
 20
18.80788291964386
 30
0.0
 11
215.278349021806
 21
18.80788291964386
 31
0.0
 12
216.0182728388411
 22
20.12163179433422
 32
0.0
 13
216.2810226137791
 23
20.12163179433422
 33
0.0
  0
SOLID
  5
277E
330
1F
100
AcDbEntity
  8
LOGO
 62
     5
100
AcDbTrace
 10
216.0182728388411
 20
20.12163179433422
 30
0.0
 11
216.2810226137791
 21
20.12163179433422
 31
0.0
 12
216.0182728388411
 22
18.80788291964386
 32
0.0
 13
216.2810226137791
 23
18.80788291964386
 33
0.0
  0
POLYLINE
  5
277F
330
1F
100
AcDbEntity
  8
LOGO
 62
     5
100
AcDb2dPolyline
 66
     1
 10
0.0
 20
0.0
 30
0.0
 40
0.2631708482953845
 41
0.2631708482953845
  0
VERTEX
  5
2780
330
277F
100
AcDbEntity
  8
LOGO
 62
     5
100
AcDbVertex
100
AcDb2dVertex
 10
224.8255557879276
 20
19.59613224445806
 30
0.0
 42
1.0
  0
VERTEX
  5
2781
330
277F
100
AcDbEntity
  8
LOGO
 62
     5
100
AcDbVertex
100
AcDb2dVertex
 10
224.0360432430412
 20
19.59613224445806
 30
0.0
 42
1.0
  0
SEQEND
  5
2782
330
277F
100
AcDbEntity
  8
LOGO
 62
     5
  0
POLYLINE
  5
2783
330
1F
100
AcDbEntity
  8
LOGO
 62
     5
100
AcDb2dPolyline
 66
     1
 10
0.0
 20
0.0
 30
0.0
 70
     1
  0
VERTEX
  5
2784
330
2783
100
AcDbEntity
  8
LOGO
 62
     5
100
AcDbVertex
100
AcDb2dVertex
 10
222.5477769784124
 20
19.46475735698887
 30
0.0
 42
1.000000057330635
  0
VERTEX
  5
2785
330
2783
100
AcDbEntity
  8
LOGO
 62
     5
100
AcDbVertex
100
AcDb2dVertex
 10
223.3360263032268
 20
19.46475735698887
 30
0.0
 42
1.000000057330635
  0
SEQEND
  5
2786
330
2783
100
AcDbEntity
  8
LOGO
 62
     5
  0
CIRCLE
  5
2787
330
1F
100
AcDbEntity
  8
LOGO
 62
     5
100
AcDbCircle
 10
222.9419016408201
 20
19.46475735698887
 30
0.0
 40
0.394124662407168
  0
POLYLINE
  5
2788
330
1F
100
AcDbEntity
  8
LOGO
 62
     5
100
AcDb2dPolyline
 66
     1
 10
0.0
 20
0.0
 30
0.0
 70
     1
 40
0.2631708482953845
 41
0.2631708482953845
  0
VERTEX
  5
2789
330
2788
100
AcDbEntity
  8
LOGO
 62
     5
100
AcDbVertex
100
AcDb2dVertex
 10
222.415559944229
 20
19.46475735698887
 30
0.0
 42
1.0
  0
VERTEX
  5
278A
330
2788
100
AcDbEntity
  8
LOGO
 62
     5
100
AcDbVertex
100
AcDb2dVertex
 10
223.4682433374105
 20
19.46475735698887
 30
0.0
 42
1.0
  0
SEQEND
  5
278B
330
2788
100
AcDbEntity
  8
LOGO
 62
     5
  0
LINE
  5
278C
330
1F
100
AcDbEntity
  8
LOGO
100
AcDbLine
 10
224.9562990653602
 20
18.80788291964386
 30
0.0
 11
224.9562990653602
 21
19.59613224445806
 31
0.0
  0
SOLID
  5
278D
330
1F
100
AcDbEntity
  8
LOGO
 62
     5
100
AcDbTrace
 10
223.3360000282504
 20
20.12163179433422
 30
0.0
 11
223.5987498031881
 21
20.12163179433422
 31
0.0
 12
223.3360000282504
 22
18.80788291964386
 32
0.0
 13
223.5987498031881
 23
18.80788291964386
 33
0.0
  0
SOLID
  5
278E
330
1F
100
AcDbEntity
  8
LOGO
 62
     5
100
AcDbTrace
 10
223.9052999656077
 20
18.80788291964386
 30
0.0
 11
224.1680497405462
 21
18.80788291964386
 31
0.0
 12
223.9052999656077
 22
20.12163179433422
 32
0.0
 13
224.1680497405462
 23
20.12163179433422
 33
0.0
  0
SOLID
  5
278F
330
1F
100
AcDbEntity
  8
LOGO
 62
     5
100
AcDbTrace
 10
224.6935492904226
 20
19.59613224445806
 30
0.0
 11
224.9562990653602
 21
19.59613224445806
 31
0.0
 12
224.6935492904226
 22
18.80788291964386
 32
0.0
 13
224.9562990653602
 23
18.80788291964386
 33
0.0
  0
SOLID
  5
2790
330
1F
100
AcDbEntity
  8
LOGO
 62
     5
100
AcDbTrace
 10
223.879024988114
 20
28.08294997495892
 30
0.0
 11
223.1170506407938
 21
25.2890440347836
 31
0.0
 12
223.879024988114
 22
21.43538066902459
 32
0.0
 13
223.1170506407938
 23
21.43538066902459
 33
0.0
  0
SOLID
  5
2791
330
1F
100
AcDbEntity
  8
LOGO
 62
     5
100
AcDbTrace
 10
224.1943247180401
 20
21.43538066902459
 30
0.0
 11
224.9562990653602
 21
21.43538066902459
 31
0.0
 12
224.1943247180401
 22
28.66099947982266
 32
0.0
 13
224.9562990653602
 23
28.66099947982306
 33
0.0
  0
SOLID
  5
2792
330
1F
100
AcDbEntity
  8
LOGO
 62
     2
100
AcDbTrace
 10
223.879024988114
 20
28.66099947982306
 30
0.0
 11
224.1943247180401
 21
28.66099947982266
 31
0.0
 12
223.879024988114
 22
21.43538066902459
 32
0.0
 13
224.1943247180401
 23
21.43538066902459
 33
0.0
  0
POLYLINE
  5
2793
330
1F
100
AcDbEntity
  8
LOGO
 62
     5
100
AcDb2dPolyline
 66
     1
 10
0.0
 20
0.0
 30
0.0
 40
0.2631708482953845
 41
0.2631708482953845
  0
VERTEX
  5
2794
330
2793
100
AcDbEntity
  8
LOGO
 62
     5
100
AcDbVertex
100
AcDb2dVertex
 10
221.0594581638296
 20
19.59613224445806
 30
0.0
 42
1.0
  0
VERTEX
  5
2795
330
2793
100
AcDbEntity
  8
LOGO
 62
     5
100
AcDbVertex
100
AcDb2dVertex
 10
220.2699456189434
 20
19.59613224445806
 30
0.0
 42
1.0
  0
SEQEND
  5
2796
330
2793
100
AcDbEntity
  8
LOGO
 62
     5
  0
POLYLINE
  5
2797
330
1F
100
AcDbEntity
  8
LOGO
 62
     5
100
AcDb2dPolyline
 66
     1
 10
0.0
 20
0.0
 30
0.0
 40
0.2631708482953845
 41
0.2631708482953845
  0
VERTEX
  5
2798
330
2797
100
AcDbEntity
  8
LOGO
 62
     5
100
AcDbVertex
100
AcDb2dVertex
 10
221.8477074886433
 20
19.59613224445806
 30
0.0
 42
1.0
  0
VERTEX
  5
2799
330
2797
100
AcDbEntity
  8
LOGO
 62
     5
100
AcDbVertex
100
AcDb2dVertex
 10
221.0581949437573
 20
19.59613224445806
 30
0.0
 42
1.0
  0
SEQEND
  5
279A
330
2797
100
AcDbEntity
  8
LOGO
 62
     5
  0
POLYLINE
  5
279B
330
1F
100
AcDbEntity
  8
LOGO
 62
     5
100
AcDb2dPolyline
 66
     1
 10
0.0
 20
0.0
 30
0.0
 40
0.2631708482953845
 41
0.2631708482953845
  0
VERTEX
  5
279C
330
279B
100
AcDbEntity
  8
LOGO
 62
     5
100
AcDbVertex
100
AcDb2dVertex
 10
218.0816098645454
 20
19.59613224445806
 30
0.0
 42
1.0
  0
VERTEX
  5
279D
330
279B
100
AcDbEntity
  8
LOGO
 62
     5
100
AcDbVertex
100
AcDb2dVertex
 10
217.2920973196594
 20
19.59613224445806
 30
0.0
 42
1.0
  0
SEQEND
  5
279E
330
279B
100
AcDbEntity
  8
LOGO
 62
     5
  0
SOLID
  5
279F
330
1F
100
AcDbEntity
  8
LOGO
 62
     5
100
AcDbTrace
 10
217.1613540422264
 20
20.12163179433422
 30
0.0
 11
217.424103817164
 21
20.12163179433422
 31
0.0
 12
217.1613540422264
 22
18.80788291964386
 32
0.0
 13
217.424103817164
 23
18.80788291964386
 33
0.0
  0
SOLID
  5
27A0
330
1F
100
AcDbEntity
  8
LOGO
 62
     5
100
AcDbTrace
 10
217.9496033670408
 20
19.59613224445806
 30
0.0
 11
218.2123531419792
 21
19.59613224445806
 31
0.0
 12
217.9496033670408
 22
18.80788291964386
 32
0.0
 13
218.2123531419792
 23
18.80788291964386
 33
0.0
  0
POLYLINE
  5
27A1
330
1F
100
AcDbEntity
  8
LOGO
 62
     5
100
AcDb2dPolyline
 66
     1
 10
0.0
 20
0.0
 30
0.0
 70
     1
 40
0.2631708482953845
 41
0.2631708482953845
  0
VERTEX
  5
27A2
330
27A1
100
AcDbEntity
  8
LOGO
 62
     5
100
AcDbVertex
100
AcDb2dVertex
 10
218.6494623201308
 20
19.46475735698887
 30
0.0
 42
1.0
  0
VERTEX
  5
27A3
330
27A1
100
AcDbEntity
  8
LOGO
 62
     5
100
AcDbVertex
100
AcDb2dVertex
 10
219.7021457133126
 20
19.46475735698887
 30
0.0
 42
1.0
  0
SEQEND
  5
27A4
330
27A1
100
AcDbEntity
  8
LOGO
 62
     5
  0
SOLID
  5
27A5
330
1F
100
AcDbEntity
  8
LOGO
 62
     5
100
AcDbTrace
 10
219.5699024041518
 20
20.51575645674164
 30
0.0
 11
219.8326521790897
 21
20.51575645674164
 31
0.0
 12
219.5699024041518
 22
18.80788291964386
 32
0.0
 13
219.8326521790897
 23
18.80788291964386
 33
0.0
  0
SOLID
  5
27A6
330
1F
100
AcDbEntity
  8
LOGO
 62
     5
100
AcDbTrace
 10
220.1392023415107
 20
20.12163179433422
 30
0.0
 11
220.4019521164483
 21
20.12163179433422
 31
0.0
 12
220.1392023415107
 22
18.80788291964386
 32
0.0
 13
220.4019521164483
 23
18.80788291964386
 33
0.0
  0
SOLID
  5
27A7
330
1F
100
AcDbEntity
  8
LOGO
 62
     5
100
AcDbTrace
 10
220.9274516663243
 20
19.59613224445806
 30
0.0
 11
221.1902014412627
 21
19.59613224445806
 31
0.0
 12
220.9274516663243
 22
18.80788291964386
 32
0.0
 13
221.1902014412627
 23
18.80788291964386
 33
0.0
  0
SOLID
  5
27A8
330
1F
100
AcDbEntity
  8
LOGO
 62
     5
100
AcDbTrace
 10
221.7157009911387
 20
19.59613224445806
 30
0.0
 11
221.9784507660767
 21
19.59613224445806
 31
0.0
 12
221.7157009911387
 22
18.80788291964345
 32
0.0
 13
221.9784507660767
 23
18.80788291964345
 33
0.0
  0
SOLID
  5
27A9
330
1F
100
AcDbEntity
  8
LOGO
 62
     5
100
AcDbTrace
 10
216.5920541048679
 20
20.30555663679098
 30
0.0
 11
216.8548038798067
 21
20.30555663679098
 31
0.0
 12
216.5920541048679
 22
20.51575645674164
 32
0.0
 13
216.8548038798067
 23
20.51575645674164
 33
0.0
  0
SOLID
  5
27AA
330
1F
100
AcDbEntity
  8
LOGO
 62
     5
100
AcDbTrace
 10
216.5920541048679
 20
20.12163179433422
 30
0.0
 11
216.8548038798067
 21
20.12163179433422
 31
0.0
 12
216.5920541048679
 22
18.80788291964345
 32
0.0
 13
216.8548038798067
 23
18.80788291964386
 33
0.0
  0
SOLID
  5
27AB
330
1F
100
AcDbEntity
  8
LOGO
 62
     5
100
AcDbTrace
 10
219.1758040167215
 20
21.43538066902483
 30
0.0
 11
219.9377783640425
 21
21.43538066902483
 31
0.0
 12
219.1758040167215
 22
25.2890440347836
 32
0.0
 13
219.9377783640425
 23
28.08294997495892
 33
0.0
  0
SOLID
  5
27AC
330
1F
100
AcDbEntity
  8
LOGO
 62
     5
100
AcDbTrace
 10
220.2530780939685
 20
28.66099947982266
 30
0.0
 11
221.0150524412887
 21
28.66099947982306
 31
0.0
 12
220.2530780939685
 22
22.01343017388854
 32
0.0
 13
221.0150524412887
 23
24.80733611406389
 33
0.0
  0
SOLID
  5
27AD
330
1F
100
AcDbEntity
  8
LOGO
 62
     2
100
AcDbTrace
 10
219.9377783640425
 20
28.66099947982266
 30
0.0
 11
220.2530780939685
 21
28.66099947982266
 31
0.0
 12
219.9377783640425
 22
21.43538066902483
 32
0.0
 13
220.2530780939685
 23
21.43538066902483
 33
0.0
  0
SOLID
  5
27AE
330
1F
100
AcDbEntity
  8
LOGO
 62
     5
100
AcDbTrace
 10
220.2530780939685
 20
22.01343017388854
 30
0.0
 11
221.0150524412887
 21
24.80733611406389
 31
0.0
 12
223.879024988114
 22
28.66099947982306
 32
0.0
 13
223.1170506407938
 23
28.66099947982306
 33
0.0
  0
SOLID
  5
27AF
330
1F
100
AcDbEntity
  8
LOGO
 62
     5
100
AcDbTrace
 10
220.2530780939685
 20
21.43538066902483
 30
0.0
 11
221.0150524412887
 21
21.43538066902483
 31
0.0
 12
223.879024988114
 22
28.08294997495892
 32
0.0
 13
223.1170506407938
 23
25.2890440347836
 33
0.0
  0
SOLID
  5
27B0
330
1F
100
AcDbEntity
  8
LOGO
 62
     2
100
AcDbTrace
 10
219.9377783640425
 20
21.43538066902483
 30
0.0
 11
220.2530780939685
 21
21.43538066902483
 31
0.0
 12
223.879024988114
 22
28.66099947982306
 32
0.0
 13
224.1943247180401
 23
28.66099947982266
 33
0.0
  0
LWPOLYLINE
  5
27B1
330
1F
100
AcDbEntity
  8
LOGO
 62
     4
100
AcDbPolyline
 90
        4
 70
     1
 43
0.0
 10
213.4061378925786
 20
29.07962852997387
 10
455.7581378925787
 20
29.07962852997387
 10
455.7581378925787
 20
11.45658065305045
 10
213.4061378925786
 20
11.45658065305045
1001
GENIUS_GENREC_14
1002
{
1000
PYDIR
1011
213.4061378925786
1021
11.45658065305045
1031
0.0
1002
}
1002
{
1000
PXDIR
1011
455.7581378925787
1021
29.07962852997387
1031
0.0
1002
}
1002
{
1000
PORI
1011
213.4061378925786
1021
29.07962852997387
1031
0.0
1002
}
1002
{
1000
PINS
1011
213.4061378925786
1021
29.07962852997387
1031
0.0
1002
}
1002
{
1000
PINS2
1011
455.7581378925787
1021
11.45658065305045
1031
0.0
1002
}
1002
{
1000
C
1070
     1
1002
}
1001
GENIUS_GENOBJ-N-REC_13
1002
{
1000
OWNER
1000
GEN
1002
}
1001
GENIUS_GENODEF_13
1002
{
1000
HIER
1070
     0
1002
}
1002
{
1000
MANEDIT
1070
     0
1002
}
1002
{
1000
NOSEL
1070
     0
1002
}
1002
{
1000
BEHIND
1070
     0
1002
}
1002
{
1000
OTHER
1070
     0
1002
}
1002
{
1000
REACTOR
1002
}
  0
CIRCLE
  5
27B2
330
1F
100
AcDbEntity
  8
LOGO
  6
Continuous
100
AcDbCircle
 10
243.6912723772046
 20
23.79648374973405
 30
0.0
 40
1.023235639712966
  0
CIRCLE
  5
27B3
330
1F
100
AcDbEntity
  8
LOGO
  6
Continuous
100
AcDbCircle
 10
243.6912723772046
 20
23.79648374973405
 30
0.0
 40
0.5995255029456175
  0
LINE
  5
27B4
330
1F
100
AcDbEntity
  8
LOGO
100
AcDbLine
 10
250.1214038684036
 20
22.77324811002089
 30
0.0
 11
250.1214038684036
 21
24.81971938944722
 31
0.0
  0
LINE
  5
27B5
330
1F
100
AcDbEntity
  8
LOGO
100
AcDbLine
 10
246.9136188744319
 20
23.19695824678856
 30
0.0
 11
246.9136188744319
 21
24.39600925267976
 31
0.0
  0
LINE
  5
27B6
330
1F
100
AcDbEntity
  8
LOGO
  6
Continuous
100
AcDbLine
 10
246.9136188744319
 20
24.39600925267976
 30
0.0
 11
250.1214038684036
 21
24.81971938944722
 31
0.0
  0
LINE
  5
27B7
330
1F
100
AcDbEntity
  8
LOGO
  6
Continuous
100
AcDbLine
 10
246.9136188744319
 20
23.19695824678856
 30
0.0
 11
250.1214038684036
 21
22.77324811002089
 31
0.0
  0
LINE
  5
27B8
330
1F
100
AcDbEntity
  8
LOGO
  6
AM_ISO08W050x2
 48
0.3
100
AcDbLine
 10
242.2807267261132
 20
23.79648374973405
 30
0.0
 11
245.1018180282961
 21
23.79648374973405
 31
0.0
1001
GENIUS_GENOREF_13
1005
27ED
  0
LINE
  5
27B9
330
1F
100
AcDbEntity
  8
LOGO
  6
AM_ISO08W050x2
 48
0.3
100
AcDbLine
 10
243.6912723772046
 20
22.38593809864255
 30
0.0
 11
243.6912723772046
 21
25.20702940082559
 31
0.0
1001
GENIUS_GENOREF_13
1005
27EC
  0
LINE
  5
27BA
330
1F
100
AcDbEntity
  8
LOGO
  6
CENTER
 48
0.5
100
AcDbLine
 10
246.6570852348809
 20
23.79648374973405
 30
0.0
 11
250.4444174331611
 21
23.79648374973405
 31
0.0
1001
GENIUS_GENOREF_13
1005
27EB
  0
TEXT
  5
27BB
330
1F
100
AcDbEntity
  8
LOGO
 62
     7
100
AcDbText
 10
253.1978130986715
 20
21.35927113687828
 30
0.0
 40
2.349739716923076
  1
Order example:
 41
0.8
  7
CHINESET
100
AcDbText
  0
TEXT
  5
27BC
330
1F
100
AcDbEntity
  8
LOGO
 62
     7
100
AcDbText
 10
253.6193758354445
 20
24.66721813848969
 30
0.0
 40
3.524609575384615
  1
訂購代號：
  7
CHINESET
100
AcDbText
  0
TEXT
  5
27BD
330
1F
100
AcDbEntity
  8
LOGO
100
AcDbText
 10
252.8758765076555
 20
12.39411984439771
 30
0.0
 40
1.76256
  1
20807102
 41
0.7
  7
CHINESET
 72
     1
 11
257.2822765076555
 21
12.39411984439771
 31
0.0
100
AcDbText
  0
LINE
  5
27BE
330
1F
100
AcDbEntity
  8
LOGO
 62
     4
100
AcDbLine
 10
262.7522032218087
 20
14.98119022843569
 30
0.0
 11
262.7522032218094
 21
11.45658065305088
 31
0.0
  0
LINE
  5
27BF
330
1F
100
AcDbEntity
  8
LOGO
 62
     4
100
AcDbLine
 10
262.7522032218087
 20
14.98119022843569
 30
0.0
 11
252.1768432218095
 21
14.98119022843569
 31
0.0
  0
LINE
  5
27C0
330
1F
100
AcDbEntity
  8
LOGO
 62
     4
100
AcDbLine
 10
288.1652620105619
 20
19.38695219766633
 30
0.0
 11
288.1652620105619
 21
12.92516797612774
 31
0.0
  0
LINE
  5
27C1
330
1F
100
AcDbEntity
  8
LOGO
 62
     4
100
AcDbLine
 10
276.4165634259464
 20
19.38695219766633
 30
0.0
 11
276.4165634259464
 21
12.92516797612774
 31
0.0
  0
LINE
  5
27C2
330
1F
100
AcDbEntity
  8
LOGO
 62
     4
100
AcDbLine
 10
288.1652620105619
 20
12.92516797612774
 30
0.0
 11
276.4165634259464
 21
12.92516797612774
 31
0.0
  0
LINE
  5
27C3
330
1F
100
AcDbEntity
  8
LOGO
 62
     4
100
AcDbLine
 10
290.3431122779046
 20
27.31732374228145
 30
0.0
 11
276.4165634259464
 21
27.31732374228145
 31
0.0
  0
LINE
  5
27C4
330
1F
100
AcDbEntity
  8
LOGO
 62
     4
100
AcDbLine
 10
290.3431122779046
 20
22.03040937920457
 30
0.0
 11
276.4165634259464
 21
22.03040937920457
 31
0.0
  0
LINE
  5
27C5
330
1F
100
AcDbEntity
  8
LOGO
 62
     4
100
AcDbLine
 10
276.4165634259464
 20
27.31732374228145
 30
0.0
 11
276.4165634259464
 21
22.03040937920457
 31
0.0
  0
LINE
  5
27C6
330
1F
100
AcDbEntity
  8
LOGO
 62
     4
100
AcDbLine
 10
290.3431122779046
 20
27.31732374228145
 30
0.0
 11
290.3431122779046
 21
22.03040937920457
 31
0.0
  0
LINE
  5
27C7
330
1F
100
AcDbEntity
  8
LOGO
 62
     4
100
AcDbLine
 10
282.9038996935063
 20
22.03040937920457
 30
0.0
 11
282.9038996935063
 21
19.38695219766633
 31
0.0
  0
TEXT
  5
27C8
330
1F
100
AcDbEntity
  8
LOGO
  6
Continuous
 62
     7
100
AcDbText
 10
277.3559653077618
 20
23.13404502302912
 30
0.0
 40
3.08448
  1
MVSF
  7
CHINESET
100
AcDbText
  0
LINE
  5
27C9
330
1F
100
AcDbEntity
  8
LOGO
 62
     4
100
AcDbLine
 10
288.1652620105619
 20
19.38695219766633
 30
0.0
 11
276.4165634259464
 21
19.38695219766633
 31
0.0
  0
TEXT
  5
27CA
330
1F
100
AcDbEntity
  8
LOGO
  6
Continuous
100
AcDbText
 10
280.1866836059359
 20
13.8372351164662
 30
115.4985525578167
 40
1.32192
  1
Model
 41
0.8
  7
CHINESET
100
AcDbText
  0
TEXT
  5
27CB
330
1F
100
AcDbEntity
  8
LOGO
100
AcDbText
 10
279.8348314749119
 20
16.28778990237251
 30
115.4985525578167
 40
2.2032
  1
型號
  7
CHINESET
100
AcDbText
  0
LINE
  5
27CC
330
1F
100
AcDbEntity
  8
LOGO
  6
Continuous
 62
     7
100
AcDbLine
 10
290.9051549704454
 20
24.65513947453914
 30
0.0
 11
293.2396634422469
 21
24.65513947453914
 31
0.0
  0
TEXT
  5
27CD
330
1F
100
AcDbEntity
  8
LOGO
  6
Continuous
 62
     7
100
AcDbText
 10
294.2381790652472
 20
23.13404502302912
 30
0.0
 40
3.08448
  1
100M
  7
CHINESET
100
AcDbText
  0
LINE
  5
27CE
330
1F
100
AcDbEntity
  8
LOGO
  6
Continuous
 62
     7
100
AcDbLine
 10
306.2168384288551
 20
24.65513947453914
 30
0.0
 11
308.5513469006565
 21
24.65513947453914
 31
0.0
  0
LINE
  5
27CF
330
1F
100
AcDbEntity
  8
LOGO
 62
     4
100
AcDbLine
 10
310.3850467755379
 20
19.38695219766633
 30
0.0
 11
310.3850467755379
 21
12.92516797612774
 31
0.0
  0
LINE
  5
27D0
330
1F
100
AcDbEntity
  8
LOGO
 62
     4
100
AcDbLine
 10
299.6539510387203
 20
19.38695219766633
 30
0.0
 11
299.6539510387203
 21
12.92516797612774
 31
0.0
  0
LINE
  5
27D1
330
1F
100
AcDbEntity
  8
LOGO
 62
     4
100
AcDbLine
 10
310.3850467755379
 20
12.92516797612774
 30
0.0
 11
299.6539510387203
 21
12.92516797612774
 31
0.0
  0
LINE
  5
27D2
330
1F
100
AcDbEntity
  8
LOGO
 62
     4
100
AcDbLine
 10
316.5986173923491
 20
27.31732374228145
 30
0.0
 11
309.2877612642244
 21
27.31732374228145
 31
0.0
  0
LINE
  5
27D3
330
1F
100
AcDbEntity
  8
LOGO
 62
     4
100
AcDbLine
 10
316.5986173923491
 20
22.03040937920457
 30
0.0
 11
309.2877612642244
 21
22.03040937920457
 31
0.0
  0
LINE
  5
27D4
330
1F
100
AcDbEntity
  8
LOGO
 62
     4
100
AcDbLine
 10
309.2877612642244
 20
27.31732374228145
 30
0.0
 11
309.2877612642244
 21
22.03040937920457
 31
0.0
  0
LINE
  5
27D5
330
1F
100
AcDbEntity
  8
LOGO
 62
     4
100
AcDbLine
 10
316.5986173923491
 20
27.31732374228145
 30
0.0
 11
316.5986173923491
 21
22.03040937920457
 31
0.0
  0
LINE
  5
27D6
330
1F
100
AcDbEntity
  8
LOGO
 62
     4
100
AcDbLine
 10
313.3497954300423
 20
22.03040937920457
 30
0.0
 11
313.3497954300423
 21
20.70868078843546
 31
0.0
  0
TEXT
  5
27D7
330
1F
100
AcDbEntity
  8
LOGO
  6
Continuous
 62
     7
100
AcDbText
 10
309.9914354287504
 20
23.13404502302912
 30
0.0
 40
3.08448
  1
5M
  7
CHINESET
100
AcDbText
  0
LINE
  5
27D8
330
1F
100
AcDbEntity
  8
LOGO
 62
     4
100
AcDbLine
 10
310.3850467755379
 20
19.38695219766633
 30
0.0
 11
299.6539510387203
 21
19.38695219766633
 31
0.0
  0
LINE
  5
27D9
330
1F
100
AcDbEntity
  8
LOGO
 62
     4
100
AcDbLine
 10
323.7166368618976
 20
19.38695219766633
 30
0.0
 11
323.7166368618976
 21
12.92516797612774
 31
0.0
  0
LINE
  5
27DA
330
1F
100
AcDbEntity
  8
LOGO
 62
     4
100
AcDbLine
 10
314.1454488740795
 20
19.38695219766633
 30
0.0
 11
314.1454488740795
 21
12.92516797612774
 31
0.0
  0
LINE
  5
27DB
330
1F
100
AcDbEntity
  8
LOGO
 62
     4
100
AcDbLine
 10
323.7166368618976
 20
12.92516797612774
 30
0.0
 11
314.1454488740795
 21
12.92516797612774
 31
0.0
  0
LINE
  5
27DC
330
1F
100
AcDbEntity
  8
LOGO
 62
     4
100
AcDbLine
 10
323.7112591108456
 20
27.31732374228145
 30
0.0
 11
319.2287916861065
 21
27.31732374228145
 31
0.0
  0
LINE
  5
27DD
330
1F
100
AcDbEntity
  8
LOGO
 62
     4
100
AcDbLine
 10
323.7112591108456
 20
22.03040937920457
 30
0.0
 11
319.2287916861065
 21
22.03040937920457
 31
0.0
  0
LINE
  5
27DE
330
1F
100
AcDbEntity
  8
LOGO
 62
     4
100
AcDbLine
 10
319.2287916861065
 20
27.31732374228145
 30
0.0
 11
319.2287916861065
 21
22.03040937920457
 31
0.0
  0
LINE
  5
27DF
330
1F
100
AcDbEntity
  8
LOGO
 62
     4
100
AcDbLine
 10
323.7112591108456
 20
27.31732374228145
 30
0.0
 11
323.7112591108456
 21
22.03040937920457
 31
0.0
  0
LINE
  5
27E0
330
1F
100
AcDbEntity
  8
LOGO
 62
     4
100
AcDbLine
 10
322.0413567189812
 20
22.03040937920457
 30
0.0
 11
322.0413567189808
 21
20.70868078843546
 31
0.0
  0
TEXT
  5
27E1
330
1F
100
AcDbEntity
  8
LOGO
  6
Continuous
 62
     7
100
AcDbText
 10
320.4105631399869
 20
23.13404502302912
 30
0.0
 40
3.08448
  1
*
  7
CHINESET
100
AcDbText
  0
LINE
  5
27E2
330
1F
100
AcDbEntity
  8
LOGO
 62
     4
100
AcDbLine
 10
323.7166368618976
 20
19.38695219766633
 30
0.0
 11
314.1454488740795
 21
19.38695219766633
 31
0.0
  0
TEXT
  5
27E3
330
1F
100
AcDbEntity
  8
LOGO
  6
Continuous
100
AcDbText
 10
302.1148232101158
 20
13.8372351164662
 30
115.4985525578167
 40
1.32192
  1
Manifold
 41
0.8
  7
CHINESET
100
AcDbText
  0
TEXT
  5
27E4
330
1F
100
AcDbEntity
  8
LOGO
100
AcDbText
 10
302.6478355964605
 20
16.28778990237251
 30
115.4985525578167
 40
2.2032
  1
連座
  7
CHINESET
100
AcDbText
  0
TEXT
  5
27E5
330
1F
100
AcDbEntity
  8
LOGO
  6
Continuous
100
AcDbText
 10
315.7574546505656
 20
13.8372351164662
 30
115.4985525578167
 40
1.32192
  1
Number
 41
0.8
  7
CHINESET
100
AcDbText
  0
TEXT
  5
27E6
330
1F
100
AcDbEntity
  8
LOGO
100
AcDbText
 10
315.6657970632813
 20
16.28778990237251
 30
115.4985525578167
 40
2.2032
  1
連座數
  7
CHINESET
100
AcDbText
  0
LINE
  5
27E7
330
1F
100
AcDbEntity
  8
LOGO
 62
     4
100
AcDbLine
 10
313.3497954300423
 20
20.70868078843546
 30
0.0
 11
305.5283003310282
 21
20.70868078843546
 31
0.0
  0
LINE
  5
27E8
330
1F
100
AcDbEntity
  8
LOGO
 62
     4
100
AcDbLine
 10
305.5283003310282
 20
19.38695219766633
 30
0.0
 11
305.5283003310282
 21
20.70868078843546
 31
0.0
  0
LINE
  5
27E9
330
1F
100
AcDbEntity
  8
LOGO
 62
     4
100
AcDbLine
 10
318.9310428679884
 20
19.38695219766633
 30
0.0
 11
318.9310428679884
 21
20.70868078843546
 31
0.0
  0
LINE
  5
27EA
330
1F
100
AcDbEntity
  8
LOGO
 62
     4
100
AcDbLine
 10
322.0413567189812
 20
20.70868078843546
 30
0.0
 11
318.9310428679884
 21
20.70868078843546
 31
0.0
  0
POINT
  5
27EB
330
1F
100
AcDbEntity
  8
0
 60
     1
100
AcDbPoint
 10
-1887.427310969781
 20
-647.7421593095954
 30
0.0
1001
GENIUS_GENOBJ-N-CRS_13
1002
{
1000
OWNER
1000
GEN
1002
}
1001
GENIUS_GENOLIS_13
1002
{
1000
ENT
1005
0
1005
0
1005
0
1005
27BA
1002
}
1001
GENIUS_GENOENT_13
1002
{
1000
MYREF
1005
27EB
1002
}
1002
{
1000
GRP
1005
0
1002
}
1001
GENIUS_GENODEF_13
1002
{
1000
HIER
1070
    10
1002
}
1002
{
1000
MANEDIT
1070
     1
1002
}
1002
{
1000
NOSEL
1070
     0
1002
}
1002
{
1000
BEHIND
1070
     0
1002
}
1002
{
1000
OTHER
1070
     0
1002
}
1002
{
1000
REACTOR
1002
}
  0
POINT
  5
27EC
330
1F
100
AcDbEntity
  8
0
 60
     1
100
AcDbPoint
 10
-1898.751896192636
 20
-638.8665728309591
 30
0.0
1001
GENIUS_GENOBJ-N-CRS_13
1002
{
1000
OWNER
1000
GEN
1002
}
1001
GENIUS_GENOLIS_13
1002
{
1000
ENT
1005
0
1005
0
1005
0
1005
27B9
1002
}
1001
GENIUS_GENOENT_13
1002
{
1000
MYREF
1005
27EC
1002
}
1002
{
1000
GRP
1005
0
1002
}
1001
GENIUS_GENODEF_13
1002
{
1000
HIER
1070
    10
1002
}
1002
{
1000
MANEDIT
1070
     1
1002
}
1002
{
1000
NOSEL
1070
     0
1002
}
1002
{
1000
BEHIND
1070
     0
1002
}
1002
{
1000
OTHER
1070
     0
1002
}
1002
{
1000
REACTOR
1002
}
  0
POINT
  5
27ED
330
1F
100
AcDbEntity
  8
0
 60
     1
100
AcDbPoint
 10
-1892.393222494799
 20
-647.7421593095954
 30
0.0
1001
GENIUS_GENOBJ-N-CRS_13
1002
{
1000
OWNER
1000
GEN
1002
}
1001
GENIUS_GENOLIS_13
1002
{
1000
ENT
1005
0
1005
0
1005
0
1005
27B8
1002
}
1001
GENIUS_GENOENT_13
1002
{
1000
MYREF
1005
27ED
1002
}
1002
{
1000
GRP
1005
0
1002
}
1001
GENIUS_GENODEF_13
1002
{
1000
HIER
1070
    10
1002
}
1002
{
1000
MANEDIT
1070
     1
1002
}
1002
{
1000
NOSEL
1070
     0
1002
}
1002
{
1000
BEHIND
1070
     0
1002
}
1002
{
1000
OTHER
1070
     0
1002
}
1002
{
1000
REACTOR
1002
}
  0
TEXT
  5
290E
330
1F
100
AcDbEntity
  8
0
100
AcDbText
 10
257.7092226336632
 20
124.988671679832
 30
0.0
 40
3.0
  1
R1
 50
270.0
  7
dayus
100
AcDbText
  0
TEXT
  5
2910
330
1F
100
AcDbEntity
  8
0
100
AcDbText
 10
257.7092226336632
 20
105.7208193874781
 30
0.0
 40
3.0
  1
R2
 50
270.0
  7
dayus
100
AcDbText
  0
TEXT
  5
2912
330
1F
100
AcDbEntity
  8
0
100
AcDbText
 10
368.8773737862252
 20
120.6201294018051
 30
0.0
 40
3.0
  1
P
 50
90.0
  7
dayus
100
AcDbText
  0
INSERT
  5
29AE
330
1F
100
AcDbEntity
  8
0
100
AcDbBlockReference
  2
A$C4CDC6EB8
 10
295.3814783416457
 20
142.1430580629197
 30
0.0
  0
INSERT
  5
29AF
330
1F
100
AcDbEntity
  8
0
100
AcDbBlockReference
  2
A$C4CDC6EB8
 10
292.5546721001803
 20
71.76296034599431
 30
0.0
  0
INSERT
  5
29F0
330
1F
100
AcDbEntity
  8
0
100
AcDbBlockReference
  2
A$C14DD61F2
 10
308.4297451412663
 20
159.0684334730261
 30
0.0
  0
ENDSEC
  0
SECTION
  2
OBJECTS
  0
DICTIONARY
  5
C
330
0
100
AcDbDictionary
281
     1
  3
ACAD_COLOR
350
BE
  3
ACAD_GROUP
350
D
  3
ACAD_LAYOUT
350
1A
  3
ACAD_MATERIAL
350
BD
  3
ACAD_MLINESTYLE
350
17
  3
ACAD_PLOTSETTINGS
350
19
  3
ACAD_PLOTSTYLENAME
350
E
  3
ACAD_TABLESTYLE
350
11A
  3
ACDBHEADERROUNDTRIPXREC
350
2A37
  3
AcDbVariableDictionary
350
94
  3
AcmDictionary
350
5B
  3
AMG
350
41
  3
AMGSNAPSETTINGS
350
1B8
  3
DWGPROPS
350
2A36
  0
DICTIONARY
  5
3F9
330
2
100
AcDbDictionary
280
     1
281
     1
  3
ACAD_LAYERFILTERS
360
135C
  3
ACAD_LAYERSTATES
360
AC4
  3
ACLYDICTIONARY
360
135B
  3
AMLAYER_GROUPCOLORS
360
EBF
  0
DICTIONARY
  5
8F
330
1F
100
AcDbDictionary
280
     1
281
     1
  3
ACAD_SORTENTS
360
EC5
  0
DICTIONARY
  5
29AA
330
29A6
100
AcDbDictionary
280
     1
281
     1
  3
ACAD_SORTENTS
360
29AB
  0
DICTIONARY
  5
29EC
330
29D9
100
AcDbDictionary
280
     1
281
     1
  3
ACAD_SORTENTS
360
29ED
  0
DICTIONARY
  5
21FE
330
21F1
100
AcDbDictionary
280
     1
281
     1
  3
ACAD_DIMASSOC
360
21FF
  0
DICTIONARY
  5
2230
330
2221
100
AcDbDictionary
280
     1
281
     1
  3
ACAD_DIMASSOC
360
2231
  0
DICTIONARY
  5
2258
330
224B
100
AcDbDictionary
280
     1
281
     1
  3
ACAD_DIMASSOC
360
2259
  0
DICTIONARY
  5
2276
330
2269
100
AcDbDictionary
280
     1
281
     1
  3
ACAD_DIMASSOC
360
2277
  0
DICTIONARY
  5
2326
330
2317
100
AcDbDictionary
280
     1
281
     1
  3
ACAD_DIMASSOC
360
2327
  0
DICTIONARY
  5
2352
330
2345
100
AcDbDictionary
280
     1
281
     1
  3
ACAD_DIMASSOC
360
2353
  0
DICTIONARY
  5
236C
330
2360
100
AcDbDictionary
280
     1
281
     1
  3
ACAD_DIMASSOC
360
236D
  0
DICTIONARY
  5
23C1
330
23B4
100
AcDbDictionary
280
     1
281
     1
  3
ACAD_DIMASSOC
360
23C2
  0
DICTIONARY
  5
23E7
330
23DA
100
AcDbDictionary
280
     1
281
     1
  3
ACAD_DIMASSOC
360
23E8
  0
DICTIONARY
  5
240D
330
2400
100
AcDbDictionary
280
     1
281
     1
  3
ACAD_DIMASSOC
360
240E
  0
DICTIONARY
  5
24B4
330
24A7
100
AcDbDictionary
280
     1
281
     1
  3
ACAD_DIMASSOC
360
24B5
  0
DICTIONARY
  5
24DE
330
24D1
100
AcDbDictionary
280
     1
281
     1
  3
ACAD_DIMASSOC
360
24DF
  0
DICTIONARY
  5
250C
330
24FF
100
AcDbDictionary
280
     1
281
     1
  3
ACAD_DIMASSOC
360
250D
  0
DICTIONARY
  5
252A
330
2521
100
AcDbDictionary
280
     1
281
     1
  3
ACAD_DIMASSOC
360
252B
  0
DICTIONARY
  5
2568
330
255B
100
AcDbDictionary
280
     1
281
     1
  3
ACAD_DIMASSOC
360
2569
  0
DICTIONARY
  5
BE
102
{ACAD_REACTORS
330
C
102
}
330
C
100
AcDbDictionary
281
     1
  0
DICTIONARY
  5
D
102
{ACAD_REACTORS
330
C
102
}
330
C
100
AcDbDictionary
281
     1
  0
DICTIONARY
  5
1A
102
{ACAD_REACTORS
330
C
102
}
330
C
100
AcDbDictionary
281
     1
  3
Model
350
22
  3
配置1
350
1E
  3
配置2
350
26
  0
DICTIONARY
  5
BD
102
{ACAD_REACTORS
330
C
102
}
330
C
100
AcDbDictionary
281
     1
  0
DICTIONARY
  5
17
102
{ACAD_REACTORS
330
C
102
}
330
C
100
AcDbDictionary
281
     1
  3
Standard
350
18
  0
DICTIONARY
  5
19
102
{ACAD_REACTORS
330
C
102
}
330
C
100
AcDbDictionary
281
     1
  0
ACDBDICTIONARYWDFLT
  5
E
102
{ACAD_REACTORS
330
C
102
}
330
C
100
AcDbDictionary
281
     1
  3
Normal
350
F
100
AcDbDictionaryWithDefault
340
F
  0
DICTIONARY
  5
11A
102
{ACAD_REACTORS
330
C
102
}
330
C
100
AcDbDictionary
281
     1
  3
Standard
350
11B
  0
DICTIONARY
  5
2A37
102
{ACAD_REACTORS
330
C
102
}
330
C
100
AcDbDictionary
281
     1
  0
DICTIONARY
  5
94
102
{ACAD_REACTORS
330
C
102
}
330
C
100
AcDbDictionary
281
     1
  3
CTABLESTYLE
350
138
  3
DIMASSOC
350
96
  3
INDEXCTL
350
95
  3
PROJECTNAME
350
FB7
  0
DICTIONARY
  5
5B
102
{ACAD_REACTORS
330
C
102
}
330
C
100
AcDbDictionary
281
     1
  3
AcmBOM
350
1B5
  3
AcmStdDictionary
350
61
  3
AMDTSECTSYM_ARROWCOLOR
350
123
  0
DICTIONARY
  5
41
102
{ACAD_REACTORS
330
C
102
}
330
C
100
AcDbDictionary
281
     1
  0
DICTIONARY
  5
1B8
102
{ACAD_REACTORS
330
C
102
}
330
C
100
AcDbDictionary
281
     1
  0
XRECORD
  5
2A36
102
{ACAD_REACTORS
330
C
102
}
330
C
100
AcDbXrecord
280
     1
  1
DWGPROPS COOKIE
  2

  3

  4

  6

  7

  8

  9

300
AmdtFileType=84
301
=
302
=
303
=
304
=
305
=
306
=
307
=
308
=
309
=
 40
0.1508620717592592
 41
2454013.612854456
 42
2454658.585834236
  1

 90
        1
  0
DICTIONARY
  5
135C
102
{ACAD_REACTORS
330
3F9
102
}
330
3F9
100
AcDbDictionary
281
     1
  0
DICTIONARY
  5
AC4
102
{ACAD_REACTORS
330
3F9
102
}
330
3F9
100
AcDbDictionary
281
     1
  0
DICTIONARY
  5
135B
102
{ACAD_REACTORS
330
3F9
102
}
330
3F9
100
AcDbDictionary
281
     1
1001
ACAD
1000
<All
  0
DICTIONARY
  5
EBF
102
{ACAD_REACTORS
330
3F9
102
}
330
3F9
100
AcDbDictionary
280
     1
281
     1
  0
SORTENTSTABLE
  5
EC5
102
{ACAD_REACTORS
330
8F
102
}
330
8F
100
AcDbSortentsTable
330
1F
331
CC2
  5
CC2
331
27D6
  5
2910
331
2797
  5
27B6
331
2521
  5
2521
331
2680
  5
277E
331
27DE
  5
29C2
331
279F
  5
27B8
331
20A6
  5
20A6
331
C93
  5
C93
331
27E6
  5
29CA
331
27A7
  5
27BD
331
2770
  5
278F
331
20AE
  5
20AE
331
C9B
  5
C9B
331
27AF
  5
27C5
331
20B6
  5
20B6
331
205F
  5
205F
331
21D0
  5
21D0
331
2152
  5
2152
331
20D3
  5
20D3
331
2199
  5
2199
331
215A
  5
215A
331
20DB
  5
20DB
331
21D8
  5
21D8
331
21A1
  5
21A1
331
2162
  5
2162
331
20E3
  5
20E3
331
21E0
  5
21E0
331
2778
  5
27A0
331
CA3
  5
CA3
331
27B7
  5
27CD
331
20BE
  5
20BE
331
CAB
  5
CAB
331
27BF
  5
27D5
331
20C6
  5
20C6
331
2788
  5
27AD
331
2077
  5
2077
331
CB3
  5
CB3
331
27C7
  5
27DD
331
25D1
  5
25D1
331
207F
  5
207F
331
CBB
  5
CBB
331
20CE
  5
20CE
331
27CF
  5
27E5
331
2087
  5
2087
331
210B
  5
210B
331
2182
  5
2182
331
211B
  5
211B
331
21C1
  5
21C1
331
2317
  5
2317
331
2790
  5
27B2
331
CC3
  5
CC3
331
27D7
  5
2912
331
2681
  5
277F
331
27DF
  5
29C3
331
27A0
  5
27B9
331
C94
  5
C94
331
20A7
  5
20A7
331
27E7
  5
29CB
331
27A8
  5
27BE
331
254A
  5
254A
331
2771
  5
2790
331
C9C
  5
C9C
331
20AF
  5
20AF
331
20B7
  5
20B7
331
21D1
  5
21D1
331
2153
  5
2153
331
20D4
  5
20D4
331
219A
  5
219A
331
215B
  5
215B
331
20DC
  5
20DC
331
21D9
  5
21D9
331
21A2
  5
21A2
331
2163
  5
2163
331
21E1
  5
21E1
331
2104
  5
2104
331
21F1
  5
21F1
331
27B0
  5
27C6
331
2779
  5
27A1
331
CA4
  5
CA4
331
2060
  5
2060
331
27B8
  5
27CE
331
CAC
  5
CAC
331
20BF
  5
20BF
331
27C0
  5
27D6
331
20C7
  5
20C7
331
CB4
  5
CB4
331
2078
  5
2078
331
27C8
  5
27DE
331
20CF
  5
20CF
331
25D2
  5
25D2
331
CBC
  5
CBC
331
2080
  5
2080
331
2221
  5
2221
331
21C2
  5
21C2
331
21CA
  5
21CA
331
214C
  5
214C
331
2088
  5
2088
331
27D0
  5
27E6
331
2791
  5
27B3
331
27D8
  5
299F
331
20A8
  5
20A8
331
27A1
  5
27BA
331
C95
  5
C95
331
276A
  5
2783
331
27E0
  5
29C4
331
20B0
  5
20B0
331
27A9
  5
27BF
331
C9D
  5
C9D
331
2772
  5
2791
331
27E8
  5
29CC
331
290E
  5
29CF
331
20D5
  5
20D5
331
21D2
  5
21D2
331
20DD
  5
20DD
331
219B
  5
219B
331
21A3
  5
21A3
331
2164
  5
2164
331
21E2
  5
21E2
331
21AB
  5
21AB
331
2105
  5
2105
331
20B8
  5
20B8
331
2061
  5
2061
331
27B1
  5
27C7
331
CA5
  5
CA5
331
255B
  5
255B
331
277A
  5
27A5
331
20C0
  5
20C0
331
CAD
  5
CAD
331
27B9
  5
27CF
331
20C8
  5
20C8
331
CB5
  5
CB5
331
2079
  5
2079
331
27C1
  5
27D7
331
CBD
  5
CBD
331
2081
  5
2081
331
27C9
  5
27DF
331
2360
  5
2360
331
21B3
  5
21B3
331
2269
  5
2269
331
2115
  5
2115
331
21C3
  5
21C3
331
21CB
  5
21CB
331
214D
  5
214D
331
24A7
  5
24A7
331
2089
  5
2089
331
27D1
  5
27E7
331
251C
  5
251C
331
2792
  5
27B4
331
27D9
  5
29A0
331
20A9
  5
20A9
331
27E1
  5
29C5
331
C96
  5
C96
331
276B
  5
2787
331
20B1
  5
20B1
331
205A
  5
205A
331
27AA
  5
27C0
331
C9E
  5
C9E
331
2773
  5
2792
331
27E9
  5
29CD
331
29AE
  5
29D2
331
21D3
  5
21D3
331
20D6
  5
20D6
331
219C
  5
219C
331
20DE
  5
20DE
331
21DB
  5
21DB
331
21A4
  5
21A4
331
2165
  5
2165
331
21AC
  5
21AC
331
20B9
  5
20B9
331
2062
  5
2062
331
27B2
  5
27C8
331
CA6
  5
CA6
331
277B
  5
27A6
331
20C1
  5
20C1
331
2072
  5
2072
331
27BA
  5
27D0
331
CAE
  5
CAE
331
2783
  5
27AB
331
20C9
  5
20C9
331
207A
  5
207A
331
CB6
  5
CB6
331
27C2
  5
27D8
331
2082
  5
2082
331
CBE
  5
CBE
331
27CA
  5
27E0
331
21B4
  5
21B4
331
24FF
  5
24FF
331
2400
  5
2400
331
21C4
  5
21C4
331
21CC
  5
21CC
331
27D2
  5
27E8
331
2793
  5
27B5
331
20A2
  5
20A2
331
27DA
  5
29A1
331
279B
  5
27B7
331
20AA
  5
20AA
331
27E2
  5
29C6
331
C97
  5
C97
331
276C
  5
2788
331
20B2
  5
20B2
331
205B
  5
205B
331
27AB
  5
27C1
331
C9F
  5
C9F
331
2774
  5
2793
331
27EA
  5
29CE
331
2910
  5
29D0
331
29AF
  5
29D3
331
21D4
  5
21D4
331
20D7
  5
20D7
331
219D
  5
219D
331
20DF
  5
20DF
331
224B
  5
224B
331
21A5
  5
21A5
331
21AD
  5
21AD
331
20BA
  5
20BA
331
2063
  5
2063
331
27B3
  5
27C9
331
CA7
  5
CA7
331
277C
  5
27A7
331
20C2
  5
20C2
331
2073
  5
2073
331
CAF
  5
CAF
331
27BB
  5
27D1
331
20CA
  5
20CA
331
207B
  5
207B
331
27C3
  5
27D9
331
CB7
  5
CB7
331
278C
  5
27AE
331
2083
  5
2083
331
CBF
  5
CBF
331
27CB
  5
27E1
331
21B5
  5
21B5
331
220C
  5
220C
331
217E
  5
217E
331
21BD
  5
21BD
331
21C5
  5
21C5
331
21CD
  5
21CD
331
27D3
  5
27E9
331
20A3
  5
20A3
331
27DB
  5
29A2
331
20AB
  5
20AB
331
27E3
  5
29C7
331
C98
  5
C98
331
276D
  5
278C
331
20B3
  5
20B3
331
205C
  5
205C
331
27AC
  5
27C2
331
2775
  5
2797
331
20D0
  5
20D0
331
2196
  5
2196
331
20D8
  5
20D8
331
21D5
  5
21D5
331
219E
  5
219E
331
20E0
  5
20E0
331
23DA
  5
23DA
331
21A6
  5
21A6
331
24D1
  5
24D1
331
21AE
  5
21AE
331
CA0
  5
CA0
331
20BB
  5
20BB
331
2064
  5
2064
331
27B4
  5
27CA
331
CA8
  5
CA8
331
277D
  5
27A8
331
20C3
  5
20C3
331
2074
  5
2074
331
CB0
  5
CB0
331
27BC
  5
27D2
331
20CB
  5
20CB
331
207C
  5
207C
331
27C4
  5
27DA
331
CB8
  5
CB8
331
278D
  5
27AF
331
2084
  5
2084
331
27CC
  5
27E2
331
21B6
  5
21B6
331
2177
  5
2177
331
220D
  5
220D
331
21BE
  5
21BE
331
21C6
  5
21C6
331
21CE
  5
21CE
331
CC0
  5
CC0
331
27D4
  5
27EA
331
20A4
  5
20A4
331
27DC
  5
29AE
331
20AC
  5
20AC
331
27A5
  5
27BB
331
C99
  5
C99
331
276E
  5
278D
331
27E4
  5
29C8
331
20B4
  5
20B4
331
205D
  5
205D
331
27AD
  5
27C3
331
2776
  5
279B
331
2912
  5
29D1
331
20D1
  5
20D1
331
2197
  5
2197
331
20D9
  5
20D9
331
21D6
  5
21D6
331
219F
  5
219F
331
20E1
  5
20E1
331
21AF
  5
21AF
331
CA1
  5
CA1
331
20BC
  5
20BC
331
2065
  5
2065
331
27B5
  5
27CB
331
CA9
  5
CA9
331
277E
  5
27A9
331
20C4
  5
20C4
331
2075
  5
2075
331
CB1
  5
CB1
331
27BD
  5
27D3
331
20CC
  5
20CC
331
207D
  5
207D
331
27C5
  5
27DB
331
CB9
  5
CB9
331
278E
  5
27B0
331
2085
  5
2085
331
27CD
  5
27E3
331
2178
  5
2178
331
21B7
  5
21B7
331
220E
  5
220E
331
21BF
  5
21BF
331
21C7
  5
21C7
331
23B4
  5
23B4
331
21CF
  5
21CF
331
27D5
  5
290E
331
267F
  5
277D
331
20A5
  5
20A5
331
C92
  5
C92
331
27DD
  5
29AF
331
20AD
  5
20AD
331
27E5
  5
29C9
331
C9A
  5
C9A
331
276F
  5
278E
331
27A6
  5
27BC
331
20B5
  5
20B5
331
205E
  5
205E
331
27AE
  5
27C4
331
2777
  5
279F
331
20D2
  5
20D2
331
2198
  5
2198
331
20DA
  5
20DA
331
21D7
  5
21D7
331
21A0
  5
21A0
331
20E2
  5
20E2
331
21DF
  5
21DF
331
2169
  5
2169
331
2345
  5
2345
331
CA2
  5
CA2
331
20BD
  5
20BD
331
27B6
  5
27CC
331
CAA
  5
CAA
331
277F
  5
27AA
331
20C5
  5
20C5
331
2076
  5
2076
331
27BE
  5
27D4
331
CB2
  5
CB2
331
2787
  5
27AC
331
20CD
  5
20CD
331
207E
  5
207E
331
27C6
  5
27DC
331
CBA
  5
CBA
331
25D0
  5
25D0
331
278F
  5
27B1
331
2086
  5
2086
331
27CE
  5
27E4
331
21B0
  5
21B0
331
210A
  5
210A
331
21B8
  5
21B8
331
220F
  5
220F
331
2181
  5
2181
331
21C0
  5
21C0
  0
SORTENTSTABLE
  5
29AB
102
{ACAD_REACTORS
330
29AA
102
}
330
29AA
100
AcDbSortentsTable
330
29A6
  0
SORTENTSTABLE
  5
29ED
102
{ACAD_REACTORS
330
29EC
102
}
330
29EC
100
AcDbSortentsTable
330
29D9
  0
DIMASSOC
  5
21FF
102
{ACAD_REACTORS
330
21FE
102
}
330
21FE
100
AcDbDimAssoc
330
21F1
 90
        3
 70
     0
 71
     0
  1
AcDbOsnapPointRef
 72
    13
331
2197
 73
     2
 91
        0
 40
0.0
 10
0.0
 20
0.0
 30
2.000000000000000E+50
 75
     0
  1
AcDbOsnapPointRef
 72
     1
331
2197
 73
     2
 91
        0
 40
0.0
 10
0.0
 20
0.0
 30
2.000000000000000E+50
 75
     0
  0
DIMASSOC
  5
2231
102
{ACAD_REACTORS
330
2230
102
}
330
2230
100
AcDbDimAssoc
330
2221
 90
        3
 70
     0
 71
     0
  1
AcDbOsnapPointRef
 72
     1
331
21A6
 73
     0
 91
        0
 40
0.0
 10
0.0
 20
0.0
 30
2.000000000000000E+50
 75
     0
  1
AcDbOsnapPointRef
 72
     1
331
20A5
 73
     0
 91
        0
 40
0.0
 10
0.0
 20
0.0
 30
2.000000000000000E+50
 75
     0
  0
DIMASSOC
  5
2259
102
{ACAD_REACTORS
330
2258
102
}
330
2258
100
AcDbDimAssoc
330
224B
 90
        3
 70
     0
 71
     0
  1
AcDbOsnapPointRef
 72
     1
331
21A6
 73
     0
 91
        0
 40
0.0
 10
0.0
 20
0.0
 30
2.000000000000000E+50
 75
     0
  1
AcDbOsnapPointRef
 72
     1
331
20BD
 73
     0
 91
        0
 40
0.0
 10
0.0
 20
0.0
 30
2.000000000000000E+50
 75
     0
  0
DIMASSOC
  5
2277
102
{ACAD_REACTORS
330
2276
102
}
330
2276
100
AcDbDimAssoc
330
2269
 90
        3
 70
     0
 71
     0
  1
AcDbOsnapPointRef
 72
    13
331
21A4
 73
     2
 91
        0
 40
0.0
 10
0.0
 20
0.0
 30
2.000000000000000E+50
 75
     0
  1
AcDbOsnapPointRef
 72
     1
331
21A4
 73
     2
 91
        0
 40
0.0
 10
0.0
 20
0.0
 30
2.000000000000000E+50
 75
     0
  0
DIMASSOC
  5
2327
102
{ACAD_REACTORS
330
2326
102
}
330
2326
100
AcDbDimAssoc
330
2317
 90
        3
 70
     0
 71
     0
  1
AcDbOsnapPointRef
 72
     1
331
205D
 73
     0
 91
        0
 40
0.0
 10
0.0
 20
0.0
 30
2.000000000000000E+50
 75
     0
  1
AcDbOsnapPointRef
 72
    13
331
219A
 73
     0
 91
        0
 40
0.0
 10
0.0
 20
0.0
 30
2.000000000000000E+50
 75
     0
  0
DIMASSOC
  5
2353
102
{ACAD_REACTORS
330
2352
102
}
330
2352
100
AcDbDimAssoc
330
2345
 90
        3
 70
     0
 71
     0
  1
AcDbOsnapPointRef
 72
    13
331
219A
 73
     0
 91
        0
 40
0.0
 10
0.0
 20
0.0
 30
2.000000000000000E+50
 75
     0
  1
AcDbOsnapPointRef
 72
     1
331
219A
 73
     0
 91
        0
 40
0.0
 10
0.0
 20
0.0
 30
2.000000000000000E+50
 75
     0
  0
DIMASSOC
  5
236D
102
{ACAD_REACTORS
330
236C
102
}
330
236C
100
AcDbDimAssoc
330
2360
 90
        2
 70
     0
 71
     0
  1
AcDbOsnapPointRef
 72
     3
331
2181
 73
     2
 91
        0
 40
0.0
 10
0.0
 20
0.0
 30
0.0
 75
     0
  0
DIMASSOC
  5
23C2
102
{ACAD_REACTORS
330
23C1
102
}
330
23C1
100
AcDbDimAssoc
330
23B4
 90
        3
 70
     0
 71
     0
  1
AcDbOsnapPointRef
 72
     1
331
21D3
 73
     0
 91
        0
 40
0.0
 10
0.0
 20
0.0
 30
2.000000000000000E+50
 75
     0
  1
AcDbOsnapPointRef
 72
     1
331
20DD
 73
     0
 91
        0
 40
0.0
 10
0.0
 20
0.0
 30
2.000000000000000E+50
 75
     0
  0
DIMASSOC
  5
23E8
102
{ACAD_REACTORS
330
23E7
102
}
330
23E7
100
AcDbDimAssoc
330
23DA
 90
        3
 70
     0
 71
     0
  1
AcDbOsnapPointRef
 72
     1
331
21D3
 73
     0
 91
        0
 40
0.0
 10
0.0
 20
0.0
 30
2.000000000000000E+50
 75
     0
  1
AcDbOsnapPointRef
 72
     1
331
21D4
 73
     0
 91
        0
 40
0.0
 10
0.0
 20
0.0
 30
2.000000000000000E+50
 75
     0
  0
DIMASSOC
  5
240E
102
{ACAD_REACTORS
330
240D
102
}
330
240D
100
AcDbDimAssoc
330
2400
 90
        3
 70
     0
 71
     0
  1
AcDbOsnapPointRef
 72
     1
331
21D4
 73
     0
 91
        0
 40
0.0
 10
0.0
 20
0.0
 30
2.000000000000000E+50
 75
     0
  1
AcDbOsnapPointRef
 72
     1
331
2087
 73
     0
 91
        0
 40
0.0
 10
0.0
 20
0.0
 30
2.000000000000000E+50
 75
     0
  0
DIMASSOC
  5
24B5
102
{ACAD_REACTORS
330
24B4
102
}
330
24B4
100
AcDbDimAssoc
330
24A7
 90
        3
 70
     0
 71
     0
  1
AcDbOsnapPointRef
 72
     1
331
21C0
 73
     0
 91
        0
 40
0.0
 10
0.0
 20
0.0
 30
2.000000000000000E+50
 75
     0
  1
AcDbOsnapPointRef
 72
    13
331
2074
 73
     0
 91
        0
 40
0.0
 10
0.0
 20
0.0
 30
2.000000000000000E+50
 75
     0
  0
DIMASSOC
  5
24DF
102
{ACAD_REACTORS
330
24DE
102
}
330
24DE
100
AcDbDimAssoc
330
24D1
 90
        3
 70
     0
 71
     0
  1
AcDbOsnapPointRef
 72
    13
331
2080
 73
     0
 91
        0
 40
0.0
 10
0.0
 20
0.0
 30
2.000000000000000E+50
 75
     0
  1
AcDbOsnapPointRef
 72
    13
331
2074
 73
     0
 91
        0
 40
0.0
 10
0.0
 20
0.0
 30
2.000000000000000E+50
 75
     0
  0
DIMASSOC
  5
250D
102
{ACAD_REACTORS
330
250C
102
}
330
250C
100
AcDbDimAssoc
330
24FF
 90
        3
 70
     0
 71
     0
  1
AcDbOsnapPointRef
 72
    13
331
21BE
 73
     0
 91
        0
 40
0.0
 10
0.0
 20
0.0
 30
2.000000000000000E+50
 75
     0
  1
AcDbOsnapPointRef
 72
    13
331
2076
 73
     0
 91
        0
 40
0.0
 10
0.0
 20
0.0
 30
2.000000000000000E+50
 75
     0
  0
DIMASSOC
  5
252B
102
{ACAD_REACTORS
330
252A
102
}
330
252A
100
AcDbDimAssoc
330
2521
 90
        2
 70
     0
 71
     0
  1
AcDbOsnapPointRef
 72
     3
331
21CB
 73
     2
 91
        0
 40
0.0
 10
0.0
 20
0.0
 30
0.0
 75
     0
  0
DIMASSOC
  5
2569
102
{ACAD_REACTORS
330
2568
102
}
330
2568
100
AcDbDimAssoc
330
255B
 90
        3
 70
     0
 71
     0
  1
AcDbOsnapPointRef
 72
    13
331
2064
 73
     0
 91
        0
 40
0.0
 10
0.0
 20
0.0
 30
2.000000000000000E+50
 75
     0
  1
AcDbOsnapPointRef
 72
    13
331
205E
 73
     0
 91
        0
 40
0.0
 10
0.0
 20
0.0
 30
2.000000000000000E+50
 75
     0
  0
LAYOUT
  5
22
102
{ACAD_XDICTIONARY
360
2A3A
102
}
102
{ACAD_REACTORS
330
1A
102
}
330
1A
100
AcDbPlotSettings
  1

  2
\\RD\EPSON Stylus C63 Series單色
  4
A4
  6

 40
3.757083177566528
 41
3.757076978683471
 42
3.757080078125
 43
3.757080078125
 44
209.9733276367187
 45
296.9683227539062
 46
0.0
 47
0.0
 48
0.0
 49
0.0
140
0.0
141
0.0
142
1.0
143
0.3405120737814363
 70
 11952
 72
     1
 73
     0
 74
     0
  7
單色出圖.ctb
 75
     0
147
2.936753428137963
148
-2047.07469463503
149
-1261.649717473083
100
AcDbLayout
  1
Model
 70
     1
 71
     0
 10
0.0
 20
0.0
 11
12.0
 21
9.0
 12
0.0
 22
0.0
 32
0.0
 14
0.0
 24
0.0
 34
0.0
 15
0.0
 25
0.0
 35
0.0
146
0.0
 13
0.0
 23
0.0
 33
0.0
 16
1.0
 26
0.0
 36
0.0
 17
0.0
 27
1.0
 37
0.0
 76
     0
330
1F
1001
ACAD_PSEXT
1000
\\RD\EPSON Stylus C63 Series單色
1000
EPSON Stylus C63 Series
1000
\\RD
1000

1070
     0
  0
LAYOUT
  5
1E
102
{ACAD_XDICTIONARY
360
2A38
102
}
102
{ACAD_REACTORS
330
1A
102
}
330
1A
100
AcDbPlotSettings
  1

  2

  4

  6

 40
0.0
 41
0.0
 42
0.0
 43
0.0
 44
0.0
 45
0.0
 46
0.0
 47
0.0
 48
0.0
 49
0.0
140
0.0
141
0.0
142
1.0
143
1.0
 70
   688
 72
     0
 73
     0
 74
     5
  7
單色出圖.ctb
 75
    16
147
1.0
148
0.0
149
0.0
100
AcDbLayout
  1
配置1
 70
     1
 71
     1
 10
0.0
 20
0.0
 11
420.0
 21
297.0
 12
0.0
 22
0.0
 32
0.0
 14
1.000000000000000E+20
 24
1.000000000000000E+20
 34
1.000000000000000E+20
 15
-1.000000000000000E+20
 25
-1.000000000000000E+20
 35
-1.000000000000000E+20
146
0.0
 13
0.0
 23
0.0
 33
0.0
 16
1.0
 26
0.0
 36
0.0
 17
0.0
 27
1.0
 37
0.0
 76
     0
330
1B
  0
LAYOUT
  5
26
102
{ACAD_XDICTIONARY
360
2A3C
102
}
102
{ACAD_REACTORS
330
1A
102
}
330
1A
100
AcDbPlotSettings
  1

  2

  4

  6

 40
0.0
 41
0.0
 42
0.0
 43
0.0
 44
0.0
 45
0.0
 46
0.0
 47
0.0
 48
0.0
 49
0.0
140
0.0
141
0.0
142
1.0
143
1.0
 70
   688
 72
     0
 73
     0
 74
     5
  7
單色出圖.ctb
 75
    16
147
1.0
148
0.0
149
0.0
100
AcDbLayout
  1
配置2
 70
     1
 71
     2
 10
0.0
 20
0.0
 11
12.0
 21
9.0
 12
0.0
 22
0.0
 32
0.0
 14
0.0
 24
0.0
 34
0.0
 15
0.0
 25
0.0
 35
0.0
146
0.0
 13
0.0
 23
0.0
 33
0.0
 16
1.0
 26
0.0
 36
0.0
 17
0.0
 27
1.0
 37
0.0
 76
     0
330
23
  0
MLINESTYLE
  5
18
102
{ACAD_REACTORS
330
17
102
}
330
17
100
AcDbMlineStyle
  2
STANDARD
 70
     0
  3

 62
   256
 51
90.0
 52
90.0
 71
     2
 49
0.5
 62
   256
  6
BYLAYER
 49
-0.5
 62
   256
  6
BYLAYER
  0
ACDBPLACEHOLDER
  5
F
102
{ACAD_REACTORS
330
E
102
}
330
E
  0
TABLESTYLE
  5
11B
102
{ACAD_REACTORS
330
11A
102
}
330
11A
100
AcDbTableStyle
  3
Standard
 70
     0
 71
     0
 40
1.5
 41
1.5
280
     0
281
     0
  7
STANDARD
140
4.5
170
     2
 62
     0
 63
     7
283
     0
274
    -2
284
     1
 64
     0
275
    -2
285
     1
 65
     0
276
    -2
286
     1
 66
     0
277
    -2
287
     1
 67
     0
278
    -2
288
     1
 68
     0
279
    -2
289
     1
 69
     0
  7
STANDARD
140
6.0
170
     5
 62
     0
 63
     7
283
     0
274
    -2
284
     1
 64
     0
275
    -2
285
     1
 65
     0
276
    -2
286
     1
 66
     0
277
    -2
287
     1
 67
     0
278
    -2
288
     1
 68
     0
279
    -2
289
     1
 69
     0
  7
STANDARD
140
4.5
170
     5
 62
     0
 63
     7
283
     0
274
    -2
284
     1
 64
     0
275
    -2
285
     1
 65
     0
276
    -2
286
     1
 66
     0
277
    -2
287
     1
 67
     0
278
    -2
288
     1
 68
     0
279
    -2
289
     1
 69
     0
  0
DICTIONARYVAR
  5
138
102
{ACAD_REACTORS
330
94
102
}
330
94
100
DictionaryVariables
280
     0
  1
STANDARD
  0
DICTIONARYVAR
  5
96
102
{ACAD_REACTORS
330
94
102
}
330
94
100
DictionaryVariables
280
     0
  1
2
  0
DICTIONARYVAR
  5
95
102
{ACAD_REACTORS
330
94
102
}
330
94
100
DictionaryVariables
280
     0
  1
0
  0
DICTIONARYVAR
  5
FB7
102
{ACAD_REACTORS
330
94
102
}
330
94
100
DictionaryVariables
280
     0
  1

  0
DICTIONARY
  5
1B5
102
{ACAD_REACTORS
330
5B
102
}
330
5B
100
AcDbDictionary
281
     1
  0
DICTIONARY
  5
61
102
{ACAD_REACTORS
330
5B
102
}
330
5B
100
AcDbDictionary
281
     1
  0
XRECORD
  5
123
102
{ACAD_REACTORS
330
5B
102
}
330
5B
100
AcDbXrecord
280
     1
 90
-1023410169
  0
DICTIONARY
  5
2A3A
330
22
100
AcDbDictionary
280
     1
281
     1
  3
ACAD_XREC_ROUNDTRIP
360
2A3B
  0
DICTIONARY
  5
2A38
330
1E
100
AcDbDictionary
280
     1
281
     1
  3
ACAD_XREC_ROUNDTRIP
360
2A39
  0
DICTIONARY
  5
2A3C
330
26
100
AcDbDictionary
280
     1
281
     1
  3
ACAD_XREC_ROUNDTRIP
360
2A3D
  0
XRECORD
  5
2A3B
102
{ACAD_REACTORS
330
2A3A
102
}
330
2A3A
100
AcDbXrecord
280
     1
102
SHADEPLOT
 70
     0
102
SHADEPLOTRESLEVEL
 70
     2
102
SHADEPLOTCUSTOMDPI
 70
   300
  0
XRECORD
  5
2A39
102
{ACAD_REACTORS
330
2A38
102
}
330
2A38
100
AcDbXrecord
280
     1
102
SHADEPLOT
 70
     0
102
SHADEPLOTRESLEVEL
 70
     2
102
SHADEPLOTCUSTOMDPI
 70
   300
  0
XRECORD
  5
2A3D
102
{ACAD_REACTORS
330
2A3C
102
}
330
2A3C
100
AcDbXrecord
280
     1
102
SHADEPLOT
 70
     0
102
SHADEPLOTRESLEVEL
 70
     2
102
SHADEPLOTCUSTOMDPI
 70
   300
  0
ENDSEC
  0
EOF
