  0
SECTION
  2
HEADER
  9
$ACADVER
  1
AC1015
  9
$ACADMAINTVER
 70
    20
  9
$DWGCODEPAGE
  3
ANSI_950
  9
$INSBASE
 10
0.0
 20
0.0
 30
0.0
  9
$EXTMIN
 10
515.4336679040959
 20
-156.8611311846803
 30
-0.0036988550588148
  9
$EXTMAX
 10
663.8203832953183
 20
41.97537999587575
 30
121.2771822881298
  9
$LIMMIN
 10
0.0
 20
0.0
  9
$LIMMAX
 10
420.0
 20
297.0
  9
$ORTHOMODE
 70
     1
  9
$REGENMODE
 70
     1
  9
$FILLMODE
 70
     1
  9
$QTEXTMODE
 70
     0
  9
$MIRRTEXT
 70
     1
  9
$LTSCALE
 40
0.3
  9
$ATTMODE
 70
     1
  9
$TEXTSIZE
 40
2.5
  9
$TRACEWID
 40
1.0
  9
$TEXTSTYLE
  7
STANDARD
  9
$CLAYER
  8
0
  9
$CELTYPE
  6
ByLayer
  9
$CECOLOR
 62
   256
  9
$CELTSCALE
 40
1.0
  9
$DISPSILH
 70
     0
  9
$DIMSCALE
 40
0.6999860002799944
  9
$DIMASZ
 40
3.0
  9
$DIMEXO
 40
1.0
  9
$DIMDLI
 40
7.0
  9
$DIMRND
 40
0.0
  9
$DIMDLE
 40
0.0
  9
$DIMEXE
 40
1.0
  9
$DIMTP
 40
0.1
  9
$DIMTM
 40
0.1
  9
$DIMTXT
 40
3.5
  9
$DIMCEN
 40
0.0
  9
$DIMTSZ
 40
0.0
  9
$DIMTOL
 70
     0
  9
$DIMLIM
 70
     0
  9
$DIMTIH
 70
     0
  9
$DIMTOH
 70
     0
  9
$DIMSE1
 70
     0
  9
$DIMSE2
 70
     0
  9
$DIMTAD
 70
     1
  9
$DIMZIN
 70
     8
  9
$DIMBLK
  1

  9
$DIMASO
 70
     1
  9
$DIMSHO
 70
     1
  9
$DIMPOST
  1

  9
$DIMAPOST
  1
"
  9
$DIMALT
 70
     0
  9
$DIMALTD
 70
     2
  9
$DIMALTF
 40
0.0393701
  9
$DIMLFAC
 40
1.0
  9
$DIMTOFL
 70
     1
  9
$DIMTVP
 40
0.0
  9
$DIMTIX
 70
     0
  9
$DIMSOXD
 70
     0
  9
$DIMSAH
 70
     0
  9
$DIMBLK1
  1

  9
$DIMBLK2
  1

  9
$DIMSTYLE
  2
AM_ISO
  9
$DIMCLRD
 70
   256
  9
$DIMCLRE
 70
   256
  9
$DIMCLRT
 70
   256
  9
$DIMTFAC
 40
0.71
  9
$DIMGAP
 40
1.0
  9
$DIMJUST
 70
     0
  9
$DIMSD1
 70
     0
  9
$DIMSD2
 70
     0
  9
$DIMTOLJ
 70
     0
  9
$DIMTZIN
 70
     8
  9
$DIMALTZ
 70
     8
  9
$DIMALTTZ
 70
     0
  9
$DIMUPT
 70
     0
  9
$DIMDEC
 70
     2
  9
$DIMTDEC
 70
     2
  9
$DIMALTU
 70
     2
  9
$DIMALTTD
 70
     2
  9
$DIMTXSTY
  7
STANDARD
  9
$DIMAUNIT
 70
     0
  9
$DIMADEC
 70
     0
  9
$DIMALTRND
 40
0.0
  9
$DIMAZIN
 70
     2
  9
$DIMDSEP
 70
    46
  9
$DIMATFIT
 70
     3
  9
$DIMFRAC
 70
     0
  9
$DIMLDRBLK
  1

  9
$DIMLUNIT
 70
     2
  9
$DIMLWD
 70
    -1
  9
$DIMLWE
 70
    -1
  9
$DIMTMOVE
 70
     0
  9
$LUNITS
 70
     2
  9
$LUPREC
 70
     2
  9
$SKETCHINC
 40
1.0
  9
$FILLETRAD
 40
2.5
  9
$AUNITS
 70
     0
  9
$AUPREC
 70
     0
  9
$MENU
  1
.
  9
$ELEVATION
 40
0.0
  9
$PELEVATION
 40
0.0
  9
$THICKNESS
 40
0.0
  9
$LIMCHECK
 70
     0
  9
$CHAMFERA
 40
1.5
  9
$CHAMFERB
 40
1.5
  9
$CHAMFERC
 40
20.0
  9
$CHAMFERD
 40
0.0
  9
$SKPOLY
 70
     0
  9
$TDCREATE
 40
2452691.454954444
  9
$TDUCREATE
 40
2452691.121621111
  9
$TDUPDATE
 40
2454693.586864156
  9
$TDUUPDATE
 40
2454693.253530822
  9
$TDINDWG
 40
0.1737279051
  9
$TDUSRTIMER
 40
0.1737277894
  9
$USRTIMER
 70
     1
  9
$ANGBASE
 50
0.0
  9
$ANGDIR
 70
     0
  9
$PDMODE
 70
     0
  9
$PDSIZE
 40
0.0
  9
$PLINEWID
 40
0.0
  9
$SPLFRAME
 70
     0
  9
$SPLINETYPE
 70
     6
  9
$SPLINESEGS
 70
     8
  9
$HANDSEED
  5
5B8E
  9
$SURFTAB1
 70
     6
  9
$SURFTAB2
 70
     6
  9
$SURFTYPE
 70
     6
  9
$SURFU
 70
     6
  9
$SURFV
 70
     6
  9
$UCSBASE
  2

  9
$UCSNAME
  2

  9
$UCSORG
 10
0.0
 20
0.0
 30
0.0
  9
$UCSXDIR
 10
1.0
 20
0.0
 30
0.0
  9
$UCSYDIR
 10
0.0
 20
1.0
 30
0.0
  9
$UCSORTHOREF
  2

  9
$UCSORTHOVIEW
 70
     0
  9
$UCSORGTOP
 10
0.0
 20
0.0
 30
0.0
  9
$UCSORGBOTTOM
 10
0.0
 20
0.0
 30
0.0
  9
$UCSORGLEFT
 10
0.0
 20
0.0
 30
0.0
  9
$UCSORGRIGHT
 10
0.0
 20
0.0
 30
0.0
  9
$UCSORGFRONT
 10
0.0
 20
0.0
 30
0.0
  9
$UCSORGBACK
 10
0.0
 20
0.0
 30
0.0
  9
$PUCSBASE
  2

  9
$PUCSNAME
  2

  9
$PUCSORG
 10
0.0
 20
0.0
 30
0.0
  9
$PUCSXDIR
 10
1.0
 20
0.0
 30
0.0
  9
$PUCSYDIR
 10
0.0
 20
1.0
 30
0.0
  9
$PUCSORTHOREF
  2

  9
$PUCSORTHOVIEW
 70
     0
  9
$PUCSORGTOP
 10
0.0
 20
0.0
 30
0.0
  9
$PUCSORGBOTTOM
 10
0.0
 20
0.0
 30
0.0
  9
$PUCSORGLEFT
 10
0.0
 20
0.0
 30
0.0
  9
$PUCSORGRIGHT
 10
0.0
 20
0.0
 30
0.0
  9
$PUCSORGFRONT
 10
0.0
 20
0.0
 30
0.0
  9
$PUCSORGBACK
 10
0.0
 20
0.0
 30
0.0
  9
$USERI1
 70
     0
  9
$USERI2
 70
     0
  9
$USERI3
 70
     0
  9
$USERI4
 70
     0
  9
$USERI5
 70
     0
  9
$USERR1
 40
0.0
  9
$USERR2
 40
0.0
  9
$USERR3
 40
0.0
  9
$USERR4
 40
0.0
  9
$USERR5
 40
0.0
  9
$WORLDVIEW
 70
     1
  9
$SHADEDGE
 70
     3
  9
$SHADEDIF
 70
    70
  9
$TILEMODE
 70
     1
  9
$MAXACTVP
 70
    48
  9
$PINSBASE
 10
0.0
 20
0.0
 30
0.0
  9
$PLIMCHECK
 70
     0
  9
$PEXTMIN
 10
26.80208481208632
 20
60.62932117531272
 30
-0.0000000000000153
  9
$PEXTMAX
 10
155.7606180029584
 20
204.40991305297
 30
0.0
  9
$PLIMMIN
 10
-3.757083177566528
 20
-14.7637300491333
  9
$PLIMMAX
 10
206.2162444591522
 20
282.2045927047729
  9
$UNITMODE
 70
     0
  9
$VISRETAIN
 70
     1
  9
$PLINEGEN
 70
     0
  9
$PSLTSCALE
 70
     1
  9
$TREEDEPTH
 70
  3020
  9
$CMLSTYLE
  2
Standard
  9
$CMLJUST
 70
     0
  9
$CMLSCALE
 40
20.0
  9
$PROXYGRAPHICS
 70
     1
  9
$MEASUREMENT
 70
     1
  9
$CELWEIGHT
370
    -1
  9
$ENDCAPS
280
     0
  9
$JOINSTYLE
280
     0
  9
$LWDISPLAY
290
     0
  9
$INSUNITS
 70
     4
  9
$HYPERLINKBASE
  1

  9
$STYLESHEET
  1
單色出圖.ctb
  9
$XEDIT
290
     1
  9
$CEPSNTYPE
380
     0
  9
$PSTYLEMODE
290
     1
  9
$FINGERPRINTGUID
  2
{F78C675B-544A-4F03-A4D5-203705509F9E}
  9
$VERSIONGUID
  2
{D58108D1-135A-4EB4-ACB9-F1C5A89182DC}
  9
$EXTNAMES
290
     1
  9
$PSVPSCALE
 40
0.0
  9
$OLESTARTUP
290
     0
  0
ENDSEC
  0
SECTION
  2
CLASSES
  0
CLASS
  1
ACDBDICTIONARYWDFLT
  2
AcDbDictionaryWithDefault
  3
ObjectDBX Classes
 90
        0
280
     0
281
     0
  0
CLASS
  1
ACDBPLACEHOLDER
  2
AcDbPlaceHolder
  3
ObjectDBX Classes
 90
        0
280
     0
281
     0
  0
CLASS
  1
LAYOUT
  2
AcDbLayout
  3
ObjectDBX Classes
 90
        0
280
     0
281
     0
  0
CLASS
  1
AMGSETTINGSOBJ
  2
AmgSettingsObj
  3
"AcadM|Product Description: AutoCAD Mechanical 2000|Company: Autodesk"
 90
        0
280
     0
281
     0
  0
CLASS
  1
ACME_DOCUMENT
  2
AcMeDbDoc
  3
AcMeServices
 90
        0
280
     0
281
     0
  0
CLASS
  1
ACMESCOPE
  2
AcMeScope
  3
AcMeServices
 90
        0
280
     0
281
     0
  0
CLASS
  1
ACMECOMMANDHISTORY
  2
AcMeCommandHistory
  3
AcMeServices
 90
        0
280
     0
281
     0
  0
CLASS
  1
ACIMSYSVARMAN
  2
AcImSysVarManager
  3
AcMeServices
 90
        0
280
     0
281
     0
  0
CLASS
  1
ACIMREALSYSVAR
  2
AcImRealSysVar
  3
AcMeServices
 90
        0
280
     0
281
     0
  0
CLASS
  1
ACIMINTSYSVAR
  2
AcImIntSysVar
  3
AcMeServices
 90
        0
280
     0
281
     0
  0
CLASS
  1
ACMEDRAWINGMAN
  2
AcMeDrawingMan
  3
AcMeServices
 90
        0
280
     0
281
     0
  0
CLASS
  1
ACMEVIEW
  2
AcMeView
  3
AcMeServices
 90
        0
280
     0
281
     0
  0
CLASS
  1
ACDBENTITYCACHE
  2
AcMeEntityCache
  3
AcMeServices
 90
        0
280
     0
281
     0
  0
CLASS
  1
GSMANAGER
  2
AcMeGSManager
  3
AcMeServices
 90
        0
280
     0
281
     0
  0
CLASS
  1
AMDTINTERNALREACTOR
  2
AmdtInternalReactor
  3
AcMeServices
 90
        0
280
     0
281
     0
  0
CLASS
  1
ACMESTATEMGR
  2
AcMeStateMgr
  3
AcMeServices
 90
        0
280
     0
281
     0
  0
CLASS
  1
ACGREFMASTER
  2
AcGrefMaster
  3
AcAttribServices
 90
        0
280
     0
281
     0
  0
CLASS
  1
AM_DRAWING_MGR
  2
AcDmDwgMgr
  3
AcMechDwgViewMgmt
 90
        0
280
     0
281
     0
  0
CLASS
  1
AM_DWG_DOCUMENT
  2
AcDmDwgDocument
  3
AcMechDwgViewMgmt
 90
        0
280
     0
281
     0
  0
CLASS
  1
AM_DWG_SHEET
  2
AcDmSheet
  3
AcMechDwgViewMgmt
 90
        0
280
     0
281
     0
  0
CLASS
  1
AM_VIEWDIMPARMAP
  2
AcDmViewDimParMap
  3
AcMechDwgViewMgmt
 90
        0
280
     0
281
     0
  0
CLASS
  1
AM_DWGMGR_NAME
  2
AcDmDwgMgrName
  3
AcMechDwgViewMgmt
 90
        0
280
     0
281
     0
  0
CLASS
  1
ACME_DATABASE
  2
AcMeDbDatabase
  3
AcMeServices
 90
        0
280
     0
281
     0
  0
CLASS
  1
ACRFINSADJUSTERMGR
  2
AcRfInsAdjusterMgr
  3
AcMeServices
 90
        0
280
     0
281
     0
  0
CLASS
  1
ACGREFACADMASTER
  2
AcGrefacadMaster
  3
AcGrefServices
 90
        0
280
     0
281
     0
  0
CLASS
  1
AMDTMENUSTATEMGR
  2
AmdtMenuStateMgr
  3
McadcomServices
 90
        0
280
     0
281
     0
  0
CLASS
  1
AMDTMCOMMENUSTATE
  2
AmdtMcomMenuState
  3
McadcomServices
 90
        0
280
     0
281
     0
  0
CLASS
  1
AMIMASTER
  2
AmiMaster
  3
AmiServices
 90
        0
280
     0
281
     0
  0
CLASS
  1
ASAPP
  2
AcAsAppObject
  3
AutoSurfServices
 90
        0
280
     0
281
     0
  0
CLASS
  1
IM_STATIC_MAN
  2
AcImStaticVarManager
  3
AcMeServices
 90
    32768
280
     0
281
     0
  0
CLASS
  1
ACIMSTRSYSVAR
  2
AcImStrSysVar
  3
AcMeServices
 90
        0
280
     0
281
     0
  0
CLASS
  1
ACIMDBLSTATICVAR
  2
AcImDblStaticVar
  3
AcMeServices
 90
    32768
280
     0
281
     0
  0
CLASS
  1
ACIMSTRSTATICVAR
  2
AcImStrStaticVar
  3
AcMeServices
 90
    32768
280
     0
281
     0
  0
CLASS
  1
ACIMINTSTATICVAR
  2
AcImIntStaticVar
  3
AcMeServices
 90
    32768
280
     0
281
     0
  0
CLASS
  1
ACASGREFMASTER
  2
AcAsGrefMaster
  3
AutoSurfResolverServices
 90
        0
280
     0
281
     0
  0
CLASS
  1
ACADGREFMODULE
  2
AcAdGrefModule
  3
AdGrefServices
 90
        0
280
     0
281
     0
  0
CLASS
  1
AMDTMAPISURFMOUDULE
  2
AmdtMApiSurfModule
  3
MApiSurfServices
 90
        0
280
     0
281
     0
  0
CLASS
  1
MAPIAMMOUDLE
  2
MApiAmModule
  3
MApiAmServices
 90
        0
280
     0
281
     0
  0
CLASS
  1
AMDTADMENUSTATE
  2
AmdtAdMenuState
  3
DesignerServices
 90
        0
280
     0
281
     0
  0
CLASS
  1
ADAPPL
  2
AcAdAppl
  3
DesignerServices
 90
        0
280
     0
281
     0
  0
CLASS
  1
DEPMGR
  2
AcAdDepMgr
  3
DesignerServices
 90
        0
280
     0
281
     0
  0
CLASS
  1
PARAMMGR
  2
AcAdParamMgr
  3
DesignerServices
 90
        0
280
     0
281
     0
  0
CLASS
  1
PARAMSCOPE
  2
AcAdParamScope
  3
DesignerServices
 90
        0
280
     0
281
     0
  0
CLASS
  1
NAMEDAPPL
  2
AcAdNamedAppl
  3
DesignerServices
 90
        0
280
     0
281
     0
  0
CLASS
  1
AMDTDMMENUSTATE
  2
AmdtDmMenuState
  3
AcMechDwgViewMgmt
 90
        0
280
     0
281
     0
  0
CLASS
  1
MAPIADMODULE
  2
MApiAdModule
  3
MApiAdServices
 90
        0
280
     0
281
     0
  0
CLASS
  1
AMDTAMMENUSTATE
  2
AmdtAmMenuState
  3
DesignerAssemblies
 90
        0
280
     0
281
     0
  0
CLASS
  1
ACAMPROJECT
  2
AcAmProject
  3
DesignerAssemblies
 90
        0
280
     0
281
     0
  0
CLASS
  1
ACAMCOMPDEFMGR
  2
AcAmCompDefMgr
  3
DesignerAssemblies
 90
        0
280
     0
281
     0
  0
CLASS
  1
AMCONTEXTMGR
  2
AcAmContextMgr
  3
DesignerAssemblies
 90
        0
280
     0
281
     0
  0
CLASS
  1
ACAMCONTEXTPARTMODELER
  2
AcAmContextPartModeler
  3
DesignerAssemblies
 90
    32768
280
     0
281
     0
  0
CLASS
  1
ACMDATADICTIONARY
  2
AcmDataDictionary
  3
"AcmSymBB|Product Description: AutoCAD Mechanical 2004 DX|Company: Autodesk"
 90
        0
280
     0
281
     0
  0
CLASS
  1
ACMDATAENTRYBLOCK
  2
AcmDataEntryBlock
  3
"AcmSymBB|Product Description: AutoCAD Mechanical 2004 DX|Company: Autodesk"
 90
    32768
280
     0
281
     0
  0
CLASS
  1
ACMSTANDARDISO
  2
AcmStandardISO
  3
"Amdt_StdImp|Product Description: AutoCAD Mechanical 2004 DX|Company: Autodesk"
 90
        0
280
     0
281
     0
  0
CLASS
  1
AMGOBJPROPCFG
  2
AmgObjPropCfg
  3
"AmgLay|Product Description: AutoCAD Mechanical 2000|Company: Autodesk"
 90
        1
280
     0
281
     0
  0
CLASS
  1
AMDTEDGESTANDARDISO
  2
AmdtEdgeStdISO
  3
"Amdt_StdImp|Product Description: AutoCAD Mechanical 2004 DX|Company: Autodesk"
 90
    32768
280
     0
281
     0
  0
CLASS
  1
ACMSURFSTANDARDISO
  2
AcmSurfTextStdISO
  3
"Amdt_StdImp|Product Description: AutoCAD Mechanical 2004 DX|Company: Autodesk"
 90
        0
280
     0
281
     0
  0
CLASS
  1
ACMFCFSTANDARDISO
  2
AcmFCFStdISO
  3
"Amdt_StdImp|Product Description: AutoCAD Mechanical 2004 DX|Company: Autodesk"
 90
        0
280
     0
281
     0
  0
CLASS
  1
ACMWELDSTANDARDISO
  2
AcmWeldingStdISO
  3
"Amdt_StdImp|Product Description: AutoCAD Mechanical 2004 DX|Company: Autodesk"
 90
        0
280
     0
281
     0
  0
CLASS
  1
ACMIDSTANDARDISO
  2
AcmIdStdISO
  3
"Amdt_StdImp|Product Description: AutoCAD Mechanical 2004 DX|Company: Autodesk"
 90
        0
280
     0
281
     0
  0
CLASS
  1
ACMDATUMSTANDARDISO
  2
AcmDatumStdISO
  3
"Amdt_StdImp|Product Description: AutoCAD Mechanical 2004 DX|Company: Autodesk"
 90
        0
280
     0
281
     0
  0
CLASS
  1
ACMBOMSTANDARDISO
  2
AcmBOMStdISO
  3
"Amdt_StdImp|Product Description: AutoCAD Mechanical 2004 DX|Company: Autodesk"
 90
        0
280
     0
281
     0
  0
CLASS
  1
ACMDETAILSTANDARDISO
  2
AmdtDetailSymStdISO
  3
"Amdt_StdImp|Product Description: AutoCAD Mechanical 2004 DX|Company: Autodesk"
 90
        0
280
     0
281
     0
  0
CLASS
  1
ACMSECTIONSTANDARDISO
  2
AmdtSectionSymStdISO
  3
"Amdt_StdImp|Product Description: AutoCAD Mechanical 2004 DX|Company: Autodesk"
 90
        0
280
     0
281
     0
  0
CLASS
  1
ACMCENTERLINESTANDARDISO
  2
AmdtCenterLineStdISO
  3
"Amdt_StdImp|Product Description: AutoCAD Mechanical 2004 DX|Company: Autodesk"
 90
        0
280
     0
281
     0
  0
CLASS
  1
ACMTHREADLINESTANDARDISO
  2
AmdtThreadLineStdISO
  3
"Amdt_StdImp|Product Description: AutoCAD Mechanical 2004 DX|Company: Autodesk"
 90
        0
280
     0
281
     0
  0
CLASS
  1
ACMNOTESTANDARDISO
  2
AmdtNoteStdISO
  3
"Amdt_StdImp|Product Description: AutoCAD Mechanical 2004 DX|Company: Autodesk"
 90
        0
280
     0
281
     0
  0
CLASS
  1
ACAMGLAYSTD
  2
AcAmgLayStd
  3
"AcAmgLayStd|Product Description: AutoCAD Mechanical 2000|Company: Autodesk"
 90
        0
280
     0
281
     0
  0
CLASS
  1
ACAMGDIMSTD
  2
AcAmgDimStd
  3
"AcAmgDimStd|Product Description: AutoCAD Mechanical 2000|Company: Autodesk"
 90
        0
280
     0
281
     0
  0
CLASS
  1
ACAMGHOLECHARTSTDISO
  2
AcAmgHoleChartStdISO
  3
ACMSYMBB_MODULE_NAME
 90
        0
280
     0
281
     0
  0
CLASS
  1
ACAMGTITLESTD
  2
AcAmgTitleStd
  3
"TITLEAPP"
 90
        0
280
     0
281
     0
  0
CLASS
  1
CATALOGSTATE
  2
AcAmCatalogState
  3
DesignerAssemblies
 90
        0
280
     0
281
     0
  0
CLASS
  1
ACAMGRCOMPDEFSET
  2
AcAmGrCompDefSet
  3
DesignerAssemblies
 90
        0
280
     0
281
     0
  0
CLASS
  1
AMDTBROWSERDBTAB
  2
AmdtBrowserDbTab
  3
McadcomServices
 90
        0
280
     0
281
     0
  0
CLASS
  1
CBROWSERAPPOBJECT
  2
CBrowserAppObject
  3
McadcomServices
 90
        0
280
     0
281
     0
  0
CLASS
  1
DM_PLACEHOLDER
  2
AcDmSelsetPlaceholder
  3
AcMechDwgViewMgmt
 90
        0
280
     0
281
     0
  0
CLASS
  1
ACAMGFILTERDAT
  2
AcAmgFilterDat
  3
"AcadM|Product Description: AutoCAD Mechanical 2000|Company: Autodesk"
 90
    32768
280
     0
281
     0
  0
CLASS
  1
LAYER_INDEX
  2
AcDbLayerIndex
  3
ObjectDBX Classes
 90
        0
280
     0
281
     0
  0
CLASS
  1
IDBUFFER
  2
AcDbIdBuffer
  3
ObjectDBX Classes
 90
        0
280
     0
281
     0
  0
CLASS
  1
DICTIONARYVAR
  2
AcDbDictionaryVar
  3
ObjectDBX Classes
 90
        0
280
     0
281
     0
  0
CLASS
  1
ACAMGRCOMPDEF
  2
AcAmGrCompDef
  3
DesignerAssemblies
 90
        0
280
     0
281
     0
  0
CLASS
  1
ACCMCONTEXT
  2
AcCmContext
  3
DesignerAssemblies
 90
        0
280
     0
281
     0
  0
CLASS
  1
ACAMCOMPDEF
  2
AcAmCompDef
  3
DesignerAssemblies
 90
        0
280
     0
281
     0
  0
CLASS
  1
ADPART
  2
AcAdPart
  3
DesignerServices
 90
    32768
280
     0
281
     1
  0
CLASS
  1
ADBASE
  2
AcAdBase
  3
DesignerServices
 90
    32768
280
     0
281
     0
  0
CLASS
  1
BODYID
  2
AcAdBodyId
  3
DesignerServices
 90
    32768
280
     0
281
     0
  0
CLASS
  1
WORKPLANEDISPLAYMGR
  2
AcAdDisplayMgr
  3
DesignerServices
 90
    32768
280
     0
281
     0
  0
CLASS
  1
ACCMBODY
  2
AcCmBody
  3
DesignerAssemblies
 90
    32768
280
     0
281
     0
  0
CLASS
  1
ACAMCOMPENT
  2
AcAmCompEnt
  3
DesignerAssemblies
 90
    32768
280
     0
281
     1
  0
CLASS
  1
ACAMCOMPFEEDBACK
  2
AcAmCompFeedback
  3
DesignerAssemblies
 90
    32768
280
     0
281
     0
  0
CLASS
  1
ACAMGROUNDEDBASECOMP
  2
AcAmGroundedBaseComp
  3
DesignerAssemblies
 90
    32768
280
     0
281
     0
  0
CLASS
  1
ACAMCOMPENTCLONE
  2
AcAmCompEntClone
  3
DesignerAssemblies
 90
    32768
280
     0
281
     1
  0
CLASS
  1
ACAMCLONEREACTOR
  2
AcAmGrCompCloneReactor
  3
DesignerAssemblies
 90
    32768
280
     0
281
     0
  0
CLASS
  1
ADDATUMPLANEABS
  2
AcAdDatumPlaneAbs
  3
DesignerServices
 90
    32768
280
     0
281
     0
  0
CLASS
  1
ADDATUMAXISABS
  2
AcAdDatumAxisAbs
  3
DesignerServices
 90
    32768
280
     0
281
     0
  0
CLASS
  1
ADDATUMORIENTEDPLANE
  2
AcAdDatumOrientedPlane
  3
DesignerServices
 90
    32768
280
     0
281
     0
  0
CLASS
  1
ACAD_LINE
  2
AcAdLine
  3
DesignerServices
 90
    32768
280
     0
281
     1
  0
CLASS
  1
ACADLINEACAD
  2
AcAdVirtualBoundedLineAcad
  3
DesignerServices
 90
    32768
280
     0
281
     0
  0
CLASS
  1
ACADREFLINEACAD
  2
AcAdVirtualReferenceLine
  3
DesignerServices
 90
    32768
280
     0
281
     0
  0
CLASS
  1
ACADCONSLINE
  2
AcAdConstrainedLine
  3
DesignerServices
 90
    32768
280
     0
281
     0
  0
CLASS
  1
ACADCONSGROUP
  2
AcAdConstraintGroup
  3
DesignerServices
 90
    32768
280
     0
281
     0
  0
CLASS
  1
ACADIMPPTACAD
  2
AcAdVirtualImplicitPoint
  3
DesignerServices
 90
    32768
280
     0
281
     0
  0
CLASS
  1
ACADCONSPOINT
  2
AcAdConstrainedPoint
  3
DesignerServices
 90
    32768
280
     0
281
     0
  0
CLASS
  1
ADPCURCNS
  2
AcAdPointCurveConstr
  3
DesignerServices
 90
    32768
280
     0
281
     0
  0
CLASS
  1
ADVERCNS
  2
AcAdVerticalConstr
  3
DesignerServices
 90
    32768
280
     0
281
     0
  0
CLASS
  1
ADHORCNS
  2
AcAdHorizontalConstr
  3
DesignerServices
 90
    32768
280
     0
281
     0
  0
CLASS
  1
ADCLPROF2D
  2
AcAdClosedProfile2d
  3
DesignerServices
 90
    32768
280
     0
281
     0
  0
CLASS
  1
ACAD_FIXCONSTRAINT
  2
AcAdFixedConstraint
  3
DesignerServices
 90
    32768
280
     0
281
     0
  0
CLASS
  1
AMDTFORMULAUPDATEDISPATCHER
  2
AmdtFormulaUpdateDispatcher
  3
AcMeServices
 90
    32768
280
     0
281
     0
  0
CLASS
  1
ADCONSDISP
  2
AcAdConstraintDisplay
  3
DesignerServices
 90
    32768
280
     0
281
     1
  0
CLASS
  1
ADCONSTDSP
  2
AcAdConstraintDisplayTag
  3
DesignerServices
 90
    32768
280
     0
281
     1
  0
CLASS
  1
PARAM
  2
AcAdParam
  3
DesignerServices
 90
    32768
280
     0
281
     0
  0
CLASS
  1
ADVDISTCNS
  2
AcAdVerticalDistanceConstr
  3
DesignerServices
 90
    32768
280
     0
281
     0
  0
CLASS
  1
ADHDISTCNS
  2
AcAdHorizontalDistanceConstr
  3
DesignerServices
 90
    32768
280
     0
281
     0
  0
CLASS
  1
ACMEROTATIONARROW
  2
AcImRotationArrowDisplay
  3
AcMeServices
 90
    32768
280
     0
281
     1
  0
CLASS
  1
ACADVOLFEATWITHTRIM
  2
AcAdVolFeatWithTrim
  3
DesignerServices
 90
    32768
280
     0
281
     0
  0
CLASS
  1
DEPEDGEFEATUREORDERING
  2
AcAdDepEdgeFeatureOrdering
  3
DesignerServices
 90
    32768
280
     0
281
     0
  0
CLASS
  1
DATUMAXISDISPLAY
  2
AcAdDatumAxisDisplay
  3
DesignerServices
 90
    32768
280
     0
281
     1
  0
CLASS
  1
ADDATUMAXISCENTER
  2
AcAdDatumAxisCenter
  3
DesignerServices
 90
    32768
280
     0
281
     0
  0
CLASS
  1
ADSURFGEOMID
  2
AcAdSurfGeomId
  3
DesignerServices
 90
    32768
280
     0
281
     0
  0
CLASS
  1
ACMEPOINT
  2
AcImPointDisplay
  3
AcMeServices
 90
    32768
280
     0
281
     1
  0
CLASS
  1
ADPLANEID
  2
AcAdPlaneId
  3
DesignerServices
 90
    32768
280
     0
281
     0
  0
CLASS
  1
ADDATUMPLANEFACE
  2
AcAdDatumPlaneFace
  3
DesignerServices
 90
    32768
280
     0
281
     0
  0
CLASS
  1
ADDATUMPOINTAXISPLANE
  2
AcAdDatumPointAxisPlane
  3
DesignerServices
 90
    32768
280
     0
281
     0
  0
CLASS
  1
ADHOLEFEAT
  2
AcAdHoleFeat
  3
DesignerServices
 90
    32768
280
     0
281
     0
  0
CLASS
  1
CIRREFID
  2
AcAdCircleRefId
  3
DesignerServices
 90
    32768
280
     0
281
     0
  0
CLASS
  1
ACADCIRCDEPID
  2
AcAdVirtualCircleDepId
  3
DesignerServices
 90
    32768
280
     0
281
     0
  0
CLASS
  1
ACADCONSCIRCLE
  2
AcAdConstrainedCircle
  3
DesignerServices
 90
    32768
280
     0
281
     0
  0
CLASS
  1
ADCTRPTCNS
  2
AcAdCenterPointConstr
  3
DesignerServices
 90
    32768
280
     0
281
     0
  0
CLASS
  1
AMDT_ALIGNED_DIM
  2
AmdtAlignedDimension
  3
AcMeServices
 90
    32768
280
     0
281
     1
  0
CLASS
  1
ACADBOUNDEDLINEDATUMID
  2
AcAdVirtualBoundedLineDatumId
  3
DesignerServices
 90
    32768
280
     0
281
     0
  0
CLASS
  1
AMDT_ORDINATE_DIM
  2
AmdtOrdinateDimension
  3
AcMeServices
 90
    32768
280
     0
281
     1
  0
CLASS
  1
EDGEID
  2
AcAdEdgeId
  3
DesignerServices
 90
    32768
280
     0
281
     0
  0
CLASS
  1
ADFILLET
  2
AcAdFillet
  3
DesignerServices
 90
    32768
280
     0
281
     0
  0
CLASS
  1
DATUMPLANEDISPLAY
  2
AcAdDatumPlaneDisplay
  3
DesignerServices
 90
    32768
280
     0
281
     1
  0
CLASS
  1
ADDATUMPLANEAXISPLANE
  2
AcAdDatumPlaneAxisPlane
  3
DesignerServices
 90
    32768
280
     0
281
     0
  0
CLASS
  1
ACMEPLINE
  2
AcImPlineDisplay
  3
AcMeServices
 90
    32768
280
     0
281
     1
  0
CLASS
  1
ACMELINEARARROW
  2
AcImLinearArrowDisplay
  3
AcMeServices
 90
    32768
280
     0
281
     1
  0
CLASS
  1
ACMETEXT
  2
AcImTextDisplay
  3
AcMeServices
 90
    32768
280
     0
281
     1
  0
CLASS
  1
ADDATUMPLANEOFFSET
  2
AcAdDatumPlaneOffset
  3
DesignerServices
 90
    32768
280
     0
281
     0
  0
CLASS
  1
ADCOLNCNS
  2
AcAdColinearConstr
  3
DesignerServices
 90
    32768
280
     0
281
     0
  0
CLASS
  1
STREFID
  2
AcAdStraightRefId
  3
DesignerServices
 90
    32768
280
     0
281
     0
  0
CLASS
  1
ACADLINEDEPID
  2
AcAdVirtualLineDepId
  3
DesignerServices
 90
    32768
280
     0
281
     0
  0
CLASS
  1
ADFEATUREDISPLAY
  2
AcImFeatureDisplay
  3
ACME_MODULE_NAME
 90
    32768
280
     0
281
     1
  0
CLASS
  1
ACMEAXIS
  2
AcImAxisDisplay
  3
AcMeServices
 90
    32768
280
     0
281
     1
  0
CLASS
  1
DEPEDGEPATTERNFEATURE
  2
AcAdDepEdgePatternFeature
  3
DesignerServices
 90
    32768
280
     0
281
     0
  0
CLASS
  1
ACADPATTNFEAT
  2
AcAdPatternFeat
  3
DesignerServices
 90
    32768
280
     0
281
     0
  0
CLASS
  1
ACADORDORIGPT
  2
AcAdOrdinateOriginPoint
  3
DesignerServices
 90
    32768
280
     0
281
     0
  0
CLASS
  1
ADORDBASECNS
  2
AcAdOrdinateBaseConstr
  3
DesignerServices
 90
    32768
280
     0
281
     0
  0
CLASS
  1
DEPEDGESECONDARYDEPID
  2
AcAdDepEdgeSecondaryDepId
  3
DesignerServices
 90
    32768
280
     0
281
     0
  0
CLASS
  1
DEPEDGEPATTERNINSTANCE
  2
AcAdDepEdgePatternInstance
  3
DesignerServices
 90
    32768
280
     0
281
     0
  0
CLASS
  1
AMACTIVEPARTSELECTFILTER
  2
AcDmActivePartViewEntFilter
  3
DesignerServices
 90
    32768
280
     0
281
     0
  0
CLASS
  1
AM_ABS_PLANE
  2
AcDmAbsPlnDef
  3
AcMechDwgViewMgmt
 90
    32768
280
     0
281
     0
  0
CLASS
  1
AM_ABS_AXIS
  2
AcDmAbsAxisDef
  3
AcMechDwgViewMgmt
 90
    32768
280
     0
281
     0
  0
CLASS
  1
AM_BASE_VIEW_ORIENT
  2
AcDmBaseViewOr
  3
AcMechDwgViewMgmt
 90
    32768
280
     0
281
     0
  0
CLASS
  1
AM_DWG_VIEWPORT
  2
AcDmViewport
  3
AcMechDwgViewMgmt
 90
    32768
280
     0
281
     0
  0
CLASS
  1
AM_VIEW_DISPLAY
  2
AcDmDwgViewDisplay
  3
AcMechDwgViewMgmt
 90
    32768
280
     0
281
     0
  0
CLASS
  1
AM_CLDFLTS
  2
AcDmClDflts
  3
AcMechDwgViewMgmt
 90
    32768
280
     0
281
     0
  0
CLASS
  1
AM_BASE_VIEW
  2
AcDmBaseView
  3
AcMechDwgViewMgmt
 90
    32768
280
     0
281
     0
  0
CLASS
  1
AM_ISO_VIEW_ORIENT
  2
AcDmIsoViewOr
  3
AcMechDwgViewMgmt
 90
    32768
280
     0
281
     0
  0
CLASS
  1
AM_ISO_VIEW
  2
AcDmIsoView
  3
AcMechDwgViewMgmt
 90
    32768
280
     0
281
     0
  0
CLASS
  1
AM_ORTHO_VIEW_ORIENT
  2
AcDmOrthoViewOr
  3
AcMechDwgViewMgmt
 90
    32768
280
     0
281
     0
  0
CLASS
  1
AM_ORTHO_VIEW
  2
AcDmOrthoView
  3
AcMechDwgViewMgmt
 90
    32768
280
     0
281
     0
  0
CLASS
  1
ACDMPARTVIEWDATA
  2
AcDmPartViewData
  3
AcMechDwgViewMgmt
 90
    32768
280
     0
281
     0
  0
CLASS
  1
ACDMDISPLAYATTRIBS
  2
AcDmDisplayAttribs
  3
AcMechDwgViewMgmt
 90
    32768
280
     0
281
     0
  0
CLASS
  1
ACDMBODYINSTANCEDATA
  2
AcDmBodyInstanceData
  3
AcMechDwgViewMgmt
 90
    32768
280
     0
281
     0
  0
CLASS
  1
ACDMVWEDLINE
  2
AcDmViewEdgeLine
  3
AcMechDwgViewMgmt
 90
    32768
280
     0
281
     1
  0
CLASS
  1
ACDMVWEDARC
  2
AcDmViewEdgeArc
  3
AcMechDwgViewMgmt
 90
    32768
280
     0
281
     1
  0
CLASS
  1
ACADSKETCHPOINTRES
  2
AcAdSketchPointRes
  3
DesignerServices
 90
    32768
280
     0
281
     0
  0
CLASS
  1
AM_VIEWDIMLINEAR
  2
AcDmViewDimLinear
  3
AcMechDwgViewMgmt
 90
    32768
280
     0
281
     0
  0
CLASS
  1
AMDTDMPARMAPDATA
  2
AmdtDmDimParMapData
  3
AcMechDwgViewMgmt
 90
    32768
280
     0
281
     0
  0
CLASS
  1
AM_ADLINCTRLINE
  2
AcAdLineCl
  3
DesignerServices
 90
    32768
280
     0
281
     0
  0
CLASS
  1
ACDMVWEDCIRC
  2
AcDmViewEdgeCircle
  3
AcMechDwgViewMgmt
 90
    32768
280
     0
281
     1
  0
CLASS
  1
AM_ADCIRCTRLINE
  2
AcAdBullsEyeCl
  3
DesignerServices
 90
    32768
280
     0
281
     0
  0
CLASS
  1
AD_CIRCTAPH
  2
AcAdTapHoleCircDisp
  3
DesignerServices
 90
    32768
280
     0
281
     0
  0
CLASS
  1
ACDMVIEWGEOM
  2
AcDmViewGeometry
  3
AcMechDwgViewMgmt
 90
    32768
280
     0
281
     1
  0
CLASS
  1
FACEID
  2
AcAdFaceId
  3
DesignerServices
 90
    32768
280
     0
281
     0
  0
CLASS
  1
ACADPARTPLANARFACERES
  2
AcAdPartPlanarFaceRes
  3
AdGrefServices
 90
    32768
280
     0
281
     0
  0
CLASS
  1
AM_GREF_PLANE
  2
AcDmGrefPlnDef
  3
AcMechDwgViewMgmt
 90
    32768
280
     0
281
     0
  0
CLASS
  1
ACADPARTLINEDGRES
  2
AcAdPartLinEdgRes
  3
AdGrefServices
 90
    32768
280
     0
281
     0
  0
CLASS
  1
AM_GREF_AXIS
  2
AcDmGrefAxisDef
  3
AcMechDwgViewMgmt
 90
    32768
280
     0
281
     0
  0
CLASS
  1
AMDTEXTERNALTHREAD
  2
AmdtExternalThreadFeat
  3
DesignerServices
 90
    32768
280
     0
281
     0
  0
CLASS
  1
THREADDISPLAY
  2
AcAdThreadDisplay
  3
DesignerServices
 90
    32768
280
     0
281
     1
  0
CLASS
  1
AD_LINETAPH
  2
AcAdTapHoleLineDisp
  3
DesignerServices
 90
    32768
280
     0
281
     0
  0
CLASS
  1
ADRADDISP
  2
AcAdRadiusDisplay
  3
DesignerServices
 90
    32768
280
     0
281
     1
  0
CLASS
  1
ACDBLINERES
  2
AcDbLineRes
  3
AcGrefServices
 90
    32768
280
     0
281
     0
  0
CLASS
  1
ACADPARTCONICALFACERES
  2
AcAdPartConicalFaceRes
  3
AdGrefServices
 90
    32768
280
     0
281
     0
  0
CLASS
  1
ACDMGREFEDIT
  2
AcDmViewEntityGeomrefEdit
  3
AcMechDwgViewMgmt
 90
    32768
280
     0
281
     0
  0
CLASS
  1
ACDMVIEWLINEDGERES
  2
AcDmViewLinEdgeRes
  3
AcMechDwgViewMgmt
 90
    32768
280
     0
281
     0
  0
CLASS
  1
SILEDGEID
  2
AcAdSilhouetteEdgeId
  3
DesignerServices
 90
    32768
280
     0
281
     0
  0
CLASS
  1
ACADPARTCYLINDERFACERES
  2
AcAdPartCylinderFaceRes
  3
AdGrefServices
 90
    32768
280
     0
281
     0
  0
CLASS
  1
CNRREFID
  2
AcAdCornerId
  3
DesignerServices
 90
    32768
280
     0
281
     0
  0
CLASS
  1
ACADPARTPOINTRES
  2
AcAdPartPointRes
  3
AdGrefServices
 90
    32768
280
     0
281
     0
  0
CLASS
  1
ACADPARTCIRCEDGRES
  2
AcAdPartCircEdgRes
  3
AdGrefServices
 90
    32768
280
     0
281
     0
  0
CLASS
  1
ACRFDMINSADJ
  2
AcRfDMInsAdjuster
  3
AcMechDwgViewMgmt
 90
    32768
280
     0
281
     0
  0
CLASS
  1
AM_VIEWDIMRADIUS
  2
AcDmViewDimRadius
  3
AcMechDwgViewMgmt
 90
    32768
280
     0
281
     0
  0
CLASS
  1
ACADPARTDATUMPLANERES
  2
AcAdPartDatumPlaneRes
  3
AdGrefServices
 90
    32768
280
     0
281
     0
  0
CLASS
  1
AM_FULLPLANESECTION
  2
AcDmFullPlaneSection
  3
AcMechDwgViewMgmt
 90
    32768
280
     0
281
     0
  0
CLASS
  1
AMDTSECTIONSYM
  2
AmdtSectionSym
  3
"AcmSymBB|Product Description: AutoCAD Mechanical 2004 DX|Company: Autodesk"
 90
    33791
280
     0
281
     1
  0
CLASS
  1
AM_VWNOTEADAPTER
  2
AcDmViewAnnotAdapter
  3
AcMechDwgViewMgmt
 90
    32768
280
     0
281
     0
  0
CLASS
  1
AMDTSECTIONSYMLABEL
  2
AmdtSectionSymLabel
  3
"AcmSymBB|Product Description: AutoCAD Mechanical 2004 DX|Company: Autodesk"
 90
    33791
280
     0
281
     1
  0
CLASS
  1
AMDTNOTE
  2
AmdtNote
  3
"AcmSymBB|Product Description: AutoCAD Mechanical 2004 DX|Company: Autodesk"
 90
    33791
280
     0
281
     1
  0
CLASS
  1
DIMASSOC
  2
AcDbDimAssoc
  3
"AcDbDimAssoc|Product Desc:     AcDim ARX App For Dimension|Company:          Autodesk, Inc.|WEB Address:      www.autodesk.com"
 90
        0
280
     0
281
     0
  0
CLASS
  1
LONG_TRANSACTION
  2
AcDbLongTransaction
  3
ObjectDBX Classes
 90
    32768
280
     0
281
     0
  0
CLASS
  1
LWPOLYLINE
  2
AcDbPolyline
  3
ObjectDBX Classes
 90
        0
280
     0
281
     1
  0
CLASS
  1
HATCH
  2
AcDbHatch
  3
ObjectDBX Classes
 90
    32768
280
     0
281
     1
  0
CLASS
  1
XRECORD
  2
AcDbXrecord
  3
ObjectDBX Classes
 90
        0
280
     0
281
     0
  0
CLASS
  1
LONG_TRANSACTION
  2
AcDbLongTransaction
  3
ObjectDBX Classes
 90
    32768
280
     0
281
     0
  0
CLASS
  1
LWPOLYLINE
  2
AcDbPolyline
  3
ObjectDBX Classes
 90
        0
280
     0
281
     1
  0
CLASS
  1
HATCH
  2
AcDbHatch
  3
ObjectDBX Classes
 90
    32768
280
     0
281
     1
  0
CLASS
  1
XRECORD
  2
AcDbXrecord
  3
ObjectDBX Classes
 90
        0
280
     0
281
     0
  0
CLASS
  1
TABLESTYLE
  2
AcDbTableStyle
  3
ObjectDBX Classes
 90
     2047
280
     0
281
     0
  0
CLASS
  1
ACAMCONTEXTMODELER
  2
AcAmContextModeler
  3
DesignerAssemblies
 90
        0
280
     0
281
     0
  0
CLASS
  1
AMDTEDGESTANDARDISO13715
  2
AmdtEdgeStdISO13715
  3
"Amdt_StdImp|Product Description: AutoCAD Mechanical 2004 DX|Company: Autodesk"
 90
        0
280
     0
281
     0
  0
CLASS
  1
AMDTNOTETEMPLATEDB
  2
AmdtNoteTemplateDB
  3
AMDT_STDIMP_MODULE_NAME
 90
        0
280
     0
281
     0
  0
CLASS
  1
ACRFATTGENMGR
  2
AcRfAttGeneralMgr
  3
AcAttribServices
 90
    32768
280
     0
281
     0
  0
CLASS
  1
ACMDIMBREAKPERSREACTOR
  2
AcmDimBreakPersReactor
  3
amgDimApp().moduleName()
 90
    33791
280
     0
281
     0
  0
ENDSEC
  0
SECTION
  2
TABLES
  0
TABLE
  2
VPORT
  5
1A
330
0
100
AcDbSymbolTable
 70
     3
  0
VPORT
  5
5B87
330
1A
100
AcDbSymbolTableRecord
100
AcDbViewportTableRecord
  2
*Active
 70
     0
 10
0.0
 20
0.0
 11
1.0
 21
1.0
 12
-46.45791082917173
 22
-0.0043283997142964
 13
0.0
 23
0.0
 14
2.5
 24
2.5
 15
10.0
 25
10.0
 16
0.0
 26
0.0
 36
1.0
 17
636.0849364288789
 27
-57.43854719468797
 37
0.0
 40
200.360162607227
 41
1.019181585677749
 42
50.0
 43
0.0
 44
0.0
 50
0.0
 51
0.0
 71
     0
 72
   100
 73
     1
 74
     3
 75
     0
 76
     0
 77
     0
 78
     0
281
     0
 65
     0
110
0.0
120
0.0
130
0.0
111
1.0
121
0.0
131
0.0
112
0.0
122
1.0
132
0.0
 79
     0
146
0.0
  0
ENDTAB
  0
TABLE
  2
LTYPE
  5
15
330
0
100
AcDbSymbolTable
 70
    14
  0
LTYPE
  5
16
330
15
100
AcDbSymbolTableRecord
100
AcDbLinetypeTableRecord
  2
ByBlock
 70
     0
  3

 72
    65
 73
     0
 40
0.0
  0
LTYPE
  5
17
330
15
100
AcDbSymbolTableRecord
100
AcDbLinetypeTableRecord
  2
ByLayer
 70
     0
  3

 72
    65
 73
     0
 40
0.0
  0
LTYPE
  5
9
330
15
100
AcDbSymbolTableRecord
100
AcDbLinetypeTableRecord
  2
Continuous
 70
     0
  3
Solid line
 72
    65
 73
     0
 40
0.0
  0
LTYPE
  5
161
330
15
100
AcDbSymbolTableRecord
100
AcDbLinetypeTableRecord
  2
HIDDEN
 70
     0
  3
Hidden __ __ __ __ __ __ __ __ __ __ __ __ __ _
 72
    65
 73
     2
 40
9.524999999999998
 49
6.349999999999999
 74
     0
 49
-3.174999999999999
 74
     0
  0
LTYPE
  5
BF
330
15
100
AcDbSymbolTableRecord
100
AcDbLinetypeTableRecord
  2
AM_ISO08W050
 70
     0
  3
____ . ____ . ____ . ____ . ____ . ____ . ____
 72
    65
 73
     4
 40
18.0
 49
12.0
 74
     0
 49
-1.5
 74
     0
 49
3.0
 74
     0
 49
-1.5
 74
     0
  0
LTYPE
  5
1FD
330
15
100
AcDbSymbolTableRecord
100
AcDbLinetypeTableRecord
  2
AM_ISO02W050
 70
     0
  3
__ __ __ __ __ __ __ __ __ __ __ __ __ __ __
 72
    65
 73
     2
 40
7.5
 49
6.0
 74
     0
 49
-1.5
 74
     0
  0
LTYPE
  5
1FE
330
15
100
AcDbSymbolTableRecord
100
AcDbLinetypeTableRecord
  2
AM_ISO09W050
 70
     0
  3
_____ . . _____ . . _____ . . ____ .. ____
 72
    65
 73
     6
 40
22.5
 49
12.0
 74
     0
 49
-1.5
 74
     0
 49
3.0
 74
     0
 49
-1.5
 74
     0
 49
3.0
 74
     0
 49
-1.5
 74
     0
  0
LTYPE
  5
1FF
330
15
100
AcDbSymbolTableRecord
100
AcDbLinetypeTableRecord
  2
Amconstr
 70
     0
  3
_______________________
 72
    65
 73
     2
 40
9999.0
 49
9999.0
 74
     0
 49
0.0
 74
     0
  0
LTYPE
  5
200
330
15
100
AcDbSymbolTableRecord
100
AcDbLinetypeTableRecord
  2
AM_ISO08W050x2
 70
     0
  3
__ . __ . __ . __ . __ . __
 72
    65
 73
     4
 40
9.0
 49
6.0
 74
     0
 49
-0.75
 74
     0
 49
1.5
 74
     0
 49
-0.75
 74
     0
  0
LTYPE
  5
201
330
15
100
AcDbSymbolTableRecord
100
AcDbLinetypeTableRecord
  2
AM_ISO02W050x2
 70
     0
  3
 _ _ _ _ _ _ _ _ _ _ _ _
 72
    65
 73
     2
 40
3.75
 49
3.0
 74
     0
 49
-0.75
 74
     0
  0
LTYPE
  5
204
330
15
100
AcDbSymbolTableRecord
100
AcDbLinetypeTableRecord
  2
Amzigzag
 70
     0
  3
/\/-/\/-/\/-/\/-/\/-/\/
 72
    65
 73
     2
 40
11.0001
 49
0.0001
 74
     4
 75
   135
340
203
 46
0.04
 50
0.0
 44
0.0
 45
0.0
 49
-11.0
 74
     0
  0
LTYPE
  5
211
330
15
100
AcDbSymbolTableRecord
100
AcDbLinetypeTableRecord
  2
ACISOWELD
 70
     0
  3
_ _ _ _ _
 72
    65
 73
     2
 40
2.0
 49
2.0
 74
     0
 49
-1.0
 74
     0
  0
LTYPE
  5
212
330
15
100
AcDbSymbolTableRecord
100
AcDbLinetypeTableRecord
  2
ACISOTGB
 70
     0
  3
__ . . __ . .
 72
    65
 73
     6
 40
9.0
 49
4.0
 74
     0
 49
-1.0
 74
     0
 49
1.0
 74
     0
 49
-1.0
 74
     0
 49
1.0
 74
     0
 49
-1.0
 74
     0
  0
LTYPE
  5
213
330
15
100
AcDbSymbolTableRecord
100
AcDbLinetypeTableRecord
  2
ACISOTGL
 70
     0
  3
_ _ _ _ _
 72
    65
 73
     2
 40
3.0
 49
2.0
 74
     0
 49
-1.0
 74
     0
  0
LTYPE
  5
214
330
15
100
AcDbSymbolTableRecord
100
AcDbLinetypeTableRecord
  2
CENTER
 70
     0
  3
__ . __
 72
    65
 73
     4
 40
7.0
 49
4.0
 74
     0
 49
-1.0
 74
     0
 49
1.0
 74
     0
 49
-1.0
 74
     0
  0
LTYPE
  5
2325
330
15
100
AcDbSymbolTableRecord
100
AcDbLinetypeTableRecord
  2
PHANTOM2
 70
     0
  3
Phantom (.5x) ___ _ _ ___ _ _ ___ _ _ ___ _ _
 72
    65
 73
     6
 40
31.75
 49
15.875
 74
     0
 49
-3.174999999999999
 74
     0
 49
3.174999999999999
 74
     0
 49
-3.174999999999999
 74
     0
 49
3.174999999999999
 74
     0
 49
-3.174999999999999
 74
     0
  0
ENDTAB
  0
TABLE
  2
LAYER
  5
11
102
{ACAD_XDICTIONARY
360
2434
102
}
330
0
100
AcDbSymbolTable
 70
     8
  0
LAYER
  5
5
330
11
100
AcDbSymbolTableRecord
100
AcDbLayerTableRecord
  2
0
 70
     0
 62
     7
  6
Continuous
370
    -3
390
6
  0
LAYER
  5
3B
330
11
100
AcDbSymbolTableRecord
100
AcDbLayerTableRecord
  2
Defpoints
 70
     0
 62
     7
  6
Continuous
290
     0
370
    -3
390
6
  0
LAYER
  5
14E
330
11
100
AcDbSymbolTableRecord
100
AcDbLayerTableRecord
  2
AM_5
 70
     0
 62
     5
  6
Continuous
370
    50
390
6
  0
LAYER
  5
158
330
11
100
AcDbSymbolTableRecord
100
AcDbLayerTableRecord
  2
AM_VIS
 70
     0
 62
     7
  6
Continuous
370
    50
390
6
  0
LAYER
  5
32
330
11
100
AcDbSymbolTableRecord
100
AcDbLayerTableRecord
  2
AM_PARDIM
 70
     0
 62
     5
  6
Continuous
370
    25
390
6
  0
LAYER
  5
BE
330
11
100
AcDbSymbolTableRecord
100
AcDbLayerTableRecord
  2
AM_7
 70
     0
 62
     1
  6
CENTER
370
    25
390
6
  0
LAYER
  5
11A7
330
11
100
AcDbSymbolTableRecord
100
AcDbLayerTableRecord
  2
LOGO
 70
     0
 62
     7
  6
Continuous
370
    -3
390
6
  0
ENDTAB
  0
TABLE
  2
STYLE
  5
12
330
0
100
AcDbSymbolTable
 70
     5
  0
STYLE
  5
13
330
12
100
AcDbSymbolTableRecord
100
AcDbTextStyleTableRecord
  2
STANDARD
 70
     0
 40
0.0
 41
1.0
 50
0.0
 71
     0
 42
2.5
  3
ISOCP.SHX
  4
CHINESET.SHX
  0
STYLE
  5
152
330
12
100
AcDbSymbolTableRecord
100
AcDbTextStyleTableRecord
  2
ACISOTS
 70
     0
 40
1.0
 41
1.0
 50
0.0
 71
     0
 42
2.5
  3
isocp.shx
  4
chineset.shx
  0
STYLE
  5
203
330
12
100
AcDbSymbolTableRecord
100
AcDbTextStyleTableRecord
  2

 70
     1
 40
0.0
 41
1.0
 50
0.0
 71
     0
 42
2.5
  3
ltypeshp.shx
  4

  0
STYLE
  5
210
330
12
100
AcDbSymbolTableRecord
100
AcDbTextStyleTableRecord
  2
ACISOGDT
 70
     0
 40
0.0
 41
1.0
 50
0.0
 71
     0
 42
2.5
  3
amgdt.shx
  4

  0
STYLE
  5
356
330
12
100
AcDbSymbolTableRecord
100
AcDbTextStyleTableRecord
  2
CHINESET
 70
     0
 40
0.0
 41
1.0
 50
0.0
 71
     0
 42
2.5
  3
simplex.shx
  4
CHINESET.shx
  0
ENDTAB
  0
TABLE
  2
VIEW
  5
18
330
0
100
AcDbSymbolTable
 70
     0
  0
ENDTAB
  0
TABLE
  2
UCS
  5
19
330
0
100
AcDbSymbolTable
 70
     0
  0
ENDTAB
  0
TABLE
  2
APPID
  5
1C
330
0
100
AcDbSymbolTable
 70
    31
  0
APPID
  5
1D
330
1C
100
AcDbSymbolTableRecord
100
AcDbRegAppTableRecord
  2
ACAD
 70
     0
  0
APPID
  5
41
330
1C
100
AcDbSymbolTableRecord
100
AcDbRegAppTableRecord
  2
AD_SKETCHDIM
 70
     0
  0
APPID
  5
42
330
1C
100
AcDbSymbolTableRecord
100
AcDbRegAppTableRecord
  2
ACAD_DIMASSOC_DIMLFAC
 70
     0
  0
APPID
  5
40
330
1C
100
AcDbSymbolTableRecord
100
AcDbRegAppTableRecord
  2
ACAD_DIMASSOC_CALC_DIMLFAC
 70
     0
  0
APPID
  5
1DF
330
1C
100
AcDbSymbolTableRecord
100
AcDbRegAppTableRecord
  2
MCAD_NO_VIS
 70
     0
  0
APPID
  5
1E0
330
1C
100
AcDbSymbolTableRecord
100
AcDbRegAppTableRecord
  2
ACAD_TEMP_GRAPHIC
 70
     0
  0
APPID
  5
1F1
330
1C
100
AcDbSymbolTableRecord
100
AcDbRegAppTableRecord
  2
ACATTRIBSERVICES
 70
     0
  0
APPID
  5
CAF
330
1C
100
AcDbSymbolTableRecord
100
AcDbRegAppTableRecord
  2
GENIUS_GENODEF_13
 70
     0
  0
APPID
  5
CB0
330
1C
100
AcDbSymbolTableRecord
100
AcDbRegAppTableRecord
  2
GENIUS_GENOBJ-N-DIM_13
 70
     0
  0
APPID
  5
CBC
330
1C
100
AcDbSymbolTableRecord
100
AcDbRegAppTableRecord
  2
GENIUS_GENDIM_13
 70
     0
  0
APPID
  5
CDC
330
1C
100
AcDbSymbolTableRecord
100
AcDbRegAppTableRecord
  2
GENIUS_GENDIMSH_14
 70
     0
  0
APPID
  5
E3C
330
1C
100
AcDbSymbolTableRecord
100
AcDbRegAppTableRecord
  2
GENIUS_GENOBJ-N-HTC_13
 70
     0
  0
APPID
  5
E3D
330
1C
100
AcDbSymbolTableRecord
100
AcDbRegAppTableRecord
  2
GENIUS_GENHATCH_13
 70
     0
  0
APPID
  5
E59
330
1C
100
AcDbSymbolTableRecord
100
AcDbRegAppTableRecord
  2
DCO15
 70
     0
  0
APPID
  5
19D0
330
1C
100
AcDbSymbolTableRecord
100
AcDbRegAppTableRecord
  2
GENIUS_GENOREF_13
 70
     0
  0
APPID
  5
19D1
330
1C
100
AcDbSymbolTableRecord
100
AcDbRegAppTableRecord
  2
GENIUS_GENOENT_13
 70
     0
  0
APPID
  5
19D2
330
1C
100
AcDbSymbolTableRecord
100
AcDbRegAppTableRecord
  2
GENIUS_GENOLIS_13
 70
     0
  0
APPID
  5
19D3
330
1C
100
AcDbSymbolTableRecord
100
AcDbRegAppTableRecord
  2
GENIUS_GENOBJ-N-CRS_13
 70
     0
  0
APPID
  5
19D4
330
1C
100
AcDbSymbolTableRecord
100
AcDbRegAppTableRecord
  2
GENIUS_GENOBJ-N-CEN_13
 70
     0
  0
APPID
  5
2327
330
1C
100
AcDbSymbolTableRecord
100
AcDbRegAppTableRecord
  2
AD_DRAW
 70
     0
  0
APPID
  5
2345
330
1C
100
AcDbSymbolTableRecord
100
AcDbRegAppTableRecord
  2
DESIGNERASSEMBLIES
 70
     0
  0
APPID
  5
234A
330
1C
100
AcDbSymbolTableRecord
100
AcDbRegAppTableRecord
  2
ACADM_DIM_EDIT
 70
     0
  0
APPID
  5
234B
330
1C
100
AcDbSymbolTableRecord
100
AcDbRegAppTableRecord
  2
AMDT_DM_ADJ
 70
     0
  0
APPID
  5
2432
330
1C
100
AcDbSymbolTableRecord
100
AcDbRegAppTableRecord
  2
GENIUS_GENDTOL_13
 70
     0
  0
APPID
  5
2433
330
1C
100
AcDbSymbolTableRecord
100
AcDbRegAppTableRecord
  2
ACAD_PSEXT
 70
     0
  0
APPID
  5
2AA8
330
1C
100
AcDbSymbolTableRecord
100
AcDbRegAppTableRecord
  2
GENIUS_GENREC_14
 70
     0
  0
APPID
  5
2AA9
330
1C
100
AcDbSymbolTableRecord
100
AcDbRegAppTableRecord
  2
GENIUS_GENOBJ-N-REC_13
 70
     0
  0
APPID
  5
37CD
330
1C
100
AcDbSymbolTableRecord
100
AcDbRegAppTableRecord
  2
ACAD_DSTYLE_DIMTEXT_FILL
 70
     0
  0
APPID
  5
4C3F
330
1C
100
AcDbSymbolTableRecord
100
AcDbRegAppTableRecord
  2
GENIUS_GE3DTOL_13
 70
     0
  0
APPID
  5
4CBD
330
1C
100
AcDbSymbolTableRecord
100
AcDbRegAppTableRecord
  2
ASURF_PCURVE_APPNAME
 70
     0
  0
APPID
  5
4CC2
330
1C
100
AcDbSymbolTableRecord
100
AcDbRegAppTableRecord
  2
AMG_3D2D_5.0
 70
     0
  0
ENDTAB
  0
TABLE
  2
DIMSTYLE
  5
1E
330
0
100
AcDbSymbolTable
 70
    10
100
AcDbDimStyleTable
 71
     2
340
1F
340
11AA
  0
DIMSTYLE
105
1F
330
1E
100
AcDbSymbolTableRecord
100
AcDbDimStyleTableRecord
  2
AM_ISO
 70
     0
  4
"
 41
3.0
 42
1.0
 43
7.0
 44
1.0
 47
0.1
 48
0.1
 73
     0
 74
     0
 77
     1
 78
     8
 79
     2
140
3.5
141
0.0
143
0.0393701
146
0.71
147
1.0
172
     1
176
   256
177
   256
178
   256
271
     2
272
     2
283
     0
284
     8
285
     8
340
13
371
    -1
372
    -1
  0
DIMSTYLE
105
217
102
{ACAD_REACTORS
330
56B4
102
}
330
1E
100
AcDbSymbolTableRecord
100
AcDbDimStyleTableRecord
  2
AM_ISO$3
 70
     0
  4
"
 41
3.0
 42
1.0
 43
7.0
 44
1.0
 47
0.1
 48
0.1
 73
     0
 77
     1
 78
     8
 79
     2
140
3.5
141
0.0
143
0.0393701
146
0.71
147
1.0
176
   256
177
   256
178
   256
271
     2
272
     2
283
     0
284
     8
285
     8
288
     1
289
     0
340
13
371
    -1
372
    -1
  0
DIMSTYLE
105
218
330
1E
100
AcDbSymbolTableRecord
100
AcDbDimStyleTableRecord
  2
AM_ISO$4
 70
     0
  4
"
 41
3.0
 42
1.0
 43
7.0
 44
1.0
 47
0.1
 48
0.1
 73
     0
 77
     1
 78
     8
 79
     2
140
3.5
141
0.0
143
0.0393701
146
0.71
147
1.0
176
   256
177
   256
178
   256
271
     2
272
     2
283
     0
284
     8
285
     8
288
     1
289
     0
340
13
371
    -1
372
    -1
  0
DIMSTYLE
105
219
330
1E
100
AcDbSymbolTableRecord
100
AcDbDimStyleTableRecord
  2
AM_ISO$6
 70
     0
  4
"
 41
3.0
 42
1.0
 43
7.0
 44
1.0
 47
0.1
 48
0.1
 73
     0
 74
     0
 78
     8
 79
     2
140
3.5
141
0.0
143
0.0393701
146
0.71
147
1.0
172
     1
176
   256
177
   256
178
   256
271
     2
272
     2
283
     0
284
     8
285
     8
340
13
371
    -1
372
    -1
  0
DIMSTYLE
105
21A
330
1E
100
AcDbSymbolTableRecord
100
AcDbDimStyleTableRecord
  2
AM_ISO$7
 70
     0
  4
"
 41
2.5
 42
1.0
 43
7.0
 44
1.0
 47
0.1
 48
0.1
 73
     0
 74
     0
 77
     1
 78
     8
 79
     2
140
3.5
141
0.0
143
0.0393701
146
0.71
147
1.0
172
     1
176
   256
177
   256
178
   256
271
     2
272
     2
283
     0
284
     8
285
     8
340
13
371
    -1
372
    -1
  0
DIMSTYLE
105
21B
330
1E
100
AcDbSymbolTableRecord
100
AcDbDimStyleTableRecord
  2
AM_ISO$SF
 70
     0
  4
"
 41
3.0
 42
2.0
 43
5.0
 44
1.5
 47
0.1
 48
0.1
 73
     0
 74
     0
 75
     1
 76
     1
 77
     1
 78
     8
 79
     2
140
3.0
141
0.0
143
0.0393701
146
0.71
147
1.0
172
     1
176
   256
177
   256
178
     5
271
     2
272
     2
283
     0
284
     8
340
13
371
    -1
372
    -1
  0
DIMSTYLE
105
220
330
1E
100
AcDbSymbolTableRecord
100
AcDbDimStyleTableRecord
  2
AM_ISO$SH
 70
     0
  4
"
 41
3.0
 42
2.0
 43
5.0
 44
1.5
 47
0.1
 48
0.1
 73
     0
 74
     0
 75
     1
 76
     1
 77
     1
 78
     8
 79
     2
140
3.0
141
0.0
143
0.0393701
144
2.0
146
0.71
147
1.0
172
     1
173
     1
176
   256
177
   256
178
     5
271
     2
272
     2
283
     0
284
     8
340
13
341
21C
343
21C
371
    -1
372
    -1
  0
DIMSTYLE
105
11AA
330
1E
100
AcDbSymbolTableRecord
100
AcDbDimStyleTableRecord
  2
STANDARD
 70
     0
 40
0.7
 41
3.0
 42
1.0
 43
6.5
 44
1.0
 47
0.01
 48
0.01
 73
     0
 74
     0
 77
     1
 78
     8
 79
     2
140
3.5
141
0.0
146
0.6
147
0.8
172
     1
176
   256
177
   256
178
   256
271
     2
272
     2
284
     8
340
356
371
    -1
372
    -1
  0
DIMSTYLE
105
2431
102
{ACAD_REACTORS
330
31
330
43
330
52
330
5F
330
6C
330
79
330
86
330
95
330
A3
330
B0
330
578C
330
57BE
330
57EC
330
5820
330
58A7
330
3B11
330
548E
330
5476
330
5413
330
53B4
330
53E2
330
5919
330
58EF
330
575E
330
5721
330
56FB
102
}
330
1E
100
AcDbSymbolTableRecord
100
AcDbDimStyleTableRecord
  2
AM_ISO$0
 70
     0
  4
"
 41
3.0
 42
1.0
 43
7.0
 44
1.0
 47
0.1
 48
0.1
 73
     0
 74
     0
 77
     1
 78
     8
 79
     2
140
3.5
141
0.0
143
0.0393701
146
0.71
147
1.0
172
     1
176
   256
177
   256
178
   256
271
     2
272
     2
283
     0
284
     8
285
     8
340
13
371
    -1
372
    -1
  0
ENDTAB
  0
TABLE
  2
BLOCK_RECORD
  5
1
330
0
100
AcDbSymbolTable
 70
    30
  0
BLOCK_RECORD
  5
2
102
{ACAD_XDICTIONARY
360
3
102
}
330
1
100
AcDbSymbolTableRecord
100
AcDbBlockTableRecord
  2
*Model_Space
340
B
  0
BLOCK_RECORD
  5
D
102
{ACAD_XDICTIONARY
360
1848
102
}
330
1
100
AcDbSymbolTableRecord
100
AcDbBlockTableRecord
  2
*Paper_Space
340
10
  0
BLOCK_RECORD
  5
21C
330
1
100
AcDbSymbolTableRecord
100
AcDbBlockTableRecord
  2
GENAXEH
340
0
  0
BLOCK_RECORD
  5
F83
330
1
100
AcDbSymbolTableRecord
100
AcDbBlockTableRecord
  2
*D1
340
0
  0
BLOCK_RECORD
  5
F8F
330
1
100
AcDbSymbolTableRecord
100
AcDbBlockTableRecord
  2
*D2
340
0
  0
BLOCK_RECORD
  5
F9D
330
1
100
AcDbSymbolTableRecord
100
AcDbBlockTableRecord
  2
*D3
340
0
  0
BLOCK_RECORD
  5
FA9
330
1
100
AcDbSymbolTableRecord
100
AcDbBlockTableRecord
  2
*D4
340
0
  0
BLOCK_RECORD
  5
FB5
330
1
100
AcDbSymbolTableRecord
100
AcDbBlockTableRecord
  2
*D5
340
0
  0
BLOCK_RECORD
  5
FC1
330
1
100
AcDbSymbolTableRecord
100
AcDbBlockTableRecord
  2
*D6
340
0
  0
BLOCK_RECORD
  5
FCD
330
1
100
AcDbSymbolTableRecord
100
AcDbBlockTableRecord
  2
*D7
340
0
  0
BLOCK_RECORD
  5
FDB
330
1
100
AcDbSymbolTableRecord
100
AcDbBlockTableRecord
  2
*D8
340
0
  0
BLOCK_RECORD
  5
FE8
330
1
100
AcDbSymbolTableRecord
100
AcDbBlockTableRecord
  2
*D9
340
0
  0
BLOCK_RECORD
  5
FF4
330
1
100
AcDbSymbolTableRecord
100
AcDbBlockTableRecord
  2
*D10
340
0
  0
BLOCK_RECORD
  5
3B12
330
1
100
AcDbSymbolTableRecord
100
AcDbBlockTableRecord
  2
*D11
340
0
  0
BLOCK_RECORD
  5
53B5
330
1
100
AcDbSymbolTableRecord
100
AcDbBlockTableRecord
  2
*D12
340
0
  0
BLOCK_RECORD
  5
53E3
330
1
100
AcDbSymbolTableRecord
100
AcDbBlockTableRecord
  2
*D13
340
0
  0
BLOCK_RECORD
  5
5414
330
1
100
AcDbSymbolTableRecord
100
AcDbBlockTableRecord
  2
*D14
340
0
  0
BLOCK_RECORD
  5
5477
330
1
100
AcDbSymbolTableRecord
100
AcDbBlockTableRecord
  2
*D15
340
0
  0
BLOCK_RECORD
  5
548F
330
1
100
AcDbSymbolTableRecord
100
AcDbBlockTableRecord
  2
*D16
340
0
  0
BLOCK_RECORD
  5
56B5
330
1
100
AcDbSymbolTableRecord
100
AcDbBlockTableRecord
  2
*D17
340
0
  0
BLOCK_RECORD
  5
56FC
330
1
100
AcDbSymbolTableRecord
100
AcDbBlockTableRecord
  2
*D18
340
0
  0
BLOCK_RECORD
  5
5722
330
1
100
AcDbSymbolTableRecord
100
AcDbBlockTableRecord
  2
*D19
340
0
  0
BLOCK_RECORD
  5
575F
330
1
100
AcDbSymbolTableRecord
100
AcDbBlockTableRecord
  2
*D20
340
0
  0
BLOCK_RECORD
  5
578D
330
1
100
AcDbSymbolTableRecord
100
AcDbBlockTableRecord
  2
*D21
340
0
  0
BLOCK_RECORD
  5
57BF
330
1
100
AcDbSymbolTableRecord
100
AcDbBlockTableRecord
  2
*D22
340
0
  0
BLOCK_RECORD
  5
57ED
330
1
100
AcDbSymbolTableRecord
100
AcDbBlockTableRecord
  2
*D23
340
0
  0
BLOCK_RECORD
  5
5821
330
1
100
AcDbSymbolTableRecord
100
AcDbBlockTableRecord
  2
*D24
340
0
  0
BLOCK_RECORD
  5
583C
330
1
100
AcDbSymbolTableRecord
100
AcDbBlockTableRecord
  2
GENDOT
340
0
102
{BLKREFS
331
59E2
331
59ED
102
}
  0
BLOCK_RECORD
  5
58A8
330
1
100
AcDbSymbolTableRecord
100
AcDbBlockTableRecord
  2
*D26
340
0
  0
BLOCK_RECORD
  5
58F0
330
1
100
AcDbSymbolTableRecord
100
AcDbBlockTableRecord
  2
*D27
340
0
  0
BLOCK_RECORD
  5
591A
330
1
100
AcDbSymbolTableRecord
100
AcDbBlockTableRecord
  2
*D28
340
0
  0
ENDTAB
  0
ENDSEC
  0
SECTION
  2
BLOCKS
  0
BLOCK
  5
4
330
2
100
AcDbEntity
  8
0
100
AcDbBlockBegin
  2
*Model_Space
 70
     0
 10
0.0
 20
0.0
 30
0.0
  3
*Model_Space
  1

  0
ENDBLK
  5
A
330
2
100
AcDbEntity
  8
0
100
AcDbBlockEnd
  0
BLOCK
  5
E
330
D
100
AcDbEntity
 67
     1
  8
0
100
AcDbBlockBegin
  2
*Paper_Space
 70
     0
 10
0.0
 20
0.0
 30
0.0
  3
*Paper_Space
  1

  0
ENDBLK
  5
F
330
D
100
AcDbEntity
 67
     1
  8
0
100
AcDbBlockEnd
  0
BLOCK
  5
21E
330
21C
100
AcDbEntity
  8
0
100
AcDbBlockBegin
  2
GENAXEH
 70
     0
 10
0.0
 20
0.0
 30
0.0
  3
GENAXEH
  1

  0
LINE
  5
21D
330
21C
100
AcDbEntity
  8
0
100
AcDbLine
 10
-1.0
 20
0.0
 30
0.0
 11
1.0
 21
0.0
 31
0.0
  0
ENDBLK
  5
21F
330
21C
100
AcDbEntity
  8
0
100
AcDbBlockEnd
  0
BLOCK
  5
F8D
330
F83
100
AcDbEntity
  8
0
100
AcDbBlockBegin
  2
*D1
 70
     1
 10
0.0
 20
0.0
 30
0.0
  3
*D1
  1

  0
LINE
  5
55E0
330
F83
100
AcDbEntity
  8
AM_PARDIM
100
AcDbLine
 10
76.3746488765642
 20
116.1938113892625
 30
0.0
 11
115.5325708695175
 21
116.1938113892625
 31
0.0
  0
LINE
  5
55E1
330
F83
100
AcDbEntity
  8
AM_PARDIM
100
AcDbLine
 10
76.3746488765642
 20
128.6938113892625
 30
0.0
 11
115.5325708695175
 21
128.6938113892625
 31
0.0
  0
LINE
  5
55E2
330
F83
100
AcDbEntity
  8
AM_PARDIM
100
AcDbLine
 10
114.5325708695175
 20
119.1938113892625
 30
0.0
 11
114.5325708695175
 21
125.6938113892625
 31
0.0
  0
SOLID
  5
55E3
330
F83
100
AcDbEntity
  8
AM_PARDIM
100
AcDbTrace
 10
114.0325708695175
 20
119.1938113892625
 30
0.0
 11
115.0325708695175
 21
119.1938113892625
 31
0.0
 12
114.5325708695175
 22
116.1938113892625
 32
0.0
 13
114.5325708695175
 23
116.1938113892625
 33
0.0
  0
SOLID
  5
55E4
330
F83
100
AcDbEntity
  8
AM_PARDIM
100
AcDbTrace
 10
114.0325708695175
 20
125.6938113892625
 30
0.0
 11
115.0325708695175
 21
125.6938113892625
 31
0.0
 12
114.5325708695175
 22
128.6938113892625
 32
0.0
 13
114.5325708695175
 23
128.6938113892625
 33
0.0
  0
MTEXT
  5
55E5
330
F83
100
AcDbEntity
  8
AM_PARDIM
100
AcDbMText
 10
111.7822263813285
 20
122.4438113892625
 30
0.0
 40
3.5
 41
0.0
 71
     5
 72
     1
  1
12.5
 11
0.0000000000000001
 21
1.0
 31
0.0
 73
     1
 44
1.0
1001
ACAD
1000
MTEXTBEGIN
1070
    73
1070
     1
1070
    44
1040
1.0
1070
    74
1070
     0
1000
MTEXTEND
  0
POINT
  5
55E6
330
F83
100
AcDbEntity
  8
Defpoints
 62
     0
100
AcDbPoint
 10
75.37464887656421
 20
116.1938113892625
 30
0.0
  0
POINT
  5
55E7
330
F83
100
AcDbEntity
  8
Defpoints
 62
     0
100
AcDbPoint
 10
75.37464887656421
 20
128.6938113892625
 30
0.0
  0
POINT
  5
55E8
330
F83
100
AcDbEntity
  8
Defpoints
 62
     0
100
AcDbPoint
 10
114.5325708695175
 20
128.6938113892625
 30
0.0
  0
ENDBLK
  5
F8E
330
F83
100
AcDbEntity
  8
0
100
AcDbBlockEnd
  0
BLOCK
  5
F9B
330
F8F
100
AcDbEntity
  8
0
100
AcDbBlockBegin
  2
*D2
 70
     1
 10
0.0
 20
0.0
 30
0.0
  3
*D2
  1

  0
LINE
  5
55E9
330
F8F
100
AcDbEntity
  8
AM_PARDIM
100
AcDbLine
 10
37.87464887656421
 20
116.1938113892625
 30
0.0
 11
25.87464887656421
 21
116.1938113892625
 31
0.0
  0
LINE
  5
55EA
330
F8F
100
AcDbEntity
  8
AM_PARDIM
100
AcDbLine
 10
37.87464887656421
 20
122.1938113892625
 30
0.0
 11
25.87464887656421
 21
122.1938113892625
 31
0.0
  0
LINE
  5
55EB
330
F8F
100
AcDbEntity
  8
AM_PARDIM
100
AcDbLine
 10
26.87464887656421
 20
113.1938113892625
 30
0.0
 11
26.87464887656421
 21
110.1938113892625
 31
0.0
  0
LINE
  5
55EC
330
F8F
100
AcDbEntity
  8
AM_PARDIM
100
AcDbLine
 10
26.87464887656421
 20
125.1938113892625
 30
0.0
 11
26.87464887656421
 21
128.1938113892625
 31
0.0
  0
LINE
  5
55ED
330
F8F
100
AcDbEntity
  8
AM_PARDIM
100
AcDbLine
 10
26.87464887656421
 20
116.1938113892625
 30
0.0
 11
26.87464887656421
 21
122.1938113892625
 31
0.0
  0
SOLID
  5
55EE
330
F8F
100
AcDbEntity
  8
AM_PARDIM
100
AcDbTrace
 10
26.37464887656421
 20
113.1938113892625
 30
0.0
 11
27.3746488765642
 21
113.1938113892625
 31
0.0
 12
26.87464887656421
 22
116.1938113892625
 32
0.0
 13
26.87464887656421
 23
116.1938113892625
 33
0.0
  0
SOLID
  5
55EF
330
F8F
100
AcDbEntity
  8
AM_PARDIM
100
AcDbTrace
 10
26.37464887656421
 20
125.1938113892625
 30
0.0
 11
27.37464887656421
 21
125.1938113892625
 31
0.0
 12
26.87464887656421
 22
122.1938113892625
 32
0.0
 13
26.87464887656421
 23
122.1938113892625
 33
0.0
  0
MTEXT
  5
55F0
330
F8F
100
AcDbEntity
  8
AM_PARDIM
100
AcDbMText
 10
24.12464887656419
 20
119.1938113892625
 30
0.0
 40
3.5
 41
0.0
 71
     5
 72
     1
  1
6
 11
0.0000000000000001
 21
1.0
 31
0.0
 73
     1
 44
1.0
1001
ACAD
1000
MTEXTBEGIN
1070
    73
1070
     1
1070
    44
1040
1.0
1070
    74
1070
     0
1000
MTEXTEND
  0
POINT
  5
55F1
330
F8F
100
AcDbEntity
  8
Defpoints
 62
     0
100
AcDbPoint
 10
38.87464887656421
 20
116.1938113892625
 30
0.0
  0
POINT
  5
55F2
330
F8F
100
AcDbEntity
  8
Defpoints
 62
     0
100
AcDbPoint
 10
38.87464887656421
 20
122.1938113892625
 30
0.0
  0
POINT
  5
55F3
330
F8F
100
AcDbEntity
  8
Defpoints
 62
     0
100
AcDbPoint
 10
26.87464887656421
 20
122.1938113892625
 30
0.0
  0
ENDBLK
  5
F9C
330
F8F
100
AcDbEntity
  8
0
100
AcDbBlockEnd
  0
BLOCK
  5
FA7
330
F9D
100
AcDbEntity
  8
0
100
AcDbBlockBegin
  2
*D3
 70
     1
 10
0.0
 20
0.0
 30
0.0
  3
*D3
  1

  0
LINE
  5
55F4
330
F9D
100
AcDbEntity
  8
AM_PARDIM
100
AcDbLine
 10
38.87464887656421
 20
123.1938113892625
 30
0.0
 11
38.87464887656421
 21
141.6938113892625
 31
0.0
  0
LINE
  5
55F5
330
F9D
100
AcDbEntity
  8
AM_PARDIM
100
AcDbLine
 10
50.87464887656421
 20
123.1938113892625
 30
0.0
 11
50.87464887656421
 21
141.6938113892625
 31
0.0
  0
LINE
  5
55F6
330
F9D
100
AcDbEntity
  8
AM_PARDIM
100
AcDbLine
 10
41.8746488765642
 20
140.6938113892625
 30
0.0
 11
47.87464887656421
 21
140.6938113892625
 31
0.0
  0
SOLID
  5
55F7
330
F9D
100
AcDbEntity
  8
AM_PARDIM
100
AcDbTrace
 10
41.8746488765642
 20
141.1938113892625
 30
0.0
 11
41.8746488765642
 21
140.1938113892625
 31
0.0
 12
38.87464887656421
 22
140.6938113892625
 32
0.0
 13
38.87464887656421
 23
140.6938113892625
 33
0.0
  0
SOLID
  5
55F8
330
F9D
100
AcDbEntity
  8
AM_PARDIM
100
AcDbTrace
 10
47.87464887656421
 20
141.1938113892625
 30
0.0
 11
47.87464887656421
 21
140.1938113892625
 31
0.0
 12
50.87464887656421
 22
140.6938113892625
 32
0.0
 13
50.87464887656421
 23
140.6938113892625
 33
0.0
  0
MTEXT
  5
55F9
330
F9D
100
AcDbEntity
  8
AM_PARDIM
100
AcDbMText
 10
44.87464887656421
 20
143.4441558774515
 30
0.0
 40
3.5
 41
0.0
 71
     5
 72
     1
  1
12
 73
     1
 44
1.0
1001
ACAD
1000
MTEXTBEGIN
1070
    73
1070
     1
1070
    44
1040
1.0
1070
    74
1070
     0
1000
MTEXTEND
  0
POINT
  5
55FA
330
F9D
100
AcDbEntity
  8
Defpoints
 62
     0
100
AcDbPoint
 10
38.87464887656421
 20
122.1938113892625
 30
0.0
  0
POINT
  5
55FB
330
F9D
100
AcDbEntity
  8
Defpoints
 62
     0
100
AcDbPoint
 10
50.87464887656421
 20
122.1938113892625
 30
0.0
  0
POINT
  5
55FC
330
F9D
100
AcDbEntity
  8
Defpoints
 62
     0
100
AcDbPoint
 10
50.87464887656421
 20
140.6938113892625
 30
0.0
  0
ENDBLK
  5
FA8
330
F9D
100
AcDbEntity
  8
0
100
AcDbBlockEnd
  0
BLOCK
  5
FB3
330
FA9
100
AcDbEntity
  8
0
100
AcDbBlockBegin
  2
*D4
 70
     1
 10
0.0
 20
0.0
 30
0.0
  3
*D4
  1

  0
LINE
  5
55FD
330
FA9
100
AcDbEntity
  8
AM_PARDIM
100
AcDbLine
 10
38.87464887656421
 20
117.1938113892625
 30
0.0
 11
38.87464887656421
 21
161.6938113892625
 31
0.0
  0
LINE
  5
55FE
330
FA9
100
AcDbEntity
  8
AM_PARDIM
100
AcDbLine
 10
75.37464887656421
 20
117.1938113892625
 30
0.0
 11
75.37464887656421
 21
161.6938113892625
 31
0.0
  0
LINE
  5
55FF
330
FA9
100
AcDbEntity
  8
AM_PARDIM
100
AcDbLine
 10
41.8746488765642
 20
160.6938113892625
 30
0.0
 11
72.37464887656421
 21
160.6938113892625
 31
0.0
  0
SOLID
  5
5600
330
FA9
100
AcDbEntity
  8
AM_PARDIM
100
AcDbTrace
 10
41.8746488765642
 20
161.1938113892625
 30
0.0
 11
41.8746488765642
 21
160.1938113892625
 31
0.0
 12
38.87464887656421
 22
160.6938113892625
 32
0.0
 13
38.87464887656421
 23
160.6938113892625
 33
0.0
  0
SOLID
  5
5601
330
FA9
100
AcDbEntity
  8
AM_PARDIM
100
AcDbTrace
 10
72.37464887656421
 20
161.1938113892625
 30
0.0
 11
72.37464887656421
 21
160.1938113892625
 31
0.0
 12
75.37464887656421
 22
160.6938113892625
 32
0.0
 13
75.37464887656421
 23
160.6938113892625
 33
0.0
  0
MTEXT
  5
5602
330
FA9
100
AcDbEntity
  8
AM_PARDIM
100
AcDbMText
 10
57.12464887656421
 20
163.4438113892625
 30
0.0
 40
3.5
 41
0.0
 71
     5
 72
     1
  1
36.5
 73
     1
 44
1.0
1001
ACAD
1000
MTEXTBEGIN
1070
    73
1070
     1
1070
    44
1040
1.0
1070
    74
1070
     0
1000
MTEXTEND
  0
POINT
  5
5603
330
FA9
100
AcDbEntity
  8
Defpoints
 62
     0
100
AcDbPoint
 10
38.87464887656421
 20
116.1938113892625
 30
0.0
  0
POINT
  5
5604
330
FA9
100
AcDbEntity
  8
Defpoints
 62
     0
100
AcDbPoint
 10
75.37464887656421
 20
116.1938113892625
 30
0.0
  0
POINT
  5
5605
330
FA9
100
AcDbEntity
  8
Defpoints
 62
     0
100
AcDbPoint
 10
75.37464887656421
 20
160.6938113892625
 30
0.0
  0
ENDBLK
  5
FB4
330
FA9
100
AcDbEntity
  8
0
100
AcDbBlockEnd
  0
BLOCK
  5
FBF
330
FB5
100
AcDbEntity
  8
0
100
AcDbBlockBegin
  2
*D5
 70
     1
 10
0.0
 20
0.0
 30
0.0
  3
*D5
  1

  0
LINE
  5
5606
330
FB5
100
AcDbEntity
  8
AM_PARDIM
100
AcDbLine
 10
51.87464887656421
 20
127.1938113892625
 30
0.0
 11
105.5325708695175
 21
127.1938113892625
 31
0.0
  0
LINE
  5
5607
330
FB5
100
AcDbEntity
  8
AM_PARDIM
100
AcDbLine
 10
76.3746488765642
 20
116.1938113892625
 30
0.0
 11
105.5325708695175
 21
116.1938113892625
 31
0.0
  0
LINE
  5
5608
330
FB5
100
AcDbEntity
  8
AM_PARDIM
100
AcDbLine
 10
104.5325708695175
 20
124.1938113892625
 30
0.0
 11
104.5325708695175
 21
119.1938113892625
 31
0.0
  0
SOLID
  5
5609
330
FB5
100
AcDbEntity
  8
AM_PARDIM
100
AcDbTrace
 10
104.0325708695175
 20
124.1938113892625
 30
0.0
 11
105.0325708695175
 21
124.1938113892625
 31
0.0
 12
104.5325708695175
 22
127.1938113892625
 32
0.0
 13
104.5325708695175
 23
127.1938113892625
 33
0.0
  0
SOLID
  5
560A
330
FB5
100
AcDbEntity
  8
AM_PARDIM
100
AcDbTrace
 10
104.0325708695175
 20
119.1938113892625
 30
0.0
 11
105.0325708695175
 21
119.1938113892625
 31
0.0
 12
104.5325708695175
 22
116.1938113892625
 32
0.0
 13
104.5325708695175
 23
116.1938113892625
 33
0.0
  0
MTEXT
  5
560B
330
FB5
100
AcDbEntity
  8
AM_PARDIM
100
AcDbMText
 10
101.7825708695175
 20
121.6938113892625
 30
0.0
 40
3.5
 41
0.0
 71
     5
 72
     1
  1
11
 11
0.0000000000000001
 21
1.0
 31
0.0
 73
     1
 44
1.0
1001
ACAD
1000
MTEXTBEGIN
1070
    73
1070
     1
1070
    44
1040
1.0
1070
    74
1070
     0
1000
MTEXTEND
  0
POINT
  5
560C
330
FB5
100
AcDbEntity
  8
Defpoints
 62
     0
100
AcDbPoint
 10
50.87464887656421
 20
127.1938113892625
 30
0.0
  0
POINT
  5
560D
330
FB5
100
AcDbEntity
  8
Defpoints
 62
     0
100
AcDbPoint
 10
75.37464887656421
 20
116.1938113892625
 30
0.0
  0
POINT
  5
560E
330
FB5
100
AcDbEntity
  8
Defpoints
 62
     0
100
AcDbPoint
 10
104.5325708695175
 20
116.1938113892625
 30
0.0
  0
ENDBLK
  5
FC0
330
FB5
100
AcDbEntity
  8
0
100
AcDbBlockEnd
  0
BLOCK
  5
FCB
330
FC1
100
AcDbEntity
  8
0
100
AcDbBlockBegin
  2
*D6
 70
     1
 10
0.0
 20
0.0
 30
0.0
  3
*D6
  1

  0
LINE
  5
560F
330
FC1
100
AcDbEntity
  8
AM_PARDIM
100
AcDbLine
 10
66.3746488765642
 20
129.6938113892625
 30
0.0
 11
66.3746488765642
 21
151.6938113892625
 31
0.0
  0
LINE
  5
5610
330
FC1
100
AcDbEntity
  8
AM_PARDIM
100
AcDbLine
 10
75.37464887656421
 20
129.6938113892625
 30
0.0
 11
75.37464887656421
 21
151.6938113892625
 31
0.0
  0
LINE
  5
5611
330
FC1
100
AcDbEntity
  8
AM_PARDIM
100
AcDbLine
 10
69.37464887656421
 20
150.6938113892625
 30
0.0
 11
72.37464887656421
 21
150.6938113892625
 31
0.0
  0
SOLID
  5
5612
330
FC1
100
AcDbEntity
  8
AM_PARDIM
100
AcDbTrace
 10
69.37464887656421
 20
151.1938113892625
 30
0.0
 11
69.37464887656421
 21
150.1938113892625
 31
0.0
 12
66.3746488765642
 22
150.6938113892625
 32
0.0
 13
66.3746488765642
 23
150.6938113892625
 33
0.0
  0
SOLID
  5
5613
330
FC1
100
AcDbEntity
  8
AM_PARDIM
100
AcDbTrace
 10
72.37464887656421
 20
151.1938113892625
 30
0.0
 11
72.37464887656421
 21
150.1938113892625
 31
0.0
 12
75.37464887656421
 22
150.6938113892625
 32
0.0
 13
75.37464887656421
 23
150.6938113892625
 33
0.0
  0
MTEXT
  5
5614
330
FC1
100
AcDbEntity
  8
AM_PARDIM
100
AcDbMText
 10
70.87464887656421
 20
153.4438113892625
 30
0.0
 40
3.5
 41
0.0
 71
     5
 72
     1
  1
9
 73
     1
 44
1.0
1001
ACAD
1000
MTEXTBEGIN
1070
    73
1070
     1
1070
    44
1040
1.0
1070
    74
1070
     0
1000
MTEXTEND
  0
POINT
  5
5615
330
FC1
100
AcDbEntity
  8
Defpoints
 62
     0
100
AcDbPoint
 10
66.3746488765642
 20
128.6938113892625
 30
0.0
  0
POINT
  5
5616
330
FC1
100
AcDbEntity
  8
Defpoints
 62
     0
100
AcDbPoint
 10
75.37464887656421
 20
128.6938113892625
 30
0.0
  0
POINT
  5
5617
330
FC1
100
AcDbEntity
  8
Defpoints
 62
     0
100
AcDbPoint
 10
75.37464887656421
 20
150.6938113892625
 30
0.0
  0
ENDBLK
  5
FCC
330
FC1
100
AcDbEntity
  8
0
100
AcDbBlockEnd
  0
BLOCK
  5
FD9
330
FCD
100
AcDbEntity
  8
0
100
AcDbBlockBegin
  2
*D7
 70
     1
 10
0.0
 20
0.0
 30
0.0
  3
*D7
  1

  0
LINE
  5
5618
330
FCD
100
AcDbEntity
  8
AM_PARDIM
100
AcDbLine
 10
63.87464887656418
 20
129.6938113892624
 30
0.0
 11
63.87464887656418
 21
141.6938113892625
 31
0.0
  0
LINE
  5
5619
330
FCD
100
AcDbEntity
  8
AM_PARDIM
100
AcDbLine
 10
66.37464887656418
 20
129.6938113892624
 30
0.0
 11
66.37464887656418
 21
141.6938113892625
 31
0.0
  0
LINE
  5
561A
330
FCD
100
AcDbEntity
  8
AM_PARDIM
100
AcDbLine
 10
60.87464887656418
 20
140.6938113892625
 30
0.0
 11
57.87464887656418
 21
140.6938113892625
 31
0.0
  0
LINE
  5
561B
330
FCD
100
AcDbEntity
  8
AM_PARDIM
100
AcDbLine
 10
69.37464887656418
 20
140.6938113892625
 30
0.0
 11
79.50850157615066
 21
140.6938113892625
 31
0.0
  0
LINE
  5
561C
330
FCD
100
AcDbEntity
  8
AM_PARDIM
100
AcDbLine
 10
63.87464887656418
 20
140.6938113892625
 30
0.0
 11
66.37464887656418
 21
140.6938113892625
 31
0.0
  0
SOLID
  5
561D
330
FCD
100
AcDbEntity
  8
AM_PARDIM
100
AcDbTrace
 10
60.87464887656418
 20
141.1938113892625
 30
0.0
 11
60.87464887656418
 21
140.1938113892625
 31
0.0
 12
63.87464887656418
 22
140.6938113892625
 32
0.0
 13
63.87464887656418
 23
140.6938113892625
 33
0.0
  0
SOLID
  5
561E
330
FCD
100
AcDbEntity
  8
AM_PARDIM
100
AcDbTrace
 10
69.37464887656418
 20
141.1938113892625
 30
0.0
 11
69.37464887656418
 21
140.1938113892625
 31
0.0
 12
66.37464887656418
 22
140.6938113892625
 32
0.0
 13
66.37464887656418
 23
140.6938113892625
 33
0.0
  0
MTEXT
  5
561F
330
FCD
100
AcDbEntity
  8
AM_PARDIM
100
AcDbMText
 10
75.94157522635743
 20
143.4441558774515
 30
0.0
 40
3.5
 41
0.0
 71
     5
 72
     1
  1
2.5
 73
     1
 44
1.0
1001
ACAD
1000
MTEXTBEGIN
1070
    73
1070
     1
1070
    44
1040
1.0
1070
    74
1070
     0
1000
MTEXTEND
  0
POINT
  5
5620
330
FCD
100
AcDbEntity
  8
Defpoints
 62
     0
100
AcDbPoint
 10
63.87464887656418
 20
128.6938113892624
 30
0.0
  0
POINT
  5
5621
330
FCD
100
AcDbEntity
  8
Defpoints
 62
     0
100
AcDbPoint
 10
66.37464887656418
 20
128.6938113892624
 30
0.0
  0
POINT
  5
5622
330
FCD
100
AcDbEntity
  8
Defpoints
 62
     0
100
AcDbPoint
 10
66.37464887656418
 20
140.6938113892625
 30
0.0
  0
ENDBLK
  5
FDA
330
FCD
100
AcDbEntity
  8
0
100
AcDbBlockEnd
  0
BLOCK
  5
FE6
330
FDB
100
AcDbEntity
  8
0
100
AcDbBlockBegin
  2
*D8
 70
     1
 10
0.0
 20
0.0
 30
0.0
  3
*D8
  1

  0
LINE
  5
5623
330
FDB
100
AcDbEntity
  8
AM_PARDIM
100
AcDbLine
 10
66.37464887656418
 20
129.6938113892624
 30
0.0
 11
66.37464887656418
 21
137.030378563861
 31
0.0
  0
LINE
  5
5624
330
FDB
100
AcDbEntity
  8
AM_PARDIM
100
AcDbLine
 10
66.37464887656418
 20
117.1938113892624
 30
0.0
 11
66.37464887656418
 21
137.030378563861
 31
0.0
  0
LINE
  5
5625
330
FDB
100
AcDbEntity
  8
AM_PARDIM
100
AcDbLine
 10
63.37464887656418
 20
136.030378563861
 30
0.0
 11
60.37464887656418
 21
136.030378563861
 31
0.0
  0
LINE
  5
5626
330
FDB
100
AcDbEntity
  8
AM_PARDIM
100
AcDbLine
 10
69.37464887656418
 20
136.030378563861
 30
0.0
 11
75.78016068758779
 21
136.030378563861
 31
0.0
  0
SOLID
  5
5627
330
FDB
100
AcDbEntity
  8
AM_PARDIM
100
AcDbTrace
 10
63.37464887656418
 20
136.530378563861
 30
0.0
 11
63.37464887656418
 21
135.530378563861
 31
0.0
 12
66.37464887656418
 22
136.030378563861
 32
0.0
 13
66.37464887656418
 23
136.030378563861
 33
0.0
  0
SOLID
  5
5628
330
FDB
100
AcDbEntity
  8
AM_PARDIM
100
AcDbTrace
 10
69.37464887656418
 20
136.530378563861
 30
0.0
 11
69.37464887656418
 21
135.530378563861
 31
0.0
 12
66.37464887656418
 22
136.030378563861
 32
0.0
 13
66.37464887656418
 23
136.030378563861
 33
0.0
  0
MTEXT
  5
5629
330
FDB
100
AcDbEntity
  8
AM_PARDIM
100
AcDbMText
 10
74.07740478207599
 20
138.780378563861
 30
0.0
 40
3.5
 41
0.0
 71
     5
 72
     1
  1
0
 73
     1
 44
1.0
1001
ACAD
1000
MTEXTBEGIN
1070
    73
1070
     1
1070
    44
1040
1.0
1070
    74
1070
     0
1000
MTEXTEND
  0
POINT
  5
562A
330
FDB
100
AcDbEntity
  8
Defpoints
 62
     0
100
AcDbPoint
 10
66.37464887656418
 20
128.6938113892624
 30
0.0
  0
POINT
  5
562B
330
FDB
100
AcDbEntity
  8
Defpoints
 62
     0
100
AcDbPoint
 10
66.37464887656418
 20
116.1938113892624
 30
0.0
  0
POINT
  5
562C
330
FDB
100
AcDbEntity
  8
Defpoints
 62
     0
100
AcDbPoint
 10
66.37464887656418
 20
136.030378563861
 30
0.0
  0
ENDBLK
  5
FE7
330
FDB
100
AcDbEntity
  8
0
100
AcDbBlockEnd
  0
BLOCK
  5
FF2
330
FE8
100
AcDbEntity
  8
0
100
AcDbBlockBegin
  2
*D9
 70
     1
 10
0.0
 20
0.0
 30
0.0
  3
*D9
  1

  0
LINE
  5
562D
330
FE8
100
AcDbEntity
  8
AM_PARDIM
100
AcDbLine
 10
64.87464887656418
 20
125.6938113892624
 30
0.0
 11
95.53257086951754
 21
125.6938113892624
 31
0.0
  0
LINE
  5
562E
330
FE8
100
AcDbEntity
  8
AM_PARDIM
100
AcDbLine
 10
83.53257086951755
 20
116.1938113892624
 30
0.0
 11
95.53257086951754
 21
116.1938113892624
 31
0.0
  0
LINE
  5
562F
330
FE8
100
AcDbEntity
  8
AM_PARDIM
100
AcDbLine
 10
94.53257086951754
 20
122.6938113892624
 30
0.0
 11
94.53257086951754
 21
119.1938113892624
 31
0.0
  0
SOLID
  5
5630
330
FE8
100
AcDbEntity
  8
AM_PARDIM
100
AcDbTrace
 10
94.03257086951754
 20
122.6938113892624
 30
0.0
 11
95.03257086951753
 21
122.6938113892624
 31
0.0
 12
94.53257086951754
 22
125.6938113892624
 32
0.0
 13
94.53257086951754
 23
125.6938113892624
 33
0.0
  0
SOLID
  5
5631
330
FE8
100
AcDbEntity
  8
AM_PARDIM
100
AcDbTrace
 10
94.03257086951754
 20
119.1938113892624
 30
0.0
 11
95.03257086951753
 21
119.1938113892624
 31
0.0
 12
94.53257086951754
 22
116.1938113892624
 32
0.0
 13
94.53257086951754
 23
116.1938113892624
 33
0.0
  0
MTEXT
  5
5632
330
FE8
100
AcDbEntity
  8
AM_PARDIM
100
AcDbMText
 10
91.78257086951752
 20
120.9438113892624
 30
0.0
 40
3.5
 41
0.0
 71
     5
 72
     1
  1
9.5
 11
0.0000000000000001
 21
1.0
 31
0.0
 73
     1
 44
1.0
1001
ACAD
1000
MTEXTBEGIN
1070
    73
1070
     1
1070
    44
1040
1.0
1070
    74
1070
     0
1000
MTEXTEND
  0
POINT
  5
5633
330
FE8
100
AcDbEntity
  8
Defpoints
 62
     0
100
AcDbPoint
 10
63.87464887656418
 20
125.6938113892624
 30
0.0
  0
POINT
  5
5634
330
FE8
100
AcDbEntity
  8
Defpoints
 62
     0
100
AcDbPoint
 10
82.53257086951753
 20
116.1938113892624
 30
0.0
  0
POINT
  5
5635
330
FE8
100
AcDbEntity
  8
Defpoints
 62
     0
100
AcDbPoint
 10
94.53257086951754
 20
116.1938113892624
 30
0.0
  0
ENDBLK
  5
FF3
330
FE8
100
AcDbEntity
  8
0
100
AcDbBlockEnd
  0
BLOCK
  5
FFE
330
FF4
100
AcDbEntity
  8
0
100
AcDbBlockBegin
  2
*D10
 70
     1
 10
0.0
 20
0.0
 30
0.0
  3
*D10
  1

  0
LINE
  5
5636
330
FF4
100
AcDbEntity
  8
AM_PARDIM
100
AcDbLine
 10
67.37464887656418
 20
128.6938113892624
 30
0.0
 11
125.5325708695175
 21
128.6938113892624
 31
0.0
  0
LINE
  5
5637
330
FF4
100
AcDbEntity
  8
AM_PARDIM
100
AcDbLine
 10
83.53257086951755
 20
116.1938113892624
 30
0.0
 11
125.5325708695175
 21
116.1938113892624
 31
0.0
  0
LINE
  5
5638
330
FF4
100
AcDbEntity
  8
AM_PARDIM
100
AcDbLine
 10
124.5325708695175
 20
125.6938113892624
 30
0.0
 11
124.5325708695175
 21
119.1938113892624
 31
0.0
  0
SOLID
  5
5639
330
FF4
100
AcDbEntity
  8
AM_PARDIM
100
AcDbTrace
 10
124.0325708695175
 20
125.6938113892624
 30
0.0
 11
125.0325708695175
 21
125.6938113892624
 31
0.0
 12
124.5325708695175
 22
128.6938113892624
 32
0.0
 13
124.5325708695175
 23
128.6938113892624
 33
0.0
  0
SOLID
  5
563A
330
FF4
100
AcDbEntity
  8
AM_PARDIM
100
AcDbTrace
 10
124.0325708695175
 20
119.1938113892624
 30
0.0
 11
125.0325708695175
 21
119.1938113892624
 31
0.0
 12
124.5325708695175
 22
116.1938113892624
 32
0.0
 13
124.5325708695175
 23
116.1938113892624
 33
0.0
  0
MTEXT
  5
563B
330
FF4
100
AcDbEntity
  8
AM_PARDIM
100
AcDbMText
 10
121.7822263813285
 20
122.4438113892624
 30
0.0
 40
3.5
 41
0.0
 71
     5
 72
     1
  1
12.5
 11
0.0000000000000001
 21
1.0
 31
0.0
 73
     1
 44
1.0
1001
ACAD
1000
MTEXTBEGIN
1070
    73
1070
     1
1070
    44
1040
1.0
1070
    74
1070
     0
1000
MTEXTEND
  0
POINT
  5
563C
330
FF4
100
AcDbEntity
  8
Defpoints
 62
     0
100
AcDbPoint
 10
66.37464887656418
 20
128.6938113892624
 30
0.0
  0
POINT
  5
563D
330
FF4
100
AcDbEntity
  8
Defpoints
 62
     0
100
AcDbPoint
 10
82.53257086951753
 20
116.1938113892624
 30
0.0
  0
POINT
  5
563E
330
FF4
100
AcDbEntity
  8
Defpoints
 62
     0
100
AcDbPoint
 10
124.5325708695175
 20
116.1938113892624
 30
0.0
  0
ENDBLK
  5
FFF
330
FF4
100
AcDbEntity
  8
0
100
AcDbBlockEnd
  0
BLOCK
  5
3B1C
330
3B12
100
AcDbEntity
  8
0
100
AcDbBlockBegin
  2
*D11
 70
     1
 10
0.0
 20
0.0
 30
0.0
  3
*D11
  1

  0
LINE
  5
5B05
330
3B12
100
AcDbEntity
  8
AM_5
100
AcDbLine
 10
646.4667175291181
 20
-36.81794927514491
 30
0.0
 11
638.9225599654357
 21
-36.81794927514491
 31
0.0
  0
LINE
  5
5B06
330
3B12
100
AcDbEntity
  8
AM_5
100
AcDbLine
 10
645.9667175291182
 20
-64.31794927514488
 30
0.0
 11
638.9225599654357
 21
-64.31794927514488
 31
0.0
  0
LINE
  5
5B07
330
3B12
100
AcDbEntity
  8
AM_5
100
AcDbLine
 10
639.6225459657157
 20
-38.9179072759849
 30
0.0
 11
639.6225459657157
 21
-62.2179912743049
 31
0.0
  0
SOLID
  5
5B08
330
3B12
100
AcDbEntity
  8
AM_5
100
AcDbTrace
 10
639.2725529655757
 20
-38.9179072759849
 30
0.0
 11
639.9725389658557
 21
-38.9179072759849
 31
0.0
 12
639.6225459657157
 22
-36.81794927514491
 32
0.0
 13
639.6225459657157
 23
-36.81794927514491
 33
0.0
  0
SOLID
  5
5B09
330
3B12
100
AcDbEntity
  8
AM_5
100
AcDbTrace
 10
639.2725529655757
 20
-62.2179912743049
 30
0.0
 11
639.9725389658557
 21
-62.2179912743049
 31
0.0
 12
639.6225459657157
 22
-64.31794927514488
 32
0.0
 13
639.6225459657157
 23
-64.31794927514488
 33
0.0
  0
MTEXT
  5
5B0A
330
3B12
100
AcDbEntity
  8
AM_5
100
AcDbMText
 10
637.6973433280362
 20
-50.56794927514479
 30
0.0
 40
2.44995100097998
 41
0.0
 71
     5
 72
     1
  1
27.5
 11
0.0000000000000001
 21
1.0
 31
0.0
 73
     1
 44
1.0
1001
ACAD
1000
MTEXTBEGIN
1070
    73
1070
     1
1070
    44
1040
1.0
1070
    74
1070
     0
1000
MTEXTEND
  0
POINT
  5
5B0B
330
3B12
100
AcDbEntity
  8
Defpoints
 62
     0
100
AcDbPoint
 10
647.1667035293981
 20
-36.81794927514491
 30
0.0
  0
POINT
  5
5B0C
330
3B12
100
AcDbEntity
  8
Defpoints
 62
     0
100
AcDbPoint
 10
646.6667035293982
 20
-64.31794927514488
 30
0.0
  0
POINT
  5
5B0D
330
3B12
100
AcDbEntity
  8
Defpoints
 62
     0
100
AcDbPoint
 10
639.6225459657157
 20
-64.31794927514488
 30
0.0
  0
ENDBLK
  5
3B1D
330
3B12
100
AcDbEntity
  8
0
100
AcDbBlockEnd
  0
BLOCK
  5
53BF
330
53B5
100
AcDbEntity
  8
0
100
AcDbBlockBegin
  2
*D12
 70
     1
 10
0.0
 20
0.0
 30
0.0
  3
*D12
  1

  0
LINE
  5
5B34
330
53B5
100
AcDbEntity
  8
AM_5
100
AcDbLine
 10
534.9988026086496
 20
-9.185554167448215
 30
0.0
 11
534.9988026086496
 21
3.364277835911709
 31
0.0
  0
LINE
  5
5B35
330
53B5
100
AcDbEntity
  8
AM_5
100
AcDbLine
 10
577.0488026086495
 20
-5.035554167448222
 30
0.0
 11
577.0488026086495
 21
3.364277835911709
 31
0.0
  0
LINE
  5
5B36
330
53B5
100
AcDbEntity
  8
AM_5
100
AcDbLine
 10
537.0987606094895
 20
2.664291835631715
 30
0.0
 11
574.9488446078096
 21
2.664291835631715
 31
0.0
  0
SOLID
  5
5B37
330
53B5
100
AcDbEntity
  8
AM_5
100
AcDbTrace
 10
537.0987606094895
 20
3.014284835771712
 30
0.0
 11
537.0987606094895
 21
2.314298835491717
 31
0.0
 12
534.9988026086496
 22
2.664291835631715
 32
0.0
 13
534.9988026086496
 23
2.664291835631715
 33
0.0
  0
SOLID
  5
5B38
330
53B5
100
AcDbEntity
  8
AM_5
100
AcDbTrace
 10
574.9488446078096
 20
3.014284835771712
 30
0.0
 11
574.9488446078096
 21
2.314298835491717
 31
0.0
 12
577.0488026086495
 22
2.664291835631715
 32
0.0
 13
577.0488026086495
 23
2.664291835631715
 33
0.0
  0
MTEXT
  5
5B39
330
53B5
100
AcDbEntity
  8
AM_5
100
AcDbMText
 10
556.0238026086495
 20
4.589494473311244
 30
0.0
 40
2.44995100097998
 41
0.0
 71
     5
 72
     1
  1
42.05
 73
     1
 44
1.0
1001
ACAD
1000
MTEXTBEGIN
1070
    73
1070
     1
1070
    44
1040
1.0
1070
    74
1070
     0
1000
MTEXTEND
  0
POINT
  5
5B3A
330
53B5
100
AcDbEntity
  8
Defpoints
 62
     0
100
AcDbPoint
 10
534.9988026086496
 20
-9.885540167728208
 30
0.0
  0
POINT
  5
5B3B
330
53B5
100
AcDbEntity
  8
Defpoints
 62
     0
100
AcDbPoint
 10
577.0488026086495
 20
-5.735540167728217
 30
0.0
  0
POINT
  5
5B3C
330
53B5
100
AcDbEntity
  8
Defpoints
 62
     0
100
AcDbPoint
 10
577.0488026086495
 20
2.664291835631715
 30
0.0
  0
ENDBLK
  5
53C0
330
53B5
100
AcDbEntity
  8
0
100
AcDbBlockEnd
  0
BLOCK
  5
53ED
330
53E3
100
AcDbEntity
  8
0
100
AcDbBlockBegin
  2
*D13
 70
     1
 10
0.0
 20
0.0
 30
0.0
  3
*D13
  1

  0
LINE
  5
5B3D
330
53E3
100
AcDbEntity
  8
AM_5
100
AcDbLine
 10
584.0488026086496
 20
-13.2355541674482
 30
0.0
 11
584.0488026086496
 21
3.364277835911725
 31
0.0
  0
LINE
  5
5B3E
330
53E3
100
AcDbEntity
  8
AM_5
100
AcDbLine
 10
577.0488026086495
 20
-5.035554167448208
 30
0.0
 11
577.0488026086495
 21
3.364277835911725
 31
0.0
  0
LINE
  5
5B3F
330
53E3
100
AcDbEntity
  8
AM_5
100
AcDbLine
 10
581.9488446078096
 20
2.664291835631731
 30
0.0
 11
579.1487606094895
 21
2.664291835631731
 31
0.0
  0
SOLID
  5
5B40
330
53E3
100
AcDbEntity
  8
AM_5
100
AcDbTrace
 10
581.9488446078096
 20
3.014284835771728
 30
0.0
 11
581.9488446078096
 21
2.314298835491733
 31
0.0
 12
584.0488026086496
 22
2.664291835631731
 32
0.0
 13
584.0488026086496
 23
2.664291835631731
 33
0.0
  0
SOLID
  5
5B41
330
53E3
100
AcDbEntity
  8
AM_5
100
AcDbTrace
 10
579.1487606094895
 20
3.014284835771728
 30
0.0
 11
579.1487606094895
 21
2.314298835491733
 31
0.0
 12
577.0488026086495
 22
2.664291835631731
 32
0.0
 13
577.0488026086495
 23
2.664291835631731
 33
0.0
  0
MTEXT
  5
5B42
330
53E3
100
AcDbEntity
  8
AM_5
100
AcDbMText
 10
580.5488026086496
 20
4.589253336401715
 30
0.0
 40
2.44995100097998
 41
0.0
 71
     5
 72
     1
  1
7
 73
     1
 44
1.0
1001
ACAD
1000
MTEXTBEGIN
1070
    73
1070
     1
1070
    44
1040
1.0
1070
    74
1070
     0
1000
MTEXTEND
  0
POINT
  5
5B43
330
53E3
100
AcDbEntity
  8
Defpoints
 62
     0
100
AcDbPoint
 10
584.0488026086496
 20
-13.93554016772819
 30
0.0
  0
POINT
  5
5B44
330
53E3
100
AcDbEntity
  8
Defpoints
 62
     0
100
AcDbPoint
 10
577.0488026086495
 20
-5.735540167728203
 30
0.0
  0
POINT
  5
5B45
330
53E3
100
AcDbEntity
  8
Defpoints
 62
     0
100
AcDbPoint
 10
577.0488026086495
 20
2.664291835631731
 30
0.0
  0
ENDBLK
  5
53EE
330
53E3
100
AcDbEntity
  8
0
100
AcDbBlockEnd
  0
BLOCK
  5
541E
330
5414
100
AcDbEntity
  8
0
100
AcDbBlockBegin
  2
*D14
 70
     1
 10
0.0
 20
0.0
 30
0.0
  3
*D14
  1

  0
LINE
  5
5B2B
330
5414
100
AcDbEntity
  8
AM_5
100
AcDbLine
 10
540.2988166083696
 20
-8.035540167728214
 30
0.0
 11
521.3490756031896
 21
-8.035540167728207
 31
0.0
  0
LINE
  5
5B2C
330
5414
100
AcDbEntity
  8
AM_5
100
AcDbLine
 10
540.2988166083696
 20
-18.0355401677282
 30
0.0
 11
521.3490756031896
 21
-18.03554016772819
 31
0.0
  0
LINE
  5
5B2D
330
5414
100
AcDbEntity
  8
AM_5
100
AcDbLine
 10
522.0490616034696
 20
-10.13549816856819
 30
0.0
 11
522.0490616034696
 21
-15.93558216688821
 31
0.0
  0
SOLID
  5
5B2E
330
5414
100
AcDbEntity
  8
AM_5
100
AcDbTrace
 10
521.6990686033296
 20
-10.13549816856819
 30
0.0
 11
522.3990546036096
 21
-10.13549816856819
 31
0.0
 12
522.0490616034696
 22
-8.035540167728207
 32
0.0
 13
522.0490616034696
 23
-8.035540167728207
 33
0.0
  0
SOLID
  5
5B2F
330
5414
100
AcDbEntity
  8
AM_5
100
AcDbTrace
 10
521.6990686033296
 20
-15.93558216688821
 30
0.0
 11
522.3990546036096
 21
-15.93558216688821
 31
0.0
 12
522.0490616034696
 22
-18.03554016772819
 32
0.0
 13
522.0490616034696
 23
-18.03554016772819
 33
0.0
  0
MTEXT
  5
5B30
330
5414
100
AcDbEntity
  8
AM_5
100
AcDbMText
 10
520.1241001026996
 20
-13.03554016772812
 30
0.0
 40
2.44995100097998
 41
0.0
 71
     5
 72
     1
  1
10
 11
0.0000000000000001
 21
1.0
 31
0.0
 73
     1
 44
1.0
1001
ACAD
1000
MTEXTBEGIN
1070
    73
1070
     1
1070
    44
1040
1.0
1070
    74
1070
     0
1000
MTEXTEND
  0
POINT
  5
5B31
330
5414
100
AcDbEntity
  8
Defpoints
 62
     0
100
AcDbPoint
 10
540.9988026086495
 20
-8.035540167728214
 30
0.0
  0
POINT
  5
5B32
330
5414
100
AcDbEntity
  8
Defpoints
 62
     0
100
AcDbPoint
 10
540.9988026086495
 20
-18.0355401677282
 30
0.0
  0
POINT
  5
5B33
330
5414
100
AcDbEntity
  8
Defpoints
 62
     0
100
AcDbPoint
 10
522.0490616034696
 20
-18.03554016772819
 30
0.0
  0
ENDBLK
  5
541F
330
5414
100
AcDbEntity
  8
0
100
AcDbBlockEnd
  0
BLOCK
  5
5481
330
5477
100
AcDbEntity
  8
0
100
AcDbBlockBegin
  2
*D15
 70
     1
 10
0.0
 20
0.0
 30
0.0
  3
*D15
  1

  0
LINE
  5
5B22
330
5477
100
AcDbEntity
  8
AM_5
100
AcDbLine
 10
580.1488166083696
 20
-17.13554016772821
 30
0.0
 11
525.8989846050097
 21
-17.13554016772819
 31
0.0
  0
LINE
  5
5B23
330
5477
100
AcDbEntity
  8
AM_5
100
AcDbLine
 10
573.1488166083696
 20
-8.93554016772822
 30
0.0
 11
525.8989846050097
 21
-8.935540167728206
 31
0.0
  0
LINE
  5
5B24
330
5477
100
AcDbEntity
  8
AM_5
100
AcDbLine
 10
526.5989706052896
 20
-15.03558216688821
 30
0.0
 11
526.5989706052896
 21
-11.03549816856819
 31
0.0
  0
SOLID
  5
5B25
330
5477
100
AcDbEntity
  8
AM_5
100
AcDbTrace
 10
526.2489776051496
 20
-15.03558216688821
 30
0.0
 11
526.9489636054296
 21
-15.03558216688821
 31
0.0
 12
526.5989706052896
 22
-17.13554016772819
 32
0.0
 13
526.5989706052896
 23
-17.13554016772819
 33
0.0
  0
SOLID
  5
5B26
330
5477
100
AcDbEntity
  8
AM_5
100
AcDbTrace
 10
526.2489776051496
 20
-11.03549816856819
 30
0.0
 11
526.9489636054296
 21
-11.03549816856819
 31
0.0
 12
526.5989706052896
 22
-8.935540167728206
 32
0.0
 13
526.5989706052896
 23
-8.935540167728206
 33
0.0
  0
MTEXT
  5
5B27
330
5477
100
AcDbEntity
  8
AM_5
100
AcDbMText
 10
524.6737679676101
 20
-13.03554016772811
 30
0.0
 40
2.44995100097998
 41
0.0
 71
     5
 72
     1
  1
8.2
 11
0.0000000000000001
 21
1.0
 31
0.0
 73
     1
 44
1.0
1001
ACAD
1000
MTEXTBEGIN
1070
    73
1070
     1
1070
    44
1040
1.0
1070
    74
1070
     0
1000
MTEXTEND
  0
POINT
  5
5B28
330
5477
100
AcDbEntity
  8
Defpoints
 62
     0
100
AcDbPoint
 10
580.8488026086496
 20
-17.13554016772821
 30
0.0
  0
POINT
  5
5B29
330
5477
100
AcDbEntity
  8
Defpoints
 62
     0
100
AcDbPoint
 10
573.8488026086496
 20
-8.93554016772822
 30
0.0
  0
POINT
  5
5B2A
330
5477
100
AcDbEntity
  8
Defpoints
 62
     0
100
AcDbPoint
 10
526.5989706052896
 20
-8.935540167728206
 30
0.0
  0
ENDBLK
  5
5482
330
5477
100
AcDbEntity
  8
0
100
AcDbBlockEnd
  0
BLOCK
  5
549B
330
548F
100
AcDbEntity
  8
0
100
AcDbBlockBegin
  2
*D16
 70
     1
 10
0.0
 20
0.0
 30
0.0
  3
*D16
  1

  0
LINE
  5
5B17
330
548F
100
AcDbEntity
  8
AM_5
100
AcDbLine
 10
580.1488166083696
 20
-17.13554016772821
 30
0.0
 11
530.3989846050097
 21
-17.13554016772819
 31
0.0
  0
LINE
  5
5B18
330
548F
100
AcDbEntity
  8
AM_5
100
AcDbLine
 10
540.2988166083696
 20
-18.03554016772819
 30
0.0
 11
530.3989846050097
 21
-18.03554016772819
 31
0.0
  0
LINE
  5
5B19
330
548F
100
AcDbEntity
  8
AM_5
100
AcDbLine
 10
531.0989706052896
 20
-15.03558216688821
 30
0.0
 11
531.0989706052896
 21
-12.93562416604823
 31
0.0
  0
LINE
  5
5B1A
330
548F
100
AcDbEntity
  8
AM_5
100
AcDbLine
 10
531.0989706052896
 20
-20.13549816856817
 30
0.0
 11
531.0989706052896
 21
-27.8073446436783
 31
0.0
  0
LINE
  5
5B1B
330
548F
100
AcDbEntity
  8
AM_5
100
AcDbLine
 10
531.0989706052896
 20
-17.13554016772819
 30
0.0
 11
531.0989706052896
 21
-18.03554016772819
 31
0.0
  0
SOLID
  5
5B1C
330
548F
100
AcDbEntity
  8
AM_5
100
AcDbTrace
 10
530.7489776051496
 20
-15.03558216688821
 30
0.0
 11
531.4489636054296
 21
-15.03558216688821
 31
0.0
 12
531.0989706052896
 22
-17.13554016772819
 32
0.0
 13
531.0989706052896
 23
-17.13554016772819
 33
0.0
  0
SOLID
  5
5B1D
330
548F
100
AcDbEntity
  8
AM_5
100
AcDbTrace
 10
530.7489776051496
 20
-20.13549816856817
 30
0.0
 11
531.4489636054296
 21
-20.13549816856817
 31
0.0
 12
531.0989706052896
 22
-18.03554016772819
 32
0.0
 13
531.0989706052896
 23
-18.03554016772819
 33
0.0
  0
MTEXT
  5
5B1E
330
548F
100
AcDbEntity
  8
AM_5
100
AcDbMText
 10
529.1740091045197
 20
-25.30372813730205
 30
0.0
 40
2.44995100097998
 41
0.0
 71
     5
 72
     1
  1
0.9
 11
0.0000000000000001
 21
1.0
 31
0.0
 73
     1
 44
1.0
1001
ACAD
1000
MTEXTBEGIN
1070
    73
1070
     1
1070
    44
1040
1.0
1070
    74
1070
     0
1000
MTEXTEND
  0
POINT
  5
5B1F
330
548F
100
AcDbEntity
  8
Defpoints
 62
     0
100
AcDbPoint
 10
580.8488026086496
 20
-17.13554016772821
 30
0.0
  0
POINT
  5
5B20
330
548F
100
AcDbEntity
  8
Defpoints
 62
     0
100
AcDbPoint
 10
540.9988026086495
 20
-18.03554016772819
 30
0.0
  0
POINT
  5
5B21
330
548F
100
AcDbEntity
  8
Defpoints
 62
     0
100
AcDbPoint
 10
531.0989706052896
 20
-18.03554016772819
 30
0.0
  0
ENDBLK
  5
549C
330
548F
100
AcDbEntity
  8
0
100
AcDbBlockEnd
  0
BLOCK
  5
56BE
330
56B5
100
AcDbEntity
  8
0
100
AcDbBlockBegin
  2
*D17
 70
     1
 10
0.0
 20
0.0
 30
0.0
  3
*D17
  1

  0
LINE
  5
5A19
330
56B5
100
AcDbEntity
  8
AM_5
100
AcDbLine
 10
584.7728074674984
 20
-14.27580780768424
 30
0.0
 11
587.4790197003887
 21
-3.586594053170927
 31
0.0
  0
LINE
  5
5A1A
330
56B5
100
AcDbEntity
  8
AM_5
100
AcDbLine
 10
587.4790197003887
 20
-3.586594053170927
 30
0.0
 11
604.1659005297012
 21
-3.586594053170955
 31
0.0
  0
SOLID
  5
5A1B
330
56B5
100
AcDbEntity
  8
AM_5
100
AcDbTrace
 10
584.4335191427139
 20
-14.18990942113352
 30
0.0
 11
585.1120957922827
 21
-14.36170619423494
 31
0.0
 12
584.2574171481942
 22
-16.31153775639045
 32
0.0
 13
584.2574171481942
 23
-16.31153775639045
 33
0.0
  0
MTEXT
  5
5A1C
330
56B5
100
AcDbEntity
  8
AM_5
100
AcDbMText
 10
596.1724531151847
 20
-1.66139141549134
 30
0.0
 40
2.44995100097998
 41
0.0
 71
     5
 72
     1
  1
2-\U+22051.7 thru
 73
     1
 44
1.0
1001
ACAD
1000
MTEXTBEGIN
1070
    73
1070
     1
1070
    44
1040
1.0
1070
    74
1070
     0
1000
MTEXTEND
  0
POINT
  5
5A1D
330
56B5
100
AcDbEntity
  8
Defpoints
 62
     0
100
AcDbPoint
 10
584.2574171481942
 20
-16.31153775639045
 30
0.0
  0
POINT
  5
5A1E
330
56B5
100
AcDbEntity
  8
Defpoints
 62
     0
100
AcDbPoint
 10
583.8401880691046
 20
-17.95954257906611
 30
0.0
  0
ENDBLK
  5
56BF
330
56B5
100
AcDbEntity
  8
0
100
AcDbBlockEnd
  0
BLOCK
  5
5706
330
56FC
100
AcDbEntity
  8
0
100
AcDbBlockBegin
  2
*D18
 70
     1
 10
0.0
 20
0.0
 30
0.0
  3
*D18
  1

  0
LINE
  5
5B7E
330
56FC
100
AcDbEntity
  8
AM_5
100
AcDbLine
 10
544.4988026086496
 20
-65.01793527542493
 30
0.0
 11
544.4988026086496
 21
-73.41776727878486
 31
0.0
  0
LINE
  5
5B7F
330
56FC
100
AcDbEntity
  8
AM_5
100
AcDbLine
 10
613.0988026086495
 20
-65.01793527542488
 30
0.0
 11
613.0988026086495
 21
-73.41776727878486
 31
0.0
  0
LINE
  5
5B80
330
56FC
100
AcDbEntity
  8
AM_5
100
AcDbLine
 10
546.5987606094895
 20
-72.71778127850487
 30
0.0
 11
610.9988446078095
 21
-72.71778127850487
 31
0.0
  0
SOLID
  5
5B81
330
56FC
100
AcDbEntity
  8
AM_5
100
AcDbTrace
 10
546.5987606094895
 20
-72.36778827836487
 30
0.0
 11
546.5987606094895
 21
-73.06777427864488
 31
0.0
 12
544.4988026086496
 22
-72.71778127850487
 32
0.0
 13
544.4988026086496
 23
-72.71778127850487
 33
0.0
  0
SOLID
  5
5B82
330
56FC
100
AcDbEntity
  8
AM_5
100
AcDbTrace
 10
610.9988446078095
 20
-72.36778827836487
 30
0.0
 11
610.9988446078095
 21
-73.06777427864488
 31
0.0
 12
613.0988026086495
 22
-72.71778127850487
 32
0.0
 13
613.0988026086495
 23
-72.71778127850487
 33
0.0
  0
MTEXT
  5
5B83
330
56FC
100
AcDbEntity
  8
AM_5
100
AcDbMText
 10
578.7988026086495
 20
-70.79281977773489
 30
0.0
 40
2.44995100097998
 41
0.0
 71
     5
 72
     1
  1
68.6
 73
     1
 44
1.0
1001
ACAD
1000
MTEXTBEGIN
1070
    73
1070
     1
1070
    44
1040
1.0
1070
    74
1070
     0
1000
MTEXTEND
  0
POINT
  5
5B84
330
56FC
100
AcDbEntity
  8
Defpoints
 62
     0
100
AcDbPoint
 10
544.4988026086496
 20
-64.31794927514494
 30
0.0
  0
POINT
  5
5B85
330
56FC
100
AcDbEntity
  8
Defpoints
 62
     0
100
AcDbPoint
 10
613.0988026086495
 20
-64.31794927514488
 30
0.0
  0
POINT
  5
5B86
330
56FC
100
AcDbEntity
  8
Defpoints
 62
     0
100
AcDbPoint
 10
613.0988026086495
 20
-72.71778127850487
 30
0.0
  0
ENDBLK
  5
5707
330
56FC
100
AcDbEntity
  8
0
100
AcDbBlockEnd
  0
BLOCK
  5
572C
330
5722
100
AcDbEntity
  8
0
100
AcDbBlockBegin
  2
*D19
 70
     1
 10
0.0
 20
0.0
 30
0.0
  3
*D19
  1

  0
LINE
  5
5B75
330
5722
100
AcDbEntity
  8
AM_5
100
AcDbLine
 10
534.9988026086496
 20
-46.61793527542492
 30
0.0
 11
534.9988026086496
 21
-78.31766928074543
 31
0.0
  0
LINE
  5
5B76
330
5722
100
AcDbEntity
  8
AM_5
100
AcDbLine
 10
622.5988026086495
 20
-46.61793527542487
 30
0.0
 11
622.5988026086495
 21
-78.31766928074543
 31
0.0
  0
LINE
  5
5B77
330
5722
100
AcDbEntity
  8
AM_5
100
AcDbLine
 10
537.0987606094895
 20
-77.61768328046544
 30
0.0
 11
620.4988446078096
 21
-77.61768328046544
 31
0.0
  0
SOLID
  5
5B78
330
5722
100
AcDbEntity
  8
AM_5
100
AcDbTrace
 10
537.0987606094895
 20
-77.26769028032544
 30
0.0
 11
537.0987606094895
 21
-77.96767628060544
 31
0.0
 12
534.9988026086496
 22
-77.61768328046544
 32
0.0
 13
534.9988026086496
 23
-77.61768328046544
 33
0.0
  0
SOLID
  5
5B79
330
5722
100
AcDbEntity
  8
AM_5
100
AcDbTrace
 10
620.4988446078096
 20
-77.26769028032544
 30
0.0
 11
620.4988446078096
 21
-77.96767628060544
 31
0.0
 12
622.5988026086495
 22
-77.61768328046544
 32
0.0
 13
622.5988026086495
 23
-77.61768328046544
 33
0.0
  0
MTEXT
  5
5B7A
330
5722
100
AcDbEntity
  8
AM_5
100
AcDbMText
 10
578.7988026086495
 20
-75.69272177969546
 30
0.0
 40
2.44995100097998
 41
0.0
 71
     5
 72
     1
  1
87.6
 73
     1
 44
1.0
1001
ACAD
1000
MTEXTBEGIN
1070
    73
1070
     1
1070
    44
1040
1.0
1070
    74
1070
     0
1000
MTEXTEND
  0
POINT
  5
5B7B
330
5722
100
AcDbEntity
  8
Defpoints
 62
     0
100
AcDbPoint
 10
534.9988026086496
 20
-45.91794927514493
 30
0.0
  0
POINT
  5
5B7C
330
5722
100
AcDbEntity
  8
Defpoints
 62
     0
100
AcDbPoint
 10
622.5988026086495
 20
-45.91794927514487
 30
0.0
  0
POINT
  5
5B7D
330
5722
100
AcDbEntity
  8
Defpoints
 62
     0
100
AcDbPoint
 10
622.5988026086495
 20
-77.61768328046544
 30
0.0
  0
ENDBLK
  5
572D
330
5722
100
AcDbEntity
  8
0
100
AcDbBlockEnd
  0
BLOCK
  5
5769
330
575F
100
AcDbEntity
  8
0
100
AcDbBlockBegin
  2
*D20
 70
     1
 10
0.0
 20
0.0
 30
0.0
  3
*D20
  1

  0
LINE
  5
5B5A
330
575F
100
AcDbEntity
  8
AM_5
100
AcDbLine
 10
622.5988026086495
 20
-105.4102884867989
 30
0.0
 11
622.5988026086495
 21
-90.76055448147904
 31
0.0
  0
LINE
  5
5B5B
330
575F
100
AcDbEntity
  8
AM_5
100
AcDbLine
 10
578.7988026086495
 20
-106.5602884867989
 30
0.0
 11
578.7988026086495
 21
-90.76055448147904
 31
0.0
  0
LINE
  5
5B5C
330
575F
100
AcDbEntity
  8
AM_5
100
AcDbLine
 10
620.4988446078096
 20
-91.46054048175903
 30
0.0
 11
580.8987606094895
 21
-91.46054048175903
 31
0.0
  0
SOLID
  5
5B5D
330
575F
100
AcDbEntity
  8
AM_5
100
AcDbTrace
 10
620.4988446078096
 20
-91.11054748161903
 30
0.0
 11
620.4988446078096
 21
-91.81053348189903
 31
0.0
 12
622.5988026086495
 22
-91.46054048175903
 32
0.0
 13
622.5988026086495
 23
-91.46054048175903
 33
0.0
  0
SOLID
  5
5B5E
330
575F
100
AcDbEntity
  8
AM_5
100
AcDbTrace
 10
580.8987606094895
 20
-91.11054748161903
 30
0.0
 11
580.8987606094895
 21
-91.81053348189903
 31
0.0
 12
578.7988026086495
 22
-91.46054048175903
 32
0.0
 13
578.7988026086495
 23
-91.46054048175903
 33
0.0
  0
MTEXT
  5
5B5F
330
575F
100
AcDbEntity
  8
AM_5
100
AcDbMText
 10
600.6988026086495
 20
-89.53557898098905
 30
0.0
 40
2.44995100097998
 41
0.0
 71
     5
 72
     1
  1
43.8
 73
     1
 44
1.0
1001
ACAD
1000
MTEXTBEGIN
1070
    73
1070
     1
1070
    44
1040
1.0
1070
    74
1070
     0
1000
MTEXTEND
  0
POINT
  5
5B60
330
575F
100
AcDbEntity
  8
Defpoints
 62
     0
100
AcDbPoint
 10
622.5988026086495
 20
-106.1102744870789
 30
0.0
  0
POINT
  5
5B61
330
575F
100
AcDbEntity
  8
Defpoints
 62
     0
100
AcDbPoint
 10
578.7988026086495
 20
-107.2602744870789
 30
0.0
  0
POINT
  5
5B62
330
575F
100
AcDbEntity
  8
Defpoints
 62
     0
100
AcDbPoint
 10
578.7988026086495
 20
-91.46054048175903
 30
0.0
  0
ENDBLK
  5
576A
330
575F
100
AcDbEntity
  8
0
100
AcDbBlockEnd
  0
BLOCK
  5
5797
330
578D
100
AcDbEntity
  8
0
100
AcDbBlockBegin
  2
*D21
 70
     1
 10
0.0
 20
0.0
 30
0.0
  3
*D21
  1

  0
LINE
  5
5A1F
330
578D
100
AcDbEntity
  8
AM_5
100
AcDbLine
 10
578.7988026086495
 20
-106.5602884867989
 30
0.0
 11
578.7988026086495
 21
-95.66045648343902
 31
0.0
  0
LINE
  5
5A20
330
578D
100
AcDbEntity
  8
AM_5
100
AcDbLine
 10
571.7988026086495
 20
-106.5602884867989
 30
0.0
 11
571.7988026086495
 21
-95.66045648343902
 31
0.0
  0
LINE
  5
5A21
330
578D
100
AcDbEntity
  8
AM_5
100
AcDbLine
 10
576.6988446078096
 20
-96.36044248371902
 30
0.0
 11
573.8987606094894
 21
-96.36044248371902
 31
0.0
  0
SOLID
  5
5A22
330
578D
100
AcDbEntity
  8
AM_5
100
AcDbTrace
 10
576.6988446078096
 20
-96.01044948357902
 30
0.0
 11
576.6988446078096
 21
-96.71043548385902
 31
0.0
 12
578.7988026086495
 22
-96.36044248371902
 32
0.0
 13
578.7988026086495
 23
-96.36044248371902
 33
0.0
  0
SOLID
  5
5A23
330
578D
100
AcDbEntity
  8
AM_5
100
AcDbTrace
 10
573.8987606094894
 20
-96.01044948357902
 30
0.0
 11
573.8987606094894
 21
-96.71043548385902
 31
0.0
 12
571.7988026086495
 22
-96.36044248371902
 32
0.0
 13
571.7988026086495
 23
-96.36044248371902
 33
0.0
  0
MTEXT
  5
5A24
330
578D
100
AcDbEntity
  8
AM_5
100
AcDbMText
 10
575.2988026086495
 20
-94.43548098294902
 30
0.0
 40
2.44995100097998
 41
0.0
 71
     5
 72
     1
  1
7
 73
     1
 44
1.0
1001
ACAD
1000
MTEXTBEGIN
1070
    73
1070
     1
1070
    44
1040
1.0
1070
    74
1070
     0
1000
MTEXTEND
  0
POINT
  5
5A25
330
578D
100
AcDbEntity
  8
Defpoints
 62
     0
100
AcDbPoint
 10
578.7988026086495
 20
-107.2602744870789
 30
0.0
  0
POINT
  5
5A26
330
578D
100
AcDbEntity
  8
Defpoints
 62
     0
100
AcDbPoint
 10
571.7988026086495
 20
-107.2602744870789
 30
0.0
  0
POINT
  5
5A27
330
578D
100
AcDbEntity
  8
Defpoints
 62
     0
100
AcDbPoint
 10
571.7988026086495
 20
-96.36044248371902
 30
0.0
  0
ENDBLK
  5
5798
330
578D
100
AcDbEntity
  8
0
100
AcDbBlockEnd
  0
BLOCK
  5
57C9
330
57BF
100
AcDbEntity
  8
0
100
AcDbBlockBegin
  2
*D22
 70
     1
 10
0.0
 20
0.0
 30
0.0
  3
*D22
  1

  0
LINE
  5
59D4
330
57BF
100
AcDbEntity
  8
AM_5
100
AcDbLine
 10
585.7988026086495
 20
-106.5602884867989
 30
0.0
 11
585.7988026086495
 21
-95.660456483439
 31
0.0
  0
LINE
  5
59D5
330
57BF
100
AcDbEntity
  8
AM_5
100
AcDbLine
 10
578.7988026086495
 20
-106.5602884867989
 30
0.0
 11
578.7988026086495
 21
-95.660456483439
 31
0.0
  0
LINE
  5
59D6
330
57BF
100
AcDbEntity
  8
AM_5
100
AcDbLine
 10
583.6988446078096
 20
-96.360442483719
 30
0.0
 11
580.8987606094895
 21
-96.360442483719
 31
0.0
  0
SOLID
  5
59D7
330
57BF
100
AcDbEntity
  8
AM_5
100
AcDbTrace
 10
583.6988446078096
 20
-96.010449483579
 30
0.0
 11
583.6988446078096
 21
-96.71043548385901
 31
0.0
 12
585.7988026086495
 22
-96.360442483719
 32
0.0
 13
585.7988026086495
 23
-96.360442483719
 33
0.0
  0
SOLID
  5
59D8
330
57BF
100
AcDbEntity
  8
AM_5
100
AcDbTrace
 10
580.8987606094895
 20
-96.010449483579
 30
0.0
 11
580.8987606094895
 21
-96.71043548385901
 31
0.0
 12
578.7988026086495
 22
-96.360442483719
 32
0.0
 13
578.7988026086495
 23
-96.360442483719
 33
0.0
  0
MTEXT
  5
59D9
330
57BF
100
AcDbEntity
  8
AM_5
100
AcDbMText
 10
582.2988026086496
 20
-94.43548098294902
 30
0.0
 40
2.44995100097998
 41
0.0
 71
     5
 72
     1
  1
7
 73
     1
 44
1.0
1001
ACAD
1000
MTEXTBEGIN
1070
    73
1070
     1
1070
    44
1040
1.0
1070
    74
1070
     0
1000
MTEXTEND
  0
POINT
  5
59DA
330
57BF
100
AcDbEntity
  8
Defpoints
 62
     0
100
AcDbPoint
 10
585.7988026086495
 20
-107.2602744870789
 30
0.0
  0
POINT
  5
59DB
330
57BF
100
AcDbEntity
  8
Defpoints
 62
     0
100
AcDbPoint
 10
578.7988026086495
 20
-107.2602744870789
 30
0.0
  0
POINT
  5
59DC
330
57BF
100
AcDbEntity
  8
Defpoints
 62
     0
100
AcDbPoint
 10
578.7988026086495
 20
-96.360442483719
 30
0.0
  0
ENDBLK
  5
57CA
330
57BF
100
AcDbEntity
  8
0
100
AcDbBlockEnd
  0
BLOCK
  5
57F9
330
57ED
100
AcDbEntity
  8
0
100
AcDbBlockBegin
  2
*D23
 70
     1
 10
0.0
 20
0.0
 30
0.0
  3
*D23
  1

  0
LINE
  5
59DD
330
57ED
100
AcDbEntity
  8
AM_5
100
AcDbLine
 10
578.7988026086495
 20
-111.9602604873589
 30
0.0
 11
578.7988026086495
 21
-123.3600924907188
 31
0.0
  0
LINE
  5
59DE
330
57ED
100
AcDbEntity
  8
AM_5
100
AcDbLine
 10
582.2988026086496
 20
-109.9602604873589
 30
0.0
 11
582.2988026086496
 21
-123.3600924907188
 31
0.0
  0
LINE
  5
59DF
330
57ED
100
AcDbEntity
  8
AM_5
100
AcDbLine
 10
576.6988446078096
 20
-122.6601064904388
 30
0.0
 11
574.5988866069695
 21
-122.6601064904388
 31
0.0
  0
LINE
  5
59E0
330
57ED
100
AcDbEntity
  8
AM_5
100
AcDbLine
 10
584.3987606094895
 20
-122.6601064904388
 30
0.0
 11
591.4301023054369
 21
-122.6601064904388
 31
0.0
  0
LINE
  5
59E1
330
57ED
100
AcDbEntity
  8
AM_5
100
AcDbLine
 10
578.7988026086495
 20
-122.6601064904388
 30
0.0
 11
582.2988026086496
 21
-122.6601064904388
 31
0.0
  0
INSERT
  5
59E2
330
57ED
100
AcDbEntity
  8
AM_5
100
AcDbBlockReference
  2
GENDOT
 10
578.7988026086495
 20
-122.6601064904388
 30
0.0
 41
2.099958000839983
 42
2.099958000839983
 43
2.099958000839983
  0
SOLID
  5
59E3
330
57ED
100
AcDbEntity
  8
AM_5
100
AcDbTrace
 10
584.3987606094895
 20
-122.3101134902988
 30
0.0
 11
584.3987606094895
 21
-123.0100994905788
 31
0.0
 12
582.2988026086496
 22
-122.6601064904388
 32
0.0
 13
582.2988026086496
 23
-122.6601064904388
 33
0.0
  0
MTEXT
  5
59E4
330
57ED
100
AcDbEntity
  8
AM_5
100
AcDbMText
 10
588.9644104578833
 20
-120.7351449896689
 30
0.0
 40
2.44995100097998
 41
0.0
 71
     5
 72
     1
  1
3.5
 73
     1
 44
1.0
1001
ACAD
1000
MTEXTBEGIN
1070
    73
1070
     1
1070
    44
1040
1.0
1070
    74
1070
     0
1000
MTEXTEND
  0
POINT
  5
59E5
330
57ED
100
AcDbEntity
  8
Defpoints
 62
     0
100
AcDbPoint
 10
578.7988026086495
 20
-111.2602744870789
 30
0.0
  0
POINT
  5
59E6
330
57ED
100
AcDbEntity
  8
Defpoints
 62
     0
100
AcDbPoint
 10
582.2988026086496
 20
-109.2602744870789
 30
0.0
  0
POINT
  5
59E7
330
57ED
100
AcDbEntity
  8
Defpoints
 62
     0
100
AcDbPoint
 10
582.2988026086496
 20
-122.6601064904388
 30
0.0
  0
ENDBLK
  5
57FA
330
57ED
100
AcDbEntity
  8
0
100
AcDbBlockEnd
  0
BLOCK
  5
582D
330
5821
100
AcDbEntity
  8
0
100
AcDbBlockBegin
  2
*D24
 70
     1
 10
0.0
 20
0.0
 30
0.0
  3
*D24
  1

  0
LINE
  5
59E8
330
5821
100
AcDbEntity
  8
AM_5
100
AcDbLine
 10
575.2988026086495
 20
-113.9602604873589
 30
0.0
 11
575.2988026086495
 21
-123.3600924907188
 31
0.0
  0
LINE
  5
59E9
330
5821
100
AcDbEntity
  8
AM_5
100
AcDbLine
 10
578.7988026086495
 20
-111.9602604873589
 30
0.0
 11
578.7988026086495
 21
-123.3600924907188
 31
0.0
  0
LINE
  5
59EA
330
5821
100
AcDbEntity
  8
AM_5
100
AcDbLine
 10
580.8987606094895
 20
-122.6601064904388
 30
0.0
 11
582.9987186103295
 21
-122.6601064904388
 31
0.0
  0
LINE
  5
59EB
330
5821
100
AcDbEntity
  8
AM_5
100
AcDbLine
 10
573.1988446078096
 20
-122.6601064904388
 30
0.0
 11
566.1675029118621
 21
-122.6601064904388
 31
0.0
  0
LINE
  5
59EC
330
5821
100
AcDbEntity
  8
AM_5
100
AcDbLine
 10
578.7988026086495
 20
-122.6601064904388
 30
0.0
 11
575.2988026086495
 21
-122.6601064904388
 31
0.0
  0
INSERT
  5
59ED
330
5821
100
AcDbEntity
  8
AM_5
100
AcDbBlockReference
  2
GENDOT
 10
578.7988026086495
 20
-122.6601064904388
 30
0.0
 41
2.099958000839983
 42
2.099958000839983
 43
2.099958000839983
 50
180.0
  0
SOLID
  5
59EE
330
5821
100
AcDbEntity
  8
AM_5
100
AcDbTrace
 10
573.1988446078096
 20
-122.3101134902988
 30
0.0
 11
573.1988446078096
 21
-123.0100994905788
 31
0.0
 12
575.2988026086495
 22
-122.6601064904388
 32
0.0
 13
575.2988026086495
 23
-122.6601064904388
 33
0.0
  0
MTEXT
  5
59EF
330
5821
100
AcDbEntity
  8
AM_5
100
AcDbMText
 10
568.6331947594157
 20
-120.7351449896689
 30
0.0
 40
2.44995100097998
 41
0.0
 71
     5
 72
     1
  1
3.5
 73
     1
 44
1.0
1001
ACAD
1000
MTEXTBEGIN
1070
    73
1070
     1
1070
    44
1040
1.0
1070
    74
1070
     0
1000
MTEXTEND
  0
POINT
  5
59F0
330
5821
100
AcDbEntity
  8
Defpoints
 62
     0
100
AcDbPoint
 10
575.2988026086495
 20
-113.2602744870789
 30
0.0
  0
POINT
  5
59F1
330
5821
100
AcDbEntity
  8
Defpoints
 62
     0
100
AcDbPoint
 10
578.7988026086495
 20
-111.2602744870789
 30
0.0
  0
POINT
  5
59F2
330
5821
100
AcDbEntity
  8
Defpoints
 62
     0
100
AcDbPoint
 10
578.7988026086495
 20
-122.6601064904388
 30
0.0
  0
ENDBLK
  5
582E
330
5821
100
AcDbEntity
  8
0
100
AcDbBlockEnd
  0
BLOCK
  5
583F
330
583C
100
AcDbEntity
  8
0
100
AcDbBlockBegin
  2
GENDOT
 70
     0
 10
0.0
 20
0.0
 30
0.0
  3
GENDOT
  1

  0
LINE
  5
583D
330
583C
100
AcDbEntity
  8
0
100
AcDbLine
 10
0.0
 20
0.0
 30
0.0
 11
-1.0
 21
0.0
 31
0.0
  0
LWPOLYLINE
  5
583E
330
583C
100
AcDbEntity
  8
0
100
AcDbPolyline
 90
        2
 70
     1
 43
0.25
 10
-0.125
 20
0.0
 42
1.0
 10
0.125
 20
0.0
 42
1.0
  0
ENDBLK
  5
5840
330
583C
100
AcDbEntity
  8
0
100
AcDbBlockEnd
  0
BLOCK
  5
58B2
330
58A8
100
AcDbEntity
  8
0
100
AcDbBlockBegin
  2
*D26
 70
     1
 10
0.0
 20
0.0
 30
0.0
  3
*D26
  1

  0
LINE
  5
59F3
330
58A8
100
AcDbEntity
  8
AM_5
100
AcDbLine
 10
575.8488166083695
 20
-114.7602744870789
 30
0.0
 11
525.8989846050097
 21
-114.7602744870789
 31
0.0
  0
LINE
  5
59F4
330
58A8
100
AcDbEntity
  8
AM_5
100
AcDbLine
 10
582.8488166083696
 20
-103.7602744870789
 30
0.0
 11
525.8989846050097
 21
-103.7602744870789
 31
0.0
  0
LINE
  5
59F5
330
58A8
100
AcDbEntity
  8
AM_5
100
AcDbLine
 10
526.5989706052896
 20
-112.6603164862389
 30
0.0
 11
526.5989706052896
 21
-105.8602324879189
 31
0.0
  0
SOLID
  5
59F6
330
58A8
100
AcDbEntity
  8
AM_5
100
AcDbTrace
 10
526.2489776051496
 20
-112.6603164862389
 30
0.0
 11
526.9489636054296
 21
-112.6603164862389
 31
0.0
 12
526.5989706052896
 22
-114.7602744870789
 32
0.0
 13
526.5989706052896
 23
-114.7602744870789
 33
0.0
  0
SOLID
  5
59F7
330
58A8
100
AcDbEntity
  8
AM_5
100
AcDbTrace
 10
526.2489776051496
 20
-105.8602324879189
 30
0.0
 11
526.9489636054296
 21
-105.8602324879189
 31
0.0
 12
526.5989706052896
 22
-103.7602744870789
 32
0.0
 13
526.5989706052896
 23
-103.7602744870789
 33
0.0
  0
MTEXT
  5
59F8
330
58A8
100
AcDbEntity
  8
AM_5
100
AcDbMText
 10
524.6740091045196
 20
-109.2602744870788
 30
0.0
 40
2.44995100097998
 41
0.0
 71
     5
 72
     1
  1
11
 11
0.0000000000000001
 21
1.0
 31
0.0
 73
     1
 44
1.0
1001
ACAD
1000
MTEXTBEGIN
1070
    73
1070
     1
1070
    44
1040
1.0
1070
    74
1070
     0
1000
MTEXTEND
  0
POINT
  5
59F9
330
58A8
100
AcDbEntity
  8
Defpoints
 62
     0
100
AcDbPoint
 10
576.5488026086496
 20
-114.7602744870789
 30
0.0
  0
POINT
  5
59FA
330
58A8
100
AcDbEntity
  8
Defpoints
 62
     0
100
AcDbPoint
 10
583.5488026086495
 20
-103.7602744870789
 30
0.0
  0
POINT
  5
59FB
330
58A8
100
AcDbEntity
  8
Defpoints
 62
     0
100
AcDbPoint
 10
526.5989706052896
 20
-103.7602744870789
 30
0.0
  0
ENDBLK
  5
58B3
330
58A8
100
AcDbEntity
  8
0
100
AcDbBlockEnd
  0
BLOCK
  5
58FA
330
58F0
100
AcDbEntity
  8
0
100
AcDbBlockBegin
  2
*D27
 70
     1
 10
0.0
 20
0.0
 30
0.0
  3
*D27
  1

  0
LINE
  5
5B51
330
58F0
100
AcDbEntity
  8
AM_5
100
AcDbLine
 10
613.7987886089295
 20
-64.31794927514488
 30
0.0
 11
633.3109144204313
 21
-64.31794927514488
 31
0.0
  0
LINE
  5
5B52
330
58F0
100
AcDbEntity
  8
AM_5
100
AcDbLine
 10
600.7987886089295
 20
-49.31794927514491
 30
0.0
 11
633.3109144204313
 21
-49.31794927514491
 31
0.0
  0
LINE
  5
5B53
330
58F0
100
AcDbEntity
  8
AM_5
100
AcDbLine
 10
632.6109284201513
 20
-62.2179912743049
 30
0.0
 11
632.6109284201513
 21
-51.4179072759849
 31
0.0
  0
SOLID
  5
5B54
330
58F0
100
AcDbEntity
  8
AM_5
100
AcDbTrace
 10
632.2609354200113
 20
-62.2179912743049
 30
0.0
 11
632.9609214202913
 21
-62.2179912743049
 31
0.0
 12
632.6109284201513
 22
-64.31794927514488
 32
0.0
 13
632.6109284201513
 23
-64.31794927514488
 33
0.0
  0
SOLID
  5
5B55
330
58F0
100
AcDbEntity
  8
AM_5
100
AcDbTrace
 10
632.2609354200113
 20
-51.4179072759849
 30
0.0
 11
632.9609214202913
 21
-51.4179072759849
 31
0.0
 12
632.6109284201513
 22
-49.31794927514491
 32
0.0
 13
632.6109284201513
 23
-49.31794927514491
 33
0.0
  0
MTEXT
  5
5B56
330
58F0
100
AcDbEntity
  8
AM_5
100
AcDbMText
 10
630.6859669193813
 20
-56.81794927514481
 30
0.0
 40
2.44995100097998
 41
0.0
 71
     5
 72
     1
  1
15
 11
0.0000000000000001
 21
1.0
 31
0.0
 73
     1
 44
1.0
1001
ACAD
1000
MTEXTBEGIN
1070
    73
1070
     1
1070
    44
1040
1.0
1070
    74
1070
     0
1000
MTEXTEND
  0
POINT
  5
5B57
330
58F0
100
AcDbEntity
  8
Defpoints
 62
     0
100
AcDbPoint
 10
613.0988026086495
 20
-64.31794927514488
 30
0.0
  0
POINT
  5
5B58
330
58F0
100
AcDbEntity
  8
Defpoints
 62
     0
100
AcDbPoint
 10
600.0988026086495
 20
-49.31794927514491
 30
0.0
  0
POINT
  5
5B59
330
58F0
100
AcDbEntity
  8
Defpoints
 62
     0
100
AcDbPoint
 10
632.6109284201513
 20
-49.31794927514491
 30
0.0
  0
ENDBLK
  5
58FB
330
58F0
100
AcDbEntity
  8
0
100
AcDbBlockEnd
  0
BLOCK
  5
5926
330
591A
100
AcDbEntity
  8
0
100
AcDbBlockBegin
  2
*D28
 70
     1
 10
0.0
 20
0.0
 30
0.0
  3
*D28
  1

  0
LINE
  5
5B46
330
591A
100
AcDbEntity
  8
AM_5
100
AcDbLine
 10
586.3487886089295
 20
-49.31794927514494
 30
0.0
 11
588.5146198112681
 21
-49.31794927514494
 31
0.0
  0
LINE
  5
5B47
330
591A
100
AcDbEntity
  8
AM_5
100
AcDbLine
 10
586.3487886089295
 20
-50.71794927514495
 30
0.0
 11
588.5146198112681
 21
-50.71794927514495
 31
0.0
  0
LINE
  5
5B48
330
591A
100
AcDbEntity
  8
AM_5
100
AcDbLine
 10
587.8146338109882
 20
-52.81790727598493
 30
0.0
 11
587.8146338109882
 21
-54.91786527682491
 31
0.0
  0
LINE
  5
5B49
330
591A
100
AcDbEntity
  8
AM_5
100
AcDbLine
 10
587.8146338109882
 20
-47.21799127430496
 30
0.0
 11
587.8146338109882
 21
-40.53312497163098
 31
0.0
  0
LINE
  5
5B4A
330
591A
100
AcDbEntity
  8
AM_5
100
AcDbLine
 10
587.8146338109882
 20
-50.71794927514495
 30
0.0
 11
587.8146338109882
 21
-49.31794927514494
 31
0.0
  0
SOLID
  5
5B4B
330
591A
100
AcDbEntity
  8
AM_5
100
AcDbTrace
 10
587.4646408108482
 20
-52.81790727598493
 30
0.0
 11
588.1646268111281
 21
-52.81790727598493
 31
0.0
 12
587.8146338109882
 22
-50.71794927514495
 32
0.0
 13
587.8146338109882
 23
-50.71794927514495
 33
0.0
  0
SOLID
  5
5B4C
330
591A
100
AcDbEntity
  8
AM_5
100
AcDbTrace
 10
587.4646408108482
 20
-47.21799127430496
 30
0.0
 11
588.1646268111281
 21
-47.21799127430496
 31
0.0
 12
587.8146338109882
 22
-49.31794927514494
 32
0.0
 13
587.8146338109882
 23
-49.31794927514494
 33
0.0
  0
MTEXT
  5
5B4D
330
591A
100
AcDbEntity
  8
AM_5
100
AcDbMText
 10
585.8896723102182
 20
-42.82557912254786
 30
0.0
 40
2.44995100097998
 41
0.0
 71
     5
 72
     1
  1
1.4
 11
0.0000000000000001
 21
1.0
 31
0.0
 73
     1
 44
1.0
1001
ACAD
1000
MTEXTBEGIN
1070
    73
1070
     1
1070
    44
1040
1.0
1070
    74
1070
     0
1000
MTEXTEND
  0
POINT
  5
5B4E
330
591A
100
AcDbEntity
  8
Defpoints
 62
     0
100
AcDbPoint
 10
585.6488026086496
 20
-49.31794927514494
 30
0.0
  0
POINT
  5
5B4F
330
591A
100
AcDbEntity
  8
Defpoints
 62
     0
100
AcDbPoint
 10
585.6488026086496
 20
-50.71794927514495
 30
0.0
  0
POINT
  5
5B50
330
591A
100
AcDbEntity
  8
Defpoints
 62
     0
100
AcDbPoint
 10
587.8146338109882
 20
-50.71794927514495
 30
0.0
  0
ENDBLK
  5
5927
330
591A
100
AcDbEntity
  8
0
100
AcDbBlockEnd
  0
ENDSEC
  0
SECTION
  2
ENTITIES
  0
POINT
  5
25
330
2
100
AcDbEntity
  8
0
 60
     1
100
AcDbPoint
 10
0.0
 20
0.0
 30
0.0
  0
POINT
  5
26
330
2
100
AcDbEntity
  8
0
 60
     1
100
AcDbPoint
 10
0.0
 20
0.0
 30
0.0
  0
POINT
  5
27
330
2
100
AcDbEntity
  8
0
 60
     1
100
AcDbPoint
 10
0.0
 20
0.0
 30
0.0
  0
POINT
  5
28
330
2
100
AcDbEntity
  8
0
 60
     1
100
AcDbPoint
 10
0.0
 20
0.0
 30
0.0
  0
POINT
  5
29
330
2
100
AcDbEntity
  8
0
 60
     1
100
AcDbPoint
 10
0.0
 20
0.0
 30
0.0
  0
POINT
  5
2A
330
2
100
AcDbEntity
  8
0
 60
     1
100
AcDbPoint
 10
0.0
 20
0.0
 30
0.0
  0
POINT
  5
2B
330
2
100
AcDbEntity
  8
0
 60
     1
100
AcDbPoint
 10
0.0
 20
0.0
 30
0.0
  0
POINT
  5
2C
330
2
100
AcDbEntity
  8
0
 60
     1
100
AcDbPoint
 10
0.0
 20
0.0
 30
0.0
  0
POINT
  5
2D
330
2
100
AcDbEntity
  8
0
 60
     1
100
AcDbPoint
 10
0.0
 20
0.0
 30
0.0
  0
POINT
  5
2E
330
2
100
AcDbEntity
  8
0
 60
     1
100
AcDbPoint
 10
0.0
 20
0.0
 30
0.0
  0
POINT
  5
2F
330
2
100
AcDbEntity
  8
0
 60
     1
100
AcDbPoint
 10
0.0
 20
0.0
 30
0.0
  0
POINT
  5
30
330
2
100
AcDbEntity
  8
0
 60
     1
100
AcDbPoint
 10
0.0
 20
0.0
 30
0.0
  0
DIMENSION
  5
31
330
2
100
AcDbEntity
  8
AM_PARDIM
 60
     1
100
AcDbDimension
  2
*D1
 10
114.5325708695175
 20
128.6938113892625
 30
0.0
 11
111.7822263813285
 21
122.4438113892625
 31
0.0
 70
    32
  1
<>
 71
     5
 42
12.50000000000001
  3
AM_ISO$0
100
AcDbAlignedDimension
 13
75.37464887656421
 23
116.1938113892625
 33
0.0
 14
75.37464887656421
 24
128.6938113892625
 34
0.0
 50
90.0
100
AcDbRotatedDimension
1001
ACAD_DIMASSOC_CALC_DIMLFAC
1040
-1.0
1001
AD_SKETCHDIM
1005
0
1000
d0
1001
ACAD_DIMASSOC_DIMLFAC
1040
-1.0
1001
ACAD
1000
DSTYLE
1002
{
1070
   144
1040
-1.0
1002
}
  0
DIMENSION
  5
43
330
2
100
AcDbEntity
  8
AM_PARDIM
 60
     1
100
AcDbDimension
  2
*D2
 10
26.87464887656421
 20
122.1938113892625
 30
0.0
 11
24.12464887656419
 21
119.1938113892625
 31
0.0
 70
    32
  1
<>
 71
     5
 42
6.0
  3
AM_ISO$0
100
AcDbAlignedDimension
 13
38.87464887656421
 23
116.1938113892625
 33
0.0
 14
38.87464887656421
 24
122.1938113892625
 34
0.0
 50
90.0
100
AcDbRotatedDimension
1001
ACAD_DIMASSOC_CALC_DIMLFAC
1040
-1.0
1001
AD_SKETCHDIM
1005
0
1000
d1
1001
ACAD_DIMASSOC_DIMLFAC
1040
-1.0
1001
ACAD
1000
DSTYLE
1002
{
1070
   144
1040
-1.0
1002
}
  0
DIMENSION
  5
52
330
2
100
AcDbEntity
  8
AM_PARDIM
 60
     1
100
AcDbDimension
  2
*D3
 10
50.87464887656421
 20
140.6938113892625
 30
0.0
 11
44.87464887656421
 21
143.4441558774515
 31
0.0
 70
    32
  1
<>
 71
     5
 42
12.0
  3
AM_ISO$0
100
AcDbAlignedDimension
 13
38.87464887656421
 23
122.1938113892625
 33
0.0
 14
50.87464887656421
 24
122.1938113892625
 34
0.0
100
AcDbRotatedDimension
1001
ACAD_DIMASSOC_CALC_DIMLFAC
1040
-1.0
1001
AD_SKETCHDIM
1005
0
1000
d2
1001
ACAD_DIMASSOC_DIMLFAC
1040
-1.0
1001
ACAD
1000
DSTYLE
1002
{
1070
   144
1040
-1.0
1002
}
  0
DIMENSION
  5
5F
330
2
100
AcDbEntity
  8
AM_PARDIM
 60
     1
100
AcDbDimension
  2
*D4
 10
75.37464887656421
 20
160.6938113892625
 30
0.0
 11
57.12464887656421
 21
163.4438113892625
 31
0.0
 70
    32
  1
<>
 71
     5
 42
36.5
  3
AM_ISO$0
100
AcDbAlignedDimension
 13
38.87464887656421
 23
116.1938113892625
 33
0.0
 14
75.37464887656421
 24
116.1938113892625
 34
0.0
100
AcDbRotatedDimension
1001
ACAD_DIMASSOC_CALC_DIMLFAC
1040
-1.0
1001
AD_SKETCHDIM
1005
0
1000
d3
1001
ACAD_DIMASSOC_DIMLFAC
1040
-1.0
1001
ACAD
1000
DSTYLE
1002
{
1070
   144
1040
-1.0
1002
}
  0
DIMENSION
  5
6C
330
2
100
AcDbEntity
  8
AM_PARDIM
 60
     1
100
AcDbDimension
  2
*D5
 10
104.5325708695175
 20
116.1938113892625
 30
0.0
 11
101.7825708695175
 21
121.6938113892625
 31
0.0
 70
    32
  1
<>
 71
     5
 42
11.0
  3
AM_ISO$0
100
AcDbAlignedDimension
 13
50.87464887656421
 23
127.1938113892625
 33
0.0
 14
75.37464887656421
 24
116.1938113892625
 34
0.0
 50
90.0
100
AcDbRotatedDimension
1001
ACAD_DIMASSOC_CALC_DIMLFAC
1040
-1.0
1001
AD_SKETCHDIM
1005
0
1000
d4
1001
ACAD_DIMASSOC_DIMLFAC
1040
-1.0
1001
ACAD
1000
DSTYLE
1002
{
1070
   144
1040
-1.0
1002
}
  0
DIMENSION
  5
79
330
2
100
AcDbEntity
  8
AM_PARDIM
 60
     1
100
AcDbDimension
  2
*D6
 10
75.37464887656421
 20
150.6938113892625
 30
0.0
 11
70.87464887656421
 21
153.4438113892625
 31
0.0
 70
    32
  1
<>
 71
     5
 42
9.0
  3
AM_ISO$0
100
AcDbAlignedDimension
 13
66.3746488765642
 23
128.6938113892625
 33
0.0
 14
75.37464887656421
 24
128.6938113892625
 34
0.0
100
AcDbRotatedDimension
1001
ACAD_DIMASSOC_CALC_DIMLFAC
1040
-1.0
1001
AD_SKETCHDIM
1005
0
1000
d5
1001
ACAD_DIMASSOC_DIMLFAC
1040
-1.0
1001
ACAD
1000
DSTYLE
1002
{
1070
   144
1040
-1.0
1002
}
  0
DIMENSION
  5
86
330
2
100
AcDbEntity
  8
AM_PARDIM
 60
     1
100
AcDbDimension
  2
*D7
 10
66.37464887656418
 20
140.6938113892625
 30
0.0
 11
75.94157522635743
 21
143.4441558774515
 31
0.0
 70
    32
  1
<>
 71
     5
 42
2.5
  3
AM_ISO$0
100
AcDbAlignedDimension
 13
63.87464887656418
 23
128.6938113892624
 33
0.0
 14
66.37464887656418
 24
128.6938113892624
 34
0.0
100
AcDbRotatedDimension
1001
ACAD_DIMASSOC_CALC_DIMLFAC
1040
-1.0
1001
AD_SKETCHDIM
1005
0
1000
d25
1001
ACAD_DIMASSOC_DIMLFAC
1040
-1.0
1001
ACAD
1000
DSTYLE
1002
{
1070
   144
1040
-1.0
1002
}
  0
DIMENSION
  5
95
330
2
100
AcDbEntity
  8
AM_PARDIM
 60
     1
100
AcDbDimension
  2
*D8
 10
66.37464887656418
 20
136.030378563861
 30
0.0
 11
74.07740478207599
 21
138.780378563861
 31
0.0
 70
    32
  1
<>
 71
     5
 42
0.0
  3
AM_ISO$0
100
AcDbAlignedDimension
 13
66.37464887656418
 23
128.6938113892624
 33
0.0
 14
66.37464887656418
 24
116.1938113892624
 34
0.0
100
AcDbRotatedDimension
1001
ACAD_DIMASSOC_CALC_DIMLFAC
1040
-1.0
1001
AD_SKETCHDIM
1005
0
1000
d26
1001
ACAD_DIMASSOC_DIMLFAC
1040
-1.0
1001
ACAD
1000
DSTYLE
1002
{
1070
   144
1040
-1.0
1002
}
  0
DIMENSION
  5
A3
330
2
100
AcDbEntity
  8
AM_PARDIM
 60
     1
100
AcDbDimension
  2
*D9
 10
94.53257086951754
 20
116.1938113892624
 30
0.0
 11
91.78257086951752
 21
120.9438113892624
 31
0.0
 70
    32
  1
<>
 71
     5
 42
9.5
  3
AM_ISO$0
100
AcDbAlignedDimension
 13
63.87464887656418
 23
125.6938113892624
 33
0.0
 14
82.53257086951753
 24
116.1938113892624
 34
0.0
 50
90.0
100
AcDbRotatedDimension
1001
ACAD_DIMASSOC_CALC_DIMLFAC
1040
-1.0
1001
AD_SKETCHDIM
1005
0
1000
d27
1001
ACAD_DIMASSOC_DIMLFAC
1040
-1.0
1001
ACAD
1000
DSTYLE
1002
{
1070
   144
1040
-1.0
1002
}
  0
DIMENSION
  5
B0
330
2
100
AcDbEntity
  8
AM_PARDIM
 60
     1
100
AcDbDimension
  2
*D10
 10
124.5325708695175
 20
116.1938113892624
 30
0.0
 11
121.7822263813285
 21
122.4438113892624
 31
0.0
 70
    32
  1
<>
 71
     5
 42
12.50000000000004
  3
AM_ISO$0
100
AcDbAlignedDimension
 13
66.37464887656418
 23
128.6938113892624
 33
0.0
 14
82.53257086951753
 24
116.1938113892624
 34
0.0
 50
90.0
100
AcDbRotatedDimension
1001
ACAD_DIMASSOC_CALC_DIMLFAC
1040
-1.0
1001
AD_SKETCHDIM
1005
0
1000
d28
1001
ACAD_DIMASSOC_DIMLFAC
1040
-1.0
1001
ACAD
1000
DSTYLE
1002
{
1070
   144
1040
-1.0
1002
}
  0
LINE
  5
C8
330
2
100
AcDbEntity
  8
AM_7
 60
     1
100
AcDbLine
 10
36.3746488765642
 20
116.1938113892625
 30
0.0
 11
51.3746488765642
 21
116.1938113892625
 31
0.0
  0
MTEXT
  5
151
330
2
100
AcDbEntity
  8
AM_5
 62
     5
100
AcDbMText
 10
33.56078100938999
 20
98.94002315335121
 30
0.0
 40
3.5
 41
0.0
 71
     9
 72
     5
  1

  7
ACISOTS
 73
     1
 44
1.0
1001
ACAD
1000
MTEXTBEGIN
1070
    73
1070
     1
1070
    44
1040
1.0
1070
    74
1070
     0
1000
MTEXTEND
  0
MTEXT
  5
156
330
2
100
AcDbEntity
  8
AM_5
 62
     5
100
AcDbMText
 10
67.11527269722637
 20
92.4148402526181
 30
0.0
 40
3.5
 41
0.0
 71
     9
 72
     5
  1

  7
ACISOTS
 73
     1
 44
1.0
1001
ACAD
1000
MTEXTBEGIN
1070
    73
1070
     1
1070
    44
1040
1.0
1070
    74
1070
     0
1000
MTEXTEND
  0
TEXT
  5
13E2
330
2
100
AcDbEntity
  8
LOGO
  6
Continuous
 62
     7
100
AcDbText
 10
581.3681225899302
 20
-143.8833963386157
 30
0.0
 40
3.083734080377228
  1
MVSF
  7
CHINESET
 72
     1
 11
587.0216350706218
 21
-142.341529298427
 31
0.0
100
AcDbText
 73
     2
  0
LINE
  5
13E5
330
2
100
AcDbEntity
  8
LOGO
 62
     4
100
AcDbLine
 10
594.4225968635274
 20
-139.5661686260875
 30
0.0
 11
579.6206732777168
 21
-139.5661686260875
 31
0.0
  0
LINE
  5
13E6
330
2
100
AcDbEntity
  8
LOGO
 62
     4
100
AcDbLine
 10
594.4225968635274
 20
-145.1168899707665
 30
0.0
 11
579.6206732777168
 21
-145.1168899707665
 31
0.0
  0
LINE
  5
13E7
330
2
100
AcDbEntity
  8
LOGO
 62
     4
100
AcDbLine
 10
591.8989635697328
 20
-147.892250643106
 30
0.0
 11
581.9139253193115
 21
-147.892250643106
 31
0.0
  0
LINE
  5
13E8
330
2
100
AcDbEntity
  8
LOGO
 62
     4
100
AcDbLine
 10
591.8989635697328
 20
-154.6764656199359
 30
0.0
 11
581.9139253193115
 21
-154.676465619936
 31
0.0
  0
LINE
  5
14D1
330
2
100
AcDbEntity
  8
LOGO
 62
     4
100
AcDbLine
 10
579.6206732777168
 20
-139.5661686260875
 30
0.0
 11
579.6206732777168
 21
-145.1168899707665
 31
0.0
  0
LINE
  5
14D2
330
2
100
AcDbEntity
  8
LOGO
 62
     4
100
AcDbLine
 10
581.9139253193115
 20
-147.892250643106
 30
0.0
 11
581.9139253193115
 21
-154.676465619936
 31
0.0
  0
TEXT
  5
14D3
330
2
100
AcDbEntity
  8
LOGO
100
AcDbText
 10
584.2905850706219
 20
-153.9087358383994
 30
0.0
 40
1.606499999999999
  1
Model
 72
     4
 11
587.0216350706218
 21
-153.1345985797474
 31
0.0
100
AcDbText
  0
TEXT
  5
14D4
330
2
100
AcDbEntity
  8
LOGO
100
AcDbText
 10
584.6118850706218
 20
-151.1940726686614
 30
0.0
 40
2.409749999999999
  1
型式
  7
CHINESET
 72
     4
 11
587.0216350706218
 21
-150.0508644993701
 31
0.0
100
AcDbText
  0
LINE
  5
14D5
330
2
100
AcDbEntity
  8
LOGO
 62
     4
100
AcDbLine
 10
587.0216350706218
 20
-145.1168899707665
 30
0.0
 11
587.0216350706218
 21
-147.892250643106
 31
0.0
  0
LINE
  5
14DF
330
2
100
AcDbEntity
  8
LOGO
  6
Continuous
 62
     7
100
AcDbLine
 10
629.3127916331972
 20
-142.3415292984269
 30
0.0
 11
631.763787642185
 21
-142.3415292984269
 31
0.0
  0
TEXT
  5
14E0
330
2
100
AcDbEntity
  8
LOGO
100
AcDbText
 10
623.2827268590557
 20
-151.1519731976968
 30
0.0
 40
2.409749999999999
  1
雙線圈
  7
CHINESET
 72
     4
 11
626.8471487340557
 21
-150.05086449937
 31
0.0
100
AcDbText
  0
LINE
  5
14E1
330
2
100
AcDbEntity
  8
LOGO
 62
     4
100
AcDbLine
 10
635.7022759178319
 20
-147.892250643106
 30
0.0
 11
619.3177258729167
 21
-147.892250643106
 31
0.0
  0
LINE
  5
14E2
330
2
100
AcDbEntity
  8
LOGO
 62
     4
100
AcDbLine
 10
635.7022759178319
 20
-154.6764656199359
 30
0.0
 11
619.3177258729167
 21
-154.6764656199359
 31
0.0
  0
TEXT
  5
14E3
330
2
100
AcDbEntity
  8
LOGO
100
AcDbText
 10
620.1026817482945
 20
-153.9378485797473
 30
0.0
 40
1.606499999999999
  1
Double solenoid
 72
     4
 11
627.5749148732946
 21
-153.1345985797473
 31
0.0
100
AcDbText
  0
LINE
  5
14EB
330
2
100
AcDbEntity
  8
LOGO
 62
     4
100
AcDbLine
 10
612.3924104745543
 20
-139.5661686260875
 30
0.0
 11
598.7898102697317
 21
-139.5661686260875
 31
0.0
  0
LINE
  5
14EC
330
2
100
AcDbEntity
  8
LOGO
 62
     4
100
AcDbLine
 10
612.3924104745543
 20
-145.1168899707665
 30
0.0
 11
598.7898102697317
 21
-145.1168899707665
 31
0.0
  0
LINE
  5
14F4
330
2
100
AcDbEntity
  8
LOGO
 62
     4
100
AcDbLine
 10
607.5138297301454
 20
-147.892250643106
 30
0.0
 11
593.9112295253226
 21
-147.892250643106
 31
0.0
  0
LINE
  5
14F5
330
2
100
AcDbEntity
  8
LOGO
 62
     4
100
AcDbLine
 10
607.5138297301454
 20
-154.6764656199359
 30
0.0
 11
593.9112295253226
 21
-154.676465619936
 31
0.0
  0
TEXT
  5
14F6
330
2
100
AcDbEntity
  8
LOGO
100
AcDbText
 10
595.4622918863861
 20
-153.6968735797473
 30
0.0
 40
1.606499999999999
  1
Body width
 72
     4
 11
600.712529627734
 21
-153.1345985797474
 31
0.0
100
AcDbText
  0
TEXT
  5
14F7
330
2
100
AcDbEntity
  8
LOGO
100
AcDbText
 10
595.893029627734
 20
-151.2133435532579
 30
0.0
 40
2.409749999999999
  1
本體寬幅
  7
CHINESET
 72
     4
 11
600.712529627734
 21
-150.0508644993701
 31
0.0
100
AcDbText
  0
LINE
  5
14F8
330
2
100
AcDbEntity
  8
LOGO
 62
     4
100
AcDbLine
 10
598.7898102697317
 20
-139.5661686260875
 30
0.0
 11
598.7898102697317
 21
-145.1168899707665
 31
0.0
  0
LINE
  5
14F9
330
2
100
AcDbEntity
  8
LOGO
 62
     4
100
AcDbLine
 10
594.4225968635274
 20
-139.5661686260875
 30
0.0
 11
594.4225968635274
 21
-145.1168899707665
 31
0.0
  0
LINE
  5
14FA
330
2
100
AcDbEntity
  8
LOGO
  6
Continuous
 62
     7
100
AcDbLine
 10
595.378902732231
 20
-142.3611908306512
 30
0.0
 11
597.8298987412194
 21
-142.3611908306512
 31
0.0
  0
LINE
  5
14FB
330
2
100
AcDbEntity
  8
LOGO
 62
     4
100
AcDbLine
 10
593.9112295253226
 20
-147.892250643106
 30
0.0
 11
593.9112295253226
 21
-154.6764656199359
 31
0.0
  0
LINE
  5
14FC
330
2
100
AcDbEntity
  8
LOGO
 62
     4
100
AcDbLine
 10
591.8989635697328
 20
-147.892250643106
 30
0.0
 11
591.8989635697328
 21
-154.6764656199359
 31
0.0
  0
TEXT
  5
1509
330
2
100
AcDbEntity
  8
LOGO
  6
Continuous
 62
     7
100
AcDbText
 10
600.3047090914965
 20
-143.9183660774017
 30
0.0
 40
3.083734080377228
  1
100M
  7
CHINESET
 72
     1
 11
605.5911103721432
 21
-142.3764990372131
 31
0.0
100
AcDbText
 73
     2
  0
LINE
  5
150A
330
2
100
AcDbEntity
  8
LOGO
 62
     4
100
AcDbLine
 10
605.5911103721432
 20
-146.5045703069363
 30
0.0
 11
600.0805252968516
 21
-146.5045703069363
 31
0.0
  0
LINE
  5
150B
330
2
100
AcDbEntity
  8
LOGO
 62
     4
100
AcDbLine
 10
600.0805252968516
 20
-147.892250643106
 30
0.0
 11
600.0805252968516
 21
-146.5045703069363
 31
0.0
  0
LINE
  5
150C
330
2
100
AcDbEntity
  8
LOGO
 62
     4
100
AcDbLine
 10
605.5911103721432
 20
-145.1168899707665
 30
0.0
 11
605.5911103721432
 21
-146.5045703069363
 31
0.0
  0
LINE
  5
150D
330
2
100
AcDbEntity
  8
LOGO
 62
     4
100
AcDbLine
 10
607.5138297301454
 20
-147.892250643106
 30
0.0
 11
607.5138297301454
 21
-154.6764656199359
 31
0.0
  0
LINE
  5
1533
330
2
100
AcDbEntity
  8
LOGO
 62
     4
100
AcDbLine
 10
620.4942750283741
 20
-139.5661686260874
 30
0.0
 11
616.7596238807586
 21
-139.5661686260875
 31
0.0
  0
LINE
  5
1534
330
2
100
AcDbEntity
  8
LOGO
 62
     4
100
AcDbLine
 10
618.0169222116071
 20
-147.892250643106
 30
0.0
 11
608.1148029032371
 21
-147.892250643106
 31
0.0
  0
LINE
  5
1535
330
2
100
AcDbEntity
  8
LOGO
 62
     4
100
AcDbLine
 10
620.4942750283741
 20
-145.1168899707665
 30
0.0
 11
616.7596238807586
 21
-145.1168899707665
 31
0.0
  0
LINE
  5
1536
330
2
100
AcDbEntity
  8
LOGO
 62
     4
100
AcDbLine
 10
618.0169222116071
 20
-154.6764656199359
 30
0.0
 11
608.1148029032371
 21
-154.6764656199359
 31
0.0
  0
LINE
  5
1537
330
2
100
AcDbEntity
  8
LOGO
 62
     4
100
AcDbLine
 10
612.3924104745543
 20
-139.5661686260875
 30
0.0
 11
612.3924104745543
 21
-145.1168899707665
 31
0.0
  0
LINE
  5
1538
330
2
100
AcDbEntity
  8
LOGO
 62
     4
100
AcDbLine
 10
616.7596238807586
 20
-139.5661686260875
 30
0.0
 11
616.7596238807586
 21
-145.1168899707665
 31
0.0
  0
TEXT
  5
1539
330
2
100
AcDbEntity
  8
LOGO
100
AcDbText
 10
610.0938375574221
 20
-153.6968735797473
 30
0.0
 40
1.606499999999999
  1
4 Way
 72
     4
 11
613.0658625574222
 21
-153.1345985797474
 31
0.0
100
AcDbText
  0
TEXT
  5
153A
330
2
100
AcDbEntity
  8
LOGO
100
AcDbText
 10
608.5439953699221
 20
-151.2474381952362
 30
0.0
 40
2.409749999999999
  1
4 方向
  7
CHINESET
 72
     4
 11
613.0658625574222
 21
-150.0508644993701
 31
0.0
100
AcDbText
  0
LINE
  5
153B
330
2
100
AcDbEntity
  8
LOGO
  6
Continuous
 62
     7
100
AcDbLine
 10
613.3487163432582
 20
-142.3611908306511
 30
0.0
 11
615.799712352246
 21
-142.3611908306511
 31
0.0
  0
LINE
  5
153C
330
2
100
AcDbEntity
  8
LOGO
 62
     4
100
AcDbLine
 10
608.1148029032371
 20
-147.892250643106
 30
0.0
 11
608.1148029032371
 21
-154.6764656199359
 31
0.0
  0
TEXT
  5
153D
330
2
100
AcDbEntity
  8
LOGO
  6
Continuous
 62
     7
100
AcDbText
 10
617.5256158544316
 20
-143.8833963386156
 30
0.0
 40
3.083734080377228
  1
4
  7
CHINESET
 72
     1
 11
618.6269494545663
 21
-142.341529298427
 31
0.0
100
AcDbText
 73
     2
  0
LINE
  5
153E
330
2
100
AcDbEntity
  8
LOGO
 62
     4
100
AcDbLine
 10
618.5616524778353
 20
-146.5045703069362
 30
0.0
 11
611.2901928957368
 21
-146.5045703069362
 31
0.0
  0
LINE
  5
153F
330
2
100
AcDbEntity
  8
LOGO
 62
     4
100
AcDbLine
 10
611.2901928957368
 20
-147.892250643106
 30
0.0
 11
611.2901928957368
 21
-146.5045703069362
 31
0.0
  0
LINE
  5
1540
330
2
100
AcDbEntity
  8
LOGO
 62
     4
100
AcDbLine
 10
618.5616524778353
 20
-145.1168899707665
 30
0.0
 11
618.5616524778353
 21
-146.5045703069362
 31
0.0
  0
LINE
  5
1547
330
2
100
AcDbEntity
  8
LOGO
 62
     4
100
AcDbLine
 10
627.6845673088514
 20
-139.5661686260874
 30
0.0
 11
627.6845673088509
 21
-145.1168899707665
 31
0.0
  0
LINE
  5
1548
330
2
100
AcDbEntity
  8
LOGO
 62
     4
100
AcDbLine
 10
620.4942750283741
 20
-139.5661686260874
 30
0.0
 11
620.4942750283741
 21
-145.1168899707665
 31
0.0
  0
LINE
  5
1549
330
2
100
AcDbEntity
  8
LOGO
 62
     4
100
AcDbLine
 10
621.1110218444498
 20
-139.5661686260874
 30
0.0
 11
621.1110218444498
 21
-145.1168899707665
 31
0.0
  0
LINE
  5
154A
330
2
100
AcDbEntity
  8
LOGO
 62
     4
100
AcDbLine
 10
624.3977945766504
 20
-146.5045703069362
 30
0.0
 11
628.4066488811406
 21
-146.5045703069362
 31
0.0
  0
TEXT
  5
154B
330
2
100
AcDbEntity
  8
LOGO
  6
Continuous
 62
     7
100
AcDbText
 10
622.2626759166203
 20
-143.9183660774017
 30
0.0
 40
3.083734080377228
  1
E2
  7
CHINESET
 72
     1
 11
624.6856098369167
 21
-142.3764990372131
 31
0.0
100
AcDbText
 73
     2
  0
LINE
  5
154C
330
2
100
AcDbEntity
  8
LOGO
 62
     4
100
AcDbLine
 10
627.6845673088509
 20
-145.1168899707665
 30
0.0
 11
621.1110218444498
 21
-145.1168899707665
 31
0.0
  0
LINE
  5
154D
330
2
100
AcDbEntity
  8
LOGO
 62
     4
100
AcDbLine
 10
619.3177258729167
 20
-147.892250643106
 30
0.0
 11
619.3177258729167
 21
-154.6764656199359
 31
0.0
  0
LINE
  5
154E
330
2
100
AcDbEntity
  8
LOGO
 62
     4
100
AcDbLine
 10
618.0169222116071
 20
-147.892250643106
 30
0.0
 11
618.0169222116071
 21
-154.6764656199359
 31
0.0
  0
LINE
  5
154F
330
2
100
AcDbEntity
  8
LOGO
 62
     4
100
AcDbLine
 10
624.3977945766504
 20
-145.1168899707665
 30
0.0
 11
624.3977945766504
 21
-146.5045703069362
 31
0.0
  0
LINE
  5
1550
330
2
100
AcDbEntity
  8
LOGO
 62
     4
100
AcDbLine
 10
628.4066488811406
 20
-147.892250643106
 30
0.0
 11
628.4066488811406
 21
-146.5045703069362
 31
0.0
  0
LINE
  5
1553
330
2
100
AcDbEntity
  8
LOGO
 62
     4
100
AcDbLine
 10
627.6845673088514
 20
-139.5661686260874
 30
0.0
 11
621.1110218444498
 21
-139.5661686260874
 31
0.0
  0
LINE
  5
15C0
330
2
100
AcDbEntity
  8
LOGO
 62
     4
100
AcDbLine
 10
662.1399628979215
 20
-147.8922506431059
 30
0.0
 11
647.9454066627791
 21
-147.8922506431059
 31
0.0
  0
TEXT
  5
15C1
330
2
100
AcDbEntity
  8
LOGO
100
AcDbText
 10
648.7773345972349
 20
-153.9378485797472
 30
0.0
 40
1.606499999999999
  1
LED indicator
 72
     4
 11
655.0426845972349
 21
-153.1345985797472
 31
0.0
100
AcDbText
  0
LINE
  5
15C2
330
2
100
AcDbEntity
  8
LOGO
 62
     4
100
AcDbLine
 10
662.1399628979215
 20
-154.6764656199358
 30
0.0
 11
647.9454066627791
 21
-154.6764656199358
 31
0.0
  0
LINE
  5
15C4
330
2
100
AcDbEntity
  8
LOGO
 62
     4
100
AcDbLine
 10
646.6783146864861
 20
-147.892250643106
 30
0.0
 11
637.1881402529169
 21
-147.892250643106
 31
0.0
  0
LINE
  5
15C5
330
2
100
AcDbEntity
  8
LOGO
 62
     4
100
AcDbLine
 10
648.4997723513974
 20
-145.1168899707665
 30
0.0
 11
632.6761175900681
 21
-145.1168899707665
 31
0.0
  0
LINE
  5
15C6
330
2
100
AcDbEntity
  8
LOGO
 62
     4
100
AcDbLine
 10
648.4997723513974
 20
-139.5661686260873
 30
0.0
 11
632.6761175900681
 21
-139.5661686260873
 31
0.0
  0
LINE
  5
15C7
330
2
100
AcDbEntity
  8
LOGO
 62
     4
100
AcDbLine
 10
646.6783146864861
 20
-154.6764656199358
 30
0.0
 11
637.1881402529169
 21
-154.6764656199359
 31
0.0
  0
TEXT
  5
15C8
330
2
100
AcDbEntity
  8
LOGO
100
AcDbText
 10
638.2692663262047
 20
-153.6677608383993
 30
0.0
 40
1.606499999999999
  1
Voltage
 72
     4
 11
642.0445413262046
 21
-153.1345985797472
 31
0.0
100
AcDbText
  0
LINE
  5
15C9
330
2
100
AcDbEntity
  8
LOGO
 62
     4
100
AcDbLine
 10
632.6761175900681
 20
-139.5661686260873
 30
0.0
 11
632.6761175900681
 21
-145.1168899707664
 31
0.0
  0
LINE
  5
15CA
330
2
100
AcDbEntity
  8
LOGO
 62
     4
100
AcDbLine
 10
635.7022759178319
 20
-147.892250643106
 30
0.0
 11
635.7022759178319
 21
-154.6764656199359
 31
0.0
  0
LINE
  5
15CB
330
2
100
AcDbEntity
  8
LOGO
 62
     4
100
AcDbLine
 10
637.1881402529169
 20
-147.892250643106
 30
0.0
 11
637.1881402529169
 21
-154.6764656199359
 31
0.0
  0
LINE
  5
15CD
330
2
100
AcDbEntity
  8
LOGO
 62
     4
100
AcDbLine
 10
648.4997723513973
 20
-139.5661686260873
 30
0.0
 11
648.4997723513973
 21
-145.1168899707665
 31
0.0
  0
TEXT
  5
15CE
330
2
100
AcDbEntity
  8
LOGO
100
AcDbText
 10
639.6096897637046
 20
-151.2300449865747
 30
0.0
 40
2.409749999999999
  1
電壓
  7
CHINESET
 72
     4
 11
642.0445413262046
 21
-150.05086449937
 31
0.0
100
AcDbText
  0
LINE
  5
15CF
330
2
100
AcDbEntity
  8
LOGO
 62
     4
100
AcDbLine
 10
640.5879449707327
 20
-146.5045703069362
 30
0.0
 11
642.0445413262046
 21
-146.5045703069362
 31
0.0
  0
LINE
  5
15D0
330
2
100
AcDbEntity
  8
LOGO
 62
     4
100
AcDbLine
 10
640.5879449707327
 20
-145.1168899707665
 30
0.0
 11
640.5879449707327
 21
-146.5045703069362
 31
0.0
  0
TEXT
  5
15D1
330
2
100
AcDbEntity
  8
LOGO
  6
Continuous
 62
     7
100
AcDbText
 10
640.0258061144866
 20
-143.9183660774017
 30
0.0
 40
3.083734080377228
  1
?
  7
CHINESET
 72
     1
 11
640.8334507545854
 21
-142.3764990372131
 31
0.0
100
AcDbText
 73
     2
  0
LINE
  5
15D2
330
2
100
AcDbEntity
  8
LOGO
 62
     4
100
AcDbLine
 10
642.0445413262046
 20
-146.5045703069362
 30
0.0
 11
642.0445413262046
 21
-147.892250643106
 31
0.0
  0
LINE
  5
15D3
330
2
100
AcDbEntity
  8
LOGO
 62
     4
100
AcDbLine
 10
646.6783146864861
 20
-147.892250643106
 30
0.0
 11
646.6783146864861
 21
-154.6764656199358
 31
0.0
  0
LINE
  5
15D4
330
2
100
AcDbEntity
  8
LOGO
 62
     4
100
AcDbLine
 10
647.9454066627791
 20
-147.892250643106
 30
0.0
 11
647.9454066627791
 21
-154.6764656199358
 31
0.0
  0
LINE
  5
15F8
330
2
100
AcDbEntity
  8
LOGO
 62
     4
100
AcDbLine
 10
652.8669857576017
 20
-139.5661686260873
 30
0.0
 11
652.8669857576017
 21
-145.1168899707664
 31
0.0
  0
LINE
  5
15F9
330
2
100
AcDbEntity
  8
LOGO
 62
     4
100
AcDbLine
 10
656.6016369052171
 20
-139.5661686260873
 30
0.0
 11
656.6016369052171
 21
-145.1168899707664
 31
0.0
  0
LINE
  5
15FA
330
2
100
AcDbEntity
  8
LOGO
 62
     4
100
AcDbLine
 10
656.6016369052171
 20
-145.1168899707664
 30
0.0
 11
652.8669857576017
 21
-145.1168899707664
 31
0.0
  0
TEXT
  5
15FB
330
2
100
AcDbEntity
  8
LOGO
100
AcDbText
 10
651.4531611597349
 20
-151.23063793687
 30
0.0
 40
2.409749999999999
  1
附燈型
  7
CHINESET
 72
     4
 11
655.0426845972349
 21
-150.05086449937
 31
0.0
100
AcDbText
  0
LINE
  5
15FC
330
2
100
AcDbEntity
  8
LOGO
  6
Continuous
 62
     7
100
AcDbLine
 10
649.4560782201014
 20
-142.3611908306511
 30
0.0
 11
651.9070742290891
 21
-142.3611908306511
 31
0.0
  0
LINE
  5
15FD
330
2
100
AcDbEntity
  8
LOGO
 62
     4
100
AcDbLine
 10
654.7343113314093
 20
-145.1168899707664
 30
0.0
 11
654.7343113314093
 21
-147.8922506431059
 31
0.0
  0
TEXT
  5
15FE
330
2
100
AcDbEntity
  8
LOGO
  6
Continuous
 62
     7
100
AcDbText
 10
653.8532444513015
 20
-143.8833963386155
 30
0.0
 40
3.083734080377228
  1
L
  7
CHINESET
 72
     1
 11
654.7343113314093
 21
-142.3415292984269
 31
0.0
100
AcDbText
 73
     2
  0
LINE
  5
15FF
330
2
100
AcDbEntity
  8
LOGO
 62
     4
100
AcDbLine
 10
656.6016369052171
 20
-139.5661686260873
 30
0.0
 11
652.8669857576017
 21
-139.5661686260873
 31
0.0
  0
LINE
  5
1602
330
2
100
AcDbEntity
  8
LOGO
 62
     4
100
AcDbLine
 10
662.1399628979215
 20
-147.8922506431059
 30
0.0
 11
662.1399628979215
 21
-154.6764656199358
 31
0.0
  0
TEXT
  5
2138
330
2
100
AcDbEntity
  8
LOGO
100
AcDbText
 10
518.9724517384731
 20
29.90695974423649
 30
0.0
 40
4.283999999999999
  1
MVSF-100M-4E2
100
AcDbText
  0
LINE
  5
2B59
330
2
100
AcDbEntity
  8
LOGO
 62
     4
100
AcDbLine
 10
663.7735213056678
 20
-138.3430885192445
 30
0.0
 11
515.4502989813883
 21
-138.3430885192445
 31
0.0
  0
LWPOLYLINE
  5
2B5A
330
2
100
AcDbEntity
  8
LOGO
 62
     4
100
AcDbPolyline
 90
        4
 70
     1
 43
0.0
 10
515.4502989813884
 20
-138.3430885192445
 10
663.7735213056678
 20
-138.3430885192445
 10
663.7735213056678
 20
41.97014700729791
 10
515.4502989813884
 20
41.97014700729791
1001
GENIUS_GENREC_14
1002
{
1000
PYDIR
1011
515.4502989813884
1021
41.97014700729791
1031
0.0
1002
}
1002
{
1000
PXDIR
1011
663.7735213056678
1021
-138.3430885192445
1031
0.0
1002
}
1002
{
1000
PORI
1011
515.4502989813884
1021
-138.3430885192445
1031
0.0
1002
}
1002
{
1000
PINS
1011
515.4502989813884
1021
-138.3430885192445
1031
0.0
1002
}
1002
{
1000
PINS2
1011
663.7735213056678
1021
41.97014700729791
1031
0.0
1002
}
1002
{
1000
C
1070
     1
1002
}
1001
GENIUS_GENODEF_13
1002
{
1000
HIER
1070
     0
1002
}
1002
{
1000
MANEDIT
1070
     0
1002
}
1002
{
1000
NOSEL
1070
     0
1002
}
1002
{
1000
BEHIND
1070
     0
1002
}
1002
{
1000
OTHER
1070
     0
1002
}
1002
{
1000
REACTOR
1002
}
1001
GENIUS_GENOBJ-N-REC_13
1002
{
1000
OWNER
1000
GEN
1002
}
  0
LWPOLYLINE
  5
2B5B
330
2
100
AcDbEntity
  8
LOGO
 62
     4
100
AcDbPolyline
 90
        4
 70
     1
 43
0.0
 10
515.4502989813884
 20
-138.3430885192445
 10
663.7735213056678
 20
-138.3430885192445
 10
663.7735213056678
 20
-156.8472887900138
 10
515.4502989813884
 20
-156.8472887900138
1001
GENIUS_GENREC_14
1002
{
1000
PYDIR
1011
515.4502989813884
1021
-156.8472887900138
1031
0.0
1002
}
1002
{
1000
PXDIR
1011
663.7735213056678
1021
-138.3430885192445
1031
0.0
1002
}
1002
{
1000
PORI
1011
515.4502989813884
1021
-138.3430885192445
1031
0.0
1002
}
1002
{
1000
PINS
1011
515.4502989813884
1021
-138.3430885192445
1031
0.0
1002
}
1002
{
1000
PINS2
1011
663.7735213056678
1021
-156.8472887900138
1031
0.0
1002
}
1002
{
1000
C
1070
     1
1002
}
1001
GENIUS_GENOBJ-N-REC_13
1002
{
1000
OWNER
1000
GEN
1002
}
1001
GENIUS_GENODEF_13
1002
{
1000
HIER
1070
     0
1002
}
1002
{
1000
MANEDIT
1070
     0
1002
}
1002
{
1000
NOSEL
1070
     0
1002
}
1002
{
1000
BEHIND
1070
     0
1002
}
1002
{
1000
OTHER
1070
     0
1002
}
1002
{
1000
REACTOR
1002
}
  0
TEXT
  5
2B5C
330
2
100
AcDbEntity
  8
LOGO
 62
     7
100
AcDbText
 10
557.2315579477857
 20
-146.4494637819948
 30
0.0
 40
2.46722670276923
  1
Order example:
 41
0.8
  7
CHINESET
100
AcDbText
  0
TEXT
  5
2B5D
330
2
100
AcDbEntity
  8
LOGO
 62
     7
100
AcDbText
 10
557.6741988213973
 20
-142.9761194303029
 30
0.0
 40
3.700840054153845
  1
訂購代號：
  7
CHINESET
100
AcDbText
  0
LINE
  5
2B5E
330
2
100
AcDbEntity
  8
LOGO
 62
     4
100
AcDbLine
 10
556.1595395770805
 20
-156.8472887900138
 30
0.0
 11
556.1595395770805
 21
-138.3430885192445
 31
0.0
  0
TEXT
  5
2B5F
330
2
100
AcDbEntity
  8
LOGO
  6
Continuous
100
AcDbText
 10
522.097090896638
 20
-153.2121665720942
 30
0.0
 40
2.775630040615384
  1
金器工業股份有限公司
  7
CHINESET
100
AcDbText
  0
TEXT
  5
2B60
330
2
100
AcDbEntity
  8
LOGO
  6
Continuous
100
AcDbText
 10
516.9988076433509
 20
-155.9883404185798
 30
0.0
 40
1.850420027076922
  1
MINDMAN INDUSTRIAL CO., LTD.
 41
0.85
  7
CHINESET
100
AcDbText
  0
LINE
  5
2B61
330
2
100
AcDbEntity
  8
LOGO
 62
     4
100
AcDbLine
 10
556.1595395770805
 20
-142.0439285733983
 30
0.0
 11
529.020045846619
 21
-142.0439285733983
 31
0.0
  0
LINE
  5
2B62
330
2
100
AcDbEntity
  8
LOGO
 62
     4
100
AcDbLine
 10
556.1595395770805
 20
-145.7447686275521
 30
0.0
 11
529.020045846619
 21
-145.7447686275521
 31
0.0
  0
LINE
  5
2B63
330
2
100
AcDbEntity
  8
LOGO
 62
     4
100
AcDbLine
 10
556.1595395770805
 20
-149.4456086817059
 30
0.0
 11
515.4502989813883
 21
-149.4456086817059
 31
0.0
  0
LINE
  5
2B64
330
2
100
AcDbEntity
  8
LOGO
 62
     4
100
AcDbLine
 10
529.020045846619
 20
-149.4456086817059
 30
0.0
 11
529.020045846619
 21
-138.3430885192445
 31
0.0
  0
TEXT
  5
2B65
330
2
100
AcDbEntity
  8
LOGO
100
AcDbText
 10
547.5686088467967
 20
-148.5203986681677
 30
0.0
 40
1.850420027076922
  1
mm
  7
CHINESET
 72
     1
 11
549.8596050707967
 21
-147.5951886546292
 31
0.0
100
AcDbText
 73
     2
  0
TEXT
  5
2B66
330
2
100
AcDbEntity
  8
LOGO
100
AcDbText
 10
546.5993412135659
 20
-141.11871855986
 30
0.0
 40
1.850420027076922
  1
1 : 1
  7
CHINESET
 72
     1
 11
549.8596050707967
 21
-140.1935085463215
 31
0.0
100
AcDbText
 73
     2
  0
LINE
  5
2B67
330
2
100
AcDbEntity
  8
LOGO
 62
     4
100
AcDbLine
 10
543.8234060632343
 20
-149.4456086817059
 30
0.0
 11
543.8234060632343
 21
-138.3430885192445
 31
0.0
  0
TEXT
  5
2B68
330
2
100
AcDbEntity
  8
LOGO
100
AcDbText
 10
530.5458162885883
 20
-141.1178079200828
 30
121.2734801857075
 40
1.850420027076922
  1
比例 Scale:
 41
0.9
  7
CHINESET
 72
     4
 11
536.4217259549267
 21
-140.1935085463215
 31
121.2734801857075
100
AcDbText
  0
TEXT
  5
2B69
330
2
100
AcDbEntity
  8
LOGO
100
AcDbText
 10
530.4392519209575
 20
-144.7935294937182
 30
121.2734801857075
 40
1.850420027076922
  1
投影  View:
 41
0.9
  7
CHINESET
 72
     4
 11
536.4217259549267
 21
-143.8943486004754
 31
121.2734801857075
100
AcDbText
  0
TEXT
  5
2B6A
330
2
100
AcDbEntity
  8
LOGO
100
AcDbText
 10
530.6201635218189
 20
-148.5203986681677
 30
121.2734801857075
 40
1.850420027076922
  1
單位  Unit:
 41
0.9
  7
CHINESET
 72
     4
 11
536.4217259549267
 21
-147.5951886546292
 31
121.2734801857075
100
AcDbText
  0
SOLID
  5
2B6B
330
2
100
AcDbEntity
  8
LOGO
 62
     5
100
AcDbTrace
 10
517.3701394564631
 20
-146.369548773241
 30
0.0
 11
518.1702125211496
 21
-146.3695487732412
 31
0.0
 12
521.508448411738
 22
-138.7826490219028
 32
0.0
 13
522.3085214764251
 23
-138.7826490219032
 33
0.0
  0
SOLID
  5
2B6C
330
2
100
AcDbEntity
  8
LOGO
 62
     5
100
AcDbTrace
 10
518.5012772375724
 20
-146.369548773241
 30
0.0
 11
519.3013503022591
 21
-146.369548773241
 31
0.0
 12
522.3085214764251
 22
-139.3896010020102
 32
0.0
 13
521.508448411738
 23
-142.3232022391943
 33
0.0
  0
SOLID
  5
2B6D
330
2
100
AcDbEntity
  8
LOGO
 62
     2
100
AcDbTrace
 10
518.1702125211496
 20
-146.3695487732412
 30
0.0
 11
518.5012772375724
 21
-146.369548773241
 31
0.0
 12
522.3085214764251
 22
-138.7826490219032
 32
0.0
 13
522.6395861928477
 23
-138.7826490219032
 33
0.0
  0
SOLID
  5
2B6E
330
2
100
AcDbEntity
  8
LOGO
 62
     5
100
AcDbTrace
 10
516.0874261318216
 20
-149.1284214100909
 30
0.0
 11
516.363313395507
 21
-149.1284214100909
 31
0.0
 12
517.1402334033924
 22
-147.748985091666
 32
0.0
 13
517.4161206670769
 23
-147.748985091666
 33
0.0
  0
SOLID
  5
2B6F
330
2
100
AcDbEntity
  8
LOGO
 62
     5
100
AcDbTrace
 10
517.1402334033924
 20
-147.748985091666
 30
0.0
 11
517.4161206670769
 21
-147.748985091666
 31
0.0
 12
517.1402334033924
 22
-149.1284214100909
 32
0.0
 13
517.4161206670769
 23
-149.1284214100909
 33
0.0
  0
SOLID
  5
2B70
330
2
100
AcDbEntity
  8
LOGO
 62
     5
100
AcDbTrace
 10
517.1402334033924
 20
-149.1284214100909
 30
0.0
 11
517.4161206670769
 21
-149.1284214100909
 31
0.0
 12
518.1930406749637
 22
-147.748985091666
 32
0.0
 13
518.4689279386486
 23
-147.748985091666
 33
0.0
  0
SOLID
  5
2B71
330
2
100
AcDbEntity
  8
LOGO
 62
     5
100
AcDbTrace
 10
518.1930406749637
 20
-147.748985091666
 30
0.0
 11
518.4689279386486
 21
-147.748985091666
 31
0.0
 12
518.1930406749637
 22
-149.1284214100909
 32
0.0
 13
518.4689279386486
 23
-149.1284214100909
 33
0.0
  0
POLYLINE
  5
2B72
330
2
100
AcDbEntity
  8
LOGO
 62
     5
100
AcDb2dPolyline
 66
     1
 10
0.0
 20
0.0
 30
0.0
 40
0.2763293907101538
 41
0.2763293907101538
  0
VERTEX
  5
2B73
330
2B72
100
AcDbEntity
  8
LOGO
 62
     5
100
AcDbVertex
100
AcDb2dVertex
 10
527.4406877715044
 20
-148.300759619036
 30
0.0
 42
1.0
  0
VERTEX
  5
2B74
330
2B72
100
AcDbEntity
  8
LOGO
 62
     5
100
AcDbVertex
100
AcDb2dVertex
 10
526.6116995993739
 20
-148.300759619036
 30
0.0
 42
1.0
  0
SEQEND
  5
2B75
330
2B72
100
AcDbEntity
  8
LOGO
 62
     5
  0
POLYLINE
  5
2B76
330
2
100
AcDbEntity
  8
LOGO
 62
     5
100
AcDb2dPolyline
 66
     1
 10
0.0
 20
0.0
 30
0.0
 70
     1
  0
VERTEX
  5
2B77
330
2B76
100
AcDbEntity
  8
LOGO
 62
     5
100
AcDbVertex
100
AcDb2dVertex
 10
525.0490200215137
 20
-148.4387032508787
 30
0.0
 42
1.000000057330635
  0
VERTEX
  5
2B78
330
2B76
100
AcDbEntity
  8
LOGO
 62
     5
100
AcDbVertex
100
AcDb2dVertex
 10
525.8766818125687
 20
-148.4387032508787
 30
0.0
 42
1.000000057330635
  0
SEQEND
  5
2B79
330
2B76
100
AcDbEntity
  8
LOGO
 62
     5
  0
CIRCLE
  5
2B7A
330
2
100
AcDbEntity
  8
LOGO
 62
     5
100
AcDbCircle
 10
525.4628509170418
 20
-148.4387032508787
 30
0.0
 40
0.4138308955275264
  0
POLYLINE
  5
2B7B
330
2
100
AcDbEntity
  8
LOGO
 62
     5
100
AcDb2dPolyline
 66
     1
 10
0.0
 20
0.0
 30
0.0
 70
     1
 40
0.2763293907101538
 41
0.2763293907101538
  0
VERTEX
  5
2B7C
330
2B7B
100
AcDbEntity
  8
LOGO
 62
     5
100
AcDbVertex
100
AcDb2dVertex
 10
524.910192135621
 20
-148.4387032508787
 30
0.0
 42
1.0
  0
VERTEX
  5
2B7D
330
2B7B
100
AcDbEntity
  8
LOGO
 62
     5
100
AcDbVertex
100
AcDb2dVertex
 10
526.0155096984616
 20
-148.4387032508787
 30
0.0
 42
1.0
  0
SEQEND
  5
2B7E
330
2B7B
100
AcDbEntity
  8
LOGO
 62
     5
  0
LINE
  5
2B7F
330
2
100
AcDbEntity
  8
LOGO
100
AcDbLine
 10
527.5779682128087
 20
-149.1284214100909
 30
0.0
 11
527.5779682128087
 21
-148.300759619036
 31
0.0
  0
SOLID
  5
2B80
330
2
100
AcDbEntity
  8
LOGO
 62
     5
100
AcDbTrace
 10
525.8766542238435
 20
-147.748985091666
 30
0.0
 11
526.152541487528
 21
-147.748985091666
 31
0.0
 12
525.8766542238435
 22
-149.1284214100909
 32
0.0
 13
526.152541487528
 23
-149.1284214100909
 33
0.0
  0
SOLID
  5
2B81
330
2
100
AcDbEntity
  8
LOGO
 62
     5
100
AcDbTrace
 10
526.4744191580687
 20
-149.1284214100909
 30
0.0
 11
526.7503064217541
 21
-149.1284214100909
 31
0.0
 12
526.4744191580687
 22
-147.748985091666
 32
0.0
 13
526.7503064217541
 23
-147.748985091666
 33
0.0
  0
SOLID
  5
2B82
330
2
100
AcDbEntity
  8
LOGO
 62
     5
100
AcDbTrace
 10
527.3020809491245
 20
-148.300759619036
 30
0.0
 11
527.5779682128087
 21
-148.300759619036
 31
0.0
 12
527.3020809491245
 22
-149.1284214100909
 32
0.0
 13
527.5779682128087
 23
-149.1284214100909
 33
0.0
  0
SOLID
  5
2B83
330
2
100
AcDbEntity
  8
LOGO
 62
     5
100
AcDbTrace
 10
526.4468304317001
 20
-139.3896010020102
 30
0.0
 11
525.6467573670142
 21
-142.3232022391943
 31
0.0
 12
526.4468304317001
 22
-146.3695487732412
 32
0.0
 13
525.6467573670142
 23
-146.3695487732412
 33
0.0
  0
SOLID
  5
2B84
330
2
100
AcDbEntity
  8
LOGO
 62
     5
100
AcDbTrace
 10
526.7778951481227
 20
-146.3695487732412
 30
0.0
 11
527.5779682128087
 21
-146.3695487732412
 31
0.0
 12
526.7778951481227
 22
-138.7826490219032
 32
0.0
 13
527.5779682128087
 23
-138.7826490219028
 33
0.0
  0
SOLID
  5
2B85
330
2
100
AcDbEntity
  8
LOGO
 62
     2
100
AcDbTrace
 10
526.4468304317001
 20
-138.7826490219028
 30
0.0
 11
526.7778951481227
 21
-138.7826490219032
 31
0.0
 12
526.4468304317001
 22
-146.3695487732412
 32
0.0
 13
526.7778951481227
 23
-146.3695487732412
 33
0.0
  0
POLYLINE
  5
2B86
330
2
100
AcDbEntity
  8
LOGO
 62
     5
100
AcDb2dPolyline
 66
     1
 10
0.0
 20
0.0
 30
0.0
 40
0.2763293907101538
 41
0.2763293907101538
  0
VERTEX
  5
2B87
330
2B86
100
AcDbEntity
  8
LOGO
 62
     5
100
AcDbVertex
100
AcDb2dVertex
 10
523.4862852662018
 20
-148.300759619036
 30
0.0
 42
1.0
  0
VERTEX
  5
2B88
330
2B86
100
AcDbEntity
  8
LOGO
 62
     5
100
AcDbVertex
100
AcDb2dVertex
 10
522.6572970940711
 20
-148.300759619036
 30
0.0
 42
1.0
  0
SEQEND
  5
2B89
330
2B86
100
AcDbEntity
  8
LOGO
 62
     5
  0
POLYLINE
  5
2B8A
330
2
100
AcDbEntity
  8
LOGO
 62
     5
100
AcDb2dPolyline
 66
     1
 10
0.0
 20
0.0
 30
0.0
 40
0.2763293907101538
 41
0.2763293907101538
  0
VERTEX
  5
2B8B
330
2B8A
100
AcDbEntity
  8
LOGO
 62
     5
100
AcDbVertex
100
AcDb2dVertex
 10
524.3139470572558
 20
-148.300759619036
 30
0.0
 42
1.0
  0
VERTEX
  5
2B8C
330
2B8A
100
AcDbEntity
  8
LOGO
 62
     5
100
AcDbVertex
100
AcDb2dVertex
 10
523.4849588851258
 20
-148.300759619036
 30
0.0
 42
1.0
  0
SEQEND
  5
2B8D
330
2B8A
100
AcDbEntity
  8
LOGO
 62
     5
  0
POLYLINE
  5
2B8E
330
2
100
AcDbEntity
  8
LOGO
 62
     5
100
AcDb2dPolyline
 66
     1
 10
0.0
 20
0.0
 30
0.0
 40
0.2763293907101538
 41
0.2763293907101538
  0
VERTEX
  5
2B8F
330
2B8E
100
AcDbEntity
  8
LOGO
 62
     5
100
AcDbVertex
100
AcDb2dVertex
 10
520.3595445519532
 20
-148.300759619036
 30
0.0
 42
1.0
  0
VERTEX
  5
2B90
330
2B8E
100
AcDbEntity
  8
LOGO
 62
     5
100
AcDbVertex
100
AcDb2dVertex
 10
519.5305563798232
 20
-148.300759619036
 30
0.0
 42
1.0
  0
SEQEND
  5
2B91
330
2B8E
100
AcDbEntity
  8
LOGO
 62
     5
  0
SOLID
  5
2B92
330
2
100
AcDbEntity
  8
LOGO
 62
     5
100
AcDbTrace
 10
519.3932759385184
 20
-147.748985091666
 30
0.0
 11
519.6691632022028
 21
-147.748985091666
 31
0.0
 12
519.3932759385184
 22
-149.1284214100909
 32
0.0
 13
519.6691632022028
 23
-149.1284214100909
 33
0.0
  0
SOLID
  5
2B93
330
2
100
AcDbEntity
  8
LOGO
 62
     5
100
AcDbTrace
 10
520.2209377295734
 20
-148.300759619036
 30
0.0
 11
520.4968249932587
 21
-148.300759619036
 31
0.0
 12
520.2209377295734
 22
-149.1284214100909
 32
0.0
 13
520.4968249932587
 23
-149.1284214100909
 33
0.0
  0
POLYLINE
  5
2B94
330
2
100
AcDbEntity
  8
LOGO
 62
     5
100
AcDb2dPolyline
 66
     1
 10
0.0
 20
0.0
 30
0.0
 70
     1
 40
0.2763293907101538
 41
0.2763293907101538
  0
VERTEX
  5
2B95
330
2B94
100
AcDbEntity
  8
LOGO
 62
     5
100
AcDbVertex
100
AcDb2dVertex
 10
520.9557896303179
 20
-148.4387032508787
 30
0.0
 42
1.0
  0
VERTEX
  5
2B96
330
2B94
100
AcDbEntity
  8
LOGO
 62
     5
100
AcDbVertex
100
AcDb2dVertex
 10
522.0611071931589
 20
-148.4387032508787
 30
0.0
 42
1.0
  0
SEQEND
  5
2B97
330
2B94
100
AcDbEntity
  8
LOGO
 62
     5
  0
SOLID
  5
2B98
330
2
100
AcDbEntity
  8
LOGO
 62
     5
100
AcDbTrace
 10
521.9222517185399
 20
-147.3351541961383
 30
0.0
 11
522.198138982225
 21
-147.3351541961383
 31
0.0
 12
521.9222517185399
 22
-149.1284214100909
 32
0.0
 13
522.198138982225
 23
-149.1284214100909
 33
0.0
  0
SOLID
  5
2B99
330
2
100
AcDbEntity
  8
LOGO
 62
     5
100
AcDbTrace
 10
522.5200166527669
 20
-147.748985091666
 30
0.0
 11
522.7959039164513
 21
-147.748985091666
 31
0.0
 12
522.5200166527669
 22
-149.1284214100909
 32
0.0
 13
522.7959039164513
 23
-149.1284214100909
 33
0.0
  0
SOLID
  5
2B9A
330
2
100
AcDbEntity
  8
LOGO
 62
     5
100
AcDbTrace
 10
523.3476784438213
 20
-148.300759619036
 30
0.0
 11
523.6235657075065
 21
-148.300759619036
 31
0.0
 12
523.3476784438213
 22
-149.1284214100909
 32
0.0
 13
523.6235657075065
 23
-149.1284214100909
 33
0.0
  0
SOLID
  5
2B9B
330
2
100
AcDbEntity
  8
LOGO
 62
     5
100
AcDbTrace
 10
524.1753402348763
 20
-148.300759619036
 30
0.0
 11
524.4512274985611
 21
-148.300759619036
 31
0.0
 12
524.1753402348763
 22
-149.1284214100914
 32
0.0
 13
524.4512274985611
 23
-149.1284214100914
 33
0.0
  0
SOLID
  5
2B9C
330
2
100
AcDbEntity
  8
LOGO
 62
     5
100
AcDbTrace
 10
518.7955110042919
 20
-147.5558640070865
 30
0.0
 11
519.0713982679776
 21
-147.5558640070865
 31
0.0
 12
518.7955110042919
 22
-147.3351541961383
 32
0.0
 13
519.0713982679776
 23
-147.3351541961383
 33
0.0
  0
SOLID
  5
2B9D
330
2
100
AcDbEntity
  8
LOGO
 62
     5
100
AcDbTrace
 10
518.7955110042919
 20
-147.748985091666
 30
0.0
 11
519.0713982679776
 21
-147.748985091666
 31
0.0
 12
518.7955110042919
 22
-149.1284214100914
 32
0.0
 13
519.0713982679776
 23
-149.1284214100909
 33
0.0
  0
SOLID
  5
2B9E
330
2
100
AcDbEntity
  8
LOGO
 62
     5
100
AcDbTrace
 10
521.508448411738
 20
-146.369548773241
 30
0.0
 11
522.3085214764251
 21
-146.369548773241
 31
0.0
 12
521.508448411738
 22
-142.3232022391943
 32
0.0
 13
522.3085214764251
 23
-139.3896010020102
 33
0.0
  0
SOLID
  5
2B9F
330
2
100
AcDbEntity
  8
LOGO
 62
     5
100
AcDbTrace
 10
522.6395861928477
 20
-138.7826490219032
 30
0.0
 11
523.4396592575337
 21
-138.7826490219028
 31
0.0
 12
522.6395861928477
 22
-145.762596793134
 32
0.0
 13
523.4396592575337
 23
-142.8289955559499
 33
0.0
  0
SOLID
  5
2BA0
330
2
100
AcDbEntity
  8
LOGO
 62
     2
100
AcDbTrace
 10
522.3085214764251
 20
-138.7826490219032
 30
0.0
 11
522.6395861928477
 21
-138.7826490219032
 31
0.0
 12
522.3085214764251
 22
-146.369548773241
 32
0.0
 13
522.6395861928477
 23
-146.369548773241
 33
0.0
  0
SOLID
  5
2BA1
330
2
100
AcDbEntity
  8
LOGO
 62
     5
100
AcDbTrace
 10
522.6395861928477
 20
-145.762596793134
 30
0.0
 11
523.4396592575337
 21
-142.8289955559499
 31
0.0
 12
526.4468304317001
 22
-138.7826490219028
 32
0.0
 13
525.6467573670142
 23
-138.7826490219028
 33
0.0
  0
SOLID
  5
2BA2
330
2
100
AcDbEntity
  8
LOGO
 62
     5
100
AcDbTrace
 10
522.6395861928477
 20
-146.369548773241
 30
0.0
 11
523.4396592575337
 21
-146.369548773241
 31
0.0
 12
526.4468304317001
 22
-139.3896010020102
 32
0.0
 13
525.6467573670142
 23
-142.3232022391943
 33
0.0
  0
SOLID
  5
2BA3
330
2
100
AcDbEntity
  8
LOGO
 62
     2
100
AcDbTrace
 10
522.3085214764251
 20
-146.369548773241
 30
0.0
 11
522.6395861928477
 21
-146.369548773241
 31
0.0
 12
526.4468304317001
 22
-138.7826490219028
 32
0.0
 13
526.7778951481227
 23
-138.7826490219032
 33
0.0
  0
TEXT
  5
2BE2
330
2
100
AcDbEntity
  8
LOGO
100
AcDbText
 10
557.2945069272187
 20
-155.8628726390994
 30
0.0
 40
1.850687999999999
  1
10808141
 41
0.7
  7
CHINESET
 72
     1
 11
561.5202445272188
 21
-155.8628726390994
 31
0.0
100
AcDbText
  0
LINE
  5
2BE3
330
2
100
AcDbEntity
  8
LOGO
 62
     4
100
AcDbLine
 10
567.2636675770799
 20
-153.1464487358595
 30
0.0
 11
567.2636675770806
 21
-156.8472887900136
 31
0.0
  0
LINE
  5
2BE4
330
2
100
AcDbEntity
  8
LOGO
 62
     4
100
AcDbLine
 10
567.2636675770799
 20
-153.1464487358595
 30
0.0
 11
556.1595395770805
 21
-153.1464487358595
 31
0.0
  0
CIRCLE
  5
2BE5
330
2
100
AcDbEntity
  8
LOGO
  6
Continuous
100
AcDbCircle
 10
547.2496901902454
 20
-143.8903905384963
 30
0.0
 40
1.074397421698614
  0
CIRCLE
  5
2BE6
330
2
100
AcDbEntity
  8
LOGO
  6
Continuous
100
AcDbCircle
 10
547.2496901902454
 20
-143.8903905384963
 30
0.0
 40
0.6295017780928984
  0
LINE
  5
2BE7
330
2
100
AcDbEntity
  8
LOGO
100
AcDbLine
 10
554.0013282560042
 20
-144.964787960195
 30
0.0
 11
554.0013282560042
 21
-142.8159931167974
 31
0.0
  0
LINE
  5
2BE8
330
2
100
AcDbEntity
  8
LOGO
100
AcDbLine
 10
550.6331540123341
 20
-144.519892316589
 30
0.0
 11
550.6331540123341
 21
-143.2608887604032
 31
0.0
  0
LINE
  5
2BE9
330
2
100
AcDbEntity
  8
LOGO
  6
Continuous
100
AcDbLine
 10
550.6331540123341
 20
-143.2608887604032
 30
0.0
 11
554.0013282560042
 21
-142.8159931167974
 31
0.0
  0
LINE
  5
2BEA
330
2
100
AcDbEntity
  8
LOGO
  6
Continuous
100
AcDbLine
 10
550.6331540123341
 20
-144.519892316589
 30
0.0
 11
554.0013282560042
 21
-144.964787960195
 31
0.0
  0
LINE
  5
2BEB
330
2
100
AcDbEntity
  8
LOGO
  6
AM_ISO08W050x2
 48
0.3
100
AcDbLine
 10
545.7686172565996
 20
-143.8903905384963
 30
0.0
 11
548.7307631238914
 21
-143.8903905384963
 31
0.0
1001
GENIUS_GENOREF_13
1005
2C02
  0
LINE
  5
2BEC
330
2
100
AcDbEntity
  8
LOGO
  6
AM_ISO08W050x2
 48
0.3
100
AcDbLine
 10
547.2496901902454
 20
-145.3714634721423
 30
0.0
 11
547.2496901902454
 21
-142.4093176048502
 31
0.0
1001
GENIUS_GENOREF_13
1005
2C01
  0
LINE
  5
2BED
330
2
100
AcDbEntity
  8
LOGO
  6
CENTER
 48
0.5
100
AcDbLine
 10
550.3637936908056
 20
-143.8903905384963
 30
0.0
 11
554.3404924989998
 21
-143.8903905384963
 31
0.0
1001
GENIUS_GENOREF_13
1005
2C00
  0
POINT
  5
2C00
330
2
100
AcDbEntity
  8
0
 60
     1
100
AcDbPoint
 10
-1811.703739739273
 20
-1443.309492803441
 30
0.0
1001
GENIUS_GENOBJ-N-CRS_13
1002
{
1000
OWNER
1000
GEN
1002
}
1001
GENIUS_GENOLIS_13
1002
{
1000
ENT
1005
0
1005
0
1005
0
1005
2BED
1002
}
1001
GENIUS_GENOENT_13
1002
{
1000
MYREF
1005
2C00
1002
}
1002
{
1000
GRP
1005
0
1002
}
1001
GENIUS_GENODEF_13
1002
{
1000
HIER
1070
    10
1002
}
1002
{
1000
MANEDIT
1070
     1
1002
}
1002
{
1000
NOSEL
1070
     0
1002
}
1002
{
1000
BEHIND
1070
     0
1002
}
1002
{
1000
OTHER
1070
     0
1002
}
1002
{
1000
REACTOR
1002
}
  0
POINT
  5
2C01
330
2
100
AcDbEntity
  8
0
 60
     1
100
AcDbPoint
 10
-1823.028324962128
 20
-1434.433906324805
 30
0.0
1001
GENIUS_GENOBJ-N-CRS_13
1002
{
1000
OWNER
1000
GEN
1002
}
1001
GENIUS_GENOLIS_13
1002
{
1000
ENT
1005
0
1005
0
1005
0
1005
2BEC
1002
}
1001
GENIUS_GENOENT_13
1002
{
1000
MYREF
1005
2C01
1002
}
1002
{
1000
GRP
1005
0
1002
}
1001
GENIUS_GENODEF_13
1002
{
1000
HIER
1070
    10
1002
}
1002
{
1000
MANEDIT
1070
     1
1002
}
1002
{
1000
NOSEL
1070
     0
1002
}
1002
{
1000
BEHIND
1070
     0
1002
}
1002
{
1000
OTHER
1070
     0
1002
}
1002
{
1000
REACTOR
1002
}
  0
POINT
  5
2C02
330
2
100
AcDbEntity
  8
0
 60
     1
100
AcDbPoint
 10
-1816.669651264291
 20
-1443.309492803441
 30
0.0
1001
GENIUS_GENOBJ-N-CRS_13
1002
{
1000
OWNER
1000
GEN
1002
}
1001
GENIUS_GENOLIS_13
1002
{
1000
ENT
1005
0
1005
0
1005
0
1005
2BEB
1002
}
1001
GENIUS_GENOENT_13
1002
{
1000
MYREF
1005
2C02
1002
}
1002
{
1000
GRP
1005
0
1002
}
1001
GENIUS_GENODEF_13
1002
{
1000
HIER
1070
    10
1002
}
1002
{
1000
MANEDIT
1070
     1
1002
}
1002
{
1000
NOSEL
1070
     0
1002
}
1002
{
1000
BEHIND
1070
     0
1002
}
1002
{
1000
OTHER
1070
     0
1002
}
1002
{
1000
REACTOR
1002
}
  0
LINE
  5
3350
330
2
100
AcDbEntity
  8
AM_7
100
AcDbLine
 10
652.166703529398
 20
-65.01794927514487
 30
0.0
 11
652.166703529398
 21
-57.9857195492209
 31
0.0
  0
LINE
  5
3351
330
2
100
AcDbEntity
  8
AM_7
100
AcDbLine
 10
651.1667035293981
 20
-56.81794927514485
 30
0.0
 11
653.166703529398
 21
-56.81794927514485
 31
0.0
  0
LINE
  5
3352
330
2
100
AcDbEntity
  8
AM_7
100
AcDbLine
 10
652.166703529398
 20
-57.81794927514486
 30
0.0
 11
652.166703529398
 21
-55.81794927514486
 31
0.0
  0
LINE
  5
3353
330
2
100
AcDbEntity
  8
AM_7
100
AcDbLine
 10
647.5667035293981
 20
-56.81794927514485
 30
0.0
 11
650.3667035293981
 21
-56.81794927514485
 31
0.0
  0
LINE
  5
3354
330
2
100
AcDbEntity
  8
AM_7
100
AcDbLine
 10
653.9667035293981
 20
-56.81794927514485
 30
0.0
 11
656.7667035293981
 21
-56.81794927514485
 31
0.0
  0
LINE
  5
3355
330
2
100
AcDbEntity
  8
AM_7
100
AcDbLine
 10
652.166703529398
 20
-61.41794927514485
 30
0.0
 11
652.166703529398
 21
-58.61794927514487
 31
0.0
  0
LINE
  5
3356
330
2
100
AcDbEntity
  8
AM_7
100
AcDbLine
 10
652.166703529398
 20
-55.01794927514485
 30
0.0
 11
652.166703529398
 21
-52.21794927514486
 31
0.0
  0
LINE
  5
3357
330
2
100
AcDbEntity
  8
AM_7
100
AcDbLine
 10
647.9167035293981
 20
-58.21794927514488
 30
0.0
 11
649.916703529398
 21
-58.21794927514488
 31
0.0
  0
LINE
  5
3358
330
2
100
AcDbEntity
  8
AM_7
100
AcDbLine
 10
648.9167035293981
 20
-59.21794927514489
 30
0.0
 11
648.9167035293981
 21
-57.21794927514489
 31
0.0
  0
LINE
  5
3359
330
2
100
AcDbEntity
  8
AM_7
100
AcDbLine
 10
644.8167035293981
 20
-58.21794927514488
 30
0.0
 11
647.1167035293981
 21
-58.21794927514488
 31
0.0
  0
LINE
  5
335A
330
2
100
AcDbEntity
  8
AM_7
100
AcDbLine
 10
650.7167035293981
 20
-58.21794927514488
 30
0.0
 11
653.0167035293981
 21
-58.21794927514488
 31
0.0
  0
LINE
  5
335B
330
2
100
AcDbEntity
  8
AM_7
100
AcDbLine
 10
648.9167035293981
 20
-62.31794927514489
 30
0.0
 11
648.9167035293981
 21
-60.0179492751449
 31
0.0
  0
LINE
  5
335C
330
2
100
AcDbEntity
  8
AM_7
100
AcDbLine
 10
648.9167035293981
 20
-56.41794927514488
 30
0.0
 11
648.9167035293981
 21
-54.11794927514489
 31
0.0
  0
LINE
  5
335D
330
2
100
AcDbEntity
  8
AM_7
100
AcDbLine
 10
654.416703529398
 20
-58.21794927514486
 30
0.0
 11
656.4167035293981
 21
-58.21794927514486
 31
0.0
  0
LINE
  5
335E
330
2
100
AcDbEntity
  8
AM_7
100
AcDbLine
 10
655.416703529398
 20
-59.21794927514486
 30
0.0
 11
655.416703529398
 21
-57.21794927514486
 31
0.0
  0
LINE
  5
335F
330
2
100
AcDbEntity
  8
AM_7
100
AcDbLine
 10
651.3167035293982
 20
-58.21794927514486
 30
0.0
 11
653.6167035293981
 21
-58.21794927514486
 31
0.0
  0
LINE
  5
3360
330
2
100
AcDbEntity
  8
AM_7
100
AcDbLine
 10
657.2167035293981
 20
-58.21794927514486
 30
0.0
 11
659.5167035293981
 21
-58.21794927514486
 31
0.0
  0
LINE
  5
3361
330
2
100
AcDbEntity
  8
AM_7
100
AcDbLine
 10
655.416703529398
 20
-62.31794927514485
 30
0.0
 11
655.416703529398
 21
-60.01794927514487
 31
0.0
  0
LINE
  5
3362
330
2
100
AcDbEntity
  8
AM_7
100
AcDbLine
 10
655.416703529398
 20
-56.41794927514485
 30
0.0
 11
655.416703529398
 21
-54.11794927514486
 31
0.0
  0
LINE
  5
3363
330
2
100
AcDbEntity
  8
AM_7
100
AcDbLine
 10
652.666703529398
 20
-44.01794927514484
 30
0.0
 11
654.6667035293981
 21
-44.01794927514484
 31
0.0
  0
LINE
  5
3364
330
2
100
AcDbEntity
  8
AM_7
100
AcDbLine
 10
653.666703529398
 20
-45.01794927514484
 30
0.0
 11
653.666703529398
 21
-43.01794927514484
 31
0.0
  0
LINE
  5
3365
330
2
100
AcDbEntity
  8
AM_7
100
AcDbLine
 10
651.8167035293982
 20
-44.01794927514484
 30
0.0
 11
651.8667035293981
 21
-44.01794927514484
 31
0.0
  0
LINE
  5
3366
330
2
100
AcDbEntity
  8
AM_7
100
AcDbLine
 10
655.4667035293981
 20
-44.01794927514484
 30
0.0
 11
655.5167035293981
 21
-44.01794927514484
 31
0.0
  0
LINE
  5
3367
330
2
100
AcDbEntity
  8
AM_7
100
AcDbLine
 10
653.666703529398
 20
-45.86794927514484
 30
0.0
 11
653.666703529398
 21
-45.81794927514486
 31
0.0
  0
LINE
  5
3368
330
2
100
AcDbEntity
  8
AM_7
100
AcDbLine
 10
653.666703529398
 20
-42.21794927514483
 30
0.0
 11
653.666703529398
 21
-42.16794927514484
 31
0.0
  0
LINE
  5
3369
330
2
100
AcDbEntity
  8
AM_7
100
AcDbLine
 10
649.6667035293981
 20
-44.01794927514484
 30
0.0
 11
651.6667035293981
 21
-44.01794927514484
 31
0.0
  0
LINE
  5
336A
330
2
100
AcDbEntity
  8
AM_7
100
AcDbLine
 10
650.6667035293981
 20
-45.01794927514484
 30
0.0
 11
650.6667035293981
 21
-43.01794927514484
 31
0.0
  0
LINE
  5
336B
330
2
100
AcDbEntity
  8
AM_7
100
AcDbLine
 10
648.8167035293981
 20
-44.01794927514484
 30
0.0
 11
648.8667035293981
 21
-44.01794927514484
 31
0.0
  0
LINE
  5
336C
330
2
100
AcDbEntity
  8
AM_7
100
AcDbLine
 10
652.4667035293981
 20
-44.01794927514484
 30
0.0
 11
652.5167035293981
 21
-44.01794927514484
 31
0.0
  0
LINE
  5
336D
330
2
100
AcDbEntity
  8
AM_7
100
AcDbLine
 10
650.6667035293981
 20
-45.86794927514484
 30
0.0
 11
650.6667035293981
 21
-45.81794927514486
 31
0.0
  0
LINE
  5
336E
330
2
100
AcDbEntity
  8
AM_7
100
AcDbLine
 10
650.6667035293981
 20
-42.21794927514483
 30
0.0
 11
650.6667035293981
 21
-42.16794927514484
 31
0.0
  0
ARC
  5
34E3
330
2
100
AcDbEntity
  8
AM_VIS
100
AcDbCircle
 10
655.6667035293981
 20
-51.31794927514485
 30
0.0
 40
1.600000000000022
100
AcDbArc
 50
339.6358651936706
 51
20.36413480632941
  0
ARC
  5
34E4
330
2
100
AcDbEntity
  8
AM_VIS
100
AcDbCircle
 10
648.6667035293982
 20
-62.31794927514491
 30
0.0
 40
1.600000000000022
100
AcDbArc
 50
159.6358651936843
 51
200.3641348063164
  0
LINE
  5
34E5
330
2
100
AcDbEntity
  8
AM_VIS
100
AcDbLine
 10
657.6667035293982
 20
-64.31794927514488
 30
0.0
 11
657.6667035293982
 21
-50.71794927514488
 31
0.0
  0
LINE
  5
34E6
330
2
100
AcDbEntity
  8
AM_VIS
100
AcDbLine
 10
646.6667035293982
 20
-50.71794927514488
 30
0.0
 11
646.6667035293982
 21
-64.31794927514488
 31
0.0
  0
LINE
  5
34E7
330
2
100
AcDbEntity
  8
AM_VIS
100
AcDbLine
 10
647.1667035293982
 20
-50.71794927514488
 30
0.0
 11
646.6667035293982
 21
-50.71794927514488
 31
0.0
  0
LINE
  5
34E8
330
2
100
AcDbEntity
  8
AM_VIS
100
AcDbLine
 10
657.6667035293982
 20
-50.71794927514488
 30
0.0
 11
657.1667035293982
 21
-50.71794927514488
 31
0.0
  0
LINE
  5
34E9
102
{ACAD_REACTORS
330
3B1F
102
}
330
2
100
AcDbEntity
  8
AM_VIS
100
AcDbLine
 10
646.6667035293982
 20
-64.31794927514488
 30
0.0
 11
647.1667035293982
 21
-64.31794927514488
 31
0.0
  0
LINE
  5
34EA
330
2
100
AcDbEntity
  8
AM_VIS
100
AcDbLine
 10
657.1667035293982
 20
-64.31794927514488
 30
0.0
 11
657.6667035293982
 21
-64.31794927514488
 31
0.0
  0
LINE
  5
34EB
330
2
100
AcDbEntity
  8
AM_VIS
100
AcDbLine
 10
649.5667035293982
 20
-53.81794927514491
 30
0.0
 11
649.5667035293982
 21
-56.51797868716406
 31
0.0
  0
LINE
  5
34EC
330
2
100
AcDbEntity
  8
AM_VIS
100
AcDbLine
 10
648.2667035293982
 20
-61.21794927514489
 30
0.0
 11
656.0667035293981
 21
-61.21794927514486
 31
0.0
  0
LINE
  5
34ED
330
2
100
AcDbEntity
  8
AM_VIS
100
AcDbLine
 10
655.5667035293981
 20
-60.71794927514483
 30
0.0
 11
655.5667035293981
 21
-61.21794927514483
 31
0.0
  0
LINE
  5
34EE
330
2
100
AcDbEntity
  8
AM_VIS
100
AcDbLine
 10
648.7667035293982
 20
-61.21794927514486
 30
0.0
 11
648.7667035293982
 21
-60.71794927514486
 31
0.0
  0
LINE
  5
34EF
330
2
100
AcDbEntity
  8
AM_VIS
100
AcDbLine
 10
654.7667035293981
 20
-56.517978687164
 30
0.0
 11
654.7667035293981
 21
-53.81794927514485
 31
0.0
  0
LINE
  5
34F0
330
2
100
AcDbEntity
  8
AM_VIS
100
AcDbLine
 10
657.166703529398
 20
-56.5179492751449
 30
0.0
 11
657.1667035293982
 21
-60.03794927514488
 31
0.0
  0
ARC
  5
34F1
330
2
100
AcDbEntity
  8
AM_VIS
100
AcDbCircle
 10
655.4217043970307
 20
-58.21544177879764
 30
0.0
 40
1.825539782311255
100
AcDbArc
 50
198.6363679025926
 51
214.6231278646366
  0
LINE
  5
34F2
330
2
100
AcDbEntity
  8
AM_VIS
100
AcDbLine
 10
648.2667035293981
 20
-60.71794927514488
 30
0.0
 11
648.9167035293981
 21
-60.71794927514488
 31
0.0
  0
LINE
  5
34F3
330
2
100
AcDbEntity
  8
AM_VIS
100
AcDbLine
 10
648.2667035293982
 20
-63.21794927514488
 30
0.0
 11
648.2667035293981
 21
-60.71794927514488
 31
0.0
  0
LINE
  5
34F4
330
2
100
AcDbEntity
  8
AM_VIS
100
AcDbLine
 10
656.0667035293981
 20
-63.21794927514486
 30
0.0
 11
648.2667035293982
 21
-63.21794927514488
 31
0.0
  0
LINE
  5
34F5
330
2
100
AcDbEntity
  8
AM_VIS
100
AcDbLine
 10
656.0667035293981
 20
-60.71794927514488
 30
0.0
 11
656.0667035293981
 21
-63.21794927514488
 31
0.0
  0
LINE
  5
34F6
330
2
100
AcDbEntity
  8
AM_VIS
100
AcDbLine
 10
655.4167035293982
 20
-60.71794927514488
 30
0.0
 11
656.0667035293981
 21
-60.71794927514488
 31
0.0
  0
LINE
  5
34F7
330
2
100
AcDbEntity
  8
AM_VIS
100
AcDbLine
 10
657.1667035293982
 20
-60.03794927514488
 30
0.0
 11
655.4167035293982
 21
-60.03794927514488
 31
0.0
  0
LINE
  5
34F8
330
2
100
AcDbEntity
  8
AM_VIS
100
AcDbLine
 10
657.1667035293982
 20
-60.03794927514488
 30
0.0
 11
657.1667035293982
 21
-64.31794927514488
 31
0.0
  0
LINE
  5
34F9
330
2
100
AcDbEntity
  8
AM_VIS
100
AcDbLine
 10
657.1667035293982
 20
-64.31794927514488
 30
0.0
 11
647.1667035293982
 21
-64.31794927514491
 31
0.0
  0
LINE
  5
34FA
330
2
100
AcDbEntity
  8
AM_VIS
100
AcDbLine
 10
647.1667035293982
 20
-64.31794927514491
 30
0.0
 11
647.1667035293981
 21
-60.03794927514491
 31
0.0
  0
LINE
  5
34FB
330
2
100
AcDbEntity
  8
AM_VIS
100
AcDbLine
 10
647.1667035293982
 20
-60.03794927514488
 30
0.0
 11
647.1667035293981
 21
-56.5179492751449
 31
0.0
  0
ARC
  5
34FC
330
2
100
AcDbEntity
  8
AM_VIS
100
AcDbCircle
 10
648.9117026617641
 20
-58.21544177879701
 30
0.0
 40
1.825539782312666
100
AcDbArc
 50
325.3768721353674
 51
341.3636320974007
  0
LINE
  5
34FD
330
2
100
AcDbEntity
  8
AM_VIS
100
AcDbLine
 10
648.9167035293981
 20
-60.03794927514488
 30
0.0
 11
647.1667035293981
 21
-60.03794927514488
 31
0.0
  0
LINE
  5
34FE
330
2
100
AcDbEntity
  8
AM_VIS
100
AcDbLine
 10
653.6363973750681
 20
-57.11794927514489
 30
0.0
 11
652.5667035293982
 21
-57.11794927514489
 31
0.0
  0
LINE
  5
34FF
330
2
100
AcDbEntity
  8
AM_VIS
100
AcDbLine
 10
651.7667035293981
 20
-57.11794927514489
 30
0.0
 11
650.6970096837282
 21
-57.11794927514489
 31
0.0
  0
LINE
  5
3500
330
2
100
AcDbEntity
  8
AM_VIS
100
AcDbLine
 10
652.5667035293982
 20
-56.5179492751449
 30
0.0
 11
653.6363973750681
 21
-56.5179492751449
 31
0.0
  0
LINE
  5
3501
330
2
100
AcDbEntity
  8
AM_VIS
100
AcDbLine
 10
650.6970096837282
 20
-56.5179492751449
 30
0.0
 11
651.7667035293981
 21
-56.5179492751449
 31
0.0
  0
ARC
  5
3502
330
2
100
AcDbEntity
  8
AM_VIS
100
AcDbCircle
 10
652.166703529398
 20
-56.81794927514488
 30
0.0
 40
2.5
100
AcDbArc
 50
232.4052366676959
 51
307.594763332304
  0
ARC
  5
3503
330
2
100
AcDbEntity
  8
AM_VIS
100
AcDbCircle
 10
652.166703529398
 20
-56.81794927514488
 30
0.0
 40
3.0
100
AcDbArc
 50
247.307722008548
 51
292.692277991452
  0
ARC
  5
3504
330
2
100
AcDbEntity
  8
AM_VIS
100
AcDbCircle
 10
655.4167035293982
 20
-58.21794927514488
 30
0.0
 40
1.819999999999999
100
AcDbArc
 50
110.9248324276401
 51
198.6118775363971
  0
ARC
  5
3505
330
2
100
AcDbEntity
  8
AM_VIS
100
AcDbCircle
 10
652.166703529398
 20
-56.81794927514488
 30
0.0
 40
3.0
100
AcDbArc
 50
234.2499471461065
 51
247.307722008548
  0
ARC
  5
3506
330
2
100
AcDbEntity
  8
AM_VIS
100
AcDbCircle
 10
648.9167035293981
 20
-58.21794927514488
 30
0.0
 40
2.5
100
AcDbArc
 50
270.0
 51
326.831157478121
  0
ARC
  5
3507
330
2
100
AcDbEntity
  8
AM_VIS
100
AcDbCircle
 10
655.4167035293982
 20
-58.21794927514488
 30
0.0
 40
2.5
100
AcDbArc
 50
213.168842521879
 51
270.0
  0
ARC
  5
3508
330
2
100
AcDbEntity
  8
AM_VIS
100
AcDbCircle
 10
652.166703529398
 20
-56.81794927514488
 30
0.0
 40
3.0
100
AcDbArc
 50
292.692277991452
 51
305.750052853894
  0
ARC
  5
3509
330
2
100
AcDbEntity
  8
AM_VIS
100
AcDbCircle
 10
655.4167035293982
 20
-58.21794927514488
 30
0.0
 40
1.819999999999999
100
AcDbArc
 50
214.6476182308366
 51
270.0
  0
ARC
  5
350A
330
2
100
AcDbEntity
  8
AM_VIS
100
AcDbCircle
 10
648.9167035293981
 20
-58.21794927514488
 30
0.0
 40
1.819999999999999
100
AcDbArc
 50
69.07516757235985
 51
69.07776031741949
  0
ARC
  5
350B
330
2
100
AcDbEntity
  8
AM_VIS
100
AcDbCircle
 10
648.9167035293981
 20
-58.21794927514488
 30
0.0
 40
1.819999999999999
100
AcDbArc
 50
341.3881224636028
 51
69.07516757235985
  0
ARC
  5
350C
330
2
100
AcDbEntity
  8
AM_VIS
100
AcDbCircle
 10
648.9167035293981
 20
-58.21794927514488
 30
0.0
 40
1.819999999999999
100
AcDbArc
 50
270.0
 51
325.3523817691634
  0
CIRCLE
  5
350D
330
2
100
AcDbEntity
  8
AM_VIS
100
AcDbCircle
 10
652.166703529398
 20
-56.81794927514488
 30
0.0
 40
1.6
  0
ARC
  5
350E
330
2
100
AcDbEntity
  8
AM_VIS
100
AcDbCircle
 10
652.166703529398
 20
-56.81794927514488
 30
0.0
 40
1.5
100
AcDbArc
 50
11.53695903281574
 51
168.4630409671842
  0
ARC
  5
350F
330
2
100
AcDbEntity
  8
AM_VIS
100
AcDbCircle
 10
652.166703529398
 20
-56.81794927514488
 30
0.0
 40
1.5
100
AcDbArc
 50
191.5369590328157
 51
348.4630409671843
  0
ARC
  5
3510
330
2
100
AcDbEntity
  8
AM_VIS
100
AcDbCircle
 10
652.166703529398
 20
-56.81794927514488
 30
0.0
 40
1.5
100
AcDbArc
 50
348.4630409671843
 51
11.53695903281574
  0
ARC
  5
3511
330
2
100
AcDbEntity
  8
AM_VIS
100
AcDbCircle
 10
652.166703529398
 20
-56.81794927514488
 30
0.0
 40
1.5
100
AcDbArc
 50
168.4630409671842
 51
191.5369590328157
  0
ARC
  5
3512
330
2
100
AcDbEntity
  8
AM_VIS
100
AcDbCircle
 10
652.166703529398
 20
-56.81794927514488
 30
0.0
 40
0.5
100
AcDbArc
 50
323.1301023541547
 51
36.86989764584533
  0
ARC
  5
3513
330
2
100
AcDbEntity
  8
AM_VIS
100
AcDbCircle
 10
652.166703529398
 20
-56.81794927514488
 30
0.0
 40
0.5
100
AcDbArc
 50
216.8698976458453
 51
323.1301023541547
  0
ARC
  5
3514
330
2
100
AcDbEntity
  8
AM_VIS
100
AcDbCircle
 10
652.166703529398
 20
-56.81794927514488
 30
0.0
 40
0.5
100
AcDbArc
 50
143.1301023541546
 51
216.8698976458453
  0
ARC
  5
3515
330
2
100
AcDbEntity
  8
AM_VIS
100
AcDbCircle
 10
652.166703529398
 20
-56.81794927514488
 30
0.0
 40
0.5
100
AcDbArc
 50
36.86989764584533
 51
143.1301023541546
  0
LINE
  5
3516
330
2
100
AcDbEntity
  8
AM_VIS
100
AcDbLine
 10
647.1667035293981
 20
-56.0179492751449
 30
0.0
 11
647.1667035293981
 21
-53.81794927514491
 31
0.0
  0
LINE
  5
3517
330
2
100
AcDbEntity
  8
AM_VIS
100
AcDbLine
 10
649.5667035293981
 20
-56.01794927514487
 30
0.0
 11
649.5667035293981
 21
-53.81794927514488
 31
0.0
  0
LINE
  5
3518
330
2
100
AcDbEntity
  8
AM_VIS
100
AcDbLine
 10
649.5667035293981
 20
-56.0179492751449
 30
0.0
 11
647.1667035293981
 21
-56.0179492751449
 31
0.0
  0
LINE
  5
3519
330
2
100
AcDbEntity
  8
AM_VIS
100
AcDbLine
 10
647.1667035293981
 20
-56.5179492751449
 30
0.0
 11
649.5667035293982
 21
-56.5179492751449
 31
0.0
  0
LINE
  5
351A
330
2
100
AcDbEntity
  8
AM_VIS
100
AcDbLine
 10
647.1667035293981
 20
-56.01794927514487
 30
0.0
 11
647.1667035293981
 21
-56.51794927514487
 31
0.0
  0
LINE
  5
351B
330
2
100
AcDbEntity
  8
AM_VIS
100
AcDbLine
 10
657.166703529398
 20
-56.01794927514484
 30
0.0
 11
657.166703529398
 21
-53.81794927514485
 31
0.0
  0
LINE
  5
351C
330
2
100
AcDbEntity
  8
AM_VIS
100
AcDbLine
 10
654.7667035293981
 20
-53.81794927514485
 30
0.0
 11
654.7667035293981
 21
-56.01794927514484
 31
0.0
  0
LINE
  5
351D
330
2
100
AcDbEntity
  8
AM_VIS
100
AcDbLine
 10
657.166703529398
 20
-56.01794927514487
 30
0.0
 11
654.7667035293981
 21
-56.01794927514487
 31
0.0
  0
LINE
  5
351E
330
2
100
AcDbEntity
  8
AM_VIS
100
AcDbLine
 10
657.166703529398
 20
-56.51794927514484
 30
0.0
 11
657.166703529398
 21
-56.01794927514484
 31
0.0
  0
LINE
  5
351F
330
2
100
AcDbEntity
  8
AM_VIS
100
AcDbLine
 10
654.7667035293981
 20
-56.51794927514487
 30
0.0
 11
657.166703529398
 21
-56.51794927514487
 31
0.0
  0
LINE
  5
3520
330
2
100
AcDbEntity
  8
AM_VIS
100
AcDbLine
 10
647.1667035293981
 20
-53.81794927514491
 30
0.0
 11
657.166703529398
 21
-53.81794927514488
 31
0.0
  0
LINE
  5
3521
330
2
100
AcDbEntity
  8
AM_VIS
100
AcDbLine
 10
657.166703529398
 20
-53.81794927514488
 30
0.0
 11
657.166703529398
 21
-36.81794927514488
 31
0.0
  0
LINE
  5
3522
330
2
100
AcDbEntity
  8
AM_VIS
100
AcDbLine
 10
656.166703529398
 20
-52.31794927514485
 30
0.0
 11
657.166703529398
 21
-53.81794927514485
 31
0.0
  0
LINE
  5
3523
330
2
100
AcDbEntity
  8
AM_VIS
100
AcDbLine
 10
647.1667035293981
 20
-53.81794927514491
 30
0.0
 11
648.166703529398
 21
-52.31794927514491
 31
0.0
  0
LINE
  5
3524
102
{ACAD_REACTORS
330
3B1F
102
}
330
2
100
AcDbEntity
  8
AM_VIS
100
AcDbLine
 10
647.1667035293981
 20
-36.81794927514491
 30
0.0
 11
647.1667035293981
 21
-53.81794927514491
 31
0.0
  0
LINE
  5
3525
330
2
100
AcDbEntity
  8
AM_VIS
100
AcDbLine
 10
648.166703529398
 20
-38.31794927514489
 30
0.0
 11
647.1667035293981
 21
-36.81794927514488
 31
0.0
  0
LINE
  5
3526
330
2
100
AcDbEntity
  8
AM_VIS
100
AcDbLine
 10
655.9167035293981
 20
-46.21794927514488
 30
0.0
 11
655.9167035293981
 21
-40.81794927514491
 31
0.0
  0
LINE
  5
3527
330
2
100
AcDbEntity
  8
AM_VIS
100
AcDbLine
 10
649.4167035293981
 20
-41.81794927514488
 30
0.0
 11
654.916703529398
 21
-41.81794927514488
 31
0.0
  0
LINE
  5
3528
330
2
100
AcDbEntity
  8
AM_VIS
100
AcDbLine
 10
649.4167035293981
 20
-45.21794927514489
 30
0.0
 11
649.4167035293981
 21
-41.81794927514491
 31
0.0
  0
LINE
  5
3529
330
2
100
AcDbEntity
  8
AM_VIS
100
AcDbLine
 10
654.916703529398
 20
-45.21794927514489
 30
0.0
 11
649.4167035293981
 21
-45.21794927514489
 31
0.0
  0
LINE
  5
352A
330
2
100
AcDbEntity
  8
AM_VIS
100
AcDbLine
 10
654.916703529398
 20
-41.81794927514488
 30
0.0
 11
654.916703529398
 21
-45.21794927514489
 31
0.0
  0
LINE
  5
352B
330
2
100
AcDbEntity
  8
AM_VIS
100
AcDbLine
 10
655.3167035293981
 20
-40.81794927514488
 30
0.0
 11
655.3167035293981
 21
-45.91794927514487
 31
0.0
  0
LINE
  5
352C
330
2
100
AcDbEntity
  8
AM_VIS
100
AcDbLine
 10
648.4167035293981
 20
-40.81794927514491
 30
0.0
 11
648.4167035293981
 21
-46.21794927514488
 31
0.0
  0
LINE
  5
352D
330
2
100
AcDbEntity
  8
AM_VIS
100
AcDbLine
 10
649.0167035293981
 20
-45.91794927514487
 30
0.0
 11
649.0167035293981
 21
-40.81794927514488
 31
0.0
  0
LINE
  5
352E
330
2
100
AcDbEntity
  8
AM_VIS
100
AcDbLine
 10
655.3167035293982
 20
-45.91794927514487
 30
0.0
 11
649.0167035293981
 21
-45.91794927514491
 31
0.0
  0
LINE
  5
352F
330
2
100
AcDbEntity
  8
AM_VIS
100
AcDbLine
 10
655.9167035293981
 20
-46.21794927514488
 30
0.0
 11
655.3167035293982
 21
-45.91794927514491
 31
0.0
  0
LINE
  5
3530
330
2
100
AcDbEntity
  8
AM_VIS
100
AcDbLine
 10
648.4167035293981
 20
-46.21794927514488
 30
0.0
 11
655.9167035293981
 21
-46.21794927514486
 31
0.0
  0
LINE
  5
3531
330
2
100
AcDbEntity
  8
AM_VIS
100
AcDbLine
 10
649.0167035293981
 20
-45.91794927514487
 30
0.0
 11
648.4167035293981
 21
-46.21794927514488
 31
0.0
  0
LINE
  5
3532
330
2
100
AcDbEntity
  8
AM_VIS
100
AcDbLine
 10
655.9167035293981
 20
-40.81794927514488
 30
0.0
 11
655.3167035293981
 21
-40.81794927514488
 31
0.0
  0
LINE
  5
3533
330
2
100
AcDbEntity
  8
AM_VIS
100
AcDbLine
 10
655.1667035293981
 20
-40.81794927514488
 30
0.0
 11
655.3167035293981
 21
-40.81794927514488
 31
0.0
  0
LINE
  5
3534
330
2
100
AcDbEntity
  8
AM_VIS
100
AcDbLine
 10
655.1667035293981
 20
-39.31794927514488
 30
0.0
 11
654.266703529398
 21
-39.31794927514488
 31
0.0
  0
LINE
  5
3535
330
2
100
AcDbEntity
  8
AM_VIS
100
AcDbLine
 10
655.1667035293981
 20
-40.81794927514488
 30
0.0
 11
655.1667035293981
 21
-39.31794927514488
 31
0.0
  0
LINE
  5
3536
330
2
100
AcDbEntity
  8
AM_VIS
100
AcDbLine
 10
654.266703529398
 20
-40.81794927514488
 30
0.0
 11
654.266703529398
 21
-39.31794927514488
 31
0.0
  0
LINE
  5
3537
330
2
100
AcDbEntity
  8
AM_VIS
100
AcDbLine
 10
650.0667035293981
 20
-40.81794927514488
 30
0.0
 11
654.266703529398
 21
-40.81794927514488
 31
0.0
  0
LINE
  5
3538
330
2
100
AcDbEntity
  8
AM_VIS
100
AcDbLine
 10
649.0167035293981
 20
-40.81794927514491
 30
0.0
 11
649.166703529398
 21
-40.81794927514488
 31
0.0
  0
LINE
  5
3539
330
2
100
AcDbEntity
  8
AM_VIS
100
AcDbLine
 10
649.0167035293981
 20
-40.81794927514491
 30
0.0
 11
648.4167035293981
 21
-40.81794927514491
 31
0.0
  0
LINE
  5
353A
330
2
100
AcDbEntity
  8
AM_VIS
100
AcDbLine
 10
650.0667035293981
 20
-39.31794927514491
 30
0.0
 11
649.166703529398
 21
-39.31794927514491
 31
0.0
  0
LINE
  5
353B
330
2
100
AcDbEntity
  8
AM_VIS
100
AcDbLine
 10
650.0667035293981
 20
-40.81794927514491
 30
0.0
 11
650.0667035293981
 21
-39.31794927514491
 31
0.0
  0
LINE
  5
353C
330
2
100
AcDbEntity
  8
AM_VIS
100
AcDbLine
 10
649.166703529398
 20
-40.81794927514491
 30
0.0
 11
649.166703529398
 21
-39.31794927514491
 31
0.0
  0
LINE
  5
353D
330
2
100
AcDbEntity
  8
AM_VIS
100
AcDbLine
 10
652.666703529398
 20
-40.81794927514488
 30
0.0
 11
652.666703529398
 21
-40.31794927514488
 31
0.0
  0
LINE
  5
353E
330
2
100
AcDbEntity
  8
AM_VIS
100
AcDbLine
 10
651.6667035293981
 20
-40.31794927514488
 30
0.0
 11
651.6667035293981
 21
-40.81794927514488
 31
0.0
  0
LINE
  5
353F
330
2
100
AcDbEntity
  8
AM_VIS
100
AcDbLine
 10
652.666703529398
 20
-40.31794927514488
 30
0.0
 11
651.6667035293981
 21
-40.31794927514488
 31
0.0
  0
LINE
  5
3540
330
2
100
AcDbEntity
  8
AM_VIS
100
AcDbLine
 10
656.166703529398
 20
-38.31794927514489
 30
0.0
 11
656.166703529398
 21
-52.31794927514489
 31
0.0
  0
LINE
  5
3541
330
2
100
AcDbEntity
  8
AM_VIS
100
AcDbLine
 10
656.166703529398
 20
-52.31794927514489
 30
0.0
 11
648.166703529398
 21
-52.31794927514491
 31
0.0
  0
LINE
  5
3542
330
2
100
AcDbEntity
  8
AM_VIS
100
AcDbLine
 10
648.166703529398
 20
-52.31794927514491
 30
0.0
 11
648.166703529398
 21
-38.31794927514491
 31
0.0
  0
LINE
  5
3543
330
2
100
AcDbEntity
  8
AM_VIS
100
AcDbLine
 10
648.166703529398
 20
-38.31794927514489
 30
0.0
 11
650.1667035293981
 21
-38.31794927514489
 31
0.0
  0
LINE
  5
3544
330
2
100
AcDbEntity
  8
AM_VIS
100
AcDbLine
 10
657.166703529398
 20
-36.81794927514488
 30
0.0
 11
656.166703529398
 21
-38.31794927514489
 31
0.0
  0
LINE
  5
3545
330
2
100
AcDbEntity
  8
AM_VIS
100
AcDbLine
 10
654.1667035293981
 20
-38.31794927514486
 30
0.0
 11
656.166703529398
 21
-38.31794927514486
 31
0.0
  0
LINE
  5
3546
330
2
100
AcDbEntity
  8
AM_VIS
100
AcDbLine
 10
650.1667035293981
 20
-36.81794927514488
 30
0.0
 11
647.1667035293981
 21
-36.81794927514488
 31
0.0
  0
LINE
  5
3547
330
2
100
AcDbEntity
  8
AM_VIS
100
AcDbLine
 10
657.166703529398
 20
-36.81794927514486
 30
0.0
 11
654.1667035293981
 21
-36.81794927514486
 31
0.0
  0
LINE
  5
3548
330
2
100
AcDbEntity
  8
AM_VIS
100
AcDbLine
 10
650.1667035293981
 20
-38.60079198761949
 30
0.0
 11
650.1667035293981
 21
-38.31794927514486
 31
0.0
  0
LINE
  5
3549
330
2
100
AcDbEntity
  8
AM_VIS
100
AcDbLine
 10
650.1667035293981
 20
-38.31794927514489
 30
0.0
 11
650.1667035293981
 21
-36.81794927514488
 31
0.0
  0
LINE
  5
354A
330
2
100
AcDbEntity
  8
AM_VIS
100
AcDbLine
 10
654.1667035293981
 20
-38.31794927514486
 30
0.0
 11
654.1667035293981
 21
-38.60079198761949
 31
0.0
  0
LINE
  5
354B
330
2
100
AcDbEntity
  8
AM_VIS
100
AcDbLine
 10
654.1667035293981
 20
-36.81794927514488
 30
0.0
 11
654.1667035293981
 21
-38.31794927514489
 31
0.0
  0
LINE
  5
354C
330
2
100
AcDbEntity
  8
AM_VIS
100
AcDbLine
 10
650.1667035293981
 20
-36.81794927514488
 30
0.0
 11
654.1667035293981
 21
-36.81794927514486
 31
0.0
  0
LINE
  5
354D
330
2
100
AcDbEntity
  8
AM_VIS
100
AcDbLine
 10
650.1667035293981
 20
-37.0179492751449
 30
0.0
 11
654.1667035293981
 21
-37.0179492751449
 31
0.0
  0
LINE
  5
354E
330
2
100
AcDbEntity
  8
AM_VIS
100
AcDbLine
 10
654.1667035293981
 20
-38.60079198761949
 30
0.0
 11
650.1667035293981
 21
-38.60079198761949
 31
0.0
  0
CIRCLE
  5
354F
330
2
100
AcDbEntity
  8
AM_VIS
100
AcDbCircle
 10
653.666703529398
 20
-44.01794927514489
 30
0.0
 40
0.25
  0
CIRCLE
  5
3550
330
2
100
AcDbEntity
  8
AM_VIS
100
AcDbCircle
 10
650.6667035293981
 20
-44.01794927514489
 30
0.0
 40
0.25
  0
LINE
  5
3551
330
2
100
AcDbEntity
  8
AM_VIS
100
AcDbLine
 10
649.1327918436545
 20
-58.16492012804835
 30
0.0
 11
648.9167035293981
 21
-58.21794927514486
 31
0.0
  0
LINE
  5
3552
330
2
100
AcDbEntity
  8
AM_VIS
100
AcDbLine
 10
648.9167035293981
 20
-58.21794927514488
 30
0.0
 11
648.7006152151415
 21
-58.27097842224143
 31
0.0
  0
LINE
  5
3553
330
2
100
AcDbEntity
  8
AM_VIS
100
AcDbLine
 10
648.9167035293981
 20
-58.21794927514492
 30
0.0
 11
649.1858209907518
 21
-58.3810084423053
 31
0.0
  0
LINE
  5
3554
330
2
100
AcDbEntity
  8
AM_VIS
100
AcDbLine
 10
649.0797626965576
 20
-57.94883181379259
 30
0.0
 11
648.9167035293981
 21
-58.21794927514488
 31
0.0
  0
LINE
  5
3555
330
2
100
AcDbEntity
  8
AM_VIS
100
AcDbLine
 10
649.1858209907515
 20
-58.3810084423068
 30
0.0
 11
649.0797626965585
 21
-57.94883181379382
 31
0.0
  0
LINE
  5
3556
330
2
100
AcDbEntity
  8
AM_VIS
100
AcDbLine
 10
648.6475860680456
 20
-58.05489010798684
 30
0.0
 11
649.0797626965585
 21
-57.94883181379379
 31
0.0
  0
LINE
  5
3557
330
2
100
AcDbEntity
  8
AM_VIS
100
AcDbLine
 10
648.9697326764951
 20
-58.43403758940332
 30
0.0
 11
648.9167035293981
 21
-58.21794927514488
 31
0.0
  0
LINE
  5
3558
330
2
100
AcDbEntity
  8
AM_VIS
100
AcDbLine
 10
648.7536443622377
 20
-58.48706673649857
 30
0.0
 11
648.9167035293981
 21
-58.21794927514488
 31
0.0
  0
LINE
  5
3559
330
2
100
AcDbEntity
  8
AM_VIS
100
AcDbLine
 10
648.6475860680456
 20
-58.05489010798684
 30
0.0
 11
648.7536443622385
 21
-58.48706673649982
 31
0.0
  0
LINE
  5
355A
330
2
100
AcDbEntity
  8
AM_VIS
100
AcDbLine
 10
648.9167035293981
 20
-58.21794927514488
 30
0.0
 11
648.863674382302
 21
-58.00186096089032
 31
0.0
  0
LINE
  5
355B
330
2
100
AcDbEntity
  8
AM_VIS
100
AcDbLine
 10
648.9167035293981
 20
-58.21794927514488
 30
0.0
 11
648.6475860680458
 21
-58.05489010798533
 31
0.0
  0
LINE
  5
355C
330
2
100
AcDbEntity
  8
AM_VIS
100
AcDbLine
 10
649.1858209907515
 20
-58.3810084423068
 30
0.0
 11
648.7536443622387
 21
-58.48706673649985
 31
0.0
  0
LINE
  5
355D
330
2
100
AcDbEntity
  8
AM_VIS
100
AcDbLine
 10
649.1858209907515
 20
-58.38100844230684
 30
0.0
 11
649.2484877835266
 21
-58.6363691703606
 31
0.0
  0
LINE
  5
355E
330
2
100
AcDbEntity
  8
AM_VIS
100
AcDbLine
 10
649.1858209907515
 20
-58.38100844230684
 30
0.0
 11
649.4411817188064
 21
-58.31834164953145
 31
0.0
  0
LINE
  5
355F
330
2
100
AcDbEntity
  8
AM_VIS
100
AcDbLine
 10
649.0170959037826
 20
-57.69347108573618
 30
0.0
 11
649.0797626965585
 21
-57.94883181379379
 31
0.0
  0
LINE
  5
3560
330
2
100
AcDbEntity
  8
AM_VIS
100
AcDbLine
 10
649.0797626965585
 20
-57.94883181379379
 30
0.0
 11
649.3351234246151
 21
-57.886165021018
 31
0.0
  0
LINE
  5
3561
330
2
100
AcDbEntity
  8
AM_VIS
100
AcDbLine
 10
648.5849192752695
 20
-57.79952937992923
 30
0.0
 11
648.6475860680456
 21
-58.0548901079868
 31
0.0
  0
LINE
  5
3562
330
2
100
AcDbEntity
  8
AM_VIS
100
AcDbLine
 10
648.3922253399889
 20
-58.11755690076271
 30
0.0
 11
648.6475860680456
 21
-58.05489010798684
 31
0.0
  0
LINE
  5
3563
330
2
100
AcDbEntity
  8
AM_VIS
100
AcDbLine
 10
648.7536443622387
 20
-58.48706673649989
 30
0.0
 11
648.8163111550137
 21
-58.74242746455369
 31
0.0
  0
LINE
  5
3564
330
2
100
AcDbEntity
  8
AM_VIS
100
AcDbLine
 10
648.4982836341837
 20
-58.54973352927527
 30
0.0
 11
648.7536443622387
 21
-58.48706673649989
 31
0.0
  0
CIRCLE
  5
3565
330
2
100
AcDbEntity
  8
AM_VIS
100
AcDbCircle
 10
648.9167035293981
 20
-58.21794927514488
 30
0.0
 40
1.600000000000022
  0
LINE
  5
3566
330
2
100
AcDbEntity
  8
AM_VIS
100
AcDbLine
 10
649.0170959037826
 20
-57.6934710857362
 30
0.0
 11
648.9318061030267
 21
-57.34592392954621
 31
0.0
  0
ELLIPSE
  5
3567
330
2
100
AcDbEntity
  8
AM_VIS
100
AcDbEllipse
 10
649.0711514742022
 20
-58.84730874744315
 30
0.0
 11
-2.286824568972775
 21
-0.5611981234118812
 31
0.0
210
0.0
220
0.0
230
1.0
 40
0.6361945781365053
 41
4.617755055602464
 42
4.80702290516692
  0
LINE
  5
3568
330
2
100
AcDbEntity
  8
AM_VIS
100
AcDbLine
 10
648.8163111550137
 20
-58.74242746455369
 30
0.0
 11
648.9016009557694
 21
-59.08997462074362
 31
0.0
  0
ELLIPSE
  5
3569
330
2
100
AcDbEntity
  8
AM_VIS
100
AcDbEllipse
 10
648.762255584594
 20
-57.58858980284663
 30
0.0
 11
2.286824568972774
 21
0.5611981234118851
 31
0.0
210
0.0
220
0.0
230
1.0
 40
0.6361945781365066
 41
4.617755055602462
 42
4.807022905166917
  0
LINE
  5
356A
330
2
100
AcDbEntity
  8
AM_VIS
100
AcDbLine
 10
648.1507364779929
 20
-58.63502333003115
 30
0.0
 11
648.4982836341837
 21
-58.54973352927524
 31
0.0
  0
ELLIPSE
  5
356B
330
2
100
AcDbEntity
  8
AM_VIS
100
AcDbEllipse
 10
648.2873440570998
 20
-58.37239721994897
 30
0.0
 11
-0.5611981234118837
 21
2.286824568972775
 31
0.0
210
0.0
220
0.0
230
0.9999999999999998
 40
0.6361945781365077
 41
4.617755055601613
 42
4.807022905166068
  0
LINE
  5
356C
330
2
100
AcDbEntity
  8
AM_VIS
100
AcDbLine
 10
648.3922253399889
 20
-58.11755690076267
 30
0.0
 11
648.0446781837997
 21
-58.20284670151821
 31
0.0
  0
LINE
  5
356D
330
2
100
AcDbEntity
  8
AM_VIS
100
AcDbLine
 10
649.6826705808043
 20
-57.80087522026249
 30
0.0
 11
649.3351234246151
 21
-57.88616502101803
 31
0.0
  0
ELLIPSE
  5
356E
330
2
100
AcDbEntity
  8
AM_VIS
100
AcDbEllipse
 10
649.5460630016963
 20
-58.06350133034084
 30
0.0
 11
0.5611981234118822
 21
-2.286824568972774
 31
0.0
210
0.0
220
0.0
230
1.0
 40
0.6361945781365101
 41
4.617755055603316
 42
4.807022905167772
  0
LINE
  5
356F
330
2
100
AcDbEntity
  8
AM_VIS
100
AcDbLine
 10
649.4411817188064
 20
-58.31834164953145
 30
0.0
 11
649.7887288749971
 21
-58.23305184877554
 31
0.0
  0
LINE
  5
3570
330
2
100
AcDbEntity
  8
AM_VIS
100
AcDbLine
 10
648.4996294745137
 20
-57.45198222373923
 30
0.0
 11
648.5849192752695
 21
-57.79952937992923
 31
0.0
  0
LINE
  5
3571
330
2
100
AcDbEntity
  8
AM_VIS
100
AcDbLine
 10
649.3337775842824
 20
-58.9839163265506
 30
0.0
 11
649.2484877835267
 21
-58.63636917036067
 31
0.0
  0
ARC
  5
3572
330
2
100
AcDbEntity
  8
AM_VIS
100
AcDbCircle
 10
648.9167035293981
 20
-58.21794927514492
 30
0.0
 40
0.5339999999999919
100
AcDbArc
 50
308.4125063669301
 51
349.1638696623682
  0
ARC
  5
3573
330
2
100
AcDbEntity
  8
AM_VIS
100
AcDbCircle
 10
648.9167035293981
 20
-58.21794927514492
 30
0.0
 40
0.5339999999999919
100
AcDbArc
 50
38.41250636669811
 51
79.16386966260453
  0
ARC
  5
3574
330
2
100
AcDbEntity
  8
AM_VIS
100
AcDbCircle
 10
648.9167035293981
 20
-58.21794927514492
 30
0.0
 40
0.5339999999999919
100
AcDbArc
 50
128.4125063669305
 51
169.1638696628363
  0
ARC
  5
3575
330
2
100
AcDbEntity
  8
AM_VIS
100
AcDbCircle
 10
648.9167035293981
 20
-58.21794927514492
 30
0.0
 40
0.5339999999999919
100
AcDbArc
 50
218.4125063671673
 51
259.1638696626045
  0
LINE
  5
3576
330
2
100
AcDbEntity
  8
AM_VIS
100
AcDbLine
 10
655.6327918436546
 20
-58.16492012804835
 30
0.0
 11
655.416703529398
 21
-58.21794927514486
 31
0.0
  0
LINE
  5
3577
330
2
100
AcDbEntity
  8
AM_VIS
100
AcDbLine
 10
655.416703529398
 20
-58.21794927514488
 30
0.0
 11
655.2006152151416
 21
-58.27097842224143
 31
0.0
  0
LINE
  5
3578
330
2
100
AcDbEntity
  8
AM_VIS
100
AcDbLine
 10
655.416703529398
 20
-58.21794927514492
 30
0.0
 11
655.6858209907518
 21
-58.3810084423053
 31
0.0
  0
LINE
  5
3579
330
2
100
AcDbEntity
  8
AM_VIS
100
AcDbLine
 10
655.5797626965577
 20
-57.94883181379256
 30
0.0
 11
655.416703529398
 21
-58.21794927514486
 31
0.0
  0
LINE
  5
357A
330
2
100
AcDbEntity
  8
AM_VIS
100
AcDbLine
 10
655.6858209907516
 20
-58.3810084423068
 30
0.0
 11
655.5797626965586
 21
-57.94883181379382
 31
0.0
  0
LINE
  5
357B
330
2
100
AcDbEntity
  8
AM_VIS
100
AcDbLine
 10
655.1475860680455
 20
-58.05489010798684
 30
0.0
 11
655.5797626965586
 21
-57.94883181379379
 31
0.0
  0
LINE
  5
357C
330
2
100
AcDbEntity
  8
AM_VIS
100
AcDbLine
 10
655.4697326764951
 20
-58.43403758940332
 30
0.0
 11
655.416703529398
 21
-58.21794927514488
 31
0.0
  0
LINE
  5
357D
330
2
100
AcDbEntity
  8
AM_VIS
100
AcDbLine
 10
655.2536443622377
 20
-58.48706673649857
 30
0.0
 11
655.416703529398
 21
-58.21794927514488
 31
0.0
  0
LINE
  5
357E
330
2
100
AcDbEntity
  8
AM_VIS
100
AcDbLine
 10
655.1475860680455
 20
-58.05489010798684
 30
0.0
 11
655.2536443622386
 21
-58.48706673649982
 31
0.0
  0
LINE
  5
357F
330
2
100
AcDbEntity
  8
AM_VIS
100
AcDbLine
 10
655.416703529398
 20
-58.21794927514488
 30
0.0
 11
655.363674382302
 21
-58.00186096089032
 31
0.0
  0
LINE
  5
3580
330
2
100
AcDbEntity
  8
AM_VIS
100
AcDbLine
 10
655.416703529398
 20
-58.21794927514488
 30
0.0
 11
655.1475860680458
 21
-58.05489010798533
 31
0.0
  0
LINE
  5
3581
330
2
100
AcDbEntity
  8
AM_VIS
100
AcDbLine
 10
655.6858209907516
 20
-58.3810084423068
 30
0.0
 11
655.2536443622386
 21
-58.48706673649985
 31
0.0
  0
LINE
  5
3582
330
2
100
AcDbEntity
  8
AM_VIS
100
AcDbLine
 10
655.6858209907516
 20
-58.38100844230684
 30
0.0
 11
655.7484877835268
 21
-58.63636917036058
 31
0.0
  0
LINE
  5
3583
330
2
100
AcDbEntity
  8
AM_VIS
100
AcDbLine
 10
655.6858209907516
 20
-58.38100844230684
 30
0.0
 11
655.9411817188065
 21
-58.31834164953145
 31
0.0
  0
LINE
  5
3584
330
2
100
AcDbEntity
  8
AM_VIS
100
AcDbLine
 10
655.5170959037825
 20
-57.69347108573618
 30
0.0
 11
655.5797626965586
 21
-57.94883181379375
 31
0.0
  0
LINE
  5
3585
330
2
100
AcDbEntity
  8
AM_VIS
100
AcDbLine
 10
655.5797626965586
 20
-57.94883181379379
 30
0.0
 11
655.8351234246152
 21
-57.88616502101797
 31
0.0
  0
LINE
  5
3586
330
2
100
AcDbEntity
  8
AM_VIS
100
AcDbLine
 10
655.0849192752695
 20
-57.79952937992923
 30
0.0
 11
655.1475860680455
 21
-58.0548901079868
 31
0.0
  0
LINE
  5
3587
330
2
100
AcDbEntity
  8
AM_VIS
100
AcDbLine
 10
654.8922253399889
 20
-58.11755690076271
 30
0.0
 11
655.1475860680455
 21
-58.05489010798684
 31
0.0
  0
LINE
  5
3588
330
2
100
AcDbEntity
  8
AM_VIS
100
AcDbLine
 10
655.2536443622386
 20
-58.48706673649989
 30
0.0
 11
655.3163111550137
 21
-58.74242746455369
 31
0.0
  0
LINE
  5
3589
330
2
100
AcDbEntity
  8
AM_VIS
100
AcDbLine
 10
654.9982836341838
 20
-58.54973352927527
 30
0.0
 11
655.2536443622386
 21
-58.48706673649989
 31
0.0
  0
CIRCLE
  5
358A
330
2
100
AcDbEntity
  8
AM_VIS
100
AcDbCircle
 10
655.416703529398
 20
-58.21794927514488
 30
0.0
 40
1.600000000000022
  0
LINE
  5
358B
330
2
100
AcDbEntity
  8
AM_VIS
100
AcDbLine
 10
655.5170959037825
 20
-57.6934710857362
 30
0.0
 11
655.4318061030268
 21
-57.34592392954621
 31
0.0
  0
ELLIPSE
  5
358C
330
2
100
AcDbEntity
  8
AM_VIS
100
AcDbEllipse
 10
655.5711514742021
 20
-58.84730874744315
 30
0.0
 11
-2.286824568972775
 21
-0.5611981234118836
 31
0.0
210
0.0
220
0.0
230
1.0
 40
0.6361945781365066
 41
4.61775505560246
 42
4.807022905166922
  0
LINE
  5
358D
330
2
100
AcDbEntity
  8
AM_VIS
100
AcDbLine
 10
655.3163111550137
 20
-58.74242746455369
 30
0.0
 11
655.4016009557694
 21
-59.08997462074362
 31
0.0
  0
ELLIPSE
  5
358E
330
2
100
AcDbEntity
  8
AM_VIS
100
AcDbEllipse
 10
655.2622555845941
 20
-57.58858980284663
 30
0.0
 11
2.286824568972775
 21
0.5611981234118865
 31
0.0
210
0.0
220
0.0
230
1.0
 40
0.6361945781365052
 41
4.617755055602465
 42
4.807022905166916
  0
LINE
  5
358F
330
2
100
AcDbEntity
  8
AM_VIS
100
AcDbLine
 10
654.650736477993
 20
-58.63502333003115
 30
0.0
 11
654.9982836341838
 21
-58.54973352927524
 31
0.0
  0
ELLIPSE
  5
3590
330
2
100
AcDbEntity
  8
AM_VIS
100
AcDbEllipse
 10
654.7873440570998
 20
-58.37239721994897
 30
0.0
 11
-0.5611981234118825
 21
2.286824568972775
 31
0.0
210
0.0
220
0.0
230
1.0
 40
0.636194578136508
 41
4.617755055601615
 42
4.80702290516607
  0
LINE
  5
3591
330
2
100
AcDbEntity
  8
AM_VIS
100
AcDbLine
 10
654.8922253399889
 20
-58.11755690076267
 30
0.0
 11
654.5446781837997
 21
-58.20284670151821
 31
0.0
  0
LINE
  5
3592
330
2
100
AcDbEntity
  8
AM_VIS
100
AcDbLine
 10
656.1826705808044
 20
-57.80087522026249
 30
0.0
 11
655.8351234246152
 21
-57.88616502101803
 31
0.0
  0
ELLIPSE
  5
3593
330
2
100
AcDbEntity
  8
AM_VIS
100
AcDbEllipse
 10
656.0460630016964
 20
-58.06350133034084
 30
0.0
 11
0.5611981234118872
 21
-2.286824568972773
 31
0.0
210
0.0
220
0.0
230
0.9999999999999998
 40
0.63619457813651
 41
4.617755055603312
 42
4.807022905167766
  0
LINE
  5
3594
330
2
100
AcDbEntity
  8
AM_VIS
100
AcDbLine
 10
655.9411817188064
 20
-58.31834164953145
 30
0.0
 11
656.2887288749972
 21
-58.23305184877554
 31
0.0
  0
LINE
  5
3595
330
2
100
AcDbEntity
  8
AM_VIS
100
AcDbLine
 10
654.9996294745137
 20
-57.45198222373923
 30
0.0
 11
655.0849192752695
 21
-57.79952937992923
 31
0.0
  0
LINE
  5
3596
330
2
100
AcDbEntity
  8
AM_VIS
100
AcDbLine
 10
655.8337775842825
 20
-58.9839163265506
 30
0.0
 11
655.7484877835268
 21
-58.63636917036067
 31
0.0
  0
ARC
  5
3597
330
2
100
AcDbEntity
  8
AM_VIS
100
AcDbCircle
 10
655.416703529398
 20
-58.21794927514488
 30
0.0
 40
0.5339999999999919
100
AcDbArc
 50
308.4125063669301
 51
349.1638696623682
  0
ARC
  5
3598
330
2
100
AcDbEntity
  8
AM_VIS
100
AcDbCircle
 10
655.416703529398
 20
-58.21794927514488
 30
0.0
 40
0.5339999999999919
100
AcDbArc
 50
38.41250636669747
 51
79.16386966260453
  0
ARC
  5
3599
330
2
100
AcDbEntity
  8
AM_VIS
100
AcDbCircle
 10
655.416703529398
 20
-58.21794927514488
 30
0.0
 40
0.5339999999999919
100
AcDbArc
 50
128.4125063669305
 51
169.1638696628363
  0
ARC
  5
359A
330
2
100
AcDbEntity
  8
AM_VIS
100
AcDbCircle
 10
655.416703529398
 20
-58.21794927514488
 30
0.0
 40
0.5339999999999919
100
AcDbArc
 50
218.412506367168
 51
259.1638696626047
  0
DIMENSION
  5
3B11
102
{ACAD_XDICTIONARY
360
3B1E
102
}
102
{ACAD_REACTORS
330
3B1F
102
}
330
2
100
AcDbEntity
  8
AM_5
100
AcDbDimension
  2
*D11
 10
639.6225459657157
 20
-64.31794927514488
 30
0.0
 11
637.6973433280362
 21
-50.56794927514479
 31
0.0
 70
    32
 71
     5
 42
27.49999999999997
  3
AM_ISO$0
100
AcDbAlignedDimension
 13
647.1667035293981
 23
-36.81794927514491
 33
0.0
 14
646.6667035293982
 24
-64.31794927514488
 34
0.0
 50
90.0
100
AcDbRotatedDimension
1001
ACAD
1000
DSTYLE
1002
{
1070
    40
1040
0.6999860002799944
1070
   174
1070
     1
1002
}
  0
LINE
  5
504D
330
2
100
AcDbEntity
  8
AM_7
100
AcDbLine
 10
597.0988026086494
 20
-16.2355401677282
 30
0.0
 11
597.0988026086494
 21
-14.05099149243116
 31
0.0
  0
LINE
  5
504F
330
2
100
AcDbEntity
  8
AM_7
100
AcDbLine
 10
595.9705431117447
 20
-15.2355401677282
 30
0.0
 11
598.2705431117448
 21
-15.2355401677282
 31
0.0
  0
LINE
  5
5052
330
2
100
AcDbEntity
  8
AM_7
100
AcDbLine
 10
559.1901164705872
 20
-10.83554016772828
 30
0.0
 11
561.8071135239785
 21
-10.83554016772828
 31
0.0
  0
LINE
  5
5053
330
2
100
AcDbEntity
  8
AM_7
100
AcDbLine
 10
560.4988026086496
 20
-12.54239536820316
 30
0.0
 11
560.4988026086496
 21
-9.386835227242585
 31
0.0
  0
LINE
  5
505A
330
2
100
AcDbEntity
  8
AM_7
100
AcDbLine
 10
576.0488026086496
 20
-8.93554016772822
 30
0.0
 11
578.0488026086495
 21
-8.93554016772822
 31
0.0
  0
LINE
  5
505B
330
2
100
AcDbEntity
  8
AM_7
100
AcDbLine
 10
577.0488026086495
 20
-9.93554016772822
 30
0.0
 11
577.0488026086495
 21
-7.93554016772822
 31
0.0
  0
LINE
  5
505C
102
{ACAD_REACTORS
330
5484
102
}
330
2
100
AcDbEntity
  8
AM_7
100
AcDbLine
 10
573.8488026086496
 20
-8.93554016772822
 30
0.0
 11
575.2488026086496
 21
-8.93554016772822
 31
0.0
  0
LINE
  5
505D
330
2
100
AcDbEntity
  8
AM_7
100
AcDbLine
 10
578.8488026086496
 20
-8.93554016772822
 30
0.0
 11
580.2488026086495
 21
-8.93554016772822
 31
0.0
  0
LINE
  5
505E
330
2
100
AcDbEntity
  8
AM_7
100
AcDbLine
 10
577.0488026086495
 20
-12.13554016772824
 30
0.0
 11
577.0488026086495
 21
-10.7355401677282
 31
0.0
  0
LINE
  5
505F
102
{ACAD_REACTORS
330
53C2
330
53F0
102
}
330
2
100
AcDbEntity
  8
AM_7
100
AcDbLine
 10
577.0488026086495
 20
-7.135540167728237
 30
0.0
 11
577.0488026086495
 21
-5.735540167728203
 31
0.0
  0
LINE
  5
5060
330
2
100
AcDbEntity
  8
AM_7
100
AcDbLine
 10
583.0488026086495
 20
-17.13554016772821
 30
0.0
 11
585.0488026086495
 21
-17.13554016772821
 31
0.0
  0
LINE
  5
5061
330
2
100
AcDbEntity
  8
AM_7
100
AcDbLine
 10
584.0488026086496
 20
-18.13554016772821
 30
0.0
 11
584.0488026086496
 21
-16.13554016772821
 31
0.0
  0
LINE
  5
5062
102
{ACAD_REACTORS
330
5484
330
549E
102
}
330
2
100
AcDbEntity
  8
AM_7
100
AcDbLine
 10
580.8488026086496
 20
-17.13554016772821
 30
0.0
 11
582.2488026086496
 21
-17.13554016772821
 31
0.0
  0
LINE
  5
5063
330
2
100
AcDbEntity
  8
AM_7
100
AcDbLine
 10
585.8488026086496
 20
-17.13554016772821
 30
0.0
 11
587.2488026086496
 21
-17.13554016772821
 31
0.0
  0
LINE
  5
5064
330
2
100
AcDbEntity
  8
AM_7
100
AcDbLine
 10
584.0488026086496
 20
-20.33554016772823
 30
0.0
 11
584.0488026086496
 21
-18.93554016772819
 31
0.0
  0
LINE
  5
5065
102
{ACAD_REACTORS
330
53F0
102
}
330
2
100
AcDbEntity
  8
AM_7
100
AcDbLine
 10
584.0488026086496
 20
-15.33554016772822
 30
0.0
 11
584.0488026086496
 21
-13.93554016772819
 31
0.0
  0
LINE
  5
5069
330
2
100
AcDbEntity
  8
AM_7
100
AcDbLine
 10
595.2796167810513
 20
-56.51794927514493
 30
0.0
 11
598.9796167810513
 21
-56.51794927514493
 31
0.0
  0
LINE
  5
506B
330
2
100
AcDbEntity
  8
AM_7
100
AcDbLine
 10
597.0988026086494
 20
-58.43301568785086
 30
0.0
 11
597.0988026086494
 21
-54.73301568785086
 31
0.0
  0
LINE
  5
506D
330
2
100
AcDbEntity
  8
AM_7
100
AcDbLine
 10
618.0988026086495
 20
-58.21794927514488
 30
0.0
 11
608.5988026086495
 21
-58.21794927514488
 31
0.0
  0
LINE
  5
5070
330
2
100
AcDbEntity
  8
AM_7
100
AcDbLine
 10
606.5988026086495
 20
-66.41794927514489
 30
0.0
 11
606.5988026086495
 21
-56.5857195492209
 31
0.0
  0
LINE
  5
5071
330
2
100
AcDbEntity
  8
AM_7
100
AcDbLine
 10
550.9988026086496
 20
-66.41794927514493
 30
0.0
 11
550.9988026086496
 21
-56.58571954922094
 31
0.0
  0
LINE
  5
5074
330
2
100
AcDbEntity
  8
AM_7
100
AcDbLine
 10
576.9488026086495
 20
-51.01794927514493
 30
0.0
 11
580.6488026086494
 21
-51.01794927514493
 31
0.0
  0
LINE
  5
5076
330
2
100
AcDbEntity
  8
AM_7
100
AcDbLine
 10
578.7988026086495
 20
-52.86794927514492
 30
0.0
 11
578.7988026086495
 21
-49.16794927514493
 31
0.0
  0
LINE
  5
5079
330
2
100
AcDbEntity
  8
AM_7
100
AcDbLine
 10
584.0488026086496
 20
-46.31794927514491
 30
0.0
 11
584.0488026086496
 21
-53.71794927514493
 31
0.0
  0
LINE
  5
5081
330
2
100
AcDbEntity
  8
AM_7
100
AcDbLine
 10
539.4988026086496
 20
-58.21794927514493
 30
0.0
 11
548.9988026086495
 21
-58.21794927514493
 31
0.0
  0
LINE
  5
5082
102
{ACAD_REACTORS
330
57FC
102
}
330
2
100
AcDbEntity
  8
AM_7
100
AcDbLine
 10
622.9755421388384
 20
-109.2602744870789
 30
0.0
 11
533.6622402972515
 21
-109.2602744870789
 31
0.0
  0
LINE
  5
5088
330
2
100
AcDbEntity
  8
AM_7
100
AcDbLine
 10
606.5988026086495
 20
-109.2602744870789
 30
0.0
 11
606.5988026086495
 21
-109.2602744870789
 31
0.0
  0
LINE
  5
5089
330
2
100
AcDbEntity
  8
AM_7
100
AcDbLine
 10
606.5988026086495
 20
-109.2602744870789
 30
0.0
 11
606.5988026086495
 21
-109.2602744870789
 31
0.0
  0
LINE
  5
508C
330
2
100
AcDbEntity
  8
AM_7
100
AcDbLine
 10
606.5988026086495
 20
-115.6602744870789
 30
0.0
 11
606.5988026086495
 21
-109.2602744870789
 31
0.0
  0
LINE
  5
508D
330
2
100
AcDbEntity
  8
AM_7
100
AcDbLine
 10
606.5988026086495
 20
-109.2602744870789
 30
0.0
 11
606.5988026086495
 21
-102.8602744870789
 31
0.0
  0
LINE
  5
508E
330
2
100
AcDbEntity
  8
AM_7
100
AcDbLine
 10
550.9988026086496
 20
-109.2602744870788
 30
0.0
 11
550.9988026086496
 21
-109.2602744870788
 31
0.0
  0
LINE
  5
508F
330
2
100
AcDbEntity
  8
AM_7
100
AcDbLine
 10
550.9988026086496
 20
-109.2602744870788
 30
0.0
 11
550.9988026086496
 21
-109.2602744870788
 31
0.0
  0
LINE
  5
5092
330
2
100
AcDbEntity
  8
AM_7
100
AcDbLine
 10
550.9988026086496
 20
-115.6602744870788
 30
0.0
 11
550.9988026086496
 21
-109.2602744870788
 31
0.0
  0
LINE
  5
5093
330
2
100
AcDbEntity
  8
AM_7
100
AcDbLine
 10
550.9988026086496
 20
-109.2602744870788
 30
0.0
 11
550.9988026086496
 21
-102.8602744870788
 31
0.0
  0
LINE
  5
5098
330
2
100
AcDbEntity
  8
AM_7
100
AcDbLine
 10
580.2988026086495
 20
-107.2602744870789
 30
0.0
 11
584.2988026086495
 21
-107.2602744870789
 31
0.0
  0
LINE
  5
5099
102
{ACAD_REACTORS
330
57FC
102
}
330
2
100
AcDbEntity
  8
AM_7
100
AcDbLine
 10
582.2988026086496
 20
-109.2602744870789
 30
0.0
 11
582.2988026086496
 21
-105.2602744870789
 31
0.0
  0
LINE
  5
50B3
330
2
100
AcDbEntity
  8
AM_7
100
AcDbLine
 10
585.7988026086495
 20
-109.2602744870789
 30
0.0
 11
585.7988026086495
 21
-109.2602744870789
 31
0.0
  0
LINE
  5
50B4
330
2
100
AcDbEntity
  8
AM_7
100
AcDbLine
 10
585.7988026086495
 20
-109.2602744870789
 30
0.0
 11
585.7988026086495
 21
-109.2602744870789
 31
0.0
  0
LINE
  5
50B6
330
2
100
AcDbEntity
  8
AM_7
100
AcDbLine
 10
585.7988026086495
 20
-109.2602744870789
 30
0.0
 11
589.7988026086495
 21
-109.2602744870789
 31
0.0
  0
LINE
  5
50DE
330
2
100
AcDbEntity
  8
AM_VIS
100
AcDbLine
 10
590.5988026086496
 20
-8.035540167728214
 30
0.0
 11
590.5988026086496
 21
-18.03554016772821
 31
0.0
  0
LINE
  5
50DF
330
2
100
AcDbEntity
  8
AM_VIS
100
AcDbLine
 10
590.5988026086496
 20
-8.035540167728214
 30
0.0
 11
600.0988026086495
 21
-8.035540167728214
 31
0.0
  0
LINE
  5
50E0
330
2
100
AcDbEntity
  8
AM_VIS
100
AcDbLine
 10
590.5988026086496
 20
-18.03554016772821
 30
0.0
 11
600.0988026086495
 21
-18.03554016772821
 31
0.0
  0
CIRCLE
  5
50E3
330
2
100
AcDbEntity
  8
AM_VIS
100
AcDbCircle
 10
597.0988026086494
 20
-15.2355401677282
 30
0.0
 40
0.7
  0
LINE
  5
50E4
330
2
100
AcDbEntity
  8
AM_VIS
100
AcDbLine
 10
613.0988026086495
 20
-18.03554016772821
 30
0.0
 11
600.0988026086495
 21
-18.03554016772821
 31
0.0
  0
LINE
  5
50E5
330
2
100
AcDbEntity
  8
AM_VIS
100
AcDbLine
 10
600.0988026086495
 20
-8.035540167728214
 30
0.0
 11
613.0988026086495
 21
-8.035540167728214
 31
0.0
  0
LINE
  5
50E6
330
2
100
AcDbEntity
  8
AM_VIS
100
AcDbLine
 10
600.0988026086495
 20
-18.03554016772821
 30
0.0
 11
600.0988026086496
 21
-8.035540167728214
 31
0.0
  0
LINE
  5
50E7
330
2
100
AcDbEntity
  8
AM_VIS
100
AcDbLine
 10
613.0988026086495
 20
-18.03554016772821
 30
0.0
 11
613.0988026086495
 21
-8.035540167728214
 31
0.0
  0
LINE
  5
50E8
330
2
100
AcDbEntity
  8
AM_VIS
100
AcDbLine
 10
618.0988026086495
 20
-17.03554016772818
 30
0.0
 11
616.5988026086495
 21
-18.03554016772818
 31
0.0
  0
LINE
  5
50E9
330
2
100
AcDbEntity
  8
AM_VIS
100
AcDbLine
 10
618.0988026086495
 20
-9.285540167728214
 30
0.0
 11
621.5988026086495
 21
-9.285540167728214
 31
0.0
  0
LINE
  5
50EA
330
2
100
AcDbEntity
  8
AM_VIS
100
AcDbLine
 10
621.5988026086495
 20
-9.285540167728214
 30
0.0
 11
622.5988026086495
 21
-9.885540167728208
 31
0.0
  0
LINE
  5
50EB
330
2
100
AcDbEntity
  8
AM_VIS
100
AcDbLine
 10
622.5988026086495
 20
-10.03554016772821
 30
0.0
 11
622.5988026086495
 21
-9.885540167728208
 31
0.0
  0
LINE
  5
50EC
330
2
100
AcDbEntity
  8
AM_VIS
100
AcDbLine
 10
622.5988026086495
 20
-10.03554016772821
 30
0.0
 11
622.5988026086495
 21
-10.93554016772822
 31
0.0
  0
LINE
  5
50ED
330
2
100
AcDbEntity
  8
AM_VIS
100
AcDbLine
 10
618.0988026086495
 20
-10.03554016772821
 30
0.0
 11
622.5988026086495
 21
-10.03554016772821
 31
0.0
  0
LINE
  5
50EE
330
2
100
AcDbEntity
  8
AM_VIS
100
AcDbLine
 10
622.5988026086495
 20
-10.93554016772822
 30
0.0
 11
618.0988026086495
 21
-10.93554016772822
 31
0.0
  0
LINE
  5
50EF
330
2
100
AcDbEntity
  8
AM_VIS
100
AcDbLine
 10
622.5988026086495
 20
-15.13554016772818
 30
0.0
 11
622.5988026086495
 21
-10.93554016772819
 31
0.0
  0
LINE
  5
50F0
330
2
100
AcDbEntity
  8
AM_VIS
100
AcDbLine
 10
622.5988026086495
 20
-16.18554016772819
 30
0.0
 11
622.5988026086495
 21
-16.03554016772821
 31
0.0
  0
LINE
  5
50F1
330
2
100
AcDbEntity
  8
AM_VIS
100
AcDbLine
 10
622.5988026086495
 20
-16.18554016772819
 30
0.0
 11
621.5988026086495
 21
-16.78554016772818
 31
0.0
  0
LINE
  5
50F2
330
2
100
AcDbEntity
  8
AM_VIS
100
AcDbLine
 10
618.0988026086495
 20
-16.78554016772818
 30
0.0
 11
621.5988026086495
 21
-16.78554016772818
 31
0.0
  0
LINE
  5
50F3
330
2
100
AcDbEntity
  8
AM_VIS
100
AcDbLine
 10
622.5988026086495
 20
-15.13554016772818
 30
0.0
 11
622.5988026086495
 21
-16.03554016772821
 31
0.0
  0
LINE
  5
50F4
330
2
100
AcDbEntity
  8
AM_VIS
100
AcDbLine
 10
618.0988026086495
 20
-15.13554016772818
 30
0.0
 11
622.5988026086495
 21
-15.13554016772818
 31
0.0
  0
LINE
  5
50F5
330
2
100
AcDbEntity
  8
AM_VIS
100
AcDbLine
 10
622.5988026086495
 20
-16.03554016772821
 30
0.0
 11
618.0988026086495
 21
-16.03554016772821
 31
0.0
  0
LINE
  5
50F6
330
2
100
AcDbEntity
  8
AM_VIS
100
AcDbLine
 10
621.0988026086495
 20
-12.53554016772821
 30
0.0
 11
619.8988026086496
 21
-12.53554016772821
 31
0.0
  0
LINE
  5
50F7
330
2
100
AcDbEntity
  8
AM_VIS
100
AcDbLine
 10
621.0988026086495
 20
-12.53554016772821
 30
0.0
 11
621.0988026086495
 21
-13.53554016772821
 31
0.0
  0
LINE
  5
50F8
330
2
100
AcDbEntity
  8
AM_VIS
100
AcDbLine
 10
619.8988026086496
 20
-13.53554016772821
 30
0.0
 11
621.0988026086495
 21
-13.53554016772821
 31
0.0
  0
LINE
  5
50F9
330
2
100
AcDbEntity
  8
AM_VIS
100
AcDbLine
 10
619.8988026086496
 20
-12.53554016772821
 30
0.0
 11
619.8988026086496
 21
-13.53554016772821
 31
0.0
  0
LINE
  5
50FA
330
2
100
AcDbEntity
  8
AM_VIS
100
AcDbLine
 10
618.0988026086495
 20
-17.03554016772818
 30
0.0
 11
618.0988026086495
 21
-15.03554016772818
 31
0.0
  0
LINE
  5
50FB
330
2
100
AcDbEntity
  8
AM_VIS
100
AcDbLine
 10
616.5988026086495
 20
-8.035540167728214
 30
0.0
 11
618.0988026086495
 21
-9.035540167728214
 31
0.0
  0
LINE
  5
50FC
330
2
100
AcDbEntity
  8
AM_VIS
100
AcDbLine
 10
618.0988026086495
 20
-11.03554016772821
 30
0.0
 11
618.0988026086495
 21
-9.035540167728214
 31
0.0
  0
LINE
  5
50FD
330
2
100
AcDbEntity
  8
AM_VIS
100
AcDbLine
 10
616.5988026086495
 20
-15.03554016772818
 30
0.0
 11
616.5988026086495
 21
-18.03554016772818
 31
0.0
  0
LINE
  5
50FE
330
2
100
AcDbEntity
  8
AM_VIS
100
AcDbLine
 10
613.0988026086495
 20
-18.03554016772818
 30
0.0
 11
616.5988026086495
 21
-18.03554016772818
 31
0.0
  0
LINE
  5
50FF
330
2
100
AcDbEntity
  8
AM_VIS
100
AcDbLine
 10
613.0988026086495
 20
-8.035540167728214
 30
0.0
 11
613.0988026086495
 21
-18.03554016772821
 31
0.0
  0
LINE
  5
5100
330
2
100
AcDbEntity
  8
AM_VIS
100
AcDbLine
 10
613.0988026086495
 20
-8.035540167728214
 30
0.0
 11
616.5988026086495
 21
-8.035540167728214
 31
0.0
  0
LINE
  5
5101
330
2
100
AcDbEntity
  8
AM_VIS
100
AcDbLine
 10
616.5988026086495
 20
-8.035540167728214
 30
0.0
 11
616.5988026086495
 21
-11.03554016772821
 31
0.0
  0
LINE
  5
5102
330
2
100
AcDbEntity
  8
AM_VIS
100
AcDbLine
 10
618.0988026086495
 20
-15.03554016772818
 30
0.0
 11
616.5988026086495
 21
-15.03554016772818
 31
0.0
  0
LINE
  5
5103
330
2
100
AcDbEntity
  8
AM_VIS
100
AcDbLine
 10
616.5988026086495
 20
-15.03554016772818
 30
0.0
 11
615.7988026086496
 21
-15.03554016772818
 31
0.0
  0
LINE
  5
5104
330
2
100
AcDbEntity
  8
AM_VIS
100
AcDbLine
 10
615.7988026086496
 20
-11.03554016772821
 30
0.0
 11
616.5988026086495
 21
-11.03554016772821
 31
0.0
  0
LINE
  5
5105
330
2
100
AcDbEntity
  8
AM_VIS
100
AcDbLine
 10
616.5988026086495
 20
-11.03554016772821
 30
0.0
 11
618.0988026086495
 21
-11.03554016772821
 31
0.0
  0
LINE
  5
5106
330
2
100
AcDbEntity
  8
AM_VIS
100
AcDbLine
 10
615.7988026086496
 20
-15.03554016772818
 30
0.0
 11
615.7988026086496
 21
-11.03554016772818
 31
0.0
  0
LINE
  5
5107
330
2
100
AcDbEntity
  8
AM_VIS
100
AcDbLine
 10
616.515959896175
 20
-15.03554016772818
 30
0.0
 11
616.515959896175
 21
-11.03554016772818
 31
0.0
  0
LINE
  5
5108
330
2
100
AcDbEntity
  8
AM_VIS
100
AcDbLine
 10
618.0988026086495
 20
-11.03554016772821
 30
0.0
 11
618.0988026086495
 21
-15.03554016772821
 31
0.0
  0
LINE
  5
5109
330
2
100
AcDbEntity
  8
AM_VIS
100
AcDbLine
 10
585.6488026086496
 20
-18.03554016772821
 30
0.0
 11
585.0488026086495
 21
-18.03554016772821
 31
0.0
  0
LINE
  5
510A
330
2
100
AcDbEntity
  8
AM_VIS
100
AcDbLine
 10
585.0488026086495
 20
-18.03554016772821
 30
0.0
 11
584.5488026086496
 21
-18.53554016772821
 31
0.0
  0
LINE
  5
510B
330
2
100
AcDbEntity
  8
AM_VIS
100
AcDbLine
 10
584.5488026086496
 20
-18.53554016772821
 30
0.0
 11
583.5488026086495
 21
-18.53554016772821
 31
0.0
  0
LINE
  5
510C
330
2
100
AcDbEntity
  8
AM_VIS
100
AcDbLine
 10
583.5488026086495
 20
-18.53554016772821
 30
0.0
 11
583.0488026086495
 21
-18.03554016772821
 31
0.0
  0
LINE
  5
510D
330
2
100
AcDbEntity
  8
AM_VIS
100
AcDbLine
 10
575.4488026086495
 20
-8.035540167728214
 30
0.0
 11
576.0488026086496
 21
-8.035540167728214
 31
0.0
  0
LINE
  5
510E
330
2
100
AcDbEntity
  8
AM_VIS
100
AcDbLine
 10
576.0488026086496
 20
-8.035540167728214
 30
0.0
 11
576.5488026086496
 21
-7.535540167728214
 31
0.0
  0
LINE
  5
510F
330
2
100
AcDbEntity
  8
AM_VIS
100
AcDbLine
 10
576.5488026086496
 20
-7.535540167728214
 30
0.0
 11
577.5488026086495
 21
-7.535540167728214
 31
0.0
  0
LINE
  5
5110
330
2
100
AcDbEntity
  8
AM_VIS
100
AcDbLine
 10
577.5488026086495
 20
-7.535540167728214
 30
0.0
 11
578.0488026086495
 21
-8.035540167728214
 31
0.0
  0
LINE
  5
5111
330
2
100
AcDbEntity
  8
AM_VIS
100
AcDbLine
 10
578.0488026086495
 20
-8.035540167728214
 30
0.0
 11
578.6488026086495
 21
-8.035540167728214
 31
0.0
  0
LINE
  5
5112
330
2
100
AcDbEntity
  8
AM_VIS
100
AcDbLine
 10
583.0488026086495
 20
-18.03554016772821
 30
0.0
 11
582.4488026086495
 21
-18.03554016772821
 31
0.0
  0
LINE
  5
5113
330
2
100
AcDbEntity
  8
AM_VIS
100
AcDbLine
 10
566.9988026086496
 20
-18.03554016772821
 30
0.0
 11
575.9488026086496
 21
-18.03554016772821
 31
0.0
  0
LINE
  5
5114
330
2
100
AcDbEntity
  8
AM_VIS
100
AcDbLine
 10
566.9988026086496
 20
-8.035540167728214
 30
0.0
 11
566.9988026086496
 21
-18.03554016772821
 31
0.0
  0
LINE
  5
5115
330
2
100
AcDbEntity
  8
AM_VIS
100
AcDbLine
 10
566.9988026086496
 20
-8.035540167728214
 30
0.0
 11
575.4488026086496
 21
-8.035540167728214
 31
0.0
  0
LINE
  5
5116
330
2
100
AcDbEntity
  8
AM_VIS
100
AcDbLine
 10
575.4488026086496
 20
-8.935540167728191
 30
0.0
 11
575.4488026086496
 21
-8.035540167728214
 31
0.0
  0
LINE
  5
5117
330
2
100
AcDbEntity
  8
AM_VIS
100
AcDbLine
 10
578.6488026086495
 20
-8.035540167728214
 30
0.0
 11
578.6488026086495
 21
-8.93554016772822
 31
0.0
  0
LINE
  5
5118
330
2
100
AcDbEntity
  8
AM_VIS
100
AcDbLine
 10
578.6488026086495
 20
-8.035540167728214
 30
0.0
 11
582.9488026086496
 21
-8.035540167728214
 31
0.0
  0
LINE
  5
5119
330
2
100
AcDbEntity
  8
AM_VIS
100
AcDbLine
 10
583.4488026086495
 20
-8.535540167728214
 30
0.0
 11
582.9488026086495
 21
-8.035540167728214
 31
0.0
  0
LINE
  5
511A
330
2
100
AcDbEntity
  8
AM_VIS
100
AcDbLine
 10
586.8488026086496
 20
-8.535540167728214
 30
0.0
 11
583.4488026086495
 21
-8.535540167728214
 31
0.0
  0
LINE
  5
511B
330
2
100
AcDbEntity
  8
AM_VIS
100
AcDbLine
 10
587.3488026086496
 20
-8.035540167728214
 30
0.0
 11
586.8488026086496
 21
-8.535540167728214
 31
0.0
  0
LINE
  5
511C
330
2
100
AcDbEntity
  8
AM_VIS
100
AcDbLine
 10
587.3488026086496
 20
-8.035540167728214
 30
0.0
 11
590.5988026086496
 21
-8.035540167728214
 31
0.0
  0
LINE
  5
511D
330
2
100
AcDbEntity
  8
AM_VIS
100
AcDbLine
 10
590.5988026086496
 20
-18.03554016772821
 30
0.0
 11
590.5988026086496
 21
-8.035540167728214
 31
0.0
  0
LINE
  5
511E
330
2
100
AcDbEntity
  8
AM_VIS
100
AcDbLine
 10
585.6488026086496
 20
-18.03554016772821
 30
0.0
 11
590.5988026086496
 21
-18.03554016772821
 31
0.0
  0
LINE
  5
511F
330
2
100
AcDbEntity
  8
AM_VIS
100
AcDbLine
 10
585.6488026086496
 20
-17.13554016772821
 30
0.0
 11
585.6488026086496
 21
-18.03554016772821
 31
0.0
  0
LINE
  5
5120
330
2
100
AcDbEntity
  8
AM_VIS
100
AcDbLine
 10
582.4488026086495
 20
-18.03554016772821
 30
0.0
 11
582.4488026086495
 21
-17.13554016772818
 31
0.0
  0
LINE
  5
5121
330
2
100
AcDbEntity
  8
AM_VIS
100
AcDbLine
 10
580.3488026086496
 20
-18.03554016772821
 30
0.0
 11
582.4488026086497
 21
-18.03554016772821
 31
0.0
  0
LINE
  5
5122
330
2
100
AcDbEntity
  8
AM_VIS
100
AcDbLine
 10
579.8488026086496
 20
-17.53554016772821
 30
0.0
 11
580.3488026086495
 21
-18.03554016772821
 31
0.0
  0
LINE
  5
5123
330
2
100
AcDbEntity
  8
AM_VIS
100
AcDbLine
 10
576.4488026086495
 20
-17.53554016772821
 30
0.0
 11
579.8488026086496
 21
-17.53554016772821
 31
0.0
  0
LINE
  5
5124
330
2
100
AcDbEntity
  8
AM_VIS
100
AcDbLine
 10
575.9488026086495
 20
-18.03554016772821
 30
0.0
 11
576.4488026086495
 21
-17.53554016772821
 31
0.0
  0
CIRCLE
  5
5125
102
{ACAD_REACTORS
330
56C1
102
}
330
2
100
AcDbEntity
  8
AM_VIS
100
AcDbCircle
 10
584.0488026086496
 20
-17.13554016772818
 30
0.0
 40
0.85
  0
CIRCLE
  5
5126
330
2
100
AcDbEntity
  8
AM_VIS
100
AcDbCircle
 10
577.0488026086495
 20
-8.935540167728191
 30
0.0
 40
0.85
  0
ARC
  5
5127
330
2
100
AcDbEntity
  8
AM_VIS
100
AcDbCircle
 10
577.0488026086495
 20
-8.935540167728191
 30
0.0
 40
1.6
100
AcDbArc
 50
180.0
 51
0.0
  0
ARC
  5
5128
330
2
100
AcDbEntity
  8
AM_VIS
100
AcDbCircle
 10
584.0488026086496
 20
-17.13554016772818
 30
0.0
 40
1.6
100
AcDbArc
 50
0.0
 51
180.0
  0
LINE
  5
5129
330
2
100
AcDbEntity
  8
AM_VIS
100
AcDbLine
 10
566.9988026086496
 20
-18.03554016772827
 30
0.0
 11
566.9988026086496
 21
-8.035540167728271
 31
0.0
  0
LINE
  5
512A
330
2
100
AcDbEntity
  8
AM_VIS
100
AcDbLine
 10
566.9988026086496
 20
-18.03554016772827
 30
0.0
 11
557.4988026086495
 21
-18.03554016772827
 31
0.0
  0
LINE
  5
512B
330
2
100
AcDbEntity
  8
AM_VIS
100
AcDbLine
 10
566.9988026086496
 20
-8.035540167728271
 30
0.0
 11
557.4988026086495
 21
-8.035540167728271
 31
0.0
  0
CIRCLE
  5
512E
330
2
100
AcDbEntity
  8
AM_VIS
100
AcDbCircle
 10
560.4988026086496
 20
-10.83554016772828
 30
0.0
 40
0.7
  0
LINE
  5
512F
330
2
100
AcDbEntity
  8
AM_VIS
100
AcDbLine
 10
558.2271505210426
 20
-7.976804378522075
 30
0.0
 11
558.6988026086495
 21
-7.935540167728191
 31
0.0
  0
LINE
  5
5130
330
2
100
AcDbEntity
  8
AM_VIS
100
AcDbLine
 10
558.6988026086495
 20
-7.935540167728191
 30
0.0
 11
558.6988026086495
 21
-8.035540167728271
 31
0.0
  0
ARC
  5
5131
330
2
100
AcDbEntity
  8
AM_VIS
100
AcDbCircle
 10
558.2829301964011
 20
-8.614368985300842
 30
0.0
 40
0.6400000000000002
100
AcDbArc
 50
94.99999999999982
 51
115.254716560914
  0
LINE
  5
5132
330
2
100
AcDbEntity
  8
AM_VIS
100
AcDbLine
 10
558.2271505210426
 20
-18.09427595693438
 30
0.0
 11
558.6988026086495
 21
-18.13554016772826
 31
0.0
  0
LINE
  5
5133
330
2
100
AcDbEntity
  8
AM_VIS
100
AcDbLine
 10
558.6988026086495
 20
-18.03554016772827
 30
0.0
 11
558.6988026086495
 21
-18.13554016772826
 31
0.0
  0
ARC
  5
5134
330
2
100
AcDbEntity
  8
AM_VIS
100
AcDbCircle
 10
558.2829301964011
 20
-17.45671135015564
 30
0.0
 40
0.6400000000000002
100
AcDbArc
 50
244.7452834390995
 51
265.0000000000002
  0
LINE
  5
5135
330
2
100
AcDbEntity
  8
AM_VIS
100
AcDbLine
 10
544.4988026086496
 20
-8.035540167728186
 30
0.0
 11
557.4988026086495
 21
-8.035540167728214
 31
0.0
  0
LINE
  5
5136
330
2
100
AcDbEntity
  8
AM_VIS
100
AcDbLine
 10
557.4988026086495
 20
-18.03554016772816
 30
0.0
 11
544.4988026086496
 21
-18.03554016772816
 31
0.0
  0
LINE
  5
5137
330
2
100
AcDbEntity
  8
AM_VIS
100
AcDbLine
 10
557.4988026086495
 20
-8.035540167728186
 30
0.0
 11
557.4988026086495
 21
-18.03554016772818
 31
0.0
  0
LINE
  5
5138
330
2
100
AcDbEntity
  8
AM_VIS
100
AcDbLine
 10
544.4988026086496
 20
-8.035540167728186
 30
0.0
 11
544.4988026086496
 21
-18.03554016772818
 31
0.0
  0
LINE
  5
5139
330
2
100
AcDbEntity
  8
AM_VIS
100
AcDbLine
 10
539.4988026086496
 20
-9.035540167728214
 30
0.0
 11
540.9988026086495
 21
-8.035540167728214
 31
0.0
  0
LINE
  5
513A
330
2
100
AcDbEntity
  8
AM_VIS
100
AcDbLine
 10
539.4988026086496
 20
-16.78554016772821
 30
0.0
 11
535.9988026086496
 21
-16.78554016772821
 31
0.0
  0
LINE
  5
513B
330
2
100
AcDbEntity
  8
AM_VIS
100
AcDbLine
 10
535.9988026086496
 20
-16.78554016772821
 30
0.0
 11
534.9988026086496
 21
-16.18554016772819
 31
0.0
  0
LINE
  5
513C
330
2
100
AcDbEntity
  8
AM_VIS
100
AcDbLine
 10
534.9988026086496
 20
-16.03554016772821
 30
0.0
 11
534.9988026086496
 21
-16.18554016772819
 31
0.0
  0
LINE
  5
513D
330
2
100
AcDbEntity
  8
AM_VIS
100
AcDbLine
 10
534.9988026086496
 20
-16.03554016772821
 30
0.0
 11
534.9988026086496
 21
-15.13554016772818
 31
0.0
  0
LINE
  5
513E
330
2
100
AcDbEntity
  8
AM_VIS
100
AcDbLine
 10
539.4988026086496
 20
-16.03554016772821
 30
0.0
 11
534.9988026086496
 21
-16.03554016772821
 31
0.0
  0
LINE
  5
513F
330
2
100
AcDbEntity
  8
AM_VIS
100
AcDbLine
 10
534.9988026086496
 20
-15.13554016772818
 30
0.0
 11
539.4988026086496
 21
-15.13554016772818
 31
0.0
  0
LINE
  5
5140
330
2
100
AcDbEntity
  8
AM_VIS
100
AcDbLine
 10
534.9988026086496
 20
-10.93554016772822
 30
0.0
 11
534.9988026086496
 21
-15.13554016772821
 31
0.0
  0
LINE
  5
5141
330
2
100
AcDbEntity
  8
AM_VIS
100
AcDbLine
 10
534.9988026086496
 20
-9.885540167728208
 30
0.0
 11
534.9988026086496
 21
-10.03554016772821
 31
0.0
  0
LINE
  5
5142
102
{ACAD_REACTORS
330
53C2
102
}
330
2
100
AcDbEntity
  8
AM_VIS
100
AcDbLine
 10
534.9988026086496
 20
-9.885540167728208
 30
0.0
 11
535.9988026086496
 21
-9.285540167728214
 31
0.0
  0
LINE
  5
5143
330
2
100
AcDbEntity
  8
AM_VIS
100
AcDbLine
 10
539.4988026086496
 20
-9.285540167728214
 30
0.0
 11
535.9988026086496
 21
-9.285540167728214
 31
0.0
  0
LINE
  5
5144
330
2
100
AcDbEntity
  8
AM_VIS
100
AcDbLine
 10
534.9988026086496
 20
-10.93554016772819
 30
0.0
 11
534.9988026086496
 21
-10.03554016772821
 31
0.0
  0
LINE
  5
5145
330
2
100
AcDbEntity
  8
AM_VIS
100
AcDbLine
 10
539.4988026086496
 20
-10.93554016772822
 30
0.0
 11
534.9988026086496
 21
-10.93554016772822
 31
0.0
  0
LINE
  5
5146
330
2
100
AcDbEntity
  8
AM_VIS
100
AcDbLine
 10
534.9988026086496
 20
-10.03554016772821
 30
0.0
 11
539.4988026086496
 21
-10.03554016772821
 31
0.0
  0
LINE
  5
5147
330
2
100
AcDbEntity
  8
AM_VIS
100
AcDbLine
 10
536.4988026086495
 20
-13.53554016772821
 30
0.0
 11
537.6988026086495
 21
-13.53554016772821
 31
0.0
  0
LINE
  5
5148
330
2
100
AcDbEntity
  8
AM_VIS
100
AcDbLine
 10
536.4988026086495
 20
-13.53554016772821
 30
0.0
 11
536.4988026086495
 21
-12.53554016772821
 31
0.0
  0
LINE
  5
5149
330
2
100
AcDbEntity
  8
AM_VIS
100
AcDbLine
 10
537.6988026086495
 20
-12.53554016772821
 30
0.0
 11
536.4988026086495
 21
-12.53554016772821
 31
0.0
  0
LINE
  5
514A
330
2
100
AcDbEntity
  8
AM_VIS
100
AcDbLine
 10
537.6988026086495
 20
-13.53554016772821
 30
0.0
 11
537.6988026086495
 21
-12.53554016772821
 31
0.0
  0
LINE
  5
514B
330
2
100
AcDbEntity
  8
AM_VIS
100
AcDbLine
 10
539.4988026086496
 20
-9.035540167728214
 30
0.0
 11
539.4988026086496
 21
-11.03554016772821
 31
0.0
  0
LINE
  5
514C
330
2
100
AcDbEntity
  8
AM_VIS
100
AcDbLine
 10
540.9988026086495
 20
-18.03554016772821
 30
0.0
 11
539.4988026086496
 21
-17.03554016772821
 31
0.0
  0
LINE
  5
514D
330
2
100
AcDbEntity
  8
AM_VIS
100
AcDbLine
 10
539.4988026086496
 20
-15.03554016772821
 30
0.0
 11
539.4988026086496
 21
-17.03554016772821
 31
0.0
  0
LINE
  5
514E
330
2
100
AcDbEntity
  8
AM_VIS
100
AcDbLine
 10
540.9988026086495
 20
-11.03554016772821
 30
0.0
 11
540.9988026086495
 21
-8.035540167728214
 31
0.0
  0
LINE
  5
514F
102
{ACAD_REACTORS
330
5421
102
}
330
2
100
AcDbEntity
  8
AM_VIS
100
AcDbLine
 10
544.4988026086496
 20
-8.035540167728214
 30
0.0
 11
540.9988026086495
 21
-8.035540167728214
 31
0.0
  0
LINE
  5
5150
330
2
100
AcDbEntity
  8
AM_VIS
100
AcDbLine
 10
544.4988026086496
 20
-18.03554016772821
 30
0.0
 11
544.4988026086496
 21
-8.035540167728214
 31
0.0
  0
LINE
  5
5151
330
2
100
AcDbEntity
  8
AM_VIS
100
AcDbLine
 10
544.4988026086496
 20
-18.03554016772821
 30
0.0
 11
540.9988026086495
 21
-18.03554016772821
 31
0.0
  0
LINE
  5
5152
102
{ACAD_REACTORS
330
5421
330
549E
102
}
330
2
100
AcDbEntity
  8
AM_VIS
100
AcDbLine
 10
540.9988026086495
 20
-18.03554016772821
 30
0.0
 11
540.9988026086495
 21
-15.03554016772821
 31
0.0
  0
LINE
  5
5153
330
2
100
AcDbEntity
  8
AM_VIS
100
AcDbLine
 10
539.4988026086496
 20
-11.03554016772821
 30
0.0
 11
540.9988026086495
 21
-11.03554016772821
 31
0.0
  0
LINE
  5
5154
330
2
100
AcDbEntity
  8
AM_VIS
100
AcDbLine
 10
540.9988026086495
 20
-11.03554016772821
 30
0.0
 11
541.7988026086495
 21
-11.03554016772821
 31
0.0
  0
LINE
  5
5155
330
2
100
AcDbEntity
  8
AM_VIS
100
AcDbLine
 10
541.7988026086495
 20
-15.03554016772821
 30
0.0
 11
540.9988026086495
 21
-15.03554016772821
 31
0.0
  0
LINE
  5
5156
330
2
100
AcDbEntity
  8
AM_VIS
100
AcDbLine
 10
540.9988026086495
 20
-15.03554016772821
 30
0.0
 11
539.4988026086496
 21
-15.03554016772821
 31
0.0
  0
LINE
  5
5157
330
2
100
AcDbEntity
  8
AM_VIS
100
AcDbLine
 10
541.7988026086495
 20
-11.03554016772821
 30
0.0
 11
541.7988026086495
 21
-15.03554016772821
 31
0.0
  0
LINE
  5
5158
330
2
100
AcDbEntity
  8
AM_VIS
100
AcDbLine
 10
541.0816453211241
 20
-11.03554016772821
 30
0.0
 11
541.0816453211241
 21
-15.03554016772821
 31
0.0
  0
LINE
  5
5159
330
2
100
AcDbEntity
  8
AM_VIS
100
AcDbLine
 10
539.4988026086496
 20
-15.03554016772821
 30
0.0
 11
539.4988026086496
 21
-11.03554016772821
 31
0.0
  0
LINE
  5
515A
330
2
100
AcDbEntity
  8
AM_VIS
100
AcDbLine
 10
590.5988026086496
 20
-49.31794927514492
 30
0.0
 11
590.5988026086496
 21
-55.81794927514493
 31
0.0
  0
LINE
  5
515B
330
2
100
AcDbEntity
  8
AM_VIS
100
AcDbLine
 10
590.5988026086496
 20
-49.31794927514492
 30
0.0
 11
600.0988026086495
 21
-49.31794927514492
 31
0.0
  0
LINE
  5
515C
330
2
100
AcDbEntity
  8
AM_VIS
100
AcDbLine
 10
598.8988026086495
 20
-60.81794927514493
 30
0.0
 11
600.0988026086495
 21
-60.81794927514493
 31
0.0
  0
LINE
  5
515D
330
2
100
AcDbEntity
  8
AM_VIS
100
AcDbLine
 10
598.8988026086495
 20
-63.81794927514492
 30
0.0
 11
598.8988026086495
 21
-60.81794927514493
 31
0.0
  0
LINE
  5
515E
330
2
100
AcDbEntity
  8
AM_VIS
100
AcDbLine
 10
600.0988026086495
 20
-63.81794927514492
 30
0.0
 11
598.8988026086495
 21
-63.81794927514492
 31
0.0
  0
LINE
  5
515F
330
2
100
AcDbEntity
  8
AM_VIS
100
AcDbLine
 10
590.5988026086496
 20
-64.31794927514492
 30
0.0
 11
600.0988026086495
 21
-64.31794927514492
 31
0.0
  0
LINE
  5
5160
330
2
100
AcDbEntity
  8
AM_VIS
100
AcDbLine
 10
590.5988026086496
 20
-57.81794927514493
 30
0.0
 11
590.5988026086496
 21
-64.31794927514492
 31
0.0
  0
LINE
  5
5161
330
2
100
AcDbEntity
  8
AM_VIS
100
AcDbLine
 10
591.0988026086496
 20
-55.81794927514493
 30
0.0
 11
591.0988026086496
 21
-57.81794927514493
 31
0.0
  0
LINE
  5
5162
330
2
100
AcDbEntity
  8
AM_VIS
100
AcDbLine
 10
591.0988026086496
 20
-57.81794927514493
 30
0.0
 11
590.5988026086496
 21
-57.81794927514493
 31
0.0
  0
LINE
  5
5163
330
2
100
AcDbEntity
  8
AM_VIS
100
AcDbLine
 10
590.5988026086496
 20
-55.81794927514493
 30
0.0
 11
591.0988026086496
 21
-55.81794927514493
 31
0.0
  0
LINE
  5
5166
330
2
100
AcDbEntity
  8
AM_VIS
100
AcDbLine
 10
600.0988026086495
 20
-64.31794927514492
 30
0.0
 11
600.0988026086495
 21
-63.81794927514492
 31
0.0
  0
LINE
  5
5167
330
2
100
AcDbEntity
  8
AM_VIS
100
AcDbLine
 10
600.0988026086495
 20
-60.81794927514493
 30
0.0
 11
600.0988026086495
 21
-49.31794927514492
 31
0.0
  0
CIRCLE
  5
5169
330
2
100
AcDbEntity
  8
AM_VIS
100
AcDbCircle
 10
597.0988026086494
 20
-56.51794927514493
 30
0.0
 40
0.7
  0
LINE
  5
516A
330
2
100
AcDbEntity
  8
AM_VIS
100
AcDbLine
 10
615.0988026086495
 20
-56.01794927514489
 30
0.0
 11
615.0988026086495
 21
-56.51797868716403
 31
0.0
  0
LINE
  5
516B
330
2
100
AcDbEntity
  8
AM_VIS
100
AcDbLine
 10
602.6988026086495
 20
-62.31794927514489
 30
0.0
 11
610.3988026086495
 21
-62.31794927514489
 31
0.0
  0
LINE
  5
516C
330
2
100
AcDbEntity
  8
AM_VIS
100
AcDbLine
 10
602.6988026086495
 20
-63.41794927514489
 30
0.0
 11
602.6988026086495
 21
-62.31794927514489
 31
0.0
  0
LINE
  5
516D
330
2
100
AcDbEntity
  8
AM_VIS
100
AcDbLine
 10
610.3988026086495
 20
-63.41794927514489
 30
0.0
 11
602.6988026086495
 21
-63.41794927514489
 31
0.0
  0
LINE
  5
516E
330
2
100
AcDbEntity
  8
AM_VIS
100
AcDbLine
 10
610.3988026086495
 20
-62.31794927514489
 30
0.0
 11
610.3988026086495
 21
-63.41794927514489
 31
0.0
  0
LINE
  5
516F
330
2
100
AcDbEntity
  8
AM_VIS
100
AcDbLine
 10
613.0988026086495
 20
-64.31794927514488
 30
0.0
 11
613.0988026086495
 21
-60.03794927514488
 31
0.0
  0
LINE
  5
5170
102
{ACAD_REACTORS
330
5709
102
}
330
2
100
AcDbEntity
  8
AM_VIS
100
AcDbLine
 10
600.0988026086495
 20
-64.31794927514488
 30
0.0
 11
613.0988026086495
 21
-64.31794927514488
 31
0.0
  0
LINE
  5
5171
330
2
100
AcDbEntity
  8
AM_VIS
100
AcDbLine
 10
600.0988026086495
 20
-56.5179492751449
 30
0.0
 11
600.0988026086495
 21
-64.3179492751449
 31
0.0
  0
LINE
  5
5172
330
2
100
AcDbEntity
  8
AM_VIS
100
AcDbLine
 10
611.5988026086495
 20
-56.5179492751449
 30
0.0
 11
600.0988026086495
 21
-56.5179492751449
 31
0.0
  0
LINE
  5
5173
330
2
100
AcDbEntity
  8
AM_VIS
100
AcDbLine
 10
611.5988026086495
 20
-60.0379492751449
 30
0.0
 11
611.5988026086495
 21
-56.5179492751449
 31
0.0
  0
LINE
  5
5174
330
2
100
AcDbEntity
  8
AM_VIS
100
AcDbLine
 10
613.0988026086495
 20
-56.51797868716403
 30
0.0
 11
615.0988026086495
 21
-56.51797868716403
 31
0.0
  0
LINE
  5
5175
330
2
100
AcDbEntity
  8
AM_VIS
100
AcDbLine
 10
613.0999091449648
 20
-59.25755945898976
 30
0.0
 11
615.1001830287888
 21
-58.80491295396456
 31
0.0
  0
LINE
  5
5176
330
2
100
AcDbEntity
  8
AM_VIS
100
AcDbLine
 10
613.0988026086495
 20
-60.03794927514488
 30
0.0
 11
611.5988026086495
 21
-60.03794927514488
 31
0.0
  0
LINE
  5
5177
330
2
100
AcDbEntity
  8
AM_VIS
100
AcDbLine
 10
615.2988026086496
 20
-57.11794927514489
 30
0.0
 11
615.0988026086495
 21
-57.11794927514489
 31
0.0
  0
LINE
  5
5178
330
2
100
AcDbEntity
  8
AM_VIS
100
AcDbLine
 10
615.0988026086495
 20
-56.51794927514488
 30
0.0
 11
615.2988026086496
 21
-56.51794927514488
 31
0.0
  0
LINE
  5
5179
330
2
100
AcDbEntity
  8
AM_VIS
100
AcDbLine
 10
609.9988026086496
 20
-63.41794927514489
 30
0.0
 11
609.9988026086496
 21
-62.31794927514489
 31
0.0
  0
LINE
  5
517A
330
2
100
AcDbEntity
  8
AM_VIS
100
AcDbLine
 10
603.1988026086495
 20
-63.41794927514489
 30
0.0
 11
603.1988026086495
 21
-62.31794927514489
 31
0.0
  0
LINE
  5
517B
330
2
100
AcDbEntity
  8
AM_VIS
100
AcDbLine
 10
615.0988026086495
 20
-59.31794927514488
 30
0.0
 11
613.0988026086495
 21
-59.81794927514489
 31
0.0
  0
LINE
  5
517C
330
2
100
AcDbEntity
  8
AM_VIS
100
AcDbLine
 10
615.0988026086495
 20
-58.3179492751449
 30
0.0
 11
615.2988026086496
 21
-58.3179492751449
 31
0.0
  0
LINE
  5
517D
330
2
100
AcDbEntity
  8
AM_VIS
100
AcDbLine
 10
615.0988026086495
 20
-55.31794927514489
 30
0.0
 11
615.2988026086496
 21
-55.31794927514489
 31
0.0
  0
LINE
  5
517E
330
2
100
AcDbEntity
  8
AM_VIS
100
AcDbLine
 10
615.0988026086495
 20
-58.79881278899572
 30
0.0
 11
615.0988026086495
 21
-59.31794927514488
 31
0.0
  0
LINE
  5
517F
330
2
100
AcDbEntity
  8
AM_VIS
100
AcDbLine
 10
613.0988026086495
 20
-56.5179492751449
 30
0.0
 11
613.0988026086495
 21
-56.51797868716403
 31
0.0
  0
LINE
  5
5180
330
2
100
AcDbEntity
  8
AM_VIS
100
AcDbLine
 10
615.0988026086495
 20
-56.51797868716403
 30
0.0
 11
615.0988026086495
 21
-58.79881278899572
 31
0.0
  0
LINE
  5
5181
330
2
100
AcDbEntity
  8
AM_VIS
100
AcDbLine
 10
613.0988026086495
 20
-59.25266960417275
 30
0.0
 11
613.0988026086495
 21
-60.0379492751449
 31
0.0
  0
LINE
  5
5182
330
2
100
AcDbEntity
  8
AM_VIS
100
AcDbLine
 10
615.2988026086496
 20
-55.31794927514489
 30
0.0
 11
615.2988026086496
 21
-56.5179492751449
 31
0.0
  0
LINE
  5
5183
330
2
100
AcDbEntity
  8
AM_VIS
100
AcDbLine
 10
615.2988026086496
 20
-57.11794927514489
 30
0.0
 11
615.2988026086496
 21
-58.3179492751449
 31
0.0
  0
LINE
  5
5184
330
2
100
AcDbEntity
  8
AM_VIS
100
AcDbLine
 10
613.0988026086495
 20
-36.81794927514488
 30
0.0
 11
600.0988026086495
 21
-36.81794927514488
 31
0.0
  0
LINE
  5
5185
330
2
100
AcDbEntity
  8
AM_VIS
100
AcDbLine
 10
600.0988026086495
 20
-56.51794927514488
 30
0.0
 11
600.0988026086495
 21
-36.81794927514488
 31
0.0
  0
LINE
  5
5186
330
2
100
AcDbEntity
  8
AM_VIS
100
AcDbLine
 10
615.0988026086495
 20
-56.01794927514489
 30
0.0
 11
615.0988026086495
 21
-53.81794927514488
 31
0.0
  0
LINE
  5
5187
330
2
100
AcDbEntity
  8
AM_VIS
100
AcDbLine
 10
613.0988026086495
 20
-53.81794927514488
 30
0.0
 11
613.0988026086495
 21
-36.81794927514488
 31
0.0
  0
LINE
  5
5188
330
2
100
AcDbEntity
  8
AM_VIS
100
AcDbLine
 10
615.0988026086495
 20
-53.81794927514488
 30
0.0
 11
613.0988026086495
 21
-53.81794927514488
 31
0.0
  0
LINE
  5
5189
330
2
100
AcDbEntity
  8
AM_VIS
100
AcDbLine
 10
613.5988026086494
 20
-56.51794927514488
 30
0.0
 11
600.0988026086495
 21
-56.51794927514488
 31
0.0
  0
LINE
  5
518A
330
2
100
AcDbEntity
  8
AM_VIS
100
AcDbLine
 10
615.0988026086495
 20
-56.01794927514489
 30
0.0
 11
613.5988026086494
 21
-56.51794927514488
 31
0.0
  0
LINE
  5
518B
330
2
100
AcDbEntity
  8
AM_VIS
100
AcDbLine
 10
613.0988026086495
 20
-53.81794927514488
 30
0.0
 11
616.5988026086495
 21
-53.81794927514488
 31
0.0
  0
LINE
  5
518C
330
2
100
AcDbEntity
  8
AM_VIS
100
AcDbLine
 10
613.0988026086495
 20
-36.81794927514488
 30
0.0
 11
613.0988026086495
 21
-53.81794927514488
 31
0.0
  0
LINE
  5
518D
330
2
100
AcDbEntity
  8
AM_VIS
100
AcDbLine
 10
616.5988026086495
 20
-53.81794927514488
 30
0.0
 11
618.0988026086495
 21
-52.31794927514489
 31
0.0
  0
LINE
  5
518E
330
2
100
AcDbEntity
  8
AM_VIS
100
AcDbLine
 10
616.5988026086495
 20
-36.81794927514488
 30
0.0
 11
616.5988026086495
 21
-53.81794927514488
 31
0.0
  0
LINE
  5
518F
330
2
100
AcDbEntity
  8
AM_VIS
100
AcDbLine
 10
618.0988026086495
 20
-38.31794927514489
 30
0.0
 11
616.5988026086495
 21
-36.81794927514488
 31
0.0
  0
LINE
  5
5190
330
2
100
AcDbEntity
  8
AM_VIS
100
AcDbLine
 10
621.5988026086495
 20
-40.81794927514488
 30
0.0
 11
621.5988026086495
 21
-46.21794927514488
 31
0.0
  0
LINE
  5
5191
330
2
100
AcDbEntity
  8
AM_VIS
100
AcDbLine
 10
622.5988026086495
 20
-45.91794927514487
 30
0.0
 11
622.5988026086495
 21
-40.81794927514488
 31
0.0
  0
LINE
  5
5192
330
2
100
AcDbEntity
  8
AM_VIS
100
AcDbLine
 10
618.0988026086495
 20
-46.21794927514488
 30
0.0
 11
621.5988026086495
 21
-46.21794927514488
 31
0.0
  0
LINE
  5
5193
330
2
100
AcDbEntity
  8
AM_VIS
100
AcDbLine
 10
622.5988026086495
 20
-45.91794927514487
 30
0.0
 11
621.5988026086495
 21
-46.21794927514488
 31
0.0
  0
LINE
  5
5194
330
2
100
AcDbEntity
  8
AM_VIS
100
AcDbLine
 10
622.5988026086495
 20
-40.81794927514488
 30
0.0
 11
621.5988026086495
 21
-40.81794927514488
 31
0.0
  0
LINE
  5
5195
330
2
100
AcDbEntity
  8
AM_VIS
100
AcDbLine
 10
618.0988026086495
 20
-40.81794927514488
 30
0.0
 11
621.5988026086495
 21
-40.81794927514488
 31
0.0
  0
LINE
  5
5196
330
2
100
AcDbEntity
  8
AM_VIS
100
AcDbLine
 10
622.5988026086495
 20
-40.81794927514488
 30
0.0
 11
622.5988026086495
 21
-39.31794927514488
 31
0.0
  0
LINE
  5
5197
330
2
100
AcDbEntity
  8
AM_VIS
100
AcDbLine
 10
622.5988026086495
 20
-39.31794927514488
 30
0.0
 11
618.0988026086495
 21
-39.31794927514488
 31
0.0
  0
LINE
  5
5198
330
2
100
AcDbEntity
  8
AM_VIS
100
AcDbLine
 10
618.0988026086495
 20
-52.31794927514489
 30
0.0
 11
618.0988026086495
 21
-38.31794927514489
 31
0.0
  0
LINE
  5
5199
330
2
100
AcDbEntity
  8
AM_VIS
100
AcDbLine
 10
613.0988026086495
 20
-36.81794927514488
 30
0.0
 11
616.5988026086495
 21
-36.81794927514488
 31
0.0
  0
LINE
  5
519A
330
2
100
AcDbEntity
  8
AM_VIS
100
AcDbLine
 10
612.7484485685235
 20
-58.32999309918085
 30
0.0
 11
612.8411033904049
 21
-58.31832394499778
 31
0.0
  0
LINE
  5
519B
330
2
100
AcDbEntity
  8
AM_VIS
100
AcDbLine
 10
612.8195844370379
 20
-57.70443192340121
 30
0.0
 11
612.841104107226
 21
-57.69346811617527
 31
0.0
  0
LINE
  5
519C
330
2
100
AcDbEntity
  8
AM_VIS
100
AcDbLine
 10
612.747448458484
 20
-58.53795524970454
 30
0.0
 11
612.8411033400255
 21
-58.54975163186637
 31
0.0
  0
LINE
  5
519D
330
2
100
AcDbEntity
  8
AM_VIS
100
AcDbLine
 10
612.0704546962564
 20
-56.65921348593879
 30
0.0
 11
611.5988026086495
 21
-56.61794927514488
 31
0.0
  0
LINE
  5
519E
330
2
100
AcDbEntity
  8
AM_VIS
100
AcDbLine
 10
612.0704546962564
 20
-59.77668506435105
 30
0.0
 11
611.5988026086495
 21
-59.81794927514497
 31
0.0
  0
ELLIPSE
  5
519F
330
2
100
AcDbEntity
  8
AM_VIS
100
AcDbEllipse
 10
610.3988026086495
 20
-58.1649201280484
 30
0.0
 11
-2.490079065009783
 21
-0.000000000000001
 31
0.0
210
0.0
220
0.0
230
1.0
 40
0.9711834348606759
 41
3.337797805066934
 42
3.484489678624698
  0
ELLIPSE
  5
51A0
330
2
100
AcDbEntity
  8
AM_VIS
100
AcDbEllipse
 10
610.9331644186582
 20
-58.84730874744318
 30
0.0
 11
1.794957342537177
 21
1.52402036779382
 31
0.0
210
0.0
220
0.0
230
1.0
 40
0.1838809272074929
 41
6.033676357464736
 42
6.216405892020731
  0
ELLIPSE
  5
51A1
330
2
100
AcDbEntity
  8
AM_VIS
100
AcDbEllipse
 10
610.3988026086494
 20
-58.27097842224144
 30
0.0
 11
2.490079065009783
 21
0.000000000000001
 31
0.0
210
0.0
220
0.0
230
1.0
 40
0.9711834348606759
 41
5.937689964444294
 42
6.086980155702428
  0
ELLIPSE
  5
51A2
330
2
100
AcDbEntity
  8
AM_VIS
100
AcDbEllipse
 10
610.9331644186582
 20
-57.58858980284665
 30
0.0
 11
-1.794957342537177
 21
1.52402036779382
 31
0.0
210
0.0
220
0.0
230
1.0
 40
0.183880927207494
 41
3.201833753740181
 42
3.215542106671083
  0
ELLIPSE
  5
51A3
330
2
100
AcDbEntity
  8
AM_VIS
100
AcDbEllipse
 10
610.3988026086494
 20
-58.43403758940334
 30
0.0
 11
-2.490079065009606
 21
-0.000000000000001
 31
0.0
210
0.0
220
0.0
230
1.0
 40
0.2383332453776002
 41
2.796097310854506
 42
2.945387502112991
  0
ELLIPSE
  5
51A4
330
2
100
AcDbEntity
  8
AM_VIS
100
AcDbEllipse
 10
610.9331644186582
 20
-58.37239721994897
 30
0.0
 11
0.653816490562898
 21
2.262086191913684
 31
0.0
210
0.0
220
0.0
230
1.0
 40
0.7492958450165221
 41
4.99244553687673
 42
4.999615574798077
  0
ELLIPSE
  5
51A5
330
2
100
AcDbEntity
  8
AM_VIS
100
AcDbEllipse
 10
610.3988026086495
 20
-58.00186096089035
 30
0.0
 11
2.490079065009962
 21
0.000000000000001
 31
0.0
210
0.0
220
0.0
230
1.0
 40
0.2383332453776002
 41
5.937689964444246
 42
6.086980155702058
  0
ELLIPSE
  5
51A6
330
2
100
AcDbEntity
  8
AM_VIS
100
AcDbEllipse
 10
610.9331644186582
 20
-58.06350133034086
 30
0.0
 11
-0.6538164905628956
 21
2.262086191913684
 31
0.0
210
0.0
220
0.0
230
1.0
 40
0.7492958450165204
 41
4.249602889335791
 42
4.438870738900246
  0
ELLIPSE
  5
51A7
330
2
100
AcDbEntity
  8
AM_VIS
100
AcDbEllipse
 10
610.3988026086494
 20
-58.43403758940334
 30
0.0
 11
-2.490079065009606
 21
-0.000000000000001
 31
0.0
210
0.0
220
0.0
230
1.0
 40
0.2383332453776002
 41
3.33779780506657
 42
3.484489678624362
  0
ELLIPSE
  5
51A8
330
2
100
AcDbEntity
  8
AM_VIS
100
AcDbEllipse
 10
610.3988026086494
 20
-58.27097842224144
 30
0.0
 11
2.490079065009783
 21
0.000000000000001
 31
0.0
210
0.0
220
0.0
230
1.0
 40
0.9711834348606759
 41
0.1962051514771411
 42
0.3454953427352938
  0
LINE
  5
51A9
330
2
100
AcDbEntity
  8
AM_VIS
100
AcDbLine
 10
612.8411056201533
 20
-58.31834164953146
 30
0.0
 11
612.8411056201533
 21
-58.54973352927524
 31
0.0
  0
LINE
  5
51AA
330
2
100
AcDbEntity
  8
AM_VIS
100
AcDbLine
 10
612.8411056201533
 20
-57.6934710857362
 30
0.0
 11
612.8411056201533
 21
-57.79952937992923
 31
0.0
  0
LINE
  5
51AB
330
2
100
AcDbEntity
  8
AM_VIS
100
AcDbLine
 10
612.8411056201533
 20
-57.79952937992923
 30
0.0
 11
612.8411056201533
 21
-58.11755690076267
 31
0.0
  0
LINE
  5
51AC
330
2
100
AcDbEntity
  8
AM_VIS
100
AcDbLine
 10
612.8411056201533
 20
-58.54973352927526
 30
0.0
 11
612.8411056201533
 21
-58.74242746455365
 31
0.0
  0
ARC
  5
51AD
330
2
100
AcDbEntity
  8
AM_VIS
100
AcDbCircle
 10
612.014675020898
 20
-57.29677809271753
 30
0.0
 40
0.6400000000000002
100
AcDbArc
 50
29.68645618692277
 51
85.00000000000019
  0
ARC
  5
51AE
330
2
100
AcDbEntity
  8
AM_VIS
100
AcDbCircle
 10
612.014675020898
 20
-59.13912045757233
 30
0.0
 40
0.6400000000000002
100
AcDbArc
 50
274.9999999999998
 51
330.3135438130786
  0
ARC
  5
51AF
330
2
100
AcDbEntity
  8
AM_VIS
100
AcDbCircle
 10
610.3988026086494
 20
-58.21794927514493
 30
0.0
 40
2.499999999999999
100
AcDbArc
 50
330.3135438130801
 51
339.6535615282069
  0
ARC
  5
51B0
330
2
100
AcDbEntity
  8
AM_VIS
100
AcDbCircle
 10
610.3988026086494
 20
-58.21794927514493
 30
0.0
 40
2.5
100
AcDbArc
 50
20.34643847179391
 51
29.68645618691994
  0
LINE
  5
51B1
330
2
100
AcDbEntity
  8
AM_VIS
100
AcDbLine
 10
585.0488026086495
 20
-50.71794927514493
 30
0.0
 11
585.0488026086495
 21
-64.31794927514492
 31
0.0
  0
LINE
  5
51B2
330
2
100
AcDbEntity
  8
AM_VIS
100
AcDbLine
 10
584.5488026086496
 20
-50.71794927514493
 30
0.0
 11
584.5488026086496
 21
-64.31794927514492
 31
0.0
  0
LINE
  5
51B3
330
2
100
AcDbEntity
  8
AM_VIS
100
AcDbLine
 10
583.5488026086495
 20
-50.71794927514493
 30
0.0
 11
583.5488026086495
 21
-64.31794927514492
 31
0.0
  0
LINE
  5
51B4
330
2
100
AcDbEntity
  8
AM_VIS
100
AcDbLine
 10
585.6488026086496
 20
-50.71794927514493
 30
0.0
 11
585.0488026086495
 21
-50.71794927514493
 31
0.0
  0
LINE
  5
51B5
330
2
100
AcDbEntity
  8
AM_VIS
100
AcDbLine
 10
585.0488026086495
 20
-50.71794927514493
 30
0.0
 11
584.5488026086496
 21
-50.71794927514493
 31
0.0
  0
LINE
  5
51B6
330
2
100
AcDbEntity
  8
AM_VIS
100
AcDbLine
 10
584.5488026086496
 20
-50.71794927514493
 30
0.0
 11
583.5488026086495
 21
-50.71794927514493
 31
0.0
  0
LINE
  5
51B7
330
2
100
AcDbEntity
  8
AM_VIS
100
AcDbLine
 10
583.5488026086495
 20
-50.71794927514493
 30
0.0
 11
583.0488026086495
 21
-50.71794927514493
 31
0.0
  0
LINE
  5
51B8
102
{ACAD_REACTORS
330
5929
102
}
330
2
100
AcDbEntity
  8
AM_VIS
100
AcDbLine
 10
585.6488026086496
 20
-49.31794927514494
 30
0.0
 11
585.6488026086496
 21
-50.71794927514495
 31
0.0
  0
LINE
  5
51B9
330
2
100
AcDbEntity
  8
AM_VIS
100
AcDbLine
 10
566.9988026086496
 20
-49.31794927514492
 30
0.0
 11
566.9988026086496
 21
-64.31794927514492
 31
0.0
  0
LINE
  5
51BA
330
2
100
AcDbEntity
  8
AM_VIS
100
AcDbLine
 10
590.5988026086495
 20
-64.31794927514494
 30
0.0
 11
590.5988026086496
 21
-49.31794927514492
 31
0.0
  0
LINE
  5
51C0
330
2
100
AcDbEntity
  8
AM_VIS
100
AcDbLine
 10
583.0488026086495
 20
-64.31794927514492
 30
0.0
 11
583.5488026086495
 21
-64.31794927514492
 31
0.0
  0
LINE
  5
51C1
330
2
100
AcDbEntity
  8
AM_VIS
100
AcDbLine
 10
583.5488026086495
 20
-64.31794927514492
 30
0.0
 11
584.5488026086496
 21
-64.31794927514492
 31
0.0
  0
LINE
  5
51C2
330
2
100
AcDbEntity
  8
AM_VIS
100
AcDbLine
 10
584.5488026086496
 20
-64.31794927514492
 30
0.0
 11
585.0488026086495
 21
-64.31794927514492
 31
0.0
  0
LINE
  5
51C3
330
2
100
AcDbEntity
  8
AM_VIS
100
AcDbLine
 10
585.0488026086495
 20
-64.31794927514494
 30
0.0
 11
590.5988026086495
 21
-64.31794927514494
 31
0.0
  0
LINE
  5
51C4
330
2
100
AcDbEntity
  8
AM_VIS
100
AcDbLine
 10
566.9988026086496
 20
-64.31794927514492
 30
0.0
 11
575.9488026086495
 21
-64.31794927514492
 31
0.0
  0
LINE
  5
51C5
330
2
100
AcDbEntity
  8
AM_VIS
100
AcDbLine
 10
582.4488026086495
 20
-50.71794927514493
 30
0.0
 11
582.4488026086495
 21
-49.31794927514492
 31
0.0
  0
LINE
  5
51C6
330
2
100
AcDbEntity
  8
AM_VIS
100
AcDbLine
 10
583.0488026086495
 20
-50.71794927514493
 30
0.0
 11
582.4488026086495
 21
-50.71794927514493
 31
0.0
  0
LINE
  5
51C7
330
2
100
AcDbEntity
  8
AM_VIS
100
AcDbLine
 10
583.0488026086495
 20
-64.31794927514492
 30
0.0
 11
583.0488026086495
 21
-50.71794927514493
 31
0.0
  0
LINE
  5
51C8
330
2
100
AcDbEntity
  8
AM_VIS
100
AcDbLine
 10
580.3488026086495
 20
-64.31794927514492
 30
0.0
 11
583.0488026086495
 21
-64.31794927514492
 31
0.0
  0
LINE
  5
51C9
330
2
100
AcDbEntity
  8
AM_VIS
100
AcDbLine
 10
566.9988026086496
 20
-49.31794927514492
 30
0.0
 11
575.9488026086496
 21
-49.31794927514492
 31
0.0
  0
LINE
  5
51CA
330
2
100
AcDbEntity
  8
AM_VIS
100
AcDbLine
 10
585.6488026086496
 20
-49.31794927514492
 30
0.0
 11
590.5988026086496
 21
-49.31794927514492
 31
0.0
  0
LINE
  5
51CB
330
2
100
AcDbEntity
  8
AM_VIS
100
AcDbLine
 10
580.3488026086496
 20
-49.31794927514492
 30
0.0
 11
582.4488026086497
 21
-49.31794927514492
 31
0.0
  0
LINE
  5
51CC
330
2
100
AcDbEntity
  8
AM_VIS
100
AcDbLine
 10
579.8488026086496
 20
-49.31794927514492
 30
0.0
 11
580.3488026086495
 21
-49.31794927514492
 31
0.0
  0
LINE
  5
51CD
330
2
100
AcDbEntity
  8
AM_VIS
100
AcDbLine
 10
580.3488026086495
 20
-49.31794927514492
 30
0.0
 11
580.3488026086495
 21
-64.31794927514492
 31
0.0
  0
LINE
  5
51CE
330
2
100
AcDbEntity
  8
AM_VIS
100
AcDbLine
 10
580.3488026086495
 20
-64.31794927514492
 30
0.0
 11
579.8488026086495
 21
-64.31794927514492
 31
0.0
  0
LINE
  5
51CF
330
2
100
AcDbEntity
  8
AM_VIS
100
AcDbLine
 10
576.4488026086495
 20
-49.31794927514492
 30
0.0
 11
579.8488026086496
 21
-49.31794927514492
 31
0.0
  0
LINE
  5
51D0
330
2
100
AcDbEntity
  8
AM_VIS
100
AcDbLine
 10
579.8488026086496
 20
-49.31794927514492
 30
0.0
 11
579.8488026086495
 21
-64.31794927514492
 31
0.0
  0
LINE
  5
51D1
330
2
100
AcDbEntity
  8
AM_VIS
100
AcDbLine
 10
579.8488026086495
 20
-64.31794927514492
 30
0.0
 11
576.4488026086495
 21
-64.31794927514492
 31
0.0
  0
LINE
  5
51D2
330
2
100
AcDbEntity
  8
AM_VIS
100
AcDbLine
 10
575.9488026086495
 20
-64.31794927514492
 30
0.0
 11
575.9488026086495
 21
-49.31794927514492
 31
0.0
  0
LINE
  5
51D3
330
2
100
AcDbEntity
  8
AM_VIS
100
AcDbLine
 10
575.9488026086495
 20
-49.31794927514492
 30
0.0
 11
576.4488026086495
 21
-49.31794927514492
 31
0.0
  0
LINE
  5
51D4
330
2
100
AcDbEntity
  8
AM_VIS
100
AcDbLine
 10
576.4488026086495
 20
-49.31794927514492
 30
0.0
 11
576.4488026086495
 21
-64.31794927514492
 31
0.0
  0
LINE
  5
51D5
330
2
100
AcDbEntity
  8
AM_VIS
100
AcDbLine
 10
576.4488026086495
 20
-64.31794927514492
 30
0.0
 11
575.9488026086495
 21
-64.31794927514492
 31
0.0
  0
LINE
  5
51D8
330
2
100
AcDbEntity
  8
AM_VIS
100
AcDbLine
 10
582.4488026086497
 20
-49.31794927514492
 30
0.0
 11
585.6488026086496
 21
-49.31794927514492
 31
0.0
  0
CIRCLE
  5
51D9
330
2
100
AcDbEntity
  8
AM_VIS
100
AcDbCircle
 10
578.7988026086495
 20
-51.01794927514493
 30
0.0
 40
0.7
  0
LINE
  5
51DA
330
2
100
AcDbEntity
  8
AM_VIS
100
AcDbLine
 10
566.9988026086496
 20
-64.3179492751449
 30
0.0
 11
566.9988026086496
 21
-57.81794927514489
 31
0.0
  0
LINE
  5
51DB
330
2
100
AcDbEntity
  8
AM_VIS
100
AcDbLine
 10
566.9988026086496
 20
-64.3179492751449
 30
0.0
 11
557.4988026086495
 21
-64.31794927514491
 31
0.0
  0
LINE
  5
51DC
330
2
100
AcDbEntity
  8
AM_VIS
100
AcDbLine
 10
558.6988026086495
 20
-52.81794927514491
 30
0.0
 11
557.4988026086495
 21
-52.81794927514491
 31
0.0
  0
LINE
  5
51DD
330
2
100
AcDbEntity
  8
AM_VIS
100
AcDbLine
 10
558.6988026086495
 20
-49.81794927514491
 30
0.0
 11
558.6988026086495
 21
-50.7611728388619
 31
0.0
  0
LINE
  5
51DE
330
2
100
AcDbEntity
  8
AM_VIS
100
AcDbLine
 10
558.6988026086495
 20
-51.87472571142795
 30
0.0
 11
558.6988026086495
 21
-52.81794927514489
 31
0.0
  0
LINE
  5
51DF
330
2
100
AcDbEntity
  8
AM_VIS
100
AcDbLine
 10
557.4988026086495
 20
-49.81794927514491
 30
0.0
 11
558.6988026086495
 21
-49.81794927514491
 31
0.0
  0
LINE
  5
51E0
330
2
100
AcDbEntity
  8
AM_VIS
100
AcDbLine
 10
566.9988026086496
 20
-49.3179492751449
 30
0.0
 11
557.4988026086495
 21
-49.3179492751449
 31
0.0
  0
LINE
  5
51E1
330
2
100
AcDbEntity
  8
AM_VIS
100
AcDbLine
 10
566.9988026086496
 20
-55.8179492751449
 30
0.0
 11
566.9988026086496
 21
-49.3179492751449
 31
0.0
  0
LINE
  5
51E2
330
2
100
AcDbEntity
  8
AM_VIS
100
AcDbLine
 10
566.4988026086496
 20
-55.8179492751449
 30
0.0
 11
566.9988026086496
 21
-55.8179492751449
 31
0.0
  0
LINE
  5
51E3
330
2
100
AcDbEntity
  8
AM_VIS
100
AcDbLine
 10
566.4988026086496
 20
-57.81794927514489
 30
0.0
 11
566.4988026086496
 21
-55.8179492751449
 31
0.0
  0
LINE
  5
51E4
330
2
100
AcDbEntity
  8
AM_VIS
100
AcDbLine
 10
566.9988026086496
 20
-57.81794927514489
 30
0.0
 11
566.4988026086496
 21
-57.81794927514489
 31
0.0
  0
LINE
  5
51E9
330
2
100
AcDbEntity
  8
AM_VIS
100
AcDbLine
 10
557.4988026086495
 20
-52.81794927514491
 30
0.0
 11
557.4988026086495
 21
-64.31794927514491
 31
0.0
  0
LINE
  5
51EA
330
2
100
AcDbEntity
  8
AM_VIS
100
AcDbLine
 10
557.4988026086495
 20
-49.3179492751449
 30
0.0
 11
557.4988026086495
 21
-49.81794927514489
 31
0.0
  0
CIRCLE
  5
51EC
330
2
100
AcDbEntity
  8
AM_VIS
100
AcDbCircle
 10
560.4988026086496
 20
-59.11794927514489
 30
0.0
 40
0.7
  0
LINE
  5
51ED
330
2
100
AcDbEntity
  8
AM_VIS
100
AcDbLine
 10
558.6988026086495
 20
-50.7611728388619
 30
0.0
 11
558.6988026086495
 21
-51.87472571142795
 31
0.0
  0
LINE
  5
51EE
330
2
100
AcDbEntity
  8
AM_VIS
100
AcDbLine
 10
557.5477390195485
 20
-52.1679492751469
 30
0.0
 11
557.5516382708088
 21
-52.16458648857761
 31
0.0
  0
ARC
  5
51EF
330
2
100
AcDbEntity
  8
AM_VIS
100
AcDbCircle
 10
559.8988026086495
 20
-51.31794927514492
 30
0.0
 40
2.495190373498582
100
AcDbArc
 50
195.8771570247366
 51
199.8346987587044
  0
ARC
  5
51F0
330
2
100
AcDbEntity
  8
AM_VIS
100
AcDbCircle
 10
559.8988026086495
 20
-51.31794927514492
 30
0.0
 40
2.495190373498582
100
AcDbArc
 50
160.1653012413916
 51
164.1228429752634
  0
LINE
  5
51F1
330
2
100
AcDbEntity
  8
AM_VIS
100
AcDbLine
 10
557.5516382708074
 20
-50.47131206171622
 30
0.0
 11
557.547739019547
 21
-50.46794927514693
 31
0.0
  0
ELLIPSE
  5
51F2
330
2
100
AcDbEntity
  8
AM_VIS
100
AcDbEllipse
 10
559.316393653702
 20
-51.31794927514492
 30
0.0
 11
-0.000000000000002
 21
2.335538904305829
 31
0.0
210
0.0
220
0.0
230
1.0
 40
0.757279029218254
 41
1.50438167329116
 42
1.637210980300338
  0
LINE
  5
51F3
330
2
100
AcDbEntity
  8
AM_VIS
100
AcDbLine
 10
557.551638270808
 20
-51.16294927514691
 30
0.0
 11
557.4988026086495
 21
-51.16294927514691
 31
0.0
  0
LINE
  5
51F4
330
2
100
AcDbEntity
  8
AM_VIS
100
AcDbLine
 10
557.4988026086495
 20
-51.47294927514692
 30
0.0
 11
557.5516382708083
 21
-51.47294927514692
 31
0.0
  0
ARC
  5
51F5
330
2
100
AcDbEntity
  8
AM_VIS
100
AcDbCircle
 10
558.2829301964011
 20
-52.23912045757233
 30
0.0
 40
0.6400000000000001
100
AcDbArc
 50
209.6864561869228
 51
244.7452834390922
  0
ARC
  5
51F6
330
2
100
AcDbEntity
  8
AM_VIS
100
AcDbCircle
 10
558.2829301964011
 20
-50.39677809271752
 30
0.0
 40
0.6400000000000002
100
AcDbArc
 50
115.2547165609001
 51
150.3135438130772
  0
ARC
  5
51F7
330
2
100
AcDbEntity
  8
AM_VIS
100
AcDbCircle
 10
559.8988026086495
 20
-51.31794927514492
 30
0.0
 40
2.5
100
AcDbArc
 50
150.3135438130793
 51
160.1231259299711
  0
ARC
  5
51F8
330
2
100
AcDbEntity
  8
AM_VIS
100
AcDbCircle
 10
559.8988026086495
 20
-51.31794927514492
 30
0.0
 40
2.5
100
AcDbArc
 50
199.8768740701257
 51
209.6864561869207
  0
LINE
  5
51F9
330
2
100
AcDbEntity
  8
AM_VIS
100
AcDbLine
 10
542.4988026086496
 20
-56.51797868716407
 30
0.0
 11
542.4988026086496
 21
-56.01794927514493
 31
0.0
  0
LINE
  5
51FA
330
2
100
AcDbEntity
  8
AM_VIS
100
AcDbLine
 10
547.1988026086495
 20
-63.41794927514493
 30
0.0
 11
547.1988026086495
 21
-62.31794927514492
 31
0.0
  0
LINE
  5
51FB
330
2
100
AcDbEntity
  8
AM_VIS
100
AcDbLine
 10
554.8988026086496
 20
-63.41794927514492
 30
0.0
 11
547.1988026086495
 21
-63.41794927514493
 31
0.0
  0
LINE
  5
51FC
330
2
100
AcDbEntity
  8
AM_VIS
100
AcDbLine
 10
554.8988026086496
 20
-62.31794927514491
 30
0.0
 11
554.8988026086496
 21
-63.41794927514492
 31
0.0
  0
LINE
  5
51FD
330
2
100
AcDbEntity
  8
AM_VIS
100
AcDbLine
 10
547.1988026086495
 20
-62.31794927514492
 30
0.0
 11
554.8988026086496
 21
-62.31794927514491
 31
0.0
  0
LINE
  5
51FE
330
2
100
AcDbEntity
  8
AM_VIS
100
AcDbLine
 10
557.4988026086495
 20
-56.51794927514491
 30
0.0
 11
545.9988026086496
 21
-56.51794927514493
 31
0.0
  0
LINE
  5
51FF
330
2
100
AcDbEntity
  8
AM_VIS
100
AcDbLine
 10
557.4988026086495
 20
-64.31794927514491
 30
0.0
 11
557.4988026086495
 21
-56.51794927514491
 31
0.0
  0
LINE
  5
5200
330
2
100
AcDbEntity
  8
AM_VIS
100
AcDbLine
 10
557.4988026086495
 20
-64.31794927514491
 30
0.0
 11
544.4988026086496
 21
-64.31794927514494
 31
0.0
  0
LINE
  5
5201
330
2
100
AcDbEntity
  8
AM_VIS
100
AcDbLine
 10
545.9988026086496
 20
-56.51794927514493
 30
0.0
 11
545.9988026086496
 21
-60.03794927514492
 31
0.0
  0
LINE
  5
5202
330
2
100
AcDbEntity
  8
AM_VIS
100
AcDbLine
 10
542.4974221885102
 20
-58.80491295396459
 30
0.0
 11
544.4976960723343
 21
-59.25755945898981
 31
0.0
  0
LINE
  5
5203
330
2
100
AcDbEntity
  8
AM_VIS
100
AcDbLine
 10
542.4988026086496
 20
-56.51797868716407
 30
0.0
 11
545.9988026086496
 21
-56.51797868716407
 31
0.0
  0
LINE
  5
5204
330
2
100
AcDbEntity
  8
AM_VIS
100
AcDbLine
 10
545.9988026086496
 20
-60.03794927514492
 30
0.0
 11
544.4988026086496
 21
-60.03794927514492
 31
0.0
  0
LINE
  5
5205
102
{ACAD_REACTORS
330
5709
102
}
330
2
100
AcDbEntity
  8
AM_VIS
100
AcDbLine
 10
544.4988026086496
 20
-60.03794927514494
 30
0.0
 11
544.4988026086496
 21
-64.31794927514494
 31
0.0
  0
LINE
  5
5206
330
2
100
AcDbEntity
  8
AM_VIS
100
AcDbLine
 10
542.4988026086496
 20
-57.11794927514493
 30
0.0
 11
542.2988026086495
 21
-57.11794927514493
 31
0.0
  0
LINE
  5
5207
330
2
100
AcDbEntity
  8
AM_VIS
100
AcDbLine
 10
542.2988026086495
 20
-56.51794927514493
 30
0.0
 11
542.4988026086496
 21
-56.51794927514493
 31
0.0
  0
LINE
  5
5208
330
2
100
AcDbEntity
  8
AM_VIS
100
AcDbLine
 10
554.3988026086496
 20
-63.41794927514493
 30
0.0
 11
554.3988026086496
 21
-62.31794927514492
 31
0.0
  0
LINE
  5
5209
330
2
100
AcDbEntity
  8
AM_VIS
100
AcDbLine
 10
547.5988026086495
 20
-63.41794927514493
 30
0.0
 11
547.5988026086495
 21
-62.31794927514492
 31
0.0
  0
LINE
  5
520A
330
2
100
AcDbEntity
  8
AM_VIS
100
AcDbLine
 10
542.4988026086496
 20
-59.31794927514494
 30
0.0
 11
544.4988026086496
 21
-59.81794927514494
 31
0.0
  0
LINE
  5
520B
330
2
100
AcDbEntity
  8
AM_VIS
100
AcDbLine
 10
542.4988026086496
 20
-55.31794927514494
 30
0.0
 11
542.2988026086495
 21
-55.31794927514494
 31
0.0
  0
LINE
  5
520C
330
2
100
AcDbEntity
  8
AM_VIS
100
AcDbLine
 10
542.4988026086496
 20
-58.31794927514494
 30
0.0
 11
542.2988026086495
 21
-58.31794927514494
 31
0.0
  0
LINE
  5
520D
330
2
100
AcDbEntity
  8
AM_VIS
100
AcDbLine
 10
542.4988026086496
 20
-59.31794927514494
 30
0.0
 11
542.4988026086496
 21
-58.79881278899576
 31
0.0
  0
LINE
  5
520E
330
2
100
AcDbEntity
  8
AM_VIS
100
AcDbLine
 10
542.4988026086496
 20
-58.79881278899574
 30
0.0
 11
542.4988026086496
 21
-56.51797868716406
 31
0.0
  0
LINE
  5
520F
330
2
100
AcDbEntity
  8
AM_VIS
100
AcDbLine
 10
544.4988026086496
 20
-60.03794927514494
 30
0.0
 11
544.4988026086496
 21
-59.25266960417281
 31
0.0
  0
LINE
  5
5210
330
2
100
AcDbEntity
  8
AM_VIS
100
AcDbLine
 10
542.2988026086495
 20
-56.51794927514493
 30
0.0
 11
542.2988026086495
 21
-55.31794927514493
 31
0.0
  0
LINE
  5
5211
330
2
100
AcDbEntity
  8
AM_VIS
100
AcDbLine
 10
542.2988026086495
 20
-58.31794927514494
 30
0.0
 11
542.2988026086495
 21
-57.11794927514493
 31
0.0
  0
LINE
  5
5212
330
2
100
AcDbEntity
  8
AM_VIS
100
AcDbLine
 10
557.4988026086495
 20
-36.81794927514491
 30
0.0
 11
544.4988026086495
 21
-36.81794927514491
 31
0.0
  0
LINE
  5
5213
330
2
100
AcDbEntity
  8
AM_VIS
100
AcDbLine
 10
557.4988026086495
 20
-56.51794927514491
 30
0.0
 11
543.9988026086496
 21
-56.51794927514493
 31
0.0
  0
LINE
  5
5214
330
2
100
AcDbEntity
  8
AM_VIS
100
AcDbLine
 10
557.4988026086495
 20
-56.51794927514491
 30
0.0
 11
557.4988026086495
 21
-36.81794927514491
 31
0.0
  0
LINE
  5
5215
330
2
100
AcDbEntity
  8
AM_VIS
100
AcDbLine
 10
544.4988026086495
 20
-36.81794927514491
 30
0.0
 11
544.4988026086496
 21
-53.81794927514491
 31
0.0
  0
LINE
  5
5216
330
2
100
AcDbEntity
  8
AM_VIS
100
AcDbLine
 10
544.4988026086496
 20
-53.81794927514491
 30
0.0
 11
542.4988026086496
 21
-53.81794927514491
 31
0.0
  0
LINE
  5
5217
330
2
100
AcDbEntity
  8
AM_VIS
100
AcDbLine
 10
542.4988026086496
 20
-56.01794927514493
 30
0.0
 11
542.4988026086496
 21
-53.81794927514492
 31
0.0
  0
LINE
  5
5218
330
2
100
AcDbEntity
  8
AM_VIS
100
AcDbLine
 10
543.9988026086496
 20
-56.51794927514493
 30
0.0
 11
542.4988026086496
 21
-56.01794927514493
 31
0.0
  0
LINE
  5
5219
330
2
100
AcDbEntity
  8
AM_VIS
100
AcDbLine
 10
544.4988026086496
 20
-53.81794927514491
 30
0.0
 11
544.4988026086496
 21
-36.81794927514491
 31
0.0
  0
LINE
  5
521A
330
2
100
AcDbEntity
  8
AM_VIS
100
AcDbLine
 10
544.4988026086496
 20
-53.81794927514492
 30
0.0
 11
540.9988026086495
 21
-53.81794927514492
 31
0.0
  0
LINE
  5
521B
330
2
100
AcDbEntity
  8
AM_VIS
100
AcDbLine
 10
540.9988026086495
 20
-53.81794927514492
 30
0.0
 11
540.9988026086495
 21
-36.81794927514491
 31
0.0
  0
LINE
  5
521C
330
2
100
AcDbEntity
  8
AM_VIS
100
AcDbLine
 10
539.4988026086496
 20
-52.31794927514492
 30
0.0
 11
540.9988026086495
 21
-53.81794927514492
 31
0.0
  0
LINE
  5
521D
330
2
100
AcDbEntity
  8
AM_VIS
100
AcDbLine
 10
535.9988026086496
 20
-46.21794927514494
 30
0.0
 11
535.9988026086496
 21
-40.81794927514491
 31
0.0
  0
LINE
  5
521E
102
{ACAD_REACTORS
330
572F
102
}
330
2
100
AcDbEntity
  8
AM_VIS
100
AcDbLine
 10
534.9988026086496
 20
-40.81794927514494
 30
0.0
 11
534.9988026086496
 21
-45.91794927514493
 31
0.0
  0
LINE
  5
521F
330
2
100
AcDbEntity
  8
AM_VIS
100
AcDbLine
 10
539.4988026086496
 20
-46.21794927514494
 30
0.0
 11
535.9988026086496
 21
-46.21794927514494
 31
0.0
  0
LINE
  5
5220
330
2
100
AcDbEntity
  8
AM_VIS
100
AcDbLine
 10
535.9988026086496
 20
-46.21794927514494
 30
0.0
 11
534.9988026086496
 21
-45.91794927514493
 31
0.0
  0
LINE
  5
5221
330
2
100
AcDbEntity
  8
AM_VIS
100
AcDbLine
 10
539.4988026086496
 20
-40.81794927514491
 30
0.0
 11
535.9988026086495
 21
-40.81794927514491
 31
0.0
  0
LINE
  5
5222
330
2
100
AcDbEntity
  8
AM_VIS
100
AcDbLine
 10
535.9988026086496
 20
-40.81794927514491
 30
0.0
 11
534.9988026086496
 21
-40.81794927514491
 31
0.0
  0
LINE
  5
5223
330
2
100
AcDbEntity
  8
AM_VIS
100
AcDbLine
 10
534.9988026086496
 20
-40.81794927514491
 30
0.0
 11
534.9988026086496
 21
-39.31794927514491
 31
0.0
  0
LINE
  5
5224
330
2
100
AcDbEntity
  8
AM_VIS
100
AcDbLine
 10
539.4988026086495
 20
-39.31794927514491
 30
0.0
 11
534.9988026086495
 21
-39.31794927514491
 31
0.0
  0
LINE
  5
5225
330
2
100
AcDbEntity
  8
AM_VIS
100
AcDbLine
 10
539.4988026086496
 20
-38.31794927514491
 30
0.0
 11
539.4988026086496
 21
-52.31794927514492
 31
0.0
  0
LINE
  5
5226
330
2
100
AcDbEntity
  8
AM_VIS
100
AcDbLine
 10
540.9988026086495
 20
-36.81794927514491
 30
0.0
 11
539.4988026086496
 21
-38.31794927514491
 31
0.0
  0
LINE
  5
5227
330
2
100
AcDbEntity
  8
AM_VIS
100
AcDbLine
 10
544.4988026086495
 20
-36.81794927514491
 30
0.0
 11
540.9988026086494
 21
-36.81794927514491
 31
0.0
  0
LINE
  5
5228
330
2
100
AcDbEntity
  8
AM_VIS
100
AcDbLine
 10
544.7565018772735
 20
-57.88614691842695
 30
0.0
 11
544.850156758815
 21
-57.89794330058869
 31
0.0
  0
LINE
  5
5229
330
2
100
AcDbEntity
  8
AM_VIS
100
AcDbLine
 10
544.7565018268942
 20
-58.11757460529638
 30
0.0
 11
544.8491566487757
 21
-58.10590545111335
 31
0.0
  0
LINE
  5
522A
330
2
100
AcDbEntity
  8
AM_VIS
100
AcDbLine
 10
544.756501110073
 20
-58.74243043411467
 30
0.0
 11
544.7780207802611
 21
-58.73146662688871
 31
0.0
  0
LINE
  5
522B
330
2
100
AcDbEntity
  8
AM_VIS
100
AcDbLine
 10
545.5271505210427
 20
-59.77668506435108
 30
0.0
 11
545.9988026086496
 21
-59.81794927514499
 31
0.0
  0
LINE
  5
522C
330
2
100
AcDbEntity
  8
AM_VIS
100
AcDbLine
 10
545.5271505210427
 20
-56.65921348593883
 30
0.0
 11
545.9988026086496
 21
-56.61794927514492
 31
0.0
  0
ELLIPSE
  5
522F
330
2
100
AcDbEntity
  8
AM_VIS
100
AcDbEllipse
 10
547.1988026086495
 20
-58.16492012804845
 30
0.0
 11
2.490079065009783
 21
0.000000000000001
 31
0.0
210
0.0
220
0.0
230
1.0
 40
0.9711834348606755
 41
2.796097310854496
 42
2.94538750211265
  0
ELLIPSE
  5
5230
330
2
100
AcDbEntity
  8
AM_VIS
100
AcDbEllipse
 10
546.6644407986409
 20
-58.84730874744322
 30
0.0
 11
-1.794957342537176
 21
1.524020367793824
 31
0.0
210
0.0
220
0.0
230
1.0
 40
0.1838809272074944
 41
0.0602411001503989
 42
0.0739494530813378
  0
ELLIPSE
  5
5231
330
2
100
AcDbEntity
  8
AM_VIS
100
AcDbEllipse
 10
547.1988026086495
 20
-58.27097842224148
 30
0.0
 11
-2.490079065009783
 21
-0.000000000000001
 31
0.0
210
0.0
220
0.0
230
1.0
 40
0.9711834348606755
 41
0.1962051514771572
 42
0.3428970250348922
  0
ELLIPSE
  5
5232
330
2
100
AcDbEntity
  8
AM_VIS
100
AcDbEllipse
 10
546.6644407986409
 20
-57.5885898028467
 30
0.0
 11
1.79495734253718
 21
1.524020367793819
 31
0.0
210
0.0
220
0.0
230
1.0
 40
0.1838809272074957
 41
2.892083703874951
 42
3.07481323843095
  0
ELLIPSE
  5
5233
330
2
100
AcDbEntity
  8
AM_VIS
100
AcDbEllipse
 10
546.6644407986409
 20
-58.37239721994902
 30
0.0
 11
-0.6538164905629021
 21
2.262086191913683
 31
0.0
210
0.0
220
0.0
230
1.0
 40
0.7492958450165219
 41
1.108010235747695
 42
1.29727808531215
  0
ELLIPSE
  5
5234
330
2
100
AcDbEntity
  8
AM_VIS
100
AcDbEllipse
 10
547.1988026086495
 20
-58.00186096089041
 30
0.0
 11
-2.490079065009962
 21
-0.000000000000001
 31
0.0
210
0.0
220
0.0
230
1.0
 40
0.2383332453776023
 41
0.196205151477407
 42
0.3428970250352019
  0
ELLIPSE
  5
5235
330
2
100
AcDbEntity
  8
AM_VIS
100
AcDbEllipse
 10
547.1988026086495
 20
-58.00186096089041
 30
0.0
 11
-2.490079065009962
 21
-0.000000000000001
 31
0.0
210
0.0
220
0.0
230
1.0
 40
0.2383332453776023
 41
5.937689964444142
 42
6.086980155701954
  0
ELLIPSE
  5
5236
330
2
100
AcDbEntity
  8
AM_VIS
100
AcDbEllipse
 10
546.6644407986409
 20
-58.0635013303409
 30
0.0
 11
0.653816490562903
 21
2.262086191913682
 31
0.0
210
0.0
220
0.0
230
1.0
 40
0.7492958450165195
 41
1.850852883286949
 42
1.858022921210152
  0
ELLIPSE
  5
5237
330
2
100
AcDbEntity
  8
AM_VIS
100
AcDbEllipse
 10
547.1988026086495
 20
-58.4340375894034
 30
0.0
 11
2.490079065009606
 21
0.000000000000001
 31
0.0
210
0.0
220
0.0
230
1.0
 40
0.2383332453776023
 41
2.796097310854404
 42
2.945387502112889
  0
ELLIPSE
  5
5238
330
2
100
AcDbEntity
  8
AM_VIS
100
AcDbEllipse
 10
547.1988026086495
 20
-58.16492012804845
 30
0.0
 11
2.490079065009783
 21
0.000000000000001
 31
0.0
210
0.0
220
0.0
230
1.0
 40
0.9711834348606755
 41
3.337797805066951
 42
3.487087996325084
  0
LINE
  5
5239
330
2
100
AcDbEntity
  8
AM_VIS
100
AcDbLine
 10
544.7564995971458
 20
-58.63636917036068
 30
0.0
 11
544.7564995971458
 21
-58.3183416495315
 31
0.0
  0
LINE
  5
523A
330
2
100
AcDbEntity
  8
AM_VIS
100
AcDbLine
 10
544.7564995971458
 20
-57.88616502101807
 30
0.0
 11
544.7564995971458
 21
-57.69347108573625
 31
0.0
  0
LINE
  5
523B
330
2
100
AcDbEntity
  8
AM_VIS
100
AcDbLine
 10
544.7564995971458
 20
-58.11755690076272
 30
0.0
 11
544.7564995971458
 21
-57.88616502101804
 31
0.0
  0
LINE
  5
523C
330
2
100
AcDbEntity
  8
AM_VIS
100
AcDbLine
 10
544.7564995971458
 20
-58.7424274645537
 30
0.0
 11
544.7564995971458
 21
-58.63636917036069
 31
0.0
  0
ARC
  5
523D
330
2
100
AcDbEntity
  8
AM_VIS
100
AcDbCircle
 10
545.582930196401
 20
-59.13912045757237
 30
0.0
 40
0.6400000000000002
100
AcDbArc
 50
209.6864561869228
 51
265.0000000000002
  0
ARC
  5
523E
330
2
100
AcDbEntity
  8
AM_VIS
100
AcDbCircle
 10
545.582930196401
 20
-57.29677809271757
 30
0.0
 40
0.6400000000000002
100
AcDbArc
 50
94.99999999999982
 51
150.3135438130772
  0
ARC
  5
523F
330
2
100
AcDbEntity
  8
AM_VIS
100
AcDbCircle
 10
547.1988026086495
 20
-58.21794927514497
 30
0.0
 40
2.5
100
AcDbArc
 50
200.3464384717939
 51
209.6864561869199
  0
ARC
  5
5240
330
2
100
AcDbEntity
  8
AM_VIS
100
AcDbCircle
 10
547.1988026086495
 20
-58.21794927514497
 30
0.0
 40
2.5
100
AcDbArc
 50
150.3135438130793
 51
159.6535615282061
  0
LINE
  5
5241
330
2
100
AcDbEntity
  8
AM_VIS
100
AcDbLine
 10
590.5988026086496
 20
-104.2602744870789
 30
0.0
 11
590.5988026086496
 21
-114.2602744870789
 31
0.0
  0
LINE
  5
5242
330
2
100
AcDbEntity
  8
AM_VIS
100
AcDbLine
 10
590.5988026086496
 20
-114.2602744870789
 30
0.0
 11
600.0988026086495
 21
-114.2602744870789
 31
0.0
  0
LINE
  5
5243
330
2
100
AcDbEntity
  8
AM_VIS
100
AcDbLine
 10
590.5988026086496
 20
-104.2602744870789
 30
0.0
 11
600.0988026086495
 21
-104.2602744870789
 31
0.0
  0
LINE
  5
5244
330
2
100
AcDbEntity
  8
AM_VIS
100
AcDbLine
 10
600.0988026086495
 20
-114.2602744870789
 30
0.0
 11
600.0988026086495
 21
-104.2602744870789
 31
0.0
  0
LINE
  5
5245
330
2
100
AcDbEntity
  8
AM_VIS
100
AcDbLine
 10
600.0988026086495
 20
-104.2602744870789
 30
0.0
 11
600.0988026086495
 21
-114.2602744870789
 31
0.0
  0
LINE
  5
5246
330
2
100
AcDbEntity
  8
AM_VIS
100
AcDbLine
 10
600.0988026086495
 20
-114.2602744870789
 30
0.0
 11
613.0988026086495
 21
-114.2602744870789
 31
0.0
  0
LINE
  5
5247
330
2
100
AcDbEntity
  8
AM_VIS
100
AcDbLine
 10
613.0980357406242
 20
-111.0063281811824
 30
0.0
 11
615.0978740979369
 21
-110.7773470803215
 31
0.0
  0
LINE
  5
5248
330
2
100
AcDbEntity
  8
AM_VIS
100
AcDbLine
 10
615.0988026086495
 20
-111.8602744870789
 30
0.0
 11
613.0988026086495
 21
-111.8602744870789
 31
0.0
  0
LINE
  5
5249
330
2
100
AcDbEntity
  8
AM_VIS
100
AcDbLine
 10
613.0988026086495
 20
-114.2602744870789
 30
0.0
 11
613.0988026086495
 21
-104.2602744870789
 31
0.0
  0
LINE
  5
524A
330
2
100
AcDbEntity
  8
AM_VIS
100
AcDbLine
 10
600.0988026086495
 20
-104.2602744870789
 30
0.0
 11
613.0988026086495
 21
-104.2602744870789
 31
0.0
  0
LINE
  5
524B
330
2
100
AcDbEntity
  8
AM_VIS
100
AcDbLine
 10
613.0988026086495
 20
-106.6602744870789
 30
0.0
 11
615.0988026086495
 21
-106.6602744870789
 31
0.0
  0
LINE
  5
524C
330
2
100
AcDbEntity
  8
AM_VIS
100
AcDbLine
 10
613.0980357406242
 20
-107.5142207929754
 30
0.0
 11
615.0978740979369
 21
-107.7432018938363
 31
0.0
  0
LINE
  5
524D
330
2
100
AcDbEntity
  8
AM_VIS
100
AcDbLine
 10
615.0988026086495
 20
-110.7299683327488
 30
0.0
 11
615.2988026086496
 21
-110.7299683327488
 31
0.0
  0
LINE
  5
524E
330
2
100
AcDbEntity
  8
AM_VIS
100
AcDbLine
 10
615.2988026086496
 20
-107.790580641409
 30
0.0
 11
615.0988026086495
 21
-107.790580641409
 31
0.0
  0
CIRCLE
  5
524F
330
2
100
AcDbEntity
  8
AM_VIS
100
AcDbCircle
 10
606.5988026086495
 20
-109.2602744870789
 30
0.0
 40
3.399999999999999
  0
CIRCLE
  5
5250
330
2
100
AcDbEntity
  8
AM_VIS
100
AcDbCircle
 10
606.5988026086495
 20
-109.2602744870789
 30
0.0
 40
2.7
  0
CIRCLE
  5
5251
330
2
100
AcDbEntity
  8
AM_VIS
100
AcDbCircle
 10
606.5988026086495
 20
-109.2602744870789
 30
0.0
 40
2.5
  0
CIRCLE
  5
5252
330
2
100
AcDbEntity
  8
AM_VIS
100
AcDbCircle
 10
606.5988026086495
 20
-109.2602744870789
 30
0.0
 40
2.399999999999999
  0
LINE
  5
5253
330
2
100
AcDbEntity
  8
AM_VIS
100
AcDbLine
 10
615.0988026086495
 20
-107.7350926161223
 30
0.0
 11
615.0988026086495
 21
-110.7854563580355
 31
0.0
  0
LINE
  5
5254
330
2
100
AcDbEntity
  8
AM_VIS
100
AcDbLine
 10
615.0988026086495
 20
-110.7854563580355
 30
0.0
 11
615.0988026086495
 21
-111.8602744870789
 31
0.0
  0
LINE
  5
5255
330
2
100
AcDbEntity
  8
AM_VIS
100
AcDbLine
 10
615.0988026086495
 20
-106.6602744870789
 30
0.0
 11
615.0988026086495
 21
-107.7350926161223
 31
0.0
  0
LINE
  5
5256
330
2
100
AcDbEntity
  8
AM_VIS
100
AcDbLine
 10
615.2988026086496
 20
-107.790580641409
 30
0.0
 11
615.2988026086496
 21
-110.7299683327488
 31
0.0
  0
LINE
  5
5257
330
2
100
AcDbEntity
  8
AM_VIS
100
AcDbLine
 10
613.0988026086495
 20
-114.2602744870789
 30
0.0
 11
613.5988026086494
 21
-114.2602744870789
 31
0.0
  0
LINE
  5
5258
330
2
100
AcDbEntity
  8
AM_VIS
100
AcDbLine
 10
613.5988026086494
 20
-104.2602744870789
 30
0.0
 11
613.0988026086495
 21
-104.2602744870789
 31
0.0
  0
LINE
  5
5259
330
2
100
AcDbEntity
  8
AM_VIS
100
AcDbLine
 10
615.0988026086495
 20
-106.6602744870789
 30
0.0
 11
615.0988026086495
 21
-104.2602744870789
 31
0.0
  0
LINE
  5
525A
330
2
100
AcDbEntity
  8
AM_VIS
100
AcDbLine
 10
613.5988026086494
 20
-104.2602744870789
 30
0.0
 11
613.5988026086494
 21
-106.6602744870789
 31
0.0
  0
LINE
  5
525B
330
2
100
AcDbEntity
  8
AM_VIS
100
AcDbLine
 10
615.0988026086495
 20
-104.2602744870789
 30
0.0
 11
613.5988026086494
 21
-104.2602744870789
 31
0.0
  0
LINE
  5
525C
330
2
100
AcDbEntity
  8
AM_VIS
100
AcDbLine
 10
615.0988026086495
 20
-114.2602744870789
 30
0.0
 11
615.0988026086495
 21
-111.8602744870789
 31
0.0
  0
LINE
  5
525D
330
2
100
AcDbEntity
  8
AM_VIS
100
AcDbLine
 10
613.5988026086494
 20
-114.2602744870789
 30
0.0
 11
615.0988026086495
 21
-114.2602744870789
 31
0.0
  0
LINE
  5
525E
330
2
100
AcDbEntity
  8
AM_VIS
100
AcDbLine
 10
613.5988026086494
 20
-111.8602744870789
 30
0.0
 11
613.5988026086494
 21
-114.2602744870789
 31
0.0
  0
LINE
  5
525F
330
2
100
AcDbEntity
  8
AM_VIS
100
AcDbLine
 10
615.0988026086495
 20
-104.2602744870789
 30
0.0
 11
616.5988026086495
 21
-104.2602744870789
 31
0.0
  0
LINE
  5
5260
330
2
100
AcDbEntity
  8
AM_VIS
100
AcDbLine
 10
616.5988026086495
 20
-104.2602744870789
 30
0.0
 11
616.5988026086495
 21
-114.2602744870789
 31
0.0
  0
LINE
  5
5261
330
2
100
AcDbEntity
  8
AM_VIS
100
AcDbLine
 10
615.0988026086495
 20
-114.2602744870789
 30
0.0
 11
616.5988026086495
 21
-114.2602744870789
 31
0.0
  0
LINE
  5
5262
330
2
100
AcDbEntity
  8
AM_VIS
100
AcDbLine
 10
618.0988026086495
 20
-113.2602744870789
 30
0.0
 11
616.5988026086495
 21
-114.2602744870789
 31
0.0
  0
LINE
  5
5263
330
2
100
AcDbEntity
  8
AM_VIS
100
AcDbLine
 10
616.5988026086495
 20
-104.2602744870789
 30
0.0
 11
618.0988026086495
 21
-105.2602744870789
 31
0.0
  0
LINE
  5
5264
330
2
100
AcDbEntity
  8
AM_VIS
100
AcDbLine
 10
618.0988026086495
 20
-113.0102744870789
 30
0.0
 11
621.5988026086495
 21
-113.0102744870789
 31
0.0
  0
LINE
  5
5265
330
2
100
AcDbEntity
  8
AM_VIS
100
AcDbLine
 10
618.0988026086495
 20
-105.5102744870789
 30
0.0
 11
621.5988026086495
 21
-105.5102744870789
 31
0.0
  0
LINE
  5
5266
330
2
100
AcDbEntity
  8
AM_VIS
100
AcDbLine
 10
622.5988026086495
 20
-112.4102744870789
 30
0.0
 11
622.5988026086495
 21
-106.1102744870789
 31
0.0
  0
LINE
  5
5267
330
2
100
AcDbEntity
  8
AM_VIS
100
AcDbLine
 10
621.5988026086495
 20
-113.0102744870789
 30
0.0
 11
622.5988026086495
 21
-112.4102744870789
 31
0.0
  0
LINE
  5
5268
330
2
100
AcDbEntity
  8
AM_VIS
100
AcDbLine
 10
621.5988026086495
 20
-105.5102744870789
 30
0.0
 11
621.5988026086495
 21
-113.0102744870789
 31
0.0
  0
LINE
  5
5269
102
{ACAD_REACTORS
330
576C
102
}
330
2
100
AcDbEntity
  8
AM_VIS
100
AcDbLine
 10
622.5988026086495
 20
-106.1102744870789
 30
0.0
 11
621.5988026086495
 21
-105.5102744870789
 31
0.0
  0
LINE
  5
526A
330
2
100
AcDbEntity
  8
AM_VIS
100
AcDbLine
 10
618.0988026086495
 20
-113.2602744870789
 30
0.0
 11
618.0988026086495
 21
-105.2602744870789
 31
0.0
  0
LINE
  5
526D
330
2
100
AcDbEntity
  8
AM_VIS
100
AcDbLine
 10
583.0488026086495
 20
-104.2602744870789
 30
0.0
 11
583.5488026086495
 21
-103.7602744870789
 31
0.0
  0
LINE
  5
526E
102
{ACAD_REACTORS
330
58B5
102
}
330
2
100
AcDbEntity
  8
AM_VIS
100
AcDbLine
 10
583.5488026086495
 20
-103.7602744870789
 30
0.0
 11
584.5488026086496
 21
-103.7602744870789
 31
0.0
  0
LINE
  5
526F
330
2
100
AcDbEntity
  8
AM_VIS
100
AcDbLine
 10
584.5488026086496
 20
-103.7602744870789
 30
0.0
 11
585.0488026086495
 21
-104.2602744870789
 31
0.0
  0
LINE
  5
5270
330
2
100
AcDbEntity
  8
AM_VIS
100
AcDbLine
 10
585.0488026086495
 20
-104.2602744870789
 30
0.0
 11
590.5988026086495
 21
-104.2602744870789
 31
0.0
  0
LINE
  5
5271
330
2
100
AcDbEntity
  8
AM_VIS
100
AcDbLine
 10
590.5988026086495
 20
-114.2602744870789
 30
0.0
 11
590.5988026086495
 21
-104.2602744870789
 31
0.0
  0
LINE
  5
5272
330
2
100
AcDbEntity
  8
AM_VIS
100
AcDbLine
 10
587.3488026086495
 20
-114.2602744870789
 30
0.0
 11
590.5988026086495
 21
-114.2602744870789
 31
0.0
  0
LINE
  5
5273
330
2
100
AcDbEntity
  8
AM_VIS
100
AcDbLine
 10
586.8488026086494
 20
-113.7602744870789
 30
0.0
 11
587.3488026086495
 21
-114.2602744870789
 31
0.0
  0
LINE
  5
5274
330
2
100
AcDbEntity
  8
AM_VIS
100
AcDbLine
 10
583.4488026086495
 20
-113.7602744870789
 30
0.0
 11
586.8488026086494
 21
-113.7602744870789
 31
0.0
  0
LINE
  5
5275
330
2
100
AcDbEntity
  8
AM_VIS
100
AcDbLine
 10
582.9488026086495
 20
-114.2602744870789
 30
0.0
 11
583.4488026086495
 21
-113.7602744870789
 31
0.0
  0
LINE
  5
5276
330
2
100
AcDbEntity
  8
AM_VIS
100
AcDbLine
 10
578.0488026086495
 20
-114.2602744870789
 30
0.0
 11
582.9488026086495
 21
-114.2602744870789
 31
0.0
  0
LINE
  5
5277
330
2
100
AcDbEntity
  8
AM_VIS
100
AcDbLine
 10
578.0488026086495
 20
-114.2602744870789
 30
0.0
 11
577.5488026086495
 21
-114.7602744870789
 31
0.0
  0
LINE
  5
5278
330
2
100
AcDbEntity
  8
AM_VIS
100
AcDbLine
 10
577.5488026086495
 20
-114.7602744870789
 30
0.0
 11
576.5488026086496
 21
-114.7602744870789
 31
0.0
  0
LINE
  5
5279
102
{ACAD_REACTORS
330
58B5
102
}
330
2
100
AcDbEntity
  8
AM_VIS
100
AcDbLine
 10
576.5488026086496
 20
-114.7602744870789
 30
0.0
 11
576.0488026086496
 21
-114.2602744870789
 31
0.0
  0
LINE
  5
527A
330
2
100
AcDbEntity
  8
AM_VIS
100
AcDbLine
 10
566.9988026086496
 20
-114.2602744870789
 30
0.0
 11
576.0488026086496
 21
-114.2602744870789
 31
0.0
  0
LINE
  5
527B
330
2
100
AcDbEntity
  8
AM_VIS
100
AcDbLine
 10
566.9988026086496
 20
-104.2602744870789
 30
0.0
 11
566.9988026086496
 21
-114.2602744870789
 31
0.0
  0
LINE
  5
527C
330
2
100
AcDbEntity
  8
AM_VIS
100
AcDbLine
 10
566.9988026086496
 20
-104.2602744870789
 30
0.0
 11
575.9488026086495
 21
-104.2602744870789
 31
0.0
  0
LINE
  5
527D
330
2
100
AcDbEntity
  8
AM_VIS
100
AcDbLine
 10
580.3488026086495
 20
-104.2602744870789
 30
0.0
 11
583.0488026086495
 21
-104.2602744870789
 31
0.0
  0
LINE
  5
527E
330
2
100
AcDbEntity
  8
AM_VIS
100
AcDbLine
 10
580.3488026086495
 20
-104.2602744870789
 30
0.0
 11
579.8488026086495
 21
-104.7602744870789
 31
0.0
  0
LINE
  5
527F
330
2
100
AcDbEntity
  8
AM_VIS
100
AcDbLine
 10
579.8488026086495
 20
-104.7602744870789
 30
0.0
 11
576.4488026086495
 21
-104.7602744870789
 31
0.0
  0
LINE
  5
5280
330
2
100
AcDbEntity
  8
AM_VIS
100
AcDbLine
 10
576.4488026086495
 20
-104.7602744870789
 30
0.0
 11
575.9488026086495
 21
-104.2602744870789
 31
0.0
  0
CIRCLE
  5
5281
330
2
100
AcDbEntity
  8
AM_VIS
100
AcDbCircle
 10
578.7988026086495
 20
-109.2602744870789
 30
0.0
 40
1.0
  0
CIRCLE
  5
5282
330
2
100
AcDbEntity
  8
AM_VIS
100
AcDbCircle
 10
577.0488026086495
 20
-113.3602744870789
 30
0.0
 40
0.85
  0
CIRCLE
  5
5283
330
2
100
AcDbEntity
  8
AM_VIS
100
AcDbCircle
 10
584.0488026086496
 20
-105.1602744870789
 30
0.0
 40
0.85
  0
CIRCLE
  5
5284
330
2
100
AcDbEntity
  8
AM_VIS
100
AcDbCircle
 10
585.7988026086495
 20
-109.2602744870789
 30
0.0
 40
1.0
  0
CIRCLE
  5
5285
330
2
100
AcDbEntity
  8
AM_VIS
100
AcDbCircle
 10
571.7988026086495
 20
-109.2602744870789
 30
0.0
 40
1.0
  0
CIRCLE
  5
5286
330
2
100
AcDbEntity
  8
AM_VIS
100
AcDbCircle
 10
582.2988026086496
 20
-107.2602744870789
 30
0.0
 40
1.0
  0
CIRCLE
  5
5287
330
2
100
AcDbEntity
  8
AM_VIS
100
AcDbCircle
 10
575.2988026086495
 20
-111.2602744870789
 30
0.0
 40
1.0
  0
LINE
  5
5294
330
2
100
AcDbEntity
  8
AM_VIS
100
AcDbLine
 10
566.9988026086496
 20
-114.2602744870788
 30
0.0
 11
566.9988026086496
 21
-104.2602744870789
 31
0.0
  0
LINE
  5
5295
330
2
100
AcDbEntity
  8
AM_VIS
100
AcDbLine
 10
566.9988026086496
 20
-104.2602744870789
 30
0.0
 11
557.4988026086495
 21
-104.2602744870789
 31
0.0
  0
LINE
  5
5296
330
2
100
AcDbEntity
  8
AM_VIS
100
AcDbLine
 10
566.9988026086496
 20
-114.2602744870788
 30
0.0
 11
557.4988026086495
 21
-114.2602744870788
 31
0.0
  0
LINE
  5
5297
330
2
100
AcDbEntity
  8
AM_VIS
100
AcDbLine
 10
557.4988026086495
 20
-104.2602744870789
 30
0.0
 11
557.4988026086495
 21
-114.2602744870788
 31
0.0
  0
LINE
  5
5298
330
2
100
AcDbEntity
  8
AM_VIS
100
AcDbLine
 10
558.2271505210426
 20
-114.319010276285
 30
0.0
 11
558.6988026086495
 21
-114.3602744870789
 31
0.0
  0
LINE
  5
5299
330
2
100
AcDbEntity
  8
AM_VIS
100
AcDbLine
 10
558.6988026086495
 20
-114.2602744870788
 30
0.0
 11
558.6988026086495
 21
-114.3602744870789
 31
0.0
  0
ARC
  5
529A
330
2
100
AcDbEntity
  8
AM_VIS
100
AcDbCircle
 10
558.2829301964011
 20
-113.6814456695063
 30
0.0
 40
0.6400000000000001
100
AcDbArc
 50
244.7452834390857
 51
265.0000000000002
  0
LINE
  5
529B
330
2
100
AcDbEntity
  8
AM_VIS
100
AcDbLine
 10
558.2271505210426
 20
-104.2015386978727
 30
0.0
 11
558.6988026086495
 21
-104.1602744870788
 31
0.0
  0
LINE
  5
529C
330
2
100
AcDbEntity
  8
AM_VIS
100
AcDbLine
 10
558.6988026086495
 20
-104.1602744870788
 30
0.0
 11
558.6988026086495
 21
-104.2602744870789
 31
0.0
  0
ARC
  5
529D
330
2
100
AcDbEntity
  8
AM_VIS
100
AcDbCircle
 10
558.2829301964011
 20
-104.8391033046515
 30
0.0
 40
0.6400000000000002
100
AcDbArc
 50
94.99999999999982
 51
115.2547165609001
  0
LINE
  5
529E
330
2
100
AcDbEntity
  8
AM_VIS
100
AcDbLine
 10
557.4988026086495
 20
-114.2602744870789
 30
0.0
 11
557.4988026086495
 21
-104.2602744870789
 31
0.0
  0
LINE
  5
529F
330
2
100
AcDbEntity
  8
AM_VIS
100
AcDbLine
 10
557.4988026086495
 20
-104.2602744870789
 30
0.0
 11
544.4988026086496
 21
-104.2602744870789
 31
0.0
  0
LINE
  5
52A0
330
2
100
AcDbEntity
  8
AM_VIS
100
AcDbLine
 10
542.499731119362
 20
-107.7432018938363
 30
0.0
 11
544.4995694766748
 21
-107.5142207929754
 31
0.0
  0
LINE
  5
52A1
330
2
100
AcDbEntity
  8
AM_VIS
100
AcDbLine
 10
542.4988026086496
 20
-106.6602744870789
 30
0.0
 11
544.4988026086496
 21
-106.6602744870789
 31
0.0
  0
LINE
  5
52A2
330
2
100
AcDbEntity
  8
AM_VIS
100
AcDbLine
 10
544.4988026086496
 20
-104.2602744870789
 30
0.0
 11
544.4988026086496
 21
-114.2602744870789
 31
0.0
  0
LINE
  5
52A3
330
2
100
AcDbEntity
  8
AM_VIS
100
AcDbLine
 10
557.4988026086495
 20
-114.2602744870789
 30
0.0
 11
544.4988026086496
 21
-114.2602744870789
 31
0.0
  0
LINE
  5
52A4
330
2
100
AcDbEntity
  8
AM_VIS
100
AcDbLine
 10
544.4988026086496
 20
-111.8602744870789
 30
0.0
 11
542.4988026086496
 21
-111.8602744870789
 31
0.0
  0
LINE
  5
52A5
330
2
100
AcDbEntity
  8
AM_VIS
100
AcDbLine
 10
542.499731119362
 20
-110.7773470803215
 30
0.0
 11
544.4995694766748
 21
-111.0063281811824
 31
0.0
  0
LINE
  5
52A6
330
2
100
AcDbEntity
  8
AM_VIS
100
AcDbLine
 10
542.4988026086496
 20
-107.790580641409
 30
0.0
 11
542.2988026086495
 21
-107.790580641409
 31
0.0
  0
LINE
  5
52A7
330
2
100
AcDbEntity
  8
AM_VIS
100
AcDbLine
 10
542.2988026086495
 20
-110.7299683327488
 30
0.0
 11
542.4988026086496
 21
-110.7299683327488
 31
0.0
  0
CIRCLE
  5
52A8
330
2
100
AcDbEntity
  8
AM_VIS
100
AcDbCircle
 10
550.9988026086496
 20
-109.2602744870789
 30
0.0
 40
3.399999999999999
  0
CIRCLE
  5
52A9
330
2
100
AcDbEntity
  8
AM_VIS
100
AcDbCircle
 10
550.9988026086496
 20
-109.2602744870789
 30
0.0
 40
2.7
  0
CIRCLE
  5
52AA
330
2
100
AcDbEntity
  8
AM_VIS
100
AcDbCircle
 10
550.9988026086496
 20
-109.2602744870789
 30
0.0
 40
2.5
  0
CIRCLE
  5
52AB
330
2
100
AcDbEntity
  8
AM_VIS
100
AcDbCircle
 10
550.9988026086496
 20
-109.2602744870789
 30
0.0
 40
2.399999999999999
  0
LINE
  5
52AC
330
2
100
AcDbEntity
  8
AM_VIS
100
AcDbLine
 10
542.4988026086496
 20
-110.7854563580354
 30
0.0
 11
542.4988026086496
 21
-107.7350926161223
 31
0.0
  0
LINE
  5
52AD
330
2
100
AcDbEntity
  8
AM_VIS
100
AcDbLine
 10
542.4988026086496
 20
-107.7350926161223
 30
0.0
 11
542.4988026086496
 21
-106.6602744870789
 31
0.0
  0
LINE
  5
52AE
330
2
100
AcDbEntity
  8
AM_VIS
100
AcDbLine
 10
542.4988026086496
 20
-111.8602744870789
 30
0.0
 11
542.4988026086496
 21
-110.7854563580354
 31
0.0
  0
LINE
  5
52AF
330
2
100
AcDbEntity
  8
AM_VIS
100
AcDbLine
 10
542.2988026086495
 20
-110.7299683327488
 30
0.0
 11
542.2988026086495
 21
-107.790580641409
 31
0.0
  0
LINE
  5
52B0
330
2
100
AcDbEntity
  8
AM_VIS
100
AcDbLine
 10
544.4988026086496
 20
-104.2602744870789
 30
0.0
 11
543.9988026086496
 21
-104.2602744870789
 31
0.0
  0
LINE
  5
52B1
330
2
100
AcDbEntity
  8
AM_VIS
100
AcDbLine
 10
543.9988026086496
 20
-114.2602744870789
 30
0.0
 11
544.4988026086496
 21
-114.2602744870789
 31
0.0
  0
LINE
  5
52B2
330
2
100
AcDbEntity
  8
AM_VIS
100
AcDbLine
 10
542.4988026086496
 20
-111.8602744870789
 30
0.0
 11
542.4988026086496
 21
-114.2602744870789
 31
0.0
  0
LINE
  5
52B3
330
2
100
AcDbEntity
  8
AM_VIS
100
AcDbLine
 10
543.9988026086496
 20
-114.2602744870789
 30
0.0
 11
543.9988026086496
 21
-111.8602744870789
 31
0.0
  0
LINE
  5
52B4
330
2
100
AcDbEntity
  8
AM_VIS
100
AcDbLine
 10
542.4988026086496
 20
-114.2602744870789
 30
0.0
 11
543.9988026086496
 21
-114.2602744870789
 31
0.0
  0
LINE
  5
52B5
330
2
100
AcDbEntity
  8
AM_VIS
100
AcDbLine
 10
542.4988026086496
 20
-104.2602744870789
 30
0.0
 11
542.4988026086496
 21
-106.6602744870789
 31
0.0
  0
LINE
  5
52B6
330
2
100
AcDbEntity
  8
AM_VIS
100
AcDbLine
 10
543.9988026086496
 20
-104.2602744870789
 30
0.0
 11
542.4988026086496
 21
-104.2602744870789
 31
0.0
  0
LINE
  5
52B7
330
2
100
AcDbEntity
  8
AM_VIS
100
AcDbLine
 10
543.9988026086496
 20
-106.6602744870789
 30
0.0
 11
543.9988026086496
 21
-104.2602744870789
 31
0.0
  0
LINE
  5
52B8
330
2
100
AcDbEntity
  8
AM_VIS
100
AcDbLine
 10
542.4988026086496
 20
-114.2602744870789
 30
0.0
 11
540.9988026086495
 21
-114.2602744870789
 31
0.0
  0
LINE
  5
52B9
330
2
100
AcDbEntity
  8
AM_VIS
100
AcDbLine
 10
540.9988026086495
 20
-114.2602744870789
 30
0.0
 11
540.9988026086495
 21
-104.2602744870789
 31
0.0
  0
LINE
  5
52BA
330
2
100
AcDbEntity
  8
AM_VIS
100
AcDbLine
 10
542.4988026086496
 20
-104.2602744870789
 30
0.0
 11
540.9988026086495
 21
-104.2602744870789
 31
0.0
  0
LINE
  5
52BB
330
2
100
AcDbEntity
  8
AM_VIS
100
AcDbLine
 10
539.4988026086496
 20
-105.2602744870789
 30
0.0
 11
540.9988026086495
 21
-104.2602744870789
 31
0.0
  0
LINE
  5
52BC
330
2
100
AcDbEntity
  8
AM_VIS
100
AcDbLine
 10
540.9988026086495
 20
-114.2602744870789
 30
0.0
 11
539.4988026086496
 21
-113.2602744870789
 31
0.0
  0
LINE
  5
52BD
330
2
100
AcDbEntity
  8
AM_VIS
100
AcDbLine
 10
539.4988026086496
 20
-105.5102744870789
 30
0.0
 11
535.9988026086496
 21
-105.5102744870789
 31
0.0
  0
LINE
  5
52BE
330
2
100
AcDbEntity
  8
AM_VIS
100
AcDbLine
 10
539.4988026086496
 20
-113.0102744870789
 30
0.0
 11
535.9988026086496
 21
-113.0102744870789
 31
0.0
  0
LINE
  5
52BF
330
2
100
AcDbEntity
  8
AM_VIS
100
AcDbLine
 10
534.9988026086496
 20
-106.1102744870789
 30
0.0
 11
534.9988026086496
 21
-112.4102744870789
 31
0.0
  0
LINE
  5
52C0
330
2
100
AcDbEntity
  8
AM_VIS
100
AcDbLine
 10
535.9988026086496
 20
-105.5102744870789
 30
0.0
 11
534.9988026086496
 21
-106.1102744870789
 31
0.0
  0
LINE
  5
52C1
330
2
100
AcDbEntity
  8
AM_VIS
100
AcDbLine
 10
535.9988026086496
 20
-113.0102744870789
 30
0.0
 11
535.9988026086496
 21
-105.5102744870789
 31
0.0
  0
LINE
  5
52C2
330
2
100
AcDbEntity
  8
AM_VIS
100
AcDbLine
 10
534.9988026086496
 20
-112.4102744870789
 30
0.0
 11
535.9988026086496
 21
-113.0102744870789
 31
0.0
  0
LINE
  5
52C3
330
2
100
AcDbEntity
  8
AM_VIS
100
AcDbLine
 10
539.4988026086496
 20
-105.2602744870789
 30
0.0
 11
539.4988026086496
 21
-113.2602744870789
 31
0.0
  0
LINE
  5
539C
330
2
100
AcDbEntity
  8
AM_7
100
AcDbLine
 10
582.0488026086495
 20
-105.1602744870789
 30
0.0
 11
586.0488026086495
 21
-105.1602744870789
 31
0.0
  0
LINE
  5
539D
330
2
100
AcDbEntity
  8
AM_7
100
AcDbLine
 10
584.0488026086496
 20
-107.1602744870789
 30
0.0
 11
584.0488026086496
 21
-103.1602744870789
 31
0.0
  0
LINE
  5
539E
330
2
100
AcDbEntity
  8
AM_7
100
AcDbLine
 10
573.2988026086495
 20
-111.2602744870789
 30
0.0
 11
577.2988026086495
 21
-111.2602744870789
 31
0.0
  0
LINE
  5
539F
102
{ACAD_REACTORS
330
5830
102
}
330
2
100
AcDbEntity
  8
AM_7
100
AcDbLine
 10
575.2988026086495
 20
-113.2602744870789
 30
0.0
 11
575.2988026086495
 21
-109.2602744870789
 31
0.0
  0
LINE
  5
53A0
330
2
100
AcDbEntity
  8
AM_7
100
AcDbLine
 10
575.0488026086495
 20
-113.3602744870789
 30
0.0
 11
579.0488026086495
 21
-113.3602744870789
 31
0.0
  0
LINE
  5
53A1
330
2
100
AcDbEntity
  8
AM_7
100
AcDbLine
 10
577.0488026086495
 20
-115.3602744870789
 30
0.0
 11
577.0488026086495
 21
-111.3602744870789
 31
0.0
  0
LINE
  5
53A2
102
{ACAD_REACTORS
330
57CC
102
}
330
2
100
AcDbEntity
  8
AM_7
100
AcDbLine
 10
585.7988026086495
 20
-111.2602744870789
 30
0.0
 11
585.7988026086495
 21
-107.2602744870789
 31
0.0
  0
LINE
  5
53A3
102
{ACAD_REACTORS
330
576C
330
579A
330
57CC
330
57FC
330
5830
102
}
330
2
100
AcDbEntity
  8
AM_7
100
AcDbLine
 10
578.7988026086495
 20
-111.2602744870789
 30
0.0
 11
578.7988026086495
 21
-107.2602744870789
 31
0.0
  0
LINE
  5
53A4
102
{ACAD_REACTORS
330
579A
102
}
330
2
100
AcDbEntity
  8
AM_7
100
AcDbLine
 10
571.7988026086495
 20
-111.2602744870789
 30
0.0
 11
571.7988026086495
 21
-107.2602744870789
 31
0.0
  0
DIMENSION
  5
53B4
102
{ACAD_XDICTIONARY
360
53C1
102
}
102
{ACAD_REACTORS
330
53C2
102
}
330
2
100
AcDbEntity
  8
AM_5
100
AcDbDimension
  2
*D12
 10
577.0488026086495
 20
2.664291835631715
 30
0.0
 11
556.0238026086495
 21
4.589494473311244
 31
0.0
 70
    32
 71
     5
 42
42.04999999999995
  3
AM_ISO$0
100
AcDbAlignedDimension
 13
534.9988026086496
 23
-9.885540167728208
 33
0.0
 14
577.0488026086495
 24
-5.735540167728217
 34
0.0
100
AcDbRotatedDimension
1001
ACAD
1000
DSTYLE
1002
{
1070
    40
1040
0.6999860002799944
1070
   174
1070
     1
1002
}
  0
DIMENSION
  5
53E2
102
{ACAD_XDICTIONARY
360
53EF
102
}
102
{ACAD_REACTORS
330
53F0
102
}
330
2
100
AcDbEntity
  8
AM_5
100
AcDbDimension
  2
*D13
 10
577.0488026086495
 20
2.664291835631731
 30
0.0
 11
580.5488026086496
 21
4.589253336401715
 31
0.0
 70
    32
 71
     5
 42
7.0
  3
AM_ISO$0
100
AcDbAlignedDimension
 13
584.0488026086496
 23
-13.93554016772819
 33
0.0
 14
577.0488026086495
 24
-5.735540167728203
 34
0.0
100
AcDbRotatedDimension
1001
ACAD
1000
DSTYLE
1002
{
1070
    40
1040
0.6999860002799944
1070
   174
1070
     1
1002
}
  0
LINE
  5
5402
330
2
100
AcDbEntity
  8
AM_7
100
AcDbLine
 10
558.6796167810514
 20
-59.11794927514489
 30
0.0
 11
562.3796167810513
 21
-59.11794927514489
 31
0.0
  0
LINE
  5
5403
330
2
100
AcDbEntity
  8
AM_7
100
AcDbLine
 10
560.4988026086496
 20
-61.03301568785084
 30
0.0
 11
560.4988026086496
 21
-57.33301568785083
 31
0.0
  0
DIMENSION
  5
5413
102
{ACAD_XDICTIONARY
360
5420
102
}
102
{ACAD_REACTORS
330
5421
102
}
330
2
100
AcDbEntity
  8
AM_5
100
AcDbDimension
  2
*D14
 10
522.0490616034696
 20
-18.03554016772819
 30
0.0
 11
520.1241001026996
 21
-13.03554016772812
 31
0.0
 70
    32
 71
     5
 42
9.999999999999985
  3
AM_ISO$0
100
AcDbAlignedDimension
 13
540.9988026086495
 23
-8.035540167728214
 33
0.0
 14
540.9988026086495
 24
-18.0355401677282
 34
0.0
 50
90.0
100
AcDbRotatedDimension
1001
ACAD
1000
DSTYLE
1002
{
1070
    40
1040
0.6999860002799944
1070
   174
1070
     1
1002
}
  0
DIMENSION
  5
5476
102
{ACAD_XDICTIONARY
360
5483
102
}
102
{ACAD_REACTORS
330
5484
102
}
330
2
100
AcDbEntity
  8
AM_5
100
AcDbDimension
  2
*D15
 10
526.5989706052896
 20
-8.935540167728206
 30
0.0
 11
524.6737679676101
 21
-13.03554016772811
 31
0.0
 70
    32
 71
     5
 42
8.199999999999988
  3
AM_ISO$0
100
AcDbAlignedDimension
 13
580.8488026086496
 23
-17.13554016772821
 33
0.0
 14
573.8488026086496
 24
-8.93554016772822
 34
0.0
 50
90.0
100
AcDbRotatedDimension
1001
ACAD
1000
DSTYLE
1002
{
1070
    40
1040
0.6999860002799944
1070
   174
1070
     1
1002
}
  0
DIMENSION
  5
548E
102
{ACAD_XDICTIONARY
360
549D
102
}
102
{ACAD_REACTORS
330
549E
102
}
330
2
100
AcDbEntity
  8
AM_5
100
AcDbDimension
  2
*D16
 10
531.0989706052896
 20
-18.03554016772819
 30
0.0
 11
531.0989706052896
 21
-25.30372813730205
 31
0.0
 70
   160
 71
     5
 42
0.899999999999995
  3
AM_ISO$0
100
AcDbAlignedDimension
 13
580.8488026086496
 23
-17.13554016772821
 33
0.0
 14
540.9988026086495
 24
-18.03554016772819
 34
0.0
 50
90.0
100
AcDbRotatedDimension
1001
ACAD
1000
DSTYLE
1002
{
1070
    40
1040
0.6999860002799944
1070
   174
1070
     1
1002
}
  0
DIMENSION
  5
56B4
102
{ACAD_XDICTIONARY
360
56C0
102
}
102
{ACAD_REACTORS
330
56C1
102
}
330
2
100
AcDbEntity
  8
AM_5
100
AcDbDimension
  2
*D17
 10
583.8401880691046
 20
-17.95954257906611
 30
0.0
 11
596.1724531151847
 21
-3.58659405317087
 31
0.0
 70
   163
  1
2-<> thru
 71
     5
 42
1.700000000000059
  3
AM_ISO$3
100
AcDbDiametricDimension
 15
584.2574171481942
 25
-16.31153775639045
 35
0.0
 40
0.0
1001
ACAD
1000
DSTYLE
1002
{
1070
   144
1040
1.0
1070
    40
1040
0.6999860002799944
1002
}
  0
DIMENSION
  5
56FB
102
{ACAD_XDICTIONARY
360
5708
102
}
102
{ACAD_REACTORS
330
5709
102
}
330
2
100
AcDbEntity
  8
AM_5
100
AcDbDimension
  2
*D18
 10
613.0988026086495
 20
-72.71778127850487
 30
0.0
 11
578.7988026086495
 21
-70.79281977773489
 31
0.0
 70
    32
 71
     5
 42
68.59999999999991
  3
AM_ISO$0
100
AcDbAlignedDimension
 13
544.4988026086496
 23
-64.31794927514494
 33
0.0
 14
613.0988026086495
 24
-64.31794927514488
 34
0.0
 50
0.0000000000001018
100
AcDbRotatedDimension
1001
ACAD
1000
DSTYLE
1002
{
1070
    40
1040
0.6999860002799944
1070
   174
1070
     1
1002
}
  0
DIMENSION
  5
5721
102
{ACAD_XDICTIONARY
360
572E
102
}
102
{ACAD_REACTORS
330
572F
102
}
330
2
100
AcDbEntity
  8
AM_5
100
AcDbDimension
  2
*D19
 10
622.5988026086495
 20
-77.61768328046544
 30
0.0
 11
578.7988026086495
 21
-75.69272177969546
 31
0.0
 70
    32
 71
     5
 42
87.5999999999999
  3
AM_ISO$0
100
AcDbAlignedDimension
 13
534.9988026086496
 23
-45.91794927514493
 33
0.0
 14
622.5988026086495
 24
-45.91794927514487
 34
0.0
 50
0.0000000000001018
100
AcDbRotatedDimension
1001
ACAD
1000
DSTYLE
1002
{
1070
    40
1040
0.6999860002799944
1070
   174
1070
     1
1002
}
  0
DIMENSION
  5
575E
102
{ACAD_XDICTIONARY
360
576B
102
}
102
{ACAD_REACTORS
330
576C
102
}
330
2
100
AcDbEntity
  8
AM_5
100
AcDbDimension
  2
*D20
 10
578.7988026086495
 20
-91.46054048175903
 30
0.0
 11
600.6988026086495
 21
-91.46054048175903
 31
0.0
 70
   160
 71
     5
 42
43.79999999999995
  3
AM_ISO$0
100
AcDbAlignedDimension
 13
622.5988026086495
 23
-106.1102744870789
 33
0.0
 14
578.7988026086495
 24
-107.2602744870789
 34
0.0
100
AcDbRotatedDimension
1001
ACAD
1000
DSTYLE
1002
{
1070
    40
1040
0.6999860002799944
1070
   174
1070
     1
1002
}
  0
DIMENSION
  5
578C
102
{ACAD_XDICTIONARY
360
5799
102
}
102
{ACAD_REACTORS
330
579A
102
}
330
2
100
AcDbEntity
  8
AM_5
100
AcDbDimension
  2
*D21
 10
571.7988026086495
 20
-96.36044248371902
 30
0.0
 11
575.2988026086495
 21
-94.43548098294902
 31
0.0
 70
    32
 71
     5
 42
7.0
  3
AM_ISO$0
100
AcDbAlignedDimension
 13
578.7988026086495
 23
-107.2602744870789
 33
0.0
 14
571.7988026086495
 24
-107.2602744870789
 34
0.0
100
AcDbRotatedDimension
1001
ACAD
1000
DSTYLE
1002
{
1070
   174
1070
     1
1070
   144
1040
1.0
1070
    40
1040
0.6999860002799944
1002
}
  0
DIMENSION
  5
57BE
102
{ACAD_XDICTIONARY
360
57CB
102
}
102
{ACAD_REACTORS
330
57CC
102
}
330
2
100
AcDbEntity
  8
AM_5
100
AcDbDimension
  2
*D22
 10
578.7988026086495
 20
-96.360442483719
 30
0.0
 11
582.2988026086496
 21
-94.43548098294902
 31
0.0
 70
    32
 71
     5
 42
7.0
  3
AM_ISO$0
100
AcDbAlignedDimension
 13
585.7988026086495
 23
-107.2602744870789
 33
0.0
 14
578.7988026086495
 24
-107.2602744870789
 34
0.0
100
AcDbRotatedDimension
1001
ACAD
1000
DSTYLE
1002
{
1070
   174
1070
     1
1070
   144
1040
1.0
1070
    40
1040
0.6999860002799944
1002
}
  0
DIMENSION
  5
57EC
102
{ACAD_XDICTIONARY
360
57FB
102
}
102
{ACAD_REACTORS
330
57FC
102
}
330
2
100
AcDbEntity
  8
AM_5
100
AcDbDimension
  2
*D23
 10
582.2988026086496
 20
-122.6601064904388
 30
0.0
 11
588.9644104578833
 21
-122.6601064904388
 31
0.0
 70
   160
 71
     5
 42
3.5
  3
AM_ISO$0
100
AcDbAlignedDimension
 13
578.7988026086495
 23
-111.2602744870789
 33
0.0
 14
582.2988026086496
 24
-109.2602744870789
 34
0.0
 50
0.0000000000001018
100
AcDbRotatedDimension
1001
ACAD
1000
DSTYLE
1002
{
1070
    40
1040
0.6999860002799944
1070
   173
1070
     1
1070
   174
1070
     1
1070
   343
1005
583C
1002
}
  0
DIMENSION
  5
5820
102
{ACAD_XDICTIONARY
360
582F
102
}
102
{ACAD_REACTORS
330
5830
102
}
330
2
100
AcDbEntity
  8
AM_5
100
AcDbDimension
  2
*D24
 10
578.7988026086495
 20
-122.6601064904388
 30
0.0
 11
568.6331947594157
 21
-122.6601064904388
 31
0.0
 70
   160
 71
     5
 42
3.5
  3
AM_ISO$0
100
AcDbAlignedDimension
 13
575.2988026086495
 23
-113.2602744870789
 33
0.0
 14
578.7988026086495
 24
-111.2602744870789
 34
0.0
100
AcDbRotatedDimension
1001
ACAD
1000
DSTYLE
1002
{
1070
    40
1040
0.6999860002799944
1070
   173
1070
     1
1070
   174
1070
     1
1070
   344
1005
583C
1002
}
  0
DIMENSION
  5
58A7
102
{ACAD_XDICTIONARY
360
58B4
102
}
102
{ACAD_REACTORS
330
58B5
102
}
330
2
100
AcDbEntity
  8
AM_5
100
AcDbDimension
  2
*D26
 10
526.5989706052896
 20
-103.7602744870789
 30
0.0
 11
524.6740091045196
 21
-109.2602744870788
 31
0.0
 70
    32
 71
     5
 42
11.0
  3
AM_ISO$0
100
AcDbAlignedDimension
 13
576.5488026086496
 23
-114.7602744870789
 33
0.0
 14
583.5488026086495
 24
-103.7602744870789
 34
0.0
 50
90.0
100
AcDbRotatedDimension
1001
ACAD
1000
DSTYLE
1002
{
1070
   144
1040
1.0
1070
    40
1040
0.6999860002799944
1002
}
  0
DIMENSION
  5
58EF
330
2
100
AcDbEntity
  8
AM_5
100
AcDbDimension
  2
*D27
 10
632.6109284201513
 20
-49.31794927514491
 30
0.0
 11
632.6109284201513
 21
-56.81794927514481
 31
0.0
 70
   160
 71
     5
 42
14.99999999999996
  3
AM_ISO$0
100
AcDbAlignedDimension
 13
613.0988026086495
 23
-64.31794927514488
 33
0.0
 14
600.0988026086495
 24
-49.31794927514491
 34
0.0
 50
90.0
100
AcDbRotatedDimension
1001
ACAD
1000
DSTYLE
1002
{
1070
    40
1040
0.6999860002799944
1070
   174
1070
     1
1002
}
  0
DIMENSION
  5
5919
102
{ACAD_XDICTIONARY
360
5928
102
}
102
{ACAD_REACTORS
330
5929
102
}
330
2
100
AcDbEntity
  8
AM_5
100
AcDbDimension
  2
*D28
 10
587.8146338109882
 20
-50.71794927514495
 30
0.0
 11
587.8146338109882
 21
-42.82557912254786
 31
0.0
 70
   160
 71
     5
 42
1.400000000000005
  3
AM_ISO$0
100
AcDbAlignedDimension
 13
585.6488026086496
 23
-49.31794927514494
 33
0.0
 14
585.6488026086496
 24
-50.71794927514495
 34
0.0
 50
90.0
100
AcDbRotatedDimension
1001
ACAD
1000
DSTYLE
1002
{
1070
    40
1040
0.6999860002799944
1070
   174
1070
     1
1002
}
  0
ENDSEC
  0
SECTION
  2
OBJECTS
  0
DICTIONARY
  5
8
330
0
100
AcDbDictionary
281
     1
  3
ACAD_COLOR
350
22EB
  3
ACAD_GROUP
350
21
  3
ACAD_LAYOUT
350
C
  3
ACAD_MATERIAL
350
22EA
  3
ACAD_MLINESTYLE
350
22
  3
ACAD_PLOTSETTINGS
350
23
  3
ACAD_PLOTSTYLENAME
350
7
  3
ACAD_TABLESTYLE
350
22EC
  3
AcAsAppObject
350
4C76
  3
ACASGREF_MASTER
350
4CBE
  3
ACDBHEADERROUNDTRIPXREC
350
5B89
  3
AcDbVariableDictionary
350
1D2
  3
AcmDictionary
350
1F4
  3
AD_GREF_MODULE
350
4CBF
  3
AD_MAPI_MODULE
350
4CD8
  3
AMG
350
1DA
  3
AMGSNAPSETTINGS
350
37D
  3
ASE_INDEX_DICTIONARY
350
E58
  3
DWGPROPS
350
5B88
  3
MAPISURF_MODULE
350
4CC0
  0
DICTIONARY
  5
2434
330
11
100
AcDbDictionary
280
     1
281
     1
  3
ACAD_LAYERFILTERS
360
539B
  3
ACAD_LAYERSTATES
360
2435
  3
ACLYDICTIONARY
360
539A
  3
AMLAYER_GROUPCOLORS
360
46A0
  0
DICTIONARY
  5
3
330
2
100
AcDbDictionary
280
     1
281
     1
  3
ACAD_INDEX
360
44DA
  3
ACAD_LAYOUTSELFREF
360
22C3
  0
DICTIONARY
  5
1848
330
D
100
AcDbDictionary
280
     1
281
     1
  3
ACAD_LAYOUTSELFREF
360
22C8
  0
DICTIONARY
  5
3B1E
330
3B11
100
AcDbDictionary
280
     1
281
     1
  3
ACAD_DIMASSOC
360
3B1F
  0
DICTIONARY
  5
53C1
330
53B4
100
AcDbDictionary
280
     1
281
     1
  3
ACAD_DIMASSOC
360
53C2
  0
DICTIONARY
  5
53EF
330
53E2
100
AcDbDictionary
280
     1
281
     1
  3
ACAD_DIMASSOC
360
53F0
  0
DICTIONARY
  5
5420
330
5413
100
AcDbDictionary
280
     1
281
     1
  3
ACAD_DIMASSOC
360
5421
  0
DICTIONARY
  5
5483
330
5476
100
AcDbDictionary
280
     1
281
     1
  3
ACAD_DIMASSOC
360
5484
  0
DICTIONARY
  5
549D
330
548E
100
AcDbDictionary
280
     1
281
     1
  3
ACAD_DIMASSOC
360
549E
  0
DICTIONARY
  5
56C0
330
56B4
100
AcDbDictionary
280
     1
281
     1
  3
ACAD_DIMASSOC
360
56C1
  0
DICTIONARY
  5
5708
330
56FB
100
AcDbDictionary
280
     1
281
     1
  3
ACAD_DIMASSOC
360
5709
  0
DICTIONARY
  5
572E
330
5721
100
AcDbDictionary
280
     1
281
     1
  3
ACAD_DIMASSOC
360
572F
  0
DICTIONARY
  5
576B
330
575E
100
AcDbDictionary
280
     1
281
     1
  3
ACAD_DIMASSOC
360
576C
  0
DICTIONARY
  5
5799
330
578C
100
AcDbDictionary
280
     1
281
     1
  3
ACAD_DIMASSOC
360
579A
  0
DICTIONARY
  5
57CB
330
57BE
100
AcDbDictionary
280
     1
281
     1
  3
ACAD_DIMASSOC
360
57CC
  0
DICTIONARY
  5
57FB
330
57EC
100
AcDbDictionary
280
     1
281
     1
  3
ACAD_DIMASSOC
360
57FC
  0
DICTIONARY
  5
582F
330
5820
100
AcDbDictionary
280
     1
281
     1
  3
ACAD_DIMASSOC
360
5830
  0
DICTIONARY
  5
58B4
330
58A7
100
AcDbDictionary
280
     1
281
     1
  3
ACAD_DIMASSOC
360
58B5
  0
DICTIONARY
  5
5928
330
5919
100
AcDbDictionary
280
     1
281
     1
  3
ACAD_DIMASSOC
360
5929
  0
DICTIONARY
  5
22EB
102
{ACAD_REACTORS
330
8
102
}
330
8
100
AcDbDictionary
281
     1
  0
DICTIONARY
  5
21
102
{ACAD_REACTORS
330
8
102
}
330
8
100
AcDbDictionary
281
     1
  0
DICTIONARY
  5
C
102
{ACAD_REACTORS
330
8
102
}
330
8
100
AcDbDictionary
281
     1
  3
Layout1
350
10
  3
Model
350
B
  0
DICTIONARY
  5
22EA
102
{ACAD_REACTORS
330
8
102
}
330
8
100
AcDbDictionary
281
     1
  0
DICTIONARY
  5
22
102
{ACAD_REACTORS
330
8
102
}
330
8
100
AcDbDictionary
281
     1
  3
Standard
350
24
  0
DICTIONARY
  5
23
102
{ACAD_REACTORS
330
8
102
}
330
8
100
AcDbDictionary
281
     1
  0
ACDBDICTIONARYWDFLT
  5
7
102
{ACAD_REACTORS
330
8
102
}
330
8
100
AcDbDictionary
281
     1
  3
Normal
350
6
100
AcDbDictionaryWithDefault
340
6
  0
DICTIONARY
  5
22EC
102
{ACAD_REACTORS
330
8
102
}
330
8
100
AcDbDictionary
281
     1
  3
Standard
350
22ED
  0
ACAD_PROXY_OBJECT
  5
4C76
102
{ACAD_REACTORS
330
8
102
}
330
8
100
AcDbProxyObject
 90
      499
 91
      528
 95
  2555929
 70
     0
 93
       10
310
4040
 94
        0
1001
ACAD
1000
AcRTDxfName
1000
ASAPP
1000
AcRTDxfName
1000
ASAPP
  0
ACAD_PROXY_OBJECT
  5
4CBE
102
{ACAD_REACTORS
330
8
102
}
330
8
100
AcDbProxyObject
 90
      499
 91
      534
 95
  2555929
 70
     0
 93
       34
310
0100004056
 94
        0
1001
ACAD
1000
AcRTDxfName
1000
ACASGREFMASTER
1000
AcRTDxfName
1000
ACASGREFMASTER
  0
DICTIONARY
  5
5B89
102
{ACAD_REACTORS
330
8
102
}
330
8
100
AcDbDictionary
281
     1
  0
DICTIONARY
  5
1D2
102
{ACAD_REACTORS
330
8
102
}
330
8
100
AcDbDictionary
281
     1
  3
CTABLESTYLE
350
2CA1
  3
DIMASSOC
350
1D4
  3
HIDETEXT
350
1D3
  3
INDEXCTL
350
4C0
  3
PROJECTNAME
350
2CA2
  0
DICTIONARY
  5
1F4
102
{ACAD_REACTORS
330
8
102
}
330
8
100
AcDbDictionary
281
     1
  3
AcmStdDictionary
350
1FA
  3
AMDTSECTSYM_ARROWCOLOR
350
2360
  0
ACAD_PROXY_OBJECT
  5
4CBF
102
{ACAD_REACTORS
330
8
102
}
330
8
100
AcDbProxyObject
 90
      499
 91
      535
 95
  2555929
 70
     0
 93
      114
310
000000438080000000000000000038
 94
        0
1001
ACAD
1000
AcRTDxfName
1000
ACADGREFMODULE
1000
AcRTDxfName
1000
ACADGREFMODULE
  0
ACAD_PROXY_OBJECT
  5
4CD8
102
{ACAD_REACTORS
330
8
102
}
330
8
100
AcDbProxyObject
 90
      499
 91
      545
 95
  2555929
 70
     0
 93
       34
310
05000044C0
 94
        0
1001
ACAD
1000
AcRTDxfName
1000
MAPIADMODULE
1000
AcRTDxfName
1000
MAPIADMODULE
  0
DICTIONARY
  5
1DA
102
{ACAD_REACTORS
330
8
102
}
330
8
100
AcDbDictionary
281
     1
  0
DICTIONARY
  5
37D
102
{ACAD_REACTORS
330
8
102
}
330
8
100
AcDbDictionary
281
     1
  0
DICTIONARY
  5
E58
102
{ACAD_REACTORS
330
8
102
}
330
8
100
AcDbDictionary
281
     1
  3
ASEBlockHierarchyIndexRecord
350
E5A
1001
DCO15
1040
1443953005.444
  0
XRECORD
  5
5B88
102
{ACAD_REACTORS
330
8
102
}
330
8
100
AcDbXrecord
280
     1
  1
DWGPROPS COOKIE
  2

  3

  4

  6

  7

  8

  9

300
AmdtFileType=84
301
=
302
=
303
=
304
=
305
=
306
=
307
=
308
=
309
=
 40
0.1737275462962963
 41
2452691.454954444
 42
2454693.586864156
  1

 90
        1
  0
ACAD_PROXY_OBJECT
  5
4CC0
102
{ACAD_REACTORS
330
8
102
}
330
8
100
AcDbProxyObject
 90
      499
 91
      536
 95
  2555929
 70
     0
 93
        8
310
047E
 94
        0
1001
ACAD
1000
AcRTDxfName
1000
AMDTMAPISURFMOUDULE
1000
AcRTDxfName
1000
AMDTMAPISURFMOUDULE
  0
DICTIONARY
  5
539B
102
{ACAD_REACTORS
330
2434
102
}
330
2434
100
AcDbDictionary
281
     1
  0
DICTIONARY
  5
2435
102
{ACAD_REACTORS
330
2434
102
}
330
2434
100
AcDbDictionary
281
     1
  0
DICTIONARY
  5
539A
102
{ACAD_REACTORS
330
2434
102
}
330
2434
100
AcDbDictionary
281
     1
1001
ACAD
1000
<All
  0
DICTIONARY
  5
46A0
102
{ACAD_REACTORS
330
2434
102
}
330
2434
100
AcDbDictionary
280
     1
281
     1
  0
DICTIONARY
  5
44DA
102
{ACAD_REACTORS
330
3
102
}
330
3
100
AcDbDictionary
281
     1
  3
*A1
350
44DB
  0
XRECORD
  5
22C3
102
{ACAD_REACTORS
330
3
102
}
330
3
100
AcDbXrecord
280
     1
340
2
  0
XRECORD
  5
22C8
102
{ACAD_REACTORS
330
1848
102
}
330
1848
100
AcDbXrecord
280
     1
340
D
  0
DIMASSOC
  5
3B1F
102
{ACAD_REACTORS
330
3B1E
102
}
330
3B1E
100
AcDbDimAssoc
330
3B11
 90
        3
 70
     0
 71
     0
  1
AcDbOsnapPointRef
 72
    13
331
3524
 73
     0
 91
        0
 40
0.0
 10
0.0
 20
0.0
 30
2.000000000000000E+50
 75
     0
  1
AcDbOsnapPointRef
 72
    13
331
34E9
 73
     0
 91
        0
 40
0.0
 10
0.0
 20
0.0
 30
2.000000000000000E+50
 75
     0
  0
DIMASSOC
  5
53C2
102
{ACAD_REACTORS
330
53C1
102
}
330
53C1
100
AcDbDimAssoc
330
53B4
 90
        3
 70
     0
 71
     0
  1
AcDbOsnapPointRef
 72
    13
331
5142
 73
     0
 91
        0
 40
0.0
 10
0.0
 20
0.0
 30
2.000000000000000E+50
 75
     0
  1
AcDbOsnapPointRef
 72
     1
331
505F
 73
     0
 91
        0
 40
0.0
 10
0.0
 20
0.0
 30
2.000000000000000E+50
 75
     0
  0
DIMASSOC
  5
53F0
102
{ACAD_REACTORS
330
53EF
102
}
330
53EF
100
AcDbDimAssoc
330
53E2
 90
        3
 70
     0
 71
     0
  1
AcDbOsnapPointRef
 72
     1
331
5065
 73
     0
 91
        0
 40
0.0
 10
0.0
 20
0.0
 30
2.000000000000000E+50
 75
     0
  1
AcDbOsnapPointRef
 72
     1
331
505F
 73
     0
 91
        0
 40
0.0
 10
0.0
 20
0.0
 30
2.000000000000000E+50
 75
     0
  0
DIMASSOC
  5
5421
102
{ACAD_REACTORS
330
5420
102
}
330
5420
100
AcDbDimAssoc
330
5413
 90
        3
 70
     0
 71
     0
  1
AcDbOsnapPointRef
 72
     1
331
514F
 73
     0
 91
        0
 40
0.0
 10
0.0
 20
0.0
 30
2.000000000000000E+50
 75
     0
  1
AcDbOsnapPointRef
 72
    13
331
5152
 73
     0
 91
        0
 40
0.0
 10
0.0
 20
0.0
 30
2.000000000000000E+50
 75
     0
  0
DIMASSOC
  5
5484
102
{ACAD_REACTORS
330
5483
102
}
330
5483
100
AcDbDimAssoc
330
5476
 90
        3
 70
     0
 71
     0
  1
AcDbOsnapPointRef
 72
    13
331
5062
 73
     0
 91
        0
 40
0.0
 10
0.0
 20
0.0
 30
2.000000000000000E+50
 75
     0
  1
AcDbOsnapPointRef
 72
    13
331
505C
 73
     0
 91
        0
 40
0.0
 10
0.0
 20
0.0
 30
2.000000000000000E+50
 75
     0
  0
DIMASSOC
  5
549E
102
{ACAD_REACTORS
330
549D
102
}
330
549D
100
AcDbDimAssoc
330
548E
 90
        3
 70
     0
 71
     0
  1
AcDbOsnapPointRef
 72
    13
331
5062
 73
     0
 91
        0
 40
0.0
 10
0.0
 20
0.0
 30
2.000000000000000E+50
 75
     0
  1
AcDbOsnapPointRef
 72
    13
331
5152
 73
     0
 91
        0
 40
0.0
 10
0.0
 20
0.0
 30
2.000000000000000E+50
 75
     0
  0
DIMASSOC
  5
56C1
102
{ACAD_REACTORS
330
56C0
102
}
330
56C0
100
AcDbDimAssoc
330
56B4
 90
        2
 70
     0
 71
     0
  1
AcDbOsnapPointRef
 72
     3
331
5125
 73
     2
 91
        0
 40
0.0
 10
0.0
 20
0.0
 30
0.0
 75
     0
  0
DIMASSOC
  5
5709
102
{ACAD_REACTORS
330
5708
102
}
330
5708
100
AcDbDimAssoc
330
56FB
 90
        3
 70
     0
 71
     0
  1
AcDbOsnapPointRef
 72
     1
331
5205
 73
     0
 91
        0
 40
0.0
 10
0.0
 20
0.0
 30
2.000000000000000E+50
 75
     0
  1
AcDbOsnapPointRef
 72
     1
331
5170
 73
     0
 91
        0
 40
0.0
 10
0.0
 20
0.0
 30
2.000000000000000E+50
 75
     0
  0
DIMASSOC
  5
572F
102
{ACAD_REACTORS
330
572E
102
}
330
572E
100
AcDbDimAssoc
330
5721
 90
        1
 70
     0
 71
     0
  1
AcDbOsnapPointRef
 72
     1
331
521E
 73
     0
 91
        0
 40
0.0
 10
0.0
 20
0.0
 30
2.000000000000000E+50
 75
     0
  0
DIMASSOC
  5
576C
102
{ACAD_REACTORS
330
576B
102
}
330
576B
100
AcDbDimAssoc
330
575E
 90
        3
 70
     0
 71
     0
  1
AcDbOsnapPointRef
 72
    13
331
5269
 73
     0
 91
        0
 40
0.0
 10
0.0
 20
0.0
 30
2.000000000000000E+50
 75
     0
  1
AcDbOsnapPointRef
 72
     1
331
53A3
 73
     0
 91
        0
 40
0.0
 10
0.0
 20
0.0
 30
2.000000000000000E+50
 75
     0
  0
DIMASSOC
  5
579A
102
{ACAD_REACTORS
330
5799
102
}
330
5799
100
AcDbDimAssoc
330
578C
 90
        3
 70
     0
 71
     0
  1
AcDbOsnapPointRef
 72
     1
331
53A3
 73
     0
 91
        0
 40
0.0
 10
0.0
 20
0.0
 30
2.000000000000000E+50
 75
     0
  1
AcDbOsnapPointRef
 72
     1
331
53A4
 73
     0
 91
        0
 40
0.0
 10
0.0
 20
0.0
 30
2.000000000000000E+50
 75
     0
  0
DIMASSOC
  5
57CC
102
{ACAD_REACTORS
330
57CB
102
}
330
57CB
100
AcDbDimAssoc
330
57BE
 90
        3
 70
     0
 71
     0
  1
AcDbOsnapPointRef
 72
     1
331
53A2
 73
     0
 91
        0
 40
0.0
 10
0.0
 20
0.0
 30
2.000000000000000E+50
 75
     0
  1
AcDbOsnapPointRef
 72
     1
331
53A3
 73
     0
 91
        0
 40
0.0
 10
0.0
 20
0.0
 30
2.000000000000000E+50
 75
     0
  0
DIMASSOC
  5
57FC
102
{ACAD_REACTORS
330
57FB
102
}
330
57FB
100
AcDbDimAssoc
330
57EC
 90
        3
 70
     0
 71
     0
  1
AcDbOsnapPointRef
 72
    13
331
53A3
 73
     0
 91
        0
 40
0.0
 10
0.0
 20
0.0
 30
2.000000000000000E+50
 75
     0
  1
AcDbOsnapPointRef
 72
     6
331
5099
 73
     0
 91
        0
 40
-0.0000000000000071
 10
0.0
 20
0.0
 30
0.0
332
5082
 74
     0
 92
        0
 75
     0
  0
DIMASSOC
  5
5830
102
{ACAD_REACTORS
330
582F
102
}
330
582F
100
AcDbDimAssoc
330
5820
 90
        3
 70
     0
 71
     0
  1
AcDbOsnapPointRef
 72
    13
331
539F
 73
     0
 91
        0
 40
0.0
 10
0.0
 20
0.0
 30
2.000000000000000E+50
 75
     0
  1
AcDbOsnapPointRef
 72
    13
331
53A3
 73
     0
 91
        0
 40
0.0
 10
0.0
 20
0.0
 30
2.000000000000000E+50
 75
     0
  0
DIMASSOC
  5
58B5
102
{ACAD_REACTORS
330
58B4
102
}
330
58B4
100
AcDbDimAssoc
330
58A7
 90
        3
 70
     0
 71
     0
  1
AcDbOsnapPointRef
 72
    13
331
5279
 73
     0
 91
        0
 40
0.0
 10
0.0
 20
0.0
 30
2.000000000000000E+50
 75
     0
  1
AcDbOsnapPointRef
 72
    13
331
526E
 73
     0
 91
        0
 40
0.0
 10
0.0
 20
0.0
 30
2.000000000000000E+50
 75
     0
  0
DIMASSOC
  5
5929
102
{ACAD_REACTORS
330
5928
102
}
330
5928
100
AcDbDimAssoc
330
5919
 90
        3
 70
     0
 71
     0
  1
AcDbOsnapPointRef
 72
    13
331
51B8
 73
     0
 91
        0
 40
0.0
 10
0.0
 20
0.0
 30
2.000000000000000E+50
 75
     0
  1
AcDbOsnapPointRef
 72
     1
331
51B8
 73
     0
 91
        0
 40
0.0
 10
0.0
 20
0.0
 30
2.000000000000000E+50
 75
     0
  0
LAYOUT
  5
10
102
{ACAD_XDICTIONARY
360
5B8C
102
}
102
{ACAD_REACTORS
330
C
102
}
330
C
100
AcDbPlotSettings
  1

  2
\\RD01\EPSON Stylus COLOR 1160 單色
  4
A4
  6

 40
3.757083177566528
 41
14.7637300491333
 42
3.757080078125
 43
3.757080078125
 44
209.9733276367187
 45
296.9683227539062
 46
0.0
 47
0.0
 48
0.0
 49
0.0
140
0.0
141
0.0
142
1.0
143
1.0
 70
   688
 72
     1
 73
     0
 74
     5
  7
單色出圖.ctb
 75
    16
147
1.0
148
0.0
149
0.0
100
AcDbLayout
  1
Layout1
 70
     1
 71
     1
 10
-3.757083177566528
 20
-14.7637300491333
 11
206.2162444591522
 21
282.2045927047729
 12
0.0
 22
0.0
 32
0.0
 14
26.80208481208632
 24
60.62932117531272
 34
-0.0000000000000153
 15
155.7606180029584
 25
204.40991305297
 35
0.0
146
0.0
 13
0.0
 23
0.0
 33
0.0
 16
1.0
 26
0.0
 36
0.0
 17
0.0
 27
1.0
 37
0.0
 76
     0
330
D
  0
LAYOUT
  5
B
102
{ACAD_XDICTIONARY
360
5B8A
102
}
102
{ACAD_REACTORS
330
C
102
}
330
C
100
AcDbPlotSettings
  1

  2
自動 RD 上的 Epson Stylus Photo 750 單色
  4
A4
  6

 40
3.757083177566528
 41
14.7637300491333
 42
3.757080078125
 43
3.757080078125
 44
209.9733276367187
 45
296.9683227539062
 46
0.0
 47
0.0
 48
0.0
 49
0.0
140
0.0
141
0.0
142
1.0
143
1.0
 70
 11952
 72
     1
 73
     0
 74
     0
  7
單色出圖.ctb
 75
    16
147
1.0
148
47.70409695138527
149
1.582593250444062
100
AcDbLayout
  1
Model
 70
     1
 71
     0
 10
0.0
 20
0.0
 11
12.0
 21
9.0
 12
0.0
 22
0.0
 32
0.0
 14
0.0
 24
0.0
 34
0.0
 15
0.0
 25
0.0
 35
0.0
146
0.0
 13
0.0
 23
0.0
 33
0.0
 16
1.0
 26
0.0
 36
0.0
 17
0.0
 27
1.0
 37
0.0
 76
     0
330
2
  0
MLINESTYLE
  5
24
102
{ACAD_REACTORS
330
22
102
}
330
22
100
AcDbMlineStyle
  2
STANDARD
 70
     0
  3

 62
   256
 51
90.0
 52
90.0
 71
     2
 49
0.5
 62
   256
  6
BYLAYER
 49
-0.5
 62
   256
  6
BYLAYER
  0
ACDBPLACEHOLDER
  5
6
102
{ACAD_REACTORS
330
7
102
}
330
7
  0
TABLESTYLE
  5
22ED
102
{ACAD_REACTORS
330
22EC
102
}
330
22EC
100
AcDbTableStyle
  3
Standard
 70
     0
 71
     0
 40
1.5
 41
1.5
280
     0
281
     0
  7
STANDARD
140
4.5
170
     2
 62
     0
 63
     7
283
     0
274
    -2
284
     1
 64
     0
275
    -2
285
     1
 65
     0
276
    -2
286
     1
 66
     0
277
    -2
287
     1
 67
     0
278
    -2
288
     1
 68
     0
279
    -2
289
     1
 69
     0
  7
STANDARD
140
6.0
170
     5
 62
     0
 63
     7
283
     0
274
    -2
284
     1
 64
     0
275
    -2
285
     1
 65
     0
276
    -2
286
     1
 66
     0
277
    -2
287
     1
 67
     0
278
    -2
288
     1
 68
     0
279
    -2
289
     1
 69
     0
  7
STANDARD
140
4.5
170
     5
 62
     0
 63
     7
283
     0
274
    -2
284
     1
 64
     0
275
    -2
285
     1
 65
     0
276
    -2
286
     1
 66
     0
277
    -2
287
     1
 67
     0
278
    -2
288
     1
 68
     0
279
    -2
289
     1
 69
     0
  0
DICTIONARYVAR
  5
2CA1
102
{ACAD_REACTORS
330
1D2
102
}
330
1D2
100
DictionaryVariables
280
     0
  1
STANDARD
  0
DICTIONARYVAR
  5
1D4
102
{ACAD_REACTORS
330
1D2
102
}
330
1D2
100
DictionaryVariables
280
     0
  1
2
  0
DICTIONARYVAR
  5
1D3
102
{ACAD_REACTORS
330
1D2
102
}
330
1D2
100
DictionaryVariables
280
     0
  1
1
  0
DICTIONARYVAR
  5
4C0
102
{ACAD_REACTORS
330
1D2
102
}
330
1D2
100
DictionaryVariables
280
     0
  1
1
  0
DICTIONARYVAR
  5
2CA2
102
{ACAD_REACTORS
330
1D2
102
}
330
1D2
100
DictionaryVariables
280
     0
  1

  0
DICTIONARY
  5
1FA
102
{ACAD_REACTORS
330
1F4
102
}
330
1F4
100
AcDbDictionary
281
     1
  0
XRECORD
  5
2360
102
{ACAD_REACTORS
330
1F4
102
}
330
1F4
100
AcDbXrecord
280
     1
 90
-1023410169
  0
XRECORD
  5
E5A
102
{ACAD_REACTORS
330
E58
102
}
330
E58
100
AcDbXrecord
280
     1
330
0
330
0
  0
LAYER_INDEX
  5
44DB
102
{ACAD_REACTORS
330
44DA
102
}
330
44DA
100
AcDbIndex
 40
2454693.586864156
100
AcDbLayerIndex
  8
0
360
5A3E
 90
       15
  8
Defpoints
360
5A3F
 90
        0
  8
AM_5
360
5A40
 90
       19
  8
AM_VIS
360
5A41
 90
      635
  8
AM_PARDIM
360
5A42
 90
       10
  8
AM_7
360
5A43
 90
       82
  8
LOGO
360
5A44
 90
      151
  0
DICTIONARY
  5
5B8C
330
10
100
AcDbDictionary
280
     1
281
     1
  3
ACAD_XREC_ROUNDTRIP
360
5B8D
  0
DICTIONARY
  5
5B8A
330
B
100
AcDbDictionary
280
     1
281
     1
  3
ACAD_XREC_ROUNDTRIP
360
5B8B
  0
IDBUFFER
  5
5A3E
330
0
100
AcDbIdBuffer
330
25
330
26
330
27
330
28
330
29
330
2A
330
2B
330
2C
330
2D
330
2E
330
2F
330
30
330
2C00
330
2C01
330
2C02
  0
IDBUFFER
  5
5A3F
330
0
100
AcDbIdBuffer
  0
IDBUFFER
  5
5A40
330
0
100
AcDbIdBuffer
330
3B11
330
151
330
156
330
53B4
330
53E2
330
5413
330
5476
330
548E
330
56B4
330
56FB
330
5721
330
575E
330
578C
330
57BE
330
57EC
330
5820
330
58A7
330
58EF
330
5919
  0
IDBUFFER
  5
5A41
330
0
100
AcDbIdBuffer
330
34E3
330
34E4
330
34E5
330
34E6
330
34E7
330
34E8
330
34E9
330
34EA
330
34EB
330
34EC
330
34ED
330
34EE
330
34EF
330
34F0
330
34F1
330
34F2
330
34F3
330
34F4
330
34F5
330
34F6
330
34F7
330
34F8
330
34F9
330
34FA
330
34FB
330
34FC
330
34FD
330
34FE
330
34FF
330
3500
330
3501
330
3502
330
3503
330
3504
330
3505
330
3506
330
3507
330
3508
330
3509
330
350A
330
350B
330
350C
330
350D
330
350E
330
350F
330
3510
330
3511
330
3512
330
3513
330
3514
330
3515
330
3516
330
3517
330
3518
330
3519
330
351A
330
351B
330
351C
330
351D
330
351E
330
351F
330
3520
330
3521
330
3522
330
3523
330
3524
330
3525
330
3526
330
3527
330
3528
330
3529
330
352A
330
352B
330
352C
330
352D
330
352E
330
352F
330
3530
330
3531
330
3532
330
3533
330
3534
330
3535
330
3536
330
3537
330
3538
330
3539
330
353A
330
353B
330
353C
330
353D
330
353E
330
353F
330
3540
330
3541
330
3542
330
3543
330
3544
330
3545
330
3546
330
3547
330
3548
330
3549
330
354A
330
354B
330
354C
330
354D
330
354E
330
354F
330
3550
330
3551
330
3552
330
3553
330
3554
330
3555
330
3556
330
3557
330
3558
330
3559
330
355A
330
355B
330
355C
330
355D
330
355E
330
355F
330
3560
330
3561
330
3562
330
3563
330
3564
330
3565
330
3566
330
3567
330
3568
330
3569
330
356A
330
356B
330
356C
330
356D
330
356E
330
356F
330
3570
330
3571
330
3572
330
3573
330
3574
330
3575
330
3576
330
3577
330
3578
330
3579
330
357A
330
357B
330
357C
330
357D
330
357E
330
357F
330
3580
330
3581
330
3582
330
3583
330
3584
330
3585
330
3586
330
3587
330
3588
330
3589
330
358A
330
358B
330
358C
330
358D
330
358E
330
358F
330
3590
330
3591
330
3592
330
3593
330
3594
330
3595
330
3596
330
3597
330
3598
330
3599
330
359A
330
50DE
330
50DF
330
50E0
330
50E3
330
50E4
330
50E5
330
50E6
330
50E7
330
50E8
330
50E9
330
50EA
330
50EB
330
50EC
330
50ED
330
50EE
330
50EF
330
50F0
330
50F1
330
50F2
330
50F3
330
50F4
330
50F5
330
50F6
330
50F7
330
50F8
330
50F9
330
50FA
330
50FB
330
50FC
330
50FD
330
50FE
330
50FF
330
5100
330
5101
330
5102
330
5103
330
5104
330
5105
330
5106
330
5107
330
5108
330
5109
330
510A
330
510B
330
510C
330
510D
330
510E
330
510F
330
5110
330
5111
330
5112
330
5113
330
5114
330
5115
330
5116
330
5117
330
5118
330
5119
330
511A
330
511B
330
511C
330
511D
330
511E
330
511F
330
5120
330
5121
330
5122
330
5123
330
5124
330
5125
330
5126
330
5127
330
5128
330
5129
330
512A
330
512B
330
512E
330
512F
330
5130
330
5131
330
5132
330
5133
330
5134
330
5135
330
5136
330
5137
330
5138
330
5139
330
513A
330
513B
330
513C
330
513D
330
513E
330
513F
330
5140
330
5141
330
5142
330
5143
330
5144
330
5145
330
5146
330
5147
330
5148
330
5149
330
514A
330
514B
330
514C
330
514D
330
514E
330
514F
330
5150
330
5151
330
5152
330
5153
330
5154
330
5155
330
5156
330
5157
330
5158
330
5159
330
515A
330
515B
330
515C
330
515D
330
515E
330
515F
330
5160
330
5161
330
5162
330
5163
330
5166
330
5167
330
5169
330
516A
330
516B
330
516C
330
516D
330
516E
330
516F
330
5170
330
5171
330
5172
330
5173
330
5174
330
5175
330
5176
330
5177
330
5178
330
5179
330
517A
330
517B
330
517C
330
517D
330
517E
330
517F
330
5180
330
5181
330
5182
330
5183
330
5184
330
5185
330
5186
330
5187
330
5188
330
5189
330
518A
330
518B
330
518C
330
518D
330
518E
330
518F
330
5190
330
5191
330
5192
330
5193
330
5194
330
5195
330
5196
330
5197
330
5198
330
5199
330
519A
330
519B
330
519C
330
519D
330
519E
330
519F
330
51A0
330
51A1
330
51A2
330
51A3
330
51A4
330
51A5
330
51A6
330
51A7
330
51A8
330
51A9
330
51AA
330
51AB
330
51AC
330
51AD
330
51AE
330
51AF
330
51B0
330
51B1
330
51B2
330
51B3
330
51B4
330
51B5
330
51B6
330
51B7
330
51B8
330
51B9
330
51BA
330
51C0
330
51C1
330
51C2
330
51C3
330
51C4
330
51C5
330
51C6
330
51C7
330
51C8
330
51C9
330
51CA
330
51CB
330
51CC
330
51CD
330
51CE
330
51CF
330
51D0
330
51D1
330
51D2
330
51D3
330
51D4
330
51D5
330
51D8
330
51D9
330
51DA
330
51DB
330
51DC
330
51DD
330
51DE
330
51DF
330
51E0
330
51E1
330
51E2
330
51E3
330
51E4
330
51E9
330
51EA
330
51EC
330
51ED
330
51EE
330
51EF
330
51F0
330
51F1
330
51F2
330
51F3
330
51F4
330
51F5
330
51F6
330
51F7
330
51F8
330
51F9
330
51FA
330
51FB
330
51FC
330
51FD
330
51FE
330
51FF
330
5200
330
5201
330
5202
330
5203
330
5204
330
5205
330
5206
330
5207
330
5208
330
5209
330
520A
330
520B
330
520C
330
520D
330
520E
330
520F
330
5210
330
5211
330
5212
330
5213
330
5214
330
5215
330
5216
330
5217
330
5218
330
5219
330
521A
330
521B
330
521C
330
521D
330
521E
330
521F
330
5220
330
5221
330
5222
330
5223
330
5224
330
5225
330
5226
330
5227
330
5228
330
5229
330
522A
330
522B
330
522C
330
522F
330
5230
330
5231
330
5232
330
5233
330
5234
330
5235
330
5236
330
5237
330
5238
330
5239
330
523A
330
523B
330
523C
330
523D
330
523E
330
523F
330
5240
330
5241
330
5242
330
5243
330
5244
330
5245
330
5246
330
5247
330
5248
330
5249
330
524A
330
524B
330
524C
330
524D
330
524E
330
524F
330
5250
330
5251
330
5252
330
5253
330
5254
330
5255
330
5256
330
5257
330
5258
330
5259
330
525A
330
525B
330
525C
330
525D
330
525E
330
525F
330
5260
330
5261
330
5262
330
5263
330
5264
330
5265
330
5266
330
5267
330
5268
330
5269
330
526A
330
526D
330
526E
330
526F
330
5270
330
5271
330
5272
330
5273
330
5274
330
5275
330
5276
330
5277
330
5278
330
5279
330
527A
330
527B
330
527C
330
527D
330
527E
330
527F
330
5280
330
5281
330
5282
330
5283
330
5284
330
5285
330
5286
330
5287
330
5294
330
5295
330
5296
330
5297
330
5298
330
5299
330
529A
330
529B
330
529C
330
529D
330
529E
330
529F
330
52A0
330
52A1
330
52A2
330
52A3
330
52A4
330
52A5
330
52A6
330
52A7
330
52A8
330
52A9
330
52AA
330
52AB
330
52AC
330
52AD
330
52AE
330
52AF
330
52B0
330
52B1
330
52B2
330
52B3
330
52B4
330
52B5
330
52B6
330
52B7
330
52B8
330
52B9
330
52BA
330
52BB
330
52BC
330
52BD
330
52BE
330
52BF
330
52C0
330
52C1
330
52C2
330
52C3
  0
IDBUFFER
  5
5A42
330
0
100
AcDbIdBuffer
330
31
330
43
330
52
330
5F
330
6C
330
79
330
86
330
95
330
A3
330
B0
  0
IDBUFFER
  5
5A43
330
0
100
AcDbIdBuffer
330
C8
330
3350
330
3351
330
3352
330
3353
330
3354
330
3355
330
3356
330
3357
330
3358
330
3359
330
335A
330
335B
330
335C
330
335D
330
335E
330
335F
330
3360
330
3361
330
3362
330
3363
330
3364
330
3365
330
3366
330
3367
330
3368
330
3369
330
336A
330
336B
330
336C
330
336D
330
336E
330
504D
330
504F
330
5052
330
5053
330
505A
330
505B
330
505C
330
505D
330
505E
330
505F
330
5060
330
5061
330
5062
330
5063
330
5064
330
5065
330
5069
330
506B
330
506D
330
5070
330
5071
330
5074
330
5076
330
5079
330
5081
330
5082
330
5088
330
5089
330
508C
330
508D
330
508E
330
508F
330
5092
330
5093
330
5098
330
5099
330
50B3
330
50B4
330
50B6
330
539C
330
539D
330
539E
330
539F
330
53A0
330
53A1
330
53A2
330
53A3
330
53A4
330
5402
330
5403
  0
IDBUFFER
  5
5A44
330
0
100
AcDbIdBuffer
330
13E2
330
13E5
330
13E6
330
13E7
330
13E8
330
14D1
330
14D2
330
14D3
330
14D4
330
14D5
330
14DF
330
14E0
330
14E1
330
14E2
330
14E3
330
14EB
330
14EC
330
14F4
330
14F5
330
14F6
330
14F7
330
14F8
330
14F9
330
14FA
330
14FB
330
14FC
330
1509
330
150A
330
150B
330
150C
330
150D
330
1533
330
1534
330
1535
330
1536
330
1537
330
1538
330
1539
330
153A
330
153B
330
153C
330
153D
330
153E
330
153F
330
1540
330
1547
330
1548
330
1549
330
154A
330
154B
330
154C
330
154D
330
154E
330
154F
330
1550
330
1553
330
15C0
330
15C1
330
15C2
330
15C4
330
15C5
330
15C6
330
15C7
330
15C8
330
15C9
330
15CA
330
15CB
330
15CD
330
15CE
330
15CF
330
15D0
330
15D1
330
15D2
330
15D3
330
15D4
330
15F8
330
15F9
330
15FA
330
15FB
330
15FC
330
15FD
330
15FE
330
15FF
330
1602
330
2138
330
2B59
330
2B5A
330
2B5B
330
2B5C
330
2B5D
330
2B5E
330
2B5F
330
2B60
330
2B61
330
2B62
330
2B63
330
2B64
330
2B65
330
2B66
330
2B67
330
2B68
330
2B69
330
2B6A
330
2B6B
330
2B6C
330
2B6D
330
2B6E
330
2B6F
330
2B70
330
2B71
330
2B72
330
2B76
330
2B7A
330
2B7B
330
2B7F
330
2B80
330
2B81
330
2B82
330
2B83
330
2B84
330
2B85
330
2B86
330
2B8A
330
2B8E
330
2B92
330
2B93
330
2B94
330
2B98
330
2B99
330
2B9A
330
2B9B
330
2B9C
330
2B9D
330
2B9E
330
2B9F
330
2BA0
330
2BA1
330
2BA2
330
2BA3
330
2BE2
330
2BE3
330
2BE4
330
2BE5
330
2BE6
330
2BE7
330
2BE8
330
2BE9
330
2BEA
330
2BEB
330
2BEC
330
2BED
  0
XRECORD
  5
5B8D
102
{ACAD_REACTORS
330
5B8C
102
}
330
5B8C
100
AcDbXrecord
280
     1
102
SHADEPLOT
 70
     0
102
SHADEPLOTRESLEVEL
 70
     2
102
SHADEPLOTCUSTOMDPI
 70
   300
  0
XRECORD
  5
5B8B
102
{ACAD_REACTORS
330
5B8A
102
}
330
5B8A
100
AcDbXrecord
280
     1
102
SHADEPLOT
 70
     0
102
SHADEPLOTRESLEVEL
 70
     2
102
SHADEPLOTCUSTOMDPI
 70
   300
  0
ENDSEC
  0
EOF
