  0
SECTION
  2
HEADER
  9
$ACADVER
  1
AC1015
  9
$ACADMAINTVER
 70
    20
  9
$DWGCODEPAGE
  3
ANSI_950
  9
$INSBASE
 10
0.0
 20
0.0
 30
0.0
  9
$EXTMIN
 10
532.9782103188906
 20
-143.5436345037797
 30
-0.0073979359295322
  9
$EXTMAX
 10
659.0688112961156
 20
25.47004831479672
 30
103.0894928117405
  9
$LIMMIN
 10
0.0
 20
0.0
  9
$LIMMAX
 10
420.0
 20
297.0
  9
$ORTHOMODE
 70
     1
  9
$REGENMODE
 70
     1
  9
$FILLMODE
 70
     1
  9
$QTEXTMODE
 70
     0
  9
$MIRRTEXT
 70
     1
  9
$LTSCALE
 40
0.3
  9
$ATTMODE
 70
     1
  9
$TEXTSIZE
 40
2.5
  9
$TRACEWID
 40
1.0
  9
$TEXTSTYLE
  7
STANDARD
  9
$CLAYER
  8
0
  9
$CELTYPE
  6
ByLayer
  9
$CECOLOR
 62
   256
  9
$CELTSCALE
 40
1.0
  9
$DISPSILH
 70
     0
  9
$DIMSCALE
 40
1.0
  9
$DIMASZ
 40
3.0
  9
$DIMEXO
 40
1.5
  9
$DIMDLI
 40
7.0
  9
$DIMRND
 40
0.0
  9
$DIMDLE
 40
0.0
  9
$DIMEXE
 40
1.5
  9
$DIMTP
 40
0.1
  9
$DIMTM
 40
0.1
  9
$DIMTXT
 40
3.5
  9
$DIMCEN
 40
0.0
  9
$DIMTSZ
 40
0.0
  9
$DIMTOL
 70
     0
  9
$DIMLIM
 70
     0
  9
$DIMTIH
 70
     0
  9
$DIMTOH
 70
     0
  9
$DIMSE1
 70
     0
  9
$DIMSE2
 70
     0
  9
$DIMTAD
 70
     1
  9
$DIMZIN
 70
     8
  9
$DIMBLK
  1

  9
$DIMASO
 70
     1
  9
$DIMSHO
 70
     1
  9
$DIMPOST
  1

  9
$DIMAPOST
  1
"
  9
$DIMALT
 70
     0
  9
$DIMALTD
 70
     2
  9
$DIMALTF
 40
0.0393701
  9
$DIMLFAC
 40
1.0
  9
$DIMTOFL
 70
     1
  9
$DIMTVP
 40
0.0
  9
$DIMTIX
 70
     0
  9
$DIMSOXD
 70
     0
  9
$DIMSAH
 70
     0
  9
$DIMBLK1
  1

  9
$DIMBLK2
  1

  9
$DIMSTYLE
  2
AM_ISO
  9
$DIMCLRD
 70
   256
  9
$DIMCLRE
 70
   256
  9
$DIMCLRT
 70
   256
  9
$DIMTFAC
 40
0.71
  9
$DIMGAP
 40
1.0
  9
$DIMJUST
 70
     0
  9
$DIMSD1
 70
     0
  9
$DIMSD2
 70
     0
  9
$DIMTOLJ
 70
     0
  9
$DIMTZIN
 70
     8
  9
$DIMALTZ
 70
     8
  9
$DIMALTTZ
 70
     0
  9
$DIMUPT
 70
     0
  9
$DIMDEC
 70
     2
  9
$DIMTDEC
 70
     2
  9
$DIMALTU
 70
     2
  9
$DIMALTTD
 70
     2
  9
$DIMTXSTY
  7
STANDARD
  9
$DIMAUNIT
 70
     0
  9
$DIMADEC
 70
     0
  9
$DIMALTRND
 40
0.0
  9
$DIMAZIN
 70
     2
  9
$DIMDSEP
 70
    46
  9
$DIMATFIT
 70
     3
  9
$DIMFRAC
 70
     0
  9
$DIMLDRBLK
  1

  9
$DIMLUNIT
 70
     2
  9
$DIMLWD
 70
    -1
  9
$DIMLWE
 70
    -1
  9
$DIMTMOVE
 70
     0
  9
$LUNITS
 70
     2
  9
$LUPREC
 70
     2
  9
$SKETCHINC
 40
1.0
  9
$FILLETRAD
 40
2.5
  9
$AUNITS
 70
     0
  9
$AUPREC
 70
     0
  9
$MENU
  1
.
  9
$ELEVATION
 40
0.0
  9
$PELEVATION
 40
0.0
  9
$THICKNESS
 40
0.0
  9
$LIMCHECK
 70
     0
  9
$CHAMFERA
 40
1.5
  9
$CHAMFERB
 40
1.5
  9
$CHAMFERC
 40
20.0
  9
$CHAMFERD
 40
0.0
  9
$SKPOLY
 70
     0
  9
$TDCREATE
 40
2452691.454954444
  9
$TDUCREATE
 40
2452691.121621111
  9
$TDUPDATE
 40
2454658.580974746
  9
$TDUUPDATE
 40
2454658.247641412
  9
$TDINDWG
 40
0.1150990278
  9
$TDUSRTIMER
 40
0.1150989120
  9
$USRTIMER
 70
     1
  9
$ANGBASE
 50
0.0
  9
$ANGDIR
 70
     0
  9
$PDMODE
 70
     0
  9
$PDSIZE
 40
0.0
  9
$PLINEWID
 40
0.0
  9
$SPLFRAME
 70
     0
  9
$SPLINETYPE
 70
     6
  9
$SPLINESEGS
 70
     8
  9
$HANDSEED
  5
43D9
  9
$SURFTAB1
 70
     6
  9
$SURFTAB2
 70
     6
  9
$SURFTYPE
 70
     6
  9
$SURFU
 70
     6
  9
$SURFV
 70
     6
  9
$UCSBASE
  2

  9
$UCSNAME
  2

  9
$UCSORG
 10
0.0
 20
0.0
 30
0.0
  9
$UCSXDIR
 10
1.0
 20
0.0
 30
0.0
  9
$UCSYDIR
 10
0.0
 20
1.0
 30
0.0
  9
$UCSORTHOREF
  2

  9
$UCSORTHOVIEW
 70
     0
  9
$UCSORGTOP
 10
0.0
 20
0.0
 30
0.0
  9
$UCSORGBOTTOM
 10
0.0
 20
0.0
 30
0.0
  9
$UCSORGLEFT
 10
0.0
 20
0.0
 30
0.0
  9
$UCSORGRIGHT
 10
0.0
 20
0.0
 30
0.0
  9
$UCSORGFRONT
 10
0.0
 20
0.0
 30
0.0
  9
$UCSORGBACK
 10
0.0
 20
0.0
 30
0.0
  9
$PUCSBASE
  2

  9
$PUCSNAME
  2

  9
$PUCSORG
 10
0.0
 20
0.0
 30
0.0
  9
$PUCSXDIR
 10
1.0
 20
0.0
 30
0.0
  9
$PUCSYDIR
 10
0.0
 20
1.0
 30
0.0
  9
$PUCSORTHOREF
  2

  9
$PUCSORTHOVIEW
 70
     0
  9
$PUCSORGTOP
 10
0.0
 20
0.0
 30
0.0
  9
$PUCSORGBOTTOM
 10
0.0
 20
0.0
 30
0.0
  9
$PUCSORGLEFT
 10
0.0
 20
0.0
 30
0.0
  9
$PUCSORGRIGHT
 10
0.0
 20
0.0
 30
0.0
  9
$PUCSORGFRONT
 10
0.0
 20
0.0
 30
0.0
  9
$PUCSORGBACK
 10
0.0
 20
0.0
 30
0.0
  9
$USERI1
 70
     0
  9
$USERI2
 70
     0
  9
$USERI3
 70
     0
  9
$USERI4
 70
     0
  9
$USERI5
 70
     0
  9
$USERR1
 40
0.0
  9
$USERR2
 40
0.0
  9
$USERR3
 40
0.0
  9
$USERR4
 40
0.0
  9
$USERR5
 40
0.0
  9
$WORLDVIEW
 70
     1
  9
$SHADEDGE
 70
     3
  9
$SHADEDIF
 70
    70
  9
$TILEMODE
 70
     1
  9
$MAXACTVP
 70
    48
  9
$PINSBASE
 10
0.0
 20
0.0
 30
0.0
  9
$PLIMCHECK
 70
     0
  9
$PEXTMIN
 10
26.80208481208632
 20
60.62932117531272
 30
-0.0000000000000153
  9
$PEXTMAX
 10
155.7606180029584
 20
204.40991305297
 30
0.0
  9
$PLIMMIN
 10
-3.757083177566528
 20
-14.7637300491333
  9
$PLIMMAX
 10
206.2162444591522
 20
282.2045927047729
  9
$UNITMODE
 70
     0
  9
$VISRETAIN
 70
     1
  9
$PLINEGEN
 70
     0
  9
$PSLTSCALE
 70
     1
  9
$TREEDEPTH
 70
  3020
  9
$CMLSTYLE
  2
Standard
  9
$CMLJUST
 70
     0
  9
$CMLSCALE
 40
20.0
  9
$PROXYGRAPHICS
 70
     1
  9
$MEASUREMENT
 70
     1
  9
$CELWEIGHT
370
    -1
  9
$ENDCAPS
280
     0
  9
$JOINSTYLE
280
     0
  9
$LWDISPLAY
290
     0
  9
$INSUNITS
 70
     4
  9
$HYPERLINKBASE
  1

  9
$STYLESHEET
  1
單色出圖.ctb
  9
$XEDIT
290
     1
  9
$CEPSNTYPE
380
     0
  9
$PSTYLEMODE
290
     1
  9
$FINGERPRINTGUID
  2
{F78C675B-544A-4F03-A4D5-203705509F9E}
  9
$VERSIONGUID
  2
{035F125B-A4EE-4B70-9C87-A7F25518DE18}
  9
$EXTNAMES
290
     1
  9
$PSVPSCALE
 40
0.0
  9
$OLESTARTUP
290
     0
  0
ENDSEC
  0
SECTION
  2
CLASSES
  0
CLASS
  1
ACDBDICTIONARYWDFLT
  2
AcDbDictionaryWithDefault
  3
ObjectDBX Classes
 90
        0
280
     0
281
     0
  0
CLASS
  1
ACDBPLACEHOLDER
  2
AcDbPlaceHolder
  3
ObjectDBX Classes
 90
        0
280
     0
281
     0
  0
CLASS
  1
LAYOUT
  2
AcDbLayout
  3
ObjectDBX Classes
 90
        0
280
     0
281
     0
  0
CLASS
  1
AMGSETTINGSOBJ
  2
AmgSettingsObj
  3
"AcadM|Product Description: AutoCAD Mechanical 2000|Company: Autodesk"
 90
        0
280
     0
281
     0
  0
CLASS
  1
ACME_DOCUMENT
  2
AcMeDbDoc
  3
AcMeServices
 90
        0
280
     0
281
     0
  0
CLASS
  1
ACMESCOPE
  2
AcMeScope
  3
AcMeServices
 90
        0
280
     0
281
     0
  0
CLASS
  1
ACMECOMMANDHISTORY
  2
AcMeCommandHistory
  3
AcMeServices
 90
        0
280
     0
281
     0
  0
CLASS
  1
ACIMSYSVARMAN
  2
AcImSysVarManager
  3
AcMeServices
 90
        0
280
     0
281
     0
  0
CLASS
  1
ACIMREALSYSVAR
  2
AcImRealSysVar
  3
AcMeServices
 90
        0
280
     0
281
     0
  0
CLASS
  1
ACIMINTSYSVAR
  2
AcImIntSysVar
  3
AcMeServices
 90
        0
280
     0
281
     0
  0
CLASS
  1
ACMEDRAWINGMAN
  2
AcMeDrawingMan
  3
AcMeServices
 90
        0
280
     0
281
     0
  0
CLASS
  1
ACMEVIEW
  2
AcMeView
  3
AcMeServices
 90
        0
280
     0
281
     0
  0
CLASS
  1
ACDBENTITYCACHE
  2
AcMeEntityCache
  3
AcMeServices
 90
        0
280
     0
281
     0
  0
CLASS
  1
GSMANAGER
  2
AcMeGSManager
  3
AcMeServices
 90
        0
280
     0
281
     0
  0
CLASS
  1
AMDTINTERNALREACTOR
  2
AmdtInternalReactor
  3
AcMeServices
 90
        0
280
     0
281
     0
  0
CLASS
  1
ACMESTATEMGR
  2
AcMeStateMgr
  3
AcMeServices
 90
        0
280
     0
281
     0
  0
CLASS
  1
ACGREFMASTER
  2
AcGrefMaster
  3
AcAttribServices
 90
        0
280
     0
281
     0
  0
CLASS
  1
AM_DRAWING_MGR
  2
AcDmDwgMgr
  3
AcMechDwgViewMgmt
 90
        0
280
     0
281
     0
  0
CLASS
  1
AM_DWG_DOCUMENT
  2
AcDmDwgDocument
  3
AcMechDwgViewMgmt
 90
        0
280
     0
281
     0
  0
CLASS
  1
AM_DWG_SHEET
  2
AcDmSheet
  3
AcMechDwgViewMgmt
 90
        0
280
     0
281
     0
  0
CLASS
  1
AM_VIEWDIMPARMAP
  2
AcDmViewDimParMap
  3
AcMechDwgViewMgmt
 90
        0
280
     0
281
     0
  0
CLASS
  1
AM_DWGMGR_NAME
  2
AcDmDwgMgrName
  3
AcMechDwgViewMgmt
 90
        0
280
     0
281
     0
  0
CLASS
  1
ACME_DATABASE
  2
AcMeDbDatabase
  3
AcMeServices
 90
        0
280
     0
281
     0
  0
CLASS
  1
ACRFINSADJUSTERMGR
  2
AcRfInsAdjusterMgr
  3
AcMeServices
 90
        0
280
     0
281
     0
  0
CLASS
  1
ACGREFACADMASTER
  2
AcGrefacadMaster
  3
AcGrefServices
 90
        0
280
     0
281
     0
  0
CLASS
  1
AMDTMENUSTATEMGR
  2
AmdtMenuStateMgr
  3
McadcomServices
 90
        0
280
     0
281
     0
  0
CLASS
  1
AMDTMCOMMENUSTATE
  2
AmdtMcomMenuState
  3
McadcomServices
 90
        0
280
     0
281
     0
  0
CLASS
  1
AMIMASTER
  2
AmiMaster
  3
AmiServices
 90
        0
280
     0
281
     0
  0
CLASS
  1
ASAPP
  2
AcAsAppObject
  3
AutoSurfServices
 90
    32768
280
     0
281
     0
  0
CLASS
  1
IM_STATIC_MAN
  2
AcImStaticVarManager
  3
AcMeServices
 90
    32768
280
     0
281
     0
  0
CLASS
  1
ACIMSTRSYSVAR
  2
AcImStrSysVar
  3
AcMeServices
 90
        0
280
     0
281
     0
  0
CLASS
  1
ACIMDBLSTATICVAR
  2
AcImDblStaticVar
  3
AcMeServices
 90
    32768
280
     0
281
     0
  0
CLASS
  1
ACIMSTRSTATICVAR
  2
AcImStrStaticVar
  3
AcMeServices
 90
    32768
280
     0
281
     0
  0
CLASS
  1
ACIMINTSTATICVAR
  2
AcImIntStaticVar
  3
AcMeServices
 90
    32768
280
     0
281
     0
  0
CLASS
  1
ACASGREFMASTER
  2
AcAsGrefMaster
  3
AutoSurfResolverServices
 90
    32768
280
     0
281
     0
  0
CLASS
  1
ACADGREFMODULE
  2
AcAdGrefModule
  3
AdGrefServices
 90
    32768
280
     0
281
     0
  0
CLASS
  1
AMDTMAPISURFMOUDULE
  2
AmdtMApiSurfModule
  3
MApiSurfServices
 90
    32768
280
     0
281
     0
  0
CLASS
  1
MAPIAMMOUDLE
  2
MApiAmModule
  3
MApiAmServices
 90
        0
280
     0
281
     0
  0
CLASS
  1
AMDTADMENUSTATE
  2
AmdtAdMenuState
  3
DesignerServices
 90
        0
280
     0
281
     0
  0
CLASS
  1
ADAPPL
  2
AcAdAppl
  3
DesignerServices
 90
        0
280
     0
281
     0
  0
CLASS
  1
DEPMGR
  2
AcAdDepMgr
  3
DesignerServices
 90
        0
280
     0
281
     0
  0
CLASS
  1
PARAMMGR
  2
AcAdParamMgr
  3
DesignerServices
 90
        0
280
     0
281
     0
  0
CLASS
  1
PARAMSCOPE
  2
AcAdParamScope
  3
DesignerServices
 90
        0
280
     0
281
     0
  0
CLASS
  1
NAMEDAPPL
  2
AcAdNamedAppl
  3
DesignerServices
 90
        0
280
     0
281
     0
  0
CLASS
  1
AMDTDMMENUSTATE
  2
AmdtDmMenuState
  3
AcMechDwgViewMgmt
 90
        0
280
     0
281
     0
  0
CLASS
  1
MAPIADMODULE
  2
MApiAdModule
  3
MApiAdServices
 90
    32768
280
     0
281
     0
  0
CLASS
  1
AMDTAMMENUSTATE
  2
AmdtAmMenuState
  3
DesignerAssemblies
 90
        0
280
     0
281
     0
  0
CLASS
  1
ACAMPROJECT
  2
AcAmProject
  3
DesignerAssemblies
 90
        0
280
     0
281
     0
  0
CLASS
  1
ACAMCOMPDEFMGR
  2
AcAmCompDefMgr
  3
DesignerAssemblies
 90
        0
280
     0
281
     0
  0
CLASS
  1
AMCONTEXTMGR
  2
AcAmContextMgr
  3
DesignerAssemblies
 90
        0
280
     0
281
     0
  0
CLASS
  1
ACAMCONTEXTPARTMODELER
  2
AcAmContextPartModeler
  3
DesignerAssemblies
 90
    32768
280
     0
281
     0
  0
CLASS
  1
ACMDATADICTIONARY
  2
AcmDataDictionary
  3
"AcmSymBB|Product Description: AutoCAD Mechanical 2004 DX|Company: Autodesk"
 90
        0
280
     0
281
     0
  0
CLASS
  1
ACMDATAENTRYBLOCK
  2
AcmDataEntryBlock
  3
"AcmSymBB|Product Description: AutoCAD Mechanical 2004 DX|Company: Autodesk"
 90
    32768
280
     0
281
     0
  0
CLASS
  1
ACMSTANDARDISO
  2
AcmStandardISO
  3
"Amdt_StdImp|Product Description: AutoCAD Mechanical 2004 DX|Company: Autodesk"
 90
        0
280
     0
281
     0
  0
CLASS
  1
AMGOBJPROPCFG
  2
AmgObjPropCfg
  3
"AmgLay|Product Description: AutoCAD Mechanical 2000|Company: Autodesk"
 90
        1
280
     0
281
     0
  0
CLASS
  1
AMDTEDGESTANDARDISO
  2
AmdtEdgeStdISO
  3
"Amdt_StdImp|Product Description: AutoCAD Mechanical 2004 DX|Company: Autodesk"
 90
    32768
280
     0
281
     0
  0
CLASS
  1
ACMSURFSTANDARDISO
  2
AcmSurfTextStdISO
  3
"Amdt_StdImp|Product Description: AutoCAD Mechanical 2004 DX|Company: Autodesk"
 90
        0
280
     0
281
     0
  0
CLASS
  1
ACMFCFSTANDARDISO
  2
AcmFCFStdISO
  3
"Amdt_StdImp|Product Description: AutoCAD Mechanical 2004 DX|Company: Autodesk"
 90
        0
280
     0
281
     0
  0
CLASS
  1
ACMWELDSTANDARDISO
  2
AcmWeldingStdISO
  3
"Amdt_StdImp|Product Description: AutoCAD Mechanical 2004 DX|Company: Autodesk"
 90
        0
280
     0
281
     0
  0
CLASS
  1
ACMIDSTANDARDISO
  2
AcmIdStdISO
  3
"Amdt_StdImp|Product Description: AutoCAD Mechanical 2004 DX|Company: Autodesk"
 90
        0
280
     0
281
     0
  0
CLASS
  1
ACMDATUMSTANDARDISO
  2
AcmDatumStdISO
  3
"Amdt_StdImp|Product Description: AutoCAD Mechanical 2004 DX|Company: Autodesk"
 90
        0
280
     0
281
     0
  0
CLASS
  1
ACMBOMSTANDARDISO
  2
AcmBOMStdISO
  3
"Amdt_StdImp|Product Description: AutoCAD Mechanical 2004 DX|Company: Autodesk"
 90
        0
280
     0
281
     0
  0
CLASS
  1
ACMDETAILSTANDARDISO
  2
AmdtDetailSymStdISO
  3
"Amdt_StdImp|Product Description: AutoCAD Mechanical 2004 DX|Company: Autodesk"
 90
        0
280
     0
281
     0
  0
CLASS
  1
ACMSECTIONSTANDARDISO
  2
AmdtSectionSymStdISO
  3
"Amdt_StdImp|Product Description: AutoCAD Mechanical 2004 DX|Company: Autodesk"
 90
        0
280
     0
281
     0
  0
CLASS
  1
ACMCENTERLINESTANDARDISO
  2
AmdtCenterLineStdISO
  3
"Amdt_StdImp|Product Description: AutoCAD Mechanical 2004 DX|Company: Autodesk"
 90
        0
280
     0
281
     0
  0
CLASS
  1
ACMTHREADLINESTANDARDISO
  2
AmdtThreadLineStdISO
  3
"Amdt_StdImp|Product Description: AutoCAD Mechanical 2004 DX|Company: Autodesk"
 90
        0
280
     0
281
     0
  0
CLASS
  1
ACMNOTESTANDARDISO
  2
AmdtNoteStdISO
  3
"Amdt_StdImp|Product Description: AutoCAD Mechanical 2004 DX|Company: Autodesk"
 90
        0
280
     0
281
     0
  0
CLASS
  1
ACAMGLAYSTD
  2
AcAmgLayStd
  3
"AcAmgLayStd|Product Description: AutoCAD Mechanical 2000|Company: Autodesk"
 90
        0
280
     0
281
     0
  0
CLASS
  1
ACAMGDIMSTD
  2
AcAmgDimStd
  3
"AcAmgDimStd|Product Description: AutoCAD Mechanical 2000|Company: Autodesk"
 90
        0
280
     0
281
     0
  0
CLASS
  1
ACAMGHOLECHARTSTDISO
  2
AcAmgHoleChartStdISO
  3
ACMSYMBB_MODULE_NAME
 90
        0
280
     0
281
     0
  0
CLASS
  1
ACAMGTITLESTD
  2
AcAmgTitleStd
  3
"TITLEAPP"
 90
        0
280
     0
281
     0
  0
CLASS
  1
CATALOGSTATE
  2
AcAmCatalogState
  3
DesignerAssemblies
 90
        0
280
     0
281
     0
  0
CLASS
  1
ACAMGRCOMPDEFSET
  2
AcAmGrCompDefSet
  3
DesignerAssemblies
 90
        0
280
     0
281
     0
  0
CLASS
  1
AMDTBROWSERDBTAB
  2
AmdtBrowserDbTab
  3
McadcomServices
 90
        0
280
     0
281
     0
  0
CLASS
  1
CBROWSERAPPOBJECT
  2
CBrowserAppObject
  3
McadcomServices
 90
        0
280
     0
281
     0
  0
CLASS
  1
DM_PLACEHOLDER
  2
AcDmSelsetPlaceholder
  3
AcMechDwgViewMgmt
 90
        0
280
     0
281
     0
  0
CLASS
  1
ACAMGFILTERDAT
  2
AcAmgFilterDat
  3
"AcadM|Product Description: AutoCAD Mechanical 2000|Company: Autodesk"
 90
    32768
280
     0
281
     0
  0
CLASS
  1
LAYER_INDEX
  2
AcDbLayerIndex
  3
ObjectDBX Classes
 90
        0
280
     0
281
     0
  0
CLASS
  1
IDBUFFER
  2
AcDbIdBuffer
  3
ObjectDBX Classes
 90
        0
280
     0
281
     0
  0
CLASS
  1
DICTIONARYVAR
  2
AcDbDictionaryVar
  3
ObjectDBX Classes
 90
        0
280
     0
281
     0
  0
CLASS
  1
ACAMGRCOMPDEF
  2
AcAmGrCompDef
  3
DesignerAssemblies
 90
        0
280
     0
281
     0
  0
CLASS
  1
ACCMCONTEXT
  2
AcCmContext
  3
DesignerAssemblies
 90
        0
280
     0
281
     0
  0
CLASS
  1
ACAMCOMPDEF
  2
AcAmCompDef
  3
DesignerAssemblies
 90
        0
280
     0
281
     0
  0
CLASS
  1
ADPART
  2
AcAdPart
  3
DesignerServices
 90
    32768
280
     0
281
     1
  0
CLASS
  1
ADBASE
  2
AcAdBase
  3
DesignerServices
 90
    32768
280
     0
281
     0
  0
CLASS
  1
BODYID
  2
AcAdBodyId
  3
DesignerServices
 90
    32768
280
     0
281
     0
  0
CLASS
  1
WORKPLANEDISPLAYMGR
  2
AcAdDisplayMgr
  3
DesignerServices
 90
    32768
280
     0
281
     0
  0
CLASS
  1
ACCMBODY
  2
AcCmBody
  3
DesignerAssemblies
 90
    32768
280
     0
281
     0
  0
CLASS
  1
ACAMCOMPENT
  2
AcAmCompEnt
  3
DesignerAssemblies
 90
    32768
280
     0
281
     1
  0
CLASS
  1
ACAMCOMPFEEDBACK
  2
AcAmCompFeedback
  3
DesignerAssemblies
 90
    32768
280
     0
281
     0
  0
CLASS
  1
ACAMGROUNDEDBASECOMP
  2
AcAmGroundedBaseComp
  3
DesignerAssemblies
 90
    32768
280
     0
281
     0
  0
CLASS
  1
ACAMCOMPENTCLONE
  2
AcAmCompEntClone
  3
DesignerAssemblies
 90
    32768
280
     0
281
     1
  0
CLASS
  1
ACAMCLONEREACTOR
  2
AcAmGrCompCloneReactor
  3
DesignerAssemblies
 90
    32768
280
     0
281
     0
  0
CLASS
  1
ADDATUMPLANEABS
  2
AcAdDatumPlaneAbs
  3
DesignerServices
 90
    32768
280
     0
281
     0
  0
CLASS
  1
ADDATUMAXISABS
  2
AcAdDatumAxisAbs
  3
DesignerServices
 90
    32768
280
     0
281
     0
  0
CLASS
  1
ADDATUMORIENTEDPLANE
  2
AcAdDatumOrientedPlane
  3
DesignerServices
 90
    32768
280
     0
281
     0
  0
CLASS
  1
ACAD_LINE
  2
AcAdLine
  3
DesignerServices
 90
    32768
280
     0
281
     1
  0
CLASS
  1
ACADLINEACAD
  2
AcAdVirtualBoundedLineAcad
  3
DesignerServices
 90
    32768
280
     0
281
     0
  0
CLASS
  1
ACADREFLINEACAD
  2
AcAdVirtualReferenceLine
  3
DesignerServices
 90
    32768
280
     0
281
     0
  0
CLASS
  1
ACADCONSLINE
  2
AcAdConstrainedLine
  3
DesignerServices
 90
    32768
280
     0
281
     0
  0
CLASS
  1
ACADCONSGROUP
  2
AcAdConstraintGroup
  3
DesignerServices
 90
    32768
280
     0
281
     0
  0
CLASS
  1
ACADIMPPTACAD
  2
AcAdVirtualImplicitPoint
  3
DesignerServices
 90
    32768
280
     0
281
     0
  0
CLASS
  1
ACADCONSPOINT
  2
AcAdConstrainedPoint
  3
DesignerServices
 90
    32768
280
     0
281
     0
  0
CLASS
  1
ADPCURCNS
  2
AcAdPointCurveConstr
  3
DesignerServices
 90
    32768
280
     0
281
     0
  0
CLASS
  1
ADVERCNS
  2
AcAdVerticalConstr
  3
DesignerServices
 90
    32768
280
     0
281
     0
  0
CLASS
  1
ADHORCNS
  2
AcAdHorizontalConstr
  3
DesignerServices
 90
    32768
280
     0
281
     0
  0
CLASS
  1
ADCLPROF2D
  2
AcAdClosedProfile2d
  3
DesignerServices
 90
    32768
280
     0
281
     0
  0
CLASS
  1
ACAD_FIXCONSTRAINT
  2
AcAdFixedConstraint
  3
DesignerServices
 90
    32768
280
     0
281
     0
  0
CLASS
  1
AMDTFORMULAUPDATEDISPATCHER
  2
AmdtFormulaUpdateDispatcher
  3
AcMeServices
 90
    32768
280
     0
281
     0
  0
CLASS
  1
ADCONSDISP
  2
AcAdConstraintDisplay
  3
DesignerServices
 90
    32768
280
     0
281
     1
  0
CLASS
  1
ADCONSTDSP
  2
AcAdConstraintDisplayTag
  3
DesignerServices
 90
    32768
280
     0
281
     1
  0
CLASS
  1
PARAM
  2
AcAdParam
  3
DesignerServices
 90
    32768
280
     0
281
     0
  0
CLASS
  1
ADVDISTCNS
  2
AcAdVerticalDistanceConstr
  3
DesignerServices
 90
    32768
280
     0
281
     0
  0
CLASS
  1
ADHDISTCNS
  2
AcAdHorizontalDistanceConstr
  3
DesignerServices
 90
    32768
280
     0
281
     0
  0
CLASS
  1
ACMEROTATIONARROW
  2
AcImRotationArrowDisplay
  3
AcMeServices
 90
    32768
280
     0
281
     1
  0
CLASS
  1
ACADVOLFEATWITHTRIM
  2
AcAdVolFeatWithTrim
  3
DesignerServices
 90
    32768
280
     0
281
     0
  0
CLASS
  1
DEPEDGEFEATUREORDERING
  2
AcAdDepEdgeFeatureOrdering
  3
DesignerServices
 90
    32768
280
     0
281
     0
  0
CLASS
  1
DATUMAXISDISPLAY
  2
AcAdDatumAxisDisplay
  3
DesignerServices
 90
    32768
280
     0
281
     1
  0
CLASS
  1
ADDATUMAXISCENTER
  2
AcAdDatumAxisCenter
  3
DesignerServices
 90
    32768
280
     0
281
     0
  0
CLASS
  1
ADSURFGEOMID
  2
AcAdSurfGeomId
  3
DesignerServices
 90
    32768
280
     0
281
     0
  0
CLASS
  1
ACMEPOINT
  2
AcImPointDisplay
  3
AcMeServices
 90
    32768
280
     0
281
     1
  0
CLASS
  1
ADPLANEID
  2
AcAdPlaneId
  3
DesignerServices
 90
    32768
280
     0
281
     0
  0
CLASS
  1
ADDATUMPLANEFACE
  2
AcAdDatumPlaneFace
  3
DesignerServices
 90
    32768
280
     0
281
     0
  0
CLASS
  1
ADDATUMPOINTAXISPLANE
  2
AcAdDatumPointAxisPlane
  3
DesignerServices
 90
    32768
280
     0
281
     0
  0
CLASS
  1
ADHOLEFEAT
  2
AcAdHoleFeat
  3
DesignerServices
 90
    32768
280
     0
281
     0
  0
CLASS
  1
CIRREFID
  2
AcAdCircleRefId
  3
DesignerServices
 90
    32768
280
     0
281
     0
  0
CLASS
  1
ACADCIRCDEPID
  2
AcAdVirtualCircleDepId
  3
DesignerServices
 90
    32768
280
     0
281
     0
  0
CLASS
  1
ACADCONSCIRCLE
  2
AcAdConstrainedCircle
  3
DesignerServices
 90
    32768
280
     0
281
     0
  0
CLASS
  1
ADCTRPTCNS
  2
AcAdCenterPointConstr
  3
DesignerServices
 90
    32768
280
     0
281
     0
  0
CLASS
  1
AMDT_ALIGNED_DIM
  2
AmdtAlignedDimension
  3
AcMeServices
 90
    32768
280
     0
281
     1
  0
CLASS
  1
ACADBOUNDEDLINEDATUMID
  2
AcAdVirtualBoundedLineDatumId
  3
DesignerServices
 90
    32768
280
     0
281
     0
  0
CLASS
  1
AMDT_ORDINATE_DIM
  2
AmdtOrdinateDimension
  3
AcMeServices
 90
    32768
280
     0
281
     1
  0
CLASS
  1
EDGEID
  2
AcAdEdgeId
  3
DesignerServices
 90
    32768
280
     0
281
     0
  0
CLASS
  1
ADFILLET
  2
AcAdFillet
  3
DesignerServices
 90
    32768
280
     0
281
     0
  0
CLASS
  1
DATUMPLANEDISPLAY
  2
AcAdDatumPlaneDisplay
  3
DesignerServices
 90
    32768
280
     0
281
     1
  0
CLASS
  1
ADDATUMPLANEAXISPLANE
  2
AcAdDatumPlaneAxisPlane
  3
DesignerServices
 90
    32768
280
     0
281
     0
  0
CLASS
  1
ACMEPLINE
  2
AcImPlineDisplay
  3
AcMeServices
 90
    32768
280
     0
281
     1
  0
CLASS
  1
ACMELINEARARROW
  2
AcImLinearArrowDisplay
  3
AcMeServices
 90
    32768
280
     0
281
     1
  0
CLASS
  1
ACMETEXT
  2
AcImTextDisplay
  3
AcMeServices
 90
    32768
280
     0
281
     1
  0
CLASS
  1
ADDATUMPLANEOFFSET
  2
AcAdDatumPlaneOffset
  3
DesignerServices
 90
    32768
280
     0
281
     0
  0
CLASS
  1
ADCOLNCNS
  2
AcAdColinearConstr
  3
DesignerServices
 90
    32768
280
     0
281
     0
  0
CLASS
  1
STREFID
  2
AcAdStraightRefId
  3
DesignerServices
 90
    32768
280
     0
281
     0
  0
CLASS
  1
ACADLINEDEPID
  2
AcAdVirtualLineDepId
  3
DesignerServices
 90
    32768
280
     0
281
     0
  0
CLASS
  1
ADFEATUREDISPLAY
  2
AcImFeatureDisplay
  3
ACME_MODULE_NAME
 90
    32768
280
     0
281
     1
  0
CLASS
  1
ACMEAXIS
  2
AcImAxisDisplay
  3
AcMeServices
 90
    32768
280
     0
281
     1
  0
CLASS
  1
DEPEDGEPATTERNFEATURE
  2
AcAdDepEdgePatternFeature
  3
DesignerServices
 90
    32768
280
     0
281
     0
  0
CLASS
  1
ACADPATTNFEAT
  2
AcAdPatternFeat
  3
DesignerServices
 90
    32768
280
     0
281
     0
  0
CLASS
  1
ACADORDORIGPT
  2
AcAdOrdinateOriginPoint
  3
DesignerServices
 90
    32768
280
     0
281
     0
  0
CLASS
  1
ADORDBASECNS
  2
AcAdOrdinateBaseConstr
  3
DesignerServices
 90
    32768
280
     0
281
     0
  0
CLASS
  1
DEPEDGESECONDARYDEPID
  2
AcAdDepEdgeSecondaryDepId
  3
DesignerServices
 90
    32768
280
     0
281
     0
  0
CLASS
  1
DEPEDGEPATTERNINSTANCE
  2
AcAdDepEdgePatternInstance
  3
DesignerServices
 90
    32768
280
     0
281
     0
  0
CLASS
  1
AMACTIVEPARTSELECTFILTER
  2
AcDmActivePartViewEntFilter
  3
DesignerServices
 90
    32768
280
     0
281
     0
  0
CLASS
  1
AM_ABS_PLANE
  2
AcDmAbsPlnDef
  3
AcMechDwgViewMgmt
 90
    32768
280
     0
281
     0
  0
CLASS
  1
AM_ABS_AXIS
  2
AcDmAbsAxisDef
  3
AcMechDwgViewMgmt
 90
    32768
280
     0
281
     0
  0
CLASS
  1
AM_BASE_VIEW_ORIENT
  2
AcDmBaseViewOr
  3
AcMechDwgViewMgmt
 90
    32768
280
     0
281
     0
  0
CLASS
  1
AM_DWG_VIEWPORT
  2
AcDmViewport
  3
AcMechDwgViewMgmt
 90
    32768
280
     0
281
     0
  0
CLASS
  1
AM_VIEW_DISPLAY
  2
AcDmDwgViewDisplay
  3
AcMechDwgViewMgmt
 90
    32768
280
     0
281
     0
  0
CLASS
  1
AM_CLDFLTS
  2
AcDmClDflts
  3
AcMechDwgViewMgmt
 90
    32768
280
     0
281
     0
  0
CLASS
  1
AM_BASE_VIEW
  2
AcDmBaseView
  3
AcMechDwgViewMgmt
 90
    32768
280
     0
281
     0
  0
CLASS
  1
AM_ISO_VIEW_ORIENT
  2
AcDmIsoViewOr
  3
AcMechDwgViewMgmt
 90
    32768
280
     0
281
     0
  0
CLASS
  1
AM_ISO_VIEW
  2
AcDmIsoView
  3
AcMechDwgViewMgmt
 90
    32768
280
     0
281
     0
  0
CLASS
  1
AM_ORTHO_VIEW_ORIENT
  2
AcDmOrthoViewOr
  3
AcMechDwgViewMgmt
 90
    32768
280
     0
281
     0
  0
CLASS
  1
AM_ORTHO_VIEW
  2
AcDmOrthoView
  3
AcMechDwgViewMgmt
 90
    32768
280
     0
281
     0
  0
CLASS
  1
ACDMPARTVIEWDATA
  2
AcDmPartViewData
  3
AcMechDwgViewMgmt
 90
    32768
280
     0
281
     0
  0
CLASS
  1
ACDMDISPLAYATTRIBS
  2
AcDmDisplayAttribs
  3
AcMechDwgViewMgmt
 90
    32768
280
     0
281
     0
  0
CLASS
  1
ACDMBODYINSTANCEDATA
  2
AcDmBodyInstanceData
  3
AcMechDwgViewMgmt
 90
    32768
280
     0
281
     0
  0
CLASS
  1
ACDMVWEDLINE
  2
AcDmViewEdgeLine
  3
AcMechDwgViewMgmt
 90
    32768
280
     0
281
     1
  0
CLASS
  1
ACDMVWEDARC
  2
AcDmViewEdgeArc
  3
AcMechDwgViewMgmt
 90
    32768
280
     0
281
     1
  0
CLASS
  1
ACADSKETCHPOINTRES
  2
AcAdSketchPointRes
  3
DesignerServices
 90
    32768
280
     0
281
     0
  0
CLASS
  1
AM_VIEWDIMLINEAR
  2
AcDmViewDimLinear
  3
AcMechDwgViewMgmt
 90
    32768
280
     0
281
     0
  0
CLASS
  1
AMDTDMPARMAPDATA
  2
AmdtDmDimParMapData
  3
AcMechDwgViewMgmt
 90
    32768
280
     0
281
     0
  0
CLASS
  1
AM_ADLINCTRLINE
  2
AcAdLineCl
  3
DesignerServices
 90
    32768
280
     0
281
     0
  0
CLASS
  1
ACDMVWEDCIRC
  2
AcDmViewEdgeCircle
  3
AcMechDwgViewMgmt
 90
    32768
280
     0
281
     1
  0
CLASS
  1
AM_ADCIRCTRLINE
  2
AcAdBullsEyeCl
  3
DesignerServices
 90
    32768
280
     0
281
     0
  0
CLASS
  1
AD_CIRCTAPH
  2
AcAdTapHoleCircDisp
  3
DesignerServices
 90
    32768
280
     0
281
     0
  0
CLASS
  1
ACDMVIEWGEOM
  2
AcDmViewGeometry
  3
AcMechDwgViewMgmt
 90
    32768
280
     0
281
     1
  0
CLASS
  1
FACEID
  2
AcAdFaceId
  3
DesignerServices
 90
    32768
280
     0
281
     0
  0
CLASS
  1
ACADPARTPLANARFACERES
  2
AcAdPartPlanarFaceRes
  3
AdGrefServices
 90
    32768
280
     0
281
     0
  0
CLASS
  1
AM_GREF_PLANE
  2
AcDmGrefPlnDef
  3
AcMechDwgViewMgmt
 90
    32768
280
     0
281
     0
  0
CLASS
  1
ACADPARTLINEDGRES
  2
AcAdPartLinEdgRes
  3
AdGrefServices
 90
    32768
280
     0
281
     0
  0
CLASS
  1
AM_GREF_AXIS
  2
AcDmGrefAxisDef
  3
AcMechDwgViewMgmt
 90
    32768
280
     0
281
     0
  0
CLASS
  1
AMDTEXTERNALTHREAD
  2
AmdtExternalThreadFeat
  3
DesignerServices
 90
    32768
280
     0
281
     0
  0
CLASS
  1
THREADDISPLAY
  2
AcAdThreadDisplay
  3
DesignerServices
 90
    32768
280
     0
281
     1
  0
CLASS
  1
AD_LINETAPH
  2
AcAdTapHoleLineDisp
  3
DesignerServices
 90
    32768
280
     0
281
     0
  0
CLASS
  1
ADRADDISP
  2
AcAdRadiusDisplay
  3
DesignerServices
 90
    32768
280
     0
281
     1
  0
CLASS
  1
ACDBLINERES
  2
AcDbLineRes
  3
AcGrefServices
 90
    32768
280
     0
281
     0
  0
CLASS
  1
ACADPARTCONICALFACERES
  2
AcAdPartConicalFaceRes
  3
AdGrefServices
 90
    32768
280
     0
281
     0
  0
CLASS
  1
ACDMGREFEDIT
  2
AcDmViewEntityGeomrefEdit
  3
AcMechDwgViewMgmt
 90
    32768
280
     0
281
     0
  0
CLASS
  1
ACDMVIEWLINEDGERES
  2
AcDmViewLinEdgeRes
  3
AcMechDwgViewMgmt
 90
    32768
280
     0
281
     0
  0
CLASS
  1
SILEDGEID
  2
AcAdSilhouetteEdgeId
  3
DesignerServices
 90
    32768
280
     0
281
     0
  0
CLASS
  1
ACADPARTCYLINDERFACERES
  2
AcAdPartCylinderFaceRes
  3
AdGrefServices
 90
    32768
280
     0
281
     0
  0
CLASS
  1
CNRREFID
  2
AcAdCornerId
  3
DesignerServices
 90
    32768
280
     0
281
     0
  0
CLASS
  1
ACADPARTPOINTRES
  2
AcAdPartPointRes
  3
AdGrefServices
 90
    32768
280
     0
281
     0
  0
CLASS
  1
ACADPARTCIRCEDGRES
  2
AcAdPartCircEdgRes
  3
AdGrefServices
 90
    32768
280
     0
281
     0
  0
CLASS
  1
ACRFDMINSADJ
  2
AcRfDMInsAdjuster
  3
AcMechDwgViewMgmt
 90
    32768
280
     0
281
     0
  0
CLASS
  1
AM_VIEWDIMRADIUS
  2
AcDmViewDimRadius
  3
AcMechDwgViewMgmt
 90
    32768
280
     0
281
     0
  0
CLASS
  1
ACADPARTDATUMPLANERES
  2
AcAdPartDatumPlaneRes
  3
AdGrefServices
 90
    32768
280
     0
281
     0
  0
CLASS
  1
AM_FULLPLANESECTION
  2
AcDmFullPlaneSection
  3
AcMechDwgViewMgmt
 90
    32768
280
     0
281
     0
  0
CLASS
  1
AMDTSECTIONSYM
  2
AmdtSectionSym
  3
"AcmSymBB|Product Description: AutoCAD Mechanical 2004 DX|Company: Autodesk"
 90
    33791
280
     0
281
     1
  0
CLASS
  1
AM_VWNOTEADAPTER
  2
AcDmViewAnnotAdapter
  3
AcMechDwgViewMgmt
 90
    32768
280
     0
281
     0
  0
CLASS
  1
AMDTSECTIONSYMLABEL
  2
AmdtSectionSymLabel
  3
"AcmSymBB|Product Description: AutoCAD Mechanical 2004 DX|Company: Autodesk"
 90
    33791
280
     0
281
     1
  0
CLASS
  1
AMDTNOTE
  2
AmdtNote
  3
"AcmSymBB|Product Description: AutoCAD Mechanical 2004 DX|Company: Autodesk"
 90
    33791
280
     0
281
     1
  0
CLASS
  1
DIMASSOC
  2
AcDbDimAssoc
  3
"AcDbDimAssoc|Product Desc:     AcDim ARX App For Dimension|Company:          Autodesk, Inc.|WEB Address:      www.autodesk.com"
 90
        0
280
     0
281
     0
  0
CLASS
  1
TABLESTYLE
  2
AcDbTableStyle
  3
ObjectDBX Classes
 90
     2047
280
     0
281
     0
  0
CLASS
  1
ACAMCONTEXTMODELER
  2
AcAmContextModeler
  3
DesignerAssemblies
 90
        0
280
     0
281
     0
  0
CLASS
  1
AMDTEDGESTANDARDISO13715
  2
AmdtEdgeStdISO13715
  3
"Amdt_StdImp|Product Description: AutoCAD Mechanical 2004 DX|Company: Autodesk"
 90
        0
280
     0
281
     0
  0
CLASS
  1
AMDTNOTETEMPLATEDB
  2
AmdtNoteTemplateDB
  3
AMDT_STDIMP_MODULE_NAME
 90
        0
280
     0
281
     0
  0
CLASS
  1
ACRFATTGENMGR
  2
AcRfAttGeneralMgr
  3
AcAttribServices
 90
    32768
280
     0
281
     0
  0
CLASS
  1
ACMDIMBREAKPERSREACTOR
  2
AcmDimBreakPersReactor
  3
amgDimApp().moduleName()
 90
     1023
280
     0
281
     0
  0
ENDSEC
  0
SECTION
  2
TABLES
  0
TABLE
  2
VPORT
  5
1A
330
0
100
AcDbSymbolTable
 70
     3
  0
VPORT
  5
43D2
330
1A
100
AcDbSymbolTableRecord
100
AcDbViewportTableRecord
  2
*Active
 70
     0
 10
0.0
 20
0.0
 11
1.0
 21
1.0
 12
596.023510807503
 22
-59.03679309449149
 13
0.0
 23
0.0
 14
2.5
 24
2.5
 15
10.0
 25
10.0
 16
0.0
 26
0.0
 36
1.0
 17
0.0
 27
0.0
 37
0.0
 40
170.3748668412763
 41
0.9354838709677418
 42
50.0
 43
0.0
 44
0.0
 50
0.0
 51
0.0
 71
     0
 72
   100
 73
     1
 74
     3
 75
     0
 76
     0
 77
     0
 78
     0
281
     0
 65
     0
110
0.0
120
0.0
130
0.0
111
1.0
121
0.0
131
0.0
112
0.0
122
1.0
132
0.0
 79
     0
146
0.0
  0
ENDTAB
  0
TABLE
  2
LTYPE
  5
15
330
0
100
AcDbSymbolTable
 70
    15
  0
LTYPE
  5
16
330
15
100
AcDbSymbolTableRecord
100
AcDbLinetypeTableRecord
  2
ByBlock
 70
     0
  3

 72
    65
 73
     0
 40
0.0
  0
LTYPE
  5
17
330
15
100
AcDbSymbolTableRecord
100
AcDbLinetypeTableRecord
  2
ByLayer
 70
     0
  3

 72
    65
 73
     0
 40
0.0
  0
LTYPE
  5
9
330
15
100
AcDbSymbolTableRecord
100
AcDbLinetypeTableRecord
  2
Continuous
 70
     0
  3
Solid line
 72
    65
 73
     0
 40
0.0
  0
LTYPE
  5
161
330
15
100
AcDbSymbolTableRecord
100
AcDbLinetypeTableRecord
  2
HIDDEN
 70
     0
  3
Hidden __ __ __ __ __ __ __ __ __ __ __ __ __ _
 72
    65
 73
     2
 40
9.524999999999998
 49
6.349999999999999
 74
     0
 49
-3.174999999999999
 74
     0
  0
LTYPE
  5
BF
330
15
100
AcDbSymbolTableRecord
100
AcDbLinetypeTableRecord
  2
AM_ISO08W050
 70
     0
  3
____ . ____ . ____ . ____ . ____ . ____ . ____
 72
    65
 73
     4
 40
18.0
 49
12.0
 74
     0
 49
-1.5
 74
     0
 49
3.0
 74
     0
 49
-1.5
 74
     0
  0
LTYPE
  5
1FD
330
15
100
AcDbSymbolTableRecord
100
AcDbLinetypeTableRecord
  2
AM_ISO02W050
 70
     0
  3
__ __ __ __ __ __ __ __ __ __ __ __ __ __ __
 72
    65
 73
     2
 40
7.5
 49
6.0
 74
     0
 49
-1.5
 74
     0
  0
LTYPE
  5
1FE
330
15
100
AcDbSymbolTableRecord
100
AcDbLinetypeTableRecord
  2
AM_ISO09W050
 70
     0
  3
_____ . . _____ . . _____ . . ____ .. ____
 72
    65
 73
     6
 40
22.5
 49
12.0
 74
     0
 49
-1.5
 74
     0
 49
3.0
 74
     0
 49
-1.5
 74
     0
 49
3.0
 74
     0
 49
-1.5
 74
     0
  0
LTYPE
  5
1FF
330
15
100
AcDbSymbolTableRecord
100
AcDbLinetypeTableRecord
  2
Amconstr
 70
     0
  3
_______________________
 72
    65
 73
     2
 40
9999.0
 49
9999.0
 74
     0
 49
0.0
 74
     0
  0
LTYPE
  5
200
330
15
100
AcDbSymbolTableRecord
100
AcDbLinetypeTableRecord
  2
AM_ISO08W050x2
 70
     0
  3
__ . __ . __ . __ . __ . __
 72
    65
 73
     4
 40
9.0
 49
6.0
 74
     0
 49
-0.75
 74
     0
 49
1.5
 74
     0
 49
-0.75
 74
     0
  0
LTYPE
  5
201
330
15
100
AcDbSymbolTableRecord
100
AcDbLinetypeTableRecord
  2
AM_ISO02W050x2
 70
     0
  3
 _ _ _ _ _ _ _ _ _ _ _ _
 72
    65
 73
     2
 40
3.75
 49
3.0
 74
     0
 49
-0.75
 74
     0
  0
LTYPE
  5
204
330
15
100
AcDbSymbolTableRecord
100
AcDbLinetypeTableRecord
  2
Amzigzag
 70
     0
  3
/\/-/\/-/\/-/\/-/\/-/\/
 72
    65
 73
     2
 40
11.0001
 49
0.0001
 74
     4
 75
   135
340
203
 46
0.04
 50
0.0
 44
0.0
 45
0.0
 49
-11.0
 74
     0
  0
LTYPE
  5
211
330
15
100
AcDbSymbolTableRecord
100
AcDbLinetypeTableRecord
  2
ACISOWELD
 70
     0
  3
_ _ _ _ _
 72
    65
 73
     2
 40
2.0
 49
2.0
 74
     0
 49
-1.0
 74
     0
  0
LTYPE
  5
212
330
15
100
AcDbSymbolTableRecord
100
AcDbLinetypeTableRecord
  2
ACISOTGB
 70
     0
  3
__ . . __ . .
 72
    65
 73
     6
 40
9.0
 49
4.0
 74
     0
 49
-1.0
 74
     0
 49
1.0
 74
     0
 49
-1.0
 74
     0
 49
1.0
 74
     0
 49
-1.0
 74
     0
  0
LTYPE
  5
213
330
15
100
AcDbSymbolTableRecord
100
AcDbLinetypeTableRecord
  2
ACISOTGL
 70
     0
  3
_ _ _ _ _
 72
    65
 73
     2
 40
3.0
 49
2.0
 74
     0
 49
-1.0
 74
     0
  0
LTYPE
  5
214
330
15
100
AcDbSymbolTableRecord
100
AcDbLinetypeTableRecord
  2
CENTER
 70
     0
  3
__ . __
 72
    65
 73
     4
 40
7.0
 49
4.0
 74
     0
 49
-1.0
 74
     0
 49
1.0
 74
     0
 49
-1.0
 74
     0
  0
LTYPE
  5
2325
330
15
100
AcDbSymbolTableRecord
100
AcDbLinetypeTableRecord
  2
PHANTOM2
 70
     0
  3
Phantom (.5x) ___ _ _ ___ _ _ ___ _ _ ___ _ _
 72
    65
 73
     6
 40
31.75
 49
15.875
 74
     0
 49
-3.174999999999999
 74
     0
 49
3.174999999999999
 74
     0
 49
-3.174999999999999
 74
     0
 49
3.174999999999999
 74
     0
 49
-3.174999999999999
 74
     0
  0
LTYPE
  5
3014
330
15
100
AcDbSymbolTableRecord
100
AcDbLinetypeTableRecord
  2
HIDDEN2
 70
     0
  3
Hidden (.5x) _ _ _ _ _ _ _ _ _ _ _ _ _ _ _ _ _
 72
    65
 73
     2
 40
0.1875
 49
0.125
 74
     0
 49
-0.0625
 74
     0
  0
ENDTAB
  0
TABLE
  2
LAYER
  5
11
102
{ACAD_XDICTIONARY
360
2434
102
}
330
0
100
AcDbSymbolTable
 70
     9
  0
LAYER
  5
5
330
11
100
AcDbSymbolTableRecord
100
AcDbLayerTableRecord
  2
0
 70
     0
 62
     7
  6
Continuous
370
    -3
390
6
  0
LAYER
  5
3B
330
11
100
AcDbSymbolTableRecord
100
AcDbLayerTableRecord
  2
Defpoints
 70
     0
 62
     7
  6
Continuous
290
     0
370
    -3
390
6
  0
LAYER
  5
14E
330
11
100
AcDbSymbolTableRecord
100
AcDbLayerTableRecord
  2
AM_5
 70
     0
 62
     3
  6
Continuous
370
    25
390
6
  0
LAYER
  5
158
330
11
100
AcDbSymbolTableRecord
100
AcDbLayerTableRecord
  2
AM_VIS
 70
     0
 62
     7
  6
Continuous
370
    50
390
6
  0
LAYER
  5
32
330
11
100
AcDbSymbolTableRecord
100
AcDbLayerTableRecord
  2
AM_PARDIM
 70
     0
 62
     5
  6
Continuous
370
    25
390
6
  0
LAYER
  5
BE
330
11
100
AcDbSymbolTableRecord
100
AcDbLayerTableRecord
  2
AM_7
 70
     0
 62
     1
  6
AM_ISO08W050
370
    25
390
6
  0
LAYER
  5
11A7
330
11
100
AcDbSymbolTableRecord
100
AcDbLayerTableRecord
  2
LOGO
 70
     0
 62
     7
  6
Continuous
370
    -3
390
6
  0
LAYER
  5
242D
330
11
100
AcDbSymbolTableRecord
100
AcDbLayerTableRecord
  2
AM_REFDIM
 70
     0
 62
     5
  6
Continuous
370
    25
390
6
  0
LAYER
  5
3015
330
11
100
AcDbSymbolTableRecord
100
AcDbLayerTableRecord
  2
AM_4
 70
     0
 62
     3
  6
Continuous
370
    25
390
6
  0
ENDTAB
  0
TABLE
  2
STYLE
  5
12
330
0
100
AcDbSymbolTable
 70
     5
  0
STYLE
  5
13
330
12
100
AcDbSymbolTableRecord
100
AcDbTextStyleTableRecord
  2
STANDARD
 70
     0
 40
0.0
 41
1.0
 50
0.0
 71
     0
 42
2.5
  3
ISOCP.SHX
  4
CHINESET.SHX
  0
STYLE
  5
152
330
12
100
AcDbSymbolTableRecord
100
AcDbTextStyleTableRecord
  2
ACISOTS
 70
     0
 40
1.0
 41
1.0
 50
0.0
 71
     0
 42
2.5
  3
isocp.shx
  4
chineset.shx
  0
STYLE
  5
203
330
12
100
AcDbSymbolTableRecord
100
AcDbTextStyleTableRecord
  2

 70
     1
 40
0.0
 41
1.0
 50
0.0
 71
     0
 42
2.5
  3
ltypeshp.shx
  4

  0
STYLE
  5
210
330
12
100
AcDbSymbolTableRecord
100
AcDbTextStyleTableRecord
  2
ACISOGDT
 70
     0
 40
0.0
 41
1.0
 50
0.0
 71
     0
 42
2.5
  3
amgdt.shx
  4

  0
STYLE
  5
356
330
12
100
AcDbSymbolTableRecord
100
AcDbTextStyleTableRecord
  2
CHINESET
 70
     0
 40
0.0
 41
1.0
 50
0.0
 71
     0
 42
2.5
  3
simplex.shx
  4
CHINESET.shx
  0
ENDTAB
  0
TABLE
  2
VIEW
  5
18
330
0
100
AcDbSymbolTable
 70
     0
  0
ENDTAB
  0
TABLE
  2
UCS
  5
19
330
0
100
AcDbSymbolTable
 70
     0
  0
ENDTAB
  0
TABLE
  2
APPID
  5
1C
330
0
100
AcDbSymbolTable
 70
    28
  0
APPID
  5
1D
330
1C
100
AcDbSymbolTableRecord
100
AcDbRegAppTableRecord
  2
ACAD
 70
     0
  0
APPID
  5
41
330
1C
100
AcDbSymbolTableRecord
100
AcDbRegAppTableRecord
  2
AD_SKETCHDIM
 70
     0
  0
APPID
  5
42
330
1C
100
AcDbSymbolTableRecord
100
AcDbRegAppTableRecord
  2
ACAD_DIMASSOC_DIMLFAC
 70
     0
  0
APPID
  5
40
330
1C
100
AcDbSymbolTableRecord
100
AcDbRegAppTableRecord
  2
ACAD_DIMASSOC_CALC_DIMLFAC
 70
     0
  0
APPID
  5
1DF
330
1C
100
AcDbSymbolTableRecord
100
AcDbRegAppTableRecord
  2
MCAD_NO_VIS
 70
     0
  0
APPID
  5
1E0
330
1C
100
AcDbSymbolTableRecord
100
AcDbRegAppTableRecord
  2
ACAD_TEMP_GRAPHIC
 70
     0
  0
APPID
  5
1F1
330
1C
100
AcDbSymbolTableRecord
100
AcDbRegAppTableRecord
  2
ACATTRIBSERVICES
 70
     0
  0
APPID
  5
CAF
330
1C
100
AcDbSymbolTableRecord
100
AcDbRegAppTableRecord
  2
GENIUS_GENODEF_13
 70
     0
  0
APPID
  5
CB0
330
1C
100
AcDbSymbolTableRecord
100
AcDbRegAppTableRecord
  2
GENIUS_GENOBJ-N-DIM_13
 70
     0
  0
APPID
  5
CBC
330
1C
100
AcDbSymbolTableRecord
100
AcDbRegAppTableRecord
  2
GENIUS_GENDIM_13
 70
     0
  0
APPID
  5
CDC
330
1C
100
AcDbSymbolTableRecord
100
AcDbRegAppTableRecord
  2
GENIUS_GENDIMSH_14
 70
     0
  0
APPID
  5
E3C
330
1C
100
AcDbSymbolTableRecord
100
AcDbRegAppTableRecord
  2
GENIUS_GENOBJ-N-HTC_13
 70
     0
  0
APPID
  5
E3D
330
1C
100
AcDbSymbolTableRecord
100
AcDbRegAppTableRecord
  2
GENIUS_GENHATCH_13
 70
     0
  0
APPID
  5
E59
330
1C
100
AcDbSymbolTableRecord
100
AcDbRegAppTableRecord
  2
DCO15
 70
     0
  0
APPID
  5
19D0
330
1C
100
AcDbSymbolTableRecord
100
AcDbRegAppTableRecord
  2
GENIUS_GENOREF_13
 70
     0
  0
APPID
  5
19D1
330
1C
100
AcDbSymbolTableRecord
100
AcDbRegAppTableRecord
  2
GENIUS_GENOENT_13
 70
     0
  0
APPID
  5
19D2
330
1C
100
AcDbSymbolTableRecord
100
AcDbRegAppTableRecord
  2
GENIUS_GENOLIS_13
 70
     0
  0
APPID
  5
19D3
330
1C
100
AcDbSymbolTableRecord
100
AcDbRegAppTableRecord
  2
GENIUS_GENOBJ-N-CRS_13
 70
     0
  0
APPID
  5
19D4
330
1C
100
AcDbSymbolTableRecord
100
AcDbRegAppTableRecord
  2
GENIUS_GENOBJ-N-CEN_13
 70
     0
  0
APPID
  5
2327
330
1C
100
AcDbSymbolTableRecord
100
AcDbRegAppTableRecord
  2
AD_DRAW
 70
     0
  0
APPID
  5
2345
330
1C
100
AcDbSymbolTableRecord
100
AcDbRegAppTableRecord
  2
DESIGNERASSEMBLIES
 70
     0
  0
APPID
  5
234A
330
1C
100
AcDbSymbolTableRecord
100
AcDbRegAppTableRecord
  2
ACADM_DIM_EDIT
 70
     0
  0
APPID
  5
234B
330
1C
100
AcDbSymbolTableRecord
100
AcDbRegAppTableRecord
  2
AMDT_DM_ADJ
 70
     0
  0
APPID
  5
2432
330
1C
100
AcDbSymbolTableRecord
100
AcDbRegAppTableRecord
  2
GENIUS_GENDTOL_13
 70
     0
  0
APPID
  5
2433
330
1C
100
AcDbSymbolTableRecord
100
AcDbRegAppTableRecord
  2
ACAD_PSEXT
 70
     0
  0
APPID
  5
2AA8
330
1C
100
AcDbSymbolTableRecord
100
AcDbRegAppTableRecord
  2
GENIUS_GENREC_14
 70
     0
  0
APPID
  5
2AA9
330
1C
100
AcDbSymbolTableRecord
100
AcDbRegAppTableRecord
  2
GENIUS_GENOBJ-N-REC_13
 70
     0
  0
APPID
  5
37CD
330
1C
100
AcDbSymbolTableRecord
100
AcDbRegAppTableRecord
  2
ACAD_DSTYLE_DIMTEXT_FILL
 70
     0
  0
ENDTAB
  0
TABLE
  2
DIMSTYLE
  5
1E
330
0
100
AcDbSymbolTable
 70
     9
100
AcDbDimStyleTable
 71
     2
340
1F
340
11AA
  0
DIMSTYLE
105
1F
330
1E
100
AcDbSymbolTableRecord
100
AcDbDimStyleTableRecord
  2
AM_ISO
 70
     0
  4
"
 41
3.0
 42
1.5
 43
7.0
 44
1.5
 47
0.1
 48
0.1
 73
     0
 74
     0
 77
     1
 78
     8
 79
     2
140
3.5
141
0.0
143
0.0393701
146
0.71
147
1.0
172
     1
176
   256
177
   256
178
   256
271
     2
272
     2
283
     0
284
     8
285
     8
340
13
371
    -1
372
    -1
  0
DIMSTYLE
105
217
102
{ACAD_REACTORS
330
36E8
102
}
330
1E
100
AcDbSymbolTableRecord
100
AcDbDimStyleTableRecord
  2
AM_ISO$3
 70
     0
  4
"
 41
3.0
 42
1.5
 43
7.0
 44
1.5
 47
0.1
 48
0.1
 73
     0
 77
     1
 78
     8
 79
     2
140
3.5
141
0.0
143
0.0393701
146
0.71
147
1.0
176
   256
177
   256
178
   256
271
     2
272
     2
283
     0
284
     8
285
     8
288
     1
289
     0
340
13
371
    -1
372
    -1
  0
DIMSTYLE
105
218
330
1E
100
AcDbSymbolTableRecord
100
AcDbDimStyleTableRecord
  2
AM_ISO$4
 70
     0
  4
"
 41
3.0
 42
1.5
 43
7.0
 44
1.5
 47
0.1
 48
0.1
 73
     0
 77
     1
 78
     8
 79
     2
140
3.5
141
0.0
143
0.0393701
146
0.71
147
1.0
176
   256
177
   256
178
   256
271
     2
272
     2
283
     0
284
     8
285
     8
288
     1
289
     0
340
13
371
    -1
372
    -1
  0
DIMSTYLE
105
219
330
1E
100
AcDbSymbolTableRecord
100
AcDbDimStyleTableRecord
  2
AM_ISO$6
 70
     0
  4
"
 41
3.0
 42
1.5
 43
7.0
 44
1.5
 47
0.1
 48
0.1
 73
     0
 74
     0
 78
     8
 79
     2
140
3.5
141
0.0
143
0.0393701
146
0.71
147
1.0
172
     1
176
   256
177
   256
178
   256
271
     2
272
     2
283
     0
284
     8
285
     8
340
13
371
    -1
372
    -1
  0
DIMSTYLE
105
21A
330
1E
100
AcDbSymbolTableRecord
100
AcDbDimStyleTableRecord
  2
AM_ISO$7
 70
     0
  4
"
 41
2.5
 42
1.5
 43
7.0
 44
1.5
 47
0.1
 48
0.1
 73
     0
 74
     0
 77
     1
 78
     8
 79
     2
140
3.5
141
0.0
143
0.0393701
146
0.71
147
1.5
172
     1
176
   256
177
   256
178
   256
271
     2
272
     2
283
     0
284
     8
285
     8
340
13
371
    -1
372
    -1
  0
DIMSTYLE
105
21B
330
1E
100
AcDbSymbolTableRecord
100
AcDbDimStyleTableRecord
  2
AM_ISO$SF
 70
     0
  4
"
 41
3.0
 42
2.0
 43
5.0
 44
1.5
 47
0.1
 48
0.1
 73
     0
 74
     0
 75
     1
 76
     1
 77
     1
 78
     8
 79
     2
140
3.0
141
0.0
143
0.0393701
146
0.71
147
1.0
172
     1
176
   256
177
   256
178
     5
271
     2
272
     2
283
     0
284
     8
340
13
371
    -1
372
    -1
  0
DIMSTYLE
105
220
330
1E
100
AcDbSymbolTableRecord
100
AcDbDimStyleTableRecord
  2
AM_ISO$SH
 70
     0
  4
"
 41
3.0
 42
2.0
 43
5.0
 44
1.5
 47
0.1
 48
0.1
 73
     0
 74
     0
 75
     1
 76
     1
 77
     1
 78
     8
 79
     2
140
3.0
141
0.0
143
0.0393701
144
2.0
146
0.71
147
1.0
172
     1
173
     1
176
   256
177
   256
178
     5
271
     2
272
     2
283
     0
284
     8
340
13
341
21C
343
21C
371
    -1
372
    -1
  0
DIMSTYLE
105
11AA
102
{ACAD_REACTORS
330
32DE
330
3310
330
330B
330
330A
330
392E
330
3908
330
3B11
330
3308
330
3309
330
330C
330
330D
330
3970
330
3E82
330
39BC
330
3A59
330
3A75
330
4270
102
}
330
1E
100
AcDbSymbolTableRecord
100
AcDbDimStyleTableRecord
  2
STANDARD
 70
     0
 40
0.7
 41
3.0
 42
1.5
 43
7.0
 44
2.0
 47
0.01
 48
0.01
 73
     0
 74
     0
 77
     1
 78
     8
 79
     2
140
3.0
141
0.0
146
0.6
147
0.8
172
     1
176
   256
177
   256
178
   256
271
     2
272
     2
284
     8
340
356
371
    -1
372
    -1
  0
DIMSTYLE
105
2431
102
{ACAD_REACTORS
330
31
330
43
330
52
330
5F
330
6C
330
79
330
86
330
95
330
A3
330
B0
102
}
330
1E
100
AcDbSymbolTableRecord
100
AcDbDimStyleTableRecord
  2
AM_ISO$0
 70
     0
  4
"
 41
3.0
 42
1.0
 43
7.0
 44
1.0
 47
0.1
 48
0.1
 73
     0
 74
     0
 77
     1
 78
     8
 79
     2
140
3.5
141
0.0
143
0.0393701
146
0.71
147
1.0
172
     1
176
   256
177
   256
178
   256
271
     2
272
     2
283
     0
284
     8
285
     8
340
13
371
    -1
372
    -1
  0
ENDTAB
  0
TABLE
  2
BLOCK_RECORD
  5
1
330
0
100
AcDbSymbolTable
 70
    34
  0
BLOCK_RECORD
  5
2
102
{ACAD_XDICTIONARY
360
3
102
}
330
1
100
AcDbSymbolTableRecord
100
AcDbBlockTableRecord
  2
*Model_Space
340
B
  0
BLOCK_RECORD
  5
D
102
{ACAD_XDICTIONARY
360
1848
102
}
330
1
100
AcDbSymbolTableRecord
100
AcDbBlockTableRecord
  2
*Paper_Space
340
10
  0
BLOCK_RECORD
  5
21C
330
1
100
AcDbSymbolTableRecord
100
AcDbBlockTableRecord
  2
GENAXEH
340
0
  0
BLOCK_RECORD
  5
F83
330
1
100
AcDbSymbolTableRecord
100
AcDbBlockTableRecord
  2
*D1
340
0
  0
BLOCK_RECORD
  5
F8F
330
1
100
AcDbSymbolTableRecord
100
AcDbBlockTableRecord
  2
*D2
340
0
  0
BLOCK_RECORD
  5
F9D
330
1
100
AcDbSymbolTableRecord
100
AcDbBlockTableRecord
  2
*D3
340
0
  0
BLOCK_RECORD
  5
FA9
330
1
100
AcDbSymbolTableRecord
100
AcDbBlockTableRecord
  2
*D4
340
0
  0
BLOCK_RECORD
  5
FB5
330
1
100
AcDbSymbolTableRecord
100
AcDbBlockTableRecord
  2
*D5
340
0
  0
BLOCK_RECORD
  5
FC1
330
1
100
AcDbSymbolTableRecord
100
AcDbBlockTableRecord
  2
*D6
340
0
  0
BLOCK_RECORD
  5
FCD
330
1
100
AcDbSymbolTableRecord
100
AcDbBlockTableRecord
  2
*D7
340
0
  0
BLOCK_RECORD
  5
FDB
330
1
100
AcDbSymbolTableRecord
100
AcDbBlockTableRecord
  2
*D8
340
0
  0
BLOCK_RECORD
  5
FE8
330
1
100
AcDbSymbolTableRecord
100
AcDbBlockTableRecord
  2
*D9
340
0
  0
BLOCK_RECORD
  5
FF4
330
1
100
AcDbSymbolTableRecord
100
AcDbBlockTableRecord
  2
*D10
340
0
  0
BLOCK_RECORD
  5
35A7
330
1
100
AcDbSymbolTableRecord
100
AcDbBlockTableRecord
  2
*D12
340
0
  0
BLOCK_RECORD
  5
35B3
330
1
100
AcDbSymbolTableRecord
100
AcDbBlockTableRecord
  2
*D13
340
0
  0
BLOCK_RECORD
  5
35C0
330
1
100
AcDbSymbolTableRecord
100
AcDbBlockTableRecord
  2
*D14
340
0
  0
BLOCK_RECORD
  5
35CE
330
1
100
AcDbSymbolTableRecord
100
AcDbBlockTableRecord
  2
*D15
340
0
  0
BLOCK_RECORD
  5
35DC
330
1
100
AcDbSymbolTableRecord
100
AcDbBlockTableRecord
  2
*D16
340
0
  0
BLOCK_RECORD
  5
35E8
330
1
100
AcDbSymbolTableRecord
100
AcDbBlockTableRecord
  2
*D17
340
0
  0
BLOCK_RECORD
  5
35F4
330
1
100
AcDbSymbolTableRecord
100
AcDbBlockTableRecord
  2
*D18
340
0
  0
BLOCK_RECORD
  5
361A
330
1
100
AcDbSymbolTableRecord
100
AcDbBlockTableRecord
  2
*D20
340
0
  0
BLOCK_RECORD
  5
36E9
330
1
100
AcDbSymbolTableRecord
100
AcDbBlockTableRecord
  2
*D21
340
0
  0
BLOCK_RECORD
  5
3909
330
1
100
AcDbSymbolTableRecord
100
AcDbBlockTableRecord
  2
*D22
340
0
  0
BLOCK_RECORD
  5
392F
330
1
100
AcDbSymbolTableRecord
100
AcDbBlockTableRecord
  2
*D23
340
0
  0
BLOCK_RECORD
  5
3971
330
1
100
AcDbSymbolTableRecord
100
AcDbBlockTableRecord
  2
*D24
340
0
  0
BLOCK_RECORD
  5
39BD
330
1
100
AcDbSymbolTableRecord
100
AcDbBlockTableRecord
  2
*D26
340
0
  0
BLOCK_RECORD
  5
3A5A
330
1
100
AcDbSymbolTableRecord
100
AcDbBlockTableRecord
  2
*D27
340
0
  0
BLOCK_RECORD
  5
3A76
330
1
100
AcDbSymbolTableRecord
100
AcDbBlockTableRecord
  2
*D28
340
0
  0
BLOCK_RECORD
  5
3B12
330
1
100
AcDbSymbolTableRecord
100
AcDbBlockTableRecord
  2
*D29
340
0
  0
BLOCK_RECORD
  5
3E83
330
1
100
AcDbSymbolTableRecord
100
AcDbBlockTableRecord
  2
*D30
340
0
  0
BLOCK_RECORD
  5
4271
330
1
100
AcDbSymbolTableRecord
100
AcDbBlockTableRecord
  2
*D33
340
0
  0
ENDTAB
  0
ENDSEC
  0
SECTION
  2
BLOCKS
  0
BLOCK
  5
4
330
2
100
AcDbEntity
  8
0
100
AcDbBlockBegin
  2
*Model_Space
 70
     0
 10
0.0
 20
0.0
 30
0.0
  3
*Model_Space
  1

  0
ENDBLK
  5
A
330
2
100
AcDbEntity
  8
0
100
AcDbBlockEnd
  0
BLOCK
  5
E
330
D
100
AcDbEntity
 67
     1
  8
0
100
AcDbBlockBegin
  2
*Paper_Space
 70
     0
 10
0.0
 20
0.0
 30
0.0
  3
*Paper_Space
  1

  0
ENDBLK
  5
F
330
D
100
AcDbEntity
 67
     1
  8
0
100
AcDbBlockEnd
  0
BLOCK
  5
21E
330
21C
100
AcDbEntity
  8
0
100
AcDbBlockBegin
  2
GENAXEH
 70
     0
 10
0.0
 20
0.0
 30
0.0
  3
GENAXEH
  1

  0
LINE
  5
21D
330
21C
100
AcDbEntity
  8
0
100
AcDbLine
 10
-1.0
 20
0.0
 30
0.0
 11
1.0
 21
0.0
 31
0.0
  0
ENDBLK
  5
21F
330
21C
100
AcDbEntity
  8
0
100
AcDbBlockEnd
  0
BLOCK
  5
F8D
330
F83
100
AcDbEntity
  8
0
100
AcDbBlockBegin
  2
*D1
 70
     1
 10
0.0
 20
0.0
 30
0.0
  3
*D1
  1

  0
LINE
  5
3F56
330
F83
100
AcDbEntity
  8
AM_PARDIM
100
AcDbLine
 10
76.3746488765642
 20
116.1938113892625
 30
0.0
 11
115.5325708695175
 21
116.1938113892625
 31
0.0
  0
LINE
  5
3F57
330
F83
100
AcDbEntity
  8
AM_PARDIM
100
AcDbLine
 10
76.3746488765642
 20
128.6938113892625
 30
0.0
 11
115.5325708695175
 21
128.6938113892625
 31
0.0
  0
LINE
  5
3F58
330
F83
100
AcDbEntity
  8
AM_PARDIM
100
AcDbLine
 10
114.5325708695175
 20
119.1938113892625
 30
0.0
 11
114.5325708695175
 21
125.6938113892625
 31
0.0
  0
SOLID
  5
3F59
330
F83
100
AcDbEntity
  8
AM_PARDIM
100
AcDbTrace
 10
114.0325708695175
 20
119.1938113892625
 30
0.0
 11
115.0325708695175
 21
119.1938113892625
 31
0.0
 12
114.5325708695175
 22
116.1938113892625
 32
0.0
 13
114.5325708695175
 23
116.1938113892625
 33
0.0
  0
SOLID
  5
3F5A
330
F83
100
AcDbEntity
  8
AM_PARDIM
100
AcDbTrace
 10
114.0325708695175
 20
125.6938113892625
 30
0.0
 11
115.0325708695175
 21
125.6938113892625
 31
0.0
 12
114.5325708695175
 22
128.6938113892625
 32
0.0
 13
114.5325708695175
 23
128.6938113892625
 33
0.0
  0
MTEXT
  5
3F5B
330
F83
100
AcDbEntity
  8
AM_PARDIM
100
AcDbMText
 10
111.7822263813285
 20
122.4438113892625
 30
0.0
 40
3.5
 41
0.0
 71
     5
 72
     1
  1
12.5
 11
0.0000000000000001
 21
1.0
 31
0.0
 73
     1
 44
1.0
1001
ACAD
1000
MTEXTBEGIN
1070
    73
1070
     1
1070
    44
1040
1.0
1070
    74
1070
     0
1000
MTEXTEND
  0
POINT
  5
3F5C
330
F83
100
AcDbEntity
  8
Defpoints
 62
     0
100
AcDbPoint
 10
75.37464887656421
 20
116.1938113892625
 30
0.0
  0
POINT
  5
3F5D
330
F83
100
AcDbEntity
  8
Defpoints
 62
     0
100
AcDbPoint
 10
75.37464887656421
 20
128.6938113892625
 30
0.0
  0
POINT
  5
3F5E
330
F83
100
AcDbEntity
  8
Defpoints
 62
     0
100
AcDbPoint
 10
114.5325708695175
 20
128.6938113892625
 30
0.0
  0
ENDBLK
  5
F8E
330
F83
100
AcDbEntity
  8
0
100
AcDbBlockEnd
  0
BLOCK
  5
F9B
330
F8F
100
AcDbEntity
  8
0
100
AcDbBlockBegin
  2
*D2
 70
     1
 10
0.0
 20
0.0
 30
0.0
  3
*D2
  1

  0
LINE
  5
3F5F
330
F8F
100
AcDbEntity
  8
AM_PARDIM
100
AcDbLine
 10
37.87464887656421
 20
116.1938113892625
 30
0.0
 11
25.87464887656421
 21
116.1938113892625
 31
0.0
  0
LINE
  5
3F60
330
F8F
100
AcDbEntity
  8
AM_PARDIM
100
AcDbLine
 10
37.87464887656421
 20
122.1938113892625
 30
0.0
 11
25.87464887656421
 21
122.1938113892625
 31
0.0
  0
LINE
  5
3F61
330
F8F
100
AcDbEntity
  8
AM_PARDIM
100
AcDbLine
 10
26.87464887656421
 20
113.1938113892625
 30
0.0
 11
26.87464887656421
 21
110.1938113892625
 31
0.0
  0
LINE
  5
3F62
330
F8F
100
AcDbEntity
  8
AM_PARDIM
100
AcDbLine
 10
26.87464887656421
 20
125.1938113892625
 30
0.0
 11
26.87464887656421
 21
128.1938113892625
 31
0.0
  0
LINE
  5
3F63
330
F8F
100
AcDbEntity
  8
AM_PARDIM
100
AcDbLine
 10
26.87464887656421
 20
116.1938113892625
 30
0.0
 11
26.87464887656421
 21
122.1938113892625
 31
0.0
  0
SOLID
  5
3F64
330
F8F
100
AcDbEntity
  8
AM_PARDIM
100
AcDbTrace
 10
26.37464887656421
 20
113.1938113892625
 30
0.0
 11
27.3746488765642
 21
113.1938113892625
 31
0.0
 12
26.87464887656421
 22
116.1938113892625
 32
0.0
 13
26.87464887656421
 23
116.1938113892625
 33
0.0
  0
SOLID
  5
3F65
330
F8F
100
AcDbEntity
  8
AM_PARDIM
100
AcDbTrace
 10
26.37464887656421
 20
125.1938113892625
 30
0.0
 11
27.37464887656421
 21
125.1938113892625
 31
0.0
 12
26.87464887656421
 22
122.1938113892625
 32
0.0
 13
26.87464887656421
 23
122.1938113892625
 33
0.0
  0
MTEXT
  5
3F66
330
F8F
100
AcDbEntity
  8
AM_PARDIM
100
AcDbMText
 10
24.12464887656419
 20
119.1938113892625
 30
0.0
 40
3.5
 41
0.0
 71
     5
 72
     1
  1
6
 11
0.0000000000000001
 21
1.0
 31
0.0
 73
     1
 44
1.0
1001
ACAD
1000
MTEXTBEGIN
1070
    73
1070
     1
1070
    44
1040
1.0
1070
    74
1070
     0
1000
MTEXTEND
  0
POINT
  5
3F67
330
F8F
100
AcDbEntity
  8
Defpoints
 62
     0
100
AcDbPoint
 10
38.87464887656421
 20
116.1938113892625
 30
0.0
  0
POINT
  5
3F68
330
F8F
100
AcDbEntity
  8
Defpoints
 62
     0
100
AcDbPoint
 10
38.87464887656421
 20
122.1938113892625
 30
0.0
  0
POINT
  5
3F69
330
F8F
100
AcDbEntity
  8
Defpoints
 62
     0
100
AcDbPoint
 10
26.87464887656421
 20
122.1938113892625
 30
0.0
  0
ENDBLK
  5
F9C
330
F8F
100
AcDbEntity
  8
0
100
AcDbBlockEnd
  0
BLOCK
  5
FA7
330
F9D
100
AcDbEntity
  8
0
100
AcDbBlockBegin
  2
*D3
 70
     1
 10
0.0
 20
0.0
 30
0.0
  3
*D3
  1

  0
LINE
  5
3F6A
330
F9D
100
AcDbEntity
  8
AM_PARDIM
100
AcDbLine
 10
38.87464887656421
 20
123.1938113892625
 30
0.0
 11
38.87464887656421
 21
141.6938113892625
 31
0.0
  0
LINE
  5
3F6B
330
F9D
100
AcDbEntity
  8
AM_PARDIM
100
AcDbLine
 10
50.87464887656421
 20
123.1938113892625
 30
0.0
 11
50.87464887656421
 21
141.6938113892625
 31
0.0
  0
LINE
  5
3F6C
330
F9D
100
AcDbEntity
  8
AM_PARDIM
100
AcDbLine
 10
41.8746488765642
 20
140.6938113892625
 30
0.0
 11
47.87464887656421
 21
140.6938113892625
 31
0.0
  0
SOLID
  5
3F6D
330
F9D
100
AcDbEntity
  8
AM_PARDIM
100
AcDbTrace
 10
41.8746488765642
 20
141.1938113892625
 30
0.0
 11
41.8746488765642
 21
140.1938113892625
 31
0.0
 12
38.87464887656421
 22
140.6938113892625
 32
0.0
 13
38.87464887656421
 23
140.6938113892625
 33
0.0
  0
SOLID
  5
3F6E
330
F9D
100
AcDbEntity
  8
AM_PARDIM
100
AcDbTrace
 10
47.87464887656421
 20
141.1938113892625
 30
0.0
 11
47.87464887656421
 21
140.1938113892625
 31
0.0
 12
50.87464887656421
 22
140.6938113892625
 32
0.0
 13
50.87464887656421
 23
140.6938113892625
 33
0.0
  0
MTEXT
  5
3F6F
330
F9D
100
AcDbEntity
  8
AM_PARDIM
100
AcDbMText
 10
44.87464887656421
 20
143.4441558774515
 30
0.0
 40
3.5
 41
0.0
 71
     5
 72
     1
  1
12
 73
     1
 44
1.0
1001
ACAD
1000
MTEXTBEGIN
1070
    73
1070
     1
1070
    44
1040
1.0
1070
    74
1070
     0
1000
MTEXTEND
  0
POINT
  5
3F70
330
F9D
100
AcDbEntity
  8
Defpoints
 62
     0
100
AcDbPoint
 10
38.87464887656421
 20
122.1938113892625
 30
0.0
  0
POINT
  5
3F71
330
F9D
100
AcDbEntity
  8
Defpoints
 62
     0
100
AcDbPoint
 10
50.87464887656421
 20
122.1938113892625
 30
0.0
  0
POINT
  5
3F72
330
F9D
100
AcDbEntity
  8
Defpoints
 62
     0
100
AcDbPoint
 10
50.87464887656421
 20
140.6938113892625
 30
0.0
  0
ENDBLK
  5
FA8
330
F9D
100
AcDbEntity
  8
0
100
AcDbBlockEnd
  0
BLOCK
  5
FB3
330
FA9
100
AcDbEntity
  8
0
100
AcDbBlockBegin
  2
*D4
 70
     1
 10
0.0
 20
0.0
 30
0.0
  3
*D4
  1

  0
LINE
  5
3F73
330
FA9
100
AcDbEntity
  8
AM_PARDIM
100
AcDbLine
 10
38.87464887656421
 20
117.1938113892625
 30
0.0
 11
38.87464887656421
 21
161.6938113892625
 31
0.0
  0
LINE
  5
3F74
330
FA9
100
AcDbEntity
  8
AM_PARDIM
100
AcDbLine
 10
75.37464887656421
 20
117.1938113892625
 30
0.0
 11
75.37464887656421
 21
161.6938113892625
 31
0.0
  0
LINE
  5
3F75
330
FA9
100
AcDbEntity
  8
AM_PARDIM
100
AcDbLine
 10
41.8746488765642
 20
160.6938113892625
 30
0.0
 11
72.37464887656421
 21
160.6938113892625
 31
0.0
  0
SOLID
  5
3F76
330
FA9
100
AcDbEntity
  8
AM_PARDIM
100
AcDbTrace
 10
41.8746488765642
 20
161.1938113892625
 30
0.0
 11
41.8746488765642
 21
160.1938113892625
 31
0.0
 12
38.87464887656421
 22
160.6938113892625
 32
0.0
 13
38.87464887656421
 23
160.6938113892625
 33
0.0
  0
SOLID
  5
3F77
330
FA9
100
AcDbEntity
  8
AM_PARDIM
100
AcDbTrace
 10
72.37464887656421
 20
161.1938113892625
 30
0.0
 11
72.37464887656421
 21
160.1938113892625
 31
0.0
 12
75.37464887656421
 22
160.6938113892625
 32
0.0
 13
75.37464887656421
 23
160.6938113892625
 33
0.0
  0
MTEXT
  5
3F78
330
FA9
100
AcDbEntity
  8
AM_PARDIM
100
AcDbMText
 10
57.12464887656421
 20
163.4438113892625
 30
0.0
 40
3.5
 41
0.0
 71
     5
 72
     1
  1
36.5
 73
     1
 44
1.0
1001
ACAD
1000
MTEXTBEGIN
1070
    73
1070
     1
1070
    44
1040
1.0
1070
    74
1070
     0
1000
MTEXTEND
  0
POINT
  5
3F79
330
FA9
100
AcDbEntity
  8
Defpoints
 62
     0
100
AcDbPoint
 10
38.87464887656421
 20
116.1938113892625
 30
0.0
  0
POINT
  5
3F7A
330
FA9
100
AcDbEntity
  8
Defpoints
 62
     0
100
AcDbPoint
 10
75.37464887656421
 20
116.1938113892625
 30
0.0
  0
POINT
  5
3F7B
330
FA9
100
AcDbEntity
  8
Defpoints
 62
     0
100
AcDbPoint
 10
75.37464887656421
 20
160.6938113892625
 30
0.0
  0
ENDBLK
  5
FB4
330
FA9
100
AcDbEntity
  8
0
100
AcDbBlockEnd
  0
BLOCK
  5
FBF
330
FB5
100
AcDbEntity
  8
0
100
AcDbBlockBegin
  2
*D5
 70
     1
 10
0.0
 20
0.0
 30
0.0
  3
*D5
  1

  0
LINE
  5
3F7C
330
FB5
100
AcDbEntity
  8
AM_PARDIM
100
AcDbLine
 10
51.87464887656421
 20
127.1938113892625
 30
0.0
 11
105.5325708695175
 21
127.1938113892625
 31
0.0
  0
LINE
  5
3F7D
330
FB5
100
AcDbEntity
  8
AM_PARDIM
100
AcDbLine
 10
76.3746488765642
 20
116.1938113892625
 30
0.0
 11
105.5325708695175
 21
116.1938113892625
 31
0.0
  0
LINE
  5
3F7E
330
FB5
100
AcDbEntity
  8
AM_PARDIM
100
AcDbLine
 10
104.5325708695175
 20
124.1938113892625
 30
0.0
 11
104.5325708695175
 21
119.1938113892625
 31
0.0
  0
SOLID
  5
3F7F
330
FB5
100
AcDbEntity
  8
AM_PARDIM
100
AcDbTrace
 10
104.0325708695175
 20
124.1938113892625
 30
0.0
 11
105.0325708695175
 21
124.1938113892625
 31
0.0
 12
104.5325708695175
 22
127.1938113892625
 32
0.0
 13
104.5325708695175
 23
127.1938113892625
 33
0.0
  0
SOLID
  5
3F80
330
FB5
100
AcDbEntity
  8
AM_PARDIM
100
AcDbTrace
 10
104.0325708695175
 20
119.1938113892625
 30
0.0
 11
105.0325708695175
 21
119.1938113892625
 31
0.0
 12
104.5325708695175
 22
116.1938113892625
 32
0.0
 13
104.5325708695175
 23
116.1938113892625
 33
0.0
  0
MTEXT
  5
3F81
330
FB5
100
AcDbEntity
  8
AM_PARDIM
100
AcDbMText
 10
101.7825708695175
 20
121.6938113892625
 30
0.0
 40
3.5
 41
0.0
 71
     5
 72
     1
  1
11
 11
0.0000000000000001
 21
1.0
 31
0.0
 73
     1
 44
1.0
1001
ACAD
1000
MTEXTBEGIN
1070
    73
1070
     1
1070
    44
1040
1.0
1070
    74
1070
     0
1000
MTEXTEND
  0
POINT
  5
3F82
330
FB5
100
AcDbEntity
  8
Defpoints
 62
     0
100
AcDbPoint
 10
50.87464887656421
 20
127.1938113892625
 30
0.0
  0
POINT
  5
3F83
330
FB5
100
AcDbEntity
  8
Defpoints
 62
     0
100
AcDbPoint
 10
75.37464887656421
 20
116.1938113892625
 30
0.0
  0
POINT
  5
3F84
330
FB5
100
AcDbEntity
  8
Defpoints
 62
     0
100
AcDbPoint
 10
104.5325708695175
 20
116.1938113892625
 30
0.0
  0
ENDBLK
  5
FC0
330
FB5
100
AcDbEntity
  8
0
100
AcDbBlockEnd
  0
BLOCK
  5
FCB
330
FC1
100
AcDbEntity
  8
0
100
AcDbBlockBegin
  2
*D6
 70
     1
 10
0.0
 20
0.0
 30
0.0
  3
*D6
  1

  0
LINE
  5
3F85
330
FC1
100
AcDbEntity
  8
AM_PARDIM
100
AcDbLine
 10
66.3746488765642
 20
129.6938113892625
 30
0.0
 11
66.3746488765642
 21
151.6938113892625
 31
0.0
  0
LINE
  5
3F86
330
FC1
100
AcDbEntity
  8
AM_PARDIM
100
AcDbLine
 10
75.37464887656421
 20
129.6938113892625
 30
0.0
 11
75.37464887656421
 21
151.6938113892625
 31
0.0
  0
LINE
  5
3F87
330
FC1
100
AcDbEntity
  8
AM_PARDIM
100
AcDbLine
 10
69.37464887656421
 20
150.6938113892625
 30
0.0
 11
72.37464887656421
 21
150.6938113892625
 31
0.0
  0
SOLID
  5
3F88
330
FC1
100
AcDbEntity
  8
AM_PARDIM
100
AcDbTrace
 10
69.37464887656421
 20
151.1938113892625
 30
0.0
 11
69.37464887656421
 21
150.1938113892625
 31
0.0
 12
66.3746488765642
 22
150.6938113892625
 32
0.0
 13
66.3746488765642
 23
150.6938113892625
 33
0.0
  0
SOLID
  5
3F89
330
FC1
100
AcDbEntity
  8
AM_PARDIM
100
AcDbTrace
 10
72.37464887656421
 20
151.1938113892625
 30
0.0
 11
72.37464887656421
 21
150.1938113892625
 31
0.0
 12
75.37464887656421
 22
150.6938113892625
 32
0.0
 13
75.37464887656421
 23
150.6938113892625
 33
0.0
  0
MTEXT
  5
3F8A
330
FC1
100
AcDbEntity
  8
AM_PARDIM
100
AcDbMText
 10
70.87464887656421
 20
153.4438113892625
 30
0.0
 40
3.5
 41
0.0
 71
     5
 72
     1
  1
9
 73
     1
 44
1.0
1001
ACAD
1000
MTEXTBEGIN
1070
    73
1070
     1
1070
    44
1040
1.0
1070
    74
1070
     0
1000
MTEXTEND
  0
POINT
  5
3F8B
330
FC1
100
AcDbEntity
  8
Defpoints
 62
     0
100
AcDbPoint
 10
66.3746488765642
 20
128.6938113892625
 30
0.0
  0
POINT
  5
3F8C
330
FC1
100
AcDbEntity
  8
Defpoints
 62
     0
100
AcDbPoint
 10
75.37464887656421
 20
128.6938113892625
 30
0.0
  0
POINT
  5
3F8D
330
FC1
100
AcDbEntity
  8
Defpoints
 62
     0
100
AcDbPoint
 10
75.37464887656421
 20
150.6938113892625
 30
0.0
  0
ENDBLK
  5
FCC
330
FC1
100
AcDbEntity
  8
0
100
AcDbBlockEnd
  0
BLOCK
  5
FD9
330
FCD
100
AcDbEntity
  8
0
100
AcDbBlockBegin
  2
*D7
 70
     1
 10
0.0
 20
0.0
 30
0.0
  3
*D7
  1

  0
LINE
  5
3F8E
330
FCD
100
AcDbEntity
  8
AM_PARDIM
100
AcDbLine
 10
63.87464887656418
 20
129.6938113892624
 30
0.0
 11
63.87464887656418
 21
141.6938113892625
 31
0.0
  0
LINE
  5
3F8F
330
FCD
100
AcDbEntity
  8
AM_PARDIM
100
AcDbLine
 10
66.37464887656418
 20
129.6938113892624
 30
0.0
 11
66.37464887656418
 21
141.6938113892625
 31
0.0
  0
LINE
  5
3F90
330
FCD
100
AcDbEntity
  8
AM_PARDIM
100
AcDbLine
 10
60.87464887656418
 20
140.6938113892625
 30
0.0
 11
57.87464887656418
 21
140.6938113892625
 31
0.0
  0
LINE
  5
3F91
330
FCD
100
AcDbEntity
  8
AM_PARDIM
100
AcDbLine
 10
69.37464887656418
 20
140.6938113892625
 30
0.0
 11
79.50850157615066
 21
140.6938113892625
 31
0.0
  0
LINE
  5
3F92
330
FCD
100
AcDbEntity
  8
AM_PARDIM
100
AcDbLine
 10
63.87464887656418
 20
140.6938113892625
 30
0.0
 11
66.37464887656418
 21
140.6938113892625
 31
0.0
  0
SOLID
  5
3F93
330
FCD
100
AcDbEntity
  8
AM_PARDIM
100
AcDbTrace
 10
60.87464887656418
 20
141.1938113892625
 30
0.0
 11
60.87464887656418
 21
140.1938113892625
 31
0.0
 12
63.87464887656418
 22
140.6938113892625
 32
0.0
 13
63.87464887656418
 23
140.6938113892625
 33
0.0
  0
SOLID
  5
3F94
330
FCD
100
AcDbEntity
  8
AM_PARDIM
100
AcDbTrace
 10
69.37464887656418
 20
141.1938113892625
 30
0.0
 11
69.37464887656418
 21
140.1938113892625
 31
0.0
 12
66.37464887656418
 22
140.6938113892625
 32
0.0
 13
66.37464887656418
 23
140.6938113892625
 33
0.0
  0
MTEXT
  5
3F95
330
FCD
100
AcDbEntity
  8
AM_PARDIM
100
AcDbMText
 10
75.94157522635743
 20
143.4441558774515
 30
0.0
 40
3.5
 41
0.0
 71
     5
 72
     1
  1
2.5
 73
     1
 44
1.0
1001
ACAD
1000
MTEXTBEGIN
1070
    73
1070
     1
1070
    44
1040
1.0
1070
    74
1070
     0
1000
MTEXTEND
  0
POINT
  5
3F96
330
FCD
100
AcDbEntity
  8
Defpoints
 62
     0
100
AcDbPoint
 10
63.87464887656418
 20
128.6938113892624
 30
0.0
  0
POINT
  5
3F97
330
FCD
100
AcDbEntity
  8
Defpoints
 62
     0
100
AcDbPoint
 10
66.37464887656418
 20
128.6938113892624
 30
0.0
  0
POINT
  5
3F98
330
FCD
100
AcDbEntity
  8
Defpoints
 62
     0
100
AcDbPoint
 10
66.37464887656418
 20
140.6938113892625
 30
0.0
  0
ENDBLK
  5
FDA
330
FCD
100
AcDbEntity
  8
0
100
AcDbBlockEnd
  0
BLOCK
  5
FE6
330
FDB
100
AcDbEntity
  8
0
100
AcDbBlockBegin
  2
*D8
 70
     1
 10
0.0
 20
0.0
 30
0.0
  3
*D8
  1

  0
LINE
  5
3F99
330
FDB
100
AcDbEntity
  8
AM_PARDIM
100
AcDbLine
 10
66.37464887656418
 20
129.6938113892624
 30
0.0
 11
66.37464887656418
 21
137.030378563861
 31
0.0
  0
LINE
  5
3F9A
330
FDB
100
AcDbEntity
  8
AM_PARDIM
100
AcDbLine
 10
66.37464887656418
 20
117.1938113892624
 30
0.0
 11
66.37464887656418
 21
137.030378563861
 31
0.0
  0
LINE
  5
3F9B
330
FDB
100
AcDbEntity
  8
AM_PARDIM
100
AcDbLine
 10
63.37464887656418
 20
136.030378563861
 30
0.0
 11
60.37464887656418
 21
136.030378563861
 31
0.0
  0
LINE
  5
3F9C
330
FDB
100
AcDbEntity
  8
AM_PARDIM
100
AcDbLine
 10
69.37464887656418
 20
136.030378563861
 30
0.0
 11
75.78016068758779
 21
136.030378563861
 31
0.0
  0
SOLID
  5
3F9D
330
FDB
100
AcDbEntity
  8
AM_PARDIM
100
AcDbTrace
 10
63.37464887656418
 20
136.530378563861
 30
0.0
 11
63.37464887656418
 21
135.530378563861
 31
0.0
 12
66.37464887656418
 22
136.030378563861
 32
0.0
 13
66.37464887656418
 23
136.030378563861
 33
0.0
  0
SOLID
  5
3F9E
330
FDB
100
AcDbEntity
  8
AM_PARDIM
100
AcDbTrace
 10
69.37464887656418
 20
136.530378563861
 30
0.0
 11
69.37464887656418
 21
135.530378563861
 31
0.0
 12
66.37464887656418
 22
136.030378563861
 32
0.0
 13
66.37464887656418
 23
136.030378563861
 33
0.0
  0
MTEXT
  5
3F9F
330
FDB
100
AcDbEntity
  8
AM_PARDIM
100
AcDbMText
 10
74.07740478207599
 20
138.780378563861
 30
0.0
 40
3.5
 41
0.0
 71
     5
 72
     1
  1
0
 73
     1
 44
1.0
1001
ACAD
1000
MTEXTBEGIN
1070
    73
1070
     1
1070
    44
1040
1.0
1070
    74
1070
     0
1000
MTEXTEND
  0
POINT
  5
3FA0
330
FDB
100
AcDbEntity
  8
Defpoints
 62
     0
100
AcDbPoint
 10
66.37464887656418
 20
128.6938113892624
 30
0.0
  0
POINT
  5
3FA1
330
FDB
100
AcDbEntity
  8
Defpoints
 62
     0
100
AcDbPoint
 10
66.37464887656418
 20
116.1938113892624
 30
0.0
  0
POINT
  5
3FA2
330
FDB
100
AcDbEntity
  8
Defpoints
 62
     0
100
AcDbPoint
 10
66.37464887656418
 20
136.030378563861
 30
0.0
  0
ENDBLK
  5
FE7
330
FDB
100
AcDbEntity
  8
0
100
AcDbBlockEnd
  0
BLOCK
  5
FF2
330
FE8
100
AcDbEntity
  8
0
100
AcDbBlockBegin
  2
*D9
 70
     1
 10
0.0
 20
0.0
 30
0.0
  3
*D9
  1

  0
LINE
  5
3FA3
330
FE8
100
AcDbEntity
  8
AM_PARDIM
100
AcDbLine
 10
64.87464887656418
 20
125.6938113892624
 30
0.0
 11
95.53257086951754
 21
125.6938113892624
 31
0.0
  0
LINE
  5
3FA4
330
FE8
100
AcDbEntity
  8
AM_PARDIM
100
AcDbLine
 10
83.53257086951755
 20
116.1938113892624
 30
0.0
 11
95.53257086951754
 21
116.1938113892624
 31
0.0
  0
LINE
  5
3FA5
330
FE8
100
AcDbEntity
  8
AM_PARDIM
100
AcDbLine
 10
94.53257086951754
 20
122.6938113892624
 30
0.0
 11
94.53257086951754
 21
119.1938113892624
 31
0.0
  0
SOLID
  5
3FA6
330
FE8
100
AcDbEntity
  8
AM_PARDIM
100
AcDbTrace
 10
94.03257086951754
 20
122.6938113892624
 30
0.0
 11
95.03257086951753
 21
122.6938113892624
 31
0.0
 12
94.53257086951754
 22
125.6938113892624
 32
0.0
 13
94.53257086951754
 23
125.6938113892624
 33
0.0
  0
SOLID
  5
3FA7
330
FE8
100
AcDbEntity
  8
AM_PARDIM
100
AcDbTrace
 10
94.03257086951754
 20
119.1938113892624
 30
0.0
 11
95.03257086951753
 21
119.1938113892624
 31
0.0
 12
94.53257086951754
 22
116.1938113892624
 32
0.0
 13
94.53257086951754
 23
116.1938113892624
 33
0.0
  0
MTEXT
  5
3FA8
330
FE8
100
AcDbEntity
  8
AM_PARDIM
100
AcDbMText
 10
91.78257086951752
 20
120.9438113892624
 30
0.0
 40
3.5
 41
0.0
 71
     5
 72
     1
  1
9.5
 11
0.0000000000000001
 21
1.0
 31
0.0
 73
     1
 44
1.0
1001
ACAD
1000
MTEXTBEGIN
1070
    73
1070
     1
1070
    44
1040
1.0
1070
    74
1070
     0
1000
MTEXTEND
  0
POINT
  5
3FA9
330
FE8
100
AcDbEntity
  8
Defpoints
 62
     0
100
AcDbPoint
 10
63.87464887656418
 20
125.6938113892624
 30
0.0
  0
POINT
  5
3FAA
330
FE8
100
AcDbEntity
  8
Defpoints
 62
     0
100
AcDbPoint
 10
82.53257086951753
 20
116.1938113892624
 30
0.0
  0
POINT
  5
3FAB
330
FE8
100
AcDbEntity
  8
Defpoints
 62
     0
100
AcDbPoint
 10
94.53257086951754
 20
116.1938113892624
 30
0.0
  0
ENDBLK
  5
FF3
330
FE8
100
AcDbEntity
  8
0
100
AcDbBlockEnd
  0
BLOCK
  5
FFE
330
FF4
100
AcDbEntity
  8
0
100
AcDbBlockBegin
  2
*D10
 70
     1
 10
0.0
 20
0.0
 30
0.0
  3
*D10
  1

  0
LINE
  5
3FAC
330
FF4
100
AcDbEntity
  8
AM_PARDIM
100
AcDbLine
 10
67.37464887656418
 20
128.6938113892624
 30
0.0
 11
125.5325708695175
 21
128.6938113892624
 31
0.0
  0
LINE
  5
3FAD
330
FF4
100
AcDbEntity
  8
AM_PARDIM
100
AcDbLine
 10
83.53257086951755
 20
116.1938113892624
 30
0.0
 11
125.5325708695175
 21
116.1938113892624
 31
0.0
  0
LINE
  5
3FAE
330
FF4
100
AcDbEntity
  8
AM_PARDIM
100
AcDbLine
 10
124.5325708695175
 20
125.6938113892624
 30
0.0
 11
124.5325708695175
 21
119.1938113892624
 31
0.0
  0
SOLID
  5
3FAF
330
FF4
100
AcDbEntity
  8
AM_PARDIM
100
AcDbTrace
 10
124.0325708695175
 20
125.6938113892624
 30
0.0
 11
125.0325708695175
 21
125.6938113892624
 31
0.0
 12
124.5325708695175
 22
128.6938113892624
 32
0.0
 13
124.5325708695175
 23
128.6938113892624
 33
0.0
  0
SOLID
  5
3FB0
330
FF4
100
AcDbEntity
  8
AM_PARDIM
100
AcDbTrace
 10
124.0325708695175
 20
119.1938113892624
 30
0.0
 11
125.0325708695175
 21
119.1938113892624
 31
0.0
 12
124.5325708695175
 22
116.1938113892624
 32
0.0
 13
124.5325708695175
 23
116.1938113892624
 33
0.0
  0
MTEXT
  5
3FB1
330
FF4
100
AcDbEntity
  8
AM_PARDIM
100
AcDbMText
 10
121.7822263813285
 20
122.4438113892624
 30
0.0
 40
3.5
 41
0.0
 71
     5
 72
     1
  1
12.5
 11
0.0000000000000001
 21
1.0
 31
0.0
 73
     1
 44
1.0
1001
ACAD
1000
MTEXTBEGIN
1070
    73
1070
     1
1070
    44
1040
1.0
1070
    74
1070
     0
1000
MTEXTEND
  0
POINT
  5
3FB2
330
FF4
100
AcDbEntity
  8
Defpoints
 62
     0
100
AcDbPoint
 10
66.37464887656418
 20
128.6938113892624
 30
0.0
  0
POINT
  5
3FB3
330
FF4
100
AcDbEntity
  8
Defpoints
 62
     0
100
AcDbPoint
 10
82.53257086951753
 20
116.1938113892624
 30
0.0
  0
POINT
  5
3FB4
330
FF4
100
AcDbEntity
  8
Defpoints
 62
     0
100
AcDbPoint
 10
124.5325708695175
 20
116.1938113892624
 30
0.0
  0
ENDBLK
  5
FFF
330
FF4
100
AcDbEntity
  8
0
100
AcDbBlockEnd
  0
BLOCK
  5
35B1
330
35A7
100
AcDbEntity
  8
0
100
AcDbBlockBegin
  2
*D12
 70
     1
 10
0.0
 20
0.0
 30
0.0
  3
*D12
  1

  0
LINE
  5
41A2
330
35A7
100
AcDbEntity
  8
AM_REFDIM
100
AcDbLine
 10
609.9703369033246
 20
-17.2120538505327
 30
0.0
 11
590.7103369033246
 21
-17.21205385053264
 31
0.0
  0
LINE
  5
41A3
330
35A7
100
AcDbEntity
  8
AM_REFDIM
100
AcDbLine
 10
590.7103369033246
 20
-17.21205385053264
 30
0.0
 11
584.7009014525318
 21
-10.84755319951841
 31
0.0
  0
MTEXT
  5
41A4
330
35A7
100
AcDbEntity
  8
AM_REFDIM
100
AcDbMText
 10
600.6203369033246
 20
-15.60205385053264
 30
0.0
 40
2.099999999999999
 41
0.0
 71
     5
 72
     1
  1
\A1;2-\U+22051.7 thru
  7
CHINESET
 73
     1
 44
1.0
1001
ACAD
1000
MTEXTBEGIN
1070
    73
1070
     1
1070
    44
1040
1.0
1070
    74
1070
     0
1000
MTEXTEND
  0
SOLID
  5
41A5
330
35A7
100
AcDbEntity
  8
AM_REFDIM
100
AcDbTrace
 10
584.9553856311249
 20
-10.60726628176007
 30
0.0
 11
584.4464172739387
 21
-11.08784011727681
 31
0.0
 12
583.2591799459817
 22
-9.320648127959941
 32
0.0
 13
583.2591799459817
 23
-9.320648127959941
 33
0.0
  0
POINT
  5
41A6
330
35A7
100
AcDbEntity
  8
Defpoints
 62
     0
100
AcDbPoint
 10
583.2591799459817
 20
-9.320648127959941
 30
0.0
  0
POINT
  5
41A7
330
35A7
100
AcDbEntity
  8
Defpoints
 62
     0
100
AcDbPoint
 10
582.0920720597269
 20
-8.084582117650654
 30
0.0
  0
ENDBLK
  5
35B2
330
35A7
100
AcDbEntity
  8
0
100
AcDbBlockEnd
  0
BLOCK
  5
35BE
330
35B3
100
AcDbEntity
  8
0
100
AcDbBlockBegin
  2
*D13
 70
     1
 10
0.0
 20
0.0
 30
0.0
  3
*D13
  1

  0
LINE
  5
4202
330
35B3
100
AcDbEntity
  8
AM_REFDIM
100
AcDbLine
 10
573.9256260028545
 20
-10.50261512280527
 30
0.0
 11
573.9256260028545
 21
-21.01800834334326
 31
0.0
  0
LINE
  5
4203
330
35B3
100
AcDbEntity
  8
AM_REFDIM
100
AcDbLine
 10
561.1756260028545
 20
-10.6526151228053
 30
0.0
 11
561.1756260028545
 21
-21.01800834334326
 31
0.0
  0
LINE
  5
4204
330
35B3
100
AcDbEntity
  8
AM_REFDIM
100
AcDbLine
 10
571.8256260028545
 20
-19.61800834334326
 30
0.0
 11
563.2756260028545
 21
-19.61800834334326
 31
0.0
  0
SOLID
  5
4205
330
35B3
100
AcDbEntity
  8
AM_REFDIM
100
AcDbTrace
 10
571.8256260028545
 20
-19.26800834334326
 30
0.0
 11
571.8256260028545
 21
-19.96800834334326
 31
0.0
 12
573.9256260028545
 22
-19.61800834334326
 32
0.0
 13
573.9256260028545
 23
-19.61800834334326
 33
0.0
  0
SOLID
  5
4206
330
35B3
100
AcDbEntity
  8
AM_REFDIM
100
AcDbTrace
 10
563.2756260028545
 20
-19.26800834334326
 30
0.0
 11
563.2756260028545
 21
-19.96800834334326
 31
0.0
 12
561.1756260028545
 22
-19.61800834334326
 32
0.0
 13
561.1756260028545
 23
-19.61800834334326
 33
0.0
  0
MTEXT
  5
4207
330
35B3
100
AcDbEntity
  8
AM_REFDIM
100
AcDbMText
 10
567.5506260028545
 20
-18.00800834334326
 30
0.0
 40
2.099999999999999
 41
0.0
 71
     5
 72
     1
  1
\A1;12.75
  7
CHINESET
 73
     1
 44
1.0
1001
ACAD
1000
MTEXTBEGIN
1070
    73
1070
     1
1070
    44
1040
1.0
1070
    74
1070
     0
1000
MTEXTEND
  0
POINT
  5
4208
330
35B3
100
AcDbEntity
  8
Defpoints
 62
     0
100
AcDbPoint
 10
573.9256260028545
 20
-9.452615122805269
 30
0.0
  0
POINT
  5
4209
330
35B3
100
AcDbEntity
  8
Defpoints
 62
     0
100
AcDbPoint
 10
561.1756260028545
 20
-9.602615122805303
 30
0.0
  0
POINT
  5
420A
330
35B3
100
AcDbEntity
  8
Defpoints
 62
     0
100
AcDbPoint
 10
561.1756260028545
 20
-19.61800834334326
 30
0.0
  0
ENDBLK
  5
35BF
330
35B3
100
AcDbEntity
  8
0
100
AcDbBlockEnd
  0
BLOCK
  5
35CC
330
35C0
100
AcDbEntity
  8
0
100
AcDbBlockBegin
  2
*D14
 70
     1
 10
0.0
 20
0.0
 30
0.0
  3
*D14
  1

  0
LINE
  5
41F9
330
35C0
100
AcDbEntity
  8
AM_REFDIM
100
AcDbLine
 10
573.9256260028545
 20
-10.50261512280527
 30
0.0
 11
573.9256260028545
 21
-21.01800834334326
 31
0.0
  0
LINE
  5
41FA
330
35C0
100
AcDbEntity
  8
AM_REFDIM
100
AcDbLine
 10
580.9256260028545
 20
-6.502615122805269
 30
0.0
 11
580.9256260028545
 21
-21.01800834334326
 31
0.0
  0
LINE
  5
41FB
330
35C0
100
AcDbEntity
  8
AM_REFDIM
100
AcDbLine
 10
576.0256260028545
 20
-19.61800834334326
 30
0.0
 11
578.8256260028544
 21
-19.61800834334326
 31
0.0
  0
SOLID
  5
41FC
330
35C0
100
AcDbEntity
  8
AM_REFDIM
100
AcDbTrace
 10
576.0256260028545
 20
-19.26800834334326
 30
0.0
 11
576.0256260028545
 21
-19.96800834334326
 31
0.0
 12
573.9256260028545
 22
-19.61800834334326
 32
0.0
 13
573.9256260028545
 23
-19.61800834334326
 33
0.0
  0
SOLID
  5
41FD
330
35C0
100
AcDbEntity
  8
AM_REFDIM
100
AcDbTrace
 10
578.8256260028544
 20
-19.26800834334326
 30
0.0
 11
578.8256260028544
 21
-19.96800834334326
 31
0.0
 12
580.9256260028545
 22
-19.61800834334326
 32
0.0
 13
580.9256260028545
 23
-19.61800834334326
 33
0.0
  0
MTEXT
  5
41FE
330
35C0
100
AcDbEntity
  8
AM_REFDIM
100
AcDbMText
 10
577.4256260028545
 20
-18.00800834334326
 30
0.0
 40
2.099999999999999
 41
0.0
 71
     5
 72
     1
  1
\A1;7
  7
CHINESET
 73
     1
 44
1.0
1001
ACAD
1000
MTEXTBEGIN
1070
    73
1070
     1
1070
    44
1040
1.0
1070
    74
1070
     0
1000
MTEXTEND
  0
POINT
  5
41FF
330
35C0
100
AcDbEntity
  8
Defpoints
 62
     0
100
AcDbPoint
 10
573.9256260028545
 20
-9.452615122805269
 30
0.0
  0
POINT
  5
4200
330
35C0
100
AcDbEntity
  8
Defpoints
 62
     0
100
AcDbPoint
 10
580.9256260028545
 20
-5.452615122805269
 30
0.0
  0
POINT
  5
4201
330
35C0
100
AcDbEntity
  8
Defpoints
 62
     0
100
AcDbPoint
 10
580.9256260028545
 20
-19.61800834334326
 30
0.0
  0
ENDBLK
  5
35CD
330
35C0
100
AcDbEntity
  8
0
100
AcDbBlockEnd
  0
BLOCK
  5
35DA
330
35CE
100
AcDbEntity
  8
0
100
AcDbBlockBegin
  2
*D15
 70
     1
 10
0.0
 20
0.0
 30
0.0
  3
*D15
  1

  0
LINE
  5
3E09
330
35CE
100
AcDbEntity
  8
AM_REFDIM
100
AcDbLine
 10
570.0256260028545
 20
-6.602615122805275
 30
0.0
 11
554.0337801082849
 21
-6.60261512280527
 31
0.0
  0
LINE
  5
3E0A
330
35CE
100
AcDbEntity
  8
AM_REFDIM
100
AcDbLine
 10
577.0256260028545
 20
-2.602615122805275
 30
0.0
 11
554.0337801082849
 21
-2.602615122805268
 31
0.0
  0
LINE
  5
3E0B
330
35CE
100
AcDbEntity
  8
AM_REFDIM
100
AcDbLine
 10
555.4337801082848
 20
-8.702615122805269
 30
0.0
 11
555.4337801082848
 21
-10.80261512280527
 31
0.0
  0
LINE
  5
3E0C
330
35CE
100
AcDbEntity
  8
AM_REFDIM
100
AcDbLine
 10
555.4337801082848
 20
-0.5026151228052695
 30
0.0
 11
555.4337801082848
 21
1.59738487719473
 31
0.0
  0
LINE
  5
3E0D
330
35CE
100
AcDbEntity
  8
AM_REFDIM
100
AcDbLine
 10
555.4337801082848
 20
-6.60261512280527
 30
0.0
 11
555.4337801082848
 21
-2.602615122805269
 31
0.0
  0
SOLID
  5
3E0E
330
35CE
100
AcDbEntity
  8
AM_REFDIM
100
AcDbTrace
 10
555.0837801082848
 20
-8.702615122805269
 30
0.0
 11
555.7837801082849
 21
-8.702615122805269
 31
0.0
 12
555.4337801082848
 22
-6.60261512280527
 32
0.0
 13
555.4337801082848
 23
-6.60261512280527
 33
0.0
  0
SOLID
  5
3E0F
330
35CE
100
AcDbEntity
  8
AM_REFDIM
100
AcDbTrace
 10
555.0837801082848
 20
-0.5026151228052694
 30
0.0
 11
555.7837801082849
 21
-0.5026151228052696
 31
0.0
 12
555.4337801082848
 22
-2.602615122805269
 32
0.0
 13
555.4337801082848
 23
-2.602615122805269
 33
0.0
  0
MTEXT
  5
3E10
330
35CE
100
AcDbEntity
  8
AM_REFDIM
100
AcDbMText
 10
553.8237801082848
 20
-4.60261512280518
 30
0.0
 40
2.099999999999999
 41
0.0
 71
     5
 72
     1
  1
\A1;4
  7
CHINESET
 11
0.0000000000000001
 21
1.0
 31
0.0
 73
     1
 44
1.0
1001
ACAD
1000
MTEXTBEGIN
1070
    73
1070
     1
1070
    44
1040
1.0
1070
    74
1070
     0
1000
MTEXTEND
  0
POINT
  5
3E11
330
35CE
100
AcDbEntity
  8
Defpoints
 62
     0
100
AcDbPoint
 10
571.0756260028545
 20
-6.602615122805275
 30
0.0
  0
POINT
  5
3E12
330
35CE
100
AcDbEntity
  8
Defpoints
 62
     0
100
AcDbPoint
 10
578.0756260028545
 20
-2.602615122805275
 30
0.0
  0
POINT
  5
3E13
330
35CE
100
AcDbEntity
  8
Defpoints
 62
     0
100
AcDbPoint
 10
555.4337801082848
 20
-2.602615122805269
 30
0.0
  0
ENDBLK
  5
35DB
330
35CE
100
AcDbEntity
  8
0
100
AcDbBlockEnd
  0
BLOCK
  5
35E6
330
35DC
100
AcDbEntity
  8
0
100
AcDbBlockBegin
  2
*D16
 70
     1
 10
0.0
 20
0.0
 30
0.0
  3
*D16
  1

  0
LINE
  5
42F6
330
35DC
100
AcDbEntity
  8
AM_REFDIM
100
AcDbLine
 10
578.4256260028545
 20
-8.702615122805269
 30
0.0
 11
557.5337801082849
 21
-8.702615122805264
 31
0.0
  0
LINE
  5
42F7
330
35DC
100
AcDbEntity
  8
AM_REFDIM
100
AcDbLine
 10
571.4256260028545
 20
-0.5026151228052808
 30
0.0
 11
557.5337801082849
 21
-0.5026151228052769
 31
0.0
  0
LINE
  5
42F8
330
35DC
100
AcDbEntity
  8
AM_REFDIM
100
AcDbLine
 10
548.4337801082848
 20
-6.602615122805262
 30
0.0
 11
548.4337801082848
 21
-2.602615122805273
 31
0.0
  0
SOLID
  5
42F9
330
35DC
100
AcDbEntity
  8
AM_REFDIM
100
AcDbTrace
 10
548.0837801082848
 20
-6.602615122805262
 30
0.0
 11
548.7837801082848
 21
-6.602615122805262
 31
0.0
 12
548.4337801082848
 22
-8.702615122805262
 32
0.0
 13
548.4337801082848
 23
-8.702615122805262
 33
0.0
  0
SOLID
  5
42FA
330
35DC
100
AcDbEntity
  8
AM_REFDIM
100
AcDbTrace
 10
548.0837801082848
 20
-2.602615122805273
 30
0.0
 11
548.7837801082848
 21
-2.602615122805273
 31
0.0
 12
548.4337801082848
 22
-0.5026151228052744
 32
0.0
 13
548.4337801082848
 23
-0.5026151228052744
 33
0.0
  0
MTEXT
  5
42FB
330
35DC
100
AcDbEntity
  8
AM_REFDIM
100
AcDbMText
 10
546.8237801082848
 20
-4.602615122805179
 30
0.0
 40
2.099999999999999
 41
0.0
 71
     5
 72
     1
  1
\A1;8.2
  7
CHINESET
 11
0.0000000000000001
 21
1.0
 31
0.0
 73
     1
 44
1.0
1001
ACAD
1000
MTEXTBEGIN
1070
    73
1070
     1
1070
    44
1040
1.0
1070
    74
1070
     0
1000
MTEXTEND
  0
POINT
  5
42FC
330
35DC
100
AcDbEntity
  8
Defpoints
 62
     0
100
AcDbPoint
 10
579.4756260028544
 20
-8.702615122805269
 30
0.0
  0
POINT
  5
42FD
330
35DC
100
AcDbEntity
  8
Defpoints
 62
     0
100
AcDbPoint
 10
572.4756260028544
 20
-0.5026151228052811
 30
0.0
  0
POINT
  5
42FE
330
35DC
100
AcDbEntity
  8
Defpoints
 62
     0
100
AcDbPoint
 10
548.4337801082848
 20
-0.5026151228052744
 30
0.0
  0
LINE
  5
42FF
330
35DC
100
AcDbEntity
  8
AM_REFDIM
100
AcDbLine
 10
553.3337801082848
 20
-8.702615122805262
 30
0.0
 11
547.0337801082848
 21
-8.70261512280526
 31
0.0
  0
LINE
  5
4300
330
35DC
100
AcDbEntity
  8
AM_REFDIM
100
AcDbLine
 10
553.3337801082848
 20
-0.5026151228052757
 30
0.0
 11
547.0337801082848
 21
-0.5026151228052739
 31
0.0
  0
ENDBLK
  5
35E7
330
35DC
100
AcDbEntity
  8
0
100
AcDbBlockEnd
  0
BLOCK
  5
35F2
330
35E8
100
AcDbEntity
  8
0
100
AcDbBlockBegin
  2
*D17
 70
     1
 10
0.0
 20
0.0
 30
0.0
  3
*D17
  1

  0
LINE
  5
40FC
330
35E8
100
AcDbEntity
  8
AM_REFDIM
100
AcDbLine
 10
575.6756260028545
 20
3.747384877194707
 30
0.0
 11
575.6756260028545
 21
8.797384877194724
 31
0.0
  0
LINE
  5
40FD
330
35E8
100
AcDbEntity
  8
AM_REFDIM
100
AcDbLine
 10
561.1756260028545
 20
1.447384877194695
 30
0.0
 11
561.1756260028545
 21
8.797384877194724
 31
0.0
  0
LINE
  5
40FE
330
35E8
100
AcDbEntity
  8
AM_REFDIM
100
AcDbLine
 10
573.5756260028544
 20
7.397384877194724
 30
0.0
 11
563.2756260028545
 21
7.397384877194724
 31
0.0
  0
SOLID
  5
40FF
330
35E8
100
AcDbEntity
  8
AM_REFDIM
100
AcDbTrace
 10
573.5756260028544
 20
7.747384877194724
 30
0.0
 11
573.5756260028544
 21
7.047384877194724
 31
0.0
 12
575.6756260028545
 22
7.397384877194724
 32
0.0
 13
575.6756260028545
 23
7.397384877194724
 33
0.0
  0
SOLID
  5
4100
330
35E8
100
AcDbEntity
  8
AM_REFDIM
100
AcDbTrace
 10
563.2756260028545
 20
7.747384877194724
 30
0.0
 11
563.2756260028545
 21
7.047384877194724
 31
0.0
 12
561.1756260028545
 22
7.397384877194724
 32
0.0
 13
561.1756260028545
 23
7.397384877194724
 33
0.0
  0
MTEXT
  5
4101
330
35E8
100
AcDbEntity
  8
AM_REFDIM
100
AcDbMText
 10
568.4256260028545
 20
9.007384877194724
 30
0.0
 40
2.099999999999999
 41
0.0
 71
     5
 72
     1
  1
\A1;14.5
  7
CHINESET
 73
     1
 44
1.0
1001
ACAD
1000
MTEXTBEGIN
1070
    73
1070
     1
1070
    44
1040
1.0
1070
    74
1070
     0
1000
MTEXTEND
  0
POINT
  5
4102
330
35E8
100
AcDbEntity
  8
Defpoints
 62
     0
100
AcDbPoint
 10
575.6756260028545
 20
2.697384877194707
 30
0.0
  0
POINT
  5
4103
330
35E8
100
AcDbEntity
  8
Defpoints
 62
     0
100
AcDbPoint
 10
561.1756260028545
 20
0.3973848771946962
 30
0.0
  0
POINT
  5
4104
330
35E8
100
AcDbEntity
  8
Defpoints
 62
     0
100
AcDbPoint
 10
561.1756260028545
 20
7.397384877194724
 30
0.0
  0
ENDBLK
  5
35F3
330
35E8
100
AcDbEntity
  8
0
100
AcDbBlockEnd
  0
BLOCK
  5
3600
330
35F4
100
AcDbEntity
  8
0
100
AcDbBlockBegin
  2
*D18
 70
     1
 10
0.0
 20
0.0
 30
0.0
  3
*D18
  1

  0
LINE
  5
4105
330
35F4
100
AcDbEntity
  8
AM_REFDIM
100
AcDbLine
 10
575.6756260028545
 20
3.747384877194707
 30
0.0
 11
575.6756260028545
 21
8.797384877194724
 31
0.0
  0
LINE
  5
4106
330
35F4
100
AcDbEntity
  8
AM_REFDIM
100
AcDbLine
 10
582.6756260028544
 20
-4.452615122805281
 30
0.0
 11
582.6756260028544
 21
8.797384877194724
 31
0.0
  0
LINE
  5
4107
330
35F4
100
AcDbEntity
  8
AM_REFDIM
100
AcDbLine
 10
577.7756260028545
 20
7.397384877194724
 30
0.0
 11
580.5756260028545
 21
7.397384877194724
 31
0.0
  0
SOLID
  5
4108
330
35F4
100
AcDbEntity
  8
AM_REFDIM
100
AcDbTrace
 10
577.7756260028545
 20
7.747384877194724
 30
0.0
 11
577.7756260028545
 21
7.047384877194724
 31
0.0
 12
575.6756260028545
 22
7.397384877194724
 32
0.0
 13
575.6756260028545
 23
7.397384877194724
 33
0.0
  0
SOLID
  5
4109
330
35F4
100
AcDbEntity
  8
AM_REFDIM
100
AcDbTrace
 10
580.5756260028545
 20
7.747384877194724
 30
0.0
 11
580.5756260028545
 21
7.047384877194724
 31
0.0
 12
582.6756260028544
 22
7.397384877194724
 32
0.0
 13
582.6756260028544
 23
7.397384877194724
 33
0.0
  0
MTEXT
  5
410A
330
35F4
100
AcDbEntity
  8
AM_REFDIM
100
AcDbMText
 10
579.1756260028545
 20
9.007384877194724
 30
0.0
 40
2.099999999999999
 41
0.0
 71
     5
 72
     1
  1
\A1;7
  7
CHINESET
 73
     1
 44
1.0
1001
ACAD
1000
MTEXTBEGIN
1070
    73
1070
     1
1070
    44
1040
1.0
1070
    74
1070
     0
1000
MTEXTEND
  0
POINT
  5
410B
330
35F4
100
AcDbEntity
  8
Defpoints
 62
     0
100
AcDbPoint
 10
575.6756260028545
 20
2.697384877194707
 30
0.0
  0
POINT
  5
410C
330
35F4
100
AcDbEntity
  8
Defpoints
 62
     0
100
AcDbPoint
 10
582.6756260028544
 20
-5.502615122805281
 30
0.0
  0
POINT
  5
410D
330
35F4
100
AcDbEntity
  8
Defpoints
 62
     0
100
AcDbPoint
 10
582.6756260028544
 20
7.397384877194724
 30
0.0
  0
ENDBLK
  5
3601
330
35F4
100
AcDbEntity
  8
0
100
AcDbBlockEnd
  0
BLOCK
  5
3624
330
361A
100
AcDbEntity
  8
0
100
AcDbBlockBegin
  2
*D20
 70
     1
 10
0.0
 20
0.0
 30
0.0
  3
*D20
  1

  0
LINE
  5
42DC
330
361A
100
AcDbEntity
  8
AM_REFDIM
100
AcDbLine
 10
560.1256260028545
 20
-9.602615122805303
 30
0.0
 11
557.1837801082848
 21
-9.602615122805303
 31
0.0
  0
LINE
  5
42DD
330
361A
100
AcDbEntity
  8
AM_REFDIM
100
AcDbLine
 10
560.1256260028545
 20
0.3973848771946964
 30
0.0
 11
557.1837801082848
 21
0.3973848771946973
 31
0.0
  0
LINE
  5
42DE
330
361A
100
AcDbEntity
  8
AM_REFDIM
100
AcDbLine
 10
541.4337801082848
 20
-7.502615122805297
 30
0.0
 11
541.4337801082848
 21
-1.702615122805297
 31
0.0
  0
SOLID
  5
42DF
330
361A
100
AcDbEntity
  8
AM_REFDIM
100
AcDbTrace
 10
541.0837801082847
 20
-7.502615122805297
 30
0.0
 11
541.7837801082848
 21
-7.502615122805297
 31
0.0
 12
541.4337801082848
 22
-9.602615122805298
 32
0.0
 13
541.4337801082848
 23
-9.602615122805298
 33
0.0
  0
SOLID
  5
42E0
330
361A
100
AcDbEntity
  8
AM_REFDIM
100
AcDbTrace
 10
541.0837801082847
 20
-1.702615122805297
 30
0.0
 11
541.7837801082848
 21
-1.702615122805297
 31
0.0
 12
541.4337801082848
 22
0.3973848771947018
 32
0.0
 13
541.4337801082848
 23
0.3973848771947018
 33
0.0
  0
MTEXT
  5
42E1
330
361A
100
AcDbEntity
  8
AM_REFDIM
100
AcDbMText
 10
539.8237801082848
 20
-4.60261512280521
 30
0.0
 40
2.099999999999999
 41
0.0
 71
     5
 72
     1
  1
\A1;10
  7
CHINESET
 11
0.0000000000000001
 21
1.0
 31
0.0
 73
     1
 44
1.0
1001
ACAD
1000
MTEXTBEGIN
1070
    73
1070
     1
1070
    44
1040
1.0
1070
    74
1070
     0
1000
MTEXTEND
  0
POINT
  5
42E2
330
361A
100
AcDbEntity
  8
Defpoints
 62
     0
100
AcDbPoint
 10
561.1756260028545
 20
-9.602615122805303
 30
0.0
  0
POINT
  5
42E3
330
361A
100
AcDbEntity
  8
Defpoints
 62
     0
100
AcDbPoint
 10
561.1756260028545
 20
0.3973848771946962
 30
0.0
  0
POINT
  5
42E4
330
361A
100
AcDbEntity
  8
Defpoints
 62
     0
100
AcDbPoint
 10
541.4337801082848
 20
0.3973848771947018
 30
0.0
  0
LINE
  5
42E5
330
361A
100
AcDbEntity
  8
AM_REFDIM
100
AcDbLine
 10
553.6837801082848
 20
-9.602615122805302
 30
0.0
 11
540.0337801082848
 21
-9.602615122805298
 31
0.0
  0
LINE
  5
42E6
330
361A
100
AcDbEntity
  8
AM_REFDIM
100
AcDbLine
 10
553.6837801082848
 20
0.3973848771946983
 30
0.0
 11
540.0337801082848
 21
0.3973848771947022
 31
0.0
  0
ENDBLK
  5
3625
330
361A
100
AcDbEntity
  8
0
100
AcDbBlockEnd
  0
BLOCK
  5
36F2
330
36E9
100
AcDbEntity
  8
0
100
AcDbBlockBegin
  2
*D21
 70
     1
 10
0.0
 20
0.0
 30
0.0
  3
*D21
  1

  0
LINE
  5
43C3
330
36E9
100
AcDbEntity
  8
AM_REFDIM
100
AcDbLine
 10
587.1293858295412
 20
-101.0748875296462
 30
0.0
 11
597.3604660960813
 21
-91.5171978873465
 31
0.0
  0
LINE
  5
43C4
330
36E9
100
AcDbEntity
  8
AM_REFDIM
100
AcDbLine
 10
597.3604660960813
 20
-91.5171978873465
 30
0.0
 11
610.6569484188628
 21
-91.51719788734652
 31
0.0
  0
SOLID
  5
43C5
330
36E9
100
AcDbEntity
  8
AM_REFDIM
100
AcDbTrace
 10
586.8904584811893
 20
-100.8191264649596
 30
0.0
 11
587.3683131778928
 21
-101.3306485943327
 31
0.0
 12
585.5948194414216
 22
-102.5084516197567
 32
0.0
 13
585.5948194414216
 23
-102.5084516197567
 33
0.0
  0
MTEXT
  5
43C6
330
36E9
100
AcDbEntity
  8
AM_REFDIM
100
AcDbMText
 10
604.3587072574723
 20
-89.59219788734676
 30
0.0
 40
2.449999999999999
 41
0.0
 71
     5
 72
     1
  1
5-M3*0.5
 73
     1
 44
1.0
1001
ACAD
1000
MTEXTBEGIN
1070
    73
1070
     1
1070
    44
1040
1.0
1070
    74
1070
     0
1000
MTEXTEND
  0
POINT
  5
43C7
330
36E9
100
AcDbEntity
  8
Defpoints
 62
     0
100
AcDbPoint
 10
585.5948194414216
 20
-102.5084516197567
 30
0.0
  0
POINT
  5
43C8
330
36E9
100
AcDbEntity
  8
Defpoints
 62
     0
100
AcDbPoint
 10
583.256432564287
 20
-104.6929302332588
 30
0.0
  0
ENDBLK
  5
36F3
330
36E9
100
AcDbEntity
  8
0
100
AcDbBlockEnd
  0
BLOCK
  5
3913
330
3909
100
AcDbEntity
  8
0
100
AcDbBlockBegin
  2
*D22
 70
     1
 10
0.0
 20
0.0
 30
0.0
  3
*D22
  1

  0
LINE
  5
4370
330
3909
100
AcDbEntity
  8
AM_REFDIM
100
AcDbLine
 10
560.1256260028545
 20
-60.96327438061377
 30
0.0
 11
553.9446959475315
 21
-60.96327438061376
 31
0.0
  0
LINE
  5
4371
330
3909
100
AcDbEntity
  8
AM_REFDIM
100
AcDbLine
 10
560.1256260028545
 20
-45.96327438061377
 30
0.0
 11
553.9446959475315
 21
-45.96327438061376
 31
0.0
  0
LINE
  5
4372
330
3909
100
AcDbEntity
  8
AM_REFDIM
100
AcDbLine
 10
555.3446959475315
 20
-58.86327438061376
 30
0.0
 11
555.3446959475315
 21
-48.06327438061376
 31
0.0
  0
SOLID
  5
4373
330
3909
100
AcDbEntity
  8
AM_REFDIM
100
AcDbTrace
 10
554.9946959475314
 20
-58.86327438061376
 30
0.0
 11
555.6946959475315
 21
-58.86327438061376
 31
0.0
 12
555.3446959475315
 22
-60.96327438061376
 32
0.0
 13
555.3446959475315
 23
-60.96327438061376
 33
0.0
  0
SOLID
  5
4374
330
3909
100
AcDbEntity
  8
AM_REFDIM
100
AcDbTrace
 10
554.9946959475314
 20
-48.06327438061376
 30
0.0
 11
555.6946959475315
 21
-48.06327438061376
 31
0.0
 12
555.3446959475315
 22
-45.96327438061376
 32
0.0
 13
555.3446959475315
 23
-45.96327438061376
 33
0.0
  0
MTEXT
  5
4375
330
3909
100
AcDbEntity
  8
AM_REFDIM
100
AcDbMText
 10
553.7346959475314
 20
-53.46327438061368
 30
0.0
 40
2.099999999999999
 41
0.0
 71
     5
 72
     1
  1
\A1;15
  7
CHINESET
 11
0.0000000000000001
 21
1.0
 31
0.0
 73
     1
 44
1.0
1001
ACAD
1000
MTEXTBEGIN
1070
    73
1070
     1
1070
    44
1040
1.0
1070
    74
1070
     0
1000
MTEXTEND
  0
POINT
  5
4376
330
3909
100
AcDbEntity
  8
Defpoints
 62
     0
100
AcDbPoint
 10
561.1756260028545
 20
-60.96327438061377
 30
0.0
  0
POINT
  5
4377
330
3909
100
AcDbEntity
  8
Defpoints
 62
     0
100
AcDbPoint
 10
561.1756260028545
 20
-45.96327438061377
 30
0.0
  0
POINT
  5
4378
330
3909
100
AcDbEntity
  8
Defpoints
 62
     0
100
AcDbPoint
 10
555.3446959475315
 20
-45.96327438061376
 30
0.0
  0
ENDBLK
  5
3914
330
3909
100
AcDbEntity
  8
0
100
AcDbBlockEnd
  0
BLOCK
  5
393B
330
392F
100
AcDbEntity
  8
0
100
AcDbBlockBegin
  2
*D23
 70
     1
 10
0.0
 20
0.0
 30
0.0
  3
*D23
  1

  0
LINE
  5
4379
330
392F
100
AcDbEntity
  8
AM_REFDIM
100
AcDbLine
 10
585.3256260028543
 20
-47.36327438061386
 30
0.0
 11
587.9704168959675
 21
-47.36327438061386
 31
0.0
  0
LINE
  5
437A
330
392F
100
AcDbEntity
  8
AM_REFDIM
100
AcDbLine
 10
585.3256260028543
 20
-45.96327438061385
 30
0.0
 11
587.9704168959675
 21
-45.96327438061385
 31
0.0
  0
LINE
  5
437B
330
392F
100
AcDbEntity
  8
AM_REFDIM
100
AcDbLine
 10
586.5704168959675
 20
-49.46327438061386
 30
0.0
 11
586.5704168959675
 21
-51.56327438061386
 31
0.0
  0
LINE
  5
437C
330
392F
100
AcDbEntity
  8
AM_REFDIM
100
AcDbLine
 10
586.5704168959675
 20
-43.86327438061385
 30
0.0
 11
586.5704168959675
 21
-36.54327438061385
 31
0.0
  0
LINE
  5
437D
330
392F
100
AcDbEntity
  8
AM_REFDIM
100
AcDbLine
 10
586.5704168959675
 20
-47.36327438061386
 30
0.0
 11
586.5704168959675
 21
-45.96327438061385
 31
0.0
  0
SOLID
  5
437E
330
392F
100
AcDbEntity
  8
AM_REFDIM
100
AcDbTrace
 10
586.2204168959675
 20
-49.46327438061386
 30
0.0
 11
586.9204168959676
 21
-49.46327438061386
 31
0.0
 12
586.5704168959675
 22
-47.36327438061386
 32
0.0
 13
586.5704168959675
 23
-47.36327438061386
 33
0.0
  0
SOLID
  5
437F
330
392F
100
AcDbEntity
  8
AM_REFDIM
100
AcDbTrace
 10
586.2204168959675
 20
-43.86327438061385
 30
0.0
 11
586.9204168959676
 21
-43.86327438061385
 31
0.0
 12
586.5704168959675
 22
-45.96327438061385
 32
0.0
 13
586.5704168959675
 23
-45.96327438061385
 33
0.0
  0
MTEXT
  5
4380
330
392F
100
AcDbEntity
  8
AM_REFDIM
100
AcDbMText
 10
584.9604168959675
 20
-39.15327438061376
 30
0.0
 40
2.099999999999999
 41
0.0
 71
     5
 72
     1
  1
\A1;1.4
  7
CHINESET
 11
0.0000000000000001
 21
1.0
 31
0.0
 73
     1
 44
1.0
1001
ACAD
1000
MTEXTBEGIN
1070
    73
1070
     1
1070
    44
1040
1.0
1070
    74
1070
     0
1000
MTEXTEND
  0
POINT
  5
4381
330
392F
100
AcDbEntity
  8
Defpoints
 62
     0
100
AcDbPoint
 10
584.2756260028544
 20
-47.36327438061386
 30
0.0
  0
POINT
  5
4382
330
392F
100
AcDbEntity
  8
Defpoints
 62
     0
100
AcDbPoint
 10
584.2756260028544
 20
-45.96327438061385
 30
0.0
  0
POINT
  5
4383
330
392F
100
AcDbEntity
  8
Defpoints
 62
     0
100
AcDbPoint
 10
586.5704168959675
 20
-45.96327438061385
 30
0.0
  0
ENDBLK
  5
393C
330
392F
100
AcDbEntity
  8
0
100
AcDbBlockEnd
  0
BLOCK
  5
397B
330
3971
100
AcDbEntity
  8
0
100
AcDbBlockBegin
  2
*D24
 70
     1
 10
0.0
 20
0.0
 30
0.0
  3
*D24
  1

  0
LINE
  5
4384
330
3971
100
AcDbEntity
  8
AM_REFDIM
100
AcDbLine
 10
561.1756260028545
 20
-97.55069092650749
 30
0.0
 11
561.1756260028545
 21
-89.51630518800742
 31
0.0
  0
LINE
  5
4385
330
3971
100
AcDbEntity
  8
AM_REFDIM
100
AcDbLine
 10
577.4256260028545
 20
-99.70069092650753
 30
0.0
 11
577.4256260028545
 21
-89.51630518800742
 31
0.0
  0
LINE
  5
4386
330
3971
100
AcDbEntity
  8
AM_REFDIM
100
AcDbLine
 10
563.2756260028545
 20
-90.91630518800743
 30
0.0
 11
575.3256260028544
 21
-90.91630518800743
 31
0.0
  0
SOLID
  5
4387
330
3971
100
AcDbEntity
  8
AM_REFDIM
100
AcDbTrace
 10
563.2756260028545
 20
-90.56630518800742
 30
0.0
 11
563.2756260028545
 21
-91.26630518800743
 31
0.0
 12
561.1756260028545
 22
-90.91630518800743
 32
0.0
 13
561.1756260028545
 23
-90.91630518800743
 33
0.0
  0
SOLID
  5
4388
330
3971
100
AcDbEntity
  8
AM_REFDIM
100
AcDbTrace
 10
575.3256260028544
 20
-90.56630518800742
 30
0.0
 11
575.3256260028544
 21
-91.26630518800743
 31
0.0
 12
577.4256260028545
 22
-90.91630518800743
 32
0.0
 13
577.4256260028545
 23
-90.91630518800743
 33
0.0
  0
MTEXT
  5
4389
330
3971
100
AcDbEntity
  8
AM_REFDIM
100
AcDbMText
 10
569.3006260028545
 20
-89.30630518800743
 30
0.0
 40
2.099999999999999
 41
0.0
 71
     5
 72
     1
  1
\A1;16.25
  7
CHINESET
 73
     1
 44
1.0
1001
ACAD
1000
MTEXTBEGIN
1070
    73
1070
     1
1070
    44
1040
1.0
1070
    74
1070
     0
1000
MTEXTEND
  0
POINT
  5
438A
330
3971
100
AcDbEntity
  8
Defpoints
 62
     0
100
AcDbPoint
 10
561.1756260028545
 20
-98.6006909265075
 30
0.0
  0
POINT
  5
438B
330
3971
100
AcDbEntity
  8
Defpoints
 62
     0
100
AcDbPoint
 10
577.4256260028545
 20
-100.7506909265075
 30
0.0
  0
POINT
  5
438C
330
3971
100
AcDbEntity
  8
Defpoints
 62
     0
100
AcDbPoint
 10
577.4256260028545
 20
-90.91630518800743
 30
0.0
  0
ENDBLK
  5
397C
330
3971
100
AcDbEntity
  8
0
100
AcDbBlockEnd
  0
BLOCK
  5
39C7
330
39BD
100
AcDbEntity
  8
0
100
AcDbBlockBegin
  2
*D26
 70
     1
 10
0.0
 20
0.0
 30
0.0
  3
*D26
  1

  0
LINE
  5
438D
330
39BD
100
AcDbEntity
  8
AM_REFDIM
100
AcDbLine
 10
574.1256260028546
 20
-109.1006909265075
 30
0.0
 11
553.9446959475315
 21
-109.1006909265075
 31
0.0
  0
LINE
  5
438E
330
39BD
100
AcDbEntity
  8
AM_REFDIM
100
AcDbLine
 10
581.1256260028545
 20
-98.10069092650753
 30
0.0
 11
553.9446959475315
 21
-98.10069092650753
 31
0.0
  0
LINE
  5
438F
330
39BD
100
AcDbEntity
  8
AM_REFDIM
100
AcDbLine
 10
555.3446959475315
 20
-107.0006909265075
 30
0.0
 11
555.3446959475315
 21
-100.2006909265075
 31
0.0
  0
SOLID
  5
4390
330
39BD
100
AcDbEntity
  8
AM_REFDIM
100
AcDbTrace
 10
554.9946959475314
 20
-107.0006909265075
 30
0.0
 11
555.6946959475315
 21
-107.0006909265075
 31
0.0
 12
555.3446959475315
 22
-109.1006909265075
 32
0.0
 13
555.3446959475315
 23
-109.1006909265075
 33
0.0
  0
SOLID
  5
4391
330
39BD
100
AcDbEntity
  8
AM_REFDIM
100
AcDbTrace
 10
554.9946959475314
 20
-100.2006909265075
 30
0.0
 11
555.6946959475315
 21
-100.2006909265075
 31
0.0
 12
555.3446959475315
 22
-98.10069092650753
 32
0.0
 13
555.3446959475315
 23
-98.10069092650753
 33
0.0
  0
MTEXT
  5
4392
330
39BD
100
AcDbEntity
  8
AM_REFDIM
100
AcDbMText
 10
553.7346959475314
 20
-103.6006909265074
 30
0.0
 40
2.099999999999999
 41
0.0
 71
     5
 72
     1
  1
\A1;11
  7
CHINESET
 11
0.0000000000000001
 21
1.0
 31
0.0
 73
     1
 44
1.0
1001
ACAD
1000
MTEXTBEGIN
1070
    73
1070
     1
1070
    44
1040
1.0
1070
    74
1070
     0
1000
MTEXTEND
  0
POINT
  5
4393
330
39BD
100
AcDbEntity
  8
Defpoints
 62
     0
100
AcDbPoint
 10
575.1756260028545
 20
-109.1006909265075
 30
0.0
  0
POINT
  5
4394
330
39BD
100
AcDbEntity
  8
Defpoints
 62
     0
100
AcDbPoint
 10
582.1756260028545
 20
-98.10069092650753
 30
0.0
  0
POINT
  5
4395
330
39BD
100
AcDbEntity
  8
Defpoints
 62
     0
100
AcDbPoint
 10
555.3446959475315
 20
-98.10069092650753
 30
0.0
  0
ENDBLK
  5
39C8
330
39BD
100
AcDbEntity
  8
0
100
AcDbBlockEnd
  0
BLOCK
  5
3A66
330
3A5A
100
AcDbEntity
  8
0
100
AcDbBlockBegin
  2
*D27
 70
     1
 10
0.0
 20
0.0
 30
0.0
  3
*D27
  1

  0
LINE
  5
4396
330
3A5A
100
AcDbEntity
  8
AM_REFDIM
100
AcDbLine
 10
577.4256260028545
 20
-107.5006909265075
 30
0.0
 11
577.4256260028545
 21
-115.6639045648361
 31
0.0
  0
LINE
  5
4397
330
3A5A
100
AcDbEntity
  8
AM_REFDIM
100
AcDbLine
 10
584.4256260028545
 20
-107.5006909265075
 30
0.0
 11
584.4256260028545
 21
-115.6639045648361
 31
0.0
  0
LINE
  5
4398
330
3A5A
100
AcDbEntity
  8
AM_REFDIM
100
AcDbLine
 10
579.5256260028545
 20
-114.2639045648361
 30
0.0
 11
582.3256260028545
 21
-114.2639045648361
 31
0.0
  0
SOLID
  5
4399
330
3A5A
100
AcDbEntity
  8
AM_REFDIM
100
AcDbTrace
 10
579.5256260028545
 20
-113.9139045648361
 30
0.0
 11
579.5256260028545
 21
-114.6139045648361
 31
0.0
 12
577.4256260028545
 22
-114.2639045648361
 32
0.0
 13
577.4256260028545
 23
-114.2639045648361
 33
0.0
  0
SOLID
  5
439A
330
3A5A
100
AcDbEntity
  8
AM_REFDIM
100
AcDbTrace
 10
582.3256260028545
 20
-113.9139045648361
 30
0.0
 11
582.3256260028545
 21
-114.6139045648361
 31
0.0
 12
584.4256260028545
 22
-114.2639045648361
 32
0.0
 13
584.4256260028545
 23
-114.2639045648361
 33
0.0
  0
MTEXT
  5
439B
330
3A5A
100
AcDbEntity
  8
AM_REFDIM
100
AcDbMText
 10
580.9256260028545
 20
-112.6539045648361
 30
0.0
 40
2.099999999999999
 41
0.0
 71
     5
 72
     1
  1
\A1;7
  7
CHINESET
 73
     1
 44
1.0
1001
ACAD
1000
MTEXTBEGIN
1070
    73
1070
     1
1070
    44
1040
1.0
1070
    74
1070
     0
1000
MTEXTEND
  0
POINT
  5
439C
330
3A5A
100
AcDbEntity
  8
Defpoints
 62
     0
100
AcDbPoint
 10
577.4256260028545
 20
-106.4506909265075
 30
0.0
  0
POINT
  5
439D
330
3A5A
100
AcDbEntity
  8
Defpoints
 62
     0
100
AcDbPoint
 10
584.4256260028545
 20
-106.4506909265075
 30
0.0
  0
POINT
  5
439E
330
3A5A
100
AcDbEntity
  8
Defpoints
 62
     0
100
AcDbPoint
 10
584.4256260028545
 20
-114.2639045648361
 30
0.0
  0
ENDBLK
  5
3A67
330
3A5A
100
AcDbEntity
  8
0
100
AcDbBlockEnd
  0
BLOCK
  5
3A82
330
3A76
100
AcDbEntity
  8
0
100
AcDbBlockBegin
  2
*D28
 70
     1
 10
0.0
 20
0.0
 30
0.0
  3
*D28
  1

  0
LINE
  5
439F
330
3A76
100
AcDbEntity
  8
AM_REFDIM
100
AcDbLine
 10
570.4256260028545
 20
-107.5006909265075
 30
0.0
 11
570.4256260028545
 21
-115.6639045648361
 31
0.0
  0
LINE
  5
43A0
330
3A76
100
AcDbEntity
  8
AM_REFDIM
100
AcDbLine
 10
577.4256260028545
 20
-107.5006909265075
 30
0.0
 11
577.4256260028545
 21
-115.6639045648361
 31
0.0
  0
LINE
  5
43A1
330
3A76
100
AcDbEntity
  8
AM_REFDIM
100
AcDbLine
 10
572.5256260028545
 20
-114.2639045648361
 30
0.0
 11
575.3256260028544
 21
-114.2639045648361
 31
0.0
  0
SOLID
  5
43A2
330
3A76
100
AcDbEntity
  8
AM_REFDIM
100
AcDbTrace
 10
572.5256260028545
 20
-113.9139045648361
 30
0.0
 11
572.5256260028545
 21
-114.6139045648361
 31
0.0
 12
570.4256260028545
 22
-114.2639045648361
 32
0.0
 13
570.4256260028545
 23
-114.2639045648361
 33
0.0
  0
SOLID
  5
43A3
330
3A76
100
AcDbEntity
  8
AM_REFDIM
100
AcDbTrace
 10
575.3256260028544
 20
-113.9139045648361
 30
0.0
 11
575.3256260028544
 21
-114.6139045648361
 31
0.0
 12
577.4256260028545
 22
-114.2639045648361
 32
0.0
 13
577.4256260028545
 23
-114.2639045648361
 33
0.0
  0
MTEXT
  5
43A4
330
3A76
100
AcDbEntity
  8
AM_REFDIM
100
AcDbMText
 10
573.9256260028545
 20
-112.6539045648361
 30
0.0
 40
2.099999999999999
 41
0.0
 71
     5
 72
     1
  1
\A1;7
  7
CHINESET
 73
     1
 44
1.0
1001
ACAD
1000
MTEXTBEGIN
1070
    73
1070
     1
1070
    44
1040
1.0
1070
    74
1070
     0
1000
MTEXTEND
  0
POINT
  5
43A5
330
3A76
100
AcDbEntity
  8
Defpoints
 62
     0
100
AcDbPoint
 10
570.4256260028545
 20
-106.4506909265075
 30
0.0
  0
POINT
  5
43A6
330
3A76
100
AcDbEntity
  8
Defpoints
 62
     0
100
AcDbPoint
 10
577.4256260028545
 20
-106.4506909265075
 30
0.0
  0
POINT
  5
43A7
330
3A76
100
AcDbEntity
  8
Defpoints
 62
     0
100
AcDbPoint
 10
577.4256260028545
 20
-114.2639045648361
 30
0.0
  0
ENDBLK
  5
3A83
330
3A76
100
AcDbEntity
  8
0
100
AcDbBlockEnd
  0
BLOCK
  5
3B1C
330
3B12
100
AcDbEntity
  8
0
100
AcDbBlockBegin
  2
*D29
 70
     1
 10
0.0
 20
0.0
 30
0.0
  3
*D29
  1

  0
LINE
  5
43C9
330
3B12
100
AcDbEntity
  8
AM_REFDIM
100
AcDbLine
 10
639.9069239700435
 20
-33.46327438061388
 30
0.0
 11
632.0127664063611
 21
-33.46327438061388
 31
0.0
  0
LINE
  5
43CA
330
3B12
100
AcDbEntity
  8
AM_REFDIM
100
AcDbLine
 10
639.4069239700436
 20
-60.96327438061385
 30
0.0
 11
632.0127664063611
 21
-60.96327438061385
 31
0.0
  0
LINE
  5
43CB
330
3B12
100
AcDbEntity
  8
AM_REFDIM
100
AcDbLine
 10
633.4127664063611
 20
-35.56327438061388
 30
0.0
 11
633.4127664063611
 21
-58.86327438061385
 31
0.0
  0
SOLID
  5
43CC
330
3B12
100
AcDbEntity
  8
AM_REFDIM
100
AcDbTrace
 10
633.062766406361
 20
-35.56327438061388
 30
0.0
 11
633.7627664063611
 21
-35.56327438061388
 31
0.0
 12
633.4127664063611
 22
-33.46327438061388
 32
0.0
 13
633.4127664063611
 23
-33.46327438061388
 33
0.0
  0
SOLID
  5
43CD
330
3B12
100
AcDbEntity
  8
AM_REFDIM
100
AcDbTrace
 10
633.062766406361
 20
-58.86327438061385
 30
0.0
 11
633.7627664063611
 21
-58.86327438061385
 31
0.0
 12
633.4127664063611
 22
-60.96327438061385
 32
0.0
 13
633.4127664063611
 23
-60.96327438061385
 33
0.0
  0
MTEXT
  5
43CE
330
3B12
100
AcDbEntity
  8
AM_REFDIM
100
AcDbMText
 10
631.8027664063611
 20
-47.21327438061376
 30
0.0
 40
2.099999999999999
 41
0.0
 71
     5
 72
     1
  1
\A1;27.5
  7
CHINESET
 11
0.0000000000000001
 21
1.0
 31
0.0
 73
     1
 44
1.0
1001
ACAD
1000
MTEXTBEGIN
1070
    73
1070
     1
1070
    44
1040
1.0
1070
    74
1070
     0
1000
MTEXTEND
  0
POINT
  5
43CF
330
3B12
100
AcDbEntity
  8
Defpoints
 62
     0
100
AcDbPoint
 10
640.9569239700434
 20
-33.46327438061388
 30
0.0
  0
POINT
  5
43D0
330
3B12
100
AcDbEntity
  8
Defpoints
 62
     0
100
AcDbPoint
 10
640.4569239700435
 20
-60.96327438061385
 30
0.0
  0
POINT
  5
43D1
330
3B12
100
AcDbEntity
  8
Defpoints
 62
     0
100
AcDbPoint
 10
633.4127664063611
 20
-60.96327438061385
 30
0.0
  0
ENDBLK
  5
3B1D
330
3B12
100
AcDbEntity
  8
0
100
AcDbBlockEnd
  0
BLOCK
  5
3E8D
330
3E83
100
AcDbEntity
  8
0
100
AcDbBlockBegin
  2
*D30
 70
     1
 10
0.0
 20
0.0
 30
0.0
  3
*D30
  1

  0
LINE
  5
43B1
330
3E83
100
AcDbEntity
  8
AM_REFDIM
100
AcDbLine
 10
561.1756260028545
 20
-62.01327438061376
 30
0.0
 11
561.1756260028545
 21
-70.52607925741532
 31
0.0
  0
LINE
  5
43B2
330
3E83
100
AcDbEntity
  8
AM_REFDIM
100
AcDbLine
 10
611.7256260028544
 20
-62.01327438061388
 30
0.0
 11
611.7256260028544
 21
-70.52607925741532
 31
0.0
  0
LINE
  5
43B3
330
3E83
100
AcDbEntity
  8
AM_REFDIM
100
AcDbLine
 10
563.2756260028545
 20
-69.12607925741531
 30
0.0
 11
609.6256260028544
 21
-69.12607925741531
 31
0.0
  0
SOLID
  5
43B4
330
3E83
100
AcDbEntity
  8
AM_REFDIM
100
AcDbTrace
 10
563.2756260028545
 20
-68.77607925741532
 30
0.0
 11
563.2756260028545
 21
-69.47607925741531
 31
0.0
 12
561.1756260028545
 22
-69.12607925741531
 32
0.0
 13
561.1756260028545
 23
-69.12607925741531
 33
0.0
  0
SOLID
  5
43B5
330
3E83
100
AcDbEntity
  8
AM_REFDIM
100
AcDbTrace
 10
609.6256260028544
 20
-68.77607925741532
 30
0.0
 11
609.6256260028544
 21
-69.47607925741531
 31
0.0
 12
611.7256260028544
 22
-69.12607925741531
 32
0.0
 13
611.7256260028544
 23
-69.12607925741531
 33
0.0
  0
MTEXT
  5
43B6
330
3E83
100
AcDbEntity
  8
AM_REFDIM
100
AcDbMText
 10
586.4506260028544
 20
-67.51607925741531
 30
0.0
 40
2.099999999999999
 41
0.0
 71
     5
 72
     1
  1
\A1;50.55
  7
CHINESET
 73
     1
 44
1.0
1001
ACAD
1000
MTEXTBEGIN
1070
    73
1070
     1
1070
    44
1040
1.0
1070
    74
1070
     0
1000
MTEXTEND
  0
POINT
  5
43B7
330
3E83
100
AcDbEntity
  8
Defpoints
 62
     0
100
AcDbPoint
 10
561.1756260028545
 20
-60.96327438061377
 30
0.0
  0
POINT
  5
43B8
330
3E83
100
AcDbEntity
  8
Defpoints
 62
     0
100
AcDbPoint
 10
611.7256260028544
 20
-60.96327438061388
 30
0.0
  0
POINT
  5
43B9
330
3E83
100
AcDbEntity
  8
Defpoints
 62
     0
100
AcDbPoint
 10
611.7256260028544
 20
-69.12607925741531
 30
0.0
  0
ENDBLK
  5
3E8E
330
3E83
100
AcDbEntity
  8
0
100
AcDbBlockEnd
  0
BLOCK
  5
427B
330
4271
100
AcDbEntity
  8
0
100
AcDbBlockBegin
  2
*D33
 70
     1
 10
0.0
 20
0.0
 30
0.0
  3
*D33
  1

  0
LINE
  5
43BA
330
4271
100
AcDbEntity
  8
AM_REFDIM
100
AcDbLine
 10
561.1756260028545
 20
-62.01327438061376
 30
0.0
 11
561.1756260028545
 21
-77.52607925741529
 31
0.0
  0
LINE
  5
43BB
330
4271
100
AcDbEntity
  8
AM_REFDIM
100
AcDbLine
 10
621.2256260028545
 20
-43.61327438061384
 30
0.0
 11
621.2256260028545
 21
-77.52607925741529
 31
0.0
  0
LINE
  5
43BC
330
4271
100
AcDbEntity
  8
AM_REFDIM
100
AcDbLine
 10
563.2756260028545
 20
-76.12607925741528
 30
0.0
 11
619.1256260028544
 21
-76.12607925741528
 31
0.0
  0
SOLID
  5
43BD
330
4271
100
AcDbEntity
  8
AM_REFDIM
100
AcDbTrace
 10
563.2756260028545
 20
-75.77607925741529
 30
0.0
 11
563.2756260028545
 21
-76.47607925741528
 31
0.0
 12
561.1756260028545
 22
-76.12607925741528
 32
0.0
 13
561.1756260028545
 23
-76.12607925741528
 33
0.0
  0
SOLID
  5
43BE
330
4271
100
AcDbEntity
  8
AM_REFDIM
100
AcDbTrace
 10
619.1256260028544
 20
-75.77607925741529
 30
0.0
 11
619.1256260028544
 21
-76.47607925741528
 31
0.0
 12
621.2256260028545
 22
-76.12607925741528
 32
0.0
 13
621.2256260028545
 23
-76.12607925741528
 33
0.0
  0
MTEXT
  5
43BF
330
4271
100
AcDbEntity
  8
AM_REFDIM
100
AcDbMText
 10
591.2006260028545
 20
-74.51607925741528
 30
0.0
 40
2.099999999999999
 41
0.0
 71
     5
 72
     1
  1
\A1;60.05
  7
CHINESET
 73
     1
 44
1.0
1001
ACAD
1000
MTEXTBEGIN
1070
    73
1070
     1
1070
    44
1040
1.0
1070
    74
1070
     0
1000
MTEXTEND
  0
POINT
  5
43C0
330
4271
100
AcDbEntity
  8
Defpoints
 62
     0
100
AcDbPoint
 10
561.1756260028545
 20
-60.96327438061377
 30
0.0
  0
POINT
  5
43C1
330
4271
100
AcDbEntity
  8
Defpoints
 62
     0
100
AcDbPoint
 10
621.2256260028545
 20
-42.56327438061385
 30
0.0
  0
POINT
  5
43C2
330
4271
100
AcDbEntity
  8
Defpoints
 62
     0
100
AcDbPoint
 10
621.2256260028545
 20
-76.12607925741528
 30
0.0
  0
ENDBLK
  5
427C
330
4271
100
AcDbEntity
  8
0
100
AcDbBlockEnd
  0
ENDSEC
  0
SECTION
  2
ENTITIES
  0
POINT
  5
25
330
2
100
AcDbEntity
  8
0
 60
     1
100
AcDbPoint
 10
0.0
 20
0.0
 30
0.0
  0
POINT
  5
26
330
2
100
AcDbEntity
  8
0
 60
     1
100
AcDbPoint
 10
0.0
 20
0.0
 30
0.0
  0
POINT
  5
27
330
2
100
AcDbEntity
  8
0
 60
     1
100
AcDbPoint
 10
0.0
 20
0.0
 30
0.0
  0
POINT
  5
28
330
2
100
AcDbEntity
  8
0
 60
     1
100
AcDbPoint
 10
0.0
 20
0.0
 30
0.0
  0
POINT
  5
29
330
2
100
AcDbEntity
  8
0
 60
     1
100
AcDbPoint
 10
0.0
 20
0.0
 30
0.0
  0
POINT
  5
2A
330
2
100
AcDbEntity
  8
0
 60
     1
100
AcDbPoint
 10
0.0
 20
0.0
 30
0.0
  0
POINT
  5
2B
330
2
100
AcDbEntity
  8
0
 60
     1
100
AcDbPoint
 10
0.0
 20
0.0
 30
0.0
  0
POINT
  5
2C
330
2
100
AcDbEntity
  8
0
 60
     1
100
AcDbPoint
 10
0.0
 20
0.0
 30
0.0
  0
POINT
  5
2D
330
2
100
AcDbEntity
  8
0
 60
     1
100
AcDbPoint
 10
0.0
 20
0.0
 30
0.0
  0
POINT
  5
2E
330
2
100
AcDbEntity
  8
0
 60
     1
100
AcDbPoint
 10
0.0
 20
0.0
 30
0.0
  0
POINT
  5
2F
330
2
100
AcDbEntity
  8
0
 60
     1
100
AcDbPoint
 10
0.0
 20
0.0
 30
0.0
  0
POINT
  5
30
330
2
100
AcDbEntity
  8
0
 60
     1
100
AcDbPoint
 10
0.0
 20
0.0
 30
0.0
  0
DIMENSION
  5
31
330
2
100
AcDbEntity
  8
AM_PARDIM
 60
     1
100
AcDbDimension
  2
*D1
 10
114.5325708695175
 20
128.6938113892625
 30
0.0
 11
111.7822263813285
 21
122.4438113892625
 31
0.0
 70
    32
  1
<>
 71
     5
 42
12.50000000000001
  3
AM_ISO$0
100
AcDbAlignedDimension
 13
75.37464887656421
 23
116.1938113892625
 33
0.0
 14
75.37464887656421
 24
128.6938113892625
 34
0.0
 50
90.0
100
AcDbRotatedDimension
1001
ACAD_DIMASSOC_CALC_DIMLFAC
1040
-1.0
1001
AD_SKETCHDIM
1005
0
1000
d0
1001
ACAD_DIMASSOC_DIMLFAC
1040
-1.0
1001
ACAD
1000
DSTYLE
1002
{
1070
   144
1040
-1.0
1002
}
  0
DIMENSION
  5
43
330
2
100
AcDbEntity
  8
AM_PARDIM
 60
     1
100
AcDbDimension
  2
*D2
 10
26.87464887656421
 20
122.1938113892625
 30
0.0
 11
24.12464887656419
 21
119.1938113892625
 31
0.0
 70
    32
  1
<>
 71
     5
 42
6.0
  3
AM_ISO$0
100
AcDbAlignedDimension
 13
38.87464887656421
 23
116.1938113892625
 33
0.0
 14
38.87464887656421
 24
122.1938113892625
 34
0.0
 50
90.0
100
AcDbRotatedDimension
1001
ACAD_DIMASSOC_CALC_DIMLFAC
1040
-1.0
1001
AD_SKETCHDIM
1005
0
1000
d1
1001
ACAD_DIMASSOC_DIMLFAC
1040
-1.0
1001
ACAD
1000
DSTYLE
1002
{
1070
   144
1040
-1.0
1002
}
  0
DIMENSION
  5
52
330
2
100
AcDbEntity
  8
AM_PARDIM
 60
     1
100
AcDbDimension
  2
*D3
 10
50.87464887656421
 20
140.6938113892625
 30
0.0
 11
44.87464887656421
 21
143.4441558774515
 31
0.0
 70
    32
  1
<>
 71
     5
 42
12.0
  3
AM_ISO$0
100
AcDbAlignedDimension
 13
38.87464887656421
 23
122.1938113892625
 33
0.0
 14
50.87464887656421
 24
122.1938113892625
 34
0.0
100
AcDbRotatedDimension
1001
ACAD_DIMASSOC_CALC_DIMLFAC
1040
-1.0
1001
AD_SKETCHDIM
1005
0
1000
d2
1001
ACAD_DIMASSOC_DIMLFAC
1040
-1.0
1001
ACAD
1000
DSTYLE
1002
{
1070
   144
1040
-1.0
1002
}
  0
DIMENSION
  5
5F
330
2
100
AcDbEntity
  8
AM_PARDIM
 60
     1
100
AcDbDimension
  2
*D4
 10
75.37464887656421
 20
160.6938113892625
 30
0.0
 11
57.12464887656421
 21
163.4438113892625
 31
0.0
 70
    32
  1
<>
 71
     5
 42
36.5
  3
AM_ISO$0
100
AcDbAlignedDimension
 13
38.87464887656421
 23
116.1938113892625
 33
0.0
 14
75.37464887656421
 24
116.1938113892625
 34
0.0
100
AcDbRotatedDimension
1001
ACAD_DIMASSOC_CALC_DIMLFAC
1040
-1.0
1001
AD_SKETCHDIM
1005
0
1000
d3
1001
ACAD_DIMASSOC_DIMLFAC
1040
-1.0
1001
ACAD
1000
DSTYLE
1002
{
1070
   144
1040
-1.0
1002
}
  0
DIMENSION
  5
6C
330
2
100
AcDbEntity
  8
AM_PARDIM
 60
     1
100
AcDbDimension
  2
*D5
 10
104.5325708695175
 20
116.1938113892625
 30
0.0
 11
101.7825708695175
 21
121.6938113892625
 31
0.0
 70
    32
  1
<>
 71
     5
 42
11.0
  3
AM_ISO$0
100
AcDbAlignedDimension
 13
50.87464887656421
 23
127.1938113892625
 33
0.0
 14
75.37464887656421
 24
116.1938113892625
 34
0.0
 50
90.0
100
AcDbRotatedDimension
1001
ACAD_DIMASSOC_CALC_DIMLFAC
1040
-1.0
1001
AD_SKETCHDIM
1005
0
1000
d4
1001
ACAD_DIMASSOC_DIMLFAC
1040
-1.0
1001
ACAD
1000
DSTYLE
1002
{
1070
   144
1040
-1.0
1002
}
  0
DIMENSION
  5
79
330
2
100
AcDbEntity
  8
AM_PARDIM
 60
     1
100
AcDbDimension
  2
*D6
 10
75.37464887656421
 20
150.6938113892625
 30
0.0
 11
70.87464887656421
 21
153.4438113892625
 31
0.0
 70
    32
  1
<>
 71
     5
 42
9.0
  3
AM_ISO$0
100
AcDbAlignedDimension
 13
66.3746488765642
 23
128.6938113892625
 33
0.0
 14
75.37464887656421
 24
128.6938113892625
 34
0.0
100
AcDbRotatedDimension
1001
ACAD_DIMASSOC_CALC_DIMLFAC
1040
-1.0
1001
AD_SKETCHDIM
1005
0
1000
d5
1001
ACAD_DIMASSOC_DIMLFAC
1040
-1.0
1001
ACAD
1000
DSTYLE
1002
{
1070
   144
1040
-1.0
1002
}
  0
DIMENSION
  5
86
330
2
100
AcDbEntity
  8
AM_PARDIM
 60
     1
100
AcDbDimension
  2
*D7
 10
66.37464887656418
 20
140.6938113892625
 30
0.0
 11
75.94157522635743
 21
143.4441558774515
 31
0.0
 70
    32
  1
<>
 71
     5
 42
2.5
  3
AM_ISO$0
100
AcDbAlignedDimension
 13
63.87464887656418
 23
128.6938113892624
 33
0.0
 14
66.37464887656418
 24
128.6938113892624
 34
0.0
100
AcDbRotatedDimension
1001
ACAD_DIMASSOC_CALC_DIMLFAC
1040
-1.0
1001
AD_SKETCHDIM
1005
0
1000
d25
1001
ACAD_DIMASSOC_DIMLFAC
1040
-1.0
1001
ACAD
1000
DSTYLE
1002
{
1070
   144
1040
-1.0
1002
}
  0
DIMENSION
  5
95
330
2
100
AcDbEntity
  8
AM_PARDIM
 60
     1
100
AcDbDimension
  2
*D8
 10
66.37464887656418
 20
136.030378563861
 30
0.0
 11
74.07740478207599
 21
138.780378563861
 31
0.0
 70
    32
  1
<>
 71
     5
 42
0.0
  3
AM_ISO$0
100
AcDbAlignedDimension
 13
66.37464887656418
 23
128.6938113892624
 33
0.0
 14
66.37464887656418
 24
116.1938113892624
 34
0.0
100
AcDbRotatedDimension
1001
ACAD_DIMASSOC_CALC_DIMLFAC
1040
-1.0
1001
AD_SKETCHDIM
1005
0
1000
d26
1001
ACAD_DIMASSOC_DIMLFAC
1040
-1.0
1001
ACAD
1000
DSTYLE
1002
{
1070
   144
1040
-1.0
1002
}
  0
DIMENSION
  5
A3
330
2
100
AcDbEntity
  8
AM_PARDIM
 60
     1
100
AcDbDimension
  2
*D9
 10
94.53257086951754
 20
116.1938113892624
 30
0.0
 11
91.78257086951752
 21
120.9438113892624
 31
0.0
 70
    32
  1
<>
 71
     5
 42
9.5
  3
AM_ISO$0
100
AcDbAlignedDimension
 13
63.87464887656418
 23
125.6938113892624
 33
0.0
 14
82.53257086951753
 24
116.1938113892624
 34
0.0
 50
90.0
100
AcDbRotatedDimension
1001
ACAD_DIMASSOC_CALC_DIMLFAC
1040
-1.0
1001
AD_SKETCHDIM
1005
0
1000
d27
1001
ACAD_DIMASSOC_DIMLFAC
1040
-1.0
1001
ACAD
1000
DSTYLE
1002
{
1070
   144
1040
-1.0
1002
}
  0
DIMENSION
  5
B0
330
2
100
AcDbEntity
  8
AM_PARDIM
 60
     1
100
AcDbDimension
  2
*D10
 10
124.5325708695175
 20
116.1938113892624
 30
0.0
 11
121.7822263813285
 21
122.4438113892624
 31
0.0
 70
    32
  1
<>
 71
     5
 42
12.50000000000004
  3
AM_ISO$0
100
AcDbAlignedDimension
 13
66.37464887656418
 23
128.6938113892624
 33
0.0
 14
82.53257086951753
 24
116.1938113892624
 34
0.0
 50
90.0
100
AcDbRotatedDimension
1001
ACAD_DIMASSOC_CALC_DIMLFAC
1040
-1.0
1001
AD_SKETCHDIM
1005
0
1000
d28
1001
ACAD_DIMASSOC_DIMLFAC
1040
-1.0
1001
ACAD
1000
DSTYLE
1002
{
1070
   144
1040
-1.0
1002
}
  0
LINE
  5
C8
330
2
100
AcDbEntity
  8
AM_7
 60
     1
100
AcDbLine
 10
36.3746488765642
 20
116.1938113892625
 30
0.0
 11
51.3746488765642
 21
116.1938113892625
 31
0.0
  0
MTEXT
  5
151
330
2
100
AcDbEntity
  8
AM_5
 62
     5
100
AcDbMText
 10
33.56078100938999
 20
98.94002315335121
 30
0.0
 40
3.5
 41
0.0
 71
     9
 72
     5
  1

  7
ACISOTS
 73
     1
 44
1.0
1001
ACAD
1000
MTEXTBEGIN
1070
    73
1070
     1
1070
    44
1040
1.0
1070
    74
1070
     0
1000
MTEXTEND
  0
MTEXT
  5
156
330
2
100
AcDbEntity
  8
AM_5
 62
     5
100
AcDbMText
 10
67.11527269722637
 20
92.4148402526181
 30
0.0
 40
3.5
 41
0.0
 71
     9
 72
     5
  1

  7
ACISOTS
 73
     1
 44
1.0
1001
ACAD
1000
MTEXTBEGIN
1070
    73
1070
     1
1070
    44
1040
1.0
1070
    74
1070
     0
1000
MTEXTEND
  0
TEXT
  5
13E2
330
2
100
AcDbEntity
  8
LOGO
  6
Continuous
 62
     7
100
AcDbText
 10
589.0239498396579
 20
-132.5206625458283
 30
0.0
 40
2.621173968320643
  1
MVSF
  7
CHINESET
 72
     1
 11
593.8294354482458
 21
-131.210075561668
 31
0.0
100
AcDbText
 73
     2
  0
LINE
  5
13E5
330
2
100
AcDbEntity
  8
LOGO
 62
     4
100
AcDbLine
 10
600.1202529722156
 20
-128.8510189901794
 30
0.0
 11
587.5386179242765
 21
-128.8510189901794
 31
0.0
  0
LINE
  5
13E6
330
2
100
AcDbEntity
  8
LOGO
 62
     4
100
AcDbLine
 10
600.1202529722156
 20
-133.5691321331566
 30
0.0
 11
587.5386179242765
 21
-133.5691321331566
 31
0.0
  0
LINE
  5
13E7
330
2
100
AcDbEntity
  8
LOGO
 62
     4
100
AcDbLine
 10
598.0240446553734
 20
-135.9281887046451
 30
0.0
 11
589.634825632806
 21
-135.9281887046451
 31
0.0
  0
LINE
  5
13E8
330
2
100
AcDbEntity
  8
LOGO
 62
     4
100
AcDbLine
 10
598.0240446553734
 20
-141.6947714349505
 30
0.0
 11
589.634825632806
 21
-141.6947714349506
 31
0.0
  0
LINE
  5
14D1
330
2
100
AcDbEntity
  8
LOGO
 62
     4
100
AcDbLine
 10
587.5386179242765
 20
-128.8510189901794
 30
0.0
 11
587.5386179242765
 21
-133.5691321331566
 31
0.0
  0
LINE
  5
14D2
330
2
100
AcDbEntity
  8
LOGO
 62
     4
100
AcDbLine
 10
589.634825632806
 20
-135.9281887046451
 30
0.0
 11
589.634825632806
 21
-141.6947714349506
 31
0.0
  0
TEXT
  5
14D3
330
2
100
AcDbEntity
  8
LOGO
100
AcDbText
 10
591.6619354482458
 20
-140.9985791005141
 30
0.0
 40
1.274999999999999
  1
Model
 72
     4
 11
593.8294354482458
 21
-140.3841844507903
 31
0.0
100
AcDbText
  0
TEXT
  5
14D4
330
2
100
AcDbEntity
  8
LOGO
100
AcDbText
 10
591.7811479482458
 20
-138.7347374263672
 30
0.0
 40
2.048287499999999
  1
型式
  7
CHINESET
 72
     4
 11
593.8294354482458
 21
-137.7630104824696
 31
0.0
100
AcDbText
  0
LINE
  5
14D5
330
2
100
AcDbEntity
  8
LOGO
 62
     4
100
AcDbLine
 10
593.8294354482458
 20
-133.5691321331566
 30
0.0
 11
593.8294354482458
 21
-135.9281887046451
 31
0.0
  0
LINE
  5
14DF
330
2
100
AcDbEntity
  8
LOGO
  6
Continuous
 62
     7
100
AcDbLine
 10
629.7769185264347
 20
-131.2100755616679
 30
0.0
 11
631.8602651340744
 21
-131.2100755616679
 31
0.0
  0
TEXT
  5
14E0
330
2
100
AcDbEntity
  8
LOGO
100
AcDbText
 10
625.9769385934368
 20
-138.7871542324695
 30
0.0
 40
2.048287499999999
  1
單線圈
  7
CHINESET
 72
     4
 11
629.0066971871867
 21
-137.7630104824695
 31
0.0
100
AcDbText
  0
LINE
  5
14E1
330
2
100
AcDbEntity
  8
LOGO
 62
     4
100
AcDbLine
 10
635.2079801683743
 20
-135.9281887046451
 30
0.0
 11
622.8054142059995
 21
-135.9281887046451
 31
0.0
  0
LINE
  5
14E2
330
2
100
AcDbEntity
  8
LOGO
 62
     4
100
AcDbLine
 10
635.2079801683743
 20
-141.6947714349505
 30
0.0
 11
622.8054142059995
 21
-141.6947714349505
 31
0.0
  0
TEXT
  5
14E3
330
2
100
AcDbEntity
  8
LOGO
100
AcDbText
 10
623.3566024529348
 20
-140.8299176831912
 30
0.0
 40
1.274999999999999
  1
Single solenoid
 72
     4
 11
629.0066971871867
 21
-140.3841844507902
 31
0.0
100
AcDbText
  0
LINE
  5
14EB
330
2
100
AcDbEntity
  8
LOGO
 62
     4
100
AcDbLine
 10
615.3945945415884
 20
-128.8510189901794
 30
0.0
 11
603.8323843674892
 21
-128.8510189901794
 31
0.0
  0
LINE
  5
14EC
330
2
100
AcDbEntity
  8
LOGO
 62
     4
100
AcDbLine
 10
615.3945945415884
 20
-133.5691321331566
 30
0.0
 11
603.8323843674892
 21
-133.5691321331566
 31
0.0
  0
LINE
  5
14F4
330
2
100
AcDbEntity
  8
LOGO
 62
     4
100
AcDbLine
 10
612.2491857796038
 20
-135.9281887046451
 30
0.0
 11
600.6869756055045
 21
-135.9281887046451
 31
0.0
  0
LINE
  5
14F5
330
2
100
AcDbEntity
  8
LOGO
 62
     4
100
AcDbLine
 10
612.2491857796038
 20
-141.6947714349505
 30
0.0
 11
600.6869756055045
 21
-141.6947714349506
 31
0.0
  0
TEXT
  5
14F6
330
2
100
AcDbEntity
  8
LOGO
100
AcDbText
 10
602.301225342278
 20
-140.8304344507903
 30
0.0
 40
1.274999999999999
  1
Body width
 72
     4
 11
606.4680806925541
 21
-140.3841844507903
 31
0.0
100
AcDbText
  0
TEXT
  5
14F7
330
2
100
AcDbEntity
  8
LOGO
100
AcDbText
 10
602.3715056925541
 20
-138.7511176782742
 30
0.0
 40
2.048287499999999
  1
本體寬幅
  7
CHINESET
 72
     4
 11
606.4680806925541
 21
-137.7630104824696
 31
0.0
100
AcDbText
  0
LINE
  5
14F8
330
2
100
AcDbEntity
  8
LOGO
 62
     4
100
AcDbLine
 10
603.8323843674892
 20
-128.8510189901794
 30
0.0
 11
603.8323843674892
 21
-133.5691321331566
 31
0.0
  0
LINE
  5
14F9
330
2
100
AcDbEntity
  8
LOGO
 62
     4
100
AcDbLine
 10
600.1202529722156
 20
-128.8510189901794
 30
0.0
 11
600.1202529722156
 21
-133.5691321331566
 31
0.0
  0
LINE
  5
14FA
330
2
100
AcDbEntity
  8
LOGO
  6
Continuous
 62
     7
100
AcDbLine
 10
600.9331129606136
 20
-131.2267878640585
 30
0.0
 11
603.0164595682537
 21
-131.2267878640585
 31
0.0
  0
LINE
  5
14FB
330
2
100
AcDbEntity
  8
LOGO
 62
     4
100
AcDbLine
 10
600.6869756055045
 20
-135.9281887046451
 30
0.0
 11
600.6869756055045
 21
-141.6947714349505
 31
0.0
  0
LINE
  5
14FC
330
2
100
AcDbEntity
  8
LOGO
 62
     4
100
AcDbLine
 10
598.0240446553734
 20
-135.9281887046451
 30
0.0
 11
598.0240446553734
 21
-141.6947714349505
 31
0.0
  0
TEXT
  5
1509
330
2
100
AcDbEntity
  8
LOGO
  6
Continuous
 62
     7
100
AcDbText
 10
606.4930442541572
 20
-132.5503868237965
 30
0.0
 40
2.621173968320643
  1
100
  7
CHINESET
 72
     1
 11
609.6134894545389
 21
-131.2397998396361
 31
0.0
100
AcDbText
 73
     2
  0
LINE
  5
150A
330
2
100
AcDbEntity
  8
LOGO
 62
     4
100
AcDbLine
 10
609.6134894545389
 20
-134.7486604189009
 30
0.0
 11
606.4680806925541
 21
-134.7486604189009
 31
0.0
  0
LINE
  5
150B
330
2
100
AcDbEntity
  8
LOGO
 62
     4
100
AcDbLine
 10
606.4680806925541
 20
-135.9281887046451
 30
0.0
 11
606.4680806925541
 21
-134.7486604189009
 31
0.0
  0
LINE
  5
150C
330
2
100
AcDbEntity
  8
LOGO
 62
     4
100
AcDbLine
 10
609.6134894545389
 20
-133.5691321331566
 30
0.0
 11
609.6134894545389
 21
-134.7486604189009
 31
0.0
  0
LINE
  5
150D
330
2
100
AcDbEntity
  8
LOGO
 62
     4
100
AcDbLine
 10
612.2491857796038
 20
-135.9281887046451
 30
0.0
 11
612.2491857796038
 21
-141.6947714349505
 31
0.0
  0
LINE
  5
1533
330
2
100
AcDbEntity
  8
LOGO
 62
     4
100
AcDbLine
 10
622.2811794123352
 20
-128.8510189901793
 30
0.0
 11
619.1067259368621
 21
-128.8510189901794
 31
0.0
  0
LINE
  5
1534
330
2
100
AcDbEntity
  8
LOGO
 62
     4
100
AcDbLine
 10
621.6400627324231
 20
-135.9281887046451
 30
0.0
 11
613.2232613203086
 21
-135.9281887046451
 31
0.0
  0
LINE
  5
1535
330
2
100
AcDbEntity
  8
LOGO
 62
     4
100
AcDbLine
 10
622.2811794123352
 20
-133.5691321331565
 30
0.0
 11
619.1067259368621
 21
-133.5691321331565
 31
0.0
  0
LINE
  5
1536
330
2
100
AcDbEntity
  8
LOGO
 62
     4
100
AcDbLine
 10
621.6400627324231
 20
-141.6947714349505
 30
0.0
 11
613.2232613203086
 21
-141.6947714349505
 31
0.0
  0
LINE
  5
1537
330
2
100
AcDbEntity
  8
LOGO
 62
     4
100
AcDbLine
 10
615.3945945415884
 20
-128.8510189901794
 30
0.0
 11
615.3945945415884
 21
-133.5691321331566
 31
0.0
  0
LINE
  5
1538
330
2
100
AcDbEntity
  8
LOGO
 62
     4
100
AcDbLine
 10
619.1067259368621
 20
-128.8510189901794
 30
0.0
 11
619.1067259368621
 21
-133.5691321331565
 31
0.0
  0
TEXT
  5
1539
330
2
100
AcDbEntity
  8
LOGO
100
AcDbText
 10
615.0729120263658
 20
-140.8304344507903
 30
0.0
 40
1.274999999999999
  1
4 Way
 72
     4
 11
617.4316620263659
 21
-140.3841844507903
 31
0.0
100
AcDbText
  0
TEXT
  5
153A
330
2
100
AcDbEntity
  8
LOGO
100
AcDbText
 10
613.5880749169908
 20
-138.7800981239558
 30
0.0
 40
2.048287499999999
  1
4 方向
  7
CHINESET
 72
     4
 11
617.4316620263659
 21
-137.7630104824696
 31
0.0
100
AcDbText
  0
LINE
  5
153B
330
2
100
AcDbEntity
  8
LOGO
  6
Continuous
 62
     7
100
AcDbLine
 10
616.2074545299867
 20
-131.2267878640585
 30
0.0
 11
618.2908011376262
 21
-131.2267878640585
 31
0.0
  0
LINE
  5
153C
330
2
100
AcDbEntity
  8
LOGO
 62
     4
100
AcDbLine
 10
613.2232613203086
 20
-135.9281887046451
 30
0.0
 11
613.2232613203086
 21
-141.6947714349505
 31
0.0
  0
TEXT
  5
153D
330
2
100
AcDbEntity
  8
LOGO
  6
Continuous
 62
     7
100
AcDbText
 10
619.757819114484
 20
-132.5206625458283
 30
0.0
 40
2.621173968320643
  1
4
  7
CHINESET
 72
     1
 11
620.6939526745985
 21
-131.2100755616679
 31
0.0
100
AcDbText
 73
     2
  0
LINE
  5
153E
330
2
100
AcDbEntity
  8
LOGO
 62
     4
100
AcDbLine
 10
620.693952553718
 20
-134.7486604189008
 30
0.0
 11
617.4316620263659
 21
-134.7486604189008
 31
0.0
  0
LINE
  5
153F
330
2
100
AcDbEntity
  8
LOGO
 62
     4
100
AcDbLine
 10
617.4316620263659
 20
-135.9281887046451
 30
0.0
 11
617.4316620263659
 21
-134.7486604189008
 31
0.0
  0
LINE
  5
1540
330
2
100
AcDbEntity
  8
LOGO
 62
     4
100
AcDbLine
 10
620.6939525537181
 20
-133.5691321331565
 30
0.0
 11
620.6939525537181
 21
-134.7486604189008
 31
0.0
  0
LINE
  5
1547
330
2
100
AcDbEntity
  8
LOGO
 62
     4
100
AcDbLine
 10
628.3929278507408
 20
-128.8510189901793
 30
0.0
 11
628.3929278507404
 21
-133.5691321331565
 31
0.0
  0
LINE
  5
1548
330
2
100
AcDbEntity
  8
LOGO
 62
     4
100
AcDbLine
 10
622.2811794123352
 20
-128.8510189901793
 30
0.0
 11
622.2811794123352
 21
-133.5691321331565
 31
0.0
  0
LINE
  5
1549
330
2
100
AcDbEntity
  8
LOGO
 62
     4
100
AcDbLine
 10
622.8054142059995
 20
-128.8510189901793
 30
0.0
 11
622.8054142059995
 21
-133.5691321331565
 31
0.0
  0
LINE
  5
154A
330
2
100
AcDbEntity
  8
LOGO
 62
     4
100
AcDbLine
 10
625.5991710283701
 20
-134.7486604189008
 30
0.0
 11
629.0066971871867
 21
-134.7486604189008
 31
0.0
  0
TEXT
  5
154B
330
2
100
AcDbEntity
  8
LOGO
  6
Continuous
 62
     7
100
AcDbText
 10
624.346000303413
 20
-132.5503868237964
 30
0.0
 40
2.621173968320643
  1
E1
  7
CHINESET
 72
     1
 11
625.8438139995964
 21
-131.2397998396361
 31
0.0
100
AcDbText
 73
     2
  0
LINE
  5
154C
330
2
100
AcDbEntity
  8
LOGO
 62
     4
100
AcDbLine
 10
628.3929278507404
 20
-133.5691321331565
 30
0.0
 11
622.8054142059995
 21
-133.5691321331565
 31
0.0
  0
LINE
  5
154D
330
2
100
AcDbEntity
  8
LOGO
 62
     4
100
AcDbLine
 10
622.8054142059995
 20
-135.9281887046451
 30
0.0
 11
622.8054142059995
 21
-141.6947714349505
 31
0.0
  0
LINE
  5
154E
330
2
100
AcDbEntity
  8
LOGO
 62
     4
100
AcDbLine
 10
621.6400627324231
 20
-135.9281887046451
 30
0.0
 11
621.6400627324231
 21
-141.6947714349505
 31
0.0
  0
LINE
  5
154F
330
2
100
AcDbEntity
  8
LOGO
 62
     4
100
AcDbLine
 10
625.5991710283701
 20
-133.5691321331565
 30
0.0
 11
625.5991710283701
 21
-134.7486604189008
 31
0.0
  0
LINE
  5
1550
330
2
100
AcDbEntity
  8
LOGO
 62
     4
100
AcDbLine
 10
629.0066971871867
 20
-135.9281887046451
 30
0.0
 11
629.0066971871867
 21
-134.7486604189008
 31
0.0
  0
LINE
  5
1553
330
2
100
AcDbEntity
  8
LOGO
 62
     4
100
AcDbLine
 10
628.3929278507408
 20
-128.8510189901793
 30
0.0
 11
622.8054142059995
 21
-128.8510189901793
 31
0.0
  0
LINE
  5
15C0
330
2
100
AcDbEntity
  8
LOGO
 62
     4
100
AcDbLine
 10
657.6800141014505
 20
-135.928188704645
 30
0.0
 11
645.6146413015794
 21
-135.928188704645
 31
0.0
  0
TEXT
  5
15C1
330
2
100
AcDbEntity
  8
LOGO
100
AcDbText
 10
646.674827545867
 20
-141.0216844507901
 30
0.0
 40
1.274999999999999
  1
LED indicator
 72
     4
 11
651.6473275458669
 21
-140.3841844507901
 31
0.0
100
AcDbText
  0
LINE
  5
15C2
330
2
100
AcDbEntity
  8
LOGO
 62
     4
100
AcDbLine
 10
657.6800141014505
 20
-141.6947714349505
 30
0.0
 11
645.6146413015794
 21
-141.6947714349505
 31
0.0
  0
LINE
  5
15C4
330
2
100
AcDbEntity
  8
LOGO
 62
     4
100
AcDbLine
 10
644.5376131217304
 20
-135.9281887046451
 30
0.0
 11
636.4709648531966
 21
-135.9281887046451
 31
0.0
  0
LINE
  5
15C5
330
2
100
AcDbEntity
  8
LOGO
 62
     4
100
AcDbLine
 10
646.085852136905
 20
-133.5691321331565
 30
0.0
 11
632.6357455897752
 21
-133.5691321331565
 31
0.0
  0
LINE
  5
15C6
330
2
100
AcDbEntity
  8
LOGO
 62
     4
100
AcDbLine
 10
646.085852136905
 20
-128.8510189901793
 30
0.0
 11
632.6357455897752
 21
-128.8510189901793
 31
0.0
  0
LINE
  5
15C7
330
2
100
AcDbEntity
  8
LOGO
 62
     4
100
AcDbLine
 10
644.5376131217304
 20
-141.6947714349505
 30
0.0
 11
636.4709648531966
 21
-141.6947714349505
 31
0.0
  0
TEXT
  5
15C8
330
2
100
AcDbEntity
  8
LOGO
100
AcDbText
 10
637.6026557654911
 20
-140.807329100514
 30
0.0
 40
1.274999999999999
  1
Voltage
 72
     4
 11
640.5989057654911
 21
-140.3841844507901
 31
0.0
100
AcDbText
  0
LINE
  5
15C9
330
2
100
AcDbEntity
  8
LOGO
 62
     4
100
AcDbLine
 10
632.6357455897752
 20
-128.8510189901793
 30
0.0
 11
632.6357455897752
 21
-133.5691321331565
 31
0.0
  0
LINE
  5
15CA
330
2
100
AcDbEntity
  8
LOGO
 62
     4
100
AcDbLine
 10
635.2079801683743
 20
-135.9281887046451
 30
0.0
 11
635.2079801683743
 21
-141.6947714349505
 31
0.0
  0
LINE
  5
15CB
330
2
100
AcDbEntity
  8
LOGO
 62
     4
100
AcDbLine
 10
636.4709648531966
 20
-135.9281887046451
 30
0.0
 11
636.4709648531966
 21
-141.6947714349505
 31
0.0
  0
LINE
  5
15CD
330
2
100
AcDbEntity
  8
LOGO
 62
     4
100
AcDbLine
 10
646.0858521369049
 20
-128.8510189901793
 30
0.0
 11
646.0858521369049
 21
-133.5691321331565
 31
0.0
  0
TEXT
  5
15CE
330
2
100
AcDbEntity
  8
LOGO
100
AcDbText
 10
638.5292819373661
 20
-138.7653138965935
 30
0.0
 40
2.048287499999999
  1
電壓
  7
CHINESET
 72
     4
 11
640.5989057654911
 21
-137.7630104824695
 31
0.0
100
AcDbText
  0
LINE
  5
15CF
330
2
100
AcDbEntity
  8
LOGO
 62
     4
100
AcDbLine
 10
639.36079886334
 20
-134.7486604189008
 30
0.0
 11
640.5989057654911
 21
-134.7486604189008
 31
0.0
  0
LINE
  5
15D0
330
2
100
AcDbEntity
  8
LOGO
 62
     4
100
AcDbLine
 10
639.36079886334
 20
-133.5691321331565
 30
0.0
 11
639.36079886334
 21
-134.7486604189008
 31
0.0
  0
TEXT
  5
15D1
330
2
100
AcDbEntity
  8
LOGO
  6
Continuous
 62
     7
100
AcDbText
 10
638.8829808355308
 20
-132.5503868237964
 30
0.0
 40
2.621173968320643
  1
?
  7
CHINESET
 72
     1
 11
639.5694787796148
 21
-131.2397998396361
 31
0.0
100
AcDbText
 73
     2
  0
LINE
  5
15D2
330
2
100
AcDbEntity
  8
LOGO
 62
     4
100
AcDbLine
 10
640.5989057654911
 20
-134.7486604189008
 30
0.0
 11
640.5989057654911
 21
-135.9281887046451
 31
0.0
  0
LINE
  5
15D3
330
2
100
AcDbEntity
  8
LOGO
 62
     4
100
AcDbLine
 10
644.5376131217304
 20
-135.9281887046451
 30
0.0
 11
644.5376131217304
 21
-141.6947714349505
 31
0.0
  0
LINE
  5
15D4
330
2
100
AcDbEntity
  8
LOGO
 62
     4
100
AcDbLine
 10
645.6146413015794
 20
-135.9281887046451
 30
0.0
 11
645.6146413015794
 21
-141.6947714349505
 31
0.0
  0
LINE
  5
15F8
330
2
100
AcDbEntity
  8
LOGO
 62
     4
100
AcDbLine
 10
649.7979835321785
 20
-128.8510189901793
 30
0.0
 11
649.7979835321785
 21
-133.5691321331564
 31
0.0
  0
LINE
  5
15F9
330
2
100
AcDbEntity
  8
LOGO
 62
     4
100
AcDbLine
 10
652.9724370076516
 20
-128.8510189901793
 30
0.0
 11
652.9724370076516
 21
-133.5691321331564
 31
0.0
  0
LINE
  5
15FA
330
2
100
AcDbEntity
  8
LOGO
 62
     4
100
AcDbLine
 10
652.9724370076516
 20
-133.5691321331564
 30
0.0
 11
649.7979835321785
 21
-133.5691321331564
 31
0.0
  0
TEXT
  5
15FB
330
2
100
AcDbEntity
  8
LOGO
100
AcDbText
 10
648.5962326239919
 20
-138.7658179043445
 30
0.0
 40
2.048287499999999
  1
附燈型
  7
CHINESET
 72
     4
 11
651.6473275458669
 21
-137.7630104824695
 31
0.0
100
AcDbText
  0
LINE
  5
15FC
330
2
100
AcDbEntity
  8
LOGO
  6
Continuous
 62
     7
100
AcDbLine
 10
646.8987121253034
 20
-131.2267878640584
 30
0.0
 11
648.9820587329428
 21
-131.2267878640584
 31
0.0
  0
LINE
  5
15FD
330
2
100
AcDbEntity
  8
LOGO
 62
     4
100
AcDbLine
 10
651.3852102699151
 20
-133.5691321331564
 30
0.0
 11
651.3852102699151
 21
-135.928188704645
 31
0.0
  0
TEXT
  5
15FE
330
2
100
AcDbEntity
  8
LOGO
  6
Continuous
 62
     7
100
AcDbText
 10
650.6363034218235
 20
-132.5206625458282
 30
0.0
 40
2.621173968320643
  1
L
  7
CHINESET
 72
     1
 11
651.3852102699151
 21
-131.2100755616679
 31
0.0
100
AcDbText
 73
     2
  0
LINE
  5
15FF
330
2
100
AcDbEntity
  8
LOGO
 62
     4
100
AcDbLine
 10
652.9724370076516
 20
-128.8510189901793
 30
0.0
 11
649.7979835321785
 21
-128.8510189901793
 31
0.0
  0
LINE
  5
1602
330
2
100
AcDbEntity
  8
LOGO
 62
     4
100
AcDbLine
 10
657.6800141014505
 20
-135.928188704645
 30
0.0
 11
657.6800141014505
 21
-141.6947714349504
 31
0.0
  0
TEXT
  5
2138
330
2
100
AcDbEntity
  8
LOGO
100
AcDbText
 10
535.9876296159194
 20
15.20114012459599
 30
0.0
 40
3.641399999999999
  1
MVSF-100-4E1
100
AcDbText
  0
LINE
  5
2B59
330
2
100
AcDbEntity
  8
LOGO
 62
     4
100
AcDbLine
 10
659.0685387480348
 20
-127.8114008993628
 30
0.0
 11
532.9937997723972
 21
-127.8114008993628
 31
0.0
  0
LWPOLYLINE
  5
2B5A
330
2
100
AcDbEntity
  8
LOGO
 62
     4
100
AcDbPolyline
 90
        4
 70
     1
 43
0.0
 10
532.9937997723972
 20
-127.8114008993628
 10
659.0685387480348
 20
-127.8114008993628
 10
659.0685387480348
 20
25.45484929819822
 10
532.9937997723972
 20
25.45484929819822
1001
GENIUS_GENREC_14
1002
{
1000
PYDIR
1011
532.9937997723972
1021
25.45484929819822
1031
0.0
1002
}
1002
{
1000
PXDIR
1011
659.0685387480348
1021
-127.8114008993628
1031
0.0
1002
}
1002
{
1000
PORI
1011
532.9937997723972
1021
-127.8114008993628
1031
0.0
1002
}
1002
{
1000
PINS
1011
532.9937997723972
1021
-127.8114008993628
1031
0.0
1002
}
1002
{
1000
PINS2
1011
659.0685387480348
1021
25.45484929819822
1031
0.0
1002
}
1002
{
1000
C
1070
     1
1002
}
1001
GENIUS_GENODEF_13
1002
{
1000
HIER
1070
     0
1002
}
1002
{
1000
MANEDIT
1070
     0
1002
}
1002
{
1000
NOSEL
1070
     0
1002
}
1002
{
1000
BEHIND
1070
     0
1002
}
1002
{
1000
OTHER
1070
     0
1002
}
1002
{
1000
REACTOR
1002
}
1001
GENIUS_GENOBJ-N-REC_13
1002
{
1000
OWNER
1000
GEN
1002
}
  0
LWPOLYLINE
  5
2B5B
330
2
100
AcDbEntity
  8
LOGO
 62
     4
100
AcDbPolyline
 90
        4
 70
     1
 43
0.0
 10
532.9937997723972
 20
-127.8114008993628
 10
659.0685387480348
 20
-127.8114008993628
 10
659.0685387480348
 20
-143.5399711295167
 10
532.9937997723972
 20
-143.5399711295167
1001
GENIUS_GENREC_14
1002
{
1000
PYDIR
1011
532.9937997723972
1021
-143.5399711295167
1031
0.0
1002
}
1002
{
1000
PXDIR
1011
659.0685387480348
1021
-127.8114008993628
1031
0.0
1002
}
1002
{
1000
PORI
1011
532.9937997723972
1021
-127.8114008993628
1031
0.0
1002
}
1002
{
1000
PINS
1011
532.9937997723972
1021
-127.8114008993628
1031
0.0
1002
}
1002
{
1000
PINS2
1011
659.0685387480348
1021
-143.5399711295167
1031
0.0
1002
}
1002
{
1000
C
1070
     1
1002
}
1001
GENIUS_GENOBJ-N-REC_13
1002
{
1000
OWNER
1000
GEN
1002
}
1001
GENIUS_GENODEF_13
1002
{
1000
HIER
1070
     0
1002
}
1002
{
1000
MANEDIT
1070
     0
1002
}
1002
{
1000
NOSEL
1070
     0
1002
}
1002
{
1000
BEHIND
1070
     0
1002
}
1002
{
1000
OTHER
1070
     0
1002
}
1002
{
1000
REACTOR
1002
}
  0
TEXT
  5
2B5C
330
2
100
AcDbEntity
  8
LOGO
 62
     7
100
AcDbText
 10
568.507869893835
 20
-134.7018198727006
 30
0.0
 40
2.097142697353846
  1
Order example:
 41
0.8
  7
CHINESET
100
AcDbText
  0
TEXT
  5
2B5D
330
2
100
AcDbEntity
  8
LOGO
 62
     7
100
AcDbText
 10
568.8841146364048
 20
-131.7494771737624
 30
0.0
 40
3.145714046030768
  1
訂購代號：
  7
CHINESET
100
AcDbText
  0
LINE
  5
2B5E
330
2
100
AcDbEntity
  8
LOGO
 62
     4
100
AcDbLine
 10
567.5966542787356
 20
-143.5399711295167
 30
0.0
 11
567.5966542787356
 21
-127.8114008993628
 31
0.0
  0
TEXT
  5
2B5F
330
2
100
AcDbEntity
  8
LOGO
  6
Continuous
100
AcDbText
 10
538.6435729003595
 20
-140.4501172442851
 30
0.0
 40
2.359285534523077
  1
金器工業股份有限公司
  7
CHINESET
100
AcDbText
  0
TEXT
  5
2B60
330
2
100
AcDbEntity
  8
LOGO
  6
Continuous
100
AcDbText
 10
534.3100321350655
 20
-142.8098650137978
 30
0.0
 40
1.572857023015384
  1
MINDMAN INDUSTRIAL CO., LTD.
 41
0.85
  7
CHINESET
100
AcDbText
  0
LINE
  5
2B61
330
2
100
AcDbEntity
  8
LOGO
 62
     4
100
AcDbLine
 10
567.5966542787356
 20
-130.9571149453936
 30
0.0
 11
544.5280846078434
 21
-130.9571149453936
 31
0.0
  0
LINE
  5
2B62
330
2
100
AcDbEntity
  8
LOGO
 62
     4
100
AcDbLine
 10
567.5966542787356
 20
-134.1028289914243
 30
0.0
 11
544.5280846078434
 21
-134.1028289914243
 31
0.0
  0
LINE
  5
2B63
330
2
100
AcDbEntity
  8
LOGO
 62
     4
100
AcDbLine
 10
567.5966542787356
 20
-137.248543037455
 30
0.0
 11
532.9937997723972
 21
-137.248543037455
 31
0.0
  0
LINE
  5
2B64
330
2
100
AcDbEntity
  8
LOGO
 62
     4
100
AcDbLine
 10
544.5280846078434
 20
-137.248543037455
 30
0.0
 11
544.5280846078434
 21
-127.8114008993628
 31
0.0
  0
TEXT
  5
2B65
330
2
100
AcDbEntity
  8
LOGO
100
AcDbText
 10
560.2943631579944
 20
-136.4621145259475
 30
0.0
 40
1.572857023015384
  1
mm
  7
CHINESET
 72
     1
 11
562.2417099483945
 21
-135.6756860144398
 31
0.0
100
AcDbText
 73
     2
  0
TEXT
  5
2B66
330
2
100
AcDbEntity
  8
LOGO
100
AcDbText
 10
559.4704856697482
 20
-130.170686433886
 30
0.0
 40
1.572857023015384
  1
1 : 1
  7
CHINESET
 72
     1
 11
562.2417099483945
 21
-129.3842579223783
 31
0.0
100
AcDbText
 73
     2
  0
LINE
  5
2B67
330
2
100
AcDbEntity
  8
LOGO
 62
     4
100
AcDbLine
 10
557.1109407919663
 20
-137.248543037455
 30
0.0
 11
557.1109407919663
 21
-127.8114008993628
 31
0.0
  0
TEXT
  5
2B68
330
2
100
AcDbEntity
  8
LOGO
100
AcDbText
 10
545.8249894835171
 20
-130.1699123900754
 30
103.0824581578514
 40
1.572857023015384
  1
比例 Scale:
 41
0.9
  7
CHINESET
 72
     4
 11
550.8195126999048
 21
-129.3842579223783
 31
103.0824581578514
100
AcDbText
  0
TEXT
  5
2B69
330
2
100
AcDbEntity
  8
LOGO
100
AcDbText
 10
545.734409771031
 20
-133.2942757276655
 30
103.0824581578514
 40
1.572857023015384
  1
投影  View:
 41
0.9
  7
CHINESET
 72
     4
 11
550.8195126999048
 21
-132.5299719684091
 31
103.0824581578514
100
AcDbText
  0
TEXT
  5
2B6A
330
2
100
AcDbEntity
  8
LOGO
100
AcDbText
 10
545.8881846317633
 20
-136.4621145259475
 30
103.0824581578514
 40
1.572857023015384
  1
單位  Unit:
 41
0.9
  7
CHINESET
 72
     4
 11
550.8195126999048
 21
-135.6756860144398
 31
103.0824581578514
100
AcDbText
  0
SOLID
  5
2B6B
330
2
100
AcDbEntity
  8
LOGO
 62
     5
100
AcDbTrace
 10
534.6256641762108
 20
-134.6338921152598
 30
0.0
 11
535.3057262811944
 21
-134.63389211526
 31
0.0
 12
538.1432267881945
 22
-128.1850273266223
 32
0.0
 13
538.8232888931786
 23
-128.1850273266227
 33
0.0
  0
SOLID
  5
2B6C
330
2
100
AcDbEntity
  8
LOGO
 62
     5
100
AcDbTrace
 10
535.5871312901538
 20
-134.6338921152598
 30
0.0
 11
536.2671933951374
 21
-134.6338921152598
 31
0.0
 12
538.8232888931786
 22
-128.7009365097137
 32
0.0
 13
538.1432267881945
 23
-131.1944975613201
 33
0.0
  0
SOLID
  5
2B6D
330
2
100
AcDbEntity
  8
LOGO
 62
     2
100
AcDbTrace
 10
535.3057262811944
 20
-134.63389211526
 30
0.0
 11
535.5871312901538
 21
-134.6338921152598
 31
0.0
 12
538.8232888931786
 22
-128.1850273266227
 32
0.0
 13
539.1046939021377
 23
-128.1850273266227
 33
0.0
  0
SOLID
  5
2B6E
330
2
100
AcDbEntity
  8
LOGO
 62
     5
100
AcDbTrace
 10
533.5353578502655
 20
-136.9789338565823
 30
0.0
 11
533.7698620243982
 21
-136.9789338565823
 31
0.0
 12
534.4302440311007
 22
-135.8064129859211
 32
0.0
 13
534.6647482052325
 23
-135.8064129859211
 33
0.0
  0
SOLID
  5
2B6F
330
2
100
AcDbEntity
  8
LOGO
 62
     5
100
AcDbTrace
 10
534.4302440311007
 20
-135.8064129859211
 30
0.0
 11
534.6647482052325
 21
-135.8064129859211
 31
0.0
 12
534.4302440311007
 22
-136.9789338565823
 32
0.0
 13
534.6647482052325
 23
-136.9789338565823
 33
0.0
  0
SOLID
  5
2B70
330
2
100
AcDbEntity
  8
LOGO
 62
     5
100
AcDbTrace
 10
534.4302440311007
 20
-136.9789338565823
 30
0.0
 11
534.6647482052325
 21
-136.9789338565823
 31
0.0
 12
535.3251302119364
 22
-135.8064129859211
 32
0.0
 13
535.5596343860685
 23
-135.8064129859211
 33
0.0
  0
SOLID
  5
2B71
330
2
100
AcDbEntity
  8
LOGO
 62
     5
100
AcDbTrace
 10
535.3251302119364
 20
-135.8064129859211
 30
0.0
 11
535.5596343860685
 21
-135.8064129859211
 31
0.0
 12
535.3251302119364
 22
-136.9789338565823
 32
0.0
 13
535.5596343860685
 23
-136.9789338565823
 33
0.0
  0
POLYLINE
  5
2B72
330
2
100
AcDbEntity
  8
LOGO
 62
     5
100
AcDb2dPolyline
 66
     1
 10
0.0
 20
0.0
 30
0.0
 40
0.2348799821036307
 41
0.2348799821036307
  0
VERTEX
  5
2B73
330
2B72
100
AcDbEntity
  8
LOGO
 62
     5
100
AcDbVertex
100
AcDb2dVertex
 10
543.1856302439959
 20
-136.2754213341856
 30
0.0
 42
1.0
  0
VERTEX
  5
2B74
330
2B72
100
AcDbEntity
  8
LOGO
 62
     5
100
AcDbVertex
100
AcDb2dVertex
 10
542.480990297685
 20
-136.2754213341856
 30
0.0
 42
1.0
  0
SEQEND
  5
2B75
330
2B72
100
AcDbEntity
  8
LOGO
 62
     5
  0
POLYLINE
  5
2B76
330
2
100
AcDbEntity
  8
LOGO
 62
     5
100
AcDb2dPolyline
 66
     1
 10
0.0
 20
0.0
 30
0.0
 70
     1
  0
VERTEX
  5
2B77
330
2B76
100
AcDbEntity
  8
LOGO
 62
     5
100
AcDbVertex
100
AcDb2dVertex
 10
541.1527126565037
 20
-136.3926734212519
 30
0.0
 42
1.000000057330635
  0
VERTEX
  5
2B78
330
2B76
100
AcDbEntity
  8
LOGO
 62
     5
100
AcDbVertex
100
AcDb2dVertex
 10
541.8562251789007
 20
-136.3926734212519
 30
0.0
 42
1.000000057330635
  0
SEQEND
  5
2B79
330
2B76
100
AcDbEntity
  8
LOGO
 62
     5
  0
CIRCLE
  5
2B7A
330
2
100
AcDbEntity
  8
LOGO
 62
     5
100
AcDbCircle
 10
541.5044689177027
 20
-136.3926734212519
 30
0.0
 40
0.3517562611983974
  0
POLYLINE
  5
2B7B
330
2
100
AcDbEntity
  8
LOGO
 62
     5
100
AcDb2dPolyline
 66
     1
 10
0.0
 20
0.0
 30
0.0
 70
     1
 40
0.2348799821036307
 41
0.2348799821036307
  0
VERTEX
  5
2B7C
330
2B7B
100
AcDbEntity
  8
LOGO
 62
     5
100
AcDbVertex
100
AcDb2dVertex
 10
541.034708953495
 20
-136.3926734212519
 30
0.0
 42
1.0
  0
VERTEX
  5
2B7D
330
2B7B
100
AcDbEntity
  8
LOGO
 62
     5
100
AcDbVertex
100
AcDb2dVertex
 10
541.9742288819095
 20
-136.3926734212519
 30
0.0
 42
1.0
  0
SEQEND
  5
2B7E
330
2B7B
100
AcDbEntity
  8
LOGO
 62
     5
  0
LINE
  5
2B7F
330
2
100
AcDbEntity
  8
LOGO
100
AcDbLine
 10
543.3023186191046
 20
-136.9789338565823
 30
0.0
 11
543.3023186191046
 21
-136.2754213341856
 31
0.0
  0
SOLID
  5
2B80
330
2
100
AcDbEntity
  8
LOGO
 62
     5
100
AcDbTrace
 10
541.8562017284842
 20
-135.8064129859211
 30
0.0
 11
542.090705902616
 21
-135.8064129859211
 31
0.0
 12
541.8562017284842
 22
-136.9789338565823
 32
0.0
 13
542.090705902616
 23
-136.9789338565823
 33
0.0
  0
SOLID
  5
2B81
330
2
100
AcDbEntity
  8
LOGO
 62
     5
100
AcDbTrace
 10
542.3643019225756
 20
-136.9789338565823
 30
0.0
 11
542.5988060967082
 21
-136.9789338565823
 31
0.0
 12
542.3643019225756
 22
-135.8064129859211
 32
0.0
 13
542.5988060967082
 23
-135.8064129859211
 33
0.0
  0
SOLID
  5
2B82
330
2
100
AcDbEntity
  8
LOGO
 62
     5
100
AcDbTrace
 10
543.0678144449729
 20
-136.2754213341856
 30
0.0
 11
543.3023186191046
 21
-136.2754213341856
 31
0.0
 12
543.0678144449729
 22
-136.9789338565823
 32
0.0
 13
543.3023186191046
 23
-136.9789338565823
 33
0.0
  0
SOLID
  5
2B83
330
2
100
AcDbEntity
  8
LOGO
 62
     5
100
AcDbTrace
 10
542.3408515051622
 20
-128.7009365097137
 30
0.0
 11
541.6607894001792
 21
-131.1944975613201
 31
0.0
 12
542.3408515051622
 22
-134.63389211526
 32
0.0
 13
541.6607894001792
 23
-134.63389211526
 33
0.0
  0
SOLID
  5
2B84
330
2
100
AcDbEntity
  8
LOGO
 62
     5
100
AcDbTrace
 10
542.6222565141215
 20
-134.63389211526
 30
0.0
 11
543.3023186191046
 21
-134.63389211526
 31
0.0
 12
542.6222565141215
 22
-128.1850273266227
 32
0.0
 13
543.3023186191046
 23
-128.1850273266223
 33
0.0
  0
SOLID
  5
2B85
330
2
100
AcDbEntity
  8
LOGO
 62
     2
100
AcDbTrace
 10
542.3408515051622
 20
-128.1850273266223
 30
0.0
 11
542.6222565141215
 21
-128.1850273266227
 31
0.0
 12
542.3408515051622
 22
-134.63389211526
 32
0.0
 13
542.6222565141215
 23
-134.63389211526
 33
0.0
  0
POLYLINE
  5
2B86
330
2
100
AcDbEntity
  8
LOGO
 62
     5
100
AcDb2dPolyline
 66
     1
 10
0.0
 20
0.0
 30
0.0
 40
0.2348799821036307
 41
0.2348799821036307
  0
VERTEX
  5
2B87
330
2B86
100
AcDbEntity
  8
LOGO
 62
     5
100
AcDbVertex
100
AcDb2dVertex
 10
539.8243881144886
 20
-136.2754213341856
 30
0.0
 42
1.0
  0
VERTEX
  5
2B88
330
2B86
100
AcDbEntity
  8
LOGO
 62
     5
100
AcDbVertex
100
AcDb2dVertex
 10
539.1197481681777
 20
-136.2754213341856
 30
0.0
 42
1.0
  0
SEQEND
  5
2B89
330
2B86
100
AcDbEntity
  8
LOGO
 62
     5
  0
POLYLINE
  5
2B8A
330
2
100
AcDbEntity
  8
LOGO
 62
     5
100
AcDb2dPolyline
 66
     1
 10
0.0
 20
0.0
 30
0.0
 40
0.2348799821036307
 41
0.2348799821036307
  0
VERTEX
  5
2B8B
330
2B8A
100
AcDbEntity
  8
LOGO
 62
     5
100
AcDbVertex
100
AcDb2dVertex
 10
540.5279006368846
 20
-136.2754213341856
 30
0.0
 42
1.0
  0
VERTEX
  5
2B8C
330
2B8A
100
AcDbEntity
  8
LOGO
 62
     5
100
AcDbVertex
100
AcDb2dVertex
 10
539.823260690574
 20
-136.2754213341856
 30
0.0
 42
1.0
  0
SEQEND
  5
2B8D
330
2B8A
100
AcDbEntity
  8
LOGO
 62
     5
  0
POLYLINE
  5
2B8E
330
2
100
AcDbEntity
  8
LOGO
 62
     5
100
AcDb2dPolyline
 66
     1
 10
0.0
 20
0.0
 30
0.0
 40
0.2348799821036307
 41
0.2348799821036307
  0
VERTEX
  5
2B8F
330
2B8E
100
AcDbEntity
  8
LOGO
 62
     5
100
AcDbVertex
100
AcDb2dVertex
 10
537.1666585073774
 20
-136.2754213341856
 30
0.0
 42
1.0
  0
VERTEX
  5
2B90
330
2B8E
100
AcDbEntity
  8
LOGO
 62
     5
100
AcDbVertex
100
AcDb2dVertex
 10
536.4620185610668
 20
-136.2754213341856
 30
0.0
 42
1.0
  0
SEQEND
  5
2B91
330
2B8E
100
AcDbEntity
  8
LOGO
 62
     5
  0
SOLID
  5
2B92
330
2
100
AcDbEntity
  8
LOGO
 62
     5
100
AcDbTrace
 10
536.3453301859578
 20
-135.8064129859211
 30
0.0
 11
536.5798343600896
 21
-135.8064129859211
 31
0.0
 12
536.3453301859578
 22
-136.9789338565823
 32
0.0
 13
536.5798343600896
 23
-136.9789338565823
 33
0.0
  0
SOLID
  5
2B93
330
2
100
AcDbEntity
  8
LOGO
 62
     5
100
AcDbTrace
 10
537.0488427083546
 20
-136.2754213341856
 30
0.0
 11
537.2833468824872
 21
-136.2754213341856
 31
0.0
 12
537.0488427083546
 22
-136.9789338565823
 32
0.0
 13
537.2833468824872
 23
-136.9789338565823
 33
0.0
  0
POLYLINE
  5
2B94
330
2
100
AcDbEntity
  8
LOGO
 62
     5
100
AcDb2dPolyline
 66
     1
 10
0.0
 20
0.0
 30
0.0
 70
     1
 40
0.2348799821036307
 41
0.2348799821036307
  0
VERTEX
  5
2B95
330
2B94
100
AcDbEntity
  8
LOGO
 62
     5
100
AcDbVertex
100
AcDb2dVertex
 10
537.6734668239874
 20
-136.3926734212519
 30
0.0
 42
1.0
  0
VERTEX
  5
2B96
330
2B94
100
AcDbEntity
  8
LOGO
 62
     5
100
AcDbVertex
100
AcDb2dVertex
 10
538.6129867524023
 20
-136.3926734212519
 30
0.0
 42
1.0
  0
SEQEND
  5
2B97
330
2B94
100
AcDbEntity
  8
LOGO
 62
     5
  0
SOLID
  5
2B98
330
2
100
AcDbEntity
  8
LOGO
 62
     5
100
AcDbTrace
 10
538.4949595989761
 20
-135.4546567247226
 30
0.0
 11
538.7294637731084
 21
-135.4546567247226
 31
0.0
 12
538.4949595989761
 22
-136.9789338565823
 32
0.0
 13
538.7294637731084
 23
-136.9789338565823
 33
0.0
  0
SOLID
  5
2B99
330
2
100
AcDbEntity
  8
LOGO
 62
     5
100
AcDbTrace
 10
539.0030597930691
 20
-135.8064129859211
 30
0.0
 11
539.2375639672009
 21
-135.8064129859211
 31
0.0
 12
539.0030597930691
 22
-136.9789338565823
 32
0.0
 13
539.2375639672009
 23
-136.9789338565823
 33
0.0
  0
SOLID
  5
2B9A
330
2
100
AcDbEntity
  8
LOGO
 62
     5
100
AcDbTrace
 10
539.7065723154653
 20
-136.2754213341856
 30
0.0
 11
539.9410764895976
 21
-136.2754213341856
 31
0.0
 12
539.7065723154653
 22
-136.9789338565823
 32
0.0
 13
539.9410764895976
 23
-136.9789338565823
 33
0.0
  0
SOLID
  5
2B9B
330
2
100
AcDbEntity
  8
LOGO
 62
     5
100
AcDbTrace
 10
540.4100848378621
 20
-136.2754213341856
 30
0.0
 11
540.6445890119941
 21
-136.2754213341856
 31
0.0
 12
540.4100848378621
 22
-136.9789338565827
 32
0.0
 13
540.6445890119941
 23
-136.9789338565827
 33
0.0
  0
SOLID
  5
2B9C
330
2
100
AcDbEntity
  8
LOGO
 62
     5
100
AcDbTrace
 10
535.8372299918653
 20
-135.6422600640285
 30
0.0
 11
536.0717341659982
 21
-135.6422600640285
 31
0.0
 12
535.8372299918653
 22
-135.4546567247226
 32
0.0
 13
536.0717341659982
 23
-135.4546567247226
 33
0.0
  0
SOLID
  5
2B9D
330
2
100
AcDbEntity
  8
LOGO
 62
     5
100
AcDbTrace
 10
535.8372299918653
 20
-135.8064129859211
 30
0.0
 11
536.0717341659982
 21
-135.8064129859211
 31
0.0
 12
535.8372299918653
 22
-136.9789338565827
 32
0.0
 13
536.0717341659982
 23
-136.9789338565823
 33
0.0
  0
SOLID
  5
2B9E
330
2
100
AcDbEntity
  8
LOGO
 62
     5
100
AcDbTrace
 10
538.1432267881945
 20
-134.6338921152598
 30
0.0
 11
538.8232888931786
 21
-134.6338921152598
 31
0.0
 12
538.1432267881945
 22
-131.1944975613201
 32
0.0
 13
538.8232888931786
 23
-128.7009365097137
 33
0.0
  0
SOLID
  5
2B9F
330
2
100
AcDbEntity
  8
LOGO
 62
     5
100
AcDbTrace
 10
539.1046939021377
 20
-128.1850273266227
 30
0.0
 11
539.7847560071209
 21
-128.1850273266223
 31
0.0
 12
539.1046939021377
 22
-134.1179829321689
 32
0.0
 13
539.7847560071209
 23
-131.6244218805625
 33
0.0
  0
SOLID
  5
2BA0
330
2
100
AcDbEntity
  8
LOGO
 62
     2
100
AcDbTrace
 10
538.8232888931786
 20
-128.1850273266227
 30
0.0
 11
539.1046939021377
 21
-128.1850273266227
 31
0.0
 12
538.8232888931786
 22
-134.6338921152598
 32
0.0
 13
539.1046939021377
 23
-134.6338921152598
 33
0.0
  0
SOLID
  5
2BA1
330
2
100
AcDbEntity
  8
LOGO
 62
     5
100
AcDbTrace
 10
539.1046939021377
 20
-134.1179829321689
 30
0.0
 11
539.7847560071209
 21
-131.6244218805625
 31
0.0
 12
542.3408515051622
 22
-128.1850273266223
 32
0.0
 13
541.6607894001792
 23
-128.1850273266223
 33
0.0
  0
SOLID
  5
2BA2
330
2
100
AcDbEntity
  8
LOGO
 62
     5
100
AcDbTrace
 10
539.1046939021377
 20
-134.6338921152598
 30
0.0
 11
539.7847560071209
 21
-134.6338921152598
 31
0.0
 12
542.3408515051622
 22
-128.7009365097137
 32
0.0
 13
541.6607894001792
 23
-131.1944975613201
 33
0.0
  0
SOLID
  5
2BA3
330
2
100
AcDbEntity
  8
LOGO
 62
     2
100
AcDbTrace
 10
538.8232888931786
 20
-134.6338921152598
 30
0.0
 11
539.1046939021377
 21
-134.6338921152598
 31
0.0
 12
542.3408515051622
 22
-128.1850273266223
 32
0.0
 13
542.6222565141215
 23
-128.1850273266227
 33
0.0
  0
TEXT
  5
2BE2
330
2
100
AcDbEntity
  8
LOGO
100
AcDbText
 10
568.220541486353
 20
-142.7032174012395
 30
0.0
 40
1.573084799999999
  1
20807102
 41
0.7
  7
CHINESET
 72
     1
 11
572.1532534863531
 21
-142.7032174012395
 31
0.0
100
AcDbText
  0
LINE
  5
2BE3
330
2
100
AcDbEntity
  8
LOGO
 62
     4
100
AcDbLine
 10
577.0351630787351
 20
-140.3942570834856
 30
0.0
 11
577.0351630787356
 21
-143.5399711295166
 31
0.0
  0
LINE
  5
2BE4
330
2
100
AcDbEntity
  8
LOGO
 62
     4
100
AcDbLine
 10
577.0351630787351
 20
-140.3942570834856
 30
0.0
 11
567.5966542787356
 21
-140.3942570834856
 31
0.0
  0
CIRCLE
  5
2BE5
330
2
100
AcDbEntity
  8
LOGO
  6
Continuous
100
AcDbCircle
 10
560.0232822999259
 20
-132.5266076157268
 30
0.0
 40
0.9132378084438222
  0
CIRCLE
  5
2BE6
330
2
100
AcDbEntity
  8
LOGO
  6
Continuous
100
AcDbCircle
 10
560.0232822999259
 20
-132.5266076157268
 30
0.0
 40
0.5350765113789635
  0
LINE
  5
2BE7
330
2
100
AcDbEntity
  8
LOGO
100
AcDbLine
 10
565.7621746558207
 20
-133.4398454241708
 30
0.0
 11
565.7621746558207
 21
-131.6133698072828
 31
0.0
  0
LINE
  5
2BE8
330
2
100
AcDbEntity
  8
LOGO
100
AcDbLine
 10
562.8992265487012
 20
-133.0616841271057
 30
0.0
 11
562.8992265487012
 21
-131.9915311043477
 31
0.0
  0
LINE
  5
2BE9
330
2
100
AcDbEntity
  8
LOGO
  6
Continuous
100
AcDbLine
 10
562.8992265487012
 20
-131.9915311043477
 30
0.0
 11
565.7621746558207
 21
-131.6133698072828
 31
0.0
  0
LINE
  5
2BEA
330
2
100
AcDbEntity
  8
LOGO
  6
Continuous
100
AcDbLine
 10
562.8992265487012
 20
-133.0616841271057
 30
0.0
 11
565.7621746558207
 21
-133.4398454241708
 31
0.0
  0
LINE
  5
2BEB
330
2
100
AcDbEntity
  8
LOGO
  6
AM_ISO08W050x2
 48
0.3
100
AcDbLine
 10
558.7643703063268
 20
-132.5266076157268
 30
0.0
 11
561.282194293525
 21
-132.5266076157268
 31
0.0
1001
GENIUS_GENOREF_13
1005
2C02
  0
LINE
  5
2BEC
330
2
100
AcDbEntity
  8
LOGO
  6
AM_ISO08W050x2
 48
0.3
100
AcDbLine
 10
560.0232822999259
 20
-133.7855196093259
 30
0.0
 11
560.0232822999259
 21
-131.2676956221276
 31
0.0
1001
GENIUS_GENOREF_13
1005
2C01
  0
LINE
  5
2BED
330
2
100
AcDbEntity
  8
LOGO
  6
CENTER
 48
0.5
100
AcDbLine
 10
562.670270275402
 20
-132.5266076157268
 30
0.0
 11
566.050464262367
 21
-132.5266076157268
 31
0.0
1001
GENIUS_GENOREF_13
1005
2C00
  0
POINT
  5
2C00
330
2
100
AcDbEntity
  8
0
 60
     1
100
AcDbPoint
 10
-1811.703739739273
 20
-1443.309492803441
 30
0.0
1001
GENIUS_GENOBJ-N-CRS_13
1002
{
1000
OWNER
1000
GEN
1002
}
1001
GENIUS_GENOLIS_13
1002
{
1000
ENT
1005
0
1005
0
1005
0
1005
2BED
1002
}
1001
GENIUS_GENOENT_13
1002
{
1000
MYREF
1005
2C00
1002
}
1002
{
1000
GRP
1005
0
1002
}
1001
GENIUS_GENODEF_13
1002
{
1000
HIER
1070
    10
1002
}
1002
{
1000
MANEDIT
1070
     1
1002
}
1002
{
1000
NOSEL
1070
     0
1002
}
1002
{
1000
BEHIND
1070
     0
1002
}
1002
{
1000
OTHER
1070
     0
1002
}
1002
{
1000
REACTOR
1002
}
  0
POINT
  5
2C01
330
2
100
AcDbEntity
  8
0
 60
     1
100
AcDbPoint
 10
-1823.028324962128
 20
-1434.433906324805
 30
0.0
1001
GENIUS_GENOBJ-N-CRS_13
1002
{
1000
OWNER
1000
GEN
1002
}
1001
GENIUS_GENOLIS_13
1002
{
1000
ENT
1005
0
1005
0
1005
0
1005
2BEC
1002
}
1001
GENIUS_GENOENT_13
1002
{
1000
MYREF
1005
2C01
1002
}
1002
{
1000
GRP
1005
0
1002
}
1001
GENIUS_GENODEF_13
1002
{
1000
HIER
1070
    10
1002
}
1002
{
1000
MANEDIT
1070
     1
1002
}
1002
{
1000
NOSEL
1070
     0
1002
}
1002
{
1000
BEHIND
1070
     0
1002
}
1002
{
1000
OTHER
1070
     0
1002
}
1002
{
1000
REACTOR
1002
}
  0
POINT
  5
2C02
330
2
100
AcDbEntity
  8
0
 60
     1
100
AcDbPoint
 10
-1816.669651264291
 20
-1443.309492803441
 30
0.0
1001
GENIUS_GENOBJ-N-CRS_13
1002
{
1000
OWNER
1000
GEN
1002
}
1001
GENIUS_GENOLIS_13
1002
{
1000
ENT
1005
0
1005
0
1005
0
1005
2BEB
1002
}
1001
GENIUS_GENOENT_13
1002
{
1000
MYREF
1005
2C02
1002
}
1002
{
1000
GRP
1005
0
1002
}
1001
GENIUS_GENODEF_13
1002
{
1000
HIER
1070
    10
1002
}
1002
{
1000
MANEDIT
1070
     1
1002
}
1002
{
1000
NOSEL
1070
     0
1002
}
1002
{
1000
BEHIND
1070
     0
1002
}
1002
{
1000
OTHER
1070
     0
1002
}
1002
{
1000
REACTOR
1002
}
  0
DIMENSION
  5
32DE
330
2
100
AcDbEntity
  8
AM_REFDIM
100
AcDbDimension
  2
*D12
 10
582.0920720597269
 20
-8.084582117650654
 30
0.0
 11
600.6203369033246
 21
-17.21205385053264
 31
0.0
 70
   163
  1
2-<> thru
 71
     5
 42
1.700000000000102
  3
STANDARD
100
AcDbDiametricDimension
 15
583.2591799459817
 25
-9.320648127959941
 35
0.0
 40
0.0
1001
GENIUS_GENDTOL_13
1000

1000
lc3
1000

1040
0.0
1001
ACAD
1000
DSTYLE
1002
{
1070
   288
1070
     1
1070
   289
1070
     3
1070
   172
1070
     0
1070
    74
1070
     1
1070
   144
1040
1.0
1002
}
  0
CIRCLE
  5
32DF
330
2
100
AcDbEntity
  8
AM_4
  6
HIDDEN2
100
AcDbCircle
 10
580.9256260028545
 20
-2.602615122805275
 30
0.0
 40
1.5
  0
CIRCLE
  5
32E0
330
2
100
AcDbEntity
  8
AM_4
  6
HIDDEN2
100
AcDbCircle
 10
573.9256260028545
 20
-6.602615122805275
 30
0.0
 40
1.5
  0
LINE
  5
32E1
330
2
100
AcDbEntity
  8
AM_7
100
AcDbLine
 10
577.1756260028545
 20
-4.602615122805275
 30
0.0
 11
571.2256260028545
 21
-4.602615122805275
 31
0.0
  0
LINE
  5
32E2
330
2
100
AcDbEntity
  8
AM_7
100
AcDbLine
 10
581.6756260028545
 20
-8.702615122805269
 30
0.0
 11
583.6756260028545
 21
-8.702615122805269
 31
0.0
  0
LINE
  5
32E3
330
2
100
AcDbEntity
  8
AM_7
100
AcDbLine
 10
582.6756260028544
 20
-9.702615122805269
 30
0.0
 11
582.6756260028544
 21
-7.702615122805269
 31
0.0
  0
LINE
  5
32E4
330
2
100
AcDbEntity
  8
AM_7
100
AcDbLine
 10
579.4756260028544
 20
-8.702615122805269
 30
0.0
 11
580.8756260028546
 21
-8.702615122805269
 31
0.0
  0
LINE
  5
32E5
330
2
100
AcDbEntity
  8
AM_7
100
AcDbLine
 10
584.4756260028544
 20
-8.702615122805269
 30
0.0
 11
585.8756260028544
 21
-8.702615122805269
 31
0.0
  0
LINE
  5
32E6
330
2
100
AcDbEntity
  8
AM_7
100
AcDbLine
 10
582.6756260028544
 20
-11.90261512280526
 30
0.0
 11
582.6756260028544
 21
-10.50261512280528
 31
0.0
  0
LINE
  5
32E7
330
2
100
AcDbEntity
  8
AM_7
100
AcDbLine
 10
582.6756260028544
 20
-6.902615122805258
 30
0.0
 11
582.6756260028544
 21
-5.502615122805281
 31
0.0
  0
LINE
  5
32E8
330
2
100
AcDbEntity
  8
AM_7
100
AcDbLine
 10
574.6756260028545
 20
-0.5026151228052811
 30
0.0
 11
576.6756260028545
 21
-0.5026151228052811
 31
0.0
  0
LINE
  5
32E9
330
2
100
AcDbEntity
  8
AM_7
100
AcDbLine
 10
575.6756260028545
 20
-1.502615122805281
 30
0.0
 11
575.6756260028545
 21
0.4973848771947189
 31
0.0
  0
LINE
  5
32EA
330
2
100
AcDbEntity
  8
AM_7
100
AcDbLine
 10
572.4756260028544
 20
-0.5026151228052811
 30
0.0
 11
573.8756260028545
 21
-0.5026151228052811
 31
0.0
  0
LINE
  5
32EB
330
2
100
AcDbEntity
  8
AM_7
100
AcDbLine
 10
577.4756260028545
 20
-0.5026151228052811
 30
0.0
 11
578.8756260028545
 21
-0.5026151228052811
 31
0.0
  0
LINE
  5
32EC
330
2
100
AcDbEntity
  8
AM_7
100
AcDbLine
 10
575.6756260028545
 20
-3.702615122805269
 30
0.0
 11
575.6756260028545
 21
-2.302615122805292
 31
0.0
  0
LINE
  5
32ED
330
2
100
AcDbEntity
  8
AM_7
100
AcDbLine
 10
575.6756260028545
 20
1.29738487719473
 30
0.0
 11
575.6756260028545
 21
2.697384877194707
 31
0.0
  0
LINE
  5
32EE
330
2
100
AcDbEntity
  8
AM_7
100
AcDbLine
 10
579.9256260028545
 20
-2.602615122805275
 30
0.0
 11
581.9256260028545
 21
-2.602615122805275
 31
0.0
  0
LINE
  5
32EF
330
2
100
AcDbEntity
  8
AM_7
100
AcDbLine
 10
580.9256260028545
 20
-3.602615122805275
 30
0.0
 11
580.9256260028545
 21
-1.602615122805275
 31
0.0
  0
LINE
  5
32F0
330
2
100
AcDbEntity
  8
AM_7
100
AcDbLine
 10
578.0756260028545
 20
-2.602615122805275
 30
0.0
 11
579.1256260028545
 21
-2.602615122805275
 31
0.0
  0
LINE
  5
32F1
330
2
100
AcDbEntity
  8
AM_7
100
AcDbLine
 10
582.7256260028544
 20
-2.602615122805275
 30
0.0
 11
583.7756260028544
 21
-2.602615122805275
 31
0.0
  0
LINE
  5
32F2
330
2
100
AcDbEntity
  8
AM_7
100
AcDbLine
 10
580.9256260028545
 20
-5.452615122805269
 30
0.0
 11
580.9256260028545
 21
-4.402615122805286
 31
0.0
  0
LINE
  5
32F3
330
2
100
AcDbEntity
  8
AM_7
100
AcDbLine
 10
580.9256260028545
 20
-0.802615122805264
 30
0.0
 11
580.9256260028545
 21
0.2473848771947189
 31
0.0
  0
LINE
  5
32F4
330
2
100
AcDbEntity
  8
AM_7
100
AcDbLine
 10
572.9256260028545
 20
-6.602615122805275
 30
0.0
 11
574.9256260028545
 21
-6.602615122805275
 31
0.0
  0
LINE
  5
32F5
330
2
100
AcDbEntity
  8
AM_7
100
AcDbLine
 10
573.9256260028545
 20
-7.602615122805275
 30
0.0
 11
573.9256260028545
 21
-5.602615122805275
 31
0.0
  0
LINE
  5
32F6
330
2
100
AcDbEntity
  8
AM_7
100
AcDbLine
 10
571.0756260028545
 20
-6.602615122805275
 30
0.0
 11
572.1256260028545
 21
-6.602615122805275
 31
0.0
  0
LINE
  5
32F7
330
2
100
AcDbEntity
  8
AM_7
100
AcDbLine
 10
575.7256260028545
 20
-6.602615122805275
 30
0.0
 11
576.7756260028544
 21
-6.602615122805275
 31
0.0
  0
LINE
  5
32F8
330
2
100
AcDbEntity
  8
AM_7
100
AcDbLine
 10
573.9256260028545
 20
-9.452615122805269
 30
0.0
 11
573.9256260028545
 21
-8.402615122805286
 31
0.0
  0
LINE
  5
32F9
330
2
100
AcDbEntity
  8
AM_7
100
AcDbLine
 10
573.9256260028545
 20
-4.802615122805264
 30
0.0
 11
573.9256260028545
 21
-3.752615122805281
 31
0.0
  0
LINE
  5
32FA
330
2
100
AcDbEntity
  8
AM_7
100
AcDbLine
 10
594.7256260028544
 20
-6.802615122805264
 30
0.0
 11
596.7256260028545
 21
-6.802615122805264
 31
0.0
  0
LINE
  5
32FC
330
2
100
AcDbEntity
  8
AM_7
100
AcDbLine
 10
593.4256260028545
 20
-6.802615122805264
 30
0.0
 11
593.9256260028545
 21
-6.802615122805264
 31
0.0
  0
LINE
  5
32FD
330
2
100
AcDbEntity
  8
AM_7
100
AcDbLine
 10
597.5256260028544
 20
-6.802615122805264
 30
0.0
 11
598.0256260028544
 21
-6.802615122805264
 31
0.0
  0
LINE
  5
3300
330
2
100
AcDbEntity
  8
AM_7
100
AcDbLine
 10
595.7256260028544
 20
-8.164542046622727
 30
0.0
 11
595.7256260028544
 21
-5.589086801335838
 31
0.0
  0
LINE
  5
3301
330
2
100
AcDbEntity
  8
AM_7
100
AcDbLine
 10
561.7756260028544
 20
-3.002615122805309
 30
0.0
 11
563.7756260028544
 21
-3.002615122805309
 31
0.0
  0
LINE
  5
3302
330
2
100
AcDbEntity
  8
AM_7
100
AcDbLine
 10
562.7756260028544
 20
-4.002615122805309
 30
0.0
 11
562.7756260028544
 21
-2.002615122805309
 31
0.0
  0
LINE
  5
3303
330
2
100
AcDbEntity
  8
AM_7
100
AcDbLine
 10
560.4756260028544
 20
-3.002615122805309
 30
0.0
 11
560.9756260028545
 21
-3.002615122805309
 31
0.0
  0
LINE
  5
3304
330
2
100
AcDbEntity
  8
AM_7
100
AcDbLine
 10
564.5756260028544
 20
-3.002615122805309
 30
0.0
 11
565.0756260028544
 21
-3.002615122805309
 31
0.0
  0
LINE
  5
3305
330
2
100
AcDbEntity
  8
AM_7
100
AcDbLine
 10
562.7756260028544
 20
-5.30261512280532
 30
0.0
 11
562.7756260028544
 21
-4.80261512280532
 31
0.0
  0
LINE
  5
3306
330
2
100
AcDbEntity
  8
AM_7
100
AcDbLine
 10
562.7756260028544
 20
-1.202615122805298
 30
0.0
 11
562.7756260028544
 21
-0.7026151228052982
 31
0.0
  0
LINE
  5
3307
330
2
100
AcDbEntity
  8
AM_7
100
AcDbLine
 10
565.9256260028545
 20
-4.602615122805303
 30
0.0
 11
560.3256260028545
 21
-4.602615122805303
 31
0.0
  0
DIMENSION
  5
3308
330
2
100
AcDbEntity
  8
AM_REFDIM
100
AcDbDimension
  2
*D13
 10
561.1756260028545
 20
-19.61800834334326
 30
0.0
 11
567.5506260028545
 21
-18.00800834334326
 31
0.0
 70
    32
 71
     5
 42
12.75
  3
STANDARD
100
AcDbAlignedDimension
 13
573.9256260028545
 23
-9.452615122805269
 33
0.0
 14
561.1756260028545
 24
-9.602615122805303
 34
0.0
100
AcDbRotatedDimension
  0
DIMENSION
  5
3309
330
2
100
AcDbEntity
  8
AM_REFDIM
100
AcDbDimension
  2
*D14
 10
580.9256260028545
 20
-19.61800834334326
 30
0.0
 11
577.4256260028545
 21
-18.00800834334326
 31
0.0
 70
    32
 71
     5
 42
7.0
  3
STANDARD
100
AcDbAlignedDimension
 13
573.9256260028545
 23
-9.452615122805269
 33
0.0
 14
580.9256260028545
 24
-5.452615122805269
 34
0.0
100
AcDbRotatedDimension
  0
DIMENSION
  5
330A
102
{ACAD_REACTORS
330
42D2
330
42EC
102
}
330
2
100
AcDbEntity
  8
AM_REFDIM
100
AcDbDimension
  2
*D15
 10
555.4337801082848
 20
-2.602615122805269
 30
0.0
 11
553.8237801082848
 21
-4.60261512280518
 31
0.0
 70
    32
 71
     5
 42
4.000000000000001
  3
STANDARD
100
AcDbAlignedDimension
 13
571.0756260028545
 23
-6.602615122805275
 33
0.0
 14
578.0756260028545
 24
-2.602615122805275
 34
0.0
 50
90.0
100
AcDbRotatedDimension
  0
DIMENSION
  5
330B
102
{ACAD_XDICTIONARY
360
42EB
102
}
102
{ACAD_REACTORS
330
42EC
102
}
330
2
100
AcDbEntity
  8
AM_REFDIM
100
AcDbDimension
  2
*D16
 10
548.4337801082848
 20
-0.5026151228052744
 30
0.0
 11
546.8237801082848
 21
-4.602615122805179
 31
0.0
 70
    32
 71
     5
 42
8.199999999999988
  3
STANDARD
100
AcDbAlignedDimension
 13
579.4756260028544
 23
-8.702615122805269
 33
0.0
 14
572.4756260028544
 24
-0.5026151228052811
 34
0.0
 50
90.0
100
AcDbRotatedDimension
1001
ACAD
1000
DSTYLE
1002
{
1070
   174
1070
     1
1002
}
  0
DIMENSION
  5
330C
330
2
100
AcDbEntity
  8
AM_REFDIM
100
AcDbDimension
  2
*D17
 10
561.1756260028545
 20
7.397384877194724
 30
0.0
 11
568.4256260028545
 21
9.007384877194724
 31
0.0
 70
    32
 71
     5
 42
14.5
  3
STANDARD
100
AcDbAlignedDimension
 13
575.6756260028545
 23
2.697384877194707
 33
0.0
 14
561.1756260028545
 24
0.3973848771946962
 34
0.0
100
AcDbRotatedDimension
  0
DIMENSION
  5
330D
330
2
100
AcDbEntity
  8
AM_REFDIM
100
AcDbDimension
  2
*D18
 10
582.6756260028544
 20
7.397384877194724
 30
0.0
 11
579.1756260028545
 21
9.007384877194724
 31
0.0
 70
    32
 71
     5
 42
7.0
  3
STANDARD
100
AcDbAlignedDimension
 13
575.6756260028545
 23
2.697384877194707
 33
0.0
 14
582.6756260028544
 24
-5.502615122805281
 34
0.0
100
AcDbRotatedDimension
  0
DIMENSION
  5
3310
102
{ACAD_XDICTIONARY
360
42D1
102
}
102
{ACAD_REACTORS
330
42D2
102
}
330
2
100
AcDbEntity
  8
AM_REFDIM
100
AcDbDimension
  2
*D20
 10
541.4337801082848
 20
0.3973848771947018
 30
0.0
 11
539.8237801082848
 21
-4.60261512280521
 31
0.0
 70
    32
 71
     5
 42
10.0
  3
STANDARD
100
AcDbAlignedDimension
 13
561.1756260028545
 23
-9.602615122805303
 33
0.0
 14
561.1756260028545
 24
0.3973848771946962
 34
0.0
 50
90.0
100
AcDbRotatedDimension
  0
LINE
  5
3311
330
2
100
AcDbEntity
  8
AM_7
100
AcDbLine
 10
584.1256260028544
 20
-4.602615122805275
 30
0.0
 11
578.1756260028545
 21
-4.602615122805275
 31
0.0
  0
LINE
  5
3312
330
2
100
AcDbEntity
  8
AM_7
100
AcDbLine
 10
576.4256260028544
 20
-47.66327438061384
 30
0.0
 11
578.4256260028545
 21
-47.66327438061384
 31
0.0
  0
LINE
  5
3313
330
2
100
AcDbEntity
  8
AM_7
100
AcDbLine
 10
577.4256260028545
 20
-48.66327438061384
 30
0.0
 11
577.4256260028545
 21
-46.66327438061384
 31
0.0
  0
LINE
  5
3314
330
2
100
AcDbEntity
  8
AM_7
100
AcDbLine
 10
575.1256260028545
 20
-47.66327438061384
 30
0.0
 11
575.6256260028544
 21
-47.66327438061384
 31
0.0
  0
LINE
  5
3315
330
2
100
AcDbEntity
  8
AM_7
100
AcDbLine
 10
579.2256260028544
 20
-47.66327438061384
 30
0.0
 11
579.7256260028545
 21
-47.66327438061384
 31
0.0
  0
LINE
  5
3316
330
2
100
AcDbEntity
  8
AM_7
100
AcDbLine
 10
577.4256260028545
 20
-49.96327438061385
 30
0.0
 11
577.4256260028545
 21
-49.46327438061385
 31
0.0
  0
LINE
  5
3317
330
2
100
AcDbEntity
  8
AM_7
100
AcDbLine
 10
577.4256260028545
 20
-45.86327438061383
 30
0.0
 11
577.4256260028545
 21
-45.36327438061383
 31
0.0
  0
LINE
  5
3318
330
2
100
AcDbEntity
  8
AM_7
100
AcDbLine
 10
564.5256260028544
 20
-47.66327438061381
 30
0.0
 11
579.0256260028544
 21
-47.66327438061381
 31
0.0
  0
LINE
  5
3319
330
2
100
AcDbEntity
  8
AM_7
100
AcDbLine
 10
582.6756260028544
 20
-44.36327438061383
 30
0.0
 11
582.6756260028544
 21
-48.96327438061385
 31
0.0
  0
LINE
  5
331A
330
2
100
AcDbEntity
  8
AM_7
100
AcDbLine
 10
600.3256260028544
 20
-53.56327438061382
 30
0.0
 11
593.3251956933406
 21
-53.56327438061382
 31
0.0
  0
LINE
  5
331B
330
2
100
AcDbEntity
  8
AM_7
100
AcDbLine
 10
594.7256260028544
 20
-53.16327438061382
 30
0.0
 11
596.7256260028545
 21
-53.16327438061382
 31
0.0
  0
LINE
  5
331C
330
2
100
AcDbEntity
  8
AM_7
100
AcDbLine
 10
595.7256260028544
 20
-54.16327438061381
 30
0.0
 11
595.7256260028544
 21
-52.16327438061381
 31
0.0
  0
LINE
  5
331D
330
2
100
AcDbEntity
  8
AM_7
100
AcDbLine
 10
593.4256260028545
 20
-53.16327438061382
 30
0.0
 11
593.9256260028545
 21
-53.16327438061382
 31
0.0
  0
LINE
  5
331E
330
2
100
AcDbEntity
  8
AM_7
100
AcDbLine
 10
597.5256260028544
 20
-53.16327438061382
 30
0.0
 11
598.0256260028544
 21
-53.16327438061382
 31
0.0
  0
LINE
  5
331F
330
2
100
AcDbEntity
  8
AM_7
100
AcDbLine
 10
595.7256260028544
 20
-55.46327438061382
 30
0.0
 11
595.7256260028544
 21
-54.96327438061382
 31
0.0
  0
LINE
  5
3320
330
2
100
AcDbEntity
  8
AM_7
100
AcDbLine
 10
595.7256260028544
 20
-51.3632743806138
 30
0.0
 11
595.7256260028544
 21
-50.8632743806138
 31
0.0
  0
LINE
  5
3321
330
2
100
AcDbEntity
  8
AM_7
100
AcDbLine
 10
559.5756260028545
 20
-47.96327438061377
 30
0.0
 11
564.2756260028544
 21
-47.96327438061377
 31
0.0
  0
LINE
  5
3322
330
2
100
AcDbEntity
  8
AM_7
100
AcDbLine
 10
615.3256260028545
 20
-54.86327438061386
 30
0.0
 11
608.6256260028545
 21
-54.86327438061386
 31
0.0
  0
LINE
  5
3323
330
2
100
AcDbEntity
  8
AM_7
100
AcDbLine
 10
615.5256260028545
 20
-53.46327438061383
 30
0.0
 11
610.1256260028544
 21
-53.46327438061383
 31
0.0
  0
LINE
  5
3324
330
2
100
AcDbEntity
  8
AM_7
100
AcDbLine
 10
605.2256260028545
 20
-61.66327438061384
 30
0.0
 11
605.2256260028545
 21
-54.63104465468987
 31
0.0
  0
LINE
  5
3325
330
2
100
AcDbEntity
  8
AM_7
100
AcDbLine
 10
576.4256260028544
 20
-103.6006909265075
 30
0.0
 11
578.4256260028545
 21
-103.6006909265075
 31
0.0
  0
LINE
  5
3326
330
2
100
AcDbEntity
  8
AM_7
100
AcDbLine
 10
577.4256260028545
 20
-104.6006909265075
 30
0.0
 11
577.4256260028545
 21
-102.6006909265075
 31
0.0
  0
LINE
  5
3327
330
2
100
AcDbEntity
  8
AM_7
100
AcDbLine
 10
574.5756260028545
 20
-103.6006909265075
 30
0.0
 11
575.6256260028544
 21
-103.6006909265075
 31
0.0
  0
LINE
  5
3328
330
2
100
AcDbEntity
  8
AM_7
100
AcDbLine
 10
579.2256260028544
 20
-103.6006909265075
 30
0.0
 11
580.2756260028544
 21
-103.6006909265075
 31
0.0
  0
LINE
  5
3329
102
{ACAD_REACTORS
330
3A69
330
3A85
102
}
330
2
100
AcDbEntity
  8
AM_7
100
AcDbLine
 10
577.4256260028545
 20
-106.4506909265075
 30
0.0
 11
577.4256260028545
 21
-105.4006909265075
 31
0.0
  0
LINE
  5
332A
102
{ACAD_REACTORS
330
397E
102
}
330
2
100
AcDbEntity
  8
AM_7
100
AcDbLine
 10
577.4256260028545
 20
-101.8006909265075
 30
0.0
 11
577.4256260028545
 21
-100.7506909265075
 31
0.0
  0
LINE
  5
332B
330
2
100
AcDbEntity
  8
AM_7
100
AcDbLine
 10
569.4256260028545
 20
-103.6006909265075
 30
0.0
 11
571.4256260028545
 21
-103.6006909265075
 31
0.0
  0
LINE
  5
332C
330
2
100
AcDbEntity
  8
AM_7
100
AcDbLine
 10
570.4256260028545
 20
-104.6006909265075
 30
0.0
 11
570.4256260028545
 21
-102.6006909265075
 31
0.0
  0
LINE
  5
332D
330
2
100
AcDbEntity
  8
AM_7
100
AcDbLine
 10
567.5756260028545
 20
-103.6006909265075
 30
0.0
 11
568.6256260028544
 21
-103.6006909265075
 31
0.0
  0
LINE
  5
332E
330
2
100
AcDbEntity
  8
AM_7
100
AcDbLine
 10
572.2256260028545
 20
-103.6006909265075
 30
0.0
 11
573.2756260028544
 21
-103.6006909265075
 31
0.0
  0
LINE
  5
332F
102
{ACAD_REACTORS
330
3A85
102
}
330
2
100
AcDbEntity
  8
AM_7
100
AcDbLine
 10
570.4256260028545
 20
-106.4506909265075
 30
0.0
 11
570.4256260028545
 21
-105.4006909265075
 31
0.0
  0
LINE
  5
3330
330
2
100
AcDbEntity
  8
AM_7
100
AcDbLine
 10
570.4256260028545
 20
-101.8006909265075
 30
0.0
 11
570.4256260028545
 21
-100.7506909265075
 31
0.0
  0
LINE
  5
3331
330
2
100
AcDbEntity
  8
AM_7
100
AcDbLine
 10
583.4256260028545
 20
-103.6006909265075
 30
0.0
 11
585.4256260028545
 21
-103.6006909265075
 31
0.0
  0
LINE
  5
3332
330
2
100
AcDbEntity
  8
AM_7
100
AcDbLine
 10
584.4256260028545
 20
-104.6006909265075
 30
0.0
 11
584.4256260028545
 21
-102.6006909265075
 31
0.0
  0
LINE
  5
3333
330
2
100
AcDbEntity
  8
AM_7
100
AcDbLine
 10
581.5756260028544
 20
-103.6006909265075
 30
0.0
 11
582.6256260028544
 21
-103.6006909265075
 31
0.0
  0
LINE
  5
3334
330
2
100
AcDbEntity
  8
AM_7
100
AcDbLine
 10
586.2256260028544
 20
-103.6006909265075
 30
0.0
 11
587.2756260028544
 21
-103.6006909265075
 31
0.0
  0
LINE
  5
3335
102
{ACAD_REACTORS
330
3A69
102
}
330
2
100
AcDbEntity
  8
AM_7
100
AcDbLine
 10
584.4256260028545
 20
-106.4506909265075
 30
0.0
 11
584.4256260028545
 21
-105.4006909265075
 31
0.0
  0
LINE
  5
3336
330
2
100
AcDbEntity
  8
AM_7
100
AcDbLine
 10
584.4256260028545
 20
-101.8006909265075
 30
0.0
 11
584.4256260028545
 21
-100.7506909265075
 31
0.0
  0
LINE
  5
3337
330
2
100
AcDbEntity
  8
AM_7
100
AcDbLine
 10
574.6756260028545
 20
-107.7006909265075
 30
0.0
 11
576.6756260028545
 21
-107.7006909265075
 31
0.0
  0
LINE
  5
3338
330
2
100
AcDbEntity
  8
AM_7
100
AcDbLine
 10
575.6756260028545
 20
-108.7006909265075
 30
0.0
 11
575.6756260028545
 21
-106.7006909265075
 31
0.0
  0
LINE
  5
3339
330
2
100
AcDbEntity
  8
AM_7
100
AcDbLine
 10
573.2256260028544
 20
-107.7006909265075
 30
0.0
 11
573.8756260028544
 21
-107.7006909265075
 31
0.0
  0
LINE
  5
333A
330
2
100
AcDbEntity
  8
AM_7
100
AcDbLine
 10
577.4756260028545
 20
-107.7006909265075
 30
0.0
 11
578.1256260028544
 21
-107.7006909265075
 31
0.0
  0
LINE
  5
333C
330
2
100
AcDbEntity
  8
AM_7
100
AcDbLine
 10
575.6756260028545
 20
-105.9006909265075
 30
0.0
 11
575.6756260028545
 21
-105.2506909265075
 31
0.0
  0
LINE
  5
333D
330
2
100
AcDbEntity
  8
AM_7
100
AcDbLine
 10
581.6756260028545
 20
-99.50069092650753
 30
0.0
 11
583.6756260028545
 21
-99.50069092650753
 31
0.0
  0
LINE
  5
333E
330
2
100
AcDbEntity
  8
AM_7
100
AcDbLine
 10
582.6756260028544
 20
-100.5006909265075
 30
0.0
 11
582.6756260028544
 21
-98.50069092650754
 31
0.0
  0
LINE
  5
333F
330
2
100
AcDbEntity
  8
AM_7
100
AcDbLine
 10
580.2256260028545
 20
-99.50069092650753
 30
0.0
 11
580.8756260028544
 21
-99.50069092650753
 31
0.0
  0
LINE
  5
3340
330
2
100
AcDbEntity
  8
AM_7
100
AcDbLine
 10
584.4756260028544
 20
-99.50069092650753
 30
0.0
 11
585.1256260028544
 21
-99.50069092650753
 31
0.0
  0
LINE
  5
3341
330
2
100
AcDbEntity
  8
AM_7
100
AcDbLine
 10
582.6756260028544
 20
-101.9506909265075
 30
0.0
 11
582.6756260028544
 21
-101.3006909265075
 31
0.0
  0
LINE
  5
3342
330
2
100
AcDbEntity
  8
AM_7
100
AcDbLine
 10
582.6756260028544
 20
-97.70069092650752
 30
0.0
 11
582.6756260028544
 21
-97.05069092650754
 31
0.0
  0
LINE
  5
3343
330
2
100
AcDbEntity
  8
AM_7
100
AcDbLine
 10
574.7756260028544
 20
-103.6006909265075
 30
0.0
 11
586.2256260028544
 21
-103.6006909265075
 31
0.0
  0
LINE
  5
3344
330
2
100
AcDbEntity
  8
AM_7
100
AcDbLine
 10
615.5256260028545
 20
-103.6006909265074
 30
0.0
 11
610.1256260028544
 21
-103.6006909265074
 31
0.0
  0
LINE
  5
3345
330
2
100
AcDbEntity
  8
AM_7
100
AcDbLine
 10
615.3256260028545
 20
-106.8506909265074
 30
0.0
 11
608.6256260028545
 21
-106.8506909265074
 31
0.0
  0
LINE
  5
3346
330
2
100
AcDbEntity
  8
AM_7
100
AcDbLine
 10
615.3256260028545
 20
-100.3506909265075
 30
0.0
 11
608.6256260028545
 21
-100.3506909265075
 31
0.0
  0
LINE
  5
3347
330
2
100
AcDbEntity
  8
AM_7
100
AcDbLine
 10
604.2256260028544
 20
-103.6006909265074
 30
0.0
 11
606.2256260028545
 21
-103.6006909265074
 31
0.0
  0
LINE
  5
3348
330
2
100
AcDbEntity
  8
AM_7
100
AcDbLine
 10
605.2256260028545
 20
-104.6006909265075
 30
0.0
 11
605.2256260028545
 21
-102.6006909265074
 31
0.0
  0
LINE
  5
3349
330
2
100
AcDbEntity
  8
AM_7
100
AcDbLine
 10
600.2256260028545
 20
-103.6006909265074
 30
0.0
 11
603.4256260028545
 21
-103.6006909265074
 31
0.0
  0
LINE
  5
334A
330
2
100
AcDbEntity
  8
AM_7
100
AcDbLine
 10
607.0256260028544
 20
-103.6006909265074
 30
0.0
 11
610.2256260028545
 21
-103.6006909265074
 31
0.0
  0
LINE
  5
334B
330
2
100
AcDbEntity
  8
AM_7
100
AcDbLine
 10
605.2256260028545
 20
-108.6006909265075
 30
0.0
 11
605.2256260028545
 21
-105.4006909265074
 31
0.0
  0
LINE
  5
334C
330
2
100
AcDbEntity
  8
AM_7
100
AcDbLine
 10
605.2256260028545
 20
-101.8006909265074
 30
0.0
 11
605.2256260028545
 21
-98.60069092650746
 31
0.0
  0
CIRCLE
  5
334D
330
2
100
AcDbEntity
  8
AM_4
  6
HIDDEN2
100
AcDbCircle
 10
577.4256260028545
 20
-103.6006909265075
 30
0.0
 40
1.5
  0
CIRCLE
  5
334E
330
2
100
AcDbEntity
  8
AM_4
  6
HIDDEN2
100
AcDbCircle
 10
570.4256260028545
 20
-103.6006909265075
 30
0.0
 40
1.5
  0
CIRCLE
  5
334F
330
2
100
AcDbEntity
  8
AM_4
  6
HIDDEN2
100
AcDbCircle
 10
584.4256260028545
 20
-103.6006909265075
 30
0.0
 40
1.5
  0
LINE
  5
3350
330
2
100
AcDbEntity
  8
AM_7
100
AcDbLine
 10
645.9569239700434
 20
-61.66327438061384
 30
0.0
 11
645.9569239700434
 21
-54.63104465468987
 31
0.0
  0
LINE
  5
3351
330
2
100
AcDbEntity
  8
AM_7
100
AcDbLine
 10
644.9569239700434
 20
-53.46327438061383
 30
0.0
 11
646.9569239700434
 21
-53.46327438061383
 31
0.0
  0
LINE
  5
3352
330
2
100
AcDbEntity
  8
AM_7
100
AcDbLine
 10
645.9569239700434
 20
-54.46327438061382
 30
0.0
 11
645.9569239700434
 21
-52.46327438061382
 31
0.0
  0
LINE
  5
3353
330
2
100
AcDbEntity
  8
AM_7
100
AcDbLine
 10
641.3569239700436
 20
-53.46327438061383
 30
0.0
 11
644.1569239700434
 21
-53.46327438061383
 31
0.0
  0
LINE
  5
3354
330
2
100
AcDbEntity
  8
AM_7
100
AcDbLine
 10
647.7569239700435
 20
-53.46327438061383
 30
0.0
 11
650.5569239700434
 21
-53.46327438061383
 31
0.0
  0
LINE
  5
3355
330
2
100
AcDbEntity
  8
AM_7
100
AcDbLine
 10
645.9569239700434
 20
-58.06327438061382
 30
0.0
 11
645.9569239700434
 21
-55.26327438061383
 31
0.0
  0
LINE
  5
3356
330
2
100
AcDbEntity
  8
AM_7
100
AcDbLine
 10
645.9569239700434
 20
-51.66327438061381
 30
0.0
 11
645.9569239700434
 21
-48.86327438061383
 31
0.0
  0
LINE
  5
3357
330
2
100
AcDbEntity
  8
AM_7
100
AcDbLine
 10
641.7069239700435
 20
-54.86327438061386
 30
0.0
 11
643.7069239700434
 21
-54.86327438061386
 31
0.0
  0
LINE
  5
3358
330
2
100
AcDbEntity
  8
AM_7
100
AcDbLine
 10
642.7069239700434
 20
-55.86327438061386
 30
0.0
 11
642.7069239700434
 21
-53.86327438061385
 31
0.0
  0
LINE
  5
3359
330
2
100
AcDbEntity
  8
AM_7
100
AcDbLine
 10
638.6069239700435
 20
-54.86327438061386
 30
0.0
 11
640.9069239700435
 21
-54.86327438061386
 31
0.0
  0
LINE
  5
335A
330
2
100
AcDbEntity
  8
AM_7
100
AcDbLine
 10
644.5069239700435
 20
-54.86327438061386
 30
0.0
 11
646.8069239700435
 21
-54.86327438061386
 31
0.0
  0
LINE
  5
335B
330
2
100
AcDbEntity
  8
AM_7
100
AcDbLine
 10
642.7069239700434
 20
-58.96327438061385
 30
0.0
 11
642.7069239700434
 21
-56.66327438061387
 31
0.0
  0
LINE
  5
335C
330
2
100
AcDbEntity
  8
AM_7
100
AcDbLine
 10
642.7069239700434
 20
-53.06327438061384
 30
0.0
 11
642.7069239700434
 21
-50.76327438061387
 31
0.0
  0
LINE
  5
335D
330
2
100
AcDbEntity
  8
AM_7
100
AcDbLine
 10
648.2069239700434
 20
-54.86327438061383
 30
0.0
 11
650.2069239700435
 21
-54.86327438061383
 31
0.0
  0
LINE
  5
335E
330
2
100
AcDbEntity
  8
AM_7
100
AcDbLine
 10
649.2069239700434
 20
-55.86327438061383
 30
0.0
 11
649.2069239700434
 21
-53.86327438061383
 31
0.0
  0
LINE
  5
335F
330
2
100
AcDbEntity
  8
AM_7
100
AcDbLine
 10
645.1069239700435
 20
-54.86327438061383
 30
0.0
 11
647.4069239700435
 21
-54.86327438061383
 31
0.0
  0
LINE
  5
3360
330
2
100
AcDbEntity
  8
AM_7
100
AcDbLine
 10
651.0069239700435
 20
-54.86327438061383
 30
0.0
 11
653.3069239700434
 21
-54.86327438061383
 31
0.0
  0
LINE
  5
3361
330
2
100
AcDbEntity
  8
AM_7
100
AcDbLine
 10
649.2069239700434
 20
-58.96327438061383
 30
0.0
 11
649.2069239700434
 21
-56.66327438061384
 31
0.0
  0
LINE
  5
3362
330
2
100
AcDbEntity
  8
AM_7
100
AcDbLine
 10
649.2069239700434
 20
-53.06327438061382
 30
0.0
 11
649.2069239700434
 21
-50.76327438061383
 31
0.0
  0
LINE
  5
3363
330
2
100
AcDbEntity
  8
AM_7
100
AcDbLine
 10
646.4569239700434
 20
-40.66327438061381
 30
0.0
 11
648.4569239700435
 21
-40.66327438061381
 31
0.0
  0
LINE
  5
3364
330
2
100
AcDbEntity
  8
AM_7
100
AcDbLine
 10
647.4569239700435
 20
-41.66327438061381
 30
0.0
 11
647.4569239700435
 21
-39.66327438061382
 31
0.0
  0
LINE
  5
3365
330
2
100
AcDbEntity
  8
AM_7
100
AcDbLine
 10
645.6069239700435
 20
-40.66327438061381
 30
0.0
 11
645.6569239700435
 21
-40.66327438061381
 31
0.0
  0
LINE
  5
3366
330
2
100
AcDbEntity
  8
AM_7
100
AcDbLine
 10
649.2569239700435
 20
-40.66327438061381
 30
0.0
 11
649.3069239700434
 21
-40.66327438061381
 31
0.0
  0
LINE
  5
3367
330
2
100
AcDbEntity
  8
AM_7
100
AcDbLine
 10
647.4569239700435
 20
-42.5132743806138
 30
0.0
 11
647.4569239700435
 21
-42.46327438061382
 31
0.0
  0
LINE
  5
3368
330
2
100
AcDbEntity
  8
AM_7
100
AcDbLine
 10
647.4569239700435
 20
-38.8632743806138
 30
0.0
 11
647.4569239700435
 21
-38.81327438061382
 31
0.0
  0
LINE
  5
3369
330
2
100
AcDbEntity
  8
AM_7
100
AcDbLine
 10
643.4569239700435
 20
-40.66327438061381
 30
0.0
 11
645.4569239700434
 21
-40.66327438061381
 31
0.0
  0
LINE
  5
336A
330
2
100
AcDbEntity
  8
AM_7
100
AcDbLine
 10
644.4569239700435
 20
-41.66327438061381
 30
0.0
 11
644.4569239700435
 21
-39.66327438061382
 31
0.0
  0
LINE
  5
336B
330
2
100
AcDbEntity
  8
AM_7
100
AcDbLine
 10
642.6069239700435
 20
-40.66327438061381
 30
0.0
 11
642.6569239700435
 21
-40.66327438061381
 31
0.0
  0
LINE
  5
336C
330
2
100
AcDbEntity
  8
AM_7
100
AcDbLine
 10
646.2569239700435
 20
-40.66327438061381
 30
0.0
 11
646.3069239700435
 21
-40.66327438061381
 31
0.0
  0
LINE
  5
336D
330
2
100
AcDbEntity
  8
AM_7
100
AcDbLine
 10
644.4569239700435
 20
-42.5132743806138
 30
0.0
 11
644.4569239700435
 21
-42.46327438061382
 31
0.0
  0
LINE
  5
336E
330
2
100
AcDbEntity
  8
AM_7
100
AcDbLine
 10
644.4569239700435
 20
-38.8632743806138
 30
0.0
 11
644.4569239700435
 21
-38.81327438061382
 31
0.0
  0
LINE
  5
336F
330
2
100
AcDbEntity
  8
AM_VIS
100
AcDbLine
 10
562.2039739152475
 20
0.4561206664008353
 30
0.0
 11
562.6756260028545
 21
0.4973848771947189
 31
0.0
  0
LINE
  5
3370
330
2
100
AcDbEntity
  8
AM_VIS
100
AcDbLine
 10
562.6756260028545
 20
0.4973848771947189
 30
0.0
 11
562.6756260028545
 21
0.3973848771946962
 31
0.0
  0
ARC
  5
3371
330
2
100
AcDbEntity
  8
AM_VIS
100
AcDbCircle
 10
562.2597535906059
 20
-0.1814439403779033
 30
0.0
 40
0.6400000000000002
100
AcDbArc
 50
94.99999999999982
 51
115.2547165609067
  0
LINE
  5
3372
330
2
100
AcDbEntity
  8
AM_VIS
100
AcDbLine
 10
562.2039739152475
 20
-9.661350912011414
 30
0.0
 11
562.6756260028545
 21
-9.702615122805298
 31
0.0
  0
LINE
  5
3373
330
2
100
AcDbEntity
  8
AM_VIS
100
AcDbLine
 10
562.6756260028545
 20
-9.602615122805303
 30
0.0
 11
562.6756260028545
 21
-9.702615122805298
 31
0.0
  0
ARC
  5
3374
330
2
100
AcDbEntity
  8
AM_VIS
100
AcDbCircle
 10
562.2597535906059
 20
-9.023786305232675
 30
0.0
 40
0.6400000000000002
100
AcDbArc
 50
244.7452834391002
 51
265.0000000000002
  0
LINE
  5
3375
330
2
100
AcDbEntity
  8
AM_VIS
100
AcDbLine
 10
597.9972780904614
 20
-9.661350912011414
 30
0.0
 11
597.5256260028544
 21
-9.702615122805298
 31
0.0
  0
LINE
  5
3376
330
2
100
AcDbEntity
  8
AM_VIS
100
AcDbLine
 10
597.5256260028544
 20
-9.702615122805298
 30
0.0
 11
597.5256260028544
 21
-9.602615122805246
 31
0.0
  0
ARC
  5
3377
330
2
100
AcDbEntity
  8
AM_VIS
100
AcDbCircle
 10
597.9414984151029
 20
-9.023786305232675
 30
0.0
 40
0.6400000000000002
100
AcDbArc
 50
274.9999999999998
 51
295.2547165609077
  0
LINE
  5
3378
330
2
100
AcDbEntity
  8
AM_VIS
100
AcDbLine
 10
597.9972780904614
 20
0.4561206664008637
 30
0.0
 11
597.5256260028544
 21
0.4973848771947474
 31
0.0
  0
LINE
  5
3379
330
2
100
AcDbEntity
  8
AM_VIS
100
AcDbLine
 10
597.5256260028544
 20
0.3973848771947246
 30
0.0
 11
597.5256260028544
 21
0.4973848771947474
 31
0.0
  0
ARC
  5
337A
330
2
100
AcDbEntity
  8
AM_VIS
100
AcDbCircle
 10
597.9414984151029
 20
-0.1814439403779033
 30
0.0
 40
0.6400000000000002
100
AcDbArc
 50
64.74528343909952
 51
85.00000000000019
  0
LINE
  5
337B
330
2
100
AcDbEntity
  8
AM_VIS
100
AcDbLine
 10
584.2756260028544
 20
-9.602615122805275
 30
0.0
 11
583.6756260028545
 21
-9.602615122805275
 31
0.0
  0
LINE
  5
337C
330
2
100
AcDbEntity
  8
AM_VIS
100
AcDbLine
 10
583.6756260028545
 20
-9.602615122805275
 30
0.0
 11
583.1756260028545
 21
-10.10261512280527
 31
0.0
  0
LINE
  5
337D
330
2
100
AcDbEntity
  8
AM_VIS
100
AcDbLine
 10
583.1756260028545
 20
-10.10261512280527
 30
0.0
 11
582.1756260028545
 21
-10.10261512280527
 31
0.0
  0
LINE
  5
337E
330
2
100
AcDbEntity
  8
AM_VIS
100
AcDbLine
 10
582.1756260028545
 20
-10.10261512280527
 30
0.0
 11
581.6756260028545
 21
-9.602615122805275
 31
0.0
  0
LINE
  5
337F
330
2
100
AcDbEntity
  8
AM_VIS
100
AcDbLine
 10
574.0756260028545
 20
0.3973848771947246
 30
0.0
 11
574.6756260028545
 21
0.3973848771947246
 31
0.0
  0
LINE
  5
3380
330
2
100
AcDbEntity
  8
AM_VIS
100
AcDbLine
 10
574.6756260028545
 20
0.3973848771946962
 30
0.0
 11
575.1756260028545
 21
0.8973848771946961
 31
0.0
  0
LINE
  5
3381
330
2
100
AcDbEntity
  8
AM_VIS
100
AcDbLine
 10
575.1756260028545
 20
0.8973848771946961
 30
0.0
 11
576.1756260028545
 21
0.8973848771946961
 31
0.0
  0
LINE
  5
3382
330
2
100
AcDbEntity
  8
AM_VIS
100
AcDbLine
 10
576.1756260028545
 20
0.8973848771946961
 30
0.0
 11
576.6756260028545
 21
0.3973848771946962
 31
0.0
  0
ARC
  5
3383
330
2
100
AcDbEntity
  8
AM_VIS
100
AcDbCircle
 10
573.9256260028545
 20
-2.012080205677875
 30
0.0
 40
5.447830587513865
100
AcDbArc
 50
264.0989369751335
 51
275.9010630248665
  0
ARC
  5
3384
330
2
100
AcDbEntity
  8
AM_VIS
100
AcDbCircle
 10
580.9256260028522
 20
-7.193150039889616
 30
0.0
 40
5.447830587470797
100
AcDbArc
 50
84.09893697505488
 51
95.90106302489269
  0
LINE
  5
3385
330
2
100
AcDbEntity
  8
AM_VIS
100
AcDbLine
 10
576.6756260028545
 20
0.3973848771947246
 30
0.0
 11
577.2756260028544
 21
0.3973848771947246
 31
0.0
  0
LINE
  5
3386
330
2
100
AcDbEntity
  8
AM_VIS
100
AcDbLine
 10
565.6256260028544
 20
0.3973848771947246
 30
0.0
 11
565.6256260028544
 21
-9.602615122805275
 31
0.0
  0
LINE
  5
3387
330
2
100
AcDbEntity
  8
AM_VIS
100
AcDbLine
 10
565.6256260028544
 20
0.3973848771947246
 30
0.0
 11
574.0756260028545
 21
0.3973848771947246
 31
0.0
  0
LINE
  5
3388
330
2
100
AcDbEntity
  8
AM_VIS
100
AcDbLine
 10
574.0756260028545
 20
-0.5026151228053095
 30
0.0
 11
574.0756260028545
 21
0.3973848771946962
 31
0.0
  0
LINE
  5
3389
330
2
100
AcDbEntity
  8
AM_VIS
100
AcDbLine
 10
577.2756260028544
 20
0.3973848771947246
 30
0.0
 11
577.2756260028544
 21
-0.5026151228052811
 31
0.0
  0
LINE
  5
338A
330
2
100
AcDbEntity
  8
AM_VIS
100
AcDbLine
 10
577.2756260028544
 20
0.3973848771947246
 30
0.0
 11
581.5756260028544
 21
0.3973848771947246
 31
0.0
  0
LINE
  5
338B
330
2
100
AcDbEntity
  8
AM_VIS
100
AcDbLine
 10
582.0756260028544
 20
-0.1026151228052754
 30
0.0
 11
581.5756260028544
 21
0.3973848771947246
 31
0.0
  0
LINE
  5
338C
330
2
100
AcDbEntity
  8
AM_VIS
100
AcDbLine
 10
585.4756260028544
 20
-0.1026151228052754
 30
0.0
 11
582.0756260028544
 21
-0.1026151228052754
 31
0.0
  0
LINE
  5
338D
330
2
100
AcDbEntity
  8
AM_VIS
100
AcDbLine
 10
585.9756260028545
 20
0.3973848771946962
 30
0.0
 11
585.4756260028544
 21
-0.1026151228053038
 31
0.0
  0
LINE
  5
338E
330
2
100
AcDbEntity
  8
AM_VIS
100
AcDbLine
 10
585.9756260028545
 20
0.3973848771947246
 30
0.0
 11
589.2256260028545
 21
0.3973848771947246
 31
0.0
  0
LINE
  5
338F
330
2
100
AcDbEntity
  8
AM_VIS
100
AcDbLine
 10
589.2256260028545
 20
-9.602615122805275
 30
0.0
 11
589.2256260028545
 21
0.3973848771947246
 31
0.0
  0
LINE
  5
3390
330
2
100
AcDbEntity
  8
AM_VIS
100
AcDbLine
 10
584.2756260028544
 20
-9.602615122805275
 30
0.0
 11
589.2256260028545
 21
-9.602615122805275
 31
0.0
  0
LINE
  5
3391
330
2
100
AcDbEntity
  8
AM_VIS
100
AcDbLine
 10
584.2756260028544
 20
-8.702615122805298
 30
0.0
 11
584.2756260028544
 21
-9.602615122805303
 31
0.0
  0
LINE
  5
3392
330
2
100
AcDbEntity
  8
AM_VIS
100
AcDbLine
 10
581.0756260028544
 20
-9.602615122805303
 30
0.0
 11
581.0756260028544
 21
-8.702615122805298
 31
0.0
  0
LINE
  5
3393
330
2
100
AcDbEntity
  8
AM_VIS
100
AcDbLine
 10
565.6256260028544
 20
-9.602615122805275
 30
0.0
 11
574.5756260028545
 21
-9.602615122805275
 31
0.0
  0
LINE
  5
3394
330
2
100
AcDbEntity
  8
AM_VIS
100
AcDbLine
 10
578.9756260028545
 20
-9.602615122805275
 30
0.0
 11
581.0756260028544
 21
-9.602615122805275
 31
0.0
  0
LINE
  5
3395
330
2
100
AcDbEntity
  8
AM_VIS
100
AcDbLine
 10
581.6756260028545
 20
-9.602615122805275
 30
0.0
 11
581.0756260028544
 21
-9.602615122805275
 31
0.0
  0
LINE
  5
3396
330
2
100
AcDbEntity
  8
AM_VIS
100
AcDbLine
 10
575.0756260028545
 20
-9.102615122805275
 30
0.0
 11
578.4756260028545
 21
-9.102615122805275
 31
0.0
  0
LINE
  5
3397
330
2
100
AcDbEntity
  8
AM_VIS
100
AcDbLine
 10
578.4756260028545
 20
-9.102615122805275
 30
0.0
 11
578.9756260028545
 21
-9.602615122805275
 31
0.0
  0
LINE
  5
3398
330
2
100
AcDbEntity
  8
AM_VIS
100
AcDbLine
 10
574.5756260028545
 20
-9.602615122805303
 30
0.0
 11
575.0756260028545
 21
-9.102615122805303
 31
0.0
  0
CIRCLE
  5
3399
330
2
100
AcDbEntity
  8
AM_VIS
100
AcDbCircle
 10
582.6756260028544
 20
-8.702615122805298
 30
0.0
 40
0.85
  0
CIRCLE
  5
339A
330
2
100
AcDbEntity
  8
AM_VIS
100
AcDbCircle
 10
575.6756260028545
 20
-0.5026151228053095
 30
0.0
 40
0.85
  0
CIRCLE
  5
339B
330
2
100
AcDbEntity
  8
AM_VIS
100
AcDbCircle
 10
573.9256260028545
 20
-6.602615122805275
 30
0.0
 40
1.25
  0
CIRCLE
  5
339C
330
2
100
AcDbEntity
  8
AM_VIS
100
AcDbCircle
 10
580.9256260028545
 20
-2.602615122805303
 30
0.0
 40
1.25
  0
CIRCLE
  5
339D
330
2
100
AcDbEntity
  8
AM_VIS
100
AcDbCircle
 10
573.9256260028545
 20
-6.602615122805275
 30
0.0
 40
1.0
  0
CIRCLE
  5
339E
330
2
100
AcDbEntity
  8
AM_VIS
100
AcDbCircle
 10
580.9256260028545
 20
-2.602615122805303
 30
0.0
 40
1.0
  0
ARC
  5
339F
330
2
100
AcDbEntity
  8
AM_VIS
100
AcDbCircle
 10
575.6756260028545
 20
-0.5026151228053095
 30
0.0
 40
1.6
100
AcDbArc
 50
180.0
 51
0.0
  0
ARC
  5
33A0
330
2
100
AcDbEntity
  8
AM_VIS
100
AcDbCircle
 10
582.6756260028544
 20
-8.702615122805298
 30
0.0
 40
1.6
100
AcDbArc
 50
0.0
 51
180.0
  0
CIRCLE
  5
33A1
330
2
100
AcDbEntity
  8
AM_VIS
100
AcDbCircle
 10
573.9256260028545
 20
-6.602615122805275
 30
0.0
 40
1.6
  0
CIRCLE
  5
33A2
330
2
100
AcDbEntity
  8
AM_VIS
100
AcDbCircle
 10
580.9256260028545
 20
-2.602615122805303
 30
0.0
 40
1.6
  0
LINE
  5
33A3
330
2
100
AcDbEntity
  8
AM_VIS
100
AcDbLine
 10
589.2256260028545
 20
0.3973848771947246
 30
0.0
 11
589.2256260028545
 21
-9.602615122805275
 31
0.0
  0
LINE
  5
33A4
330
2
100
AcDbEntity
  8
AM_VIS
100
AcDbLine
 10
589.2256260028545
 20
0.3973848771947246
 30
0.0
 11
598.7256260028544
 21
0.3973848771947246
 31
0.0
  0
LINE
  5
33A5
330
2
100
AcDbEntity
  8
AM_VIS
100
AcDbLine
 10
589.2256260028545
 20
-9.602615122805275
 30
0.0
 11
598.7256260028544
 21
-9.602615122805275
 31
0.0
  0
ARC
  5
33A6
330
2
100
AcDbEntity
  8
AM_VIS
100
AcDbCircle
 10
599.7254940528217
 20
-6.802615122805235
 30
0.0
 40
4.674968506161596
100
AcDbArc
 50
177.5480788316095
 51
182.4519211683905
  0
ARC
  5
33A7
330
2
100
AcDbEntity
  8
AM_VIS
100
AcDbCircle
 10
591.7257579528872
 20
-6.802615122805292
 30
0.0
 40
4.674968506161596
100
AcDbArc
 50
357.5480788316095
 51
2.451921168390511
  0
CIRCLE
  5
33A8
330
2
100
AcDbEntity
  8
AM_VIS
100
AcDbCircle
 10
595.7256260028544
 20
-6.802615122805264
 30
0.0
 40
0.7
  0
LINE
  5
33A9
330
2
100
AcDbEntity
  8
AM_VIS
100
AcDbLine
 10
565.6256260028544
 20
-9.602615122805303
 30
0.0
 11
565.6256260028544
 21
0.3973848771946962
 31
0.0
  0
LINE
  5
33AA
330
2
100
AcDbEntity
  8
AM_VIS
100
AcDbLine
 10
561.1756260028545
 20
0.3973848771946677
 30
0.0
 11
561.1756260028545
 21
-9.602615122805332
 31
0.0
  0
ARC
  5
33AB
330
2
100
AcDbEntity
  8
AM_VIS
100
AcDbCircle
 10
562.7756260028544
 20
3.666461162151108
 30
0.0
 40
6.554834521868656
100
AcDbArc
 50
264.0125425170536
 51
275.9874574829463
  0
LINE
  5
33AC
330
2
100
AcDbEntity
  8
AM_VIS
100
AcDbLine
 10
565.6256260028544
 20
0.3973848771946962
 30
0.0
 11
561.1756260028545
 21
0.3973848771946962
 31
0.0
  0
LINE
  5
33AD
330
2
100
AcDbEntity
  8
AM_VIS
100
AcDbLine
 10
565.6256260028544
 20
-9.602615122805303
 30
0.0
 11
561.1756260028545
 21
-9.602615122805303
 31
0.0
  0
CIRCLE
  5
33AE
330
2
100
AcDbEntity
  8
AM_VIS
100
AcDbCircle
 10
562.7756260028544
 20
-3.002615122805309
 30
0.0
 40
0.7
  0
LINE
  5
33AF
330
2
100
AcDbEntity
  8
AM_VIS
100
AcDbLine
 10
574.5870638306207
 20
-5.852615122805275
 30
0.0
 11
573.6256260028544
 21
-5.852615122805275
 31
0.0
  0
LINE
  5
33B0
330
2
100
AcDbEntity
  8
AM_VIS
100
AcDbLine
 10
573.6256260028544
 20
-5.852615122805275
 30
0.0
 11
572.9658767361012
 21
-6.883473352107216
 31
0.0
  0
LINE
  5
33B1
330
2
100
AcDbEntity
  8
AM_VIS
100
AcDbLine
 10
581.5870638306206
 20
-3.352615122805275
 30
0.0
 11
580.5756260028545
 21
-3.352615122805275
 31
0.0
  0
LINE
  5
33B2
330
2
100
AcDbEntity
  8
AM_VIS
100
AcDbLine
 10
580.5756260028545
 20
-3.352615122805275
 30
0.0
 11
579.9513624313798
 21
-2.377203292376123
 31
0.0
  0
LINE
  5
33B3
330
2
100
AcDbEntity
  8
AM_VIS
100
AcDbLine
 10
573.6256260028544
 20
-5.648675921388331
 30
0.0
 11
573.6256260028544
 21
-5.852615122805275
 31
0.0
  0
LINE
  5
33B4
330
2
100
AcDbEntity
  8
AM_VIS
100
AcDbLine
 10
580.5756260028545
 20
-3.352615122805275
 30
0.0
 11
580.5756260028545
 21
-3.539364822565062
 31
0.0
  0
LINE
  5
33B5
330
2
100
AcDbEntity
  8
AM_VIS
100
AcDbLine
 10
611.7256260028544
 20
-9.602615122805389
 30
0.0
 11
598.7256260028544
 21
-9.602615122805389
 31
0.0
  0
LINE
  5
33B6
330
2
100
AcDbEntity
  8
AM_VIS
100
AcDbLine
 10
598.7256260028544
 20
0.3973848771946109
 30
0.0
 11
611.7256260028544
 21
0.3973848771946109
 31
0.0
  0
LINE
  5
33B7
330
2
100
AcDbEntity
  8
AM_VIS
100
AcDbLine
 10
598.7256260028544
 20
-9.602615122805389
 30
0.0
 11
598.7256260028544
 21
0.3973848771946109
 31
0.0
  0
LINE
  5
33B8
330
2
100
AcDbEntity
  8
AM_VIS
100
AcDbLine
 10
611.7256260028544
 20
-9.602615122805389
 30
0.0
 11
611.7256260028544
 21
0.3973848771946109
 31
0.0
  0
LINE
  5
33B9
330
2
100
AcDbEntity
  8
AM_VIS
100
AcDbLine
 10
616.7256260028544
 20
-8.60261512280536
 30
0.0
 11
615.2256260028544
 21
-9.60261512280536
 31
0.0
  0
LINE
  5
33BA
330
2
100
AcDbEntity
  8
AM_VIS
100
AcDbLine
 10
616.7256260028544
 20
-0.852615122805389
 30
0.0
 11
620.2256260028544
 21
-0.852615122805389
 31
0.0
  0
LINE
  5
33BB
330
2
100
AcDbEntity
  8
AM_VIS
100
AcDbLine
 10
620.2256260028544
 20
-0.852615122805389
 30
0.0
 11
621.2256260028545
 21
-1.452615122805411
 31
0.0
  0
LINE
  5
33BC
330
2
100
AcDbEntity
  8
AM_VIS
100
AcDbLine
 10
621.2256260028545
 20
-1.602615122805389
 30
0.0
 11
621.2256260028545
 21
-1.452615122805383
 31
0.0
  0
LINE
  5
33BD
330
2
100
AcDbEntity
  8
AM_VIS
100
AcDbLine
 10
621.2256260028545
 20
-1.602615122805389
 30
0.0
 11
621.2256260028545
 21
-2.502615122805394
 31
0.0
  0
LINE
  5
33BE
330
2
100
AcDbEntity
  8
AM_VIS
100
AcDbLine
 10
616.7256260028544
 20
-1.602615122805389
 30
0.0
 11
621.2256260028545
 21
-1.602615122805389
 31
0.0
  0
LINE
  5
33BF
330
2
100
AcDbEntity
  8
AM_VIS
100
AcDbLine
 10
621.2256260028545
 20
-2.502615122805366
 30
0.0
 11
616.7256260028544
 21
-2.502615122805366
 31
0.0
  0
LINE
  5
33C0
330
2
100
AcDbEntity
  8
AM_VIS
100
AcDbLine
 10
621.2256260028545
 20
-6.702615122805354
 30
0.0
 11
621.2256260028545
 21
-2.502615122805366
 31
0.0
  0
LINE
  5
33C1
330
2
100
AcDbEntity
  8
AM_VIS
100
AcDbLine
 10
621.2256260028545
 20
-7.752615122805366
 30
0.0
 11
621.2256260028545
 21
-7.60261512280536
 31
0.0
  0
LINE
  5
33C2
330
2
100
AcDbEntity
  8
AM_VIS
100
AcDbLine
 10
621.2256260028545
 20
-7.752615122805366
 30
0.0
 11
620.2256260028544
 21
-8.35261512280536
 31
0.0
  0
LINE
  5
33C3
330
2
100
AcDbEntity
  8
AM_VIS
100
AcDbLine
 10
616.7256260028544
 20
-8.35261512280536
 30
0.0
 11
620.2256260028544
 21
-8.35261512280536
 31
0.0
  0
LINE
  5
33C4
330
2
100
AcDbEntity
  8
AM_VIS
100
AcDbLine
 10
621.2256260028545
 20
-6.702615122805383
 30
0.0
 11
621.2256260028545
 21
-7.602615122805389
 31
0.0
  0
LINE
  5
33C5
330
2
100
AcDbEntity
  8
AM_VIS
100
AcDbLine
 10
616.7256260028544
 20
-6.702615122805354
 30
0.0
 11
621.2256260028545
 21
-6.702615122805354
 31
0.0
  0
LINE
  5
33C6
330
2
100
AcDbEntity
  8
AM_VIS
100
AcDbLine
 10
621.2256260028545
 20
-7.60261512280536
 30
0.0
 11
616.7256260028544
 21
-7.60261512280536
 31
0.0
  0
LINE
  5
33C7
330
2
100
AcDbEntity
  8
AM_VIS
100
AcDbLine
 10
619.7256260028544
 20
-4.10261512280536
 30
0.0
 11
618.5256260028545
 21
-4.10261512280536
 31
0.0
  0
LINE
  5
33C8
330
2
100
AcDbEntity
  8
AM_VIS
100
AcDbLine
 10
619.7256260028544
 20
-4.10261512280536
 30
0.0
 11
619.7256260028544
 21
-5.10261512280536
 31
0.0
  0
LINE
  5
33C9
330
2
100
AcDbEntity
  8
AM_VIS
100
AcDbLine
 10
618.5256260028545
 20
-5.10261512280536
 30
0.0
 11
619.7256260028544
 21
-5.10261512280536
 31
0.0
  0
LINE
  5
33CA
330
2
100
AcDbEntity
  8
AM_VIS
100
AcDbLine
 10
618.5256260028545
 20
-4.10261512280536
 30
0.0
 11
618.5256260028545
 21
-5.10261512280536
 31
0.0
  0
LINE
  5
33CB
330
2
100
AcDbEntity
  8
AM_VIS
100
AcDbLine
 10
616.7256260028544
 20
-8.60261512280536
 30
0.0
 11
616.7256260028544
 21
-6.60261512280536
 31
0.0
  0
LINE
  5
33CC
330
2
100
AcDbEntity
  8
AM_VIS
100
AcDbLine
 10
615.2256260028544
 20
0.3973848771946109
 30
0.0
 11
616.7256260028544
 21
-0.6026151228053891
 31
0.0
  0
LINE
  5
33CD
330
2
100
AcDbEntity
  8
AM_VIS
100
AcDbLine
 10
616.7256260028544
 20
-2.602615122805389
 30
0.0
 11
616.7256260028544
 21
-0.6026151228053891
 31
0.0
  0
LINE
  5
33CE
330
2
100
AcDbEntity
  8
AM_VIS
100
AcDbLine
 10
615.2256260028544
 20
-6.60261512280536
 30
0.0
 11
615.2256260028544
 21
-9.60261512280536
 31
0.0
  0
LINE
  5
33CF
330
2
100
AcDbEntity
  8
AM_VIS
100
AcDbLine
 10
611.7256260028544
 20
-9.60261512280536
 30
0.0
 11
615.2256260028544
 21
-9.60261512280536
 31
0.0
  0
LINE
  5
33D0
330
2
100
AcDbEntity
  8
AM_VIS
100
AcDbLine
 10
611.7256260028544
 20
0.3973848771946109
 30
0.0
 11
611.7256260028544
 21
-9.602615122805389
 31
0.0
  0
LINE
  5
33D1
330
2
100
AcDbEntity
  8
AM_VIS
100
AcDbLine
 10
611.7256260028544
 20
0.3973848771946109
 30
0.0
 11
615.2256260028544
 21
0.3973848771946109
 31
0.0
  0
LINE
  5
33D2
330
2
100
AcDbEntity
  8
AM_VIS
100
AcDbLine
 10
615.2256260028544
 20
0.3973848771946109
 30
0.0
 11
615.2256260028544
 21
-2.602615122805389
 31
0.0
  0
LINE
  5
33D3
330
2
100
AcDbEntity
  8
AM_VIS
100
AcDbLine
 10
616.7256260028544
 20
-6.60261512280536
 30
0.0
 11
615.2256260028544
 21
-6.60261512280536
 31
0.0
  0
LINE
  5
33D4
330
2
100
AcDbEntity
  8
AM_VIS
100
AcDbLine
 10
615.2256260028544
 20
-6.60261512280536
 30
0.0
 11
614.4256260028545
 21
-6.60261512280536
 31
0.0
  0
LINE
  5
33D5
330
2
100
AcDbEntity
  8
AM_VIS
100
AcDbLine
 10
614.4256260028545
 20
-2.602615122805389
 30
0.0
 11
615.2256260028544
 21
-2.602615122805389
 31
0.0
  0
LINE
  5
33D6
330
2
100
AcDbEntity
  8
AM_VIS
100
AcDbLine
 10
615.2256260028544
 20
-2.602615122805389
 30
0.0
 11
616.7256260028544
 21
-2.602615122805389
 31
0.0
  0
LINE
  5
33D7
330
2
100
AcDbEntity
  8
AM_VIS
100
AcDbLine
 10
614.4256260028545
 20
-6.60261512280536
 30
0.0
 11
614.4256260028545
 21
-2.60261512280536
 31
0.0
  0
LINE
  5
33D8
330
2
100
AcDbEntity
  8
AM_VIS
100
AcDbLine
 10
615.1427832903799
 20
-6.60261512280536
 30
0.0
 11
615.1427832903799
 21
-2.60261512280536
 31
0.0
  0
LINE
  5
33D9
330
2
100
AcDbEntity
  8
AM_VIS
100
AcDbLine
 10
616.7256260028544
 20
-2.602615122805389
 30
0.0
 11
616.7256260028544
 21
-6.602615122805389
 31
0.0
  0
LINE
  5
33DA
330
2
100
AcDbEntity
  8
AM_VIS
100
AcDbLine
 10
561.3858778325085
 20
-48.12305052801917
 30
0.0
 11
561.3852545446178
 21
-48.12305052801917
 31
0.0
  0
LINE
  5
33DB
330
2
100
AcDbEntity
  8
AM_VIS
100
AcDbLine
 10
561.3852545446176
 20
-47.81320245545674
 30
0.0
 11
561.5270405044492
 21
-47.81320245545674
 31
0.0
  0
LINE
  5
33DC
330
2
100
AcDbEntity
  8
AM_VIS
100
AcDbLine
 10
561.5274459460772
 20
-47.80349823321251
 30
0.0
 11
561.3852545446176
 21
-47.80349823321251
 31
0.0
  0
LINE
  5
33DD
330
2
100
AcDbEntity
  8
AM_VIS
100
AcDbLine
 10
562.6756260028545
 20
-47.40649794433082
 30
0.0
 11
562.6756260028545
 21
-48.52005081689686
 31
0.0
  0
ELLIPSE
  5
33DE
330
2
100
AcDbEntity
  8
AM_VIS
100
AcDbEllipse
 10
563.8756260028544
 20
-47.96812649173597
 30
0.0
 11
2.495190373498582
 21
-0.0000000000000011
 31
0.0
210
0.0
220
0.0
230
1.0
 40
0.9995099114916117
 41
3.203752183251133
 42
3.485155507044237
  0
ELLIPSE
  5
33DF
330
2
100
AcDbEntity
  8
AM_VIS
100
AcDbEllipse
 10
563.2932170479024
 20
-47.28828480454376
 30
0.0
 11
1.768284764505587
 21
1.525749312677538
 31
0.0
210
0.0
220
0.0
230
1.0
 40
0.0237058193562346
 41
3.054726489433899
 42
3.132538457567109
  0
ELLIPSE
  5
33E0
330
2
100
AcDbEntity
  8
AM_VIS
100
AcDbEllipse
 10
563.8756260028544
 20
-47.9584222694917
 30
0.0
 11
2.495190373498582
 21
-0.0000000000000011
 31
0.0
210
0.0
220
0.0
230
1.0
 40
0.9995099114916117
 41
3.203752183251127
 42
3.487773453070436
  0
ELLIPSE
  5
33E1
330
2
100
AcDbEntity
  8
AM_VIS
100
AcDbEllipse
 10
563.8756260028544
 20
-47.9584222694917
 30
0.0
 11
2.495190373498582
 21
-0.0000000000000011
 31
0.0
210
0.0
220
0.0
230
1.0
 40
0.9995099114916117
 41
2.795411854110827
 42
3.079433123930057
  0
ELLIPSE
  5
33E2
330
2
100
AcDbEntity
  8
AM_VIS
100
AcDbEllipse
 10
563.2932170479064
 20
-48.63826395668332
 30
0.0
 11
1.768284764511111
 21
-1.525749312672966
 31
0.0
210
0.0
220
0.0
230
1.0
 40
0.0237058193562971
 41
3.09562951073638
 42
3.205774235520407
  0
ELLIPSE
  5
33E3
330
2
100
AcDbEntity
  8
AM_VIS
100
AcDbEllipse
 10
563.8756260028544
 20
-47.96812649173597
 30
0.0
 11
2.495190373498582
 21
-0.0000000000000011
 31
0.0
210
0.0
220
0.0
230
1.0
 40
0.9995099114916117
 41
3.075534033575729
 42
3.079433123930062
  0
ELLIPSE
  5
33E4
330
2
100
AcDbEntity
  8
AM_VIS
100
AcDbEllipse
 10
563.293217047907
 20
-47.9844145762089
 30
0.0
 11
0.0847192597916111
 21
-2.334001846731583
 31
0.0
210
0.0
220
0.0
230
1.0
 40
0.7569078954683901
 41
4.598055593073517
 42
4.730884900082694
  0
ELLIPSE
  5
33E5
330
2
100
AcDbEntity
  8
AM_VIS
100
AcDbEllipse
 10
563.8756260028544
 20
-47.80835034433462
 30
0.0
 11
2.495190373498707
 21
-0.0000000000000013
 31
0.0
210
0.0
220
0.0
230
1.0
 40
0.0313039427234114
 41
3.203752183250315
 42
3.485155507043433
  0
ELLIPSE
  5
33E6
330
2
100
AcDbEntity
  8
AM_VIS
100
AcDbEllipse
 10
563.8756260028544
 20
-47.80835034433462
 30
0.0
 11
2.495190373498707
 21
-0.0000000000000013
 31
0.0
210
0.0
220
0.0
230
1.0
 40
0.0313039427234114
 41
2.79541185410996
 42
3.079433123929256
  0
ELLIPSE
  5
33E7
330
2
100
AcDbEntity
  8
AM_VIS
100
AcDbEllipse
 10
563.293217047907
 20
-47.94213418501877
 30
0.0
 11
0.0847192597916136
 21
2.334001846731582
 31
0.0
210
0.0
220
0.0
230
1.0
 40
0.7569078954683903
 41
1.552300407098598
 42
1.662445131883446
  0
ELLIPSE
  5
33E8
330
2
100
AcDbEntity
  8
AM_VIS
100
AcDbEllipse
 10
563.8756260028544
 20
-48.11819841689703
 30
0.0
 11
2.495190373498459
 21
-0.0000000000000013
 31
0.0
210
0.0
220
0.0
230
1.0
 40
0.0313039427234114
 41
2.795411854109997
 42
3.079433123929256
  0
ARC
  5
33E9
330
2
100
AcDbEntity
  8
AM_VIS
100
AcDbCircle
 10
562.2597535906059
 20
-48.88444556304126
 30
0.0
 40
0.6400000000000002
100
AcDbArc
 50
209.686456186922
 51
244.7452834390784
  0
ARC
  5
33EA
330
2
100
AcDbEntity
  8
AM_VIS
100
AcDbCircle
 10
562.2597535906059
 20
-47.04210319818645
 30
0.0
 40
0.6400000000000002
100
AcDbArc
 50
115.2547165608925
 51
150.3135438130779
  0
ARC
  5
33EB
330
2
100
AcDbEntity
  8
AM_VIS
100
AcDbCircle
 10
563.8756260028544
 20
-47.96327438061382
 30
0.0
 40
2.5
100
AcDbArc
 50
150.3135438130793
 51
160.1153842364362
  0
ARC
  5
33EC
330
2
100
AcDbEntity
  8
AM_VIS
100
AcDbCircle
 10
563.8756260028544
 20
-47.96327438061382
 30
0.0
 40
2.5
100
AcDbArc
 50
199.8846157636606
 51
209.6864561869207
  0
LINE
  5
33ED
330
2
100
AcDbEntity
  8
AM_VIS
100
AcDbLine
 10
597.5256260028544
 20
-59.520050816897
 30
0.0
 11
597.5256260028544
 21
-58.40649794433073
 31
0.0
  0
LINE
  5
33EE
330
2
100
AcDbEntity
  8
AM_VIS
100
AcDbLine
 10
598.7256260028544
 20
-58.80827438061385
 30
0.0
 11
598.6727903406952
 21
-58.80827438061385
 31
0.0
  0
ELLIPSE
  5
33EF
330
2
100
AcDbEntity
  8
AM_VIS
100
AcDbEllipse
 10
596.9080349578066
 20
-58.96327438061388
 30
0.0
 11
-0.000000000000001
 21
-2.335538904304221
 31
0.0
210
0.0
220
0.0
230
1.0
 40
0.7572790292165315
 41
1.504381673290256
 42
1.637210980299539
  0
LINE
  5
33F0
330
2
100
AcDbEntity
  8
AM_VIS
100
AcDbLine
 10
598.6727903406951
 20
-59.11827438061391
 30
0.0
 11
598.7256260028544
 21
-59.11827438061391
 31
0.0
  0
ARC
  5
33F1
330
2
100
AcDbEntity
  8
AM_VIS
100
AcDbCircle
 10
596.3256260028544
 20
-58.96327438061388
 30
0.0
 40
2.495190373498459
100
AcDbArc
 50
15.87715702472721
 51
19.83469875865789
  0
LINE
  5
33F2
330
2
100
AcDbEntity
  8
AM_VIS
100
AcDbLine
 10
598.6727903406958
 20
-59.80991159404453
 30
0.0
 11
598.6766895919562
 21
-59.8132743806139
 31
0.0
  0
LINE
  5
33F3
330
2
100
AcDbEntity
  8
AM_VIS
100
AcDbLine
 10
598.6766895919562
 20
-58.11327438061386
 30
0.0
 11
598.6727903406958
 21
-58.11663716718323
 31
0.0
  0
ARC
  5
33F4
330
2
100
AcDbEntity
  8
AM_VIS
100
AcDbCircle
 10
596.3256260028544
 20
-58.96327438061388
 30
0.0
 40
2.495190373498459
100
AcDbArc
 50
340.1653012413421
 51
344.1228429752728
  0
ARC
  5
33F5
330
2
100
AcDbEntity
  8
AM_VIS
100
AcDbCircle
 10
597.9414984151029
 20
-58.04210319818645
 30
0.0
 40
0.6400000000000002
100
AcDbArc
 50
29.68645618692206
 51
64.74528343910022
  0
ARC
  5
33F6
330
2
100
AcDbEntity
  8
AM_VIS
100
AcDbCircle
 10
597.9414984151029
 20
-59.88444556304125
 30
0.0
 40
0.6400000000000002
100
AcDbArc
 50
295.2547165609077
 51
330.3135438130733
  0
ARC
  5
33F7
330
2
100
AcDbEntity
  8
AM_VIS
100
AcDbCircle
 10
596.3256260028544
 20
-58.96327438061388
 30
0.0
 40
2.5
100
AcDbArc
 50
19.87687407007918
 51
29.68645618692065
  0
ARC
  5
33F8
330
2
100
AcDbEntity
  8
AM_VIS
100
AcDbCircle
 10
596.3256260028544
 20
-58.96327438061388
 30
0.0
 40
2.5
100
AcDbArc
 50
330.3135438130793
 51
340.1231259299208
  0
LINE
  5
33F9
330
2
100
AcDbEntity
  8
AM_VIS
100
AcDbLine
 10
583.6756260028545
 20
-47.36327438061386
 30
0.0
 11
583.6756260028545
 21
-60.96327438061385
 31
0.0
  0
LINE
  5
33FA
330
2
100
AcDbEntity
  8
AM_VIS
100
AcDbLine
 10
583.1756260028545
 20
-47.36327438061386
 30
0.0
 11
583.1756260028545
 21
-60.96327438061385
 31
0.0
  0
LINE
  5
33FB
330
2
100
AcDbEntity
  8
AM_VIS
100
AcDbLine
 10
582.1756260028545
 20
-47.36327438061386
 30
0.0
 11
582.1756260028545
 21
-60.96327438061385
 31
0.0
  0
LINE
  5
33FC
330
2
100
AcDbEntity
  8
AM_VIS
100
AcDbLine
 10
584.2756260028544
 20
-47.36327438061386
 30
0.0
 11
583.6756260028545
 21
-47.36327438061386
 31
0.0
  0
LINE
  5
33FD
330
2
100
AcDbEntity
  8
AM_VIS
100
AcDbLine
 10
583.6756260028545
 20
-47.36327438061386
 30
0.0
 11
583.1756260028545
 21
-47.36327438061386
 31
0.0
  0
LINE
  5
33FE
330
2
100
AcDbEntity
  8
AM_VIS
100
AcDbLine
 10
583.1756260028545
 20
-47.36327438061386
 30
0.0
 11
582.1756260028545
 21
-47.36327438061386
 31
0.0
  0
LINE
  5
33FF
330
2
100
AcDbEntity
  8
AM_VIS
100
AcDbLine
 10
582.1756260028545
 20
-47.36327438061386
 30
0.0
 11
581.6756260028545
 21
-47.36327438061386
 31
0.0
  0
LINE
  5
3400
102
{ACAD_REACTORS
330
393E
102
}
330
2
100
AcDbEntity
  8
AM_VIS
100
AcDbLine
 10
584.2756260028544
 20
-45.96327438061385
 30
0.0
 11
584.2756260028544
 21
-47.36327438061386
 31
0.0
  0
LINE
  5
3401
330
2
100
AcDbEntity
  8
AM_VIS
100
AcDbLine
 10
589.2256260028545
 20
-60.96327438061385
 30
0.0
 11
589.2256260028545
 21
-45.96327438061385
 31
0.0
  0
SPLINE
  5
3402
330
2
100
AcDbEntity
  8
AM_VIS
100
AcDbSpline
210
0.0
220
0.0
230
1.0
 70
     8
 71
     3
 72
    22
 73
    18
 74
     0
 42
0.0000000001
 43
0.0000000001
 40
0.0005857012649679
 40
0.0005857012649679
 40
0.0005857012649679
 40
0.0005857012649679
 40
0.1291032167364074
 40
0.1291032167364074
 40
0.2321793656658471
 40
0.2321793656658471
 40
0.3342730606306002
 40
0.3342730606306002
 40
0.4334325735550748
 40
0.4334325735550748
 40
0.5458140249115396
 40
0.5458140249115396
 40
0.7472839067916443
 40
0.7472839067916443
 40
0.965024872814908
 40
0.965024872814908
 40
1.18476222138294
 40
1.18476222138294
 40
1.18476222138294
 40
1.18476222138294
 10
577.6256260028544
 20
-47.1798323743734
 30
0.0
 10
577.5921242896922
 20
-47.19908323418488
 30
0.0
 10
577.5641135975251
 20
-47.21802955501835
 30
0.0
 10
577.5262272360857
 20
-47.24924566808755
 30
0.0
 10
577.5157088511143
 20
-47.26046283267322
 30
0.0
 10
577.5015920306241
 20
-47.27974792562361
 30
0.0
 10
577.4976019217689
 20
-47.28843355238129
 30
0.0
 10
577.4940557579267
 20
-47.30480321768488
 30
0.0
 10
577.49433640076
 20
-47.31273343881989
 30
0.0
 10
577.4983590705256
 20
-47.33027138213119
 30
0.0
 10
577.5026227991446
 20
-47.340247182974
 30
0.0
 10
577.5199844621439
 20
-47.37245252743261
 30
0.0
 10
577.5368954667652
 20
-47.39723674536238
 30
0.0
 10
577.5731617117266
 20
-47.45891364420072
 30
0.0
 10
577.5897574743066
 20
-47.49188406434842
 30
0.0
 10
577.6151426371548
 20
-47.56381103933415
 30
0.0
 10
577.6232647509247
 20
-47.60116787574083
 30
0.0
 10
577.6256260028544
 20
-47.63982465396674
 30
0.0
  0
ARC
  5
3403
330
2
100
AcDbEntity
  8
AM_VIS
100
AcDbCircle
 10
576.218265716926
 20
-47.40982851417007
 30
0.0
 40
1.426029873014629
100
AcDbArc
 50
350.7185542256565
 51
9.28144577434346
  0
SPLINE
  5
3404
330
2
100
AcDbEntity
  8
AM_VIS
100
AcDbSpline
210
0.0
220
0.0
230
1.0
 70
     8
 71
     3
 72
    22
 73
    18
 74
     0
 42
0.0000000001
 43
0.0000000001
 40
0.0094150088287363
 40
0.0094150088287363
 40
0.0094150088287363
 40
0.0094150088287363
 40
0.1295769185898465
 40
0.1295769185898465
 40
0.2561099860638296
 40
0.2561099860638296
 40
0.3694505360487672
 40
0.3694505360487672
 40
0.42387959764873
 40
0.42387959764873
 40
0.469230815231007
 40
0.469230815231007
 40
0.5146928183150812
 40
0.5146928183150812
 40
0.5834653339790407
 40
0.5834653339790407
 40
0.6650071550266539
 40
0.6650071550266539
 40
0.6650071550266539
 40
0.6650071550266539
 10
577.6256260028544
 20
-47.68672410726094
 30
0.0
 10
577.6231950104261
 20
-47.72652262854103
 30
0.0
 10
577.6146598484334
 20
-47.76491878187371
 30
0.0
 10
577.5871746486096
 20
-47.8410529583868
 30
0.0
 10
577.5684289191063
 20
-47.87655388445983
 30
0.0
 10
577.5287062471826
 20
-47.94211742498847
 30
0.0
 10
577.5105758224343
 20
-47.96833273317298
 30
0.0
 10
577.4969382887304
 20
-48.00061916852405
 30
0.0
 10
577.4946117599778
 20
-48.00998727998737
 30
0.0
 10
577.4946584147516
 20
-48.02662405002647
 30
0.0
 10
577.4963070206857
 20
-48.03406011925102
 30
0.0
 10
577.5034278058309
 20
-48.04953989256666
 30
0.0
 10
577.5091162450791
 20
-48.05802424209071
 30
0.0
 10
577.5311073849094
 20
-48.08214621546591
 30
0.0
 10
577.5487394115091
 20
-48.09629142798645
 30
0.0
 10
577.5840002616384
 20
-48.12171439739421
 30
0.0
 10
577.6049760224204
 20
-48.13485043013378
 30
0.0
 10
577.6256260028544
 20
-48.14671638685428
 30
0.0
  0
ARC
  5
3405
330
2
100
AcDbEntity
  8
AM_VIS
100
AcDbCircle
 10
576.2182657169261
 20
-47.91672024705763
 30
0.0
 40
1.426029873014457
100
AcDbArc
 50
350.7185542256549
 51
9.281445774344264
  0
SPLINE
  5
3406
330
2
100
AcDbEntity
  8
AM_VIS
100
AcDbSpline
210
0.0
220
0.0
230
1.0
 70
     8
 71
     3
 72
    42
 73
    38
 74
     0
 42
0.0000000001
 43
0.0000000001
 40
0.1262233239789426
 40
0.1262233239789426
 40
0.1262233239789426
 40
0.1262233239789426
 40
0.5833500890940469
 40
0.5833500890940469
 40
0.7485096167024511
 40
0.7485096167024511
 40
0.8693740235436306
 40
0.8693740235436306
 40
0.9848613409103121
 40
0.9848613409103121
 40
1.096494465371144
 40
1.096494465371144
 40
1.267659850087375
 40
1.267659850087375
 40
1.55521558540722
 40
1.55521558540722
 40
1.815909331250458
 40
1.815909331250458
 40
2.088443879349409
 40
2.088443879349409
 40
2.349620420703562
 40
2.349620420703562
 40
2.638514416767764
 40
2.638514416767764
 40
3.016913897141117
 40
3.016913897141117
 40
3.302159911138937
 40
3.302159911138937
 40
3.551219241035527
 40
3.551219241035527
 40
3.803089811421073
 40
3.803089811421073
 40
4.128571668801463
 40
4.128571668801463
 40
4.683735285352192
 40
4.683735285352192
 40
4.812744850614865
 40
4.812744850614865
 40
4.812744850614865
 40
4.812744850614865
 10
577.0256260028544
 20
-48.23773064526768
 30
0.0
 10
577.1390354927529
 20
-48.19643983064202
 30
0.0
 10
577.2213003351829
 20
-48.15233040396407
 30
0.0
 10
577.291909799958
 20
-48.10444478404827
 30
0.0
 10
577.3123955759039
 20
-48.08901907275668
 30
0.0
 10
577.3395732490842
 20
-48.06160027634669
 30
0.0
 10
577.3465953573955
 20
-48.05172547372126
 30
0.0
 10
577.3548510933394
 20
-48.03466664164824
 30
0.0
 10
577.356667986718
 20
-48.02669445391737
 30
0.0
 10
577.3565614855962
 20
-48.01070466609042
 30
0.0
 10
577.3547596969221
 20
-48.0027066124532
 30
0.0
 10
577.3464188118472
 20
-47.9808219175504
 30
0.0
 10
577.337929016773
 20
-47.96630406137575
 30
0.0
 10
577.3118291830416
 20
-47.92398598953584
 30
0.0
 10
577.2895060232671
 20
-47.89019731996435
 30
0.0
 10
577.2520219737299
 20
-47.81203567329572
 30
0.0
 10
577.2383758630415
 20
-47.77306245327844
 30
0.0
 10
577.2232781535107
 20
-47.688292720465
 30
0.0
 10
577.222890171641
 20
-47.64481035577325
 30
0.0
 10
577.2366327605602
 20
-47.55966759475782
 30
0.0
 10
577.2497512894299
 20
-47.52038341307314
 30
0.0
 10
577.286530266378
 20
-47.44146547211445
 30
0.0
 10
577.3088124832645
 20
-47.40722858013265
 30
0.0
 10
577.3473924338709
 20
-47.34515475788356
 30
0.0
 10
577.3534325009554
 20
-47.32965045170681
 30
0.0
 10
577.3571726676848
 20
-47.30992288128499
 30
0.0
 10
577.3569723373671
 20
-47.30186414075774
 30
0.0
 10
577.3527113269552
 20
-47.28657843794564
 30
0.0
 10
577.3490722335199
 20
-47.2791083444958
 30
0.0
 10
577.3373059811721
 20
-47.26272138189762
 30
0.0
 10
577.3280796119953
 20
-47.25232221054443
 30
0.0
 10
577.2933235780373
 20
-47.22257262363368
 30
0.0
 10
577.2671608590525
 20
-47.20437758637558
 30
0.0
 10
577.183401678064
 20
-47.15467658815714
 30
0.0
 10
577.1243991640447
 20
-47.12723756029419
 30
0.0
 10
577.0528734595071
 20
-47.09894408478158
 30
0.0
 10
577.0392863078624
 20
-47.09379164262275
 30
0.0
 10
577.0256260028544
 20
-47.08881811596007
 30
0.0
  0
LINE
  5
3407
330
2
100
AcDbEntity
  8
AM_VIS
100
AcDbLine
 10
581.6756260028545
 20
-60.96327438061385
 30
0.0
 11
582.1756260028545
 21
-60.96327438061385
 31
0.0
  0
LINE
  5
3408
330
2
100
AcDbEntity
  8
AM_VIS
100
AcDbLine
 10
582.1756260028545
 20
-60.96327438061385
 30
0.0
 11
583.1756260028545
 21
-60.96327438061385
 31
0.0
  0
LINE
  5
3409
330
2
100
AcDbEntity
  8
AM_VIS
100
AcDbLine
 10
583.1756260028545
 20
-60.96327438061385
 30
0.0
 11
583.6756260028545
 21
-60.96327438061385
 31
0.0
  0
LINE
  5
340A
330
2
100
AcDbEntity
  8
AM_VIS
100
AcDbLine
 10
583.6756260028545
 20
-60.96327438061385
 30
0.0
 11
589.2256260028545
 21
-60.96327438061385
 31
0.0
  0
LINE
  5
340B
330
2
100
AcDbEntity
  8
AM_VIS
100
AcDbLine
 10
584.2756260028544
 20
-45.96327438061385
 30
0.0
 11
589.2256260028545
 21
-45.96327438061385
 31
0.0
  0
LINE
  5
340C
330
2
100
AcDbEntity
  8
AM_VIS
100
AcDbLine
 10
565.6256260028544
 20
-60.96327438061383
 30
0.0
 11
574.5756260028543
 21
-60.96327438061383
 31
0.0
  0
LINE
  5
340D
330
2
100
AcDbEntity
  8
AM_VIS
100
AcDbLine
 10
565.6256260028544
 20
-45.96327438061382
 30
0.0
 11
565.6256260028544
 21
-60.96327438061383
 31
0.0
  0
LINE
  5
340E
330
2
100
AcDbEntity
  8
AM_VIS
100
AcDbLine
 10
565.6256260028544
 20
-45.96327438061382
 30
0.0
 11
574.5756260028545
 21
-45.96327438061382
 31
0.0
  0
LINE
  5
340F
330
2
100
AcDbEntity
  8
AM_VIS
100
AcDbLine
 10
578.9756260028545
 20
-45.96327438061385
 30
0.0
 11
581.0756260028544
 21
-45.96327438061385
 31
0.0
  0
LINE
  5
3410
330
2
100
AcDbEntity
  8
AM_VIS
100
AcDbLine
 10
581.0756260028544
 20
-47.36327438061386
 30
0.0
 11
581.0756260028544
 21
-45.96327438061385
 31
0.0
  0
LINE
  5
3411
330
2
100
AcDbEntity
  8
AM_VIS
100
AcDbLine
 10
581.6756260028545
 20
-47.36327438061386
 30
0.0
 11
581.0756260028544
 21
-47.36327438061386
 31
0.0
  0
LINE
  5
3412
330
2
100
AcDbEntity
  8
AM_VIS
100
AcDbLine
 10
581.6756260028545
 20
-60.96327438061385
 30
0.0
 11
581.6756260028545
 21
-47.36327438061386
 31
0.0
  0
LINE
  5
3413
330
2
100
AcDbEntity
  8
AM_VIS
100
AcDbLine
 10
578.9756260028545
 20
-60.96327438061385
 30
0.0
 11
581.6756260028545
 21
-60.96327438061385
 31
0.0
  0
LINE
  5
3414
330
2
100
AcDbEntity
  8
AM_VIS
100
AcDbLine
 10
575.0756260028545
 20
-45.96327438061385
 30
0.0
 11
578.4756260028545
 21
-45.96327438061385
 31
0.0
  0
LINE
  5
3415
330
2
100
AcDbEntity
  8
AM_VIS
100
AcDbLine
 10
578.4756260028545
 20
-60.96327438061385
 30
0.0
 11
575.0756260028545
 21
-60.96327438061385
 31
0.0
  0
LINE
  5
3416
330
2
100
AcDbEntity
  8
AM_VIS
100
AcDbLine
 10
578.4756260028545
 20
-45.96327438061385
 30
0.0
 11
578.4756260028545
 21
-60.96327438061385
 31
0.0
  0
LINE
  5
3417
330
2
100
AcDbEntity
  8
AM_VIS
100
AcDbLine
 10
578.4756260028545
 20
-45.96327438061385
 30
0.0
 11
578.9756260028545
 21
-45.96327438061385
 31
0.0
  0
LINE
  5
3418
330
2
100
AcDbEntity
  8
AM_VIS
100
AcDbLine
 10
578.9756260028545
 20
-45.96327438061385
 30
0.0
 11
578.9756260028545
 21
-60.96327438061385
 31
0.0
  0
LINE
  5
3419
330
2
100
AcDbEntity
  8
AM_VIS
100
AcDbLine
 10
578.9756260028545
 20
-60.96327438061385
 30
0.0
 11
578.4756260028545
 21
-60.96327438061385
 31
0.0
  0
LINE
  5
341A
330
2
100
AcDbEntity
  8
AM_VIS
100
AcDbLine
 10
574.5756260028545
 20
-60.96327438061385
 30
0.0
 11
574.5756260028545
 21
-45.96327438061385
 31
0.0
  0
LINE
  5
341B
330
2
100
AcDbEntity
  8
AM_VIS
100
AcDbLine
 10
574.5756260028545
 20
-45.96327438061385
 30
0.0
 11
575.0756260028545
 21
-45.96327438061385
 31
0.0
  0
LINE
  5
341C
330
2
100
AcDbEntity
  8
AM_VIS
100
AcDbLine
 10
575.0756260028545
 20
-45.96327438061385
 30
0.0
 11
575.0756260028545
 21
-60.96327438061385
 31
0.0
  0
LINE
  5
341D
330
2
100
AcDbEntity
  8
AM_VIS
100
AcDbLine
 10
575.0756260028545
 20
-60.96327438061385
 30
0.0
 11
574.5756260028545
 21
-60.96327438061385
 31
0.0
  0
LINE
  5
341E
330
2
100
AcDbEntity
  8
AM_VIS
100
AcDbLine
 10
577.6256260028544
 20
-48.14671638685431
 30
0.0
 11
577.6256260028544
 21
-47.68672410726094
 31
0.0
  0
LINE
  5
341F
330
2
100
AcDbEntity
  8
AM_VIS
100
AcDbLine
 10
577.6256260028544
 20
-47.63982465396674
 30
0.0
 11
577.6256260028544
 21
-47.1798323743734
 31
0.0
  0
LINE
  5
3420
330
2
100
AcDbEntity
  8
AM_VIS
100
AcDbLine
 10
581.0756260028544
 20
-45.96327438061385
 30
0.0
 11
584.2756260028544
 21
-45.96327438061385
 31
0.0
  0
CIRCLE
  5
3421
330
2
100
AcDbEntity
  8
AM_VIS
100
AcDbCircle
 10
577.4256260028545
 20
-47.66327438061387
 30
0.0
 40
0.7
  0
LINE
  5
3422
330
2
100
AcDbEntity
  8
AM_VIS
100
AcDbLine
 10
589.2256260028545
 20
-45.96327438061382
 30
0.0
 11
589.2256260028545
 21
-52.46327438061382
 31
0.0
  0
LINE
  5
3423
330
2
100
AcDbEntity
  8
AM_VIS
100
AcDbLine
 10
589.2256260028545
 20
-45.96327438061382
 30
0.0
 11
598.7256260028544
 21
-45.96327438061382
 31
0.0
  0
LINE
  5
3424
330
2
100
AcDbEntity
  8
AM_VIS
100
AcDbLine
 10
597.5256260028544
 20
-57.46327438061382
 30
0.0
 11
598.7256260028544
 21
-57.46327438061382
 31
0.0
  0
LINE
  5
3425
330
2
100
AcDbEntity
  8
AM_VIS
100
AcDbLine
 10
597.5256260028544
 20
-60.46327438061382
 30
0.0
 11
597.5256260028544
 21
-59.52005081689697
 31
0.0
  0
LINE
  5
3426
330
2
100
AcDbEntity
  8
AM_VIS
100
AcDbLine
 10
597.5256260028544
 20
-58.40649794433073
 30
0.0
 11
597.5256260028544
 21
-57.46327438061382
 31
0.0
  0
LINE
  5
3427
330
2
100
AcDbEntity
  8
AM_VIS
100
AcDbLine
 10
598.7256260028544
 20
-60.46327438061382
 30
0.0
 11
597.5256260028544
 21
-60.46327438061382
 31
0.0
  0
LINE
  5
3428
330
2
100
AcDbEntity
  8
AM_VIS
100
AcDbLine
 10
589.2256260028545
 20
-60.96327438061383
 30
0.0
 11
598.7256260028544
 21
-60.96327438061383
 31
0.0
  0
LINE
  5
3429
330
2
100
AcDbEntity
  8
AM_VIS
100
AcDbLine
 10
589.2256260028545
 20
-54.46327438061382
 30
0.0
 11
589.2256260028545
 21
-60.96327438061383
 31
0.0
  0
LINE
  5
342A
330
2
100
AcDbEntity
  8
AM_VIS
100
AcDbLine
 10
589.7256260028544
 20
-52.46327438061382
 30
0.0
 11
589.7256260028544
 21
-54.46327438061382
 31
0.0
  0
LINE
  5
342B
330
2
100
AcDbEntity
  8
AM_VIS
100
AcDbLine
 10
589.7256260028544
 20
-54.46327438061382
 30
0.0
 11
589.2256260028545
 21
-54.46327438061382
 31
0.0
  0
LINE
  5
342C
330
2
100
AcDbEntity
  8
AM_VIS
100
AcDbLine
 10
589.2256260028545
 20
-52.46327438061382
 30
0.0
 11
589.7256260028544
 21
-52.46327438061382
 31
0.0
  0
ARC
  5
342D
330
2
100
AcDbEntity
  8
AM_VIS
100
AcDbCircle
 10
596.0521799130081
 20
-53.83167516109293
 30
0.0
 40
0.9204007112094597
100
AcDbArc
 50
153.9012297567557
 51
164.3619031300017
  0
SPLINE
  5
342E
330
2
100
AcDbEntity
  8
AM_VIS
100
AcDbSpline
210
0.0
220
0.0
230
1.0
 70
     8
 71
     3
 72
    38
 73
    34
 74
     0
 42
0.0000000001
 43
0.0000000001
 40
0.0096105424429285
 40
0.0096105424429285
 40
0.0096105424429285
 40
0.0096105424429285
 40
0.2511760059468008
 40
0.2511760059468008
 40
0.3661489296361611
 40
0.3661489296361611
 40
0.4503270969622498
 40
0.4503270969622498
 40
0.5340078174843953
 40
0.5340078174843953
 40
0.6478119174360324
 40
0.6478119174360324
 40
0.803204793355861
 40
0.803204793355861
 40
1.030112956685476
 40
1.030112956685476
 40
1.139750424396189
 40
1.139750424396189
 40
1.231613346946539
 40
1.231613346946539
 40
1.383927807882236
 40
1.383927807882236
 40
1.903215338580305
 40
1.903215338580305
 40
2.725560479358289
 40
2.725560479358289
 40
3.333619977246191
 40
3.333619977246191
 40
3.793936947558544
 40
3.793936947558544
 40
4.267761469383683
 40
4.267761469383683
 40
4.698806880710381
 40
4.698806880710381
 40
4.698806880710381
 40
4.698806880710381
 10
596.418446325882
 20
-53.26327438061383
 30
0.0
 10
596.3584848844225
 20
-53.30593691701745
 30
0.0
 10
596.3034612862925
 20
-53.35406600696285
 30
0.0
 10
596.2195660879777
 20
-53.43231058006026
 30
0.0
 10
596.1927279338947
 20
-53.4579910899165
 30
0.0
 10
596.1452161226254
 20
-53.50279237164409
 30
0.0
 10
596.1250344044322
 20
-53.52162100657031
 30
0.0
 10
596.0840095308126
 20
-53.55880520161981
 30
0.0
 10
596.0633489121711
 20
-53.57700186716295
 30
0.0
 10
596.0135753027491
 20
-53.61900020369109
 30
0.0
 10
595.9843307562995
 20
-53.64226917521785
 30
0.0
 10
595.9133782738216
 20
-53.69428472319507
 30
0.0
 10
595.8754285329209
 20
-53.71870621189026
 30
0.0
 10
595.793879364037
 20
-53.76337942655968
 30
0.0
 10
595.7672239665616
 20
-53.77017762796828
 30
0.0
 10
595.7452019839641
 20
-53.7743741474954
 30
0.0
 10
595.7380032729852
 20
-53.77524237534621
 30
0.0
 10
595.7245247568904
 20
-53.77574770190978
 30
0.0
 10
595.7184467681338
 20
-53.77555609043071
 30
0.0
 10
595.7021977324412
 20
-53.77396607063047
 30
0.0
 10
595.6923071215973
 20
-53.77188303568442
 30
0.0
 10
595.6496482413078
 20
-53.75959524858155
 30
0.0
 10
595.6152813586323
 20
-53.7407116468664
 30
0.0
 10
595.5627972226102
 20
-53.71040681613402
 30
0.0
 10
595.5266167240717
 20
-53.68645551018065
 30
0.0
 10
595.4590604806345
 20
-53.63609489471508
 30
0.0
 10
595.4310601543808
 20
-53.61356963763907
 30
0.0
 10
595.3827371606069
 20
-53.57249809604812
 30
0.0
 10
595.3623357722158
 20
-53.55442634790114
 30
0.0
 10
595.32133648634
 20
-53.51710811009969
 30
0.0
 10
595.3009377257786
 20
-53.49801300644213
 30
0.0
 10
595.2621521225202
 20
-53.46137840295717
 30
0.0
 10
595.2439009492868
 20
-53.44399907382864
 30
0.0
 10
595.2256260028544
 20
-53.42677257675356
 30
0.0
  0
LINE
  5
342F
330
2
100
AcDbEntity
  8
AM_VIS
100
AcDbLine
 10
598.7256260028544
 20
-60.96327438061383
 30
0.0
 11
598.7256260028544
 21
-60.46327438061382
 31
0.0
  0
LINE
  5
3430
330
2
100
AcDbEntity
  8
AM_VIS
100
AcDbLine
 10
598.7256260028544
 20
-57.46327438061382
 30
0.0
 11
598.7256260028544
 21
-45.96327438061382
 31
0.0
  0
LINE
  5
3431
330
2
100
AcDbEntity
  8
AM_VIS
100
AcDbLine
 10
595.2256260028544
 20
-53.42677257675356
 30
0.0
 11
595.2256260028544
 21
-53.65317232917047
 31
0.0
  0
CIRCLE
  5
3432
330
2
100
AcDbEntity
  8
AM_VIS
100
AcDbCircle
 10
595.7256260028544
 20
-53.16327438061384
 30
0.0
 40
0.7
  0
LINE
  5
3433
330
2
100
AcDbEntity
  8
AM_VIS
100
AcDbLine
 10
561.1756260028545
 20
-45.96327438061377
 30
0.0
 11
561.1756260028545
 21
-46.46327438061376
 31
0.0
  0
LINE
  5
3434
102
{ACAD_REACTORS
330
3916
102
}
330
2
100
AcDbEntity
  8
AM_VIS
100
AcDbLine
 10
565.6256260028544
 20
-45.96327438061377
 30
0.0
 11
561.1756260028545
 21
-45.96327438061377
 31
0.0
  0
LINE
  5
3435
330
2
100
AcDbEntity
  8
AM_VIS
100
AcDbLine
 10
565.6256260028544
 20
-60.96327438061377
 30
0.0
 11
565.6256260028544
 21
-45.96327438061377
 31
0.0
  0
LINE
  5
3436
330
2
100
AcDbEntity
  8
AM_VIS
100
AcDbLine
 10
565.6256260028544
 20
-60.96327438061377
 30
0.0
 11
561.1756260028545
 21
-60.96327438061377
 31
0.0
  0
LINE
  5
3437
102
{ACAD_REACTORS
330
3916
330
3E90
330
427E
102
}
330
2
100
AcDbEntity
  8
AM_VIS
100
AcDbLine
 10
561.1756260028545
 20
-49.46327438061377
 30
0.0
 11
561.1756260028545
 21
-60.96327438061377
 31
0.0
  0
LINE
  5
3438
330
2
100
AcDbEntity
  8
AM_VIS
100
AcDbLine
 10
562.6756260028545
 20
-46.46327438061376
 30
0.0
 11
562.6756260028545
 21
-47.40649794433082
 31
0.0
  0
LINE
  5
3439
330
2
100
AcDbEntity
  8
AM_VIS
100
AcDbLine
 10
562.6756260028545
 20
-48.52005081689686
 30
0.0
 11
562.6756260028545
 21
-49.46327438061377
 31
0.0
  0
LINE
  5
343A
330
2
100
AcDbEntity
  8
AM_VIS
100
AcDbLine
 10
562.6756260028545
 20
-49.46327438061377
 30
0.0
 11
561.1756260028545
 21
-49.46327438061377
 31
0.0
  0
LINE
  5
343B
330
2
100
AcDbEntity
  8
AM_VIS
100
AcDbLine
 10
561.1756260028545
 20
-46.46327438061376
 30
0.0
 11
562.6756260028545
 21
-46.46327438061376
 31
0.0
  0
LINE
  5
343C
330
2
100
AcDbEntity
  8
AM_VIS
100
AcDbLine
 10
561.1756260028545
 20
-49.46327438061377
 30
0.0
 11
561.1756260028545
 21
-46.46327438061376
 31
0.0
  0
LINE
  5
343D
330
2
100
AcDbEntity
  8
AM_VIS
100
AcDbLine
 10
613.7256260028545
 20
-52.66327438061387
 30
0.0
 11
613.7256260028545
 21
-53.16330379263303
 31
0.0
  0
LINE
  5
343E
330
2
100
AcDbEntity
  8
AM_VIS
100
AcDbLine
 10
601.3256260028545
 20
-58.96327438061385
 30
0.0
 11
609.0256260028544
 21
-58.96327438061385
 31
0.0
  0
LINE
  5
343F
330
2
100
AcDbEntity
  8
AM_VIS
100
AcDbLine
 10
601.3256260028545
 20
-60.06327438061385
 30
0.0
 11
601.3256260028545
 21
-58.96327438061385
 31
0.0
  0
LINE
  5
3440
330
2
100
AcDbEntity
  8
AM_VIS
100
AcDbLine
 10
609.0256260028544
 20
-60.06327438061385
 30
0.0
 11
601.3256260028545
 21
-60.06327438061385
 31
0.0
  0
LINE
  5
3441
330
2
100
AcDbEntity
  8
AM_VIS
100
AcDbLine
 10
609.0256260028544
 20
-58.96327438061388
 30
0.0
 11
609.0256260028544
 21
-60.06327438061387
 31
0.0
  0
LINE
  5
3442
102
{ACAD_REACTORS
330
3E90
102
}
330
2
100
AcDbEntity
  8
AM_VIS
100
AcDbLine
 10
611.7256260028544
 20
-60.96327438061388
 30
0.0
 11
611.7256260028544
 21
-56.68327438061388
 31
0.0
  0
LINE
  5
3443
330
2
100
AcDbEntity
  8
AM_VIS
100
AcDbLine
 10
598.7256260028544
 20
-60.96327438061383
 30
0.0
 11
611.7256260028544
 21
-60.96327438061385
 31
0.0
  0
LINE
  5
3444
330
2
100
AcDbEntity
  8
AM_VIS
100
AcDbLine
 10
598.7256260028544
 20
-53.16327438061384
 30
0.0
 11
598.7256260028544
 21
-60.96327438061383
 31
0.0
  0
LINE
  5
3445
330
2
100
AcDbEntity
  8
AM_VIS
100
AcDbLine
 10
610.2256260028545
 20
-53.16327438061387
 30
0.0
 11
598.7256260028544
 21
-53.16327438061387
 31
0.0
  0
LINE
  5
3446
330
2
100
AcDbEntity
  8
AM_VIS
100
AcDbLine
 10
610.2256260028545
 20
-56.68327438061385
 30
0.0
 11
610.2256260028545
 21
-53.16327438061387
 31
0.0
  0
LINE
  5
3447
330
2
100
AcDbEntity
  8
AM_VIS
100
AcDbLine
 10
611.7256260028544
 20
-53.163303792633
 30
0.0
 11
613.7256260028545
 21
-53.163303792633
 31
0.0
  0
LINE
  5
3448
330
2
100
AcDbEntity
  8
AM_VIS
100
AcDbLine
 10
611.7267325391698
 20
-55.90288456445873
 30
0.0
 11
613.7270064229936
 21
-55.45023805943353
 31
0.0
  0
LINE
  5
3449
330
2
100
AcDbEntity
  8
AM_VIS
100
AcDbLine
 10
611.7256260028544
 20
-56.68327438061385
 30
0.0
 11
610.2256260028545
 21
-56.68327438061385
 31
0.0
  0
LINE
  5
344A
330
2
100
AcDbEntity
  8
AM_VIS
100
AcDbLine
 10
613.9256260028545
 20
-53.76327438061387
 30
0.0
 11
613.7256260028545
 21
-53.76327438061387
 31
0.0
  0
LINE
  5
344B
330
2
100
AcDbEntity
  8
AM_VIS
100
AcDbLine
 10
613.7256260028545
 20
-53.16327438061387
 30
0.0
 11
613.9256260028545
 21
-53.16327438061387
 31
0.0
  0
LINE
  5
344C
330
2
100
AcDbEntity
  8
AM_VIS
100
AcDbLine
 10
608.6256260028545
 20
-60.06327438061385
 30
0.0
 11
608.6256260028545
 21
-58.96327438061388
 31
0.0
  0
LINE
  5
344D
330
2
100
AcDbEntity
  8
AM_VIS
100
AcDbLine
 10
601.8256260028545
 20
-60.06327438061385
 30
0.0
 11
601.8256260028545
 21
-58.96327438061385
 31
0.0
  0
LINE
  5
344E
330
2
100
AcDbEntity
  8
AM_VIS
100
AcDbLine
 10
613.7256260028545
 20
-55.96327438061385
 30
0.0
 11
611.7256260028544
 21
-56.46327438061385
 31
0.0
  0
LINE
  5
344F
330
2
100
AcDbEntity
  8
AM_VIS
100
AcDbLine
 10
613.7256260028545
 20
-54.96327438061385
 30
0.0
 11
613.9256260028545
 21
-54.96327438061385
 31
0.0
  0
LINE
  5
3450
330
2
100
AcDbEntity
  8
AM_VIS
100
AcDbLine
 10
613.7256260028545
 20
-51.96327438061385
 30
0.0
 11
613.9256260028545
 21
-51.96327438061385
 31
0.0
  0
LINE
  5
3451
330
2
100
AcDbEntity
  8
AM_VIS
100
AcDbLine
 10
613.7256260028545
 20
-55.44413789446469
 30
0.0
 11
613.7256260028545
 21
-55.96327438061388
 31
0.0
  0
LINE
  5
3452
330
2
100
AcDbEntity
  8
AM_VIS
100
AcDbLine
 10
611.7256260028544
 20
-53.16327438061387
 30
0.0
 11
611.7256260028544
 21
-53.16330379263303
 31
0.0
  0
LINE
  5
3453
330
2
100
AcDbEntity
  8
AM_VIS
100
AcDbLine
 10
613.7256260028545
 20
-53.163303792633
 30
0.0
 11
613.7256260028545
 21
-55.44413789446469
 31
0.0
  0
LINE
  5
3454
330
2
100
AcDbEntity
  8
AM_VIS
100
AcDbLine
 10
611.7256260028544
 20
-55.89799470964172
 30
0.0
 11
611.7256260028544
 21
-56.68327438061385
 31
0.0
  0
LINE
  5
3455
330
2
100
AcDbEntity
  8
AM_VIS
100
AcDbLine
 10
613.9256260028545
 20
-51.96327438061385
 30
0.0
 11
613.9256260028545
 21
-53.16327438061387
 31
0.0
  0
LINE
  5
3456
330
2
100
AcDbEntity
  8
AM_VIS
100
AcDbLine
 10
613.9256260028545
 20
-53.76327438061387
 30
0.0
 11
613.9256260028545
 21
-54.96327438061385
 31
0.0
  0
LINE
  5
3457
330
2
100
AcDbEntity
  8
AM_VIS
100
AcDbLine
 10
611.7256260028544
 20
-33.46327438061385
 30
0.0
 11
598.7256260028544
 21
-33.46327438061385
 31
0.0
  0
LINE
  5
3458
330
2
100
AcDbEntity
  8
AM_VIS
100
AcDbLine
 10
598.7256260028544
 20
-53.16327438061382
 30
0.0
 11
598.7256260028544
 21
-33.46327438061383
 31
0.0
  0
LINE
  5
3459
330
2
100
AcDbEntity
  8
AM_VIS
100
AcDbLine
 10
613.7256260028545
 20
-52.66327438061387
 30
0.0
 11
613.7256260028545
 21
-50.46327438061388
 31
0.0
  0
LINE
  5
345A
330
2
100
AcDbEntity
  8
AM_VIS
100
AcDbLine
 10
611.7256260028544
 20
-50.46327438061386
 30
0.0
 11
611.7256260028544
 21
-33.46327438061385
 31
0.0
  0
LINE
  5
345B
330
2
100
AcDbEntity
  8
AM_VIS
100
AcDbLine
 10
613.7256260028545
 20
-50.46327438061386
 30
0.0
 11
611.7256260028544
 21
-50.46327438061386
 31
0.0
  0
LINE
  5
345C
330
2
100
AcDbEntity
  8
AM_VIS
100
AcDbLine
 10
612.2256260028544
 20
-53.16327438061384
 30
0.0
 11
598.7256260028544
 21
-53.16327438061384
 31
0.0
  0
LINE
  5
345D
330
2
100
AcDbEntity
  8
AM_VIS
100
AcDbLine
 10
613.7256260028545
 20
-52.66327438061384
 30
0.0
 11
612.2256260028544
 21
-53.16327438061384
 31
0.0
  0
LINE
  5
345E
330
2
100
AcDbEntity
  8
AM_VIS
100
AcDbLine
 10
611.7256260028544
 20
-50.46327438061386
 30
0.0
 11
615.2256260028544
 21
-50.46327438061386
 31
0.0
  0
LINE
  5
345F
330
2
100
AcDbEntity
  8
AM_VIS
100
AcDbLine
 10
611.7256260028544
 20
-33.46327438061385
 30
0.0
 11
611.7256260028544
 21
-50.46327438061386
 31
0.0
  0
LINE
  5
3460
330
2
100
AcDbEntity
  8
AM_VIS
100
AcDbLine
 10
615.2256260028544
 20
-50.46327438061388
 30
0.0
 11
616.7256260028544
 21
-48.96327438061388
 31
0.0
  0
LINE
  5
3461
330
2
100
AcDbEntity
  8
AM_VIS
100
AcDbLine
 10
615.2256260028544
 20
-33.46327438061388
 30
0.0
 11
615.2256260028544
 21
-50.46327438061388
 31
0.0
  0
LINE
  5
3462
330
2
100
AcDbEntity
  8
AM_VIS
100
AcDbLine
 10
616.7256260028544
 20
-34.96327438061385
 30
0.0
 11
615.2256260028544
 21
-33.46327438061385
 31
0.0
  0
LINE
  5
3463
330
2
100
AcDbEntity
  8
AM_VIS
100
AcDbLine
 10
620.2256260028544
 20
-37.46327438061388
 30
0.0
 11
620.2256260028544
 21
-42.86327438061386
 31
0.0
  0
LINE
  5
3464
102
{ACAD_REACTORS
330
427E
102
}
330
2
100
AcDbEntity
  8
AM_VIS
100
AcDbLine
 10
621.2256260028545
 20
-42.56327438061385
 30
0.0
 11
621.2256260028545
 21
-37.46327438061385
 31
0.0
  0
LINE
  5
3465
330
2
100
AcDbEntity
  8
AM_VIS
100
AcDbLine
 10
616.7256260028544
 20
-42.86327438061386
 30
0.0
 11
620.2256260028544
 21
-42.86327438061386
 31
0.0
  0
LINE
  5
3466
330
2
100
AcDbEntity
  8
AM_VIS
100
AcDbLine
 10
621.2256260028545
 20
-42.56327438061385
 30
0.0
 11
620.2256260028544
 21
-42.86327438061386
 31
0.0
  0
LINE
  5
3467
330
2
100
AcDbEntity
  8
AM_VIS
100
AcDbLine
 10
621.2256260028545
 20
-37.46327438061388
 30
0.0
 11
620.2256260028544
 21
-37.46327438061388
 31
0.0
  0
LINE
  5
3468
330
2
100
AcDbEntity
  8
AM_VIS
100
AcDbLine
 10
616.7256260028544
 20
-37.46327438061388
 30
0.0
 11
620.2256260028544
 21
-37.46327438061388
 31
0.0
  0
LINE
  5
3469
330
2
100
AcDbEntity
  8
AM_VIS
100
AcDbLine
 10
621.2256260028545
 20
-37.46327438061388
 30
0.0
 11
621.2256260028545
 21
-35.96327438061388
 31
0.0
  0
LINE
  5
346A
330
2
100
AcDbEntity
  8
AM_VIS
100
AcDbLine
 10
621.2256260028545
 20
-35.96327438061388
 30
0.0
 11
616.7256260028544
 21
-35.96327438061388
 31
0.0
  0
LINE
  5
346B
330
2
100
AcDbEntity
  8
AM_VIS
100
AcDbLine
 10
616.7256260028544
 20
-48.96327438061388
 30
0.0
 11
616.7256260028544
 21
-34.96327438061388
 31
0.0
  0
LINE
  5
346C
330
2
100
AcDbEntity
  8
AM_VIS
100
AcDbLine
 10
611.7256260028544
 20
-33.46327438061385
 30
0.0
 11
615.2256260028544
 21
-33.46327438061385
 31
0.0
  0
LINE
  5
346D
330
2
100
AcDbEntity
  8
AM_VIS
100
AcDbLine
 10
611.3752719627285
 20
-54.97531820464979
 30
0.0
 11
611.4679267846098
 21
-54.96364905046672
 31
0.0
  0
LINE
  5
346E
330
2
100
AcDbEntity
  8
AM_VIS
100
AcDbLine
 10
611.4464078312428
 20
-54.34975702887015
 30
0.0
 11
611.467927501431
 21
-54.33879322164421
 31
0.0
  0
LINE
  5
346F
330
2
100
AcDbEntity
  8
AM_VIS
100
AcDbLine
 10
611.3742718526889
 20
-55.18328035517351
 30
0.0
 11
611.4679267342305
 21
-55.19507673733537
 31
0.0
  0
LINE
  5
3470
330
2
100
AcDbEntity
  8
AM_VIS
100
AcDbLine
 10
610.6972780904613
 20
-53.30453859140774
 30
0.0
 11
610.2256260028545
 21
-53.26327438061383
 31
0.0
  0
LINE
  5
3471
330
2
100
AcDbEntity
  8
AM_VIS
100
AcDbLine
 10
610.6972780904613
 20
-56.42201016981999
 30
0.0
 11
610.2256260028545
 21
-56.46327438061391
 31
0.0
  0
ELLIPSE
  5
3472
330
2
100
AcDbEntity
  8
AM_VIS
100
AcDbEllipse
 10
609.0256260028544
 20
-54.81024523351738
 30
0.0
 11
2.490079065009783
 21
-0.0000000000000017
 31
0.0
210
0.0
220
0.0
230
1.0
 40
0.9711834348606755
 41
0.1962051514771466
 42
0.3428970250348993
  0
ELLIPSE
  5
3473
330
2
100
AcDbEntity
  8
AM_VIS
100
AcDbEllipse
 10
609.5599878128631
 20
-55.49263385291212
 30
0.0
 11
1.794957342537178
 21
1.524020367793819
 31
0.0
210
0.0
220
0.0
230
1.0
 40
0.1838809272074944
 41
6.033676357464736
 42
6.216405892020741
  0
ELLIPSE
  5
3474
330
2
100
AcDbEntity
  8
AM_VIS
100
AcDbEllipse
 10
609.0256260028544
 20
-54.91630352771039
 30
0.0
 11
2.490079065009783
 21
-0.0000000000000017
 31
0.0
210
0.0
220
0.0
230
1.0
 40
0.9711834348606755
 41
5.937689964444293
 42
6.086980155702427
  0
ELLIPSE
  5
3475
330
2
100
AcDbEntity
  8
AM_VIS
100
AcDbEllipse
 10
609.5599878128631
 20
-54.23391490831559
 30
0.0
 11
1.794957342537175
 21
-1.524020367793822
 31
0.0
210
0.0
220
0.0
230
1.0
 40
0.1838809272074955
 41
0.0602411001503995
 42
0.0739494530812532
  0
ELLIPSE
  5
3476
330
2
100
AcDbEntity
  8
AM_VIS
100
AcDbEllipse
 10
609.0256260028544
 20
-55.07936269487231
 30
0.0
 11
2.490079065009606
 21
-0.0000000000000021
 31
0.0
210
0.0
220
0.0
230
1.0
 40
0.2383332453776022
 41
5.937689964444311
 42
6.086980155702799
  0
ELLIPSE
  5
3477
330
2
100
AcDbEntity
  8
AM_VIS
100
AcDbEllipse
 10
609.5599878128631
 20
-55.01772232541793
 30
0.0
 11
0.6538164905629051
 21
2.262086191913682
 31
0.0
210
0.0
220
0.0
230
1.0
 40
0.7492958450165218
 41
4.992445536876735
 42
4.999615574798079
  0
ELLIPSE
  5
3478
330
2
100
AcDbEntity
  8
AM_VIS
100
AcDbEllipse
 10
609.0256260028545
 20
-54.64718606635933
 30
0.0
 11
2.490079065009962
 21
-0.0000000000000021
 31
0.0
210
0.0
220
0.0
230
1.0
 40
0.2383332453776022
 41
5.93768996444426
 42
6.08698015570207
  0
ELLIPSE
  5
3479
330
2
100
AcDbEntity
  8
AM_VIS
100
AcDbEllipse
 10
609.5599878128631
 20
-54.70882643580981
 30
0.0
 11
0.6538164905628979
 21
-2.262086191913683
 31
0.0
210
0.0
220
0.0
230
1.0
 40
0.7492958450165199
 41
1.108010235745992
 42
1.297278085310448
  0
ELLIPSE
  5
347A
330
2
100
AcDbEntity
  8
AM_VIS
100
AcDbEllipse
 10
609.0256260028544
 20
-55.07936269487231
 30
0.0
 11
2.490079065009606
 21
-0.0000000000000021
 31
0.0
210
0.0
220
0.0
230
1.0
 40
0.2383332453776022
 41
0.1962051514767866
 42
0.3428970250345877
  0
ELLIPSE
  5
347B
330
2
100
AcDbEntity
  8
AM_VIS
100
AcDbEllipse
 10
609.0256260028544
 20
-54.91630352771039
 30
0.0
 11
2.490079065009783
 21
-0.0000000000000017
 31
0.0
210
0.0
220
0.0
230
1.0
 40
0.9711834348606755
 41
0.1962051514771408
 42
0.3454953427352922
  0
LINE
  5
347C
330
2
100
AcDbEntity
  8
AM_VIS
100
AcDbLine
 10
611.4679290143582
 20
-54.96366675500041
 30
0.0
 11
611.4679290143582
 21
-55.19505863474421
 31
0.0
  0
LINE
  5
347D
330
2
100
AcDbEntity
  8
AM_VIS
100
AcDbLine
 10
611.4679290143582
 20
-54.33879619120517
 30
0.0
 11
611.4679290143582
 21
-54.44485448539819
 31
0.0
  0
LINE
  5
347E
330
2
100
AcDbEntity
  8
AM_VIS
100
AcDbLine
 10
611.4679290143582
 20
-54.44485448539819
 30
0.0
 11
611.4679290143582
 21
-54.76288200623165
 31
0.0
  0
LINE
  5
347F
330
2
100
AcDbEntity
  8
AM_VIS
100
AcDbLine
 10
611.4679290143582
 20
-55.19505863474421
 30
0.0
 11
611.4679290143582
 21
-55.3877525700226
 31
0.0
  0
ARC
  5
3480
330
2
100
AcDbEntity
  8
AM_VIS
100
AcDbCircle
 10
610.6414984151029
 20
-53.94210319818649
 30
0.0
 40
0.6400000000000002
100
AcDbArc
 50
29.68645618692206
 51
85.00000000000019
  0
ARC
  5
3481
330
2
100
AcDbEntity
  8
AM_VIS
100
AcDbCircle
 10
610.6414984151029
 20
-55.78444556304129
 30
0.0
 40
0.6400000000000002
100
AcDbArc
 50
274.9999999999998
 51
330.3135438130779
  0
ARC
  5
3482
330
2
100
AcDbEntity
  8
AM_VIS
100
AcDbCircle
 10
609.0256260028544
 20
-54.86327438061386
 30
0.0
 40
2.5
100
AcDbArc
 50
330.3135438130801
 51
339.6535615282061
  0
ARC
  5
3483
330
2
100
AcDbEntity
  8
AM_VIS
100
AcDbCircle
 10
609.0256260028544
 20
-54.86327438061386
 30
0.0
 40
2.5
100
AcDbArc
 50
20.34643847179391
 51
29.68645618691994
  0
LINE
  5
3484
330
2
100
AcDbEntity
  8
AM_VIS
100
AcDbLine
 10
562.2039739152475
 20
-98.5419551373014
 30
0.0
 11
562.6756260028545
 21
-98.5006909265075
 31
0.0
  0
LINE
  5
3485
330
2
100
AcDbEntity
  8
AM_VIS
100
AcDbLine
 10
562.6756260028545
 20
-98.5006909265075
 30
0.0
 11
562.6756260028545
 21
-98.60069092650753
 31
0.0
  0
ARC
  5
3486
330
2
100
AcDbEntity
  8
AM_VIS
100
AcDbCircle
 10
562.2597535906059
 20
-99.17951974408012
 30
0.0
 40
0.6400000000000002
100
AcDbArc
 50
94.99999999999982
 51
115.2547165609001
  0
LINE
  5
3487
330
2
100
AcDbEntity
  8
AM_VIS
100
AcDbLine
 10
562.2039739152475
 20
-108.6594267157136
 30
0.0
 11
562.6756260028545
 21
-108.7006909265075
 31
0.0
  0
LINE
  5
3488
330
2
100
AcDbEntity
  8
AM_VIS
100
AcDbLine
 10
562.6756260028545
 20
-108.6006909265075
 30
0.0
 11
562.6756260028545
 21
-108.7006909265075
 31
0.0
  0
ARC
  5
3489
330
2
100
AcDbEntity
  8
AM_VIS
100
AcDbCircle
 10
562.2597535906059
 20
-108.0218621089349
 30
0.0
 40
0.6400000000000002
100
AcDbArc
 50
244.7452834390992
 51
265.0000000000002
  0
LINE
  5
348A
330
2
100
AcDbEntity
  8
AM_VIS
100
AcDbLine
 10
597.9972780904614
 20
-108.6594267157136
 30
0.0
 11
597.5256260028544
 21
-108.7006909265075
 31
0.0
  0
LINE
  5
348B
330
2
100
AcDbEntity
  8
AM_VIS
100
AcDbLine
 10
597.5256260028544
 20
-108.7006909265075
 30
0.0
 11
597.5256260028544
 21
-108.6006909265075
 31
0.0
  0
ARC
  5
348C
330
2
100
AcDbEntity
  8
AM_VIS
100
AcDbCircle
 10
597.9414984151029
 20
-108.0218621089349
 30
0.0
 40
0.6400000000000002
100
AcDbArc
 50
274.9999999999998
 51
295.2547165608997
  0
LINE
  5
348D
330
2
100
AcDbEntity
  8
AM_VIS
100
AcDbLine
 10
597.9972780904614
 20
-98.5419551373014
 30
0.0
 11
597.5256260028544
 21
-98.5006909265075
 31
0.0
  0
LINE
  5
348E
330
2
100
AcDbEntity
  8
AM_VIS
100
AcDbLine
 10
597.5256260028544
 20
-98.60069092650753
 30
0.0
 11
597.5256260028544
 21
-98.50069092650748
 31
0.0
  0
ARC
  5
348F
330
2
100
AcDbEntity
  8
AM_VIS
100
AcDbCircle
 10
597.9414984151029
 20
-99.17951974408012
 30
0.0
 40
0.6400000000000002
100
AcDbArc
 50
64.74528343909224
 51
85.00000000000019
  0
LINE
  5
3490
330
2
100
AcDbEntity
  8
AM_VIS
100
AcDbLine
 10
581.6756260028545
 20
-98.60069092650753
 30
0.0
 11
582.1756260028545
 21
-98.10069092650753
 31
0.0
  0
LINE
  5
3491
102
{ACAD_REACTORS
330
39CA
102
}
330
2
100
AcDbEntity
  8
AM_VIS
100
AcDbLine
 10
582.1756260028545
 20
-98.10069092650753
 30
0.0
 11
583.1756260028545
 21
-98.10069092650753
 31
0.0
  0
LINE
  5
3492
330
2
100
AcDbEntity
  8
AM_VIS
100
AcDbLine
 10
583.1756260028545
 20
-98.10069092650753
 30
0.0
 11
583.6756260028545
 21
-98.60069092650753
 31
0.0
  0
LINE
  5
3493
330
2
100
AcDbEntity
  8
AM_VIS
100
AcDbLine
 10
583.6756260028545
 20
-98.60069092650753
 30
0.0
 11
589.2256260028545
 21
-98.60069092650753
 31
0.0
  0
LINE
  5
3494
330
2
100
AcDbEntity
  8
AM_VIS
100
AcDbLine
 10
589.2256260028545
 20
-108.6006909265075
 30
0.0
 11
589.2256260028545
 21
-98.6006909265075
 31
0.0
  0
LINE
  5
3495
330
2
100
AcDbEntity
  8
AM_VIS
100
AcDbLine
 10
576.6756260028545
 20
-108.6006909265075
 30
0.0
 11
576.1756260028545
 21
-109.1006909265075
 31
0.0
  0
LINE
  5
3496
330
2
100
AcDbEntity
  8
AM_VIS
100
AcDbLine
 10
576.1756260028545
 20
-109.1006909265075
 30
0.0
 11
575.1756260028545
 21
-109.1006909265075
 31
0.0
  0
LINE
  5
3497
102
{ACAD_REACTORS
330
39CA
102
}
330
2
100
AcDbEntity
  8
AM_VIS
100
AcDbLine
 10
575.1756260028545
 20
-109.1006909265075
 30
0.0
 11
574.6756260028545
 21
-108.6006909265075
 31
0.0
  0
LINE
  5
3498
330
2
100
AcDbEntity
  8
AM_VIS
100
AcDbLine
 10
565.6256260028544
 20
-108.6006909265075
 30
0.0
 11
574.6756260028545
 21
-108.6006909265075
 31
0.0
  0
LINE
  5
3499
330
2
100
AcDbEntity
  8
AM_VIS
100
AcDbLine
 10
565.6256260028544
 20
-98.60069092650753
 30
0.0
 11
565.6256260028544
 21
-108.6006909265075
 31
0.0
  0
LINE
  5
349A
330
2
100
AcDbEntity
  8
AM_VIS
100
AcDbLine
 10
576.6756260028545
 20
-108.6006909265075
 30
0.0
 11
581.5756260028544
 21
-108.6006909265075
 31
0.0
  0
LINE
  5
349B
330
2
100
AcDbEntity
  8
AM_VIS
100
AcDbLine
 10
585.9756260028545
 20
-108.6006909265075
 30
0.0
 11
589.2256260028545
 21
-108.6006909265075
 31
0.0
  0
LINE
  5
349C
330
2
100
AcDbEntity
  8
AM_VIS
100
AcDbLine
 10
582.0756260028544
 20
-108.1006909265075
 30
0.0
 11
585.4756260028544
 21
-108.1006909265075
 31
0.0
  0
LINE
  5
349D
330
2
100
AcDbEntity
  8
AM_VIS
100
AcDbLine
 10
581.5756260028544
 20
-108.6006909265075
 30
0.0
 11
582.0756260028544
 21
-108.1006909265075
 31
0.0
  0
LINE
  5
349E
330
2
100
AcDbEntity
  8
AM_VIS
100
AcDbLine
 10
585.4756260028544
 20
-108.1006909265075
 30
0.0
 11
585.9756260028545
 21
-108.6006909265075
 31
0.0
  0
LINE
  5
349F
330
2
100
AcDbEntity
  8
AM_VIS
100
AcDbLine
 10
565.6256260028544
 20
-98.60069092650753
 30
0.0
 11
574.5756260028543
 21
-98.60069092650753
 31
0.0
  0
LINE
  5
34A0
330
2
100
AcDbEntity
  8
AM_VIS
100
AcDbLine
 10
578.9756260028545
 20
-98.60069092650753
 30
0.0
 11
581.6756260028545
 21
-98.60069092650753
 31
0.0
  0
LINE
  5
34A1
330
2
100
AcDbEntity
  8
AM_VIS
100
AcDbLine
 10
578.4756260028545
 20
-99.10069092650752
 30
0.0
 11
575.0756260028545
 21
-99.10069092650752
 31
0.0
  0
LINE
  5
34A2
330
2
100
AcDbEntity
  8
AM_VIS
100
AcDbLine
 10
578.9756260028545
 20
-98.60069092650753
 30
0.0
 11
578.4756260028545
 21
-99.10069092650752
 31
0.0
  0
LINE
  5
34A3
330
2
100
AcDbEntity
  8
AM_VIS
100
AcDbLine
 10
575.0756260028545
 20
-99.10069092650752
 30
0.0
 11
574.5756260028545
 21
-98.60069092650753
 31
0.0
  0
CIRCLE
  5
34A4
330
2
100
AcDbEntity
  8
AM_VIS
100
AcDbCircle
 10
577.4256260028545
 20
-103.6006909265075
 30
0.0
 40
1.0
  0
CIRCLE
  5
34A5
330
2
100
AcDbEntity
  8
AM_VIS
100
AcDbCircle
 10
577.4256260028545
 20
-103.6006909265075
 30
0.0
 40
1.25
  0
CIRCLE
  5
34A6
330
2
100
AcDbEntity
  8
AM_VIS
100
AcDbCircle
 10
570.4256260028545
 20
-103.6006909265075
 30
0.0
 40
1.25
  0
CIRCLE
  5
34A7
330
2
100
AcDbEntity
  8
AM_VIS
100
AcDbCircle
 10
584.4256260028545
 20
-103.6006909265075
 30
0.0
 40
1.25
  0
CIRCLE
  5
34A8
330
2
100
AcDbEntity
  8
AM_VIS
100
AcDbCircle
 10
584.4256260028545
 20
-103.6006909265075
 30
0.0
 40
1.0
  0
CIRCLE
  5
34A9
330
2
100
AcDbEntity
  8
AM_VIS
100
AcDbCircle
 10
570.4256260028545
 20
-103.6006909265075
 30
0.0
 40
1.0
  0
CIRCLE
  5
34AA
330
2
100
AcDbEntity
  8
AM_VIS
100
AcDbCircle
 10
570.4256260028545
 20
-103.6006909265075
 30
0.0
 40
1.599999999999999
  0
CIRCLE
  5
34AB
330
2
100
AcDbEntity
  8
AM_VIS
100
AcDbCircle
 10
575.6756260028545
 20
-107.7006909265075
 30
0.0
 40
0.85
  0
CIRCLE
  5
34AC
330
2
100
AcDbEntity
  8
AM_VIS
100
AcDbCircle
 10
582.6756260028544
 20
-99.5006909265075
 30
0.0
 40
0.85
  0
CIRCLE
  5
34AD
330
2
100
AcDbEntity
  8
AM_VIS
100
AcDbCircle
 10
577.4256260028545
 20
-103.6006909265075
 30
0.0
 40
1.6
  0
CIRCLE
  5
34AE
102
{ACAD_REACTORS
330
36F5
102
}
330
2
100
AcDbEntity
  8
AM_VIS
100
AcDbCircle
 10
584.4256260028545
 20
-103.6006909265075
 30
0.0
 40
1.599999999999999
  0
LINE
  5
34AF
330
2
100
AcDbEntity
  8
AM_VIS
100
AcDbLine
 10
589.2256260028545
 20
-98.60069092650753
 30
0.0
 11
589.2256260028545
 21
-108.6006909265075
 31
0.0
  0
LINE
  5
34B0
330
2
100
AcDbEntity
  8
AM_VIS
100
AcDbLine
 10
589.2256260028545
 20
-108.6006909265075
 30
0.0
 11
598.7256260028544
 21
-108.6006909265075
 31
0.0
  0
LINE
  5
34B1
330
2
100
AcDbEntity
  8
AM_VIS
100
AcDbLine
 10
589.2256260028545
 20
-98.60069092650753
 30
0.0
 11
598.7256260028544
 21
-98.60069092650753
 31
0.0
  0
LINE
  5
34B2
330
2
100
AcDbEntity
  8
AM_VIS
100
AcDbLine
 10
598.7256260028544
 20
-108.6006909265075
 30
0.0
 11
598.7256260028544
 21
-98.60069092650753
 31
0.0
  0
LINE
  5
34B3
330
2
100
AcDbEntity
  8
AM_VIS
100
AcDbLine
 10
565.6256260028544
 20
-108.6006909265075
 30
0.0
 11
565.6256260028544
 21
-98.6006909265075
 31
0.0
  0
LINE
  5
34B4
102
{ACAD_REACTORS
330
397E
102
}
330
2
100
AcDbEntity
  8
AM_VIS
100
AcDbLine
 10
561.1756260028545
 20
-98.6006909265075
 30
0.0
 11
561.1756260028545
 21
-108.6006909265075
 31
0.0
  0
LINE
  5
34B5
330
2
100
AcDbEntity
  8
AM_VIS
100
AcDbLine
 10
565.6256260028544
 20
-108.6006909265075
 30
0.0
 11
561.1756260028545
 21
-108.6006909265075
 31
0.0
  0
LINE
  5
34B6
330
2
100
AcDbEntity
  8
AM_VIS
100
AcDbLine
 10
565.6256260028544
 20
-98.6006909265075
 30
0.0
 11
561.1756260028545
 21
-98.6006909265075
 31
0.0
  0
LINE
  5
34B7
330
2
100
AcDbEntity
  8
AM_VIS
100
AcDbLine
 10
577.1756260028545
 20
-104.5689367630594
 30
0.0
 11
577.1756260028545
 21
-102.6324450899556
 31
0.0
  0
LINE
  5
34B8
330
2
100
AcDbEntity
  8
AM_VIS
100
AcDbLine
 10
584.6256260028544
 20
-102.6208950293942
 30
0.0
 11
584.6256260028544
 21
-104.5804868236207
 31
0.0
  0
LINE
  5
34B9
330
2
100
AcDbEntity
  8
AM_VIS
100
AcDbLine
 10
584.1256260028544
 20
-104.5546301279244
 30
0.0
 11
584.1256260028544
 21
-102.6467517250905
 31
0.0
  0
LINE
  5
34BA
330
2
100
AcDbEntity
  8
AM_VIS
100
AcDbLine
 10
576.5756260028545
 20
-103.0739082388649
 30
0.0
 11
576.5756260028545
 21
-104.1274736141501
 31
0.0
  0
LINE
  5
34BB
330
2
100
AcDbEntity
  8
AM_VIS
100
AcDbLine
 10
583.5256260028544
 20
-103.1648010321534
 30
0.0
 11
583.5256260028544
 21
-104.0365808208616
 31
0.0
  0
LINE
  5
34BC
330
2
100
AcDbEntity
  8
AM_VIS
100
AcDbLine
 10
577.6756260028545
 20
-102.6324450899556
 30
0.0
 11
577.6756260028545
 21
-104.5689367630593
 31
0.0
  0
LINE
  5
34BD
330
2
100
AcDbEntity
  8
AM_VIS
100
AcDbLine
 10
598.7256260028544
 20
-98.6006909265075
 30
0.0
 11
598.7256260028544
 21
-108.6006909265075
 31
0.0
  0
LINE
  5
34BE
330
2
100
AcDbEntity
  8
AM_VIS
100
AcDbLine
 10
598.7256260028544
 20
-108.6006909265075
 30
0.0
 11
611.7256260028544
 21
-108.6006909265075
 31
0.0
  0
LINE
  5
34BF
330
2
100
AcDbEntity
  8
AM_VIS
100
AcDbLine
 10
611.7248591348292
 20
-105.3467446206109
 30
0.0
 11
613.7246974921419
 21
-105.1177635197501
 31
0.0
  0
LINE
  5
34C0
330
2
100
AcDbEntity
  8
AM_VIS
100
AcDbLine
 10
613.7256260028545
 20
-106.2006909265074
 30
0.0
 11
611.7256260028544
 21
-106.2006909265074
 31
0.0
  0
LINE
  5
34C1
330
2
100
AcDbEntity
  8
AM_VIS
100
AcDbLine
 10
611.7256260028544
 20
-108.6006909265075
 30
0.0
 11
611.7256260028544
 21
-98.60069092650746
 31
0.0
  0
LINE
  5
34C2
330
2
100
AcDbEntity
  8
AM_VIS
100
AcDbLine
 10
598.7256260028544
 20
-98.6006909265075
 30
0.0
 11
611.7256260028544
 21
-98.6006909265075
 31
0.0
  0
LINE
  5
34C3
330
2
100
AcDbEntity
  8
AM_VIS
100
AcDbLine
 10
611.7256260028544
 20
-101.0006909265074
 30
0.0
 11
613.7256260028545
 21
-101.0006909265074
 31
0.0
  0
LINE
  5
34C4
330
2
100
AcDbEntity
  8
AM_VIS
100
AcDbLine
 10
611.7248591348292
 20
-101.8546372324039
 30
0.0
 11
613.7246974921419
 21
-102.0836183332648
 31
0.0
  0
LINE
  5
34C5
330
2
100
AcDbEntity
  8
AM_VIS
100
AcDbLine
 10
613.7256260028545
 20
-105.0703847721774
 30
0.0
 11
613.9256260028545
 21
-105.0703847721774
 31
0.0
  0
LINE
  5
34C6
330
2
100
AcDbEntity
  8
AM_VIS
100
AcDbLine
 10
613.9256260028545
 20
-102.1309970808375
 30
0.0
 11
613.7256260028545
 21
-102.1309970808375
 31
0.0
  0
CIRCLE
  5
34C7
330
2
100
AcDbEntity
  8
AM_VIS
100
AcDbCircle
 10
605.2256260028545
 20
-103.6006909265075
 30
0.0
 40
3.399999999999999
  0
CIRCLE
  5
34C8
330
2
100
AcDbEntity
  8
AM_VIS
100
AcDbCircle
 10
605.2256260028545
 20
-103.6006909265075
 30
0.0
 40
2.7
  0
CIRCLE
  5
34C9
330
2
100
AcDbEntity
  8
AM_VIS
100
AcDbCircle
 10
605.2256260028545
 20
-103.6006909265075
 30
0.0
 40
2.5
  0
CIRCLE
  5
34CA
330
2
100
AcDbEntity
  8
AM_VIS
100
AcDbCircle
 10
605.2256260028545
 20
-103.6006909265075
 30
0.0
 40
2.399999999999999
  0
LINE
  5
34CB
330
2
100
AcDbEntity
  8
AM_VIS
100
AcDbLine
 10
613.7256260028545
 20
-102.0755090555509
 30
0.0
 11
613.7256260028545
 21
-105.125872797464
 31
0.0
  0
LINE
  5
34CC
330
2
100
AcDbEntity
  8
AM_VIS
100
AcDbLine
 10
613.7256260028545
 20
-105.125872797464
 30
0.0
 11
613.7256260028545
 21
-106.2006909265074
 31
0.0
  0
LINE
  5
34CD
330
2
100
AcDbEntity
  8
AM_VIS
100
AcDbLine
 10
613.7256260028545
 20
-101.0006909265074
 30
0.0
 11
613.7256260028545
 21
-102.0755090555509
 31
0.0
  0
LINE
  5
34CE
330
2
100
AcDbEntity
  8
AM_VIS
100
AcDbLine
 10
613.9256260028545
 20
-102.1309970808375
 30
0.0
 11
613.9256260028545
 21
-105.0703847721774
 31
0.0
  0
LINE
  5
34CF
330
2
100
AcDbEntity
  8
AM_VIS
100
AcDbLine
 10
611.7256260028544
 20
-108.6006909265074
 30
0.0
 11
612.2256260028544
 21
-108.6006909265074
 31
0.0
  0
LINE
  5
34D0
330
2
100
AcDbEntity
  8
AM_VIS
100
AcDbLine
 10
612.2256260028544
 20
-98.60069092650745
 30
0.0
 11
611.7256260028544
 21
-98.60069092650745
 31
0.0
  0
LINE
  5
34D1
330
2
100
AcDbEntity
  8
AM_VIS
100
AcDbLine
 10
613.7256260028545
 20
-101.0006909265074
 30
0.0
 11
613.7256260028545
 21
-98.60069092650745
 31
0.0
  0
LINE
  5
34D2
330
2
100
AcDbEntity
  8
AM_VIS
100
AcDbLine
 10
612.2256260028544
 20
-98.60069092650745
 30
0.0
 11
612.2256260028544
 21
-101.0006909265074
 31
0.0
  0
LINE
  5
34D3
330
2
100
AcDbEntity
  8
AM_VIS
100
AcDbLine
 10
613.7256260028545
 20
-98.60069092650745
 30
0.0
 11
612.2256260028544
 21
-98.60069092650745
 31
0.0
  0
LINE
  5
34D4
330
2
100
AcDbEntity
  8
AM_VIS
100
AcDbLine
 10
613.7256260028545
 20
-108.6006909265074
 30
0.0
 11
613.7256260028545
 21
-106.2006909265074
 31
0.0
  0
LINE
  5
34D5
330
2
100
AcDbEntity
  8
AM_VIS
100
AcDbLine
 10
612.2256260028544
 20
-108.6006909265074
 30
0.0
 11
613.7256260028545
 21
-108.6006909265074
 31
0.0
  0
LINE
  5
34D6
330
2
100
AcDbEntity
  8
AM_VIS
100
AcDbLine
 10
612.2256260028544
 20
-106.2006909265074
 30
0.0
 11
612.2256260028544
 21
-108.6006909265074
 31
0.0
  0
LINE
  5
34D7
330
2
100
AcDbEntity
  8
AM_VIS
100
AcDbLine
 10
613.7256260028545
 20
-98.60069092650746
 30
0.0
 11
615.2256260028544
 21
-98.60069092650746
 31
0.0
  0
LINE
  5
34D8
330
2
100
AcDbEntity
  8
AM_VIS
100
AcDbLine
 10
615.2256260028544
 20
-98.60069092650746
 30
0.0
 11
615.2256260028544
 21
-108.6006909265075
 31
0.0
  0
LINE
  5
34D9
330
2
100
AcDbEntity
  8
AM_VIS
100
AcDbLine
 10
613.7256260028545
 20
-108.6006909265074
 30
0.0
 11
615.2256260028544
 21
-108.6006909265074
 31
0.0
  0
LINE
  5
34DA
330
2
100
AcDbEntity
  8
AM_VIS
100
AcDbLine
 10
616.7256260028544
 20
-107.6006909265074
 30
0.0
 11
615.2256260028544
 21
-108.6006909265074
 31
0.0
  0
LINE
  5
34DB
330
2
100
AcDbEntity
  8
AM_VIS
100
AcDbLine
 10
615.2256260028544
 20
-98.60069092650746
 30
0.0
 11
616.7256260028544
 21
-99.60069092650748
 31
0.0
  0
LINE
  5
34DC
330
2
100
AcDbEntity
  8
AM_VIS
100
AcDbLine
 10
616.7256260028544
 20
-107.3506909265074
 30
0.0
 11
620.2256260028544
 21
-107.3506909265074
 31
0.0
  0
LINE
  5
34DD
330
2
100
AcDbEntity
  8
AM_VIS
100
AcDbLine
 10
616.7256260028544
 20
-99.85069092650745
 30
0.0
 11
620.2256260028544
 21
-99.85069092650745
 31
0.0
  0
LINE
  5
34DE
330
2
100
AcDbEntity
  8
AM_VIS
100
AcDbLine
 10
621.2256260028545
 20
-106.7506909265074
 30
0.0
 11
621.2256260028545
 21
-100.4506909265074
 31
0.0
  0
LINE
  5
34DF
330
2
100
AcDbEntity
  8
AM_VIS
100
AcDbLine
 10
620.2256260028544
 20
-107.3506909265074
 30
0.0
 11
621.2256260028545
 21
-106.7506909265074
 31
0.0
  0
LINE
  5
34E0
330
2
100
AcDbEntity
  8
AM_VIS
100
AcDbLine
 10
620.2256260028544
 20
-99.85069092650745
 30
0.0
 11
620.2256260028544
 21
-107.3506909265074
 31
0.0
  0
LINE
  5
34E1
330
2
100
AcDbEntity
  8
AM_VIS
100
AcDbLine
 10
621.2256260028545
 20
-100.4506909265074
 30
0.0
 11
620.2256260028544
 21
-99.85069092650745
 31
0.0
  0
LINE
  5
34E2
330
2
100
AcDbEntity
  8
AM_VIS
100
AcDbLine
 10
616.7256260028544
 20
-107.6006909265074
 30
0.0
 11
616.7256260028544
 21
-99.60069092650748
 31
0.0
  0
ARC
  5
34E3
330
2
100
AcDbEntity
  8
AM_VIS
100
AcDbCircle
 10
649.4569239700435
 20
-47.96327438061382
 30
0.0
 40
1.600000000000022
100
AcDbArc
 50
339.6358651936706
 51
20.36413480632941
  0
ARC
  5
34E4
330
2
100
AcDbEntity
  8
AM_VIS
100
AcDbCircle
 10
642.4569239700436
 20
-58.96327438061388
 30
0.0
 40
1.600000000000022
100
AcDbArc
 50
159.6358651936843
 51
200.3641348063164
  0
LINE
  5
34E5
330
2
100
AcDbEntity
  8
AM_VIS
100
AcDbLine
 10
651.4569239700436
 20
-60.96327438061385
 30
0.0
 11
651.4569239700436
 21
-47.36327438061386
 31
0.0
  0
LINE
  5
34E6
330
2
100
AcDbEntity
  8
AM_VIS
100
AcDbLine
 10
640.4569239700435
 20
-47.36327438061386
 30
0.0
 11
640.4569239700435
 21
-60.96327438061385
 31
0.0
  0
LINE
  5
34E7
330
2
100
AcDbEntity
  8
AM_VIS
100
AcDbLine
 10
640.9569239700435
 20
-47.36327438061386
 30
0.0
 11
640.4569239700435
 21
-47.36327438061386
 31
0.0
  0
LINE
  5
34E8
330
2
100
AcDbEntity
  8
AM_VIS
100
AcDbLine
 10
651.4569239700436
 20
-47.36327438061386
 30
0.0
 11
650.9569239700436
 21
-47.36327438061386
 31
0.0
  0
LINE
  5
34E9
102
{ACAD_REACTORS
330
3B1F
102
}
330
2
100
AcDbEntity
  8
AM_VIS
100
AcDbLine
 10
640.4569239700435
 20
-60.96327438061385
 30
0.0
 11
640.9569239700435
 21
-60.96327438061385
 31
0.0
  0
LINE
  5
34EA
330
2
100
AcDbEntity
  8
AM_VIS
100
AcDbLine
 10
650.9569239700436
 20
-60.96327438061385
 30
0.0
 11
651.4569239700436
 21
-60.96327438061385
 31
0.0
  0
LINE
  5
34EB
330
2
100
AcDbEntity
  8
AM_VIS
100
AcDbLine
 10
643.3569239700435
 20
-50.46327438061388
 30
0.0
 11
643.3569239700435
 21
-53.16330379263303
 31
0.0
  0
LINE
  5
34EC
330
2
100
AcDbEntity
  8
AM_VIS
100
AcDbLine
 10
642.0569239700435
 20
-57.86327438061386
 30
0.0
 11
649.8569239700436
 21
-57.86327438061383
 31
0.0
  0
LINE
  5
34ED
330
2
100
AcDbEntity
  8
AM_VIS
100
AcDbLine
 10
649.3569239700435
 20
-57.3632743806138
 30
0.0
 11
649.3569239700435
 21
-57.8632743806138
 31
0.0
  0
LINE
  5
34EE
330
2
100
AcDbEntity
  8
AM_VIS
100
AcDbLine
 10
642.5569239700436
 20
-57.86327438061383
 30
0.0
 11
642.5569239700436
 21
-57.36327438061383
 31
0.0
  0
LINE
  5
34EF
330
2
100
AcDbEntity
  8
AM_VIS
100
AcDbLine
 10
648.5569239700435
 20
-53.16330379263297
 30
0.0
 11
648.5569239700435
 21
-50.46327438061382
 31
0.0
  0
LINE
  5
34F0
330
2
100
AcDbEntity
  8
AM_VIS
100
AcDbLine
 10
650.9569239700434
 20
-53.16327438061387
 30
0.0
 11
650.9569239700436
 21
-56.68327438061385
 31
0.0
  0
ARC
  5
34F1
330
2
100
AcDbEntity
  8
AM_VIS
100
AcDbCircle
 10
649.2119248376761
 20
-54.86076688426661
 30
0.0
 40
1.825539782311255
100
AcDbArc
 50
198.6363679025926
 51
214.6231278646366
  0
LINE
  5
34F2
330
2
100
AcDbEntity
  8
AM_VIS
100
AcDbLine
 10
642.0569239700435
 20
-57.36327438061386
 30
0.0
 11
642.7069239700434
 21
-57.36327438061386
 31
0.0
  0
LINE
  5
34F3
330
2
100
AcDbEntity
  8
AM_VIS
100
AcDbLine
 10
642.0569239700435
 20
-59.86327438061386
 30
0.0
 11
642.0569239700435
 21
-57.36327438061386
 31
0.0
  0
LINE
  5
34F4
330
2
100
AcDbEntity
  8
AM_VIS
100
AcDbLine
 10
649.8569239700436
 20
-59.86327438061383
 30
0.0
 11
642.0569239700435
 21
-59.86327438061386
 31
0.0
  0
LINE
  5
34F5
330
2
100
AcDbEntity
  8
AM_VIS
100
AcDbLine
 10
649.8569239700436
 20
-57.36327438061386
 30
0.0
 11
649.8569239700436
 21
-59.86327438061386
 31
0.0
  0
LINE
  5
34F6
330
2
100
AcDbEntity
  8
AM_VIS
100
AcDbLine
 10
649.2069239700436
 20
-57.36327438061386
 30
0.0
 11
649.8569239700436
 21
-57.36327438061386
 31
0.0
  0
LINE
  5
34F7
330
2
100
AcDbEntity
  8
AM_VIS
100
AcDbLine
 10
650.9569239700436
 20
-56.68327438061385
 30
0.0
 11
649.2069239700436
 21
-56.68327438061385
 31
0.0
  0
LINE
  5
34F8
330
2
100
AcDbEntity
  8
AM_VIS
100
AcDbLine
 10
650.9569239700436
 20
-56.68327438061385
 30
0.0
 11
650.9569239700436
 21
-60.96327438061385
 31
0.0
  0
LINE
  5
34F9
330
2
100
AcDbEntity
  8
AM_VIS
100
AcDbLine
 10
650.9569239700436
 20
-60.96327438061385
 30
0.0
 11
640.9569239700435
 21
-60.96327438061388
 31
0.0
  0
LINE
  5
34FA
330
2
100
AcDbEntity
  8
AM_VIS
100
AcDbLine
 10
640.9569239700435
 20
-60.96327438061388
 30
0.0
 11
640.9569239700434
 21
-56.68327438061388
 31
0.0
  0
LINE
  5
34FB
330
2
100
AcDbEntity
  8
AM_VIS
100
AcDbLine
 10
640.9569239700435
 20
-56.68327438061385
 30
0.0
 11
640.9569239700434
 21
-53.16327438061387
 31
0.0
  0
ARC
  5
34FC
330
2
100
AcDbEntity
  8
AM_VIS
100
AcDbCircle
 10
642.7019231024095
 20
-54.86076688426599
 30
0.0
 40
1.825539782312666
100
AcDbArc
 50
325.3768721353674
 51
341.3636320974007
  0
LINE
  5
34FD
330
2
100
AcDbEntity
  8
AM_VIS
100
AcDbLine
 10
642.7069239700434
 20
-56.68327438061385
 30
0.0
 11
640.9569239700434
 21
-56.68327438061385
 31
0.0
  0
LINE
  5
34FE
330
2
100
AcDbEntity
  8
AM_VIS
100
AcDbLine
 10
647.4266178157135
 20
-53.76327438061387
 30
0.0
 11
646.3569239700436
 21
-53.76327438061387
 31
0.0
  0
LINE
  5
34FF
330
2
100
AcDbEntity
  8
AM_VIS
100
AcDbLine
 10
645.5569239700435
 20
-53.76327438061387
 30
0.0
 11
644.4872301243735
 21
-53.76327438061387
 31
0.0
  0
LINE
  5
3500
330
2
100
AcDbEntity
  8
AM_VIS
100
AcDbLine
 10
646.3569239700436
 20
-53.16327438061387
 30
0.0
 11
647.4266178157135
 21
-53.16327438061387
 31
0.0
  0
LINE
  5
3501
330
2
100
AcDbEntity
  8
AM_VIS
100
AcDbLine
 10
644.4872301243735
 20
-53.16327438061387
 30
0.0
 11
645.5569239700435
 21
-53.16327438061387
 31
0.0
  0
ARC
  5
3502
330
2
100
AcDbEntity
  8
AM_VIS
100
AcDbCircle
 10
645.9569239700434
 20
-53.46327438061385
 30
0.0
 40
2.5
100
AcDbArc
 50
232.4052366676959
 51
307.594763332304
  0
ARC
  5
3503
330
2
100
AcDbEntity
  8
AM_VIS
100
AcDbCircle
 10
645.9569239700434
 20
-53.46327438061385
 30
0.0
 40
3.0
100
AcDbArc
 50
247.307722008548
 51
292.692277991452
  0
ARC
  5
3504
330
2
100
AcDbEntity
  8
AM_VIS
100
AcDbCircle
 10
649.2069239700436
 20
-54.86327438061386
 30
0.0
 40
1.819999999999999
100
AcDbArc
 50
110.9248324276401
 51
198.6118775363971
  0
ARC
  5
3505
330
2
100
AcDbEntity
  8
AM_VIS
100
AcDbCircle
 10
645.9569239700434
 20
-53.46327438061385
 30
0.0
 40
3.0
100
AcDbArc
 50
234.2499471461065
 51
247.307722008548
  0
ARC
  5
3506
330
2
100
AcDbEntity
  8
AM_VIS
100
AcDbCircle
 10
642.7069239700434
 20
-54.86327438061386
 30
0.0
 40
2.5
100
AcDbArc
 50
270.0
 51
326.831157478121
  0
ARC
  5
3507
330
2
100
AcDbEntity
  8
AM_VIS
100
AcDbCircle
 10
649.2069239700436
 20
-54.86327438061386
 30
0.0
 40
2.5
100
AcDbArc
 50
213.168842521879
 51
270.0
  0
ARC
  5
3508
330
2
100
AcDbEntity
  8
AM_VIS
100
AcDbCircle
 10
645.9569239700434
 20
-53.46327438061385
 30
0.0
 40
3.0
100
AcDbArc
 50
292.692277991452
 51
305.750052853894
  0
ARC
  5
3509
330
2
100
AcDbEntity
  8
AM_VIS
100
AcDbCircle
 10
649.2069239700436
 20
-54.86327438061386
 30
0.0
 40
1.819999999999999
100
AcDbArc
 50
214.6476182308366
 51
270.0
  0
ARC
  5
350A
330
2
100
AcDbEntity
  8
AM_VIS
100
AcDbCircle
 10
642.7069239700434
 20
-54.86327438061386
 30
0.0
 40
1.819999999999999
100
AcDbArc
 50
69.07516757235985
 51
69.07776031741949
  0
ARC
  5
350B
330
2
100
AcDbEntity
  8
AM_VIS
100
AcDbCircle
 10
642.7069239700434
 20
-54.86327438061386
 30
0.0
 40
1.819999999999999
100
AcDbArc
 50
341.3881224636028
 51
69.07516757235985
  0
ARC
  5
350C
330
2
100
AcDbEntity
  8
AM_VIS
100
AcDbCircle
 10
642.7069239700434
 20
-54.86327438061386
 30
0.0
 40
1.819999999999999
100
AcDbArc
 50
270.0
 51
325.3523817691634
  0
CIRCLE
  5
350D
330
2
100
AcDbEntity
  8
AM_VIS
100
AcDbCircle
 10
645.9569239700434
 20
-53.46327438061385
 30
0.0
 40
1.6
  0
ARC
  5
350E
330
2
100
AcDbEntity
  8
AM_VIS
100
AcDbCircle
 10
645.9569239700434
 20
-53.46327438061385
 30
0.0
 40
1.5
100
AcDbArc
 50
11.53695903281574
 51
168.4630409671842
  0
ARC
  5
350F
330
2
100
AcDbEntity
  8
AM_VIS
100
AcDbCircle
 10
645.9569239700434
 20
-53.46327438061385
 30
0.0
 40
1.5
100
AcDbArc
 50
191.5369590328157
 51
348.4630409671843
  0
ARC
  5
3510
330
2
100
AcDbEntity
  8
AM_VIS
100
AcDbCircle
 10
645.9569239700434
 20
-53.46327438061385
 30
0.0
 40
1.5
100
AcDbArc
 50
348.4630409671843
 51
11.53695903281574
  0
ARC
  5
3511
330
2
100
AcDbEntity
  8
AM_VIS
100
AcDbCircle
 10
645.9569239700434
 20
-53.46327438061385
 30
0.0
 40
1.5
100
AcDbArc
 50
168.4630409671842
 51
191.5369590328157
  0
ARC
  5
3512
330
2
100
AcDbEntity
  8
AM_VIS
100
AcDbCircle
 10
645.9569239700434
 20
-53.46327438061385
 30
0.0
 40
0.5
100
AcDbArc
 50
323.1301023541547
 51
36.86989764584533
  0
ARC
  5
3513
330
2
100
AcDbEntity
  8
AM_VIS
100
AcDbCircle
 10
645.9569239700434
 20
-53.46327438061385
 30
0.0
 40
0.5
100
AcDbArc
 50
216.8698976458453
 51
323.1301023541547
  0
ARC
  5
3514
330
2
100
AcDbEntity
  8
AM_VIS
100
AcDbCircle
 10
645.9569239700434
 20
-53.46327438061385
 30
0.0
 40
0.5
100
AcDbArc
 50
143.1301023541546
 51
216.8698976458453
  0
ARC
  5
3515
330
2
100
AcDbEntity
  8
AM_VIS
100
AcDbCircle
 10
645.9569239700434
 20
-53.46327438061385
 30
0.0
 40
0.5
100
AcDbArc
 50
36.86989764584533
 51
143.1301023541546
  0
LINE
  5
3516
330
2
100
AcDbEntity
  8
AM_VIS
100
AcDbLine
 10
640.9569239700434
 20
-52.66327438061387
 30
0.0
 11
640.9569239700434
 21
-50.46327438061388
 31
0.0
  0
LINE
  5
3517
330
2
100
AcDbEntity
  8
AM_VIS
100
AcDbLine
 10
643.3569239700434
 20
-52.66327438061384
 30
0.0
 11
643.3569239700434
 21
-50.46327438061386
 31
0.0
  0
LINE
  5
3518
330
2
100
AcDbEntity
  8
AM_VIS
100
AcDbLine
 10
643.3569239700434
 20
-52.66327438061387
 30
0.0
 11
640.9569239700434
 21
-52.66327438061387
 31
0.0
  0
LINE
  5
3519
330
2
100
AcDbEntity
  8
AM_VIS
100
AcDbLine
 10
640.9569239700434
 20
-53.16327438061387
 30
0.0
 11
643.3569239700435
 21
-53.16327438061387
 31
0.0
  0
LINE
  5
351A
330
2
100
AcDbEntity
  8
AM_VIS
100
AcDbLine
 10
640.9569239700434
 20
-52.66327438061384
 30
0.0
 11
640.9569239700434
 21
-53.16327438061384
 31
0.0
  0
LINE
  5
351B
330
2
100
AcDbEntity
  8
AM_VIS
100
AcDbLine
 10
650.9569239700434
 20
-52.66327438061381
 30
0.0
 11
650.9569239700434
 21
-50.46327438061382
 31
0.0
  0
LINE
  5
351C
330
2
100
AcDbEntity
  8
AM_VIS
100
AcDbLine
 10
648.5569239700435
 20
-50.46327438061382
 30
0.0
 11
648.5569239700435
 21
-52.66327438061381
 31
0.0
  0
LINE
  5
351D
330
2
100
AcDbEntity
  8
AM_VIS
100
AcDbLine
 10
650.9569239700434
 20
-52.66327438061384
 30
0.0
 11
648.5569239700435
 21
-52.66327438061384
 31
0.0
  0
LINE
  5
351E
330
2
100
AcDbEntity
  8
AM_VIS
100
AcDbLine
 10
650.9569239700434
 20
-53.16327438061382
 30
0.0
 11
650.9569239700434
 21
-52.66327438061381
 31
0.0
  0
LINE
  5
351F
330
2
100
AcDbEntity
  8
AM_VIS
100
AcDbLine
 10
648.5569239700435
 20
-53.16327438061384
 30
0.0
 11
650.9569239700434
 21
-53.16327438061384
 31
0.0
  0
LINE
  5
3520
330
2
100
AcDbEntity
  8
AM_VIS
100
AcDbLine
 10
640.9569239700434
 20
-50.46327438061388
 30
0.0
 11
650.9569239700434
 21
-50.46327438061386
 31
0.0
  0
LINE
  5
3521
330
2
100
AcDbEntity
  8
AM_VIS
100
AcDbLine
 10
650.9569239700434
 20
-50.46327438061386
 30
0.0
 11
650.9569239700434
 21
-33.46327438061385
 31
0.0
  0
LINE
  5
3522
330
2
100
AcDbEntity
  8
AM_VIS
100
AcDbLine
 10
649.9569239700434
 20
-48.96327438061383
 30
0.0
 11
650.9569239700434
 21
-50.46327438061382
 31
0.0
  0
LINE
  5
3523
330
2
100
AcDbEntity
  8
AM_VIS
100
AcDbLine
 10
640.9569239700434
 20
-50.46327438061388
 30
0.0
 11
641.9569239700434
 21
-48.96327438061388
 31
0.0
  0
LINE
  5
3524
102
{ACAD_REACTORS
330
3B1F
102
}
330
2
100
AcDbEntity
  8
AM_VIS
100
AcDbLine
 10
640.9569239700434
 20
-33.46327438061388
 30
0.0
 11
640.9569239700434
 21
-50.46327438061388
 31
0.0
  0
LINE
  5
3525
330
2
100
AcDbEntity
  8
AM_VIS
100
AcDbLine
 10
641.9569239700434
 20
-34.96327438061385
 30
0.0
 11
640.9569239700434
 21
-33.46327438061385
 31
0.0
  0
LINE
  5
3526
330
2
100
AcDbEntity
  8
AM_VIS
100
AcDbLine
 10
649.7069239700435
 20
-42.86327438061386
 30
0.0
 11
649.7069239700435
 21
-37.46327438061388
 31
0.0
  0
LINE
  5
3527
330
2
100
AcDbEntity
  8
AM_VIS
100
AcDbLine
 10
643.2069239700434
 20
-38.46327438061385
 30
0.0
 11
648.7069239700434
 21
-38.46327438061385
 31
0.0
  0
LINE
  5
3528
330
2
100
AcDbEntity
  8
AM_VIS
100
AcDbLine
 10
643.2069239700434
 20
-41.86327438061385
 30
0.0
 11
643.2069239700434
 21
-38.46327438061388
 31
0.0
  0
LINE
  5
3529
330
2
100
AcDbEntity
  8
AM_VIS
100
AcDbLine
 10
648.7069239700434
 20
-41.86327438061385
 30
0.0
 11
643.2069239700434
 21
-41.86327438061385
 31
0.0
  0
LINE
  5
352A
330
2
100
AcDbEntity
  8
AM_VIS
100
AcDbLine
 10
648.7069239700434
 20
-38.46327438061385
 30
0.0
 11
648.7069239700434
 21
-41.86327438061385
 31
0.0
  0
LINE
  5
352B
330
2
100
AcDbEntity
  8
AM_VIS
100
AcDbLine
 10
649.1069239700435
 20
-37.46327438061385
 30
0.0
 11
649.1069239700435
 21
-42.56327438061385
 31
0.0
  0
LINE
  5
352C
330
2
100
AcDbEntity
  8
AM_VIS
100
AcDbLine
 10
642.2069239700435
 20
-37.46327438061388
 30
0.0
 11
642.2069239700435
 21
-42.86327438061386
 31
0.0
  0
LINE
  5
352D
330
2
100
AcDbEntity
  8
AM_VIS
100
AcDbLine
 10
642.8069239700435
 20
-42.56327438061385
 30
0.0
 11
642.8069239700435
 21
-37.46327438061385
 31
0.0
  0
LINE
  5
352E
330
2
100
AcDbEntity
  8
AM_VIS
100
AcDbLine
 10
649.1069239700435
 20
-42.56327438061385
 30
0.0
 11
642.8069239700435
 21
-42.56327438061387
 31
0.0
  0
LINE
  5
352F
330
2
100
AcDbEntity
  8
AM_VIS
100
AcDbLine
 10
649.7069239700435
 20
-42.86327438061386
 30
0.0
 11
649.1069239700435
 21
-42.56327438061387
 31
0.0
  0
LINE
  5
3530
330
2
100
AcDbEntity
  8
AM_VIS
100
AcDbLine
 10
642.2069239700435
 20
-42.86327438061386
 30
0.0
 11
649.7069239700435
 21
-42.86327438061383
 31
0.0
  0
LINE
  5
3531
330
2
100
AcDbEntity
  8
AM_VIS
100
AcDbLine
 10
642.8069239700435
 20
-42.56327438061385
 30
0.0
 11
642.2069239700435
 21
-42.86327438061386
 31
0.0
  0
LINE
  5
3532
330
2
100
AcDbEntity
  8
AM_VIS
100
AcDbLine
 10
649.7069239700435
 20
-37.46327438061385
 30
0.0
 11
649.1069239700435
 21
-37.46327438061385
 31
0.0
  0
LINE
  5
3533
330
2
100
AcDbEntity
  8
AM_VIS
100
AcDbLine
 10
648.9569239700434
 20
-37.46327438061385
 30
0.0
 11
649.1069239700435
 21
-37.46327438061385
 31
0.0
  0
LINE
  5
3534
330
2
100
AcDbEntity
  8
AM_VIS
100
AcDbLine
 10
648.9569239700434
 20
-35.96327438061385
 30
0.0
 11
648.0569239700435
 21
-35.96327438061385
 31
0.0
  0
LINE
  5
3535
330
2
100
AcDbEntity
  8
AM_VIS
100
AcDbLine
 10
648.9569239700434
 20
-37.46327438061385
 30
0.0
 11
648.9569239700434
 21
-35.96327438061385
 31
0.0
  0
LINE
  5
3536
330
2
100
AcDbEntity
  8
AM_VIS
100
AcDbLine
 10
648.0569239700435
 20
-37.46327438061385
 30
0.0
 11
648.0569239700435
 21
-35.96327438061385
 31
0.0
  0
LINE
  5
3537
330
2
100
AcDbEntity
  8
AM_VIS
100
AcDbLine
 10
643.8569239700434
 20
-37.46327438061385
 30
0.0
 11
648.0569239700435
 21
-37.46327438061385
 31
0.0
  0
LINE
  5
3538
330
2
100
AcDbEntity
  8
AM_VIS
100
AcDbLine
 10
642.8069239700435
 20
-37.46327438061388
 30
0.0
 11
642.9569239700434
 21
-37.46327438061385
 31
0.0
  0
LINE
  5
3539
330
2
100
AcDbEntity
  8
AM_VIS
100
AcDbLine
 10
642.8069239700435
 20
-37.46327438061388
 30
0.0
 11
642.2069239700435
 21
-37.46327438061388
 31
0.0
  0
LINE
  5
353A
330
2
100
AcDbEntity
  8
AM_VIS
100
AcDbLine
 10
643.8569239700434
 20
-35.96327438061388
 30
0.0
 11
642.9569239700434
 21
-35.96327438061388
 31
0.0
  0
LINE
  5
353B
330
2
100
AcDbEntity
  8
AM_VIS
100
AcDbLine
 10
643.8569239700434
 20
-37.46327438061388
 30
0.0
 11
643.8569239700434
 21
-35.96327438061388
 31
0.0
  0
LINE
  5
353C
330
2
100
AcDbEntity
  8
AM_VIS
100
AcDbLine
 10
642.9569239700434
 20
-37.46327438061388
 30
0.0
 11
642.9569239700434
 21
-35.96327438061388
 31
0.0
  0
LINE
  5
353D
330
2
100
AcDbEntity
  8
AM_VIS
100
AcDbLine
 10
646.4569239700434
 20
-37.46327438061385
 30
0.0
 11
646.4569239700434
 21
-36.96327438061385
 31
0.0
  0
LINE
  5
353E
330
2
100
AcDbEntity
  8
AM_VIS
100
AcDbLine
 10
645.4569239700434
 20
-36.96327438061385
 30
0.0
 11
645.4569239700434
 21
-37.46327438061385
 31
0.0
  0
LINE
  5
353F
330
2
100
AcDbEntity
  8
AM_VIS
100
AcDbLine
 10
646.4569239700434
 20
-36.96327438061385
 30
0.0
 11
645.4569239700434
 21
-36.96327438061385
 31
0.0
  0
LINE
  5
3540
330
2
100
AcDbEntity
  8
AM_VIS
100
AcDbLine
 10
649.9569239700434
 20
-34.96327438061385
 30
0.0
 11
649.9569239700434
 21
-48.96327438061385
 31
0.0
  0
LINE
  5
3541
330
2
100
AcDbEntity
  8
AM_VIS
100
AcDbLine
 10
649.9569239700434
 20
-48.96327438061385
 30
0.0
 11
641.9569239700434
 21
-48.96327438061388
 31
0.0
  0
LINE
  5
3542
330
2
100
AcDbEntity
  8
AM_VIS
100
AcDbLine
 10
641.9569239700434
 20
-48.96327438061388
 30
0.0
 11
641.9569239700434
 21
-34.96327438061388
 31
0.0
  0
LINE
  5
3543
330
2
100
AcDbEntity
  8
AM_VIS
100
AcDbLine
 10
641.9569239700434
 20
-34.96327438061385
 30
0.0
 11
643.9569239700435
 21
-34.96327438061385
 31
0.0
  0
LINE
  5
3544
330
2
100
AcDbEntity
  8
AM_VIS
100
AcDbLine
 10
650.9569239700434
 20
-33.46327438061385
 30
0.0
 11
649.9569239700434
 21
-34.96327438061385
 31
0.0
  0
LINE
  5
3545
330
2
100
AcDbEntity
  8
AM_VIS
100
AcDbLine
 10
647.9569239700435
 20
-34.96327438061383
 30
0.0
 11
649.9569239700434
 21
-34.96327438061383
 31
0.0
  0
LINE
  5
3546
330
2
100
AcDbEntity
  8
AM_VIS
100
AcDbLine
 10
643.9569239700435
 20
-33.46327438061385
 30
0.0
 11
640.9569239700434
 21
-33.46327438061385
 31
0.0
  0
LINE
  5
3547
330
2
100
AcDbEntity
  8
AM_VIS
100
AcDbLine
 10
650.9569239700434
 20
-33.46327438061383
 30
0.0
 11
647.9569239700435
 21
-33.46327438061383
 31
0.0
  0
LINE
  5
3548
330
2
100
AcDbEntity
  8
AM_VIS
100
AcDbLine
 10
643.9569239700435
 20
-35.24611709308846
 30
0.0
 11
643.9569239700435
 21
-34.96327438061383
 31
0.0
  0
LINE
  5
3549
330
2
100
AcDbEntity
  8
AM_VIS
100
AcDbLine
 10
643.9569239700435
 20
-34.96327438061385
 30
0.0
 11
643.9569239700435
 21
-33.46327438061385
 31
0.0
  0
LINE
  5
354A
330
2
100
AcDbEntity
  8
AM_VIS
100
AcDbLine
 10
647.9569239700435
 20
-34.96327438061383
 30
0.0
 11
647.9569239700435
 21
-35.24611709308846
 31
0.0
  0
LINE
  5
354B
330
2
100
AcDbEntity
  8
AM_VIS
100
AcDbLine
 10
647.9569239700435
 20
-33.46327438061385
 30
0.0
 11
647.9569239700435
 21
-34.96327438061385
 31
0.0
  0
LINE
  5
354C
330
2
100
AcDbEntity
  8
AM_VIS
100
AcDbLine
 10
643.9569239700435
 20
-33.46327438061385
 30
0.0
 11
647.9569239700435
 21
-33.46327438061383
 31
0.0
  0
LINE
  5
354D
330
2
100
AcDbEntity
  8
AM_VIS
100
AcDbLine
 10
643.9569239700435
 20
-33.66327438061387
 30
0.0
 11
647.9569239700435
 21
-33.66327438061387
 31
0.0
  0
LINE
  5
354E
330
2
100
AcDbEntity
  8
AM_VIS
100
AcDbLine
 10
647.9569239700435
 20
-35.24611709308846
 30
0.0
 11
643.9569239700435
 21
-35.24611709308846
 31
0.0
  0
CIRCLE
  5
354F
330
2
100
AcDbEntity
  8
AM_VIS
100
AcDbCircle
 10
647.4569239700435
 20
-40.66327438061387
 30
0.0
 40
0.25
  0
CIRCLE
  5
3550
330
2
100
AcDbEntity
  8
AM_VIS
100
AcDbCircle
 10
644.4569239700435
 20
-40.66327438061387
 30
0.0
 40
0.25
  0
LINE
  5
3551
330
2
100
AcDbEntity
  8
AM_VIS
100
AcDbLine
 10
642.9230122842999
 20
-54.81024523351732
 30
0.0
 11
642.7069239700434
 21
-54.86327438061383
 31
0.0
  0
LINE
  5
3552
330
2
100
AcDbEntity
  8
AM_VIS
100
AcDbLine
 10
642.7069239700434
 20
-54.86327438061386
 30
0.0
 11
642.490835655787
 21
-54.91630352771039
 31
0.0
  0
LINE
  5
3553
330
2
100
AcDbEntity
  8
AM_VIS
100
AcDbLine
 10
642.7069239700434
 20
-54.86327438061389
 30
0.0
 11
642.9760414313972
 21
-55.02633354777427
 31
0.0
  0
LINE
  5
3554
330
2
100
AcDbEntity
  8
AM_VIS
100
AcDbLine
 10
642.8699831372029
 20
-54.59415691926157
 30
0.0
 11
642.7069239700434
 21
-54.86327438061386
 31
0.0
  0
LINE
  5
3555
330
2
100
AcDbEntity
  8
AM_VIS
100
AcDbLine
 10
642.9760414313969
 20
-55.02633354777578
 30
0.0
 11
642.8699831372039
 21
-54.59415691926278
 31
0.0
  0
LINE
  5
3556
330
2
100
AcDbEntity
  8
AM_VIS
100
AcDbLine
 10
642.437806508691
 20
-54.7002152134558
 30
0.0
 11
642.8699831372039
 21
-54.59415691926276
 31
0.0
  0
LINE
  5
3557
330
2
100
AcDbEntity
  8
AM_VIS
100
AcDbLine
 10
642.7599531171405
 20
-55.07936269487228
 30
0.0
 11
642.7069239700434
 21
-54.86327438061386
 31
0.0
  0
LINE
  5
3558
330
2
100
AcDbEntity
  8
AM_VIS
100
AcDbLine
 10
642.5438648028831
 20
-55.13239184196755
 30
0.0
 11
642.7069239700434
 21
-54.86327438061386
 31
0.0
  0
LINE
  5
3559
330
2
100
AcDbEntity
  8
AM_VIS
100
AcDbLine
 10
642.437806508691
 20
-54.7002152134558
 30
0.0
 11
642.5438648028839
 21
-55.1323918419688
 31
0.0
  0
LINE
  5
355A
330
2
100
AcDbEntity
  8
AM_VIS
100
AcDbLine
 10
642.7069239700434
 20
-54.86327438061386
 30
0.0
 11
642.6538948229474
 21
-54.6471860663593
 31
0.0
  0
LINE
  5
355B
330
2
100
AcDbEntity
  8
AM_VIS
100
AcDbLine
 10
642.7069239700434
 20
-54.86327438061386
 30
0.0
 11
642.4378065086912
 21
-54.70021521345429
 31
0.0
  0
LINE
  5
355C
330
2
100
AcDbEntity
  8
AM_VIS
100
AcDbLine
 10
642.9760414313969
 20
-55.02633354777578
 30
0.0
 11
642.5438648028841
 21
-55.13239184196883
 31
0.0
  0
LINE
  5
355D
330
2
100
AcDbEntity
  8
AM_VIS
100
AcDbLine
 10
642.9760414313969
 20
-55.0263335477758
 30
0.0
 11
643.038708224172
 21
-55.28169427582958
 31
0.0
  0
LINE
  5
355E
330
2
100
AcDbEntity
  8
AM_VIS
100
AcDbLine
 10
642.9760414313969
 20
-55.0263335477758
 30
0.0
 11
643.2314021594518
 21
-54.96366675500041
 31
0.0
  0
LINE
  5
355F
330
2
100
AcDbEntity
  8
AM_VIS
100
AcDbLine
 10
642.8073163444279
 20
-54.33879619120514
 30
0.0
 11
642.8699831372039
 21
-54.59415691926276
 31
0.0
  0
LINE
  5
3560
330
2
100
AcDbEntity
  8
AM_VIS
100
AcDbLine
 10
642.8699831372039
 20
-54.59415691926276
 30
0.0
 11
643.1253438652605
 21
-54.53149012648697
 31
0.0
  0
LINE
  5
3561
330
2
100
AcDbEntity
  8
AM_VIS
100
AcDbLine
 10
642.3751397159149
 20
-54.44485448539819
 30
0.0
 11
642.437806508691
 21
-54.70021521345578
 31
0.0
  0
LINE
  5
3562
330
2
100
AcDbEntity
  8
AM_VIS
100
AcDbLine
 10
642.1824457806343
 20
-54.76288200623168
 30
0.0
 11
642.437806508691
 21
-54.7002152134558
 31
0.0
  0
LINE
  5
3563
330
2
100
AcDbEntity
  8
AM_VIS
100
AcDbLine
 10
642.5438648028841
 20
-55.13239184196885
 30
0.0
 11
642.6065315956591
 21
-55.38775257002265
 31
0.0
  0
LINE
  5
3564
330
2
100
AcDbEntity
  8
AM_VIS
100
AcDbLine
 10
642.288504074829
 20
-55.19505863474424
 30
0.0
 11
642.5438648028841
 21
-55.13239184196885
 31
0.0
  0
CIRCLE
  5
3565
330
2
100
AcDbEntity
  8
AM_VIS
100
AcDbCircle
 10
642.7069239700434
 20
-54.86327438061386
 30
0.0
 40
1.600000000000022
  0
LINE
  5
3566
330
2
100
AcDbEntity
  8
AM_VIS
100
AcDbLine
 10
642.8073163444279
 20
-54.33879619120517
 30
0.0
 11
642.7220265436722
 21
-53.99124903501519
 31
0.0
  0
ELLIPSE
  5
3567
330
2
100
AcDbEntity
  8
AM_VIS
100
AcDbEllipse
 10
642.8613719148476
 20
-55.49263385291212
 30
0.0
 11
-2.286824568972775
 21
-0.5611981234118812
 31
0.0
210
0.0
220
0.0
230
1.0
 40
0.6361945781365053
 41
4.617755055602464
 42
4.80702290516692
  0
LINE
  5
3568
330
2
100
AcDbEntity
  8
AM_VIS
100
AcDbLine
 10
642.6065315956591
 20
-55.38775257002265
 30
0.0
 11
642.6918213964149
 21
-55.73529972621258
 31
0.0
  0
ELLIPSE
  5
3569
330
2
100
AcDbEntity
  8
AM_VIS
100
AcDbEllipse
 10
642.5524760252394
 20
-54.23391490831559
 30
0.0
 11
2.286824568972774
 21
0.5611981234118851
 31
0.0
210
0.0
220
0.0
230
1.0
 40
0.6361945781365066
 41
4.617755055602462
 42
4.807022905166917
  0
LINE
  5
356A
330
2
100
AcDbEntity
  8
AM_VIS
100
AcDbLine
 10
641.9409569186383
 20
-55.28034843550011
 30
0.0
 11
642.288504074829
 21
-55.19505863474421
 31
0.0
  0
ELLIPSE
  5
356B
330
2
100
AcDbEntity
  8
AM_VIS
100
AcDbEllipse
 10
642.0775644977452
 20
-55.01772232541793
 30
0.0
 11
-0.5611981234118837
 21
2.286824568972775
 31
0.0
210
0.0
220
0.0
230
0.9999999999999998
 40
0.6361945781365077
 41
4.617755055601613
 42
4.807022905166068
  0
LINE
  5
356C
330
2
100
AcDbEntity
  8
AM_VIS
100
AcDbLine
 10
642.1824457806343
 20
-54.76288200623165
 30
0.0
 11
641.8348986244451
 21
-54.84817180698718
 31
0.0
  0
LINE
  5
356D
330
2
100
AcDbEntity
  8
AM_VIS
100
AcDbLine
 10
643.4728910214497
 20
-54.44620032573147
 30
0.0
 11
643.1253438652605
 21
-54.531490126487
 31
0.0
  0
ELLIPSE
  5
356E
330
2
100
AcDbEntity
  8
AM_VIS
100
AcDbEllipse
 10
643.3362834423417
 20
-54.70882643580981
 30
0.0
 11
0.5611981234118822
 21
-2.286824568972774
 31
0.0
210
0.0
220
0.0
230
1.0
 40
0.6361945781365101
 41
4.617755055603316
 42
4.807022905167772
  0
LINE
  5
356F
330
2
100
AcDbEntity
  8
AM_VIS
100
AcDbLine
 10
643.2314021594518
 20
-54.96366675500041
 30
0.0
 11
643.5789493156426
 21
-54.87837695424452
 31
0.0
  0
LINE
  5
3570
330
2
100
AcDbEntity
  8
AM_VIS
100
AcDbLine
 10
642.2898499151592
 20
-54.0973073292082
 30
0.0
 11
642.3751397159149
 21
-54.44485448539819
 31
0.0
  0
LINE
  5
3571
330
2
100
AcDbEntity
  8
AM_VIS
100
AcDbLine
 10
643.1239980249277
 20
-55.62924143201957
 30
0.0
 11
643.0387082241722
 21
-55.28169427582963
 31
0.0
  0
ARC
  5
3572
330
2
100
AcDbEntity
  8
AM_VIS
100
AcDbCircle
 10
642.7069239700434
 20
-54.86327438061389
 30
0.0
 40
0.5339999999999919
100
AcDbArc
 50
308.4125063669301
 51
349.1638696623682
  0
ARC
  5
3573
330
2
100
AcDbEntity
  8
AM_VIS
100
AcDbCircle
 10
642.7069239700434
 20
-54.86327438061389
 30
0.0
 40
0.5339999999999919
100
AcDbArc
 50
38.41250636669811
 51
79.16386966260453
  0
ARC
  5
3574
330
2
100
AcDbEntity
  8
AM_VIS
100
AcDbCircle
 10
642.7069239700434
 20
-54.86327438061389
 30
0.0
 40
0.5339999999999919
100
AcDbArc
 50
128.4125063669305
 51
169.1638696628363
  0
ARC
  5
3575
330
2
100
AcDbEntity
  8
AM_VIS
100
AcDbCircle
 10
642.7069239700434
 20
-54.86327438061389
 30
0.0
 40
0.5339999999999919
100
AcDbArc
 50
218.4125063671673
 51
259.1638696626045
  0
LINE
  5
3576
330
2
100
AcDbEntity
  8
AM_VIS
100
AcDbLine
 10
649.4230122843
 20
-54.81024523351732
 30
0.0
 11
649.2069239700434
 21
-54.86327438061383
 31
0.0
  0
LINE
  5
3577
330
2
100
AcDbEntity
  8
AM_VIS
100
AcDbLine
 10
649.2069239700434
 20
-54.86327438061386
 30
0.0
 11
648.990835655787
 21
-54.91630352771039
 31
0.0
  0
LINE
  5
3578
330
2
100
AcDbEntity
  8
AM_VIS
100
AcDbLine
 10
649.2069239700434
 20
-54.86327438061389
 30
0.0
 11
649.4760414313972
 21
-55.02633354777427
 31
0.0
  0
LINE
  5
3579
330
2
100
AcDbEntity
  8
AM_VIS
100
AcDbLine
 10
649.3699831372031
 20
-54.59415691926153
 30
0.0
 11
649.2069239700434
 21
-54.86327438061383
 31
0.0
  0
LINE
  5
357A
330
2
100
AcDbEntity
  8
AM_VIS
100
AcDbLine
 10
649.476041431397
 20
-55.02633354777578
 30
0.0
 11
649.369983137204
 21
-54.59415691926278
 31
0.0
  0
LINE
  5
357B
330
2
100
AcDbEntity
  8
AM_VIS
100
AcDbLine
 10
648.937806508691
 20
-54.7002152134558
 30
0.0
 11
649.369983137204
 21
-54.59415691926276
 31
0.0
  0
LINE
  5
357C
330
2
100
AcDbEntity
  8
AM_VIS
100
AcDbLine
 10
649.2599531171405
 20
-55.07936269487228
 30
0.0
 11
649.2069239700434
 21
-54.86327438061386
 31
0.0
  0
LINE
  5
357D
330
2
100
AcDbEntity
  8
AM_VIS
100
AcDbLine
 10
649.0438648028831
 20
-55.13239184196755
 30
0.0
 11
649.2069239700434
 21
-54.86327438061386
 31
0.0
  0
LINE
  5
357E
330
2
100
AcDbEntity
  8
AM_VIS
100
AcDbLine
 10
648.937806508691
 20
-54.7002152134558
 30
0.0
 11
649.043864802884
 21
-55.1323918419688
 31
0.0
  0
LINE
  5
357F
330
2
100
AcDbEntity
  8
AM_VIS
100
AcDbLine
 10
649.2069239700434
 20
-54.86327438061386
 30
0.0
 11
649.1538948229474
 21
-54.6471860663593
 31
0.0
  0
LINE
  5
3580
330
2
100
AcDbEntity
  8
AM_VIS
100
AcDbLine
 10
649.2069239700434
 20
-54.86327438061386
 30
0.0
 11
648.9378065086912
 21
-54.70021521345429
 31
0.0
  0
LINE
  5
3581
330
2
100
AcDbEntity
  8
AM_VIS
100
AcDbLine
 10
649.476041431397
 20
-55.02633354777578
 30
0.0
 11
649.043864802884
 21
-55.13239184196883
 31
0.0
  0
LINE
  5
3582
330
2
100
AcDbEntity
  8
AM_VIS
100
AcDbLine
 10
649.476041431397
 20
-55.0263335477758
 30
0.0
 11
649.5387082241721
 21
-55.28169427582955
 31
0.0
  0
LINE
  5
3583
330
2
100
AcDbEntity
  8
AM_VIS
100
AcDbLine
 10
649.476041431397
 20
-55.0263335477758
 30
0.0
 11
649.7314021594519
 21
-54.96366675500041
 31
0.0
  0
LINE
  5
3584
330
2
100
AcDbEntity
  8
AM_VIS
100
AcDbLine
 10
649.3073163444279
 20
-54.33879619120514
 30
0.0
 11
649.369983137204
 21
-54.59415691926273
 31
0.0
  0
LINE
  5
3585
330
2
100
AcDbEntity
  8
AM_VIS
100
AcDbLine
 10
649.369983137204
 20
-54.59415691926276
 30
0.0
 11
649.6253438652606
 21
-54.53149012648694
 31
0.0
  0
LINE
  5
3586
330
2
100
AcDbEntity
  8
AM_VIS
100
AcDbLine
 10
648.8751397159148
 20
-54.44485448539819
 30
0.0
 11
648.937806508691
 21
-54.70021521345578
 31
0.0
  0
LINE
  5
3587
330
2
100
AcDbEntity
  8
AM_VIS
100
AcDbLine
 10
648.6824457806343
 20
-54.76288200623168
 30
0.0
 11
648.937806508691
 21
-54.7002152134558
 31
0.0
  0
LINE
  5
3588
330
2
100
AcDbEntity
  8
AM_VIS
100
AcDbLine
 10
649.043864802884
 20
-55.13239184196885
 30
0.0
 11
649.1065315956591
 21
-55.38775257002265
 31
0.0
  0
LINE
  5
3589
330
2
100
AcDbEntity
  8
AM_VIS
100
AcDbLine
 10
648.7885040748292
 20
-55.19505863474424
 30
0.0
 11
649.043864802884
 21
-55.13239184196885
 31
0.0
  0
CIRCLE
  5
358A
330
2
100
AcDbEntity
  8
AM_VIS
100
AcDbCircle
 10
649.2069239700434
 20
-54.86327438061386
 30
0.0
 40
1.600000000000022
  0
LINE
  5
358B
330
2
100
AcDbEntity
  8
AM_VIS
100
AcDbLine
 10
649.3073163444279
 20
-54.33879619120517
 30
0.0
 11
649.2220265436722
 21
-53.99124903501519
 31
0.0
  0
ELLIPSE
  5
358C
330
2
100
AcDbEntity
  8
AM_VIS
100
AcDbEllipse
 10
649.3613719148476
 20
-55.49263385291212
 30
0.0
 11
-2.286824568972775
 21
-0.5611981234118836
 31
0.0
210
0.0
220
0.0
230
1.0
 40
0.6361945781365066
 41
4.61775505560246
 42
4.807022905166922
  0
LINE
  5
358D
330
2
100
AcDbEntity
  8
AM_VIS
100
AcDbLine
 10
649.1065315956591
 20
-55.38775257002265
 30
0.0
 11
649.1918213964148
 21
-55.73529972621258
 31
0.0
  0
ELLIPSE
  5
358E
330
2
100
AcDbEntity
  8
AM_VIS
100
AcDbEllipse
 10
649.0524760252394
 20
-54.23391490831559
 30
0.0
 11
2.286824568972775
 21
0.5611981234118865
 31
0.0
210
0.0
220
0.0
230
1.0
 40
0.6361945781365052
 41
4.617755055602465
 42
4.807022905166916
  0
LINE
  5
358F
330
2
100
AcDbEntity
  8
AM_VIS
100
AcDbLine
 10
648.4409569186384
 20
-55.28034843550011
 30
0.0
 11
648.7885040748292
 21
-55.19505863474421
 31
0.0
  0
ELLIPSE
  5
3590
330
2
100
AcDbEntity
  8
AM_VIS
100
AcDbEllipse
 10
648.5775644977452
 20
-55.01772232541793
 30
0.0
 11
-0.5611981234118825
 21
2.286824568972775
 31
0.0
210
0.0
220
0.0
230
1.0
 40
0.636194578136508
 41
4.617755055601615
 42
4.80702290516607
  0
LINE
  5
3591
330
2
100
AcDbEntity
  8
AM_VIS
100
AcDbLine
 10
648.6824457806343
 20
-54.76288200623165
 30
0.0
 11
648.3348986244451
 21
-54.84817180698718
 31
0.0
  0
LINE
  5
3592
330
2
100
AcDbEntity
  8
AM_VIS
100
AcDbLine
 10
649.9728910214498
 20
-54.44620032573147
 30
0.0
 11
649.6253438652606
 21
-54.531490126487
 31
0.0
  0
ELLIPSE
  5
3593
330
2
100
AcDbEntity
  8
AM_VIS
100
AcDbEllipse
 10
649.8362834423418
 20
-54.70882643580981
 30
0.0
 11
0.5611981234118872
 21
-2.286824568972773
 31
0.0
210
0.0
220
0.0
230
1.0
 40
0.63619457813651
 41
4.617755055603312
 42
4.807022905167766
  0
LINE
  5
3594
330
2
100
AcDbEntity
  8
AM_VIS
100
AcDbLine
 10
649.7314021594518
 20
-54.96366675500041
 30
0.0
 11
650.0789493156426
 21
-54.87837695424452
 31
0.0
  0
LINE
  5
3595
330
2
100
AcDbEntity
  8
AM_VIS
100
AcDbLine
 10
648.7898499151591
 20
-54.0973073292082
 30
0.0
 11
648.8751397159148
 21
-54.44485448539819
 31
0.0
  0
LINE
  5
3596
330
2
100
AcDbEntity
  8
AM_VIS
100
AcDbLine
 10
649.6239980249279
 20
-55.62924143201957
 30
0.0
 11
649.5387082241721
 21
-55.28169427582963
 31
0.0
  0
ARC
  5
3597
330
2
100
AcDbEntity
  8
AM_VIS
100
AcDbCircle
 10
649.2069239700434
 20
-54.86327438061386
 30
0.0
 40
0.5339999999999919
100
AcDbArc
 50
308.4125063669301
 51
349.1638696623682
  0
ARC
  5
3598
330
2
100
AcDbEntity
  8
AM_VIS
100
AcDbCircle
 10
649.2069239700434
 20
-54.86327438061386
 30
0.0
 40
0.5339999999999919
100
AcDbArc
 50
38.41250636669747
 51
79.16386966260453
  0
ARC
  5
3599
330
2
100
AcDbEntity
  8
AM_VIS
100
AcDbCircle
 10
649.2069239700434
 20
-54.86327438061386
 30
0.0
 40
0.5339999999999919
100
AcDbArc
 50
128.4125063669305
 51
169.1638696628363
  0
ARC
  5
359A
330
2
100
AcDbEntity
  8
AM_VIS
100
AcDbCircle
 10
649.2069239700434
 20
-54.86327438061386
 30
0.0
 40
0.5339999999999919
100
AcDbArc
 50
218.412506367168
 51
259.1638696626047
  0
DIMENSION
  5
36E8
102
{ACAD_XDICTIONARY
360
36F4
102
}
102
{ACAD_REACTORS
330
36F5
102
}
330
2
100
AcDbEntity
  8
AM_REFDIM
100
AcDbDimension
  2
*D21
 10
583.256432564287
 20
-104.6929302332588
 30
0.0
 11
604.3587072574723
 21
-91.51719788734675
 31
0.0
 70
   163
  1
5-M3*0.5
 71
     5
 42
3.200000000000613
  3
AM_ISO$3
100
AcDbDiametricDimension
 15
585.5948194414216
 25
-102.5084516197567
 35
0.0
 40
0.0
1001
ACAD
1000
DSTYLE
1002
{
1070
    40
1040
0.7
1070
   144
1040
1.0
1070
   271
1070
     1
1002
}
  0
DIMENSION
  5
3908
102
{ACAD_XDICTIONARY
360
3915
102
}
102
{ACAD_REACTORS
330
3916
102
}
330
2
100
AcDbEntity
  8
AM_REFDIM
100
AcDbDimension
  2
*D22
 10
555.3446959475315
 20
-45.96327438061376
 30
0.0
 11
553.7346959475314
 21
-53.46327438061368
 31
0.0
 70
    32
 71
     5
 42
15.0
  3
STANDARD
100
AcDbAlignedDimension
 13
561.1756260028545
 23
-60.96327438061377
 33
0.0
 14
561.1756260028545
 24
-45.96327438061377
 34
0.0
 50
90.0
100
AcDbRotatedDimension
  0
DIMENSION
  5
392E
102
{ACAD_XDICTIONARY
360
393D
102
}
102
{ACAD_REACTORS
330
393E
102
}
330
2
100
AcDbEntity
  8
AM_REFDIM
100
AcDbDimension
  2
*D23
 10
586.5704168959675
 20
-45.96327438061385
 30
0.0
 11
584.9604168959675
 21
-39.15327438061376
 31
0.0
 70
    32
 71
     5
 42
1.400000000000005
  3
STANDARD
100
AcDbAlignedDimension
 13
584.2756260028544
 23
-47.36327438061386
 33
0.0
 14
584.2756260028544
 24
-45.96327438061385
 34
0.0
 50
90.0
100
AcDbRotatedDimension
  0
DIMENSION
  5
3970
102
{ACAD_XDICTIONARY
360
397D
102
}
102
{ACAD_REACTORS
330
397E
102
}
330
2
100
AcDbEntity
  8
AM_REFDIM
100
AcDbDimension
  2
*D24
 10
577.4256260028545
 20
-90.91630518800743
 30
0.0
 11
569.3006260028545
 21
-90.91630518800743
 31
0.0
 70
   160
 71
     5
 42
16.25
  3
STANDARD
100
AcDbAlignedDimension
 13
561.1756260028545
 23
-98.6006909265075
 33
0.0
 14
577.4256260028545
 24
-100.7506909265075
 34
0.0
100
AcDbRotatedDimension
  0
DIMENSION
  5
39BC
102
{ACAD_XDICTIONARY
360
39C9
102
}
102
{ACAD_REACTORS
330
39CA
102
}
330
2
100
AcDbEntity
  8
AM_REFDIM
100
AcDbDimension
  2
*D26
 10
555.3446959475315
 20
-98.10069092650753
 30
0.0
 11
553.7346959475314
 21
-103.6006909265074
 31
0.0
 70
    32
 71
     5
 42
10.99999999999998
  3
STANDARD
100
AcDbAlignedDimension
 13
575.1756260028545
 23
-109.1006909265075
 33
0.0
 14
582.1756260028545
 24
-98.10069092650753
 34
0.0
 50
90.0
100
AcDbRotatedDimension
  0
DIMENSION
  5
3A59
102
{ACAD_XDICTIONARY
360
3A68
102
}
102
{ACAD_REACTORS
330
3A69
102
}
330
2
100
AcDbEntity
  8
AM_REFDIM
100
AcDbDimension
  2
*D27
 10
584.4256260028545
 20
-114.2639045648361
 30
0.0
 11
580.9256260028545
 21
-112.6539045648361
 31
0.0
 70
    32
 71
     5
 42
7.0
  3
STANDARD
100
AcDbAlignedDimension
 13
577.4256260028545
 23
-106.4506909265075
 33
0.0
 14
584.4256260028545
 24
-106.4506909265075
 34
0.0
 50
0.0000000000001018
100
AcDbRotatedDimension
  0
DIMENSION
  5
3A75
102
{ACAD_XDICTIONARY
360
3A84
102
}
102
{ACAD_REACTORS
330
3A85
102
}
330
2
100
AcDbEntity
  8
AM_REFDIM
100
AcDbDimension
  2
*D28
 10
577.4256260028545
 20
-114.2639045648361
 30
0.0
 11
573.9256260028545
 21
-112.6539045648361
 31
0.0
 70
    32
 71
     5
 42
7.0
  3
STANDARD
100
AcDbAlignedDimension
 13
570.4256260028545
 23
-106.4506909265075
 33
0.0
 14
577.4256260028545
 24
-106.4506909265075
 34
0.0
100
AcDbRotatedDimension
  0
DIMENSION
  5
3B11
102
{ACAD_XDICTIONARY
360
3B1E
102
}
102
{ACAD_REACTORS
330
3B1F
102
}
330
2
100
AcDbEntity
  8
AM_REFDIM
100
AcDbDimension
  2
*D29
 10
633.4127664063611
 20
-60.96327438061385
 30
0.0
 11
631.8027664063611
 21
-47.21327438061376
 31
0.0
 70
    32
 71
     5
 42
27.49999999999997
  3
STANDARD
100
AcDbAlignedDimension
 13
640.9569239700434
 23
-33.46327438061388
 33
0.0
 14
640.4569239700435
 24
-60.96327438061385
 34
0.0
 50
90.0
100
AcDbRotatedDimension
  0
DIMENSION
  5
3E82
102
{ACAD_XDICTIONARY
360
3E8F
102
}
102
{ACAD_REACTORS
330
3E90
102
}
330
2
100
AcDbEntity
  8
AM_REFDIM
100
AcDbDimension
  2
*D30
 10
611.7256260028544
 20
-69.12607925741531
 30
0.0
 11
586.4506260028544
 21
-69.12607925741531
 31
0.0
 70
   160
 71
     5
 42
50.54999999999996
  3
STANDARD
100
AcDbAlignedDimension
 13
561.1756260028545
 23
-60.96327438061377
 33
0.0
 14
611.7256260028544
 24
-60.96327438061388
 34
0.0
 50
0.0000000000001018
100
AcDbRotatedDimension
  0
DIMENSION
  5
4270
102
{ACAD_XDICTIONARY
360
427D
102
}
102
{ACAD_REACTORS
330
427E
102
}
330
2
100
AcDbEntity
  8
AM_REFDIM
100
AcDbDimension
  2
*D33
 10
621.2256260028545
 20
-76.12607925741528
 30
0.0
 11
591.2006260028545
 21
-74.51607925741528
 31
0.0
 70
    32
 71
     5
 42
60.04999999999995
  3
STANDARD
100
AcDbAlignedDimension
 13
561.1756260028545
 23
-60.96327438061377
 33
0.0
 14
621.2256260028545
 24
-42.56327438061385
 34
0.0
 50
0.0000000000001018
100
AcDbRotatedDimension
  0
ENDSEC
  0
SECTION
  2
OBJECTS
  0
DICTIONARY
  5
8
330
0
100
AcDbDictionary
281
     1
  3
ACAD_COLOR
350
22EB
  3
ACAD_GROUP
350
21
  3
ACAD_LAYOUT
350
C
  3
ACAD_MATERIAL
350
22EA
  3
ACAD_MLINESTYLE
350
22
  3
ACAD_PLOTSETTINGS
350
23
  3
ACAD_PLOTSTYLENAME
350
7
  3
ACAD_TABLESTYLE
350
22EC
  3
ACDBHEADERROUNDTRIPXREC
350
43D4
  3
AcDbVariableDictionary
350
1D2
  3
AcmDictionary
350
1F4
  3
AMG
350
1DA
  3
AMGSNAPSETTINGS
350
37D
  3
ASE_INDEX_DICTIONARY
350
E58
  3
DWGPROPS
350
43D3
  0
DICTIONARY
  5
2434
330
11
100
AcDbDictionary
280
     1
281
     1
  3
ACAD_LAYERFILTERS
360
3739
  3
ACAD_LAYERSTATES
360
2435
  3
ACLYDICTIONARY
360
3738
  0
DICTIONARY
  5
3
330
2
100
AcDbDictionary
280
     1
281
     1
  3
ACAD_INDEX
360
403A
  3
ACAD_LAYOUTSELFREF
360
22C3
  0
DICTIONARY
  5
1848
330
D
100
AcDbDictionary
280
     1
281
     1
  3
ACAD_LAYOUTSELFREF
360
22C8
  0
DICTIONARY
  5
42EB
330
330B
100
AcDbDictionary
280
     1
281
     1
  3
ACMDIMBREAKPERSREACTOR
360
42EC
  0
DICTIONARY
  5
42D1
330
3310
100
AcDbDictionary
280
     1
281
     1
  3
ACMDIMBREAKPERSREACTOR
360
42D2
  0
DICTIONARY
  5
36F4
330
36E8
100
AcDbDictionary
280
     1
281
     1
  3
ACAD_DIMASSOC
360
36F5
  0
DICTIONARY
  5
3915
330
3908
100
AcDbDictionary
280
     1
281
     1
  3
ACAD_DIMASSOC
360
3916
  0
DICTIONARY
  5
393D
330
392E
100
AcDbDictionary
280
     1
281
     1
  3
ACAD_DIMASSOC
360
393E
  0
DICTIONARY
  5
397D
330
3970
100
AcDbDictionary
280
     1
281
     1
  3
ACAD_DIMASSOC
360
397E
  0
DICTIONARY
  5
39C9
330
39BC
100
AcDbDictionary
280
     1
281
     1
  3
ACAD_DIMASSOC
360
39CA
  0
DICTIONARY
  5
3A68
330
3A59
100
AcDbDictionary
280
     1
281
     1
  3
ACAD_DIMASSOC
360
3A69
  0
DICTIONARY
  5
3A84
330
3A75
100
AcDbDictionary
280
     1
281
     1
  3
ACAD_DIMASSOC
360
3A85
  0
DICTIONARY
  5
3B1E
330
3B11
100
AcDbDictionary
280
     1
281
     1
  3
ACAD_DIMASSOC
360
3B1F
  0
DICTIONARY
  5
3E8F
330
3E82
100
AcDbDictionary
280
     1
281
     1
  3
ACAD_DIMASSOC
360
3E90
  0
DICTIONARY
  5
427D
330
4270
100
AcDbDictionary
280
     1
281
     1
  3
ACAD_DIMASSOC
360
427E
  0
DICTIONARY
  5
22EB
102
{ACAD_REACTORS
330
8
102
}
330
8
100
AcDbDictionary
281
     1
  0
DICTIONARY
  5
21
102
{ACAD_REACTORS
330
8
102
}
330
8
100
AcDbDictionary
281
     1
  0
DICTIONARY
  5
C
102
{ACAD_REACTORS
330
8
102
}
330
8
100
AcDbDictionary
281
     1
  3
Layout1
350
10
  3
Model
350
B
  0
DICTIONARY
  5
22EA
102
{ACAD_REACTORS
330
8
102
}
330
8
100
AcDbDictionary
281
     1
  0
DICTIONARY
  5
22
102
{ACAD_REACTORS
330
8
102
}
330
8
100
AcDbDictionary
281
     1
  3
Standard
350
24
  0
DICTIONARY
  5
23
102
{ACAD_REACTORS
330
8
102
}
330
8
100
AcDbDictionary
281
     1
  0
ACDBDICTIONARYWDFLT
  5
7
102
{ACAD_REACTORS
330
8
102
}
330
8
100
AcDbDictionary
281
     1
  3
Normal
350
6
100
AcDbDictionaryWithDefault
340
6
  0
DICTIONARY
  5
22EC
102
{ACAD_REACTORS
330
8
102
}
330
8
100
AcDbDictionary
281
     1
  3
Standard
350
22ED
  0
DICTIONARY
  5
43D4
102
{ACAD_REACTORS
330
8
102
}
330
8
100
AcDbDictionary
281
     1
  0
DICTIONARY
  5
1D2
102
{ACAD_REACTORS
330
8
102
}
330
8
100
AcDbDictionary
281
     1
  3
CTABLESTYLE
350
2CA1
  3
DIMASSOC
350
1D4
  3
HIDETEXT
350
1D3
  3
INDEXCTL
350
4C0
  3
PROJECTNAME
350
2CA2
  0
DICTIONARY
  5
1F4
102
{ACAD_REACTORS
330
8
102
}
330
8
100
AcDbDictionary
281
     1
  3
AcmStdDictionary
350
1FA
  3
AMDTSECTSYM_ARROWCOLOR
350
2360
  0
DICTIONARY
  5
1DA
102
{ACAD_REACTORS
330
8
102
}
330
8
100
AcDbDictionary
281
     1
  0
DICTIONARY
  5
37D
102
{ACAD_REACTORS
330
8
102
}
330
8
100
AcDbDictionary
281
     1
  0
DICTIONARY
  5
E58
102
{ACAD_REACTORS
330
8
102
}
330
8
100
AcDbDictionary
281
     1
  3
ASEBlockHierarchyIndexRecord
350
E5A
1001
DCO15
1040
1443953005.444
  0
XRECORD
  5
43D3
102
{ACAD_REACTORS
330
8
102
}
330
8
100
AcDbXrecord
280
     1
  1
DWGPROPS COOKIE
  2

  3

  4

  6

  7

  8

  9

300
AmdtFileType=84
301
=
302
=
303
=
304
=
305
=
306
=
307
=
308
=
309
=
 40
0.1150986689814815
 41
2452691.454954444
 42
2454658.580974746
  1

 90
        1
  0
DICTIONARY
  5
3739
102
{ACAD_REACTORS
330
2434
102
}
330
2434
100
AcDbDictionary
281
     1
  0
DICTIONARY
  5
2435
102
{ACAD_REACTORS
330
2434
102
}
330
2434
100
AcDbDictionary
281
     1
  0
DICTIONARY
  5
3738
102
{ACAD_REACTORS
330
2434
102
}
330
2434
100
AcDbDictionary
281
     1
1001
ACAD
1000
<All
  0
DICTIONARY
  5
403A
102
{ACAD_REACTORS
330
3
102
}
330
3
100
AcDbDictionary
281
     1
  3
*A1
350
403B
  0
XRECORD
  5
22C3
102
{ACAD_REACTORS
330
3
102
}
330
3
100
AcDbXrecord
280
     1
340
2
  0
XRECORD
  5
22C8
102
{ACAD_REACTORS
330
1848
102
}
330
1848
100
AcDbXrecord
280
     1
340
D
  0
DIMASSOC
  5
36F5
102
{ACAD_REACTORS
330
36F4
102
}
330
36F4
100
AcDbDimAssoc
330
36E8
 90
        2
 70
     0
 71
     0
  1
AcDbOsnapPointRef
 72
     3
331
34AE
 73
     2
 91
        0
 40
0.0
 10
0.0
 20
0.0
 30
0.0
 75
     0
  0
DIMASSOC
  5
3916
102
{ACAD_REACTORS
330
3915
102
}
330
3915
100
AcDbDimAssoc
330
3908
 90
        3
 70
     0
 71
     0
  1
AcDbOsnapPointRef
 72
     1
331
3437
 73
     0
 91
        0
 40
0.0
 10
0.0
 20
0.0
 30
2.000000000000000E+50
 75
     0
  1
AcDbOsnapPointRef
 72
     1
331
3434
 73
     0
 91
        0
 40
0.0
 10
0.0
 20
0.0
 30
2.000000000000000E+50
 75
     0
  0
DIMASSOC
  5
393E
102
{ACAD_REACTORS
330
393D
102
}
330
393D
100
AcDbDimAssoc
330
392E
 90
        3
 70
     0
 71
     0
  1
AcDbOsnapPointRef
 72
     1
331
3400
 73
     0
 91
        0
 40
0.0
 10
0.0
 20
0.0
 30
2.000000000000000E+50
 75
     0
  1
AcDbOsnapPointRef
 72
    13
331
3400
 73
     0
 91
        0
 40
0.0
 10
0.0
 20
0.0
 30
2.000000000000000E+50
 75
     0
  0
DIMASSOC
  5
397E
102
{ACAD_REACTORS
330
397D
102
}
330
397D
100
AcDbDimAssoc
330
3970
 90
        3
 70
     0
 71
     0
  1
AcDbOsnapPointRef
 72
    13
331
34B4
 73
     0
 91
        0
 40
0.0
 10
0.0
 20
0.0
 30
2.000000000000000E+50
 75
     0
  1
AcDbOsnapPointRef
 72
     1
331
332A
 73
     0
 91
        0
 40
0.0
 10
0.0
 20
0.0
 30
2.000000000000000E+50
 75
     0
  0
DIMASSOC
  5
39CA
102
{ACAD_REACTORS
330
39C9
102
}
330
39C9
100
AcDbDimAssoc
330
39BC
 90
        3
 70
     0
 71
     0
  1
AcDbOsnapPointRef
 72
    13
331
3497
 73
     0
 91
        0
 40
0.0
 10
0.0
 20
0.0
 30
2.000000000000000E+50
 75
     0
  1
AcDbOsnapPointRef
 72
    13
331
3491
 73
     0
 91
        0
 40
0.0
 10
0.0
 20
0.0
 30
2.000000000000000E+50
 75
     0
  0
DIMASSOC
  5
3A69
102
{ACAD_REACTORS
330
3A68
102
}
330
3A68
100
AcDbDimAssoc
330
3A59
 90
        3
 70
     0
 71
     0
  1
AcDbOsnapPointRef
 72
    13
331
3329
 73
     0
 91
        0
 40
0.0
 10
0.0
 20
0.0
 30
2.000000000000000E+50
 75
     0
  1
AcDbOsnapPointRef
 72
    13
331
3335
 73
     0
 91
        0
 40
0.0
 10
0.0
 20
0.0
 30
2.000000000000000E+50
 75
     0
  0
DIMASSOC
  5
3A85
102
{ACAD_REACTORS
330
3A84
102
}
330
3A84
100
AcDbDimAssoc
330
3A75
 90
        3
 70
     0
 71
     0
  1
AcDbOsnapPointRef
 72
    13
331
332F
 73
     0
 91
        0
 40
0.0
 10
0.0
 20
0.0
 30
2.000000000000000E+50
 75
     0
  1
AcDbOsnapPointRef
 72
    13
331
3329
 73
     0
 91
        0
 40
0.0
 10
0.0
 20
0.0
 30
2.000000000000000E+50
 75
     0
  0
DIMASSOC
  5
3B1F
102
{ACAD_REACTORS
330
3B1E
102
}
330
3B1E
100
AcDbDimAssoc
330
3B11
 90
        3
 70
     0
 71
     0
  1
AcDbOsnapPointRef
 72
    13
331
3524
 73
     0
 91
        0
 40
0.0
 10
0.0
 20
0.0
 30
2.000000000000000E+50
 75
     0
  1
AcDbOsnapPointRef
 72
    13
331
34E9
 73
     0
 91
        0
 40
0.0
 10
0.0
 20
0.0
 30
2.000000000000000E+50
 75
     0
  0
DIMASSOC
  5
3E90
102
{ACAD_REACTORS
330
3E8F
102
}
330
3E8F
100
AcDbDimAssoc
330
3E82
 90
        3
 70
     0
 71
     0
  1
AcDbOsnapPointRef
 72
     1
331
3437
 73
     0
 91
        0
 40
0.0
 10
0.0
 20
0.0
 30
2.000000000000000E+50
 75
     0
  1
AcDbOsnapPointRef
 72
    13
331
3442
 73
     0
 91
        0
 40
0.0
 10
0.0
 20
0.0
 30
2.000000000000000E+50
 75
     0
  0
DIMASSOC
  5
427E
102
{ACAD_REACTORS
330
427D
102
}
330
427D
100
AcDbDimAssoc
330
4270
 90
        3
 70
     0
 71
     0
  1
AcDbOsnapPointRef
 72
     1
331
3437
 73
     0
 91
        0
 40
0.0
 10
0.0
 20
0.0
 30
2.000000000000000E+50
 75
     0
  1
AcDbOsnapPointRef
 72
    13
331
3464
 73
     0
 91
        0
 40
0.0
 10
0.0
 20
0.0
 30
2.000000000000000E+50
 75
     0
  0
LAYOUT
  5
10
102
{ACAD_XDICTIONARY
360
43D7
102
}
102
{ACAD_REACTORS
330
C
102
}
330
C
100
AcDbPlotSettings
  1

  2
\\RD01\EPSON Stylus COLOR 1160 單色
  4
A4
  6

 40
3.757083177566528
 41
14.7637300491333
 42
3.757080078125
 43
3.757080078125
 44
209.9733276367187
 45
296.9683227539062
 46
0.0
 47
0.0
 48
0.0
 49
0.0
140
0.0
141
0.0
142
1.0
143
1.0
 70
   688
 72
     1
 73
     0
 74
     5
  7
單色出圖.ctb
 75
    16
147
1.0
148
0.0
149
0.0
100
AcDbLayout
  1
Layout1
 70
     1
 71
     1
 10
-3.757083177566528
 20
-14.7637300491333
 11
206.2162444591522
 21
282.2045927047729
 12
0.0
 22
0.0
 32
0.0
 14
26.80208481208632
 24
60.62932117531272
 34
-0.0000000000000153
 15
155.7606180029584
 25
204.40991305297
 35
0.0
146
0.0
 13
0.0
 23
0.0
 33
0.0
 16
1.0
 26
0.0
 36
0.0
 17
0.0
 27
1.0
 37
0.0
 76
     0
330
D
  0
LAYOUT
  5
B
102
{ACAD_XDICTIONARY
360
43D5
102
}
102
{ACAD_REACTORS
330
C
102
}
330
C
100
AcDbPlotSettings
  1

  2
自動 RD 上的 Epson Stylus Photo 750 單色
  4
A4
  6

 40
3.757083177566528
 41
14.7637300491333
 42
3.757080078125
 43
3.757080078125
 44
209.9733276367187
 45
296.9683227539062
 46
0.0
 47
0.0
 48
0.0
 49
0.0
140
0.0
141
0.0
142
1.0
143
1.0
 70
 11952
 72
     1
 73
     0
 74
     0
  7
單色出圖.ctb
 75
    16
147
1.0
148
47.70409695138527
149
1.582593250444062
100
AcDbLayout
  1
Model
 70
     1
 71
     0
 10
0.0
 20
0.0
 11
12.0
 21
9.0
 12
0.0
 22
0.0
 32
0.0
 14
0.0
 24
0.0
 34
0.0
 15
0.0
 25
0.0
 35
0.0
146
0.0
 13
0.0
 23
0.0
 33
0.0
 16
1.0
 26
0.0
 36
0.0
 17
0.0
 27
1.0
 37
0.0
 76
     0
330
2
  0
MLINESTYLE
  5
24
102
{ACAD_REACTORS
330
22
102
}
330
22
100
AcDbMlineStyle
  2
STANDARD
 70
     0
  3

 62
   256
 51
90.0
 52
90.0
 71
     2
 49
0.5
 62
   256
  6
BYLAYER
 49
-0.5
 62
   256
  6
BYLAYER
  0
ACDBPLACEHOLDER
  5
6
102
{ACAD_REACTORS
330
7
102
}
330
7
  0
TABLESTYLE
  5
22ED
102
{ACAD_REACTORS
330
22EC
102
}
330
22EC
100
AcDbTableStyle
  3
Standard
 70
     0
 71
     0
 40
1.5
 41
1.5
280
     0
281
     0
  7
STANDARD
140
4.5
170
     2
 62
     0
 63
     7
283
     0
274
    -2
284
     1
 64
     0
275
    -2
285
     1
 65
     0
276
    -2
286
     1
 66
     0
277
    -2
287
     1
 67
     0
278
    -2
288
     1
 68
     0
279
    -2
289
     1
 69
     0
  7
STANDARD
140
6.0
170
     5
 62
     0
 63
     7
283
     0
274
    -2
284
     1
 64
     0
275
    -2
285
     1
 65
     0
276
    -2
286
     1
 66
     0
277
    -2
287
     1
 67
     0
278
    -2
288
     1
 68
     0
279
    -2
289
     1
 69
     0
  7
STANDARD
140
4.5
170
     5
 62
     0
 63
     7
283
     0
274
    -2
284
     1
 64
     0
275
    -2
285
     1
 65
     0
276
    -2
286
     1
 66
     0
277
    -2
287
     1
 67
     0
278
    -2
288
     1
 68
     0
279
    -2
289
     1
 69
     0
  0
DICTIONARYVAR
  5
2CA1
102
{ACAD_REACTORS
330
1D2
102
}
330
1D2
100
DictionaryVariables
280
     0
  1
STANDARD
  0
DICTIONARYVAR
  5
1D4
102
{ACAD_REACTORS
330
1D2
102
}
330
1D2
100
DictionaryVariables
280
     0
  1
2
  0
DICTIONARYVAR
  5
1D3
102
{ACAD_REACTORS
330
1D2
102
}
330
1D2
100
DictionaryVariables
280
     0
  1
1
  0
DICTIONARYVAR
  5
4C0
102
{ACAD_REACTORS
330
1D2
102
}
330
1D2
100
DictionaryVariables
280
     0
  1
1
  0
DICTIONARYVAR
  5
2CA2
102
{ACAD_REACTORS
330
1D2
102
}
330
1D2
100
DictionaryVariables
280
     0
  1

  0
DICTIONARY
  5
1FA
102
{ACAD_REACTORS
330
1F4
102
}
330
1F4
100
AcDbDictionary
281
     1
  0
XRECORD
  5
2360
102
{ACAD_REACTORS
330
1F4
102
}
330
1F4
100
AcDbXrecord
280
     1
 90
-1023410169
  0
XRECORD
  5
E5A
102
{ACAD_REACTORS
330
E58
102
}
330
E58
100
AcDbXrecord
280
     1
330
0
330
0
  0
LAYER_INDEX
  5
403B
102
{ACAD_REACTORS
330
403A
102
}
330
403A
100
AcDbIndex
 40
2454658.580974746
100
AcDbLayerIndex
  8
0
360
403C
 90
       15
  8
Defpoints
360
403D
 90
        0
  8
AM_5
360
403E
 90
        2
  8
AM_VIS
360
403F
 90
      556
  8
AM_PARDIM
360
4040
 90
       10
  8
AM_7
360
4041
 90
      127
  8
LOGO
360
4042
 90
      151
  8
AM_REFDIM
360
4043
 90
       18
  8
AM_4
360
4044
 90
        5
  0
DICTIONARY
  5
43D7
330
10
100
AcDbDictionary
280
     1
281
     1
  3
ACAD_XREC_ROUNDTRIP
360
43D8
  0
DICTIONARY
  5
43D5
330
B
100
AcDbDictionary
280
     1
281
     1
  3
ACAD_XREC_ROUNDTRIP
360
43D6
  0
IDBUFFER
  5
403C
330
0
100
AcDbIdBuffer
330
25
330
26
330
27
330
28
330
29
330
2A
330
2B
330
2C
330
2D
330
2E
330
2F
330
30
330
2C00
330
2C01
330
2C02
  0
IDBUFFER
  5
403D
330
0
100
AcDbIdBuffer
  0
IDBUFFER
  5
403E
330
0
100
AcDbIdBuffer
330
151
330
156
  0
IDBUFFER
  5
403F
330
0
100
AcDbIdBuffer
330
336F
330
3370
330
3371
330
3372
330
3373
330
3374
330
3375
330
3376
330
3377
330
3378
330
3379
330
337A
330
337B
330
337C
330
337D
330
337E
330
337F
330
3380
330
3381
330
3382
330
3383
330
3384
330
3385
330
3386
330
3387
330
3388
330
3389
330
338A
330
338B
330
338C
330
338D
330
338E
330
338F
330
3390
330
3391
330
3392
330
3393
330
3394
330
3395
330
3396
330
3397
330
3398
330
3399
330
339A
330
339B
330
339C
330
339D
330
339E
330
339F
330
33A0
330
33A1
330
33A2
330
33A3
330
33A4
330
33A5
330
33A6
330
33A7
330
33A8
330
33A9
330
33AA
330
33AB
330
33AC
330
33AD
330
33AE
330
33AF
330
33B0
330
33B1
330
33B2
330
33B3
330
33B4
330
33B5
330
33B6
330
33B7
330
33B8
330
33B9
330
33BA
330
33BB
330
33BC
330
33BD
330
33BE
330
33BF
330
33C0
330
33C1
330
33C2
330
33C3
330
33C4
330
33C5
330
33C6
330
33C7
330
33C8
330
33C9
330
33CA
330
33CB
330
33CC
330
33CD
330
33CE
330
33CF
330
33D0
330
33D1
330
33D2
330
33D3
330
33D4
330
33D5
330
33D6
330
33D7
330
33D8
330
33D9
330
33DA
330
33DB
330
33DC
330
33DD
330
33DE
330
33DF
330
33E0
330
33E1
330
33E2
330
33E3
330
33E4
330
33E5
330
33E6
330
33E7
330
33E8
330
33E9
330
33EA
330
33EB
330
33EC
330
33ED
330
33EE
330
33EF
330
33F0
330
33F1
330
33F2
330
33F3
330
33F4
330
33F5
330
33F6
330
33F7
330
33F8
330
33F9
330
33FA
330
33FB
330
33FC
330
33FD
330
33FE
330
33FF
330
3400
330
3401
330
3402
330
3403
330
3404
330
3405
330
3406
330
3407
330
3408
330
3409
330
340A
330
340B
330
340C
330
340D
330
340E
330
340F
330
3410
330
3411
330
3412
330
3413
330
3414
330
3415
330
3416
330
3417
330
3418
330
3419
330
341A
330
341B
330
341C
330
341D
330
341E
330
341F
330
3420
330
3421
330
3422
330
3423
330
3424
330
3425
330
3426
330
3427
330
3428
330
3429
330
342A
330
342B
330
342C
330
342D
330
342E
330
342F
330
3430
330
3431
330
3432
330
3433
330
3434
330
3435
330
3436
330
3437
330
3438
330
3439
330
343A
330
343B
330
343C
330
343D
330
343E
330
343F
330
3440
330
3441
330
3442
330
3443
330
3444
330
3445
330
3446
330
3447
330
3448
330
3449
330
344A
330
344B
330
344C
330
344D
330
344E
330
344F
330
3450
330
3451
330
3452
330
3453
330
3454
330
3455
330
3456
330
3457
330
3458
330
3459
330
345A
330
345B
330
345C
330
345D
330
345E
330
345F
330
3460
330
3461
330
3462
330
3463
330
3464
330
3465
330
3466
330
3467
330
3468
330
3469
330
346A
330
346B
330
346C
330
346D
330
346E
330
346F
330
3470
330
3471
330
3472
330
3473
330
3474
330
3475
330
3476
330
3477
330
3478
330
3479
330
347A
330
347B
330
347C
330
347D
330
347E
330
347F
330
3480
330
3481
330
3482
330
3483
330
3484
330
3485
330
3486
330
3487
330
3488
330
3489
330
348A
330
348B
330
348C
330
348D
330
348E
330
348F
330
3490
330
3491
330
3492
330
3493
330
3494
330
3495
330
3496
330
3497
330
3498
330
3499
330
349A
330
349B
330
349C
330
349D
330
349E
330
349F
330
34A0
330
34A1
330
34A2
330
34A3
330
34A4
330
34A5
330
34A6
330
34A7
330
34A8
330
34A9
330
34AA
330
34AB
330
34AC
330
34AD
330
34AE
330
34AF
330
34B0
330
34B1
330
34B2
330
34B3
330
34B4
330
34B5
330
34B6
330
34B7
330
34B8
330
34B9
330
34BA
330
34BB
330
34BC
330
34BD
330
34BE
330
34BF
330
34C0
330
34C1
330
34C2
330
34C3
330
34C4
330
34C5
330
34C6
330
34C7
330
34C8
330
34C9
330
34CA
330
34CB
330
34CC
330
34CD
330
34CE
330
34CF
330
34D0
330
34D1
330
34D2
330
34D3
330
34D4
330
34D5
330
34D6
330
34D7
330
34D8
330
34D9
330
34DA
330
34DB
330
34DC
330
34DD
330
34DE
330
34DF
330
34E0
330
34E1
330
34E2
330
34E3
330
34E4
330
34E5
330
34E6
330
34E7
330
34E8
330
34E9
330
34EA
330
34EB
330
34EC
330
34ED
330
34EE
330
34EF
330
34F0
330
34F1
330
34F2
330
34F3
330
34F4
330
34F5
330
34F6
330
34F7
330
34F8
330
34F9
330
34FA
330
34FB
330
34FC
330
34FD
330
34FE
330
34FF
330
3500
330
3501
330
3502
330
3503
330
3504
330
3505
330
3506
330
3507
330
3508
330
3509
330
350A
330
350B
330
350C
330
350D
330
350E
330
350F
330
3510
330
3511
330
3512
330
3513
330
3514
330
3515
330
3516
330
3517
330
3518
330
3519
330
351A
330
351B
330
351C
330
351D
330
351E
330
351F
330
3520
330
3521
330
3522
330
3523
330
3524
330
3525
330
3526
330
3527
330
3528
330
3529
330
352A
330
352B
330
352C
330
352D
330
352E
330
352F
330
3530
330
3531
330
3532
330
3533
330
3534
330
3535
330
3536
330
3537
330
3538
330
3539
330
353A
330
353B
330
353C
330
353D
330
353E
330
353F
330
3540
330
3541
330
3542
330
3543
330
3544
330
3545
330
3546
330
3547
330
3548
330
3549
330
354A
330
354B
330
354C
330
354D
330
354E
330
354F
330
3550
330
3551
330
3552
330
3553
330
3554
330
3555
330
3556
330
3557
330
3558
330
3559
330
355A
330
355B
330
355C
330
355D
330
355E
330
355F
330
3560
330
3561
330
3562
330
3563
330
3564
330
3565
330
3566
330
3567
330
3568
330
3569
330
356A
330
356B
330
356C
330
356D
330
356E
330
356F
330
3570
330
3571
330
3572
330
3573
330
3574
330
3575
330
3576
330
3577
330
3578
330
3579
330
357A
330
357B
330
357C
330
357D
330
357E
330
357F
330
3580
330
3581
330
3582
330
3583
330
3584
330
3585
330
3586
330
3587
330
3588
330
3589
330
358A
330
358B
330
358C
330
358D
330
358E
330
358F
330
3590
330
3591
330
3592
330
3593
330
3594
330
3595
330
3596
330
3597
330
3598
330
3599
330
359A
  0
IDBUFFER
  5
4040
330
0
100
AcDbIdBuffer
330
31
330
43
330
52
330
5F
330
6C
330
79
330
86
330
95
330
A3
330
B0
  0
IDBUFFER
  5
4041
330
0
100
AcDbIdBuffer
330
C8
330
32E1
330
32E2
330
32E3
330
32E4
330
32E5
330
32E6
330
32E7
330
32E8
330
32E9
330
32EA
330
32EB
330
32EC
330
32ED
330
32EE
330
32EF
330
32F0
330
32F1
330
32F2
330
32F3
330
32F4
330
32F5
330
32F6
330
32F7
330
32F8
330
32F9
330
32FA
330
32FC
330
32FD
330
3300
330
3301
330
3302
330
3303
330
3304
330
3305
330
3306
330
3307
330
3311
330
3312
330
3313
330
3314
330
3315
330
3316
330
3317
330
3318
330
3319
330
331A
330
331B
330
331C
330
331D
330
331E
330
331F
330
3320
330
3321
330
3322
330
3323
330
3324
330
3325
330
3326
330
3327
330
3328
330
3329
330
332A
330
332B
330
332C
330
332D
330
332E
330
332F
330
3330
330
3331
330
3332
330
3333
330
3334
330
3335
330
3336
330
3337
330
3338
330
3339
330
333A
330
333C
330
333D
330
333E
330
333F
330
3340
330
3341
330
3342
330
3343
330
3344
330
3345
330
3346
330
3347
330
3348
330
3349
330
334A
330
334B
330
334C
330
3350
330
3351
330
3352
330
3353
330
3354
330
3355
330
3356
330
3357
330
3358
330
3359
330
335A
330
335B
330
335C
330
335D
330
335E
330
335F
330
3360
330
3361
330
3362
330
3363
330
3364
330
3365
330
3366
330
3367
330
3368
330
3369
330
336A
330
336B
330
336C
330
336D
330
336E
  0
IDBUFFER
  5
4042
330
0
100
AcDbIdBuffer
330
13E2
330
13E5
330
13E6
330
13E7
330
13E8
330
14D1
330
14D2
330
14D3
330
14D4
330
14D5
330
14DF
330
14E0
330
14E1
330
14E2
330
14E3
330
14EB
330
14EC
330
14F4
330
14F5
330
14F6
330
14F7
330
14F8
330
14F9
330
14FA
330
14FB
330
14FC
330
1509
330
150A
330
150B
330
150C
330
150D
330
1533
330
1534
330
1535
330
1536
330
1537
330
1538
330
1539
330
153A
330
153B
330
153C
330
153D
330
153E
330
153F
330
1540
330
1547
330
1548
330
1549
330
154A
330
154B
330
154C
330
154D
330
154E
330
154F
330
1550
330
1553
330
15C0
330
15C1
330
15C2
330
15C4
330
15C5
330
15C6
330
15C7
330
15C8
330
15C9
330
15CA
330
15CB
330
15CD
330
15CE
330
15CF
330
15D0
330
15D1
330
15D2
330
15D3
330
15D4
330
15F8
330
15F9
330
15FA
330
15FB
330
15FC
330
15FD
330
15FE
330
15FF
330
1602
330
2138
330
2B59
330
2B5A
330
2B5B
330
2B5C
330
2B5D
330
2B5E
330
2B5F
330
2B60
330
2B61
330
2B62
330
2B63
330
2B64
330
2B65
330
2B66
330
2B67
330
2B68
330
2B69
330
2B6A
330
2B6B
330
2B6C
330
2B6D
330
2B6E
330
2B6F
330
2B70
330
2B71
330
2B72
330
2B76
330
2B7A
330
2B7B
330
2B7F
330
2B80
330
2B81
330
2B82
330
2B83
330
2B84
330
2B85
330
2B86
330
2B8A
330
2B8E
330
2B92
330
2B93
330
2B94
330
2B98
330
2B99
330
2B9A
330
2B9B
330
2B9C
330
2B9D
330
2B9E
330
2B9F
330
2BA0
330
2BA1
330
2BA2
330
2BA3
330
2BE2
330
2BE3
330
2BE4
330
2BE5
330
2BE6
330
2BE7
330
2BE8
330
2BE9
330
2BEA
330
2BEB
330
2BEC
330
2BED
  0
IDBUFFER
  5
4043
330
0
100
AcDbIdBuffer
330
32DE
330
3308
330
3309
330
330A
330
330B
330
330C
330
330D
330
3310
330
36E8
330
3908
330
392E
330
3970
330
39BC
330
3A59
330
3A75
330
3B11
330
3E82
330
4270
  0
IDBUFFER
  5
4044
330
0
100
AcDbIdBuffer
330
32DF
330
32E0
330
334D
330
334E
330
334F
  0
XRECORD
  5
43D8
102
{ACAD_REACTORS
330
43D7
102
}
330
43D7
100
AcDbXrecord
280
     1
102
SHADEPLOT
 70
     0
102
SHADEPLOTRESLEVEL
 70
     2
102
SHADEPLOTCUSTOMDPI
 70
   300
  0
XRECORD
  5
43D6
102
{ACAD_REACTORS
330
43D5
102
}
330
43D5
100
AcDbXrecord
280
     1
102
SHADEPLOT
 70
     0
102
SHADEPLOTRESLEVEL
 70
     2
102
SHADEPLOTCUSTOMDPI
 70
   300
  0
ENDSEC
  0
EOF
