  0
SECTION
  2
HEADER
  9
$ACADVER
  1
AC1015
  9
$ACADMAINTVER
 70
    20
  9
$DWGCODEPAGE
  3
ANSI_950
  9
$INSBASE
 10
0.0
 20
0.0
 30
0.0
  9
$EXTMIN
 10
512.2519276934329
 20
-156.8611380534269
 30
-0.0037006905485555
  9
$EXTMAX
 10
660.6314057115505
 20
41.99483237734329
 30
121.2771814409797
  9
$LIMMIN
 10
0.0
 20
0.0
  9
$LIMMAX
 10
420.0
 20
297.0
  9
$ORTHOMODE
 70
     1
  9
$REGENMODE
 70
     1
  9
$FILLMODE
 70
     1
  9
$QTEXTMODE
 70
     0
  9
$MIRRTEXT
 70
     1
  9
$LTSCALE
 40
0.3
  9
$ATTMODE
 70
     1
  9
$TEXTSIZE
 40
2.5
  9
$TRACEWID
 40
1.0
  9
$TEXTSTYLE
  7
STANDARD
  9
$CLAYER
  8
0
  9
$CELTYPE
  6
ByLayer
  9
$CECOLOR
 62
   256
  9
$CELTSCALE
 40
1.0
  9
$DISPSILH
 70
     0
  9
$DIMSCALE
 40
1.0
  9
$DIMASZ
 40
3.0
  9
$DIMEXO
 40
1.0
  9
$DIMDLI
 40
7.0
  9
$DIMRND
 40
0.0
  9
$DIMDLE
 40
0.0
  9
$DIMEXE
 40
1.0
  9
$DIMTP
 40
0.01
  9
$DIMTM
 40
0.01
  9
$DIMTXT
 40
3.5
  9
$DIMCEN
 40
0.0
  9
$DIMTSZ
 40
0.0
  9
$DIMTOL
 70
     0
  9
$DIMLIM
 70
     0
  9
$DIMTIH
 70
     0
  9
$DIMTOH
 70
     0
  9
$DIMSE1
 70
     0
  9
$DIMSE2
 70
     0
  9
$DIMTAD
 70
     1
  9
$DIMZIN
 70
     8
  9
$DIMBLK
  1

  9
$DIMASO
 70
     1
  9
$DIMSHO
 70
     1
  9
$DIMPOST
  1

  9
$DIMAPOST
  1

  9
$DIMALT
 70
     0
  9
$DIMALTD
 70
     2
  9
$DIMALTF
 40
25.4
  9
$DIMLFAC
 40
1.0
  9
$DIMTOFL
 70
     1
  9
$DIMTVP
 40
0.0
  9
$DIMTIX
 70
     0
  9
$DIMSOXD
 70
     0
  9
$DIMSAH
 70
     0
  9
$DIMBLK1
  1

  9
$DIMBLK2
  1

  9
$DIMSTYLE
  2
STANDARD
  9
$DIMCLRD
 70
   256
  9
$DIMCLRE
 70
   256
  9
$DIMCLRT
 70
   256
  9
$DIMTFAC
 40
0.6
  9
$DIMGAP
 40
1.0
  9
$DIMJUST
 70
     0
  9
$DIMSD1
 70
     0
  9
$DIMSD2
 70
     0
  9
$DIMTOLJ
 70
     1
  9
$DIMTZIN
 70
     8
  9
$DIMALTZ
 70
     0
  9
$DIMALTTZ
 70
     0
  9
$DIMUPT
 70
     0
  9
$DIMDEC
 70
     2
  9
$DIMTDEC
 70
     2
  9
$DIMALTU
 70
     2
  9
$DIMALTTD
 70
     2
  9
$DIMTXSTY
  7
CHINESET
  9
$DIMAUNIT
 70
     0
  9
$DIMADEC
 70
     0
  9
$DIMALTRND
 40
0.0
  9
$DIMAZIN
 70
     2
  9
$DIMDSEP
 70
    46
  9
$DIMATFIT
 70
     3
  9
$DIMFRAC
 70
     0
  9
$DIMLDRBLK
  1

  9
$DIMLUNIT
 70
     2
  9
$DIMLWD
 70
    -1
  9
$DIMLWE
 70
    -1
  9
$DIMTMOVE
 70
     0
  9
$LUNITS
 70
     2
  9
$LUPREC
 70
     2
  9
$SKETCHINC
 40
1.0
  9
$FILLETRAD
 40
2.5
  9
$AUNITS
 70
     0
  9
$AUPREC
 70
     0
  9
$MENU
  1
.
  9
$ELEVATION
 40
0.0
  9
$PELEVATION
 40
0.0
  9
$THICKNESS
 40
0.0
  9
$LIMCHECK
 70
     0
  9
$CHAMFERA
 40
1.5
  9
$CHAMFERB
 40
1.5
  9
$CHAMFERC
 40
20.0
  9
$CHAMFERD
 40
0.0
  9
$SKPOLY
 70
     0
  9
$TDCREATE
 40
2452691.454954444
  9
$TDUCREATE
 40
2452691.121621111
  9
$TDUPDATE
 40
2454664.402936192
  9
$TDUUPDATE
 40
2454664.069602859
  9
$TDINDWG
 40
0.3192922106
  9
$TDUSRTIMER
 40
0.3192920949
  9
$USRTIMER
 70
     1
  9
$ANGBASE
 50
0.0
  9
$ANGDIR
 70
     0
  9
$PDMODE
 70
     0
  9
$PDSIZE
 40
0.0
  9
$PLINEWID
 40
0.0
  9
$SPLFRAME
 70
     0
  9
$SPLINETYPE
 70
     6
  9
$SPLINESEGS
 70
     8
  9
$HANDSEED
  5
3EBA
  9
$SURFTAB1
 70
     6
  9
$SURFTAB2
 70
     6
  9
$SURFTYPE
 70
     6
  9
$SURFU
 70
     6
  9
$SURFV
 70
     6
  9
$UCSBASE
  2

  9
$UCSNAME
  2

  9
$UCSORG
 10
0.0
 20
0.0
 30
0.0
  9
$UCSXDIR
 10
1.0
 20
0.0
 30
0.0
  9
$UCSYDIR
 10
0.0
 20
1.0
 30
0.0
  9
$UCSORTHOREF
  2

  9
$UCSORTHOVIEW
 70
     0
  9
$UCSORGTOP
 10
0.0
 20
0.0
 30
0.0
  9
$UCSORGBOTTOM
 10
0.0
 20
0.0
 30
0.0
  9
$UCSORGLEFT
 10
0.0
 20
0.0
 30
0.0
  9
$UCSORGRIGHT
 10
0.0
 20
0.0
 30
0.0
  9
$UCSORGFRONT
 10
0.0
 20
0.0
 30
0.0
  9
$UCSORGBACK
 10
0.0
 20
0.0
 30
0.0
  9
$PUCSBASE
  2

  9
$PUCSNAME
  2

  9
$PUCSORG
 10
0.0
 20
0.0
 30
0.0
  9
$PUCSXDIR
 10
1.0
 20
0.0
 30
0.0
  9
$PUCSYDIR
 10
0.0
 20
1.0
 30
0.0
  9
$PUCSORTHOREF
  2

  9
$PUCSORTHOVIEW
 70
     0
  9
$PUCSORGTOP
 10
0.0
 20
0.0
 30
0.0
  9
$PUCSORGBOTTOM
 10
0.0
 20
0.0
 30
0.0
  9
$PUCSORGLEFT
 10
0.0
 20
0.0
 30
0.0
  9
$PUCSORGRIGHT
 10
0.0
 20
0.0
 30
0.0
  9
$PUCSORGFRONT
 10
0.0
 20
0.0
 30
0.0
  9
$PUCSORGBACK
 10
0.0
 20
0.0
 30
0.0
  9
$USERI1
 70
     0
  9
$USERI2
 70
     0
  9
$USERI3
 70
     0
  9
$USERI4
 70
     0
  9
$USERI5
 70
     0
  9
$USERR1
 40
0.0
  9
$USERR2
 40
0.0
  9
$USERR3
 40
0.0
  9
$USERR4
 40
0.0
  9
$USERR5
 40
0.0
  9
$WORLDVIEW
 70
     1
  9
$SHADEDGE
 70
     3
  9
$SHADEDIF
 70
    70
  9
$TILEMODE
 70
     1
  9
$MAXACTVP
 70
    48
  9
$PINSBASE
 10
0.0
 20
0.0
 30
0.0
  9
$PLIMCHECK
 70
     0
  9
$PEXTMIN
 10
26.80208481208632
 20
60.62932117531272
 30
-0.0000000000000153
  9
$PEXTMAX
 10
155.7606180029584
 20
204.40991305297
 30
0.0
  9
$PLIMMIN
 10
-3.757083177566528
 20
-14.7637300491333
  9
$PLIMMAX
 10
206.2162444591522
 20
282.2045927047729
  9
$UNITMODE
 70
     0
  9
$VISRETAIN
 70
     1
  9
$PLINEGEN
 70
     0
  9
$PSLTSCALE
 70
     1
  9
$TREEDEPTH
 70
  3020
  9
$CMLSTYLE
  2
Standard
  9
$CMLJUST
 70
     0
  9
$CMLSCALE
 40
20.0
  9
$PROXYGRAPHICS
 70
     1
  9
$MEASUREMENT
 70
     1
  9
$CELWEIGHT
370
    -1
  9
$ENDCAPS
280
     0
  9
$JOINSTYLE
280
     0
  9
$LWDISPLAY
290
     0
  9
$INSUNITS
 70
     4
  9
$HYPERLINKBASE
  1

  9
$STYLESHEET
  1
單色出圖.ctb
  9
$XEDIT
290
     1
  9
$CEPSNTYPE
380
     0
  9
$PSTYLEMODE
290
     1
  9
$FINGERPRINTGUID
  2
{F78C675B-544A-4F03-A4D5-203705509F9E}
  9
$VERSIONGUID
  2
{F44E38FB-ABA3-4FFF-AF39-CCA09AEDFD6B}
  9
$EXTNAMES
290
     1
  9
$PSVPSCALE
 40
0.0
  9
$OLESTARTUP
290
     0
  0
ENDSEC
  0
SECTION
  2
CLASSES
  0
CLASS
  1
ACDBDICTIONARYWDFLT
  2
AcDbDictionaryWithDefault
  3
ObjectDBX Classes
 90
        0
280
     0
281
     0
  0
CLASS
  1
ACDBPLACEHOLDER
  2
AcDbPlaceHolder
  3
ObjectDBX Classes
 90
        0
280
     0
281
     0
  0
CLASS
  1
LAYOUT
  2
AcDbLayout
  3
ObjectDBX Classes
 90
        0
280
     0
281
     0
  0
CLASS
  1
AMGSETTINGSOBJ
  2
AmgSettingsObj
  3
"AcadM|Product Description: AutoCAD Mechanical 2000|Company: Autodesk"
 90
        0
280
     0
281
     0
  0
CLASS
  1
ACME_DOCUMENT
  2
AcMeDbDoc
  3
AcMeServices
 90
        0
280
     0
281
     0
  0
CLASS
  1
ACMESCOPE
  2
AcMeScope
  3
AcMeServices
 90
        0
280
     0
281
     0
  0
CLASS
  1
ACMECOMMANDHISTORY
  2
AcMeCommandHistory
  3
AcMeServices
 90
        0
280
     0
281
     0
  0
CLASS
  1
ACIMSYSVARMAN
  2
AcImSysVarManager
  3
AcMeServices
 90
        0
280
     0
281
     0
  0
CLASS
  1
ACIMREALSYSVAR
  2
AcImRealSysVar
  3
AcMeServices
 90
        0
280
     0
281
     0
  0
CLASS
  1
ACIMINTSYSVAR
  2
AcImIntSysVar
  3
AcMeServices
 90
        0
280
     0
281
     0
  0
CLASS
  1
ACMEDRAWINGMAN
  2
AcMeDrawingMan
  3
AcMeServices
 90
        0
280
     0
281
     0
  0
CLASS
  1
ACMEVIEW
  2
AcMeView
  3
AcMeServices
 90
        0
280
     0
281
     0
  0
CLASS
  1
ACDBENTITYCACHE
  2
AcMeEntityCache
  3
AcMeServices
 90
        0
280
     0
281
     0
  0
CLASS
  1
GSMANAGER
  2
AcMeGSManager
  3
AcMeServices
 90
        0
280
     0
281
     0
  0
CLASS
  1
AMDTINTERNALREACTOR
  2
AmdtInternalReactor
  3
AcMeServices
 90
        0
280
     0
281
     0
  0
CLASS
  1
ACMESTATEMGR
  2
AcMeStateMgr
  3
AcMeServices
 90
        0
280
     0
281
     0
  0
CLASS
  1
ACGREFMASTER
  2
AcGrefMaster
  3
AcAttribServices
 90
        0
280
     0
281
     0
  0
CLASS
  1
AM_DRAWING_MGR
  2
AcDmDwgMgr
  3
AcMechDwgViewMgmt
 90
        0
280
     0
281
     0
  0
CLASS
  1
AM_DWG_DOCUMENT
  2
AcDmDwgDocument
  3
AcMechDwgViewMgmt
 90
        0
280
     0
281
     0
  0
CLASS
  1
AM_DWG_SHEET
  2
AcDmSheet
  3
AcMechDwgViewMgmt
 90
        0
280
     0
281
     0
  0
CLASS
  1
AM_VIEWDIMPARMAP
  2
AcDmViewDimParMap
  3
AcMechDwgViewMgmt
 90
        0
280
     0
281
     0
  0
CLASS
  1
AM_DWGMGR_NAME
  2
AcDmDwgMgrName
  3
AcMechDwgViewMgmt
 90
        0
280
     0
281
     0
  0
CLASS
  1
ACME_DATABASE
  2
AcMeDbDatabase
  3
AcMeServices
 90
        0
280
     0
281
     0
  0
CLASS
  1
ACRFINSADJUSTERMGR
  2
AcRfInsAdjusterMgr
  3
AcMeServices
 90
        0
280
     0
281
     0
  0
CLASS
  1
ACGREFACADMASTER
  2
AcGrefacadMaster
  3
AcGrefServices
 90
        0
280
     0
281
     0
  0
CLASS
  1
AMDTMENUSTATEMGR
  2
AmdtMenuStateMgr
  3
McadcomServices
 90
        0
280
     0
281
     0
  0
CLASS
  1
AMDTMCOMMENUSTATE
  2
AmdtMcomMenuState
  3
McadcomServices
 90
        0
280
     0
281
     0
  0
CLASS
  1
AMIMASTER
  2
AmiMaster
  3
AmiServices
 90
        0
280
     0
281
     0
  0
CLASS
  1
ASAPP
  2
AcAsAppObject
  3
AutoSurfServices
 90
    32768
280
     0
281
     0
  0
CLASS
  1
IM_STATIC_MAN
  2
AcImStaticVarManager
  3
AcMeServices
 90
    32768
280
     0
281
     0
  0
CLASS
  1
ACIMSTRSYSVAR
  2
AcImStrSysVar
  3
AcMeServices
 90
        0
280
     0
281
     0
  0
CLASS
  1
ACIMDBLSTATICVAR
  2
AcImDblStaticVar
  3
AcMeServices
 90
    32768
280
     0
281
     0
  0
CLASS
  1
ACIMSTRSTATICVAR
  2
AcImStrStaticVar
  3
AcMeServices
 90
    32768
280
     0
281
     0
  0
CLASS
  1
ACIMINTSTATICVAR
  2
AcImIntStaticVar
  3
AcMeServices
 90
    32768
280
     0
281
     0
  0
CLASS
  1
ACASGREFMASTER
  2
AcAsGrefMaster
  3
AutoSurfResolverServices
 90
    32768
280
     0
281
     0
  0
CLASS
  1
ACADGREFMODULE
  2
AcAdGrefModule
  3
AdGrefServices
 90
    32768
280
     0
281
     0
  0
CLASS
  1
AMDTMAPISURFMOUDULE
  2
AmdtMApiSurfModule
  3
MApiSurfServices
 90
    32768
280
     0
281
     0
  0
CLASS
  1
MAPIAMMOUDLE
  2
MApiAmModule
  3
MApiAmServices
 90
        0
280
     0
281
     0
  0
CLASS
  1
AMDTADMENUSTATE
  2
AmdtAdMenuState
  3
DesignerServices
 90
        0
280
     0
281
     0
  0
CLASS
  1
ADAPPL
  2
AcAdAppl
  3
DesignerServices
 90
        0
280
     0
281
     0
  0
CLASS
  1
DEPMGR
  2
AcAdDepMgr
  3
DesignerServices
 90
        0
280
     0
281
     0
  0
CLASS
  1
PARAMMGR
  2
AcAdParamMgr
  3
DesignerServices
 90
        0
280
     0
281
     0
  0
CLASS
  1
PARAMSCOPE
  2
AcAdParamScope
  3
DesignerServices
 90
        0
280
     0
281
     0
  0
CLASS
  1
NAMEDAPPL
  2
AcAdNamedAppl
  3
DesignerServices
 90
        0
280
     0
281
     0
  0
CLASS
  1
AMDTDMMENUSTATE
  2
AmdtDmMenuState
  3
AcMechDwgViewMgmt
 90
        0
280
     0
281
     0
  0
CLASS
  1
MAPIADMODULE
  2
MApiAdModule
  3
MApiAdServices
 90
    32768
280
     0
281
     0
  0
CLASS
  1
AMDTAMMENUSTATE
  2
AmdtAmMenuState
  3
DesignerAssemblies
 90
        0
280
     0
281
     0
  0
CLASS
  1
ACAMPROJECT
  2
AcAmProject
  3
DesignerAssemblies
 90
        0
280
     0
281
     0
  0
CLASS
  1
ACAMCOMPDEFMGR
  2
AcAmCompDefMgr
  3
DesignerAssemblies
 90
        0
280
     0
281
     0
  0
CLASS
  1
AMCONTEXTMGR
  2
AcAmContextMgr
  3
DesignerAssemblies
 90
        0
280
     0
281
     0
  0
CLASS
  1
ACAMCONTEXTPARTMODELER
  2
AcAmContextPartModeler
  3
DesignerAssemblies
 90
    32768
280
     0
281
     0
  0
CLASS
  1
ACMDATADICTIONARY
  2
AcmDataDictionary
  3
"AcmSymBB|Product Description: AutoCAD Mechanical 2004 DX|Company: Autodesk"
 90
        0
280
     0
281
     0
  0
CLASS
  1
ACMDATAENTRYBLOCK
  2
AcmDataEntryBlock
  3
"AcmSymBB|Product Description: AutoCAD Mechanical 2004 DX|Company: Autodesk"
 90
    32768
280
     0
281
     0
  0
CLASS
  1
ACMSTANDARDISO
  2
AcmStandardISO
  3
"Amdt_StdImp|Product Description: AutoCAD Mechanical 2004 DX|Company: Autodesk"
 90
        0
280
     0
281
     0
  0
CLASS
  1
AMGOBJPROPCFG
  2
AmgObjPropCfg
  3
"AmgLay|Product Description: AutoCAD Mechanical 2000|Company: Autodesk"
 90
        1
280
     0
281
     0
  0
CLASS
  1
AMDTEDGESTANDARDISO
  2
AmdtEdgeStdISO
  3
"Amdt_StdImp|Product Description: AutoCAD Mechanical 2004 DX|Company: Autodesk"
 90
    32768
280
     0
281
     0
  0
CLASS
  1
ACMSURFSTANDARDISO
  2
AcmSurfTextStdISO
  3
"Amdt_StdImp|Product Description: AutoCAD Mechanical 2004 DX|Company: Autodesk"
 90
        0
280
     0
281
     0
  0
CLASS
  1
ACMFCFSTANDARDISO
  2
AcmFCFStdISO
  3
"Amdt_StdImp|Product Description: AutoCAD Mechanical 2004 DX|Company: Autodesk"
 90
        0
280
     0
281
     0
  0
CLASS
  1
ACMWELDSTANDARDISO
  2
AcmWeldingStdISO
  3
"Amdt_StdImp|Product Description: AutoCAD Mechanical 2004 DX|Company: Autodesk"
 90
        0
280
     0
281
     0
  0
CLASS
  1
ACMIDSTANDARDISO
  2
AcmIdStdISO
  3
"Amdt_StdImp|Product Description: AutoCAD Mechanical 2004 DX|Company: Autodesk"
 90
        0
280
     0
281
     0
  0
CLASS
  1
ACMDATUMSTANDARDISO
  2
AcmDatumStdISO
  3
"Amdt_StdImp|Product Description: AutoCAD Mechanical 2004 DX|Company: Autodesk"
 90
        0
280
     0
281
     0
  0
CLASS
  1
ACMBOMSTANDARDISO
  2
AcmBOMStdISO
  3
"Amdt_StdImp|Product Description: AutoCAD Mechanical 2004 DX|Company: Autodesk"
 90
        0
280
     0
281
     0
  0
CLASS
  1
ACMDETAILSTANDARDISO
  2
AmdtDetailSymStdISO
  3
"Amdt_StdImp|Product Description: AutoCAD Mechanical 2004 DX|Company: Autodesk"
 90
        0
280
     0
281
     0
  0
CLASS
  1
ACMSECTIONSTANDARDISO
  2
AmdtSectionSymStdISO
  3
"Amdt_StdImp|Product Description: AutoCAD Mechanical 2004 DX|Company: Autodesk"
 90
        0
280
     0
281
     0
  0
CLASS
  1
ACMCENTERLINESTANDARDISO
  2
AmdtCenterLineStdISO
  3
"Amdt_StdImp|Product Description: AutoCAD Mechanical 2004 DX|Company: Autodesk"
 90
        0
280
     0
281
     0
  0
CLASS
  1
ACMTHREADLINESTANDARDISO
  2
AmdtThreadLineStdISO
  3
"Amdt_StdImp|Product Description: AutoCAD Mechanical 2004 DX|Company: Autodesk"
 90
        0
280
     0
281
     0
  0
CLASS
  1
ACMNOTESTANDARDISO
  2
AmdtNoteStdISO
  3
"Amdt_StdImp|Product Description: AutoCAD Mechanical 2004 DX|Company: Autodesk"
 90
        0
280
     0
281
     0
  0
CLASS
  1
ACAMGLAYSTD
  2
AcAmgLayStd
  3
"AcAmgLayStd|Product Description: AutoCAD Mechanical 2000|Company: Autodesk"
 90
        0
280
     0
281
     0
  0
CLASS
  1
ACAMGDIMSTD
  2
AcAmgDimStd
  3
"AcAmgDimStd|Product Description: AutoCAD Mechanical 2000|Company: Autodesk"
 90
        0
280
     0
281
     0
  0
CLASS
  1
ACAMGHOLECHARTSTDISO
  2
AcAmgHoleChartStdISO
  3
ACMSYMBB_MODULE_NAME
 90
        0
280
     0
281
     0
  0
CLASS
  1
ACAMGTITLESTD
  2
AcAmgTitleStd
  3
"TITLEAPP"
 90
        0
280
     0
281
     0
  0
CLASS
  1
CATALOGSTATE
  2
AcAmCatalogState
  3
DesignerAssemblies
 90
        0
280
     0
281
     0
  0
CLASS
  1
ACAMGRCOMPDEFSET
  2
AcAmGrCompDefSet
  3
DesignerAssemblies
 90
        0
280
     0
281
     0
  0
CLASS
  1
AMDTBROWSERDBTAB
  2
AmdtBrowserDbTab
  3
McadcomServices
 90
        0
280
     0
281
     0
  0
CLASS
  1
CBROWSERAPPOBJECT
  2
CBrowserAppObject
  3
McadcomServices
 90
        0
280
     0
281
     0
  0
CLASS
  1
DM_PLACEHOLDER
  2
AcDmSelsetPlaceholder
  3
AcMechDwgViewMgmt
 90
        0
280
     0
281
     0
  0
CLASS
  1
ACAMGFILTERDAT
  2
AcAmgFilterDat
  3
"AcadM|Product Description: AutoCAD Mechanical 2000|Company: Autodesk"
 90
    32768
280
     0
281
     0
  0
CLASS
  1
LAYER_INDEX
  2
AcDbLayerIndex
  3
ObjectDBX Classes
 90
        0
280
     0
281
     0
  0
CLASS
  1
IDBUFFER
  2
AcDbIdBuffer
  3
ObjectDBX Classes
 90
        0
280
     0
281
     0
  0
CLASS
  1
DICTIONARYVAR
  2
AcDbDictionaryVar
  3
ObjectDBX Classes
 90
        0
280
     0
281
     0
  0
CLASS
  1
ACAMGRCOMPDEF
  2
AcAmGrCompDef
  3
DesignerAssemblies
 90
        0
280
     0
281
     0
  0
CLASS
  1
ACCMCONTEXT
  2
AcCmContext
  3
DesignerAssemblies
 90
        0
280
     0
281
     0
  0
CLASS
  1
ACAMCOMPDEF
  2
AcAmCompDef
  3
DesignerAssemblies
 90
        0
280
     0
281
     0
  0
CLASS
  1
ADPART
  2
AcAdPart
  3
DesignerServices
 90
    32768
280
     0
281
     1
  0
CLASS
  1
ADBASE
  2
AcAdBase
  3
DesignerServices
 90
    32768
280
     0
281
     0
  0
CLASS
  1
BODYID
  2
AcAdBodyId
  3
DesignerServices
 90
    32768
280
     0
281
     0
  0
CLASS
  1
WORKPLANEDISPLAYMGR
  2
AcAdDisplayMgr
  3
DesignerServices
 90
    32768
280
     0
281
     0
  0
CLASS
  1
ACCMBODY
  2
AcCmBody
  3
DesignerAssemblies
 90
    32768
280
     0
281
     0
  0
CLASS
  1
ACAMCOMPENT
  2
AcAmCompEnt
  3
DesignerAssemblies
 90
    32768
280
     0
281
     1
  0
CLASS
  1
ACAMCOMPFEEDBACK
  2
AcAmCompFeedback
  3
DesignerAssemblies
 90
    32768
280
     0
281
     0
  0
CLASS
  1
ACAMGROUNDEDBASECOMP
  2
AcAmGroundedBaseComp
  3
DesignerAssemblies
 90
    32768
280
     0
281
     0
  0
CLASS
  1
ACAMCOMPENTCLONE
  2
AcAmCompEntClone
  3
DesignerAssemblies
 90
    32768
280
     0
281
     1
  0
CLASS
  1
ACAMCLONEREACTOR
  2
AcAmGrCompCloneReactor
  3
DesignerAssemblies
 90
    32768
280
     0
281
     0
  0
CLASS
  1
ADDATUMPLANEABS
  2
AcAdDatumPlaneAbs
  3
DesignerServices
 90
    32768
280
     0
281
     0
  0
CLASS
  1
ADDATUMAXISABS
  2
AcAdDatumAxisAbs
  3
DesignerServices
 90
    32768
280
     0
281
     0
  0
CLASS
  1
ADDATUMORIENTEDPLANE
  2
AcAdDatumOrientedPlane
  3
DesignerServices
 90
    32768
280
     0
281
     0
  0
CLASS
  1
ACAD_LINE
  2
AcAdLine
  3
DesignerServices
 90
    32768
280
     0
281
     1
  0
CLASS
  1
ACADLINEACAD
  2
AcAdVirtualBoundedLineAcad
  3
DesignerServices
 90
    32768
280
     0
281
     0
  0
CLASS
  1
ACADREFLINEACAD
  2
AcAdVirtualReferenceLine
  3
DesignerServices
 90
    32768
280
     0
281
     0
  0
CLASS
  1
ACADCONSLINE
  2
AcAdConstrainedLine
  3
DesignerServices
 90
    32768
280
     0
281
     0
  0
CLASS
  1
ACADCONSGROUP
  2
AcAdConstraintGroup
  3
DesignerServices
 90
    32768
280
     0
281
     0
  0
CLASS
  1
ACADIMPPTACAD
  2
AcAdVirtualImplicitPoint
  3
DesignerServices
 90
    32768
280
     0
281
     0
  0
CLASS
  1
ACADCONSPOINT
  2
AcAdConstrainedPoint
  3
DesignerServices
 90
    32768
280
     0
281
     0
  0
CLASS
  1
ADPCURCNS
  2
AcAdPointCurveConstr
  3
DesignerServices
 90
    32768
280
     0
281
     0
  0
CLASS
  1
ADVERCNS
  2
AcAdVerticalConstr
  3
DesignerServices
 90
    32768
280
     0
281
     0
  0
CLASS
  1
ADHORCNS
  2
AcAdHorizontalConstr
  3
DesignerServices
 90
    32768
280
     0
281
     0
  0
CLASS
  1
ADCLPROF2D
  2
AcAdClosedProfile2d
  3
DesignerServices
 90
    32768
280
     0
281
     0
  0
CLASS
  1
ACAD_FIXCONSTRAINT
  2
AcAdFixedConstraint
  3
DesignerServices
 90
    32768
280
     0
281
     0
  0
CLASS
  1
AMDTFORMULAUPDATEDISPATCHER
  2
AmdtFormulaUpdateDispatcher
  3
AcMeServices
 90
    32768
280
     0
281
     0
  0
CLASS
  1
ADCONSDISP
  2
AcAdConstraintDisplay
  3
DesignerServices
 90
    32768
280
     0
281
     1
  0
CLASS
  1
ADCONSTDSP
  2
AcAdConstraintDisplayTag
  3
DesignerServices
 90
    32768
280
     0
281
     1
  0
CLASS
  1
PARAM
  2
AcAdParam
  3
DesignerServices
 90
    32768
280
     0
281
     0
  0
CLASS
  1
ADVDISTCNS
  2
AcAdVerticalDistanceConstr
  3
DesignerServices
 90
    32768
280
     0
281
     0
  0
CLASS
  1
ADHDISTCNS
  2
AcAdHorizontalDistanceConstr
  3
DesignerServices
 90
    32768
280
     0
281
     0
  0
CLASS
  1
ACMEROTATIONARROW
  2
AcImRotationArrowDisplay
  3
AcMeServices
 90
    32768
280
     0
281
     1
  0
CLASS
  1
ACADVOLFEATWITHTRIM
  2
AcAdVolFeatWithTrim
  3
DesignerServices
 90
    32768
280
     0
281
     0
  0
CLASS
  1
DEPEDGEFEATUREORDERING
  2
AcAdDepEdgeFeatureOrdering
  3
DesignerServices
 90
    32768
280
     0
281
     0
  0
CLASS
  1
DATUMAXISDISPLAY
  2
AcAdDatumAxisDisplay
  3
DesignerServices
 90
    32768
280
     0
281
     1
  0
CLASS
  1
ADDATUMAXISCENTER
  2
AcAdDatumAxisCenter
  3
DesignerServices
 90
    32768
280
     0
281
     0
  0
CLASS
  1
ADSURFGEOMID
  2
AcAdSurfGeomId
  3
DesignerServices
 90
    32768
280
     0
281
     0
  0
CLASS
  1
ACMEPOINT
  2
AcImPointDisplay
  3
AcMeServices
 90
    32768
280
     0
281
     1
  0
CLASS
  1
ADPLANEID
  2
AcAdPlaneId
  3
DesignerServices
 90
    32768
280
     0
281
     0
  0
CLASS
  1
ADDATUMPLANEFACE
  2
AcAdDatumPlaneFace
  3
DesignerServices
 90
    32768
280
     0
281
     0
  0
CLASS
  1
ADDATUMPOINTAXISPLANE
  2
AcAdDatumPointAxisPlane
  3
DesignerServices
 90
    32768
280
     0
281
     0
  0
CLASS
  1
ADHOLEFEAT
  2
AcAdHoleFeat
  3
DesignerServices
 90
    32768
280
     0
281
     0
  0
CLASS
  1
CIRREFID
  2
AcAdCircleRefId
  3
DesignerServices
 90
    32768
280
     0
281
     0
  0
CLASS
  1
ACADCIRCDEPID
  2
AcAdVirtualCircleDepId
  3
DesignerServices
 90
    32768
280
     0
281
     0
  0
CLASS
  1
ACADCONSCIRCLE
  2
AcAdConstrainedCircle
  3
DesignerServices
 90
    32768
280
     0
281
     0
  0
CLASS
  1
ADCTRPTCNS
  2
AcAdCenterPointConstr
  3
DesignerServices
 90
    32768
280
     0
281
     0
  0
CLASS
  1
AMDT_ALIGNED_DIM
  2
AmdtAlignedDimension
  3
AcMeServices
 90
    32768
280
     0
281
     1
  0
CLASS
  1
ACADBOUNDEDLINEDATUMID
  2
AcAdVirtualBoundedLineDatumId
  3
DesignerServices
 90
    32768
280
     0
281
     0
  0
CLASS
  1
AMDT_ORDINATE_DIM
  2
AmdtOrdinateDimension
  3
AcMeServices
 90
    32768
280
     0
281
     1
  0
CLASS
  1
EDGEID
  2
AcAdEdgeId
  3
DesignerServices
 90
    32768
280
     0
281
     0
  0
CLASS
  1
ADFILLET
  2
AcAdFillet
  3
DesignerServices
 90
    32768
280
     0
281
     0
  0
CLASS
  1
DATUMPLANEDISPLAY
  2
AcAdDatumPlaneDisplay
  3
DesignerServices
 90
    32768
280
     0
281
     1
  0
CLASS
  1
ADDATUMPLANEAXISPLANE
  2
AcAdDatumPlaneAxisPlane
  3
DesignerServices
 90
    32768
280
     0
281
     0
  0
CLASS
  1
ACMEPLINE
  2
AcImPlineDisplay
  3
AcMeServices
 90
    32768
280
     0
281
     1
  0
CLASS
  1
ACMELINEARARROW
  2
AcImLinearArrowDisplay
  3
AcMeServices
 90
    32768
280
     0
281
     1
  0
CLASS
  1
ACMETEXT
  2
AcImTextDisplay
  3
AcMeServices
 90
    32768
280
     0
281
     1
  0
CLASS
  1
ADDATUMPLANEOFFSET
  2
AcAdDatumPlaneOffset
  3
DesignerServices
 90
    32768
280
     0
281
     0
  0
CLASS
  1
ADCOLNCNS
  2
AcAdColinearConstr
  3
DesignerServices
 90
    32768
280
     0
281
     0
  0
CLASS
  1
STREFID
  2
AcAdStraightRefId
  3
DesignerServices
 90
    32768
280
     0
281
     0
  0
CLASS
  1
ACADLINEDEPID
  2
AcAdVirtualLineDepId
  3
DesignerServices
 90
    32768
280
     0
281
     0
  0
CLASS
  1
ADFEATUREDISPLAY
  2
AcImFeatureDisplay
  3
ACME_MODULE_NAME
 90
    32768
280
     0
281
     1
  0
CLASS
  1
ACMEAXIS
  2
AcImAxisDisplay
  3
AcMeServices
 90
    32768
280
     0
281
     1
  0
CLASS
  1
DEPEDGEPATTERNFEATURE
  2
AcAdDepEdgePatternFeature
  3
DesignerServices
 90
    32768
280
     0
281
     0
  0
CLASS
  1
ACADPATTNFEAT
  2
AcAdPatternFeat
  3
DesignerServices
 90
    32768
280
     0
281
     0
  0
CLASS
  1
ACADORDORIGPT
  2
AcAdOrdinateOriginPoint
  3
DesignerServices
 90
    32768
280
     0
281
     0
  0
CLASS
  1
ADORDBASECNS
  2
AcAdOrdinateBaseConstr
  3
DesignerServices
 90
    32768
280
     0
281
     0
  0
CLASS
  1
DEPEDGESECONDARYDEPID
  2
AcAdDepEdgeSecondaryDepId
  3
DesignerServices
 90
    32768
280
     0
281
     0
  0
CLASS
  1
DEPEDGEPATTERNINSTANCE
  2
AcAdDepEdgePatternInstance
  3
DesignerServices
 90
    32768
280
     0
281
     0
  0
CLASS
  1
AMACTIVEPARTSELECTFILTER
  2
AcDmActivePartViewEntFilter
  3
DesignerServices
 90
    32768
280
     0
281
     0
  0
CLASS
  1
AM_ABS_PLANE
  2
AcDmAbsPlnDef
  3
AcMechDwgViewMgmt
 90
    32768
280
     0
281
     0
  0
CLASS
  1
AM_ABS_AXIS
  2
AcDmAbsAxisDef
  3
AcMechDwgViewMgmt
 90
    32768
280
     0
281
     0
  0
CLASS
  1
AM_BASE_VIEW_ORIENT
  2
AcDmBaseViewOr
  3
AcMechDwgViewMgmt
 90
    32768
280
     0
281
     0
  0
CLASS
  1
AM_DWG_VIEWPORT
  2
AcDmViewport
  3
AcMechDwgViewMgmt
 90
    32768
280
     0
281
     0
  0
CLASS
  1
AM_VIEW_DISPLAY
  2
AcDmDwgViewDisplay
  3
AcMechDwgViewMgmt
 90
    32768
280
     0
281
     0
  0
CLASS
  1
AM_CLDFLTS
  2
AcDmClDflts
  3
AcMechDwgViewMgmt
 90
    32768
280
     0
281
     0
  0
CLASS
  1
AM_BASE_VIEW
  2
AcDmBaseView
  3
AcMechDwgViewMgmt
 90
    32768
280
     0
281
     0
  0
CLASS
  1
AM_ISO_VIEW_ORIENT
  2
AcDmIsoViewOr
  3
AcMechDwgViewMgmt
 90
    32768
280
     0
281
     0
  0
CLASS
  1
AM_ISO_VIEW
  2
AcDmIsoView
  3
AcMechDwgViewMgmt
 90
    32768
280
     0
281
     0
  0
CLASS
  1
AM_ORTHO_VIEW_ORIENT
  2
AcDmOrthoViewOr
  3
AcMechDwgViewMgmt
 90
    32768
280
     0
281
     0
  0
CLASS
  1
AM_ORTHO_VIEW
  2
AcDmOrthoView
  3
AcMechDwgViewMgmt
 90
    32768
280
     0
281
     0
  0
CLASS
  1
ACDMPARTVIEWDATA
  2
AcDmPartViewData
  3
AcMechDwgViewMgmt
 90
    32768
280
     0
281
     0
  0
CLASS
  1
ACDMDISPLAYATTRIBS
  2
AcDmDisplayAttribs
  3
AcMechDwgViewMgmt
 90
    32768
280
     0
281
     0
  0
CLASS
  1
ACDMBODYINSTANCEDATA
  2
AcDmBodyInstanceData
  3
AcMechDwgViewMgmt
 90
    32768
280
     0
281
     0
  0
CLASS
  1
ACDMVWEDLINE
  2
AcDmViewEdgeLine
  3
AcMechDwgViewMgmt
 90
    32768
280
     0
281
     1
  0
CLASS
  1
ACDMVWEDARC
  2
AcDmViewEdgeArc
  3
AcMechDwgViewMgmt
 90
    32768
280
     0
281
     1
  0
CLASS
  1
ACADSKETCHPOINTRES
  2
AcAdSketchPointRes
  3
DesignerServices
 90
    32768
280
     0
281
     0
  0
CLASS
  1
AM_VIEWDIMLINEAR
  2
AcDmViewDimLinear
  3
AcMechDwgViewMgmt
 90
    32768
280
     0
281
     0
  0
CLASS
  1
AMDTDMPARMAPDATA
  2
AmdtDmDimParMapData
  3
AcMechDwgViewMgmt
 90
    32768
280
     0
281
     0
  0
CLASS
  1
AM_ADLINCTRLINE
  2
AcAdLineCl
  3
DesignerServices
 90
    32768
280
     0
281
     0
  0
CLASS
  1
ACDMVWEDCIRC
  2
AcDmViewEdgeCircle
  3
AcMechDwgViewMgmt
 90
    32768
280
     0
281
     1
  0
CLASS
  1
AM_ADCIRCTRLINE
  2
AcAdBullsEyeCl
  3
DesignerServices
 90
    32768
280
     0
281
     0
  0
CLASS
  1
AD_CIRCTAPH
  2
AcAdTapHoleCircDisp
  3
DesignerServices
 90
    32768
280
     0
281
     0
  0
CLASS
  1
ACDMVIEWGEOM
  2
AcDmViewGeometry
  3
AcMechDwgViewMgmt
 90
    32768
280
     0
281
     1
  0
CLASS
  1
FACEID
  2
AcAdFaceId
  3
DesignerServices
 90
    32768
280
     0
281
     0
  0
CLASS
  1
ACADPARTPLANARFACERES
  2
AcAdPartPlanarFaceRes
  3
AdGrefServices
 90
    32768
280
     0
281
     0
  0
CLASS
  1
AM_GREF_PLANE
  2
AcDmGrefPlnDef
  3
AcMechDwgViewMgmt
 90
    32768
280
     0
281
     0
  0
CLASS
  1
ACADPARTLINEDGRES
  2
AcAdPartLinEdgRes
  3
AdGrefServices
 90
    32768
280
     0
281
     0
  0
CLASS
  1
AM_GREF_AXIS
  2
AcDmGrefAxisDef
  3
AcMechDwgViewMgmt
 90
    32768
280
     0
281
     0
  0
CLASS
  1
AMDTEXTERNALTHREAD
  2
AmdtExternalThreadFeat
  3
DesignerServices
 90
    32768
280
     0
281
     0
  0
CLASS
  1
THREADDISPLAY
  2
AcAdThreadDisplay
  3
DesignerServices
 90
    32768
280
     0
281
     1
  0
CLASS
  1
AD_LINETAPH
  2
AcAdTapHoleLineDisp
  3
DesignerServices
 90
    32768
280
     0
281
     0
  0
CLASS
  1
ADRADDISP
  2
AcAdRadiusDisplay
  3
DesignerServices
 90
    32768
280
     0
281
     1
  0
CLASS
  1
ACDBLINERES
  2
AcDbLineRes
  3
AcGrefServices
 90
    32768
280
     0
281
     0
  0
CLASS
  1
ACADPARTCONICALFACERES
  2
AcAdPartConicalFaceRes
  3
AdGrefServices
 90
    32768
280
     0
281
     0
  0
CLASS
  1
ACDMGREFEDIT
  2
AcDmViewEntityGeomrefEdit
  3
AcMechDwgViewMgmt
 90
    32768
280
     0
281
     0
  0
CLASS
  1
ACDMVIEWLINEDGERES
  2
AcDmViewLinEdgeRes
  3
AcMechDwgViewMgmt
 90
    32768
280
     0
281
     0
  0
CLASS
  1
SILEDGEID
  2
AcAdSilhouetteEdgeId
  3
DesignerServices
 90
    32768
280
     0
281
     0
  0
CLASS
  1
ACADPARTCYLINDERFACERES
  2
AcAdPartCylinderFaceRes
  3
AdGrefServices
 90
    32768
280
     0
281
     0
  0
CLASS
  1
CNRREFID
  2
AcAdCornerId
  3
DesignerServices
 90
    32768
280
     0
281
     0
  0
CLASS
  1
ACADPARTPOINTRES
  2
AcAdPartPointRes
  3
AdGrefServices
 90
    32768
280
     0
281
     0
  0
CLASS
  1
ACADPARTCIRCEDGRES
  2
AcAdPartCircEdgRes
  3
AdGrefServices
 90
    32768
280
     0
281
     0
  0
CLASS
  1
ACRFDMINSADJ
  2
AcRfDMInsAdjuster
  3
AcMechDwgViewMgmt
 90
    32768
280
     0
281
     0
  0
CLASS
  1
AM_VIEWDIMRADIUS
  2
AcDmViewDimRadius
  3
AcMechDwgViewMgmt
 90
    32768
280
     0
281
     0
  0
CLASS
  1
ACADPARTDATUMPLANERES
  2
AcAdPartDatumPlaneRes
  3
AdGrefServices
 90
    32768
280
     0
281
     0
  0
CLASS
  1
AM_FULLPLANESECTION
  2
AcDmFullPlaneSection
  3
AcMechDwgViewMgmt
 90
    32768
280
     0
281
     0
  0
CLASS
  1
AMDTSECTIONSYM
  2
AmdtSectionSym
  3
"AcmSymBB|Product Description: AutoCAD Mechanical 2004 DX|Company: Autodesk"
 90
    33791
280
     0
281
     1
  0
CLASS
  1
AM_VWNOTEADAPTER
  2
AcDmViewAnnotAdapter
  3
AcMechDwgViewMgmt
 90
    32768
280
     0
281
     0
  0
CLASS
  1
AMDTSECTIONSYMLABEL
  2
AmdtSectionSymLabel
  3
"AcmSymBB|Product Description: AutoCAD Mechanical 2004 DX|Company: Autodesk"
 90
    33791
280
     0
281
     1
  0
CLASS
  1
AMDTNOTE
  2
AmdtNote
  3
"AcmSymBB|Product Description: AutoCAD Mechanical 2004 DX|Company: Autodesk"
 90
    33791
280
     0
281
     1
  0
CLASS
  1
DIMASSOC
  2
AcDbDimAssoc
  3
"AcDbDimAssoc|Product Desc:     AcDim ARX App For Dimension|Company:          Autodesk, Inc.|WEB Address:      www.autodesk.com"
 90
        0
280
     0
281
     0
  0
CLASS
  1
TABLESTYLE
  2
AcDbTableStyle
  3
ObjectDBX Classes
 90
     2047
280
     0
281
     0
  0
CLASS
  1
ACAMCONTEXTMODELER
  2
AcAmContextModeler
  3
DesignerAssemblies
 90
        0
280
     0
281
     0
  0
CLASS
  1
AMDTEDGESTANDARDISO13715
  2
AmdtEdgeStdISO13715
  3
"Amdt_StdImp|Product Description: AutoCAD Mechanical 2004 DX|Company: Autodesk"
 90
        0
280
     0
281
     0
  0
CLASS
  1
AMDTNOTETEMPLATEDB
  2
AmdtNoteTemplateDB
  3
AMDT_STDIMP_MODULE_NAME
 90
        0
280
     0
281
     0
  0
CLASS
  1
ACRFATTGENMGR
  2
AcRfAttGeneralMgr
  3
AcAttribServices
 90
    32768
280
     0
281
     0
  0
CLASS
  1
ACMDIMBREAKPERSREACTOR
  2
AcmDimBreakPersReactor
  3
amgDimApp().moduleName()
 90
     1023
280
     0
281
     0
  0
ENDSEC
  0
SECTION
  2
TABLES
  0
TABLE
  2
VPORT
  5
1A
330
0
100
AcDbSymbolTable
 70
     4
  0
VPORT
  5
3EB3
330
1A
100
AcDbSymbolTableRecord
100
AcDbViewportTableRecord
  2
*Active
 70
     0
 10
0.0
 20
0.0
 11
1.0
 21
1.0
 12
586.4416667024917
 22
-57.43315283804179
 13
0.0
 23
0.0
 14
2.5
 24
2.5
 15
10.0
 25
10.0
 16
0.0
 26
0.0
 36
1.0
 17
0.0
 27
0.0
 37
0.0
 40
200.4574950248435
 41
0.9354838709677418
 42
50.0
 43
0.0
 44
0.0
 50
0.0
 51
0.0
 71
     0
 72
   100
 73
     1
 74
     3
 75
     0
 76
     0
 77
     0
 78
     0
281
     0
 65
     0
110
0.0
120
0.0
130
0.0
111
1.0
121
0.0
131
0.0
112
0.0
122
1.0
132
0.0
 79
     0
146
0.0
  0
ENDTAB
  0
TABLE
  2
LTYPE
  5
15
330
0
100
AcDbSymbolTable
 70
    14
  0
LTYPE
  5
16
330
15
100
AcDbSymbolTableRecord
100
AcDbLinetypeTableRecord
  2
ByBlock
 70
     0
  3

 72
    65
 73
     0
 40
0.0
  0
LTYPE
  5
17
330
15
100
AcDbSymbolTableRecord
100
AcDbLinetypeTableRecord
  2
ByLayer
 70
     0
  3

 72
    65
 73
     0
 40
0.0
  0
LTYPE
  5
9
330
15
100
AcDbSymbolTableRecord
100
AcDbLinetypeTableRecord
  2
Continuous
 70
     0
  3
Solid line
 72
    65
 73
     0
 40
0.0
  0
LTYPE
  5
161
330
15
100
AcDbSymbolTableRecord
100
AcDbLinetypeTableRecord
  2
HIDDEN
 70
     0
  3
Hidden __ __ __ __ __ __ __ __ __ __ __ __ __ _
 72
    65
 73
     2
 40
9.524999999999998
 49
6.349999999999999
 74
     0
 49
-3.174999999999999
 74
     0
  0
LTYPE
  5
BF
330
15
100
AcDbSymbolTableRecord
100
AcDbLinetypeTableRecord
  2
AM_ISO08W050
 70
     0
  3
____ . ____ . ____ . ____ . ____ . ____ . ____
 72
    65
 73
     4
 40
18.0
 49
12.0
 74
     0
 49
-1.5
 74
     0
 49
3.0
 74
     0
 49
-1.5
 74
     0
  0
LTYPE
  5
1FD
330
15
100
AcDbSymbolTableRecord
100
AcDbLinetypeTableRecord
  2
AM_ISO02W050
 70
     0
  3
__ __ __ __ __ __ __ __ __ __ __ __ __ __ __
 72
    65
 73
     2
 40
7.5
 49
6.0
 74
     0
 49
-1.5
 74
     0
  0
LTYPE
  5
1FE
330
15
100
AcDbSymbolTableRecord
100
AcDbLinetypeTableRecord
  2
AM_ISO09W050
 70
     0
  3
_____ . . _____ . . _____ . . ____ .. ____
 72
    65
 73
     6
 40
22.5
 49
12.0
 74
     0
 49
-1.5
 74
     0
 49
3.0
 74
     0
 49
-1.5
 74
     0
 49
3.0
 74
     0
 49
-1.5
 74
     0
  0
LTYPE
  5
1FF
330
15
100
AcDbSymbolTableRecord
100
AcDbLinetypeTableRecord
  2
Amconstr
 70
     0
  3
_______________________
 72
    65
 73
     2
 40
9999.0
 49
9999.0
 74
     0
 49
0.0
 74
     0
  0
LTYPE
  5
200
330
15
100
AcDbSymbolTableRecord
100
AcDbLinetypeTableRecord
  2
AM_ISO08W050x2
 70
     0
  3
__ . __ . __ . __ . __ . __
 72
    65
 73
     4
 40
9.0
 49
6.0
 74
     0
 49
-0.75
 74
     0
 49
1.5
 74
     0
 49
-0.75
 74
     0
  0
LTYPE
  5
201
330
15
100
AcDbSymbolTableRecord
100
AcDbLinetypeTableRecord
  2
AM_ISO02W050x2
 70
     0
  3
 _ _ _ _ _ _ _ _ _ _ _ _
 72
    65
 73
     2
 40
3.75
 49
3.0
 74
     0
 49
-0.75
 74
     0
  0
LTYPE
  5
204
330
15
100
AcDbSymbolTableRecord
100
AcDbLinetypeTableRecord
  2
Amzigzag
 70
     0
  3
/\/-/\/-/\/-/\/-/\/-/\/
 72
    65
 73
     2
 40
11.0001
 49
0.0001
 74
     4
 75
   135
340
203
 46
0.04
 50
0.0
 44
0.0
 45
0.0
 49
-11.0
 74
     0
  0
LTYPE
  5
211
330
15
100
AcDbSymbolTableRecord
100
AcDbLinetypeTableRecord
  2
ACISOWELD
 70
     0
  3
_ _ _ _ _
 72
    65
 73
     2
 40
2.0
 49
2.0
 74
     0
 49
-1.0
 74
     0
  0
LTYPE
  5
212
330
15
100
AcDbSymbolTableRecord
100
AcDbLinetypeTableRecord
  2
ACISOTGB
 70
     0
  3
__ . . __ . .
 72
    65
 73
     6
 40
9.0
 49
4.0
 74
     0
 49
-1.0
 74
     0
 49
1.0
 74
     0
 49
-1.0
 74
     0
 49
1.0
 74
     0
 49
-1.0
 74
     0
  0
LTYPE
  5
213
330
15
100
AcDbSymbolTableRecord
100
AcDbLinetypeTableRecord
  2
ACISOTGL
 70
     0
  3
_ _ _ _ _
 72
    65
 73
     2
 40
3.0
 49
2.0
 74
     0
 49
-1.0
 74
     0
  0
LTYPE
  5
214
330
15
100
AcDbSymbolTableRecord
100
AcDbLinetypeTableRecord
  2
CENTER
 70
     0
  3
__ . __
 72
    65
 73
     4
 40
7.0
 49
4.0
 74
     0
 49
-1.0
 74
     0
 49
1.0
 74
     0
 49
-1.0
 74
     0
  0
LTYPE
  5
2325
330
15
100
AcDbSymbolTableRecord
100
AcDbLinetypeTableRecord
  2
PHANTOM2
 70
     0
  3
Phantom (.5x) ___ _ _ ___ _ _ ___ _ _ ___ _ _
 72
    65
 73
     6
 40
31.75
 49
15.875
 74
     0
 49
-3.174999999999999
 74
     0
 49
3.174999999999999
 74
     0
 49
-3.174999999999999
 74
     0
 49
3.174999999999999
 74
     0
 49
-3.174999999999999
 74
     0
  0
ENDTAB
  0
TABLE
  2
LAYER
  5
11
102
{ACAD_XDICTIONARY
360
2434
102
}
330
0
100
AcDbSymbolTable
 70
     8
  0
LAYER
  5
5
330
11
100
AcDbSymbolTableRecord
100
AcDbLayerTableRecord
  2
0
 70
     0
 62
     7
  6
Continuous
370
    -3
390
6
  0
LAYER
  5
3B
330
11
100
AcDbSymbolTableRecord
100
AcDbLayerTableRecord
  2
Defpoints
 70
     0
 62
     7
  6
Continuous
290
     0
370
    -3
390
6
  0
LAYER
  5
14E
330
11
100
AcDbSymbolTableRecord
100
AcDbLayerTableRecord
  2
AM_5
 70
     0
 62
     5
  6
Continuous
370
    50
390
6
  0
LAYER
  5
158
330
11
100
AcDbSymbolTableRecord
100
AcDbLayerTableRecord
  2
AM_VIS
 70
     0
 62
     7
  6
Continuous
370
    50
390
6
  0
LAYER
  5
32
330
11
100
AcDbSymbolTableRecord
100
AcDbLayerTableRecord
  2
AM_PARDIM
 70
     0
 62
     5
  6
Continuous
370
    50
390
6
  0
LAYER
  5
BE
330
11
100
AcDbSymbolTableRecord
100
AcDbLayerTableRecord
  2
AM_7
 70
     0
 62
     1
  6
AM_ISO08W050
370
    25
390
6
  0
LAYER
  5
11A7
330
11
100
AcDbSymbolTableRecord
100
AcDbLayerTableRecord
  2
LOGO
 70
     0
 62
     7
  6
Continuous
370
    -3
390
6
  0
LAYER
  5
242D
330
11
100
AcDbSymbolTableRecord
100
AcDbLayerTableRecord
  2
AM_REFDIM
 70
     0
 62
     5
  6
Continuous
370
    25
390
6
  0
ENDTAB
  0
TABLE
  2
STYLE
  5
12
330
0
100
AcDbSymbolTable
 70
     5
  0
STYLE
  5
13
330
12
100
AcDbSymbolTableRecord
100
AcDbTextStyleTableRecord
  2
STANDARD
 70
     0
 40
0.0
 41
1.0
 50
0.0
 71
     0
 42
2.5
  3
ISOCP.SHX
  4
CHINESET.SHX
  0
STYLE
  5
152
330
12
100
AcDbSymbolTableRecord
100
AcDbTextStyleTableRecord
  2
ACISOTS
 70
     0
 40
1.0
 41
1.0
 50
0.0
 71
     0
 42
2.5
  3
isocp.shx
  4
chineset.shx
  0
STYLE
  5
203
330
12
100
AcDbSymbolTableRecord
100
AcDbTextStyleTableRecord
  2

 70
     1
 40
0.0
 41
1.0
 50
0.0
 71
     0
 42
2.5
  3
ltypeshp.shx
  4

  0
STYLE
  5
210
330
12
100
AcDbSymbolTableRecord
100
AcDbTextStyleTableRecord
  2
ACISOGDT
 70
     0
 40
0.0
 41
1.0
 50
0.0
 71
     0
 42
2.5
  3
amgdt.shx
  4

  0
STYLE
  5
356
330
12
100
AcDbSymbolTableRecord
100
AcDbTextStyleTableRecord
  2
CHINESET
 70
     0
 40
0.0
 41
1.0
 50
0.0
 71
     0
 42
2.5
  3
simplex.shx
  4
CHINESET.shx
  0
ENDTAB
  0
TABLE
  2
VIEW
  5
18
330
0
100
AcDbSymbolTable
 70
     0
  0
ENDTAB
  0
TABLE
  2
UCS
  5
19
330
0
100
AcDbSymbolTable
 70
     0
  0
ENDTAB
  0
TABLE
  2
APPID
  5
1C
330
0
100
AcDbSymbolTable
 70
    28
  0
APPID
  5
1D
330
1C
100
AcDbSymbolTableRecord
100
AcDbRegAppTableRecord
  2
ACAD
 70
     0
  0
APPID
  5
41
330
1C
100
AcDbSymbolTableRecord
100
AcDbRegAppTableRecord
  2
AD_SKETCHDIM
 70
     0
  0
APPID
  5
42
330
1C
100
AcDbSymbolTableRecord
100
AcDbRegAppTableRecord
  2
ACAD_DIMASSOC_DIMLFAC
 70
     0
  0
APPID
  5
40
330
1C
100
AcDbSymbolTableRecord
100
AcDbRegAppTableRecord
  2
ACAD_DIMASSOC_CALC_DIMLFAC
 70
     0
  0
APPID
  5
1DF
330
1C
100
AcDbSymbolTableRecord
100
AcDbRegAppTableRecord
  2
MCAD_NO_VIS
 70
     0
  0
APPID
  5
1E0
330
1C
100
AcDbSymbolTableRecord
100
AcDbRegAppTableRecord
  2
ACAD_TEMP_GRAPHIC
 70
     0
  0
APPID
  5
1F1
330
1C
100
AcDbSymbolTableRecord
100
AcDbRegAppTableRecord
  2
ACATTRIBSERVICES
 70
     0
  0
APPID
  5
CAF
330
1C
100
AcDbSymbolTableRecord
100
AcDbRegAppTableRecord
  2
GENIUS_GENODEF_13
 70
     0
  0
APPID
  5
CB0
330
1C
100
AcDbSymbolTableRecord
100
AcDbRegAppTableRecord
  2
GENIUS_GENOBJ-N-DIM_13
 70
     0
  0
APPID
  5
CBC
330
1C
100
AcDbSymbolTableRecord
100
AcDbRegAppTableRecord
  2
GENIUS_GENDIM_13
 70
     0
  0
APPID
  5
CDC
330
1C
100
AcDbSymbolTableRecord
100
AcDbRegAppTableRecord
  2
GENIUS_GENDIMSH_14
 70
     0
  0
APPID
  5
E3C
330
1C
100
AcDbSymbolTableRecord
100
AcDbRegAppTableRecord
  2
GENIUS_GENOBJ-N-HTC_13
 70
     0
  0
APPID
  5
E3D
330
1C
100
AcDbSymbolTableRecord
100
AcDbRegAppTableRecord
  2
GENIUS_GENHATCH_13
 70
     0
  0
APPID
  5
E59
330
1C
100
AcDbSymbolTableRecord
100
AcDbRegAppTableRecord
  2
DCO15
 70
     0
  0
APPID
  5
19D0
330
1C
100
AcDbSymbolTableRecord
100
AcDbRegAppTableRecord
  2
GENIUS_GENOREF_13
 70
     0
  0
APPID
  5
19D1
330
1C
100
AcDbSymbolTableRecord
100
AcDbRegAppTableRecord
  2
GENIUS_GENOENT_13
 70
     0
  0
APPID
  5
19D2
330
1C
100
AcDbSymbolTableRecord
100
AcDbRegAppTableRecord
  2
GENIUS_GENOLIS_13
 70
     0
  0
APPID
  5
19D3
330
1C
100
AcDbSymbolTableRecord
100
AcDbRegAppTableRecord
  2
GENIUS_GENOBJ-N-CRS_13
 70
     0
  0
APPID
  5
19D4
330
1C
100
AcDbSymbolTableRecord
100
AcDbRegAppTableRecord
  2
GENIUS_GENOBJ-N-CEN_13
 70
     0
  0
APPID
  5
2327
330
1C
100
AcDbSymbolTableRecord
100
AcDbRegAppTableRecord
  2
AD_DRAW
 70
     0
  0
APPID
  5
2345
330
1C
100
AcDbSymbolTableRecord
100
AcDbRegAppTableRecord
  2
DESIGNERASSEMBLIES
 70
     0
  0
APPID
  5
234A
330
1C
100
AcDbSymbolTableRecord
100
AcDbRegAppTableRecord
  2
ACADM_DIM_EDIT
 70
     0
  0
APPID
  5
234B
330
1C
100
AcDbSymbolTableRecord
100
AcDbRegAppTableRecord
  2
AMDT_DM_ADJ
 70
     0
  0
APPID
  5
2432
330
1C
100
AcDbSymbolTableRecord
100
AcDbRegAppTableRecord
  2
GENIUS_GENDTOL_13
 70
     0
  0
APPID
  5
2433
330
1C
100
AcDbSymbolTableRecord
100
AcDbRegAppTableRecord
  2
ACAD_PSEXT
 70
     0
  0
APPID
  5
2AA8
330
1C
100
AcDbSymbolTableRecord
100
AcDbRegAppTableRecord
  2
GENIUS_GENREC_14
 70
     0
  0
APPID
  5
2AA9
330
1C
100
AcDbSymbolTableRecord
100
AcDbRegAppTableRecord
  2
GENIUS_GENOBJ-N-REC_13
 70
     0
  0
APPID
  5
31C2
330
1C
100
AcDbSymbolTableRecord
100
AcDbRegAppTableRecord
  2
ACAD_DSTYLE_DIMTEXT_FILL
 70
     0
  0
ENDTAB
  0
TABLE
  2
DIMSTYLE
  5
1E
330
0
100
AcDbSymbolTable
 70
    10
100
AcDbDimStyleTable
 71
     2
340
11AA
340
1F
  0
DIMSTYLE
105
1F
330
1E
100
AcDbSymbolTableRecord
100
AcDbDimStyleTableRecord
  2
AM_ISO
 70
     0
  4
"
 40
0.7
 41
3.0
 42
1.0
 43
7.0
 44
1.0
 47
0.1
 48
0.1
 73
     0
 74
     0
 77
     1
 78
     8
 79
     2
140
3.5
141
0.0
143
0.0393701
146
0.71
147
1.0
172
     1
176
   256
177
   256
178
   256
271
     2
272
     2
283
     0
284
     8
340
13
371
    -1
372
    -1
  0
DIMSTYLE
105
217
102
{ACAD_REACTORS
330
350F
102
}
330
1E
100
AcDbSymbolTableRecord
100
AcDbDimStyleTableRecord
  2
AM_ISO$3
 70
     0
  4
"
 40
0.7
 41
3.0
 42
1.0
 43
7.0
 44
1.0
 47
0.1
 48
0.1
 73
     0
 77
     1
 78
     8
 79
     2
140
3.5
141
0.0
143
0.0393701
146
0.71
147
1.0
176
   256
177
   256
178
   256
271
     2
272
     2
283
     0
284
     8
288
     1
289
     0
340
13
371
    -1
372
    -1
  0
DIMSTYLE
105
218
330
1E
100
AcDbSymbolTableRecord
100
AcDbDimStyleTableRecord
  2
AM_ISO$4
 70
     0
  4
"
 40
0.7
 41
3.0
 42
1.0
 43
7.0
 44
1.0
 47
0.1
 48
0.1
 73
     0
 77
     1
 78
     8
 79
     2
140
3.5
141
0.0
143
0.0393701
146
0.71
147
1.0
176
   256
177
   256
178
   256
271
     2
272
     2
283
     0
284
     8
288
     1
289
     0
340
13
371
    -1
372
    -1
  0
DIMSTYLE
105
219
330
1E
100
AcDbSymbolTableRecord
100
AcDbDimStyleTableRecord
  2
AM_ISO$6
 70
     0
  4
"
 40
0.7
 41
3.0
 42
1.0
 43
7.0
 44
1.0
 47
0.1
 48
0.1
 73
     0
 74
     0
 78
     8
 79
     2
140
3.5
141
0.0
143
0.0393701
146
0.71
147
1.0
172
     1
176
   256
177
   256
178
   256
271
     2
272
     2
283
     0
284
     8
340
13
371
    -1
372
    -1
  0
DIMSTYLE
105
21A
330
1E
100
AcDbSymbolTableRecord
100
AcDbDimStyleTableRecord
  2
AM_ISO$7
 70
     0
  4
"
 40
0.7
 41
3.0
 42
1.0
 43
7.0
 44
1.0
 47
0.1
 48
0.1
 73
     0
 74
     0
 77
     1
 78
     8
 79
     2
140
3.5
141
0.0
143
0.0393701
146
0.71
147
1.0
172
     1
176
   256
177
   256
178
   256
271
     2
272
     2
283
     0
284
     8
340
13
371
    -1
372
    -1
  0
DIMSTYLE
105
21B
330
1E
100
AcDbSymbolTableRecord
100
AcDbDimStyleTableRecord
  2
AM_ISO$SF
 70
     0
  4
"
 41
3.0
 42
2.0
 43
5.0
 44
1.5
 47
0.1
 48
0.1
 73
     0
 74
     0
 75
     1
 76
     1
 77
     1
 78
     8
 79
     2
140
3.0
141
0.0
143
0.0393701
146
0.71
147
1.0
172
     1
176
   256
177
   256
178
     5
271
     2
272
     2
283
     0
284
     8
340
13
371
    -1
372
    -1
  0
DIMSTYLE
105
220
330
1E
100
AcDbSymbolTableRecord
100
AcDbDimStyleTableRecord
  2
AM_ISO$SH
 70
     0
  4
"
 41
3.0
 42
2.0
 43
5.0
 44
1.5
 47
0.1
 48
0.1
 73
     0
 74
     0
 75
     1
 76
     1
 77
     1
 78
     8
 79
     2
140
3.0
141
0.0
143
0.0393701
144
2.0
146
0.71
147
1.0
172
     1
173
     1
176
   256
177
   256
178
     5
271
     2
272
     2
283
     0
284
     8
340
13
341
21C
343
21C
371
    -1
372
    -1
  0
DIMSTYLE
105
11AA
102
{ACAD_REACTORS
330
26C8
102
}
330
1E
100
AcDbSymbolTableRecord
100
AcDbDimStyleTableRecord
  2
STANDARD
 70
     0
 40
0.7
 41
3.0
 42
1.0
 43
7.0
 44
1.0
 47
0.01
 48
0.01
 73
     0
 74
     0
 77
     1
 78
     8
 79
     2
140
3.5
141
0.0
146
0.6
147
1.0
172
     1
176
   256
177
   256
178
   256
271
     2
272
     2
284
     8
340
356
371
    -1
372
    -1
  0
DIMSTYLE
105
2431
102
{ACAD_REACTORS
330
31
330
43
330
52
330
5F
330
6C
330
79
330
86
330
95
330
A3
330
B0
330
34E1
102
}
330
1E
100
AcDbSymbolTableRecord
100
AcDbDimStyleTableRecord
  2
AM_ISO$0
 70
     0
  4
"
 40
0.7
 41
3.0
 42
1.0
 43
7.0
 44
1.0
 47
0.1
 48
0.1
 73
     0
 74
     0
 77
     1
 78
     8
 79
     2
140
3.5
141
0.0
143
0.0393701
146
0.71
147
1.0
172
     1
176
   256
177
   256
178
   256
271
     2
272
     2
283
     0
284
     8
340
13
371
    -1
372
    -1
  0
DIMSTYLE
105
3B45
102
{ACAD_REACTORS
330
26C8
330
319E
330
2FBD
330
3568
330
273F
330
37FE
330
26E3
330
36D1
330
3755
330
273E
330
3B49
330
3BBB
330
3D22
330
3CF6
330
3CD0
102
}
330
1E
100
AcDbSymbolTableRecord
100
AcDbDimStyleTableRecord
  2
STANDARD$0
 70
     0
 40
0.7
 41
3.0
 42
1.0
 43
7.0
 44
1.0
 47
0.01
 48
0.01
 73
     0
 74
     0
 77
     1
 78
     8
 79
     2
140
3.5
141
0.0
146
0.6
147
1.0
172
     1
176
   256
177
   256
178
   256
271
     2
272
     2
284
     8
340
356
371
    -1
372
    -1
  0
ENDTAB
  0
TABLE
  2
BLOCK_RECORD
  5
1
330
0
100
AcDbSymbolTable
 70
    29
  0
BLOCK_RECORD
  5
2
102
{ACAD_XDICTIONARY
360
3
102
}
330
1
100
AcDbSymbolTableRecord
100
AcDbBlockTableRecord
  2
*Model_Space
340
B
  0
BLOCK_RECORD
  5
D
102
{ACAD_XDICTIONARY
360
1848
102
}
330
1
100
AcDbSymbolTableRecord
100
AcDbBlockTableRecord
  2
*Paper_Space
340
10
  0
BLOCK_RECORD
  5
21C
330
1
100
AcDbSymbolTableRecord
100
AcDbBlockTableRecord
  2
GENAXEH
340
0
  0
BLOCK_RECORD
  5
F83
330
1
100
AcDbSymbolTableRecord
100
AcDbBlockTableRecord
  2
*D1
340
0
  0
BLOCK_RECORD
  5
F8F
330
1
100
AcDbSymbolTableRecord
100
AcDbBlockTableRecord
  2
*D2
340
0
  0
BLOCK_RECORD
  5
F9D
330
1
100
AcDbSymbolTableRecord
100
AcDbBlockTableRecord
  2
*D3
340
0
  0
BLOCK_RECORD
  5
FA9
330
1
100
AcDbSymbolTableRecord
100
AcDbBlockTableRecord
  2
*D4
340
0
  0
BLOCK_RECORD
  5
FB5
330
1
100
AcDbSymbolTableRecord
100
AcDbBlockTableRecord
  2
*D5
340
0
  0
BLOCK_RECORD
  5
FC1
330
1
100
AcDbSymbolTableRecord
100
AcDbBlockTableRecord
  2
*D6
340
0
  0
BLOCK_RECORD
  5
FCD
330
1
100
AcDbSymbolTableRecord
100
AcDbBlockTableRecord
  2
*D7
340
0
  0
BLOCK_RECORD
  5
FDB
330
1
100
AcDbSymbolTableRecord
100
AcDbBlockTableRecord
  2
*D8
340
0
  0
BLOCK_RECORD
  5
FE8
330
1
100
AcDbSymbolTableRecord
100
AcDbBlockTableRecord
  2
*D9
340
0
  0
BLOCK_RECORD
  5
FF4
330
1
100
AcDbSymbolTableRecord
100
AcDbBlockTableRecord
  2
*D10
340
0
  0
BLOCK_RECORD
  5
2955
330
1
100
AcDbSymbolTableRecord
100
AcDbBlockTableRecord
  2
*D11
340
0
  0
BLOCK_RECORD
  5
296D
330
1
100
AcDbSymbolTableRecord
100
AcDbBlockTableRecord
  2
*D12
340
0
  0
BLOCK_RECORD
  5
29F3
330
1
100
AcDbSymbolTableRecord
100
AcDbBlockTableRecord
  2
*D13
340
0
  0
BLOCK_RECORD
  5
2A01
330
1
100
AcDbSymbolTableRecord
100
AcDbBlockTableRecord
  2
*D14
340
0
  0
BLOCK_RECORD
  5
2FBE
330
1
100
AcDbSymbolTableRecord
100
AcDbBlockTableRecord
  2
*D15
340
0
  0
BLOCK_RECORD
  5
319F
330
1
100
AcDbSymbolTableRecord
100
AcDbBlockTableRecord
  2
*D16
340
0
  0
BLOCK_RECORD
  5
34E2
330
1
100
AcDbSymbolTableRecord
100
AcDbBlockTableRecord
  2
*D17
340
0
  0
BLOCK_RECORD
  5
3510
330
1
100
AcDbSymbolTableRecord
100
AcDbBlockTableRecord
  2
*D18
340
0
  0
BLOCK_RECORD
  5
3569
330
1
100
AcDbSymbolTableRecord
100
AcDbBlockTableRecord
  2
*D19
340
0
  0
BLOCK_RECORD
  5
36D2
330
1
100
AcDbSymbolTableRecord
100
AcDbBlockTableRecord
  2
*D20
340
0
  0
BLOCK_RECORD
  5
3756
330
1
100
AcDbSymbolTableRecord
100
AcDbBlockTableRecord
  2
*D21
340
0
  0
BLOCK_RECORD
  5
37FF
330
1
100
AcDbSymbolTableRecord
100
AcDbBlockTableRecord
  2
*D22
340
0
  0
BLOCK_RECORD
  5
3B4A
330
1
100
AcDbSymbolTableRecord
100
AcDbBlockTableRecord
  2
*D23
340
0
  0
BLOCK_RECORD
  5
3BBC
330
1
100
AcDbSymbolTableRecord
100
AcDbBlockTableRecord
  2
*D24
340
0
  0
BLOCK_RECORD
  5
3CD1
330
1
100
AcDbSymbolTableRecord
100
AcDbBlockTableRecord
  2
*D25
340
0
  0
BLOCK_RECORD
  5
3CF7
330
1
100
AcDbSymbolTableRecord
100
AcDbBlockTableRecord
  2
*D26
340
0
  0
BLOCK_RECORD
  5
3D23
330
1
100
AcDbSymbolTableRecord
100
AcDbBlockTableRecord
  2
*D27
340
0
  0
ENDTAB
  0
ENDSEC
  0
SECTION
  2
BLOCKS
  0
BLOCK
  5
4
330
2
100
AcDbEntity
  8
0
100
AcDbBlockBegin
  2
*Model_Space
 70
     0
 10
0.0
 20
0.0
 30
0.0
  3
*Model_Space
  1

  0
ENDBLK
  5
A
330
2
100
AcDbEntity
  8
0
100
AcDbBlockEnd
  0
BLOCK
  5
E
330
D
100
AcDbEntity
 67
     1
  8
0
100
AcDbBlockBegin
  2
*Paper_Space
 70
     0
 10
0.0
 20
0.0
 30
0.0
  3
*Paper_Space
  1

  0
ENDBLK
  5
F
330
D
100
AcDbEntity
 67
     1
  8
0
100
AcDbBlockEnd
  0
BLOCK
  5
21E
330
21C
100
AcDbEntity
  8
0
100
AcDbBlockBegin
  2
GENAXEH
 70
     0
 10
0.0
 20
0.0
 30
0.0
  3
GENAXEH
  1

  0
LINE
  5
21D
330
21C
100
AcDbEntity
  8
0
100
AcDbLine
 10
-1.0
 20
0.0
 30
0.0
 11
1.0
 21
0.0
 31
0.0
  0
ENDBLK
  5
21F
330
21C
100
AcDbEntity
  8
0
100
AcDbBlockEnd
  0
BLOCK
  5
F8D
330
F83
100
AcDbEntity
  8
0
100
AcDbBlockBegin
  2
*D1
 70
     1
 10
0.0
 20
0.0
 30
0.0
  3
*D1
  1

  0
LINE
  5
3475
330
F83
100
AcDbEntity
  8
AM_PARDIM
100
AcDbLine
 10
76.07464887656421
 20
116.1938113892625
 30
0.0
 11
115.2325708695175
 21
116.1938113892625
 31
0.0
  0
LINE
  5
3476
330
F83
100
AcDbEntity
  8
AM_PARDIM
100
AcDbLine
 10
76.07464887656421
 20
128.6938113892625
 30
0.0
 11
115.2325708695175
 21
128.6938113892625
 31
0.0
  0
LINE
  5
3477
330
F83
100
AcDbEntity
  8
AM_PARDIM
100
AcDbLine
 10
114.5325708695175
 20
118.2938113892624
 30
0.0
 11
114.5325708695175
 21
126.5938113892625
 31
0.0
  0
SOLID
  5
3478
330
F83
100
AcDbEntity
  8
AM_PARDIM
100
AcDbTrace
 10
114.1825708695175
 20
118.2938113892624
 30
0.0
 11
114.8825708695175
 21
118.2938113892624
 31
0.0
 12
114.5325708695175
 22
116.1938113892625
 32
0.0
 13
114.5325708695175
 23
116.1938113892625
 33
0.0
  0
SOLID
  5
3479
330
F83
100
AcDbEntity
  8
AM_PARDIM
100
AcDbTrace
 10
114.1825708695175
 20
126.5938113892625
 30
0.0
 11
114.8825708695175
 21
126.5938113892625
 31
0.0
 12
114.5325708695175
 22
128.6938113892625
 32
0.0
 13
114.5325708695175
 23
128.6938113892625
 33
0.0
  0
MTEXT
  5
347A
330
F83
100
AcDbEntity
  8
AM_PARDIM
100
AcDbMText
 10
112.6073297277852
 20
122.4438113892625
 30
0.0
 40
2.449999999999999
 41
0.0
 71
     5
 72
     1
  1
12.5
 11
0.0000000000000001
 21
1.0
 31
0.0
 73
     1
 44
1.0
1001
ACAD
1000
MTEXTBEGIN
1070
    73
1070
     1
1070
    44
1040
1.0
1070
    74
1070
     0
1000
MTEXTEND
  0
POINT
  5
347B
330
F83
100
AcDbEntity
  8
Defpoints
 62
     0
100
AcDbPoint
 10
75.37464887656421
 20
116.1938113892625
 30
0.0
  0
POINT
  5
347C
330
F83
100
AcDbEntity
  8
Defpoints
 62
     0
100
AcDbPoint
 10
75.37464887656421
 20
128.6938113892625
 30
0.0
  0
POINT
  5
347D
330
F83
100
AcDbEntity
  8
Defpoints
 62
     0
100
AcDbPoint
 10
114.5325708695175
 20
128.6938113892625
 30
0.0
  0
ENDBLK
  5
F8E
330
F83
100
AcDbEntity
  8
0
100
AcDbBlockEnd
  0
BLOCK
  5
F9B
330
F8F
100
AcDbEntity
  8
0
100
AcDbBlockBegin
  2
*D2
 70
     1
 10
0.0
 20
0.0
 30
0.0
  3
*D2
  1

  0
LINE
  5
347E
330
F8F
100
AcDbEntity
  8
AM_PARDIM
100
AcDbLine
 10
38.1746488765642
 20
116.1938113892625
 30
0.0
 11
26.17464887656421
 21
116.1938113892625
 31
0.0
  0
LINE
  5
347F
330
F8F
100
AcDbEntity
  8
AM_PARDIM
100
AcDbLine
 10
38.1746488765642
 20
122.1938113892625
 30
0.0
 11
26.17464887656421
 21
122.1938113892625
 31
0.0
  0
LINE
  5
3480
330
F8F
100
AcDbEntity
  8
AM_PARDIM
100
AcDbLine
 10
26.87464887656421
 20
118.2938113892625
 30
0.0
 11
26.87464887656421
 21
120.0938113892625
 31
0.0
  0
SOLID
  5
3481
330
F8F
100
AcDbEntity
  8
AM_PARDIM
100
AcDbTrace
 10
26.5246488765642
 20
118.2938113892625
 30
0.0
 11
27.22464887656421
 21
118.2938113892625
 31
0.0
 12
26.87464887656421
 22
116.1938113892625
 32
0.0
 13
26.87464887656421
 23
116.1938113892625
 33
0.0
  0
SOLID
  5
3482
330
F8F
100
AcDbEntity
  8
AM_PARDIM
100
AcDbTrace
 10
26.52464887656421
 20
120.0938113892625
 30
0.0
 11
27.22464887656421
 21
120.0938113892625
 31
0.0
 12
26.87464887656421
 22
122.1938113892625
 32
0.0
 13
26.87464887656421
 23
122.1938113892625
 33
0.0
  0
MTEXT
  5
3483
330
F8F
100
AcDbEntity
  8
AM_PARDIM
100
AcDbMText
 10
24.94964887656419
 20
119.1938113892625
 30
0.0
 40
2.449999999999999
 41
0.0
 71
     5
 72
     1
  1
6
 11
0.0000000000000001
 21
1.0
 31
0.0
 73
     1
 44
1.0
1001
ACAD
1000
MTEXTBEGIN
1070
    73
1070
     1
1070
    44
1040
1.0
1070
    74
1070
     0
1000
MTEXTEND
  0
POINT
  5
3484
330
F8F
100
AcDbEntity
  8
Defpoints
 62
     0
100
AcDbPoint
 10
38.87464887656421
 20
116.1938113892625
 30
0.0
  0
POINT
  5
3485
330
F8F
100
AcDbEntity
  8
Defpoints
 62
     0
100
AcDbPoint
 10
38.87464887656421
 20
122.1938113892625
 30
0.0
  0
POINT
  5
3486
330
F8F
100
AcDbEntity
  8
Defpoints
 62
     0
100
AcDbPoint
 10
26.87464887656421
 20
122.1938113892625
 30
0.0
  0
ENDBLK
  5
F9C
330
F8F
100
AcDbEntity
  8
0
100
AcDbBlockEnd
  0
BLOCK
  5
FA7
330
F9D
100
AcDbEntity
  8
0
100
AcDbBlockBegin
  2
*D3
 70
     1
 10
0.0
 20
0.0
 30
0.0
  3
*D3
  1

  0
LINE
  5
3487
330
F9D
100
AcDbEntity
  8
AM_PARDIM
100
AcDbLine
 10
38.87464887656421
 20
122.8938113892625
 30
0.0
 11
38.87464887656421
 21
141.3938113892625
 31
0.0
  0
LINE
  5
3488
330
F9D
100
AcDbEntity
  8
AM_PARDIM
100
AcDbLine
 10
50.87464887656421
 20
122.8938113892625
 30
0.0
 11
50.87464887656421
 21
141.3938113892625
 31
0.0
  0
LINE
  5
3489
330
F9D
100
AcDbEntity
  8
AM_PARDIM
100
AcDbLine
 10
40.9746488765642
 20
140.6938113892625
 30
0.0
 11
48.77464887656421
 21
140.6938113892625
 31
0.0
  0
SOLID
  5
348A
330
F9D
100
AcDbEntity
  8
AM_PARDIM
100
AcDbTrace
 10
40.9746488765642
 20
141.0438113892625
 30
0.0
 11
40.9746488765642
 21
140.3438113892625
 31
0.0
 12
38.87464887656421
 22
140.6938113892625
 32
0.0
 13
38.87464887656421
 23
140.6938113892625
 33
0.0
  0
SOLID
  5
348B
330
F9D
100
AcDbEntity
  8
AM_PARDIM
100
AcDbTrace
 10
48.77464887656421
 20
141.0438113892625
 30
0.0
 11
48.77464887656421
 21
140.3438113892625
 31
0.0
 12
50.87464887656421
 22
140.6938113892625
 32
0.0
 13
50.87464887656421
 23
140.6938113892625
 33
0.0
  0
MTEXT
  5
348C
330
F9D
100
AcDbEntity
  8
AM_PARDIM
100
AcDbMText
 10
44.87464887656421
 20
142.6190525309947
 30
0.0
 40
2.449999999999999
 41
0.0
 71
     5
 72
     1
  1
12
 73
     1
 44
1.0
1001
ACAD
1000
MTEXTBEGIN
1070
    73
1070
     1
1070
    44
1040
1.0
1070
    74
1070
     0
1000
MTEXTEND
  0
POINT
  5
348D
330
F9D
100
AcDbEntity
  8
Defpoints
 62
     0
100
AcDbPoint
 10
38.87464887656421
 20
122.1938113892625
 30
0.0
  0
POINT
  5
348E
330
F9D
100
AcDbEntity
  8
Defpoints
 62
     0
100
AcDbPoint
 10
50.87464887656421
 20
122.1938113892625
 30
0.0
  0
POINT
  5
348F
330
F9D
100
AcDbEntity
  8
Defpoints
 62
     0
100
AcDbPoint
 10
50.87464887656421
 20
140.6938113892625
 30
0.0
  0
ENDBLK
  5
FA8
330
F9D
100
AcDbEntity
  8
0
100
AcDbBlockEnd
  0
BLOCK
  5
FB3
330
FA9
100
AcDbEntity
  8
0
100
AcDbBlockBegin
  2
*D4
 70
     1
 10
0.0
 20
0.0
 30
0.0
  3
*D4
  1

  0
LINE
  5
3490
330
FA9
100
AcDbEntity
  8
AM_PARDIM
100
AcDbLine
 10
38.87464887656421
 20
116.8938113892625
 30
0.0
 11
38.87464887656421
 21
161.3938113892625
 31
0.0
  0
LINE
  5
3491
330
FA9
100
AcDbEntity
  8
AM_PARDIM
100
AcDbLine
 10
75.37464887656421
 20
116.8938113892625
 30
0.0
 11
75.37464887656421
 21
161.3938113892625
 31
0.0
  0
LINE
  5
3492
330
FA9
100
AcDbEntity
  8
AM_PARDIM
100
AcDbLine
 10
40.9746488765642
 20
160.6938113892625
 30
0.0
 11
73.27464887656422
 21
160.6938113892625
 31
0.0
  0
SOLID
  5
3493
330
FA9
100
AcDbEntity
  8
AM_PARDIM
100
AcDbTrace
 10
40.9746488765642
 20
161.0438113892625
 30
0.0
 11
40.9746488765642
 21
160.3438113892625
 31
0.0
 12
38.87464887656421
 22
160.6938113892625
 32
0.0
 13
38.87464887656421
 23
160.6938113892625
 33
0.0
  0
SOLID
  5
3494
330
FA9
100
AcDbEntity
  8
AM_PARDIM
100
AcDbTrace
 10
73.27464887656422
 20
161.0438113892625
 30
0.0
 11
73.27464887656422
 21
160.3438113892625
 31
0.0
 12
75.37464887656421
 22
160.6938113892625
 32
0.0
 13
75.37464887656421
 23
160.6938113892625
 33
0.0
  0
MTEXT
  5
3495
330
FA9
100
AcDbEntity
  8
AM_PARDIM
100
AcDbMText
 10
57.12464887656421
 20
162.6188113892625
 30
0.0
 40
2.449999999999999
 41
0.0
 71
     5
 72
     1
  1
36.5
 73
     1
 44
1.0
1001
ACAD
1000
MTEXTBEGIN
1070
    73
1070
     1
1070
    44
1040
1.0
1070
    74
1070
     0
1000
MTEXTEND
  0
POINT
  5
3496
330
FA9
100
AcDbEntity
  8
Defpoints
 62
     0
100
AcDbPoint
 10
38.87464887656421
 20
116.1938113892625
 30
0.0
  0
POINT
  5
3497
330
FA9
100
AcDbEntity
  8
Defpoints
 62
     0
100
AcDbPoint
 10
75.37464887656421
 20
116.1938113892625
 30
0.0
  0
POINT
  5
3498
330
FA9
100
AcDbEntity
  8
Defpoints
 62
     0
100
AcDbPoint
 10
75.37464887656421
 20
160.6938113892625
 30
0.0
  0
ENDBLK
  5
FB4
330
FA9
100
AcDbEntity
  8
0
100
AcDbBlockEnd
  0
BLOCK
  5
FBF
330
FB5
100
AcDbEntity
  8
0
100
AcDbBlockBegin
  2
*D5
 70
     1
 10
0.0
 20
0.0
 30
0.0
  3
*D5
  1

  0
LINE
  5
3499
330
FB5
100
AcDbEntity
  8
AM_PARDIM
100
AcDbLine
 10
51.57464887656421
 20
127.1938113892625
 30
0.0
 11
105.2325708695175
 21
127.1938113892625
 31
0.0
  0
LINE
  5
349A
330
FB5
100
AcDbEntity
  8
AM_PARDIM
100
AcDbLine
 10
76.07464887656421
 20
116.1938113892625
 30
0.0
 11
105.2325708695175
 21
116.1938113892625
 31
0.0
  0
LINE
  5
349B
330
FB5
100
AcDbEntity
  8
AM_PARDIM
100
AcDbLine
 10
104.5325708695175
 20
125.0938113892624
 30
0.0
 11
104.5325708695175
 21
118.2938113892624
 31
0.0
  0
SOLID
  5
349C
330
FB5
100
AcDbEntity
  8
AM_PARDIM
100
AcDbTrace
 10
104.1825708695175
 20
125.0938113892624
 30
0.0
 11
104.8825708695175
 21
125.0938113892624
 31
0.0
 12
104.5325708695175
 22
127.1938113892625
 32
0.0
 13
104.5325708695175
 23
127.1938113892625
 33
0.0
  0
SOLID
  5
349D
330
FB5
100
AcDbEntity
  8
AM_PARDIM
100
AcDbTrace
 10
104.1825708695175
 20
118.2938113892624
 30
0.0
 11
104.8825708695175
 21
118.2938113892624
 31
0.0
 12
104.5325708695175
 22
116.1938113892625
 32
0.0
 13
104.5325708695175
 23
116.1938113892625
 33
0.0
  0
MTEXT
  5
349E
330
FB5
100
AcDbEntity
  8
AM_PARDIM
100
AcDbMText
 10
102.6075708695175
 20
121.6938113892625
 30
0.0
 40
2.449999999999999
 41
0.0
 71
     5
 72
     1
  1
11
 11
0.0000000000000001
 21
1.0
 31
0.0
 73
     1
 44
1.0
1001
ACAD
1000
MTEXTBEGIN
1070
    73
1070
     1
1070
    44
1040
1.0
1070
    74
1070
     0
1000
MTEXTEND
  0
POINT
  5
349F
330
FB5
100
AcDbEntity
  8
Defpoints
 62
     0
100
AcDbPoint
 10
50.87464887656421
 20
127.1938113892625
 30
0.0
  0
POINT
  5
34A0
330
FB5
100
AcDbEntity
  8
Defpoints
 62
     0
100
AcDbPoint
 10
75.37464887656421
 20
116.1938113892625
 30
0.0
  0
POINT
  5
34A1
330
FB5
100
AcDbEntity
  8
Defpoints
 62
     0
100
AcDbPoint
 10
104.5325708695175
 20
116.1938113892625
 30
0.0
  0
ENDBLK
  5
FC0
330
FB5
100
AcDbEntity
  8
0
100
AcDbBlockEnd
  0
BLOCK
  5
FCB
330
FC1
100
AcDbEntity
  8
0
100
AcDbBlockBegin
  2
*D6
 70
     1
 10
0.0
 20
0.0
 30
0.0
  3
*D6
  1

  0
LINE
  5
34A2
330
FC1
100
AcDbEntity
  8
AM_PARDIM
100
AcDbLine
 10
66.3746488765642
 20
129.3938113892625
 30
0.0
 11
66.3746488765642
 21
151.3938113892625
 31
0.0
  0
LINE
  5
34A3
330
FC1
100
AcDbEntity
  8
AM_PARDIM
100
AcDbLine
 10
75.37464887656421
 20
129.3938113892625
 30
0.0
 11
75.37464887656421
 21
151.3938113892625
 31
0.0
  0
LINE
  5
34A4
330
FC1
100
AcDbEntity
  8
AM_PARDIM
100
AcDbLine
 10
68.4746488765642
 20
150.6938113892625
 30
0.0
 11
73.27464887656422
 21
150.6938113892625
 31
0.0
  0
SOLID
  5
34A5
330
FC1
100
AcDbEntity
  8
AM_PARDIM
100
AcDbTrace
 10
68.4746488765642
 20
151.0438113892625
 30
0.0
 11
68.4746488765642
 21
150.3438113892625
 31
0.0
 12
66.3746488765642
 22
150.6938113892625
 32
0.0
 13
66.3746488765642
 23
150.6938113892625
 33
0.0
  0
SOLID
  5
34A6
330
FC1
100
AcDbEntity
  8
AM_PARDIM
100
AcDbTrace
 10
73.27464887656422
 20
151.0438113892625
 30
0.0
 11
73.27464887656422
 21
150.3438113892625
 31
0.0
 12
75.37464887656421
 22
150.6938113892625
 32
0.0
 13
75.37464887656421
 23
150.6938113892625
 33
0.0
  0
MTEXT
  5
34A7
330
FC1
100
AcDbEntity
  8
AM_PARDIM
100
AcDbMText
 10
70.87464887656421
 20
152.6188113892625
 30
0.0
 40
2.449999999999999
 41
0.0
 71
     5
 72
     1
  1
9
 73
     1
 44
1.0
1001
ACAD
1000
MTEXTBEGIN
1070
    73
1070
     1
1070
    44
1040
1.0
1070
    74
1070
     0
1000
MTEXTEND
  0
POINT
  5
34A8
330
FC1
100
AcDbEntity
  8
Defpoints
 62
     0
100
AcDbPoint
 10
66.3746488765642
 20
128.6938113892625
 30
0.0
  0
POINT
  5
34A9
330
FC1
100
AcDbEntity
  8
Defpoints
 62
     0
100
AcDbPoint
 10
75.37464887656421
 20
128.6938113892625
 30
0.0
  0
POINT
  5
34AA
330
FC1
100
AcDbEntity
  8
Defpoints
 62
     0
100
AcDbPoint
 10
75.37464887656421
 20
150.6938113892625
 30
0.0
  0
ENDBLK
  5
FCC
330
FC1
100
AcDbEntity
  8
0
100
AcDbBlockEnd
  0
BLOCK
  5
FD9
330
FCD
100
AcDbEntity
  8
0
100
AcDbBlockBegin
  2
*D7
 70
     1
 10
0.0
 20
0.0
 30
0.0
  3
*D7
  1

  0
LINE
  5
34AB
330
FCD
100
AcDbEntity
  8
AM_PARDIM
100
AcDbLine
 10
63.87464887656418
 20
129.3938113892624
 30
0.0
 11
63.87464887656418
 21
141.3938113892625
 31
0.0
  0
LINE
  5
34AC
330
FCD
100
AcDbEntity
  8
AM_PARDIM
100
AcDbLine
 10
66.37464887656418
 20
129.3938113892624
 30
0.0
 11
66.37464887656418
 21
141.3938113892625
 31
0.0
  0
LINE
  5
34AD
330
FCD
100
AcDbEntity
  8
AM_PARDIM
100
AcDbLine
 10
61.77464887656418
 20
140.6938113892625
 30
0.0
 11
59.67464887656418
 21
140.6938113892625
 31
0.0
  0
LINE
  5
34AE
330
FCD
100
AcDbEntity
  8
AM_PARDIM
100
AcDbLine
 10
68.47464887656418
 20
140.6938113892625
 30
0.0
 11
75.56834576627472
 21
140.6938113892625
 31
0.0
  0
LINE
  5
34AF
330
FCD
100
AcDbEntity
  8
AM_PARDIM
100
AcDbLine
 10
63.87464887656418
 20
140.6938113892625
 30
0.0
 11
66.37464887656418
 21
140.6938113892625
 31
0.0
  0
SOLID
  5
34B0
330
FCD
100
AcDbEntity
  8
AM_PARDIM
100
AcDbTrace
 10
61.77464887656418
 20
141.0438113892625
 30
0.0
 11
61.77464887656418
 21
140.3438113892625
 31
0.0
 12
63.87464887656418
 22
140.6938113892625
 32
0.0
 13
63.87464887656418
 23
140.6938113892625
 33
0.0
  0
SOLID
  5
34B1
330
FCD
100
AcDbEntity
  8
AM_PARDIM
100
AcDbTrace
 10
68.47464887656418
 20
141.0438113892625
 30
0.0
 11
68.47464887656418
 21
140.3438113892625
 31
0.0
 12
66.37464887656418
 22
140.6938113892625
 32
0.0
 13
66.37464887656418
 23
140.6938113892625
 33
0.0
  0
MTEXT
  5
34B2
330
FCD
100
AcDbEntity
  8
AM_PARDIM
100
AcDbMText
 10
73.07149732141946
 20
142.6190525309947
 30
0.0
 40
2.449999999999999
 41
0.0
 71
     5
 72
     1
  1
2.5
 73
     1
 44
1.0
1001
ACAD
1000
MTEXTBEGIN
1070
    73
1070
     1
1070
    44
1040
1.0
1070
    74
1070
     0
1000
MTEXTEND
  0
POINT
  5
34B3
330
FCD
100
AcDbEntity
  8
Defpoints
 62
     0
100
AcDbPoint
 10
63.87464887656418
 20
128.6938113892624
 30
0.0
  0
POINT
  5
34B4
330
FCD
100
AcDbEntity
  8
Defpoints
 62
     0
100
AcDbPoint
 10
66.37464887656418
 20
128.6938113892624
 30
0.0
  0
POINT
  5
34B5
330
FCD
100
AcDbEntity
  8
Defpoints
 62
     0
100
AcDbPoint
 10
66.37464887656418
 20
140.6938113892625
 30
0.0
  0
ENDBLK
  5
FDA
330
FCD
100
AcDbEntity
  8
0
100
AcDbBlockEnd
  0
BLOCK
  5
FE6
330
FDB
100
AcDbEntity
  8
0
100
AcDbBlockBegin
  2
*D8
 70
     1
 10
0.0
 20
0.0
 30
0.0
  3
*D8
  1

  0
LINE
  5
34B6
330
FDB
100
AcDbEntity
  8
AM_PARDIM
100
AcDbLine
 10
66.37464887656418
 20
129.3938113892624
 30
0.0
 11
66.37464887656418
 21
136.730378563861
 31
0.0
  0
LINE
  5
34B7
330
FDB
100
AcDbEntity
  8
AM_PARDIM
100
AcDbLine
 10
66.37464887656418
 20
116.8938113892624
 30
0.0
 11
66.37464887656418
 21
136.730378563861
 31
0.0
  0
LINE
  5
34B8
330
FDB
100
AcDbEntity
  8
AM_PARDIM
100
AcDbLine
 10
64.27464887656419
 20
136.030378563861
 30
0.0
 11
62.17464887656418
 21
136.030378563861
 31
0.0
  0
LINE
  5
34B9
330
FDB
100
AcDbEntity
  8
AM_PARDIM
100
AcDbLine
 10
68.47464887656418
 20
136.030378563861
 30
0.0
 11
72.95850714428071
 21
136.030378563861
 31
0.0
  0
SOLID
  5
34BA
330
FDB
100
AcDbEntity
  8
AM_PARDIM
100
AcDbTrace
 10
64.27464887656419
 20
136.380378563861
 30
0.0
 11
64.27464887656419
 21
135.680378563861
 31
0.0
 12
66.37464887656418
 22
136.030378563861
 32
0.0
 13
66.37464887656418
 23
136.030378563861
 33
0.0
  0
SOLID
  5
34BB
330
FDB
100
AcDbEntity
  8
AM_PARDIM
100
AcDbTrace
 10
68.47464887656418
 20
136.380378563861
 30
0.0
 11
68.47464887656418
 21
135.680378563861
 31
0.0
 12
66.37464887656418
 22
136.030378563861
 32
0.0
 13
66.37464887656418
 23
136.030378563861
 33
0.0
  0
MTEXT
  5
34BC
330
FDB
100
AcDbEntity
  8
AM_PARDIM
100
AcDbMText
 10
71.76657801042245
 20
137.955378563861
 30
0.0
 40
2.449999999999999
 41
0.0
 71
     5
 72
     1
  1
0
 73
     1
 44
1.0
1001
ACAD
1000
MTEXTBEGIN
1070
    73
1070
     1
1070
    44
1040
1.0
1070
    74
1070
     0
1000
MTEXTEND
  0
POINT
  5
34BD
330
FDB
100
AcDbEntity
  8
Defpoints
 62
     0
100
AcDbPoint
 10
66.37464887656418
 20
128.6938113892624
 30
0.0
  0
POINT
  5
34BE
330
FDB
100
AcDbEntity
  8
Defpoints
 62
     0
100
AcDbPoint
 10
66.37464887656418
 20
116.1938113892624
 30
0.0
  0
POINT
  5
34BF
330
FDB
100
AcDbEntity
  8
Defpoints
 62
     0
100
AcDbPoint
 10
66.37464887656418
 20
136.030378563861
 30
0.0
  0
ENDBLK
  5
FE7
330
FDB
100
AcDbEntity
  8
0
100
AcDbBlockEnd
  0
BLOCK
  5
FF2
330
FE8
100
AcDbEntity
  8
0
100
AcDbBlockBegin
  2
*D9
 70
     1
 10
0.0
 20
0.0
 30
0.0
  3
*D9
  1

  0
LINE
  5
34C0
330
FE8
100
AcDbEntity
  8
AM_PARDIM
100
AcDbLine
 10
64.57464887656418
 20
125.6938113892624
 30
0.0
 11
95.23257086951755
 21
125.6938113892624
 31
0.0
  0
LINE
  5
34C1
330
FE8
100
AcDbEntity
  8
AM_PARDIM
100
AcDbLine
 10
83.23257086951754
 20
116.1938113892624
 30
0.0
 11
95.23257086951755
 21
116.1938113892624
 31
0.0
  0
LINE
  5
34C2
330
FE8
100
AcDbEntity
  8
AM_PARDIM
100
AcDbLine
 10
94.53257086951754
 20
123.5938113892624
 30
0.0
 11
94.53257086951754
 21
118.2938113892624
 31
0.0
  0
SOLID
  5
34C3
330
FE8
100
AcDbEntity
  8
AM_PARDIM
100
AcDbTrace
 10
94.18257086951754
 20
123.5938113892624
 30
0.0
 11
94.88257086951753
 21
123.5938113892624
 31
0.0
 12
94.53257086951754
 22
125.6938113892624
 32
0.0
 13
94.53257086951754
 23
125.6938113892624
 33
0.0
  0
SOLID
  5
34C4
330
FE8
100
AcDbEntity
  8
AM_PARDIM
100
AcDbTrace
 10
94.18257086951754
 20
118.2938113892624
 30
0.0
 11
94.88257086951753
 21
118.2938113892624
 31
0.0
 12
94.53257086951754
 22
116.1938113892624
 32
0.0
 13
94.53257086951754
 23
116.1938113892624
 33
0.0
  0
MTEXT
  5
34C5
330
FE8
100
AcDbEntity
  8
AM_PARDIM
100
AcDbMText
 10
92.60757086951754
 20
120.9438113892624
 30
0.0
 40
2.449999999999999
 41
0.0
 71
     5
 72
     1
  1
9.5
 11
0.0000000000000001
 21
1.0
 31
0.0
 73
     1
 44
1.0
1001
ACAD
1000
MTEXTBEGIN
1070
    73
1070
     1
1070
    44
1040
1.0
1070
    74
1070
     0
1000
MTEXTEND
  0
POINT
  5
34C6
330
FE8
100
AcDbEntity
  8
Defpoints
 62
     0
100
AcDbPoint
 10
63.87464887656418
 20
125.6938113892624
 30
0.0
  0
POINT
  5
34C7
330
FE8
100
AcDbEntity
  8
Defpoints
 62
     0
100
AcDbPoint
 10
82.53257086951753
 20
116.1938113892624
 30
0.0
  0
POINT
  5
34C8
330
FE8
100
AcDbEntity
  8
Defpoints
 62
     0
100
AcDbPoint
 10
94.53257086951754
 20
116.1938113892624
 30
0.0
  0
ENDBLK
  5
FF3
330
FE8
100
AcDbEntity
  8
0
100
AcDbBlockEnd
  0
BLOCK
  5
FFE
330
FF4
100
AcDbEntity
  8
0
100
AcDbBlockBegin
  2
*D10
 70
     1
 10
0.0
 20
0.0
 30
0.0
  3
*D10
  1

  0
LINE
  5
34C9
330
FF4
100
AcDbEntity
  8
AM_PARDIM
100
AcDbLine
 10
67.07464887656418
 20
128.6938113892624
 30
0.0
 11
125.2325708695175
 21
128.6938113892624
 31
0.0
  0
LINE
  5
34CA
330
FF4
100
AcDbEntity
  8
AM_PARDIM
100
AcDbLine
 10
83.23257086951754
 20
116.1938113892624
 30
0.0
 11
125.2325708695175
 21
116.1938113892624
 31
0.0
  0
LINE
  5
34CB
330
FF4
100
AcDbEntity
  8
AM_PARDIM
100
AcDbLine
 10
124.5325708695175
 20
126.5938113892624
 30
0.0
 11
124.5325708695175
 21
118.2938113892624
 31
0.0
  0
SOLID
  5
34CC
330
FF4
100
AcDbEntity
  8
AM_PARDIM
100
AcDbTrace
 10
124.1825708695175
 20
126.5938113892624
 30
0.0
 11
124.8825708695175
 21
126.5938113892624
 31
0.0
 12
124.5325708695175
 22
128.6938113892624
 32
0.0
 13
124.5325708695175
 23
128.6938113892624
 33
0.0
  0
SOLID
  5
34CD
330
FF4
100
AcDbEntity
  8
AM_PARDIM
100
AcDbTrace
 10
124.1825708695175
 20
118.2938113892624
 30
0.0
 11
124.8825708695175
 21
118.2938113892624
 31
0.0
 12
124.5325708695175
 22
116.1938113892624
 32
0.0
 13
124.5325708695175
 23
116.1938113892624
 33
0.0
  0
MTEXT
  5
34CE
330
FF4
100
AcDbEntity
  8
AM_PARDIM
100
AcDbMText
 10
122.6073297277852
 20
122.4438113892624
 30
0.0
 40
2.449999999999999
 41
0.0
 71
     5
 72
     1
  1
12.5
 11
0.0000000000000001
 21
1.0
 31
0.0
 73
     1
 44
1.0
1001
ACAD
1000
MTEXTBEGIN
1070
    73
1070
     1
1070
    44
1040
1.0
1070
    74
1070
     0
1000
MTEXTEND
  0
POINT
  5
34CF
330
FF4
100
AcDbEntity
  8
Defpoints
 62
     0
100
AcDbPoint
 10
66.37464887656418
 20
128.6938113892624
 30
0.0
  0
POINT
  5
34D0
330
FF4
100
AcDbEntity
  8
Defpoints
 62
     0
100
AcDbPoint
 10
82.53257086951753
 20
116.1938113892624
 30
0.0
  0
POINT
  5
34D1
330
FF4
100
AcDbEntity
  8
Defpoints
 62
     0
100
AcDbPoint
 10
124.5325708695175
 20
116.1938113892624
 30
0.0
  0
ENDBLK
  5
FFF
330
FF4
100
AcDbEntity
  8
0
100
AcDbBlockEnd
  0
BLOCK
  5
295F
330
2955
100
AcDbEntity
  8
0
100
AcDbBlockBegin
  2
*D11
 70
     1
 10
0.0
 20
0.0
 30
0.0
  3
*D11
  1

  0
LINE
  5
3C0F
330
2955
100
AcDbEntity
  8
AM_REFDIM
100
AcDbLine
 10
610.5730044742008
 20
-15.74713144678668
 30
0.0
 11
586.9232425694433
 21
-15.74713144678662
 31
0.0
  0
LINE
  5
3C10
330
2955
100
AcDbEntity
  8
AM_REFDIM
100
AcDbLine
 10
586.9232425694433
 20
-15.74713144678662
 30
0.0
 11
582.95099925638
 21
-9.225779711669702
 31
0.0
  0
LINE
  5
3C11
330
2955
100
AcDbEntity
  8
AM_REFDIM
100
AcDbLine
 10
579.8817761853212
 20
-4.186943562311284
 30
0.0
 11
578.7893408549443
 21
-2.393459509149863
 31
0.0
  0
MTEXT
  5
3C12
330
2955
100
AcDbEntity
  8
AM_REFDIM
100
AcDbMText
 10
599.6646711408674
 20
-13.82213144678668
 30
0.0
 40
2.449999999999999
 41
0.0
 71
     5
 72
     1
  1
\A1;2-\U+22051.7 thru
  7
CHINESET
 73
     1
 44
1.0
1001
ACAD
1000
MTEXTBEGIN
1070
    73
1070
     1
1070
    44
1040
1.0
1070
    74
1070
     0
1000
MTEXTEND
  0
LINE
  5
3C13
330
2955
100
AcDbEntity
  8
AM_REFDIM
100
AcDbLine
 10
580.9742115156979
 20
-5.980427615472706
 30
0.0
 11
581.8585639260032
 21
-7.43229565850828
 31
0.0
  0
SOLID
  5
3C14
330
2955
100
AcDbEntity
  8
AM_REFDIM
100
AcDbTrace
 10
580.1806901941814
 20
-4.004871007248482
 30
0.0
 11
579.5828621764609
 21
-4.369016117374144
 31
0.0
 12
580.9742115156979
 22
-5.980427615472706
 32
0.0
 13
580.9742115156979
 23
-5.980427615472706
 33
0.0
  0
SOLID
  5
3C15
330
2955
100
AcDbEntity
  8
AM_REFDIM
100
AcDbTrace
 10
583.2499132652404
 20
-9.043707156606899
 30
0.0
 11
582.6520852475198
 21
-9.407852266732561
 31
0.0
 12
581.8585639260032
 22
-7.43229565850828
 32
0.0
 13
581.8585639260032
 23
-7.43229565850828
 33
0.0
  0
POINT
  5
3C16
330
2955
100
AcDbEntity
  8
Defpoints
 62
     0
100
AcDbPoint
 10
581.8585639260032
 20
-7.43229565850828
 30
0.0
  0
POINT
  5
3C17
330
2955
100
AcDbEntity
  8
Defpoints
 62
     0
100
AcDbPoint
 10
580.9742115156979
 20
-5.980427615472706
 30
0.0
  0
ENDBLK
  5
2960
330
2955
100
AcDbEntity
  8
0
100
AcDbBlockEnd
  0
BLOCK
  5
2977
330
296D
100
AcDbEntity
  8
0
100
AcDbBlockBegin
  2
*D12
 70
     1
 10
0.0
 20
0.0
 30
0.0
  3
*D12
  1

  0
LINE
  5
3C6E
330
296D
100
AcDbEntity
  8
AM_REFDIM
100
AcDbLine
 10
574.3163877208505
 20
-2.406361636990522
 30
0.0
 11
574.3163877208505
 21
-16.38815807284375
 31
0.0
  0
LINE
  5
3C6F
330
296D
100
AcDbEntity
  8
AM_REFDIM
100
AcDbLine
 10
581.4163877208506
 20
-10.60636163699051
 30
0.0
 11
581.4163877208506
 21
-16.38815807284375
 31
0.0
  0
LINE
  5
3C70
330
296D
100
AcDbEntity
  8
AM_REFDIM
100
AcDbLine
 10
576.4163877208505
 20
-15.68815807284375
 30
0.0
 11
579.3163877208505
 21
-15.68815807284375
 31
0.0
  0
SOLID
  5
3C71
330
296D
100
AcDbEntity
  8
AM_REFDIM
100
AcDbTrace
 10
576.4163877208505
 20
-15.33815807284375
 30
0.0
 11
576.4163877208505
 21
-16.03815807284375
 31
0.0
 12
574.3163877208505
 22
-15.68815807284375
 32
0.0
 13
574.3163877208505
 23
-15.68815807284375
 33
0.0
  0
SOLID
  5
3C72
330
296D
100
AcDbEntity
  8
AM_REFDIM
100
AcDbTrace
 10
579.3163877208505
 20
-15.33815807284375
 30
0.0
 11
579.3163877208505
 21
-16.03815807284375
 31
0.0
 12
581.4163877208506
 22
-15.68815807284375
 32
0.0
 13
581.4163877208506
 23
-15.68815807284375
 33
0.0
  0
MTEXT
  5
3C73
330
296D
100
AcDbEntity
  8
AM_REFDIM
100
AcDbMText
 10
577.8663877208505
 20
-13.76315807284375
 30
0.0
 40
2.449999999999999
 41
0.0
 71
     5
 72
     1
  1
\A1;7.1
  7
CHINESET
 73
     1
 44
1.0
1001
ACAD
1000
MTEXTBEGIN
1070
    73
1070
     1
1070
    44
1040
1.0
1070
    74
1070
     0
1000
MTEXTEND
  0
POINT
  5
3C74
330
296D
100
AcDbEntity
  8
Defpoints
 62
     0
100
AcDbPoint
 10
574.3163877208505
 20
-1.706361636990521
 30
0.0
  0
POINT
  5
3C75
330
296D
100
AcDbEntity
  8
Defpoints
 62
     0
100
AcDbPoint
 10
581.4163877208506
 20
-9.90636163699051
 30
0.0
  0
POINT
  5
3C76
330
296D
100
AcDbEntity
  8
Defpoints
 62
     0
100
AcDbPoint
 10
581.4163877208506
 20
-15.68815807284375
 30
0.0
  0
ENDBLK
  5
2978
330
296D
100
AcDbEntity
  8
0
100
AcDbBlockEnd
  0
BLOCK
  5
29FF
330
29F3
100
AcDbEntity
  8
0
100
AcDbBlockBegin
  2
*D13
 70
     1
 10
0.0
 20
0.0
 30
0.0
  3
*D13
  1

  0
LINE
  5
3C77
330
29F3
100
AcDbEntity
  8
AM_REFDIM
100
AcDbLine
 10
576.1163877208506
 20
-98.60442119295861
 30
0.0
 11
576.1163877208506
 21
-107.7049211929586
 31
0.0
  0
LINE
  5
3C78
330
29F3
100
AcDbEntity
  8
AM_REFDIM
100
AcDbLine
 10
583.1163877208506
 20
-98.60442119295861
 30
0.0
 11
583.1163877208506
 21
-107.7049211929586
 31
0.0
  0
LINE
  5
3C79
330
29F3
100
AcDbEntity
  8
AM_REFDIM
100
AcDbLine
 10
578.2163877208506
 20
-107.0049211929586
 30
0.0
 11
581.0163877208506
 21
-107.0049211929586
 31
0.0
  0
SOLID
  5
3C7A
330
29F3
100
AcDbEntity
  8
AM_REFDIM
100
AcDbTrace
 10
578.2163877208506
 20
-106.6549211929586
 30
0.0
 11
578.2163877208506
 21
-107.3549211929586
 31
0.0
 12
576.1163877208506
 22
-107.0049211929586
 32
0.0
 13
576.1163877208506
 23
-107.0049211929586
 33
0.0
  0
SOLID
  5
3C7B
330
29F3
100
AcDbEntity
  8
AM_REFDIM
100
AcDbTrace
 10
581.0163877208506
 20
-106.6549211929586
 30
0.0
 11
581.0163877208506
 21
-107.3549211929586
 31
0.0
 12
583.1163877208506
 22
-107.0049211929586
 32
0.0
 13
583.1163877208506
 23
-107.0049211929586
 33
0.0
  0
MTEXT
  5
3C7C
330
29F3
100
AcDbEntity
  8
AM_REFDIM
100
AcDbMText
 10
579.6163877208506
 20
-105.0799211929586
 30
0.0
 40
2.449999999999999
 41
0.0
 71
     5
 72
     1
  1
\A1;7
  7
CHINESET
 73
     1
 44
1.0
1001
ACAD
1000
MTEXTBEGIN
1070
    73
1070
     1
1070
    44
1040
1.0
1070
    74
1070
     0
1000
MTEXTEND
  0
POINT
  5
3C7D
330
29F3
100
AcDbEntity
  8
Defpoints
 62
     0
100
AcDbPoint
 10
576.1163877208506
 20
-97.9044211929586
 30
0.0
  0
POINT
  5
3C7E
330
29F3
100
AcDbEntity
  8
Defpoints
 62
     0
100
AcDbPoint
 10
583.1163877208506
 20
-97.9044211929586
 30
0.0
  0
POINT
  5
3C7F
330
29F3
100
AcDbEntity
  8
Defpoints
 62
     0
100
AcDbPoint
 10
583.1163877208506
 20
-107.0049211929586
 30
0.0
  0
ENDBLK
  5
2A00
330
29F3
100
AcDbEntity
  8
0
100
AcDbBlockEnd
  0
BLOCK
  5
2A0B
330
2A01
100
AcDbEntity
  8
0
100
AcDbBlockBegin
  2
*D14
 70
     1
 10
0.0
 20
0.0
 30
0.0
  3
*D14
  1

  0
LINE
  5
3C80
330
2A01
100
AcDbEntity
  8
AM_REFDIM
100
AcDbLine
 10
641.3970170267385
 20
-60.39168407878349
 30
0.0
 11
634.240903934922
 21
-60.39168407878349
 31
0.0
  0
LINE
  5
3C81
330
2A01
100
AcDbEntity
  8
AM_REFDIM
100
AcDbLine
 10
641.8970170267384
 20
-32.89168407878356
 30
0.0
 11
634.240903934922
 21
-32.89168407878356
 31
0.0
  0
LINE
  5
3C82
330
2A01
100
AcDbEntity
  8
AM_REFDIM
100
AcDbLine
 10
634.940903934922
 20
-58.29168407878349
 30
0.0
 11
634.940903934922
 21
-34.99168407878356
 31
0.0
  0
SOLID
  5
3C83
330
2A01
100
AcDbEntity
  8
AM_REFDIM
100
AcDbTrace
 10
634.590903934922
 20
-58.29168407878349
 30
0.0
 11
635.2909039349221
 21
-58.29168407878349
 31
0.0
 12
634.940903934922
 22
-60.39168407878349
 32
0.0
 13
634.940903934922
 23
-60.39168407878349
 33
0.0
  0
SOLID
  5
3C84
330
2A01
100
AcDbEntity
  8
AM_REFDIM
100
AcDbTrace
 10
634.590903934922
 20
-34.99168407878356
 30
0.0
 11
635.2909039349221
 21
-34.99168407878356
 31
0.0
 12
634.940903934922
 22
-32.89168407878356
 32
0.0
 13
634.940903934922
 23
-32.89168407878356
 33
0.0
  0
MTEXT
  5
3C85
330
2A01
100
AcDbEntity
  8
AM_REFDIM
100
AcDbMText
 10
633.015903934922
 20
-46.64168407878341
 30
0.0
 40
2.449999999999999
 41
0.0
 71
     5
 72
     1
  1
\A1;27.5
  7
CHINESET
 11
0.0000000000000001
 21
1.0
 31
0.0
 73
     1
 44
1.0
1001
ACAD
1000
MTEXTBEGIN
1070
    73
1070
     1
1070
    44
1040
1.0
1070
    74
1070
     0
1000
MTEXTEND
  0
POINT
  5
3C86
330
2A01
100
AcDbEntity
  8
Defpoints
 62
     0
100
AcDbPoint
 10
642.0970170267385
 20
-60.39168407878349
 30
0.0
  0
POINT
  5
3C87
330
2A01
100
AcDbEntity
  8
Defpoints
 62
     0
100
AcDbPoint
 10
642.5970170267383
 20
-32.89168407878356
 30
0.0
  0
POINT
  5
3C88
330
2A01
100
AcDbEntity
  8
Defpoints
 62
     0
100
AcDbPoint
 10
634.940903934922
 20
-32.89168407878356
 30
0.0
  0
ENDBLK
  5
2A0C
330
2A01
100
AcDbEntity
  8
0
100
AcDbBlockEnd
  0
BLOCK
  5
2FCA
330
2FBE
100
AcDbEntity
  8
0
100
AcDbBlockBegin
  2
*D15
 70
     1
 10
0.0
 20
0.0
 30
0.0
  3
*D15
  1

  0
LINE
  5
3C89
330
2FBE
100
AcDbEntity
  8
AM_REFDIM
100
AcDbLine
 10
583.7163877208507
 20
-46.79168407878347
 30
0.0
 11
586.5037140006144
 21
-46.79168407878347
 31
0.0
  0
LINE
  5
3C8A
330
2FBE
100
AcDbEntity
  8
AM_REFDIM
100
AcDbLine
 10
583.7163877208507
 20
-45.39168407878349
 30
0.0
 11
586.5037140006144
 21
-45.39168407878349
 31
0.0
  0
LINE
  5
3C8B
330
2FBE
100
AcDbEntity
  8
AM_REFDIM
100
AcDbLine
 10
585.8037140006143
 20
-48.89168407878347
 30
0.0
 11
585.8037140006143
 21
-50.99168407878348
 31
0.0
  0
LINE
  5
3C8C
330
2FBE
100
AcDbEntity
  8
AM_REFDIM
100
AcDbLine
 10
585.8037140006143
 20
-43.29168407878349
 30
0.0
 11
585.8037140006143
 21
-35.00835074545018
 31
0.0
  0
LINE
  5
3C8D
330
2FBE
100
AcDbEntity
  8
AM_REFDIM
100
AcDbLine
 10
585.8037140006143
 20
-46.79168407878347
 30
0.0
 11
585.8037140006143
 21
-45.39168407878349
 31
0.0
  0
SOLID
  5
3C8E
330
2FBE
100
AcDbEntity
  8
AM_REFDIM
100
AcDbTrace
 10
585.4537140006143
 20
-48.89168407878347
 30
0.0
 11
586.1537140006143
 21
-48.89168407878347
 31
0.0
 12
585.8037140006143
 22
-46.79168407878347
 32
0.0
 13
585.8037140006143
 23
-46.79168407878347
 33
0.0
  0
SOLID
  5
3C8F
330
2FBE
100
AcDbEntity
  8
AM_REFDIM
100
AcDbTrace
 10
585.4537140006143
 20
-43.29168407878349
 30
0.0
 11
586.1537140006143
 21
-43.29168407878349
 31
0.0
 12
585.8037140006143
 22
-45.39168407878349
 32
0.0
 13
585.8037140006143
 23
-45.39168407878349
 33
0.0
  0
MTEXT
  5
3C90
330
2FBE
100
AcDbEntity
  8
AM_REFDIM
100
AcDbMText
 10
583.8787140006144
 20
-38.10001741211674
 30
0.0
 40
2.449999999999999
 41
0.0
 71
     5
 72
     1
  1
\A1;1.4
  7
CHINESET
 11
0.0000000000000001
 21
1.0
 31
0.0
 73
     1
 44
1.0
1001
ACAD
1000
MTEXTBEGIN
1070
    73
1070
     1
1070
    44
1040
1.0
1070
    74
1070
     0
1000
MTEXTEND
  0
POINT
  5
3C91
330
2FBE
100
AcDbEntity
  8
Defpoints
 62
     0
100
AcDbPoint
 10
583.0163877208506
 20
-46.79168407878347
 30
0.0
  0
POINT
  5
3C92
330
2FBE
100
AcDbEntity
  8
Defpoints
 62
     0
100
AcDbPoint
 10
583.0163877208506
 20
-45.39168407878349
 30
0.0
  0
POINT
  5
3C93
330
2FBE
100
AcDbEntity
  8
Defpoints
 62
     0
100
AcDbPoint
 10
585.8037140006143
 20
-45.39168407878349
 30
0.0
  0
ENDBLK
  5
2FCB
330
2FBE
100
AcDbEntity
  8
0
100
AcDbBlockEnd
  0
BLOCK
  5
31A9
330
319F
100
AcDbEntity
  8
0
100
AcDbBlockBegin
  2
*D16
 70
     1
 10
0.0
 20
0.0
 30
0.0
  3
*D16
  1

  0
LINE
  5
3C94
330
319F
100
AcDbEntity
  8
AM_REFDIM
100
AcDbLine
 10
548.8663877208506
 20
-61.09168407878356
 30
0.0
 11
548.8663877208506
 21
-68.47748728617883
 31
0.0
  0
LINE
  5
3C95
330
319F
100
AcDbEntity
  8
AM_REFDIM
100
AcDbLine
 10
610.3663877208506
 20
-61.09168407878356
 30
0.0
 11
610.3663877208506
 21
-68.47748728617883
 31
0.0
  0
LINE
  5
3C96
330
319F
100
AcDbEntity
  8
AM_REFDIM
100
AcDbLine
 10
550.9663877208506
 20
-67.77748728617883
 30
0.0
 11
608.2663877208505
 21
-67.77748728617883
 31
0.0
  0
SOLID
  5
3C97
330
319F
100
AcDbEntity
  8
AM_REFDIM
100
AcDbTrace
 10
550.9663877208506
 20
-67.42748728617883
 30
0.0
 11
550.9663877208506
 21
-68.12748728617882
 31
0.0
 12
548.8663877208506
 22
-67.77748728617883
 32
0.0
 13
548.8663877208506
 23
-67.77748728617883
 33
0.0
  0
SOLID
  5
3C98
330
319F
100
AcDbEntity
  8
AM_REFDIM
100
AcDbTrace
 10
608.2663877208505
 20
-67.42748728617883
 30
0.0
 11
608.2663877208505
 21
-68.12748728617882
 31
0.0
 12
610.3663877208506
 22
-67.77748728617883
 32
0.0
 13
610.3663877208506
 23
-67.77748728617883
 33
0.0
  0
MTEXT
  5
3C99
330
319F
100
AcDbEntity
  8
AM_REFDIM
100
AcDbMText
 10
579.6163877208506
 20
-65.85248728617883
 30
0.0
 40
2.449999999999999
 41
0.0
 71
     5
 72
     1
  1
\A1;61.5
  7
CHINESET
 73
     1
 44
1.0
1001
ACAD
1000
MTEXTBEGIN
1070
    73
1070
     1
1070
    44
1040
1.0
1070
    74
1070
     0
1000
MTEXTEND
  0
POINT
  5
3C9A
330
319F
100
AcDbEntity
  8
Defpoints
 62
     0
100
AcDbPoint
 10
548.8663877208506
 20
-60.39168407878356
 30
0.0
  0
POINT
  5
3C9B
330
319F
100
AcDbEntity
  8
Defpoints
 62
     0
100
AcDbPoint
 10
610.3663877208506
 20
-60.39168407878356
 30
0.0
  0
POINT
  5
3C9C
330
319F
100
AcDbEntity
  8
Defpoints
 62
     0
100
AcDbPoint
 10
610.3663877208506
 20
-67.77748728617883
 30
0.0
  0
ENDBLK
  5
31AA
330
319F
100
AcDbEntity
  8
0
100
AcDbBlockEnd
  0
BLOCK
  5
34EC
330
34E2
100
AcDbEntity
  8
0
100
AcDbBlockBegin
  2
*D17
 70
     1
 10
0.0
 20
0.0
 30
0.0
  3
*D17
  1

  0
LINE
  5
3823
330
34E2
100
AcDbEntity
  8
AM_5
100
AcDbLine
 10
585.3163877208507
 20
-6.706361636990521
 30
0.0
 11
628.7455869644095
 21
-6.706361636990534
 31
0.0
  0
LINE
  5
3824
330
34E2
100
AcDbEntity
  8
AM_5
100
AcDbLine
 10
578.2163877208506
 20
1.493638363009466
 30
0.0
 11
628.7455869644095
 21
1.493638363009452
 31
0.0
  0
LINE
  5
3825
330
34E2
100
AcDbEntity
  8
AM_5
100
AcDbLine
 10
628.0455869644095
 20
-4.606361636990534
 30
0.0
 11
628.0455869644095
 21
-0.6063616369905472
 31
0.0
  0
SOLID
  5
3826
330
34E2
100
AcDbEntity
  8
AM_5
100
AcDbTrace
 10
627.6955869644094
 20
-4.606361636990534
 30
0.0
 11
628.3955869644095
 21
-4.606361636990534
 31
0.0
 12
628.0455869644095
 22
-6.706361636990534
 32
0.0
 13
628.0455869644095
 23
-6.706361636990534
 33
0.0
  0
SOLID
  5
3827
330
34E2
100
AcDbEntity
  8
AM_5
100
AcDbTrace
 10
627.6955869644094
 20
-0.6063616369905471
 30
0.0
 11
628.3955869644095
 21
-0.6063616369905473
 31
0.0
 12
628.0455869644095
 22
1.493638363009452
 32
0.0
 13
628.0455869644095
 23
1.493638363009452
 33
0.0
  0
MTEXT
  5
3828
330
34E2
100
AcDbEntity
  8
AM_5
100
AcDbMText
 10
626.1203458226772
 20
-2.606361636990434
 30
0.0
 40
2.449999999999999
 41
0.0
 71
     5
 72
     1
  1
8.2
 11
0.0000000000000001
 21
1.0
 31
0.0
 73
     1
 44
1.0
1001
ACAD
1000
MTEXTBEGIN
1070
    73
1070
     1
1070
    44
1040
1.0
1070
    74
1070
     0
1000
MTEXTEND
  0
POINT
  5
3829
330
34E2
100
AcDbEntity
  8
Defpoints
 62
     0
100
AcDbPoint
 10
584.6163877208506
 20
-6.706361636990521
 30
0.0
  0
POINT
  5
382A
330
34E2
100
AcDbEntity
  8
Defpoints
 62
     0
100
AcDbPoint
 10
577.5163877208505
 20
1.493638363009466
 30
0.0
  0
POINT
  5
382B
330
34E2
100
AcDbEntity
  8
Defpoints
 62
     0
100
AcDbPoint
 10
628.0455869644095
 20
1.493638363009452
 30
0.0
  0
ENDBLK
  5
34ED
330
34E2
100
AcDbEntity
  8
0
100
AcDbBlockEnd
  0
BLOCK
  5
3519
330
3510
100
AcDbEntity
  8
0
100
AcDbBlockBegin
  2
*D18
 70
     1
 10
0.0
 20
0.0
 30
0.0
  3
*D18
  1

  0
LINE
  5
39AE
330
3510
100
AcDbEntity
  8
AM_REFDIM
100
AcDbLine
 10
582.605447625473
 20
1.488398704093697
 30
0.0
 11
589.7422289991309
 21
6.489919938715388
 31
0.0
  0
LINE
  5
39AF
330
3510
100
AcDbEntity
  8
AM_REFDIM
100
AcDbLine
 10
589.7422289991309
 20
6.489919938715388
 30
0.0
 11
603.0387113219124
 21
6.489919938715445
 31
0.0
  0
SOLID
  5
39B0
330
3510
100
AcDbEntity
  8
AM_REFDIM
100
AcDbTrace
 10
582.4045801955061
 20
1.775020886728725
 30
0.0
 11
582.8063150554401
 21
1.201776521458612
 31
0.0
 12
580.885714529663
 22
0.2831941242918106
 32
0.0
 13
580.885714529663
 23
0.2831941242918106
 33
0.0
  0
MTEXT
  5
39B1
330
3510
100
AcDbEntity
  8
AM_REFDIM
100
AcDbMText
 10
596.7404701605216
 20
8.414919938715218
 30
0.0
 40
2.449999999999999
 41
0.0
 71
     5
 72
     1
  1
3-M3*0.5
 73
     1
 44
1.0
1001
ACAD
1000
MTEXTBEGIN
1070
    73
1070
     1
1070
    44
1040
1.0
1070
    74
1070
     0
1000
MTEXTEND
  0
POINT
  5
39B2
330
3510
100
AcDbEntity
  8
Defpoints
 62
     0
100
AcDbPoint
 10
580.885714529663
 20
0.2831941242918106
 30
0.0
  0
POINT
  5
39B3
330
3510
100
AcDbEntity
  8
Defpoints
 62
     0
100
AcDbPoint
 10
578.3470609120383
 20
-1.495917398272581
 30
0.0
  0
ENDBLK
  5
351A
330
3510
100
AcDbEntity
  8
0
100
AcDbBlockEnd
  0
BLOCK
  5
3573
330
3569
100
AcDbEntity
  8
0
100
AcDbBlockBegin
  2
*D19
 70
     1
 10
0.0
 20
0.0
 30
0.0
  3
*D19
  1

  0
LINE
  5
3C9D
330
3569
100
AcDbEntity
  8
AM_REFDIM
100
AcDbLine
 10
611.0663877208507
 20
-60.39168407878356
 30
0.0
 11
626.8943401190888
 21
-60.39168407878356
 31
0.0
  0
LINE
  5
3C9E
330
3569
100
AcDbEntity
  8
AM_REFDIM
100
AcDbLine
 10
598.0663877208506
 20
-45.39168407878356
 30
0.0
 11
626.8943401190888
 21
-45.39168407878356
 31
0.0
  0
LINE
  5
3C9F
330
3569
100
AcDbEntity
  8
AM_REFDIM
100
AcDbLine
 10
626.1943401190888
 20
-58.29168407878356
 30
0.0
 11
626.1943401190888
 21
-47.49168407878356
 31
0.0
  0
SOLID
  5
3CA0
330
3569
100
AcDbEntity
  8
AM_REFDIM
100
AcDbTrace
 10
625.8443401190888
 20
-58.29168407878356
 30
0.0
 11
626.5443401190887
 21
-58.29168407878356
 31
0.0
 12
626.1943401190888
 22
-60.39168407878356
 32
0.0
 13
626.1943401190888
 23
-60.39168407878356
 33
0.0
  0
SOLID
  5
3CA1
330
3569
100
AcDbEntity
  8
AM_REFDIM
100
AcDbTrace
 10
625.8443401190888
 20
-47.49168407878356
 30
0.0
 11
626.5443401190887
 21
-47.49168407878356
 31
0.0
 12
626.1943401190888
 22
-45.39168407878356
 32
0.0
 13
626.1943401190888
 23
-45.39168407878356
 33
0.0
  0
MTEXT
  5
3CA2
330
3569
100
AcDbEntity
  8
AM_REFDIM
100
AcDbMText
 10
624.2693401190888
 20
-52.89168407878346
 30
0.0
 40
2.449999999999999
 41
0.0
 71
     5
 72
     1
  1
\A1;15
  7
CHINESET
 11
0.0000000000000001
 21
1.0
 31
0.0
 73
     1
 44
1.0
1001
ACAD
1000
MTEXTBEGIN
1070
    73
1070
     1
1070
    44
1040
1.0
1070
    74
1070
     0
1000
MTEXTEND
  0
POINT
  5
3CA3
330
3569
100
AcDbEntity
  8
Defpoints
 62
     0
100
AcDbPoint
 10
610.3663877208506
 20
-60.39168407878356
 30
0.0
  0
POINT
  5
3CA4
330
3569
100
AcDbEntity
  8
Defpoints
 62
     0
100
AcDbPoint
 10
597.3663877208506
 20
-45.39168407878356
 30
0.0
  0
POINT
  5
3CA5
330
3569
100
AcDbEntity
  8
Defpoints
 62
     0
100
AcDbPoint
 10
626.1943401190888
 20
-45.39168407878356
 30
0.0
  0
ENDBLK
  5
3574
330
3569
100
AcDbEntity
  8
0
100
AcDbBlockEnd
  0
BLOCK
  5
36DC
330
36D2
100
AcDbEntity
  8
0
100
AcDbBlockBegin
  2
*D20
 70
     1
 10
0.0
 20
0.0
 30
0.0
  3
*D20
  1

  0
LINE
  5
3DFC
330
36D2
100
AcDbEntity
  8
AM_REFDIM
100
AcDbLine
 10
539.3663877208506
 20
-42.69168407878355
 30
0.0
 11
539.3663877208506
 21
-75.4774872861788
 31
0.0
  0
LINE
  5
3DFD
330
36D2
100
AcDbEntity
  8
AM_REFDIM
100
AcDbLine
 10
619.8663877208506
 20
-42.69168407878355
 30
0.0
 11
619.8663877208506
 21
-43.64168407878356
 31
0.0
  0
LINE
  5
3DFE
330
36D2
100
AcDbEntity
  8
AM_REFDIM
100
AcDbLine
 10
541.4663877208506
 20
-74.77748728617879
 30
0.0
 11
617.7663877208506
 21
-74.77748728617879
 31
0.0
  0
SOLID
  5
3DFF
330
36D2
100
AcDbEntity
  8
AM_REFDIM
100
AcDbTrace
 10
541.4663877208506
 20
-74.4274872861788
 30
0.0
 11
541.4663877208506
 21
-75.12748728617879
 31
0.0
 12
539.3663877208506
 22
-74.77748728617879
 32
0.0
 13
539.3663877208506
 23
-74.77748728617879
 33
0.0
  0
SOLID
  5
3E00
330
36D2
100
AcDbEntity
  8
AM_REFDIM
100
AcDbTrace
 10
617.7663877208506
 20
-74.4274872861788
 30
0.0
 11
617.7663877208506
 21
-75.12748728617879
 31
0.0
 12
619.8663877208506
 22
-74.77748728617879
 32
0.0
 13
619.8663877208506
 23
-74.77748728617879
 33
0.0
  0
MTEXT
  5
3E01
330
36D2
100
AcDbEntity
  8
AM_REFDIM
100
AcDbMText
 10
579.6163877208506
 20
-72.85248728617879
 30
0.0
 40
2.449999999999999
 41
0.0
 71
     5
 72
     1
  1
\A1;80.5
  7
CHINESET
 73
     1
 44
1.0
1001
ACAD
1000
MTEXTBEGIN
1070
    73
1070
     1
1070
    44
1040
1.0
1070
    74
1070
     0
1000
MTEXTEND
  0
POINT
  5
3E02
330
36D2
100
AcDbEntity
  8
Defpoints
 62
     0
100
AcDbPoint
 10
539.3663877208506
 20
-41.99168407878355
 30
0.0
  0
POINT
  5
3E03
330
36D2
100
AcDbEntity
  8
Defpoints
 62
     0
100
AcDbPoint
 10
619.8663877208506
 20
-41.99168407878355
 30
0.0
  0
POINT
  5
3E04
330
36D2
100
AcDbEntity
  8
Defpoints
 62
     0
100
AcDbPoint
 10
619.8663877208506
 20
-74.77748728617879
 30
0.0
  0
LINE
  5
3E05
330
36D2
100
AcDbEntity
  8
AM_REFDIM
100
AcDbLine
 10
619.8663877208506
 20
-62.14168407878355
 30
0.0
 11
619.8663877208506
 21
-75.4774872861788
 31
0.0
  0
LINE
  5
3E06
330
36D2
100
AcDbEntity
  8
AM_REFDIM
100
AcDbLine
 10
619.8663877208506
 20
-47.14168407878356
 30
0.0
 11
619.8663877208506
 21
-58.64168407878356
 31
0.0
  0
ENDBLK
  5
36DD
330
36D2
100
AcDbEntity
  8
0
100
AcDbBlockEnd
  0
BLOCK
  5
3760
330
3756
100
AcDbEntity
  8
0
100
AcDbBlockBegin
  2
*D21
 70
     1
 10
0.0
 20
0.0
 30
0.0
  3
*D21
  1

  0
LINE
  5
3CAF
330
3756
100
AcDbEntity
  8
AM_REFDIM
100
AcDbLine
 10
583.1163877208506
 20
-98.60442119295861
 30
0.0
 11
583.1163877208506
 21
-107.7049211929586
 31
0.0
  0
LINE
  5
3CB0
330
3756
100
AcDbEntity
  8
AM_REFDIM
100
AcDbLine
 10
619.8663877208506
 20
-98.85492119295852
 30
0.0
 11
619.8663877208506
 21
-107.7049211929586
 31
0.0
  0
LINE
  5
3CB1
330
3756
100
AcDbEntity
  8
AM_REFDIM
100
AcDbLine
 10
585.2163877208506
 20
-107.0049211929586
 30
0.0
 11
617.7663877208506
 21
-107.0049211929586
 31
0.0
  0
SOLID
  5
3CB2
330
3756
100
AcDbEntity
  8
AM_REFDIM
100
AcDbTrace
 10
585.2163877208506
 20
-106.6549211929586
 30
0.0
 11
585.2163877208506
 21
-107.3549211929586
 31
0.0
 12
583.1163877208506
 22
-107.0049211929586
 32
0.0
 13
583.1163877208506
 23
-107.0049211929586
 33
0.0
  0
SOLID
  5
3CB3
330
3756
100
AcDbEntity
  8
AM_REFDIM
100
AcDbTrace
 10
617.7663877208506
 20
-106.6549211929586
 30
0.0
 11
617.7663877208506
 21
-107.3549211929586
 31
0.0
 12
619.8663877208506
 22
-107.0049211929586
 32
0.0
 13
619.8663877208506
 23
-107.0049211929586
 33
0.0
  0
MTEXT
  5
3CB4
330
3756
100
AcDbEntity
  8
AM_REFDIM
100
AcDbMText
 10
601.4913877208506
 20
-105.0799211929586
 30
0.0
 40
2.449999999999999
 41
0.0
 71
     5
 72
     1
  1
\A1;36.75
  7
CHINESET
 73
     1
 44
1.0
1001
ACAD
1000
MTEXTBEGIN
1070
    73
1070
     1
1070
    44
1040
1.0
1070
    74
1070
     0
1000
MTEXTEND
  0
POINT
  5
3CB5
330
3756
100
AcDbEntity
  8
Defpoints
 62
     0
100
AcDbPoint
 10
583.1163877208506
 20
-97.9044211929586
 30
0.0
  0
POINT
  5
3CB6
330
3756
100
AcDbEntity
  8
Defpoints
 62
     0
100
AcDbPoint
 10
619.8663877208506
 20
-98.15492119295852
 30
0.0
  0
POINT
  5
3CB7
330
3756
100
AcDbEntity
  8
Defpoints
 62
     0
100
AcDbPoint
 10
619.8663877208506
 20
-107.0049211929586
 30
0.0
  0
ENDBLK
  5
3761
330
3756
100
AcDbEntity
  8
0
100
AcDbBlockEnd
  0
BLOCK
  5
3809
330
37FF
100
AcDbEntity
  8
0
100
AcDbBlockBegin
  2
*D22
 70
     1
 10
0.0
 20
0.0
 30
0.0
  3
*D22
  1

  0
LINE
  5
3CB8
330
37FF
100
AcDbEntity
  8
AM_REFDIM
100
AcDbLine
 10
539.3663877208506
 20
1.243638363009335
 30
0.0
 11
539.3663877208506
 21
10.75161917339569
 31
0.0
  0
LINE
  5
3CB9
330
37FF
100
AcDbEntity
  8
AM_REFDIM
100
AcDbLine
 10
574.3163877208505
 20
5.393638363009455
 30
0.0
 11
574.3163877208505
 21
10.75161917339569
 31
0.0
  0
LINE
  5
3CBA
330
37FF
100
AcDbEntity
  8
AM_REFDIM
100
AcDbLine
 10
541.4663877208506
 20
10.05161917339569
 30
0.0
 11
572.2163877208505
 21
10.05161917339569
 31
0.0
  0
SOLID
  5
3CBB
330
37FF
100
AcDbEntity
  8
AM_REFDIM
100
AcDbTrace
 10
541.4663877208506
 20
10.40161917339569
 30
0.0
 11
541.4663877208506
 21
9.701619173395693
 31
0.0
 12
539.3663877208506
 22
10.05161917339569
 32
0.0
 13
539.3663877208506
 23
10.05161917339569
 33
0.0
  0
SOLID
  5
3CBC
330
37FF
100
AcDbEntity
  8
AM_REFDIM
100
AcDbTrace
 10
572.2163877208505
 20
10.40161917339569
 30
0.0
 11
572.2163877208505
 21
9.701619173395693
 31
0.0
 12
574.3163877208505
 22
10.05161917339569
 32
0.0
 13
574.3163877208505
 23
10.05161917339569
 33
0.0
  0
MTEXT
  5
3CBD
330
37FF
100
AcDbEntity
  8
AM_REFDIM
100
AcDbMText
 10
556.8413877208506
 20
11.97661917339569
 30
0.0
 40
2.449999999999999
 41
0.0
 71
     5
 72
     1
  1
\A1;34.95
  7
CHINESET
 73
     1
 44
1.0
1001
ACAD
1000
MTEXTBEGIN
1070
    73
1070
     1
1070
    44
1040
1.0
1070
    74
1070
     0
1000
MTEXTEND
  0
POINT
  5
3CBE
330
37FF
100
AcDbEntity
  8
Defpoints
 62
     0
100
AcDbPoint
 10
539.3663877208506
 20
0.543638363009336
 30
0.0
  0
POINT
  5
3CBF
330
37FF
100
AcDbEntity
  8
Defpoints
 62
     0
100
AcDbPoint
 10
574.3163877208505
 20
4.693638363009455
 30
0.0
  0
POINT
  5
3CC0
330
37FF
100
AcDbEntity
  8
Defpoints
 62
     0
100
AcDbPoint
 10
574.3163877208505
 20
10.05161917339569
 30
0.0
  0
ENDBLK
  5
380A
330
37FF
100
AcDbEntity
  8
0
100
AcDbBlockEnd
  0
BLOCK
  5
3B56
330
3B4A
100
AcDbEntity
  8
0
100
AcDbBlockBegin
  2
*D23
 70
     1
 10
0.0
 20
0.0
 30
0.0
  3
*D23
  1

  0
LINE
  5
3BFB
330
3B4A
100
AcDbEntity
  8
AM_REFDIM
100
AcDbLine
 10
574.3163877208505
 20
5.393638363009455
 30
0.0
 11
574.3163877208505
 21
10.75161917339569
 31
0.0
  0
LINE
  5
3BFC
330
3B4A
100
AcDbEntity
  8
AM_REFDIM
100
AcDbLine
 10
579.6163877208506
 20
2.943638363009466
 30
0.0
 11
579.6163877208506
 21
10.75161917339569
 31
0.0
  0
LINE
  5
3BFD
330
3B4A
100
AcDbEntity
  8
AM_REFDIM
100
AcDbLine
 10
572.2163877208505
 20
10.05161917339569
 30
0.0
 11
570.1163877208505
 21
10.05161917339569
 31
0.0
  0
LINE
  5
3BFE
330
3B4A
100
AcDbEntity
  8
AM_REFDIM
100
AcDbLine
 10
581.7163877208506
 20
10.05161917339569
 30
0.0
 11
583.8163877208507
 21
10.05161917339569
 31
0.0
  0
LINE
  5
3BFF
330
3B4A
100
AcDbEntity
  8
AM_REFDIM
100
AcDbLine
 10
574.3163877208505
 20
10.05161917339569
 30
0.0
 11
579.6163877208506
 21
10.05161917339569
 31
0.0
  0
SOLID
  5
3C00
330
3B4A
100
AcDbEntity
  8
AM_REFDIM
100
AcDbTrace
 10
572.2163877208505
 20
10.40161917339569
 30
0.0
 11
572.2163877208505
 21
9.701619173395693
 31
0.0
 12
574.3163877208505
 22
10.05161917339569
 32
0.0
 13
574.3163877208505
 23
10.05161917339569
 33
0.0
  0
SOLID
  5
3C01
330
3B4A
100
AcDbEntity
  8
AM_REFDIM
100
AcDbTrace
 10
581.7163877208506
 20
10.40161917339569
 30
0.0
 11
581.7163877208506
 21
9.701619173395693
 31
0.0
 12
579.6163877208506
 22
10.05161917339569
 32
0.0
 13
579.6163877208506
 23
10.05161917339569
 33
0.0
  0
MTEXT
  5
3C02
330
3B4A
100
AcDbEntity
  8
AM_REFDIM
100
AcDbMText
 10
576.9663877208507
 20
11.97661917339569
 30
0.0
 40
2.449999999999999
 41
0.0
 71
     5
 72
     1
  1
\A1;5.3
  7
CHINESET
 73
     1
 44
1.0
1001
ACAD
1000
MTEXTBEGIN
1070
    73
1070
     1
1070
    44
1040
1.0
1070
    74
1070
     0
1000
MTEXTEND
  0
POINT
  5
3C03
330
3B4A
100
AcDbEntity
  8
Defpoints
 62
     0
100
AcDbPoint
 10
574.3163877208505
 20
4.693638363009455
 30
0.0
  0
POINT
  5
3C04
330
3B4A
100
AcDbEntity
  8
Defpoints
 62
     0
100
AcDbPoint
 10
579.6163877208506
 20
2.243638363009466
 30
0.0
  0
POINT
  5
3C05
330
3B4A
100
AcDbEntity
  8
Defpoints
 62
     0
100
AcDbPoint
 10
579.6163877208506
 20
10.05161917339569
 30
0.0
  0
ENDBLK
  5
3B57
330
3B4A
100
AcDbEntity
  8
0
100
AcDbBlockEnd
  0
BLOCK
  5
3BC6
330
3BBC
100
AcDbEntity
  8
0
100
AcDbBlockBegin
  2
*D24
 70
     1
 10
0.0
 20
0.0
 30
0.0
  3
*D24
  1

  0
LINE
  5
3C06
330
3BBC
100
AcDbEntity
  8
AM_REFDIM
100
AcDbLine
 10
573.1163877208505
 20
-100.5049211929586
 30
0.0
 11
534.1704836367151
 21
-100.5049211929585
 31
0.0
  0
LINE
  5
3C07
330
3BBC
100
AcDbEntity
  8
AM_REFDIM
100
AcDbLine
 10
580.2163877208506
 20
-89.50492119295859
 30
0.0
 11
534.1704836367151
 21
-89.50492119295857
 31
0.0
  0
LINE
  5
3C08
330
3BBC
100
AcDbEntity
  8
AM_REFDIM
100
AcDbLine
 10
534.8704836367152
 20
-98.40492119295859
 30
0.0
 11
534.8704836367152
 21
-91.60492119295858
 31
0.0
  0
SOLID
  5
3C09
330
3BBC
100
AcDbEntity
  8
AM_REFDIM
100
AcDbTrace
 10
534.5204836367152
 20
-98.40492119295859
 30
0.0
 11
535.2204836367152
 21
-98.40492119295859
 31
0.0
 12
534.8704836367152
 22
-100.5049211929585
 32
0.0
 13
534.8704836367152
 23
-100.5049211929585
 33
0.0
  0
SOLID
  5
3C0A
330
3BBC
100
AcDbEntity
  8
AM_REFDIM
100
AcDbTrace
 10
534.5204836367152
 20
-91.60492119295858
 30
0.0
 11
535.2204836367152
 21
-91.60492119295858
 31
0.0
 12
534.8704836367152
 22
-89.50492119295857
 32
0.0
 13
534.8704836367152
 23
-89.50492119295857
 33
0.0
  0
MTEXT
  5
3C0B
330
3BBC
100
AcDbEntity
  8
AM_REFDIM
100
AcDbMText
 10
532.9454836367152
 20
-95.00492119295849
 30
0.0
 40
2.449999999999999
 41
0.0
 71
     5
 72
     1
  1
\A1;11
  7
CHINESET
 11
0.0000000000000001
 21
1.0
 31
0.0
 73
     1
 44
1.0
1001
ACAD
1000
MTEXTBEGIN
1070
    73
1070
     1
1070
    44
1040
1.0
1070
    74
1070
     0
1000
MTEXTEND
  0
POINT
  5
3C0C
330
3BBC
100
AcDbEntity
  8
Defpoints
 62
     0
100
AcDbPoint
 10
573.8163877208505
 20
-100.5049211929586
 30
0.0
  0
POINT
  5
3C0D
330
3BBC
100
AcDbEntity
  8
Defpoints
 62
     0
100
AcDbPoint
 10
580.9163877208505
 20
-89.50492119295859
 30
0.0
  0
POINT
  5
3C0E
330
3BBC
100
AcDbEntity
  8
Defpoints
 62
     0
100
AcDbPoint
 10
534.8704836367152
 20
-89.50492119295857
 30
0.0
  0
ENDBLK
  5
3BC7
330
3BBC
100
AcDbEntity
  8
0
100
AcDbBlockEnd
  0
BLOCK
  5
3CDB
330
3CD1
100
AcDbEntity
  8
0
100
AcDbBlockBegin
  2
*D25
 70
     1
 10
0.0
 20
0.0
 30
0.0
  3
*D25
  1

  0
LINE
  5
3DAD
330
3CD1
100
AcDbEntity
  8
AM_REFDIM
100
AcDbLine
 10
544.6663877208505
 20
-7.606361636990641
 30
0.0
 11
522.1663877208506
 21
-7.606361636990635
 31
0.0
  0
LINE
  5
3DAE
330
3CD1
100
AcDbEntity
  8
AM_REFDIM
100
AcDbLine
 10
544.6663877208505
 20
2.393638363009359
 30
0.0
 11
541.1163877208506
 21
2.39363836300936
 31
0.0
  0
LINE
  5
3DAF
330
3CD1
100
AcDbEntity
  8
AM_REFDIM
100
AcDbLine
 10
522.8663877208506
 20
-5.506361636990635
 30
0.0
 11
522.8663877208506
 21
0.2936383630093656
 31
0.0
  0
SOLID
  5
3DB0
330
3CD1
100
AcDbEntity
  8
AM_REFDIM
100
AcDbTrace
 10
522.5163877208506
 20
-5.506361636990635
 30
0.0
 11
523.2163877208506
 21
-5.506361636990635
 31
0.0
 12
522.8663877208506
 22
-7.606361636990635
 32
0.0
 13
522.8663877208506
 23
-7.606361636990635
 33
0.0
  0
SOLID
  5
3DB1
330
3CD1
100
AcDbEntity
  8
AM_REFDIM
100
AcDbTrace
 10
522.5163877208506
 20
0.2936383630093656
 30
0.0
 11
523.2163877208506
 21
0.2936383630093655
 31
0.0
 12
522.8663877208506
 22
2.393638363009365
 32
0.0
 13
522.8663877208506
 23
2.393638363009365
 33
0.0
  0
MTEXT
  5
3DB2
330
3CD1
100
AcDbEntity
  8
AM_REFDIM
100
AcDbMText
 10
520.9413877208507
 20
-2.60636163699055
 30
0.0
 40
2.449999999999999
 41
0.0
 71
     5
 72
     1
  1
\A1;10
  7
CHINESET
 11
0.0000000000000001
 21
1.0
 31
0.0
 73
     1
 44
1.0
1001
ACAD
1000
MTEXTBEGIN
1070
    73
1070
     1
1070
    44
1040
1.0
1070
    74
1070
     0
1000
MTEXTEND
  0
POINT
  5
3DB3
330
3CD1
100
AcDbEntity
  8
Defpoints
 62
     0
100
AcDbPoint
 10
545.3663877208506
 20
-7.606361636990641
 30
0.0
  0
POINT
  5
3DB4
330
3CD1
100
AcDbEntity
  8
Defpoints
 62
     0
100
AcDbPoint
 10
545.3663877208506
 20
2.393638363009358
 30
0.0
  0
POINT
  5
3DB5
330
3CD1
100
AcDbEntity
  8
Defpoints
 62
     0
100
AcDbPoint
 10
522.8663877208506
 20
2.393638363009365
 30
0.0
  0
LINE
  5
3DB6
330
3CD1
100
AcDbEntity
  8
AM_REFDIM
100
AcDbLine
 10
535.1163877208506
 20
2.393638363009361
 30
0.0
 11
522.1663877208506
 21
2.393638363009365
 31
0.0
  0
ENDBLK
  5
3CDC
330
3CD1
100
AcDbEntity
  8
0
100
AcDbBlockEnd
  0
BLOCK
  5
3D02
330
3CF7
100
AcDbEntity
  8
0
100
AcDbBlockBegin
  2
*D26
 70
     1
 10
0.0
 20
0.0
 30
0.0
  3
*D26
  1

  0
LINE
  5
3DC5
330
3CF7
100
AcDbEntity
  8
AM_REFDIM
100
AcDbLine
 10
570.4163877208506
 20
1.493638363009466
 30
0.0
 11
541.1163877208506
 21
1.493638363009475
 31
0.0
  0
LINE
  5
3DC6
330
3CF7
100
AcDbEntity
  8
AM_REFDIM
100
AcDbLine
 10
577.5163877208505
 20
-6.706361636990521
 30
0.0
 11
576.0663877208505
 21
-6.706361636990521
 31
0.0
  0
LINE
  5
3DC7
330
3CF7
100
AcDbEntity
  8
AM_REFDIM
100
AcDbLine
 10
529.8663877208506
 20
-0.6063616369905214
 30
0.0
 11
529.8663877208506
 21
-4.606361636990508
 31
0.0
  0
SOLID
  5
3DC8
330
3CF7
100
AcDbEntity
  8
AM_REFDIM
100
AcDbTrace
 10
529.5163877208506
 20
-0.6063616369905213
 30
0.0
 11
530.2163877208506
 21
-0.6063616369905214
 31
0.0
 12
529.8663877208506
 22
1.493638363009478
 32
0.0
 13
529.8663877208506
 23
1.493638363009478
 33
0.0
  0
SOLID
  5
3DC9
330
3CF7
100
AcDbEntity
  8
AM_REFDIM
100
AcDbTrace
 10
529.5163877208506
 20
-4.606361636990508
 30
0.0
 11
530.2163877208506
 21
-4.606361636990508
 31
0.0
 12
529.8663877208506
 22
-6.706361636990507
 32
0.0
 13
529.8663877208506
 23
-6.706361636990507
 33
0.0
  0
MTEXT
  5
3DCA
330
3CF7
100
AcDbEntity
  8
AM_REFDIM
100
AcDbMText
 10
527.9413877208506
 20
-2.606361636990429
 30
0.0
 40
2.449999999999999
 41
0.0
 71
     5
 72
     1
  1
\A1;8.2
  7
CHINESET
 11
0.0000000000000001
 21
1.0
 31
0.0
 73
     1
 44
1.0
1001
ACAD
1000
MTEXTBEGIN
1070
    73
1070
     1
1070
    44
1040
1.0
1070
    74
1070
     0
1000
MTEXTEND
  0
POINT
  5
3DCB
330
3CF7
100
AcDbEntity
  8
Defpoints
 62
     0
100
AcDbPoint
 10
571.1163877208506
 20
1.493638363009466
 30
0.0
  0
POINT
  5
3DCC
330
3CF7
100
AcDbEntity
  8
Defpoints
 62
     0
100
AcDbPoint
 10
578.2163877208506
 20
-6.706361636990521
 30
0.0
  0
POINT
  5
3DCD
330
3CF7
100
AcDbEntity
  8
Defpoints
 62
     0
100
AcDbPoint
 10
529.8663877208506
 20
-6.706361636990507
 30
0.0
  0
LINE
  5
3DCE
330
3CF7
100
AcDbEntity
  8
AM_REFDIM
100
AcDbLine
 10
535.1163877208506
 20
-6.706361636990509
 30
0.0
 11
529.1663877208505
 21
-6.706361636990507
 31
0.0
  0
LINE
  5
3DCF
330
3CF7
100
AcDbEntity
  8
AM_REFDIM
100
AcDbLine
 10
534.7663877208506
 20
1.493638363009476
 30
0.0
 11
529.1663877208505
 21
1.493638363009478
 31
0.0
  0
LINE
  5
3DD0
330
3CF7
100
AcDbEntity
  8
AM_REFDIM
100
AcDbLine
 10
572.5663877208505
 20
-6.706361636990519
 30
0.0
 11
538.6163877208506
 21
-6.70636163699051
 31
0.0
  0
ENDBLK
  5
3D03
330
3CF7
100
AcDbEntity
  8
0
100
AcDbBlockEnd
  0
BLOCK
  5
3D2F
330
3D23
100
AcDbEntity
  8
0
100
AcDbBlockBegin
  2
*D27
 70
     1
 10
0.0
 20
0.0
 30
0.0
  3
*D27
  1

  0
LINE
  5
3D77
330
3D23
100
AcDbEntity
  8
AM_REFDIM
100
AcDbLine
 10
576.2863877208506
 20
-2.60636163699047
 30
0.0
 11
536.1663877208505
 21
-2.606361636990459
 31
0.0
  0
LINE
  5
3D78
330
3D23
100
AcDbEntity
  8
AM_REFDIM
100
AcDbLine
 10
576.0663877208505
 20
-0.6063616369905274
 30
0.0
 11
536.1663877208505
 21
-0.6063616369905161
 31
0.0
  0
LINE
  5
3D79
330
3D23
100
AcDbEntity
  8
AM_REFDIM
100
AcDbLine
 10
536.8663877208506
 20
-4.706361636990458
 30
0.0
 11
536.8663877208506
 21
-6.806361636990458
 31
0.0
  0
LINE
  5
3D7A
330
3D23
100
AcDbEntity
  8
AM_REFDIM
100
AcDbLine
 10
536.8663877208506
 20
1.493638363009483
 30
0.0
 11
536.8663877208506
 21
6.626971696342816
 31
0.0
  0
LINE
  5
3D7B
330
3D23
100
AcDbEntity
  8
AM_REFDIM
100
AcDbLine
 10
536.8663877208506
 20
-2.606361636990459
 30
0.0
 11
536.8663877208506
 21
-0.6063616369905163
 31
0.0
  0
SOLID
  5
3D7C
330
3D23
100
AcDbEntity
  8
AM_REFDIM
100
AcDbTrace
 10
536.5163877208506
 20
-4.706361636990458
 30
0.0
 11
537.2163877208506
 21
-4.706361636990458
 31
0.0
 12
536.8663877208506
 22
-2.606361636990459
 32
0.0
 13
536.8663877208506
 23
-2.606361636990459
 33
0.0
  0
SOLID
  5
3D7D
330
3D23
100
AcDbEntity
  8
AM_REFDIM
100
AcDbTrace
 10
536.5163877208506
 20
1.493638363009483
 30
0.0
 11
537.2163877208506
 21
1.493638363009483
 31
0.0
 12
536.8663877208506
 22
-0.6063616369905163
 32
0.0
 13
536.8663877208506
 23
-0.6063616369905163
 33
0.0
  0
MTEXT
  5
3D7E
330
3D23
100
AcDbEntity
  8
AM_REFDIM
100
AcDbMText
 10
534.9413877208506
 20
5.110305029676236
 30
0.0
 40
2.449999999999999
 41
0.0
 71
     5
 72
     1
  1
\A1;2
  7
CHINESET
 11
0.0000000000000001
 21
1.0
 31
0.0
 73
     1
 44
1.0
1001
ACAD
1000
MTEXTBEGIN
1070
    73
1070
     1
1070
    44
1040
1.0
1070
    74
1070
     0
1000
MTEXTEND
  0
POINT
  5
3D7F
330
3D23
100
AcDbEntity
  8
Defpoints
 62
     0
100
AcDbPoint
 10
576.9863877208506
 20
-2.60636163699047
 30
0.0
  0
POINT
  5
3D80
330
3D23
100
AcDbEntity
  8
Defpoints
 62
     0
100
AcDbPoint
 10
576.7663877208506
 20
-0.6063616369905276
 30
0.0
  0
POINT
  5
3D81
330
3D23
100
AcDbEntity
  8
Defpoints
 62
     0
100
AcDbPoint
 10
536.8663877208506
 20
-0.6063616369905163
 30
0.0
  0
ENDBLK
  5
3D30
330
3D23
100
AcDbEntity
  8
0
100
AcDbBlockEnd
  0
ENDSEC
  0
SECTION
  2
ENTITIES
  0
POINT
  5
25
330
2
100
AcDbEntity
  8
0
 60
     1
100
AcDbPoint
 10
0.0
 20
0.0
 30
0.0
  0
POINT
  5
26
330
2
100
AcDbEntity
  8
0
 60
     1
100
AcDbPoint
 10
0.0
 20
0.0
 30
0.0
  0
POINT
  5
27
330
2
100
AcDbEntity
  8
0
 60
     1
100
AcDbPoint
 10
0.0
 20
0.0
 30
0.0
  0
POINT
  5
28
330
2
100
AcDbEntity
  8
0
 60
     1
100
AcDbPoint
 10
0.0
 20
0.0
 30
0.0
  0
POINT
  5
29
330
2
100
AcDbEntity
  8
0
 60
     1
100
AcDbPoint
 10
0.0
 20
0.0
 30
0.0
  0
POINT
  5
2A
330
2
100
AcDbEntity
  8
0
 60
     1
100
AcDbPoint
 10
0.0
 20
0.0
 30
0.0
  0
POINT
  5
2B
330
2
100
AcDbEntity
  8
0
 60
     1
100
AcDbPoint
 10
0.0
 20
0.0
 30
0.0
  0
POINT
  5
2C
330
2
100
AcDbEntity
  8
0
 60
     1
100
AcDbPoint
 10
0.0
 20
0.0
 30
0.0
  0
POINT
  5
2D
330
2
100
AcDbEntity
  8
0
 60
     1
100
AcDbPoint
 10
0.0
 20
0.0
 30
0.0
  0
POINT
  5
2E
330
2
100
AcDbEntity
  8
0
 60
     1
100
AcDbPoint
 10
0.0
 20
0.0
 30
0.0
  0
POINT
  5
2F
330
2
100
AcDbEntity
  8
0
 60
     1
100
AcDbPoint
 10
0.0
 20
0.0
 30
0.0
  0
POINT
  5
30
330
2
100
AcDbEntity
  8
0
 60
     1
100
AcDbPoint
 10
0.0
 20
0.0
 30
0.0
  0
DIMENSION
  5
31
330
2
100
AcDbEntity
  8
AM_PARDIM
 60
     1
100
AcDbDimension
  2
*D1
 10
114.5325708695175
 20
128.6938113892625
 30
0.0
 11
112.6073297277852
 21
122.4438113892625
 31
0.0
 70
    32
  1
<>
 71
     5
 42
12.50000000000001
  3
AM_ISO$0
100
AcDbAlignedDimension
 13
75.37464887656421
 23
116.1938113892625
 33
0.0
 14
75.37464887656421
 24
128.6938113892625
 34
0.0
 50
90.0
100
AcDbRotatedDimension
1001
ACAD_DIMASSOC_CALC_DIMLFAC
1040
-1.0
1001
AD_SKETCHDIM
1005
0
1000
d0
1001
ACAD_DIMASSOC_DIMLFAC
1040
-1.0
1001
ACAD
1000
DSTYLE
1002
{
1070
   144
1040
-1.0
1002
}
  0
DIMENSION
  5
43
330
2
100
AcDbEntity
  8
AM_PARDIM
 60
     1
100
AcDbDimension
  2
*D2
 10
26.87464887656421
 20
122.1938113892625
 30
0.0
 11
24.94964887656419
 21
119.1938113892625
 31
0.0
 70
    32
  1
<>
 71
     5
 42
6.0
  3
AM_ISO$0
100
AcDbAlignedDimension
 13
38.87464887656421
 23
116.1938113892625
 33
0.0
 14
38.87464887656421
 24
122.1938113892625
 34
0.0
 50
90.0
100
AcDbRotatedDimension
1001
ACAD_DIMASSOC_CALC_DIMLFAC
1040
-1.0
1001
AD_SKETCHDIM
1005
0
1000
d1
1001
ACAD_DIMASSOC_DIMLFAC
1040
-1.0
1001
ACAD
1000
DSTYLE
1002
{
1070
   144
1040
-1.0
1002
}
  0
DIMENSION
  5
52
330
2
100
AcDbEntity
  8
AM_PARDIM
 60
     1
100
AcDbDimension
  2
*D3
 10
50.87464887656421
 20
140.6938113892625
 30
0.0
 11
44.87464887656421
 21
142.6190525309947
 31
0.0
 70
    32
  1
<>
 71
     5
 42
12.0
  3
AM_ISO$0
100
AcDbAlignedDimension
 13
38.87464887656421
 23
122.1938113892625
 33
0.0
 14
50.87464887656421
 24
122.1938113892625
 34
0.0
100
AcDbRotatedDimension
1001
ACAD_DIMASSOC_CALC_DIMLFAC
1040
-1.0
1001
AD_SKETCHDIM
1005
0
1000
d2
1001
ACAD_DIMASSOC_DIMLFAC
1040
-1.0
1001
ACAD
1000
DSTYLE
1002
{
1070
   144
1040
-1.0
1002
}
  0
DIMENSION
  5
5F
330
2
100
AcDbEntity
  8
AM_PARDIM
 60
     1
100
AcDbDimension
  2
*D4
 10
75.37464887656421
 20
160.6938113892625
 30
0.0
 11
57.12464887656421
 21
162.6188113892625
 31
0.0
 70
    32
  1
<>
 71
     5
 42
36.5
  3
AM_ISO$0
100
AcDbAlignedDimension
 13
38.87464887656421
 23
116.1938113892625
 33
0.0
 14
75.37464887656421
 24
116.1938113892625
 34
0.0
100
AcDbRotatedDimension
1001
ACAD_DIMASSOC_CALC_DIMLFAC
1040
-1.0
1001
AD_SKETCHDIM
1005
0
1000
d3
1001
ACAD_DIMASSOC_DIMLFAC
1040
-1.0
1001
ACAD
1000
DSTYLE
1002
{
1070
   144
1040
-1.0
1002
}
  0
DIMENSION
  5
6C
330
2
100
AcDbEntity
  8
AM_PARDIM
 60
     1
100
AcDbDimension
  2
*D5
 10
104.5325708695175
 20
116.1938113892625
 30
0.0
 11
102.6075708695175
 21
121.6938113892625
 31
0.0
 70
    32
  1
<>
 71
     5
 42
11.0
  3
AM_ISO$0
100
AcDbAlignedDimension
 13
50.87464887656421
 23
127.1938113892625
 33
0.0
 14
75.37464887656421
 24
116.1938113892625
 34
0.0
 50
90.0
100
AcDbRotatedDimension
1001
ACAD_DIMASSOC_CALC_DIMLFAC
1040
-1.0
1001
AD_SKETCHDIM
1005
0
1000
d4
1001
ACAD_DIMASSOC_DIMLFAC
1040
-1.0
1001
ACAD
1000
DSTYLE
1002
{
1070
   144
1040
-1.0
1002
}
  0
DIMENSION
  5
79
330
2
100
AcDbEntity
  8
AM_PARDIM
 60
     1
100
AcDbDimension
  2
*D6
 10
75.37464887656421
 20
150.6938113892625
 30
0.0
 11
70.87464887656421
 21
152.6188113892625
 31
0.0
 70
    32
  1
<>
 71
     5
 42
9.0
  3
AM_ISO$0
100
AcDbAlignedDimension
 13
66.3746488765642
 23
128.6938113892625
 33
0.0
 14
75.37464887656421
 24
128.6938113892625
 34
0.0
100
AcDbRotatedDimension
1001
ACAD_DIMASSOC_CALC_DIMLFAC
1040
-1.0
1001
AD_SKETCHDIM
1005
0
1000
d5
1001
ACAD_DIMASSOC_DIMLFAC
1040
-1.0
1001
ACAD
1000
DSTYLE
1002
{
1070
   144
1040
-1.0
1002
}
  0
DIMENSION
  5
86
330
2
100
AcDbEntity
  8
AM_PARDIM
 60
     1
100
AcDbDimension
  2
*D7
 10
66.37464887656418
 20
140.6938113892625
 30
0.0
 11
73.07149732141946
 21
142.6190525309947
 31
0.0
 70
    32
  1
<>
 71
     5
 42
2.5
  3
AM_ISO$0
100
AcDbAlignedDimension
 13
63.87464887656418
 23
128.6938113892624
 33
0.0
 14
66.37464887656418
 24
128.6938113892624
 34
0.0
100
AcDbRotatedDimension
1001
ACAD_DIMASSOC_CALC_DIMLFAC
1040
-1.0
1001
AD_SKETCHDIM
1005
0
1000
d25
1001
ACAD_DIMASSOC_DIMLFAC
1040
-1.0
1001
ACAD
1000
DSTYLE
1002
{
1070
   144
1040
-1.0
1002
}
  0
DIMENSION
  5
95
330
2
100
AcDbEntity
  8
AM_PARDIM
 60
     1
100
AcDbDimension
  2
*D8
 10
66.37464887656418
 20
136.030378563861
 30
0.0
 11
71.76657801042245
 21
137.955378563861
 31
0.0
 70
    32
  1
<>
 71
     5
 42
0.0
  3
AM_ISO$0
100
AcDbAlignedDimension
 13
66.37464887656418
 23
128.6938113892624
 33
0.0
 14
66.37464887656418
 24
116.1938113892624
 34
0.0
100
AcDbRotatedDimension
1001
ACAD_DIMASSOC_CALC_DIMLFAC
1040
-1.0
1001
AD_SKETCHDIM
1005
0
1000
d26
1001
ACAD_DIMASSOC_DIMLFAC
1040
-1.0
1001
ACAD
1000
DSTYLE
1002
{
1070
   144
1040
-1.0
1002
}
  0
DIMENSION
  5
A3
330
2
100
AcDbEntity
  8
AM_PARDIM
 60
     1
100
AcDbDimension
  2
*D9
 10
94.53257086951754
 20
116.1938113892624
 30
0.0
 11
92.60757086951754
 21
120.9438113892624
 31
0.0
 70
    32
  1
<>
 71
     5
 42
9.5
  3
AM_ISO$0
100
AcDbAlignedDimension
 13
63.87464887656418
 23
125.6938113892624
 33
0.0
 14
82.53257086951753
 24
116.1938113892624
 34
0.0
 50
90.0
100
AcDbRotatedDimension
1001
ACAD_DIMASSOC_CALC_DIMLFAC
1040
-1.0
1001
AD_SKETCHDIM
1005
0
1000
d27
1001
ACAD_DIMASSOC_DIMLFAC
1040
-1.0
1001
ACAD
1000
DSTYLE
1002
{
1070
   144
1040
-1.0
1002
}
  0
DIMENSION
  5
B0
330
2
100
AcDbEntity
  8
AM_PARDIM
 60
     1
100
AcDbDimension
  2
*D10
 10
124.5325708695175
 20
116.1938113892624
 30
0.0
 11
122.6073297277852
 21
122.4438113892624
 31
0.0
 70
    32
  1
<>
 71
     5
 42
12.50000000000004
  3
AM_ISO$0
100
AcDbAlignedDimension
 13
66.37464887656418
 23
128.6938113892624
 33
0.0
 14
82.53257086951753
 24
116.1938113892624
 34
0.0
 50
90.0
100
AcDbRotatedDimension
1001
ACAD_DIMASSOC_CALC_DIMLFAC
1040
-1.0
1001
AD_SKETCHDIM
1005
0
1000
d28
1001
ACAD_DIMASSOC_DIMLFAC
1040
-1.0
1001
ACAD
1000
DSTYLE
1002
{
1070
   144
1040
-1.0
1002
}
  0
LINE
  5
C8
330
2
100
AcDbEntity
  8
AM_7
 60
     1
100
AcDbLine
 10
36.3746488765642
 20
116.1938113892625
 30
0.0
 11
51.3746488765642
 21
116.1938113892625
 31
0.0
  0
MTEXT
  5
151
330
2
100
AcDbEntity
  8
AM_5
 62
     5
100
AcDbMText
 10
33.56078100938999
 20
98.94002315335121
 30
0.0
 40
3.5
 41
0.0
 71
     9
 72
     5
  1

  7
ACISOTS
 73
     1
 44
1.0
1001
ACAD
1000
MTEXTBEGIN
1070
    73
1070
     1
1070
    44
1040
1.0
1070
    74
1070
     0
1000
MTEXTEND
  0
MTEXT
  5
156
330
2
100
AcDbEntity
  8
AM_5
 62
     5
100
AcDbMText
 10
67.11527269722637
 20
92.4148402526181
 30
0.0
 40
3.5
 41
0.0
 71
     9
 72
     5
  1

  7
ACISOTS
 73
     1
 44
1.0
1001
ACAD
1000
MTEXTBEGIN
1070
    73
1070
     1
1070
    44
1040
1.0
1070
    74
1070
     0
1000
MTEXTEND
  0
TEXT
  5
13E2
330
2
100
AcDbEntity
  8
LOGO
  6
Continuous
 62
     7
100
AcDbText
 10
578.2058452024378
 20
-143.8833963386157
 30
0.0
 40
3.083734080377228
  1
MVSF
  7
CHINESET
 72
     1
 11
583.8593576831295
 21
-142.341529298427
 31
0.0
100
AcDbText
 73
     2
  0
LINE
  5
13E5
330
2
100
AcDbEntity
  8
LOGO
 62
     4
100
AcDbLine
 10
591.260319476035
 20
-139.5661686260875
 30
0.0
 11
576.4583958902244
 21
-139.5661686260875
 31
0.0
  0
LINE
  5
13E6
330
2
100
AcDbEntity
  8
LOGO
 62
     4
100
AcDbLine
 10
591.260319476035
 20
-145.1168899707665
 30
0.0
 11
576.4583958902244
 21
-145.1168899707665
 31
0.0
  0
LINE
  5
13E7
330
2
100
AcDbEntity
  8
LOGO
 62
     4
100
AcDbLine
 10
586.0808831969031
 20
-147.892250643106
 30
0.0
 11
577.6272016102873
 21
-147.892250643106
 31
0.0
  0
LINE
  5
13E8
330
2
100
AcDbEntity
  8
LOGO
 62
     4
100
AcDbLine
 10
586.0808831969031
 20
-154.6764656199359
 30
0.0
 11
577.6272016102873
 21
-154.676465619936
 31
0.0
  0
LINE
  5
14D1
330
2
100
AcDbEntity
  8
LOGO
 62
     4
100
AcDbLine
 10
576.4583958902244
 20
-139.5661686260875
 30
0.0
 11
576.4583958902244
 21
-145.1168899707665
 31
0.0
  0
LINE
  5
14D2
330
2
100
AcDbEntity
  8
LOGO
 62
     4
100
AcDbLine
 10
577.6272016102873
 20
-147.892250643106
 30
0.0
 11
577.6272016102873
 21
-154.676465619936
 31
0.0
  0
TEXT
  5
14D3
330
2
100
AcDbEntity
  8
LOGO
100
AcDbText
 10
579.4464301467274
 20
-153.9087358383994
 30
0.0
 40
1.606499999999999
  1
Model
 72
     4
 11
582.1774801467275
 21
-153.1345985797474
 31
0.0
100
AcDbText
  0
TEXT
  5
14D4
330
2
100
AcDbEntity
  8
LOGO
100
AcDbText
 10
579.7677301467274
 20
-151.1940726686614
 30
0.0
 40
2.409749999999999
  1
型式
  7
CHINESET
 72
     4
 11
582.1774801467275
 21
-150.0508644993701
 31
0.0
100
AcDbText
  0
LINE
  5
14D5
330
2
100
AcDbEntity
  8
LOGO
 62
     4
100
AcDbLine
 10
583.8593576831295
 20
-145.1168899707665
 30
0.0
 11
583.8593576831295
 21
-147.892250643106
 31
0.0
  0
LINE
  5
14DF
330
2
100
AcDbEntity
  8
LOGO
  6
Continuous
 62
     7
100
AcDbLine
 10
626.1505142457048
 20
-142.3415292984269
 30
0.0
 11
628.6015102546926
 21
-142.3415292984269
 31
0.0
  0
TEXT
  5
14E0
330
2
100
AcDbEntity
  8
LOGO
100
AcDbText
 10
620.4870809311217
 20
-151.1519731976968
 30
0.0
 40
2.409749999999999
  1
雙線圈
  7
CHINESET
 72
     4
 11
624.0515028061217
 21
-150.05086449937
 31
0.0
100
AcDbText
  0
LINE
  5
14E1
330
2
100
AcDbEntity
  8
LOGO
 62
     4
100
AcDbLine
 10
632.5399985303395
 20
-147.892250643106
 30
0.0
 11
616.8354001668688
 21
-147.892250643106
 31
0.0
  0
LINE
  5
14E2
330
2
100
AcDbEntity
  8
LOGO
 62
     4
100
AcDbLine
 10
632.5399985303395
 20
-154.6764656199359
 30
0.0
 11
616.8354001668688
 21
-154.6764656199359
 31
0.0
  0
TEXT
  5
14E3
330
2
100
AcDbEntity
  8
LOGO
100
AcDbText
 10
617.2949910753682
 20
-153.9378485797473
 30
0.0
 40
1.606499999999999
  1
Double solenoid
 72
     4
 11
624.7672242003682
 21
-153.1345985797473
 31
0.0
100
AcDbText
  0
LINE
  5
14EB
330
2
100
AcDbEntity
  8
LOGO
 62
     4
100
AcDbLine
 10
609.2301330870619
 20
-139.5661686260875
 30
0.0
 11
595.6275328822393
 21
-139.5661686260875
 31
0.0
  0
LINE
  5
14EC
330
2
100
AcDbEntity
  8
LOGO
 62
     4
100
AcDbLine
 10
609.2301330870619
 20
-145.1168899707665
 30
0.0
 11
595.6275328822393
 21
-145.1168899707665
 31
0.0
  0
LINE
  5
14F4
330
2
100
AcDbEntity
  8
LOGO
 62
     4
100
AcDbLine
 10
603.1362121645083
 20
-147.892250643106
 30
0.0
 11
589.5336119596855
 21
-147.892250643106
 31
0.0
  0
LINE
  5
14F5
330
2
100
AcDbEntity
  8
LOGO
 62
     4
100
AcDbLine
 10
603.1362121645083
 20
-154.6764656199359
 30
0.0
 11
589.5336119596855
 21
-154.676465619936
 31
0.0
  0
TEXT
  5
14F6
330
2
100
AcDbEntity
  8
LOGO
100
AcDbText
 10
591.0846743207492
 20
-153.6968735797473
 30
0.0
 40
1.606499999999999
  1
Body width
 72
     4
 11
596.334912062097
 21
-153.1345985797474
 31
0.0
100
AcDbText
  0
TEXT
  5
14F7
330
2
100
AcDbEntity
  8
LOGO
100
AcDbText
 10
591.5154120620971
 20
-151.2133435532579
 30
0.0
 40
2.409749999999999
  1
本體寬幅
  7
CHINESET
 72
     4
 11
596.334912062097
 21
-150.0508644993701
 31
0.0
100
AcDbText
  0
LINE
  5
14F8
330
2
100
AcDbEntity
  8
LOGO
 62
     4
100
AcDbLine
 10
595.6275328822393
 20
-139.5661686260875
 30
0.0
 11
595.6275328822393
 21
-145.1168899707665
 31
0.0
  0
LINE
  5
14F9
330
2
100
AcDbEntity
  8
LOGO
 62
     4
100
AcDbLine
 10
591.260319476035
 20
-139.5661686260875
 30
0.0
 11
591.260319476035
 21
-145.1168899707665
 31
0.0
  0
LINE
  5
14FA
330
2
100
AcDbEntity
  8
LOGO
  6
Continuous
 62
     7
100
AcDbLine
 10
592.2166253447386
 20
-142.3611908306512
 30
0.0
 11
594.6676213537269
 21
-142.3611908306512
 31
0.0
  0
LINE
  5
14FB
330
2
100
AcDbEntity
  8
LOGO
 62
     4
100
AcDbLine
 10
589.5336119596855
 20
-147.892250643106
 30
0.0
 11
589.5336119596855
 21
-154.6764656199359
 31
0.0
  0
LINE
  5
14FC
330
2
100
AcDbEntity
  8
LOGO
 62
     4
100
AcDbLine
 10
586.0808831969031
 20
-147.892250643106
 30
0.0
 11
586.0808831969031
 21
-154.6764656199359
 31
0.0
  0
TEXT
  5
1509
330
2
100
AcDbEntity
  8
LOGO
  6
Continuous
 62
     7
100
AcDbText
 10
598.7577209842018
 20
-143.9183660774017
 30
0.0
 40
3.083734080377228
  1
100
  7
CHINESET
 72
     1
 11
602.4288329846508
 21
-142.3764990372131
 31
0.0
100
AcDbText
 73
     2
  0
LINE
  5
150A
330
2
100
AcDbEntity
  8
LOGO
 62
     4
100
AcDbLine
 10
602.4288329846508
 20
-146.5045703069363
 30
0.0
 11
596.4271712306141
 21
-146.5045703069363
 31
0.0
  0
LINE
  5
150B
330
2
100
AcDbEntity
  8
LOGO
 62
     4
100
AcDbLine
 10
596.4271712306141
 20
-147.892250643106
 30
0.0
 11
596.4271712306141
 21
-146.5045703069363
 31
0.0
  0
LINE
  5
150C
330
2
100
AcDbEntity
  8
LOGO
 62
     4
100
AcDbLine
 10
602.4288329846508
 20
-145.1168899707665
 30
0.0
 11
602.4288329846508
 21
-146.5045703069363
 31
0.0
  0
LINE
  5
150D
330
2
100
AcDbEntity
  8
LOGO
 62
     4
100
AcDbLine
 10
603.1362121645083
 20
-147.892250643106
 30
0.0
 11
603.1362121645083
 21
-154.6764656199359
 31
0.0
  0
LINE
  5
1533
330
2
100
AcDbEntity
  8
LOGO
 62
     4
100
AcDbLine
 10
617.3319976408818
 20
-139.5661686260874
 30
0.0
 11
613.5973464932662
 21
-139.5661686260875
 31
0.0
  0
LINE
  5
1534
330
2
100
AcDbEntity
  8
LOGO
 62
     4
100
AcDbLine
 10
615.1218238280514
 20
-147.892250643106
 30
0.0
 11
605.2197045196814
 21
-147.892250643106
 31
0.0
  0
LINE
  5
1535
330
2
100
AcDbEntity
  8
LOGO
 62
     4
100
AcDbLine
 10
617.3319976408818
 20
-145.1168899707665
 30
0.0
 11
613.5973464932662
 21
-145.1168899707665
 31
0.0
  0
LINE
  5
1536
330
2
100
AcDbEntity
  8
LOGO
 62
     4
100
AcDbLine
 10
615.1218238280514
 20
-154.6764656199359
 30
0.0
 11
605.2197045196814
 21
-154.6764656199359
 31
0.0
  0
LINE
  5
1537
330
2
100
AcDbEntity
  8
LOGO
 62
     4
100
AcDbLine
 10
609.2301330870619
 20
-139.5661686260875
 30
0.0
 11
609.2301330870619
 21
-145.1168899707665
 31
0.0
  0
LINE
  5
1538
330
2
100
AcDbEntity
  8
LOGO
 62
     4
100
AcDbLine
 10
613.5973464932662
 20
-139.5661686260875
 30
0.0
 11
613.5973464932662
 21
-145.1168899707665
 31
0.0
  0
TEXT
  5
1539
330
2
100
AcDbEntity
  8
LOGO
100
AcDbText
 10
607.2790641738664
 20
-153.6968735797473
 30
0.0
 40
1.606499999999999
  1
3 Way
 72
     4
 11
610.1707641738665
 21
-153.1345985797474
 31
0.0
100
AcDbText
  0
TEXT
  5
153A
330
2
100
AcDbEntity
  8
LOGO
100
AcDbText
 10
605.6488969863664
 20
-151.2474381952362
 30
0.0
 40
2.409749999999999
  1
3 方向
  7
CHINESET
 72
     4
 11
610.1707641738665
 21
-150.0508644993701
 31
0.0
100
AcDbText
  0
LINE
  5
153B
330
2
100
AcDbEntity
  8
LOGO
  6
Continuous
 62
     7
100
AcDbLine
 10
610.1864389557658
 20
-142.3611908306511
 30
0.0
 11
612.6374349647536
 21
-142.3611908306511
 31
0.0
  0
LINE
  5
153C
330
2
100
AcDbEntity
  8
LOGO
 62
     4
100
AcDbLine
 10
605.2197045196814
 20
-147.892250643106
 30
0.0
 11
605.2197045196814
 21
-154.6764656199359
 31
0.0
  0
TEXT
  5
153D
330
2
100
AcDbEntity
  8
LOGO
  6
Continuous
 62
     7
100
AcDbText
 10
614.4367607069482
 20
-143.8833963386156
 30
0.0
 40
3.083734080377228
  1
3
  7
CHINESET
 72
     1
 11
615.4646720670739
 21
-142.341529298427
 31
0.0
100
AcDbText
 73
     2
  0
LINE
  5
153E
330
2
100
AcDbEntity
  8
LOGO
 62
     4
100
AcDbLine
 10
615.4646719248614
 20
-146.5045703069362
 30
0.0
 11
610.1707641738665
 21
-146.5045703069362
 31
0.0
  0
LINE
  5
153F
330
2
100
AcDbEntity
  8
LOGO
 62
     4
100
AcDbLine
 10
610.1707641738665
 20
-147.892250643106
 30
0.0
 11
610.1707641738665
 21
-146.5045703069362
 31
0.0
  0
LINE
  5
1540
330
2
100
AcDbEntity
  8
LOGO
 62
     4
100
AcDbLine
 10
615.4646719248615
 20
-145.1168899707665
 30
0.0
 11
615.4646719248615
 21
-146.5045703069362
 31
0.0
  0
LINE
  5
1547
330
2
100
AcDbEntity
  8
LOGO
 62
     4
100
AcDbLine
 10
624.522289921359
 20
-139.5661686260874
 30
0.0
 11
624.5222899213585
 21
-145.1168899707665
 31
0.0
  0
LINE
  5
1548
330
2
100
AcDbEntity
  8
LOGO
 62
     4
100
AcDbLine
 10
617.3319976408818
 20
-139.5661686260874
 30
0.0
 11
617.3319976408818
 21
-145.1168899707665
 31
0.0
  0
LINE
  5
1549
330
2
100
AcDbEntity
  8
LOGO
 62
     4
100
AcDbLine
 10
617.9487444569574
 20
-139.5661686260874
 30
0.0
 11
617.9487444569574
 21
-145.1168899707665
 31
0.0
  0
LINE
  5
154A
330
2
100
AcDbEntity
  8
LOGO
 62
     4
100
AcDbLine
 10
621.235517189158
 20
-146.5045703069362
 30
0.0
 11
625.2443714936482
 21
-146.5045703069362
 31
0.0
  0
TEXT
  5
154B
330
2
100
AcDbEntity
  8
LOGO
  6
Continuous
 62
     7
100
AcDbText
 10
619.1003985291279
 20
-143.9183660774017
 30
0.0
 40
3.083734080377228
  1
E2
  7
CHINESET
 72
     1
 11
621.5233324494242
 21
-142.3764990372131
 31
0.0
100
AcDbText
 73
     2
  0
LINE
  5
154C
330
2
100
AcDbEntity
  8
LOGO
 62
     4
100
AcDbLine
 10
624.5222899213585
 20
-145.1168899707665
 30
0.0
 11
617.9487444569574
 21
-145.1168899707665
 31
0.0
  0
LINE
  5
154D
330
2
100
AcDbEntity
  8
LOGO
 62
     4
100
AcDbLine
 10
616.8354001668688
 20
-147.892250643106
 30
0.0
 11
616.8354001668688
 21
-154.6764656199359
 31
0.0
  0
LINE
  5
154E
330
2
100
AcDbEntity
  8
LOGO
 62
     4
100
AcDbLine
 10
615.1218238280514
 20
-147.892250643106
 30
0.0
 11
615.1218238280514
 21
-154.6764656199359
 31
0.0
  0
LINE
  5
154F
330
2
100
AcDbEntity
  8
LOGO
 62
     4
100
AcDbLine
 10
621.235517189158
 20
-145.1168899707665
 30
0.0
 11
621.235517189158
 21
-146.5045703069362
 31
0.0
  0
LINE
  5
1550
330
2
100
AcDbEntity
  8
LOGO
 62
     4
100
AcDbLine
 10
625.2443714936482
 20
-147.892250643106
 30
0.0
 11
625.2443714936482
 21
-146.5045703069362
 31
0.0
  0
LINE
  5
1553
330
2
100
AcDbEntity
  8
LOGO
 62
     4
100
AcDbLine
 10
624.522289921359
 20
-139.5661686260874
 30
0.0
 11
617.9487444569574
 21
-139.5661686260874
 31
0.0
  0
LINE
  5
15C0
330
2
100
AcDbEntity
  8
LOGO
 62
     4
100
AcDbLine
 10
658.9776855104291
 20
-147.8922506431059
 30
0.0
 11
644.7831292752868
 21
-147.8922506431059
 31
0.0
  0
TEXT
  5
15C1
330
2
100
AcDbEntity
  8
LOGO
100
AcDbText
 10
645.6150572097425
 20
-153.9378485797472
 30
0.0
 40
1.606499999999999
  1
LED indicator
 72
     4
 11
651.8804072097425
 21
-153.1345985797472
 31
0.0
100
AcDbText
  0
LINE
  5
15C2
330
2
100
AcDbEntity
  8
LOGO
 62
     4
100
AcDbLine
 10
658.9776855104291
 20
-154.6764656199358
 30
0.0
 11
644.7831292752868
 21
-154.6764656199358
 31
0.0
  0
LINE
  5
15C4
330
2
100
AcDbEntity
  8
LOGO
 62
     4
100
AcDbLine
 10
643.5160372989937
 20
-147.892250643106
 30
0.0
 11
634.0258628654245
 21
-147.892250643106
 31
0.0
  0
LINE
  5
15C5
330
2
100
AcDbEntity
  8
LOGO
 62
     4
100
AcDbLine
 10
645.3374949639051
 20
-145.1168899707665
 30
0.0
 11
629.5138402025758
 21
-145.1168899707665
 31
0.0
  0
LINE
  5
15C6
330
2
100
AcDbEntity
  8
LOGO
 62
     4
100
AcDbLine
 10
645.3374949639051
 20
-139.5661686260873
 30
0.0
 11
629.5138402025758
 21
-139.5661686260873
 31
0.0
  0
LINE
  5
15C7
330
2
100
AcDbEntity
  8
LOGO
 62
     4
100
AcDbLine
 10
643.5160372989937
 20
-154.6764656199358
 30
0.0
 11
634.0258628654245
 21
-154.6764656199359
 31
0.0
  0
TEXT
  5
15C8
330
2
100
AcDbEntity
  8
LOGO
100
AcDbText
 10
635.1069889387123
 20
-153.6677608383993
 30
0.0
 40
1.606499999999999
  1
Voltage
 72
     4
 11
638.8822639387123
 21
-153.1345985797472
 31
0.0
100
AcDbText
  0
LINE
  5
15C9
330
2
100
AcDbEntity
  8
LOGO
 62
     4
100
AcDbLine
 10
629.5138402025758
 20
-139.5661686260873
 30
0.0
 11
629.5138402025758
 21
-145.1168899707664
 31
0.0
  0
LINE
  5
15CA
330
2
100
AcDbEntity
  8
LOGO
 62
     4
100
AcDbLine
 10
632.5399985303395
 20
-147.892250643106
 30
0.0
 11
632.5399985303395
 21
-154.6764656199359
 31
0.0
  0
LINE
  5
15CB
330
2
100
AcDbEntity
  8
LOGO
 62
     4
100
AcDbLine
 10
634.0258628654245
 20
-147.892250643106
 30
0.0
 11
634.0258628654245
 21
-154.6764656199359
 31
0.0
  0
LINE
  5
15CD
330
2
100
AcDbEntity
  8
LOGO
 62
     4
100
AcDbLine
 10
645.3374949639048
 20
-139.5661686260873
 30
0.0
 11
645.3374949639048
 21
-145.1168899707665
 31
0.0
  0
TEXT
  5
15CE
330
2
100
AcDbEntity
  8
LOGO
100
AcDbText
 10
636.4474123762122
 20
-151.2300449865747
 30
0.0
 40
2.409749999999999
  1
電壓
  7
CHINESET
 72
     4
 11
638.8822639387123
 21
-150.05086449937
 31
0.0
100
AcDbText
  0
LINE
  5
15CF
330
2
100
AcDbEntity
  8
LOGO
 62
     4
100
AcDbLine
 10
637.4256675832404
 20
-146.5045703069362
 30
0.0
 11
638.8822639387123
 21
-146.5045703069362
 31
0.0
  0
LINE
  5
15D0
330
2
100
AcDbEntity
  8
LOGO
 62
     4
100
AcDbLine
 10
637.4256675832404
 20
-145.1168899707665
 30
0.0
 11
637.4256675832404
 21
-146.5045703069362
 31
0.0
  0
TEXT
  5
15D1
330
2
100
AcDbEntity
  8
LOGO
  6
Continuous
 62
     7
100
AcDbText
 10
636.8635287269942
 20
-143.9183660774017
 30
0.0
 40
3.083734080377228
  1
?
  7
CHINESET
 72
     1
 11
637.671173367093
 21
-142.3764990372131
 31
0.0
100
AcDbText
 73
     2
  0
LINE
  5
15D2
330
2
100
AcDbEntity
  8
LOGO
 62
     4
100
AcDbLine
 10
638.8822639387123
 20
-146.5045703069362
 30
0.0
 11
638.8822639387123
 21
-147.892250643106
 31
0.0
  0
LINE
  5
15D3
330
2
100
AcDbEntity
  8
LOGO
 62
     4
100
AcDbLine
 10
643.5160372989937
 20
-147.892250643106
 30
0.0
 11
643.5160372989937
 21
-154.6764656199358
 31
0.0
  0
LINE
  5
15D4
330
2
100
AcDbEntity
  8
LOGO
 62
     4
100
AcDbLine
 10
644.7831292752868
 20
-147.892250643106
 30
0.0
 11
644.7831292752868
 21
-154.6764656199358
 31
0.0
  0
LINE
  5
15F8
330
2
100
AcDbEntity
  8
LOGO
 62
     4
100
AcDbLine
 10
649.7047083701093
 20
-139.5661686260873
 30
0.0
 11
649.7047083701093
 21
-145.1168899707664
 31
0.0
  0
LINE
  5
15F9
330
2
100
AcDbEntity
  8
LOGO
 62
     4
100
AcDbLine
 10
653.4393595177247
 20
-139.5661686260873
 30
0.0
 11
653.4393595177247
 21
-145.1168899707664
 31
0.0
  0
LINE
  5
15FA
330
2
100
AcDbEntity
  8
LOGO
 62
     4
100
AcDbLine
 10
653.4393595177247
 20
-145.1168899707664
 30
0.0
 11
649.7047083701093
 21
-145.1168899707664
 31
0.0
  0
TEXT
  5
15FB
330
2
100
AcDbEntity
  8
LOGO
100
AcDbText
 10
648.2908837722425
 20
-151.23063793687
 30
0.0
 40
2.409749999999999
  1
附燈型
  7
CHINESET
 72
     4
 11
651.8804072097425
 21
-150.05086449937
 31
0.0
100
AcDbText
  0
LINE
  5
15FC
330
2
100
AcDbEntity
  8
LOGO
  6
Continuous
 62
     7
100
AcDbLine
 10
646.293800832609
 20
-142.3611908306511
 30
0.0
 11
648.7447968415966
 21
-142.3611908306511
 31
0.0
  0
LINE
  5
15FD
330
2
100
AcDbEntity
  8
LOGO
 62
     4
100
AcDbLine
 10
651.572033943917
 20
-145.1168899707664
 30
0.0
 11
651.572033943917
 21
-147.8922506431059
 31
0.0
  0
TEXT
  5
15FE
330
2
100
AcDbEntity
  8
LOGO
  6
Continuous
 62
     7
100
AcDbText
 10
650.6909670638091
 20
-143.8833963386155
 30
0.0
 40
3.083734080377228
  1
L
  7
CHINESET
 72
     1
 11
651.572033943917
 21
-142.3415292984269
 31
0.0
100
AcDbText
 73
     2
  0
LINE
  5
15FF
330
2
100
AcDbEntity
  8
LOGO
 62
     4
100
AcDbLine
 10
653.4393595177247
 20
-139.5661686260873
 30
0.0
 11
649.7047083701093
 21
-139.5661686260873
 31
0.0
  0
LINE
  5
1602
330
2
100
AcDbEntity
  8
LOGO
 62
     4
100
AcDbLine
 10
658.9776855104291
 20
-147.8922506431059
 30
0.0
 11
658.9776855104291
 21
-154.6764656199358
 31
0.0
  0
TEXT
  5
2138
330
2
100
AcDbEntity
  8
LOGO
100
AcDbText
 10
515.8101743509807
 20
29.90695974423649
 30
0.0
 40
4.283999999999999
  1
MVSF-100-3E2
100
AcDbText
  0
DIMENSION
  5
26C8
330
2
100
AcDbEntity
  8
AM_REFDIM
100
AcDbDimension
  2
*D11
 10
580.9742115156979
 20
-5.980427615472706
 30
0.0
 11
599.6646711408674
 21
-15.74713144678668
 31
0.0
 70
   163
  1
2-<> thru
 71
     5
 42
1.700000000000102
  3
STANDARD
100
AcDbDiametricDimension
 15
581.8585639260032
 25
-7.43229565850828
 35
0.0
 40
0.0
1001
GENIUS_GENDTOL_13
1000

1000
lc3
1000

1040
0.0
1001
ACAD
1000
DSTYLE
1002
{
1070
   288
1070
     1
1070
   289
1070
     3
1070
   172
1070
     1
1070
    74
1070
     1
1070
   144
1040
1.0
1002
}
  0
LINE
  5
26C9
330
2
100
AcDbEntity
  8
AM_7
100
AcDbLine
 10
578.6163877208506
 20
-0.6063616369905276
 30
0.0
 11
580.6163877208506
 21
-0.6063616369905276
 31
0.0
  0
LINE
  5
26CA
330
2
100
AcDbEntity
  8
AM_7
100
AcDbLine
 10
579.6163877208506
 20
-1.606361636990527
 30
0.0
 11
579.6163877208506
 21
0.3936383630094724
 31
0.0
  0
LINE
  5
26CB
102
{ACAD_REACTORS
330
3D32
102
}
330
2
100
AcDbEntity
  8
AM_7
100
AcDbLine
 10
576.7663877208506
 20
-0.6063616369905276
 30
0.0
 11
577.8163877208505
 21
-0.6063616369905276
 31
0.0
  0
LINE
  5
26CC
330
2
100
AcDbEntity
  8
AM_7
100
AcDbLine
 10
581.4163877208506
 20
-0.6063616369905276
 30
0.0
 11
582.4663877208506
 21
-0.6063616369905276
 31
0.0
  0
LINE
  5
26CD
330
2
100
AcDbEntity
  8
AM_7
100
AcDbLine
 10
579.6163877208506
 20
-3.456361636990521
 30
0.0
 11
579.6163877208506
 21
-2.406361636990538
 31
0.0
  0
LINE
  5
26CE
102
{ACAD_REACTORS
330
3B59
102
}
330
2
100
AcDbEntity
  8
AM_7
100
AcDbLine
 10
579.6163877208506
 20
1.193638363009483
 30
0.0
 11
579.6163877208506
 21
2.243638363009466
 31
0.0
  0
LINE
  5
26CF
330
2
100
AcDbEntity
  8
AM_7
100
AcDbLine
 10
580.4163877208505
 20
-6.706361636990521
 30
0.0
 11
582.4163877208506
 21
-6.706361636990521
 31
0.0
  0
LINE
  5
26D0
330
2
100
AcDbEntity
  8
AM_7
100
AcDbLine
 10
581.4163877208506
 20
-7.706361636990521
 30
0.0
 11
581.4163877208506
 21
-5.706361636990521
 31
0.0
  0
LINE
  5
26D1
102
{ACAD_REACTORS
330
3D05
102
}
330
2
100
AcDbEntity
  8
AM_7
100
AcDbLine
 10
578.2163877208506
 20
-6.706361636990521
 30
0.0
 11
579.6163877208506
 21
-6.706361636990521
 31
0.0
  0
LINE
  5
26D2
102
{ACAD_REACTORS
330
34EF
102
}
330
2
100
AcDbEntity
  8
AM_7
100
AcDbLine
 10
583.2163877208507
 20
-6.706361636990521
 30
0.0
 11
584.6163877208506
 21
-6.706361636990521
 31
0.0
  0
LINE
  5
26D3
330
2
100
AcDbEntity
  8
AM_7
100
AcDbLine
 10
581.4163877208506
 20
-9.90636163699051
 30
0.0
 11
581.4163877208506
 21
-8.506361636990533
 31
0.0
  0
LINE
  5
26D4
330
2
100
AcDbEntity
  8
AM_7
100
AcDbLine
 10
581.4163877208506
 20
-4.90636163699051
 30
0.0
 11
581.4163877208506
 21
-3.506361636990533
 31
0.0
  0
LINE
  5
26D5
330
2
100
AcDbEntity
  8
AM_7
100
AcDbLine
 10
573.3163877208506
 20
1.493638363009466
 30
0.0
 11
575.3163877208505
 21
1.493638363009466
 31
0.0
  0
LINE
  5
26D6
330
2
100
AcDbEntity
  8
AM_7
100
AcDbLine
 10
574.3163877208505
 20
0.4936383630094668
 30
0.0
 11
574.3163877208505
 21
2.493638363009466
 31
0.0
  0
LINE
  5
26D7
102
{ACAD_REACTORS
330
3D05
102
}
330
2
100
AcDbEntity
  8
AM_7
100
AcDbLine
 10
571.1163877208506
 20
1.493638363009466
 30
0.0
 11
572.5163877208506
 21
1.493638363009466
 31
0.0
  0
LINE
  5
26D8
102
{ACAD_REACTORS
330
34EF
102
}
330
2
100
AcDbEntity
  8
AM_7
100
AcDbLine
 10
576.1163877208506
 20
1.493638363009466
 30
0.0
 11
577.5163877208505
 21
1.493638363009466
 31
0.0
  0
LINE
  5
26D9
330
2
100
AcDbEntity
  8
AM_7
100
AcDbLine
 10
574.3163877208505
 20
-1.706361636990521
 30
0.0
 11
574.3163877208505
 21
-0.3063616369905446
 31
0.0
  0
LINE
  5
26DA
102
{ACAD_REACTORS
330
380C
330
3B59
102
}
330
2
100
AcDbEntity
  8
AM_7
100
AcDbLine
 10
574.3163877208505
 20
3.293638363009478
 30
0.0
 11
574.3163877208505
 21
4.693638363009455
 31
0.0
  0
DIMENSION
  5
26E3
102
{ACAD_REACTORS
330
3DBB
102
}
330
2
100
AcDbEntity
  8
AM_REFDIM
100
AcDbDimension
  2
*D12
 10
581.4163877208506
 20
-15.68815807284375
 30
0.0
 11
577.8663877208505
 21
-15.68815807284375
 31
0.0
 70
   160
 71
     5
 42
7.100000000000022
  3
STANDARD$0
100
AcDbAlignedDimension
 13
574.3163877208505
 23
-1.706361636990521
 33
0.0
 14
581.4163877208506
 24
-9.90636163699051
 34
0.0
100
AcDbRotatedDimension
  0
LINE
  5
26E7
102
{ACAD_REACTORS
330
3D32
102
}
330
2
100
AcDbEntity
  8
AM_7
100
AcDbLine
 10
582.7463877208506
 20
-2.60636163699047
 30
0.0
 11
576.9863877208506
 21
-2.60636163699047
 31
0.0
  0
LINE
  5
26E8
330
2
100
AcDbEntity
  8
AM_7
100
AcDbLine
 10
581.4163877208506
 20
-43.7916840787835
 30
0.0
 11
581.4163877208506
 21
-48.39168407878353
 31
0.0
  0
LINE
  5
26E9
330
2
100
AcDbEntity
  8
AM_7
100
AcDbLine
 10
598.9663877208506
 20
-52.99168407878361
 30
0.0
 11
591.9659574113368
 21
-52.99168407878361
 31
0.0
  0
LINE
  5
26EA
330
2
100
AcDbEntity
  8
AM_7
100
AcDbLine
 10
593.3663877208506
 20
-52.5916840787836
 30
0.0
 11
595.3663877208506
 21
-52.5916840787836
 31
0.0
  0
LINE
  5
26EB
330
2
100
AcDbEntity
  8
AM_7
100
AcDbLine
 10
594.3663877208506
 20
-53.5916840787836
 30
0.0
 11
594.3663877208506
 21
-51.5916840787836
 31
0.0
  0
LINE
  5
26EC
330
2
100
AcDbEntity
  8
AM_7
100
AcDbLine
 10
592.0663877208506
 20
-52.5916840787836
 30
0.0
 11
592.5663877208505
 21
-52.5916840787836
 31
0.0
  0
LINE
  5
26ED
330
2
100
AcDbEntity
  8
AM_7
100
AcDbLine
 10
596.1663877208506
 20
-52.5916840787836
 30
0.0
 11
596.6663877208506
 21
-52.5916840787836
 31
0.0
  0
LINE
  5
26EE
330
2
100
AcDbEntity
  8
AM_7
100
AcDbLine
 10
594.3663877208506
 20
-54.89168407878361
 30
0.0
 11
594.3663877208506
 21
-54.39168407878361
 31
0.0
  0
LINE
  5
26EF
330
2
100
AcDbEntity
  8
AM_7
100
AcDbLine
 10
594.3663877208506
 20
-50.79168407878359
 30
0.0
 11
594.3663877208506
 21
-50.29168407878358
 31
0.0
  0
LINE
  5
26F1
330
2
100
AcDbEntity
  8
AM_7
100
AcDbLine
 10
613.9663877208506
 20
-54.29168407878359
 30
0.0
 11
607.2663877208506
 21
-54.29168407878359
 31
0.0
  0
LINE
  5
26F2
330
2
100
AcDbEntity
  8
AM_7
100
AcDbLine
 10
614.1663877208506
 20
-52.89168407878356
 30
0.0
 11
608.7663877208505
 21
-52.89168407878356
 31
0.0
  0
LINE
  5
26F3
330
2
100
AcDbEntity
  8
AM_7
100
AcDbLine
 10
603.8663877208506
 20
-61.09168407878357
 30
0.0
 11
603.8663877208506
 21
-54.05945435285961
 31
0.0
  0
LINE
  5
26F4
330
2
100
AcDbEntity
  8
AM_7
100
AcDbLine
 10
582.1163877208506
 20
-95.00492119295859
 30
0.0
 11
584.1163877208506
 21
-95.00492119295859
 31
0.0
  0
LINE
  5
26F5
330
2
100
AcDbEntity
  8
AM_7
100
AcDbLine
 10
583.1163877208506
 20
-96.00492119295859
 30
0.0
 11
583.1163877208506
 21
-94.0049211929586
 31
0.0
  0
LINE
  5
26F6
330
2
100
AcDbEntity
  8
AM_7
100
AcDbLine
 10
580.2168877208506
 20
-95.00492119295859
 30
0.0
 11
581.3163877208506
 21
-95.00492119295859
 31
0.0
  0
LINE
  5
26F7
330
2
100
AcDbEntity
  8
AM_7
100
AcDbLine
 10
584.9163877208505
 20
-95.00492119295859
 30
0.0
 11
586.0158877208506
 21
-95.00492119295859
 31
0.0
  0
LINE
  5
26F8
102
{ACAD_REACTORS
330
3763
102
}
330
2
100
AcDbEntity
  8
AM_7
100
AcDbLine
 10
583.1163877208506
 20
-97.9044211929586
 30
0.0
 11
583.1163877208506
 21
-96.80492119295861
 31
0.0
  0
LINE
  5
26F9
330
2
100
AcDbEntity
  8
AM_7
100
AcDbLine
 10
583.1163877208506
 20
-93.20492119295861
 30
0.0
 11
583.1163877208506
 21
-92.1054211929586
 31
0.0
  0
LINE
  5
26FA
330
2
100
AcDbEntity
  8
AM_7
100
AcDbLine
 10
573.3163877208506
 20
-99.10492119295861
 30
0.0
 11
575.3163877208505
 21
-99.10492119295861
 31
0.0
  0
LINE
  5
26FB
330
2
100
AcDbEntity
  8
AM_7
100
AcDbLine
 10
574.3163877208505
 20
-100.1049211929586
 30
0.0
 11
574.3163877208505
 21
-98.10492119295862
 31
0.0
  0
LINE
  5
26FC
330
2
100
AcDbEntity
  8
AM_7
100
AcDbLine
 10
571.8663877208506
 20
-99.10492119295861
 30
0.0
 11
572.5163877208506
 21
-99.10492119295861
 31
0.0
  0
LINE
  5
26FD
330
2
100
AcDbEntity
  8
AM_7
100
AcDbLine
 10
576.1163877208506
 20
-99.10492119295861
 30
0.0
 11
576.7663877208506
 21
-99.10492119295861
 31
0.0
  0
LINE
  5
26FE
330
2
100
AcDbEntity
  8
AM_7
100
AcDbLine
 10
574.3163877208505
 20
-101.5549211929586
 30
0.0
 11
574.3163877208505
 21
-100.9049211929586
 31
0.0
  0
LINE
  5
26FF
330
2
100
AcDbEntity
  8
AM_7
100
AcDbLine
 10
574.3163877208505
 20
-97.3049211929586
 30
0.0
 11
574.3163877208505
 21
-96.65492119295862
 31
0.0
  0
LINE
  5
2700
330
2
100
AcDbEntity
  8
AM_7
100
AcDbLine
 10
580.4163877208505
 20
-90.90492119295863
 30
0.0
 11
582.4163877208506
 21
-90.90492119295863
 31
0.0
  0
LINE
  5
2701
330
2
100
AcDbEntity
  8
AM_7
100
AcDbLine
 10
581.4163877208506
 20
-91.90492119295862
 30
0.0
 11
581.4163877208506
 21
-89.90492119295863
 31
0.0
  0
LINE
  5
2702
330
2
100
AcDbEntity
  8
AM_7
100
AcDbLine
 10
578.9663877208506
 20
-90.90492119295863
 30
0.0
 11
579.6163877208505
 21
-90.90492119295863
 31
0.0
  0
LINE
  5
2703
330
2
100
AcDbEntity
  8
AM_7
100
AcDbLine
 10
583.2163877208507
 20
-90.90492119295863
 30
0.0
 11
583.8663877208505
 21
-90.90492119295863
 31
0.0
  0
LINE
  5
2704
330
2
100
AcDbEntity
  8
AM_7
100
AcDbLine
 10
581.4163877208506
 20
-93.35492119295862
 30
0.0
 11
581.4163877208506
 21
-92.70492119295861
 31
0.0
  0
LINE
  5
2705
330
2
100
AcDbEntity
  8
AM_7
100
AcDbLine
 10
581.4163877208506
 20
-89.10492119295861
 30
0.0
 11
581.4163877208506
 21
-88.4549211929586
 31
0.0
  0
LINE
  5
2706
330
2
100
AcDbEntity
  8
AM_7
100
AcDbLine
 10
575.1163877208506
 20
-95.00492119295859
 30
0.0
 11
577.1163877208506
 21
-95.00492119295859
 31
0.0
  0
LINE
  5
2707
330
2
100
AcDbEntity
  8
AM_7
100
AcDbLine
 10
576.1163877208506
 20
-96.00492119295859
 30
0.0
 11
576.1163877208506
 21
-94.0049211929586
 31
0.0
  0
LINE
  5
2708
330
2
100
AcDbEntity
  8
AM_7
100
AcDbLine
 10
573.2168877208506
 20
-95.00492119295859
 30
0.0
 11
574.3163877208505
 21
-95.00492119295859
 31
0.0
  0
LINE
  5
2709
330
2
100
AcDbEntity
  8
AM_7
100
AcDbLine
 10
577.9163877208506
 20
-95.00492119295859
 30
0.0
 11
579.0158877208506
 21
-95.00492119295859
 31
0.0
  0
LINE
  5
270A
330
2
100
AcDbEntity
  8
AM_7
100
AcDbLine
 10
576.1163877208506
 20
-97.9044211929586
 30
0.0
 11
576.1163877208506
 21
-96.80492119295861
 31
0.0
  0
LINE
  5
270B
330
2
100
AcDbEntity
  8
AM_7
100
AcDbLine
 10
576.1163877208506
 20
-93.20492119295861
 30
0.0
 11
576.1163877208506
 21
-92.1054211929586
 31
0.0
  0
LINE
  5
270C
330
2
100
AcDbEntity
  8
AM_7
100
AcDbLine
 10
579.1863877208506
 20
-95.00492119295865
 30
0.0
 11
572.8663877208506
 21
-95.00492119295865
 31
0.0
  0
LINE
  5
270D
330
2
100
AcDbEntity
  8
AM_7
100
AcDbLine
 10
580.3463877208506
 20
-95.00492119295865
 30
0.0
 11
587.6663877208506
 21
-95.00492119295865
 31
0.0
  0
LINE
  5
270E
330
2
100
AcDbEntity
  8
AM_7
100
AcDbLine
 10
614.1663877208506
 20
-95.0049211929585
 30
0.0
 11
608.7663877208505
 21
-95.0049211929585
 31
0.0
  0
LINE
  5
270F
330
2
100
AcDbEntity
  8
AM_7
100
AcDbLine
 10
613.9663877208506
 20
-98.25492119295853
 30
0.0
 11
607.2663877208506
 21
-98.25492119295853
 31
0.0
  0
LINE
  5
2710
330
2
100
AcDbEntity
  8
AM_7
100
AcDbLine
 10
613.9663877208506
 20
-91.75492119295853
 30
0.0
 11
607.2663877208506
 21
-91.75492119295853
 31
0.0
  0
LINE
  5
2711
330
2
100
AcDbEntity
  8
AM_7
100
AcDbLine
 10
602.8663877208506
 20
-95.00492119295854
 30
0.0
 11
604.8663877208506
 21
-95.00492119295854
 31
0.0
  0
LINE
  5
2712
330
2
100
AcDbEntity
  8
AM_7
100
AcDbLine
 10
603.8663877208506
 20
-96.00492119295854
 30
0.0
 11
603.8663877208506
 21
-94.00492119295853
 31
0.0
  0
LINE
  5
2713
330
2
100
AcDbEntity
  8
AM_7
100
AcDbLine
 10
598.8663877208506
 20
-95.00492119295854
 30
0.0
 11
602.0663877208505
 21
-95.00492119295854
 31
0.0
  0
LINE
  5
2714
330
2
100
AcDbEntity
  8
AM_7
100
AcDbLine
 10
605.6663877208506
 20
-95.00492119295854
 30
0.0
 11
608.8663877208506
 21
-95.00492119295854
 31
0.0
  0
LINE
  5
2715
330
2
100
AcDbEntity
  8
AM_7
100
AcDbLine
 10
603.8663877208506
 20
-100.0049211929585
 30
0.0
 11
603.8663877208506
 21
-96.80492119295855
 31
0.0
  0
LINE
  5
2716
330
2
100
AcDbEntity
  8
AM_7
100
AcDbLine
 10
603.8663877208506
 20
-93.20492119295852
 30
0.0
 11
603.8663877208506
 21
-90.00492119295854
 31
0.0
  0
LINE
  5
2717
330
2
100
AcDbEntity
  8
AM_7
100
AcDbLine
 10
647.5970170267385
 20
-61.09168407878357
 30
0.0
 11
647.5970170267385
 21
-54.05945435285961
 31
0.0
  0
LINE
  5
2718
330
2
100
AcDbEntity
  8
AM_7
100
AcDbLine
 10
646.5970170267383
 20
-52.89168407878356
 30
0.0
 11
648.5970170267384
 21
-52.89168407878356
 31
0.0
  0
LINE
  5
2719
330
2
100
AcDbEntity
  8
AM_7
100
AcDbLine
 10
647.5970170267384
 20
-53.89168407878355
 30
0.0
 11
647.5970170267384
 21
-51.89168407878355
 31
0.0
  0
LINE
  5
271A
330
2
100
AcDbEntity
  8
AM_7
100
AcDbLine
 10
642.9970170267384
 20
-52.89168407878356
 30
0.0
 11
645.7970170267383
 21
-52.89168407878356
 31
0.0
  0
LINE
  5
271B
330
2
100
AcDbEntity
  8
AM_7
100
AcDbLine
 10
649.3970170267385
 20
-52.89168407878356
 30
0.0
 11
652.1970170267384
 21
-52.89168407878356
 31
0.0
  0
LINE
  5
271C
330
2
100
AcDbEntity
  8
AM_7
100
AcDbLine
 10
647.5970170267384
 20
-57.49168407878355
 30
0.0
 11
647.5970170267384
 21
-54.69168407878356
 31
0.0
  0
LINE
  5
271D
330
2
100
AcDbEntity
  8
AM_7
100
AcDbLine
 10
647.5970170267384
 20
-51.09168407878354
 30
0.0
 11
647.5970170267384
 21
-48.29168407878356
 31
0.0
  0
LINE
  5
271E
330
2
100
AcDbEntity
  8
AM_7
100
AcDbLine
 10
643.3470170267384
 20
-54.29168407878359
 30
0.0
 11
645.3470170267385
 21
-54.29168407878359
 31
0.0
  0
LINE
  5
271F
330
2
100
AcDbEntity
  8
AM_7
100
AcDbLine
 10
644.3470170267385
 20
-55.29168407878358
 30
0.0
 11
644.3470170267385
 21
-53.29168407878359
 31
0.0
  0
LINE
  5
2720
330
2
100
AcDbEntity
  8
AM_7
100
AcDbLine
 10
640.2470170267384
 20
-54.29168407878359
 30
0.0
 11
642.5470170267384
 21
-54.29168407878359
 31
0.0
  0
LINE
  5
2721
330
2
100
AcDbEntity
  8
AM_7
100
AcDbLine
 10
646.1470170267384
 20
-54.29168407878359
 30
0.0
 11
648.4470170267384
 21
-54.29168407878359
 31
0.0
  0
LINE
  5
2722
330
2
100
AcDbEntity
  8
AM_7
100
AcDbLine
 10
644.3470170267385
 20
-58.39168407878358
 30
0.0
 11
644.3470170267385
 21
-56.0916840787836
 31
0.0
  0
LINE
  5
2723
330
2
100
AcDbEntity
  8
AM_7
100
AcDbLine
 10
644.3470170267385
 20
-52.49168407878357
 30
0.0
 11
644.3470170267385
 21
-50.1916840787836
 31
0.0
  0
LINE
  5
2724
330
2
100
AcDbEntity
  8
AM_7
100
AcDbLine
 10
649.8470170267385
 20
-54.29168407878356
 30
0.0
 11
651.8470170267384
 21
-54.29168407878356
 31
0.0
  0
LINE
  5
2725
330
2
100
AcDbEntity
  8
AM_7
100
AcDbLine
 10
650.8470170267385
 20
-55.29168407878356
 30
0.0
 11
650.8470170267385
 21
-53.29168407878356
 31
0.0
  0
LINE
  5
2726
330
2
100
AcDbEntity
  8
AM_7
100
AcDbLine
 10
646.7470170267383
 20
-54.29168407878356
 30
0.0
 11
649.0470170267384
 21
-54.29168407878356
 31
0.0
  0
LINE
  5
2727
330
2
100
AcDbEntity
  8
AM_7
100
AcDbLine
 10
652.6470170267384
 20
-54.29168407878356
 30
0.0
 11
654.9470170267384
 21
-54.29168407878356
 31
0.0
  0
LINE
  5
2728
330
2
100
AcDbEntity
  8
AM_7
100
AcDbLine
 10
650.8470170267385
 20
-58.39168407878355
 30
0.0
 11
650.8470170267385
 21
-56.09168407878357
 31
0.0
  0
LINE
  5
2729
330
2
100
AcDbEntity
  8
AM_7
100
AcDbLine
 10
650.8470170267385
 20
-52.49168407878355
 30
0.0
 11
650.8470170267385
 21
-50.19168407878357
 31
0.0
  0
LINE
  5
272A
330
2
100
AcDbEntity
  8
AM_7
100
AcDbLine
 10
648.0970170267384
 20
-40.09168407878354
 30
0.0
 11
650.0970170267383
 21
-40.09168407878354
 31
0.0
  0
LINE
  5
272B
330
2
100
AcDbEntity
  8
AM_7
100
AcDbLine
 10
649.0970170267384
 20
-41.09168407878354
 30
0.0
 11
649.0970170267384
 21
-39.09168407878354
 31
0.0
  0
LINE
  5
272C
330
2
100
AcDbEntity
  8
AM_7
100
AcDbLine
 10
647.2470170267383
 20
-40.09168407878354
 30
0.0
 11
647.2970170267383
 21
-40.09168407878354
 31
0.0
  0
LINE
  5
272D
330
2
100
AcDbEntity
  8
AM_7
100
AcDbLine
 10
650.8970170267384
 20
-40.09168407878354
 30
0.0
 11
650.9470170267384
 21
-40.09168407878354
 31
0.0
  0
LINE
  5
272E
330
2
100
AcDbEntity
  8
AM_7
100
AcDbLine
 10
649.0970170267384
 20
-41.94168407878353
 30
0.0
 11
649.0970170267384
 21
-41.89168407878355
 31
0.0
  0
LINE
  5
272F
330
2
100
AcDbEntity
  8
AM_7
100
AcDbLine
 10
649.0970170267384
 20
-38.29168407878353
 30
0.0
 11
649.0970170267384
 21
-38.24168407878355
 31
0.0
  0
LINE
  5
2730
330
2
100
AcDbEntity
  8
AM_7
100
AcDbLine
 10
645.0970170267384
 20
-40.09168407878354
 30
0.0
 11
647.0970170267384
 21
-40.09168407878354
 31
0.0
  0
LINE
  5
2731
330
2
100
AcDbEntity
  8
AM_7
100
AcDbLine
 10
646.0970170267383
 20
-41.09168407878354
 30
0.0
 11
646.0970170267383
 21
-39.09168407878354
 31
0.0
  0
LINE
  5
2732
330
2
100
AcDbEntity
  8
AM_7
100
AcDbLine
 10
644.2470170267384
 20
-40.09168407878354
 30
0.0
 11
644.2970170267383
 21
-40.09168407878354
 31
0.0
  0
LINE
  5
2733
330
2
100
AcDbEntity
  8
AM_7
100
AcDbLine
 10
647.8970170267384
 20
-40.09168407878354
 30
0.0
 11
647.9470170267384
 21
-40.09168407878354
 31
0.0
  0
LINE
  5
2734
330
2
100
AcDbEntity
  8
AM_7
100
AcDbLine
 10
646.0970170267383
 20
-41.94168407878353
 30
0.0
 11
646.0970170267383
 21
-41.89168407878355
 31
0.0
  0
LINE
  5
2735
330
2
100
AcDbEntity
  8
AM_7
100
AcDbLine
 10
646.0970170267383
 20
-38.29168407878353
 30
0.0
 11
646.0970170267383
 21
-38.24168407878355
 31
0.0
  0
LINE
  5
2736
330
2
100
AcDbEntity
  8
AM_7
100
AcDbLine
 10
594.3663877208506
 20
-9.206361636990521
 30
0.0
 11
594.3663877208506
 21
-0.0063616369905333
 31
0.0
  0
DIMENSION
  5
273E
330
2
100
AcDbEntity
  8
AM_REFDIM
100
AcDbDimension
  2
*D13
 10
583.1163877208506
 20
-107.0049211929586
 30
0.0
 11
579.6163877208506
 21
-105.0799211929586
 31
0.0
 70
    32
 71
     5
 42
7.0
  3
STANDARD$0
100
AcDbAlignedDimension
 13
576.1163877208506
 23
-97.9044211929586
 33
0.0
 14
583.1163877208506
 24
-97.9044211929586
 34
0.0
100
AcDbRotatedDimension
  0
DIMENSION
  5
273F
330
2
100
AcDbEntity
  8
AM_REFDIM
100
AcDbDimension
  2
*D14
 10
634.940903934922
 20
-32.89168407878356
 30
0.0
 11
633.015903934922
 21
-46.64168407878341
 31
0.0
 70
    32
 71
     5
 42
27.49999999999995
  3
STANDARD$0
100
AcDbAlignedDimension
 13
642.0970170267385
 23
-60.39168407878349
 33
0.0
 14
642.5970170267383
 24
-32.89168407878356
 34
0.0
 50
90.0
100
AcDbRotatedDimension
  0
LINE
  5
2745
330
2
100
AcDbEntity
  8
AM_VIS
100
AcDbLine
 10
596.1663877208506
 20
-7.706361636990578
 30
0.0
 11
596.1663877208506
 21
-7.606361636990527
 31
0.0
  0
LINE
  5
2746
330
2
100
AcDbEntity
  8
AM_VIS
100
AcDbLine
 10
596.6380398084575
 20
2.452374152215583
 30
0.0
 11
596.1663877208507
 21
2.493638363009466
 31
0.0
  0
LINE
  5
2747
330
2
100
AcDbEntity
  8
AM_VIS
100
AcDbLine
 10
596.1663877208507
 20
2.393638363009472
 30
0.0
 11
596.1663877208507
 21
2.493638363009495
 31
0.0
  0
ARC
  5
2748
330
2
100
AcDbEntity
  8
AM_VIS
100
AcDbCircle
 10
596.5822601330991
 20
1.814809545436844
 30
0.0
 40
0.6400000000000002
100
AcDbArc
 50
64.74528343909952
 51
84.99999999999694
  0
LINE
  5
2749
330
2
100
AcDbEntity
  8
AM_VIS
100
AcDbLine
 10
583.0163877208506
 20
-7.606361636990527
 30
0.0
 11
582.4163877208506
 21
-7.606361636990527
 31
0.0
  0
LINE
  5
274A
330
2
100
AcDbEntity
  8
AM_VIS
100
AcDbLine
 10
582.4163877208506
 20
-7.606361636990527
 30
0.0
 11
581.9163877208506
 21
-8.106361636990527
 31
0.0
  0
LINE
  5
274B
330
2
100
AcDbEntity
  8
AM_VIS
100
AcDbLine
 10
581.9163877208506
 20
-8.106361636990527
 30
0.0
 11
580.9163877208505
 21
-8.106361636990527
 31
0.0
  0
LINE
  5
274C
330
2
100
AcDbEntity
  8
AM_VIS
100
AcDbLine
 10
580.9163877208505
 20
-8.106361636990527
 30
0.0
 11
580.4163877208505
 21
-7.606361636990527
 31
0.0
  0
LINE
  5
274D
330
2
100
AcDbEntity
  8
AM_VIS
100
AcDbLine
 10
572.7163877208506
 20
2.393638363009472
 30
0.0
 11
573.3163877208506
 21
2.393638363009472
 31
0.0
  0
LINE
  5
274E
330
2
100
AcDbEntity
  8
AM_VIS
100
AcDbLine
 10
573.3163877208506
 20
2.393638363009472
 30
0.0
 11
573.8163877208505
 21
2.893638363009472
 31
0.0
  0
LINE
  5
274F
330
2
100
AcDbEntity
  8
AM_VIS
100
AcDbLine
 10
573.8163877208505
 20
2.893638363009472
 30
0.0
 11
574.8163877208505
 21
2.893638363009472
 31
0.0
  0
LINE
  5
2750
330
2
100
AcDbEntity
  8
AM_VIS
100
AcDbLine
 10
574.8163877208505
 20
2.893638363009472
 30
0.0
 11
575.3163877208505
 21
2.393638363009472
 31
0.0
  0
LINE
  5
2751
330
2
100
AcDbEntity
  8
AM_VIS
100
AcDbLine
 10
575.3163877208505
 20
2.393638363009472
 30
0.0
 11
575.9163877208505
 21
2.393638363009472
 31
0.0
  0
LINE
  5
2752
330
2
100
AcDbEntity
  8
AM_VIS
100
AcDbLine
 10
580.4163877208505
 20
-7.606361636990527
 30
0.0
 11
579.8163877208505
 21
-7.606361636990527
 31
0.0
  0
LINE
  5
2753
330
2
100
AcDbEntity
  8
AM_VIS
100
AcDbLine
 10
571.3663877208506
 20
-7.606361636990527
 30
0.0
 11
573.0663877208505
 21
-7.606361636990527
 31
0.0
  0
LINE
  5
2754
330
2
100
AcDbEntity
  8
AM_VIS
100
AcDbLine
 10
571.3663877208506
 20
2.393638363009472
 30
0.0
 11
571.3663877208506
 21
-7.606361636990527
 31
0.0
  0
LINE
  5
2755
330
2
100
AcDbEntity
  8
AM_VIS
100
AcDbLine
 10
571.3663877208506
 20
2.393638363009472
 30
0.0
 11
572.7163877208506
 21
2.393638363009472
 31
0.0
  0
LINE
  5
2756
330
2
100
AcDbEntity
  8
AM_VIS
100
AcDbLine
 10
572.7163877208506
 20
1.493638363009495
 30
0.0
 11
572.7163877208506
 21
2.3936383630095
 31
0.0
  0
LINE
  5
2757
330
2
100
AcDbEntity
  8
AM_VIS
100
AcDbLine
 10
575.9163877208505
 20
2.393638363009472
 30
0.0
 11
575.9163877208505
 21
1.493638363009466
 31
0.0
  0
LINE
  5
2758
330
2
100
AcDbEntity
  8
AM_VIS
100
AcDbLine
 10
575.9163877208505
 20
2.393638363009472
 30
0.0
 11
580.1663877208506
 21
2.393638363009472
 31
0.0
  0
LINE
  5
2759
330
2
100
AcDbEntity
  8
AM_VIS
100
AcDbLine
 10
580.6663877208506
 20
1.893638363009472
 30
0.0
 11
580.1663877208506
 21
2.393638363009472
 31
0.0
  0
LINE
  5
275A
330
2
100
AcDbEntity
  8
AM_VIS
100
AcDbLine
 10
582.1663877208505
 20
1.893638363009472
 30
0.0
 11
580.6663877208506
 21
1.893638363009472
 31
0.0
  0
LINE
  5
275B
330
2
100
AcDbEntity
  8
AM_VIS
100
AcDbLine
 10
582.6663877208505
 20
2.393638363009472
 30
0.0
 11
582.1663877208505
 21
1.893638363009472
 31
0.0
  0
LINE
  5
275C
330
2
100
AcDbEntity
  8
AM_VIS
100
AcDbLine
 10
582.6663877208505
 20
2.393638363009472
 30
0.0
 11
587.8663877208506
 21
2.393638363009472
 31
0.0
  0
LINE
  5
275D
330
2
100
AcDbEntity
  8
AM_VIS
100
AcDbLine
 10
587.8663877208506
 20
-7.606361636990527
 30
0.0
 11
587.8663877208506
 21
2.393638363009472
 31
0.0
  0
LINE
  5
275E
330
2
100
AcDbEntity
  8
AM_VIS
100
AcDbLine
 10
583.0163877208506
 20
-7.606361636990527
 30
0.0
 11
587.8663877208506
 21
-7.606361636990527
 31
0.0
  0
LINE
  5
275F
330
2
100
AcDbEntity
  8
AM_VIS
100
AcDbLine
 10
583.0163877208506
 20
-6.706361636990493
 30
0.0
 11
583.0163877208506
 21
-7.606361636990499
 31
0.0
  0
LINE
  5
2760
330
2
100
AcDbEntity
  8
AM_VIS
100
AcDbLine
 10
579.8163877208505
 20
-7.606361636990527
 30
0.0
 11
579.8163877208505
 21
-6.706361636990521
 31
0.0
  0
LINE
  5
2761
330
2
100
AcDbEntity
  8
AM_VIS
100
AcDbLine
 10
575.5663877208506
 20
-7.606361636990527
 30
0.0
 11
579.8163877208505
 21
-7.606361636990527
 31
0.0
  0
LINE
  5
2762
330
2
100
AcDbEntity
  8
AM_VIS
100
AcDbLine
 10
575.0663877208506
 20
-7.106361636990527
 30
0.0
 11
575.5663877208506
 21
-7.606361636990527
 31
0.0
  0
LINE
  5
2763
330
2
100
AcDbEntity
  8
AM_VIS
100
AcDbLine
 10
573.5663877208505
 20
-7.106361636990527
 30
0.0
 11
575.0663877208506
 21
-7.106361636990527
 31
0.0
  0
LINE
  5
2764
330
2
100
AcDbEntity
  8
AM_VIS
100
AcDbLine
 10
573.0663877208505
 20
-7.606361636990527
 30
0.0
 11
573.5663877208505
 21
-7.106361636990527
 31
0.0
  0
CIRCLE
  5
2765
330
2
100
AcDbEntity
  8
AM_VIS
100
AcDbCircle
 10
581.4163877208506
 20
-6.706361636990493
 30
0.0
 40
0.85
  0
CIRCLE
  5
2766
330
2
100
AcDbEntity
  8
AM_VIS
100
AcDbCircle
 10
574.3163877208505
 20
1.493638363009495
 30
0.0
 40
0.85
  0
CIRCLE
  5
2767
330
2
100
AcDbEntity
  8
AM_VIS
100
AcDbCircle
 10
579.6163877208506
 20
-0.6063616369905276
 30
0.0
 40
1.0
  0
ARC
  5
2768
330
2
100
AcDbEntity
  8
AM_VIS
100
AcDbCircle
 10
574.3163877208505
 20
1.493638363009495
 30
0.0
 40
1.6
100
AcDbArc
 50
180.0
 51
0.0
  0
ARC
  5
2769
330
2
100
AcDbEntity
  8
AM_VIS
100
AcDbCircle
 10
581.4163877208506
 20
-6.706361636990493
 30
0.0
 40
1.6
100
AcDbArc
 50
0.0
 51
180.0
  0
CIRCLE
  5
276A
102
{ACAD_REACTORS
330
351C
102
}
330
2
100
AcDbEntity
  8
AM_VIS
100
AcDbCircle
 10
579.6163877208506
 20
-0.6063616369905276
 30
0.0
 40
1.549999999999999
  0
CIRCLE
  5
276B
330
2
100
AcDbEntity
  8
AM_VIS
100
AcDbCircle
 10
579.6163877208506
 20
-0.6063616369905276
 30
0.0
 40
1.25
  0
LINE
  5
276C
330
2
100
AcDbEntity
  8
AM_VIS
100
AcDbLine
 10
587.8663877208506
 20
2.393638363009472
 30
0.0
 11
587.8663877208506
 21
-7.606361636990527
 31
0.0
  0
LINE
  5
276D
330
2
100
AcDbEntity
  8
AM_VIS
100
AcDbLine
 10
587.8663877208506
 20
2.393638363009472
 30
0.0
 11
597.3663877208506
 21
2.393638363009472
 31
0.0
  0
LINE
  5
276E
330
2
100
AcDbEntity
  8
AM_VIS
100
AcDbLine
 10
587.8663877208506
 20
-7.606361636990527
 30
0.0
 11
597.3663877208506
 21
-7.606361636990527
 31
0.0
  0
ARC
  5
276F
330
2
100
AcDbEntity
  8
AM_VIS
100
AcDbCircle
 10
598.3662557708182
 20
-4.606361636990516
 30
0.0
 40
4.674968506161929
100
AcDbArc
 50
177.5480788316093
 51
182.4519211683906
  0
ARC
  5
2770
330
2
100
AcDbEntity
  8
AM_VIS
100
AcDbCircle
 10
590.3665196708829
 20
-4.606361636990572
 30
0.0
 40
4.674968506161929
100
AcDbArc
 50
357.5480788316093
 51
2.451921168390651
  0
CIRCLE
  5
2771
330
2
100
AcDbEntity
  8
AM_VIS
100
AcDbCircle
 10
594.3663877208506
 20
-4.606361636990544
 30
0.0
 40
0.7
  0
LINE
  5
2772
330
2
100
AcDbEntity
  8
AM_VIS
100
AcDbLine
 10
571.3663877208506
 20
-7.606361636990556
 30
0.0
 11
571.3663877208506
 21
2.393638363009443
 31
0.0
  0
LINE
  5
2778
330
2
100
AcDbEntity
  8
AM_VIS
100
AcDbLine
 10
580.2778255486167
 20
-1.35636163699047
 30
0.0
 11
579.3863877208506
 21
-1.35636163699047
 31
0.0
  0
LINE
  5
2779
330
2
100
AcDbEntity
  8
AM_VIS
100
AcDbLine
 10
579.3863877208506
 20
-1.35636163699047
 30
0.0
 11
578.6806544008052
 21
-0.2536533244194459
 31
0.0
  0
LINE
  5
277A
330
2
100
AcDbEntity
  8
AM_VIS
100
AcDbLine
 10
579.3863877208506
 20
-1.35636163699047
 30
0.0
 11
579.3863877208506
 21
-1.579552265798668
 31
0.0
  0
LINE
  5
277B
330
2
100
AcDbEntity
  8
AM_VIS
100
AcDbLine
 10
610.3663877208506
 20
-7.606361636990669
 30
0.0
 11
597.3663877208506
 21
-7.606361636990669
 31
0.0
  0
LINE
  5
277C
330
2
100
AcDbEntity
  8
AM_VIS
100
AcDbLine
 10
597.3663877208506
 20
2.39363836300933
 30
0.0
 11
610.3663877208506
 21
2.39363836300933
 31
0.0
  0
LINE
  5
277D
330
2
100
AcDbEntity
  8
AM_VIS
100
AcDbLine
 10
597.3663877208506
 20
-7.606361636990669
 30
0.0
 11
597.3663877208506
 21
2.39363836300933
 31
0.0
  0
LINE
  5
277E
330
2
100
AcDbEntity
  8
AM_VIS
100
AcDbLine
 10
610.3663877208506
 20
-7.606361636990669
 30
0.0
 11
610.3663877208506
 21
2.39363836300933
 31
0.0
  0
LINE
  5
277F
330
2
100
AcDbEntity
  8
AM_VIS
100
AcDbLine
 10
615.3663877208506
 20
-6.606361636990641
 30
0.0
 11
613.8663877208506
 21
-7.606361636990641
 31
0.0
  0
LINE
  5
2780
330
2
100
AcDbEntity
  8
AM_VIS
100
AcDbLine
 10
615.3663877208506
 20
1.143638363009358
 30
0.0
 11
618.8663877208506
 21
1.143638363009358
 31
0.0
  0
LINE
  5
2781
330
2
100
AcDbEntity
  8
AM_VIS
100
AcDbLine
 10
618.8663877208506
 20
1.143638363009358
 30
0.0
 11
619.8663877208506
 21
0.543638363009336
 31
0.0
  0
LINE
  5
2782
330
2
100
AcDbEntity
  8
AM_VIS
100
AcDbLine
 10
619.8663877208506
 20
0.3936383630093587
 30
0.0
 11
619.8663877208506
 21
0.543638363009336
 31
0.0
  0
LINE
  5
2783
330
2
100
AcDbEntity
  8
AM_VIS
100
AcDbLine
 10
619.8663877208506
 20
0.3936383630093587
 30
0.0
 11
619.8663877208506
 21
-0.506361636990647
 31
0.0
  0
LINE
  5
2784
330
2
100
AcDbEntity
  8
AM_VIS
100
AcDbLine
 10
615.3663877208506
 20
0.3936383630093587
 30
0.0
 11
619.8663877208506
 21
0.3936383630093587
 31
0.0
  0
LINE
  5
2785
330
2
100
AcDbEntity
  8
AM_VIS
100
AcDbLine
 10
619.8663877208506
 20
-0.5063616369906186
 30
0.0
 11
615.3663877208506
 21
-0.5063616369906186
 31
0.0
  0
LINE
  5
2786
330
2
100
AcDbEntity
  8
AM_VIS
100
AcDbLine
 10
619.8663877208506
 20
-4.706361636990635
 30
0.0
 11
619.8663877208506
 21
-0.5063616369906186
 31
0.0
  0
LINE
  5
2787
330
2
100
AcDbEntity
  8
AM_VIS
100
AcDbLine
 10
619.8663877208506
 20
-5.756361636990618
 30
0.0
 11
619.8663877208506
 21
-5.606361636990612
 31
0.0
  0
LINE
  5
2788
330
2
100
AcDbEntity
  8
AM_VIS
100
AcDbLine
 10
619.8663877208506
 20
-5.756361636990618
 30
0.0
 11
618.8663877208506
 21
-6.356361636990612
 31
0.0
  0
LINE
  5
2789
330
2
100
AcDbEntity
  8
AM_VIS
100
AcDbLine
 10
615.3663877208506
 20
-6.356361636990641
 30
0.0
 11
618.8663877208506
 21
-6.356361636990641
 31
0.0
  0
LINE
  5
278A
330
2
100
AcDbEntity
  8
AM_VIS
100
AcDbLine
 10
619.8663877208506
 20
-4.706361636990635
 30
0.0
 11
619.8663877208506
 21
-5.606361636990641
 31
0.0
  0
LINE
  5
278B
330
2
100
AcDbEntity
  8
AM_VIS
100
AcDbLine
 10
615.3663877208506
 20
-4.706361636990635
 30
0.0
 11
619.8663877208506
 21
-4.706361636990635
 31
0.0
  0
LINE
  5
278C
330
2
100
AcDbEntity
  8
AM_VIS
100
AcDbLine
 10
619.8663877208506
 20
-5.606361636990641
 30
0.0
 11
615.3663877208506
 21
-5.606361636990641
 31
0.0
  0
LINE
  5
278D
330
2
100
AcDbEntity
  8
AM_VIS
100
AcDbLine
 10
618.3663877208506
 20
-2.106361636990641
 30
0.0
 11
617.1663877208507
 21
-2.106361636990641
 31
0.0
  0
LINE
  5
278E
330
2
100
AcDbEntity
  8
AM_VIS
100
AcDbLine
 10
618.3663877208506
 20
-2.106361636990641
 30
0.0
 11
618.3663877208506
 21
-3.106361636990641
 31
0.0
  0
LINE
  5
278F
330
2
100
AcDbEntity
  8
AM_VIS
100
AcDbLine
 10
617.1663877208507
 20
-3.106361636990641
 30
0.0
 11
618.3663877208506
 21
-3.106361636990641
 31
0.0
  0
LINE
  5
2790
330
2
100
AcDbEntity
  8
AM_VIS
100
AcDbLine
 10
617.1663877208507
 20
-2.106361636990641
 30
0.0
 11
617.1663877208507
 21
-3.106361636990641
 31
0.0
  0
LINE
  5
2791
330
2
100
AcDbEntity
  8
AM_VIS
100
AcDbLine
 10
615.3663877208506
 20
-6.606361636990641
 30
0.0
 11
615.3663877208506
 21
-4.606361636990641
 31
0.0
  0
LINE
  5
2792
330
2
100
AcDbEntity
  8
AM_VIS
100
AcDbLine
 10
613.8663877208506
 20
2.393638363009358
 30
0.0
 11
615.3663877208506
 21
1.393638363009358
 31
0.0
  0
LINE
  5
2793
330
2
100
AcDbEntity
  8
AM_VIS
100
AcDbLine
 10
615.3663877208506
 20
-0.6063616369906413
 30
0.0
 11
615.3663877208506
 21
1.393638363009358
 31
0.0
  0
LINE
  5
2794
330
2
100
AcDbEntity
  8
AM_VIS
100
AcDbLine
 10
613.8663877208506
 20
-4.606361636990641
 30
0.0
 11
613.8663877208506
 21
-7.606361636990641
 31
0.0
  0
LINE
  5
2795
330
2
100
AcDbEntity
  8
AM_VIS
100
AcDbLine
 10
610.3663877208506
 20
-7.606361636990641
 30
0.0
 11
613.8663877208506
 21
-7.606361636990641
 31
0.0
  0
LINE
  5
2796
330
2
100
AcDbEntity
  8
AM_VIS
100
AcDbLine
 10
610.3663877208506
 20
2.393638363009358
 30
0.0
 11
610.3663877208506
 21
-7.606361636990641
 31
0.0
  0
LINE
  5
2797
330
2
100
AcDbEntity
  8
AM_VIS
100
AcDbLine
 10
610.3663877208506
 20
2.393638363009358
 30
0.0
 11
613.8663877208506
 21
2.393638363009358
 31
0.0
  0
LINE
  5
2798
330
2
100
AcDbEntity
  8
AM_VIS
100
AcDbLine
 10
613.8663877208506
 20
2.393638363009358
 30
0.0
 11
613.8663877208506
 21
-0.6063616369906413
 31
0.0
  0
LINE
  5
2799
330
2
100
AcDbEntity
  8
AM_VIS
100
AcDbLine
 10
615.3663877208506
 20
-4.606361636990641
 30
0.0
 11
613.8663877208506
 21
-4.606361636990641
 31
0.0
  0
LINE
  5
279A
330
2
100
AcDbEntity
  8
AM_VIS
100
AcDbLine
 10
613.8663877208506
 20
-4.606361636990641
 30
0.0
 11
613.0663877208506
 21
-4.606361636990641
 31
0.0
  0
LINE
  5
279B
330
2
100
AcDbEntity
  8
AM_VIS
100
AcDbLine
 10
613.0663877208506
 20
-0.6063616369906413
 30
0.0
 11
613.8663877208506
 21
-0.6063616369906413
 31
0.0
  0
LINE
  5
279C
330
2
100
AcDbEntity
  8
AM_VIS
100
AcDbLine
 10
613.8663877208506
 20
-0.6063616369906413
 30
0.0
 11
615.3663877208506
 21
-0.6063616369906413
 31
0.0
  0
LINE
  5
279D
330
2
100
AcDbEntity
  8
AM_VIS
100
AcDbLine
 10
613.0663877208506
 20
-4.606361636990641
 30
0.0
 11
613.0663877208506
 21
-0.6063616369906413
 31
0.0
  0
LINE
  5
279E
330
2
100
AcDbEntity
  8
AM_VIS
100
AcDbLine
 10
613.783545008376
 20
-4.606361636990641
 30
0.0
 11
613.783545008376
 21
-0.6063616369906413
 31
0.0
  0
LINE
  5
279F
330
2
100
AcDbEntity
  8
AM_VIS
100
AcDbLine
 10
615.3663877208506
 20
-0.6063616369906413
 30
0.0
 11
615.3663877208506
 21
-4.606361636990641
 31
0.0
  0
LINE
  5
27B3
330
2
100
AcDbEntity
  8
AM_VIS
100
AcDbLine
 10
596.1663877208506
 20
-58.9484605150667
 30
0.0
 11
596.1663877208506
 21
-57.8349076425005
 31
0.0
  0
LINE
  5
27B4
330
2
100
AcDbEntity
  8
AM_VIS
100
AcDbLine
 10
597.3663877208506
 20
-58.23668407878358
 30
0.0
 11
597.3135520586914
 21
-58.23668407878358
 31
0.0
  0
ELLIPSE
  5
27B5
330
2
100
AcDbEntity
  8
AM_VIS
100
AcDbEllipse
 10
595.5487966758028
 20
-58.39168407878358
 30
0.0
 11
-0.000000000000001
 21
-2.335538904304221
 31
0.0
210
0.0
220
0.0
230
1.0
 40
0.7572790292165315
 41
1.504381673290255
 42
1.637210980299537
  0
LINE
  5
27B6
330
2
100
AcDbEntity
  8
AM_VIS
100
AcDbLine
 10
597.3135520586914
 20
-58.54668407878361
 30
0.0
 11
597.3663877208506
 21
-58.54668407878361
 31
0.0
  0
ARC
  5
27B7
330
2
100
AcDbEntity
  8
AM_VIS
100
AcDbCircle
 10
594.9663877208506
 20
-58.39168407878361
 30
0.0
 40
2.495190373498459
100
AcDbArc
 50
15.87715702472632
 51
19.83469875865789
  0
LINE
  5
27B8
330
2
100
AcDbEntity
  8
AM_VIS
100
AcDbLine
 10
597.3135520586918
 20
-59.23832129221423
 30
0.0
 11
597.3174513099523
 21
-59.24168407878361
 31
0.0
  0
LINE
  5
27B9
330
2
100
AcDbEntity
  8
AM_VIS
100
AcDbLine
 10
597.3174513099523
 20
-57.54168407878359
 30
0.0
 11
597.3135520586919
 21
-57.54504686535296
 31
0.0
  0
ARC
  5
27BA
330
2
100
AcDbEntity
  8
AM_VIS
100
AcDbCircle
 10
594.9663877208506
 20
-58.39168407878361
 30
0.0
 40
2.495190373498459
100
AcDbArc
 50
340.1653012413421
 51
344.1228429752737
  0
ARC
  5
27BB
330
2
100
AcDbEntity
  8
AM_VIS
100
AcDbCircle
 10
596.582260133099
 20
-57.47051289635618
 30
0.0
 40
0.6400000000000002
100
AcDbArc
 50
29.68645618692368
 51
64.74528343909624
  0
ARC
  5
27BC
330
2
100
AcDbEntity
  8
AM_VIS
100
AcDbCircle
 10
596.582260133099
 20
-59.31285526121098
 30
0.0
 40
0.6400000000000002
100
AcDbArc
 50
295.2547165609038
 51
330.3135438130749
  0
ARC
  5
27BD
330
2
100
AcDbEntity
  8
AM_VIS
100
AcDbCircle
 10
594.9663877208506
 20
-58.39168407878361
 30
0.0
 40
2.5
100
AcDbArc
 50
19.87687407007918
 51
29.68645618692226
  0
ARC
  5
27BE
330
2
100
AcDbEntity
  8
AM_VIS
100
AcDbCircle
 10
594.9663877208506
 20
-58.39168407878361
 30
0.0
 40
2.5
100
AcDbArc
 50
330.3135438130778
 51
340.1231259299208
  0
LINE
  5
27BF
330
2
100
AcDbEntity
  8
AM_VIS
100
AcDbLine
 10
582.4163877208506
 20
-46.79168407878347
 30
0.0
 11
582.4163877208506
 21
-60.39168407878347
 31
0.0
  0
LINE
  5
27C0
330
2
100
AcDbEntity
  8
AM_VIS
100
AcDbLine
 10
581.9163877208506
 20
-46.79168407878347
 30
0.0
 11
581.9163877208506
 21
-60.39168407878347
 31
0.0
  0
LINE
  5
27C1
330
2
100
AcDbEntity
  8
AM_VIS
100
AcDbLine
 10
580.9163877208505
 20
-46.79168407878347
 30
0.0
 11
580.9163877208505
 21
-60.39168407878347
 31
0.0
  0
LINE
  5
27C2
102
{ACAD_REACTORS
330
2FCD
102
}
330
2
100
AcDbEntity
  8
AM_VIS
100
AcDbLine
 10
583.0163877208506
 20
-46.79168407878347
 30
0.0
 11
582.4163877208506
 21
-46.79168407878347
 31
0.0
  0
LINE
  5
27C3
330
2
100
AcDbEntity
  8
AM_VIS
100
AcDbLine
 10
582.4163877208506
 20
-46.79168407878347
 30
0.0
 11
581.9163877208506
 21
-46.79168407878347
 31
0.0
  0
LINE
  5
27C4
330
2
100
AcDbEntity
  8
AM_VIS
100
AcDbLine
 10
581.9163877208506
 20
-46.79168407878347
 30
0.0
 11
580.9163877208505
 21
-46.79168407878347
 31
0.0
  0
LINE
  5
27C5
330
2
100
AcDbEntity
  8
AM_VIS
100
AcDbLine
 10
580.9163877208505
 20
-46.79168407878347
 30
0.0
 11
580.4163877208505
 21
-46.79168407878347
 31
0.0
  0
LINE
  5
27C6
330
2
100
AcDbEntity
  8
AM_VIS
100
AcDbLine
 10
583.0163877208506
 20
-45.39168407878349
 30
0.0
 11
583.0163877208506
 21
-46.7916840787835
 31
0.0
  0
LINE
  5
27C7
330
2
100
AcDbEntity
  8
AM_VIS
100
AcDbLine
 10
571.3663877208506
 20
-45.39168407878349
 30
0.0
 11
571.3663877208506
 21
-60.39168407878349
 31
0.0
  0
LINE
  5
27C8
330
2
100
AcDbEntity
  8
AM_VIS
100
AcDbLine
 10
587.8663877208506
 20
-60.39168407878349
 30
0.0
 11
587.8663877208506
 21
-45.39168407878349
 31
0.0
  0
LINE
  5
27C9
330
2
100
AcDbEntity
  8
AM_VIS
100
AcDbLine
 10
579.8163877208505
 20
-46.79168407878347
 30
0.0
 11
579.8163877208505
 21
-45.39168407878347
 31
0.0
  0
LINE
  5
27CA
330
2
100
AcDbEntity
  8
AM_VIS
100
AcDbLine
 10
580.4163877208505
 20
-46.79168407878347
 30
0.0
 11
579.8163877208505
 21
-46.79168407878347
 31
0.0
  0
LINE
  5
27CB
330
2
100
AcDbEntity
  8
AM_VIS
100
AcDbLine
 10
580.4163877208505
 20
-60.39168407878349
 30
0.0
 11
580.4163877208505
 21
-46.7916840787835
 31
0.0
  0
LINE
  5
27CC
330
2
100
AcDbEntity
  8
AM_VIS
100
AcDbLine
 10
575.5663877208506
 20
-45.39168407878349
 30
0.0
 11
575.5663877208506
 21
-60.39168407878349
 31
0.0
  0
LINE
  5
27CD
330
2
100
AcDbEntity
  8
AM_VIS
100
AcDbLine
 10
573.0663877208505
 20
-60.39168407878349
 30
0.0
 11
573.0663877208505
 21
-45.39168407878349
 31
0.0
  0
LINE
  5
27CE
330
2
100
AcDbEntity
  8
AM_VIS
100
AcDbLine
 10
573.5663877208505
 20
-45.39168407878349
 30
0.0
 11
573.5663877208505
 21
-60.39168407878349
 31
0.0
  0
LINE
  5
27CF
330
2
100
AcDbEntity
  8
AM_VIS
100
AcDbLine
 10
575.0663877208506
 20
-45.39168407878349
 30
0.0
 11
575.0663877208506
 21
-60.39168407878349
 31
0.0
  0
LINE
  5
27D0
330
2
100
AcDbEntity
  8
AM_VIS
100
AcDbLine
 10
571.3663877208506
 20
-45.39168407878349
 30
0.0
 11
573.0663877208505
 21
-45.39168407878349
 31
0.0
  0
LINE
  5
27D1
330
2
100
AcDbEntity
  8
AM_VIS
100
AcDbLine
 10
583.0163877208506
 20
-45.39168407878349
 30
0.0
 11
587.8663877208506
 21
-45.39168407878349
 31
0.0
  0
LINE
  5
27D2
330
2
100
AcDbEntity
  8
AM_VIS
100
AcDbLine
 10
575.5663877208506
 20
-45.39168407878349
 30
0.0
 11
579.8163877208505
 21
-45.39168407878349
 31
0.0
  0
LINE
  5
27D3
330
2
100
AcDbEntity
  8
AM_VIS
100
AcDbLine
 10
575.0663877208506
 20
-45.39168407878349
 30
0.0
 11
575.5663877208506
 21
-45.39168407878349
 31
0.0
  0
LINE
  5
27D4
330
2
100
AcDbEntity
  8
AM_VIS
100
AcDbLine
 10
573.5663877208505
 20
-45.39168407878349
 30
0.0
 11
575.0663877208506
 21
-45.39168407878349
 31
0.0
  0
LINE
  5
27D5
330
2
100
AcDbEntity
  8
AM_VIS
100
AcDbLine
 10
573.0663877208505
 20
-45.39168407878349
 30
0.0
 11
573.5663877208505
 21
-45.39168407878349
 31
0.0
  0
LINE
  5
27D6
330
2
100
AcDbEntity
  8
AM_VIS
100
AcDbLine
 10
575.5663877208506
 20
-60.39168407878349
 30
0.0
 11
580.4163877208505
 21
-60.39168407878349
 31
0.0
  0
LINE
  5
27D7
330
2
100
AcDbEntity
  8
AM_VIS
100
AcDbLine
 10
580.4163877208505
 20
-60.39168407878349
 30
0.0
 11
580.9163877208505
 21
-60.39168407878349
 31
0.0
  0
LINE
  5
27D8
330
2
100
AcDbEntity
  8
AM_VIS
100
AcDbLine
 10
580.9163877208505
 20
-60.39168407878349
 30
0.0
 11
581.9163877208506
 21
-60.39168407878349
 31
0.0
  0
LINE
  5
27D9
330
2
100
AcDbEntity
  8
AM_VIS
100
AcDbLine
 10
581.9163877208506
 20
-60.39168407878349
 30
0.0
 11
582.4163877208506
 21
-60.39168407878349
 31
0.0
  0
LINE
  5
27DA
330
2
100
AcDbEntity
  8
AM_VIS
100
AcDbLine
 10
582.4163877208506
 20
-60.39168407878349
 30
0.0
 11
587.8663877208506
 21
-60.39168407878349
 31
0.0
  0
LINE
  5
27DB
330
2
100
AcDbEntity
  8
AM_VIS
100
AcDbLine
 10
571.3663877208506
 20
-60.39168407878349
 30
0.0
 11
573.0663877208505
 21
-60.39168407878349
 31
0.0
  0
LINE
  5
27DC
330
2
100
AcDbEntity
  8
AM_VIS
100
AcDbLine
 10
573.5663877208505
 20
-60.39168407878349
 30
0.0
 11
573.0663877208505
 21
-60.39168407878349
 31
0.0
  0
LINE
  5
27DD
330
2
100
AcDbEntity
  8
AM_VIS
100
AcDbLine
 10
575.0663877208506
 20
-60.39168407878349
 30
0.0
 11
573.5663877208505
 21
-60.39168407878349
 31
0.0
  0
LINE
  5
27DE
330
2
100
AcDbEntity
  8
AM_VIS
100
AcDbLine
 10
575.5663877208506
 20
-60.39168407878349
 30
0.0
 11
575.0663877208506
 21
-60.39168407878349
 31
0.0
  0
LINE
  5
27DF
102
{ACAD_REACTORS
330
2FCD
102
}
330
2
100
AcDbEntity
  8
AM_VIS
100
AcDbLine
 10
579.8163877208505
 20
-45.39168407878349
 30
0.0
 11
583.0163877208506
 21
-45.39168407878349
 31
0.0
  0
LINE
  5
27E0
330
2
100
AcDbEntity
  8
AM_VIS
100
AcDbLine
 10
587.8663877208506
 20
-45.39168407878358
 30
0.0
 11
587.8663877208506
 21
-51.89168407878359
 31
0.0
  0
LINE
  5
27E1
330
2
100
AcDbEntity
  8
AM_VIS
100
AcDbLine
 10
587.8663877208506
 20
-45.39168407878356
 30
0.0
 11
597.3663877208506
 21
-45.39168407878356
 31
0.0
  0
LINE
  5
27E2
330
2
100
AcDbEntity
  8
AM_VIS
100
AcDbLine
 10
596.1663877208506
 20
-56.89168407878359
 30
0.0
 11
597.3663877208506
 21
-56.89168407878359
 31
0.0
  0
LINE
  5
27E3
330
2
100
AcDbEntity
  8
AM_VIS
100
AcDbLine
 10
596.1663877208506
 20
-59.89168407878358
 30
0.0
 11
596.1663877208506
 21
-58.9484605150667
 31
0.0
  0
LINE
  5
27E4
330
2
100
AcDbEntity
  8
AM_VIS
100
AcDbLine
 10
596.1663877208506
 20
-57.83490764250046
 30
0.0
 11
596.1663877208506
 21
-56.89168407878355
 31
0.0
  0
LINE
  5
27E5
330
2
100
AcDbEntity
  8
AM_VIS
100
AcDbLine
 10
597.3663877208506
 20
-59.89168407878358
 30
0.0
 11
596.1663877208506
 21
-59.89168407878358
 31
0.0
  0
LINE
  5
27E6
330
2
100
AcDbEntity
  8
AM_VIS
100
AcDbLine
 10
587.8663877208506
 20
-60.39168407878356
 30
0.0
 11
597.3663877208506
 21
-60.39168407878356
 31
0.0
  0
LINE
  5
27E7
330
2
100
AcDbEntity
  8
AM_VIS
100
AcDbLine
 10
587.8663877208506
 20
-53.89168407878358
 30
0.0
 11
587.8663877208506
 21
-60.39168407878358
 31
0.0
  0
LINE
  5
27E8
330
2
100
AcDbEntity
  8
AM_VIS
100
AcDbLine
 10
588.3663877208506
 20
-51.89168407878355
 30
0.0
 11
588.3663877208506
 21
-53.89168407878355
 31
0.0
  0
LINE
  5
27E9
330
2
100
AcDbEntity
  8
AM_VIS
100
AcDbLine
 10
588.3663877208506
 20
-53.89168407878355
 30
0.0
 11
587.8663877208506
 21
-53.89168407878355
 31
0.0
  0
LINE
  5
27EA
330
2
100
AcDbEntity
  8
AM_VIS
100
AcDbLine
 10
587.8663877208506
 20
-51.89168407878355
 30
0.0
 11
588.3663877208506
 21
-51.89168407878355
 31
0.0
  0
ARC
  5
27EB
330
2
100
AcDbEntity
  8
AM_VIS
100
AcDbCircle
 10
594.6929416310065
 20
-53.26008485926355
 30
0.0
 40
0.9204007112118768
100
AcDbArc
 50
153.9012297567695
 51
164.3619031299875
  0
SPLINE
  5
27EC
330
2
100
AcDbEntity
  8
AM_VIS
100
AcDbSpline
210
0.0
220
0.0
230
1.0
 70
     8
 71
     3
 72
    38
 73
    34
 74
     0
 42
0.0000000001
 43
0.0000000001
 40
0.0096105424429285
 40
0.0096105424429285
 40
0.0096105424429285
 40
0.0096105424429285
 40
0.2511760059468008
 40
0.2511760059468008
 40
0.3661489296361611
 40
0.3661489296361611
 40
0.4503270969622498
 40
0.4503270969622498
 40
0.5340078174843953
 40
0.5340078174843953
 40
0.6478119174360324
 40
0.6478119174360324
 40
0.803204793355861
 40
0.803204793355861
 40
1.030112956685476
 40
1.030112956685476
 40
1.139750424396189
 40
1.139750424396189
 40
1.231613346946539
 40
1.231613346946539
 40
1.383927807882236
 40
1.383927807882236
 40
1.903215338580305
 40
1.903215338580305
 40
2.725560479358289
 40
2.725560479358289
 40
3.333619977246191
 40
3.333619977246191
 40
3.793936947558544
 40
3.793936947558544
 40
4.267761469383683
 40
4.267761469383683
 40
4.698806880710381
 40
4.698806880710381
 40
4.698806880710381
 40
4.698806880710381
 10
595.0592080438781
 20
-52.69168407878357
 30
0.0
 10
594.9992466024187
 20
-52.73434661518717
 30
0.0
 10
594.9442230042887
 20
-52.78247570513258
 30
0.0
 10
594.8603278059738
 20
-52.86072027822999
 30
0.0
 10
594.8334896518908
 20
-52.88640078808623
 30
0.0
 10
594.7859778406215
 20
-52.93120206981382
 30
0.0
 10
594.7657961224283
 20
-52.95003070474004
 30
0.0
 10
594.7247712488088
 20
-52.98721489978956
 30
0.0
 10
594.7041106301672
 20
-53.0054115653327
 30
0.0
 10
594.6543370207453
 20
-53.04740990186084
 30
0.0
 10
594.6250924742956
 20
-53.07067887338758
 30
0.0
 10
594.5541399918177
 20
-53.12269442136482
 30
0.0
 10
594.5161902509169
 20
-53.14711591005999
 30
0.0
 10
594.4346410820331
 20
-53.19178912472944
 30
0.0
 10
594.4079856845578
 20
-53.19858732613801
 30
0.0
 10
594.3859637019602
 20
-53.20278384566515
 30
0.0
 10
594.3787649909814
 20
-53.20365207351597
 30
0.0
 10
594.3652864748866
 20
-53.20415740007951
 30
0.0
 10
594.3592084861299
 20
-53.20396578860044
 30
0.0
 10
594.3429594504374
 20
-53.20237576880021
 30
0.0
 10
594.3330688395933
 20
-53.20029273385415
 30
0.0
 10
594.290409959304
 20
-53.18800494675127
 30
0.0
 10
594.2560430766284
 20
-53.16912134503616
 30
0.0
 10
594.2035589406064
 20
-53.13881651430378
 30
0.0
 10
594.1673784420678
 20
-53.11486520835041
 30
0.0
 10
594.0998221986307
 20
-53.06450459288481
 30
0.0
 10
594.0718218723768
 20
-53.04197933580883
 30
0.0
 10
594.0234988786031
 20
-53.00090779421788
 30
0.0
 10
594.003097490212
 20
-52.98283604607087
 30
0.0
 10
593.9620982043362
 20
-52.94551780826942
 30
0.0
 10
593.9416994437747
 20
-52.9264227046119
 30
0.0
 10
593.9029138405162
 20
-52.88978810112689
 30
0.0
 10
593.8846626672829
 20
-52.87240877199838
 30
0.0
 10
593.8663877208506
 20
-52.85518227492332
 30
0.0
  0
LINE
  5
27ED
330
2
100
AcDbEntity
  8
AM_VIS
100
AcDbLine
 10
597.3663877208506
 20
-60.39168407878356
 30
0.0
 11
597.3663877208506
 21
-59.89168407878356
 31
0.0
  0
LINE
  5
27EE
102
{ACAD_REACTORS
330
3576
102
}
330
2
100
AcDbEntity
  8
AM_VIS
100
AcDbLine
 10
597.3663877208506
 20
-56.89168407878355
 30
0.0
 11
597.3663877208506
 21
-45.39168407878356
 31
0.0
  0
LINE
  5
27EF
330
2
100
AcDbEntity
  8
AM_VIS
100
AcDbLine
 10
593.8663877208506
 20
-52.85518227492332
 30
0.0
 11
593.8663877208506
 21
-53.08158202734023
 31
0.0
  0
CIRCLE
  5
27F0
330
2
100
AcDbEntity
  8
AM_VIS
100
AcDbCircle
 10
594.3663877208506
 20
-52.5916840787836
 30
0.0
 40
0.7
  0
LINE
  5
27F3
330
2
100
AcDbEntity
  8
AM_VIS
100
AcDbLine
 10
571.3663877208506
 20
-60.39168407878344
 30
0.0
 11
571.3663877208506
 21
-45.39168407878344
 31
0.0
  0
LINE
  5
27FB
330
2
100
AcDbEntity
  8
AM_VIS
100
AcDbLine
 10
612.3663877208506
 20
-52.09168407878355
 30
0.0
 11
612.3663877208506
 21
-52.5917134908027
 31
0.0
  0
LINE
  5
27FC
330
2
100
AcDbEntity
  8
AM_VIS
100
AcDbLine
 10
599.9663877208506
 20
-58.39168407878355
 30
0.0
 11
607.6663877208505
 21
-58.39168407878355
 31
0.0
  0
LINE
  5
27FD
330
2
100
AcDbEntity
  8
AM_VIS
100
AcDbLine
 10
599.9663877208506
 20
-59.49168407878357
 30
0.0
 11
599.9663877208506
 21
-58.39168407878355
 31
0.0
  0
LINE
  5
27FE
330
2
100
AcDbEntity
  8
AM_VIS
100
AcDbLine
 10
607.6663877208505
 20
-59.49168407878357
 30
0.0
 11
599.9663877208506
 21
-59.49168407878357
 31
0.0
  0
LINE
  5
27FF
330
2
100
AcDbEntity
  8
AM_VIS
100
AcDbLine
 10
607.6663877208505
 20
-58.39168407878355
 30
0.0
 11
607.6663877208505
 21
-59.49168407878355
 31
0.0
  0
LINE
  5
2800
102
{ACAD_REACTORS
330
31AC
102
}
330
2
100
AcDbEntity
  8
AM_VIS
100
AcDbLine
 10
610.3663877208506
 20
-60.39168407878356
 30
0.0
 11
610.3663877208506
 21
-56.11168407878356
 31
0.0
  0
LINE
  5
2801
102
{ACAD_REACTORS
330
3576
102
}
330
2
100
AcDbEntity
  8
AM_VIS
100
AcDbLine
 10
597.3663877208506
 20
-60.39168407878356
 30
0.0
 11
610.3663877208506
 21
-60.39168407878356
 31
0.0
  0
LINE
  5
2802
330
2
100
AcDbEntity
  8
AM_VIS
100
AcDbLine
 10
597.3663877208506
 20
-52.59168407878354
 30
0.0
 11
597.3663877208506
 21
-60.39168407878356
 31
0.0
  0
LINE
  5
2803
330
2
100
AcDbEntity
  8
AM_VIS
100
AcDbLine
 10
608.8663877208506
 20
-52.59168407878354
 30
0.0
 11
597.3663877208506
 21
-52.59168407878354
 31
0.0
  0
LINE
  5
2804
330
2
100
AcDbEntity
  8
AM_VIS
100
AcDbLine
 10
608.8663877208506
 20
-56.11168407878356
 30
0.0
 11
608.8663877208506
 21
-52.59168407878354
 31
0.0
  0
LINE
  5
2805
330
2
100
AcDbEntity
  8
AM_VIS
100
AcDbLine
 10
610.3663877208506
 20
-52.5917134908027
 30
0.0
 11
612.3663877208506
 21
-52.5917134908027
 31
0.0
  0
LINE
  5
2806
330
2
100
AcDbEntity
  8
AM_VIS
100
AcDbLine
 10
610.3674942571659
 20
-55.33129426262843
 30
0.0
 11
612.3677681409899
 21
-54.87864775760323
 31
0.0
  0
LINE
  5
2807
330
2
100
AcDbEntity
  8
AM_VIS
100
AcDbLine
 10
610.3663877208506
 20
-56.11168407878356
 30
0.0
 11
608.8663877208506
 21
-56.11168407878356
 31
0.0
  0
LINE
  5
2808
330
2
100
AcDbEntity
  8
AM_VIS
100
AcDbLine
 10
612.5663877208506
 20
-53.19168407878357
 30
0.0
 11
612.3663877208506
 21
-53.19168407878357
 31
0.0
  0
LINE
  5
2809
330
2
100
AcDbEntity
  8
AM_VIS
100
AcDbLine
 10
612.3663877208506
 20
-52.59168407878354
 30
0.0
 11
612.5663877208506
 21
-52.59168407878354
 31
0.0
  0
LINE
  5
280A
330
2
100
AcDbEntity
  8
AM_VIS
100
AcDbLine
 10
607.2663877208506
 20
-59.49168407878352
 30
0.0
 11
607.2663877208506
 21
-58.39168407878353
 31
0.0
  0
LINE
  5
280B
330
2
100
AcDbEntity
  8
AM_VIS
100
AcDbLine
 10
600.4663877208506
 20
-59.49168407878352
 30
0.0
 11
600.4663877208506
 21
-58.39168407878353
 31
0.0
  0
LINE
  5
280C
330
2
100
AcDbEntity
  8
AM_VIS
100
AcDbLine
 10
612.3663877208506
 20
-55.39168407878356
 30
0.0
 11
610.3663877208506
 21
-55.89168407878355
 31
0.0
  0
LINE
  5
280D
330
2
100
AcDbEntity
  8
AM_VIS
100
AcDbLine
 10
612.3663877208506
 20
-54.39168407878355
 30
0.0
 11
612.5663877208506
 21
-54.39168407878355
 31
0.0
  0
LINE
  5
280E
330
2
100
AcDbEntity
  8
AM_VIS
100
AcDbLine
 10
612.3663877208506
 20
-51.39168407878355
 30
0.0
 11
612.5663877208506
 21
-51.39168407878355
 31
0.0
  0
LINE
  5
280F
330
2
100
AcDbEntity
  8
AM_VIS
100
AcDbLine
 10
612.3663877208506
 20
-54.87254759263436
 30
0.0
 11
612.3663877208506
 21
-55.39168407878356
 31
0.0
  0
LINE
  5
2810
330
2
100
AcDbEntity
  8
AM_VIS
100
AcDbLine
 10
610.3663877208506
 20
-52.59168407878354
 30
0.0
 11
610.3663877208506
 21
-52.5917134908027
 31
0.0
  0
LINE
  5
2811
330
2
100
AcDbEntity
  8
AM_VIS
100
AcDbLine
 10
612.3663877208506
 20
-52.5917134908027
 30
0.0
 11
612.3663877208506
 21
-54.87254759263436
 31
0.0
  0
LINE
  5
2812
330
2
100
AcDbEntity
  8
AM_VIS
100
AcDbLine
 10
610.3663877208506
 20
-55.32640440781142
 30
0.0
 11
610.3663877208506
 21
-56.11168407878356
 31
0.0
  0
LINE
  5
2813
330
2
100
AcDbEntity
  8
AM_VIS
100
AcDbLine
 10
612.5663877208506
 20
-51.39168407878355
 30
0.0
 11
612.5663877208506
 21
-52.59168407878354
 31
0.0
  0
LINE
  5
2814
330
2
100
AcDbEntity
  8
AM_VIS
100
AcDbLine
 10
612.5663877208506
 20
-53.19168407878357
 30
0.0
 11
612.5663877208506
 21
-54.39168407878355
 31
0.0
  0
LINE
  5
2815
330
2
100
AcDbEntity
  8
AM_VIS
100
AcDbLine
 10
610.3663877208506
 20
-32.89168407878356
 30
0.0
 11
597.3663877208506
 21
-32.89168407878356
 31
0.0
  0
LINE
  5
2816
330
2
100
AcDbEntity
  8
AM_VIS
100
AcDbLine
 10
597.3663877208506
 20
-52.59168407878354
 30
0.0
 11
597.3663877208506
 21
-32.89168407878356
 31
0.0
  0
LINE
  5
2817
330
2
100
AcDbEntity
  8
AM_VIS
100
AcDbLine
 10
612.3663877208506
 20
-52.09168407878355
 30
0.0
 11
612.3663877208506
 21
-49.89168407878356
 31
0.0
  0
LINE
  5
2818
330
2
100
AcDbEntity
  8
AM_VIS
100
AcDbLine
 10
610.3663877208506
 20
-49.89168407878356
 30
0.0
 11
610.3663877208506
 21
-32.89168407878356
 31
0.0
  0
LINE
  5
2819
330
2
100
AcDbEntity
  8
AM_VIS
100
AcDbLine
 10
612.3663877208506
 20
-49.89168407878356
 30
0.0
 11
610.3663877208506
 21
-49.89168407878356
 31
0.0
  0
LINE
  5
281A
330
2
100
AcDbEntity
  8
AM_VIS
100
AcDbLine
 10
610.8663877208506
 20
-52.59168407878354
 30
0.0
 11
597.3663877208506
 21
-52.59168407878354
 31
0.0
  0
LINE
  5
281B
330
2
100
AcDbEntity
  8
AM_VIS
100
AcDbLine
 10
612.3663877208506
 20
-52.09168407878355
 30
0.0
 11
610.8663877208506
 21
-52.59168407878354
 31
0.0
  0
LINE
  5
281C
330
2
100
AcDbEntity
  8
AM_VIS
100
AcDbLine
 10
610.3663877208506
 20
-49.89168407878356
 30
0.0
 11
613.8663877208506
 21
-49.89168407878356
 31
0.0
  0
LINE
  5
281D
330
2
100
AcDbEntity
  8
AM_VIS
100
AcDbLine
 10
610.3663877208506
 20
-32.89168407878356
 30
0.0
 11
610.3663877208506
 21
-49.89168407878356
 31
0.0
  0
LINE
  5
281E
330
2
100
AcDbEntity
  8
AM_VIS
100
AcDbLine
 10
613.8663877208506
 20
-49.89168407878356
 30
0.0
 11
615.3663877208506
 21
-48.39168407878355
 31
0.0
  0
LINE
  5
281F
330
2
100
AcDbEntity
  8
AM_VIS
100
AcDbLine
 10
613.8663877208506
 20
-32.89168407878356
 30
0.0
 11
613.8663877208506
 21
-49.89168407878356
 31
0.0
  0
LINE
  5
2820
330
2
100
AcDbEntity
  8
AM_VIS
100
AcDbLine
 10
615.3663877208506
 20
-34.39168407878355
 30
0.0
 11
613.8663877208506
 21
-32.89168407878356
 31
0.0
  0
LINE
  5
2821
330
2
100
AcDbEntity
  8
AM_VIS
100
AcDbLine
 10
618.8663877208506
 20
-36.89168407878355
 30
0.0
 11
618.8663877208506
 21
-42.29168407878353
 31
0.0
  0
LINE
  5
2822
330
2
100
AcDbEntity
  8
AM_VIS
100
AcDbLine
 10
619.8663877208506
 20
-41.99168407878355
 30
0.0
 11
619.8663877208506
 21
-36.89168407878355
 31
0.0
  0
LINE
  5
2823
330
2
100
AcDbEntity
  8
AM_VIS
100
AcDbLine
 10
615.3663877208506
 20
-42.29168407878356
 30
0.0
 11
618.8663877208506
 21
-42.29168407878356
 31
0.0
  0
LINE
  5
2824
102
{ACAD_REACTORS
330
36DF
102
}
330
2
100
AcDbEntity
  8
AM_VIS
100
AcDbLine
 10
619.8663877208506
 20
-41.99168407878355
 30
0.0
 11
618.8663877208506
 21
-42.29168407878356
 31
0.0
  0
LINE
  5
2825
330
2
100
AcDbEntity
  8
AM_VIS
100
AcDbLine
 10
619.8663877208506
 20
-36.89168407878355
 30
0.0
 11
618.8663877208506
 21
-36.89168407878355
 31
0.0
  0
LINE
  5
2826
330
2
100
AcDbEntity
  8
AM_VIS
100
AcDbLine
 10
615.3663877208506
 20
-36.89168407878355
 30
0.0
 11
618.8663877208506
 21
-36.89168407878355
 31
0.0
  0
LINE
  5
2827
330
2
100
AcDbEntity
  8
AM_VIS
100
AcDbLine
 10
619.8663877208506
 20
-36.89168407878355
 30
0.0
 11
619.8663877208506
 21
-35.39168407878356
 31
0.0
  0
LINE
  5
2828
330
2
100
AcDbEntity
  8
AM_VIS
100
AcDbLine
 10
619.8663877208506
 20
-35.39168407878356
 30
0.0
 11
615.3663877208506
 21
-35.39168407878356
 31
0.0
  0
LINE
  5
2829
330
2
100
AcDbEntity
  8
AM_VIS
100
AcDbLine
 10
615.3663877208506
 20
-48.39168407878355
 30
0.0
 11
615.3663877208506
 21
-34.39168407878355
 31
0.0
  0
LINE
  5
282A
330
2
100
AcDbEntity
  8
AM_VIS
100
AcDbLine
 10
610.3663877208506
 20
-32.89168407878356
 30
0.0
 11
613.8663877208506
 21
-32.89168407878356
 31
0.0
  0
LINE
  5
282B
330
2
100
AcDbEntity
  8
AM_VIS
100
AcDbLine
 10
610.0160336807245
 20
-54.4037279028195
 30
0.0
 11
610.108688502606
 21
-54.39205874863645
 31
0.0
  0
LINE
  5
282C
330
2
100
AcDbEntity
  8
AM_VIS
100
AcDbLine
 10
610.0871695492389
 20
-53.77816672703986
 30
0.0
 11
610.1086892194272
 21
-53.76720291981391
 31
0.0
  0
LINE
  5
282D
330
2
100
AcDbEntity
  8
AM_VIS
100
AcDbLine
 10
610.015033570685
 20
-54.61169005334318
 30
0.0
 11
610.1086884522267
 21
-54.62348643550502
 31
0.0
  0
LINE
  5
282E
330
2
100
AcDbEntity
  8
AM_VIS
100
AcDbLine
 10
609.3380398084575
 20
-52.73294828957745
 30
0.0
 11
608.8663877208506
 21
-52.69168407878353
 31
0.0
  0
LINE
  5
282F
330
2
100
AcDbEntity
  8
AM_VIS
100
AcDbLine
 10
609.3380398084575
 20
-55.8504198679897
 30
0.0
 11
608.8663877208506
 21
-55.89168407878361
 31
0.0
  0
ELLIPSE
  5
2830
330
2
100
AcDbEntity
  8
AM_VIS
100
AcDbEllipse
 10
607.6663877208505
 20
-54.23865493168705
 30
0.0
 11
2.490079065009783
 21
-0.0000000000000014
 31
0.0
210
0.0
220
0.0
230
1.0
 40
0.971183434860675
 41
0.1962051514771284
 42
0.3428970250348993
  0
ELLIPSE
  5
2831
330
2
100
AcDbEntity
  8
AM_VIS
100
AcDbEllipse
 10
608.2007495308593
 20
-54.92104355108182
 30
0.0
 11
1.794957342537177
 21
1.524020367793821
 31
0.0
210
0.0
220
0.0
230
1.0
 40
0.1838809272074957
 41
6.033676357464729
 42
6.216405892020736
  0
ELLIPSE
  5
2832
330
2
100
AcDbEntity
  8
AM_VIS
100
AcDbEllipse
 10
607.6663877208505
 20
-54.34471322588009
 30
0.0
 11
2.490079065009783
 21
-0.0000000000000014
 31
0.0
210
0.0
220
0.0
230
1.0
 40
0.971183434860675
 41
5.937689964444293
 42
6.086980155702427
  0
ELLIPSE
  5
2833
330
2
100
AcDbEntity
  8
AM_VIS
100
AcDbEllipse
 10
608.2007495308593
 20
-53.6623246064853
 30
0.0
 11
1.794957342537176
 21
-1.524020367793821
 31
0.0
210
0.0
220
0.0
230
1.0
 40
0.1838809272074965
 41
0.0602411001504009
 42
0.0739494530812475
  0
ELLIPSE
  5
2834
330
2
100
AcDbEntity
  8
AM_VIS
100
AcDbEllipse
 10
607.6663877208505
 20
-54.50777239304199
 30
0.0
 11
2.490079065009606
 21
-0.0000000000000005
 31
0.0
210
0.0
220
0.0
230
1.0
 40
0.2383332453776036
 41
5.937689964444311
 42
6.086980155702796
  0
ELLIPSE
  5
2835
330
2
100
AcDbEntity
  8
AM_VIS
100
AcDbEllipse
 10
608.2007495308593
 20
-54.44613202358761
 30
0.0
 11
0.6538164905629067
 21
2.262086191913681
 31
0.0
210
0.0
220
0.0
230
1.0
 40
0.7492958450165212
 41
4.992445536876728
 42
4.999615574798067
  0
ELLIPSE
  5
2836
330
2
100
AcDbEntity
  8
AM_VIS
100
AcDbEllipse
 10
607.6663877208507
 20
-54.075595764529
 30
0.0
 11
2.490079065009962
 21
-0.0000000000000005
 31
0.0
210
0.0
220
0.0
230
1.0
 40
0.2383332453776036
 41
5.937689964444257
 42
6.08698015570207
  0
ELLIPSE
  5
2837
330
2
100
AcDbEntity
  8
AM_VIS
100
AcDbEllipse
 10
608.2007495308593
 20
-54.13723613397952
 30
0.0
 11
0.6538164905629036
 21
-2.262086191913681
 31
0.0
210
0.0
220
0.0
230
1.0
 40
0.7492958450165198
 41
1.108010235745991
 42
1.297278085310446
  0
ELLIPSE
  5
2838
330
2
100
AcDbEntity
  8
AM_VIS
100
AcDbEllipse
 10
607.6663877208505
 20
-54.50777239304199
 30
0.0
 11
2.490079065009606
 21
-0.0000000000000005
 31
0.0
210
0.0
220
0.0
230
1.0
 40
0.2383332453776036
 41
0.1962051514767839
 42
0.3428970250345826
  0
ELLIPSE
  5
2839
330
2
100
AcDbEntity
  8
AM_VIS
100
AcDbEllipse
 10
607.6663877208505
 20
-54.34471322588009
 30
0.0
 11
2.490079065009783
 21
-0.0000000000000014
 31
0.0
210
0.0
220
0.0
230
1.0
 40
0.971183434860675
 41
0.1962051514771408
 42
0.3454953427352929
  0
LINE
  5
283A
330
2
100
AcDbEntity
  8
AM_VIS
100
AcDbLine
 10
610.1086907323542
 20
-54.39207645317011
 30
0.0
 11
610.1086907323542
 21
-54.62346833291388
 31
0.0
  0
LINE
  5
283B
330
2
100
AcDbEntity
  8
AM_VIS
100
AcDbLine
 10
610.1086907323542
 20
-53.76720588937485
 30
0.0
 11
610.1086907323542
 21
-53.87326418356787
 31
0.0
  0
LINE
  5
283C
330
2
100
AcDbEntity
  8
AM_VIS
100
AcDbLine
 10
610.1086907323542
 20
-53.87326418356787
 30
0.0
 11
610.1086907323542
 21
-54.19129170440132
 31
0.0
  0
LINE
  5
283D
330
2
100
AcDbEntity
  8
AM_VIS
100
AcDbLine
 10
610.1086907323542
 20
-54.62346833291388
 30
0.0
 11
610.1086907323542
 21
-54.81616226819227
 31
0.0
  0
ARC
  5
283E
330
2
100
AcDbEntity
  8
AM_VIS
100
AcDbCircle
 10
609.282260133099
 20
-53.37051289635616
 30
0.0
 40
0.6400000000000001
100
AcDbArc
 50
29.68645618692368
 51
85.00000000000019
  0
ARC
  5
283F
330
2
100
AcDbEntity
  8
AM_VIS
100
AcDbCircle
 10
609.282260133099
 20
-55.21285526121096
 30
0.0
 40
0.6400000000000002
100
AcDbArc
 50
274.9999999999998
 51
330.3135438130764
  0
ARC
  5
2840
330
2
100
AcDbEntity
  8
AM_VIS
100
AcDbCircle
 10
607.6663877208505
 20
-54.29168407878359
 30
0.0
 40
2.5
100
AcDbArc
 50
330.3135438130801
 51
339.653561528208
  0
ARC
  5
2841
330
2
100
AcDbEntity
  8
AM_VIS
100
AcDbCircle
 10
607.6663877208505
 20
-54.29168407878359
 30
0.0
 40
2.5
100
AcDbArc
 50
20.34643847179391
 51
29.68645618691994
  0
LINE
  5
2848
330
2
100
AcDbEntity
  8
AM_VIS
100
AcDbLine
 10
596.6380398084575
 20
-100.0636569821647
 30
0.0
 11
596.1663877208507
 21
-100.1049211929586
 31
0.0
  0
LINE
  5
2849
330
2
100
AcDbEntity
  8
AM_VIS
100
AcDbLine
 10
596.1663877208507
 20
-100.1049211929586
 30
0.0
 11
596.1663877208507
 21
-100.0049211929586
 31
0.0
  0
ARC
  5
284A
330
2
100
AcDbEntity
  8
AM_VIS
100
AcDbCircle
 10
596.5822601330991
 20
-99.42609237538597
 30
0.0
 40
0.6400000000000002
100
AcDbArc
 50
274.9999999999998
 51
295.2547165609001
  0
LINE
  5
284B
330
2
100
AcDbEntity
  8
AM_VIS
100
AcDbLine
 10
596.6380398084575
 20
-89.94618540375242
 30
0.0
 11
596.1663877208506
 21
-89.90492119295854
 31
0.0
  0
LINE
  5
284C
330
2
100
AcDbEntity
  8
AM_VIS
100
AcDbLine
 10
596.1663877208506
 20
-90.00492119295859
 30
0.0
 11
596.1663877208506
 21
-89.90492119295856
 31
0.0
  0
ARC
  5
284D
330
2
100
AcDbEntity
  8
AM_VIS
100
AcDbCircle
 10
596.582260133099
 20
-90.58375001053116
 30
0.0
 40
0.6400000000000002
100
AcDbArc
 50
64.74528343909259
 51
85.00000000000019
  0
LINE
  5
284E
330
2
100
AcDbEntity
  8
AM_VIS
100
AcDbLine
 10
575.5663877208506
 20
-90.00492119295859
 30
0.0
 11
580.4163877208505
 21
-90.00492119295859
 31
0.0
  0
LINE
  5
284F
330
2
100
AcDbEntity
  8
AM_VIS
100
AcDbLine
 10
580.4163877208505
 20
-90.00492119295859
 30
0.0
 11
580.9163877208505
 21
-89.50492119295859
 31
0.0
  0
LINE
  5
2850
102
{ACAD_REACTORS
330
3BC9
102
}
330
2
100
AcDbEntity
  8
AM_VIS
100
AcDbLine
 10
580.9163877208505
 20
-89.50492119295859
 30
0.0
 11
581.9163877208506
 21
-89.50492119295859
 31
0.0
  0
LINE
  5
2851
330
2
100
AcDbEntity
  8
AM_VIS
100
AcDbLine
 10
581.9163877208506
 20
-89.50492119295859
 30
0.0
 11
582.4163877208506
 21
-90.00492119295859
 31
0.0
  0
LINE
  5
2852
330
2
100
AcDbEntity
  8
AM_VIS
100
AcDbLine
 10
582.4163877208506
 20
-90.00492119295859
 30
0.0
 11
587.8663877208506
 21
-90.00492119295859
 31
0.0
  0
LINE
  5
2853
330
2
100
AcDbEntity
  8
AM_VIS
100
AcDbLine
 10
587.8663877208506
 20
-100.0049211929586
 30
0.0
 11
587.8663877208506
 21
-90.00492119295859
 31
0.0
  0
LINE
  5
2854
330
2
100
AcDbEntity
  8
AM_VIS
100
AcDbLine
 10
582.6663877208505
 20
-100.0049211929586
 30
0.0
 11
587.8663877208505
 21
-100.0049211929586
 31
0.0
  0
LINE
  5
2855
330
2
100
AcDbEntity
  8
AM_VIS
100
AcDbLine
 10
582.1663877208505
 20
-99.50492119295859
 30
0.0
 11
582.6663877208505
 21
-100.0049211929586
 31
0.0
  0
LINE
  5
2856
330
2
100
AcDbEntity
  8
AM_VIS
100
AcDbLine
 10
580.6663877208506
 20
-99.50492119295859
 30
0.0
 11
582.1663877208505
 21
-99.50492119295859
 31
0.0
  0
LINE
  5
2857
330
2
100
AcDbEntity
  8
AM_VIS
100
AcDbLine
 10
580.1663877208506
 20
-100.0049211929586
 30
0.0
 11
580.6663877208506
 21
-99.50492119295859
 31
0.0
  0
LINE
  5
2858
330
2
100
AcDbEntity
  8
AM_VIS
100
AcDbLine
 10
575.3163877208505
 20
-100.0049211929586
 30
0.0
 11
580.1663877208506
 21
-100.0049211929586
 31
0.0
  0
LINE
  5
2859
330
2
100
AcDbEntity
  8
AM_VIS
100
AcDbLine
 10
575.3163877208505
 20
-100.0049211929586
 30
0.0
 11
574.8163877208505
 21
-100.5049211929586
 31
0.0
  0
LINE
  5
285A
330
2
100
AcDbEntity
  8
AM_VIS
100
AcDbLine
 10
574.8163877208505
 20
-100.5049211929586
 30
0.0
 11
573.8163877208505
 21
-100.5049211929586
 31
0.0
  0
LINE
  5
285B
102
{ACAD_REACTORS
330
3BC9
102
}
330
2
100
AcDbEntity
  8
AM_VIS
100
AcDbLine
 10
573.8163877208505
 20
-100.5049211929586
 30
0.0
 11
573.3163877208506
 21
-100.0049211929586
 31
0.0
  0
LINE
  5
285C
330
2
100
AcDbEntity
  8
AM_VIS
100
AcDbLine
 10
571.3663877208506
 20
-100.0049211929586
 30
0.0
 11
573.3163877208506
 21
-100.0049211929586
 31
0.0
  0
LINE
  5
285D
330
2
100
AcDbEntity
  8
AM_VIS
100
AcDbLine
 10
571.3663877208506
 20
-90.00492119295859
 30
0.0
 11
571.3663877208506
 21
-100.0049211929586
 31
0.0
  0
LINE
  5
285E
330
2
100
AcDbEntity
  8
AM_VIS
100
AcDbLine
 10
571.3663877208506
 20
-90.00492119295859
 30
0.0
 11
573.0663877208505
 21
-90.00492119295859
 31
0.0
  0
LINE
  5
285F
330
2
100
AcDbEntity
  8
AM_VIS
100
AcDbLine
 10
573.5663877208505
 20
-90.50492119295858
 30
0.0
 11
573.0663877208505
 21
-90.00492119295859
 31
0.0
  0
LINE
  5
2860
330
2
100
AcDbEntity
  8
AM_VIS
100
AcDbLine
 10
575.0663877208506
 20
-90.50492119295858
 30
0.0
 11
573.5663877208505
 21
-90.50492119295858
 31
0.0
  0
LINE
  5
2861
330
2
100
AcDbEntity
  8
AM_VIS
100
AcDbLine
 10
575.5663877208506
 20
-90.00492119295859
 30
0.0
 11
575.0663877208506
 21
-90.50492119295858
 31
0.0
  0
CIRCLE
  5
2862
330
2
100
AcDbEntity
  8
AM_VIS
100
AcDbCircle
 10
583.1163877208506
 20
-95.00492119295859
 30
0.0
 40
1.0
  0
CIRCLE
  5
2863
330
2
100
AcDbEntity
  8
AM_VIS
100
AcDbCircle
 10
576.1163877208506
 20
-95.00492119295859
 30
0.0
 40
1.0
  0
CIRCLE
  5
2864
330
2
100
AcDbEntity
  8
AM_VIS
100
AcDbCircle
 10
583.1163877208506
 20
-95.00492119295859
 30
0.0
 40
1.2995
  0
CIRCLE
  5
2865
330
2
100
AcDbEntity
  8
AM_VIS
100
AcDbCircle
 10
574.3163877208505
 20
-99.10492119295861
 30
0.0
 40
0.85
  0
CIRCLE
  5
2866
330
2
100
AcDbEntity
  8
AM_VIS
100
AcDbCircle
 10
581.4163877208506
 20
-90.90492119295863
 30
0.0
 40
0.85
  0
CIRCLE
  5
2867
330
2
100
AcDbEntity
  8
AM_VIS
100
AcDbCircle
 10
583.1163877208506
 20
-95.00492119295859
 30
0.0
 40
1.599499999999999
  0
CIRCLE
  5
2868
330
2
100
AcDbEntity
  8
AM_VIS
100
AcDbCircle
 10
576.1163877208506
 20
-95.00492119295859
 30
0.0
 40
1.5995
  0
CIRCLE
  5
2869
330
2
100
AcDbEntity
  8
AM_VIS
100
AcDbCircle
 10
576.1163877208506
 20
-95.00492119295859
 30
0.0
 40
1.2995
  0
LINE
  5
286A
330
2
100
AcDbEntity
  8
AM_VIS
100
AcDbLine
 10
587.8663877208506
 20
-90.00492119295859
 30
0.0
 11
587.8663877208506
 21
-100.0049211929586
 31
0.0
  0
LINE
  5
286B
330
2
100
AcDbEntity
  8
AM_VIS
100
AcDbLine
 10
587.8663877208506
 20
-100.0049211929586
 30
0.0
 11
597.3663877208506
 21
-100.0049211929586
 31
0.0
  0
LINE
  5
286C
330
2
100
AcDbEntity
  8
AM_VIS
100
AcDbLine
 10
587.8663877208506
 20
-90.00492119295859
 30
0.0
 11
597.3663877208506
 21
-90.00492119295859
 31
0.0
  0
LINE
  5
286D
330
2
100
AcDbEntity
  8
AM_VIS
100
AcDbLine
 10
597.3663877208506
 20
-100.0049211929586
 30
0.0
 11
597.3663877208506
 21
-90.00492119295859
 31
0.0
  0
LINE
  5
286E
330
2
100
AcDbEntity
  8
AM_VIS
100
AcDbLine
 10
571.3663877208506
 20
-100.0049211929585
 30
0.0
 11
571.3663877208506
 21
-90.00492119295856
 31
0.0
  0
LINE
  5
2872
330
2
100
AcDbEntity
  8
AM_VIS
100
AcDbLine
 10
576.7863877208506
 20
-94.2625600948399
 30
0.0
 11
576.7863877208506
 21
-95.74728229107728
 31
0.0
  0
LINE
  5
2873
330
2
100
AcDbEntity
  8
AM_VIS
100
AcDbLine
 10
582.1463877208506
 20
-94.7618162773357
 30
0.0
 11
582.1463877208506
 21
-95.24802610858149
 31
0.0
  0
LINE
  5
2874
330
2
100
AcDbEntity
  8
AM_VIS
100
AcDbLine
 10
582.7463877208506
 20
-95.93395294699073
 30
0.0
 11
582.7463877208506
 21
-94.07588943892648
 31
0.0
  0
LINE
  5
2875
330
2
100
AcDbEntity
  8
AM_VIS
100
AcDbLine
 10
582.9463877208507
 20
-94.01947713061918
 30
0.0
 11
582.9463877208507
 21
-95.990365255298
 31
0.0
  0
LINE
  5
2876
330
2
100
AcDbEntity
  8
AM_VIS
100
AcDbLine
 10
583.7463877208506
 20
-95.78151632557274
 30
0.0
 11
583.7463877208506
 21
-94.22832606034445
 31
0.0
  0
LINE
  5
2877
330
2
100
AcDbEntity
  8
AM_VIS
100
AcDbLine
 10
597.3663877208506
 20
-90.00492119295859
 30
0.0
 11
597.3663877208506
 21
-100.0049211929586
 31
0.0
  0
LINE
  5
2878
330
2
100
AcDbEntity
  8
AM_VIS
100
AcDbLine
 10
597.3663877208506
 20
-100.0049211929586
 30
0.0
 11
610.3663877208506
 21
-100.0049211929586
 31
0.0
  0
LINE
  5
2879
330
2
100
AcDbEntity
  8
AM_VIS
100
AcDbLine
 10
610.3656208528252
 20
-96.75097488706207
 30
0.0
 11
612.365459210138
 21
-96.52199378620117
 31
0.0
  0
LINE
  5
287A
330
2
100
AcDbEntity
  8
AM_VIS
100
AcDbLine
 10
612.3663877208506
 20
-97.60492119295856
 30
0.0
 11
610.3663877208506
 21
-97.60492119295856
 31
0.0
  0
LINE
  5
287B
330
2
100
AcDbEntity
  8
AM_VIS
100
AcDbLine
 10
610.3663877208506
 20
-100.0049211929585
 30
0.0
 11
610.3663877208506
 21
-90.00492119295856
 31
0.0
  0
LINE
  5
287C
330
2
100
AcDbEntity
  8
AM_VIS
100
AcDbLine
 10
597.3663877208506
 20
-90.00492119295859
 30
0.0
 11
610.3663877208506
 21
-90.00492119295859
 31
0.0
  0
LINE
  5
287D
330
2
100
AcDbEntity
  8
AM_VIS
100
AcDbLine
 10
610.3663877208506
 20
-92.40492119295854
 30
0.0
 11
612.3663877208506
 21
-92.40492119295854
 31
0.0
  0
LINE
  5
287E
330
2
100
AcDbEntity
  8
AM_VIS
100
AcDbLine
 10
610.3656208528252
 20
-93.25886749885507
 30
0.0
 11
612.365459210138
 21
-93.48784859971596
 31
0.0
  0
LINE
  5
287F
330
2
100
AcDbEntity
  8
AM_VIS
100
AcDbLine
 10
612.3663877208506
 20
-96.47461503862842
 30
0.0
 11
612.5663877208506
 21
-96.47461503862842
 31
0.0
  0
LINE
  5
2880
330
2
100
AcDbEntity
  8
AM_VIS
100
AcDbLine
 10
612.5663877208506
 20
-93.53522734728864
 30
0.0
 11
612.3663877208506
 21
-93.53522734728864
 31
0.0
  0
CIRCLE
  5
2881
330
2
100
AcDbEntity
  8
AM_VIS
100
AcDbCircle
 10
603.8663877208506
 20
-95.00492119295859
 30
0.0
 40
3.399999999999999
  0
CIRCLE
  5
2882
330
2
100
AcDbEntity
  8
AM_VIS
100
AcDbCircle
 10
603.8663877208506
 20
-95.00492119295856
 30
0.0
 40
2.7
  0
CIRCLE
  5
2883
330
2
100
AcDbEntity
  8
AM_VIS
100
AcDbCircle
 10
603.8663877208506
 20
-95.00492119295856
 30
0.0
 40
2.5
  0
CIRCLE
  5
2884
330
2
100
AcDbEntity
  8
AM_VIS
100
AcDbCircle
 10
603.8663877208506
 20
-95.00492119295859
 30
0.0
 40
2.399999999999999
  0
LINE
  5
2885
330
2
100
AcDbEntity
  8
AM_VIS
100
AcDbLine
 10
612.3663877208506
 20
-93.47973932200199
 30
0.0
 11
612.3663877208506
 21
-96.53010306391514
 31
0.0
  0
LINE
  5
2886
330
2
100
AcDbEntity
  8
AM_VIS
100
AcDbLine
 10
612.3663877208506
 20
-96.53010306391514
 30
0.0
 11
612.3663877208506
 21
-97.60492119295856
 31
0.0
  0
LINE
  5
2887
330
2
100
AcDbEntity
  8
AM_VIS
100
AcDbLine
 10
612.3663877208506
 20
-92.40492119295854
 30
0.0
 11
612.3663877208506
 21
-93.47973932200199
 31
0.0
  0
LINE
  5
2888
330
2
100
AcDbEntity
  8
AM_VIS
100
AcDbLine
 10
612.5663877208506
 20
-93.53522734728864
 30
0.0
 11
612.5663877208506
 21
-96.47461503862846
 31
0.0
  0
LINE
  5
2889
330
2
100
AcDbEntity
  8
AM_VIS
100
AcDbLine
 10
610.3663877208506
 20
-100.0049211929585
 30
0.0
 11
610.8663877208506
 21
-100.0049211929585
 31
0.0
  0
LINE
  5
288A
330
2
100
AcDbEntity
  8
AM_VIS
100
AcDbLine
 10
610.8663877208506
 20
-90.0049211929585
 30
0.0
 11
610.3663877208506
 21
-90.0049211929585
 31
0.0
  0
LINE
  5
288B
330
2
100
AcDbEntity
  8
AM_VIS
100
AcDbLine
 10
612.3663877208506
 20
-92.40492119295851
 30
0.0
 11
612.3663877208506
 21
-90.0049211929585
 31
0.0
  0
LINE
  5
288C
330
2
100
AcDbEntity
  8
AM_VIS
100
AcDbLine
 10
610.8663877208506
 20
-90.0049211929585
 30
0.0
 11
610.8663877208506
 21
-92.40492119295851
 31
0.0
  0
LINE
  5
288D
330
2
100
AcDbEntity
  8
AM_VIS
100
AcDbLine
 10
612.3663877208506
 20
-90.0049211929585
 30
0.0
 11
610.8663877208506
 21
-90.0049211929585
 31
0.0
  0
LINE
  5
288E
330
2
100
AcDbEntity
  8
AM_VIS
100
AcDbLine
 10
612.3663877208506
 20
-100.0049211929585
 30
0.0
 11
612.3663877208506
 21
-97.6049211929585
 31
0.0
  0
LINE
  5
288F
330
2
100
AcDbEntity
  8
AM_VIS
100
AcDbLine
 10
610.8663877208506
 20
-100.0049211929585
 30
0.0
 11
612.3663877208506
 21
-100.0049211929585
 31
0.0
  0
LINE
  5
2890
330
2
100
AcDbEntity
  8
AM_VIS
100
AcDbLine
 10
610.8663877208506
 20
-97.6049211929585
 30
0.0
 11
610.8663877208506
 21
-100.0049211929585
 31
0.0
  0
LINE
  5
2891
330
2
100
AcDbEntity
  8
AM_VIS
100
AcDbLine
 10
612.3663877208506
 20
-90.00492119295854
 30
0.0
 11
613.8663877208506
 21
-90.00492119295854
 31
0.0
  0
LINE
  5
2892
330
2
100
AcDbEntity
  8
AM_VIS
100
AcDbLine
 10
613.8663877208506
 20
-90.00492119295854
 30
0.0
 11
613.8663877208506
 21
-100.0049211929585
 31
0.0
  0
LINE
  5
2893
330
2
100
AcDbEntity
  8
AM_VIS
100
AcDbLine
 10
612.3663877208506
 20
-100.0049211929585
 30
0.0
 11
613.8663877208506
 21
-100.0049211929585
 31
0.0
  0
LINE
  5
2894
330
2
100
AcDbEntity
  8
AM_VIS
100
AcDbLine
 10
615.3663877208506
 20
-99.00492119295854
 30
0.0
 11
613.8663877208506
 21
-100.0049211929585
 31
0.0
  0
LINE
  5
2895
330
2
100
AcDbEntity
  8
AM_VIS
100
AcDbLine
 10
613.8663877208506
 20
-90.00492119295854
 30
0.0
 11
615.3663877208506
 21
-91.00492119295854
 31
0.0
  0
LINE
  5
2896
330
2
100
AcDbEntity
  8
AM_VIS
100
AcDbLine
 10
615.3663877208506
 20
-98.7549211929585
 30
0.0
 11
618.8663877208506
 21
-98.7549211929585
 31
0.0
  0
LINE
  5
2897
330
2
100
AcDbEntity
  8
AM_VIS
100
AcDbLine
 10
615.3663877208506
 20
-91.2549211929585
 30
0.0
 11
618.8663877208506
 21
-91.2549211929585
 31
0.0
  0
LINE
  5
2898
102
{ACAD_REACTORS
330
3763
102
}
330
2
100
AcDbEntity
  8
AM_VIS
100
AcDbLine
 10
619.8663877208506
 20
-98.15492119295852
 30
0.0
 11
619.8663877208506
 21
-91.85492119295849
 31
0.0
  0
LINE
  5
2899
330
2
100
AcDbEntity
  8
AM_VIS
100
AcDbLine
 10
618.8663877208506
 20
-98.7549211929585
 30
0.0
 11
619.8663877208506
 21
-98.15492119295852
 31
0.0
  0
LINE
  5
289A
330
2
100
AcDbEntity
  8
AM_VIS
100
AcDbLine
 10
618.8663877208506
 20
-91.2549211929585
 30
0.0
 11
618.8663877208506
 21
-98.7549211929585
 31
0.0
  0
LINE
  5
289B
330
2
100
AcDbEntity
  8
AM_VIS
100
AcDbLine
 10
619.8663877208506
 20
-91.85492119295849
 30
0.0
 11
618.8663877208506
 21
-91.2549211929585
 31
0.0
  0
LINE
  5
289C
330
2
100
AcDbEntity
  8
AM_VIS
100
AcDbLine
 10
615.3663877208506
 20
-99.00492119295854
 30
0.0
 11
615.3663877208506
 21
-91.00492119295854
 31
0.0
  0
ARC
  5
289D
330
2
100
AcDbEntity
  8
AM_VIS
100
AcDbCircle
 10
651.0970170267385
 20
-47.39168407878358
 30
0.0
 40
1.600000000000022
100
AcDbArc
 50
339.635865193674
 51
20.36413480632599
  0
ARC
  5
289E
330
2
100
AcDbEntity
  8
AM_VIS
100
AcDbCircle
 10
644.0970170267385
 20
-58.39168407878358
 30
0.0
 40
1.600000000000022
100
AcDbArc
 50
159.6358651936812
 51
200.3641348063187
  0
LINE
  5
289F
330
2
100
AcDbEntity
  8
AM_VIS
100
AcDbLine
 10
653.0970170267385
 20
-60.39168407878349
 30
0.0
 11
653.0970170267385
 21
-46.7916840787835
 31
0.0
  0
LINE
  5
28A0
330
2
100
AcDbEntity
  8
AM_VIS
100
AcDbLine
 10
642.0970170267385
 20
-46.7916840787835
 30
0.0
 11
642.0970170267385
 21
-60.39168407878349
 31
0.0
  0
LINE
  5
28A1
330
2
100
AcDbEntity
  8
AM_VIS
100
AcDbLine
 10
642.5970170267385
 20
-46.7916840787835
 30
0.0
 11
642.0970170267385
 21
-46.7916840787835
 31
0.0
  0
LINE
  5
28A2
330
2
100
AcDbEntity
  8
AM_VIS
100
AcDbLine
 10
653.0970170267385
 20
-46.79168407878347
 30
0.0
 11
652.5970170267385
 21
-46.79168407878347
 31
0.0
  0
LINE
  5
28A3
330
2
100
AcDbEntity
  8
AM_VIS
100
AcDbLine
 10
642.0970170267385
 20
-60.39168407878349
 30
0.0
 11
642.5970170267385
 21
-60.39168407878349
 31
0.0
  0
LINE
  5
28A4
330
2
100
AcDbEntity
  8
AM_VIS
100
AcDbLine
 10
652.5970170267385
 20
-60.39168407878349
 30
0.0
 11
653.0970170267385
 21
-60.39168407878349
 31
0.0
  0
LINE
  5
28A5
330
2
100
AcDbEntity
  8
AM_VIS
100
AcDbLine
 10
644.9970170267383
 20
-49.89168407878356
 30
0.0
 11
644.9970170267383
 21
-52.5917134908027
 31
0.0
  0
LINE
  5
28A6
330
2
100
AcDbEntity
  8
AM_VIS
100
AcDbLine
 10
643.6970170267384
 20
-57.29168407878356
 30
0.0
 11
651.4970170267385
 21
-57.29168407878353
 31
0.0
  0
LINE
  5
28A7
330
2
100
AcDbEntity
  8
AM_VIS
100
AcDbLine
 10
650.9970170267385
 20
-56.79168407878353
 30
0.0
 11
650.9970170267385
 21
-57.29168407878353
 31
0.0
  0
LINE
  5
28A8
330
2
100
AcDbEntity
  8
AM_VIS
100
AcDbLine
 10
644.1970170267384
 20
-57.29168407878353
 30
0.0
 11
644.1970170267384
 21
-56.79168407878353
 31
0.0
  0
LINE
  5
28A9
330
2
100
AcDbEntity
  8
AM_VIS
100
AcDbLine
 10
650.1970170267384
 20
-52.59171349080268
 30
0.0
 11
650.1970170267384
 21
-49.89168407878356
 31
0.0
  0
LINE
  5
28AA
330
2
100
AcDbEntity
  8
AM_VIS
100
AcDbLine
 10
652.5970170267385
 20
-52.59168407878354
 30
0.0
 11
652.5970170267385
 21
-56.11168407878352
 31
0.0
  0
ARC
  5
28AB
330
2
100
AcDbEntity
  8
AM_VIS
100
AcDbCircle
 10
650.8520178943704
 20
-54.28917658243659
 30
0.0
 40
1.825539782310517
100
AcDbArc
 50
198.6363679025912
 51
214.6231278646411
  0
LINE
  5
28AC
330
2
100
AcDbEntity
  8
AM_VIS
100
AcDbLine
 10
643.6970170267384
 20
-56.79168407878359
 30
0.0
 11
644.3470170267385
 21
-56.79168407878356
 31
0.0
  0
LINE
  5
28AD
330
2
100
AcDbEntity
  8
AM_VIS
100
AcDbLine
 10
643.6970170267384
 20
-59.29168407878356
 30
0.0
 11
643.6970170267384
 21
-56.79168407878359
 31
0.0
  0
LINE
  5
28AE
330
2
100
AcDbEntity
  8
AM_VIS
100
AcDbLine
 10
651.4970170267385
 20
-59.29168407878353
 30
0.0
 11
643.6970170267384
 21
-59.29168407878356
 31
0.0
  0
LINE
  5
28AF
330
2
100
AcDbEntity
  8
AM_VIS
100
AcDbLine
 10
651.4970170267385
 20
-56.79168407878353
 30
0.0
 11
651.4970170267385
 21
-59.29168407878353
 31
0.0
  0
LINE
  5
28B0
330
2
100
AcDbEntity
  8
AM_VIS
100
AcDbLine
 10
650.8470170267385
 20
-56.79168407878353
 30
0.0
 11
651.4970170267385
 21
-56.79168407878353
 31
0.0
  0
LINE
  5
28B1
330
2
100
AcDbEntity
  8
AM_VIS
100
AcDbLine
 10
652.5970170267385
 20
-56.11168407878352
 30
0.0
 11
650.8470170267385
 21
-56.11168407878356
 31
0.0
  0
LINE
  5
28B2
330
2
100
AcDbEntity
  8
AM_VIS
100
AcDbLine
 10
652.5970170267385
 20
-56.11168407878352
 30
0.0
 11
652.5970170267385
 21
-60.39168407878353
 31
0.0
  0
LINE
  5
28B3
330
2
100
AcDbEntity
  8
AM_VIS
100
AcDbLine
 10
652.5970170267385
 20
-60.39168407878353
 30
0.0
 11
642.5970170267385
 21
-60.39168407878358
 31
0.0
  0
LINE
  5
28B4
330
2
100
AcDbEntity
  8
AM_VIS
100
AcDbLine
 10
642.5970170267385
 20
-60.39168407878356
 30
0.0
 11
642.5970170267385
 21
-56.11168407878356
 31
0.0
  0
LINE
  5
28B5
330
2
100
AcDbEntity
  8
AM_VIS
100
AcDbLine
 10
642.5970170267385
 20
-56.11168407878356
 30
0.0
 11
642.5970170267385
 21
-52.59168407878354
 31
0.0
  0
ARC
  5
28B6
330
2
100
AcDbEntity
  8
AM_VIS
100
AcDbCircle
 10
644.3420161591046
 20
-54.28917658243569
 30
0.0
 40
1.825539782312666
100
AcDbArc
 50
325.3768721353692
 51
341.3636320974017
  0
LINE
  5
28B7
330
2
100
AcDbEntity
  8
AM_VIS
100
AcDbLine
 10
644.3470170267385
 20
-56.11168407878358
 30
0.0
 11
642.5970170267385
 21
-56.11168407878361
 31
0.0
  0
LINE
  5
28B8
330
2
100
AcDbEntity
  8
AM_VIS
100
AcDbLine
 10
649.0667108724084
 20
-53.19168407878357
 30
0.0
 11
647.9970170267384
 21
-53.19168407878357
 31
0.0
  0
LINE
  5
28B9
330
2
100
AcDbEntity
  8
AM_VIS
100
AcDbLine
 10
647.1970170267383
 20
-53.19168407878357
 30
0.0
 11
646.1273231810685
 21
-53.19168407878357
 31
0.0
  0
LINE
  5
28BA
330
2
100
AcDbEntity
  8
AM_VIS
100
AcDbLine
 10
647.9970170267384
 20
-52.59168407878354
 30
0.0
 11
649.0667108724084
 21
-52.59168407878354
 31
0.0
  0
LINE
  5
28BB
330
2
100
AcDbEntity
  8
AM_VIS
100
AcDbLine
 10
646.1273231810685
 20
-52.59168407878354
 30
0.0
 11
647.1970170267383
 21
-52.59168407878354
 31
0.0
  0
ARC
  5
28BC
330
2
100
AcDbEntity
  8
AM_VIS
100
AcDbCircle
 10
647.5970170267385
 20
-52.89168407878356
 30
0.0
 40
2.5
100
AcDbArc
 50
232.4052366676986
 51
307.5947633323015
  0
ARC
  5
28BD
330
2
100
AcDbEntity
  8
AM_VIS
100
AcDbCircle
 10
647.5970170267385
 20
-52.89168407878356
 30
0.0
 40
3.0
100
AcDbArc
 50
247.307722008551
 51
292.692277991452
  0
ARC
  5
28BE
330
2
100
AcDbEntity
  8
AM_VIS
100
AcDbCircle
 10
650.8470170267385
 20
-54.29168407878353
 30
0.0
 40
1.819999999999999
100
AcDbArc
 50
110.9248324276401
 51
198.6118775363961
  0
ARC
  5
28BF
330
2
100
AcDbEntity
  8
AM_VIS
100
AcDbCircle
 10
647.5970170267385
 20
-52.89168407878356
 30
0.0
 40
3.0
100
AcDbArc
 50
234.2499471461091
 51
247.307722008551
  0
ARC
  5
28C0
330
2
100
AcDbEntity
  8
AM_VIS
100
AcDbCircle
 10
644.3470170267385
 20
-54.29168407878356
 30
0.0
 40
2.5
100
AcDbArc
 50
270.0
 51
326.831157478121
  0
ARC
  5
28C1
330
2
100
AcDbEntity
  8
AM_VIS
100
AcDbCircle
 10
650.8470170267385
 20
-54.29168407878353
 30
0.0
 40
2.5
100
AcDbArc
 50
213.1688425218797
 51
270.0
  0
ARC
  5
28C2
330
2
100
AcDbEntity
  8
AM_VIS
100
AcDbCircle
 10
647.5970170267385
 20
-52.89168407878356
 30
0.0
 40
3.0
100
AcDbArc
 50
292.692277991452
 51
305.7500528538914
  0
ARC
  5
28C3
330
2
100
AcDbEntity
  8
AM_VIS
100
AcDbCircle
 10
650.8470170267385
 20
-54.29168407878353
 30
0.0
 40
1.819999999999999
100
AcDbArc
 50
214.6476182308366
 51
270.0
  0
ARC
  5
28C4
330
2
100
AcDbEntity
  8
AM_VIS
100
AcDbCircle
 10
644.3470170267385
 20
-54.29168407878356
 30
0.0
 40
1.819999999999999
100
AcDbArc
 50
69.07516757235985
 51
69.07776031742253
  0
ARC
  5
28C5
330
2
100
AcDbEntity
  8
AM_VIS
100
AcDbCircle
 10
644.3470170267385
 20
-54.29168407878356
 30
0.0
 40
1.819999999999999
100
AcDbArc
 50
341.3881224636039
 51
69.07516757235985
  0
ARC
  5
28C6
330
2
100
AcDbEntity
  8
AM_VIS
100
AcDbCircle
 10
644.3470170267385
 20
-54.29168407878356
 30
0.0
 40
1.819999999999999
100
AcDbArc
 50
270.0
 51
325.3523817691634
  0
CIRCLE
  5
28C7
330
2
100
AcDbEntity
  8
AM_VIS
100
AcDbCircle
 10
647.5970170267385
 20
-52.89168407878356
 30
0.0
 40
1.6
  0
ARC
  5
28C8
330
2
100
AcDbEntity
  8
AM_VIS
100
AcDbCircle
 10
647.5970170267385
 20
-52.89168407878356
 30
0.0
 40
1.5
100
AcDbArc
 50
11.53695903281574
 51
168.4630409671842
  0
ARC
  5
28C9
330
2
100
AcDbEntity
  8
AM_VIS
100
AcDbCircle
 10
647.5970170267385
 20
-52.89168407878356
 30
0.0
 40
1.5
100
AcDbArc
 50
191.5369590328157
 51
348.4630409671843
  0
ARC
  5
28CA
330
2
100
AcDbEntity
  8
AM_VIS
100
AcDbCircle
 10
647.5970170267385
 20
-52.89168407878356
 30
0.0
 40
1.5
100
AcDbArc
 50
348.4630409671843
 51
11.53695903281574
  0
ARC
  5
28CB
330
2
100
AcDbEntity
  8
AM_VIS
100
AcDbCircle
 10
647.5970170267385
 20
-52.89168407878356
 30
0.0
 40
1.5
100
AcDbArc
 50
168.4630409671842
 51
191.5369590328157
  0
ARC
  5
28CC
330
2
100
AcDbEntity
  8
AM_VIS
100
AcDbCircle
 10
647.5970170267385
 20
-52.89168407878356
 30
0.0
 40
0.5
100
AcDbArc
 50
323.1301023541566
 51
36.86989764584338
  0
ARC
  5
28CD
330
2
100
AcDbEntity
  8
AM_VIS
100
AcDbCircle
 10
647.5970170267385
 20
-52.89168407878356
 30
0.0
 40
0.5
100
AcDbArc
 50
216.8698976458434
 51
323.1301023541566
  0
ARC
  5
28CE
330
2
100
AcDbEntity
  8
AM_VIS
100
AcDbCircle
 10
647.5970170267385
 20
-52.89168407878356
 30
0.0
 40
0.5
100
AcDbArc
 50
143.1301023541566
 51
216.8698976458434
  0
ARC
  5
28CF
330
2
100
AcDbEntity
  8
AM_VIS
100
AcDbCircle
 10
647.5970170267385
 20
-52.89168407878356
 30
0.0
 40
0.5
100
AcDbArc
 50
36.86989764584338
 51
143.1301023541566
  0
LINE
  5
28D0
330
2
100
AcDbEntity
  8
AM_VIS
100
AcDbLine
 10
642.5970170267383
 20
-52.09168407878355
 30
0.0
 11
642.5970170267383
 21
-49.89168407878356
 31
0.0
  0
LINE
  5
28D1
330
2
100
AcDbEntity
  8
AM_VIS
100
AcDbLine
 10
644.9970170267383
 20
-52.09168407878355
 30
0.0
 11
644.9970170267383
 21
-49.89168407878356
 31
0.0
  0
LINE
  5
28D2
330
2
100
AcDbEntity
  8
AM_VIS
100
AcDbLine
 10
644.9970170267383
 20
-52.09168407878355
 30
0.0
 11
642.5970170267383
 21
-52.09168407878357
 31
0.0
  0
LINE
  5
28D3
330
2
100
AcDbEntity
  8
AM_VIS
100
AcDbLine
 10
642.5970170267385
 20
-52.59168407878354
 30
0.0
 11
644.9970170267384
 21
-52.59168407878352
 31
0.0
  0
LINE
  5
28D4
330
2
100
AcDbEntity
  8
AM_VIS
100
AcDbLine
 10
642.5970170267383
 20
-52.09168407878355
 30
0.0
 11
642.5970170267383
 21
-52.59168407878354
 31
0.0
  0
LINE
  5
28D5
330
2
100
AcDbEntity
  8
AM_VIS
100
AcDbLine
 10
652.5970170267384
 20
-52.09168407878351
 30
0.0
 11
652.5970170267384
 21
-49.8916840787835
 31
0.0
  0
LINE
  5
28D6
330
2
100
AcDbEntity
  8
AM_VIS
100
AcDbLine
 10
650.1970170267384
 20
-49.89168407878352
 30
0.0
 11
650.1970170267384
 21
-52.09168407878355
 31
0.0
  0
LINE
  5
28D7
330
2
100
AcDbEntity
  8
AM_VIS
100
AcDbLine
 10
652.5970170267384
 20
-52.09168407878351
 30
0.0
 11
650.1970170267384
 21
-52.09168407878355
 31
0.0
  0
LINE
  5
28D8
330
2
100
AcDbEntity
  8
AM_VIS
100
AcDbLine
 10
652.5970170267385
 20
-52.59168407878354
 30
0.0
 11
652.5970170267385
 21
-52.09168407878355
 31
0.0
  0
LINE
  5
28D9
330
2
100
AcDbEntity
  8
AM_VIS
100
AcDbLine
 10
650.1970170267384
 20
-52.59168407878354
 30
0.0
 11
652.5970170267384
 21
-52.59168407878352
 31
0.0
  0
LINE
  5
28DA
330
2
100
AcDbEntity
  8
AM_VIS
100
AcDbLine
 10
642.5970170267385
 20
-49.89168407878358
 30
0.0
 11
652.5970170267385
 21
-49.89168407878352
 31
0.0
  0
LINE
  5
28DB
330
2
100
AcDbEntity
  8
AM_VIS
100
AcDbLine
 10
652.5970170267385
 20
-49.89168407878356
 30
0.0
 11
652.5970170267384
 21
-32.89168407878356
 31
0.0
  0
LINE
  5
28DC
330
2
100
AcDbEntity
  8
AM_VIS
100
AcDbLine
 10
651.5970170267385
 20
-48.39168407878355
 30
0.0
 11
652.5970170267385
 21
-49.89168407878356
 31
0.0
  0
LINE
  5
28DD
330
2
100
AcDbEntity
  8
AM_VIS
100
AcDbLine
 10
642.5970170267385
 20
-49.89168407878356
 30
0.0
 11
643.5970170267385
 21
-48.39168407878355
 31
0.0
  0
LINE
  5
28DE
330
2
100
AcDbEntity
  8
AM_VIS
100
AcDbLine
 10
642.5970170267383
 20
-32.89168407878356
 30
0.0
 11
642.5970170267385
 21
-49.89168407878356
 31
0.0
  0
LINE
  5
28DF
330
2
100
AcDbEntity
  8
AM_VIS
100
AcDbLine
 10
643.5970170267384
 20
-34.39168407878355
 30
0.0
 11
642.5970170267383
 21
-32.89168407878356
 31
0.0
  0
LINE
  5
28E0
330
2
100
AcDbEntity
  8
AM_VIS
100
AcDbLine
 10
651.3470170267384
 20
-42.29168407878353
 30
0.0
 11
651.3470170267384
 21
-36.89168407878355
 31
0.0
  0
LINE
  5
28E1
330
2
100
AcDbEntity
  8
AM_VIS
100
AcDbLine
 10
644.8470170267384
 20
-37.89168407878356
 30
0.0
 11
650.3470170267384
 21
-37.89168407878353
 31
0.0
  0
LINE
  5
28E2
330
2
100
AcDbEntity
  8
AM_VIS
100
AcDbLine
 10
644.8470170267384
 20
-41.29168407878355
 30
0.0
 11
644.8470170267384
 21
-37.89168407878356
 31
0.0
  0
LINE
  5
28E3
330
2
100
AcDbEntity
  8
AM_VIS
100
AcDbLine
 10
650.3470170267384
 20
-41.29168407878353
 30
0.0
 11
644.8470170267384
 21
-41.29168407878355
 31
0.0
  0
LINE
  5
28E4
330
2
100
AcDbEntity
  8
AM_VIS
100
AcDbLine
 10
650.3470170267384
 20
-37.89168407878356
 30
0.0
 11
650.3470170267384
 21
-41.29168407878353
 31
0.0
  0
LINE
  5
28E5
330
2
100
AcDbEntity
  8
AM_VIS
100
AcDbLine
 10
650.7470170267383
 20
-36.89168407878355
 30
0.0
 11
650.7470170267383
 21
-41.99168407878355
 31
0.0
  0
LINE
  5
28E6
330
2
100
AcDbEntity
  8
AM_VIS
100
AcDbLine
 10
643.8470170267383
 20
-36.89168407878355
 30
0.0
 11
643.8470170267383
 21
-42.29168407878353
 31
0.0
  0
LINE
  5
28E7
330
2
100
AcDbEntity
  8
AM_VIS
100
AcDbLine
 10
644.4470170267384
 20
-41.99168407878357
 30
0.0
 11
644.4470170267384
 21
-36.89168407878359
 31
0.0
  0
LINE
  5
28E8
330
2
100
AcDbEntity
  8
AM_VIS
100
AcDbLine
 10
650.7470170267383
 20
-41.99168407878355
 30
0.0
 11
644.4470170267384
 21
-41.99168407878357
 31
0.0
  0
LINE
  5
28E9
330
2
100
AcDbEntity
  8
AM_VIS
100
AcDbLine
 10
651.3470170267384
 20
-42.29168407878353
 30
0.0
 11
650.7470170267383
 21
-41.99168407878355
 31
0.0
  0
LINE
  5
28EA
330
2
100
AcDbEntity
  8
AM_VIS
100
AcDbLine
 10
643.8470170267383
 20
-42.29168407878356
 30
0.0
 11
651.3470170267384
 21
-42.29168407878353
 31
0.0
  0
LINE
  5
28EB
330
2
100
AcDbEntity
  8
AM_VIS
100
AcDbLine
 10
644.4470170267384
 20
-41.99168407878357
 30
0.0
 11
643.8470170267385
 21
-42.29168407878359
 31
0.0
  0
LINE
  5
28EC
330
2
100
AcDbEntity
  8
AM_VIS
100
AcDbLine
 10
651.3470170267384
 20
-36.89168407878355
 30
0.0
 11
650.7470170267383
 21
-36.89168407878355
 31
0.0
  0
LINE
  5
28ED
330
2
100
AcDbEntity
  8
AM_VIS
100
AcDbLine
 10
650.5970170267383
 20
-36.89168407878355
 30
0.0
 11
650.7470170267383
 21
-36.89168407878355
 31
0.0
  0
LINE
  5
28EE
330
2
100
AcDbEntity
  8
AM_VIS
100
AcDbLine
 10
650.5970170267383
 20
-35.39168407878356
 30
0.0
 11
649.6970170267384
 21
-35.39168407878356
 31
0.0
  0
LINE
  5
28EF
330
2
100
AcDbEntity
  8
AM_VIS
100
AcDbLine
 10
650.5970170267383
 20
-36.89168407878355
 30
0.0
 11
650.5970170267383
 21
-35.39168407878356
 31
0.0
  0
LINE
  5
28F0
330
2
100
AcDbEntity
  8
AM_VIS
100
AcDbLine
 10
649.6970170267384
 20
-36.89168407878355
 30
0.0
 11
649.6970170267384
 21
-35.39168407878356
 31
0.0
  0
LINE
  5
28F1
330
2
100
AcDbEntity
  8
AM_VIS
100
AcDbLine
 10
645.4970170267383
 20
-36.89168407878355
 30
0.0
 11
649.6970170267384
 21
-36.89168407878353
 31
0.0
  0
LINE
  5
28F2
330
2
100
AcDbEntity
  8
AM_VIS
100
AcDbLine
 10
644.4470170267384
 20
-36.89168407878355
 30
0.0
 11
644.5970170267384
 21
-36.89168407878355
 31
0.0
  0
LINE
  5
28F3
330
2
100
AcDbEntity
  8
AM_VIS
100
AcDbLine
 10
644.4470170267384
 20
-36.89168407878355
 30
0.0
 11
643.8470170267383
 21
-36.89168407878355
 31
0.0
  0
LINE
  5
28F4
330
2
100
AcDbEntity
  8
AM_VIS
100
AcDbLine
 10
645.4970170267383
 20
-35.39168407878356
 30
0.0
 11
644.5970170267384
 21
-35.39168407878356
 31
0.0
  0
LINE
  5
28F5
330
2
100
AcDbEntity
  8
AM_VIS
100
AcDbLine
 10
645.4970170267383
 20
-36.89168407878355
 30
0.0
 11
645.4970170267383
 21
-35.39168407878356
 31
0.0
  0
LINE
  5
28F6
330
2
100
AcDbEntity
  8
AM_VIS
100
AcDbLine
 10
644.5970170267384
 20
-36.89168407878355
 30
0.0
 11
644.5970170267384
 21
-35.39168407878356
 31
0.0
  0
LINE
  5
28F7
330
2
100
AcDbEntity
  8
AM_VIS
100
AcDbLine
 10
648.0970170267384
 20
-36.89168407878355
 30
0.0
 11
648.0970170267384
 21
-36.39168407878356
 31
0.0
  0
LINE
  5
28F8
330
2
100
AcDbEntity
  8
AM_VIS
100
AcDbLine
 10
647.0970170267384
 20
-36.39168407878356
 30
0.0
 11
647.0970170267384
 21
-36.89168407878355
 31
0.0
  0
LINE
  5
28F9
330
2
100
AcDbEntity
  8
AM_VIS
100
AcDbLine
 10
648.0970170267384
 20
-36.39168407878356
 30
0.0
 11
647.0970170267384
 21
-36.39168407878356
 31
0.0
  0
LINE
  5
28FA
330
2
100
AcDbEntity
  8
AM_VIS
100
AcDbLine
 10
651.5970170267384
 20
-34.39168407878355
 30
0.0
 11
651.5970170267385
 21
-48.39168407878355
 31
0.0
  0
LINE
  5
28FB
330
2
100
AcDbEntity
  8
AM_VIS
100
AcDbLine
 10
651.5970170267385
 20
-48.39168407878355
 30
0.0
 11
643.5970170267385
 21
-48.39168407878358
 31
0.0
  0
LINE
  5
28FC
330
2
100
AcDbEntity
  8
AM_VIS
100
AcDbLine
 10
643.5970170267385
 20
-48.39168407878355
 30
0.0
 11
643.5970170267384
 21
-34.39168407878355
 31
0.0
  0
LINE
  5
28FD
330
2
100
AcDbEntity
  8
AM_VIS
100
AcDbLine
 10
643.5970170267384
 20
-34.39168407878355
 30
0.0
 11
645.5970170267383
 21
-34.39168407878355
 31
0.0
  0
LINE
  5
28FE
330
2
100
AcDbEntity
  8
AM_VIS
100
AcDbLine
 10
652.5970170267384
 20
-32.89168407878356
 30
0.0
 11
651.5970170267384
 21
-34.39168407878355
 31
0.0
  0
LINE
  5
28FF
330
2
100
AcDbEntity
  8
AM_VIS
100
AcDbLine
 10
649.5970170267383
 20
-34.39168407878355
 30
0.0
 11
651.5970170267384
 21
-34.39168407878355
 31
0.0
  0
LINE
  5
2900
330
2
100
AcDbEntity
  8
AM_VIS
100
AcDbLine
 10
645.5970170267383
 20
-32.89168407878356
 30
0.0
 11
642.5970170267383
 21
-32.89168407878359
 31
0.0
  0
LINE
  5
2901
330
2
100
AcDbEntity
  8
AM_VIS
100
AcDbLine
 10
652.5970170267384
 20
-32.89168407878353
 30
0.0
 11
649.5970170267383
 21
-32.89168407878356
 31
0.0
  0
LINE
  5
2902
330
2
100
AcDbEntity
  8
AM_VIS
100
AcDbLine
 10
645.5970170267383
 20
-34.67452679125819
 30
0.0
 11
645.5970170267383
 21
-34.39168407878355
 31
0.0
  0
LINE
  5
2903
330
2
100
AcDbEntity
  8
AM_VIS
100
AcDbLine
 10
645.5970170267383
 20
-34.39168407878355
 30
0.0
 11
645.5970170267383
 21
-32.89168407878356
 31
0.0
  0
LINE
  5
2904
330
2
100
AcDbEntity
  8
AM_VIS
100
AcDbLine
 10
649.5970170267383
 20
-34.39168407878355
 30
0.0
 11
649.5970170267383
 21
-34.67452679125819
 31
0.0
  0
LINE
  5
2905
330
2
100
AcDbEntity
  8
AM_VIS
100
AcDbLine
 10
649.5970170267383
 20
-32.89168407878356
 30
0.0
 11
649.5970170267383
 21
-34.39168407878355
 31
0.0
  0
LINE
  5
2906
330
2
100
AcDbEntity
  8
AM_VIS
100
AcDbLine
 10
645.5970170267383
 20
-32.89168407878356
 30
0.0
 11
649.5970170267383
 21
-32.89168407878353
 31
0.0
  0
LINE
  5
2907
330
2
100
AcDbEntity
  8
AM_VIS
100
AcDbLine
 10
645.5970170267383
 20
-33.09168407878355
 30
0.0
 11
649.5970170267383
 21
-33.09168407878355
 31
0.0
  0
LINE
  5
2908
330
2
100
AcDbEntity
  8
AM_VIS
100
AcDbLine
 10
649.5970170267383
 20
-34.67452679125819
 30
0.0
 11
645.5970170267383
 21
-34.67452679125819
 31
0.0
  0
CIRCLE
  5
2909
330
2
100
AcDbEntity
  8
AM_VIS
100
AcDbCircle
 10
649.0970170267384
 20
-40.09168407878354
 30
0.0
 40
0.25
  0
CIRCLE
  5
290A
330
2
100
AcDbEntity
  8
AM_VIS
100
AcDbCircle
 10
646.0970170267383
 20
-40.09168407878354
 30
0.0
 40
0.25
  0
LINE
  5
290B
330
2
100
AcDbEntity
  8
AM_VIS
100
AcDbLine
 10
644.5631053409949
 20
-54.23865493168705
 30
0.0
 11
644.3470170267385
 21
-54.29168407878359
 31
0.0
  0
LINE
  5
290C
330
2
100
AcDbEntity
  8
AM_VIS
100
AcDbLine
 10
644.3470170267385
 20
-54.29168407878356
 30
0.0
 11
644.1309287124819
 21
-54.34471322588007
 31
0.0
  0
LINE
  5
290D
330
2
100
AcDbEntity
  8
AM_VIS
100
AcDbLine
 10
644.3470170267385
 20
-54.29168407878359
 30
0.0
 11
644.6161344880921
 21
-54.45474324594397
 31
0.0
  0
LINE
  5
290E
330
2
100
AcDbEntity
  8
AM_VIS
100
AcDbLine
 10
644.510076193898
 20
-54.02256661743127
 30
0.0
 11
644.3470170267385
 21
-54.29168407878356
 31
0.0
  0
LINE
  5
290F
330
2
100
AcDbEntity
  8
AM_VIS
100
AcDbLine
 10
644.6161344880919
 20
-54.45474324594551
 30
0.0
 11
644.5100761938988
 21
-54.02256661743251
 31
0.0
  0
LINE
  5
2910
330
2
100
AcDbEntity
  8
AM_VIS
100
AcDbLine
 10
644.0778995653858
 20
-54.12862491162548
 30
0.0
 11
644.5100761938988
 21
-54.02256661743243
 31
0.0
  0
LINE
  5
2911
330
2
100
AcDbEntity
  8
AM_VIS
100
AcDbLine
 10
644.4000461738355
 20
-54.50777239304199
 30
0.0
 11
644.3470170267385
 21
-54.29168407878356
 31
0.0
  0
LINE
  5
2912
330
2
100
AcDbEntity
  8
AM_VIS
100
AcDbLine
 10
644.183957859578
 20
-54.56080154013728
 30
0.0
 11
644.3470170267385
 21
-54.29168407878359
 31
0.0
  0
LINE
  5
2913
330
2
100
AcDbEntity
  8
AM_VIS
100
AcDbLine
 10
644.0778995653858
 20
-54.12862491162553
 30
0.0
 11
644.1839578595788
 21
-54.56080154013853
 31
0.0
  0
LINE
  5
2914
330
2
100
AcDbEntity
  8
AM_VIS
100
AcDbLine
 10
644.3470170267385
 20
-54.29168407878356
 30
0.0
 11
644.2939878796424
 21
-54.075595764529
 31
0.0
  0
LINE
  5
2915
330
2
100
AcDbEntity
  8
AM_VIS
100
AcDbLine
 10
644.3470170267385
 20
-54.29168407878353
 30
0.0
 11
644.0778995653861
 21
-54.12862491162397
 31
0.0
  0
LINE
  5
2916
330
2
100
AcDbEntity
  8
AM_VIS
100
AcDbLine
 10
644.6161344880919
 20
-54.45474324594548
 30
0.0
 11
644.1839578595788
 21
-54.56080154013853
 31
0.0
  0
LINE
  5
2917
330
2
100
AcDbEntity
  8
AM_VIS
100
AcDbLine
 10
644.616134488092
 20
-54.45474324594551
 30
0.0
 11
644.678801280867
 21
-54.71010397399926
 31
0.0
  0
LINE
  5
2918
330
2
100
AcDbEntity
  8
AM_VIS
100
AcDbLine
 10
644.616134488092
 20
-54.45474324594551
 30
0.0
 11
644.8714952161467
 21
-54.39207645317011
 31
0.0
  0
LINE
  5
2919
330
2
100
AcDbEntity
  8
AM_VIS
100
AcDbLine
 10
644.4474094011229
 20
-53.76720588937485
 30
0.0
 11
644.5100761938988
 21
-54.02256661743246
 31
0.0
  0
LINE
  5
291A
330
2
100
AcDbEntity
  8
AM_VIS
100
AcDbLine
 10
644.5100761938989
 20
-54.02256661743246
 30
0.0
 11
644.7654369219556
 21
-53.95989982465668
 31
0.0
  0
LINE
  5
291B
330
2
100
AcDbEntity
  8
AM_VIS
100
AcDbLine
 10
644.0152327726098
 20
-53.87326418356789
 30
0.0
 11
644.0778995653858
 21
-54.12862491162548
 31
0.0
  0
LINE
  5
291C
330
2
100
AcDbEntity
  8
AM_VIS
100
AcDbLine
 10
643.8225388373293
 20
-54.19129170440135
 30
0.0
 11
644.0778995653858
 21
-54.12862491162553
 31
0.0
  0
LINE
  5
291D
330
2
100
AcDbEntity
  8
AM_VIS
100
AcDbLine
 10
644.1839578595789
 20
-54.56080154013853
 30
0.0
 11
644.246624652354
 21
-54.81616226819233
 31
0.0
  0
LINE
  5
291E
330
2
100
AcDbEntity
  8
AM_VIS
100
AcDbLine
 10
643.9285971315241
 20
-54.62346833291395
 30
0.0
 11
644.1839578595789
 21
-54.56080154013858
 31
0.0
  0
CIRCLE
  5
291F
330
2
100
AcDbEntity
  8
AM_VIS
100
AcDbCircle
 10
644.3470170267385
 20
-54.29168407878356
 30
0.0
 40
1.600000000000022
  0
LINE
  5
2920
330
2
100
AcDbEntity
  8
AM_VIS
100
AcDbLine
 10
644.4474094011228
 20
-53.76720588937487
 30
0.0
 11
644.3621196003671
 21
-53.41965873318489
 31
0.0
  0
ELLIPSE
  5
2921
330
2
100
AcDbEntity
  8
AM_VIS
100
AcDbEllipse
 10
644.5014649715425
 20
-54.92104355108182
 30
0.0
 11
-2.286824568972774
 21
-0.561198123411886
 31
0.0
210
0.0
220
0.0
230
1.0
 40
0.6361945781365061
 41
4.617755055602459
 42
4.807022905166922
  0
LINE
  5
2922
330
2
100
AcDbEntity
  8
AM_VIS
100
AcDbLine
 10
644.246624652354
 20
-54.81616226819236
 30
0.0
 11
644.3319144531097
 21
-55.16370942438232
 31
0.0
  0
ELLIPSE
  5
2923
330
2
100
AcDbEntity
  8
AM_VIS
100
AcDbEllipse
 10
644.1925690819344
 20
-53.6623246064853
 30
0.0
 11
2.286824568972774
 21
0.5611981234118876
 31
0.0
210
0.0
220
0.0
230
1.0
 40
0.6361945781365061
 41
4.617755055602463
 42
4.807022905166915
  0
LINE
  5
2924
330
2
100
AcDbEntity
  8
AM_VIS
100
AcDbLine
 10
643.5810499753333
 20
-54.70875813366982
 30
0.0
 11
643.9285971315241
 21
-54.62346833291391
 31
0.0
  0
ELLIPSE
  5
2925
330
2
100
AcDbEntity
  8
AM_VIS
100
AcDbEllipse
 10
643.7176575544401
 20
-54.44613202358761
 30
0.0
 11
-0.5611981234118862
 21
2.286824568972774
 31
0.0
210
0.0
220
0.0
230
1.0
 40
0.6361945781365081
 41
4.617755055601611
 42
4.807022905166066
  0
LINE
  5
2926
330
2
100
AcDbEntity
  8
AM_VIS
100
AcDbLine
 10
643.8225388373292
 20
-54.19129170440135
 30
0.0
 11
643.4749916811401
 21
-54.27658150515688
 31
0.0
  0
LINE
  5
2927
330
2
100
AcDbEntity
  8
AM_VIS
100
AcDbLine
 10
645.1129840781447
 20
-53.87461002390117
 30
0.0
 11
644.7654369219556
 21
-53.9598998246567
 31
0.0
  0
ELLIPSE
  5
2928
330
2
100
AcDbEntity
  8
AM_VIS
100
AcDbEllipse
 10
644.9763764990366
 20
-54.13723613397952
 30
0.0
 11
0.5611981234118869
 21
-2.286824568972773
 31
0.0
210
0.0
220
0.0
230
0.9999999999999996
 40
0.6361945781365096
 41
4.617755055603312
 42
4.807022905167766
  0
LINE
  5
2929
330
2
100
AcDbEntity
  8
AM_VIS
100
AcDbLine
 10
644.8714952161467
 20
-54.39207645317011
 30
0.0
 11
645.2190423723375
 21
-54.30678665241422
 31
0.0
  0
LINE
  5
292A
330
2
100
AcDbEntity
  8
AM_VIS
100
AcDbLine
 10
643.9299429718541
 20
-53.52571702737794
 30
0.0
 11
644.0152327726098
 21
-53.87326418356792
 31
0.0
  0
LINE
  5
292B
330
2
100
AcDbEntity
  8
AM_VIS
100
AcDbLine
 10
644.7640910816228
 20
-55.05765113018927
 30
0.0
 11
644.678801280867
 21
-54.71010397399931
 31
0.0
  0
ARC
  5
292C
330
2
100
AcDbEntity
  8
AM_VIS
100
AcDbCircle
 10
644.3470170267385
 20
-54.29168407878359
 30
0.0
 40
0.5339999999999918
100
AcDbArc
 50
308.4125063669301
 51
349.1638696623682
  0
ARC
  5
292D
330
2
100
AcDbEntity
  8
AM_VIS
100
AcDbCircle
 10
644.3470170267385
 20
-54.29168407878359
 30
0.0
 40
0.5339999999999918
100
AcDbArc
 50
38.41250636669811
 51
79.16386966260134
  0
ARC
  5
292E
330
2
100
AcDbEntity
  8
AM_VIS
100
AcDbCircle
 10
644.3470170267385
 20
-54.29168407878359
 30
0.0
 40
0.5339999999999918
100
AcDbArc
 50
128.4125063669305
 51
169.1638696628349
  0
ARC
  5
292F
330
2
100
AcDbEntity
  8
AM_VIS
100
AcDbCircle
 10
644.3470170267385
 20
-54.29168407878359
 30
0.0
 40
0.5339999999999918
100
AcDbArc
 50
218.4125063671659
 51
259.1638696626047
  0
LINE
  5
2930
330
2
100
AcDbEntity
  8
AM_VIS
100
AcDbLine
 10
651.063105340995
 20
-54.23865493168702
 30
0.0
 11
650.8470170267385
 21
-54.29168407878356
 31
0.0
  0
LINE
  5
2931
330
2
100
AcDbEntity
  8
AM_VIS
100
AcDbLine
 10
650.8470170267385
 20
-54.29168407878353
 30
0.0
 11
650.630928712482
 21
-54.34471322588004
 31
0.0
  0
LINE
  5
2932
330
2
100
AcDbEntity
  8
AM_VIS
100
AcDbLine
 10
650.8470170267385
 20
-54.29168407878359
 30
0.0
 11
651.1161344880922
 21
-54.45474324594397
 31
0.0
  0
LINE
  5
2933
330
2
100
AcDbEntity
  8
AM_VIS
100
AcDbLine
 10
651.010076193898
 20
-54.02256661743123
 30
0.0
 11
650.8470170267385
 21
-54.29168407878353
 31
0.0
  0
LINE
  5
2934
330
2
100
AcDbEntity
  8
AM_VIS
100
AcDbLine
 10
651.116134488092
 20
-54.45474324594548
 30
0.0
 11
651.0100761938989
 21
-54.02256661743246
 31
0.0
  0
LINE
  5
2935
330
2
100
AcDbEntity
  8
AM_VIS
100
AcDbLine
 10
650.5778995653859
 20
-54.12862491162548
 30
0.0
 11
651.0100761938989
 21
-54.02256661743243
 31
0.0
  0
LINE
  5
2936
330
2
100
AcDbEntity
  8
AM_VIS
100
AcDbLine
 10
650.9000461738354
 20
-54.50777239304199
 30
0.0
 11
650.8470170267385
 21
-54.29168407878356
 31
0.0
  0
LINE
  5
2937
330
2
100
AcDbEntity
  8
AM_VIS
100
AcDbLine
 10
650.683957859578
 20
-54.56080154013725
 30
0.0
 11
650.8470170267385
 21
-54.29168407878356
 31
0.0
  0
LINE
  5
2938
330
2
100
AcDbEntity
  8
AM_VIS
100
AcDbLine
 10
650.5778995653859
 20
-54.12862491162551
 30
0.0
 11
650.683957859579
 21
-54.56080154013853
 31
0.0
  0
LINE
  5
2939
330
2
100
AcDbEntity
  8
AM_VIS
100
AcDbLine
 10
650.8470170267385
 20
-54.29168407878353
 30
0.0
 11
650.7939878796425
 21
-54.07559576452896
 31
0.0
  0
LINE
  5
293A
330
2
100
AcDbEntity
  8
AM_VIS
100
AcDbLine
 10
650.8470170267385
 20
-54.29168407878353
 30
0.0
 11
650.5778995653861
 21
-54.12862491162397
 31
0.0
  0
LINE
  5
293B
330
2
100
AcDbEntity
  8
AM_VIS
100
AcDbLine
 10
651.116134488092
 20
-54.45474324594545
 30
0.0
 11
650.683957859579
 21
-54.5608015401385
 31
0.0
  0
LINE
  5
293C
330
2
100
AcDbEntity
  8
AM_VIS
100
AcDbLine
 10
651.116134488092
 20
-54.45474324594551
 30
0.0
 11
651.1788012808672
 21
-54.71010397399926
 31
0.0
  0
LINE
  5
293D
330
2
100
AcDbEntity
  8
AM_VIS
100
AcDbLine
 10
651.116134488092
 20
-54.45474324594551
 30
0.0
 11
651.3714952161467
 21
-54.39207645317009
 31
0.0
  0
LINE
  5
293E
330
2
100
AcDbEntity
  8
AM_VIS
100
AcDbLine
 10
650.9474094011229
 20
-53.76720588937485
 30
0.0
 11
651.0100761938988
 21
-54.02256661743246
 31
0.0
  0
LINE
  5
293F
330
2
100
AcDbEntity
  8
AM_VIS
100
AcDbLine
 10
651.0100761938989
 20
-54.02256661743246
 30
0.0
 11
651.2654369219555
 21
-53.95989982465664
 31
0.0
  0
LINE
  5
2940
330
2
100
AcDbEntity
  8
AM_VIS
100
AcDbLine
 10
650.5152327726099
 20
-53.87326418356789
 30
0.0
 11
650.5778995653859
 21
-54.12862491162548
 31
0.0
  0
LINE
  5
2941
330
2
100
AcDbEntity
  8
AM_VIS
100
AcDbLine
 10
650.3225388373294
 20
-54.19129170440135
 30
0.0
 11
650.5778995653859
 21
-54.12862491162551
 31
0.0
  0
LINE
  5
2942
330
2
100
AcDbEntity
  8
AM_VIS
100
AcDbLine
 10
650.683957859579
 20
-54.56080154013855
 30
0.0
 11
650.7466246523541
 21
-54.81616226819236
 31
0.0
  0
LINE
  5
2943
330
2
100
AcDbEntity
  8
AM_VIS
100
AcDbLine
 10
650.4285971315241
 20
-54.62346833291391
 30
0.0
 11
650.683957859579
 21
-54.56080154013855
 31
0.0
  0
CIRCLE
  5
2944
330
2
100
AcDbEntity
  8
AM_VIS
100
AcDbCircle
 10
650.8470170267385
 20
-54.29168407878353
 30
0.0
 40
1.600000000000022
  0
LINE
  5
2945
330
2
100
AcDbEntity
  8
AM_VIS
100
AcDbLine
 10
650.9474094011229
 20
-53.76720588937485
 30
0.0
 11
650.8621196003671
 21
-53.41965873318486
 31
0.0
  0
ELLIPSE
  5
2946
330
2
100
AcDbEntity
  8
AM_VIS
100
AcDbEllipse
 10
651.0014649715425
 20
-54.92104355108182
 30
0.0
 11
-2.286824568972775
 21
-0.5611981234118885
 31
0.0
210
0.0
220
0.0
230
1.0
 40
0.6361945781365072
 41
4.617755055602455
 42
4.807022905166918
  0
LINE
  5
2947
330
2
100
AcDbEntity
  8
AM_VIS
100
AcDbLine
 10
650.7466246523541
 20
-54.81616226819233
 30
0.0
 11
650.8319144531099
 21
-55.16370942438226
 31
0.0
  0
ELLIPSE
  5
2948
330
2
100
AcDbEntity
  8
AM_VIS
100
AcDbEllipse
 10
650.6925690819343
 20
-53.6623246064853
 30
0.0
 11
2.286824568972774
 21
0.561198123411889
 31
0.0
210
0.0
220
0.0
230
0.9999999999999998
 40
0.6361945781365047
 41
4.617755055602462
 42
4.807022905166913
  0
LINE
  5
2949
330
2
100
AcDbEntity
  8
AM_VIS
100
AcDbLine
 10
650.0810499753334
 20
-54.70875813366979
 30
0.0
 11
650.4285971315241
 21
-54.62346833291388
 31
0.0
  0
ELLIPSE
  5
294A
330
2
100
AcDbEntity
  8
AM_VIS
100
AcDbEllipse
 10
650.2176575544401
 20
-54.44613202358761
 30
0.0
 11
-0.5611981234118847
 21
2.286824568972774
 31
0.0
210
0.0
220
0.0
230
1.0
 40
0.6361945781365083
 41
4.617755055601612
 42
4.807022905166067
  0
LINE
  5
294B
330
2
100
AcDbEntity
  8
AM_VIS
100
AcDbLine
 10
650.3225388373294
 20
-54.19129170440135
 30
0.0
 11
649.9749916811402
 21
-54.27658150515688
 31
0.0
  0
LINE
  5
294C
330
2
100
AcDbEntity
  8
AM_VIS
100
AcDbLine
 10
651.6129840781448
 20
-53.87461002390114
 30
0.0
 11
651.2654369219555
 21
-53.95989982465668
 31
0.0
  0
ELLIPSE
  5
294D
330
2
100
AcDbEntity
  8
AM_VIS
100
AcDbEllipse
 10
651.4763764990367
 20
-54.13723613397952
 30
0.0
 11
0.5611981234118922
 21
-2.286824568972772
 31
0.0
210
0.0
220
0.0
230
1.0
 40
0.6361945781365094
 41
4.617755055603316
 42
4.807022905167771
  0
LINE
  5
294E
330
2
100
AcDbEntity
  8
AM_VIS
100
AcDbLine
 10
651.3714952161467
 20
-54.39207645317009
 30
0.0
 11
651.7190423723375
 21
-54.30678665241419
 31
0.0
  0
LINE
  5
294F
330
2
100
AcDbEntity
  8
AM_VIS
100
AcDbLine
 10
650.4299429718542
 20
-53.5257170273779
 30
0.0
 11
650.5152327726099
 21
-53.87326418356789
 31
0.0
  0
LINE
  5
2950
330
2
100
AcDbEntity
  8
AM_VIS
100
AcDbLine
 10
651.2640910816228
 20
-55.05765113018924
 30
0.0
 11
651.1788012808671
 21
-54.71010397399931
 31
0.0
  0
ARC
  5
2951
330
2
100
AcDbEntity
  8
AM_VIS
100
AcDbCircle
 10
650.8470170267385
 20
-54.29168407878359
 30
0.0
 40
0.5339999999999919
100
AcDbArc
 50
308.4125063669301
 51
349.1638696623682
  0
ARC
  5
2952
330
2
100
AcDbEntity
  8
AM_VIS
100
AcDbCircle
 10
650.8470170267385
 20
-54.29168407878359
 30
0.0
 40
0.5339999999999919
100
AcDbArc
 50
38.41250636669811
 51
79.16386966260134
  0
ARC
  5
2953
330
2
100
AcDbEntity
  8
AM_VIS
100
AcDbCircle
 10
650.8470170267385
 20
-54.29168407878359
 30
0.0
 40
0.5339999999999919
100
AcDbArc
 50
128.4125063669305
 51
169.1638696628349
  0
ARC
  5
2954
330
2
100
AcDbEntity
  8
AM_VIS
100
AcDbCircle
 10
650.8470170267385
 20
-54.29168407878359
 30
0.0
 40
0.5339999999999919
100
AcDbArc
 50
218.4125063671659
 51
259.1638696626047
  0
LINE
  5
2B59
330
2
100
AcDbEntity
  8
LOGO
 62
     4
100
AcDbLine
 10
660.6112439181754
 20
-138.3430885192445
 30
0.0
 11
512.2880215938959
 21
-138.3430885192445
 31
0.0
  0
LWPOLYLINE
  5
2B5A
330
2
100
AcDbEntity
  8
LOGO
 62
     4
100
AcDbPolyline
 90
        4
 70
     1
 43
0.0
 10
512.288021593896
 20
-138.3430885192445
 10
660.6112439181754
 20
-138.3430885192445
 10
660.6112439181754
 20
41.97014700729791
 10
512.288021593896
 20
41.97014700729791
1001
GENIUS_GENREC_14
1002
{
1000
PYDIR
1011
512.288021593896
1021
41.97014700729791
1031
0.0
1002
}
1002
{
1000
PXDIR
1011
660.6112439181754
1021
-138.3430885192445
1031
0.0
1002
}
1002
{
1000
PORI
1011
512.288021593896
1021
-138.3430885192445
1031
0.0
1002
}
1002
{
1000
PINS
1011
512.288021593896
1021
-138.3430885192445
1031
0.0
1002
}
1002
{
1000
PINS2
1011
660.6112439181754
1021
41.97014700729791
1031
0.0
1002
}
1002
{
1000
C
1070
     1
1002
}
1001
GENIUS_GENODEF_13
1002
{
1000
HIER
1070
     0
1002
}
1002
{
1000
MANEDIT
1070
     0
1002
}
1002
{
1000
NOSEL
1070
     0
1002
}
1002
{
1000
BEHIND
1070
     0
1002
}
1002
{
1000
OTHER
1070
     0
1002
}
1002
{
1000
REACTOR
1002
}
1001
GENIUS_GENOBJ-N-REC_13
1002
{
1000
OWNER
1000
GEN
1002
}
  0
LWPOLYLINE
  5
2B5B
330
2
100
AcDbEntity
  8
LOGO
 62
     4
100
AcDbPolyline
 90
        4
 70
     1
 43
0.0
 10
512.288021593896
 20
-138.3430885192445
 10
660.6112439181754
 20
-138.3430885192445
 10
660.6112439181754
 20
-156.8472887900138
 10
512.288021593896
 20
-156.8472887900138
1001
GENIUS_GENREC_14
1002
{
1000
PYDIR
1011
512.288021593896
1021
-156.8472887900138
1031
0.0
1002
}
1002
{
1000
PXDIR
1011
660.6112439181754
1021
-138.3430885192445
1031
0.0
1002
}
1002
{
1000
PORI
1011
512.288021593896
1021
-138.3430885192445
1031
0.0
1002
}
1002
{
1000
PINS
1011
512.288021593896
1021
-138.3430885192445
1031
0.0
1002
}
1002
{
1000
PINS2
1011
660.6112439181754
1021
-156.8472887900138
1031
0.0
1002
}
1002
{
1000
C
1070
     1
1002
}
1001
GENIUS_GENOBJ-N-REC_13
1002
{
1000
OWNER
1000
GEN
1002
}
1001
GENIUS_GENODEF_13
1002
{
1000
HIER
1070
     0
1002
}
1002
{
1000
MANEDIT
1070
     0
1002
}
1002
{
1000
NOSEL
1070
     0
1002
}
1002
{
1000
BEHIND
1070
     0
1002
}
1002
{
1000
OTHER
1070
     0
1002
}
1002
{
1000
REACTOR
1002
}
  0
TEXT
  5
2B5C
330
2
100
AcDbEntity
  8
LOGO
 62
     7
100
AcDbText
 10
554.0692805602933
 20
-146.4494637819948
 30
0.0
 40
2.46722670276923
  1
Order example:
 41
0.8
  7
CHINESET
100
AcDbText
  0
TEXT
  5
2B5D
330
2
100
AcDbEntity
  8
LOGO
 62
     7
100
AcDbText
 10
554.5119214339049
 20
-142.9761194303029
 30
0.0
 40
3.700840054153845
  1
訂購代號：
  7
CHINESET
100
AcDbText
  0
LINE
  5
2B5E
330
2
100
AcDbEntity
  8
LOGO
 62
     4
100
AcDbLine
 10
552.9972621895881
 20
-156.8472887900138
 30
0.0
 11
552.9972621895881
 21
-138.3430885192445
 31
0.0
  0
TEXT
  5
2B5F
330
2
100
AcDbEntity
  8
LOGO
  6
Continuous
100
AcDbText
 10
518.9348135091456
 20
-153.2121665720942
 30
0.0
 40
2.775630040615384
  1
金器工業股份有限公司
  7
CHINESET
100
AcDbText
  0
TEXT
  5
2B60
330
2
100
AcDbEntity
  8
LOGO
  6
Continuous
100
AcDbText
 10
513.8365302558585
 20
-155.9883404185798
 30
0.0
 40
1.850420027076922
  1
MINDMAN INDUSTRIAL CO., LTD.
 41
0.85
  7
CHINESET
100
AcDbText
  0
LINE
  5
2B61
330
2
100
AcDbEntity
  8
LOGO
 62
     4
100
AcDbLine
 10
552.9972621895881
 20
-142.0439285733983
 30
0.0
 11
525.8577684591266
 21
-142.0439285733983
 31
0.0
  0
LINE
  5
2B62
330
2
100
AcDbEntity
  8
LOGO
 62
     4
100
AcDbLine
 10
552.9972621895881
 20
-145.7447686275521
 30
0.0
 11
525.8577684591266
 21
-145.7447686275521
 31
0.0
  0
LINE
  5
2B63
330
2
100
AcDbEntity
  8
LOGO
 62
     4
100
AcDbLine
 10
552.9972621895881
 20
-149.4456086817059
 30
0.0
 11
512.2880215938959
 21
-149.4456086817059
 31
0.0
  0
LINE
  5
2B64
330
2
100
AcDbEntity
  8
LOGO
 62
     4
100
AcDbLine
 10
525.8577684591266
 20
-149.4456086817059
 30
0.0
 11
525.8577684591266
 21
-138.3430885192445
 31
0.0
  0
TEXT
  5
2B65
330
2
100
AcDbEntity
  8
LOGO
100
AcDbText
 10
544.4063314593043
 20
-148.5203986681677
 30
0.0
 40
1.850420027076922
  1
mm
  7
CHINESET
 72
     1
 11
546.6973276833043
 21
-147.5951886546292
 31
0.0
100
AcDbText
 73
     2
  0
TEXT
  5
2B66
330
2
100
AcDbEntity
  8
LOGO
100
AcDbText
 10
543.4370638260735
 20
-141.11871855986
 30
0.0
 40
1.850420027076922
  1
1 : 1
  7
CHINESET
 72
     1
 11
546.6973276833043
 21
-140.1935085463215
 31
0.0
100
AcDbText
 73
     2
  0
LINE
  5
2B67
330
2
100
AcDbEntity
  8
LOGO
 62
     4
100
AcDbLine
 10
540.6611286757419
 20
-149.4456086817059
 30
0.0
 11
540.6611286757419
 21
-138.3430885192445
 31
0.0
  0
TEXT
  5
2B68
330
2
100
AcDbEntity
  8
LOGO
100
AcDbText
 10
527.3835389010959
 20
-141.1178079200828
 30
121.2734801857075
 40
1.850420027076922
  1
比例 Scale:
 41
0.9
  7
CHINESET
 72
     4
 11
533.2594485674343
 21
-140.1935085463215
 31
121.2734801857075
100
AcDbText
  0
TEXT
  5
2B69
330
2
100
AcDbEntity
  8
LOGO
100
AcDbText
 10
527.2769745334651
 20
-144.7935294937182
 30
121.2734801857075
 40
1.850420027076922
  1
投影  View:
 41
0.9
  7
CHINESET
 72
     4
 11
533.2594485674343
 21
-143.8943486004754
 31
121.2734801857075
100
AcDbText
  0
TEXT
  5
2B6A
330
2
100
AcDbEntity
  8
LOGO
100
AcDbText
 10
527.4578861343266
 20
-148.5203986681677
 30
121.2734801857075
 40
1.850420027076922
  1
單位  Unit:
 41
0.9
  7
CHINESET
 72
     4
 11
533.2594485674343
 21
-147.5951886546292
 31
121.2734801857075
100
AcDbText
  0
SOLID
  5
2B6B
330
2
100
AcDbEntity
  8
LOGO
 62
     5
100
AcDbTrace
 10
514.2078620689708
 20
-146.369548773241
 30
0.0
 11
515.0079351336573
 21
-146.3695487732412
 31
0.0
 12
518.3461710242457
 22
-138.7826490219028
 32
0.0
 13
519.1462440889328
 23
-138.7826490219032
 33
0.0
  0
SOLID
  5
2B6C
330
2
100
AcDbEntity
  8
LOGO
 62
     5
100
AcDbTrace
 10
515.33899985008
 20
-146.369548773241
 30
0.0
 11
516.1390729147667
 21
-146.369548773241
 31
0.0
 12
519.1462440889328
 22
-139.3896010020102
 32
0.0
 13
518.3461710242457
 23
-142.3232022391943
 33
0.0
  0
SOLID
  5
2B6D
330
2
100
AcDbEntity
  8
LOGO
 62
     2
100
AcDbTrace
 10
515.0079351336573
 20
-146.3695487732412
 30
0.0
 11
515.33899985008
 21
-146.369548773241
 31
0.0
 12
519.1462440889328
 22
-138.7826490219032
 32
0.0
 13
519.4773088053552
 23
-138.7826490219032
 33
0.0
  0
SOLID
  5
2B6E
330
2
100
AcDbEntity
  8
LOGO
 62
     5
100
AcDbTrace
 10
512.9251487443292
 20
-149.1284214100909
 30
0.0
 11
513.2010360080146
 21
-149.1284214100909
 31
0.0
 12
513.9779560159
 22
-147.748985091666
 32
0.0
 13
514.2538432795845
 23
-147.748985091666
 33
0.0
  0
SOLID
  5
2B6F
330
2
100
AcDbEntity
  8
LOGO
 62
     5
100
AcDbTrace
 10
513.9779560159
 20
-147.748985091666
 30
0.0
 11
514.2538432795845
 21
-147.748985091666
 31
0.0
 12
513.9779560159
 22
-149.1284214100909
 32
0.0
 13
514.2538432795845
 23
-149.1284214100909
 33
0.0
  0
SOLID
  5
2B70
330
2
100
AcDbEntity
  8
LOGO
 62
     5
100
AcDbTrace
 10
513.9779560159
 20
-149.1284214100909
 30
0.0
 11
514.2538432795845
 21
-149.1284214100909
 31
0.0
 12
515.0307632874713
 22
-147.748985091666
 32
0.0
 13
515.3066505511563
 23
-147.748985091666
 33
0.0
  0
SOLID
  5
2B71
330
2
100
AcDbEntity
  8
LOGO
 62
     5
100
AcDbTrace
 10
515.0307632874713
 20
-147.748985091666
 30
0.0
 11
515.3066505511563
 21
-147.748985091666
 31
0.0
 12
515.0307632874713
 22
-149.1284214100909
 32
0.0
 13
515.3066505511563
 23
-149.1284214100909
 33
0.0
  0
POLYLINE
  5
2B72
330
2
100
AcDbEntity
  8
LOGO
 62
     5
100
AcDb2dPolyline
 66
     1
 10
0.0
 20
0.0
 30
0.0
 40
0.2763293907101538
 41
0.2763293907101538
  0
VERTEX
  5
2B73
330
2B72
100
AcDbEntity
  8
LOGO
 62
     5
100
AcDbVertex
100
AcDb2dVertex
 10
524.278410384012
 20
-148.300759619036
 30
0.0
 42
1.0
  0
VERTEX
  5
2B74
330
2B72
100
AcDbEntity
  8
LOGO
 62
     5
100
AcDbVertex
100
AcDb2dVertex
 10
523.4494222118814
 20
-148.300759619036
 30
0.0
 42
1.0
  0
SEQEND
  5
2B75
330
2B72
100
AcDbEntity
  8
LOGO
 62
     5
  0
POLYLINE
  5
2B76
330
2
100
AcDbEntity
  8
LOGO
 62
     5
100
AcDb2dPolyline
 66
     1
 10
0.0
 20
0.0
 30
0.0
 70
     1
  0
VERTEX
  5
2B77
330
2B76
100
AcDbEntity
  8
LOGO
 62
     5
100
AcDbVertex
100
AcDb2dVertex
 10
521.8867426340213
 20
-148.4387032508787
 30
0.0
 42
1.000000057330635
  0
VERTEX
  5
2B78
330
2B76
100
AcDbEntity
  8
LOGO
 62
     5
100
AcDbVertex
100
AcDb2dVertex
 10
522.7144044250763
 20
-148.4387032508787
 30
0.0
 42
1.000000057330635
  0
SEQEND
  5
2B79
330
2B76
100
AcDbEntity
  8
LOGO
 62
     5
  0
CIRCLE
  5
2B7A
330
2
100
AcDbEntity
  8
LOGO
 62
     5
100
AcDbCircle
 10
522.3005735295494
 20
-148.4387032508787
 30
0.0
 40
0.4138308955275264
  0
POLYLINE
  5
2B7B
330
2
100
AcDbEntity
  8
LOGO
 62
     5
100
AcDb2dPolyline
 66
     1
 10
0.0
 20
0.0
 30
0.0
 70
     1
 40
0.2763293907101538
 41
0.2763293907101538
  0
VERTEX
  5
2B7C
330
2B7B
100
AcDbEntity
  8
LOGO
 62
     5
100
AcDbVertex
100
AcDb2dVertex
 10
521.7479147481286
 20
-148.4387032508787
 30
0.0
 42
1.0
  0
VERTEX
  5
2B7D
330
2B7B
100
AcDbEntity
  8
LOGO
 62
     5
100
AcDbVertex
100
AcDb2dVertex
 10
522.8532323109692
 20
-148.4387032508787
 30
0.0
 42
1.0
  0
SEQEND
  5
2B7E
330
2B7B
100
AcDbEntity
  8
LOGO
 62
     5
  0
LINE
  5
2B7F
330
2
100
AcDbEntity
  8
LOGO
100
AcDbLine
 10
524.4156908253163
 20
-149.1284214100909
 30
0.0
 11
524.4156908253163
 21
-148.300759619036
 31
0.0
  0
SOLID
  5
2B80
330
2
100
AcDbEntity
  8
LOGO
 62
     5
100
AcDbTrace
 10
522.7143768363512
 20
-147.748985091666
 30
0.0
 11
522.9902641000356
 21
-147.748985091666
 31
0.0
 12
522.7143768363512
 22
-149.1284214100909
 32
0.0
 13
522.9902641000356
 23
-149.1284214100909
 33
0.0
  0
SOLID
  5
2B81
330
2
100
AcDbEntity
  8
LOGO
 62
     5
100
AcDbTrace
 10
523.3121417705763
 20
-149.1284214100909
 30
0.0
 11
523.5880290342618
 21
-149.1284214100909
 31
0.0
 12
523.3121417705763
 22
-147.748985091666
 32
0.0
 13
523.5880290342618
 23
-147.748985091666
 33
0.0
  0
SOLID
  5
2B82
330
2
100
AcDbEntity
  8
LOGO
 62
     5
100
AcDbTrace
 10
524.139803561632
 20
-148.300759619036
 30
0.0
 11
524.4156908253163
 21
-148.300759619036
 31
0.0
 12
524.139803561632
 22
-149.1284214100909
 32
0.0
 13
524.4156908253163
 23
-149.1284214100909
 33
0.0
  0
SOLID
  5
2B83
330
2
100
AcDbEntity
  8
LOGO
 62
     5
100
AcDbTrace
 10
523.2845530442078
 20
-139.3896010020102
 30
0.0
 11
522.4844799795217
 21
-142.3232022391943
 31
0.0
 12
523.2845530442078
 22
-146.3695487732412
 32
0.0
 13
522.4844799795217
 23
-146.3695487732412
 33
0.0
  0
SOLID
  5
2B84
330
2
100
AcDbEntity
  8
LOGO
 62
     5
100
AcDbTrace
 10
523.6156177606303
 20
-146.3695487732412
 30
0.0
 11
524.4156908253163
 21
-146.3695487732412
 31
0.0
 12
523.6156177606303
 22
-138.7826490219032
 32
0.0
 13
524.4156908253163
 23
-138.7826490219028
 33
0.0
  0
SOLID
  5
2B85
330
2
100
AcDbEntity
  8
LOGO
 62
     2
100
AcDbTrace
 10
523.2845530442078
 20
-138.7826490219028
 30
0.0
 11
523.6156177606303
 21
-138.7826490219032
 31
0.0
 12
523.2845530442078
 22
-146.3695487732412
 32
0.0
 13
523.6156177606303
 23
-146.3695487732412
 33
0.0
  0
POLYLINE
  5
2B86
330
2
100
AcDbEntity
  8
LOGO
 62
     5
100
AcDb2dPolyline
 66
     1
 10
0.0
 20
0.0
 30
0.0
 40
0.2763293907101538
 41
0.2763293907101538
  0
VERTEX
  5
2B87
330
2B86
100
AcDbEntity
  8
LOGO
 62
     5
100
AcDbVertex
100
AcDb2dVertex
 10
520.3240078787094
 20
-148.300759619036
 30
0.0
 42
1.0
  0
VERTEX
  5
2B88
330
2B86
100
AcDbEntity
  8
LOGO
 62
     5
100
AcDbVertex
100
AcDb2dVertex
 10
519.4950197065788
 20
-148.300759619036
 30
0.0
 42
1.0
  0
SEQEND
  5
2B89
330
2B86
100
AcDbEntity
  8
LOGO
 62
     5
  0
POLYLINE
  5
2B8A
330
2
100
AcDbEntity
  8
LOGO
 62
     5
100
AcDb2dPolyline
 66
     1
 10
0.0
 20
0.0
 30
0.0
 40
0.2763293907101538
 41
0.2763293907101538
  0
VERTEX
  5
2B8B
330
2B8A
100
AcDbEntity
  8
LOGO
 62
     5
100
AcDbVertex
100
AcDb2dVertex
 10
521.1516696697635
 20
-148.300759619036
 30
0.0
 42
1.0
  0
VERTEX
  5
2B8C
330
2B8A
100
AcDbEntity
  8
LOGO
 62
     5
100
AcDbVertex
100
AcDb2dVertex
 10
520.3226814976334
 20
-148.300759619036
 30
0.0
 42
1.0
  0
SEQEND
  5
2B8D
330
2B8A
100
AcDbEntity
  8
LOGO
 62
     5
  0
POLYLINE
  5
2B8E
330
2
100
AcDbEntity
  8
LOGO
 62
     5
100
AcDb2dPolyline
 66
     1
 10
0.0
 20
0.0
 30
0.0
 40
0.2763293907101538
 41
0.2763293907101538
  0
VERTEX
  5
2B8F
330
2B8E
100
AcDbEntity
  8
LOGO
 62
     5
100
AcDbVertex
100
AcDb2dVertex
 10
517.1972671644608
 20
-148.300759619036
 30
0.0
 42
1.0
  0
VERTEX
  5
2B90
330
2B8E
100
AcDbEntity
  8
LOGO
 62
     5
100
AcDbVertex
100
AcDb2dVertex
 10
516.3682789923308
 20
-148.300759619036
 30
0.0
 42
1.0
  0
SEQEND
  5
2B91
330
2B8E
100
AcDbEntity
  8
LOGO
 62
     5
  0
SOLID
  5
2B92
330
2
100
AcDbEntity
  8
LOGO
 62
     5
100
AcDbTrace
 10
516.230998551026
 20
-147.748985091666
 30
0.0
 11
516.5068858147105
 21
-147.748985091666
 31
0.0
 12
516.230998551026
 22
-149.1284214100909
 32
0.0
 13
516.5068858147105
 23
-149.1284214100909
 33
0.0
  0
SOLID
  5
2B93
330
2
100
AcDbEntity
  8
LOGO
 62
     5
100
AcDbTrace
 10
517.0586603420811
 20
-148.300759619036
 30
0.0
 11
517.3345476057663
 21
-148.300759619036
 31
0.0
 12
517.0586603420811
 22
-149.1284214100909
 32
0.0
 13
517.3345476057663
 23
-149.1284214100909
 33
0.0
  0
POLYLINE
  5
2B94
330
2
100
AcDbEntity
  8
LOGO
 62
     5
100
AcDb2dPolyline
 66
     1
 10
0.0
 20
0.0
 30
0.0
 70
     1
 40
0.2763293907101538
 41
0.2763293907101538
  0
VERTEX
  5
2B95
330
2B94
100
AcDbEntity
  8
LOGO
 62
     5
100
AcDbVertex
100
AcDb2dVertex
 10
517.7935122428254
 20
-148.4387032508787
 30
0.0
 42
1.0
  0
VERTEX
  5
2B96
330
2B94
100
AcDbEntity
  8
LOGO
 62
     5
100
AcDbVertex
100
AcDb2dVertex
 10
518.8988298056665
 20
-148.4387032508787
 30
0.0
 42
1.0
  0
SEQEND
  5
2B97
330
2B94
100
AcDbEntity
  8
LOGO
 62
     5
  0
SOLID
  5
2B98
330
2
100
AcDbEntity
  8
LOGO
 62
     5
100
AcDbTrace
 10
518.7599743310475
 20
-147.3351541961383
 30
0.0
 11
519.0358615947326
 21
-147.3351541961383
 31
0.0
 12
518.7599743310475
 22
-149.1284214100909
 32
0.0
 13
519.0358615947326
 23
-149.1284214100909
 33
0.0
  0
SOLID
  5
2B99
330
2
100
AcDbEntity
  8
LOGO
 62
     5
100
AcDbTrace
 10
519.3577392652746
 20
-147.748985091666
 30
0.0
 11
519.6336265289589
 21
-147.748985091666
 31
0.0
 12
519.3577392652746
 22
-149.1284214100909
 32
0.0
 13
519.6336265289589
 23
-149.1284214100909
 33
0.0
  0
SOLID
  5
2B9A
330
2
100
AcDbEntity
  8
LOGO
 62
     5
100
AcDbTrace
 10
520.1854010563289
 20
-148.300759619036
 30
0.0
 11
520.461288320014
 21
-148.300759619036
 31
0.0
 12
520.1854010563289
 22
-149.1284214100909
 32
0.0
 13
520.461288320014
 23
-149.1284214100909
 33
0.0
  0
SOLID
  5
2B9B
330
2
100
AcDbEntity
  8
LOGO
 62
     5
100
AcDbTrace
 10
521.0130628473839
 20
-148.300759619036
 30
0.0
 11
521.2889501110687
 21
-148.300759619036
 31
0.0
 12
521.0130628473839
 22
-149.1284214100914
 32
0.0
 13
521.2889501110687
 23
-149.1284214100914
 33
0.0
  0
SOLID
  5
2B9C
330
2
100
AcDbEntity
  8
LOGO
 62
     5
100
AcDbTrace
 10
515.6332336167995
 20
-147.5558640070865
 30
0.0
 11
515.9091208804852
 21
-147.5558640070865
 31
0.0
 12
515.6332336167995
 22
-147.3351541961383
 32
0.0
 13
515.9091208804852
 23
-147.3351541961383
 33
0.0
  0
SOLID
  5
2B9D
330
2
100
AcDbEntity
  8
LOGO
 62
     5
100
AcDbTrace
 10
515.6332336167995
 20
-147.748985091666
 30
0.0
 11
515.9091208804852
 21
-147.748985091666
 31
0.0
 12
515.6332336167995
 22
-149.1284214100914
 32
0.0
 13
515.9091208804852
 23
-149.1284214100909
 33
0.0
  0
SOLID
  5
2B9E
330
2
100
AcDbEntity
  8
LOGO
 62
     5
100
AcDbTrace
 10
518.3461710242457
 20
-146.369548773241
 30
0.0
 11
519.1462440889328
 21
-146.369548773241
 31
0.0
 12
518.3461710242457
 22
-142.3232022391943
 32
0.0
 13
519.1462440889328
 23
-139.3896010020102
 33
0.0
  0
SOLID
  5
2B9F
330
2
100
AcDbEntity
  8
LOGO
 62
     5
100
AcDbTrace
 10
519.4773088053552
 20
-138.7826490219032
 30
0.0
 11
520.2773818700413
 21
-138.7826490219028
 31
0.0
 12
519.4773088053552
 22
-145.762596793134
 32
0.0
 13
520.2773818700413
 23
-142.8289955559499
 33
0.0
  0
SOLID
  5
2BA0
330
2
100
AcDbEntity
  8
LOGO
 62
     2
100
AcDbTrace
 10
519.1462440889328
 20
-138.7826490219032
 30
0.0
 11
519.4773088053552
 21
-138.7826490219032
 31
0.0
 12
519.1462440889328
 22
-146.369548773241
 32
0.0
 13
519.4773088053552
 23
-146.369548773241
 33
0.0
  0
SOLID
  5
2BA1
330
2
100
AcDbEntity
  8
LOGO
 62
     5
100
AcDbTrace
 10
519.4773088053552
 20
-145.762596793134
 30
0.0
 11
520.2773818700413
 21
-142.8289955559499
 31
0.0
 12
523.2845530442078
 22
-138.7826490219028
 32
0.0
 13
522.4844799795217
 23
-138.7826490219028
 33
0.0
  0
SOLID
  5
2BA2
330
2
100
AcDbEntity
  8
LOGO
 62
     5
100
AcDbTrace
 10
519.4773088053552
 20
-146.369548773241
 30
0.0
 11
520.2773818700413
 21
-146.369548773241
 31
0.0
 12
523.2845530442078
 22
-139.3896010020102
 32
0.0
 13
522.4844799795217
 23
-142.3232022391943
 33
0.0
  0
SOLID
  5
2BA3
330
2
100
AcDbEntity
  8
LOGO
 62
     2
100
AcDbTrace
 10
519.1462440889328
 20
-146.369548773241
 30
0.0
 11
519.4773088053552
 21
-146.369548773241
 31
0.0
 12
523.2845530442078
 22
-138.7826490219028
 32
0.0
 13
523.6156177606303
 23
-138.7826490219032
 33
0.0
  0
TEXT
  5
2BE2
330
2
100
AcDbEntity
  8
LOGO
100
AcDbText
 10
553.7312471397264
 20
-155.8628726390994
 30
0.0
 40
1.850687999999999
  1
20807102
 41
0.7
  7
CHINESET
 72
     1
 11
558.3579671397264
 21
-155.8628726390994
 31
0.0
100
AcDbText
  0
LINE
  5
2BE3
330
2
100
AcDbEntity
  8
LOGO
 62
     4
100
AcDbLine
 10
564.1013901895875
 20
-153.1464487358595
 30
0.0
 11
564.1013901895881
 21
-156.8472887900136
 31
0.0
  0
LINE
  5
2BE4
330
2
100
AcDbEntity
  8
LOGO
 62
     4
100
AcDbLine
 10
564.1013901895875
 20
-153.1464487358595
 30
0.0
 11
552.9972621895881
 21
-153.1464487358595
 31
0.0
  0
CIRCLE
  5
2BE5
330
2
100
AcDbEntity
  8
LOGO
  6
Continuous
100
AcDbCircle
 10
544.087412802753
 20
-143.8903905384963
 30
0.0
 40
1.074397421698614
  0
CIRCLE
  5
2BE6
330
2
100
AcDbEntity
  8
LOGO
  6
Continuous
100
AcDbCircle
 10
544.087412802753
 20
-143.8903905384963
 30
0.0
 40
0.6295017780928984
  0
LINE
  5
2BE7
330
2
100
AcDbEntity
  8
LOGO
100
AcDbLine
 10
550.8390508685119
 20
-144.964787960195
 30
0.0
 11
550.8390508685119
 21
-142.8159931167974
 31
0.0
  0
LINE
  5
2BE8
330
2
100
AcDbEntity
  8
LOGO
100
AcDbLine
 10
547.4708766248417
 20
-144.519892316589
 30
0.0
 11
547.4708766248417
 21
-143.2608887604032
 31
0.0
  0
LINE
  5
2BE9
330
2
100
AcDbEntity
  8
LOGO
  6
Continuous
100
AcDbLine
 10
547.4708766248417
 20
-143.2608887604032
 30
0.0
 11
550.8390508685119
 21
-142.8159931167974
 31
0.0
  0
LINE
  5
2BEA
330
2
100
AcDbEntity
  8
LOGO
  6
Continuous
100
AcDbLine
 10
547.4708766248417
 20
-144.519892316589
 30
0.0
 11
550.8390508685119
 21
-144.964787960195
 31
0.0
  0
LINE
  5
2BEB
330
2
100
AcDbEntity
  8
LOGO
  6
AM_ISO08W050x2
 48
0.3
100
AcDbLine
 10
542.6063398691073
 20
-143.8903905384963
 30
0.0
 11
545.5684857363991
 21
-143.8903905384963
 31
0.0
1001
GENIUS_GENOREF_13
1005
2C02
  0
LINE
  5
2BEC
330
2
100
AcDbEntity
  8
LOGO
  6
AM_ISO08W050x2
 48
0.3
100
AcDbLine
 10
544.087412802753
 20
-145.3714634721423
 30
0.0
 11
544.087412802753
 21
-142.4093176048502
 31
0.0
1001
GENIUS_GENOREF_13
1005
2C01
  0
LINE
  5
2BED
330
2
100
AcDbEntity
  8
LOGO
  6
CENTER
 48
0.5
100
AcDbLine
 10
547.2015163033132
 20
-143.8903905384963
 30
0.0
 11
551.1782151115073
 21
-143.8903905384963
 31
0.0
1001
GENIUS_GENOREF_13
1005
2C00
  0
POINT
  5
2C00
330
2
100
AcDbEntity
  8
0
 60
     1
100
AcDbPoint
 10
-1811.703739739273
 20
-1443.309492803441
 30
0.0
1001
GENIUS_GENOBJ-N-CRS_13
1002
{
1000
OWNER
1000
GEN
1002
}
1001
GENIUS_GENOLIS_13
1002
{
1000
ENT
1005
0
1005
0
1005
0
1005
2BED
1002
}
1001
GENIUS_GENOENT_13
1002
{
1000
MYREF
1005
2C00
1002
}
1002
{
1000
GRP
1005
0
1002
}
1001
GENIUS_GENODEF_13
1002
{
1000
HIER
1070
    10
1002
}
1002
{
1000
MANEDIT
1070
     1
1002
}
1002
{
1000
NOSEL
1070
     0
1002
}
1002
{
1000
BEHIND
1070
     0
1002
}
1002
{
1000
OTHER
1070
     0
1002
}
1002
{
1000
REACTOR
1002
}
  0
POINT
  5
2C01
330
2
100
AcDbEntity
  8
0
 60
     1
100
AcDbPoint
 10
-1823.028324962128
 20
-1434.433906324805
 30
0.0
1001
GENIUS_GENOBJ-N-CRS_13
1002
{
1000
OWNER
1000
GEN
1002
}
1001
GENIUS_GENOLIS_13
1002
{
1000
ENT
1005
0
1005
0
1005
0
1005
2BEC
1002
}
1001
GENIUS_GENOENT_13
1002
{
1000
MYREF
1005
2C01
1002
}
1002
{
1000
GRP
1005
0
1002
}
1001
GENIUS_GENODEF_13
1002
{
1000
HIER
1070
    10
1002
}
1002
{
1000
MANEDIT
1070
     1
1002
}
1002
{
1000
NOSEL
1070
     0
1002
}
1002
{
1000
BEHIND
1070
     0
1002
}
1002
{
1000
OTHER
1070
     0
1002
}
1002
{
1000
REACTOR
1002
}
  0
POINT
  5
2C02
330
2
100
AcDbEntity
  8
0
 60
     1
100
AcDbPoint
 10
-1816.669651264291
 20
-1443.309492803441
 30
0.0
1001
GENIUS_GENOBJ-N-CRS_13
1002
{
1000
OWNER
1000
GEN
1002
}
1001
GENIUS_GENOLIS_13
1002
{
1000
ENT
1005
0
1005
0
1005
0
1005
2BEB
1002
}
1001
GENIUS_GENOENT_13
1002
{
1000
MYREF
1005
2C02
1002
}
1002
{
1000
GRP
1005
0
1002
}
1001
GENIUS_GENODEF_13
1002
{
1000
HIER
1070
    10
1002
}
1002
{
1000
MANEDIT
1070
     1
1002
}
1002
{
1000
NOSEL
1070
     0
1002
}
1002
{
1000
BEHIND
1070
     0
1002
}
1002
{
1000
OTHER
1070
     0
1002
}
1002
{
1000
REACTOR
1002
}
  0
DIMENSION
  5
2FBD
102
{ACAD_XDICTIONARY
360
2FCC
102
}
102
{ACAD_REACTORS
330
2FCD
102
}
330
2
100
AcDbEntity
  8
AM_REFDIM
100
AcDbDimension
  2
*D15
 10
585.8037140006143
 20
-45.39168407878349
 30
0.0
 11
583.8787140006144
 21
-38.10001741211674
 31
0.0
 70
    32
 71
     5
 42
1.399999999999977
  3
STANDARD$0
100
AcDbAlignedDimension
 13
583.0163877208506
 23
-46.79168407878347
 33
0.0
 14
583.0163877208506
 24
-45.39168407878349
 34
0.0
 50
90.0
100
AcDbRotatedDimension
  0
LINE
  5
30BC
330
2
100
AcDbEntity
  8
AM_7
100
AcDbLine
 10
560.2663877208506
 20
-52.99168407878361
 30
0.0
 11
567.2668180303644
 21
-52.99168407878361
 31
0.0
  0
LINE
  5
30BD
330
2
100
AcDbEntity
  8
AM_7
100
AcDbLine
 10
565.8663877208506
 20
-52.5916840787836
 30
0.0
 11
563.8663877208506
 21
-52.5916840787836
 31
0.0
  0
LINE
  5
30BE
330
2
100
AcDbEntity
  8
AM_7
100
AcDbLine
 10
564.8663877208506
 20
-53.5916840787836
 30
0.0
 11
564.8663877208506
 21
-51.5916840787836
 31
0.0
  0
LINE
  5
30BF
330
2
100
AcDbEntity
  8
AM_7
100
AcDbLine
 10
567.1663877208507
 20
-52.5916840787836
 30
0.0
 11
566.6663877208507
 21
-52.5916840787836
 31
0.0
  0
LINE
  5
30C0
330
2
100
AcDbEntity
  8
AM_7
100
AcDbLine
 10
563.0663877208506
 20
-52.5916840787836
 30
0.0
 11
562.5663877208507
 21
-52.5916840787836
 31
0.0
  0
LINE
  5
30C1
330
2
100
AcDbEntity
  8
AM_7
100
AcDbLine
 10
564.8663877208506
 20
-54.89168407878361
 30
0.0
 11
564.8663877208506
 21
-54.39168407878361
 31
0.0
  0
LINE
  5
30C2
330
2
100
AcDbEntity
  8
AM_7
100
AcDbLine
 10
564.8663877208506
 20
-50.79168407878359
 30
0.0
 11
564.8663877208506
 21
-50.29168407878358
 31
0.0
  0
LINE
  5
30C3
330
2
100
AcDbEntity
  8
AM_7
100
AcDbLine
 10
545.2663877208506
 20
-54.29168407878359
 30
0.0
 11
551.9663877208507
 21
-54.29168407878359
 31
0.0
  0
LINE
  5
30C4
330
2
100
AcDbEntity
  8
AM_7
100
AcDbLine
 10
545.0663877208507
 20
-52.89168407878356
 30
0.0
 11
550.4663877208506
 21
-52.89168407878356
 31
0.0
  0
LINE
  5
30C5
330
2
100
AcDbEntity
  8
AM_7
100
AcDbLine
 10
555.3663877208506
 20
-61.09168407878357
 30
0.0
 11
555.3663877208506
 21
-54.05945435285961
 31
0.0
  0
LINE
  5
30C6
330
2
100
AcDbEntity
  8
AM_7
100
AcDbLine
 10
545.0663877208507
 20
-95.0049211929585
 30
0.0
 11
550.4663877208506
 21
-95.0049211929585
 31
0.0
  0
LINE
  5
30C7
330
2
100
AcDbEntity
  8
AM_7
100
AcDbLine
 10
545.2663877208506
 20
-98.25492119295853
 30
0.0
 11
551.9663877208507
 21
-98.25492119295853
 31
0.0
  0
LINE
  5
30C8
330
2
100
AcDbEntity
  8
AM_7
100
AcDbLine
 10
545.2663877208506
 20
-91.75492119295853
 30
0.0
 11
551.9663877208507
 21
-91.75492119295853
 31
0.0
  0
LINE
  5
30C9
330
2
100
AcDbEntity
  8
AM_7
100
AcDbLine
 10
556.3663877208506
 20
-95.00492119295854
 30
0.0
 11
554.3663877208506
 21
-95.00492119295854
 31
0.0
  0
LINE
  5
30CA
330
2
100
AcDbEntity
  8
AM_7
100
AcDbLine
 10
555.3663877208506
 20
-96.00492119295854
 30
0.0
 11
555.3663877208506
 21
-94.00492119295853
 31
0.0
  0
LINE
  5
30CB
330
2
100
AcDbEntity
  8
AM_7
100
AcDbLine
 10
560.3663877208506
 20
-95.00492119295854
 30
0.0
 11
557.1663877208506
 21
-95.00492119295854
 31
0.0
  0
LINE
  5
30CC
330
2
100
AcDbEntity
  8
AM_7
100
AcDbLine
 10
553.5663877208507
 20
-95.00492119295854
 30
0.0
 11
550.3663877208506
 21
-95.00492119295854
 31
0.0
  0
LINE
  5
30CD
330
2
100
AcDbEntity
  8
AM_7
100
AcDbLine
 10
555.3663877208506
 20
-100.0049211929585
 30
0.0
 11
555.3663877208506
 21
-96.80492119295855
 31
0.0
  0
LINE
  5
30CE
330
2
100
AcDbEntity
  8
AM_7
100
AcDbLine
 10
555.3663877208506
 20
-93.20492119295852
 30
0.0
 11
555.3663877208506
 21
-90.00492119295854
 31
0.0
  0
LINE
  5
30CF
330
2
100
AcDbEntity
  8
AM_7
100
AcDbLine
 10
564.8663877208506
 20
-2.015173790718239
 30
0.0
 11
564.8663877208506
 21
0.7578144440505359
 31
0.0
  0
LINE
  5
30D0
330
2
100
AcDbEntity
  8
AM_VIS
100
AcDbLine
 10
563.0663877208506
 20
-7.706361636990578
 30
0.0
 11
563.0663877208506
 21
-7.606361636990527
 31
0.0
  0
LINE
  5
30D1
330
2
100
AcDbEntity
  8
AM_VIS
100
AcDbLine
 10
562.5947356332436
 20
2.452374152215583
 30
0.0
 11
563.0663877208506
 21
2.493638363009466
 31
0.0
  0
LINE
  5
30D2
330
2
100
AcDbEntity
  8
AM_VIS
100
AcDbLine
 10
563.0663877208506
 20
2.393638363009472
 30
0.0
 11
563.0663877208506
 21
2.493638363009495
 31
0.0
  0
ARC
  5
30D3
330
2
100
AcDbEntity
  8
AM_VIS
100
AcDbCircle
 10
562.6505153086021
 20
1.814809545436844
 30
0.0
 40
0.6400000000000002
100
AcDbArc
 50
95.00000000000305
 51
115.2547165609004
  0
LINE
  5
30D4
330
2
100
AcDbEntity
  8
AM_VIS
100
AcDbLine
 10
571.3663877208506
 20
2.393638363009472
 30
0.0
 11
561.8663877208506
 21
2.393638363009472
 31
0.0
  0
LINE
  5
30D5
330
2
100
AcDbEntity
  8
AM_VIS
100
AcDbLine
 10
571.3663877208506
 20
-7.606361636990527
 30
0.0
 11
561.8663877208506
 21
-7.606361636990527
 31
0.0
  0
ARC
  5
30D6
330
2
100
AcDbEntity
  8
AM_VIS
100
AcDbCircle
 10
560.8665196708829
 20
-0.6063616369905159
 30
0.0
 40
4.674968506161929
100
AcDbArc
 50
357.5480788316093
 51
2.451921168390646
  0
ARC
  5
30D7
330
2
100
AcDbEntity
  8
AM_VIS
100
AcDbCircle
 10
568.8662557708182
 20
-0.6063616369905727
 30
0.0
 40
4.674968506161929
100
AcDbArc
 50
177.5480788316093
 51
182.4519211683906
  0
CIRCLE
  5
30D8
330
2
100
AcDbEntity
  8
AM_VIS
100
AcDbCircle
 10
564.8663877208506
 20
-0.6063616369905443
 30
0.0
 40
0.7
  0
LINE
  5
30D9
330
2
100
AcDbEntity
  8
AM_VIS
100
AcDbLine
 10
548.8663877208506
 20
-7.606361636990669
 30
0.0
 11
561.8663877208506
 21
-7.606361636990669
 31
0.0
  0
LINE
  5
30DA
330
2
100
AcDbEntity
  8
AM_VIS
100
AcDbLine
 10
561.8663877208506
 20
2.39363836300933
 30
0.0
 11
548.8663877208506
 21
2.39363836300933
 31
0.0
  0
LINE
  5
30DB
330
2
100
AcDbEntity
  8
AM_VIS
100
AcDbLine
 10
561.8663877208506
 20
-7.606361636990669
 30
0.0
 11
561.8663877208506
 21
2.39363836300933
 31
0.0
  0
LINE
  5
30DC
330
2
100
AcDbEntity
  8
AM_VIS
100
AcDbLine
 10
548.8663877208506
 20
-7.606361636990669
 30
0.0
 11
548.8663877208506
 21
2.39363836300933
 31
0.0
  0
LINE
  5
30DD
330
2
100
AcDbEntity
  8
AM_VIS
100
AcDbLine
 10
543.8663877208506
 20
-6.606361636990641
 30
0.0
 11
545.3663877208506
 21
-7.606361636990641
 31
0.0
  0
LINE
  5
30DE
330
2
100
AcDbEntity
  8
AM_VIS
100
AcDbLine
 10
543.8663877208506
 20
1.143638363009358
 30
0.0
 11
540.3663877208506
 21
1.143638363009358
 31
0.0
  0
LINE
  5
30DF
330
2
100
AcDbEntity
  8
AM_VIS
100
AcDbLine
 10
540.3663877208506
 20
1.143638363009358
 30
0.0
 11
539.3663877208506
 21
0.543638363009336
 31
0.0
  0
LINE
  5
30E0
102
{ACAD_REACTORS
330
380C
102
}
330
2
100
AcDbEntity
  8
AM_VIS
100
AcDbLine
 10
539.3663877208506
 20
0.3936383630093587
 30
0.0
 11
539.3663877208506
 21
0.543638363009336
 31
0.0
  0
LINE
  5
30E1
330
2
100
AcDbEntity
  8
AM_VIS
100
AcDbLine
 10
539.3663877208506
 20
0.3936383630093587
 30
0.0
 11
539.3663877208506
 21
-0.506361636990647
 31
0.0
  0
LINE
  5
30E2
330
2
100
AcDbEntity
  8
AM_VIS
100
AcDbLine
 10
543.8663877208506
 20
0.3936383630093587
 30
0.0
 11
539.3663877208506
 21
0.3936383630093587
 31
0.0
  0
LINE
  5
30E3
330
2
100
AcDbEntity
  8
AM_VIS
100
AcDbLine
 10
539.3663877208506
 20
-0.5063616369906186
 30
0.0
 11
543.8663877208506
 21
-0.5063616369906186
 31
0.0
  0
LINE
  5
30E4
330
2
100
AcDbEntity
  8
AM_VIS
100
AcDbLine
 10
539.3663877208506
 20
-4.706361636990635
 30
0.0
 11
539.3663877208506
 21
-0.5063616369906186
 31
0.0
  0
LINE
  5
30E5
330
2
100
AcDbEntity
  8
AM_VIS
100
AcDbLine
 10
539.3663877208506
 20
-5.756361636990618
 30
0.0
 11
539.3663877208506
 21
-5.606361636990612
 31
0.0
  0
LINE
  5
30E6
330
2
100
AcDbEntity
  8
AM_VIS
100
AcDbLine
 10
539.3663877208506
 20
-5.756361636990618
 30
0.0
 11
540.3663877208506
 21
-6.356361636990612
 31
0.0
  0
LINE
  5
30E7
330
2
100
AcDbEntity
  8
AM_VIS
100
AcDbLine
 10
543.8663877208506
 20
-6.356361636990641
 30
0.0
 11
540.3663877208506
 21
-6.356361636990641
 31
0.0
  0
LINE
  5
30E8
330
2
100
AcDbEntity
  8
AM_VIS
100
AcDbLine
 10
539.3663877208506
 20
-4.706361636990635
 30
0.0
 11
539.3663877208506
 21
-5.606361636990641
 31
0.0
  0
LINE
  5
30E9
330
2
100
AcDbEntity
  8
AM_VIS
100
AcDbLine
 10
543.8663877208506
 20
-4.706361636990635
 30
0.0
 11
539.3663877208506
 21
-4.706361636990635
 31
0.0
  0
LINE
  5
30EA
330
2
100
AcDbEntity
  8
AM_VIS
100
AcDbLine
 10
539.3663877208506
 20
-5.606361636990641
 30
0.0
 11
543.8663877208506
 21
-5.606361636990641
 31
0.0
  0
LINE
  5
30EB
330
2
100
AcDbEntity
  8
AM_VIS
100
AcDbLine
 10
540.8663877208506
 20
-2.106361636990641
 30
0.0
 11
542.0663877208506
 21
-2.106361636990641
 31
0.0
  0
LINE
  5
30EC
330
2
100
AcDbEntity
  8
AM_VIS
100
AcDbLine
 10
540.8663877208506
 20
-2.106361636990641
 30
0.0
 11
540.8663877208506
 21
-3.106361636990641
 31
0.0
  0
LINE
  5
30ED
330
2
100
AcDbEntity
  8
AM_VIS
100
AcDbLine
 10
542.0663877208506
 20
-3.106361636990641
 30
0.0
 11
540.8663877208506
 21
-3.106361636990641
 31
0.0
  0
LINE
  5
30EE
330
2
100
AcDbEntity
  8
AM_VIS
100
AcDbLine
 10
542.0663877208506
 20
-2.106361636990641
 30
0.0
 11
542.0663877208506
 21
-3.106361636990641
 31
0.0
  0
LINE
  5
30EF
330
2
100
AcDbEntity
  8
AM_VIS
100
AcDbLine
 10
543.8663877208506
 20
-6.606361636990641
 30
0.0
 11
543.8663877208506
 21
-4.606361636990641
 31
0.0
  0
LINE
  5
30F0
330
2
100
AcDbEntity
  8
AM_VIS
100
AcDbLine
 10
545.3663877208506
 20
2.393638363009358
 30
0.0
 11
543.8663877208506
 21
1.393638363009358
 31
0.0
  0
LINE
  5
30F1
330
2
100
AcDbEntity
  8
AM_VIS
100
AcDbLine
 10
543.8663877208506
 20
-0.6063616369906413
 30
0.0
 11
543.8663877208506
 21
1.393638363009358
 31
0.0
  0
LINE
  5
30F2
330
2
100
AcDbEntity
  8
AM_VIS
100
AcDbLine
 10
545.3663877208506
 20
-4.606361636990641
 30
0.0
 11
545.3663877208506
 21
-7.606361636990641
 31
0.0
  0
LINE
  5
30F3
102
{ACAD_REACTORS
330
3CDE
102
}
330
2
100
AcDbEntity
  8
AM_VIS
100
AcDbLine
 10
548.8663877208506
 20
-7.606361636990641
 30
0.0
 11
545.3663877208506
 21
-7.606361636990641
 31
0.0
  0
LINE
  5
30F4
330
2
100
AcDbEntity
  8
AM_VIS
100
AcDbLine
 10
548.8663877208506
 20
2.393638363009358
 30
0.0
 11
548.8663877208506
 21
-7.606361636990641
 31
0.0
  0
LINE
  5
30F5
330
2
100
AcDbEntity
  8
AM_VIS
100
AcDbLine
 10
548.8663877208506
 20
2.393638363009358
 30
0.0
 11
545.3663877208506
 21
2.393638363009358
 31
0.0
  0
LINE
  5
30F6
102
{ACAD_REACTORS
330
3CDE
102
}
330
2
100
AcDbEntity
  8
AM_VIS
100
AcDbLine
 10
545.3663877208506
 20
2.393638363009358
 30
0.0
 11
545.3663877208506
 21
-0.6063616369906413
 31
0.0
  0
LINE
  5
30F7
330
2
100
AcDbEntity
  8
AM_VIS
100
AcDbLine
 10
543.8663877208506
 20
-4.606361636990641
 30
0.0
 11
545.3663877208506
 21
-4.606361636990641
 31
0.0
  0
LINE
  5
30F8
330
2
100
AcDbEntity
  8
AM_VIS
100
AcDbLine
 10
545.3663877208506
 20
-4.606361636990641
 30
0.0
 11
546.1663877208507
 21
-4.606361636990641
 31
0.0
  0
LINE
  5
30F9
330
2
100
AcDbEntity
  8
AM_VIS
100
AcDbLine
 10
546.1663877208507
 20
-0.6063616369906413
 30
0.0
 11
545.3663877208506
 21
-0.6063616369906413
 31
0.0
  0
LINE
  5
30FA
330
2
100
AcDbEntity
  8
AM_VIS
100
AcDbLine
 10
545.3663877208506
 20
-0.6063616369906413
 30
0.0
 11
543.8663877208506
 21
-0.6063616369906413
 31
0.0
  0
LINE
  5
30FB
330
2
100
AcDbEntity
  8
AM_VIS
100
AcDbLine
 10
546.1663877208507
 20
-4.606361636990641
 30
0.0
 11
546.1663877208507
 21
-0.6063616369906413
 31
0.0
  0
LINE
  5
30FC
330
2
100
AcDbEntity
  8
AM_VIS
100
AcDbLine
 10
545.4492304333252
 20
-4.606361636990641
 30
0.0
 11
545.4492304333252
 21
-0.6063616369906413
 31
0.0
  0
LINE
  5
30FD
330
2
100
AcDbEntity
  8
AM_VIS
100
AcDbLine
 10
543.8663877208506
 20
-0.6063616369906413
 30
0.0
 11
543.8663877208506
 21
-4.606361636990641
 31
0.0
  0
LINE
  5
30FE
330
2
100
AcDbEntity
  8
AM_VIS
100
AcDbLine
 10
563.0663877208506
 20
-46.8349076425004
 30
0.0
 11
563.0663877208506
 21
-47.94846051506661
 31
0.0
  0
LINE
  5
30FF
330
2
100
AcDbEntity
  8
AM_VIS
100
AcDbLine
 10
561.8663877208506
 20
-47.54668407878352
 30
0.0
 11
561.9192233830099
 21
-47.54668407878352
 31
0.0
  0
ELLIPSE
  5
3100
330
2
100
AcDbEntity
  8
AM_VIS
100
AcDbEllipse
 10
563.6839787658984
 20
-47.39168407878352
 30
0.0
 11
0.000000000000001
 21
2.335538904304221
 31
0.0
210
0.0
220
0.0
230
1.0
 40
0.7572790292165315
 41
1.504381673290255
 42
1.637210980299537
  0
LINE
  5
3101
330
2
100
AcDbEntity
  8
AM_VIS
100
AcDbLine
 10
561.9192233830099
 20
-47.23668407878349
 30
0.0
 11
561.8663877208506
 21
-47.23668407878349
 31
0.0
  0
ARC
  5
3102
330
2
100
AcDbEntity
  8
AM_VIS
100
AcDbCircle
 10
564.2663877208506
 20
-47.3916840787835
 30
0.0
 40
2.495190373498459
100
AcDbArc
 50
195.8771570247263
 51
199.8346987586579
  0
LINE
  5
3103
330
2
100
AcDbEntity
  8
AM_VIS
100
AcDbLine
 10
561.9192233830094
 20
-46.54504686535287
 30
0.0
 11
561.9153241317489
 21
-46.5416840787835
 31
0.0
  0
LINE
  5
3104
330
2
100
AcDbEntity
  8
AM_VIS
100
AcDbLine
 10
561.9153241317489
 20
-48.24168407878352
 30
0.0
 11
561.9192233830093
 21
-48.23832129221415
 31
0.0
  0
ARC
  5
3105
330
2
100
AcDbEntity
  8
AM_VIS
100
AcDbCircle
 10
564.2663877208506
 20
-47.3916840787835
 30
0.0
 40
2.495190373498459
100
AcDbArc
 50
160.165301241342
 51
164.1228429752736
  0
ARC
  5
3106
330
2
100
AcDbEntity
  8
AM_VIS
100
AcDbCircle
 10
562.6505153086022
 20
-48.31285526121092
 30
0.0
 40
0.6400000000000002
100
AcDbArc
 50
209.6864561869236
 51
244.7452834390962
  0
ARC
  5
3107
330
2
100
AcDbEntity
  8
AM_VIS
100
AcDbCircle
 10
562.6505153086022
 20
-46.47051289635612
 30
0.0
 40
0.6400000000000002
100
AcDbArc
 50
115.2547165609038
 51
150.3135438130749
  0
ARC
  5
3108
330
2
100
AcDbEntity
  8
AM_VIS
100
AcDbCircle
 10
564.2663877208506
 20
-47.3916840787835
 30
0.0
 40
2.5
100
AcDbArc
 50
199.8768740700792
 51
209.6864561869223
  0
ARC
  5
3109
330
2
100
AcDbEntity
  8
AM_VIS
100
AcDbCircle
 10
564.2663877208506
 20
-47.3916840787835
 30
0.0
 40
2.5
100
AcDbArc
 50
150.3135438130777
 51
160.1231259299208
  0
LINE
  5
310A
330
2
100
AcDbEntity
  8
AM_VIS
100
AcDbLine
 10
571.3663877208506
 20
-45.39168407878356
 30
0.0
 11
561.8663877208506
 21
-45.39168407878356
 31
0.0
  0
LINE
  5
310B
330
2
100
AcDbEntity
  8
AM_VIS
100
AcDbLine
 10
563.0663877208506
 20
-48.89168407878353
 30
0.0
 11
561.8663877208506
 21
-48.89168407878353
 31
0.0
  0
LINE
  5
310C
330
2
100
AcDbEntity
  8
AM_VIS
100
AcDbLine
 10
563.0663877208506
 20
-45.89168407878353
 30
0.0
 11
563.0663877208506
 21
-46.8349076425004
 31
0.0
  0
LINE
  5
310D
330
2
100
AcDbEntity
  8
AM_VIS
100
AcDbLine
 10
563.0663877208506
 20
-47.94846051506664
 30
0.0
 11
563.0663877208506
 21
-48.89168407878355
 31
0.0
  0
LINE
  5
310E
330
2
100
AcDbEntity
  8
AM_VIS
100
AcDbLine
 10
561.8663877208506
 20
-45.89168407878353
 30
0.0
 11
563.0663877208506
 21
-45.89168407878353
 31
0.0
  0
LINE
  5
310F
330
2
100
AcDbEntity
  8
AM_VIS
100
AcDbLine
 10
571.3663877208506
 20
-60.39168407878356
 30
0.0
 11
561.8663877208506
 21
-60.39168407878356
 31
0.0
  0
LINE
  5
3110
330
2
100
AcDbEntity
  8
AM_VIS
100
AcDbLine
 10
570.8663877208506
 20
-51.89168407878355
 30
0.0
 11
570.8663877208506
 21
-53.89168407878355
 31
0.0
  0
LINE
  5
3111
330
2
100
AcDbEntity
  8
AM_VIS
100
AcDbLine
 10
570.8663877208506
 20
-53.89168407878355
 30
0.0
 11
571.3663877208506
 21
-53.89168407878355
 31
0.0
  0
LINE
  5
3112
330
2
100
AcDbEntity
  8
AM_VIS
100
AcDbLine
 10
571.3663877208506
 20
-51.89168407878355
 30
0.0
 11
570.8663877208506
 21
-51.89168407878355
 31
0.0
  0
ARC
  5
3113
330
2
100
AcDbEntity
  8
AM_VIS
100
AcDbCircle
 10
564.5398338106947
 20
-53.26008485926355
 30
0.0
 40
0.9204007112118768
100
AcDbArc
 50
15.63809687001247
 51
26.09877024323046
  0
SPLINE
  5
3114
330
2
100
AcDbEntity
  8
AM_VIS
100
AcDbSpline
210
0.0
220
0.0
230
1.0
 70
     8
 71
     3
 72
    38
 73
    34
 74
     0
 42
0.0000000001
 43
0.0000000001
 40
0.0096105424429285
 40
0.0096105424429285
 40
0.0096105424429285
 40
0.0096105424429285
 40
0.2511760059468008
 40
0.2511760059468008
 40
0.3661489296361611
 40
0.3661489296361611
 40
0.4503270969622498
 40
0.4503270969622498
 40
0.5340078174843953
 40
0.5340078174843953
 40
0.6478119174360324
 40
0.6478119174360324
 40
0.803204793355861
 40
0.803204793355861
 40
1.030112956685476
 40
1.030112956685476
 40
1.139750424396189
 40
1.139750424396189
 40
1.231613346946539
 40
1.231613346946539
 40
1.383927807882236
 40
1.383927807882236
 40
1.903215338580305
 40
1.903215338580305
 40
2.725560479358289
 40
2.725560479358289
 40
3.333619977246191
 40
3.333619977246191
 40
3.793936947558544
 40
3.793936947558544
 40
4.267761469383683
 40
4.267761469383683
 40
4.698806880710381
 40
4.698806880710381
 40
4.698806880710381
 40
4.698806880710381
 10
564.1735673978231
 20
-52.69168407878357
 30
0.0
 10
564.2335288392826
 20
-52.73434661518717
 30
0.0
 10
564.2885524374126
 20
-52.78247570513258
 30
0.0
 10
564.3724476357274
 20
-52.86072027822999
 30
0.0
 10
564.3992857898104
 20
-52.88640078808623
 30
0.0
 10
564.4467976010798
 20
-52.93120206981382
 30
0.0
 10
564.4669793192729
 20
-52.95003070474004
 30
0.0
 10
564.5080041928925
 20
-52.98721489978956
 30
0.0
 10
564.5286648115339
 20
-53.0054115653327
 30
0.0
 10
564.578438420956
 20
-53.04740990186084
 30
0.0
 10
564.6076829674056
 20
-53.07067887338758
 30
0.0
 10
564.6786354498836
 20
-53.12269442136482
 30
0.0
 10
564.7165851907844
 20
-53.14711591005999
 30
0.0
 10
564.7981343596681
 20
-53.19178912472944
 30
0.0
 10
564.8247897571434
 20
-53.19858732613801
 30
0.0
 10
564.846811739741
 20
-53.20278384566515
 30
0.0
 10
564.8540104507199
 20
-53.20365207351597
 30
0.0
 10
564.8674889668146
 20
-53.20415740007951
 30
0.0
 10
564.8735669555712
 20
-53.20396578860044
 30
0.0
 10
564.8898159912638
 20
-53.20237576880021
 30
0.0
 10
564.8997066021079
 20
-53.20029273385415
 30
0.0
 10
564.9423654823972
 20
-53.18800494675127
 30
0.0
 10
564.9767323650728
 20
-53.16912134503616
 30
0.0
 10
565.0292165010949
 20
-53.13881651430378
 30
0.0
 10
565.0653969996334
 20
-53.11486520835041
 30
0.0
 10
565.1329532430706
 20
-53.06450459288481
 30
0.0
 10
565.1609535693244
 20
-53.04197933580883
 30
0.0
 10
565.2092765630981
 20
-53.00090779421788
 30
0.0
 10
565.2296779514893
 20
-52.98283604607087
 30
0.0
 10
565.270677237365
 20
-52.94551780826942
 30
0.0
 10
565.2910759979265
 20
-52.9264227046119
 30
0.0
 10
565.329861601185
 20
-52.88978810112689
 30
0.0
 10
565.3481127744182
 20
-52.87240877199838
 30
0.0
 10
565.3663877208506
 20
-52.85518227492332
 30
0.0
  0
LINE
  5
3115
330
2
100
AcDbEntity
  8
AM_VIS
100
AcDbLine
 10
561.8663877208506
 20
-60.39168407878356
 30
0.0
 11
561.8663877208506
 21
-59.89168407878356
 31
0.0
  0
LINE
  5
3116
330
2
100
AcDbEntity
  8
AM_VIS
100
AcDbLine
 10
561.8663877208506
 20
-56.89168407878355
 30
0.0
 11
561.8663877208506
 21
-45.39168407878356
 31
0.0
  0
LINE
  5
3117
330
2
100
AcDbEntity
  8
AM_VIS
100
AcDbLine
 10
565.3663877208506
 20
-52.85518227492332
 30
0.0
 11
565.3663877208506
 21
-53.08158202734023
 31
0.0
  0
CIRCLE
  5
3118
330
2
100
AcDbEntity
  8
AM_VIS
100
AcDbCircle
 10
564.8663877208506
 20
-52.5916840787836
 30
0.0
 40
0.7
  0
LINE
  5
3119
330
2
100
AcDbEntity
  8
AM_VIS
100
AcDbLine
 10
546.8663877208506
 20
-52.09168407878355
 30
0.0
 11
546.8663877208506
 21
-52.5917134908027
 31
0.0
  0
LINE
  5
311A
330
2
100
AcDbEntity
  8
AM_VIS
100
AcDbLine
 10
559.2663877208506
 20
-58.39168407878355
 30
0.0
 11
551.5663877208506
 21
-58.39168407878355
 31
0.0
  0
LINE
  5
311B
330
2
100
AcDbEntity
  8
AM_VIS
100
AcDbLine
 10
559.2663877208506
 20
-59.49168407878357
 30
0.0
 11
559.2663877208506
 21
-58.39168407878355
 31
0.0
  0
LINE
  5
311C
330
2
100
AcDbEntity
  8
AM_VIS
100
AcDbLine
 10
551.5663877208506
 20
-59.49168407878357
 30
0.0
 11
559.2663877208506
 21
-59.49168407878357
 31
0.0
  0
LINE
  5
311D
330
2
100
AcDbEntity
  8
AM_VIS
100
AcDbLine
 10
551.5663877208506
 20
-58.39168407878355
 30
0.0
 11
551.5663877208506
 21
-59.49168407878355
 31
0.0
  0
LINE
  5
311E
330
2
100
AcDbEntity
  8
AM_VIS
100
AcDbLine
 10
548.8663877208506
 20
-60.39168407878356
 30
0.0
 11
548.8663877208506
 21
-56.11168407878356
 31
0.0
  0
LINE
  5
311F
102
{ACAD_REACTORS
330
31AC
102
}
330
2
100
AcDbEntity
  8
AM_VIS
100
AcDbLine
 10
561.8663877208506
 20
-60.39168407878356
 30
0.0
 11
548.8663877208506
 21
-60.39168407878356
 31
0.0
  0
LINE
  5
3120
330
2
100
AcDbEntity
  8
AM_VIS
100
AcDbLine
 10
561.8663877208506
 20
-52.59168407878354
 30
0.0
 11
561.8663877208506
 21
-60.39168407878356
 31
0.0
  0
LINE
  5
3121
330
2
100
AcDbEntity
  8
AM_VIS
100
AcDbLine
 10
550.3663877208506
 20
-52.59168407878354
 30
0.0
 11
561.8663877208506
 21
-52.59168407878354
 31
0.0
  0
LINE
  5
3122
330
2
100
AcDbEntity
  8
AM_VIS
100
AcDbLine
 10
550.3663877208506
 20
-56.11168407878356
 30
0.0
 11
550.3663877208506
 21
-52.59168407878354
 31
0.0
  0
LINE
  5
3123
330
2
100
AcDbEntity
  8
AM_VIS
100
AcDbLine
 10
548.8663877208506
 20
-52.5917134908027
 30
0.0
 11
546.8663877208506
 21
-52.5917134908027
 31
0.0
  0
LINE
  5
3124
330
2
100
AcDbEntity
  8
AM_VIS
100
AcDbLine
 10
548.8652811845353
 20
-55.33129426262843
 30
0.0
 11
546.8650073007113
 21
-54.87864775760323
 31
0.0
  0
LINE
  5
3125
330
2
100
AcDbEntity
  8
AM_VIS
100
AcDbLine
 10
548.8663877208506
 20
-56.11168407878356
 30
0.0
 11
550.3663877208506
 21
-56.11168407878356
 31
0.0
  0
LINE
  5
3126
330
2
100
AcDbEntity
  8
AM_VIS
100
AcDbLine
 10
546.6663877208507
 20
-53.19168407878357
 30
0.0
 11
546.8663877208506
 21
-53.19168407878357
 31
0.0
  0
LINE
  5
3127
330
2
100
AcDbEntity
  8
AM_VIS
100
AcDbLine
 10
546.8663877208506
 20
-52.59168407878354
 30
0.0
 11
546.6663877208507
 21
-52.59168407878354
 31
0.0
  0
LINE
  5
3128
330
2
100
AcDbEntity
  8
AM_VIS
100
AcDbLine
 10
551.9663877208507
 20
-59.49168407878352
 30
0.0
 11
551.9663877208507
 21
-58.39168407878353
 31
0.0
  0
LINE
  5
3129
330
2
100
AcDbEntity
  8
AM_VIS
100
AcDbLine
 10
558.7663877208505
 20
-59.49168407878352
 30
0.0
 11
558.7663877208505
 21
-58.39168407878353
 31
0.0
  0
LINE
  5
312A
330
2
100
AcDbEntity
  8
AM_VIS
100
AcDbLine
 10
546.8663877208506
 20
-55.39168407878356
 30
0.0
 11
548.8663877208506
 21
-55.89168407878355
 31
0.0
  0
LINE
  5
312B
330
2
100
AcDbEntity
  8
AM_VIS
100
AcDbLine
 10
546.8663877208506
 20
-54.39168407878355
 30
0.0
 11
546.6663877208507
 21
-54.39168407878355
 31
0.0
  0
LINE
  5
312C
330
2
100
AcDbEntity
  8
AM_VIS
100
AcDbLine
 10
546.8663877208506
 20
-51.39168407878355
 30
0.0
 11
546.6663877208507
 21
-51.39168407878355
 31
0.0
  0
LINE
  5
312D
330
2
100
AcDbEntity
  8
AM_VIS
100
AcDbLine
 10
546.8663877208506
 20
-54.87254759263436
 30
0.0
 11
546.8663877208506
 21
-55.39168407878356
 31
0.0
  0
LINE
  5
312E
330
2
100
AcDbEntity
  8
AM_VIS
100
AcDbLine
 10
548.8663877208506
 20
-52.59168407878354
 30
0.0
 11
548.8663877208506
 21
-52.5917134908027
 31
0.0
  0
LINE
  5
312F
330
2
100
AcDbEntity
  8
AM_VIS
100
AcDbLine
 10
546.8663877208506
 20
-52.5917134908027
 30
0.0
 11
546.8663877208506
 21
-54.87254759263436
 31
0.0
  0
LINE
  5
3130
330
2
100
AcDbEntity
  8
AM_VIS
100
AcDbLine
 10
548.8663877208506
 20
-55.32640440781142
 30
0.0
 11
548.8663877208506
 21
-56.11168407878356
 31
0.0
  0
LINE
  5
3131
330
2
100
AcDbEntity
  8
AM_VIS
100
AcDbLine
 10
546.6663877208507
 20
-51.39168407878355
 30
0.0
 11
546.6663877208507
 21
-52.59168407878354
 31
0.0
  0
LINE
  5
3132
330
2
100
AcDbEntity
  8
AM_VIS
100
AcDbLine
 10
546.6663877208507
 20
-53.19168407878357
 30
0.0
 11
546.6663877208507
 21
-54.39168407878355
 31
0.0
  0
LINE
  5
3133
330
2
100
AcDbEntity
  8
AM_VIS
100
AcDbLine
 10
548.8663877208506
 20
-32.89168407878356
 30
0.0
 11
561.8663877208506
 21
-32.89168407878356
 31
0.0
  0
LINE
  5
3134
330
2
100
AcDbEntity
  8
AM_VIS
100
AcDbLine
 10
561.8663877208506
 20
-52.59168407878354
 30
0.0
 11
561.8663877208506
 21
-32.89168407878356
 31
0.0
  0
LINE
  5
3135
330
2
100
AcDbEntity
  8
AM_VIS
100
AcDbLine
 10
546.8663877208506
 20
-52.09168407878355
 30
0.0
 11
546.8663877208506
 21
-49.89168407878356
 31
0.0
  0
LINE
  5
3136
330
2
100
AcDbEntity
  8
AM_VIS
100
AcDbLine
 10
548.8663877208506
 20
-49.89168407878356
 30
0.0
 11
548.8663877208506
 21
-32.89168407878356
 31
0.0
  0
LINE
  5
3137
330
2
100
AcDbEntity
  8
AM_VIS
100
AcDbLine
 10
546.8663877208506
 20
-49.89168407878356
 30
0.0
 11
548.8663877208506
 21
-49.89168407878356
 31
0.0
  0
LINE
  5
3138
330
2
100
AcDbEntity
  8
AM_VIS
100
AcDbLine
 10
548.3663877208506
 20
-52.59168407878354
 30
0.0
 11
561.8663877208506
 21
-52.59168407878354
 31
0.0
  0
LINE
  5
3139
330
2
100
AcDbEntity
  8
AM_VIS
100
AcDbLine
 10
546.8663877208506
 20
-52.09168407878355
 30
0.0
 11
548.3663877208506
 21
-52.59168407878354
 31
0.0
  0
LINE
  5
313A
330
2
100
AcDbEntity
  8
AM_VIS
100
AcDbLine
 10
548.8663877208506
 20
-49.89168407878356
 30
0.0
 11
545.3663877208506
 21
-49.89168407878356
 31
0.0
  0
LINE
  5
313B
330
2
100
AcDbEntity
  8
AM_VIS
100
AcDbLine
 10
548.8663877208506
 20
-32.89168407878356
 30
0.0
 11
548.8663877208506
 21
-49.89168407878356
 31
0.0
  0
LINE
  5
313C
330
2
100
AcDbEntity
  8
AM_VIS
100
AcDbLine
 10
545.3663877208506
 20
-49.89168407878356
 30
0.0
 11
543.8663877208506
 21
-48.39168407878355
 31
0.0
  0
LINE
  5
313D
330
2
100
AcDbEntity
  8
AM_VIS
100
AcDbLine
 10
545.3663877208506
 20
-32.89168407878356
 30
0.0
 11
545.3663877208506
 21
-49.89168407878356
 31
0.0
  0
LINE
  5
313E
330
2
100
AcDbEntity
  8
AM_VIS
100
AcDbLine
 10
543.8663877208506
 20
-34.39168407878355
 30
0.0
 11
545.3663877208506
 21
-32.89168407878356
 31
0.0
  0
LINE
  5
313F
330
2
100
AcDbEntity
  8
AM_VIS
100
AcDbLine
 10
540.3663877208506
 20
-36.89168407878355
 30
0.0
 11
540.3663877208506
 21
-42.29168407878353
 31
0.0
  0
LINE
  5
3140
102
{ACAD_REACTORS
330
36DF
102
}
330
2
100
AcDbEntity
  8
AM_VIS
100
AcDbLine
 10
539.3663877208506
 20
-41.99168407878355
 30
0.0
 11
539.3663877208506
 21
-36.89168407878355
 31
0.0
  0
LINE
  5
3141
330
2
100
AcDbEntity
  8
AM_VIS
100
AcDbLine
 10
543.8663877208506
 20
-42.29168407878356
 30
0.0
 11
540.3663877208506
 21
-42.29168407878356
 31
0.0
  0
LINE
  5
3142
330
2
100
AcDbEntity
  8
AM_VIS
100
AcDbLine
 10
539.3663877208506
 20
-41.99168407878355
 30
0.0
 11
540.3663877208506
 21
-42.29168407878356
 31
0.0
  0
LINE
  5
3143
330
2
100
AcDbEntity
  8
AM_VIS
100
AcDbLine
 10
539.3663877208506
 20
-36.89168407878355
 30
0.0
 11
540.3663877208506
 21
-36.89168407878355
 31
0.0
  0
LINE
  5
3144
330
2
100
AcDbEntity
  8
AM_VIS
100
AcDbLine
 10
543.8663877208506
 20
-36.89168407878355
 30
0.0
 11
540.3663877208506
 21
-36.89168407878355
 31
0.0
  0
LINE
  5
3145
330
2
100
AcDbEntity
  8
AM_VIS
100
AcDbLine
 10
539.3663877208506
 20
-36.89168407878355
 30
0.0
 11
539.3663877208506
 21
-35.39168407878356
 31
0.0
  0
LINE
  5
3146
330
2
100
AcDbEntity
  8
AM_VIS
100
AcDbLine
 10
539.3663877208506
 20
-35.39168407878356
 30
0.0
 11
543.8663877208506
 21
-35.39168407878356
 31
0.0
  0
LINE
  5
3147
330
2
100
AcDbEntity
  8
AM_VIS
100
AcDbLine
 10
543.8663877208506
 20
-48.39168407878355
 30
0.0
 11
543.8663877208506
 21
-34.39168407878355
 31
0.0
  0
LINE
  5
3148
330
2
100
AcDbEntity
  8
AM_VIS
100
AcDbLine
 10
548.8663877208506
 20
-32.89168407878356
 30
0.0
 11
545.3663877208506
 21
-32.89168407878356
 31
0.0
  0
LINE
  5
3149
330
2
100
AcDbEntity
  8
AM_VIS
100
AcDbLine
 10
549.2167417609766
 20
-54.4037279028195
 30
0.0
 11
549.1240869390952
 21
-54.39205874863645
 31
0.0
  0
LINE
  5
314A
330
2
100
AcDbEntity
  8
AM_VIS
100
AcDbLine
 10
549.1456058924622
 20
-53.77816672703986
 30
0.0
 11
549.124086222274
 21
-53.76720291981391
 31
0.0
  0
LINE
  5
314B
330
2
100
AcDbEntity
  8
AM_VIS
100
AcDbLine
 10
549.2177418710162
 20
-54.61169005334318
 30
0.0
 11
549.1240869894745
 21
-54.62348643550502
 31
0.0
  0
LINE
  5
314C
330
2
100
AcDbEntity
  8
AM_VIS
100
AcDbLine
 10
549.8947356332437
 20
-52.73294828957745
 30
0.0
 11
550.3663877208506
 21
-52.69168407878353
 31
0.0
  0
LINE
  5
314D
330
2
100
AcDbEntity
  8
AM_VIS
100
AcDbLine
 10
549.8947356332437
 20
-55.8504198679897
 30
0.0
 11
550.3663877208506
 21
-55.89168407878361
 31
0.0
  0
ELLIPSE
  5
314E
330
2
100
AcDbEntity
  8
AM_VIS
100
AcDbEllipse
 10
551.5663877208506
 20
-54.23865493168705
 30
0.0
 11
-2.490079065009783
 21
-0.0000000000000014
 31
0.0
210
0.0
220
0.0
230
-1.0
 40
0.971183434860675
 41
0.1962051514771284
 42
0.3428970250348993
  0
ELLIPSE
  5
314F
330
2
100
AcDbEntity
  8
AM_VIS
100
AcDbEllipse
 10
551.032025910842
 20
-54.92104355108182
 30
0.0
 11
-1.794957342537177
 21
1.524020367793821
 31
0.0
210
0.0
220
0.0
230
-1.0
 40
0.1838809272074957
 41
6.033676357464729
 42
6.216405892020736
  0
ELLIPSE
  5
3150
330
2
100
AcDbEntity
  8
AM_VIS
100
AcDbEllipse
 10
551.5663877208506
 20
-54.34471322588009
 30
0.0
 11
-2.490079065009783
 21
-0.0000000000000014
 31
0.0
210
0.0
220
0.0
230
-1.0
 40
0.971183434860675
 41
5.937689964444293
 42
6.086980155702427
  0
ELLIPSE
  5
3151
330
2
100
AcDbEntity
  8
AM_VIS
100
AcDbEllipse
 10
551.032025910842
 20
-53.6623246064853
 30
0.0
 11
-1.794957342537176
 21
-1.524020367793821
 31
0.0
210
0.0
220
0.0
230
-1.0
 40
0.1838809272074965
 41
0.0602411001504009
 42
0.0739494530812475
  0
ELLIPSE
  5
3152
330
2
100
AcDbEntity
  8
AM_VIS
100
AcDbEllipse
 10
551.5663877208506
 20
-54.50777239304199
 30
0.0
 11
-2.490079065009606
 21
-0.0000000000000005
 31
0.0
210
0.0
220
0.0
230
-1.0
 40
0.2383332453776036
 41
5.937689964444311
 42
6.086980155702796
  0
ELLIPSE
  5
3153
330
2
100
AcDbEntity
  8
AM_VIS
100
AcDbEllipse
 10
551.032025910842
 20
-54.44613202358761
 30
0.0
 11
-0.6538164905629067
 21
2.262086191913681
 31
0.0
210
0.0
220
0.0
230
-1.0
 40
0.7492958450165212
 41
4.992445536876728
 42
4.999615574798067
  0
ELLIPSE
  5
3154
330
2
100
AcDbEntity
  8
AM_VIS
100
AcDbEllipse
 10
551.5663877208505
 20
-54.075595764529
 30
0.0
 11
-2.490079065009962
 21
-0.0000000000000005
 31
0.0
210
0.0
220
0.0
230
-1.0
 40
0.2383332453776036
 41
5.937689964444257
 42
6.08698015570207
  0
ELLIPSE
  5
3155
330
2
100
AcDbEntity
  8
AM_VIS
100
AcDbEllipse
 10
551.032025910842
 20
-54.13723613397952
 30
0.0
 11
-0.6538164905629036
 21
-2.262086191913681
 31
0.0
210
0.0
220
0.0
230
-1.0
 40
0.7492958450165198
 41
1.108010235745991
 42
1.297278085310446
  0
ELLIPSE
  5
3156
330
2
100
AcDbEntity
  8
AM_VIS
100
AcDbEllipse
 10
551.5663877208506
 20
-54.50777239304199
 30
0.0
 11
-2.490079065009606
 21
-0.0000000000000005
 31
0.0
210
0.0
220
0.0
230
-1.0
 40
0.2383332453776036
 41
0.1962051514767839
 42
0.3428970250345826
  0
ELLIPSE
  5
3157
330
2
100
AcDbEntity
  8
AM_VIS
100
AcDbEllipse
 10
551.5663877208506
 20
-54.34471322588009
 30
0.0
 11
-2.490079065009783
 21
-0.0000000000000014
 31
0.0
210
0.0
220
0.0
230
-1.0
 40
0.971183434860675
 41
0.1962051514771408
 42
0.3454953427352929
  0
LINE
  5
3158
330
2
100
AcDbEntity
  8
AM_VIS
100
AcDbLine
 10
549.124084709347
 20
-54.39207645317011
 30
0.0
 11
549.124084709347
 21
-54.62346833291388
 31
0.0
  0
LINE
  5
3159
330
2
100
AcDbEntity
  8
AM_VIS
100
AcDbLine
 10
549.124084709347
 20
-53.76720588937485
 30
0.0
 11
549.124084709347
 21
-53.87326418356787
 31
0.0
  0
LINE
  5
315A
330
2
100
AcDbEntity
  8
AM_VIS
100
AcDbLine
 10
549.124084709347
 20
-53.87326418356787
 30
0.0
 11
549.124084709347
 21
-54.19129170440132
 31
0.0
  0
LINE
  5
315B
330
2
100
AcDbEntity
  8
AM_VIS
100
AcDbLine
 10
549.124084709347
 20
-54.62346833291388
 30
0.0
 11
549.124084709347
 21
-54.81616226819227
 31
0.0
  0
ARC
  5
315C
330
2
100
AcDbEntity
  8
AM_VIS
100
AcDbCircle
 10
549.9505153086022
 20
-53.37051289635616
 30
0.0
 40
0.6400000000000001
100
AcDbArc
 50
94.99999999999982
 51
150.3135438130763
  0
ARC
  5
315D
330
2
100
AcDbEntity
  8
AM_VIS
100
AcDbCircle
 10
549.9505153086022
 20
-55.21285526121096
 30
0.0
 40
0.6400000000000002
100
AcDbArc
 50
209.6864561869236
 51
265.0000000000002
  0
ARC
  5
315E
330
2
100
AcDbEntity
  8
AM_VIS
100
AcDbCircle
 10
551.5663877208506
 20
-54.29168407878359
 30
0.0
 40
2.5
100
AcDbArc
 50
200.346438471792
 51
209.6864561869199
  0
ARC
  5
315F
330
2
100
AcDbEntity
  8
AM_VIS
100
AcDbCircle
 10
551.5663877208506
 20
-54.29168407878359
 30
0.0
 40
2.5
100
AcDbArc
 50
150.31354381308
 51
159.6535615282061
  0
LINE
  5
3160
330
2
100
AcDbEntity
  8
AM_VIS
100
AcDbLine
 10
562.5947356332436
 20
-100.0636569821647
 30
0.0
 11
563.0663877208506
 21
-100.1049211929586
 31
0.0
  0
LINE
  5
3161
330
2
100
AcDbEntity
  8
AM_VIS
100
AcDbLine
 10
563.0663877208506
 20
-100.1049211929586
 30
0.0
 11
563.0663877208506
 21
-100.0049211929586
 31
0.0
  0
ARC
  5
3162
330
2
100
AcDbEntity
  8
AM_VIS
100
AcDbCircle
 10
562.6505153086021
 20
-99.42609237538597
 30
0.0
 40
0.6400000000000002
100
AcDbArc
 50
244.7452834391
 51
265.0000000000002
  0
LINE
  5
3163
330
2
100
AcDbEntity
  8
AM_VIS
100
AcDbLine
 10
562.5947356332438
 20
-89.94618540375242
 30
0.0
 11
563.0663877208506
 21
-89.90492119295854
 31
0.0
  0
LINE
  5
3164
330
2
100
AcDbEntity
  8
AM_VIS
100
AcDbLine
 10
563.0663877208506
 20
-90.00492119295859
 30
0.0
 11
563.0663877208506
 21
-89.90492119295856
 31
0.0
  0
ARC
  5
3165
330
2
100
AcDbEntity
  8
AM_VIS
100
AcDbCircle
 10
562.6505153086022
 20
-90.58375001053116
 30
0.0
 40
0.6400000000000002
100
AcDbArc
 50
94.99999999999982
 51
115.2547165609074
  0
LINE
  5
3166
330
2
100
AcDbEntity
  8
AM_VIS
100
AcDbLine
 10
571.3663877208506
 20
-100.0049211929586
 30
0.0
 11
561.8663877208506
 21
-100.0049211929586
 31
0.0
  0
LINE
  5
3167
330
2
100
AcDbEntity
  8
AM_VIS
100
AcDbLine
 10
571.3663877208506
 20
-90.00492119295859
 30
0.0
 11
561.8663877208506
 21
-90.00492119295859
 31
0.0
  0
LINE
  5
3168
330
2
100
AcDbEntity
  8
AM_VIS
100
AcDbLine
 10
561.8663877208506
 20
-100.0049211929586
 30
0.0
 11
561.8663877208506
 21
-90.00492119295859
 31
0.0
  0
LINE
  5
3169
330
2
100
AcDbEntity
  8
AM_VIS
100
AcDbLine
 10
561.8663877208506
 20
-90.00492119295859
 30
0.0
 11
561.8663877208506
 21
-100.0049211929586
 31
0.0
  0
LINE
  5
316A
330
2
100
AcDbEntity
  8
AM_VIS
100
AcDbLine
 10
561.8663877208506
 20
-100.0049211929586
 30
0.0
 11
548.8663877208506
 21
-100.0049211929586
 31
0.0
  0
LINE
  5
316B
330
2
100
AcDbEntity
  8
AM_VIS
100
AcDbLine
 10
548.867154588876
 20
-96.75097488706207
 30
0.0
 11
546.8673162315631
 21
-96.52199378620117
 31
0.0
  0
LINE
  5
316C
330
2
100
AcDbEntity
  8
AM_VIS
100
AcDbLine
 10
546.8663877208506
 20
-97.60492119295856
 30
0.0
 11
548.8663877208506
 21
-97.60492119295856
 31
0.0
  0
LINE
  5
316D
330
2
100
AcDbEntity
  8
AM_VIS
100
AcDbLine
 10
548.8663877208506
 20
-100.0049211929585
 30
0.0
 11
548.8663877208506
 21
-90.00492119295856
 31
0.0
  0
LINE
  5
316E
330
2
100
AcDbEntity
  8
AM_VIS
100
AcDbLine
 10
561.8663877208506
 20
-90.00492119295859
 30
0.0
 11
548.8663877208506
 21
-90.00492119295859
 31
0.0
  0
LINE
  5
316F
330
2
100
AcDbEntity
  8
AM_VIS
100
AcDbLine
 10
548.8663877208506
 20
-92.40492119295854
 30
0.0
 11
546.8663877208506
 21
-92.40492119295854
 31
0.0
  0
LINE
  5
3170
330
2
100
AcDbEntity
  8
AM_VIS
100
AcDbLine
 10
548.867154588876
 20
-93.25886749885507
 30
0.0
 11
546.8673162315631
 21
-93.48784859971596
 31
0.0
  0
LINE
  5
3171
330
2
100
AcDbEntity
  8
AM_VIS
100
AcDbLine
 10
546.8663877208506
 20
-96.47461503862842
 30
0.0
 11
546.6663877208507
 21
-96.47461503862842
 31
0.0
  0
LINE
  5
3172
330
2
100
AcDbEntity
  8
AM_VIS
100
AcDbLine
 10
546.6663877208507
 20
-93.53522734728864
 30
0.0
 11
546.8663877208506
 21
-93.53522734728864
 31
0.0
  0
CIRCLE
  5
3173
330
2
100
AcDbEntity
  8
AM_VIS
100
AcDbCircle
 10
555.3663877208506
 20
-95.00492119295859
 30
0.0
 40
3.399999999999999
  0
CIRCLE
  5
3174
330
2
100
AcDbEntity
  8
AM_VIS
100
AcDbCircle
 10
555.3663877208506
 20
-95.00492119295856
 30
0.0
 40
2.7
  0
CIRCLE
  5
3175
330
2
100
AcDbEntity
  8
AM_VIS
100
AcDbCircle
 10
555.3663877208506
 20
-95.00492119295856
 30
0.0
 40
2.5
  0
CIRCLE
  5
3176
330
2
100
AcDbEntity
  8
AM_VIS
100
AcDbCircle
 10
555.3663877208506
 20
-95.00492119295859
 30
0.0
 40
2.399999999999999
  0
LINE
  5
3177
330
2
100
AcDbEntity
  8
AM_VIS
100
AcDbLine
 10
546.8663877208506
 20
-93.47973932200199
 30
0.0
 11
546.8663877208506
 21
-96.53010306391514
 31
0.0
  0
LINE
  5
3178
330
2
100
AcDbEntity
  8
AM_VIS
100
AcDbLine
 10
546.8663877208506
 20
-96.53010306391514
 30
0.0
 11
546.8663877208506
 21
-97.60492119295856
 31
0.0
  0
LINE
  5
3179
330
2
100
AcDbEntity
  8
AM_VIS
100
AcDbLine
 10
546.8663877208506
 20
-92.40492119295854
 30
0.0
 11
546.8663877208506
 21
-93.47973932200199
 31
0.0
  0
LINE
  5
317A
330
2
100
AcDbEntity
  8
AM_VIS
100
AcDbLine
 10
546.6663877208507
 20
-93.53522734728864
 30
0.0
 11
546.6663877208507
 21
-96.47461503862846
 31
0.0
  0
LINE
  5
317B
330
2
100
AcDbEntity
  8
AM_VIS
100
AcDbLine
 10
548.8663877208506
 20
-100.0049211929585
 30
0.0
 11
548.3663877208506
 21
-100.0049211929585
 31
0.0
  0
LINE
  5
317C
330
2
100
AcDbEntity
  8
AM_VIS
100
AcDbLine
 10
548.3663877208506
 20
-90.0049211929585
 30
0.0
 11
548.8663877208506
 21
-90.0049211929585
 31
0.0
  0
LINE
  5
317D
330
2
100
AcDbEntity
  8
AM_VIS
100
AcDbLine
 10
546.8663877208506
 20
-92.40492119295851
 30
0.0
 11
546.8663877208506
 21
-90.0049211929585
 31
0.0
  0
LINE
  5
317E
330
2
100
AcDbEntity
  8
AM_VIS
100
AcDbLine
 10
548.3663877208506
 20
-90.0049211929585
 30
0.0
 11
548.3663877208506
 21
-92.40492119295851
 31
0.0
  0
LINE
  5
317F
330
2
100
AcDbEntity
  8
AM_VIS
100
AcDbLine
 10
546.8663877208506
 20
-90.0049211929585
 30
0.0
 11
548.3663877208506
 21
-90.0049211929585
 31
0.0
  0
LINE
  5
3180
330
2
100
AcDbEntity
  8
AM_VIS
100
AcDbLine
 10
546.8663877208506
 20
-100.0049211929585
 30
0.0
 11
546.8663877208506
 21
-97.6049211929585
 31
0.0
  0
LINE
  5
3181
330
2
100
AcDbEntity
  8
AM_VIS
100
AcDbLine
 10
548.3663877208506
 20
-100.0049211929585
 30
0.0
 11
546.8663877208506
 21
-100.0049211929585
 31
0.0
  0
LINE
  5
3182
330
2
100
AcDbEntity
  8
AM_VIS
100
AcDbLine
 10
548.3663877208506
 20
-97.6049211929585
 30
0.0
 11
548.3663877208506
 21
-100.0049211929585
 31
0.0
  0
LINE
  5
3183
330
2
100
AcDbEntity
  8
AM_VIS
100
AcDbLine
 10
546.8663877208506
 20
-90.00492119295854
 30
0.0
 11
545.3663877208506
 21
-90.00492119295854
 31
0.0
  0
LINE
  5
3184
330
2
100
AcDbEntity
  8
AM_VIS
100
AcDbLine
 10
545.3663877208506
 20
-90.00492119295854
 30
0.0
 11
545.3663877208506
 21
-100.0049211929585
 31
0.0
  0
LINE
  5
3185
330
2
100
AcDbEntity
  8
AM_VIS
100
AcDbLine
 10
546.8663877208506
 20
-100.0049211929585
 30
0.0
 11
545.3663877208506
 21
-100.0049211929585
 31
0.0
  0
LINE
  5
3186
330
2
100
AcDbEntity
  8
AM_VIS
100
AcDbLine
 10
543.8663877208506
 20
-99.00492119295854
 30
0.0
 11
545.3663877208506
 21
-100.0049211929585
 31
0.0
  0
LINE
  5
3187
330
2
100
AcDbEntity
  8
AM_VIS
100
AcDbLine
 10
545.3663877208506
 20
-90.00492119295854
 30
0.0
 11
543.8663877208506
 21
-91.00492119295854
 31
0.0
  0
LINE
  5
3188
330
2
100
AcDbEntity
  8
AM_VIS
100
AcDbLine
 10
543.8663877208506
 20
-98.7549211929585
 30
0.0
 11
540.3663877208506
 21
-98.7549211929585
 31
0.0
  0
LINE
  5
3189
330
2
100
AcDbEntity
  8
AM_VIS
100
AcDbLine
 10
543.8663877208506
 20
-91.2549211929585
 30
0.0
 11
540.3663877208506
 21
-91.2549211929585
 31
0.0
  0
LINE
  5
318A
330
2
100
AcDbEntity
  8
AM_VIS
100
AcDbLine
 10
539.3663877208506
 20
-98.15492119295852
 30
0.0
 11
539.3663877208506
 21
-91.85492119295849
 31
0.0
  0
LINE
  5
318B
330
2
100
AcDbEntity
  8
AM_VIS
100
AcDbLine
 10
540.3663877208506
 20
-98.7549211929585
 30
0.0
 11
539.3663877208506
 21
-98.15492119295852
 31
0.0
  0
LINE
  5
318C
330
2
100
AcDbEntity
  8
AM_VIS
100
AcDbLine
 10
540.3663877208506
 20
-91.2549211929585
 30
0.0
 11
540.3663877208506
 21
-98.7549211929585
 31
0.0
  0
LINE
  5
318D
330
2
100
AcDbEntity
  8
AM_VIS
100
AcDbLine
 10
539.3663877208506
 20
-91.85492119295849
 30
0.0
 11
540.3663877208506
 21
-91.2549211929585
 31
0.0
  0
LINE
  5
318E
330
2
100
AcDbEntity
  8
AM_VIS
100
AcDbLine
 10
543.8663877208506
 20
-99.00492119295854
 30
0.0
 11
543.8663877208506
 21
-91.00492119295854
 31
0.0
  0
DIMENSION
  5
319E
102
{ACAD_XDICTIONARY
360
31AB
102
}
102
{ACAD_REACTORS
330
31AC
102
}
330
2
100
AcDbEntity
  8
AM_REFDIM
100
AcDbDimension
  2
*D16
 10
610.3663877208506
 20
-67.77748728617883
 30
0.0
 11
579.6163877208506
 21
-65.85248728617883
 31
0.0
 70
    32
 71
     5
 42
61.5
  3
STANDARD$0
100
AcDbAlignedDimension
 13
548.8663877208506
 23
-60.39168407878356
 33
0.0
 14
610.3663877208506
 24
-60.39168407878356
 34
0.0
 50
0.0000000000001018
100
AcDbRotatedDimension
  0
DIMENSION
  5
34E1
102
{ACAD_XDICTIONARY
360
34EE
102
}
102
{ACAD_REACTORS
330
34EF
102
}
330
2
100
AcDbEntity
  8
AM_5
100
AcDbDimension
  2
*D17
 10
628.0455869644095
 20
1.493638363009452
 30
0.0
 11
628.0455869644095
 21
-2.606361636990434
 31
0.0
 70
   160
 71
     5
 42
8.199999999999986
  3
AM_ISO$0
100
AcDbAlignedDimension
 13
584.6163877208506
 23
-6.706361636990521
 33
0.0
 14
577.5163877208505
 24
1.493638363009466
 34
0.0
 50
90.0
100
AcDbRotatedDimension
1001
ACAD
1000
DSTYLE
1002
{
1070
   144
1040
1.0
1070
    40
1040
0.7
1002
}
  0
DIMENSION
  5
350F
102
{ACAD_XDICTIONARY
360
351B
102
}
102
{ACAD_REACTORS
330
351C
102
}
330
2
100
AcDbEntity
  8
AM_REFDIM
100
AcDbDimension
  2
*D18
 10
578.3470609120383
 20
-1.495917398272581
 30
0.0
 11
596.7404701605216
 21
6.489919938715217
 31
0.0
 70
   163
  1
3-M3*0.5
 71
     5
 42
3.100000000000022
  3
AM_ISO$3
100
AcDbDiametricDimension
 15
580.885714529663
 25
0.2831941242918106
 35
0.0
 40
0.0
1001
ACAD
1000
DSTYLE
1002
{
1070
   144
1040
1.0
1070
    40
1040
0.7
1002
}
  0
DIMENSION
  5
3568
102
{ACAD_XDICTIONARY
360
3575
102
}
102
{ACAD_REACTORS
330
3576
330
3DF2
102
}
330
2
100
AcDbEntity
  8
AM_REFDIM
100
AcDbDimension
  2
*D19
 10
626.1943401190888
 20
-45.39168407878356
 30
0.0
 11
626.1943401190888
 21
-52.89168407878346
 31
0.0
 70
   160
 71
     5
 42
15.0
  3
STANDARD$0
100
AcDbAlignedDimension
 13
610.3663877208506
 23
-60.39168407878356
 33
0.0
 14
597.3663877208506
 24
-45.39168407878356
 34
0.0
 50
90.0
100
AcDbRotatedDimension
  0
LINE
  5
3697
330
2
100
AcDbEntity
  8
AM_VIS
100
AcDbLine
 10
596.6380398084575
 20
-7.665097426196524
 30
0.0
 11
596.1663877208507
 21
-7.706361636990408
 31
0.0
  0
ARC
  5
3698
330
2
100
AcDbEntity
  8
AM_VIS
100
AcDbCircle
 10
596.5822601330991
 20
-7.027532819417785
 30
0.0
 40
0.6400000000000002
100
AcDbArc
 50
275.0000000000031
 51
295.2547165609005
  0
LINE
  5
3699
330
2
100
AcDbEntity
  8
AM_VIS
100
AcDbLine
 10
562.5947356332436
 20
-7.665097426196524
 30
0.0
 11
563.0663877208506
 21
-7.706361636990408
 31
0.0
  0
ARC
  5
369A
330
2
100
AcDbEntity
  8
AM_VIS
100
AcDbCircle
 10
562.6505153086021
 20
-7.027532819417785
 30
0.0
 40
0.6400000000000002
100
AcDbArc
 50
244.7452834390995
 51
264.9999999999969
  0
DIMENSION
  5
36D1
102
{ACAD_XDICTIONARY
360
36DE
102
}
102
{ACAD_REACTORS
330
36DF
330
3DF2
102
}
330
2
100
AcDbEntity
  8
AM_REFDIM
100
AcDbDimension
  2
*D20
 10
619.8663877208506
 20
-74.77748728617879
 30
0.0
 11
579.6163877208506
 21
-72.85248728617879
 31
0.0
 70
    32
 71
     5
 42
80.5
  3
STANDARD$0
100
AcDbAlignedDimension
 13
539.3663877208506
 23
-41.99168407878355
 33
0.0
 14
619.8663877208506
 24
-41.99168407878355
 34
0.0
 50
0.0000000000001132
100
AcDbRotatedDimension
  0
DIMENSION
  5
3755
102
{ACAD_XDICTIONARY
360
3762
102
}
102
{ACAD_REACTORS
330
3763
102
}
330
2
100
AcDbEntity
  8
AM_REFDIM
100
AcDbDimension
  2
*D21
 10
619.8663877208506
 20
-107.0049211929586
 30
0.0
 11
601.4913877208506
 21
-105.0799211929586
 31
0.0
 70
    32
 71
     5
 42
36.75
  3
STANDARD$0
100
AcDbAlignedDimension
 13
583.1163877208506
 23
-97.9044211929586
 33
0.0
 14
619.8663877208506
 24
-98.15492119295852
 34
0.0
 50
0.0000000000001132
100
AcDbRotatedDimension
  0
DIMENSION
  5
37FE
102
{ACAD_XDICTIONARY
360
380B
102
}
102
{ACAD_REACTORS
330
380C
330
3DA3
330
3DBB
102
}
330
2
100
AcDbEntity
  8
AM_REFDIM
100
AcDbDimension
  2
*D22
 10
574.3163877208505
 20
10.05161917339569
 30
0.0
 11
556.8413877208506
 21
11.97661917339569
 31
0.0
 70
    32
 71
     5
 42
34.94999999999993
  3
STANDARD$0
100
AcDbAlignedDimension
 13
539.3663877208506
 23
0.543638363009336
 33
0.0
 14
574.3163877208505
 24
4.693638363009455
 34
0.0
100
AcDbRotatedDimension
  0
DIMENSION
  5
3B49
102
{ACAD_XDICTIONARY
360
3B58
102
}
102
{ACAD_REACTORS
330
3B59
102
}
330
2
100
AcDbEntity
  8
AM_REFDIM
100
AcDbDimension
  2
*D23
 10
579.6163877208506
 20
10.05161917339569
 30
0.0
 11
576.9663877208507
 21
10.05161917339569
 31
0.0
 70
   160
 71
     5
 42
5.300000000000068
  3
STANDARD$0
100
AcDbAlignedDimension
 13
574.3163877208505
 23
4.693638363009455
 33
0.0
 14
579.6163877208506
 24
2.243638363009466
 34
0.0
100
AcDbRotatedDimension
  0
DIMENSION
  5
3BBB
102
{ACAD_XDICTIONARY
360
3BC8
102
}
102
{ACAD_REACTORS
330
3BC9
102
}
330
2
100
AcDbEntity
  8
AM_REFDIM
100
AcDbDimension
  2
*D24
 10
534.8704836367152
 20
-89.50492119295857
 30
0.0
 11
532.9454836367152
 21
-95.00492119295849
 31
0.0
 70
    32
 71
     5
 42
11.0
  3
STANDARD$0
100
AcDbAlignedDimension
 13
573.8163877208505
 23
-100.5049211929586
 33
0.0
 14
580.9163877208505
 24
-89.50492119295859
 34
0.0
 50
90.00000000000003
100
AcDbRotatedDimension
  0
DIMENSION
  5
3CD0
102
{ACAD_XDICTIONARY
360
3CDD
102
}
102
{ACAD_REACTORS
330
3CDE
330
3DA3
102
}
330
2
100
AcDbEntity
  8
AM_REFDIM
100
AcDbDimension
  2
*D25
 10
522.8663877208506
 20
2.393638363009365
 30
0.0
 11
520.9413877208507
 21
-2.60636163699055
 31
0.0
 70
    32
 71
     5
 42
10.0
  3
STANDARD$0
100
AcDbAlignedDimension
 13
545.3663877208506
 23
-7.606361636990641
 33
0.0
 14
545.3663877208506
 24
2.393638363009358
 34
0.0
 50
90.00000000000003
100
AcDbRotatedDimension
  0
DIMENSION
  5
3CF6
102
{ACAD_XDICTIONARY
360
3D04
102
}
102
{ACAD_REACTORS
330
3D05
330
3DBB
102
}
330
2
100
AcDbEntity
  8
AM_REFDIM
100
AcDbDimension
  2
*D26
 10
529.8663877208506
 20
-6.706361636990507
 30
0.0
 11
527.9413877208506
 21
-2.606361636990429
 31
0.0
 70
    32
 71
     5
 42
8.199999999999986
  3
STANDARD$0
100
AcDbAlignedDimension
 13
571.1163877208506
 23
1.493638363009466
 33
0.0
 14
578.2163877208506
 24
-6.706361636990521
 34
0.0
 50
90.00000000000003
100
AcDbRotatedDimension
  0
DIMENSION
  5
3D22
102
{ACAD_XDICTIONARY
360
3D31
102
}
102
{ACAD_REACTORS
330
3D32
330
3DA3
330
3DBB
102
}
330
2
100
AcDbEntity
  8
AM_REFDIM
100
AcDbDimension
  2
*D27
 10
536.8663877208506
 20
-0.6063616369905163
 30
0.0
 11
534.9413877208506
 21
5.110305029676236
 31
0.0
 70
    32
 71
     5
 42
1.999999999999943
  3
STANDARD$0
100
AcDbAlignedDimension
 13
576.9863877208506
 23
-2.60636163699047
 33
0.0
 14
576.7663877208506
 24
-0.6063616369905276
 34
0.0
 50
90.00000000000003
100
AcDbRotatedDimension
  0
ENDSEC
  0
SECTION
  2
OBJECTS
  0
DICTIONARY
  5
8
330
0
100
AcDbDictionary
281
     1
  3
ACAD_COLOR
350
22EB
  3
ACAD_GROUP
350
21
  3
ACAD_LAYOUT
350
C
  3
ACAD_MATERIAL
350
22EA
  3
ACAD_MLINESTYLE
350
22
  3
ACAD_PLOTSETTINGS
350
23
  3
ACAD_PLOTSTYLENAME
350
7
  3
ACAD_TABLESTYLE
350
22EC
  3
ACDBHEADERROUNDTRIPXREC
350
3EB5
  3
AcDbVariableDictionary
350
1D2
  3
AcmDictionary
350
1F4
  3
AMG
350
1DA
  3
AMGSNAPSETTINGS
350
37D
  3
ASE_INDEX_DICTIONARY
350
E58
  3
DWGPROPS
350
3EB4
  0
DICTIONARY
  5
2434
330
11
100
AcDbDictionary
280
     1
281
     1
  3
ACAD_LAYERFILTERS
360
2C96
  3
ACAD_LAYERSTATES
360
2435
  3
ACLYDICTIONARY
360
2C95
  0
DICTIONARY
  5
3
330
2
100
AcDbDictionary
280
     1
281
     1
  3
ACAD_INDEX
360
369B
  3
ACAD_LAYOUTSELFREF
360
22C3
  0
DICTIONARY
  5
1848
330
D
100
AcDbDictionary
280
     1
281
     1
  3
ACAD_LAYOUTSELFREF
360
22C8
  0
DICTIONARY
  5
2FCC
330
2FBD
100
AcDbDictionary
280
     1
281
     1
  3
ACAD_DIMASSOC
360
2FCD
  0
DICTIONARY
  5
31AB
330
319E
100
AcDbDictionary
280
     1
281
     1
  3
ACAD_DIMASSOC
360
31AC
  0
DICTIONARY
  5
34EE
330
34E1
100
AcDbDictionary
280
     1
281
     1
  3
ACAD_DIMASSOC
360
34EF
  0
DICTIONARY
  5
351B
330
350F
100
AcDbDictionary
280
     1
281
     1
  3
ACAD_DIMASSOC
360
351C
  0
DICTIONARY
  5
3575
330
3568
100
AcDbDictionary
280
     1
281
     1
  3
ACAD_DIMASSOC
360
3576
  0
DICTIONARY
  5
36DE
330
36D1
100
AcDbDictionary
280
     1
281
     1
  3
ACAD_DIMASSOC
360
36DF
  3
ACMDIMBREAKPERSREACTOR
360
3DF2
  0
DICTIONARY
  5
3762
330
3755
100
AcDbDictionary
280
     1
281
     1
  3
ACAD_DIMASSOC
360
3763
  0
DICTIONARY
  5
380B
330
37FE
100
AcDbDictionary
280
     1
281
     1
  3
ACAD_DIMASSOC
360
380C
  0
DICTIONARY
  5
3B58
330
3B49
100
AcDbDictionary
280
     1
281
     1
  3
ACAD_DIMASSOC
360
3B59
  0
DICTIONARY
  5
3BC8
330
3BBB
100
AcDbDictionary
280
     1
281
     1
  3
ACAD_DIMASSOC
360
3BC9
  0
DICTIONARY
  5
3CDD
330
3CD0
100
AcDbDictionary
280
     1
281
     1
  3
ACAD_DIMASSOC
360
3CDE
  3
ACMDIMBREAKPERSREACTOR
360
3DA3
  0
DICTIONARY
  5
3D04
330
3CF6
100
AcDbDictionary
280
     1
281
     1
  3
ACAD_DIMASSOC
360
3D05
  3
ACMDIMBREAKPERSREACTOR
360
3DBB
  0
DICTIONARY
  5
3D31
330
3D22
100
AcDbDictionary
280
     1
281
     1
  3
ACAD_DIMASSOC
360
3D32
  0
DICTIONARY
  5
22EB
102
{ACAD_REACTORS
330
8
102
}
330
8
100
AcDbDictionary
281
     1
  0
DICTIONARY
  5
21
102
{ACAD_REACTORS
330
8
102
}
330
8
100
AcDbDictionary
281
     1
  0
DICTIONARY
  5
C
102
{ACAD_REACTORS
330
8
102
}
330
8
100
AcDbDictionary
281
     1
  3
Layout1
350
10
  3
Model
350
B
  0
DICTIONARY
  5
22EA
102
{ACAD_REACTORS
330
8
102
}
330
8
100
AcDbDictionary
281
     1
  0
DICTIONARY
  5
22
102
{ACAD_REACTORS
330
8
102
}
330
8
100
AcDbDictionary
281
     1
  3
Standard
350
24
  0
DICTIONARY
  5
23
102
{ACAD_REACTORS
330
8
102
}
330
8
100
AcDbDictionary
281
     1
  0
ACDBDICTIONARYWDFLT
  5
7
102
{ACAD_REACTORS
330
8
102
}
330
8
100
AcDbDictionary
281
     1
  3
Normal
350
6
100
AcDbDictionaryWithDefault
340
6
  0
DICTIONARY
  5
22EC
102
{ACAD_REACTORS
330
8
102
}
330
8
100
AcDbDictionary
281
     1
  3
Standard
350
22ED
  0
DICTIONARY
  5
3EB5
102
{ACAD_REACTORS
330
8
102
}
330
8
100
AcDbDictionary
281
     1
  0
DICTIONARY
  5
1D2
102
{ACAD_REACTORS
330
8
102
}
330
8
100
AcDbDictionary
281
     1
  3
CTABLESTYLE
350
2CA1
  3
DIMASSOC
350
1D4
  3
HIDETEXT
350
1D3
  3
INDEXCTL
350
4C0
  3
PROJECTNAME
350
2CA2
  0
DICTIONARY
  5
1F4
102
{ACAD_REACTORS
330
8
102
}
330
8
100
AcDbDictionary
281
     1
  3
AcmStdDictionary
350
1FA
  3
AMDTSECTSYM_ARROWCOLOR
350
2360
  0
DICTIONARY
  5
1DA
102
{ACAD_REACTORS
330
8
102
}
330
8
100
AcDbDictionary
281
     1
  0
DICTIONARY
  5
37D
102
{ACAD_REACTORS
330
8
102
}
330
8
100
AcDbDictionary
281
     1
  0
DICTIONARY
  5
E58
102
{ACAD_REACTORS
330
8
102
}
330
8
100
AcDbDictionary
281
     1
  3
ASEBlockHierarchyIndexRecord
350
E5A
1001
DCO15
1040
1443953005.444
  0
XRECORD
  5
3EB4
102
{ACAD_REACTORS
330
8
102
}
330
8
100
AcDbXrecord
280
     1
  1
DWGPROPS COOKIE
  2

  3

  4

  6

  7

  8

  9

300
AmdtFileType=84
301
=
302
=
303
=
304
=
305
=
306
=
307
=
308
=
309
=
 40
0.3192918518518518
 41
2452691.454954444
 42
2454664.402936192
  1

 90
        1
  0
DICTIONARY
  5
2C96
102
{ACAD_REACTORS
330
2434
102
}
330
2434
100
AcDbDictionary
281
     1
  0
DICTIONARY
  5
2435
102
{ACAD_REACTORS
330
2434
102
}
330
2434
100
AcDbDictionary
281
     1
  0
DICTIONARY
  5
2C95
102
{ACAD_REACTORS
330
2434
102
}
330
2434
100
AcDbDictionary
281
     1
1001
ACAD
1000
<All
  0
DICTIONARY
  5
369B
102
{ACAD_REACTORS
330
3
102
}
330
3
100
AcDbDictionary
281
     1
  3
*A1
350
369C
  0
XRECORD
  5
22C3
102
{ACAD_REACTORS
330
3
102
}
330
3
100
AcDbXrecord
280
     1
340
2
  0
XRECORD
  5
22C8
102
{ACAD_REACTORS
330
1848
102
}
330
1848
100
AcDbXrecord
280
     1
340
D
  0
DIMASSOC
  5
2FCD
102
{ACAD_REACTORS
330
2FCC
102
}
330
2FCC
100
AcDbDimAssoc
330
2FBD
 90
        3
 70
     0
 71
     0
  1
AcDbOsnapPointRef
 72
    13
331
27C2
 73
     0
 91
        0
 40
0.0
 10
0.0
 20
0.0
 30
2.000000000000000E+50
 75
     0
  1
AcDbOsnapPointRef
 72
     1
331
27DF
 73
     0
 91
        0
 40
0.0
 10
0.0
 20
0.0
 30
2.000000000000000E+50
 75
     0
  0
DIMASSOC
  5
31AC
102
{ACAD_REACTORS
330
31AB
102
}
330
31AB
100
AcDbDimAssoc
330
319E
 90
        3
 70
     0
 71
     0
  1
AcDbOsnapPointRef
 72
     1
331
311F
 73
     0
 91
        0
 40
0.0
 10
0.0
 20
0.0
 30
2.000000000000000E+50
 75
     0
  1
AcDbOsnapPointRef
 72
    13
331
2800
 73
     0
 91
        0
 40
0.0
 10
0.0
 20
0.0
 30
2.000000000000000E+50
 75
     0
  0
DIMASSOC
  5
34EF
102
{ACAD_REACTORS
330
34EE
102
}
330
34EE
100
AcDbDimAssoc
330
34E1
 90
        3
 70
     0
 71
     0
  1
AcDbOsnapPointRef
 72
     1
331
26D2
 73
     0
 91
        0
 40
0.0
 10
0.0
 20
0.0
 30
2.000000000000000E+50
 75
     0
  1
AcDbOsnapPointRef
 72
     1
331
26D8
 73
     0
 91
        0
 40
0.0
 10
0.0
 20
0.0
 30
2.000000000000000E+50
 75
     0
  0
DIMASSOC
  5
351C
102
{ACAD_REACTORS
330
351B
102
}
330
351B
100
AcDbDimAssoc
330
350F
 90
        2
 70
     0
 71
     0
  1
AcDbOsnapPointRef
 72
     3
331
276A
 73
     2
 91
        0
 40
0.0
 10
0.0
 20
0.0
 30
0.0
 75
     0
  0
DIMASSOC
  5
3576
102
{ACAD_REACTORS
330
3575
102
}
330
3575
100
AcDbDimAssoc
330
3568
 90
        3
 70
     0
 71
     0
  1
AcDbOsnapPointRef
 72
     1
331
2801
 73
     0
 91
        0
 40
0.0
 10
0.0
 20
0.0
 30
2.000000000000000E+50
 75
     0
  1
AcDbOsnapPointRef
 72
     1
331
27EE
 73
     0
 91
        0
 40
0.0
 10
0.0
 20
0.0
 30
2.000000000000000E+50
 75
     0
  0
DIMASSOC
  5
36DF
102
{ACAD_REACTORS
330
36DE
102
}
330
36DE
100
AcDbDimAssoc
330
36D1
 90
        3
 70
     0
 71
     0
  1
AcDbOsnapPointRef
 72
    13
331
3140
 73
     0
 91
        0
 40
0.0
 10
0.0
 20
0.0
 30
2.000000000000000E+50
 75
     0
  1
AcDbOsnapPointRef
 72
    13
331
2824
 73
     0
 91
        0
 40
0.0
 10
0.0
 20
0.0
 30
2.000000000000000E+50
 75
     0
  0
DIMASSOC
  5
3763
102
{ACAD_REACTORS
330
3762
102
}
330
3762
100
AcDbDimAssoc
330
3755
 90
        3
 70
     0
 71
     0
  1
AcDbOsnapPointRef
 72
    13
331
26F8
 73
     0
 91
        0
 40
0.0
 10
0.0
 20
0.0
 30
2.000000000000000E+50
 75
     0
  1
AcDbOsnapPointRef
 72
    13
331
2898
 73
     0
 91
        0
 40
0.0
 10
0.0
 20
0.0
 30
2.000000000000000E+50
 75
     0
  0
DIMASSOC
  5
380C
102
{ACAD_REACTORS
330
380B
102
}
330
380B
100
AcDbDimAssoc
330
37FE
 90
        3
 70
     0
 71
     0
  1
AcDbOsnapPointRef
 72
     1
331
30E0
 73
     0
 91
        0
 40
0.0
 10
0.0
 20
0.0
 30
2.000000000000000E+50
 75
     0
  1
AcDbOsnapPointRef
 72
     1
331
26DA
 73
     0
 91
        0
 40
0.0
 10
0.0
 20
0.0
 30
2.000000000000000E+50
 75
     0
  0
DIMASSOC
  5
3B59
102
{ACAD_REACTORS
330
3B58
102
}
330
3B58
100
AcDbDimAssoc
330
3B49
 90
        3
 70
     0
 71
     0
  1
AcDbOsnapPointRef
 72
     1
331
26DA
 73
     0
 91
        0
 40
0.0
 10
0.0
 20
0.0
 30
2.000000000000000E+50
 75
     0
  1
AcDbOsnapPointRef
 72
     1
331
26CE
 73
     0
 91
        0
 40
0.0
 10
0.0
 20
0.0
 30
2.000000000000000E+50
 75
     0
  0
DIMASSOC
  5
3BC9
102
{ACAD_REACTORS
330
3BC8
102
}
330
3BC8
100
AcDbDimAssoc
330
3BBB
 90
        3
 70
     0
 71
     0
  1
AcDbOsnapPointRef
 72
    13
331
285B
 73
     0
 91
        0
 40
0.0
 10
0.0
 20
0.0
 30
2.000000000000000E+50
 75
     0
  1
AcDbOsnapPointRef
 72
    13
331
2850
 73
     0
 91
        0
 40
0.0
 10
0.0
 20
0.0
 30
2.000000000000000E+50
 75
     0
  0
DIMASSOC
  5
3CDE
102
{ACAD_REACTORS
330
3CDD
102
}
330
3CDD
100
AcDbDimAssoc
330
3CD0
 90
        3
 70
     0
 71
     0
  1
AcDbOsnapPointRef
 72
     1
331
30F3
 73
     0
 91
        0
 40
0.0
 10
0.0
 20
0.0
 30
2.000000000000000E+50
 75
     0
  1
AcDbOsnapPointRef
 72
    13
331
30F6
 73
     0
 91
        0
 40
0.0
 10
0.0
 20
0.0
 30
2.000000000000000E+50
 75
     0
  0
DIMASSOC
  5
3D05
102
{ACAD_REACTORS
330
3D04
102
}
330
3D04
100
AcDbDimAssoc
330
3CF6
 90
        3
 70
     0
 71
     0
  1
AcDbOsnapPointRef
 72
    13
331
26D7
 73
     0
 91
        0
 40
0.0
 10
0.0
 20
0.0
 30
2.000000000000000E+50
 75
     0
  1
AcDbOsnapPointRef
 72
    13
331
26D1
 73
     0
 91
        0
 40
0.0
 10
0.0
 20
0.0
 30
2.000000000000000E+50
 75
     0
  0
DIMASSOC
  5
3D32
102
{ACAD_REACTORS
330
3D31
102
}
330
3D31
100
AcDbDimAssoc
330
3D22
 90
        3
 70
     0
 71
     0
  1
AcDbOsnapPointRef
 72
     1
331
26E7
 73
     0
 91
        0
 40
0.0
 10
0.0
 20
0.0
 30
2.000000000000000E+50
 75
     0
  1
AcDbOsnapPointRef
 72
    13
331
26CB
 73
     0
 91
        0
 40
0.0
 10
0.0
 20
0.0
 30
2.000000000000000E+50
 75
     0
  0
LAYOUT
  5
10
102
{ACAD_XDICTIONARY
360
3EB8
102
}
102
{ACAD_REACTORS
330
C
102
}
330
C
100
AcDbPlotSettings
  1

  2
\\RD01\EPSON Stylus COLOR 1160 單色
  4
A4
  6

 40
3.757083177566528
 41
14.7637300491333
 42
3.757080078125
 43
3.757080078125
 44
209.9733276367187
 45
296.9683227539062
 46
0.0
 47
0.0
 48
0.0
 49
0.0
140
0.0
141
0.0
142
1.0
143
1.0
 70
   688
 72
     1
 73
     0
 74
     5
  7
單色出圖.ctb
 75
    16
147
1.0
148
0.0
149
0.0
100
AcDbLayout
  1
Layout1
 70
     1
 71
     1
 10
-3.757083177566528
 20
-14.7637300491333
 11
206.2162444591522
 21
282.2045927047729
 12
0.0
 22
0.0
 32
0.0
 14
26.80208481208632
 24
60.62932117531272
 34
-0.0000000000000153
 15
155.7606180029584
 25
204.40991305297
 35
0.0
146
0.0
 13
0.0
 23
0.0
 33
0.0
 16
1.0
 26
0.0
 36
0.0
 17
0.0
 27
1.0
 37
0.0
 76
     0
330
D
  0
LAYOUT
  5
B
102
{ACAD_XDICTIONARY
360
3EB6
102
}
102
{ACAD_REACTORS
330
C
102
}
330
C
100
AcDbPlotSettings
  1

  2
自動 RD 上的 Epson Stylus Photo 750 單色
  4
A4
  6

 40
3.757083177566528
 41
14.7637300491333
 42
3.757080078125
 43
3.757080078125
 44
209.9733276367187
 45
296.9683227539062
 46
0.0
 47
0.0
 48
0.0
 49
0.0
140
0.0
141
0.0
142
1.0
143
1.0
 70
 11952
 72
     1
 73
     0
 74
     0
  7
單色出圖.ctb
 75
    16
147
1.0
148
47.70409695138527
149
1.582593250444062
100
AcDbLayout
  1
Model
 70
     1
 71
     0
 10
0.0
 20
0.0
 11
12.0
 21
9.0
 12
0.0
 22
0.0
 32
0.0
 14
0.0
 24
0.0
 34
0.0
 15
0.0
 25
0.0
 35
0.0
146
0.0
 13
0.0
 23
0.0
 33
0.0
 16
1.0
 26
0.0
 36
0.0
 17
0.0
 27
1.0
 37
0.0
 76
     0
330
2
  0
MLINESTYLE
  5
24
102
{ACAD_REACTORS
330
22
102
}
330
22
100
AcDbMlineStyle
  2
STANDARD
 70
     0
  3

 62
   256
 51
90.0
 52
90.0
 71
     2
 49
0.5
 62
   256
  6
BYLAYER
 49
-0.5
 62
   256
  6
BYLAYER
  0
ACDBPLACEHOLDER
  5
6
102
{ACAD_REACTORS
330
7
102
}
330
7
  0
TABLESTYLE
  5
22ED
102
{ACAD_REACTORS
330
22EC
102
}
330
22EC
100
AcDbTableStyle
  3
Standard
 70
     0
 71
     0
 40
1.5
 41
1.5
280
     0
281
     0
  7
STANDARD
140
4.5
170
     2
 62
     0
 63
     7
283
     0
274
    -2
284
     1
 64
     0
275
    -2
285
     1
 65
     0
276
    -2
286
     1
 66
     0
277
    -2
287
     1
 67
     0
278
    -2
288
     1
 68
     0
279
    -2
289
     1
 69
     0
  7
STANDARD
140
6.0
170
     5
 62
     0
 63
     7
283
     0
274
    -2
284
     1
 64
     0
275
    -2
285
     1
 65
     0
276
    -2
286
     1
 66
     0
277
    -2
287
     1
 67
     0
278
    -2
288
     1
 68
     0
279
    -2
289
     1
 69
     0
  7
STANDARD
140
4.5
170
     5
 62
     0
 63
     7
283
     0
274
    -2
284
     1
 64
     0
275
    -2
285
     1
 65
     0
276
    -2
286
     1
 66
     0
277
    -2
287
     1
 67
     0
278
    -2
288
     1
 68
     0
279
    -2
289
     1
 69
     0
  0
DICTIONARYVAR
  5
2CA1
102
{ACAD_REACTORS
330
1D2
102
}
330
1D2
100
DictionaryVariables
280
     0
  1
STANDARD
  0
DICTIONARYVAR
  5
1D4
102
{ACAD_REACTORS
330
1D2
102
}
330
1D2
100
DictionaryVariables
280
     0
  1
2
  0
DICTIONARYVAR
  5
1D3
102
{ACAD_REACTORS
330
1D2
102
}
330
1D2
100
DictionaryVariables
280
     0
  1
1
  0
DICTIONARYVAR
  5
4C0
102
{ACAD_REACTORS
330
1D2
102
}
330
1D2
100
DictionaryVariables
280
     0
  1
1
  0
DICTIONARYVAR
  5
2CA2
102
{ACAD_REACTORS
330
1D2
102
}
330
1D2
100
DictionaryVariables
280
     0
  1

  0
DICTIONARY
  5
1FA
102
{ACAD_REACTORS
330
1F4
102
}
330
1F4
100
AcDbDictionary
281
     1
  0
XRECORD
  5
2360
102
{ACAD_REACTORS
330
1F4
102
}
330
1F4
100
AcDbXrecord
280
     1
 90
-1023410169
  0
XRECORD
  5
E5A
102
{ACAD_REACTORS
330
E58
102
}
330
E58
100
AcDbXrecord
280
     1
330
0
330
0
  0
LAYER_INDEX
  5
369C
102
{ACAD_REACTORS
330
369B
102
}
330
369B
100
AcDbIndex
 40
2454664.402936192
100
AcDbLayerIndex
  8
0
360
3E2B
 90
       15
  8
Defpoints
360
3E2C
 90
        0
  8
AM_5
360
3E2D
 90
        3
  8
AM_VIS
360
3E2E
 90
      681
  8
AM_PARDIM
360
3E2F
 90
       10
  8
AM_7
360
3E30
 90
      118
  8
LOGO
360
3E31
 90
      151
  8
AM_REFDIM
360
3E32
 90
       16
  0
DICTIONARY
  5
3EB8
330
10
100
AcDbDictionary
280
     1
281
     1
  3
ACAD_XREC_ROUNDTRIP
360
3EB9
  0
DICTIONARY
  5
3EB6
330
B
100
AcDbDictionary
280
     1
281
     1
  3
ACAD_XREC_ROUNDTRIP
360
3EB7
  0
IDBUFFER
  5
3E2B
330
0
100
AcDbIdBuffer
330
25
330
26
330
27
330
28
330
29
330
2A
330
2B
330
2C
330
2D
330
2E
330
2F
330
30
330
2C00
330
2C01
330
2C02
  0
IDBUFFER
  5
3E2C
330
0
100
AcDbIdBuffer
  0
IDBUFFER
  5
3E2D
330
0
100
AcDbIdBuffer
330
151
330
156
330
34E1
  0
IDBUFFER
  5
3E2E
330
0
100
AcDbIdBuffer
330
2745
330
2746
330
2747
330
2748
330
2749
330
274A
330
274B
330
274C
330
274D
330
274E
330
274F
330
2750
330
2751
330
2752
330
2753
330
2754
330
2755
330
2756
330
2757
330
2758
330
2759
330
275A
330
275B
330
275C
330
275D
330
275E
330
275F
330
2760
330
2761
330
2762
330
2763
330
2764
330
2765
330
2766
330
2767
330
2768
330
2769
330
276A
330
276B
330
276C
330
276D
330
276E
330
276F
330
2770
330
2771
330
2772
330
2778
330
2779
330
277A
330
277B
330
277C
330
277D
330
277E
330
277F
330
2780
330
2781
330
2782
330
2783
330
2784
330
2785
330
2786
330
2787
330
2788
330
2789
330
278A
330
278B
330
278C
330
278D
330
278E
330
278F
330
2790
330
2791
330
2792
330
2793
330
2794
330
2795
330
2796
330
2797
330
2798
330
2799
330
279A
330
279B
330
279C
330
279D
330
279E
330
279F
330
27B3
330
27B4
330
27B5
330
27B6
330
27B7
330
27B8
330
27B9
330
27BA
330
27BB
330
27BC
330
27BD
330
27BE
330
27BF
330
27C0
330
27C1
330
27C2
330
27C3
330
27C4
330
27C5
330
27C6
330
27C7
330
27C8
330
27C9
330
27CA
330
27CB
330
27CC
330
27CD
330
27CE
330
27CF
330
27D0
330
27D1
330
27D2
330
27D3
330
27D4
330
27D5
330
27D6
330
27D7
330
27D8
330
27D9
330
27DA
330
27DB
330
27DC
330
27DD
330
27DE
330
27DF
330
27E0
330
27E1
330
27E2
330
27E3
330
27E4
330
27E5
330
27E6
330
27E7
330
27E8
330
27E9
330
27EA
330
27EB
330
27EC
330
27ED
330
27EE
330
27EF
330
27F0
330
27F3
330
27FB
330
27FC
330
27FD
330
27FE
330
27FF
330
2800
330
2801
330
2802
330
2803
330
2804
330
2805
330
2806
330
2807
330
2808
330
2809
330
280A
330
280B
330
280C
330
280D
330
280E
330
280F
330
2810
330
2811
330
2812
330
2813
330
2814
330
2815
330
2816
330
2817
330
2818
330
2819
330
281A
330
281B
330
281C
330
281D
330
281E
330
281F
330
2820
330
2821
330
2822
330
2823
330
2824
330
2825
330
2826
330
2827
330
2828
330
2829
330
282A
330
282B
330
282C
330
282D
330
282E
330
282F
330
2830
330
2831
330
2832
330
2833
330
2834
330
2835
330
2836
330
2837
330
2838
330
2839
330
283A
330
283B
330
283C
330
283D
330
283E
330
283F
330
2840
330
2841
330
2848
330
2849
330
284A
330
284B
330
284C
330
284D
330
284E
330
284F
330
2850
330
2851
330
2852
330
2853
330
2854
330
2855
330
2856
330
2857
330
2858
330
2859
330
285A
330
285B
330
285C
330
285D
330
285E
330
285F
330
2860
330
2861
330
2862
330
2863
330
2864
330
2865
330
2866
330
2867
330
2868
330
2869
330
286A
330
286B
330
286C
330
286D
330
286E
330
2872
330
2873
330
2874
330
2875
330
2876
330
2877
330
2878
330
2879
330
287A
330
287B
330
287C
330
287D
330
287E
330
287F
330
2880
330
2881
330
2882
330
2883
330
2884
330
2885
330
2886
330
2887
330
2888
330
2889
330
288A
330
288B
330
288C
330
288D
330
288E
330
288F
330
2890
330
2891
330
2892
330
2893
330
2894
330
2895
330
2896
330
2897
330
2898
330
2899
330
289A
330
289B
330
289C
330
289D
330
289E
330
289F
330
28A0
330
28A1
330
28A2
330
28A3
330
28A4
330
28A5
330
28A6
330
28A7
330
28A8
330
28A9
330
28AA
330
28AB
330
28AC
330
28AD
330
28AE
330
28AF
330
28B0
330
28B1
330
28B2
330
28B3
330
28B4
330
28B5
330
28B6
330
28B7
330
28B8
330
28B9
330
28BA
330
28BB
330
28BC
330
28BD
330
28BE
330
28BF
330
28C0
330
28C1
330
28C2
330
28C3
330
28C4
330
28C5
330
28C6
330
28C7
330
28C8
330
28C9
330
28CA
330
28CB
330
28CC
330
28CD
330
28CE
330
28CF
330
28D0
330
28D1
330
28D2
330
28D3
330
28D4
330
28D5
330
28D6
330
28D7
330
28D8
330
28D9
330
28DA
330
28DB
330
28DC
330
28DD
330
28DE
330
28DF
330
28E0
330
28E1
330
28E2
330
28E3
330
28E4
330
28E5
330
28E6
330
28E7
330
28E8
330
28E9
330
28EA
330
28EB
330
28EC
330
28ED
330
28EE
330
28EF
330
28F0
330
28F1
330
28F2
330
28F3
330
28F4
330
28F5
330
28F6
330
28F7
330
28F8
330
28F9
330
28FA
330
28FB
330
28FC
330
28FD
330
28FE
330
28FF
330
2900
330
2901
330
2902
330
2903
330
2904
330
2905
330
2906
330
2907
330
2908
330
2909
330
290A
330
290B
330
290C
330
290D
330
290E
330
290F
330
2910
330
2911
330
2912
330
2913
330
2914
330
2915
330
2916
330
2917
330
2918
330
2919
330
291A
330
291B
330
291C
330
291D
330
291E
330
291F
330
2920
330
2921
330
2922
330
2923
330
2924
330
2925
330
2926
330
2927
330
2928
330
2929
330
292A
330
292B
330
292C
330
292D
330
292E
330
292F
330
2930
330
2931
330
2932
330
2933
330
2934
330
2935
330
2936
330
2937
330
2938
330
2939
330
293A
330
293B
330
293C
330
293D
330
293E
330
293F
330
2940
330
2941
330
2942
330
2943
330
2944
330
2945
330
2946
330
2947
330
2948
330
2949
330
294A
330
294B
330
294C
330
294D
330
294E
330
294F
330
2950
330
2951
330
2952
330
2953
330
2954
330
30D0
330
30D1
330
30D2
330
30D3
330
30D4
330
30D5
330
30D6
330
30D7
330
30D8
330
30D9
330
30DA
330
30DB
330
30DC
330
30DD
330
30DE
330
30DF
330
30E0
330
30E1
330
30E2
330
30E3
330
30E4
330
30E5
330
30E6
330
30E7
330
30E8
330
30E9
330
30EA
330
30EB
330
30EC
330
30ED
330
30EE
330
30EF
330
30F0
330
30F1
330
30F2
330
30F3
330
30F4
330
30F5
330
30F6
330
30F7
330
30F8
330
30F9
330
30FA
330
30FB
330
30FC
330
30FD
330
30FE
330
30FF
330
3100
330
3101
330
3102
330
3103
330
3104
330
3105
330
3106
330
3107
330
3108
330
3109
330
310A
330
310B
330
310C
330
310D
330
310E
330
310F
330
3110
330
3111
330
3112
330
3113
330
3114
330
3115
330
3116
330
3117
330
3118
330
3119
330
311A
330
311B
330
311C
330
311D
330
311E
330
311F
330
3120
330
3121
330
3122
330
3123
330
3124
330
3125
330
3126
330
3127
330
3128
330
3129
330
312A
330
312B
330
312C
330
312D
330
312E
330
312F
330
3130
330
3131
330
3132
330
3133
330
3134
330
3135
330
3136
330
3137
330
3138
330
3139
330
313A
330
313B
330
313C
330
313D
330
313E
330
313F
330
3140
330
3141
330
3142
330
3143
330
3144
330
3145
330
3146
330
3147
330
3148
330
3149
330
314A
330
314B
330
314C
330
314D
330
314E
330
314F
330
3150
330
3151
330
3152
330
3153
330
3154
330
3155
330
3156
330
3157
330
3158
330
3159
330
315A
330
315B
330
315C
330
315D
330
315E
330
315F
330
3160
330
3161
330
3162
330
3163
330
3164
330
3165
330
3166
330
3167
330
3168
330
3169
330
316A
330
316B
330
316C
330
316D
330
316E
330
316F
330
3170
330
3171
330
3172
330
3173
330
3174
330
3175
330
3176
330
3177
330
3178
330
3179
330
317A
330
317B
330
317C
330
317D
330
317E
330
317F
330
3180
330
3181
330
3182
330
3183
330
3184
330
3185
330
3186
330
3187
330
3188
330
3189
330
318A
330
318B
330
318C
330
318D
330
318E
330
3697
330
3698
330
3699
330
369A
  0
IDBUFFER
  5
3E2F
330
0
100
AcDbIdBuffer
330
31
330
43
330
52
330
5F
330
6C
330
79
330
86
330
95
330
A3
330
B0
  0
IDBUFFER
  5
3E30
330
0
100
AcDbIdBuffer
330
C8
330
26C9
330
26CA
330
26CB
330
26CC
330
26CD
330
26CE
330
26CF
330
26D0
330
26D1
330
26D2
330
26D3
330
26D4
330
26D5
330
26D6
330
26D7
330
26D8
330
26D9
330
26DA
330
26E7
330
26E8
330
26E9
330
26EA
330
26EB
330
26EC
330
26ED
330
26EE
330
26EF
330
26F1
330
26F2
330
26F3
330
26F4
330
26F5
330
26F6
330
26F7
330
26F8
330
26F9
330
26FA
330
26FB
330
26FC
330
26FD
330
26FE
330
26FF
330
2700
330
2701
330
2702
330
2703
330
2704
330
2705
330
2706
330
2707
330
2708
330
2709
330
270A
330
270B
330
270C
330
270D
330
270E
330
270F
330
2710
330
2711
330
2712
330
2713
330
2714
330
2715
330
2716
330
2717
330
2718
330
2719
330
271A
330
271B
330
271C
330
271D
330
271E
330
271F
330
2720
330
2721
330
2722
330
2723
330
2724
330
2725
330
2726
330
2727
330
2728
330
2729
330
272A
330
272B
330
272C
330
272D
330
272E
330
272F
330
2730
330
2731
330
2732
330
2733
330
2734
330
2735
330
2736
330
30BC
330
30BD
330
30BE
330
30BF
330
30C0
330
30C1
330
30C2
330
30C3
330
30C4
330
30C5
330
30C6
330
30C7
330
30C8
330
30C9
330
30CA
330
30CB
330
30CC
330
30CD
330
30CE
330
30CF
  0
IDBUFFER
  5
3E31
330
0
100
AcDbIdBuffer
330
13E2
330
13E5
330
13E6
330
13E7
330
13E8
330
14D1
330
14D2
330
14D3
330
14D4
330
14D5
330
14DF
330
14E0
330
14E1
330
14E2
330
14E3
330
14EB
330
14EC
330
14F4
330
14F5
330
14F6
330
14F7
330
14F8
330
14F9
330
14FA
330
14FB
330
14FC
330
1509
330
150A
330
150B
330
150C
330
150D
330
1533
330
1534
330
1535
330
1536
330
1537
330
1538
330
1539
330
153A
330
153B
330
153C
330
153D
330
153E
330
153F
330
1540
330
1547
330
1548
330
1549
330
154A
330
154B
330
154C
330
154D
330
154E
330
154F
330
1550
330
1553
330
15C0
330
15C1
330
15C2
330
15C4
330
15C5
330
15C6
330
15C7
330
15C8
330
15C9
330
15CA
330
15CB
330
15CD
330
15CE
330
15CF
330
15D0
330
15D1
330
15D2
330
15D3
330
15D4
330
15F8
330
15F9
330
15FA
330
15FB
330
15FC
330
15FD
330
15FE
330
15FF
330
1602
330
2138
330
2B59
330
2B5A
330
2B5B
330
2B5C
330
2B5D
330
2B5E
330
2B5F
330
2B60
330
2B61
330
2B62
330
2B63
330
2B64
330
2B65
330
2B66
330
2B67
330
2B68
330
2B69
330
2B6A
330
2B6B
330
2B6C
330
2B6D
330
2B6E
330
2B6F
330
2B70
330
2B71
330
2B72
330
2B76
330
2B7A
330
2B7B
330
2B7F
330
2B80
330
2B81
330
2B82
330
2B83
330
2B84
330
2B85
330
2B86
330
2B8A
330
2B8E
330
2B92
330
2B93
330
2B94
330
2B98
330
2B99
330
2B9A
330
2B9B
330
2B9C
330
2B9D
330
2B9E
330
2B9F
330
2BA0
330
2BA1
330
2BA2
330
2BA3
330
2BE2
330
2BE3
330
2BE4
330
2BE5
330
2BE6
330
2BE7
330
2BE8
330
2BE9
330
2BEA
330
2BEB
330
2BEC
330
2BED
  0
IDBUFFER
  5
3E32
330
0
100
AcDbIdBuffer
330
26C8
330
26E3
330
273E
330
273F
330
2FBD
330
319E
330
350F
330
3568
330
36D1
330
3755
330
37FE
330
3B49
330
3BBB
330
3CD0
330
3CF6
330
3D22
  0
XRECORD
  5
3EB9
102
{ACAD_REACTORS
330
3EB8
102
}
330
3EB8
100
AcDbXrecord
280
     1
102
SHADEPLOT
 70
     0
102
SHADEPLOTRESLEVEL
 70
     2
102
SHADEPLOTCUSTOMDPI
 70
   300
  0
XRECORD
  5
3EB7
102
{ACAD_REACTORS
330
3EB6
102
}
330
3EB6
100
AcDbXrecord
280
     1
102
SHADEPLOT
 70
     0
102
SHADEPLOTRESLEVEL
 70
     2
102
SHADEPLOTCUSTOMDPI
 70
   300
  0
ENDSEC
  0
EOF
