  0
SECTION
  2
HEADER
  9
$ACADVER
  1
AC1015
  9
$ACADMAINTVER
 70
    20
  9
$DWGCODEPAGE
  3
ANSI_950
  9
$INSBASE
 10
0.0
 20
0.0
 30
0.0
  9
$EXTMIN
 10
529.2842326171203
 20
-140.9586134333521
 30
-0.0027765939541098
  9
$EXTMAX
 10
655.4471586574591
 20
28.05506424049236
 30
103.0832822247823
  9
$LIMMIN
 10
0.0
 20
0.0
  9
$LIMMAX
 10
420.0
 20
297.0
  9
$ORTHOMODE
 70
     1
  9
$REGENMODE
 70
     1
  9
$FILLMODE
 70
     1
  9
$QTEXTMODE
 70
     0
  9
$MIRRTEXT
 70
     1
  9
$LTSCALE
 40
0.3
  9
$ATTMODE
 70
     1
  9
$TEXTSIZE
 40
3.0
  9
$TRACEWID
 40
1.0
  9
$TEXTSTYLE
  7
CHINA
  9
$CLAYER
  8
0
  9
$CELTYPE
  6
ByLayer
  9
$CECOLOR
 62
   256
  9
$CELTSCALE
 40
1.0
  9
$DISPSILH
 70
     0
  9
$DIMSCALE
 40
0.7
  9
$DIMASZ
 40
3.0
  9
$DIMEXO
 40
1.0
  9
$DIMDLI
 40
7.0
  9
$DIMRND
 40
0.0
  9
$DIMDLE
 40
0.0
  9
$DIMEXE
 40
1.0
  9
$DIMTP
 40
0.01
  9
$DIMTM
 40
0.01
  9
$DIMTXT
 40
3.0
  9
$DIMCEN
 40
0.0
  9
$DIMTSZ
 40
0.0
  9
$DIMTOL
 70
     0
  9
$DIMLIM
 70
     0
  9
$DIMTIH
 70
     0
  9
$DIMTOH
 70
     0
  9
$DIMSE1
 70
     0
  9
$DIMSE2
 70
     0
  9
$DIMTAD
 70
     1
  9
$DIMZIN
 70
     8
  9
$DIMBLK
  1

  9
$DIMASO
 70
     1
  9
$DIMSHO
 70
     1
  9
$DIMPOST
  1

  9
$DIMAPOST
  1

  9
$DIMALT
 70
     0
  9
$DIMALTD
 70
     2
  9
$DIMALTF
 40
25.4
  9
$DIMLFAC
 40
1.0
  9
$DIMTOFL
 70
     1
  9
$DIMTVP
 40
0.0
  9
$DIMTIX
 70
     0
  9
$DIMSOXD
 70
     0
  9
$DIMSAH
 70
     0
  9
$DIMBLK1
  1

  9
$DIMBLK2
  1

  9
$DIMSTYLE
  2
STANDARD
  9
$DIMCLRD
 70
   256
  9
$DIMCLRE
 70
   256
  9
$DIMCLRT
 70
   256
  9
$DIMTFAC
 40
0.6
  9
$DIMGAP
 40
0.8
  9
$DIMJUST
 70
     0
  9
$DIMSD1
 70
     0
  9
$DIMSD2
 70
     0
  9
$DIMTOLJ
 70
     1
  9
$DIMTZIN
 70
     8
  9
$DIMALTZ
 70
     0
  9
$DIMALTTZ
 70
     0
  9
$DIMUPT
 70
     0
  9
$DIMDEC
 70
     2
  9
$DIMTDEC
 70
     2
  9
$DIMALTU
 70
     2
  9
$DIMALTTD
 70
     2
  9
$DIMTXSTY
  7
CHINESET
  9
$DIMAUNIT
 70
     0
  9
$DIMADEC
 70
     0
  9
$DIMALTRND
 40
0.0
  9
$DIMAZIN
 70
     2
  9
$DIMDSEP
 70
    46
  9
$DIMATFIT
 70
     3
  9
$DIMFRAC
 70
     0
  9
$DIMLDRBLK
  1

  9
$DIMLUNIT
 70
     2
  9
$DIMLWD
 70
    -1
  9
$DIMLWE
 70
    -1
  9
$DIMTMOVE
 70
     0
  9
$LUNITS
 70
     2
  9
$LUPREC
 70
     2
  9
$SKETCHINC
 40
1.0
  9
$FILLETRAD
 40
2.5
  9
$AUNITS
 70
     0
  9
$AUPREC
 70
     0
  9
$MENU
  1
.
  9
$ELEVATION
 40
0.0
  9
$PELEVATION
 40
0.0
  9
$THICKNESS
 40
0.0
  9
$LIMCHECK
 70
     0
  9
$CHAMFERA
 40
1.5
  9
$CHAMFERB
 40
1.5
  9
$CHAMFERC
 40
20.0
  9
$CHAMFERD
 40
0.0
  9
$SKPOLY
 70
     0
  9
$TDCREATE
 40
2452691.454954444
  9
$TDUCREATE
 40
2452691.121621111
  9
$TDUPDATE
 40
2454664.402393657
  9
$TDUUPDATE
 40
2454664.069060324
  9
$TDINDWG
 40
0.0986177546
  9
$TDUSRTIMER
 40
0.0986176389
  9
$USRTIMER
 70
     1
  9
$ANGBASE
 50
0.0
  9
$ANGDIR
 70
     0
  9
$PDMODE
 70
     0
  9
$PDSIZE
 40
0.0
  9
$PLINEWID
 40
0.0
  9
$SPLFRAME
 70
     0
  9
$SPLINETYPE
 70
     6
  9
$SPLINESEGS
 70
     8
  9
$HANDSEED
  5
3601
  9
$SURFTAB1
 70
     6
  9
$SURFTAB2
 70
     6
  9
$SURFTYPE
 70
     6
  9
$SURFU
 70
     6
  9
$SURFV
 70
     6
  9
$UCSBASE
  2

  9
$UCSNAME
  2

  9
$UCSORG
 10
0.0
 20
0.0
 30
0.0
  9
$UCSXDIR
 10
1.0
 20
0.0
 30
0.0
  9
$UCSYDIR
 10
0.0
 20
1.0
 30
0.0
  9
$UCSORTHOREF
  2

  9
$UCSORTHOVIEW
 70
     0
  9
$UCSORGTOP
 10
0.0
 20
0.0
 30
0.0
  9
$UCSORGBOTTOM
 10
0.0
 20
0.0
 30
0.0
  9
$UCSORGLEFT
 10
0.0
 20
0.0
 30
0.0
  9
$UCSORGRIGHT
 10
0.0
 20
0.0
 30
0.0
  9
$UCSORGFRONT
 10
0.0
 20
0.0
 30
0.0
  9
$UCSORGBACK
 10
0.0
 20
0.0
 30
0.0
  9
$PUCSBASE
  2

  9
$PUCSNAME
  2

  9
$PUCSORG
 10
0.0
 20
0.0
 30
0.0
  9
$PUCSXDIR
 10
1.0
 20
0.0
 30
0.0
  9
$PUCSYDIR
 10
0.0
 20
1.0
 30
0.0
  9
$PUCSORTHOREF
  2

  9
$PUCSORTHOVIEW
 70
     0
  9
$PUCSORGTOP
 10
0.0
 20
0.0
 30
0.0
  9
$PUCSORGBOTTOM
 10
0.0
 20
0.0
 30
0.0
  9
$PUCSORGLEFT
 10
0.0
 20
0.0
 30
0.0
  9
$PUCSORGRIGHT
 10
0.0
 20
0.0
 30
0.0
  9
$PUCSORGFRONT
 10
0.0
 20
0.0
 30
0.0
  9
$PUCSORGBACK
 10
0.0
 20
0.0
 30
0.0
  9
$USERI1
 70
     0
  9
$USERI2
 70
     0
  9
$USERI3
 70
     0
  9
$USERI4
 70
     0
  9
$USERI5
 70
     0
  9
$USERR1
 40
0.0
  9
$USERR2
 40
0.0
  9
$USERR3
 40
0.0
  9
$USERR4
 40
0.0
  9
$USERR5
 40
0.0
  9
$WORLDVIEW
 70
     1
  9
$SHADEDGE
 70
     3
  9
$SHADEDIF
 70
    70
  9
$TILEMODE
 70
     1
  9
$MAXACTVP
 70
    48
  9
$PINSBASE
 10
0.0
 20
0.0
 30
0.0
  9
$PLIMCHECK
 70
     0
  9
$PEXTMIN
 10
26.80208481208632
 20
60.62932117531272
 30
-0.0000000000000153
  9
$PEXTMAX
 10
155.7606180029584
 20
204.40991305297
 30
0.0
  9
$PLIMMIN
 10
-3.757083177566528
 20
-14.7637300491333
  9
$PLIMMAX
 10
206.2162444591522
 20
282.2045927047729
  9
$UNITMODE
 70
     0
  9
$VISRETAIN
 70
     1
  9
$PLINEGEN
 70
     0
  9
$PSLTSCALE
 70
     1
  9
$TREEDEPTH
 70
  3020
  9
$CMLSTYLE
  2
Standard
  9
$CMLJUST
 70
     0
  9
$CMLSCALE
 40
20.0
  9
$PROXYGRAPHICS
 70
     1
  9
$MEASUREMENT
 70
     1
  9
$CELWEIGHT
370
    -1
  9
$ENDCAPS
280
     0
  9
$JOINSTYLE
280
     0
  9
$LWDISPLAY
290
     0
  9
$INSUNITS
 70
     4
  9
$HYPERLINKBASE
  1

  9
$STYLESHEET
  1
彩色出圖.ctb
  9
$XEDIT
290
     1
  9
$CEPSNTYPE
380
     0
  9
$PSTYLEMODE
290
     1
  9
$FINGERPRINTGUID
  2
{F78C675B-544A-4F03-A4D5-203705509F9E}
  9
$VERSIONGUID
  2
{F64BF457-3C3B-46AC-AA46-9819CC5A19C1}
  9
$EXTNAMES
290
     1
  9
$PSVPSCALE
 40
0.0
  9
$OLESTARTUP
290
     0
  0
ENDSEC
  0
SECTION
  2
CLASSES
  0
CLASS
  1
ACDBDICTIONARYWDFLT
  2
AcDbDictionaryWithDefault
  3
ObjectDBX Classes
 90
        0
280
     0
281
     0
  0
CLASS
  1
ACDBPLACEHOLDER
  2
AcDbPlaceHolder
  3
ObjectDBX Classes
 90
        0
280
     0
281
     0
  0
CLASS
  1
LAYOUT
  2
AcDbLayout
  3
ObjectDBX Classes
 90
        0
280
     0
281
     0
  0
CLASS
  1
AMGSETTINGSOBJ
  2
AmgSettingsObj
  3
"AcadM|Product Description: AutoCAD Mechanical 2000|Company: Autodesk"
 90
        0
280
     0
281
     0
  0
CLASS
  1
ACME_DOCUMENT
  2
AcMeDbDoc
  3
AcMeServices
 90
        0
280
     0
281
     0
  0
CLASS
  1
ACMESCOPE
  2
AcMeScope
  3
AcMeServices
 90
        0
280
     0
281
     0
  0
CLASS
  1
ACMECOMMANDHISTORY
  2
AcMeCommandHistory
  3
AcMeServices
 90
        0
280
     0
281
     0
  0
CLASS
  1
ACIMSYSVARMAN
  2
AcImSysVarManager
  3
AcMeServices
 90
        0
280
     0
281
     0
  0
CLASS
  1
ACIMREALSYSVAR
  2
AcImRealSysVar
  3
AcMeServices
 90
        0
280
     0
281
     0
  0
CLASS
  1
ACIMINTSYSVAR
  2
AcImIntSysVar
  3
AcMeServices
 90
        0
280
     0
281
     0
  0
CLASS
  1
ACMEDRAWINGMAN
  2
AcMeDrawingMan
  3
AcMeServices
 90
        0
280
     0
281
     0
  0
CLASS
  1
ACMEVIEW
  2
AcMeView
  3
AcMeServices
 90
        0
280
     0
281
     0
  0
CLASS
  1
ACDBENTITYCACHE
  2
AcMeEntityCache
  3
AcMeServices
 90
        0
280
     0
281
     0
  0
CLASS
  1
GSMANAGER
  2
AcMeGSManager
  3
AcMeServices
 90
        0
280
     0
281
     0
  0
CLASS
  1
AMDTINTERNALREACTOR
  2
AmdtInternalReactor
  3
AcMeServices
 90
        0
280
     0
281
     0
  0
CLASS
  1
ACMESTATEMGR
  2
AcMeStateMgr
  3
AcMeServices
 90
        0
280
     0
281
     0
  0
CLASS
  1
ACGREFMASTER
  2
AcGrefMaster
  3
AcAttribServices
 90
        0
280
     0
281
     0
  0
CLASS
  1
AM_DRAWING_MGR
  2
AcDmDwgMgr
  3
AcMechDwgViewMgmt
 90
        0
280
     0
281
     0
  0
CLASS
  1
AM_DWG_DOCUMENT
  2
AcDmDwgDocument
  3
AcMechDwgViewMgmt
 90
        0
280
     0
281
     0
  0
CLASS
  1
AM_DWG_SHEET
  2
AcDmSheet
  3
AcMechDwgViewMgmt
 90
        0
280
     0
281
     0
  0
CLASS
  1
AM_VIEWDIMPARMAP
  2
AcDmViewDimParMap
  3
AcMechDwgViewMgmt
 90
        0
280
     0
281
     0
  0
CLASS
  1
AM_DWGMGR_NAME
  2
AcDmDwgMgrName
  3
AcMechDwgViewMgmt
 90
        0
280
     0
281
     0
  0
CLASS
  1
ACME_DATABASE
  2
AcMeDbDatabase
  3
AcMeServices
 90
        0
280
     0
281
     0
  0
CLASS
  1
ACRFINSADJUSTERMGR
  2
AcRfInsAdjusterMgr
  3
AcMeServices
 90
        0
280
     0
281
     0
  0
CLASS
  1
ACGREFACADMASTER
  2
AcGrefacadMaster
  3
AcGrefServices
 90
        0
280
     0
281
     0
  0
CLASS
  1
AMDTMENUSTATEMGR
  2
AmdtMenuStateMgr
  3
McadcomServices
 90
        0
280
     0
281
     0
  0
CLASS
  1
AMDTMCOMMENUSTATE
  2
AmdtMcomMenuState
  3
McadcomServices
 90
        0
280
     0
281
     0
  0
CLASS
  1
AMIMASTER
  2
AmiMaster
  3
AmiServices
 90
        0
280
     0
281
     0
  0
CLASS
  1
ASAPP
  2
AcAsAppObject
  3
AutoSurfServices
 90
    32768
280
     0
281
     0
  0
CLASS
  1
IM_STATIC_MAN
  2
AcImStaticVarManager
  3
AcMeServices
 90
    32768
280
     0
281
     0
  0
CLASS
  1
ACIMSTRSYSVAR
  2
AcImStrSysVar
  3
AcMeServices
 90
        0
280
     0
281
     0
  0
CLASS
  1
ACIMDBLSTATICVAR
  2
AcImDblStaticVar
  3
AcMeServices
 90
    32768
280
     0
281
     0
  0
CLASS
  1
ACIMSTRSTATICVAR
  2
AcImStrStaticVar
  3
AcMeServices
 90
    32768
280
     0
281
     0
  0
CLASS
  1
ACIMINTSTATICVAR
  2
AcImIntStaticVar
  3
AcMeServices
 90
    32768
280
     0
281
     0
  0
CLASS
  1
ACASGREFMASTER
  2
AcAsGrefMaster
  3
AutoSurfResolverServices
 90
    32768
280
     0
281
     0
  0
CLASS
  1
ACADGREFMODULE
  2
AcAdGrefModule
  3
AdGrefServices
 90
    32768
280
     0
281
     0
  0
CLASS
  1
AMDTMAPISURFMOUDULE
  2
AmdtMApiSurfModule
  3
MApiSurfServices
 90
    32768
280
     0
281
     0
  0
CLASS
  1
MAPIAMMOUDLE
  2
MApiAmModule
  3
MApiAmServices
 90
        0
280
     0
281
     0
  0
CLASS
  1
AMDTADMENUSTATE
  2
AmdtAdMenuState
  3
DesignerServices
 90
        0
280
     0
281
     0
  0
CLASS
  1
ADAPPL
  2
AcAdAppl
  3
DesignerServices
 90
        0
280
     0
281
     0
  0
CLASS
  1
DEPMGR
  2
AcAdDepMgr
  3
DesignerServices
 90
        0
280
     0
281
     0
  0
CLASS
  1
PARAMMGR
  2
AcAdParamMgr
  3
DesignerServices
 90
        0
280
     0
281
     0
  0
CLASS
  1
PARAMSCOPE
  2
AcAdParamScope
  3
DesignerServices
 90
        0
280
     0
281
     0
  0
CLASS
  1
NAMEDAPPL
  2
AcAdNamedAppl
  3
DesignerServices
 90
        0
280
     0
281
     0
  0
CLASS
  1
AMDTDMMENUSTATE
  2
AmdtDmMenuState
  3
AcMechDwgViewMgmt
 90
        0
280
     0
281
     0
  0
CLASS
  1
MAPIADMODULE
  2
MApiAdModule
  3
MApiAdServices
 90
    32768
280
     0
281
     0
  0
CLASS
  1
AMDTAMMENUSTATE
  2
AmdtAmMenuState
  3
DesignerAssemblies
 90
        0
280
     0
281
     0
  0
CLASS
  1
ACAMPROJECT
  2
AcAmProject
  3
DesignerAssemblies
 90
        0
280
     0
281
     0
  0
CLASS
  1
ACAMCOMPDEFMGR
  2
AcAmCompDefMgr
  3
DesignerAssemblies
 90
        0
280
     0
281
     0
  0
CLASS
  1
AMCONTEXTMGR
  2
AcAmContextMgr
  3
DesignerAssemblies
 90
        0
280
     0
281
     0
  0
CLASS
  1
ACAMCONTEXTPARTMODELER
  2
AcAmContextPartModeler
  3
DesignerAssemblies
 90
    32768
280
     0
281
     0
  0
CLASS
  1
ACMDATADICTIONARY
  2
AcmDataDictionary
  3
"AcmSymBB|Product Description: AutoCAD Mechanical 2004 DX|Company: Autodesk"
 90
        0
280
     0
281
     0
  0
CLASS
  1
ACMDATAENTRYBLOCK
  2
AcmDataEntryBlock
  3
"AcmSymBB|Product Description: AutoCAD Mechanical 2004 DX|Company: Autodesk"
 90
    32768
280
     0
281
     0
  0
CLASS
  1
ACMSTANDARDISO
  2
AcmStandardISO
  3
"Amdt_StdImp|Product Description: AutoCAD Mechanical 2004 DX|Company: Autodesk"
 90
        0
280
     0
281
     0
  0
CLASS
  1
AMGOBJPROPCFG
  2
AmgObjPropCfg
  3
"AmgLay|Product Description: AutoCAD Mechanical 2000|Company: Autodesk"
 90
        1
280
     0
281
     0
  0
CLASS
  1
AMDTEDGESTANDARDISO
  2
AmdtEdgeStdISO
  3
"Amdt_StdImp|Product Description: AutoCAD Mechanical 2004 DX|Company: Autodesk"
 90
    32768
280
     0
281
     0
  0
CLASS
  1
ACMSURFSTANDARDISO
  2
AcmSurfTextStdISO
  3
"Amdt_StdImp|Product Description: AutoCAD Mechanical 2004 DX|Company: Autodesk"
 90
        0
280
     0
281
     0
  0
CLASS
  1
ACMFCFSTANDARDISO
  2
AcmFCFStdISO
  3
"Amdt_StdImp|Product Description: AutoCAD Mechanical 2004 DX|Company: Autodesk"
 90
        0
280
     0
281
     0
  0
CLASS
  1
ACMWELDSTANDARDISO
  2
AcmWeldingStdISO
  3
"Amdt_StdImp|Product Description: AutoCAD Mechanical 2004 DX|Company: Autodesk"
 90
        0
280
     0
281
     0
  0
CLASS
  1
ACMIDSTANDARDISO
  2
AcmIdStdISO
  3
"Amdt_StdImp|Product Description: AutoCAD Mechanical 2004 DX|Company: Autodesk"
 90
        0
280
     0
281
     0
  0
CLASS
  1
ACMDATUMSTANDARDISO
  2
AcmDatumStdISO
  3
"Amdt_StdImp|Product Description: AutoCAD Mechanical 2004 DX|Company: Autodesk"
 90
        0
280
     0
281
     0
  0
CLASS
  1
ACMBOMSTANDARDISO
  2
AcmBOMStdISO
  3
"Amdt_StdImp|Product Description: AutoCAD Mechanical 2004 DX|Company: Autodesk"
 90
        0
280
     0
281
     0
  0
CLASS
  1
ACMDETAILSTANDARDISO
  2
AmdtDetailSymStdISO
  3
"Amdt_StdImp|Product Description: AutoCAD Mechanical 2004 DX|Company: Autodesk"
 90
        0
280
     0
281
     0
  0
CLASS
  1
ACMSECTIONSTANDARDISO
  2
AmdtSectionSymStdISO
  3
"Amdt_StdImp|Product Description: AutoCAD Mechanical 2004 DX|Company: Autodesk"
 90
        0
280
     0
281
     0
  0
CLASS
  1
ACMCENTERLINESTANDARDISO
  2
AmdtCenterLineStdISO
  3
"Amdt_StdImp|Product Description: AutoCAD Mechanical 2004 DX|Company: Autodesk"
 90
        0
280
     0
281
     0
  0
CLASS
  1
ACMTHREADLINESTANDARDISO
  2
AmdtThreadLineStdISO
  3
"Amdt_StdImp|Product Description: AutoCAD Mechanical 2004 DX|Company: Autodesk"
 90
        0
280
     0
281
     0
  0
CLASS
  1
ACMNOTESTANDARDISO
  2
AmdtNoteStdISO
  3
"Amdt_StdImp|Product Description: AutoCAD Mechanical 2004 DX|Company: Autodesk"
 90
        0
280
     0
281
     0
  0
CLASS
  1
ACAMGLAYSTD
  2
AcAmgLayStd
  3
"AcAmgLayStd|Product Description: AutoCAD Mechanical 2000|Company: Autodesk"
 90
        0
280
     0
281
     0
  0
CLASS
  1
ACAMGDIMSTD
  2
AcAmgDimStd
  3
"AcAmgDimStd|Product Description: AutoCAD Mechanical 2000|Company: Autodesk"
 90
        0
280
     0
281
     0
  0
CLASS
  1
ACAMGHOLECHARTSTDISO
  2
AcAmgHoleChartStdISO
  3
ACMSYMBB_MODULE_NAME
 90
        0
280
     0
281
     0
  0
CLASS
  1
ACAMGTITLESTD
  2
AcAmgTitleStd
  3
"TITLEAPP"
 90
        0
280
     0
281
     0
  0
CLASS
  1
CATALOGSTATE
  2
AcAmCatalogState
  3
DesignerAssemblies
 90
        0
280
     0
281
     0
  0
CLASS
  1
ACAMGRCOMPDEFSET
  2
AcAmGrCompDefSet
  3
DesignerAssemblies
 90
        0
280
     0
281
     0
  0
CLASS
  1
AMDTBROWSERDBTAB
  2
AmdtBrowserDbTab
  3
McadcomServices
 90
        0
280
     0
281
     0
  0
CLASS
  1
CBROWSERAPPOBJECT
  2
CBrowserAppObject
  3
McadcomServices
 90
        0
280
     0
281
     0
  0
CLASS
  1
DM_PLACEHOLDER
  2
AcDmSelsetPlaceholder
  3
AcMechDwgViewMgmt
 90
        0
280
     0
281
     0
  0
CLASS
  1
ACAMGFILTERDAT
  2
AcAmgFilterDat
  3
"AcadM|Product Description: AutoCAD Mechanical 2000|Company: Autodesk"
 90
    32768
280
     0
281
     0
  0
CLASS
  1
LAYER_INDEX
  2
AcDbLayerIndex
  3
ObjectDBX Classes
 90
        0
280
     0
281
     0
  0
CLASS
  1
IDBUFFER
  2
AcDbIdBuffer
  3
ObjectDBX Classes
 90
        0
280
     0
281
     0
  0
CLASS
  1
DICTIONARYVAR
  2
AcDbDictionaryVar
  3
ObjectDBX Classes
 90
        0
280
     0
281
     0
  0
CLASS
  1
ACAMGRCOMPDEF
  2
AcAmGrCompDef
  3
DesignerAssemblies
 90
        0
280
     0
281
     0
  0
CLASS
  1
ACCMCONTEXT
  2
AcCmContext
  3
DesignerAssemblies
 90
        0
280
     0
281
     0
  0
CLASS
  1
ACAMCOMPDEF
  2
AcAmCompDef
  3
DesignerAssemblies
 90
        0
280
     0
281
     0
  0
CLASS
  1
ADPART
  2
AcAdPart
  3
DesignerServices
 90
    32768
280
     0
281
     1
  0
CLASS
  1
ADBASE
  2
AcAdBase
  3
DesignerServices
 90
    32768
280
     0
281
     0
  0
CLASS
  1
BODYID
  2
AcAdBodyId
  3
DesignerServices
 90
    32768
280
     0
281
     0
  0
CLASS
  1
WORKPLANEDISPLAYMGR
  2
AcAdDisplayMgr
  3
DesignerServices
 90
    32768
280
     0
281
     0
  0
CLASS
  1
ACCMBODY
  2
AcCmBody
  3
DesignerAssemblies
 90
    32768
280
     0
281
     0
  0
CLASS
  1
ACAMCOMPENT
  2
AcAmCompEnt
  3
DesignerAssemblies
 90
    32768
280
     0
281
     1
  0
CLASS
  1
ACAMCOMPFEEDBACK
  2
AcAmCompFeedback
  3
DesignerAssemblies
 90
    32768
280
     0
281
     0
  0
CLASS
  1
ACAMGROUNDEDBASECOMP
  2
AcAmGroundedBaseComp
  3
DesignerAssemblies
 90
    32768
280
     0
281
     0
  0
CLASS
  1
ACAMCOMPENTCLONE
  2
AcAmCompEntClone
  3
DesignerAssemblies
 90
    32768
280
     0
281
     1
  0
CLASS
  1
ACAMCLONEREACTOR
  2
AcAmGrCompCloneReactor
  3
DesignerAssemblies
 90
    32768
280
     0
281
     0
  0
CLASS
  1
ADDATUMPLANEABS
  2
AcAdDatumPlaneAbs
  3
DesignerServices
 90
    32768
280
     0
281
     0
  0
CLASS
  1
ADDATUMAXISABS
  2
AcAdDatumAxisAbs
  3
DesignerServices
 90
    32768
280
     0
281
     0
  0
CLASS
  1
ADDATUMORIENTEDPLANE
  2
AcAdDatumOrientedPlane
  3
DesignerServices
 90
    32768
280
     0
281
     0
  0
CLASS
  1
ACAD_LINE
  2
AcAdLine
  3
DesignerServices
 90
    32768
280
     0
281
     1
  0
CLASS
  1
ACADLINEACAD
  2
AcAdVirtualBoundedLineAcad
  3
DesignerServices
 90
    32768
280
     0
281
     0
  0
CLASS
  1
ACADREFLINEACAD
  2
AcAdVirtualReferenceLine
  3
DesignerServices
 90
    32768
280
     0
281
     0
  0
CLASS
  1
ACADCONSLINE
  2
AcAdConstrainedLine
  3
DesignerServices
 90
    32768
280
     0
281
     0
  0
CLASS
  1
ACADCONSGROUP
  2
AcAdConstraintGroup
  3
DesignerServices
 90
    32768
280
     0
281
     0
  0
CLASS
  1
ACADIMPPTACAD
  2
AcAdVirtualImplicitPoint
  3
DesignerServices
 90
    32768
280
     0
281
     0
  0
CLASS
  1
ACADCONSPOINT
  2
AcAdConstrainedPoint
  3
DesignerServices
 90
    32768
280
     0
281
     0
  0
CLASS
  1
ADPCURCNS
  2
AcAdPointCurveConstr
  3
DesignerServices
 90
    32768
280
     0
281
     0
  0
CLASS
  1
ADVERCNS
  2
AcAdVerticalConstr
  3
DesignerServices
 90
    32768
280
     0
281
     0
  0
CLASS
  1
ADHORCNS
  2
AcAdHorizontalConstr
  3
DesignerServices
 90
    32768
280
     0
281
     0
  0
CLASS
  1
ADCLPROF2D
  2
AcAdClosedProfile2d
  3
DesignerServices
 90
    32768
280
     0
281
     0
  0
CLASS
  1
ACAD_FIXCONSTRAINT
  2
AcAdFixedConstraint
  3
DesignerServices
 90
    32768
280
     0
281
     0
  0
CLASS
  1
AMDTFORMULAUPDATEDISPATCHER
  2
AmdtFormulaUpdateDispatcher
  3
AcMeServices
 90
    32768
280
     0
281
     0
  0
CLASS
  1
ADCONSDISP
  2
AcAdConstraintDisplay
  3
DesignerServices
 90
    32768
280
     0
281
     1
  0
CLASS
  1
ADCONSTDSP
  2
AcAdConstraintDisplayTag
  3
DesignerServices
 90
    32768
280
     0
281
     1
  0
CLASS
  1
PARAM
  2
AcAdParam
  3
DesignerServices
 90
    32768
280
     0
281
     0
  0
CLASS
  1
ADVDISTCNS
  2
AcAdVerticalDistanceConstr
  3
DesignerServices
 90
    32768
280
     0
281
     0
  0
CLASS
  1
ADHDISTCNS
  2
AcAdHorizontalDistanceConstr
  3
DesignerServices
 90
    32768
280
     0
281
     0
  0
CLASS
  1
ACMEROTATIONARROW
  2
AcImRotationArrowDisplay
  3
AcMeServices
 90
    32768
280
     0
281
     1
  0
CLASS
  1
ACADVOLFEATWITHTRIM
  2
AcAdVolFeatWithTrim
  3
DesignerServices
 90
    32768
280
     0
281
     0
  0
CLASS
  1
DEPEDGEFEATUREORDERING
  2
AcAdDepEdgeFeatureOrdering
  3
DesignerServices
 90
    32768
280
     0
281
     0
  0
CLASS
  1
DATUMAXISDISPLAY
  2
AcAdDatumAxisDisplay
  3
DesignerServices
 90
    32768
280
     0
281
     1
  0
CLASS
  1
ADDATUMAXISCENTER
  2
AcAdDatumAxisCenter
  3
DesignerServices
 90
    32768
280
     0
281
     0
  0
CLASS
  1
ADSURFGEOMID
  2
AcAdSurfGeomId
  3
DesignerServices
 90
    32768
280
     0
281
     0
  0
CLASS
  1
ACMEPOINT
  2
AcImPointDisplay
  3
AcMeServices
 90
    32768
280
     0
281
     1
  0
CLASS
  1
ADPLANEID
  2
AcAdPlaneId
  3
DesignerServices
 90
    32768
280
     0
281
     0
  0
CLASS
  1
ADDATUMPLANEFACE
  2
AcAdDatumPlaneFace
  3
DesignerServices
 90
    32768
280
     0
281
     0
  0
CLASS
  1
ADDATUMPOINTAXISPLANE
  2
AcAdDatumPointAxisPlane
  3
DesignerServices
 90
    32768
280
     0
281
     0
  0
CLASS
  1
ADHOLEFEAT
  2
AcAdHoleFeat
  3
DesignerServices
 90
    32768
280
     0
281
     0
  0
CLASS
  1
CIRREFID
  2
AcAdCircleRefId
  3
DesignerServices
 90
    32768
280
     0
281
     0
  0
CLASS
  1
ACADCIRCDEPID
  2
AcAdVirtualCircleDepId
  3
DesignerServices
 90
    32768
280
     0
281
     0
  0
CLASS
  1
ACADCONSCIRCLE
  2
AcAdConstrainedCircle
  3
DesignerServices
 90
    32768
280
     0
281
     0
  0
CLASS
  1
ADCTRPTCNS
  2
AcAdCenterPointConstr
  3
DesignerServices
 90
    32768
280
     0
281
     0
  0
CLASS
  1
AMDT_ALIGNED_DIM
  2
AmdtAlignedDimension
  3
AcMeServices
 90
    32768
280
     0
281
     1
  0
CLASS
  1
ACADBOUNDEDLINEDATUMID
  2
AcAdVirtualBoundedLineDatumId
  3
DesignerServices
 90
    32768
280
     0
281
     0
  0
CLASS
  1
AMDT_ORDINATE_DIM
  2
AmdtOrdinateDimension
  3
AcMeServices
 90
    32768
280
     0
281
     1
  0
CLASS
  1
EDGEID
  2
AcAdEdgeId
  3
DesignerServices
 90
    32768
280
     0
281
     0
  0
CLASS
  1
ADFILLET
  2
AcAdFillet
  3
DesignerServices
 90
    32768
280
     0
281
     0
  0
CLASS
  1
DATUMPLANEDISPLAY
  2
AcAdDatumPlaneDisplay
  3
DesignerServices
 90
    32768
280
     0
281
     1
  0
CLASS
  1
ADDATUMPLANEAXISPLANE
  2
AcAdDatumPlaneAxisPlane
  3
DesignerServices
 90
    32768
280
     0
281
     0
  0
CLASS
  1
ACMEPLINE
  2
AcImPlineDisplay
  3
AcMeServices
 90
    32768
280
     0
281
     1
  0
CLASS
  1
ACMELINEARARROW
  2
AcImLinearArrowDisplay
  3
AcMeServices
 90
    32768
280
     0
281
     1
  0
CLASS
  1
ACMETEXT
  2
AcImTextDisplay
  3
AcMeServices
 90
    32768
280
     0
281
     1
  0
CLASS
  1
ADDATUMPLANEOFFSET
  2
AcAdDatumPlaneOffset
  3
DesignerServices
 90
    32768
280
     0
281
     0
  0
CLASS
  1
ADCOLNCNS
  2
AcAdColinearConstr
  3
DesignerServices
 90
    32768
280
     0
281
     0
  0
CLASS
  1
STREFID
  2
AcAdStraightRefId
  3
DesignerServices
 90
    32768
280
     0
281
     0
  0
CLASS
  1
ACADLINEDEPID
  2
AcAdVirtualLineDepId
  3
DesignerServices
 90
    32768
280
     0
281
     0
  0
CLASS
  1
ADFEATUREDISPLAY
  2
AcImFeatureDisplay
  3
ACME_MODULE_NAME
 90
    32768
280
     0
281
     1
  0
CLASS
  1
ACMEAXIS
  2
AcImAxisDisplay
  3
AcMeServices
 90
    32768
280
     0
281
     1
  0
CLASS
  1
DEPEDGEPATTERNFEATURE
  2
AcAdDepEdgePatternFeature
  3
DesignerServices
 90
    32768
280
     0
281
     0
  0
CLASS
  1
ACADPATTNFEAT
  2
AcAdPatternFeat
  3
DesignerServices
 90
    32768
280
     0
281
     0
  0
CLASS
  1
ACADORDORIGPT
  2
AcAdOrdinateOriginPoint
  3
DesignerServices
 90
    32768
280
     0
281
     0
  0
CLASS
  1
ADORDBASECNS
  2
AcAdOrdinateBaseConstr
  3
DesignerServices
 90
    32768
280
     0
281
     0
  0
CLASS
  1
DEPEDGESECONDARYDEPID
  2
AcAdDepEdgeSecondaryDepId
  3
DesignerServices
 90
    32768
280
     0
281
     0
  0
CLASS
  1
DEPEDGEPATTERNINSTANCE
  2
AcAdDepEdgePatternInstance
  3
DesignerServices
 90
    32768
280
     0
281
     0
  0
CLASS
  1
AMACTIVEPARTSELECTFILTER
  2
AcDmActivePartViewEntFilter
  3
DesignerServices
 90
    32768
280
     0
281
     0
  0
CLASS
  1
AM_ABS_PLANE
  2
AcDmAbsPlnDef
  3
AcMechDwgViewMgmt
 90
    32768
280
     0
281
     0
  0
CLASS
  1
AM_ABS_AXIS
  2
AcDmAbsAxisDef
  3
AcMechDwgViewMgmt
 90
    32768
280
     0
281
     0
  0
CLASS
  1
AM_BASE_VIEW_ORIENT
  2
AcDmBaseViewOr
  3
AcMechDwgViewMgmt
 90
    32768
280
     0
281
     0
  0
CLASS
  1
AM_DWG_VIEWPORT
  2
AcDmViewport
  3
AcMechDwgViewMgmt
 90
    32768
280
     0
281
     0
  0
CLASS
  1
AM_VIEW_DISPLAY
  2
AcDmDwgViewDisplay
  3
AcMechDwgViewMgmt
 90
    32768
280
     0
281
     0
  0
CLASS
  1
AM_CLDFLTS
  2
AcDmClDflts
  3
AcMechDwgViewMgmt
 90
    32768
280
     0
281
     0
  0
CLASS
  1
AM_BASE_VIEW
  2
AcDmBaseView
  3
AcMechDwgViewMgmt
 90
    32768
280
     0
281
     0
  0
CLASS
  1
AM_ISO_VIEW_ORIENT
  2
AcDmIsoViewOr
  3
AcMechDwgViewMgmt
 90
    32768
280
     0
281
     0
  0
CLASS
  1
AM_ISO_VIEW
  2
AcDmIsoView
  3
AcMechDwgViewMgmt
 90
    32768
280
     0
281
     0
  0
CLASS
  1
AM_ORTHO_VIEW_ORIENT
  2
AcDmOrthoViewOr
  3
AcMechDwgViewMgmt
 90
    32768
280
     0
281
     0
  0
CLASS
  1
AM_ORTHO_VIEW
  2
AcDmOrthoView
  3
AcMechDwgViewMgmt
 90
    32768
280
     0
281
     0
  0
CLASS
  1
ACDMPARTVIEWDATA
  2
AcDmPartViewData
  3
AcMechDwgViewMgmt
 90
    32768
280
     0
281
     0
  0
CLASS
  1
ACDMDISPLAYATTRIBS
  2
AcDmDisplayAttribs
  3
AcMechDwgViewMgmt
 90
    32768
280
     0
281
     0
  0
CLASS
  1
ACDMBODYINSTANCEDATA
  2
AcDmBodyInstanceData
  3
AcMechDwgViewMgmt
 90
    32768
280
     0
281
     0
  0
CLASS
  1
ACDMVWEDLINE
  2
AcDmViewEdgeLine
  3
AcMechDwgViewMgmt
 90
    32768
280
     0
281
     1
  0
CLASS
  1
ACDMVWEDARC
  2
AcDmViewEdgeArc
  3
AcMechDwgViewMgmt
 90
    32768
280
     0
281
     1
  0
CLASS
  1
ACADSKETCHPOINTRES
  2
AcAdSketchPointRes
  3
DesignerServices
 90
    32768
280
     0
281
     0
  0
CLASS
  1
AM_VIEWDIMLINEAR
  2
AcDmViewDimLinear
  3
AcMechDwgViewMgmt
 90
    32768
280
     0
281
     0
  0
CLASS
  1
AMDTDMPARMAPDATA
  2
AmdtDmDimParMapData
  3
AcMechDwgViewMgmt
 90
    32768
280
     0
281
     0
  0
CLASS
  1
AM_ADLINCTRLINE
  2
AcAdLineCl
  3
DesignerServices
 90
    32768
280
     0
281
     0
  0
CLASS
  1
ACDMVWEDCIRC
  2
AcDmViewEdgeCircle
  3
AcMechDwgViewMgmt
 90
    32768
280
     0
281
     1
  0
CLASS
  1
AM_ADCIRCTRLINE
  2
AcAdBullsEyeCl
  3
DesignerServices
 90
    32768
280
     0
281
     0
  0
CLASS
  1
AD_CIRCTAPH
  2
AcAdTapHoleCircDisp
  3
DesignerServices
 90
    32768
280
     0
281
     0
  0
CLASS
  1
ACDMVIEWGEOM
  2
AcDmViewGeometry
  3
AcMechDwgViewMgmt
 90
    32768
280
     0
281
     1
  0
CLASS
  1
FACEID
  2
AcAdFaceId
  3
DesignerServices
 90
    32768
280
     0
281
     0
  0
CLASS
  1
ACADPARTPLANARFACERES
  2
AcAdPartPlanarFaceRes
  3
AdGrefServices
 90
    32768
280
     0
281
     0
  0
CLASS
  1
AM_GREF_PLANE
  2
AcDmGrefPlnDef
  3
AcMechDwgViewMgmt
 90
    32768
280
     0
281
     0
  0
CLASS
  1
ACADPARTLINEDGRES
  2
AcAdPartLinEdgRes
  3
AdGrefServices
 90
    32768
280
     0
281
     0
  0
CLASS
  1
AM_GREF_AXIS
  2
AcDmGrefAxisDef
  3
AcMechDwgViewMgmt
 90
    32768
280
     0
281
     0
  0
CLASS
  1
AMDTEXTERNALTHREAD
  2
AmdtExternalThreadFeat
  3
DesignerServices
 90
    32768
280
     0
281
     0
  0
CLASS
  1
THREADDISPLAY
  2
AcAdThreadDisplay
  3
DesignerServices
 90
    32768
280
     0
281
     1
  0
CLASS
  1
AD_LINETAPH
  2
AcAdTapHoleLineDisp
  3
DesignerServices
 90
    32768
280
     0
281
     0
  0
CLASS
  1
ADRADDISP
  2
AcAdRadiusDisplay
  3
DesignerServices
 90
    32768
280
     0
281
     1
  0
CLASS
  1
ACDBLINERES
  2
AcDbLineRes
  3
AcGrefServices
 90
    32768
280
     0
281
     0
  0
CLASS
  1
ACADPARTCONICALFACERES
  2
AcAdPartConicalFaceRes
  3
AdGrefServices
 90
    32768
280
     0
281
     0
  0
CLASS
  1
ACDMGREFEDIT
  2
AcDmViewEntityGeomrefEdit
  3
AcMechDwgViewMgmt
 90
    32768
280
     0
281
     0
  0
CLASS
  1
ACDMVIEWLINEDGERES
  2
AcDmViewLinEdgeRes
  3
AcMechDwgViewMgmt
 90
    32768
280
     0
281
     0
  0
CLASS
  1
SILEDGEID
  2
AcAdSilhouetteEdgeId
  3
DesignerServices
 90
    32768
280
     0
281
     0
  0
CLASS
  1
ACADPARTCYLINDERFACERES
  2
AcAdPartCylinderFaceRes
  3
AdGrefServices
 90
    32768
280
     0
281
     0
  0
CLASS
  1
CNRREFID
  2
AcAdCornerId
  3
DesignerServices
 90
    32768
280
     0
281
     0
  0
CLASS
  1
ACADPARTPOINTRES
  2
AcAdPartPointRes
  3
AdGrefServices
 90
    32768
280
     0
281
     0
  0
CLASS
  1
ACADPARTCIRCEDGRES
  2
AcAdPartCircEdgRes
  3
AdGrefServices
 90
    32768
280
     0
281
     0
  0
CLASS
  1
ACRFDMINSADJ
  2
AcRfDMInsAdjuster
  3
AcMechDwgViewMgmt
 90
    32768
280
     0
281
     0
  0
CLASS
  1
AM_VIEWDIMRADIUS
  2
AcDmViewDimRadius
  3
AcMechDwgViewMgmt
 90
    32768
280
     0
281
     0
  0
CLASS
  1
ACADPARTDATUMPLANERES
  2
AcAdPartDatumPlaneRes
  3
AdGrefServices
 90
    32768
280
     0
281
     0
  0
CLASS
  1
AM_FULLPLANESECTION
  2
AcDmFullPlaneSection
  3
AcMechDwgViewMgmt
 90
    32768
280
     0
281
     0
  0
CLASS
  1
AMDTSECTIONSYM
  2
AmdtSectionSym
  3
"AcmSymBB|Product Description: AutoCAD Mechanical 2004 DX|Company: Autodesk"
 90
    33791
280
     0
281
     1
  0
CLASS
  1
AM_VWNOTEADAPTER
  2
AcDmViewAnnotAdapter
  3
AcMechDwgViewMgmt
 90
    32768
280
     0
281
     0
  0
CLASS
  1
AMDTSECTIONSYMLABEL
  2
AmdtSectionSymLabel
  3
"AcmSymBB|Product Description: AutoCAD Mechanical 2004 DX|Company: Autodesk"
 90
    33791
280
     0
281
     1
  0
CLASS
  1
AMDTNOTE
  2
AmdtNote
  3
"AcmSymBB|Product Description: AutoCAD Mechanical 2004 DX|Company: Autodesk"
 90
    33791
280
     0
281
     1
  0
CLASS
  1
DIMASSOC
  2
AcDbDimAssoc
  3
"AcDbDimAssoc|Product Desc:     AcDim ARX App For Dimension|Company:          Autodesk, Inc.|WEB Address:      www.autodesk.com"
 90
        0
280
     0
281
     0
  0
CLASS
  1
TABLESTYLE
  2
AcDbTableStyle
  3
ObjectDBX Classes
 90
     2047
280
     0
281
     0
  0
CLASS
  1
ACAMCONTEXTMODELER
  2
AcAmContextModeler
  3
DesignerAssemblies
 90
        0
280
     0
281
     0
  0
CLASS
  1
AMDTEDGESTANDARDISO13715
  2
AmdtEdgeStdISO13715
  3
"Amdt_StdImp|Product Description: AutoCAD Mechanical 2004 DX|Company: Autodesk"
 90
        0
280
     0
281
     0
  0
CLASS
  1
AMDTNOTETEMPLATEDB
  2
AmdtNoteTemplateDB
  3
AMDT_STDIMP_MODULE_NAME
 90
        0
280
     0
281
     0
  0
CLASS
  1
ACRFATTGENMGR
  2
AcRfAttGeneralMgr
  3
AcAttribServices
 90
    32768
280
     0
281
     0
  0
CLASS
  1
ACMDIMBREAKPERSREACTOR
  2
AcmDimBreakPersReactor
  3
amgDimApp().moduleName()
 90
     1023
280
     0
281
     0
  0
ENDSEC
  0
SECTION
  2
TABLES
  0
TABLE
  2
VPORT
  5
1A
330
0
100
AcDbSymbolTable
 70
     3
  0
VPORT
  5
35FA
330
1A
100
AcDbSymbolTableRecord
100
AcDbViewportTableRecord
  2
*Active
 70
     0
 10
0.0
 20
0.0
 11
1.0
 21
1.0
 12
592.3656956372897
 22
-56.45177459642986
 13
0.0
 23
0.0
 14
2.5
 24
2.5
 15
10.0
 25
10.0
 16
0.0
 26
0.0
 36
1.0
 17
0.0
 27
0.0
 37
0.0
 40
170.3748616551103
 41
0.9354838709677418
 42
50.0
 43
0.0
 44
0.0
 50
0.0
 51
0.0
 71
     0
 72
   100
 73
     1
 74
     3
 75
     0
 76
     0
 77
     0
 78
     0
281
     0
 65
     0
110
0.0
120
0.0
130
0.0
111
1.0
121
0.0
131
0.0
112
0.0
122
1.0
132
0.0
 79
     0
146
0.0
  0
ENDTAB
  0
TABLE
  2
LTYPE
  5
15
330
0
100
AcDbSymbolTable
 70
    14
  0
LTYPE
  5
16
330
15
100
AcDbSymbolTableRecord
100
AcDbLinetypeTableRecord
  2
ByBlock
 70
     0
  3

 72
    65
 73
     0
 40
0.0
  0
LTYPE
  5
17
330
15
100
AcDbSymbolTableRecord
100
AcDbLinetypeTableRecord
  2
ByLayer
 70
     0
  3

 72
    65
 73
     0
 40
0.0
  0
LTYPE
  5
9
330
15
100
AcDbSymbolTableRecord
100
AcDbLinetypeTableRecord
  2
Continuous
 70
     0
  3
Solid line
 72
    65
 73
     0
 40
0.0
  0
LTYPE
  5
161
330
15
100
AcDbSymbolTableRecord
100
AcDbLinetypeTableRecord
  2
HIDDEN
 70
     0
  3
Hidden __ __ __ __ __ __ __ __ __ __ __ __ __ _
 72
    65
 73
     2
 40
9.524999999999998
 49
6.349999999999999
 74
     0
 49
-3.174999999999999
 74
     0
  0
LTYPE
  5
BF
330
15
100
AcDbSymbolTableRecord
100
AcDbLinetypeTableRecord
  2
AM_ISO08W050
 70
     0
  3
____ . ____ . ____ . ____ . ____ . ____ . ____
 72
    65
 73
     4
 40
18.0
 49
12.0
 74
     0
 49
-1.5
 74
     0
 49
3.0
 74
     0
 49
-1.5
 74
     0
  0
LTYPE
  5
1FD
330
15
100
AcDbSymbolTableRecord
100
AcDbLinetypeTableRecord
  2
AM_ISO02W050
 70
     0
  3
__ __ __ __ __ __ __ __ __ __ __ __ __ __ __
 72
    65
 73
     2
 40
7.5
 49
6.0
 74
     0
 49
-1.5
 74
     0
  0
LTYPE
  5
1FE
330
15
100
AcDbSymbolTableRecord
100
AcDbLinetypeTableRecord
  2
AM_ISO09W050
 70
     0
  3
_____ . . _____ . . _____ . . ____ .. ____
 72
    65
 73
     6
 40
22.5
 49
12.0
 74
     0
 49
-1.5
 74
     0
 49
3.0
 74
     0
 49
-1.5
 74
     0
 49
3.0
 74
     0
 49
-1.5
 74
     0
  0
LTYPE
  5
1FF
330
15
100
AcDbSymbolTableRecord
100
AcDbLinetypeTableRecord
  2
Amconstr
 70
     0
  3
_______________________
 72
    65
 73
     2
 40
9999.0
 49
9999.0
 74
     0
 49
0.0
 74
     0
  0
LTYPE
  5
200
330
15
100
AcDbSymbolTableRecord
100
AcDbLinetypeTableRecord
  2
AM_ISO08W050x2
 70
     0
  3
__ . __ . __ . __ . __ . __
 72
    65
 73
     4
 40
9.0
 49
6.0
 74
     0
 49
-0.75
 74
     0
 49
1.5
 74
     0
 49
-0.75
 74
     0
  0
LTYPE
  5
201
330
15
100
AcDbSymbolTableRecord
100
AcDbLinetypeTableRecord
  2
AM_ISO02W050x2
 70
     0
  3
 _ _ _ _ _ _ _ _ _ _ _ _
 72
    65
 73
     2
 40
3.75
 49
3.0
 74
     0
 49
-0.75
 74
     0
  0
LTYPE
  5
204
330
15
100
AcDbSymbolTableRecord
100
AcDbLinetypeTableRecord
  2
Amzigzag
 70
     0
  3
/\/-/\/-/\/-/\/-/\/-/\/
 72
    65
 73
     2
 40
11.0001
 49
0.0001
 74
     4
 75
   135
340
203
 46
0.04
 50
0.0
 44
0.0
 45
0.0
 49
-11.0
 74
     0
  0
LTYPE
  5
211
330
15
100
AcDbSymbolTableRecord
100
AcDbLinetypeTableRecord
  2
ACISOWELD
 70
     0
  3
_ _ _ _ _
 72
    65
 73
     2
 40
2.0
 49
2.0
 74
     0
 49
-1.0
 74
     0
  0
LTYPE
  5
212
330
15
100
AcDbSymbolTableRecord
100
AcDbLinetypeTableRecord
  2
ACISOTGB
 70
     0
  3
__ . . __ . .
 72
    65
 73
     6
 40
9.0
 49
4.0
 74
     0
 49
-1.0
 74
     0
 49
1.0
 74
     0
 49
-1.0
 74
     0
 49
1.0
 74
     0
 49
-1.0
 74
     0
  0
LTYPE
  5
213
330
15
100
AcDbSymbolTableRecord
100
AcDbLinetypeTableRecord
  2
ACISOTGL
 70
     0
  3
_ _ _ _ _
 72
    65
 73
     2
 40
3.0
 49
2.0
 74
     0
 49
-1.0
 74
     0
  0
LTYPE
  5
214
330
15
100
AcDbSymbolTableRecord
100
AcDbLinetypeTableRecord
  2
CENTER
 70
     0
  3
__ . __
 72
    65
 73
     4
 40
7.0
 49
4.0
 74
     0
 49
-1.0
 74
     0
 49
1.0
 74
     0
 49
-1.0
 74
     0
  0
LTYPE
  5
2325
330
15
100
AcDbSymbolTableRecord
100
AcDbLinetypeTableRecord
  2
PHANTOM2
 70
     0
  3
Phantom (.5x) ___ _ _ ___ _ _ ___ _ _ ___ _ _
 72
    65
 73
     6
 40
31.75
 49
15.875
 74
     0
 49
-3.174999999999999
 74
     0
 49
3.174999999999999
 74
     0
 49
-3.174999999999999
 74
     0
 49
3.174999999999999
 74
     0
 49
-3.174999999999999
 74
     0
  0
ENDTAB
  0
TABLE
  2
LAYER
  5
11
102
{ACAD_XDICTIONARY
360
2434
102
}
330
0
100
AcDbSymbolTable
 70
     8
  0
LAYER
  5
5
330
11
100
AcDbSymbolTableRecord
100
AcDbLayerTableRecord
  2
0
 70
     0
 62
     7
  6
Continuous
370
    -3
390
6
  0
LAYER
  5
3B
330
11
100
AcDbSymbolTableRecord
100
AcDbLayerTableRecord
  2
Defpoints
 70
     0
 62
     7
  6
Continuous
290
     0
370
    -3
390
6
  0
LAYER
  5
14E
330
11
100
AcDbSymbolTableRecord
100
AcDbLayerTableRecord
  2
AM_5
 70
     0
 62
     5
  6
Continuous
370
    50
390
6
  0
LAYER
  5
158
330
11
100
AcDbSymbolTableRecord
100
AcDbLayerTableRecord
  2
AM_VIS
 70
     0
 62
     7
  6
Continuous
370
    50
390
6
  0
LAYER
  5
32
330
11
100
AcDbSymbolTableRecord
100
AcDbLayerTableRecord
  2
AM_PARDIM
 70
     0
 62
     5
  6
Continuous
370
    50
390
6
  0
LAYER
  5
BE
330
11
100
AcDbSymbolTableRecord
100
AcDbLayerTableRecord
  2
AM_7
 70
     0
 62
     1
  6
AM_ISO08W050
370
    25
390
6
  0
LAYER
  5
11A7
330
11
100
AcDbSymbolTableRecord
100
AcDbLayerTableRecord
  2
LOGO
 70
     0
 62
     7
  6
Continuous
370
    -3
390
6
  0
LAYER
  5
242D
330
11
100
AcDbSymbolTableRecord
100
AcDbLayerTableRecord
  2
AM_REFDIM
 70
     0
 62
     5
  6
Continuous
370
    25
390
6
  0
ENDTAB
  0
TABLE
  2
STYLE
  5
12
330
0
100
AcDbSymbolTable
 70
     6
  0
STYLE
  5
13
330
12
100
AcDbSymbolTableRecord
100
AcDbTextStyleTableRecord
  2
STANDARD
 70
     0
 40
0.0
 41
1.0
 50
0.0
 71
     0
 42
2.5
  3
ISOCP.SHX
  4
CHINESET.SHX
  0
STYLE
  5
152
330
12
100
AcDbSymbolTableRecord
100
AcDbTextStyleTableRecord
  2
ACISOTS
 70
     0
 40
1.0
 41
1.0
 50
0.0
 71
     0
 42
2.5
  3
isocp.shx
  4
chineset.shx
  0
STYLE
  5
203
330
12
100
AcDbSymbolTableRecord
100
AcDbTextStyleTableRecord
  2

 70
     1
 40
0.0
 41
1.0
 50
0.0
 71
     0
 42
2.5
  3
ltypeshp.shx
  4

  0
STYLE
  5
210
330
12
100
AcDbSymbolTableRecord
100
AcDbTextStyleTableRecord
  2
ACISOGDT
 70
     0
 40
0.0
 41
1.0
 50
0.0
 71
     0
 42
2.5
  3
amgdt.shx
  4

  0
STYLE
  5
356
330
12
100
AcDbSymbolTableRecord
100
AcDbTextStyleTableRecord
  2
CHINESET
 70
     0
 40
0.0
 41
1.0
 50
0.0
 71
     0
 42
2.5
  3
simplex.shx
  4
CHINESET.shx
  0
STYLE
  5
357
330
12
100
AcDbSymbolTableRecord
100
AcDbTextStyleTableRecord
  2
CHINA
 70
     0
 40
0.0
 41
1.0
 50
0.0
 71
     0
 42
3.0
  3
/rubon/c2
  4
/rubon/china
  0
ENDTAB
  0
TABLE
  2
VIEW
  5
18
330
0
100
AcDbSymbolTable
 70
     0
  0
ENDTAB
  0
TABLE
  2
UCS
  5
19
330
0
100
AcDbSymbolTable
 70
     0
  0
ENDTAB
  0
TABLE
  2
APPID
  5
1C
330
0
100
AcDbSymbolTable
 70
    29
  0
APPID
  5
1D
330
1C
100
AcDbSymbolTableRecord
100
AcDbRegAppTableRecord
  2
ACAD
 70
     0
  0
APPID
  5
41
330
1C
100
AcDbSymbolTableRecord
100
AcDbRegAppTableRecord
  2
AD_SKETCHDIM
 70
     0
  0
APPID
  5
42
330
1C
100
AcDbSymbolTableRecord
100
AcDbRegAppTableRecord
  2
ACAD_DIMASSOC_DIMLFAC
 70
     0
  0
APPID
  5
40
330
1C
100
AcDbSymbolTableRecord
100
AcDbRegAppTableRecord
  2
ACAD_DIMASSOC_CALC_DIMLFAC
 70
     0
  0
APPID
  5
1DF
330
1C
100
AcDbSymbolTableRecord
100
AcDbRegAppTableRecord
  2
MCAD_NO_VIS
 70
     0
  0
APPID
  5
1E0
330
1C
100
AcDbSymbolTableRecord
100
AcDbRegAppTableRecord
  2
ACAD_TEMP_GRAPHIC
 70
     0
  0
APPID
  5
1F1
330
1C
100
AcDbSymbolTableRecord
100
AcDbRegAppTableRecord
  2
ACATTRIBSERVICES
 70
     0
  0
APPID
  5
CAF
330
1C
100
AcDbSymbolTableRecord
100
AcDbRegAppTableRecord
  2
GENIUS_GENODEF_13
 70
     0
  0
APPID
  5
CB0
330
1C
100
AcDbSymbolTableRecord
100
AcDbRegAppTableRecord
  2
GENIUS_GENOBJ-N-DIM_13
 70
     0
  0
APPID
  5
CBC
330
1C
100
AcDbSymbolTableRecord
100
AcDbRegAppTableRecord
  2
GENIUS_GENDIM_13
 70
     0
  0
APPID
  5
CDC
330
1C
100
AcDbSymbolTableRecord
100
AcDbRegAppTableRecord
  2
GENIUS_GENDIMSH_14
 70
     0
  0
APPID
  5
E3C
330
1C
100
AcDbSymbolTableRecord
100
AcDbRegAppTableRecord
  2
GENIUS_GENOBJ-N-HTC_13
 70
     0
  0
APPID
  5
E3D
330
1C
100
AcDbSymbolTableRecord
100
AcDbRegAppTableRecord
  2
GENIUS_GENHATCH_13
 70
     0
  0
APPID
  5
E59
330
1C
100
AcDbSymbolTableRecord
100
AcDbRegAppTableRecord
  2
DCO15
 70
     0
  0
APPID
  5
19D0
330
1C
100
AcDbSymbolTableRecord
100
AcDbRegAppTableRecord
  2
GENIUS_GENOREF_13
 70
     0
  0
APPID
  5
19D1
330
1C
100
AcDbSymbolTableRecord
100
AcDbRegAppTableRecord
  2
GENIUS_GENOENT_13
 70
     0
  0
APPID
  5
19D2
330
1C
100
AcDbSymbolTableRecord
100
AcDbRegAppTableRecord
  2
GENIUS_GENOLIS_13
 70
     0
  0
APPID
  5
19D3
330
1C
100
AcDbSymbolTableRecord
100
AcDbRegAppTableRecord
  2
GENIUS_GENOBJ-N-CRS_13
 70
     0
  0
APPID
  5
19D4
330
1C
100
AcDbSymbolTableRecord
100
AcDbRegAppTableRecord
  2
GENIUS_GENOBJ-N-CEN_13
 70
     0
  0
APPID
  5
2327
330
1C
100
AcDbSymbolTableRecord
100
AcDbRegAppTableRecord
  2
AD_DRAW
 70
     0
  0
APPID
  5
2345
330
1C
100
AcDbSymbolTableRecord
100
AcDbRegAppTableRecord
  2
DESIGNERASSEMBLIES
 70
     0
  0
APPID
  5
234A
330
1C
100
AcDbSymbolTableRecord
100
AcDbRegAppTableRecord
  2
ACADM_DIM_EDIT
 70
     0
  0
APPID
  5
234B
330
1C
100
AcDbSymbolTableRecord
100
AcDbRegAppTableRecord
  2
AMDT_DM_ADJ
 70
     0
  0
APPID
  5
2432
330
1C
100
AcDbSymbolTableRecord
100
AcDbRegAppTableRecord
  2
GENIUS_GENDTOL_13
 70
     0
  0
APPID
  5
2433
330
1C
100
AcDbSymbolTableRecord
100
AcDbRegAppTableRecord
  2
ACAD_PSEXT
 70
     0
  0
APPID
  5
2AA8
330
1C
100
AcDbSymbolTableRecord
100
AcDbRegAppTableRecord
  2
GENIUS_GENREC_14
 70
     0
  0
APPID
  5
2AA9
330
1C
100
AcDbSymbolTableRecord
100
AcDbRegAppTableRecord
  2
GENIUS_GENOBJ-N-REC_13
 70
     0
  0
APPID
  5
30D8
330
1C
100
AcDbSymbolTableRecord
100
AcDbRegAppTableRecord
  2
AcAecLayerStandard
 70
     0
  0
APPID
  5
32A7
330
1C
100
AcDbSymbolTableRecord
100
AcDbRegAppTableRecord
  2
ACAD_DSTYLE_DIMTEXT_FILL
 70
     0
  0
ENDTAB
  0
TABLE
  2
DIMSTYLE
  5
1E
330
0
100
AcDbSymbolTable
 70
     9
100
AcDbDimStyleTable
 71
     2
340
11AA
340
1F
  0
DIMSTYLE
105
1F
102
{ACAD_REACTORS
330
31
330
43
330
52
330
5F
330
6C
330
79
330
86
330
95
330
A3
330
B0
102
}
330
1E
100
AcDbSymbolTableRecord
100
AcDbDimStyleTableRecord
  2
AM_ISO
 70
     0
  4
"
 41
3.0
 42
2.0
 43
5.0
 44
1.5
 47
0.1
 48
0.1
 73
     0
 74
     0
 77
     1
 78
     8
 79
     2
140
3.0
141
0.0
143
0.0393701
146
0.71
147
1.0
172
     1
176
   256
177
   256
178
   256
271
     2
272
     2
283
     0
284
     8
340
357
371
    -1
372
    -1
  0
DIMSTYLE
105
217
102
{ACAD_REACTORS
330
2740
102
}
330
1E
100
AcDbSymbolTableRecord
100
AcDbDimStyleTableRecord
  2
AM_ISO$3
 70
     0
  4
"
 41
3.0
 42
2.0
 43
5.0
 44
1.5
 47
0.1
 48
0.1
 73
     0
 77
     1
 78
     8
 79
     2
140
3.0
141
0.0
143
0.0393701
146
0.71
147
1.0
176
   256
177
   256
178
   256
271
     2
272
     2
283
     0
284
     8
288
     1
289
     0
340
357
371
    -1
372
    -1
  0
DIMSTYLE
105
218
330
1E
100
AcDbSymbolTableRecord
100
AcDbDimStyleTableRecord
  2
AM_ISO$4
 70
     0
  4
"
 41
3.0
 42
2.0
 43
5.0
 44
1.5
 47
0.1
 48
0.1
 73
     0
 77
     1
 78
     8
 79
     2
140
3.0
141
0.0
143
0.0393701
146
0.71
147
1.0
176
   256
177
   256
178
   256
271
     2
272
     2
283
     0
284
     8
288
     1
289
     0
340
357
371
    -1
372
    -1
  0
DIMSTYLE
105
219
330
1E
100
AcDbSymbolTableRecord
100
AcDbDimStyleTableRecord
  2
AM_ISO$6
 70
     0
  4
"
 41
3.0
 42
2.0
 43
5.0
 44
1.5
 47
0.1
 48
0.1
 73
     0
 74
     0
 78
     8
 79
     2
140
3.0
141
0.0
143
0.0393701
146
0.71
147
1.0
172
     1
176
   256
177
   256
178
   256
271
     2
272
     2
283
     0
284
     8
340
357
371
    -1
372
    -1
  0
DIMSTYLE
105
21A
330
1E
100
AcDbSymbolTableRecord
100
AcDbDimStyleTableRecord
  2
AM_ISO$7
 70
     0
  4
"
 41
2.5
 42
2.0
 43
5.0
 44
1.5
 47
0.1
 48
0.1
 73
     0
 74
     0
 77
     1
 78
     8
 79
     2
140
5.0
141
0.0
143
0.0393701
146
0.71
147
1.5
172
     1
176
   256
177
   256
178
   256
271
     2
272
     2
283
     0
284
     8
340
357
371
    -1
372
    -1
  0
DIMSTYLE
105
21B
330
1E
100
AcDbSymbolTableRecord
100
AcDbDimStyleTableRecord
  2
AM_ISO$SF
 70
     0
  4
"
 41
3.0
 42
2.0
 43
5.0
 44
1.5
 47
0.1
 48
0.1
 73
     0
 74
     0
 75
     1
 76
     1
 77
     1
 78
     8
 79
     2
140
3.0
141
0.0
143
0.0393701
146
0.71
147
1.0
172
     1
176
   256
177
   256
178
     5
271
     2
272
     2
283
     0
284
     8
340
13
371
    -1
372
    -1
  0
DIMSTYLE
105
220
330
1E
100
AcDbSymbolTableRecord
100
AcDbDimStyleTableRecord
  2
AM_ISO$SH
 70
     0
  4
"
 41
3.0
 42
2.0
 43
5.0
 44
1.5
 47
0.1
 48
0.1
 73
     0
 74
     0
 75
     1
 76
     1
 77
     1
 78
     8
 79
     2
140
3.0
141
0.0
143
0.0393701
144
2.0
146
0.71
147
1.0
172
     1
173
     1
176
   256
177
   256
178
     5
271
     2
272
     2
283
     0
284
     8
340
13
341
21C
343
21C
371
    -1
372
    -1
  0
DIMSTYLE
105
11AA
102
{ACAD_REACTORS
330
26C8
330
2D2E
330
273E
330
273D
330
273B
330
273F
330
2FBD
330
2737
330
2738
330
273A
330
26E3
330
26E2
330
26E4
330
26E6
330
26E5
330
3283
102
}
330
1E
100
AcDbSymbolTableRecord
100
AcDbDimStyleTableRecord
  2
STANDARD
 70
     0
 40
0.7
 41
3.0
 42
1.0
 43
7.0
 44
1.0
 47
0.01
 48
0.01
 73
     0
 74
     0
 77
     1
 78
     8
 79
     2
140
3.0
141
0.0
146
0.6
147
0.8
172
     1
176
   256
177
   256
178
   256
271
     2
272
     2
284
     8
340
356
371
    -1
372
    -1
  0
DIMSTYLE
105
2431
330
1E
100
AcDbSymbolTableRecord
100
AcDbDimStyleTableRecord
  2
AM_ISO$0
 70
     0
  4
"
 41
3.0
 42
1.0
 43
7.0
 44
1.0
 47
0.1
 48
0.1
 73
     0
 74
     0
 77
     1
 78
     8
 79
     2
140
3.5
141
0.0
143
0.0393701
146
0.71
147
1.0
172
     1
176
   256
177
   256
178
   256
271
     2
272
     2
283
     0
284
     8
340
13
371
    -1
372
    -1
  0
ENDTAB
  0
TABLE
  2
BLOCK_RECORD
  5
1
330
0
100
AcDbSymbolTable
 70
    29
  0
BLOCK_RECORD
  5
2
102
{ACAD_XDICTIONARY
360
3
102
}
330
1
100
AcDbSymbolTableRecord
100
AcDbBlockTableRecord
  2
*Model_Space
340
B
  0
BLOCK_RECORD
  5
D
102
{ACAD_XDICTIONARY
360
1848
102
}
330
1
100
AcDbSymbolTableRecord
100
AcDbBlockTableRecord
  2
*Paper_Space
340
10
  0
BLOCK_RECORD
  5
21C
330
1
100
AcDbSymbolTableRecord
100
AcDbBlockTableRecord
  2
GENAXEH
340
0
  0
BLOCK_RECORD
  5
F83
330
1
100
AcDbSymbolTableRecord
100
AcDbBlockTableRecord
  2
*D1
340
0
  0
BLOCK_RECORD
  5
F8F
330
1
100
AcDbSymbolTableRecord
100
AcDbBlockTableRecord
  2
*D2
340
0
  0
BLOCK_RECORD
  5
F9D
330
1
100
AcDbSymbolTableRecord
100
AcDbBlockTableRecord
  2
*D3
340
0
  0
BLOCK_RECORD
  5
FA9
330
1
100
AcDbSymbolTableRecord
100
AcDbBlockTableRecord
  2
*D4
340
0
  0
BLOCK_RECORD
  5
FB5
330
1
100
AcDbSymbolTableRecord
100
AcDbBlockTableRecord
  2
*D5
340
0
  0
BLOCK_RECORD
  5
FC1
330
1
100
AcDbSymbolTableRecord
100
AcDbBlockTableRecord
  2
*D6
340
0
  0
BLOCK_RECORD
  5
FCD
330
1
100
AcDbSymbolTableRecord
100
AcDbBlockTableRecord
  2
*D7
340
0
  0
BLOCK_RECORD
  5
FDB
330
1
100
AcDbSymbolTableRecord
100
AcDbBlockTableRecord
  2
*D8
340
0
  0
BLOCK_RECORD
  5
FE8
330
1
100
AcDbSymbolTableRecord
100
AcDbBlockTableRecord
  2
*D9
340
0
  0
BLOCK_RECORD
  5
FF4
330
1
100
AcDbSymbolTableRecord
100
AcDbBlockTableRecord
  2
*D10
340
0
  0
BLOCK_RECORD
  5
2955
330
1
100
AcDbSymbolTableRecord
100
AcDbBlockTableRecord
  2
*D11
340
0
  0
BLOCK_RECORD
  5
2961
330
1
100
AcDbSymbolTableRecord
100
AcDbBlockTableRecord
  2
*D12
340
0
  0
BLOCK_RECORD
  5
296D
330
1
100
AcDbSymbolTableRecord
100
AcDbBlockTableRecord
  2
*D13
340
0
  0
BLOCK_RECORD
  5
2979
330
1
100
AcDbSymbolTableRecord
100
AcDbBlockTableRecord
  2
*D14
340
0
  0
BLOCK_RECORD
  5
2985
330
1
100
AcDbSymbolTableRecord
100
AcDbBlockTableRecord
  2
*D15
340
0
  0
BLOCK_RECORD
  5
2993
330
1
100
AcDbSymbolTableRecord
100
AcDbBlockTableRecord
  2
*D16
340
0
  0
BLOCK_RECORD
  5
299F
330
1
100
AcDbSymbolTableRecord
100
AcDbBlockTableRecord
  2
*D17
340
0
  0
BLOCK_RECORD
  5
29AB
330
1
100
AcDbSymbolTableRecord
100
AcDbBlockTableRecord
  2
*D18
340
0
  0
BLOCK_RECORD
  5
29C3
330
1
100
AcDbSymbolTableRecord
100
AcDbBlockTableRecord
  2
*D19
340
0
  0
BLOCK_RECORD
  5
29CF
330
1
100
AcDbSymbolTableRecord
100
AcDbBlockTableRecord
  2
*D20
340
0
  0
BLOCK_RECORD
  5
29E7
330
1
100
AcDbSymbolTableRecord
100
AcDbBlockTableRecord
  2
*D21
340
0
  0
BLOCK_RECORD
  5
29F3
330
1
100
AcDbSymbolTableRecord
100
AcDbBlockTableRecord
  2
*D22
340
0
  0
BLOCK_RECORD
  5
2A01
330
1
100
AcDbSymbolTableRecord
100
AcDbBlockTableRecord
  2
*D23
340
0
  0
BLOCK_RECORD
  5
2A0D
330
1
100
AcDbSymbolTableRecord
100
AcDbBlockTableRecord
  2
*D24
340
0
  0
BLOCK_RECORD
  5
2D2F
330
1
100
AcDbSymbolTableRecord
100
AcDbBlockTableRecord
  2
*D25
340
0
  0
BLOCK_RECORD
  5
2FBE
330
1
100
AcDbSymbolTableRecord
100
AcDbBlockTableRecord
  2
*D26
340
0
  0
BLOCK_RECORD
  5
3284
330
1
100
AcDbSymbolTableRecord
100
AcDbBlockTableRecord
  2
*D27
340
0
  0
ENDTAB
  0
ENDSEC
  0
SECTION
  2
BLOCKS
  0
BLOCK
  5
4
330
2
100
AcDbEntity
  8
0
100
AcDbBlockBegin
  2
*Model_Space
 70
     0
 10
0.0
 20
0.0
 30
0.0
  3
*Model_Space
  1

  0
ENDBLK
  5
A
330
2
100
AcDbEntity
  8
0
100
AcDbBlockEnd
  0
BLOCK
  5
E
330
D
100
AcDbEntity
 67
     1
  8
0
100
AcDbBlockBegin
  2
*Paper_Space
 70
     0
 10
0.0
 20
0.0
 30
0.0
  3
*Paper_Space
  1

  0
ENDBLK
  5
F
330
D
100
AcDbEntity
 67
     1
  8
0
100
AcDbBlockEnd
  0
BLOCK
  5
21E
330
21C
100
AcDbEntity
  8
0
100
AcDbBlockBegin
  2
GENAXEH
 70
     0
 10
0.0
 20
0.0
 30
0.0
  3
GENAXEH
  1

  0
LINE
  5
21D
330
21C
100
AcDbEntity
  8
0
100
AcDbLine
 10
-1.0
 20
0.0
 30
0.0
 11
1.0
 21
0.0
 31
0.0
  0
ENDBLK
  5
21F
330
21C
100
AcDbEntity
  8
0
100
AcDbBlockEnd
  0
BLOCK
  5
F8D
330
F83
100
AcDbEntity
  8
0
100
AcDbBlockBegin
  2
*D1
 70
     1
 10
0.0
 20
0.0
 30
0.0
  3
*D1
  1

  0
LINE
  5
F84
330
F83
100
AcDbEntity
  8
AM_PARDIM
100
AcDbLine
 10
77.37464887656421
 20
116.1938113892625
 30
0.0
 11
116.0325708695175
 21
116.1938113892625
 31
0.0
  0
LINE
  5
F85
330
F83
100
AcDbEntity
  8
AM_PARDIM
100
AcDbLine
 10
77.37464887656421
 20
128.6938113892625
 30
0.0
 11
116.0325708695175
 21
128.6938113892625
 31
0.0
  0
LINE
  5
F86
330
F83
100
AcDbEntity
  8
AM_PARDIM
100
AcDbLine
 10
114.5325708695175
 20
119.1938113892625
 30
0.0
 11
114.5325708695175
 21
125.6938113892625
 31
0.0
  0
SOLID
  5
F87
330
F83
100
AcDbEntity
  8
AM_PARDIM
100
AcDbTrace
 10
114.0325708695175
 20
119.1938113892625
 30
0.0
 11
115.0325708695175
 21
119.1938113892625
 31
0.0
 12
114.5325708695175
 22
116.1938113892625
 32
0.0
 13
114.5325708695175
 23
116.1938113892625
 33
0.0
  0
SOLID
  5
F88
330
F83
100
AcDbEntity
  8
AM_PARDIM
100
AcDbTrace
 10
114.0325708695175
 20
125.6938113892625
 30
0.0
 11
115.0325708695175
 21
125.6938113892625
 31
0.0
 12
114.5325708695175
 22
128.6938113892625
 32
0.0
 13
114.5325708695175
 23
128.6938113892625
 33
0.0
  0
MTEXT
  5
F89
330
F83
100
AcDbEntity
  8
AM_PARDIM
100
AcDbMText
 10
112.0244343865779
 20
122.4438113892625
 30
0.0
 40
3.0
 41
0.0
 71
     5
 72
     1
  1
12.5
  7
CHINA
 11
0.0000000000000001
 21
1.0
 31
0.0
 73
     1
 44
1.0
1001
ACAD
1000
MTEXTBEGIN
1070
    73
1070
     1
1070
    44
1040
1.0
1070
    74
1070
     0
1000
MTEXTEND
  0
POINT
  5
F8A
330
F83
100
AcDbEntity
  8
Defpoints
 62
     0
100
AcDbPoint
 10
75.37464887656421
 20
116.1938113892625
 30
0.0
  0
POINT
  5
F8B
330
F83
100
AcDbEntity
  8
Defpoints
 62
     0
100
AcDbPoint
 10
75.37464887656421
 20
128.6938113892625
 30
0.0
  0
POINT
  5
F8C
330
F83
100
AcDbEntity
  8
Defpoints
 62
     0
100
AcDbPoint
 10
114.5325708695175
 20
128.6938113892625
 30
0.0
  0
ENDBLK
  5
F8E
330
F83
100
AcDbEntity
  8
0
100
AcDbBlockEnd
  0
BLOCK
  5
F9B
330
F8F
100
AcDbEntity
  8
0
100
AcDbBlockBegin
  2
*D2
 70
     1
 10
0.0
 20
0.0
 30
0.0
  3
*D2
  1

  0
LINE
  5
F90
330
F8F
100
AcDbEntity
  8
AM_PARDIM
100
AcDbLine
 10
36.87464887656421
 20
116.1938113892625
 30
0.0
 11
25.37464887656421
 21
116.1938113892625
 31
0.0
  0
LINE
  5
F91
330
F8F
100
AcDbEntity
  8
AM_PARDIM
100
AcDbLine
 10
36.87464887656421
 20
122.1938113892625
 30
0.0
 11
25.37464887656421
 21
122.1938113892625
 31
0.0
  0
LINE
  5
F92
330
F8F
100
AcDbEntity
  8
AM_PARDIM
100
AcDbLine
 10
26.87464887656421
 20
113.1938113892625
 30
0.0
 11
26.87464887656421
 21
110.1938113892625
 31
0.0
  0
LINE
  5
F93
330
F8F
100
AcDbEntity
  8
AM_PARDIM
100
AcDbLine
 10
26.87464887656421
 20
125.1938113892625
 30
0.0
 11
26.87464887656421
 21
128.1938113892625
 31
0.0
  0
LINE
  5
F94
330
F8F
100
AcDbEntity
  8
AM_PARDIM
100
AcDbLine
 10
26.87464887656421
 20
116.1938113892625
 30
0.0
 11
26.87464887656421
 21
122.1938113892625
 31
0.0
  0
SOLID
  5
F95
330
F8F
100
AcDbEntity
  8
AM_PARDIM
100
AcDbTrace
 10
26.37464887656421
 20
113.1938113892625
 30
0.0
 11
27.3746488765642
 21
113.1938113892625
 31
0.0
 12
26.87464887656421
 22
116.1938113892625
 32
0.0
 13
26.87464887656421
 23
116.1938113892625
 33
0.0
  0
SOLID
  5
F96
330
F8F
100
AcDbEntity
  8
AM_PARDIM
100
AcDbTrace
 10
26.37464887656421
 20
125.1938113892625
 30
0.0
 11
27.37464887656421
 21
125.1938113892625
 31
0.0
 12
26.87464887656421
 22
122.1938113892625
 32
0.0
 13
26.87464887656421
 23
122.1938113892625
 33
0.0
  0
MTEXT
  5
F97
330
F8F
100
AcDbEntity
  8
AM_PARDIM
100
AcDbMText
 10
24.37464887656419
 20
119.1938113892625
 30
0.0
 40
3.0
 41
0.0
 71
     5
 72
     1
  1
6
  7
CHINA
 11
0.0000000000000001
 21
1.0
 31
0.0
 73
     1
 44
1.0
1001
ACAD
1000
MTEXTBEGIN
1070
    73
1070
     1
1070
    44
1040
1.0
1070
    74
1070
     0
1000
MTEXTEND
  0
POINT
  5
F98
330
F8F
100
AcDbEntity
  8
Defpoints
 62
     0
100
AcDbPoint
 10
38.87464887656421
 20
116.1938113892625
 30
0.0
  0
POINT
  5
F99
330
F8F
100
AcDbEntity
  8
Defpoints
 62
     0
100
AcDbPoint
 10
38.87464887656421
 20
122.1938113892625
 30
0.0
  0
POINT
  5
F9A
330
F8F
100
AcDbEntity
  8
Defpoints
 62
     0
100
AcDbPoint
 10
26.87464887656421
 20
122.1938113892625
 30
0.0
  0
ENDBLK
  5
F9C
330
F8F
100
AcDbEntity
  8
0
100
AcDbBlockEnd
  0
BLOCK
  5
FA7
330
F9D
100
AcDbEntity
  8
0
100
AcDbBlockBegin
  2
*D3
 70
     1
 10
0.0
 20
0.0
 30
0.0
  3
*D3
  1

  0
LINE
  5
F9E
330
F9D
100
AcDbEntity
  8
AM_PARDIM
100
AcDbLine
 10
38.87464887656421
 20
124.1938113892625
 30
0.0
 11
38.87464887656421
 21
142.1938113892625
 31
0.0
  0
LINE
  5
F9F
330
F9D
100
AcDbEntity
  8
AM_PARDIM
100
AcDbLine
 10
50.87464887656421
 20
124.1938113892625
 30
0.0
 11
50.87464887656421
 21
142.1938113892625
 31
0.0
  0
LINE
  5
FA0
330
F9D
100
AcDbEntity
  8
AM_PARDIM
100
AcDbLine
 10
41.8746488765642
 20
140.6938113892625
 30
0.0
 11
47.87464887656421
 21
140.6938113892625
 31
0.0
  0
SOLID
  5
FA1
330
F9D
100
AcDbEntity
  8
AM_PARDIM
100
AcDbTrace
 10
41.8746488765642
 20
141.1938113892625
 30
0.0
 11
41.8746488765642
 21
140.1938113892625
 31
0.0
 12
38.87464887656421
 22
140.6938113892625
 32
0.0
 13
38.87464887656421
 23
140.6938113892625
 33
0.0
  0
SOLID
  5
FA2
330
F9D
100
AcDbEntity
  8
AM_PARDIM
100
AcDbTrace
 10
47.87464887656421
 20
141.1938113892625
 30
0.0
 11
47.87464887656421
 21
140.1938113892625
 31
0.0
 12
50.87464887656421
 22
140.6938113892625
 32
0.0
 13
50.87464887656421
 23
140.6938113892625
 33
0.0
  0
MTEXT
  5
FA3
330
F9D
100
AcDbEntity
  8
AM_PARDIM
100
AcDbMText
 10
44.87464887656421
 20
143.1940738564541
 30
0.0
 40
3.0
 41
0.0
 71
     5
 72
     1
  1
12
  7
CHINA
 73
     1
 44
1.0
1001
ACAD
1000
MTEXTBEGIN
1070
    73
1070
     1
1070
    44
1040
1.0
1070
    74
1070
     0
1000
MTEXTEND
  0
POINT
  5
FA4
330
F9D
100
AcDbEntity
  8
Defpoints
 62
     0
100
AcDbPoint
 10
38.87464887656421
 20
122.1938113892625
 30
0.0
  0
POINT
  5
FA5
330
F9D
100
AcDbEntity
  8
Defpoints
 62
     0
100
AcDbPoint
 10
50.87464887656421
 20
122.1938113892625
 30
0.0
  0
POINT
  5
FA6
330
F9D
100
AcDbEntity
  8
Defpoints
 62
     0
100
AcDbPoint
 10
50.87464887656421
 20
140.6938113892625
 30
0.0
  0
ENDBLK
  5
FA8
330
F9D
100
AcDbEntity
  8
0
100
AcDbBlockEnd
  0
BLOCK
  5
FB3
330
FA9
100
AcDbEntity
  8
0
100
AcDbBlockBegin
  2
*D4
 70
     1
 10
0.0
 20
0.0
 30
0.0
  3
*D4
  1

  0
LINE
  5
FAA
330
FA9
100
AcDbEntity
  8
AM_PARDIM
100
AcDbLine
 10
38.87464887656421
 20
118.1938113892625
 30
0.0
 11
38.87464887656421
 21
162.1938113892625
 31
0.0
  0
LINE
  5
FAB
330
FA9
100
AcDbEntity
  8
AM_PARDIM
100
AcDbLine
 10
75.37464887656421
 20
118.1938113892625
 30
0.0
 11
75.37464887656421
 21
162.1938113892625
 31
0.0
  0
LINE
  5
FAC
330
FA9
100
AcDbEntity
  8
AM_PARDIM
100
AcDbLine
 10
41.8746488765642
 20
160.6938113892625
 30
0.0
 11
72.37464887656421
 21
160.6938113892625
 31
0.0
  0
SOLID
  5
FAD
330
FA9
100
AcDbEntity
  8
AM_PARDIM
100
AcDbTrace
 10
41.8746488765642
 20
161.1938113892625
 30
0.0
 11
41.8746488765642
 21
160.1938113892625
 31
0.0
 12
38.87464887656421
 22
160.6938113892625
 32
0.0
 13
38.87464887656421
 23
160.6938113892625
 33
0.0
  0
SOLID
  5
FAE
330
FA9
100
AcDbEntity
  8
AM_PARDIM
100
AcDbTrace
 10
72.37464887656421
 20
161.1938113892625
 30
0.0
 11
72.37464887656421
 21
160.1938113892625
 31
0.0
 12
75.37464887656421
 22
160.6938113892625
 32
0.0
 13
75.37464887656421
 23
160.6938113892625
 33
0.0
  0
MTEXT
  5
FAF
330
FA9
100
AcDbEntity
  8
AM_PARDIM
100
AcDbMText
 10
57.12464887656421
 20
163.2016854050105
 30
0.0
 40
3.0
 41
0.0
 71
     5
 72
     1
  1
36.5
  7
CHINA
 73
     1
 44
1.0
1001
ACAD
1000
MTEXTBEGIN
1070
    73
1070
     1
1070
    44
1040
1.0
1070
    74
1070
     0
1000
MTEXTEND
  0
POINT
  5
FB0
330
FA9
100
AcDbEntity
  8
Defpoints
 62
     0
100
AcDbPoint
 10
38.87464887656421
 20
116.1938113892625
 30
0.0
  0
POINT
  5
FB1
330
FA9
100
AcDbEntity
  8
Defpoints
 62
     0
100
AcDbPoint
 10
75.37464887656421
 20
116.1938113892625
 30
0.0
  0
POINT
  5
FB2
330
FA9
100
AcDbEntity
  8
Defpoints
 62
     0
100
AcDbPoint
 10
75.37464887656421
 20
160.6938113892625
 30
0.0
  0
ENDBLK
  5
FB4
330
FA9
100
AcDbEntity
  8
0
100
AcDbBlockEnd
  0
BLOCK
  5
FBF
330
FB5
100
AcDbEntity
  8
0
100
AcDbBlockBegin
  2
*D5
 70
     1
 10
0.0
 20
0.0
 30
0.0
  3
*D5
  1

  0
LINE
  5
FB6
330
FB5
100
AcDbEntity
  8
AM_PARDIM
100
AcDbLine
 10
52.87464887656421
 20
127.1938113892625
 30
0.0
 11
106.0325708695175
 21
127.1938113892625
 31
0.0
  0
LINE
  5
FB7
330
FB5
100
AcDbEntity
  8
AM_PARDIM
100
AcDbLine
 10
77.37464887656421
 20
116.1938113892625
 30
0.0
 11
106.0325708695175
 21
116.1938113892625
 31
0.0
  0
LINE
  5
FB8
330
FB5
100
AcDbEntity
  8
AM_PARDIM
100
AcDbLine
 10
104.5325708695175
 20
124.1938113892625
 30
0.0
 11
104.5325708695175
 21
119.1938113892625
 31
0.0
  0
SOLID
  5
FB9
330
FB5
100
AcDbEntity
  8
AM_PARDIM
100
AcDbTrace
 10
104.0325708695175
 20
124.1938113892625
 30
0.0
 11
105.0325708695175
 21
124.1938113892625
 31
0.0
 12
104.5325708695175
 22
127.1938113892625
 32
0.0
 13
104.5325708695175
 23
127.1938113892625
 33
0.0
  0
SOLID
  5
FBA
330
FB5
100
AcDbEntity
  8
AM_PARDIM
100
AcDbTrace
 10
104.0325708695175
 20
119.1938113892625
 30
0.0
 11
105.0325708695175
 21
119.1938113892625
 31
0.0
 12
104.5325708695175
 22
116.1938113892625
 32
0.0
 13
104.5325708695175
 23
116.1938113892625
 33
0.0
  0
MTEXT
  5
FBB
330
FB5
100
AcDbEntity
  8
AM_PARDIM
100
AcDbMText
 10
102.0325708695175
 20
121.6938113892625
 30
0.0
 40
3.0
 41
0.0
 71
     5
 72
     1
  1
11
  7
CHINA
 11
0.0000000000000001
 21
1.0
 31
0.0
 73
     1
 44
1.0
1001
ACAD
1000
MTEXTBEGIN
1070
    73
1070
     1
1070
    44
1040
1.0
1070
    74
1070
     0
1000
MTEXTEND
  0
POINT
  5
FBC
330
FB5
100
AcDbEntity
  8
Defpoints
 62
     0
100
AcDbPoint
 10
50.87464887656421
 20
127.1938113892625
 30
0.0
  0
POINT
  5
FBD
330
FB5
100
AcDbEntity
  8
Defpoints
 62
     0
100
AcDbPoint
 10
75.37464887656421
 20
116.1938113892625
 30
0.0
  0
POINT
  5
FBE
330
FB5
100
AcDbEntity
  8
Defpoints
 62
     0
100
AcDbPoint
 10
104.5325708695175
 20
116.1938113892625
 30
0.0
  0
ENDBLK
  5
FC0
330
FB5
100
AcDbEntity
  8
0
100
AcDbBlockEnd
  0
BLOCK
  5
FCB
330
FC1
100
AcDbEntity
  8
0
100
AcDbBlockBegin
  2
*D6
 70
     1
 10
0.0
 20
0.0
 30
0.0
  3
*D6
  1

  0
LINE
  5
FC2
330
FC1
100
AcDbEntity
  8
AM_PARDIM
100
AcDbLine
 10
66.3746488765642
 20
130.6938113892625
 30
0.0
 11
66.3746488765642
 21
152.1938113892625
 31
0.0
  0
LINE
  5
FC3
330
FC1
100
AcDbEntity
  8
AM_PARDIM
100
AcDbLine
 10
75.37464887656421
 20
130.6938113892625
 30
0.0
 11
75.37464887656421
 21
152.1938113892625
 31
0.0
  0
LINE
  5
FC4
330
FC1
100
AcDbEntity
  8
AM_PARDIM
100
AcDbLine
 10
69.37464887656421
 20
150.6938113892625
 30
0.0
 11
72.37464887656421
 21
150.6938113892625
 31
0.0
  0
SOLID
  5
FC5
330
FC1
100
AcDbEntity
  8
AM_PARDIM
100
AcDbTrace
 10
69.37464887656421
 20
151.1938113892625
 30
0.0
 11
69.37464887656421
 21
150.1938113892625
 31
0.0
 12
66.3746488765642
 22
150.6938113892625
 32
0.0
 13
66.3746488765642
 23
150.6938113892625
 33
0.0
  0
SOLID
  5
FC6
330
FC1
100
AcDbEntity
  8
AM_PARDIM
100
AcDbTrace
 10
72.37464887656421
 20
151.1938113892625
 30
0.0
 11
72.37464887656421
 21
150.1938113892625
 31
0.0
 12
75.37464887656421
 22
150.6938113892625
 32
0.0
 13
75.37464887656421
 23
150.6938113892625
 33
0.0
  0
MTEXT
  5
FC7
330
FC1
100
AcDbEntity
  8
AM_PARDIM
100
AcDbMText
 10
70.87464887656421
 20
153.1938113892625
 30
0.0
 40
3.0
 41
0.0
 71
     5
 72
     1
  1
9
  7
CHINA
 73
     1
 44
1.0
1001
ACAD
1000
MTEXTBEGIN
1070
    73
1070
     1
1070
    44
1040
1.0
1070
    74
1070
     0
1000
MTEXTEND
  0
POINT
  5
FC8
330
FC1
100
AcDbEntity
  8
Defpoints
 62
     0
100
AcDbPoint
 10
66.3746488765642
 20
128.6938113892625
 30
0.0
  0
POINT
  5
FC9
330
FC1
100
AcDbEntity
  8
Defpoints
 62
     0
100
AcDbPoint
 10
75.37464887656421
 20
128.6938113892625
 30
0.0
  0
POINT
  5
FCA
330
FC1
100
AcDbEntity
  8
Defpoints
 62
     0
100
AcDbPoint
 10
75.37464887656421
 20
150.6938113892625
 30
0.0
  0
ENDBLK
  5
FCC
330
FC1
100
AcDbEntity
  8
0
100
AcDbBlockEnd
  0
BLOCK
  5
FD9
330
FCD
100
AcDbEntity
  8
0
100
AcDbBlockBegin
  2
*D7
 70
     1
 10
0.0
 20
0.0
 30
0.0
  3
*D7
  1

  0
LINE
  5
FCE
330
FCD
100
AcDbEntity
  8
AM_PARDIM
100
AcDbLine
 10
63.87464887656418
 20
130.6938113892624
 30
0.0
 11
63.87464887656418
 21
142.1938113892625
 31
0.0
  0
LINE
  5
FCF
330
FCD
100
AcDbEntity
  8
AM_PARDIM
100
AcDbLine
 10
66.37464887656418
 20
130.6938113892624
 30
0.0
 11
66.37464887656418
 21
142.1938113892625
 31
0.0
  0
LINE
  5
FD0
330
FCD
100
AcDbEntity
  8
AM_PARDIM
100
AcDbLine
 10
60.87464887656418
 20
140.6938113892625
 30
0.0
 11
57.87464887656418
 21
140.6938113892625
 31
0.0
  0
LINE
  5
FD1
330
FCD
100
AcDbEntity
  8
AM_PARDIM
100
AcDbLine
 10
69.37464887656418
 20
140.6938113892625
 30
0.0
 11
79.48383522827022
 21
140.6938113892625
 31
0.0
  0
LINE
  5
FD2
330
FCD
100
AcDbEntity
  8
AM_PARDIM
100
AcDbLine
 10
63.87464887656418
 20
140.6938113892625
 30
0.0
 11
66.37464887656418
 21
140.6938113892625
 31
0.0
  0
SOLID
  5
FD3
330
FCD
100
AcDbEntity
  8
AM_PARDIM
100
AcDbTrace
 10
60.87464887656418
 20
141.1938113892625
 30
0.0
 11
60.87464887656418
 21
140.1938113892625
 31
0.0
 12
63.87464887656418
 22
140.6938113892625
 32
0.0
 13
63.87464887656418
 23
140.6938113892625
 33
0.0
  0
SOLID
  5
FD4
330
FCD
100
AcDbEntity
  8
AM_PARDIM
100
AcDbTrace
 10
69.37464887656418
 20
141.1938113892625
 30
0.0
 11
69.37464887656418
 21
140.1938113892625
 31
0.0
 12
66.37464887656418
 22
140.6938113892625
 32
0.0
 13
66.37464887656418
 23
140.6938113892625
 33
0.0
  0
MTEXT
  5
FD5
330
FCD
100
AcDbEntity
  8
AM_PARDIM
100
AcDbMText
 10
75.92924205241719
 20
143.2019478722021
 30
0.0
 40
3.0
 41
0.0
 71
     5
 72
     1
  1
2.5
  7
CHINA
 73
     1
 44
1.0
1001
ACAD
1000
MTEXTBEGIN
1070
    73
1070
     1
1070
    44
1040
1.0
1070
    74
1070
     0
1000
MTEXTEND
  0
POINT
  5
FD6
330
FCD
100
AcDbEntity
  8
Defpoints
 62
     0
100
AcDbPoint
 10
63.87464887656418
 20
128.6938113892624
 30
0.0
  0
POINT
  5
FD7
330
FCD
100
AcDbEntity
  8
Defpoints
 62
     0
100
AcDbPoint
 10
66.37464887656418
 20
128.6938113892624
 30
0.0
  0
POINT
  5
FD8
330
FCD
100
AcDbEntity
  8
Defpoints
 62
     0
100
AcDbPoint
 10
66.37464887656418
 20
140.6938113892625
 30
0.0
  0
ENDBLK
  5
FDA
330
FCD
100
AcDbEntity
  8
0
100
AcDbBlockEnd
  0
BLOCK
  5
FE6
330
FDB
100
AcDbEntity
  8
0
100
AcDbBlockBegin
  2
*D8
 70
     1
 10
0.0
 20
0.0
 30
0.0
  3
*D8
  1

  0
LINE
  5
FDC
330
FDB
100
AcDbEntity
  8
AM_PARDIM
100
AcDbLine
 10
66.37464887656418
 20
130.6938113892624
 30
0.0
 11
66.37464887656418
 21
137.530378563861
 31
0.0
  0
LINE
  5
FDD
330
FDB
100
AcDbEntity
  8
AM_PARDIM
100
AcDbLine
 10
66.37464887656418
 20
118.1938113892624
 30
0.0
 11
66.37464887656418
 21
137.530378563861
 31
0.0
  0
LINE
  5
FDE
330
FDB
100
AcDbEntity
  8
AM_PARDIM
100
AcDbLine
 10
63.37464887656418
 20
136.030378563861
 30
0.0
 11
60.37464887656418
 21
136.030378563861
 31
0.0
  0
LINE
  5
FDF
330
FDB
100
AcDbEntity
  8
AM_PARDIM
100
AcDbLine
 10
69.37464887656418
 20
136.030378563861
 30
0.0
 11
75.97464887656418
 21
136.030378563861
 31
0.0
  0
SOLID
  5
FE0
330
FDB
100
AcDbEntity
  8
AM_PARDIM
100
AcDbTrace
 10
63.37464887656418
 20
136.530378563861
 30
0.0
 11
63.37464887656418
 21
135.530378563861
 31
0.0
 12
66.37464887656418
 22
136.030378563861
 32
0.0
 13
66.37464887656418
 23
136.030378563861
 33
0.0
  0
SOLID
  5
FE1
330
FDB
100
AcDbEntity
  8
AM_PARDIM
100
AcDbTrace
 10
69.37464887656418
 20
136.530378563861
 30
0.0
 11
69.37464887656418
 21
135.530378563861
 31
0.0
 12
66.37464887656418
 22
136.030378563861
 32
0.0
 13
66.37464887656418
 23
136.030378563861
 33
0.0
  0
MTEXT
  5
FE2
330
FDB
100
AcDbEntity
  8
AM_PARDIM
100
AcDbMText
 10
74.17464887656418
 20
138.530378563861
 30
0.0
 40
3.0
 41
0.0
 71
     5
 72
     1
  1
0
  7
CHINA
 73
     1
 44
1.0
1001
ACAD
1000
MTEXTBEGIN
1070
    73
1070
     1
1070
    44
1040
1.0
1070
    74
1070
     0
1000
MTEXTEND
  0
POINT
  5
FE3
330
FDB
100
AcDbEntity
  8
Defpoints
 62
     0
100
AcDbPoint
 10
66.37464887656418
 20
128.6938113892624
 30
0.0
  0
POINT
  5
FE4
330
FDB
100
AcDbEntity
  8
Defpoints
 62
     0
100
AcDbPoint
 10
66.37464887656418
 20
116.1938113892624
 30
0.0
  0
POINT
  5
FE5
330
FDB
100
AcDbEntity
  8
Defpoints
 62
     0
100
AcDbPoint
 10
66.37464887656418
 20
136.030378563861
 30
0.0
  0
ENDBLK
  5
FE7
330
FDB
100
AcDbEntity
  8
0
100
AcDbBlockEnd
  0
BLOCK
  5
FF2
330
FE8
100
AcDbEntity
  8
0
100
AcDbBlockBegin
  2
*D9
 70
     1
 10
0.0
 20
0.0
 30
0.0
  3
*D9
  1

  0
LINE
  5
FE9
330
FE8
100
AcDbEntity
  8
AM_PARDIM
100
AcDbLine
 10
65.87464887656418
 20
125.6938113892624
 30
0.0
 11
96.03257086951755
 21
125.6938113892624
 31
0.0
  0
LINE
  5
FEA
330
FE8
100
AcDbEntity
  8
AM_PARDIM
100
AcDbLine
 10
84.53257086951754
 20
116.1938113892624
 30
0.0
 11
96.03257086951755
 21
116.1938113892624
 31
0.0
  0
LINE
  5
FEB
330
FE8
100
AcDbEntity
  8
AM_PARDIM
100
AcDbLine
 10
94.53257086951754
 20
122.6938113892624
 30
0.0
 11
94.53257086951754
 21
119.1938113892624
 31
0.0
  0
SOLID
  5
FEC
330
FE8
100
AcDbEntity
  8
AM_PARDIM
100
AcDbTrace
 10
94.03257086951754
 20
122.6938113892624
 30
0.0
 11
95.03257086951753
 21
122.6938113892624
 31
0.0
 12
94.53257086951754
 22
125.6938113892624
 32
0.0
 13
94.53257086951754
 23
125.6938113892624
 33
0.0
  0
SOLID
  5
FED
330
FE8
100
AcDbEntity
  8
AM_PARDIM
100
AcDbTrace
 10
94.03257086951754
 20
119.1938113892624
 30
0.0
 11
95.03257086951753
 21
119.1938113892624
 31
0.0
 12
94.53257086951754
 22
116.1938113892624
 32
0.0
 13
94.53257086951754
 23
116.1938113892624
 33
0.0
  0
MTEXT
  5
FEE
330
FE8
100
AcDbEntity
  8
AM_PARDIM
100
AcDbMText
 10
92.0246968537695
 20
120.9438113892624
 30
0.0
 40
3.0
 41
0.0
 71
     5
 72
     1
  1
9.5
  7
CHINA
 11
0.0000000000000001
 21
1.0
 31
0.0
 73
     1
 44
1.0
1001
ACAD
1000
MTEXTBEGIN
1070
    73
1070
     1
1070
    44
1040
1.0
1070
    74
1070
     0
1000
MTEXTEND
  0
POINT
  5
FEF
330
FE8
100
AcDbEntity
  8
Defpoints
 62
     0
100
AcDbPoint
 10
63.87464887656418
 20
125.6938113892624
 30
0.0
  0
POINT
  5
FF0
330
FE8
100
AcDbEntity
  8
Defpoints
 62
     0
100
AcDbPoint
 10
82.53257086951753
 20
116.1938113892624
 30
0.0
  0
POINT
  5
FF1
330
FE8
100
AcDbEntity
  8
Defpoints
 62
     0
100
AcDbPoint
 10
94.53257086951754
 20
116.1938113892624
 30
0.0
  0
ENDBLK
  5
FF3
330
FE8
100
AcDbEntity
  8
0
100
AcDbBlockEnd
  0
BLOCK
  5
FFE
330
FF4
100
AcDbEntity
  8
0
100
AcDbBlockBegin
  2
*D10
 70
     1
 10
0.0
 20
0.0
 30
0.0
  3
*D10
  1

  0
LINE
  5
FF5
330
FF4
100
AcDbEntity
  8
AM_PARDIM
100
AcDbLine
 10
68.37464887656418
 20
128.6938113892624
 30
0.0
 11
126.0325708695175
 21
128.6938113892624
 31
0.0
  0
LINE
  5
FF6
330
FF4
100
AcDbEntity
  8
AM_PARDIM
100
AcDbLine
 10
84.53257086951754
 20
116.1938113892624
 30
0.0
 11
126.0325708695175
 21
116.1938113892624
 31
0.0
  0
LINE
  5
FF7
330
FF4
100
AcDbEntity
  8
AM_PARDIM
100
AcDbLine
 10
124.5325708695175
 20
125.6938113892624
 30
0.0
 11
124.5325708695175
 21
119.1938113892624
 31
0.0
  0
SOLID
  5
FF8
330
FF4
100
AcDbEntity
  8
AM_PARDIM
100
AcDbTrace
 10
124.0325708695175
 20
125.6938113892624
 30
0.0
 11
125.0325708695175
 21
125.6938113892624
 31
0.0
 12
124.5325708695175
 22
128.6938113892624
 32
0.0
 13
124.5325708695175
 23
128.6938113892624
 33
0.0
  0
SOLID
  5
FF9
330
FF4
100
AcDbEntity
  8
AM_PARDIM
100
AcDbTrace
 10
124.0325708695175
 20
119.1938113892624
 30
0.0
 11
125.0325708695175
 21
119.1938113892624
 31
0.0
 12
124.5325708695175
 22
116.1938113892624
 32
0.0
 13
124.5325708695175
 23
116.1938113892624
 33
0.0
  0
MTEXT
  5
FFA
330
FF4
100
AcDbEntity
  8
AM_PARDIM
100
AcDbMText
 10
122.0244343865779
 20
122.4438113892624
 30
0.0
 40
3.0
 41
0.0
 71
     5
 72
     1
  1
12.5
  7
CHINA
 11
0.0000000000000001
 21
1.0
 31
0.0
 73
     1
 44
1.0
1001
ACAD
1000
MTEXTBEGIN
1070
    73
1070
     1
1070
    44
1040
1.0
1070
    74
1070
     0
1000
MTEXTEND
  0
POINT
  5
FFB
330
FF4
100
AcDbEntity
  8
Defpoints
 62
     0
100
AcDbPoint
 10
66.37464887656418
 20
128.6938113892624
 30
0.0
  0
POINT
  5
FFC
330
FF4
100
AcDbEntity
  8
Defpoints
 62
     0
100
AcDbPoint
 10
82.53257086951753
 20
116.1938113892624
 30
0.0
  0
POINT
  5
FFD
330
FF4
100
AcDbEntity
  8
Defpoints
 62
     0
100
AcDbPoint
 10
124.5325708695175
 20
116.1938113892624
 30
0.0
  0
ENDBLK
  5
FFF
330
FF4
100
AcDbEntity
  8
0
100
AcDbBlockEnd
  0
BLOCK
  5
295F
330
2955
100
AcDbEntity
  8
0
100
AcDbBlockBegin
  2
*D11
 70
     1
 10
0.0
 20
0.0
 30
0.0
  3
*D11
  1

  0
LINE
  5
33D8
330
2955
100
AcDbEntity
  8
AM_REFDIM
100
AcDbLine
 10
606.4299601351418
 20
-16.29541947380403
 30
0.0
 11
584.3385315637154
 21
-16.29541947380397
 31
0.0
  0
LINE
  5
33D9
330
2955
100
AcDbEntity
  8
AM_REFDIM
100
AcDbLine
 10
584.3385315637154
 20
-16.29541947380397
 30
0.0
 11
580.3662882506538
 21
-9.774067738687335
 31
0.0
  0
LINE
  5
33DA
330
2955
100
AcDbEntity
  8
AM_REFDIM
100
AcDbLine
 10
577.2970651795958
 20
-4.735231589328435
 30
0.0
 11
576.2046298492193
 21
-2.941747536166843
 31
0.0
  0
MTEXT
  5
33DB
330
2955
100
AcDbEntity
  8
AM_REFDIM
100
AcDbMText
 10
597.0799601351418
 20
-14.68541947380403
 30
0.0
 40
2.099999999999999
 41
0.0
 71
     5
 72
     1
  1
\A1;2-\U+22051.7 thru
  7
CHINESET
 73
     1
 44
1.0
1001
ACAD
1000
MTEXTBEGIN
1070
    73
1070
     1
1070
    44
1040
1.0
1070
    74
1070
     0
1000
MTEXTEND
  0
LINE
  5
33DC
330
2955
100
AcDbEntity
  8
AM_REFDIM
100
AcDbLine
 10
578.3895005099724
 20
-6.528715642490084
 30
0.0
 11
579.2738529202773
 21
-7.98058368552563
 31
0.0
  0
SOLID
  5
33DD
330
2955
100
AcDbEntity
  8
AM_REFDIM
100
AcDbTrace
 10
577.5959791884562
 20
-4.553159034265661
 30
0.0
 11
576.9981511707356
 21
-4.917304144391209
 31
0.0
 12
578.3895005099724
 22
-6.528715642490084
 32
0.0
 13
578.3895005099724
 23
-6.528715642490084
 33
0.0
  0
SOLID
  5
33DE
330
2955
100
AcDbEntity
  8
AM_REFDIM
100
AcDbTrace
 10
580.6652022595141
 20
-9.591995183624561
 30
0.0
 11
580.0673742417935
 21
-9.95614029375011
 31
0.0
 12
579.2738529202773
 22
-7.98058368552563
 32
0.0
 13
579.2738529202773
 23
-7.98058368552563
 33
0.0
  0
POINT
  5
33DF
330
2955
100
AcDbEntity
  8
Defpoints
 62
     0
100
AcDbPoint
 10
579.2738529202773
 20
-7.98058368552563
 30
0.0
  0
POINT
  5
33E0
330
2955
100
AcDbEntity
  8
Defpoints
 62
     0
100
AcDbPoint
 10
578.3895005099724
 20
-6.528715642490084
 30
0.0
  0
ENDBLK
  5
2960
330
2955
100
AcDbEntity
  8
0
100
AcDbBlockEnd
  0
BLOCK
  5
296B
330
2961
100
AcDbEntity
  8
0
100
AcDbBlockBegin
  2
*D12
 70
     1
 10
0.0
 20
0.0
 30
0.0
  3
*D12
  1

  0
LINE
  5
3446
330
2961
100
AcDbEntity
  8
AM_REFDIM
100
AcDbLine
 10
571.7316767151247
 20
-2.954649664007843
 30
0.0
 11
571.7316767151247
 21
-20.85464966400782
 31
0.0
  0
LINE
  5
3447
330
2961
100
AcDbEntity
  8
AM_REFDIM
100
AcDbLine
 10
564.3316767151247
 20
-8.854649664007876
 30
0.0
 11
564.3316767151247
 21
-20.85464966400782
 31
0.0
  0
LINE
  5
3448
330
2961
100
AcDbEntity
  8
AM_REFDIM
100
AcDbLine
 10
569.6316767151247
 20
-20.15464966400782
 30
0.0
 11
566.4316767151247
 21
-20.15464966400782
 31
0.0
  0
SOLID
  5
3449
330
2961
100
AcDbEntity
  8
AM_REFDIM
100
AcDbTrace
 10
569.6316767151247
 20
-19.80464966400782
 30
0.0
 11
569.6316767151247
 21
-20.50464966400782
 31
0.0
 12
571.7316767151247
 22
-20.15464966400782
 32
0.0
 13
571.7316767151247
 23
-20.15464966400782
 33
0.0
  0
SOLID
  5
344A
330
2961
100
AcDbEntity
  8
AM_REFDIM
100
AcDbTrace
 10
566.4316767151247
 20
-19.80464966400782
 30
0.0
 11
566.4316767151247
 21
-20.50464966400782
 31
0.0
 12
564.3316767151247
 22
-20.15464966400782
 32
0.0
 13
564.3316767151247
 23
-20.15464966400782
 33
0.0
  0
MTEXT
  5
344B
330
2961
100
AcDbEntity
  8
AM_REFDIM
100
AcDbMText
 10
568.0316767151248
 20
-18.54464966400782
 30
0.0
 40
2.099999999999999
 41
0.0
 71
     5
 72
     1
  1
\A1;7.4
  7
CHINESET
 73
     1
 44
1.0
1001
ACAD
1000
MTEXTBEGIN
1070
    73
1070
     1
1070
    44
1040
1.0
1070
    74
1070
     0
1000
MTEXTEND
  0
POINT
  5
344C
330
2961
100
AcDbEntity
  8
Defpoints
 62
     0
100
AcDbPoint
 10
571.7316767151247
 20
-2.254649664007843
 30
0.0
  0
POINT
  5
344D
330
2961
100
AcDbEntity
  8
Defpoints
 62
     0
100
AcDbPoint
 10
564.3316767151247
 20
-8.154649664007877
 30
0.0
  0
POINT
  5
344E
330
2961
100
AcDbEntity
  8
Defpoints
 62
     0
100
AcDbPoint
 10
564.3316767151247
 20
-20.15464966400782
 30
0.0
  0
ENDBLK
  5
296C
330
2961
100
AcDbEntity
  8
0
100
AcDbBlockEnd
  0
BLOCK
  5
2977
330
296D
100
AcDbEntity
  8
0
100
AcDbBlockBegin
  2
*D13
 70
     1
 10
0.0
 20
0.0
 30
0.0
  3
*D13
  1

  0
LINE
  5
343D
330
296D
100
AcDbEntity
  8
AM_REFDIM
100
AcDbLine
 10
571.7316767151247
 20
-2.954649664007843
 30
0.0
 11
571.7316767151247
 21
-20.85464966400782
 31
0.0
  0
LINE
  5
343E
330
296D
100
AcDbEntity
  8
AM_REFDIM
100
AcDbLine
 10
578.8316767151248
 20
-11.15464966400783
 30
0.0
 11
578.8316767151248
 21
-20.85464966400782
 31
0.0
  0
LINE
  5
343F
330
296D
100
AcDbEntity
  8
AM_REFDIM
100
AcDbLine
 10
573.8316767151247
 20
-20.15464966400782
 30
0.0
 11
576.7316767151247
 21
-20.15464966400782
 31
0.0
  0
SOLID
  5
3440
330
296D
100
AcDbEntity
  8
AM_REFDIM
100
AcDbTrace
 10
573.8316767151247
 20
-19.80464966400782
 30
0.0
 11
573.8316767151247
 21
-20.50464966400782
 31
0.0
 12
571.7316767151247
 22
-20.15464966400782
 32
0.0
 13
571.7316767151247
 23
-20.15464966400782
 33
0.0
  0
SOLID
  5
3441
330
296D
100
AcDbEntity
  8
AM_REFDIM
100
AcDbTrace
 10
576.7316767151247
 20
-19.80464966400782
 30
0.0
 11
576.7316767151247
 21
-20.50464966400782
 31
0.0
 12
578.8316767151248
 22
-20.15464966400782
 32
0.0
 13
578.8316767151248
 23
-20.15464966400782
 33
0.0
  0
MTEXT
  5
3442
330
296D
100
AcDbEntity
  8
AM_REFDIM
100
AcDbMText
 10
575.2816767151248
 20
-18.54464966400782
 30
0.0
 40
2.099999999999999
 41
0.0
 71
     5
 72
     1
  1
\A1;7.1
  7
CHINESET
 73
     1
 44
1.0
1001
ACAD
1000
MTEXTBEGIN
1070
    73
1070
     1
1070
    44
1040
1.0
1070
    74
1070
     0
1000
MTEXTEND
  0
POINT
  5
3443
330
296D
100
AcDbEntity
  8
Defpoints
 62
     0
100
AcDbPoint
 10
571.7316767151247
 20
-2.254649664007843
 30
0.0
  0
POINT
  5
3444
330
296D
100
AcDbEntity
  8
Defpoints
 62
     0
100
AcDbPoint
 10
578.8316767151248
 20
-10.45464966400783
 30
0.0
  0
POINT
  5
3445
330
296D
100
AcDbEntity
  8
Defpoints
 62
     0
100
AcDbPoint
 10
578.8316767151248
 20
-20.15464966400782
 30
0.0
  0
ENDBLK
  5
2978
330
296D
100
AcDbEntity
  8
0
100
AcDbBlockEnd
  0
BLOCK
  5
2983
330
2979
100
AcDbEntity
  8
0
100
AcDbBlockBegin
  2
*D14
 70
     1
 10
0.0
 20
0.0
 30
0.0
  3
*D14
  1

  0
LINE
  5
344F
330
2979
100
AcDbEntity
  8
AM_REFDIM
100
AcDbLine
 10
577.0316767151247
 20
2.395350335992145
 30
0.0
 11
577.0316767151247
 21
9.72345118559981
 31
0.0
  0
LINE
  5
3450
330
2979
100
AcDbEntity
  8
AM_REFDIM
100
AcDbLine
 10
564.3316767151247
 20
2.545350335992123
 30
0.0
 11
564.3316767151247
 21
9.72345118559981
 31
0.0
  0
LINE
  5
3451
330
2979
100
AcDbEntity
  8
AM_REFDIM
100
AcDbLine
 10
574.9316767151246
 20
9.02345118559981
 30
0.0
 11
566.4316767151247
 21
9.02345118559981
 31
0.0
  0
SOLID
  5
3452
330
2979
100
AcDbEntity
  8
AM_REFDIM
100
AcDbTrace
 10
574.9316767151246
 20
9.37345118559981
 30
0.0
 11
574.9316767151246
 21
8.673451185599811
 31
0.0
 12
577.0316767151247
 22
9.02345118559981
 32
0.0
 13
577.0316767151247
 23
9.02345118559981
 33
0.0
  0
SOLID
  5
3453
330
2979
100
AcDbEntity
  8
AM_REFDIM
100
AcDbTrace
 10
566.4316767151247
 20
9.37345118559981
 30
0.0
 11
566.4316767151247
 21
8.673451185599811
 31
0.0
 12
564.3316767151247
 22
9.02345118559981
 32
0.0
 13
564.3316767151247
 23
9.02345118559981
 33
0.0
  0
MTEXT
  5
3454
330
2979
100
AcDbEntity
  8
AM_REFDIM
100
AcDbMText
 10
570.6816767151247
 20
10.63345118559981
 30
0.0
 40
2.099999999999999
 41
0.0
 71
     5
 72
     1
  1
\A1;12.7
  7
CHINESET
 73
     1
 44
1.0
1001
ACAD
1000
MTEXTBEGIN
1070
    73
1070
     1
1070
    44
1040
1.0
1070
    74
1070
     0
1000
MTEXTEND
  0
POINT
  5
3455
330
2979
100
AcDbEntity
  8
Defpoints
 62
     0
100
AcDbPoint
 10
577.0316767151247
 20
1.695350335992145
 30
0.0
  0
POINT
  5
3456
330
2979
100
AcDbEntity
  8
Defpoints
 62
     0
100
AcDbPoint
 10
564.3316767151247
 20
1.845350335992122
 30
0.0
  0
POINT
  5
3457
330
2979
100
AcDbEntity
  8
Defpoints
 62
     0
100
AcDbPoint
 10
564.3316767151247
 20
9.02345118559981
 30
0.0
  0
ENDBLK
  5
2984
330
2979
100
AcDbEntity
  8
0
100
AcDbBlockEnd
  0
BLOCK
  5
2991
330
2985
100
AcDbEntity
  8
0
100
AcDbBlockBegin
  2
*D15
 70
     1
 10
0.0
 20
0.0
 30
0.0
  3
*D15
  1

  0
LINE
  5
34B8
330
2985
100
AcDbEntity
  8
AM_REFDIM
100
AcDbLine
 10
562.7816767151247
 20
-3.154649664007876
 30
0.0
 11
554.7514125121836
 21
-3.154649664007874
 31
0.0
  0
LINE
  5
34B9
330
2985
100
AcDbEntity
  8
AM_REFDIM
100
AcDbLine
 10
573.4816767151247
 20
-1.154649664007848
 30
0.0
 11
554.7514125121836
 21
-1.154649664007843
 31
0.0
  0
LINE
  5
34BA
330
2985
100
AcDbEntity
  8
AM_REFDIM
100
AcDbLine
 10
555.4514125121837
 20
-5.254649664007874
 30
0.0
 11
555.4514125121837
 21
-7.354649664007873
 31
0.0
  0
LINE
  5
34BB
330
2985
100
AcDbEntity
  8
AM_REFDIM
100
AcDbLine
 10
555.4514125121837
 20
0.945350335992156
 30
0.0
 11
555.4514125121837
 21
5.565350335992155
 31
0.0
  0
LINE
  5
34BC
330
2985
100
AcDbEntity
  8
AM_REFDIM
100
AcDbLine
 10
555.4514125121837
 20
-3.154649664007874
 30
0.0
 11
555.4514125121837
 21
-1.154649664007843
 31
0.0
  0
SOLID
  5
34BD
330
2985
100
AcDbEntity
  8
AM_REFDIM
100
AcDbTrace
 10
555.1014125121837
 20
-5.254649664007874
 30
0.0
 11
555.8014125121838
 21
-5.254649664007874
 31
0.0
 12
555.4514125121837
 22
-3.154649664007874
 32
0.0
 13
555.4514125121837
 23
-3.154649664007874
 33
0.0
  0
SOLID
  5
34BE
330
2985
100
AcDbEntity
  8
AM_REFDIM
100
AcDbTrace
 10
555.1014125121837
 20
0.9453503359921562
 30
0.0
 11
555.8014125121838
 21
0.945350335992156
 31
0.0
 12
555.4514125121837
 22
-1.154649664007843
 32
0.0
 13
555.4514125121837
 23
-1.154649664007843
 33
0.0
  0
MTEXT
  5
34BF
330
2985
100
AcDbEntity
  8
AM_REFDIM
100
AcDbMText
 10
553.8414125121837
 20
4.305350335992245
 30
0.0
 40
2.099999999999999
 41
0.0
 71
     5
 72
     1
  1
\A1;2
  7
CHINESET
 11
0.0000000000000001
 21
1.0
 31
0.0
 73
     1
 44
1.0
1001
ACAD
1000
MTEXTBEGIN
1070
    73
1070
     1
1070
    44
1040
1.0
1070
    74
1070
     0
1000
MTEXTEND
  0
POINT
  5
34C0
330
2985
100
AcDbEntity
  8
Defpoints
 62
     0
100
AcDbPoint
 10
563.4816767151248
 20
-3.154649664007877
 30
0.0
  0
POINT
  5
34C1
330
2985
100
AcDbEntity
  8
Defpoints
 62
     0
100
AcDbPoint
 10
574.1816767151248
 20
-1.154649664007848
 30
0.0
  0
POINT
  5
34C2
330
2985
100
AcDbEntity
  8
Defpoints
 62
     0
100
AcDbPoint
 10
555.4514125121837
 20
-1.154649664007843
 30
0.0
  0
ENDBLK
  5
2992
330
2985
100
AcDbEntity
  8
0
100
AcDbBlockEnd
  0
BLOCK
  5
299D
330
2993
100
AcDbEntity
  8
0
100
AcDbBlockBegin
  2
*D16
 70
     1
 10
0.0
 20
0.0
 30
0.0
  3
*D16
  1

  0
LINE
  5
34EA
330
2993
100
AcDbEntity
  8
AM_REFDIM
100
AcDbLine
 10
574.9316767151248
 20
-7.254649664007843
 30
0.0
 11
573.2316767151247
 21
-7.254649664007842
 31
0.0
  0
LINE
  5
34EB
330
2993
100
AcDbEntity
  8
AM_REFDIM
100
AcDbLine
 10
567.8316767151248
 20
0.9453503359921457
 30
0.0
 11
557.3014125121837
 21
0.9453503359921487
 31
0.0
  0
LINE
  5
34EC
330
2993
100
AcDbEntity
  8
AM_REFDIM
100
AcDbLine
 10
548.4514125121838
 20
-5.154649664007835
 30
0.0
 11
548.4514125121838
 21
-1.154649664007848
 31
0.0
  0
SOLID
  5
34ED
330
2993
100
AcDbEntity
  8
AM_REFDIM
100
AcDbTrace
 10
548.1014125121837
 20
-5.154649664007835
 30
0.0
 11
548.8014125121837
 21
-5.154649664007835
 31
0.0
 12
548.4514125121838
 22
-7.254649664007835
 32
0.0
 13
548.4514125121838
 23
-7.254649664007835
 33
0.0
  0
SOLID
  5
34EE
330
2993
100
AcDbEntity
  8
AM_REFDIM
100
AcDbTrace
 10
548.1014125121837
 20
-1.154649664007848
 30
0.0
 11
548.8014125121837
 21
-1.154649664007848
 31
0.0
 12
548.4514125121838
 22
0.9453503359921512
 32
0.0
 13
548.4514125121838
 23
0.9453503359921512
 33
0.0
  0
MTEXT
  5
34EF
330
2993
100
AcDbEntity
  8
AM_REFDIM
100
AcDbMText
 10
546.8414125121837
 20
-3.154649664007753
 30
0.0
 40
2.099999999999999
 41
0.0
 71
     5
 72
     1
  1
\A1;8.2
  7
CHINESET
 11
0.0000000000000001
 21
1.0
 31
0.0
 73
     1
 44
1.0
1001
ACAD
1000
MTEXTBEGIN
1070
    73
1070
     1
1070
    44
1040
1.0
1070
    74
1070
     0
1000
MTEXTEND
  0
POINT
  5
34F0
330
2993
100
AcDbEntity
  8
Defpoints
 62
     0
100
AcDbPoint
 10
575.6316767151248
 20
-7.254649664007843
 30
0.0
  0
POINT
  5
34F1
330
2993
100
AcDbEntity
  8
Defpoints
 62
     0
100
AcDbPoint
 10
568.5316767151248
 20
0.9453503359921455
 30
0.0
  0
POINT
  5
34F2
330
2993
100
AcDbEntity
  8
Defpoints
 62
     0
100
AcDbPoint
 10
548.4514125121838
 20
0.9453503359921512
 30
0.0
  0
LINE
  5
34F3
330
2993
100
AcDbEntity
  8
AM_REFDIM
100
AcDbLine
 10
553.9514125121837
 20
-7.254649664007836
 30
0.0
 11
547.7514125121837
 21
-7.254649664007835
 31
0.0
  0
LINE
  5
34F4
330
2993
100
AcDbEntity
  8
AM_REFDIM
100
AcDbLine
 10
553.6014125121837
 20
0.9453503359921496
 30
0.0
 11
547.7514125121837
 21
0.9453503359921512
 31
0.0
  0
LINE
  5
34F5
330
2993
100
AcDbEntity
  8
AM_REFDIM
100
AcDbLine
 10
570.2316767151248
 20
-7.254649664007841
 30
0.0
 11
556.9514125121838
 21
-7.254649664007837
 31
0.0
  0
ENDBLK
  5
299E
330
2993
100
AcDbEntity
  8
0
100
AcDbBlockEnd
  0
BLOCK
  5
29A9
330
299F
100
AcDbEntity
  8
0
100
AcDbBlockBegin
  2
*D17
 70
     1
 10
0.0
 20
0.0
 30
0.0
  3
*D17
  1

  0
LINE
  5
3422
330
299F
100
AcDbEntity
  8
AM_REFDIM
100
AcDbLine
 10
564.3316767151247
 20
-61.63997210580074
 30
0.0
 11
564.3316767151247
 21
-67.90036228632228
 31
0.0
  0
LINE
  5
3423
330
299F
100
AcDbEntity
  8
AM_REFDIM
100
AcDbLine
 10
607.7816767151248
 20
-61.63997210580088
 30
0.0
 11
607.7816767151248
 21
-67.90036228632228
 31
0.0
  0
LINE
  5
3424
330
299F
100
AcDbEntity
  8
AM_REFDIM
100
AcDbLine
 10
566.4316767151247
 20
-67.20036228632228
 30
0.0
 11
605.6816767151247
 21
-67.20036228632228
 31
0.0
  0
SOLID
  5
3425
330
299F
100
AcDbEntity
  8
AM_REFDIM
100
AcDbTrace
 10
566.4316767151247
 20
-66.85036228632228
 30
0.0
 11
566.4316767151247
 21
-67.55036228632227
 31
0.0
 12
564.3316767151247
 22
-67.20036228632228
 32
0.0
 13
564.3316767151247
 23
-67.20036228632228
 33
0.0
  0
SOLID
  5
3426
330
299F
100
AcDbEntity
  8
AM_REFDIM
100
AcDbTrace
 10
605.6816767151247
 20
-66.85036228632228
 30
0.0
 11
605.6816767151247
 21
-67.55036228632227
 31
0.0
 12
607.7816767151248
 22
-67.20036228632228
 32
0.0
 13
607.7816767151248
 23
-67.20036228632228
 33
0.0
  0
MTEXT
  5
3427
330
299F
100
AcDbEntity
  8
AM_REFDIM
100
AcDbMText
 10
586.3629258278796
 20
-65.59036228632227
 30
0.0
 40
2.099999999999999
 41
0.0
 71
     5
 72
     1
  1
\A1;43.45
  7
CHINESET
 73
     1
 44
1.0
1001
ACAD
1000
MTEXTBEGIN
1070
    73
1070
     1
1070
    44
1040
1.0
1070
    74
1070
     0
1000
MTEXTEND
  0
POINT
  5
3428
330
299F
100
AcDbEntity
  8
Defpoints
 62
     0
100
AcDbPoint
 10
564.3316767151247
 20
-60.93997210580074
 30
0.0
  0
POINT
  5
3429
330
299F
100
AcDbEntity
  8
Defpoints
 62
     0
100
AcDbPoint
 10
607.7816767151248
 20
-60.93997210580088
 30
0.0
  0
POINT
  5
342A
330
299F
100
AcDbEntity
  8
Defpoints
 62
     0
100
AcDbPoint
 10
607.7816767151248
 20
-67.20036228632228
 30
0.0
  0
ENDBLK
  5
29AA
330
299F
100
AcDbEntity
  8
0
100
AcDbBlockEnd
  0
BLOCK
  5
29B5
330
29AB
100
AcDbEntity
  8
0
100
AcDbBlockBegin
  2
*D18
 70
     1
 10
0.0
 20
0.0
 30
0.0
  3
*D18
  1

  0
LINE
  5
342B
330
29AB
100
AcDbEntity
  8
AM_REFDIM
100
AcDbLine
 10
564.3316767151247
 20
-61.63997210580074
 30
0.0
 11
564.3316767151247
 21
-73.86493039107673
 31
0.0
  0
LINE
  5
342C
330
29AB
100
AcDbEntity
  8
AM_REFDIM
100
AcDbLine
 10
617.2816767151248
 20
-43.23997210580087
 30
0.0
 11
617.2816767151248
 21
-73.86493039107673
 31
0.0
  0
LINE
  5
342D
330
29AB
100
AcDbEntity
  8
AM_REFDIM
100
AcDbLine
 10
566.4316767151247
 20
-73.16493039107673
 30
0.0
 11
615.1816767151248
 21
-73.16493039107673
 31
0.0
  0
SOLID
  5
342E
330
29AB
100
AcDbEntity
  8
AM_REFDIM
100
AcDbTrace
 10
566.4316767151247
 20
-72.81493039107672
 30
0.0
 11
566.4316767151247
 21
-73.51493039107672
 31
0.0
 12
564.3316767151247
 22
-73.16493039107673
 32
0.0
 13
564.3316767151247
 23
-73.16493039107673
 33
0.0
  0
SOLID
  5
342F
330
29AB
100
AcDbEntity
  8
AM_REFDIM
100
AcDbTrace
 10
615.1816767151248
 20
-72.81493039107672
 30
0.0
 11
615.1816767151248
 21
-73.51493039107672
 31
0.0
 12
617.2816767151248
 22
-73.16493039107673
 32
0.0
 13
617.2816767151248
 23
-73.16493039107673
 33
0.0
  0
MTEXT
  5
3430
330
29AB
100
AcDbEntity
  8
AM_REFDIM
100
AcDbMText
 10
590.6710605531047
 20
-71.21493039107672
 30
0.0
 40
2.099999999999999
 41
0.0
 71
     5
 72
     1
  1
\A1;(53)
  7
CHINESET
 73
     1
 44
1.0
1001
ACAD
1000
MTEXTBEGIN
1070
    73
1070
     1
1070
    44
1040
1.0
1070
    74
1070
     0
1000
MTEXTEND
  0
POINT
  5
3431
330
29AB
100
AcDbEntity
  8
Defpoints
 62
     0
100
AcDbPoint
 10
564.3316767151247
 20
-60.93997210580074
 30
0.0
  0
POINT
  5
3432
330
29AB
100
AcDbEntity
  8
Defpoints
 62
     0
100
AcDbPoint
 10
617.2816767151248
 20
-42.53997210580087
 30
0.0
  0
POINT
  5
3433
330
29AB
100
AcDbEntity
  8
Defpoints
 62
     0
100
AcDbPoint
 10
617.2816767151248
 20
-73.16493039107673
 30
0.0
  0
ENDBLK
  5
29B6
330
29AB
100
AcDbEntity
  8
0
100
AcDbBlockEnd
  0
BLOCK
  5
29CD
330
29C3
100
AcDbEntity
  8
0
100
AcDbBlockBegin
  2
*D19
 70
     1
 10
0.0
 20
0.0
 30
0.0
  3
*D19
  1

  0
LINE
  5
3434
330
29C3
100
AcDbEntity
  8
AM_REFDIM
100
AcDbLine
 10
563.6316767151247
 20
-60.93997210580074
 30
0.0
 11
556.0816767151246
 21
-60.93997210580073
 31
0.0
  0
LINE
  5
3435
330
29C3
100
AcDbEntity
  8
AM_REFDIM
100
AcDbLine
 10
563.6316767151247
 20
-45.93997210580073
 30
0.0
 11
556.0816767151246
 21
-45.93997210580073
 31
0.0
  0
LINE
  5
3436
330
29C3
100
AcDbEntity
  8
AM_REFDIM
100
AcDbLine
 10
556.7816767151247
 20
-58.83997210580073
 30
0.0
 11
556.7816767151247
 21
-48.03997210580073
 31
0.0
  0
SOLID
  5
3437
330
29C3
100
AcDbEntity
  8
AM_REFDIM
100
AcDbTrace
 10
556.4316767151247
 20
-58.83997210580073
 30
0.0
 11
557.1316767151247
 21
-58.83997210580073
 31
0.0
 12
556.7816767151247
 22
-60.93997210580073
 32
0.0
 13
556.7816767151247
 23
-60.93997210580073
 33
0.0
  0
SOLID
  5
3438
330
29C3
100
AcDbEntity
  8
AM_REFDIM
100
AcDbTrace
 10
556.4316767151247
 20
-48.03997210580073
 30
0.0
 11
557.1316767151247
 21
-48.03997210580073
 31
0.0
 12
556.7816767151247
 22
-45.93997210580073
 32
0.0
 13
556.7816767151247
 23
-45.93997210580073
 33
0.0
  0
MTEXT
  5
3439
330
29C3
100
AcDbEntity
  8
AM_REFDIM
100
AcDbMText
 10
555.1716767151247
 20
-53.43997210580064
 30
0.0
 40
2.099999999999999
 41
0.0
 71
     5
 72
     1
  1
\A1;15
  7
CHINESET
 11
0.0000000000000001
 21
1.0
 31
0.0
 73
     1
 44
1.0
1001
ACAD
1000
MTEXTBEGIN
1070
    73
1070
     1
1070
    44
1040
1.0
1070
    74
1070
     0
1000
MTEXTEND
  0
POINT
  5
343A
330
29C3
100
AcDbEntity
  8
Defpoints
 62
     0
100
AcDbPoint
 10
564.3316767151247
 20
-60.93997210580074
 30
0.0
  0
POINT
  5
343B
330
29C3
100
AcDbEntity
  8
Defpoints
 62
     0
100
AcDbPoint
 10
564.3316767151247
 20
-45.93997210580073
 30
0.0
  0
POINT
  5
343C
330
29C3
100
AcDbEntity
  8
Defpoints
 62
     0
100
AcDbPoint
 10
556.7816767151247
 20
-45.93997210580073
 30
0.0
  0
ENDBLK
  5
29CE
330
29C3
100
AcDbEntity
  8
0
100
AcDbBlockEnd
  0
BLOCK
  5
29D9
330
29CF
100
AcDbEntity
  8
0
100
AcDbBlockBegin
  2
*D20
 70
     1
 10
0.0
 20
0.0
 30
0.0
  3
*D20
  1

  0
LINE
  5
3500
330
29CF
100
AcDbEntity
  8
AM_REFDIM
100
AcDbLine
 10
570.5316767151247
 20
-101.0532092199759
 30
0.0
 11
556.0816767151246
 21
-101.0532092199759
 31
0.0
  0
LINE
  5
3501
330
29CF
100
AcDbEntity
  8
AM_REFDIM
100
AcDbLine
 10
577.6316767151247
 20
-90.05320921997592
 30
0.0
 11
556.0816767151246
 21
-90.05320921997592
 31
0.0
  0
LINE
  5
3502
330
29CF
100
AcDbEntity
  8
AM_REFDIM
100
AcDbLine
 10
556.7816767151247
 20
-98.95320921997589
 30
0.0
 11
556.7816767151247
 21
-92.15320921997591
 31
0.0
  0
SOLID
  5
3503
330
29CF
100
AcDbEntity
  8
AM_REFDIM
100
AcDbTrace
 10
556.4316767151247
 20
-98.95320921997589
 30
0.0
 11
557.1316767151247
 21
-98.95320921997589
 31
0.0
 12
556.7816767151247
 22
-101.0532092199759
 32
0.0
 13
556.7816767151247
 23
-101.0532092199759
 33
0.0
  0
SOLID
  5
3504
330
29CF
100
AcDbEntity
  8
AM_REFDIM
100
AcDbTrace
 10
556.4316767151247
 20
-92.15320921997591
 30
0.0
 11
557.1316767151247
 21
-92.15320921997591
 31
0.0
 12
556.7816767151247
 22
-90.05320921997592
 32
0.0
 13
556.7816767151247
 23
-90.05320921997592
 33
0.0
  0
MTEXT
  5
3505
330
29CF
100
AcDbEntity
  8
AM_REFDIM
100
AcDbMText
 10
555.1716767151247
 20
-95.5532092199758
 30
0.0
 40
2.099999999999999
 41
0.0
 71
     5
 72
     1
  1
\A1;11
  7
CHINESET
 11
0.0000000000000001
 21
1.0
 31
0.0
 73
     1
 44
1.0
1001
ACAD
1000
MTEXTBEGIN
1070
    73
1070
     1
1070
    44
1040
1.0
1070
    74
1070
     0
1000
MTEXTEND
  0
POINT
  5
3506
330
29CF
100
AcDbEntity
  8
Defpoints
 62
     0
100
AcDbPoint
 10
571.2316767151247
 20
-101.0532092199759
 30
0.0
  0
POINT
  5
3507
330
29CF
100
AcDbEntity
  8
Defpoints
 62
     0
100
AcDbPoint
 10
578.3316767151247
 20
-90.05320921997592
 30
0.0
  0
POINT
  5
3508
330
29CF
100
AcDbEntity
  8
Defpoints
 62
     0
100
AcDbPoint
 10
556.7816767151247
 20
-90.05320921997592
 30
0.0
  0
ENDBLK
  5
29DA
330
29CF
100
AcDbEntity
  8
0
100
AcDbBlockEnd
  0
BLOCK
  5
29F1
330
29E7
100
AcDbEntity
  8
0
100
AcDbBlockBegin
  2
*D21
 70
     1
 10
0.0
 20
0.0
 30
0.0
  3
*D21
  1

  0
LINE
  5
33F3
330
29E7
100
AcDbEntity
  8
AM_REFDIM
100
AcDbLine
 10
564.3316767151247
 20
-101.2532092199758
 30
0.0
 11
564.3316767151247
 21
-110.3428725919208
 31
0.0
  0
LINE
  5
33F4
330
29E7
100
AcDbEntity
  8
AM_REFDIM
100
AcDbLine
 10
573.5316767151248
 20
-99.1527092199759
 30
0.0
 11
573.5316767151248
 21
-110.3428725919208
 31
0.0
  0
LINE
  5
33F5
330
29E7
100
AcDbEntity
  8
AM_REFDIM
100
AcDbLine
 10
566.4316767151247
 20
-109.6428725919208
 30
0.0
 11
571.4316767151248
 21
-109.6428725919208
 31
0.0
  0
SOLID
  5
33F6
330
29E7
100
AcDbEntity
  8
AM_REFDIM
100
AcDbTrace
 10
566.4316767151247
 20
-109.2928725919208
 30
0.0
 11
566.4316767151247
 21
-109.9928725919208
 31
0.0
 12
564.3316767151247
 22
-109.6428725919208
 32
0.0
 13
564.3316767151247
 23
-109.6428725919208
 33
0.0
  0
SOLID
  5
33F7
330
29E7
100
AcDbEntity
  8
AM_REFDIM
100
AcDbTrace
 10
571.4316767151248
 20
-109.2928725919208
 30
0.0
 11
571.4316767151248
 21
-109.9928725919208
 31
0.0
 12
573.5316767151248
 22
-109.6428725919208
 32
0.0
 13
573.5316767151248
 23
-109.6428725919208
 33
0.0
  0
MTEXT
  5
33F8
330
29E7
100
AcDbEntity
  8
AM_REFDIM
100
AcDbMText
 10
568.9316767151248
 20
-108.0328725919208
 30
0.0
 40
2.099999999999999
 41
0.0
 71
     5
 72
     1
  1
\A1;9.2
  7
CHINESET
 73
     1
 44
1.0
1001
ACAD
1000
MTEXTBEGIN
1070
    73
1070
     1
1070
    44
1040
1.0
1070
    74
1070
     0
1000
MTEXTEND
  0
POINT
  5
33F9
330
29E7
100
AcDbEntity
  8
Defpoints
 62
     0
100
AcDbPoint
 10
564.3316767151247
 20
-100.5532092199758
 30
0.0
  0
POINT
  5
33FA
330
29E7
100
AcDbEntity
  8
Defpoints
 62
     0
100
AcDbPoint
 10
573.5316767151248
 20
-98.4527092199759
 30
0.0
  0
POINT
  5
33FB
330
29E7
100
AcDbEntity
  8
Defpoints
 62
     0
100
AcDbPoint
 10
573.5316767151248
 20
-109.6428725919208
 30
0.0
  0
ENDBLK
  5
29F2
330
29E7
100
AcDbEntity
  8
0
100
AcDbBlockEnd
  0
BLOCK
  5
29FF
330
29F3
100
AcDbEntity
  8
0
100
AcDbBlockBegin
  2
*D22
 70
     1
 10
0.0
 20
0.0
 30
0.0
  3
*D22
  1

  0
LINE
  5
33EA
330
29F3
100
AcDbEntity
  8
AM_REFDIM
100
AcDbLine
 10
573.5316767151248
 20
-99.1527092199759
 30
0.0
 11
573.5316767151248
 21
-110.3428725919208
 31
0.0
  0
LINE
  5
33EB
330
29F3
100
AcDbEntity
  8
AM_REFDIM
100
AcDbLine
 10
580.5316767151248
 20
-99.1527092199759
 30
0.0
 11
580.5316767151248
 21
-110.3428725919208
 31
0.0
  0
LINE
  5
33EC
330
29F3
100
AcDbEntity
  8
AM_REFDIM
100
AcDbLine
 10
575.6316767151248
 20
-109.6428725919208
 30
0.0
 11
578.4316767151247
 21
-109.6428725919208
 31
0.0
  0
SOLID
  5
33ED
330
29F3
100
AcDbEntity
  8
AM_REFDIM
100
AcDbTrace
 10
575.6316767151248
 20
-109.2928725919208
 30
0.0
 11
575.6316767151248
 21
-109.9928725919208
 31
0.0
 12
573.5316767151248
 22
-109.6428725919208
 32
0.0
 13
573.5316767151248
 23
-109.6428725919208
 33
0.0
  0
SOLID
  5
33EE
330
29F3
100
AcDbEntity
  8
AM_REFDIM
100
AcDbTrace
 10
578.4316767151247
 20
-109.2928725919208
 30
0.0
 11
578.4316767151247
 21
-109.9928725919208
 31
0.0
 12
580.5316767151248
 22
-109.6428725919208
 32
0.0
 13
580.5316767151248
 23
-109.6428725919208
 33
0.0
  0
MTEXT
  5
33EF
330
29F3
100
AcDbEntity
  8
AM_REFDIM
100
AcDbMText
 10
577.0316767151248
 20
-108.0328725919208
 30
0.0
 40
2.099999999999999
 41
0.0
 71
     5
 72
     1
  1
\A1;7
  7
CHINESET
 73
     1
 44
1.0
1001
ACAD
1000
MTEXTBEGIN
1070
    73
1070
     1
1070
    44
1040
1.0
1070
    74
1070
     0
1000
MTEXTEND
  0
POINT
  5
33F0
330
29F3
100
AcDbEntity
  8
Defpoints
 62
     0
100
AcDbPoint
 10
573.5316767151248
 20
-98.4527092199759
 30
0.0
  0
POINT
  5
33F1
330
29F3
100
AcDbEntity
  8
Defpoints
 62
     0
100
AcDbPoint
 10
580.5316767151248
 20
-98.4527092199759
 30
0.0
  0
POINT
  5
33F2
330
29F3
100
AcDbEntity
  8
Defpoints
 62
     0
100
AcDbPoint
 10
580.5316767151248
 20
-109.6428725919208
 30
0.0
  0
ENDBLK
  5
2A00
330
29F3
100
AcDbEntity
  8
0
100
AcDbBlockEnd
  0
BLOCK
  5
2A0B
330
2A01
100
AcDbEntity
  8
0
100
AcDbBlockBegin
  2
*D23
 70
     1
 10
0.0
 20
0.0
 30
0.0
  3
*D23
  1

  0
LINE
  5
340E
330
2A01
100
AcDbEntity
  8
AM_REFDIM
100
AcDbLine
 10
638.8123060210126
 20
-60.93997210580079
 30
0.0
 11
631.6561929291962
 21
-60.93997210580079
 31
0.0
  0
LINE
  5
340F
330
2A01
100
AcDbEntity
  8
AM_REFDIM
100
AcDbLine
 10
639.3123060210125
 20
-33.43997210580085
 30
0.0
 11
631.6561929291962
 21
-33.43997210580085
 31
0.0
  0
LINE
  5
3410
330
2A01
100
AcDbEntity
  8
AM_REFDIM
100
AcDbLine
 10
632.3561929291962
 20
-58.83997210580079
 30
0.0
 11
632.3561929291962
 21
-35.53997210580085
 31
0.0
  0
SOLID
  5
3411
330
2A01
100
AcDbEntity
  8
AM_REFDIM
100
AcDbTrace
 10
632.0061929291962
 20
-58.83997210580079
 30
0.0
 11
632.7061929291962
 21
-58.83997210580079
 31
0.0
 12
632.3561929291962
 22
-60.93997210580079
 32
0.0
 13
632.3561929291962
 23
-60.93997210580079
 33
0.0
  0
SOLID
  5
3412
330
2A01
100
AcDbEntity
  8
AM_REFDIM
100
AcDbTrace
 10
632.0061929291962
 20
-35.53997210580085
 30
0.0
 11
632.7061929291962
 21
-35.53997210580085
 31
0.0
 12
632.3561929291962
 22
-33.43997210580085
 32
0.0
 13
632.3561929291962
 23
-33.43997210580085
 33
0.0
  0
MTEXT
  5
3413
330
2A01
100
AcDbEntity
  8
AM_REFDIM
100
AcDbMText
 10
630.7461929291962
 20
-47.18997210580071
 30
0.0
 40
2.099999999999999
 41
0.0
 71
     5
 72
     1
  1
\A1;27.5
  7
CHINESET
 11
0.0000000000000001
 21
1.0
 31
0.0
 73
     1
 44
1.0
1001
ACAD
1000
MTEXTBEGIN
1070
    73
1070
     1
1070
    44
1040
1.0
1070
    74
1070
     0
1000
MTEXTEND
  0
POINT
  5
3414
330
2A01
100
AcDbEntity
  8
Defpoints
 62
     0
100
AcDbPoint
 10
639.5123060210127
 20
-60.93997210580079
 30
0.0
  0
POINT
  5
3415
330
2A01
100
AcDbEntity
  8
Defpoints
 62
     0
100
AcDbPoint
 10
640.0123060210126
 20
-33.43997210580085
 30
0.0
  0
POINT
  5
3416
330
2A01
100
AcDbEntity
  8
Defpoints
 62
     0
100
AcDbPoint
 10
632.3561929291962
 20
-33.43997210580085
 30
0.0
  0
ENDBLK
  5
2A0C
330
2A01
100
AcDbEntity
  8
0
100
AcDbBlockEnd
  0
BLOCK
  5
2A14
330
2A0D
100
AcDbEntity
  8
0
100
AcDbBlockBegin
  2
*D24
 70
     1
 10
0.0
 20
0.0
 30
0.0
  3
*D24
  1

  0
LINE
  5
2F5C
330
2A0D
100
AcDbEntity
  8
AM_REFDIM
100
AcDbLine
 10
582.6681674666761
 20
-92.53299275115555
 30
0.0
 11
587.0777210125459
 21
-86.29949689833713
 31
0.0
  0
LINE
  5
2F5D
330
2A0D
100
AcDbEntity
  8
AM_REFDIM
100
AcDbLine
 10
587.0777210125459
 20
-86.29949689833713
 30
0.0
 11
602.7777210125459
 21
-86.29949689833706
 31
0.0
  0
SOLID
  5
2F5E
330
2A0D
100
AcDbEntity
  8
AM_REFDIM
100
AcDbTrace
 10
582.3824327014139
 20
-92.33086496009102
 30
0.0
 11
582.9539022319381
 21
-92.73512054222001
 31
0.0
 12
581.455400720289
 22
-94.24740134272822
 32
0.0
 13
581.455400720289
 23
-94.24740134272822
 33
0.0
  0
MTEXT
  5
2F5F
330
2A0D
100
AcDbEntity
  8
AM_REFDIM
100
AcDbMText
 10
595.2777210125462
 20
-84.54949689833719
 30
0.0
 40
2.099999999999999
 41
0.0
 71
     5
 72
     1
  1
3-M3*0.5
  7
CHINA
 73
     1
 44
1.0
1001
ACAD
1000
MTEXTBEGIN
1070
    73
1070
     1
1070
    44
1040
1.0
1070
    74
1070
     0
1000
MTEXTEND
  0
POINT
  5
2F60
330
2A0D
100
AcDbEntity
  8
Defpoints
 62
     0
100
AcDbPoint
 10
581.455400720289
 20
-94.24740134272822
 30
0.0
  0
POINT
  5
2F61
330
2A0D
100
AcDbEntity
  8
Defpoints
 62
     0
100
AcDbPoint
 10
579.6079527099597
 20
-96.85901709722381
 30
0.0
  0
ENDBLK
  5
2A15
330
2A0D
100
AcDbEntity
  8
0
100
AcDbBlockEnd
  0
BLOCK
  5
2D39
330
2D2F
100
AcDbEntity
  8
0
100
AcDbBlockBegin
  2
*D25
 70
     1
 10
0.0
 20
0.0
 30
0.0
  3
*D25
  1

  0
LINE
  5
33E1
330
2D2F
100
AcDbEntity
  8
AM_REFDIM
100
AcDbLine
 10
564.3316767151247
 20
-101.2532092199758
 30
0.0
 11
564.3316767151247
 21
-115.3428725919207
 31
0.0
  0
LINE
  5
33E2
330
2D2F
100
AcDbEntity
  8
AM_REFDIM
100
AcDbLine
 10
612.7816767151248
 20
-100.2532092199758
 30
0.0
 11
612.7816767151248
 21
-115.3428725919207
 31
0.0
  0
LINE
  5
33E3
330
2D2F
100
AcDbEntity
  8
AM_REFDIM
100
AcDbLine
 10
566.4316767151247
 20
-114.6428725919207
 30
0.0
 11
610.6816767151248
 21
-114.6428725919207
 31
0.0
  0
SOLID
  5
33E4
330
2D2F
100
AcDbEntity
  8
AM_REFDIM
100
AcDbTrace
 10
566.4316767151247
 20
-114.2928725919207
 30
0.0
 11
566.4316767151247
 21
-114.9928725919207
 31
0.0
 12
564.3316767151247
 22
-114.6428725919207
 32
0.0
 13
564.3316767151247
 23
-114.6428725919207
 33
0.0
  0
SOLID
  5
33E5
330
2D2F
100
AcDbEntity
  8
AM_REFDIM
100
AcDbTrace
 10
610.6816767151248
 20
-114.2928725919207
 30
0.0
 11
610.6816767151248
 21
-114.9928725919207
 31
0.0
 12
612.7816767151248
 22
-114.6428725919207
 32
0.0
 13
612.7816767151248
 23
-114.6428725919207
 33
0.0
  0
MTEXT
  5
33E6
330
2D2F
100
AcDbEntity
  8
AM_REFDIM
100
AcDbMText
 10
588.5566767151248
 20
-112.4828725919207
 30
0.0
 40
2.099999999999999
 41
0.0
 71
     5
 72
     1
  1
\A1;(48.5)
  7
CHINESET
 73
     1
 44
1.0
1001
ACAD
1000
MTEXTBEGIN
1070
    73
1070
     1
1070
    44
1040
1.0
1070
    74
1070
     0
1000
MTEXTEND
  0
POINT
  5
33E7
330
2D2F
100
AcDbEntity
  8
Defpoints
 62
     0
100
AcDbPoint
 10
564.3316767151247
 20
-100.5532092199758
 30
0.0
  0
POINT
  5
33E8
330
2D2F
100
AcDbEntity
  8
Defpoints
 62
     0
100
AcDbPoint
 10
612.7816767151248
 20
-99.55320921997582
 30
0.0
  0
POINT
  5
33E9
330
2D2F
100
AcDbEntity
  8
Defpoints
 62
     0
100
AcDbPoint
 10
612.7816767151248
 20
-114.6428725919207
 30
0.0
  0
ENDBLK
  5
2D3A
330
2D2F
100
AcDbEntity
  8
0
100
AcDbBlockEnd
  0
BLOCK
  5
2FCA
330
2FBE
100
AcDbEntity
  8
0
100
AcDbBlockBegin
  2
*D26
 70
     1
 10
0.0
 20
0.0
 30
0.0
  3
*D26
  1

  0
LINE
  5
3417
330
2FBE
100
AcDbEntity
  8
AM_REFDIM
100
AcDbLine
 10
581.1316767151248
 20
-47.33997210580077
 30
0.0
 11
583.9190029948886
 21
-47.33997210580077
 31
0.0
  0
LINE
  5
3418
330
2FBE
100
AcDbEntity
  8
AM_REFDIM
100
AcDbLine
 10
581.1316767151248
 20
-45.93997210580079
 30
0.0
 11
583.9190029948886
 21
-45.93997210580079
 31
0.0
  0
LINE
  5
3419
330
2FBE
100
AcDbEntity
  8
AM_REFDIM
100
AcDbLine
 10
583.2190029948885
 20
-49.43997210580077
 30
0.0
 11
583.2190029948885
 21
-51.53997210580077
 31
0.0
  0
LINE
  5
341A
330
2FBE
100
AcDbEntity
  8
AM_REFDIM
100
AcDbLine
 10
583.2190029948885
 20
-43.83997210580079
 30
0.0
 11
583.2190029948885
 21
-36.51997210580079
 31
0.0
  0
LINE
  5
341B
330
2FBE
100
AcDbEntity
  8
AM_REFDIM
100
AcDbLine
 10
583.2190029948885
 20
-47.33997210580077
 30
0.0
 11
583.2190029948885
 21
-45.93997210580079
 31
0.0
  0
SOLID
  5
341C
330
2FBE
100
AcDbEntity
  8
AM_REFDIM
100
AcDbTrace
 10
582.8690029948885
 20
-49.43997210580077
 30
0.0
 11
583.5690029948885
 21
-49.43997210580077
 31
0.0
 12
583.2190029948885
 22
-47.33997210580077
 32
0.0
 13
583.2190029948885
 23
-47.33997210580077
 33
0.0
  0
SOLID
  5
341D
330
2FBE
100
AcDbEntity
  8
AM_REFDIM
100
AcDbTrace
 10
582.8690029948885
 20
-43.83997210580079
 30
0.0
 11
583.5690029948885
 21
-43.83997210580079
 31
0.0
 12
583.2190029948885
 22
-45.93997210580079
 32
0.0
 13
583.2190029948885
 23
-45.93997210580079
 33
0.0
  0
MTEXT
  5
341E
330
2FBE
100
AcDbEntity
  8
AM_REFDIM
100
AcDbMText
 10
581.6090029948886
 20
-39.1299721058007
 30
0.0
 40
2.099999999999999
 41
0.0
 71
     5
 72
     1
  1
\A1;1.4
  7
CHINESET
 11
0.0000000000000001
 21
1.0
 31
0.0
 73
     1
 44
1.0
1001
ACAD
1000
MTEXTBEGIN
1070
    73
1070
     1
1070
    44
1040
1.0
1070
    74
1070
     0
1000
MTEXTEND
  0
POINT
  5
341F
330
2FBE
100
AcDbEntity
  8
Defpoints
 62
     0
100
AcDbPoint
 10
580.4316767151248
 20
-47.33997210580077
 30
0.0
  0
POINT
  5
3420
330
2FBE
100
AcDbEntity
  8
Defpoints
 62
     0
100
AcDbPoint
 10
580.4316767151248
 20
-45.93997210580079
 30
0.0
  0
POINT
  5
3421
330
2FBE
100
AcDbEntity
  8
Defpoints
 62
     0
100
AcDbPoint
 10
583.2190029948885
 20
-45.93997210580079
 30
0.0
  0
ENDBLK
  5
2FCB
330
2FBE
100
AcDbEntity
  8
0
100
AcDbBlockEnd
  0
BLOCK
  5
328E
330
3284
100
AcDbEntity
  8
0
100
AcDbBlockBegin
  2
*D27
 70
     1
 10
0.0
 20
0.0
 30
0.0
  3
*D27
  1

  0
LINE
  5
34D1
330
3284
100
AcDbEntity
  8
AM_REFDIM
100
AcDbLine
 10
563.6316767151247
 20
-8.154649664007846
 30
0.0
 11
540.7514125121837
 21
-8.154649664007841
 31
0.0
  0
LINE
  5
34D2
330
3284
100
AcDbEntity
  8
AM_REFDIM
100
AcDbLine
 10
563.6316767151247
 20
1.845350335992151
 30
0.0
 11
556.9514125121838
 21
1.845350335992153
 31
0.0
  0
LINE
  5
34D3
330
3284
100
AcDbEntity
  8
AM_REFDIM
100
AcDbLine
 10
541.4514125121837
 20
-6.054649664007841
 30
0.0
 11
541.4514125121837
 21
-0.2546496640078421
 31
0.0
  0
SOLID
  5
34D4
330
3284
100
AcDbEntity
  8
AM_REFDIM
100
AcDbTrace
 10
541.1014125121837
 20
-6.054649664007841
 30
0.0
 11
541.8014125121837
 21
-6.054649664007841
 31
0.0
 12
541.4514125121837
 22
-8.154649664007841
 32
0.0
 13
541.4514125121837
 23
-8.154649664007841
 33
0.0
  0
SOLID
  5
34D5
330
3284
100
AcDbEntity
  8
AM_REFDIM
100
AcDbTrace
 10
541.1014125121837
 20
-0.2546496640078419
 30
0.0
 11
541.8014125121837
 21
-0.2546496640078421
 31
0.0
 12
541.4514125121837
 22
1.845350335992157
 32
0.0
 13
541.4514125121837
 23
1.845350335992157
 33
0.0
  0
MTEXT
  5
34D6
330
3284
100
AcDbEntity
  8
AM_REFDIM
100
AcDbMText
 10
539.8414125121838
 20
-3.154649664007754
 30
0.0
 40
2.099999999999999
 41
0.0
 71
     5
 72
     1
  1
\A1;10
  7
CHINESET
 11
0.0000000000000001
 21
1.0
 31
0.0
 73
     1
 44
1.0
1001
ACAD
1000
MTEXTBEGIN
1070
    73
1070
     1
1070
    44
1040
1.0
1070
    74
1070
     0
1000
MTEXTEND
  0
POINT
  5
34D7
330
3284
100
AcDbEntity
  8
Defpoints
 62
     0
100
AcDbPoint
 10
564.3316767151247
 20
-8.154649664007848
 30
0.0
  0
POINT
  5
34D8
330
3284
100
AcDbEntity
  8
Defpoints
 62
     0
100
AcDbPoint
 10
564.3316767151247
 20
1.845350335992151
 30
0.0
  0
POINT
  5
34D9
330
3284
100
AcDbEntity
  8
Defpoints
 62
     0
100
AcDbPoint
 10
541.4514125121837
 20
1.845350335992157
 30
0.0
  0
LINE
  5
34DA
330
3284
100
AcDbEntity
  8
AM_REFDIM
100
AcDbLine
 10
553.9514125121837
 20
1.845350335992154
 30
0.0
 11
540.7514125121837
 21
1.845350335992158
 31
0.0
  0
ENDBLK
  5
328F
330
3284
100
AcDbEntity
  8
0
100
AcDbBlockEnd
  0
ENDSEC
  0
SECTION
  2
ENTITIES
  0
POINT
  5
25
330
2
100
AcDbEntity
  8
0
 60
     1
100
AcDbPoint
 10
0.0
 20
0.0
 30
0.0
  0
POINT
  5
26
330
2
100
AcDbEntity
  8
0
 60
     1
100
AcDbPoint
 10
0.0
 20
0.0
 30
0.0
  0
POINT
  5
27
330
2
100
AcDbEntity
  8
0
 60
     1
100
AcDbPoint
 10
0.0
 20
0.0
 30
0.0
  0
POINT
  5
28
330
2
100
AcDbEntity
  8
0
 60
     1
100
AcDbPoint
 10
0.0
 20
0.0
 30
0.0
  0
POINT
  5
29
330
2
100
AcDbEntity
  8
0
 60
     1
100
AcDbPoint
 10
0.0
 20
0.0
 30
0.0
  0
POINT
  5
2A
330
2
100
AcDbEntity
  8
0
 60
     1
100
AcDbPoint
 10
0.0
 20
0.0
 30
0.0
  0
POINT
  5
2B
330
2
100
AcDbEntity
  8
0
 60
     1
100
AcDbPoint
 10
0.0
 20
0.0
 30
0.0
  0
POINT
  5
2C
330
2
100
AcDbEntity
  8
0
 60
     1
100
AcDbPoint
 10
0.0
 20
0.0
 30
0.0
  0
POINT
  5
2D
330
2
100
AcDbEntity
  8
0
 60
     1
100
AcDbPoint
 10
0.0
 20
0.0
 30
0.0
  0
POINT
  5
2E
330
2
100
AcDbEntity
  8
0
 60
     1
100
AcDbPoint
 10
0.0
 20
0.0
 30
0.0
  0
POINT
  5
2F
330
2
100
AcDbEntity
  8
0
 60
     1
100
AcDbPoint
 10
0.0
 20
0.0
 30
0.0
  0
POINT
  5
30
330
2
100
AcDbEntity
  8
0
 60
     1
100
AcDbPoint
 10
0.0
 20
0.0
 30
0.0
  0
DIMENSION
  5
31
330
2
100
AcDbEntity
  8
AM_PARDIM
 60
     1
100
AcDbDimension
  2
*D1
 10
114.5325708695175
 20
128.6938113892625
 30
0.0
 11
112.0244343865779
 21
122.4438113892625
 31
0.0
 70
    32
  1
<>
 71
     5
 42
-1.0
  3
AM_ISO
100
AcDbAlignedDimension
 13
75.37464887656421
 23
116.1938113892625
 33
0.0
 14
75.37464887656421
 24
128.6938113892625
 34
0.0
 50
90.0
100
AcDbRotatedDimension
1001
ACAD_DIMASSOC_CALC_DIMLFAC
1040
-1.0
1001
AD_SKETCHDIM
1005
0
1000
d0
1001
ACAD_DIMASSOC_DIMLFAC
1040
-1.0
1001
ACAD
1000
DSTYLE
1002
{
1070
   144
1040
-1.0
1002
}
  0
DIMENSION
  5
43
330
2
100
AcDbEntity
  8
AM_PARDIM
 60
     1
100
AcDbDimension
  2
*D2
 10
26.87464887656421
 20
122.1938113892625
 30
0.0
 11
24.37464887656419
 21
119.1938113892625
 31
0.0
 70
    32
  1
<>
 71
     5
 42
-1.0
  3
AM_ISO
100
AcDbAlignedDimension
 13
38.87464887656421
 23
116.1938113892625
 33
0.0
 14
38.87464887656421
 24
122.1938113892625
 34
0.0
 50
90.0
100
AcDbRotatedDimension
1001
ACAD_DIMASSOC_CALC_DIMLFAC
1040
-1.0
1001
AD_SKETCHDIM
1005
0
1000
d1
1001
ACAD_DIMASSOC_DIMLFAC
1040
-1.0
1001
ACAD
1000
DSTYLE
1002
{
1070
   144
1040
-1.0
1002
}
  0
DIMENSION
  5
52
330
2
100
AcDbEntity
  8
AM_PARDIM
 60
     1
100
AcDbDimension
  2
*D3
 10
50.87464887656421
 20
140.6938113892625
 30
0.0
 11
44.87464887656421
 21
143.1940738564541
 31
0.0
 70
    32
  1
<>
 71
     5
 42
-1.0
  3
AM_ISO
100
AcDbAlignedDimension
 13
38.87464887656421
 23
122.1938113892625
 33
0.0
 14
50.87464887656421
 24
122.1938113892625
 34
0.0
100
AcDbRotatedDimension
1001
ACAD_DIMASSOC_CALC_DIMLFAC
1040
-1.0
1001
AD_SKETCHDIM
1005
0
1000
d2
1001
ACAD_DIMASSOC_DIMLFAC
1040
-1.0
1001
ACAD
1000
DSTYLE
1002
{
1070
   144
1040
-1.0
1002
}
  0
DIMENSION
  5
5F
330
2
100
AcDbEntity
  8
AM_PARDIM
 60
     1
100
AcDbDimension
  2
*D4
 10
75.37464887656421
 20
160.6938113892625
 30
0.0
 11
57.12464887656421
 21
163.2016854050105
 31
0.0
 70
    32
  1
<>
 71
     5
 42
-1.0
  3
AM_ISO
100
AcDbAlignedDimension
 13
38.87464887656421
 23
116.1938113892625
 33
0.0
 14
75.37464887656421
 24
116.1938113892625
 34
0.0
100
AcDbRotatedDimension
1001
ACAD_DIMASSOC_CALC_DIMLFAC
1040
-1.0
1001
AD_SKETCHDIM
1005
0
1000
d3
1001
ACAD_DIMASSOC_DIMLFAC
1040
-1.0
1001
ACAD
1000
DSTYLE
1002
{
1070
   144
1040
-1.0
1002
}
  0
DIMENSION
  5
6C
330
2
100
AcDbEntity
  8
AM_PARDIM
 60
     1
100
AcDbDimension
  2
*D5
 10
104.5325708695175
 20
116.1938113892625
 30
0.0
 11
102.0325708695175
 21
121.6938113892625
 31
0.0
 70
    32
  1
<>
 71
     5
 42
-1.0
  3
AM_ISO
100
AcDbAlignedDimension
 13
50.87464887656421
 23
127.1938113892625
 33
0.0
 14
75.37464887656421
 24
116.1938113892625
 34
0.0
 50
90.0
100
AcDbRotatedDimension
1001
ACAD_DIMASSOC_CALC_DIMLFAC
1040
-1.0
1001
AD_SKETCHDIM
1005
0
1000
d4
1001
ACAD_DIMASSOC_DIMLFAC
1040
-1.0
1001
ACAD
1000
DSTYLE
1002
{
1070
   144
1040
-1.0
1002
}
  0
DIMENSION
  5
79
330
2
100
AcDbEntity
  8
AM_PARDIM
 60
     1
100
AcDbDimension
  2
*D6
 10
75.37464887656421
 20
150.6938113892625
 30
0.0
 11
70.87464887656421
 21
153.1938113892625
 31
0.0
 70
    32
  1
<>
 71
     5
 42
-1.0
  3
AM_ISO
100
AcDbAlignedDimension
 13
66.3746488765642
 23
128.6938113892625
 33
0.0
 14
75.37464887656421
 24
128.6938113892625
 34
0.0
100
AcDbRotatedDimension
1001
ACAD_DIMASSOC_CALC_DIMLFAC
1040
-1.0
1001
AD_SKETCHDIM
1005
0
1000
d5
1001
ACAD_DIMASSOC_DIMLFAC
1040
-1.0
1001
ACAD
1000
DSTYLE
1002
{
1070
   144
1040
-1.0
1002
}
  0
DIMENSION
  5
86
330
2
100
AcDbEntity
  8
AM_PARDIM
 60
     1
100
AcDbDimension
  2
*D7
 10
66.37464887656418
 20
140.6938113892625
 30
0.0
 11
75.92924205241719
 21
143.2019478722021
 31
0.0
 70
    32
  1
<>
 71
     5
 42
-1.0
  3
AM_ISO
100
AcDbAlignedDimension
 13
63.87464887656418
 23
128.6938113892624
 33
0.0
 14
66.37464887656418
 24
128.6938113892624
 34
0.0
100
AcDbRotatedDimension
1001
ACAD_DIMASSOC_CALC_DIMLFAC
1040
-1.0
1001
AD_SKETCHDIM
1005
0
1000
d25
1001
ACAD_DIMASSOC_DIMLFAC
1040
-1.0
1001
ACAD
1000
DSTYLE
1002
{
1070
   144
1040
-1.0
1002
}
  0
DIMENSION
  5
95
330
2
100
AcDbEntity
  8
AM_PARDIM
 60
     1
100
AcDbDimension
  2
*D8
 10
66.37464887656418
 20
136.030378563861
 30
0.0
 11
74.17464887656418
 21
138.530378563861
 31
0.0
 70
    32
  1
<>
 71
     5
 42
-1.0
  3
AM_ISO
100
AcDbAlignedDimension
 13
66.37464887656418
 23
128.6938113892624
 33
0.0
 14
66.37464887656418
 24
116.1938113892624
 34
0.0
100
AcDbRotatedDimension
1001
ACAD_DIMASSOC_CALC_DIMLFAC
1040
-1.0
1001
AD_SKETCHDIM
1005
0
1000
d26
1001
ACAD_DIMASSOC_DIMLFAC
1040
-1.0
1001
ACAD
1000
DSTYLE
1002
{
1070
   144
1040
-1.0
1002
}
  0
DIMENSION
  5
A3
330
2
100
AcDbEntity
  8
AM_PARDIM
 60
     1
100
AcDbDimension
  2
*D9
 10
94.53257086951754
 20
116.1938113892624
 30
0.0
 11
92.0246968537695
 21
120.9438113892624
 31
0.0
 70
    32
  1
<>
 71
     5
 42
-1.0
  3
AM_ISO
100
AcDbAlignedDimension
 13
63.87464887656418
 23
125.6938113892624
 33
0.0
 14
82.53257086951753
 24
116.1938113892624
 34
0.0
 50
90.0
100
AcDbRotatedDimension
1001
ACAD_DIMASSOC_CALC_DIMLFAC
1040
-1.0
1001
AD_SKETCHDIM
1005
0
1000
d27
1001
ACAD_DIMASSOC_DIMLFAC
1040
-1.0
1001
ACAD
1000
DSTYLE
1002
{
1070
   144
1040
-1.0
1002
}
  0
DIMENSION
  5
B0
330
2
100
AcDbEntity
  8
AM_PARDIM
 60
     1
100
AcDbDimension
  2
*D10
 10
124.5325708695175
 20
116.1938113892624
 30
0.0
 11
122.0244343865779
 21
122.4438113892624
 31
0.0
 70
    32
  1
<>
 71
     5
 42
-1.0
  3
AM_ISO
100
AcDbAlignedDimension
 13
66.37464887656418
 23
128.6938113892624
 33
0.0
 14
82.53257086951753
 24
116.1938113892624
 34
0.0
 50
90.0
100
AcDbRotatedDimension
1001
ACAD_DIMASSOC_CALC_DIMLFAC
1040
-1.0
1001
AD_SKETCHDIM
1005
0
1000
d28
1001
ACAD_DIMASSOC_DIMLFAC
1040
-1.0
1001
ACAD
1000
DSTYLE
1002
{
1070
   144
1040
-1.0
1002
}
  0
LINE
  5
C8
330
2
100
AcDbEntity
  8
AM_7
 60
     1
100
AcDbLine
 10
36.3746488765642
 20
116.1938113892625
 30
0.0
 11
51.3746488765642
 21
116.1938113892625
 31
0.0
  0
MTEXT
  5
151
330
2
100
AcDbEntity
  8
AM_5
 62
     5
100
AcDbMText
 10
33.56078100938999
 20
98.94002315335121
 30
0.0
 40
3.5
 41
0.0
 71
     9
 72
     5
  1

  7
ACISOTS
 73
     1
 44
1.0
1001
ACAD
1000
MTEXTBEGIN
1070
    73
1070
     1
1070
    44
1040
1.0
1070
    74
1070
     0
1000
MTEXTEND
  0
MTEXT
  5
156
330
2
100
AcDbEntity
  8
AM_5
 62
     5
100
AcDbMText
 10
67.11527269722637
 20
92.4148402526181
 30
0.0
 40
3.5
 41
0.0
 71
     9
 72
     5
  1

  7
ACISOTS
 73
     1
 44
1.0
1001
ACAD
1000
MTEXTBEGIN
1070
    73
1070
     1
1070
    44
1040
1.0
1070
    74
1070
     0
1000
MTEXTEND
  0
TEXT
  5
13E2
330
2
100
AcDbEntity
  8
LOGO
  6
Continuous
 62
     7
100
AcDbText
 10
585.3632522545106
 20
-129.9268827036934
 30
0.0
 40
2.621173968320643
  1
MVSF
  7
CHINESET
 72
     1
 11
590.1687378630985
 21
-128.6162957195331
 31
0.0
100
AcDbText
 73
     2
  0
LINE
  5
13E5
330
2
100
AcDbEntity
  8
LOGO
 62
     4
100
AcDbLine
 10
596.4595553870682
 20
-126.2572391480445
 30
0.0
 11
583.8779203391291
 21
-126.2572391480445
 31
0.0
  0
LINE
  5
13E6
330
2
100
AcDbEntity
  8
LOGO
 62
     4
100
AcDbLine
 10
596.4595553870682
 20
-130.9753522910217
 30
0.0
 11
583.8779203391291
 21
-130.9753522910217
 31
0.0
  0
LINE
  5
13E7
330
2
100
AcDbEntity
  8
LOGO
 62
     4
100
AcDbLine
 10
595.4110857997399
 20
-133.3344088625102
 30
0.0
 11
584.9263899264571
 21
-133.3344088625102
 31
0.0
  0
LINE
  5
13E8
330
2
100
AcDbEntity
  8
LOGO
 62
     4
100
AcDbLine
 10
595.4110857997399
 20
-139.1009915928156
 30
0.0
 11
584.9263899264571
 21
-139.1009915928157
 31
0.0
  0
LINE
  5
14D1
330
2
100
AcDbEntity
  8
LOGO
 62
     4
100
AcDbLine
 10
583.8779203391291
 20
-126.2572391480445
 30
0.0
 11
583.8779203391291
 21
-130.9753522910217
 31
0.0
  0
LINE
  5
14D2
330
2
100
AcDbEntity
  8
LOGO
 62
     4
100
AcDbLine
 10
584.9263899264571
 20
-133.3344088625102
 30
0.0
 11
584.9263899264571
 21
-139.1009915928157
 31
0.0
  0
TEXT
  5
14D3
330
2
100
AcDbEntity
  8
LOGO
100
AcDbText
 10
587.8567378630984
 20
-138.4457589016942
 30
0.0
 40
1.36
  1
Model
 72
     4
 11
590.1687378630985
 21
-137.7904046086554
 31
0.0
100
AcDbText
  0
TEXT
  5
14D4
330
2
100
AcDbEntity
  8
LOGO
100
AcDbText
 10
588.1204503630985
 20
-136.1409575842323
 30
0.0
 40
2.048287499999999
  1
型式
  7
CHINESET
 72
     4
 11
590.1687378630985
 21
-135.1692306403347
 31
0.0
100
AcDbText
  0
LINE
  5
14D5
330
2
100
AcDbEntity
  8
LOGO
 62
     4
100
AcDbLine
 10
590.1687378630985
 20
-130.9753522910217
 30
0.0
 11
590.1687378630985
 21
-133.3344088625102
 31
0.0
  0
LINE
  5
14DF
330
2
100
AcDbEntity
  8
LOGO
  6
Continuous
 62
     7
100
AcDbLine
 10
626.1162209412876
 20
-128.616295719533
 30
0.0
 11
628.199567548927
 21
-128.616295719533
 31
0.0
  0
TEXT
  5
14E0
330
2
100
AcDbEntity
  8
LOGO
100
AcDbText
 10
622.3162410082895
 20
-136.1933743903346
 30
0.0
 40
2.048287499999999
  1
單線圈
  7
CHINESET
 72
     4
 11
625.3459996020394
 21
-135.1692306403346
 31
0.0
100
AcDbText
  0
LINE
  5
14E1
330
2
100
AcDbEntity
  8
LOGO
 62
     4
100
AcDbLine
 10
631.5472825832269
 20
-133.3344088625102
 30
0.0
 11
619.1447166208522
 21
-133.3344088625102
 31
0.0
  0
LINE
  5
14E2
330
2
100
AcDbEntity
  8
LOGO
 62
     4
100
AcDbLine
 10
631.5472825832269
 20
-139.1009915928156
 30
0.0
 11
619.1447166208522
 21
-139.1009915928156
 31
0.0
  0
TEXT
  5
14E3
330
2
100
AcDbEntity
  8
LOGO
100
AcDbText
 10
619.3192318855039
 20
-138.2658533898831
 30
0.0
 40
1.36
  1
Single solenoid
 72
     4
 11
625.3459996020394
 21
-137.7904046086553
 31
0.0
100
AcDbText
  0
LINE
  5
14EB
330
2
100
AcDbEntity
  8
LOGO
 62
     4
100
AcDbLine
 10
611.7338969564411
 20
-126.2572391480445
 30
0.0
 11
600.1716867823419
 21
-126.2572391480445
 31
0.0
  0
LINE
  5
14EC
330
2
100
AcDbEntity
  8
LOGO
 62
     4
100
AcDbLine
 10
611.7338969564411
 20
-130.9753522910217
 30
0.0
 11
600.1716867823419
 21
-130.9753522910217
 31
0.0
  0
LINE
  5
14F4
330
2
100
AcDbEntity
  8
LOGO
 62
     4
100
AcDbLine
 10
608.5884881944565
 20
-133.3344088625102
 30
0.0
 11
597.0262780203571
 21
-133.3344088625102
 31
0.0
  0
LINE
  5
14F5
330
2
100
AcDbEntity
  8
LOGO
 62
     4
100
AcDbLine
 10
608.5884881944565
 20
-139.1009915928156
 30
0.0
 11
597.0262780203571
 21
-139.1009915928157
 31
0.0
  0
TEXT
  5
14F6
330
2
100
AcDbEntity
  8
LOGO
100
AcDbText
 10
598.3627374004457
 20
-138.2664046086554
 30
0.0
 40
1.36
  1
Body width
 72
     4
 11
602.807383107407
 21
-137.7904046086554
 31
0.0
100
AcDbText
  0
TEXT
  5
14F7
330
2
100
AcDbEntity
  8
LOGO
100
AcDbText
 10
598.7108081074069
 20
-136.1573378361393
 30
0.0
 40
2.048287499999999
  1
本體寬幅
  7
CHINESET
 72
     4
 11
602.807383107407
 21
-135.1692306403347
 31
0.0
100
AcDbText
  0
LINE
  5
14F8
330
2
100
AcDbEntity
  8
LOGO
 62
     4
100
AcDbLine
 10
600.1716867823419
 20
-126.2572391480445
 30
0.0
 11
600.1716867823419
 21
-130.9753522910217
 31
0.0
  0
LINE
  5
14F9
330
2
100
AcDbEntity
  8
LOGO
 62
     4
100
AcDbLine
 10
596.4595553870682
 20
-126.2572391480445
 30
0.0
 11
596.4595553870682
 21
-130.9753522910217
 31
0.0
  0
LINE
  5
14FA
330
2
100
AcDbEntity
  8
LOGO
  6
Continuous
 62
     7
100
AcDbLine
 10
597.2724153754662
 20
-128.6330080219237
 30
0.0
 11
599.3557619831063
 21
-128.6330080219237
 31
0.0
  0
LINE
  5
14FB
330
2
100
AcDbEntity
  8
LOGO
 62
     4
100
AcDbLine
 10
597.0262780203571
 20
-133.3344088625102
 30
0.0
 11
597.0262780203571
 21
-139.1009915928156
 31
0.0
  0
LINE
  5
14FC
330
2
100
AcDbEntity
  8
LOGO
 62
     4
100
AcDbLine
 10
595.4110857997399
 20
-133.3344088625102
 30
0.0
 11
595.4110857997399
 21
-139.1009915928156
 31
0.0
  0
TEXT
  5
1509
330
2
100
AcDbEntity
  8
LOGO
  6
Continuous
 62
     7
100
AcDbText
 10
602.83234666901
 20
-129.9566069816616
 30
0.0
 40
2.621173968320643
  1
100
  7
CHINESET
 72
     1
 11
605.9527918693917
 21
-128.6460199975013
 31
0.0
100
AcDbText
 73
     2
  0
LINE
  5
150A
330
2
100
AcDbEntity
  8
LOGO
 62
     4
100
AcDbLine
 10
605.9527918693917
 20
-132.154880576766
 30
0.0
 11
602.807383107407
 21
-132.154880576766
 31
0.0
  0
LINE
  5
150B
330
2
100
AcDbEntity
  8
LOGO
 62
     4
100
AcDbLine
 10
602.807383107407
 20
-133.3344088625102
 30
0.0
 11
602.807383107407
 21
-132.154880576766
 31
0.0
  0
LINE
  5
150C
330
2
100
AcDbEntity
  8
LOGO
 62
     4
100
AcDbLine
 10
605.9527918693917
 20
-130.9753522910217
 30
0.0
 11
605.9527918693917
 21
-132.154880576766
 31
0.0
  0
LINE
  5
150D
330
2
100
AcDbEntity
  8
LOGO
 62
     4
100
AcDbLine
 10
608.5884881944565
 20
-133.3344088625102
 30
0.0
 11
608.5884881944565
 21
-139.1009915928156
 31
0.0
  0
LINE
  5
1533
330
2
100
AcDbEntity
  8
LOGO
 62
     4
100
AcDbLine
 10
618.6204818271879
 20
-126.2572391480444
 30
0.0
 11
615.4460283517147
 21
-126.2572391480445
 31
0.0
  0
LINE
  5
1534
330
2
100
AcDbEntity
  8
LOGO
 62
     4
100
AcDbLine
 10
618.6204818271879
 20
-133.3344088625102
 30
0.0
 11
610.2036804150735
 21
-133.3344088625102
 31
0.0
  0
LINE
  5
1535
330
2
100
AcDbEntity
  8
LOGO
 62
     4
100
AcDbLine
 10
618.6204818271879
 20
-130.9753522910217
 30
0.0
 11
615.4460283517147
 21
-130.9753522910217
 31
0.0
  0
LINE
  5
1536
330
2
100
AcDbEntity
  8
LOGO
 62
     4
100
AcDbLine
 10
618.6204818271879
 20
-139.1009915928156
 30
0.0
 11
610.2036804150735
 21
-139.1009915928156
 31
0.0
  0
LINE
  5
1537
330
2
100
AcDbEntity
  8
LOGO
 62
     4
100
AcDbLine
 10
611.7338969564411
 20
-126.2572391480445
 30
0.0
 11
611.7338969564411
 21
-130.9753522910217
 31
0.0
  0
LINE
  5
1538
330
2
100
AcDbEntity
  8
LOGO
 62
     4
100
AcDbLine
 10
615.4460283517147
 20
-126.2572391480445
 30
0.0
 11
615.4460283517147
 21
-130.9753522910217
 31
0.0
  0
TEXT
  5
1539
330
2
100
AcDbEntity
  8
LOGO
100
AcDbText
 10
611.9640811211308
 20
-138.2664046086554
 30
0.0
 40
1.36
  1
3 Way
 72
     4
 11
614.4120811211307
 21
-137.7904046086554
 31
0.0
100
AcDbText
  0
TEXT
  5
153A
330
2
100
AcDbEntity
  8
LOGO
100
AcDbText
 10
610.5684940117558
 20
-136.1863182818209
 30
0.0
 40
2.048287499999999
  1
3 方向
  7
CHINESET
 72
     4
 11
614.4120811211307
 21
-135.1692306403347
 31
0.0
100
AcDbText
  0
LINE
  5
153B
330
2
100
AcDbEntity
  8
LOGO
  6
Continuous
 62
     7
100
AcDbLine
 10
612.5467569448394
 20
-128.6330080219236
 30
0.0
 11
614.630103552479
 21
-128.6330080219236
 31
0.0
  0
LINE
  5
153C
330
2
100
AcDbEntity
  8
LOGO
 62
     4
100
AcDbLine
 10
610.2036804150735
 20
-133.3344088625102
 30
0.0
 11
610.2036804150735
 21
-139.1009915928156
 31
0.0
  0
TEXT
  5
153D
330
2
100
AcDbEntity
  8
LOGO
  6
Continuous
 62
     7
100
AcDbText
 10
616.1595304333443
 20
-129.9268827036934
 30
0.0
 40
2.621173968320643
  1
3
  7
CHINESET
 72
     1
 11
617.0332550894512
 21
-128.6162957195331
 31
0.0
100
AcDbText
 73
     2
  0
LINE
  5
153E
330
2
100
AcDbEntity
  8
LOGO
 62
     4
100
AcDbLine
 10
617.0332549685707
 20
-132.1548805767659
 30
0.0
 11
614.4120811211307
 21
-132.1548805767659
 31
0.0
  0
LINE
  5
153F
330
2
100
AcDbEntity
  8
LOGO
 62
     4
100
AcDbLine
 10
614.4120811211307
 20
-133.3344088625102
 30
0.0
 11
614.4120811211307
 21
-132.1548805767659
 31
0.0
  0
LINE
  5
1540
330
2
100
AcDbEntity
  8
LOGO
 62
     4
100
AcDbLine
 10
617.0332549685707
 20
-130.9753522910217
 30
0.0
 11
617.0332549685707
 21
-132.1548805767659
 31
0.0
  0
LINE
  5
1547
330
2
100
AcDbEntity
  8
LOGO
 62
     4
100
AcDbLine
 10
624.7322302655937
 20
-126.2572391480444
 30
0.0
 11
624.7322302655931
 21
-130.9753522910217
 31
0.0
  0
LINE
  5
1548
330
2
100
AcDbEntity
  8
LOGO
 62
     4
100
AcDbLine
 10
618.6204818271879
 20
-126.2572391480444
 30
0.0
 11
618.6204818271879
 21
-130.9753522910217
 31
0.0
  0
LINE
  5
1549
330
2
100
AcDbEntity
  8
LOGO
 62
     4
100
AcDbLine
 10
619.1447166208522
 20
-126.2572391480444
 30
0.0
 11
619.1447166208522
 21
-130.9753522910217
 31
0.0
  0
LINE
  5
154A
330
2
100
AcDbEntity
  8
LOGO
 62
     4
100
AcDbLine
 10
621.9384734432227
 20
-132.1548805767659
 30
0.0
 11
625.3459996020394
 21
-132.1548805767659
 31
0.0
  0
TEXT
  5
154B
330
2
100
AcDbEntity
  8
LOGO
  6
Continuous
 62
     7
100
AcDbText
 10
620.6853027182658
 20
-129.9566069816615
 30
0.0
 40
2.621173968320643
  1
E1
  7
CHINESET
 72
     1
 11
622.183116414449
 21
-128.6460199975012
 31
0.0
100
AcDbText
 73
     2
  0
LINE
  5
154C
330
2
100
AcDbEntity
  8
LOGO
 62
     4
100
AcDbLine
 10
624.7322302655931
 20
-130.9753522910217
 30
0.0
 11
619.1447166208522
 21
-130.9753522910217
 31
0.0
  0
LINE
  5
154D
330
2
100
AcDbEntity
  8
LOGO
 62
     4
100
AcDbLine
 10
619.1447166208522
 20
-133.3344088625102
 30
0.0
 11
619.1447166208522
 21
-139.1009915928156
 31
0.0
  0
LINE
  5
154E
330
2
100
AcDbEntity
  8
LOGO
 62
     4
100
AcDbLine
 10
618.6204818271879
 20
-133.3344088625102
 30
0.0
 11
618.6204818271879
 21
-139.1009915928156
 31
0.0
  0
LINE
  5
154F
330
2
100
AcDbEntity
  8
LOGO
 62
     4
100
AcDbLine
 10
621.9384734432227
 20
-130.9753522910217
 30
0.0
 11
621.9384734432227
 21
-132.1548805767659
 31
0.0
  0
LINE
  5
1550
330
2
100
AcDbEntity
  8
LOGO
 62
     4
100
AcDbLine
 10
625.3459996020394
 20
-133.3344088625102
 30
0.0
 11
625.3459996020394
 21
-132.1548805767659
 31
0.0
  0
LINE
  5
1553
330
2
100
AcDbEntity
  8
LOGO
 62
     4
100
AcDbLine
 10
624.7322302655937
 20
-126.2572391480444
 30
0.0
 11
619.1447166208522
 21
-126.2572391480444
 31
0.0
  0
LINE
  5
15C0
330
2
100
AcDbEntity
  8
LOGO
 62
     4
100
AcDbLine
 10
654.0193165163032
 20
-133.3344088625102
 30
0.0
 11
641.9539437164322
 21
-133.3344088625102
 31
0.0
  0
TEXT
  5
15C1
330
2
100
AcDbEntity
  8
LOGO
100
AcDbText
 10
642.6826299607196
 20
-138.4704046086553
 30
0.0
 40
1.36
  1
LED indicator
 72
     4
 11
647.9866299607196
 21
-137.7904046086553
 31
0.0
100
AcDbText
  0
LINE
  5
15C2
330
2
100
AcDbEntity
  8
LOGO
 62
     4
100
AcDbLine
 10
654.0193165163032
 20
-139.1009915928156
 30
0.0
 11
641.9539437164322
 21
-139.1009915928156
 31
0.0
  0
LINE
  5
15C4
330
2
100
AcDbEntity
  8
LOGO
 62
     4
100
AcDbLine
 10
640.8769155365831
 20
-133.3344088625102
 30
0.0
 11
632.8102672680492
 21
-133.3344088625102
 31
0.0
  0
LINE
  5
15C5
330
2
100
AcDbEntity
  8
LOGO
 62
     4
100
AcDbLine
 10
642.4251545517578
 20
-130.9753522910217
 30
0.0
 11
628.9750480046278
 21
-130.9753522910217
 31
0.0
  0
LINE
  5
15C6
330
2
100
AcDbEntity
  8
LOGO
 62
     4
100
AcDbLine
 10
642.4251545517578
 20
-126.2572391480444
 30
0.0
 11
628.9750480046278
 21
-126.2572391480444
 31
0.0
  0
LINE
  5
15C7
330
2
100
AcDbEntity
  8
LOGO
 62
     4
100
AcDbLine
 10
640.8769155365831
 20
-139.1009915928156
 30
0.0
 11
632.8102672680492
 21
-139.1009915928156
 31
0.0
  0
TEXT
  5
15C8
330
2
100
AcDbEntity
  8
LOGO
100
AcDbText
 10
633.7422081803438
 20
-138.2417589016941
 30
0.0
 40
1.36
  1
Voltage
 72
     4
 11
636.9382081803438
 21
-137.7904046086553
 31
0.0
100
AcDbText
  0
LINE
  5
15C9
330
2
100
AcDbEntity
  8
LOGO
 62
     4
100
AcDbLine
 10
628.9750480046278
 20
-126.2572391480444
 30
0.0
 11
628.9750480046278
 21
-130.9753522910216
 31
0.0
  0
LINE
  5
15CA
330
2
100
AcDbEntity
  8
LOGO
 62
     4
100
AcDbLine
 10
631.5472825832269
 20
-133.3344088625102
 30
0.0
 11
631.5472825832269
 21
-139.1009915928156
 31
0.0
  0
LINE
  5
15CB
330
2
100
AcDbEntity
  8
LOGO
 62
     4
100
AcDbLine
 10
632.8102672680492
 20
-133.3344088625102
 30
0.0
 11
632.8102672680492
 21
-139.1009915928156
 31
0.0
  0
LINE
  5
15CD
330
2
100
AcDbEntity
  8
LOGO
 62
     4
100
AcDbLine
 10
642.4251545517575
 20
-126.2572391480444
 30
0.0
 11
642.4251545517575
 21
-130.9753522910217
 31
0.0
  0
TEXT
  5
15CE
330
2
100
AcDbEntity
  8
LOGO
100
AcDbText
 10
634.8685843522188
 20
-136.1715340544586
 30
0.0
 40
2.048287499999999
  1
電壓
  7
CHINESET
 72
     4
 11
636.9382081803438
 21
-135.1692306403346
 31
0.0
100
AcDbText
  0
LINE
  5
15CF
330
2
100
AcDbEntity
  8
LOGO
 62
     4
100
AcDbLine
 10
635.7001012781927
 20
-132.1548805767659
 30
0.0
 11
636.9382081803438
 21
-132.1548805767659
 31
0.0
  0
LINE
  5
15D0
330
2
100
AcDbEntity
  8
LOGO
 62
     4
100
AcDbLine
 10
635.7001012781927
 20
-130.9753522910217
 30
0.0
 11
635.7001012781927
 21
-132.1548805767659
 31
0.0
  0
TEXT
  5
15D1
330
2
100
AcDbEntity
  8
LOGO
  6
Continuous
 62
     7
100
AcDbText
 10
635.2222832503835
 20
-129.9566069816615
 30
0.0
 40
2.621173968320643
  1
?
  7
CHINESET
 72
     1
 11
635.9087811944675
 21
-128.6460199975012
 31
0.0
100
AcDbText
 73
     2
  0
LINE
  5
15D2
330
2
100
AcDbEntity
  8
LOGO
 62
     4
100
AcDbLine
 10
636.9382081803438
 20
-132.1548805767659
 30
0.0
 11
636.9382081803438
 21
-133.3344088625102
 31
0.0
  0
LINE
  5
15D3
330
2
100
AcDbEntity
  8
LOGO
 62
     4
100
AcDbLine
 10
640.8769155365831
 20
-133.3344088625102
 30
0.0
 11
640.8769155365831
 21
-139.1009915928156
 31
0.0
  0
LINE
  5
15D4
330
2
100
AcDbEntity
  8
LOGO
 62
     4
100
AcDbLine
 10
641.9539437164322
 20
-133.3344088625102
 30
0.0
 11
641.9539437164322
 21
-139.1009915928156
 31
0.0
  0
LINE
  5
15F8
330
2
100
AcDbEntity
  8
LOGO
 62
     4
100
AcDbLine
 10
646.1372859470314
 20
-126.2572391480444
 30
0.0
 11
646.1372859470314
 21
-130.9753522910216
 31
0.0
  0
LINE
  5
15F9
330
2
100
AcDbEntity
  8
LOGO
 62
     4
100
AcDbLine
 10
649.3117394225045
 20
-126.2572391480444
 30
0.0
 11
649.3117394225045
 21
-130.9753522910216
 31
0.0
  0
LINE
  5
15FA
330
2
100
AcDbEntity
  8
LOGO
 62
     4
100
AcDbLine
 10
649.3117394225045
 20
-130.9753522910216
 30
0.0
 11
646.1372859470314
 21
-130.9753522910216
 31
0.0
  0
TEXT
  5
15FB
330
2
100
AcDbEntity
  8
LOGO
100
AcDbText
 10
644.9355350388445
 20
-136.1720380622096
 30
0.0
 40
2.048287499999999
  1
附燈型
  7
CHINESET
 72
     4
 11
647.9866299607196
 21
-135.1692306403346
 31
0.0
100
AcDbText
  0
LINE
  5
15FC
330
2
100
AcDbEntity
  8
LOGO
  6
Continuous
 62
     7
100
AcDbLine
 10
643.2380145401561
 20
-128.6330080219235
 30
0.0
 11
645.3213611477956
 21
-128.6330080219235
 31
0.0
  0
LINE
  5
15FD
330
2
100
AcDbEntity
  8
LOGO
 62
     4
100
AcDbLine
 10
647.7245126847678
 20
-130.9753522910216
 30
0.0
 11
647.7245126847678
 21
-133.3344088625102
 31
0.0
  0
TEXT
  5
15FE
330
2
100
AcDbEntity
  8
LOGO
  6
Continuous
 62
     7
100
AcDbText
 10
646.9756058366763
 20
-129.9268827036933
 30
0.0
 40
2.621173968320643
  1
L
  7
CHINESET
 72
     1
 11
647.7245126847678
 21
-128.616295719533
 31
0.0
100
AcDbText
 73
     2
  0
LINE
  5
15FF
330
2
100
AcDbEntity
  8
LOGO
 62
     4
100
AcDbLine
 10
649.3117394225045
 20
-126.2572391480444
 30
0.0
 11
646.1372859470314
 21
-126.2572391480444
 31
0.0
  0
LINE
  5
1602
330
2
100
AcDbEntity
  8
LOGO
 62
     4
100
AcDbLine
 10
654.0193165163032
 20
-133.3344088625102
 30
0.0
 11
654.0193165163032
 21
-139.1009915928155
 31
0.0
  0
TEXT
  5
2138
330
2
100
AcDbEntity
  8
LOGO
100
AcDbText
 10
532.3269320307721
 20
17.79491996673089
 30
0.0
 40
3.641399999999999
  1
MVSF-100-3E1
100
AcDbText
  0
DIMENSION
  5
26C8
330
2
100
AcDbEntity
  8
AM_REFDIM
100
AcDbDimension
  2
*D11
 10
578.3895005099724
 20
-6.528715642490084
 30
0.0
 11
597.0799601351418
 21
-16.29541947380403
 31
0.0
 70
   163
  1
2-<> thru
 71
     5
 42
1.699999999999988
  3
STANDARD
100
AcDbDiametricDimension
 15
579.2738529202773
 25
-7.98058368552563
 35
0.0
 40
0.0
1001
GENIUS_GENDTOL_13
1000

1000
lc3
1000

1040
0.0
1001
ACAD
1000
DSTYLE
1002
{
1070
   288
1070
     1
1070
   289
1070
     3
1070
   172
1070
     1
1070
    74
1070
     1
1070
   144
1040
1.0
1002
}
  0
LINE
  5
26C9
330
2
100
AcDbEntity
  8
AM_7
100
AcDbLine
 10
576.0316767151248
 20
-1.15464966400782
 30
0.0
 11
578.0316767151248
 21
-1.15464966400782
 31
0.0
  0
LINE
  5
26CA
330
2
100
AcDbEntity
  8
AM_7
100
AcDbLine
 10
577.0316767151248
 20
-2.15464966400782
 30
0.0
 11
577.0316767151248
 21
-0.1546496640078203
 31
0.0
  0
LINE
  5
26CB
330
2
100
AcDbEntity
  8
AM_7
100
AcDbLine
 10
574.1816767151248
 20
-1.15464966400782
 30
0.0
 11
575.2316767151247
 21
-1.15464966400782
 31
0.0
  0
LINE
  5
26CC
330
2
100
AcDbEntity
  8
AM_7
100
AcDbLine
 10
578.8316767151248
 20
-1.15464966400782
 30
0.0
 11
579.8816767151248
 21
-1.15464966400782
 31
0.0
  0
LINE
  5
26CD
330
2
100
AcDbEntity
  8
AM_7
100
AcDbLine
 10
577.0316767151248
 20
-4.004649664007814
 30
0.0
 11
577.0316767151248
 21
-2.954649664007831
 31
0.0
  0
LINE
  5
26CE
330
2
100
AcDbEntity
  8
AM_7
100
AcDbLine
 10
577.0316767151248
 20
0.6453503359921911
 30
0.0
 11
577.0316767151248
 21
1.695350335992173
 31
0.0
  0
LINE
  5
26CF
330
2
100
AcDbEntity
  8
AM_7
100
AcDbLine
 10
577.8316767151247
 20
-7.254649664007814
 30
0.0
 11
579.8316767151248
 21
-7.254649664007814
 31
0.0
  0
LINE
  5
26D0
330
2
100
AcDbEntity
  8
AM_7
100
AcDbLine
 10
578.8316767151248
 20
-8.254649664007814
 30
0.0
 11
578.8316767151248
 21
-6.254649664007814
 31
0.0
  0
LINE
  5
26D1
330
2
100
AcDbEntity
  8
AM_7
100
AcDbLine
 10
575.6316767151248
 20
-7.254649664007814
 30
0.0
 11
577.0316767151248
 21
-7.254649664007814
 31
0.0
  0
LINE
  5
26D2
330
2
100
AcDbEntity
  8
AM_7
100
AcDbLine
 10
580.6316767151249
 20
-7.254649664007814
 30
0.0
 11
582.0316767151248
 21
-7.254649664007814
 31
0.0
  0
LINE
  5
26D3
330
2
100
AcDbEntity
  8
AM_7
100
AcDbLine
 10
578.8316767151248
 20
-10.4546496640078
 30
0.0
 11
578.8316767151248
 21
-9.054649664007826
 31
0.0
  0
LINE
  5
26D4
330
2
100
AcDbEntity
  8
AM_7
100
AcDbLine
 10
578.8316767151248
 20
-5.454649664007803
 30
0.0
 11
578.8316767151248
 21
-4.054649664007826
 31
0.0
  0
LINE
  5
26D5
330
2
100
AcDbEntity
  8
AM_7
100
AcDbLine
 10
570.7316767151247
 20
0.9453503359921739
 30
0.0
 11
572.7316767151247
 21
0.9453503359921739
 31
0.0
  0
LINE
  5
26D6
330
2
100
AcDbEntity
  8
AM_7
100
AcDbLine
 10
571.7316767151247
 20
-0.054649664007826
 30
0.0
 11
571.7316767151247
 21
1.945350335992173
 31
0.0
  0
LINE
  5
26D7
330
2
100
AcDbEntity
  8
AM_7
100
AcDbLine
 10
568.5316767151248
 20
0.9453503359921739
 30
0.0
 11
569.9316767151247
 21
0.9453503359921739
 31
0.0
  0
LINE
  5
26D8
330
2
100
AcDbEntity
  8
AM_7
100
AcDbLine
 10
573.5316767151248
 20
0.9453503359921739
 30
0.0
 11
574.9316767151248
 21
0.9453503359921739
 31
0.0
  0
LINE
  5
26D9
330
2
100
AcDbEntity
  8
AM_7
100
AcDbLine
 10
571.7316767151247
 20
-2.254649664007814
 30
0.0
 11
571.7316767151247
 21
-0.8546496640078373
 31
0.0
  0
LINE
  5
26DA
330
2
100
AcDbEntity
  8
AM_7
100
AcDbLine
 10
571.7316767151247
 20
2.745350335992185
 30
0.0
 11
571.7316767151247
 21
4.145350335992162
 31
0.0
  0
LINE
  5
26DB
330
2
100
AcDbEntity
  8
AM_7
100
AcDbLine
 10
564.9316767151248
 20
-1.554649664007854
 30
0.0
 11
566.9316767151248
 21
-1.554649664007854
 31
0.0
  0
LINE
  5
26DC
330
2
100
AcDbEntity
  8
AM_7
100
AcDbLine
 10
565.9316767151247
 20
-2.554649664007854
 30
0.0
 11
565.9316767151247
 21
-0.5546496640078545
 31
0.0
  0
LINE
  5
26DD
330
2
100
AcDbEntity
  8
AM_7
100
AcDbLine
 10
563.6316767151249
 20
-1.554649664007854
 30
0.0
 11
564.1316767151248
 21
-1.554649664007854
 31
0.0
  0
LINE
  5
26DE
330
2
100
AcDbEntity
  8
AM_7
100
AcDbLine
 10
567.7316767151247
 20
-1.554649664007854
 30
0.0
 11
568.2316767151247
 21
-1.554649664007854
 31
0.0
  0
LINE
  5
26E0
330
2
100
AcDbEntity
  8
AM_7
100
AcDbLine
 10
565.9316767151247
 20
0.2453503359921569
 30
0.0
 11
565.9316767151247
 21
0.745350335992157
 31
0.0
  0
LINE
  5
26E1
330
2
100
AcDbEntity
  8
AM_7
100
AcDbLine
 10
618.4882972991352
 20
-3.154649664007848
 30
0.0
 11
563.4816767151248
 21
-3.154649664007848
 31
0.0
  0
DIMENSION
  5
26E2
102
{ACAD_REACTORS
330
34E0
102
}
330
2
100
AcDbEntity
  8
AM_REFDIM
100
AcDbDimension
  2
*D12
 10
564.3316767151247
 20
-20.15464966400782
 30
0.0
 11
568.0316767151248
 21
-18.54464966400782
 31
0.0
 70
    32
 71
     5
 42
7.399999999999977
  3
STANDARD
100
AcDbAlignedDimension
 13
571.7316767151247
 23
-2.254649664007843
 33
0.0
 14
564.3316767151247
 24
-8.154649664007877
 34
0.0
100
AcDbRotatedDimension
  0
DIMENSION
  5
26E3
102
{ACAD_REACTORS
330
34E0
102
}
330
2
100
AcDbEntity
  8
AM_REFDIM
100
AcDbDimension
  2
*D13
 10
578.8316767151248
 20
-20.15464966400782
 30
0.0
 11
575.2816767151248
 21
-18.54464966400782
 31
0.0
 70
    32
 71
     5
 42
7.100000000000022
  3
STANDARD
100
AcDbAlignedDimension
 13
571.7316767151247
 23
-2.254649664007843
 33
0.0
 14
578.8316767151248
 24
-10.45464966400783
 34
0.0
100
AcDbRotatedDimension
  0
DIMENSION
  5
26E4
330
2
100
AcDbEntity
  8
AM_REFDIM
100
AcDbDimension
  2
*D14
 10
564.3316767151247
 20
9.02345118559981
 30
0.0
 11
570.6816767151247
 21
9.02345118559981
 31
0.0
 70
   160
 71
     5
 42
12.69999999999993
  3
STANDARD
100
AcDbAlignedDimension
 13
577.0316767151247
 23
1.695350335992145
 33
0.0
 14
564.3316767151247
 24
1.845350335992122
 34
0.0
100
AcDbRotatedDimension
  0
DIMENSION
  5
26E5
102
{ACAD_REACTORS
330
34C7
330
34E0
102
}
330
2
100
AcDbEntity
  8
AM_REFDIM
100
AcDbDimension
  2
*D15
 10
555.4514125121837
 20
-1.154649664007843
 30
0.0
 11
553.8414125121837
 21
4.305350335992245
 31
0.0
 70
    32
 71
     5
 42
2.00000000000003
  3
STANDARD
100
AcDbAlignedDimension
 13
563.4816767151248
 23
-3.154649664007877
 33
0.0
 14
574.1816767151248
 24
-1.154649664007848
 34
0.0
 50
90.0
100
AcDbRotatedDimension
  0
DIMENSION
  5
26E6
102
{ACAD_XDICTIONARY
360
34DF
102
}
102
{ACAD_REACTORS
330
34E0
102
}
330
2
100
AcDbEntity
  8
AM_REFDIM
100
AcDbDimension
  2
*D16
 10
548.4514125121838
 20
0.9453503359921512
 30
0.0
 11
546.8414125121837
 21
-3.154649664007753
 31
0.0
 70
    32
 71
     5
 42
8.199999999999986
  3
STANDARD
100
AcDbAlignedDimension
 13
575.6316767151248
 23
-7.254649664007843
 33
0.0
 14
568.5316767151248
 24
0.9453503359921455
 34
0.0
 50
90.0
100
AcDbRotatedDimension
  0
LINE
  5
26E8
330
2
100
AcDbEntity
  8
AM_7
100
AcDbLine
 10
578.8316767151248
 20
-44.3399721058008
 30
0.0
 11
578.8316767151248
 21
-48.93997210580081
 31
0.0
  0
LINE
  5
26EA
330
2
100
AcDbEntity
  8
AM_7
100
AcDbLine
 10
590.7816767151248
 20
-53.13997210580089
 30
0.0
 11
592.7816767151248
 21
-53.13997210580089
 31
0.0
  0
LINE
  5
26EB
330
2
100
AcDbEntity
  8
AM_7
100
AcDbLine
 10
591.7816767151248
 20
-54.13997210580089
 30
0.0
 11
591.7816767151248
 21
-52.13997210580089
 31
0.0
  0
LINE
  5
26F0
330
2
100
AcDbEntity
  8
AM_7
100
AcDbLine
 10
562.7316767151247
 20
-47.93997210580073
 30
0.0
 11
567.4316767151248
 21
-47.93997210580073
 31
0.0
  0
LINE
  5
26F3
330
2
100
AcDbEntity
  8
AM_7
100
AcDbLine
 10
601.2816767151248
 20
-61.63997210580086
 30
0.0
 11
601.2816767151248
 21
-54.60774237987689
 31
0.0
  0
LINE
  5
26F4
330
2
100
AcDbEntity
  8
AM_7
100
AcDbLine
 10
579.5316767151247
 20
-95.55320921997589
 30
0.0
 11
581.5316767151248
 21
-95.55320921997589
 31
0.0
  0
LINE
  5
26F5
330
2
100
AcDbEntity
  8
AM_7
100
AcDbLine
 10
580.5316767151248
 20
-96.55320921997589
 30
0.0
 11
580.5316767151248
 21
-94.55320921997588
 31
0.0
  0
LINE
  5
26F6
330
2
100
AcDbEntity
  8
AM_7
100
AcDbLine
 10
577.6321767151248
 20
-95.55320921997589
 30
0.0
 11
578.7316767151247
 21
-95.55320921997589
 31
0.0
  0
LINE
  5
26F7
330
2
100
AcDbEntity
  8
AM_7
100
AcDbLine
 10
582.3316767151247
 20
-95.55320921997589
 30
0.0
 11
583.4311767151247
 21
-95.55320921997589
 31
0.0
  0
LINE
  5
26F8
330
2
100
AcDbEntity
  8
AM_7
100
AcDbLine
 10
580.5316767151248
 20
-98.4527092199759
 30
0.0
 11
580.5316767151248
 21
-97.3532092199759
 31
0.0
  0
LINE
  5
26F9
330
2
100
AcDbEntity
  8
AM_7
100
AcDbLine
 10
580.5316767151248
 20
-93.75320921997589
 30
0.0
 11
580.5316767151248
 21
-92.6537092199759
 31
0.0
  0
LINE
  5
26FA
330
2
100
AcDbEntity
  8
AM_7
100
AcDbLine
 10
570.7316767151247
 20
-99.65320921997591
 30
0.0
 11
572.7316767151247
 21
-99.65320921997591
 31
0.0
  0
LINE
  5
26FB
330
2
100
AcDbEntity
  8
AM_7
100
AcDbLine
 10
571.7316767151247
 20
-100.6532092199759
 30
0.0
 11
571.7316767151247
 21
-98.65320921997591
 31
0.0
  0
LINE
  5
26FC
330
2
100
AcDbEntity
  8
AM_7
100
AcDbLine
 10
569.2816767151248
 20
-99.65320921997591
 30
0.0
 11
569.9316767151247
 21
-99.65320921997591
 31
0.0
  0
LINE
  5
26FD
330
2
100
AcDbEntity
  8
AM_7
100
AcDbLine
 10
573.5316767151248
 20
-99.65320921997591
 30
0.0
 11
574.1816767151248
 21
-99.65320921997591
 31
0.0
  0
LINE
  5
26FE
330
2
100
AcDbEntity
  8
AM_7
100
AcDbLine
 10
571.7316767151247
 20
-102.1032092199759
 30
0.0
 11
571.7316767151247
 21
-101.4532092199759
 31
0.0
  0
LINE
  5
26FF
330
2
100
AcDbEntity
  8
AM_7
100
AcDbLine
 10
571.7316767151247
 20
-97.85320921997589
 30
0.0
 11
571.7316767151247
 21
-97.20320921997592
 31
0.0
  0
LINE
  5
2700
330
2
100
AcDbEntity
  8
AM_7
100
AcDbLine
 10
577.8316767151247
 20
-91.45320921997592
 30
0.0
 11
579.8316767151248
 21
-91.45320921997592
 31
0.0
  0
LINE
  5
2701
330
2
100
AcDbEntity
  8
AM_7
100
AcDbLine
 10
578.8316767151248
 20
-92.45320921997592
 30
0.0
 11
578.8316767151248
 21
-90.45320921997591
 31
0.0
  0
LINE
  5
2702
330
2
100
AcDbEntity
  8
AM_7
100
AcDbLine
 10
576.3816767151248
 20
-91.45320921997592
 30
0.0
 11
577.0316767151247
 21
-91.45320921997592
 31
0.0
  0
LINE
  5
2703
330
2
100
AcDbEntity
  8
AM_7
100
AcDbLine
 10
580.6316767151249
 20
-91.45320921997592
 30
0.0
 11
581.2816767151247
 21
-91.45320921997592
 31
0.0
  0
LINE
  5
2704
330
2
100
AcDbEntity
  8
AM_7
100
AcDbLine
 10
578.8316767151248
 20
-93.9032092199759
 30
0.0
 11
578.8316767151248
 21
-93.2532092199759
 31
0.0
  0
LINE
  5
2705
330
2
100
AcDbEntity
  8
AM_7
100
AcDbLine
 10
578.8316767151248
 20
-89.65320921997591
 30
0.0
 11
578.8316767151248
 21
-89.0032092199759
 31
0.0
  0
LINE
  5
2706
330
2
100
AcDbEntity
  8
AM_7
100
AcDbLine
 10
572.5316767151248
 20
-95.55320921997589
 30
0.0
 11
574.5316767151248
 21
-95.55320921997589
 31
0.0
  0
LINE
  5
2707
330
2
100
AcDbEntity
  8
AM_7
100
AcDbLine
 10
573.5316767151248
 20
-96.55320921997589
 30
0.0
 11
573.5316767151248
 21
-94.55320921997588
 31
0.0
  0
LINE
  5
2708
330
2
100
AcDbEntity
  8
AM_7
100
AcDbLine
 10
570.6321767151248
 20
-95.55320921997589
 30
0.0
 11
571.7316767151247
 21
-95.55320921997589
 31
0.0
  0
LINE
  5
2709
330
2
100
AcDbEntity
  8
AM_7
100
AcDbLine
 10
575.3316767151248
 20
-95.55320921997589
 30
0.0
 11
576.4311767151248
 21
-95.55320921997589
 31
0.0
  0
LINE
  5
270A
330
2
100
AcDbEntity
  8
AM_7
100
AcDbLine
 10
573.5316767151248
 20
-98.4527092199759
 30
0.0
 11
573.5316767151248
 21
-97.3532092199759
 31
0.0
  0
LINE
  5
270B
330
2
100
AcDbEntity
  8
AM_7
100
AcDbLine
 10
573.5316767151248
 20
-93.75320921997589
 30
0.0
 11
573.5316767151248
 21
-92.6537092199759
 31
0.0
  0
LINE
  5
270C
330
2
100
AcDbEntity
  8
AM_7
100
AcDbLine
 10
576.6016767151247
 20
-95.55320921997594
 30
0.0
 11
570.2816767151248
 21
-95.55320921997594
 31
0.0
  0
LINE
  5
270D
330
2
100
AcDbEntity
  8
AM_7
100
AcDbLine
 10
577.7616767151248
 20
-95.55320921997594
 30
0.0
 11
585.0816767151248
 21
-95.55320921997594
 31
0.0
  0
LINE
  5
270E
330
2
100
AcDbEntity
  8
AM_7
100
AcDbLine
 10
611.5816767151248
 20
-95.5532092199758
 30
0.0
 11
606.1816767151248
 21
-95.5532092199758
 31
0.0
  0
LINE
  5
270F
330
2
100
AcDbEntity
  8
AM_7
100
AcDbLine
 10
611.3816767151249
 20
-98.80320921997583
 30
0.0
 11
604.6816767151248
 21
-98.80320921997583
 31
0.0
  0
LINE
  5
2710
330
2
100
AcDbEntity
  8
AM_7
100
AcDbLine
 10
611.3816767151249
 20
-92.30320921997583
 30
0.0
 11
604.6816767151248
 21
-92.30320921997583
 31
0.0
  0
LINE
  5
2711
330
2
100
AcDbEntity
  8
AM_7
100
AcDbLine
 10
600.2816767151248
 20
-95.55320921997582
 30
0.0
 11
602.2816767151248
 21
-95.55320921997582
 31
0.0
  0
LINE
  5
2712
330
2
100
AcDbEntity
  8
AM_7
100
AcDbLine
 10
601.2816767151248
 20
-96.55320921997583
 30
0.0
 11
601.2816767151248
 21
-94.55320921997582
 31
0.0
  0
LINE
  5
2713
330
2
100
AcDbEntity
  8
AM_7
100
AcDbLine
 10
596.2816767151248
 20
-95.55320921997582
 30
0.0
 11
599.4816767151247
 21
-95.55320921997582
 31
0.0
  0
LINE
  5
2714
330
2
100
AcDbEntity
  8
AM_7
100
AcDbLine
 10
603.0816767151248
 20
-95.55320921997582
 30
0.0
 11
606.2816767151248
 21
-95.55320921997582
 31
0.0
  0
LINE
  5
2715
330
2
100
AcDbEntity
  8
AM_7
100
AcDbLine
 10
601.2816767151248
 20
-100.5532092199758
 30
0.0
 11
601.2816767151248
 21
-97.35320921997583
 31
0.0
  0
LINE
  5
2716
330
2
100
AcDbEntity
  8
AM_7
100
AcDbLine
 10
601.2816767151248
 20
-93.75320921997582
 30
0.0
 11
601.2816767151248
 21
-90.55320921997582
 31
0.0
  0
LINE
  5
2717
330
2
100
AcDbEntity
  8
AM_7
100
AcDbLine
 10
645.0123060210127
 20
-61.63997210580086
 30
0.0
 11
645.0123060210127
 21
-54.60774237987689
 31
0.0
  0
LINE
  5
2718
330
2
100
AcDbEntity
  8
AM_7
100
AcDbLine
 10
644.0123060210126
 20
-53.43997210580084
 30
0.0
 11
646.0123060210126
 21
-53.43997210580084
 31
0.0
  0
LINE
  5
2719
330
2
100
AcDbEntity
  8
AM_7
100
AcDbLine
 10
645.0123060210126
 20
-54.43997210580085
 30
0.0
 11
645.0123060210126
 21
-52.43997210580085
 31
0.0
  0
LINE
  5
271A
330
2
100
AcDbEntity
  8
AM_7
100
AcDbLine
 10
640.4123060210126
 20
-53.43997210580084
 30
0.0
 11
643.2123060210125
 21
-53.43997210580084
 31
0.0
  0
LINE
  5
271B
330
2
100
AcDbEntity
  8
AM_7
100
AcDbLine
 10
646.8123060210126
 20
-53.43997210580084
 30
0.0
 11
649.6123060210126
 21
-53.43997210580084
 31
0.0
  0
LINE
  5
271C
330
2
100
AcDbEntity
  8
AM_7
100
AcDbLine
 10
645.0123060210126
 20
-58.03997210580084
 30
0.0
 11
645.0123060210126
 21
-55.23997210580086
 31
0.0
  0
LINE
  5
271D
330
2
100
AcDbEntity
  8
AM_7
100
AcDbLine
 10
645.0123060210126
 20
-51.63997210580084
 30
0.0
 11
645.0123060210126
 21
-48.83997210580085
 31
0.0
  0
LINE
  5
271E
330
2
100
AcDbEntity
  8
AM_7
100
AcDbLine
 10
640.7623060210127
 20
-54.83997210580088
 30
0.0
 11
642.7623060210127
 21
-54.83997210580088
 31
0.0
  0
LINE
  5
271F
330
2
100
AcDbEntity
  8
AM_7
100
AcDbLine
 10
641.7623060210127
 20
-55.83997210580088
 30
0.0
 11
641.7623060210127
 21
-53.83997210580088
 31
0.0
  0
LINE
  5
2720
330
2
100
AcDbEntity
  8
AM_7
100
AcDbLine
 10
637.6623060210126
 20
-54.83997210580088
 30
0.0
 11
639.9623060210126
 21
-54.83997210580088
 31
0.0
  0
LINE
  5
2721
330
2
100
AcDbEntity
  8
AM_7
100
AcDbLine
 10
643.5623060210126
 20
-54.83997210580088
 30
0.0
 11
645.8623060210125
 21
-54.83997210580088
 31
0.0
  0
LINE
  5
2722
330
2
100
AcDbEntity
  8
AM_7
100
AcDbLine
 10
641.7623060210127
 20
-58.93997210580088
 30
0.0
 11
641.7623060210127
 21
-56.63997210580089
 31
0.0
  0
LINE
  5
2723
330
2
100
AcDbEntity
  8
AM_7
100
AcDbLine
 10
641.7623060210127
 20
-53.03997210580087
 30
0.0
 11
641.7623060210127
 21
-50.73997210580088
 31
0.0
  0
LINE
  5
2724
330
2
100
AcDbEntity
  8
AM_7
100
AcDbLine
 10
647.2623060210127
 20
-54.83997210580085
 30
0.0
 11
649.2623060210127
 21
-54.83997210580085
 31
0.0
  0
LINE
  5
2725
330
2
100
AcDbEntity
  8
AM_7
100
AcDbLine
 10
648.2623060210126
 20
-55.83997210580085
 30
0.0
 11
648.2623060210126
 21
-53.83997210580085
 31
0.0
  0
LINE
  5
2726
330
2
100
AcDbEntity
  8
AM_7
100
AcDbLine
 10
644.1623060210125
 20
-54.83997210580085
 30
0.0
 11
646.4623060210126
 21
-54.83997210580085
 31
0.0
  0
LINE
  5
2727
330
2
100
AcDbEntity
  8
AM_7
100
AcDbLine
 10
650.0623060210126
 20
-54.83997210580085
 30
0.0
 11
652.3623060210126
 21
-54.83997210580085
 31
0.0
  0
LINE
  5
2728
330
2
100
AcDbEntity
  8
AM_7
100
AcDbLine
 10
648.2623060210126
 20
-58.93997210580085
 30
0.0
 11
648.2623060210126
 21
-56.63997210580086
 31
0.0
  0
LINE
  5
2729
330
2
100
AcDbEntity
  8
AM_7
100
AcDbLine
 10
648.2623060210126
 20
-53.03997210580084
 30
0.0
 11
648.2623060210126
 21
-50.73997210580086
 31
0.0
  0
LINE
  5
272A
330
2
100
AcDbEntity
  8
AM_7
100
AcDbLine
 10
645.5123060210126
 20
-40.63997210580083
 30
0.0
 11
647.5123060210125
 21
-40.63997210580083
 31
0.0
  0
LINE
  5
272B
330
2
100
AcDbEntity
  8
AM_7
100
AcDbLine
 10
646.5123060210125
 20
-41.63997210580084
 30
0.0
 11
646.5123060210125
 21
-39.63997210580084
 31
0.0
  0
LINE
  5
272C
330
2
100
AcDbEntity
  8
AM_7
100
AcDbLine
 10
644.6623060210125
 20
-40.63997210580083
 30
0.0
 11
644.7123060210125
 21
-40.63997210580083
 31
0.0
  0
LINE
  5
272D
330
2
100
AcDbEntity
  8
AM_7
100
AcDbLine
 10
648.3123060210126
 20
-40.63997210580083
 30
0.0
 11
648.3623060210126
 21
-40.63997210580083
 31
0.0
  0
LINE
  5
272E
330
2
100
AcDbEntity
  8
AM_7
100
AcDbLine
 10
646.5123060210125
 20
-42.48997210580083
 30
0.0
 11
646.5123060210125
 21
-42.43997210580085
 31
0.0
  0
LINE
  5
272F
330
2
100
AcDbEntity
  8
AM_7
100
AcDbLine
 10
646.5123060210125
 20
-38.83997210580083
 30
0.0
 11
646.5123060210125
 21
-38.78997210580084
 31
0.0
  0
LINE
  5
2730
330
2
100
AcDbEntity
  8
AM_7
100
AcDbLine
 10
642.5123060210125
 20
-40.63997210580083
 30
0.0
 11
644.5123060210126
 21
-40.63997210580083
 31
0.0
  0
LINE
  5
2731
330
2
100
AcDbEntity
  8
AM_7
100
AcDbLine
 10
643.5123060210125
 20
-41.63997210580084
 30
0.0
 11
643.5123060210125
 21
-39.63997210580084
 31
0.0
  0
LINE
  5
2732
330
2
100
AcDbEntity
  8
AM_7
100
AcDbLine
 10
641.6623060210126
 20
-40.63997210580083
 30
0.0
 11
641.7123060210125
 21
-40.63997210580083
 31
0.0
  0
LINE
  5
2733
330
2
100
AcDbEntity
  8
AM_7
100
AcDbLine
 10
645.3123060210126
 20
-40.63997210580083
 30
0.0
 11
645.3623060210126
 21
-40.63997210580083
 31
0.0
  0
LINE
  5
2734
330
2
100
AcDbEntity
  8
AM_7
100
AcDbLine
 10
643.5123060210125
 20
-42.48997210580083
 30
0.0
 11
643.5123060210125
 21
-42.43997210580085
 31
0.0
  0
LINE
  5
2735
330
2
100
AcDbEntity
  8
AM_7
100
AcDbLine
 10
643.5123060210125
 20
-38.83997210580083
 30
0.0
 11
643.5123060210125
 21
-38.78997210580084
 31
0.0
  0
LINE
  5
2736
330
2
100
AcDbEntity
  8
AM_7
100
AcDbLine
 10
591.7816767151248
 20
-6.814281085772722
 30
0.0
 11
591.7816767151248
 21
-3.371204877343461
 31
0.0
  0
DIMENSION
  5
2737
330
2
100
AcDbEntity
  8
AM_REFDIM
100
AcDbDimension
  2
*D17
 10
607.7816767151248
 20
-67.20036228632228
 30
0.0
 11
586.3629258278796
 21
-67.20036228632228
 31
0.0
 70
   160
 71
     5
 42
43.45000000000005
  3
STANDARD
100
AcDbAlignedDimension
 13
564.3316767151247
 23
-60.93997210580074
 33
0.0
 14
607.7816767151248
 24
-60.93997210580088
 34
0.0
100
AcDbRotatedDimension
  0
DIMENSION
  5
2738
330
2
100
AcDbEntity
  8
AM_REFDIM
100
AcDbDimension
  2
*D18
 10
617.2816767151248
 20
-73.16493039107673
 30
0.0
 11
590.6710605531047
 21
-73.16493039107673
 31
0.0
 70
   160
  1
(<>)
 71
     5
 42
52.95000000000005
  3
STANDARD
100
AcDbAlignedDimension
 13
564.3316767151247
 23
-60.93997210580074
 33
0.0
 14
617.2816767151248
 24
-42.53997210580087
 34
0.0
100
AcDbRotatedDimension
1001
ACAD
1000
DSTYLE
1002
{
1070
   147
1040
0.5
1070
   271
1070
     1
1002
}
  0
DIMENSION
  5
273A
330
2
100
AcDbEntity
  8
AM_REFDIM
100
AcDbDimension
  2
*D19
 10
556.7816767151247
 20
-45.93997210580073
 30
0.0
 11
555.1716767151247
 21
-53.43997210580064
 31
0.0
 70
    32
 71
     5
 42
15.0
  3
STANDARD
100
AcDbAlignedDimension
 13
564.3316767151247
 23
-60.93997210580074
 33
0.0
 14
564.3316767151247
 24
-45.93997210580073
 34
0.0
 50
90.0
100
AcDbRotatedDimension
  0
DIMENSION
  5
273B
330
2
100
AcDbEntity
  8
AM_REFDIM
100
AcDbDimension
  2
*D20
 10
556.7816767151247
 20
-90.05320921997592
 30
0.0
 11
555.1716767151247
 21
-95.5532092199758
 31
0.0
 70
    32
 71
     5
 42
10.99999999999997
  3
STANDARD
100
AcDbAlignedDimension
 13
571.2316767151247
 23
-101.0532092199759
 33
0.0
 14
578.3316767151247
 24
-90.05320921997592
 34
0.0
 50
90.0
100
AcDbRotatedDimension
  0
DIMENSION
  5
273D
330
2
100
AcDbEntity
  8
AM_REFDIM
100
AcDbDimension
  2
*D21
 10
573.5316767151248
 20
-109.6428725919208
 30
0.0
 11
568.9316767151248
 21
-108.0328725919208
 31
0.0
 70
    32
 71
     5
 42
9.200000000000045
  3
STANDARD
100
AcDbAlignedDimension
 13
564.3316767151247
 23
-100.5532092199758
 33
0.0
 14
573.5316767151248
 24
-98.4527092199759
 34
0.0
100
AcDbRotatedDimension
  0
DIMENSION
  5
273E
330
2
100
AcDbEntity
  8
AM_REFDIM
100
AcDbDimension
  2
*D22
 10
580.5316767151248
 20
-109.6428725919208
 30
0.0
 11
577.0316767151248
 21
-108.0328725919208
 31
0.0
 70
    32
 71
     5
 42
7.0
  3
STANDARD
100
AcDbAlignedDimension
 13
573.5316767151248
 23
-98.4527092199759
 33
0.0
 14
580.5316767151248
 24
-98.4527092199759
 34
0.0
100
AcDbRotatedDimension
  0
DIMENSION
  5
273F
330
2
100
AcDbEntity
  8
AM_REFDIM
100
AcDbDimension
  2
*D23
 10
632.3561929291962
 20
-33.43997210580085
 30
0.0
 11
630.7461929291962
 21
-47.18997210580071
 31
0.0
 70
    32
 71
     5
 42
27.49999999999995
  3
STANDARD
100
AcDbAlignedDimension
 13
639.5123060210127
 23
-60.93997210580079
 33
0.0
 14
640.0123060210126
 24
-33.43997210580085
 34
0.0
 50
90.0
100
AcDbRotatedDimension
  0
DIMENSION
  5
2740
330
2
100
AcDbEntity
  8
AM_REFDIM
100
AcDbDimension
  2
*D24
 10
579.6079527099597
 20
-96.85901709722381
 30
0.0
 11
595.2777210125462
 21
-86.2994968983372
 31
0.0
 70
   163
  1
3-M3*0.5
 71
     5
 42
3.198999999999898
  3
AM_ISO$3
100
AcDbDiametricDimension
 15
581.455400720289
 25
-94.24740134272822
 35
0.0
 40
0.0
1001
ACAD
1000
DSTYLE
1002
{
1070
    40
1040
0.7
1002
}
  0
LINE
  5
2741
330
2
100
AcDbEntity
  8
AM_VIS
100
AcDbLine
 10
565.8316767151247
 20
1.945350335992173
 30
0.0
 11
565.8316767151247
 21
1.845350335992151
 31
0.0
  0
LINE
  5
2742
330
2
100
AcDbEntity
  8
AM_VIS
100
AcDbLine
 10
565.3600246275178
 20
-8.21338545321393
 30
0.0
 11
565.8316767151247
 21
-8.254649664007814
 31
0.0
  0
LINE
  5
2743
330
2
100
AcDbEntity
  8
AM_VIS
100
AcDbLine
 10
565.8316767151247
 20
-8.154649664007848
 30
0.0
 11
565.8316767151247
 21
-8.254649664007843
 31
0.0
  0
ARC
  5
2744
330
2
100
AcDbEntity
  8
AM_VIS
100
AcDbCircle
 10
565.4158043028764
 20
-7.575820846435192
 30
0.0
 40
0.6400000000000002
100
AcDbArc
 50
244.7452834391035
 51
264.9999999999969
  0
LINE
  5
2746
330
2
100
AcDbEntity
  8
AM_VIS
100
AcDbLine
 10
594.0533288027317
 20
1.90408612519829
 30
0.0
 11
593.5816767151249
 21
1.945350335992173
 31
0.0
  0
LINE
  5
2747
330
2
100
AcDbEntity
  8
AM_VIS
100
AcDbLine
 10
593.5816767151249
 20
1.845350335992179
 30
0.0
 11
593.5816767151249
 21
1.945350335992202
 31
0.0
  0
ARC
  5
2748
330
2
100
AcDbEntity
  8
AM_VIS
100
AcDbCircle
 10
593.9975491273733
 20
1.266521518419551
 30
0.0
 40
0.6400000000000002
100
AcDbArc
 50
64.74528343909952
 51
84.99999999999694
  0
LINE
  5
2749
330
2
100
AcDbEntity
  8
AM_VIS
100
AcDbLine
 10
580.4316767151248
 20
-8.15464966400782
 30
0.0
 11
579.8316767151248
 21
-8.15464966400782
 31
0.0
  0
LINE
  5
274A
330
2
100
AcDbEntity
  8
AM_VIS
100
AcDbLine
 10
579.8316767151248
 20
-8.15464966400782
 30
0.0
 11
579.3316767151248
 21
-8.65464966400782
 31
0.0
  0
LINE
  5
274B
330
2
100
AcDbEntity
  8
AM_VIS
100
AcDbLine
 10
579.3316767151248
 20
-8.65464966400782
 30
0.0
 11
578.3316767151247
 21
-8.65464966400782
 31
0.0
  0
LINE
  5
274C
330
2
100
AcDbEntity
  8
AM_VIS
100
AcDbLine
 10
578.3316767151247
 20
-8.65464966400782
 30
0.0
 11
577.8316767151247
 21
-8.15464966400782
 31
0.0
  0
LINE
  5
274D
330
2
100
AcDbEntity
  8
AM_VIS
100
AcDbLine
 10
570.1316767151248
 20
1.845350335992179
 30
0.0
 11
570.7316767151247
 21
1.845350335992179
 31
0.0
  0
LINE
  5
274E
330
2
100
AcDbEntity
  8
AM_VIS
100
AcDbLine
 10
570.7316767151247
 20
1.845350335992179
 30
0.0
 11
571.2316767151247
 21
2.345350335992179
 31
0.0
  0
LINE
  5
274F
330
2
100
AcDbEntity
  8
AM_VIS
100
AcDbLine
 10
571.2316767151247
 20
2.345350335992179
 30
0.0
 11
572.2316767151247
 21
2.345350335992179
 31
0.0
  0
LINE
  5
2750
330
2
100
AcDbEntity
  8
AM_VIS
100
AcDbLine
 10
572.2316767151247
 20
2.345350335992179
 30
0.0
 11
572.7316767151247
 21
1.845350335992179
 31
0.0
  0
LINE
  5
2751
330
2
100
AcDbEntity
  8
AM_VIS
100
AcDbLine
 10
572.7316767151247
 20
1.845350335992179
 30
0.0
 11
573.3316767151247
 21
1.845350335992179
 31
0.0
  0
LINE
  5
2752
330
2
100
AcDbEntity
  8
AM_VIS
100
AcDbLine
 10
577.8316767151247
 20
-8.15464966400782
 30
0.0
 11
577.2316767151247
 21
-8.15464966400782
 31
0.0
  0
LINE
  5
2753
330
2
100
AcDbEntity
  8
AM_VIS
100
AcDbLine
 10
568.7816767151248
 20
-8.15464966400782
 30
0.0
 11
570.4816767151247
 21
-8.15464966400782
 31
0.0
  0
LINE
  5
2754
330
2
100
AcDbEntity
  8
AM_VIS
100
AcDbLine
 10
568.7816767151248
 20
1.845350335992179
 30
0.0
 11
568.7816767151248
 21
-8.15464966400782
 31
0.0
  0
LINE
  5
2755
330
2
100
AcDbEntity
  8
AM_VIS
100
AcDbLine
 10
568.7816767151248
 20
1.845350335992179
 30
0.0
 11
570.1316767151248
 21
1.845350335992179
 31
0.0
  0
LINE
  5
2756
330
2
100
AcDbEntity
  8
AM_VIS
100
AcDbLine
 10
570.1316767151248
 20
0.9453503359922024
 30
0.0
 11
570.1316767151248
 21
1.845350335992208
 31
0.0
  0
LINE
  5
2757
330
2
100
AcDbEntity
  8
AM_VIS
100
AcDbLine
 10
573.3316767151247
 20
1.845350335992179
 30
0.0
 11
573.3316767151247
 21
0.9453503359921739
 31
0.0
  0
LINE
  5
2758
330
2
100
AcDbEntity
  8
AM_VIS
100
AcDbLine
 10
573.3316767151247
 20
1.845350335992179
 30
0.0
 11
577.5816767151248
 21
1.845350335992179
 31
0.0
  0
LINE
  5
2759
330
2
100
AcDbEntity
  8
AM_VIS
100
AcDbLine
 10
578.0816767151248
 20
1.345350335992179
 30
0.0
 11
577.5816767151248
 21
1.845350335992179
 31
0.0
  0
LINE
  5
275A
330
2
100
AcDbEntity
  8
AM_VIS
100
AcDbLine
 10
579.5816767151247
 20
1.345350335992179
 30
0.0
 11
578.0816767151248
 21
1.345350335992179
 31
0.0
  0
LINE
  5
275B
330
2
100
AcDbEntity
  8
AM_VIS
100
AcDbLine
 10
580.0816767151247
 20
1.845350335992179
 30
0.0
 11
579.5816767151247
 21
1.345350335992179
 31
0.0
  0
LINE
  5
275C
330
2
100
AcDbEntity
  8
AM_VIS
100
AcDbLine
 10
580.0816767151247
 20
1.845350335992179
 30
0.0
 11
585.2816767151248
 21
1.845350335992179
 31
0.0
  0
LINE
  5
275D
330
2
100
AcDbEntity
  8
AM_VIS
100
AcDbLine
 10
585.2816767151248
 20
-8.15464966400782
 30
0.0
 11
585.2816767151248
 21
1.845350335992179
 31
0.0
  0
LINE
  5
275E
330
2
100
AcDbEntity
  8
AM_VIS
100
AcDbLine
 10
580.4316767151248
 20
-8.15464966400782
 30
0.0
 11
585.2816767151248
 21
-8.15464966400782
 31
0.0
  0
LINE
  5
275F
330
2
100
AcDbEntity
  8
AM_VIS
100
AcDbLine
 10
580.4316767151248
 20
-7.254649664007786
 30
0.0
 11
580.4316767151248
 21
-8.154649664007791
 31
0.0
  0
LINE
  5
2760
330
2
100
AcDbEntity
  8
AM_VIS
100
AcDbLine
 10
577.2316767151247
 20
-8.15464966400782
 30
0.0
 11
577.2316767151247
 21
-7.254649664007814
 31
0.0
  0
LINE
  5
2761
330
2
100
AcDbEntity
  8
AM_VIS
100
AcDbLine
 10
572.9816767151247
 20
-8.15464966400782
 30
0.0
 11
577.2316767151247
 21
-8.15464966400782
 31
0.0
  0
LINE
  5
2762
330
2
100
AcDbEntity
  8
AM_VIS
100
AcDbLine
 10
572.4816767151247
 20
-7.65464966400782
 30
0.0
 11
572.9816767151247
 21
-8.15464966400782
 31
0.0
  0
LINE
  5
2763
330
2
100
AcDbEntity
  8
AM_VIS
100
AcDbLine
 10
570.9816767151247
 20
-7.65464966400782
 30
0.0
 11
572.4816767151247
 21
-7.65464966400782
 31
0.0
  0
LINE
  5
2764
330
2
100
AcDbEntity
  8
AM_VIS
100
AcDbLine
 10
570.4816767151247
 20
-8.15464966400782
 30
0.0
 11
570.9816767151247
 21
-7.65464966400782
 31
0.0
  0
CIRCLE
  5
2765
330
2
100
AcDbEntity
  8
AM_VIS
100
AcDbCircle
 10
578.8316767151248
 20
-7.254649664007786
 30
0.0
 40
0.85
  0
CIRCLE
  5
2766
330
2
100
AcDbEntity
  8
AM_VIS
100
AcDbCircle
 10
571.7316767151247
 20
0.9453503359922024
 30
0.0
 40
0.85
  0
CIRCLE
  5
2767
330
2
100
AcDbEntity
  8
AM_VIS
100
AcDbCircle
 10
577.0316767151248
 20
-1.15464966400782
 30
0.0
 40
1.0
  0
ARC
  5
2768
330
2
100
AcDbEntity
  8
AM_VIS
100
AcDbCircle
 10
571.7316767151247
 20
0.9453503359922024
 30
0.0
 40
1.6
100
AcDbArc
 50
180.0
 51
0.0
  0
ARC
  5
2769
330
2
100
AcDbEntity
  8
AM_VIS
100
AcDbCircle
 10
578.8316767151248
 20
-7.254649664007786
 30
0.0
 40
1.6
100
AcDbArc
 50
0.0
 51
180.0
  0
CIRCLE
  5
276A
330
2
100
AcDbEntity
  8
AM_VIS
100
AcDbCircle
 10
577.0316767151248
 20
-1.15464966400782
 30
0.0
 40
1.549999999999999
  0
CIRCLE
  5
276B
330
2
100
AcDbEntity
  8
AM_VIS
100
AcDbCircle
 10
577.0316767151248
 20
-1.15464966400782
 30
0.0
 40
1.25
  0
LINE
  5
276C
330
2
100
AcDbEntity
  8
AM_VIS
100
AcDbLine
 10
585.2816767151248
 20
1.845350335992179
 30
0.0
 11
585.2816767151248
 21
-8.15464966400782
 31
0.0
  0
LINE
  5
276D
330
2
100
AcDbEntity
  8
AM_VIS
100
AcDbLine
 10
585.2816767151248
 20
1.845350335992179
 30
0.0
 11
594.7816767151248
 21
1.845350335992179
 31
0.0
  0
LINE
  5
276E
330
2
100
AcDbEntity
  8
AM_VIS
100
AcDbLine
 10
585.2816767151248
 20
-8.15464966400782
 30
0.0
 11
594.7816767151248
 21
-8.15464966400782
 31
0.0
  0
ARC
  5
276F
330
2
100
AcDbEntity
  8
AM_VIS
100
AcDbCircle
 10
595.7815447650924
 20
-5.154649664007808
 30
0.0
 40
4.674968506161929
100
AcDbArc
 50
177.5480788316093
 51
182.4519211683906
  0
ARC
  5
2770
330
2
100
AcDbEntity
  8
AM_VIS
100
AcDbCircle
 10
587.7818086651571
 20
-5.154649664007865
 30
0.0
 40
4.674968506161929
100
AcDbArc
 50
357.5480788316093
 51
2.451921168390651
  0
CIRCLE
  5
2771
330
2
100
AcDbEntity
  8
AM_VIS
100
AcDbCircle
 10
591.7816767151248
 20
-5.154649664007837
 30
0.0
 40
0.7
  0
LINE
  5
2772
330
2
100
AcDbEntity
  8
AM_VIS
100
AcDbLine
 10
568.7816767151248
 20
-8.154649664007848
 30
0.0
 11
568.7816767151248
 21
1.845350335992151
 31
0.0
  0
LINE
  5
2773
102
{ACAD_REACTORS
330
3291
102
}
330
2
100
AcDbEntity
  8
AM_VIS
100
AcDbLine
 10
564.3316767151247
 20
1.845350335992151
 30
0.0
 11
564.3316767151247
 21
-8.154649664007848
 31
0.0
  0
ARC
  5
2774
330
2
100
AcDbEntity
  8
AM_VIS
100
AcDbCircle
 10
565.9316767151247
 20
5.11442662094862
 30
0.0
 40
6.55483452186869
100
AcDbArc
 50
264.0125425170569
 51
275.9874574829431
  0
LINE
  5
2775
102
{ACAD_REACTORS
330
3291
102
}
330
2
100
AcDbEntity
  8
AM_VIS
100
AcDbLine
 10
568.7816767151248
 20
1.845350335992151
 30
0.0
 11
564.3316767151247
 21
1.845350335992151
 31
0.0
  0
LINE
  5
2776
330
2
100
AcDbEntity
  8
AM_VIS
100
AcDbLine
 10
568.7816767151248
 20
-8.154649664007848
 30
0.0
 11
564.3316767151247
 21
-8.154649664007848
 31
0.0
  0
CIRCLE
  5
2777
330
2
100
AcDbEntity
  8
AM_VIS
100
AcDbCircle
 10
565.9316767151247
 20
-1.554649664007854
 30
0.0
 40
0.7
  0
LINE
  5
2778
330
2
100
AcDbEntity
  8
AM_VIS
100
AcDbLine
 10
577.693114542891
 20
-1.904649664007763
 30
0.0
 11
576.8016767151248
 21
-1.904649664007763
 31
0.0
  0
LINE
  5
2779
330
2
100
AcDbEntity
  8
AM_VIS
100
AcDbLine
 10
576.8016767151248
 20
-1.904649664007763
 30
0.0
 11
576.0959433950794
 21
-0.8019413514367386
 31
0.0
  0
LINE
  5
277A
330
2
100
AcDbEntity
  8
AM_VIS
100
AcDbLine
 10
576.8016767151248
 20
-1.904649664007763
 30
0.0
 11
576.8016767151248
 21
-2.12784029281596
 31
0.0
  0
LINE
  5
277B
330
2
100
AcDbEntity
  8
AM_VIS
100
AcDbLine
 10
607.7816767151248
 20
-8.154649664007962
 30
0.0
 11
594.7816767151248
 21
-8.154649664007962
 31
0.0
  0
LINE
  5
277C
330
2
100
AcDbEntity
  8
AM_VIS
100
AcDbLine
 10
594.7816767151248
 20
1.845350335992037
 30
0.0
 11
607.7816767151248
 21
1.845350335992037
 31
0.0
  0
LINE
  5
277D
330
2
100
AcDbEntity
  8
AM_VIS
100
AcDbLine
 10
594.7816767151248
 20
-8.154649664007962
 30
0.0
 11
594.7816767151248
 21
1.845350335992037
 31
0.0
  0
LINE
  5
277E
330
2
100
AcDbEntity
  8
AM_VIS
100
AcDbLine
 10
607.7816767151248
 20
-8.154649664007962
 30
0.0
 11
607.7816767151248
 21
1.845350335992037
 31
0.0
  0
LINE
  5
277F
330
2
100
AcDbEntity
  8
AM_VIS
100
AcDbLine
 10
612.7816767151248
 20
-7.154649664007934
 30
0.0
 11
611.2816767151248
 21
-8.154649664007934
 31
0.0
  0
LINE
  5
2780
330
2
100
AcDbEntity
  8
AM_VIS
100
AcDbLine
 10
612.7816767151248
 20
0.595350335992066
 30
0.0
 11
616.2816767151248
 21
0.595350335992066
 31
0.0
  0
LINE
  5
2781
330
2
100
AcDbEntity
  8
AM_VIS
100
AcDbLine
 10
616.2816767151248
 20
0.595350335992066
 30
0.0
 11
617.2816767151248
 21
-0.0046496640079567
 31
0.0
  0
LINE
  5
2782
330
2
100
AcDbEntity
  8
AM_VIS
100
AcDbLine
 10
617.2816767151248
 20
-0.154649664007934
 30
0.0
 11
617.2816767151248
 21
-0.0046496640079567
 31
0.0
  0
LINE
  5
2783
330
2
100
AcDbEntity
  8
AM_VIS
100
AcDbLine
 10
617.2816767151248
 20
-0.154649664007934
 30
0.0
 11
617.2816767151248
 21
-1.054649664007939
 31
0.0
  0
LINE
  5
2784
330
2
100
AcDbEntity
  8
AM_VIS
100
AcDbLine
 10
612.7816767151248
 20
-0.154649664007934
 30
0.0
 11
617.2816767151248
 21
-0.154649664007934
 31
0.0
  0
LINE
  5
2785
330
2
100
AcDbEntity
  8
AM_VIS
100
AcDbLine
 10
617.2816767151248
 20
-1.054649664007911
 30
0.0
 11
612.7816767151248
 21
-1.054649664007911
 31
0.0
  0
LINE
  5
2786
330
2
100
AcDbEntity
  8
AM_VIS
100
AcDbLine
 10
617.2816767151248
 20
-5.254649664007928
 30
0.0
 11
617.2816767151248
 21
-1.054649664007911
 31
0.0
  0
LINE
  5
2787
330
2
100
AcDbEntity
  8
AM_VIS
100
AcDbLine
 10
617.2816767151248
 20
-6.304649664007911
 30
0.0
 11
617.2816767151248
 21
-6.154649664007905
 31
0.0
  0
LINE
  5
2788
330
2
100
AcDbEntity
  8
AM_VIS
100
AcDbLine
 10
617.2816767151248
 20
-6.304649664007911
 30
0.0
 11
616.2816767151248
 21
-6.904649664007905
 31
0.0
  0
LINE
  5
2789
330
2
100
AcDbEntity
  8
AM_VIS
100
AcDbLine
 10
612.7816767151248
 20
-6.904649664007934
 30
0.0
 11
616.2816767151248
 21
-6.904649664007934
 31
0.0
  0
LINE
  5
278A
330
2
100
AcDbEntity
  8
AM_VIS
100
AcDbLine
 10
617.2816767151248
 20
-5.254649664007928
 30
0.0
 11
617.2816767151248
 21
-6.154649664007934
 31
0.0
  0
LINE
  5
278B
330
2
100
AcDbEntity
  8
AM_VIS
100
AcDbLine
 10
612.7816767151248
 20
-5.254649664007928
 30
0.0
 11
617.2816767151248
 21
-5.254649664007928
 31
0.0
  0
LINE
  5
278C
330
2
100
AcDbEntity
  8
AM_VIS
100
AcDbLine
 10
617.2816767151248
 20
-6.154649664007934
 30
0.0
 11
612.7816767151248
 21
-6.154649664007934
 31
0.0
  0
LINE
  5
278D
330
2
100
AcDbEntity
  8
AM_VIS
100
AcDbLine
 10
615.7816767151248
 20
-2.654649664007934
 30
0.0
 11
614.5816767151249
 21
-2.654649664007934
 31
0.0
  0
LINE
  5
278E
330
2
100
AcDbEntity
  8
AM_VIS
100
AcDbLine
 10
615.7816767151248
 20
-2.654649664007934
 30
0.0
 11
615.7816767151248
 21
-3.654649664007934
 31
0.0
  0
LINE
  5
278F
330
2
100
AcDbEntity
  8
AM_VIS
100
AcDbLine
 10
614.5816767151249
 20
-3.654649664007934
 30
0.0
 11
615.7816767151248
 21
-3.654649664007934
 31
0.0
  0
LINE
  5
2790
330
2
100
AcDbEntity
  8
AM_VIS
100
AcDbLine
 10
614.5816767151249
 20
-2.654649664007934
 30
0.0
 11
614.5816767151249
 21
-3.654649664007934
 31
0.0
  0
LINE
  5
2791
330
2
100
AcDbEntity
  8
AM_VIS
100
AcDbLine
 10
612.7816767151248
 20
-7.154649664007934
 30
0.0
 11
612.7816767151248
 21
-5.154649664007934
 31
0.0
  0
LINE
  5
2792
330
2
100
AcDbEntity
  8
AM_VIS
100
AcDbLine
 10
611.2816767151248
 20
1.845350335992065
 30
0.0
 11
612.7816767151248
 21
0.8453503359920659
 31
0.0
  0
LINE
  5
2793
330
2
100
AcDbEntity
  8
AM_VIS
100
AcDbLine
 10
612.7816767151248
 20
-1.154649664007934
 30
0.0
 11
612.7816767151248
 21
0.8453503359920659
 31
0.0
  0
LINE
  5
2794
330
2
100
AcDbEntity
  8
AM_VIS
100
AcDbLine
 10
611.2816767151248
 20
-5.154649664007934
 30
0.0
 11
611.2816767151248
 21
-8.154649664007934
 31
0.0
  0
LINE
  5
2795
330
2
100
AcDbEntity
  8
AM_VIS
100
AcDbLine
 10
607.7816767151248
 20
-8.154649664007934
 30
0.0
 11
611.2816767151248
 21
-8.154649664007934
 31
0.0
  0
LINE
  5
2796
330
2
100
AcDbEntity
  8
AM_VIS
100
AcDbLine
 10
607.7816767151248
 20
1.845350335992065
 30
0.0
 11
607.7816767151248
 21
-8.154649664007934
 31
0.0
  0
LINE
  5
2797
330
2
100
AcDbEntity
  8
AM_VIS
100
AcDbLine
 10
607.7816767151248
 20
1.845350335992065
 30
0.0
 11
611.2816767151248
 21
1.845350335992065
 31
0.0
  0
LINE
  5
2798
330
2
100
AcDbEntity
  8
AM_VIS
100
AcDbLine
 10
611.2816767151248
 20
1.845350335992065
 30
0.0
 11
611.2816767151248
 21
-1.154649664007934
 31
0.0
  0
LINE
  5
2799
330
2
100
AcDbEntity
  8
AM_VIS
100
AcDbLine
 10
612.7816767151248
 20
-5.154649664007934
 30
0.0
 11
611.2816767151248
 21
-5.154649664007934
 31
0.0
  0
LINE
  5
279A
330
2
100
AcDbEntity
  8
AM_VIS
100
AcDbLine
 10
611.2816767151248
 20
-5.154649664007934
 30
0.0
 11
610.4816767151247
 21
-5.154649664007934
 31
0.0
  0
LINE
  5
279B
330
2
100
AcDbEntity
  8
AM_VIS
100
AcDbLine
 10
610.4816767151247
 20
-1.154649664007934
 30
0.0
 11
611.2816767151248
 21
-1.154649664007934
 31
0.0
  0
LINE
  5
279C
330
2
100
AcDbEntity
  8
AM_VIS
100
AcDbLine
 10
611.2816767151248
 20
-1.154649664007934
 30
0.0
 11
612.7816767151248
 21
-1.154649664007934
 31
0.0
  0
LINE
  5
279D
330
2
100
AcDbEntity
  8
AM_VIS
100
AcDbLine
 10
610.4816767151247
 20
-5.154649664007934
 30
0.0
 11
610.4816767151247
 21
-1.154649664007934
 31
0.0
  0
LINE
  5
279E
330
2
100
AcDbEntity
  8
AM_VIS
100
AcDbLine
 10
611.1988340026502
 20
-5.154649664007934
 30
0.0
 11
611.1988340026502
 21
-1.154649664007934
 31
0.0
  0
LINE
  5
279F
330
2
100
AcDbEntity
  8
AM_VIS
100
AcDbLine
 10
612.7816767151248
 20
-1.154649664007934
 30
0.0
 11
612.7816767151248
 21
-5.154649664007934
 31
0.0
  0
LINE
  5
27A0
330
2
100
AcDbEntity
  8
AM_VIS
100
AcDbLine
 10
564.5419285447789
 20
-48.09974825320608
 30
0.0
 11
564.5413052568882
 21
-48.09974825320608
 31
0.0
  0
LINE
  5
27A1
330
2
100
AcDbEntity
  8
AM_VIS
100
AcDbLine
 10
564.541305256888
 20
-47.78990018064368
 30
0.0
 11
564.6830912167195
 21
-47.78990018064368
 31
0.0
  0
LINE
  5
27A2
330
2
100
AcDbEntity
  8
AM_VIS
100
AcDbLine
 10
564.6834966583476
 20
-47.78019595839944
 30
0.0
 11
564.541305256888
 21
-47.78019595839944
 31
0.0
  0
LINE
  5
27A3
330
2
100
AcDbEntity
  8
AM_VIS
100
AcDbLine
 10
565.8316767151247
 20
-47.38319566951782
 30
0.0
 11
565.8316767151247
 21
-48.49674854208373
 31
0.0
  0
ELLIPSE
  5
27A4
330
2
100
AcDbEntity
  8
AM_VIS
100
AcDbEllipse
 10
567.0316767151247
 20
-47.94482421692288
 30
0.0
 11
2.495190373498582
 21
-0.0000000000000011
 31
0.0
210
0.0
220
0.0
230
1.0
 40
0.9995099114916117
 41
3.203752183251127
 42
3.485155507044237
  0
ELLIPSE
  5
27A5
330
2
100
AcDbEntity
  8
AM_VIS
100
AcDbEllipse
 10
566.4492677601726
 20
-47.26498252973067
 30
0.0
 11
1.768284764505587
 21
1.525749312677538
 31
0.0
210
0.0
220
0.0
230
1.0
 40
0.0237058193562346
 41
3.054726489433917
 42
3.132538457567109
  0
ELLIPSE
  5
27A6
330
2
100
AcDbEntity
  8
AM_VIS
100
AcDbEllipse
 10
567.0316767151247
 20
-47.93511999467864
 30
0.0
 11
2.495190373498582
 21
-0.0000000000000011
 31
0.0
210
0.0
220
0.0
230
1.0
 40
0.9995099114916117
 41
3.203752183251127
 42
3.48777345307043
  0
ELLIPSE
  5
27A7
330
2
100
AcDbEntity
  8
AM_VIS
100
AcDbEllipse
 10
567.0316767151247
 20
-47.93511999467864
 30
0.0
 11
2.495190373498582
 21
-0.0000000000000011
 31
0.0
210
0.0
220
0.0
230
1.0
 40
0.9995099114916117
 41
2.795411854110827
 42
3.079433123930057
  0
ELLIPSE
  5
27A8
330
2
100
AcDbEntity
  8
AM_VIS
100
AcDbEllipse
 10
566.4492677601767
 20
-48.61496168187023
 30
0.0
 11
1.768284764511111
 21
-1.525749312672966
 31
0.0
210
0.0
220
0.0
230
1.0
 40
0.0237058193562971
 41
3.095629510736399
 42
3.205774235520352
  0
ELLIPSE
  5
27A9
330
2
100
AcDbEntity
  8
AM_VIS
100
AcDbEllipse
 10
567.0316767151247
 20
-47.94482421692288
 30
0.0
 11
2.495190373498582
 21
-0.0000000000000011
 31
0.0
210
0.0
220
0.0
230
1.0
 40
0.9995099114916117
 41
3.075534033575724
 42
3.079433123930057
  0
ELLIPSE
  5
27AA
330
2
100
AcDbEntity
  8
AM_VIS
100
AcDbEllipse
 10
566.4492677601772
 20
-47.96111230139581
 30
0.0
 11
0.0847192597916111
 21
-2.334001846731583
 31
0.0
210
0.0
220
0.0
230
0.9999999999999998
 40
0.7569078954683901
 41
4.598055593073517
 42
4.730884900082694
  0
ELLIPSE
  5
27AB
330
2
100
AcDbEntity
  8
AM_VIS
100
AcDbEllipse
 10
567.0316767151247
 20
-47.78504806952156
 30
0.0
 11
2.495190373498707
 21
-0.0000000000000013
 31
0.0
210
0.0
220
0.0
230
1.0
 40
0.0313039427234114
 41
3.203752183250329
 42
3.485155507043446
  0
ELLIPSE
  5
27AC
330
2
100
AcDbEntity
  8
AM_VIS
100
AcDbEllipse
 10
567.0316767151247
 20
-47.78504806952156
 30
0.0
 11
2.495190373498707
 21
-0.0000000000000013
 31
0.0
210
0.0
220
0.0
230
1.0
 40
0.0313039427234114
 41
2.79541185410996
 42
3.079433123929256
  0
ELLIPSE
  5
27AD
330
2
100
AcDbEntity
  8
AM_VIS
100
AcDbEllipse
 10
566.4492677601772
 20
-47.91883191020571
 30
0.0
 11
0.0847192597916136
 21
2.334001846731582
 31
0.0
210
0.0
220
0.0
230
0.9999999999999998
 40
0.7569078954683903
 41
1.552300407098592
 42
1.662445131883447
  0
ELLIPSE
  5
27AE
330
2
100
AcDbEntity
  8
AM_VIS
100
AcDbEllipse
 10
567.0316767151247
 20
-48.09489614208394
 30
0.0
 11
2.495190373498459
 21
-0.0000000000000013
 31
0.0
210
0.0
220
0.0
230
1.0
 40
0.0313039427234114
 41
2.795411854109997
 42
3.079433123929256
  0
ARC
  5
27AF
330
2
100
AcDbEntity
  8
AM_VIS
100
AcDbCircle
 10
565.4158043028764
 20
-48.86114328822817
 30
0.0
 40
0.6400000000000002
100
AcDbArc
 50
209.6864561869236
 51
244.7452834390857
  0
ARC
  5
27B0
330
2
100
AcDbEntity
  8
AM_VIS
100
AcDbCircle
 10
565.4158043028764
 20
-47.01880092337336
 30
0.0
 40
0.6400000000000002
100
AcDbArc
 50
115.2547165608965
 51
150.3135438130763
  0
ARC
  5
27B1
330
2
100
AcDbEntity
  8
AM_VIS
100
AcDbCircle
 10
567.0316767151247
 20
-47.93997210580076
 30
0.0
 40
2.5
100
AcDbArc
 50
150.3135438130777
 51
160.1153842364351
  0
ARC
  5
27B2
330
2
100
AcDbEntity
  8
AM_VIS
100
AcDbCircle
 10
567.0316767151247
 20
-47.93997210580076
 30
0.0
 40
2.5
100
AcDbArc
 50
199.8846157636617
 51
209.6864561869223
  0
LINE
  5
27B3
330
2
100
AcDbEntity
  8
AM_VIS
100
AcDbLine
 10
593.5816767151248
 20
-59.49674854208399
 30
0.0
 11
593.5816767151248
 21
-58.38319566951779
 31
0.0
  0
LINE
  5
27B4
330
2
100
AcDbEntity
  8
AM_VIS
100
AcDbLine
 10
594.7816767151248
 20
-58.78497210580087
 30
0.0
 11
594.7288410529655
 21
-58.78497210580087
 31
0.0
  0
ELLIPSE
  5
27B5
330
2
100
AcDbEntity
  8
AM_VIS
100
AcDbEllipse
 10
592.9640856700769
 20
-58.93997210580088
 30
0.0
 11
-0.000000000000001
 21
-2.335538904304221
 31
0.0
210
0.0
220
0.0
230
1.0
 40
0.7572790292165315
 41
1.504381673290255
 42
1.637210980299537
  0
LINE
  5
27B6
330
2
100
AcDbEntity
  8
AM_VIS
100
AcDbLine
 10
594.7288410529655
 20
-59.09497210580091
 30
0.0
 11
594.7816767151248
 21
-59.09497210580091
 31
0.0
  0
ARC
  5
27B7
330
2
100
AcDbEntity
  8
AM_VIS
100
AcDbCircle
 10
592.3816767151248
 20
-58.9399721058009
 30
0.0
 40
2.495190373498459
100
AcDbArc
 50
15.87715702472632
 51
19.83469875865789
  0
LINE
  5
27B8
330
2
100
AcDbEntity
  8
AM_VIS
100
AcDbLine
 10
594.728841052966
 20
-59.78660931923153
 30
0.0
 11
594.7327403042265
 21
-59.78997210580089
 31
0.0
  0
LINE
  5
27B9
330
2
100
AcDbEntity
  8
AM_VIS
100
AcDbLine
 10
594.7327403042265
 20
-58.08997210580088
 30
0.0
 11
594.7288410529661
 21
-58.09333489237025
 31
0.0
  0
ARC
  5
27BA
330
2
100
AcDbEntity
  8
AM_VIS
100
AcDbCircle
 10
592.3816767151248
 20
-58.9399721058009
 30
0.0
 40
2.495190373498459
100
AcDbArc
 50
340.1653012413421
 51
344.1228429752737
  0
ARC
  5
27BB
330
2
100
AcDbEntity
  8
AM_VIS
100
AcDbCircle
 10
593.9975491273732
 20
-58.01880092337348
 30
0.0
 40
0.6400000000000002
100
AcDbArc
 50
29.68645618692368
 51
64.74528343909624
  0
ARC
  5
27BC
330
2
100
AcDbEntity
  8
AM_VIS
100
AcDbCircle
 10
593.9975491273732
 20
-59.86114328822828
 30
0.0
 40
0.6400000000000002
100
AcDbArc
 50
295.2547165609038
 51
330.3135438130749
  0
ARC
  5
27BD
330
2
100
AcDbEntity
  8
AM_VIS
100
AcDbCircle
 10
592.3816767151248
 20
-58.9399721058009
 30
0.0
 40
2.5
100
AcDbArc
 50
19.87687407007918
 51
29.68645618692226
  0
ARC
  5
27BE
330
2
100
AcDbEntity
  8
AM_VIS
100
AcDbCircle
 10
592.3816767151248
 20
-58.9399721058009
 30
0.0
 40
2.5
100
AcDbArc
 50
330.3135438130778
 51
340.1231259299208
  0
LINE
  5
27BF
330
2
100
AcDbEntity
  8
AM_VIS
100
AcDbLine
 10
579.8316767151248
 20
-47.33997210580077
 30
0.0
 11
579.8316767151248
 21
-60.93997210580076
 31
0.0
  0
LINE
  5
27C0
330
2
100
AcDbEntity
  8
AM_VIS
100
AcDbLine
 10
579.3316767151248
 20
-47.33997210580077
 30
0.0
 11
579.3316767151248
 21
-60.93997210580076
 31
0.0
  0
LINE
  5
27C1
330
2
100
AcDbEntity
  8
AM_VIS
100
AcDbLine
 10
578.3316767151247
 20
-47.33997210580077
 30
0.0
 11
578.3316767151247
 21
-60.93997210580076
 31
0.0
  0
LINE
  5
27C2
102
{ACAD_REACTORS
330
2FCD
102
}
330
2
100
AcDbEntity
  8
AM_VIS
100
AcDbLine
 10
580.4316767151248
 20
-47.33997210580077
 30
0.0
 11
579.8316767151248
 21
-47.33997210580077
 31
0.0
  0
LINE
  5
27C3
330
2
100
AcDbEntity
  8
AM_VIS
100
AcDbLine
 10
579.8316767151248
 20
-47.33997210580077
 30
0.0
 11
579.3316767151248
 21
-47.33997210580077
 31
0.0
  0
LINE
  5
27C4
330
2
100
AcDbEntity
  8
AM_VIS
100
AcDbLine
 10
579.3316767151248
 20
-47.33997210580077
 30
0.0
 11
578.3316767151247
 21
-47.33997210580077
 31
0.0
  0
LINE
  5
27C5
330
2
100
AcDbEntity
  8
AM_VIS
100
AcDbLine
 10
578.3316767151247
 20
-47.33997210580077
 30
0.0
 11
577.8316767151247
 21
-47.33997210580077
 31
0.0
  0
LINE
  5
27C6
330
2
100
AcDbEntity
  8
AM_VIS
100
AcDbLine
 10
580.4316767151248
 20
-45.93997210580079
 30
0.0
 11
580.4316767151248
 21
-47.3399721058008
 31
0.0
  0
LINE
  5
27C7
330
2
100
AcDbEntity
  8
AM_VIS
100
AcDbLine
 10
568.7816767151248
 20
-45.93997210580079
 30
0.0
 11
568.7816767151248
 21
-60.93997210580079
 31
0.0
  0
LINE
  5
27C8
330
2
100
AcDbEntity
  8
AM_VIS
100
AcDbLine
 10
585.2816767151248
 20
-60.93997210580079
 30
0.0
 11
585.2816767151248
 21
-45.93997210580079
 31
0.0
  0
LINE
  5
27C9
330
2
100
AcDbEntity
  8
AM_VIS
100
AcDbLine
 10
577.2316767151247
 20
-47.33997210580077
 30
0.0
 11
577.2316767151247
 21
-45.93997210580076
 31
0.0
  0
LINE
  5
27CA
330
2
100
AcDbEntity
  8
AM_VIS
100
AcDbLine
 10
577.8316767151247
 20
-47.33997210580077
 30
0.0
 11
577.2316767151247
 21
-47.33997210580077
 31
0.0
  0
LINE
  5
27CB
330
2
100
AcDbEntity
  8
AM_VIS
100
AcDbLine
 10
577.8316767151247
 20
-60.93997210580079
 30
0.0
 11
577.8316767151247
 21
-47.3399721058008
 31
0.0
  0
LINE
  5
27CC
330
2
100
AcDbEntity
  8
AM_VIS
100
AcDbLine
 10
572.9816767151247
 20
-45.93997210580079
 30
0.0
 11
572.9816767151247
 21
-60.93997210580079
 31
0.0
  0
LINE
  5
27CD
330
2
100
AcDbEntity
  8
AM_VIS
100
AcDbLine
 10
570.4816767151247
 20
-60.93997210580079
 30
0.0
 11
570.4816767151247
 21
-45.93997210580079
 31
0.0
  0
LINE
  5
27CE
330
2
100
AcDbEntity
  8
AM_VIS
100
AcDbLine
 10
570.9816767151247
 20
-45.93997210580079
 30
0.0
 11
570.9816767151247
 21
-60.93997210580079
 31
0.0
  0
LINE
  5
27CF
330
2
100
AcDbEntity
  8
AM_VIS
100
AcDbLine
 10
572.4816767151247
 20
-45.93997210580079
 30
0.0
 11
572.4816767151247
 21
-60.93997210580079
 31
0.0
  0
LINE
  5
27D0
330
2
100
AcDbEntity
  8
AM_VIS
100
AcDbLine
 10
568.7816767151248
 20
-45.93997210580079
 30
0.0
 11
570.4816767151247
 21
-45.93997210580079
 31
0.0
  0
LINE
  5
27D1
330
2
100
AcDbEntity
  8
AM_VIS
100
AcDbLine
 10
580.4316767151248
 20
-45.93997210580079
 30
0.0
 11
585.2816767151248
 21
-45.93997210580079
 31
0.0
  0
LINE
  5
27D2
330
2
100
AcDbEntity
  8
AM_VIS
100
AcDbLine
 10
572.9816767151247
 20
-45.93997210580079
 30
0.0
 11
577.2316767151247
 21
-45.93997210580079
 31
0.0
  0
LINE
  5
27D3
330
2
100
AcDbEntity
  8
AM_VIS
100
AcDbLine
 10
572.4816767151247
 20
-45.93997210580079
 30
0.0
 11
572.9816767151247
 21
-45.93997210580079
 31
0.0
  0
LINE
  5
27D4
330
2
100
AcDbEntity
  8
AM_VIS
100
AcDbLine
 10
570.9816767151247
 20
-45.93997210580079
 30
0.0
 11
572.4816767151247
 21
-45.93997210580079
 31
0.0
  0
LINE
  5
27D5
330
2
100
AcDbEntity
  8
AM_VIS
100
AcDbLine
 10
570.4816767151247
 20
-45.93997210580079
 30
0.0
 11
570.9816767151247
 21
-45.93997210580079
 31
0.0
  0
LINE
  5
27D6
330
2
100
AcDbEntity
  8
AM_VIS
100
AcDbLine
 10
572.9816767151247
 20
-60.93997210580079
 30
0.0
 11
577.8316767151247
 21
-60.93997210580079
 31
0.0
  0
LINE
  5
27D7
330
2
100
AcDbEntity
  8
AM_VIS
100
AcDbLine
 10
577.8316767151247
 20
-60.93997210580079
 30
0.0
 11
578.3316767151247
 21
-60.93997210580079
 31
0.0
  0
LINE
  5
27D8
330
2
100
AcDbEntity
  8
AM_VIS
100
AcDbLine
 10
578.3316767151247
 20
-60.93997210580079
 30
0.0
 11
579.3316767151248
 21
-60.93997210580079
 31
0.0
  0
LINE
  5
27D9
330
2
100
AcDbEntity
  8
AM_VIS
100
AcDbLine
 10
579.3316767151248
 20
-60.93997210580079
 30
0.0
 11
579.8316767151248
 21
-60.93997210580079
 31
0.0
  0
LINE
  5
27DA
330
2
100
AcDbEntity
  8
AM_VIS
100
AcDbLine
 10
579.8316767151248
 20
-60.93997210580079
 30
0.0
 11
585.2816767151248
 21
-60.93997210580079
 31
0.0
  0
LINE
  5
27DB
330
2
100
AcDbEntity
  8
AM_VIS
100
AcDbLine
 10
568.7816767151248
 20
-60.93997210580079
 30
0.0
 11
570.4816767151247
 21
-60.93997210580079
 31
0.0
  0
LINE
  5
27DC
330
2
100
AcDbEntity
  8
AM_VIS
100
AcDbLine
 10
570.9816767151247
 20
-60.93997210580079
 30
0.0
 11
570.4816767151247
 21
-60.93997210580079
 31
0.0
  0
LINE
  5
27DD
330
2
100
AcDbEntity
  8
AM_VIS
100
AcDbLine
 10
572.4816767151247
 20
-60.93997210580079
 30
0.0
 11
570.9816767151247
 21
-60.93997210580079
 31
0.0
  0
LINE
  5
27DE
330
2
100
AcDbEntity
  8
AM_VIS
100
AcDbLine
 10
572.9816767151247
 20
-60.93997210580079
 30
0.0
 11
572.4816767151247
 21
-60.93997210580079
 31
0.0
  0
LINE
  5
27DF
102
{ACAD_REACTORS
330
2FCD
102
}
330
2
100
AcDbEntity
  8
AM_VIS
100
AcDbLine
 10
577.2316767151247
 20
-45.93997210580079
 30
0.0
 11
580.4316767151248
 21
-45.93997210580079
 31
0.0
  0
LINE
  5
27E0
330
2
100
AcDbEntity
  8
AM_VIS
100
AcDbLine
 10
585.2816767151248
 20
-45.93997210580087
 30
0.0
 11
585.2816767151248
 21
-52.43997210580087
 31
0.0
  0
LINE
  5
27E1
330
2
100
AcDbEntity
  8
AM_VIS
100
AcDbLine
 10
585.2816767151248
 20
-45.93997210580084
 30
0.0
 11
594.7816767151248
 21
-45.93997210580084
 31
0.0
  0
LINE
  5
27E2
330
2
100
AcDbEntity
  8
AM_VIS
100
AcDbLine
 10
593.5816767151248
 20
-57.43997210580087
 30
0.0
 11
594.7816767151248
 21
-57.43997210580087
 31
0.0
  0
LINE
  5
27E3
330
2
100
AcDbEntity
  8
AM_VIS
100
AcDbLine
 10
593.5816767151248
 20
-60.43997210580087
 30
0.0
 11
593.5816767151248
 21
-59.49674854208399
 31
0.0
  0
LINE
  5
27E4
330
2
100
AcDbEntity
  8
AM_VIS
100
AcDbLine
 10
593.5816767151248
 20
-58.38319566951776
 30
0.0
 11
593.5816767151248
 21
-57.43997210580085
 31
0.0
  0
LINE
  5
27E5
330
2
100
AcDbEntity
  8
AM_VIS
100
AcDbLine
 10
594.7816767151248
 20
-60.43997210580087
 30
0.0
 11
593.5816767151248
 21
-60.43997210580087
 31
0.0
  0
LINE
  5
27E6
330
2
100
AcDbEntity
  8
AM_VIS
100
AcDbLine
 10
585.2816767151248
 20
-60.93997210580084
 30
0.0
 11
594.7816767151248
 21
-60.93997210580084
 31
0.0
  0
LINE
  5
27E7
330
2
100
AcDbEntity
  8
AM_VIS
100
AcDbLine
 10
585.2816767151248
 20
-54.43997210580088
 30
0.0
 11
585.2816767151248
 21
-60.93997210580088
 31
0.0
  0
LINE
  5
27E8
330
2
100
AcDbEntity
  8
AM_VIS
100
AcDbLine
 10
585.7816767151247
 20
-52.43997210580085
 30
0.0
 11
585.7816767151247
 21
-54.43997210580085
 31
0.0
  0
LINE
  5
27E9
330
2
100
AcDbEntity
  8
AM_VIS
100
AcDbLine
 10
585.7816767151247
 20
-54.43997210580085
 30
0.0
 11
585.2816767151248
 21
-54.43997210580085
 31
0.0
  0
LINE
  5
27EA
330
2
100
AcDbEntity
  8
AM_VIS
100
AcDbLine
 10
585.2816767151248
 20
-52.43997210580085
 30
0.0
 11
585.7816767151247
 21
-52.43997210580085
 31
0.0
  0
ARC
  5
27EB
330
2
100
AcDbEntity
  8
AM_VIS
100
AcDbCircle
 10
592.1082306252807
 20
-53.80837288628083
 30
0.0
 40
0.9204007112118768
100
AcDbArc
 50
153.9012297567695
 51
164.3619031299875
  0
SPLINE
  5
27EC
330
2
100
AcDbEntity
  8
AM_VIS
100
AcDbSpline
210
0.0
220
0.0
230
1.0
 70
     8
 71
     3
 72
    38
 73
    34
 74
     0
 42
0.0000000001
 43
0.0000000001
 40
0.0096105424429285
 40
0.0096105424429285
 40
0.0096105424429285
 40
0.0096105424429285
 40
0.2511760059468008
 40
0.2511760059468008
 40
0.3661489296361611
 40
0.3661489296361611
 40
0.4503270969622498
 40
0.4503270969622498
 40
0.5340078174843953
 40
0.5340078174843953
 40
0.6478119174360324
 40
0.6478119174360324
 40
0.803204793355861
 40
0.803204793355861
 40
1.030112956685476
 40
1.030112956685476
 40
1.139750424396189
 40
1.139750424396189
 40
1.231613346946539
 40
1.231613346946539
 40
1.383927807882236
 40
1.383927807882236
 40
1.903215338580305
 40
1.903215338580305
 40
2.725560479358289
 40
2.725560479358289
 40
3.333619977246191
 40
3.333619977246191
 40
3.793936947558544
 40
3.793936947558544
 40
4.267761469383683
 40
4.267761469383683
 40
4.698806880710381
 40
4.698806880710381
 40
4.698806880710381
 40
4.698806880710381
 10
592.4744970381523
 20
-53.23997210580086
 30
0.0
 10
592.4145355966929
 20
-53.28263464220447
 30
0.0
 10
592.3595119985629
 20
-53.33076373214987
 30
0.0
 10
592.275616800248
 20
-53.40900830524728
 30
0.0
 10
592.248778646165
 20
-53.43468881510353
 30
0.0
 10
592.2012668348957
 20
-53.47949009683111
 30
0.0
 10
592.1810851167025
 20
-53.49831873175734
 30
0.0
 10
592.1400602430829
 20
-53.53550292680686
 30
0.0
 10
592.1193996244414
 20
-53.55369959235
 30
0.0
 10
592.0696260150195
 20
-53.59569792887814
 30
0.0
 10
592.0403814685698
 20
-53.61896690040487
 30
0.0
 10
591.9694289860919
 20
-53.67098244838212
 30
0.0
 10
591.9314792451911
 20
-53.69540393707729
 30
0.0
 10
591.8499300763073
 20
-53.74007715174673
 30
0.0
 10
591.823274678832
 20
-53.7468753531553
 30
0.0
 10
591.8012526962344
 20
-53.75107187268245
 30
0.0
 10
591.7940539852556
 20
-53.75194010053326
 30
0.0
 10
591.7805754691608
 20
-53.7524454270968
 30
0.0
 10
591.7744974804041
 20
-53.75225381561773
 30
0.0
 10
591.7582484447116
 20
-53.7506637958175
 30
0.0
 10
591.7483578338675
 20
-53.74858076087145
 30
0.0
 10
591.7056989535782
 20
-53.73629297376857
 30
0.0
 10
591.6713320709026
 20
-53.71740937205345
 30
0.0
 10
591.6188479348805
 20
-53.68710454132108
 30
0.0
 10
591.582667436342
 20
-53.6631532353677
 30
0.0
 10
591.5151111929048
 20
-53.61279261990211
 30
0.0
 10
591.487110866651
 20
-53.59026736282612
 30
0.0
 10
591.4387878728773
 20
-53.54919582123518
 30
0.0
 10
591.4183864844861
 20
-53.53112407308817
 30
0.0
 10
591.3773871986104
 20
-53.4938058352867
 30
0.0
 10
591.3569884380489
 20
-53.47471073162918
 30
0.0
 10
591.3182028347904
 20
-53.43807612814419
 30
0.0
 10
591.2999516615571
 20
-53.42069679901567
 30
0.0
 10
591.2816767151248
 20
-53.40347030194061
 30
0.0
  0
LINE
  5
27ED
330
2
100
AcDbEntity
  8
AM_VIS
100
AcDbLine
 10
594.7816767151248
 20
-60.93997210580084
 30
0.0
 11
594.7816767151248
 21
-60.43997210580084
 31
0.0
  0
LINE
  5
27EE
330
2
100
AcDbEntity
  8
AM_VIS
100
AcDbLine
 10
594.7816767151248
 20
-57.43997210580085
 30
0.0
 11
594.7816767151248
 21
-45.93997210580084
 31
0.0
  0
LINE
  5
27EF
330
2
100
AcDbEntity
  8
AM_VIS
100
AcDbLine
 10
591.2816767151248
 20
-53.40347030194061
 30
0.0
 11
591.2816767151248
 21
-53.62987005435752
 31
0.0
  0
CIRCLE
  5
27F0
330
2
100
AcDbEntity
  8
AM_VIS
100
AcDbCircle
 10
591.7816767151248
 20
-53.13997210580089
 30
0.0
 40
0.7
  0
LINE
  5
27F1
330
2
100
AcDbEntity
  8
AM_VIS
100
AcDbLine
 10
564.3316767151247
 20
-45.93997210580073
 30
0.0
 11
564.3316767151247
 21
-46.43997210580073
 31
0.0
  0
LINE
  5
27F2
330
2
100
AcDbEntity
  8
AM_VIS
100
AcDbLine
 10
568.7816767151248
 20
-45.93997210580073
 30
0.0
 11
564.3316767151247
 21
-45.93997210580073
 31
0.0
  0
LINE
  5
27F3
330
2
100
AcDbEntity
  8
AM_VIS
100
AcDbLine
 10
568.7816767151248
 20
-60.93997210580074
 30
0.0
 11
568.7816767151248
 21
-45.93997210580073
 31
0.0
  0
LINE
  5
27F4
330
2
100
AcDbEntity
  8
AM_VIS
100
AcDbLine
 10
568.7816767151248
 20
-60.93997210580074
 30
0.0
 11
564.3316767151247
 21
-60.93997210580074
 31
0.0
  0
LINE
  5
27F5
330
2
100
AcDbEntity
  8
AM_VIS
100
AcDbLine
 10
564.3316767151247
 20
-49.43997210580073
 30
0.0
 11
564.3316767151247
 21
-60.93997210580074
 31
0.0
  0
LINE
  5
27F6
330
2
100
AcDbEntity
  8
AM_VIS
100
AcDbLine
 10
565.8316767151247
 20
-46.4399721058007
 30
0.0
 11
565.8316767151247
 21
-47.38319566951779
 31
0.0
  0
LINE
  5
27F7
330
2
100
AcDbEntity
  8
AM_VIS
100
AcDbLine
 10
565.8316767151247
 20
-48.4967485420837
 30
0.0
 11
565.8316767151247
 21
-49.43997210580071
 31
0.0
  0
LINE
  5
27F8
330
2
100
AcDbEntity
  8
AM_VIS
100
AcDbLine
 10
565.8316767151247
 20
-49.43997210580073
 30
0.0
 11
564.3316767151247
 21
-49.43997210580073
 31
0.0
  0
LINE
  5
27F9
330
2
100
AcDbEntity
  8
AM_VIS
100
AcDbLine
 10
564.3316767151247
 20
-46.43997210580073
 30
0.0
 11
565.8316767151247
 21
-46.43997210580073
 31
0.0
  0
LINE
  5
27FA
330
2
100
AcDbEntity
  8
AM_VIS
100
AcDbLine
 10
564.3316767151247
 20
-49.43997210580073
 30
0.0
 11
564.3316767151247
 21
-46.43997210580073
 31
0.0
  0
LINE
  5
27FB
330
2
100
AcDbEntity
  8
AM_VIS
100
AcDbLine
 10
609.7816767151248
 20
-52.63997210580083
 30
0.0
 11
609.7816767151248
 21
-53.14000151782
 31
0.0
  0
LINE
  5
27FC
330
2
100
AcDbEntity
  8
AM_VIS
100
AcDbLine
 10
597.3816767151248
 20
-58.93997210580085
 30
0.0
 11
605.0816767151247
 21
-58.93997210580085
 31
0.0
  0
LINE
  5
27FD
330
2
100
AcDbEntity
  8
AM_VIS
100
AcDbLine
 10
597.3816767151248
 20
-60.03997210580087
 30
0.0
 11
597.3816767151248
 21
-58.93997210580085
 31
0.0
  0
LINE
  5
27FE
330
2
100
AcDbEntity
  8
AM_VIS
100
AcDbLine
 10
605.0816767151247
 20
-60.03997210580087
 30
0.0
 11
597.3816767151248
 21
-60.03997210580087
 31
0.0
  0
LINE
  5
27FF
330
2
100
AcDbEntity
  8
AM_VIS
100
AcDbLine
 10
605.0816767151247
 20
-58.93997210580085
 30
0.0
 11
605.0816767151247
 21
-60.03997210580084
 31
0.0
  0
LINE
  5
2800
330
2
100
AcDbEntity
  8
AM_VIS
100
AcDbLine
 10
607.7816767151248
 20
-60.93997210580084
 30
0.0
 11
607.7816767151248
 21
-56.65997210580084
 31
0.0
  0
LINE
  5
2801
330
2
100
AcDbEntity
  8
AM_VIS
100
AcDbLine
 10
594.7816767151248
 20
-60.93997210580084
 30
0.0
 11
607.7816767151248
 21
-60.93997210580084
 31
0.0
  0
LINE
  5
2802
330
2
100
AcDbEntity
  8
AM_VIS
100
AcDbLine
 10
594.7816767151248
 20
-53.13997210580083
 30
0.0
 11
594.7816767151248
 21
-60.93997210580084
 31
0.0
  0
LINE
  5
2803
330
2
100
AcDbEntity
  8
AM_VIS
100
AcDbLine
 10
606.2816767151248
 20
-53.13997210580083
 30
0.0
 11
594.7816767151248
 21
-53.13997210580083
 31
0.0
  0
LINE
  5
2804
330
2
100
AcDbEntity
  8
AM_VIS
100
AcDbLine
 10
606.2816767151248
 20
-56.65997210580084
 30
0.0
 11
606.2816767151248
 21
-53.13997210580083
 31
0.0
  0
LINE
  5
2805
330
2
100
AcDbEntity
  8
AM_VIS
100
AcDbLine
 10
607.7816767151248
 20
-53.14000151782
 30
0.0
 11
609.7816767151248
 21
-53.14000151782
 31
0.0
  0
LINE
  5
2806
330
2
100
AcDbEntity
  8
AM_VIS
100
AcDbLine
 10
607.7827832514401
 20
-55.87958228964573
 30
0.0
 11
609.7830571352641
 21
-55.42693578462053
 31
0.0
  0
LINE
  5
2807
330
2
100
AcDbEntity
  8
AM_VIS
100
AcDbLine
 10
607.7816767151248
 20
-56.65997210580084
 30
0.0
 11
606.2816767151248
 21
-56.65997210580084
 31
0.0
  0
LINE
  5
2808
330
2
100
AcDbEntity
  8
AM_VIS
100
AcDbLine
 10
609.9816767151247
 20
-53.73997210580085
 30
0.0
 11
609.7816767151248
 21
-53.73997210580085
 31
0.0
  0
LINE
  5
2809
330
2
100
AcDbEntity
  8
AM_VIS
100
AcDbLine
 10
609.7816767151248
 20
-53.13997210580083
 30
0.0
 11
609.9816767151247
 21
-53.13997210580083
 31
0.0
  0
LINE
  5
280A
330
2
100
AcDbEntity
  8
AM_VIS
100
AcDbLine
 10
604.6816767151248
 20
-60.03997210580081
 30
0.0
 11
604.6816767151248
 21
-58.93997210580081
 31
0.0
  0
LINE
  5
280B
330
2
100
AcDbEntity
  8
AM_VIS
100
AcDbLine
 10
597.8816767151248
 20
-60.03997210580081
 30
0.0
 11
597.8816767151248
 21
-58.93997210580081
 31
0.0
  0
LINE
  5
280C
330
2
100
AcDbEntity
  8
AM_VIS
100
AcDbLine
 10
609.7816767151248
 20
-55.93997210580084
 30
0.0
 11
607.7816767151248
 21
-56.43997210580085
 31
0.0
  0
LINE
  5
280D
330
2
100
AcDbEntity
  8
AM_VIS
100
AcDbLine
 10
609.7816767151248
 20
-54.93997210580085
 30
0.0
 11
609.9816767151247
 21
-54.93997210580085
 31
0.0
  0
LINE
  5
280E
330
2
100
AcDbEntity
  8
AM_VIS
100
AcDbLine
 10
609.7816767151248
 20
-51.93997210580085
 30
0.0
 11
609.9816767151247
 21
-51.93997210580085
 31
0.0
  0
LINE
  5
280F
330
2
100
AcDbEntity
  8
AM_VIS
100
AcDbLine
 10
609.7816767151248
 20
-55.42083561965165
 30
0.0
 11
609.7816767151248
 21
-55.93997210580084
 31
0.0
  0
LINE
  5
2810
330
2
100
AcDbEntity
  8
AM_VIS
100
AcDbLine
 10
607.7816767151248
 20
-53.13997210580083
 30
0.0
 11
607.7816767151248
 21
-53.14000151782
 31
0.0
  0
LINE
  5
2811
330
2
100
AcDbEntity
  8
AM_VIS
100
AcDbLine
 10
609.7816767151248
 20
-53.14000151782
 30
0.0
 11
609.7816767151248
 21
-55.42083561965165
 31
0.0
  0
LINE
  5
2812
330
2
100
AcDbEntity
  8
AM_VIS
100
AcDbLine
 10
607.7816767151248
 20
-55.87469243482871
 30
0.0
 11
607.7816767151248
 21
-56.65997210580084
 31
0.0
  0
LINE
  5
2813
330
2
100
AcDbEntity
  8
AM_VIS
100
AcDbLine
 10
609.9816767151247
 20
-51.93997210580085
 30
0.0
 11
609.9816767151247
 21
-53.13997210580083
 31
0.0
  0
LINE
  5
2814
330
2
100
AcDbEntity
  8
AM_VIS
100
AcDbLine
 10
609.9816767151247
 20
-53.73997210580085
 30
0.0
 11
609.9816767151247
 21
-54.93997210580085
 31
0.0
  0
LINE
  5
2815
330
2
100
AcDbEntity
  8
AM_VIS
100
AcDbLine
 10
607.7816767151248
 20
-33.43997210580085
 30
0.0
 11
594.7816767151248
 21
-33.43997210580085
 31
0.0
  0
LINE
  5
2816
330
2
100
AcDbEntity
  8
AM_VIS
100
AcDbLine
 10
594.7816767151248
 20
-53.13997210580083
 30
0.0
 11
594.7816767151248
 21
-33.43997210580085
 31
0.0
  0
LINE
  5
2817
330
2
100
AcDbEntity
  8
AM_VIS
100
AcDbLine
 10
609.7816767151248
 20
-52.63997210580083
 30
0.0
 11
609.7816767151248
 21
-50.43997210580084
 31
0.0
  0
LINE
  5
2818
330
2
100
AcDbEntity
  8
AM_VIS
100
AcDbLine
 10
607.7816767151248
 20
-50.43997210580084
 30
0.0
 11
607.7816767151248
 21
-33.43997210580085
 31
0.0
  0
LINE
  5
2819
330
2
100
AcDbEntity
  8
AM_VIS
100
AcDbLine
 10
609.7816767151248
 20
-50.43997210580084
 30
0.0
 11
607.7816767151248
 21
-50.43997210580084
 31
0.0
  0
LINE
  5
281A
330
2
100
AcDbEntity
  8
AM_VIS
100
AcDbLine
 10
608.2816767151248
 20
-53.13997210580083
 30
0.0
 11
594.7816767151248
 21
-53.13997210580083
 31
0.0
  0
LINE
  5
281B
330
2
100
AcDbEntity
  8
AM_VIS
100
AcDbLine
 10
609.7816767151248
 20
-52.63997210580083
 30
0.0
 11
608.2816767151248
 21
-53.13997210580083
 31
0.0
  0
LINE
  5
281C
330
2
100
AcDbEntity
  8
AM_VIS
100
AcDbLine
 10
607.7816767151248
 20
-50.43997210580084
 30
0.0
 11
611.2816767151248
 21
-50.43997210580084
 31
0.0
  0
LINE
  5
281D
330
2
100
AcDbEntity
  8
AM_VIS
100
AcDbLine
 10
607.7816767151248
 20
-33.43997210580085
 30
0.0
 11
607.7816767151248
 21
-50.43997210580084
 31
0.0
  0
LINE
  5
281E
330
2
100
AcDbEntity
  8
AM_VIS
100
AcDbLine
 10
611.2816767151248
 20
-50.43997210580084
 30
0.0
 11
612.7816767151248
 21
-48.93997210580085
 31
0.0
  0
LINE
  5
281F
330
2
100
AcDbEntity
  8
AM_VIS
100
AcDbLine
 10
611.2816767151248
 20
-33.43997210580085
 30
0.0
 11
611.2816767151248
 21
-50.43997210580084
 31
0.0
  0
LINE
  5
2820
330
2
100
AcDbEntity
  8
AM_VIS
100
AcDbLine
 10
612.7816767151248
 20
-34.93997210580085
 30
0.0
 11
611.2816767151248
 21
-33.43997210580085
 31
0.0
  0
LINE
  5
2821
330
2
100
AcDbEntity
  8
AM_VIS
100
AcDbLine
 10
616.2816767151248
 20
-37.43997210580085
 30
0.0
 11
616.2816767151248
 21
-42.83997210580082
 31
0.0
  0
LINE
  5
2822
330
2
100
AcDbEntity
  8
AM_VIS
100
AcDbLine
 10
617.2816767151248
 20
-42.53997210580084
 30
0.0
 11
617.2816767151248
 21
-37.43997210580085
 31
0.0
  0
LINE
  5
2823
330
2
100
AcDbEntity
  8
AM_VIS
100
AcDbLine
 10
612.7816767151248
 20
-42.83997210580085
 30
0.0
 11
616.2816767151248
 21
-42.83997210580085
 31
0.0
  0
LINE
  5
2824
330
2
100
AcDbEntity
  8
AM_VIS
100
AcDbLine
 10
617.2816767151248
 20
-42.53997210580084
 30
0.0
 11
616.2816767151248
 21
-42.83997210580085
 31
0.0
  0
LINE
  5
2825
330
2
100
AcDbEntity
  8
AM_VIS
100
AcDbLine
 10
617.2816767151248
 20
-37.43997210580085
 30
0.0
 11
616.2816767151248
 21
-37.43997210580085
 31
0.0
  0
LINE
  5
2826
330
2
100
AcDbEntity
  8
AM_VIS
100
AcDbLine
 10
612.7816767151248
 20
-37.43997210580085
 30
0.0
 11
616.2816767151248
 21
-37.43997210580085
 31
0.0
  0
LINE
  5
2827
330
2
100
AcDbEntity
  8
AM_VIS
100
AcDbLine
 10
617.2816767151248
 20
-37.43997210580085
 30
0.0
 11
617.2816767151248
 21
-35.93997210580085
 31
0.0
  0
LINE
  5
2828
330
2
100
AcDbEntity
  8
AM_VIS
100
AcDbLine
 10
617.2816767151248
 20
-35.93997210580085
 30
0.0
 11
612.7816767151248
 21
-35.93997210580085
 31
0.0
  0
LINE
  5
2829
330
2
100
AcDbEntity
  8
AM_VIS
100
AcDbLine
 10
612.7816767151248
 20
-48.93997210580085
 30
0.0
 11
612.7816767151248
 21
-34.93997210580085
 31
0.0
  0
LINE
  5
282A
330
2
100
AcDbEntity
  8
AM_VIS
100
AcDbLine
 10
607.7816767151248
 20
-33.43997210580085
 30
0.0
 11
611.2816767151248
 21
-33.43997210580085
 31
0.0
  0
LINE
  5
282B
330
2
100
AcDbEntity
  8
AM_VIS
100
AcDbLine
 10
607.4313226749987
 20
-54.95201592983679
 30
0.0
 11
607.5239774968801
 21
-54.94034677565375
 31
0.0
  0
LINE
  5
282C
330
2
100
AcDbEntity
  8
AM_VIS
100
AcDbLine
 10
607.5024585435131
 20
-54.32645475405715
 30
0.0
 11
607.5239782137014
 21
-54.3154909468312
 31
0.0
  0
LINE
  5
282D
330
2
100
AcDbEntity
  8
AM_VIS
100
AcDbLine
 10
607.4303225649592
 20
-55.15997808036047
 30
0.0
 11
607.5239774465009
 21
-55.1717744625223
 31
0.0
  0
LINE
  5
282E
330
2
100
AcDbEntity
  8
AM_VIS
100
AcDbLine
 10
606.7533288027317
 20
-53.28123631659474
 30
0.0
 11
606.2816767151248
 21
-53.23997210580083
 31
0.0
  0
LINE
  5
282F
330
2
100
AcDbEntity
  8
AM_VIS
100
AcDbLine
 10
606.7533288027317
 20
-56.39870789500699
 30
0.0
 11
606.2816767151248
 21
-56.4399721058009
 31
0.0
  0
ELLIPSE
  5
2830
330
2
100
AcDbEntity
  8
AM_VIS
100
AcDbEllipse
 10
605.0816767151247
 20
-54.78694295870434
 30
0.0
 11
2.490079065009783
 21
-0.0000000000000014
 31
0.0
210
0.0
220
0.0
230
1.0
 40
0.971183434860675
 41
0.1962051514771284
 42
0.3428970250348993
  0
ELLIPSE
  5
2831
330
2
100
AcDbEntity
  8
AM_VIS
100
AcDbEllipse
 10
605.6160385251335
 20
-55.46933157809911
 30
0.0
 11
1.794957342537177
 21
1.524020367793821
 31
0.0
210
0.0
220
0.0
230
1.0
 40
0.1838809272074957
 41
6.033676357464729
 42
6.216405892020736
  0
ELLIPSE
  5
2832
330
2
100
AcDbEntity
  8
AM_VIS
100
AcDbEllipse
 10
605.0816767151247
 20
-54.89300125289739
 30
0.0
 11
2.490079065009783
 21
-0.0000000000000014
 31
0.0
210
0.0
220
0.0
230
1.0
 40
0.971183434860675
 41
5.937689964444293
 42
6.086980155702427
  0
ELLIPSE
  5
2833
330
2
100
AcDbEntity
  8
AM_VIS
100
AcDbEllipse
 10
605.6160385251335
 20
-54.21061263350259
 30
0.0
 11
1.794957342537176
 21
-1.524020367793821
 31
0.0
210
0.0
220
0.0
230
1.0
 40
0.1838809272074965
 41
0.0602411001504009
 42
0.0739494530812475
  0
ELLIPSE
  5
2834
330
2
100
AcDbEntity
  8
AM_VIS
100
AcDbEllipse
 10
605.0816767151247
 20
-55.05606042005928
 30
0.0
 11
2.490079065009606
 21
-0.0000000000000005
 31
0.0
210
0.0
220
0.0
230
1.0
 40
0.2383332453776036
 41
5.937689964444311
 42
6.086980155702796
  0
ELLIPSE
  5
2835
330
2
100
AcDbEntity
  8
AM_VIS
100
AcDbEllipse
 10
605.6160385251335
 20
-54.9944200506049
 30
0.0
 11
0.6538164905629067
 21
2.262086191913681
 31
0.0
210
0.0
220
0.0
230
1.0
 40
0.7492958450165212
 41
4.992445536876728
 42
4.999615574798067
  0
ELLIPSE
  5
2836
330
2
100
AcDbEntity
  8
AM_VIS
100
AcDbEllipse
 10
605.0816767151249
 20
-54.62388379154629
 30
0.0
 11
2.490079065009962
 21
-0.0000000000000005
 31
0.0
210
0.0
220
0.0
230
1.0
 40
0.2383332453776036
 41
5.937689964444257
 42
6.08698015570207
  0
ELLIPSE
  5
2837
330
2
100
AcDbEntity
  8
AM_VIS
100
AcDbEllipse
 10
605.6160385251335
 20
-54.6855241609968
 30
0.0
 11
0.6538164905629036
 21
-2.262086191913681
 31
0.0
210
0.0
220
0.0
230
1.0
 40
0.7492958450165198
 41
1.108010235745991
 42
1.297278085310446
  0
ELLIPSE
  5
2838
330
2
100
AcDbEntity
  8
AM_VIS
100
AcDbEllipse
 10
605.0816767151247
 20
-55.05606042005928
 30
0.0
 11
2.490079065009606
 21
-0.0000000000000005
 31
0.0
210
0.0
220
0.0
230
1.0
 40
0.2383332453776036
 41
0.1962051514767839
 42
0.3428970250345826
  0
ELLIPSE
  5
2839
330
2
100
AcDbEntity
  8
AM_VIS
100
AcDbEllipse
 10
605.0816767151247
 20
-54.89300125289739
 30
0.0
 11
2.490079065009783
 21
-0.0000000000000014
 31
0.0
210
0.0
220
0.0
230
1.0
 40
0.971183434860675
 41
0.1962051514771408
 42
0.3454953427352929
  0
LINE
  5
283A
330
2
100
AcDbEntity
  8
AM_VIS
100
AcDbLine
 10
607.5239797266284
 20
-54.94036448018741
 30
0.0
 11
607.5239797266284
 21
-55.17175635993118
 31
0.0
  0
LINE
  5
283B
330
2
100
AcDbEntity
  8
AM_VIS
100
AcDbLine
 10
607.5239797266284
 20
-54.31549391639214
 30
0.0
 11
607.5239797266284
 21
-54.42155221058516
 31
0.0
  0
LINE
  5
283C
330
2
100
AcDbEntity
  8
AM_VIS
100
AcDbLine
 10
607.5239797266284
 20
-54.42155221058516
 30
0.0
 11
607.5239797266284
 21
-54.73957973141861
 31
0.0
  0
LINE
  5
283D
330
2
100
AcDbEntity
  8
AM_VIS
100
AcDbLine
 10
607.5239797266284
 20
-55.17175635993118
 30
0.0
 11
607.5239797266284
 21
-55.36445029520956
 31
0.0
  0
ARC
  5
283E
330
2
100
AcDbEntity
  8
AM_VIS
100
AcDbCircle
 10
606.6975491273732
 20
-53.91880092337345
 30
0.0
 40
0.6400000000000001
100
AcDbArc
 50
29.68645618692368
 51
85.00000000000019
  0
ARC
  5
283F
330
2
100
AcDbEntity
  8
AM_VIS
100
AcDbCircle
 10
606.6975491273732
 20
-55.76114328822825
 30
0.0
 40
0.6400000000000002
100
AcDbArc
 50
274.9999999999998
 51
330.3135438130764
  0
ARC
  5
2840
330
2
100
AcDbEntity
  8
AM_VIS
100
AcDbCircle
 10
605.0816767151247
 20
-54.83997210580088
 30
0.0
 40
2.5
100
AcDbArc
 50
330.3135438130801
 51
339.653561528208
  0
ARC
  5
2841
330
2
100
AcDbEntity
  8
AM_VIS
100
AcDbCircle
 10
605.0816767151247
 20
-54.83997210580088
 30
0.0
 40
2.5
100
AcDbArc
 50
20.34643847179391
 51
29.68645618691994
  0
LINE
  5
2842
330
2
100
AcDbEntity
  8
AM_VIS
100
AcDbLine
 10
565.3600246275178
 20
-90.49447343076977
 30
0.0
 11
565.8316767151247
 21
-90.45320921997589
 31
0.0
  0
LINE
  5
2843
330
2
100
AcDbEntity
  8
AM_VIS
100
AcDbLine
 10
565.8316767151247
 20
-90.45320921997586
 30
0.0
 11
565.8316767151247
 21
-90.55320921997582
 31
0.0
  0
ARC
  5
2844
330
2
100
AcDbEntity
  8
AM_VIS
100
AcDbCircle
 10
565.4158043028764
 20
-91.13203803754851
 30
0.0
 40
0.6400000000000002
100
AcDbArc
 50
95.00000000000305
 51
115.2547165608965
  0
LINE
  5
2845
330
2
100
AcDbEntity
  8
AM_VIS
100
AcDbLine
 10
565.3600246275178
 20
-100.611945009182
 30
0.0
 11
565.8316767151247
 21
-100.6532092199758
 31
0.0
  0
LINE
  5
2846
330
2
100
AcDbEntity
  8
AM_VIS
100
AcDbLine
 10
565.8316767151247
 20
-100.5532092199758
 30
0.0
 11
565.8316767151247
 21
-100.6532092199758
 31
0.0
  0
ARC
  5
2847
330
2
100
AcDbEntity
  8
AM_VIS
100
AcDbCircle
 10
565.4158043028764
 20
-99.97438040240325
 30
0.0
 40
0.6400000000000002
100
AcDbArc
 50
244.7452834390962
 51
264.9999999999969
  0
LINE
  5
2848
330
2
100
AcDbEntity
  8
AM_VIS
100
AcDbLine
 10
594.0533288027317
 20
-100.611945009182
 30
0.0
 11
593.5816767151249
 21
-100.6532092199758
 31
0.0
  0
LINE
  5
2849
330
2
100
AcDbEntity
  8
AM_VIS
100
AcDbLine
 10
593.5816767151249
 20
-100.6532092199758
 30
0.0
 11
593.5816767151249
 21
-100.5532092199759
 31
0.0
  0
ARC
  5
284A
330
2
100
AcDbEntity
  8
AM_VIS
100
AcDbCircle
 10
593.9975491273733
 20
-99.97438040240325
 30
0.0
 40
0.6400000000000002
100
AcDbArc
 50
274.9999999999998
 51
295.2547165609001
  0
LINE
  5
284B
330
2
100
AcDbEntity
  8
AM_VIS
100
AcDbLine
 10
594.0533288027316
 20
-90.49447343076971
 30
0.0
 11
593.5816767151248
 21
-90.45320921997584
 31
0.0
  0
LINE
  5
284C
330
2
100
AcDbEntity
  8
AM_VIS
100
AcDbLine
 10
593.5816767151248
 20
-90.55320921997589
 30
0.0
 11
593.5816767151248
 21
-90.45320921997586
 31
0.0
  0
ARC
  5
284D
330
2
100
AcDbEntity
  8
AM_VIS
100
AcDbCircle
 10
593.9975491273732
 20
-91.13203803754846
 30
0.0
 40
0.6400000000000002
100
AcDbArc
 50
64.74528343909259
 51
85.00000000000019
  0
LINE
  5
284E
330
2
100
AcDbEntity
  8
AM_VIS
100
AcDbLine
 10
572.9816767151247
 20
-90.55320921997589
 30
0.0
 11
577.8316767151247
 21
-90.55320921997589
 31
0.0
  0
LINE
  5
284F
330
2
100
AcDbEntity
  8
AM_VIS
100
AcDbLine
 10
577.8316767151247
 20
-90.55320921997589
 30
0.0
 11
578.3316767151247
 21
-90.05320921997588
 31
0.0
  0
LINE
  5
2850
330
2
100
AcDbEntity
  8
AM_VIS
100
AcDbLine
 10
578.3316767151247
 20
-90.05320921997588
 30
0.0
 11
579.3316767151248
 21
-90.05320921997588
 31
0.0
  0
LINE
  5
2851
330
2
100
AcDbEntity
  8
AM_VIS
100
AcDbLine
 10
579.3316767151248
 20
-90.05320921997588
 30
0.0
 11
579.8316767151248
 21
-90.55320921997589
 31
0.0
  0
LINE
  5
2852
330
2
100
AcDbEntity
  8
AM_VIS
100
AcDbLine
 10
579.8316767151248
 20
-90.55320921997589
 30
0.0
 11
585.2816767151248
 21
-90.55320921997589
 31
0.0
  0
LINE
  5
2853
330
2
100
AcDbEntity
  8
AM_VIS
100
AcDbLine
 10
585.2816767151248
 20
-100.5532092199759
 30
0.0
 11
585.2816767151248
 21
-90.55320921997589
 31
0.0
  0
LINE
  5
2854
330
2
100
AcDbEntity
  8
AM_VIS
100
AcDbLine
 10
580.0816767151247
 20
-100.5532092199759
 30
0.0
 11
585.2816767151247
 21
-100.5532092199759
 31
0.0
  0
LINE
  5
2855
330
2
100
AcDbEntity
  8
AM_VIS
100
AcDbLine
 10
579.5816767151247
 20
-100.0532092199759
 30
0.0
 11
580.0816767151247
 21
-100.5532092199759
 31
0.0
  0
LINE
  5
2856
330
2
100
AcDbEntity
  8
AM_VIS
100
AcDbLine
 10
578.0816767151248
 20
-100.0532092199759
 30
0.0
 11
579.5816767151247
 21
-100.0532092199759
 31
0.0
  0
LINE
  5
2857
330
2
100
AcDbEntity
  8
AM_VIS
100
AcDbLine
 10
577.5816767151248
 20
-100.5532092199759
 30
0.0
 11
578.0816767151248
 21
-100.0532092199759
 31
0.0
  0
LINE
  5
2858
330
2
100
AcDbEntity
  8
AM_VIS
100
AcDbLine
 10
572.7316767151247
 20
-100.5532092199759
 30
0.0
 11
577.5816767151248
 21
-100.5532092199759
 31
0.0
  0
LINE
  5
2859
330
2
100
AcDbEntity
  8
AM_VIS
100
AcDbLine
 10
572.7316767151247
 20
-100.5532092199759
 30
0.0
 11
572.2316767151247
 21
-101.0532092199759
 31
0.0
  0
LINE
  5
285A
330
2
100
AcDbEntity
  8
AM_VIS
100
AcDbLine
 10
572.2316767151247
 20
-101.0532092199759
 30
0.0
 11
571.2316767151247
 21
-101.0532092199759
 31
0.0
  0
LINE
  5
285B
330
2
100
AcDbEntity
  8
AM_VIS
100
AcDbLine
 10
571.2316767151247
 20
-101.0532092199759
 30
0.0
 11
570.7316767151247
 21
-100.5532092199759
 31
0.0
  0
LINE
  5
285C
330
2
100
AcDbEntity
  8
AM_VIS
100
AcDbLine
 10
568.7816767151248
 20
-100.5532092199759
 30
0.0
 11
570.7316767151247
 21
-100.5532092199759
 31
0.0
  0
LINE
  5
285D
330
2
100
AcDbEntity
  8
AM_VIS
100
AcDbLine
 10
568.7816767151248
 20
-90.55320921997589
 30
0.0
 11
568.7816767151248
 21
-100.5532092199759
 31
0.0
  0
LINE
  5
285E
330
2
100
AcDbEntity
  8
AM_VIS
100
AcDbLine
 10
568.7816767151248
 20
-90.55320921997589
 30
0.0
 11
570.4816767151247
 21
-90.55320921997589
 31
0.0
  0
LINE
  5
285F
330
2
100
AcDbEntity
  8
AM_VIS
100
AcDbLine
 10
570.9816767151247
 20
-91.05320921997588
 30
0.0
 11
570.4816767151247
 21
-90.55320921997589
 31
0.0
  0
LINE
  5
2860
330
2
100
AcDbEntity
  8
AM_VIS
100
AcDbLine
 10
572.4816767151247
 20
-91.05320921997588
 30
0.0
 11
570.9816767151247
 21
-91.05320921997588
 31
0.0
  0
LINE
  5
2861
330
2
100
AcDbEntity
  8
AM_VIS
100
AcDbLine
 10
572.9816767151247
 20
-90.55320921997589
 30
0.0
 11
572.4816767151247
 21
-91.05320921997588
 31
0.0
  0
CIRCLE
  5
2862
330
2
100
AcDbEntity
  8
AM_VIS
100
AcDbCircle
 10
580.5316767151248
 20
-95.55320921997589
 30
0.0
 40
1.0
  0
CIRCLE
  5
2863
330
2
100
AcDbEntity
  8
AM_VIS
100
AcDbCircle
 10
573.5316767151248
 20
-95.55320921997589
 30
0.0
 40
1.0
  0
CIRCLE
  5
2864
330
2
100
AcDbEntity
  8
AM_VIS
100
AcDbCircle
 10
580.5316767151248
 20
-95.55320921997589
 30
0.0
 40
1.2995
  0
CIRCLE
  5
2865
330
2
100
AcDbEntity
  8
AM_VIS
100
AcDbCircle
 10
571.7316767151247
 20
-99.65320921997591
 30
0.0
 40
0.85
  0
CIRCLE
  5
2866
330
2
100
AcDbEntity
  8
AM_VIS
100
AcDbCircle
 10
578.8316767151248
 20
-91.45320921997592
 30
0.0
 40
0.85
  0
CIRCLE
  5
2867
330
2
100
AcDbEntity
  8
AM_VIS
100
AcDbCircle
 10
580.5316767151248
 20
-95.55320921997589
 30
0.0
 40
1.599499999999999
  0
CIRCLE
  5
2868
330
2
100
AcDbEntity
  8
AM_VIS
100
AcDbCircle
 10
573.5316767151248
 20
-95.55320921997589
 30
0.0
 40
1.5995
  0
CIRCLE
  5
2869
330
2
100
AcDbEntity
  8
AM_VIS
100
AcDbCircle
 10
573.5316767151248
 20
-95.55320921997589
 30
0.0
 40
1.2995
  0
LINE
  5
286A
330
2
100
AcDbEntity
  8
AM_VIS
100
AcDbLine
 10
585.2816767151248
 20
-90.55320921997589
 30
0.0
 11
585.2816767151248
 21
-100.5532092199759
 31
0.0
  0
LINE
  5
286B
330
2
100
AcDbEntity
  8
AM_VIS
100
AcDbLine
 10
585.2816767151248
 20
-100.5532092199759
 30
0.0
 11
594.7816767151248
 21
-100.5532092199759
 31
0.0
  0
LINE
  5
286C
330
2
100
AcDbEntity
  8
AM_VIS
100
AcDbLine
 10
585.2816767151248
 20
-90.55320921997589
 30
0.0
 11
594.7816767151248
 21
-90.55320921997589
 31
0.0
  0
LINE
  5
286D
330
2
100
AcDbEntity
  8
AM_VIS
100
AcDbLine
 10
594.7816767151248
 20
-100.5532092199759
 30
0.0
 11
594.7816767151248
 21
-90.55320921997589
 31
0.0
  0
LINE
  5
286E
330
2
100
AcDbEntity
  8
AM_VIS
100
AcDbLine
 10
568.7816767151248
 20
-100.5532092199758
 30
0.0
 11
568.7816767151248
 21
-90.55320921997585
 31
0.0
  0
LINE
  5
286F
102
{ACAD_REACTORS
330
2D3C
102
}
330
2
100
AcDbEntity
  8
AM_VIS
100
AcDbLine
 10
564.3316767151247
 20
-90.55320921997585
 30
0.0
 11
564.3316767151247
 21
-100.5532092199758
 31
0.0
  0
LINE
  5
2870
330
2
100
AcDbEntity
  8
AM_VIS
100
AcDbLine
 10
568.7816767151248
 20
-100.5532092199758
 30
0.0
 11
564.3316767151247
 21
-100.5532092199758
 31
0.0
  0
LINE
  5
2871
330
2
100
AcDbEntity
  8
AM_VIS
100
AcDbLine
 10
568.7816767151248
 20
-90.55320921997585
 30
0.0
 11
564.3316767151247
 21
-90.55320921997585
 31
0.0
  0
LINE
  5
2872
330
2
100
AcDbEntity
  8
AM_VIS
100
AcDbLine
 10
574.2016767151247
 20
-94.81084812185718
 30
0.0
 11
574.2016767151247
 21
-96.29557031809458
 31
0.0
  0
LINE
  5
2873
330
2
100
AcDbEntity
  8
AM_VIS
100
AcDbLine
 10
579.5616767151248
 20
-95.310104304353
 30
0.0
 11
579.5616767151248
 21
-95.79631413559878
 31
0.0
  0
LINE
  5
2874
330
2
100
AcDbEntity
  8
AM_VIS
100
AcDbLine
 10
580.1616767151248
 20
-96.48224097400802
 30
0.0
 11
580.1616767151248
 21
-94.62417746594377
 31
0.0
  0
LINE
  5
2875
330
2
100
AcDbEntity
  8
AM_VIS
100
AcDbLine
 10
580.3616767151249
 20
-94.56776515763648
 30
0.0
 11
580.3616767151249
 21
-96.5386532823153
 31
0.0
  0
LINE
  5
2876
330
2
100
AcDbEntity
  8
AM_VIS
100
AcDbLine
 10
581.1616767151248
 20
-96.32980435259003
 30
0.0
 11
581.1616767151248
 21
-94.77661408736173
 31
0.0
  0
LINE
  5
2877
330
2
100
AcDbEntity
  8
AM_VIS
100
AcDbLine
 10
594.7816767151248
 20
-90.55320921997589
 30
0.0
 11
594.7816767151248
 21
-100.5532092199759
 31
0.0
  0
LINE
  5
2878
330
2
100
AcDbEntity
  8
AM_VIS
100
AcDbLine
 10
594.7816767151248
 20
-100.5532092199759
 30
0.0
 11
607.7816767151248
 21
-100.5532092199759
 31
0.0
  0
LINE
  5
2879
330
2
100
AcDbEntity
  8
AM_VIS
100
AcDbLine
 10
607.7809098470994
 20
-97.29926291407934
 30
0.0
 11
609.7807482044122
 21
-97.07028181321845
 31
0.0
  0
LINE
  5
287A
330
2
100
AcDbEntity
  8
AM_VIS
100
AcDbLine
 10
609.7816767151248
 20
-98.15320921997585
 30
0.0
 11
607.7816767151248
 21
-98.15320921997585
 31
0.0
  0
LINE
  5
287B
330
2
100
AcDbEntity
  8
AM_VIS
100
AcDbLine
 10
607.7816767151248
 20
-100.5532092199758
 30
0.0
 11
607.7816767151248
 21
-90.55320921997585
 31
0.0
  0
LINE
  5
287C
330
2
100
AcDbEntity
  8
AM_VIS
100
AcDbLine
 10
594.7816767151248
 20
-90.55320921997589
 30
0.0
 11
607.7816767151248
 21
-90.55320921997589
 31
0.0
  0
LINE
  5
287D
330
2
100
AcDbEntity
  8
AM_VIS
100
AcDbLine
 10
607.7816767151248
 20
-92.95320921997584
 30
0.0
 11
609.7816767151248
 21
-92.95320921997584
 31
0.0
  0
LINE
  5
287E
330
2
100
AcDbEntity
  8
AM_VIS
100
AcDbLine
 10
607.7809098470994
 20
-93.80715552587236
 30
0.0
 11
609.7807482044122
 21
-94.03613662673325
 31
0.0
  0
LINE
  5
287F
330
2
100
AcDbEntity
  8
AM_VIS
100
AcDbLine
 10
609.7816767151248
 20
-97.02290306564572
 30
0.0
 11
609.9816767151247
 21
-97.02290306564572
 31
0.0
  0
LINE
  5
2880
330
2
100
AcDbEntity
  8
AM_VIS
100
AcDbLine
 10
609.9816767151247
 20
-94.08351537430593
 30
0.0
 11
609.7816767151248
 21
-94.08351537430593
 31
0.0
  0
CIRCLE
  5
2881
330
2
100
AcDbEntity
  8
AM_VIS
100
AcDbCircle
 10
601.2816767151248
 20
-95.55320921997589
 30
0.0
 40
3.399999999999999
  0
CIRCLE
  5
2882
330
2
100
AcDbEntity
  8
AM_VIS
100
AcDbCircle
 10
601.2816767151248
 20
-95.55320921997585
 30
0.0
 40
2.7
  0
CIRCLE
  5
2883
330
2
100
AcDbEntity
  8
AM_VIS
100
AcDbCircle
 10
601.2816767151248
 20
-95.55320921997585
 30
0.0
 40
2.5
  0
CIRCLE
  5
2884
330
2
100
AcDbEntity
  8
AM_VIS
100
AcDbCircle
 10
601.2816767151248
 20
-95.55320921997589
 30
0.0
 40
2.399999999999999
  0
LINE
  5
2885
330
2
100
AcDbEntity
  8
AM_VIS
100
AcDbLine
 10
609.7816767151248
 20
-94.02802734901928
 30
0.0
 11
609.7816767151248
 21
-97.07839109093242
 31
0.0
  0
LINE
  5
2886
330
2
100
AcDbEntity
  8
AM_VIS
100
AcDbLine
 10
609.7816767151248
 20
-97.07839109093242
 30
0.0
 11
609.7816767151248
 21
-98.15320921997585
 31
0.0
  0
LINE
  5
2887
330
2
100
AcDbEntity
  8
AM_VIS
100
AcDbLine
 10
609.7816767151248
 20
-92.95320921997584
 30
0.0
 11
609.7816767151248
 21
-94.02802734901928
 31
0.0
  0
LINE
  5
2888
330
2
100
AcDbEntity
  8
AM_VIS
100
AcDbLine
 10
609.9816767151247
 20
-94.08351537430593
 30
0.0
 11
609.9816767151247
 21
-97.02290306564576
 31
0.0
  0
LINE
  5
2889
330
2
100
AcDbEntity
  8
AM_VIS
100
AcDbLine
 10
607.7816767151248
 20
-100.5532092199758
 30
0.0
 11
608.2816767151248
 21
-100.5532092199758
 31
0.0
  0
LINE
  5
288A
330
2
100
AcDbEntity
  8
AM_VIS
100
AcDbLine
 10
608.2816767151248
 20
-90.5532092199758
 30
0.0
 11
607.7816767151248
 21
-90.5532092199758
 31
0.0
  0
LINE
  5
288B
330
2
100
AcDbEntity
  8
AM_VIS
100
AcDbLine
 10
609.7816767151248
 20
-92.9532092199758
 30
0.0
 11
609.7816767151248
 21
-90.5532092199758
 31
0.0
  0
LINE
  5
288C
330
2
100
AcDbEntity
  8
AM_VIS
100
AcDbLine
 10
608.2816767151248
 20
-90.5532092199758
 30
0.0
 11
608.2816767151248
 21
-92.9532092199758
 31
0.0
  0
LINE
  5
288D
330
2
100
AcDbEntity
  8
AM_VIS
100
AcDbLine
 10
609.7816767151248
 20
-90.5532092199758
 30
0.0
 11
608.2816767151248
 21
-90.5532092199758
 31
0.0
  0
LINE
  5
288E
330
2
100
AcDbEntity
  8
AM_VIS
100
AcDbLine
 10
609.7816767151248
 20
-100.5532092199758
 30
0.0
 11
609.7816767151248
 21
-98.1532092199758
 31
0.0
  0
LINE
  5
288F
330
2
100
AcDbEntity
  8
AM_VIS
100
AcDbLine
 10
608.2816767151248
 20
-100.5532092199758
 30
0.0
 11
609.7816767151248
 21
-100.5532092199758
 31
0.0
  0
LINE
  5
2890
330
2
100
AcDbEntity
  8
AM_VIS
100
AcDbLine
 10
608.2816767151248
 20
-98.1532092199758
 30
0.0
 11
608.2816767151248
 21
-100.5532092199758
 31
0.0
  0
LINE
  5
2891
330
2
100
AcDbEntity
  8
AM_VIS
100
AcDbLine
 10
609.7816767151248
 20
-90.55320921997582
 30
0.0
 11
611.2816767151248
 21
-90.55320921997582
 31
0.0
  0
LINE
  5
2892
330
2
100
AcDbEntity
  8
AM_VIS
100
AcDbLine
 10
611.2816767151248
 20
-90.55320921997582
 30
0.0
 11
611.2816767151248
 21
-100.5532092199758
 31
0.0
  0
LINE
  5
2893
330
2
100
AcDbEntity
  8
AM_VIS
100
AcDbLine
 10
609.7816767151248
 20
-100.5532092199758
 30
0.0
 11
611.2816767151248
 21
-100.5532092199758
 31
0.0
  0
LINE
  5
2894
330
2
100
AcDbEntity
  8
AM_VIS
100
AcDbLine
 10
612.7816767151248
 20
-99.55320921997582
 30
0.0
 11
611.2816767151248
 21
-100.5532092199758
 31
0.0
  0
LINE
  5
2895
330
2
100
AcDbEntity
  8
AM_VIS
100
AcDbLine
 10
611.2816767151248
 20
-90.55320921997582
 30
0.0
 11
612.7816767151248
 21
-91.55320921997583
 31
0.0
  0
LINE
  5
2896
330
2
100
AcDbEntity
  8
AM_VIS
100
AcDbLine
 10
612.7816767151248
 20
-99.3032092199758
 30
0.0
 11
616.2816767151248
 21
-99.3032092199758
 31
0.0
  0
LINE
  5
2897
330
2
100
AcDbEntity
  8
AM_VIS
100
AcDbLine
 10
612.7816767151248
 20
-91.8032092199758
 30
0.0
 11
616.2816767151248
 21
-91.8032092199758
 31
0.0
  0
LINE
  5
2898
330
2
100
AcDbEntity
  8
AM_VIS
100
AcDbLine
 10
617.2816767151248
 20
-98.70320921997581
 30
0.0
 11
617.2816767151248
 21
-92.40320921997579
 31
0.0
  0
LINE
  5
2899
330
2
100
AcDbEntity
  8
AM_VIS
100
AcDbLine
 10
616.2816767151248
 20
-99.3032092199758
 30
0.0
 11
617.2816767151248
 21
-98.70320921997581
 31
0.0
  0
LINE
  5
289A
330
2
100
AcDbEntity
  8
AM_VIS
100
AcDbLine
 10
616.2816767151248
 20
-91.8032092199758
 30
0.0
 11
616.2816767151248
 21
-99.3032092199758
 31
0.0
  0
LINE
  5
289B
330
2
100
AcDbEntity
  8
AM_VIS
100
AcDbLine
 10
617.2816767151248
 20
-92.40320921997579
 30
0.0
 11
616.2816767151248
 21
-91.8032092199758
 31
0.0
  0
LINE
  5
289C
102
{ACAD_REACTORS
330
2D3C
102
}
330
2
100
AcDbEntity
  8
AM_VIS
100
AcDbLine
 10
612.7816767151248
 20
-99.55320921997582
 30
0.0
 11
612.7816767151248
 21
-91.55320921997583
 31
0.0
  0
ARC
  5
289D
330
2
100
AcDbEntity
  8
AM_VIS
100
AcDbCircle
 10
648.5123060210127
 20
-47.93997210580087
 30
0.0
 40
1.600000000000022
100
AcDbArc
 50
339.635865193674
 51
20.36413480632599
  0
ARC
  5
289E
330
2
100
AcDbEntity
  8
AM_VIS
100
AcDbCircle
 10
641.5123060210127
 20
-58.93997210580088
 30
0.0
 40
1.600000000000022
100
AcDbArc
 50
159.6358651936812
 51
200.3641348063187
  0
LINE
  5
289F
330
2
100
AcDbEntity
  8
AM_VIS
100
AcDbLine
 10
650.5123060210126
 20
-60.93997210580079
 30
0.0
 11
650.5123060210126
 21
-47.3399721058008
 31
0.0
  0
LINE
  5
28A0
330
2
100
AcDbEntity
  8
AM_VIS
100
AcDbLine
 10
639.5123060210127
 20
-47.3399721058008
 30
0.0
 11
639.5123060210127
 21
-60.93997210580079
 31
0.0
  0
LINE
  5
28A1
330
2
100
AcDbEntity
  8
AM_VIS
100
AcDbLine
 10
640.0123060210127
 20
-47.3399721058008
 30
0.0
 11
639.5123060210127
 21
-47.3399721058008
 31
0.0
  0
LINE
  5
28A2
330
2
100
AcDbEntity
  8
AM_VIS
100
AcDbLine
 10
650.5123060210126
 20
-47.33997210580077
 30
0.0
 11
650.0123060210126
 21
-47.33997210580077
 31
0.0
  0
LINE
  5
28A3
330
2
100
AcDbEntity
  8
AM_VIS
100
AcDbLine
 10
639.5123060210127
 20
-60.93997210580079
 30
0.0
 11
640.0123060210127
 21
-60.93997210580079
 31
0.0
  0
LINE
  5
28A4
330
2
100
AcDbEntity
  8
AM_VIS
100
AcDbLine
 10
650.0123060210126
 20
-60.93997210580079
 30
0.0
 11
650.5123060210126
 21
-60.93997210580079
 31
0.0
  0
LINE
  5
28A5
330
2
100
AcDbEntity
  8
AM_VIS
100
AcDbLine
 10
642.4123060210125
 20
-50.43997210580084
 30
0.0
 11
642.4123060210125
 21
-53.14000151782
 31
0.0
  0
LINE
  5
28A6
330
2
100
AcDbEntity
  8
AM_VIS
100
AcDbLine
 10
641.1123060210126
 20
-57.83997210580086
 30
0.0
 11
648.9123060210126
 21
-57.83997210580082
 31
0.0
  0
LINE
  5
28A7
330
2
100
AcDbEntity
  8
AM_VIS
100
AcDbLine
 10
648.4123060210126
 20
-57.33997210580082
 30
0.0
 11
648.4123060210126
 21
-57.83997210580082
 31
0.0
  0
LINE
  5
28A8
330
2
100
AcDbEntity
  8
AM_VIS
100
AcDbLine
 10
641.6123060210126
 20
-57.83997210580082
 30
0.0
 11
641.6123060210126
 21
-57.33997210580082
 31
0.0
  0
LINE
  5
28A9
330
2
100
AcDbEntity
  8
AM_VIS
100
AcDbLine
 10
647.6123060210126
 20
-53.14000151781996
 30
0.0
 11
647.6123060210126
 21
-50.43997210580084
 31
0.0
  0
LINE
  5
28AA
330
2
100
AcDbEntity
  8
AM_VIS
100
AcDbLine
 10
650.0123060210126
 20
-53.13997210580083
 30
0.0
 11
650.0123060210126
 21
-56.65997210580082
 31
0.0
  0
ARC
  5
28AB
330
2
100
AcDbEntity
  8
AM_VIS
100
AcDbCircle
 10
648.2673068886446
 20
-54.83746460945389
 30
0.0
 40
1.825539782310517
100
AcDbArc
 50
198.6363679025912
 51
214.6231278646411
  0
LINE
  5
28AC
330
2
100
AcDbEntity
  8
AM_VIS
100
AcDbLine
 10
641.1123060210126
 20
-57.33997210580088
 30
0.0
 11
641.7623060210127
 21
-57.33997210580085
 31
0.0
  0
LINE
  5
28AD
330
2
100
AcDbEntity
  8
AM_VIS
100
AcDbLine
 10
641.1123060210126
 20
-59.83997210580085
 30
0.0
 11
641.1123060210126
 21
-57.33997210580088
 31
0.0
  0
LINE
  5
28AE
330
2
100
AcDbEntity
  8
AM_VIS
100
AcDbLine
 10
648.9123060210126
 20
-59.83997210580082
 30
0.0
 11
641.1123060210126
 21
-59.83997210580085
 31
0.0
  0
LINE
  5
28AF
330
2
100
AcDbEntity
  8
AM_VIS
100
AcDbLine
 10
648.9123060210126
 20
-57.33997210580082
 30
0.0
 11
648.9123060210126
 21
-59.83997210580082
 31
0.0
  0
LINE
  5
28B0
330
2
100
AcDbEntity
  8
AM_VIS
100
AcDbLine
 10
648.2623060210126
 20
-57.33997210580082
 30
0.0
 11
648.9123060210126
 21
-57.33997210580082
 31
0.0
  0
LINE
  5
28B1
330
2
100
AcDbEntity
  8
AM_VIS
100
AcDbLine
 10
650.0123060210126
 20
-56.65997210580082
 30
0.0
 11
648.2623060210126
 21
-56.65997210580084
 31
0.0
  0
LINE
  5
28B2
330
2
100
AcDbEntity
  8
AM_VIS
100
AcDbLine
 10
650.0123060210126
 20
-56.65997210580082
 30
0.0
 11
650.0123060210126
 21
-60.93997210580082
 31
0.0
  0
LINE
  5
28B3
330
2
100
AcDbEntity
  8
AM_VIS
100
AcDbLine
 10
650.0123060210126
 20
-60.93997210580082
 30
0.0
 11
640.0123060210127
 21
-60.93997210580088
 31
0.0
  0
LINE
  5
28B4
330
2
100
AcDbEntity
  8
AM_VIS
100
AcDbLine
 10
640.0123060210127
 20
-60.93997210580084
 30
0.0
 11
640.0123060210127
 21
-56.65997210580084
 31
0.0
  0
LINE
  5
28B5
330
2
100
AcDbEntity
  8
AM_VIS
100
AcDbLine
 10
640.0123060210127
 20
-56.65997210580084
 30
0.0
 11
640.0123060210127
 21
-53.13997210580083
 31
0.0
  0
ARC
  5
28B6
330
2
100
AcDbEntity
  8
AM_VIS
100
AcDbCircle
 10
641.7573051533787
 20
-54.83746460945297
 30
0.0
 40
1.825539782312666
100
AcDbArc
 50
325.3768721353692
 51
341.3636320974017
  0
LINE
  5
28B7
330
2
100
AcDbEntity
  8
AM_VIS
100
AcDbLine
 10
641.7623060210127
 20
-56.65997210580087
 30
0.0
 11
640.0123060210127
 21
-56.65997210580091
 31
0.0
  0
LINE
  5
28B8
330
2
100
AcDbEntity
  8
AM_VIS
100
AcDbLine
 10
646.4819998666825
 20
-53.73997210580085
 30
0.0
 11
645.4123060210126
 21
-53.73997210580085
 31
0.0
  0
LINE
  5
28B9
330
2
100
AcDbEntity
  8
AM_VIS
100
AcDbLine
 10
644.6123060210126
 20
-53.73997210580085
 30
0.0
 11
643.5426121753427
 21
-53.73997210580085
 31
0.0
  0
LINE
  5
28BA
330
2
100
AcDbEntity
  8
AM_VIS
100
AcDbLine
 10
645.4123060210126
 20
-53.13997210580083
 30
0.0
 11
646.4819998666825
 21
-53.13997210580083
 31
0.0
  0
LINE
  5
28BB
330
2
100
AcDbEntity
  8
AM_VIS
100
AcDbLine
 10
643.5426121753427
 20
-53.13997210580083
 30
0.0
 11
644.6123060210126
 21
-53.13997210580083
 31
0.0
  0
ARC
  5
28BC
330
2
100
AcDbEntity
  8
AM_VIS
100
AcDbCircle
 10
645.0123060210127
 20
-53.43997210580084
 30
0.0
 40
2.5
100
AcDbArc
 50
232.4052366676986
 51
307.5947633323015
  0
ARC
  5
28BD
330
2
100
AcDbEntity
  8
AM_VIS
100
AcDbCircle
 10
645.0123060210127
 20
-53.43997210580084
 30
0.0
 40
3.0
100
AcDbArc
 50
247.307722008551
 51
292.692277991452
  0
ARC
  5
28BE
330
2
100
AcDbEntity
  8
AM_VIS
100
AcDbCircle
 10
648.2623060210126
 20
-54.83997210580082
 30
0.0
 40
1.819999999999999
100
AcDbArc
 50
110.9248324276401
 51
198.6118775363961
  0
ARC
  5
28BF
330
2
100
AcDbEntity
  8
AM_VIS
100
AcDbCircle
 10
645.0123060210127
 20
-53.43997210580084
 30
0.0
 40
3.0
100
AcDbArc
 50
234.2499471461091
 51
247.307722008551
  0
ARC
  5
28C0
330
2
100
AcDbEntity
  8
AM_VIS
100
AcDbCircle
 10
641.7623060210127
 20
-54.83997210580085
 30
0.0
 40
2.5
100
AcDbArc
 50
270.0
 51
326.831157478121
  0
ARC
  5
28C1
330
2
100
AcDbEntity
  8
AM_VIS
100
AcDbCircle
 10
648.2623060210126
 20
-54.83997210580082
 30
0.0
 40
2.5
100
AcDbArc
 50
213.1688425218797
 51
270.0
  0
ARC
  5
28C2
330
2
100
AcDbEntity
  8
AM_VIS
100
AcDbCircle
 10
645.0123060210127
 20
-53.43997210580084
 30
0.0
 40
3.0
100
AcDbArc
 50
292.692277991452
 51
305.7500528538914
  0
ARC
  5
28C3
330
2
100
AcDbEntity
  8
AM_VIS
100
AcDbCircle
 10
648.2623060210126
 20
-54.83997210580082
 30
0.0
 40
1.819999999999999
100
AcDbArc
 50
214.6476182308366
 51
270.0
  0
ARC
  5
28C4
330
2
100
AcDbEntity
  8
AM_VIS
100
AcDbCircle
 10
641.7623060210127
 20
-54.83997210580085
 30
0.0
 40
1.819999999999999
100
AcDbArc
 50
69.07516757235985
 51
69.07776031742253
  0
ARC
  5
28C5
330
2
100
AcDbEntity
  8
AM_VIS
100
AcDbCircle
 10
641.7623060210127
 20
-54.83997210580085
 30
0.0
 40
1.819999999999999
100
AcDbArc
 50
341.3881224636039
 51
69.07516757235985
  0
ARC
  5
28C6
330
2
100
AcDbEntity
  8
AM_VIS
100
AcDbCircle
 10
641.7623060210127
 20
-54.83997210580085
 30
0.0
 40
1.819999999999999
100
AcDbArc
 50
270.0
 51
325.3523817691634
  0
CIRCLE
  5
28C7
330
2
100
AcDbEntity
  8
AM_VIS
100
AcDbCircle
 10
645.0123060210127
 20
-53.43997210580084
 30
0.0
 40
1.6
  0
ARC
  5
28C8
330
2
100
AcDbEntity
  8
AM_VIS
100
AcDbCircle
 10
645.0123060210127
 20
-53.43997210580084
 30
0.0
 40
1.5
100
AcDbArc
 50
11.53695903281574
 51
168.4630409671842
  0
ARC
  5
28C9
330
2
100
AcDbEntity
  8
AM_VIS
100
AcDbCircle
 10
645.0123060210127
 20
-53.43997210580084
 30
0.0
 40
1.5
100
AcDbArc
 50
191.5369590328157
 51
348.4630409671843
  0
ARC
  5
28CA
330
2
100
AcDbEntity
  8
AM_VIS
100
AcDbCircle
 10
645.0123060210127
 20
-53.43997210580084
 30
0.0
 40
1.5
100
AcDbArc
 50
348.4630409671843
 51
11.53695903281574
  0
ARC
  5
28CB
330
2
100
AcDbEntity
  8
AM_VIS
100
AcDbCircle
 10
645.0123060210127
 20
-53.43997210580084
 30
0.0
 40
1.5
100
AcDbArc
 50
168.4630409671842
 51
191.5369590328157
  0
ARC
  5
28CC
330
2
100
AcDbEntity
  8
AM_VIS
100
AcDbCircle
 10
645.0123060210127
 20
-53.43997210580084
 30
0.0
 40
0.5
100
AcDbArc
 50
323.1301023541566
 51
36.86989764584338
  0
ARC
  5
28CD
330
2
100
AcDbEntity
  8
AM_VIS
100
AcDbCircle
 10
645.0123060210127
 20
-53.43997210580084
 30
0.0
 40
0.5
100
AcDbArc
 50
216.8698976458434
 51
323.1301023541566
  0
ARC
  5
28CE
330
2
100
AcDbEntity
  8
AM_VIS
100
AcDbCircle
 10
645.0123060210127
 20
-53.43997210580084
 30
0.0
 40
0.5
100
AcDbArc
 50
143.1301023541566
 51
216.8698976458434
  0
ARC
  5
28CF
330
2
100
AcDbEntity
  8
AM_VIS
100
AcDbCircle
 10
645.0123060210127
 20
-53.43997210580084
 30
0.0
 40
0.5
100
AcDbArc
 50
36.86989764584338
 51
143.1301023541566
  0
LINE
  5
28D0
330
2
100
AcDbEntity
  8
AM_VIS
100
AcDbLine
 10
640.0123060210126
 20
-52.63997210580083
 30
0.0
 11
640.0123060210126
 21
-50.43997210580084
 31
0.0
  0
LINE
  5
28D1
330
2
100
AcDbEntity
  8
AM_VIS
100
AcDbLine
 10
642.4123060210125
 20
-52.63997210580083
 30
0.0
 11
642.4123060210125
 21
-50.43997210580084
 31
0.0
  0
LINE
  5
28D2
330
2
100
AcDbEntity
  8
AM_VIS
100
AcDbLine
 10
642.4123060210125
 20
-52.63997210580083
 30
0.0
 11
640.0123060210126
 21
-52.63997210580086
 31
0.0
  0
LINE
  5
28D3
330
2
100
AcDbEntity
  8
AM_VIS
100
AcDbLine
 10
640.0123060210127
 20
-53.13997210580083
 30
0.0
 11
642.4123060210127
 21
-53.13997210580081
 31
0.0
  0
LINE
  5
28D4
330
2
100
AcDbEntity
  8
AM_VIS
100
AcDbLine
 10
640.0123060210126
 20
-52.63997210580083
 30
0.0
 11
640.0123060210126
 21
-53.13997210580083
 31
0.0
  0
LINE
  5
28D5
330
2
100
AcDbEntity
  8
AM_VIS
100
AcDbLine
 10
650.0123060210126
 20
-52.63997210580081
 30
0.0
 11
650.0123060210126
 21
-50.43997210580079
 31
0.0
  0
LINE
  5
28D6
330
2
100
AcDbEntity
  8
AM_VIS
100
AcDbLine
 10
647.6123060210126
 20
-50.43997210580082
 30
0.0
 11
647.6123060210126
 21
-52.63997210580083
 31
0.0
  0
LINE
  5
28D7
330
2
100
AcDbEntity
  8
AM_VIS
100
AcDbLine
 10
650.0123060210126
 20
-52.63997210580081
 30
0.0
 11
647.6123060210126
 21
-52.63997210580083
 31
0.0
  0
LINE
  5
28D8
330
2
100
AcDbEntity
  8
AM_VIS
100
AcDbLine
 10
650.0123060210126
 20
-53.13997210580083
 30
0.0
 11
650.0123060210126
 21
-52.63997210580083
 31
0.0
  0
LINE
  5
28D9
330
2
100
AcDbEntity
  8
AM_VIS
100
AcDbLine
 10
647.6123060210126
 20
-53.13997210580083
 30
0.0
 11
650.0123060210126
 21
-53.13997210580081
 31
0.0
  0
LINE
  5
28DA
330
2
100
AcDbEntity
  8
AM_VIS
100
AcDbLine
 10
640.0123060210127
 20
-50.43997210580087
 30
0.0
 11
650.0123060210126
 21
-50.43997210580082
 31
0.0
  0
LINE
  5
28DB
330
2
100
AcDbEntity
  8
AM_VIS
100
AcDbLine
 10
650.0123060210126
 20
-50.43997210580084
 30
0.0
 11
650.0123060210126
 21
-33.43997210580085
 31
0.0
  0
LINE
  5
28DC
330
2
100
AcDbEntity
  8
AM_VIS
100
AcDbLine
 10
649.0123060210127
 20
-48.93997210580085
 30
0.0
 11
650.0123060210126
 21
-50.43997210580084
 31
0.0
  0
LINE
  5
28DD
330
2
100
AcDbEntity
  8
AM_VIS
100
AcDbLine
 10
640.0123060210127
 20
-50.43997210580084
 30
0.0
 11
641.0123060210127
 21
-48.93997210580085
 31
0.0
  0
LINE
  5
28DE
330
2
100
AcDbEntity
  8
AM_VIS
100
AcDbLine
 10
640.0123060210126
 20
-33.43997210580085
 30
0.0
 11
640.0123060210127
 21
-50.43997210580084
 31
0.0
  0
LINE
  5
28DF
330
2
100
AcDbEntity
  8
AM_VIS
100
AcDbLine
 10
641.0123060210126
 20
-34.93997210580085
 30
0.0
 11
640.0123060210126
 21
-33.43997210580085
 31
0.0
  0
LINE
  5
28E0
330
2
100
AcDbEntity
  8
AM_VIS
100
AcDbLine
 10
648.7623060210125
 20
-42.83997210580082
 30
0.0
 11
648.7623060210125
 21
-37.43997210580085
 31
0.0
  0
LINE
  5
28E1
330
2
100
AcDbEntity
  8
AM_VIS
100
AcDbLine
 10
642.2623060210126
 20
-38.43997210580085
 30
0.0
 11
647.7623060210126
 21
-38.43997210580082
 31
0.0
  0
LINE
  5
28E2
330
2
100
AcDbEntity
  8
AM_VIS
100
AcDbLine
 10
642.2623060210126
 20
-41.83997210580085
 30
0.0
 11
642.2623060210126
 21
-38.43997210580085
 31
0.0
  0
LINE
  5
28E3
330
2
100
AcDbEntity
  8
AM_VIS
100
AcDbLine
 10
647.7623060210126
 20
-41.83997210580082
 30
0.0
 11
642.2623060210126
 21
-41.83997210580085
 31
0.0
  0
LINE
  5
28E4
330
2
100
AcDbEntity
  8
AM_VIS
100
AcDbLine
 10
647.7623060210126
 20
-38.43997210580085
 30
0.0
 11
647.7623060210126
 21
-41.83997210580082
 31
0.0
  0
LINE
  5
28E5
330
2
100
AcDbEntity
  8
AM_VIS
100
AcDbLine
 10
648.1623060210125
 20
-37.43997210580085
 30
0.0
 11
648.1623060210125
 21
-42.53997210580084
 31
0.0
  0
LINE
  5
28E6
330
2
100
AcDbEntity
  8
AM_VIS
100
AcDbLine
 10
641.2623060210125
 20
-37.43997210580085
 30
0.0
 11
641.2623060210125
 21
-42.83997210580082
 31
0.0
  0
LINE
  5
28E7
330
2
100
AcDbEntity
  8
AM_VIS
100
AcDbLine
 10
641.8623060210125
 20
-42.53997210580087
 30
0.0
 11
641.8623060210125
 21
-37.43997210580088
 31
0.0
  0
LINE
  5
28E8
330
2
100
AcDbEntity
  8
AM_VIS
100
AcDbLine
 10
648.1623060210125
 20
-42.53997210580084
 30
0.0
 11
641.8623060210125
 21
-42.53997210580087
 31
0.0
  0
LINE
  5
28E9
330
2
100
AcDbEntity
  8
AM_VIS
100
AcDbLine
 10
648.7623060210125
 20
-42.83997210580082
 30
0.0
 11
648.1623060210125
 21
-42.53997210580084
 31
0.0
  0
LINE
  5
28EA
330
2
100
AcDbEntity
  8
AM_VIS
100
AcDbLine
 10
641.2623060210125
 20
-42.83997210580085
 30
0.0
 11
648.7623060210125
 21
-42.83997210580082
 31
0.0
  0
LINE
  5
28EB
330
2
100
AcDbEntity
  8
AM_VIS
100
AcDbLine
 10
641.8623060210125
 20
-42.53997210580087
 30
0.0
 11
641.2623060210127
 21
-42.83997210580088
 31
0.0
  0
LINE
  5
28EC
330
2
100
AcDbEntity
  8
AM_VIS
100
AcDbLine
 10
648.7623060210125
 20
-37.43997210580085
 30
0.0
 11
648.1623060210125
 21
-37.43997210580085
 31
0.0
  0
LINE
  5
28ED
330
2
100
AcDbEntity
  8
AM_VIS
100
AcDbLine
 10
648.0123060210125
 20
-37.43997210580085
 30
0.0
 11
648.1623060210125
 21
-37.43997210580085
 31
0.0
  0
LINE
  5
28EE
330
2
100
AcDbEntity
  8
AM_VIS
100
AcDbLine
 10
648.0123060210125
 20
-35.93997210580085
 30
0.0
 11
647.1123060210126
 21
-35.93997210580085
 31
0.0
  0
LINE
  5
28EF
330
2
100
AcDbEntity
  8
AM_VIS
100
AcDbLine
 10
648.0123060210125
 20
-37.43997210580085
 30
0.0
 11
648.0123060210125
 21
-35.93997210580085
 31
0.0
  0
LINE
  5
28F0
330
2
100
AcDbEntity
  8
AM_VIS
100
AcDbLine
 10
647.1123060210126
 20
-37.43997210580085
 30
0.0
 11
647.1123060210126
 21
-35.93997210580085
 31
0.0
  0
LINE
  5
28F1
330
2
100
AcDbEntity
  8
AM_VIS
100
AcDbLine
 10
642.9123060210125
 20
-37.43997210580085
 30
0.0
 11
647.1123060210126
 21
-37.43997210580082
 31
0.0
  0
LINE
  5
28F2
330
2
100
AcDbEntity
  8
AM_VIS
100
AcDbLine
 10
641.8623060210125
 20
-37.43997210580085
 30
0.0
 11
642.0123060210126
 21
-37.43997210580085
 31
0.0
  0
LINE
  5
28F3
330
2
100
AcDbEntity
  8
AM_VIS
100
AcDbLine
 10
641.8623060210125
 20
-37.43997210580085
 30
0.0
 11
641.2623060210125
 21
-37.43997210580085
 31
0.0
  0
LINE
  5
28F4
330
2
100
AcDbEntity
  8
AM_VIS
100
AcDbLine
 10
642.9123060210125
 20
-35.93997210580085
 30
0.0
 11
642.0123060210126
 21
-35.93997210580085
 31
0.0
  0
LINE
  5
28F5
330
2
100
AcDbEntity
  8
AM_VIS
100
AcDbLine
 10
642.9123060210125
 20
-37.43997210580085
 30
0.0
 11
642.9123060210125
 21
-35.93997210580085
 31
0.0
  0
LINE
  5
28F6
330
2
100
AcDbEntity
  8
AM_VIS
100
AcDbLine
 10
642.0123060210126
 20
-37.43997210580085
 30
0.0
 11
642.0123060210126
 21
-35.93997210580085
 31
0.0
  0
LINE
  5
28F7
330
2
100
AcDbEntity
  8
AM_VIS
100
AcDbLine
 10
645.5123060210126
 20
-37.43997210580085
 30
0.0
 11
645.5123060210126
 21
-36.93997210580085
 31
0.0
  0
LINE
  5
28F8
330
2
100
AcDbEntity
  8
AM_VIS
100
AcDbLine
 10
644.5123060210126
 20
-36.93997210580085
 30
0.0
 11
644.5123060210126
 21
-37.43997210580085
 31
0.0
  0
LINE
  5
28F9
330
2
100
AcDbEntity
  8
AM_VIS
100
AcDbLine
 10
645.5123060210126
 20
-36.93997210580085
 30
0.0
 11
644.5123060210126
 21
-36.93997210580085
 31
0.0
  0
LINE
  5
28FA
330
2
100
AcDbEntity
  8
AM_VIS
100
AcDbLine
 10
649.0123060210126
 20
-34.93997210580085
 30
0.0
 11
649.0123060210127
 21
-48.93997210580085
 31
0.0
  0
LINE
  5
28FB
330
2
100
AcDbEntity
  8
AM_VIS
100
AcDbLine
 10
649.0123060210127
 20
-48.93997210580085
 30
0.0
 11
641.0123060210127
 21
-48.93997210580088
 31
0.0
  0
LINE
  5
28FC
330
2
100
AcDbEntity
  8
AM_VIS
100
AcDbLine
 10
641.0123060210127
 20
-48.93997210580085
 30
0.0
 11
641.0123060210126
 21
-34.93997210580085
 31
0.0
  0
LINE
  5
28FD
330
2
100
AcDbEntity
  8
AM_VIS
100
AcDbLine
 10
641.0123060210126
 20
-34.93997210580085
 30
0.0
 11
643.0123060210125
 21
-34.93997210580085
 31
0.0
  0
LINE
  5
28FE
330
2
100
AcDbEntity
  8
AM_VIS
100
AcDbLine
 10
650.0123060210126
 20
-33.43997210580085
 30
0.0
 11
649.0123060210126
 21
-34.93997210580085
 31
0.0
  0
LINE
  5
28FF
330
2
100
AcDbEntity
  8
AM_VIS
100
AcDbLine
 10
647.0123060210125
 20
-34.93997210580085
 30
0.0
 11
649.0123060210126
 21
-34.93997210580085
 31
0.0
  0
LINE
  5
2900
330
2
100
AcDbEntity
  8
AM_VIS
100
AcDbLine
 10
643.0123060210125
 20
-33.43997210580085
 30
0.0
 11
640.0123060210126
 21
-33.43997210580088
 31
0.0
  0
LINE
  5
2901
330
2
100
AcDbEntity
  8
AM_VIS
100
AcDbLine
 10
650.0123060210126
 20
-33.43997210580082
 30
0.0
 11
647.0123060210125
 21
-33.43997210580085
 31
0.0
  0
LINE
  5
2902
330
2
100
AcDbEntity
  8
AM_VIS
100
AcDbLine
 10
643.0123060210125
 20
-35.22281481827548
 30
0.0
 11
643.0123060210125
 21
-34.93997210580085
 31
0.0
  0
LINE
  5
2903
330
2
100
AcDbEntity
  8
AM_VIS
100
AcDbLine
 10
643.0123060210125
 20
-34.93997210580085
 30
0.0
 11
643.0123060210125
 21
-33.43997210580085
 31
0.0
  0
LINE
  5
2904
330
2
100
AcDbEntity
  8
AM_VIS
100
AcDbLine
 10
647.0123060210125
 20
-34.93997210580085
 30
0.0
 11
647.0123060210125
 21
-35.22281481827548
 31
0.0
  0
LINE
  5
2905
330
2
100
AcDbEntity
  8
AM_VIS
100
AcDbLine
 10
647.0123060210125
 20
-33.43997210580085
 30
0.0
 11
647.0123060210125
 21
-34.93997210580085
 31
0.0
  0
LINE
  5
2906
330
2
100
AcDbEntity
  8
AM_VIS
100
AcDbLine
 10
643.0123060210125
 20
-33.43997210580085
 30
0.0
 11
647.0123060210125
 21
-33.43997210580082
 31
0.0
  0
LINE
  5
2907
330
2
100
AcDbEntity
  8
AM_VIS
100
AcDbLine
 10
643.0123060210125
 20
-33.63997210580084
 30
0.0
 11
647.0123060210125
 21
-33.63997210580084
 31
0.0
  0
LINE
  5
2908
330
2
100
AcDbEntity
  8
AM_VIS
100
AcDbLine
 10
647.0123060210125
 20
-35.22281481827548
 30
0.0
 11
643.0123060210125
 21
-35.22281481827548
 31
0.0
  0
CIRCLE
  5
2909
330
2
100
AcDbEntity
  8
AM_VIS
100
AcDbCircle
 10
646.5123060210125
 20
-40.63997210580083
 30
0.0
 40
0.25
  0
CIRCLE
  5
290A
330
2
100
AcDbEntity
  8
AM_VIS
100
AcDbCircle
 10
643.5123060210125
 20
-40.63997210580083
 30
0.0
 40
0.25
  0
LINE
  5
290B
330
2
100
AcDbEntity
  8
AM_VIS
100
AcDbLine
 10
641.9783943352691
 20
-54.78694295870434
 30
0.0
 11
641.7623060210127
 21
-54.83997210580088
 31
0.0
  0
LINE
  5
290C
330
2
100
AcDbEntity
  8
AM_VIS
100
AcDbLine
 10
641.7623060210127
 20
-54.83997210580085
 30
0.0
 11
641.5462177067561
 21
-54.89300125289736
 31
0.0
  0
LINE
  5
290D
330
2
100
AcDbEntity
  8
AM_VIS
100
AcDbLine
 10
641.7623060210127
 20
-54.83997210580088
 30
0.0
 11
642.0314234823663
 21
-55.00303127296127
 31
0.0
  0
LINE
  5
290E
330
2
100
AcDbEntity
  8
AM_VIS
100
AcDbLine
 10
641.9253651881722
 20
-54.57085464444856
 30
0.0
 11
641.7623060210127
 21
-54.83997210580085
 31
0.0
  0
LINE
  5
290F
330
2
100
AcDbEntity
  8
AM_VIS
100
AcDbLine
 10
642.0314234823661
 20
-55.0030312729628
 30
0.0
 11
641.925365188173
 21
-54.57085464444981
 31
0.0
  0
LINE
  5
2910
330
2
100
AcDbEntity
  8
AM_VIS
100
AcDbLine
 10
641.4931885596601
 20
-54.67691293864277
 30
0.0
 11
641.925365188173
 21
-54.57085464444972
 31
0.0
  0
LINE
  5
2911
330
2
100
AcDbEntity
  8
AM_VIS
100
AcDbLine
 10
641.8153351681096
 20
-55.05606042005928
 30
0.0
 11
641.7623060210127
 21
-54.83997210580085
 31
0.0
  0
LINE
  5
2912
330
2
100
AcDbEntity
  8
AM_VIS
100
AcDbLine
 10
641.5992468538522
 20
-55.10908956715457
 30
0.0
 11
641.7623060210127
 21
-54.83997210580088
 31
0.0
  0
LINE
  5
2913
330
2
100
AcDbEntity
  8
AM_VIS
100
AcDbLine
 10
641.4931885596601
 20
-54.67691293864283
 30
0.0
 11
641.599246853853
 21
-55.10908956715582
 31
0.0
  0
LINE
  5
2914
330
2
100
AcDbEntity
  8
AM_VIS
100
AcDbLine
 10
641.7623060210127
 20
-54.83997210580085
 30
0.0
 11
641.7092768739165
 21
-54.62388379154629
 31
0.0
  0
LINE
  5
2915
330
2
100
AcDbEntity
  8
AM_VIS
100
AcDbLine
 10
641.7623060210127
 20
-54.83997210580082
 30
0.0
 11
641.4931885596603
 21
-54.67691293864127
 31
0.0
  0
LINE
  5
2916
330
2
100
AcDbEntity
  8
AM_VIS
100
AcDbLine
 10
642.0314234823661
 20
-55.00303127296277
 30
0.0
 11
641.599246853853
 21
-55.10908956715582
 31
0.0
  0
LINE
  5
2917
330
2
100
AcDbEntity
  8
AM_VIS
100
AcDbLine
 10
642.0314234823662
 20
-55.0030312729628
 30
0.0
 11
642.0940902751412
 21
-55.25839200101654
 31
0.0
  0
LINE
  5
2918
330
2
100
AcDbEntity
  8
AM_VIS
100
AcDbLine
 10
642.0314234823662
 20
-55.0030312729628
 30
0.0
 11
642.2867842104209
 21
-54.94036448018741
 31
0.0
  0
LINE
  5
2919
330
2
100
AcDbEntity
  8
AM_VIS
100
AcDbLine
 10
641.8626983953971
 20
-54.31549391639214
 30
0.0
 11
641.925365188173
 21
-54.57085464444975
 31
0.0
  0
LINE
  5
291A
330
2
100
AcDbEntity
  8
AM_VIS
100
AcDbLine
 10
641.9253651881732
 20
-54.57085464444975
 30
0.0
 11
642.1807259162298
 21
-54.50818785167396
 31
0.0
  0
LINE
  5
291B
330
2
100
AcDbEntity
  8
AM_VIS
100
AcDbLine
 10
641.4305217668839
 20
-54.42155221058519
 30
0.0
 11
641.4931885596601
 21
-54.67691293864277
 31
0.0
  0
LINE
  5
291C
330
2
100
AcDbEntity
  8
AM_VIS
100
AcDbLine
 10
641.2378278316035
 20
-54.73957973141864
 30
0.0
 11
641.4931885596601
 21
-54.67691293864283
 31
0.0
  0
LINE
  5
291D
330
2
100
AcDbEntity
  8
AM_VIS
100
AcDbLine
 10
641.5992468538531
 20
-55.10908956715582
 30
0.0
 11
641.6619136466282
 21
-55.36445029520962
 31
0.0
  0
LINE
  5
291E
330
2
100
AcDbEntity
  8
AM_VIS
100
AcDbLine
 10
641.3438861257983
 20
-55.17175635993123
 30
0.0
 11
641.5992468538531
 21
-55.10908956715588
 31
0.0
  0
CIRCLE
  5
291F
330
2
100
AcDbEntity
  8
AM_VIS
100
AcDbCircle
 10
641.7623060210127
 20
-54.83997210580085
 30
0.0
 40
1.600000000000022
  0
LINE
  5
2920
330
2
100
AcDbEntity
  8
AM_VIS
100
AcDbLine
 10
641.862698395397
 20
-54.31549391639217
 30
0.0
 11
641.7774085946413
 21
-53.96794676020218
 31
0.0
  0
ELLIPSE
  5
2921
330
2
100
AcDbEntity
  8
AM_VIS
100
AcDbEllipse
 10
641.9167539658167
 20
-55.46933157809911
 30
0.0
 11
-2.286824568972774
 21
-0.561198123411886
 31
0.0
210
0.0
220
0.0
230
1.0
 40
0.6361945781365061
 41
4.617755055602459
 42
4.807022905166922
  0
LINE
  5
2922
330
2
100
AcDbEntity
  8
AM_VIS
100
AcDbLine
 10
641.6619136466282
 20
-55.36445029520965
 30
0.0
 11
641.7472034473839
 21
-55.71199745139961
 31
0.0
  0
ELLIPSE
  5
2923
330
2
100
AcDbEntity
  8
AM_VIS
100
AcDbEllipse
 10
641.6078580762086
 20
-54.21061263350259
 30
0.0
 11
2.286824568972774
 21
0.5611981234118876
 31
0.0
210
0.0
220
0.0
230
1.0
 40
0.6361945781365061
 41
4.617755055602463
 42
4.807022905166915
  0
LINE
  5
2924
330
2
100
AcDbEntity
  8
AM_VIS
100
AcDbLine
 10
640.9963389696075
 20
-55.25704616068711
 30
0.0
 11
641.3438861257983
 21
-55.17175635993121
 31
0.0
  0
ELLIPSE
  5
2925
330
2
100
AcDbEntity
  8
AM_VIS
100
AcDbEllipse
 10
641.1329465487143
 20
-54.9944200506049
 30
0.0
 11
-0.5611981234118862
 21
2.286824568972774
 31
0.0
210
0.0
220
0.0
230
1.0
 40
0.6361945781365081
 41
4.617755055601611
 42
4.807022905166066
  0
LINE
  5
2926
330
2
100
AcDbEntity
  8
AM_VIS
100
AcDbLine
 10
641.2378278316034
 20
-54.73957973141864
 30
0.0
 11
640.8902806754142
 21
-54.82486953217417
 31
0.0
  0
LINE
  5
2927
330
2
100
AcDbEntity
  8
AM_VIS
100
AcDbLine
 10
642.5282730724189
 20
-54.42289805091846
 30
0.0
 11
642.1807259162298
 21
-54.50818785167399
 31
0.0
  0
ELLIPSE
  5
2928
330
2
100
AcDbEntity
  8
AM_VIS
100
AcDbEllipse
 10
642.3916654933108
 20
-54.6855241609968
 30
0.0
 11
0.5611981234118869
 21
-2.286824568972773
 31
0.0
210
0.0
220
0.0
230
0.9999999999999996
 40
0.6361945781365096
 41
4.617755055603312
 42
4.807022905167766
  0
LINE
  5
2929
330
2
100
AcDbEntity
  8
AM_VIS
100
AcDbLine
 10
642.2867842104209
 20
-54.94036448018741
 30
0.0
 11
642.6343313666117
 21
-54.85507467943151
 31
0.0
  0
LINE
  5
292A
330
2
100
AcDbEntity
  8
AM_VIS
100
AcDbLine
 10
641.3452319661283
 20
-54.07400505439523
 30
0.0
 11
641.4305217668839
 21
-54.42155221058522
 31
0.0
  0
LINE
  5
292B
330
2
100
AcDbEntity
  8
AM_VIS
100
AcDbLine
 10
642.179380075897
 20
-55.60593915720656
 30
0.0
 11
642.0940902751412
 21
-55.2583920010166
 31
0.0
  0
ARC
  5
292C
330
2
100
AcDbEntity
  8
AM_VIS
100
AcDbCircle
 10
641.7623060210127
 20
-54.83997210580088
 30
0.0
 40
0.5339999999999918
100
AcDbArc
 50
308.4125063669301
 51
349.1638696623682
  0
ARC
  5
292D
330
2
100
AcDbEntity
  8
AM_VIS
100
AcDbCircle
 10
641.7623060210127
 20
-54.83997210580088
 30
0.0
 40
0.5339999999999918
100
AcDbArc
 50
38.41250636669811
 51
79.16386966260134
  0
ARC
  5
292E
330
2
100
AcDbEntity
  8
AM_VIS
100
AcDbCircle
 10
641.7623060210127
 20
-54.83997210580088
 30
0.0
 40
0.5339999999999918
100
AcDbArc
 50
128.4125063669305
 51
169.1638696628349
  0
ARC
  5
292F
330
2
100
AcDbEntity
  8
AM_VIS
100
AcDbCircle
 10
641.7623060210127
 20
-54.83997210580088
 30
0.0
 40
0.5339999999999918
100
AcDbArc
 50
218.4125063671659
 51
259.1638696626047
  0
LINE
  5
2930
330
2
100
AcDbEntity
  8
AM_VIS
100
AcDbLine
 10
648.4783943352692
 20
-54.78694295870432
 30
0.0
 11
648.2623060210126
 21
-54.83997210580085
 31
0.0
  0
LINE
  5
2931
330
2
100
AcDbEntity
  8
AM_VIS
100
AcDbLine
 10
648.2623060210126
 20
-54.83997210580082
 30
0.0
 11
648.0462177067562
 21
-54.89300125289734
 31
0.0
  0
LINE
  5
2932
330
2
100
AcDbEntity
  8
AM_VIS
100
AcDbLine
 10
648.2623060210126
 20
-54.83997210580088
 30
0.0
 11
648.5314234823664
 21
-55.00303127296127
 31
0.0
  0
LINE
  5
2933
330
2
100
AcDbEntity
  8
AM_VIS
100
AcDbLine
 10
648.4253651881722
 20
-54.57085464444853
 30
0.0
 11
648.2623060210126
 21
-54.83997210580082
 31
0.0
  0
LINE
  5
2934
330
2
100
AcDbEntity
  8
AM_VIS
100
AcDbLine
 10
648.5314234823662
 20
-55.00303127296277
 30
0.0
 11
648.4253651881731
 21
-54.57085464444975
 31
0.0
  0
LINE
  5
2935
330
2
100
AcDbEntity
  8
AM_VIS
100
AcDbLine
 10
647.9931885596601
 20
-54.67691293864277
 30
0.0
 11
648.4253651881731
 21
-54.57085464444972
 31
0.0
  0
LINE
  5
2936
330
2
100
AcDbEntity
  8
AM_VIS
100
AcDbLine
 10
648.3153351681096
 20
-55.05606042005928
 30
0.0
 11
648.2623060210126
 21
-54.83997210580085
 31
0.0
  0
LINE
  5
2937
330
2
100
AcDbEntity
  8
AM_VIS
100
AcDbLine
 10
648.0992468538523
 20
-55.10908956715454
 30
0.0
 11
648.2623060210126
 21
-54.83997210580085
 31
0.0
  0
LINE
  5
2938
330
2
100
AcDbEntity
  8
AM_VIS
100
AcDbLine
 10
647.9931885596601
 20
-54.6769129386428
 30
0.0
 11
648.0992468538532
 21
-55.10908956715582
 31
0.0
  0
LINE
  5
2939
330
2
100
AcDbEntity
  8
AM_VIS
100
AcDbLine
 10
648.2623060210126
 20
-54.83997210580082
 30
0.0
 11
648.2092768739167
 21
-54.62388379154626
 31
0.0
  0
LINE
  5
293A
330
2
100
AcDbEntity
  8
AM_VIS
100
AcDbLine
 10
648.2623060210126
 20
-54.83997210580082
 30
0.0
 11
647.9931885596603
 21
-54.67691293864127
 31
0.0
  0
LINE
  5
293B
330
2
100
AcDbEntity
  8
AM_VIS
100
AcDbLine
 10
648.5314234823662
 20
-55.00303127296274
 30
0.0
 11
648.0992468538532
 21
-55.10908956715579
 31
0.0
  0
LINE
  5
293C
330
2
100
AcDbEntity
  8
AM_VIS
100
AcDbLine
 10
648.5314234823662
 20
-55.0030312729628
 30
0.0
 11
648.5940902751414
 21
-55.25839200101654
 31
0.0
  0
LINE
  5
293D
330
2
100
AcDbEntity
  8
AM_VIS
100
AcDbLine
 10
648.5314234823662
 20
-55.0030312729628
 30
0.0
 11
648.7867842104209
 21
-54.94036448018738
 31
0.0
  0
LINE
  5
293E
330
2
100
AcDbEntity
  8
AM_VIS
100
AcDbLine
 10
648.362698395397
 20
-54.31549391639214
 30
0.0
 11
648.425365188173
 21
-54.57085464444975
 31
0.0
  0
LINE
  5
293F
330
2
100
AcDbEntity
  8
AM_VIS
100
AcDbLine
 10
648.4253651881731
 20
-54.57085464444975
 30
0.0
 11
648.6807259162297
 21
-54.50818785167394
 31
0.0
  0
LINE
  5
2940
330
2
100
AcDbEntity
  8
AM_VIS
100
AcDbLine
 10
647.9305217668841
 20
-54.42155221058519
 30
0.0
 11
647.9931885596601
 21
-54.67691293864277
 31
0.0
  0
LINE
  5
2941
330
2
100
AcDbEntity
  8
AM_VIS
100
AcDbLine
 10
647.7378278316035
 20
-54.73957973141864
 30
0.0
 11
647.9931885596601
 21
-54.6769129386428
 31
0.0
  0
LINE
  5
2942
330
2
100
AcDbEntity
  8
AM_VIS
100
AcDbLine
 10
648.0992468538532
 20
-55.10908956715585
 30
0.0
 11
648.1619136466282
 21
-55.36445029520965
 31
0.0
  0
LINE
  5
2943
330
2
100
AcDbEntity
  8
AM_VIS
100
AcDbLine
 10
647.8438861257983
 20
-55.17175635993121
 30
0.0
 11
648.0992468538532
 21
-55.10908956715585
 31
0.0
  0
CIRCLE
  5
2944
330
2
100
AcDbEntity
  8
AM_VIS
100
AcDbCircle
 10
648.2623060210126
 20
-54.83997210580082
 30
0.0
 40
1.600000000000022
  0
LINE
  5
2945
330
2
100
AcDbEntity
  8
AM_VIS
100
AcDbLine
 10
648.362698395397
 20
-54.31549391639214
 30
0.0
 11
648.2774085946413
 21
-53.96794676020215
 31
0.0
  0
ELLIPSE
  5
2946
330
2
100
AcDbEntity
  8
AM_VIS
100
AcDbEllipse
 10
648.4167539658167
 20
-55.46933157809911
 30
0.0
 11
-2.286824568972775
 21
-0.5611981234118885
 31
0.0
210
0.0
220
0.0
230
1.0
 40
0.6361945781365072
 41
4.617755055602455
 42
4.807022905166918
  0
LINE
  5
2947
330
2
100
AcDbEntity
  8
AM_VIS
100
AcDbLine
 10
648.1619136466282
 20
-55.36445029520962
 30
0.0
 11
648.2472034473841
 21
-55.71199745139955
 31
0.0
  0
ELLIPSE
  5
2948
330
2
100
AcDbEntity
  8
AM_VIS
100
AcDbEllipse
 10
648.1078580762085
 20
-54.21061263350259
 30
0.0
 11
2.286824568972774
 21
0.561198123411889
 31
0.0
210
0.0
220
0.0
230
1.0
 40
0.6361945781365047
 41
4.617755055602462
 42
4.807022905166913
  0
LINE
  5
2949
330
2
100
AcDbEntity
  8
AM_VIS
100
AcDbLine
 10
647.4963389696076
 20
-55.25704616068708
 30
0.0
 11
647.8438861257983
 21
-55.17175635993118
 31
0.0
  0
ELLIPSE
  5
294A
330
2
100
AcDbEntity
  8
AM_VIS
100
AcDbEllipse
 10
647.6329465487143
 20
-54.9944200506049
 30
0.0
 11
-0.5611981234118847
 21
2.286824568972774
 31
0.0
210
0.0
220
0.0
230
1.0
 40
0.6361945781365083
 41
4.617755055601612
 42
4.807022905166067
  0
LINE
  5
294B
330
2
100
AcDbEntity
  8
AM_VIS
100
AcDbLine
 10
647.7378278316035
 20
-54.73957973141864
 30
0.0
 11
647.3902806754144
 21
-54.82486953217417
 31
0.0
  0
LINE
  5
294C
330
2
100
AcDbEntity
  8
AM_VIS
100
AcDbLine
 10
649.028273072419
 20
-54.42289805091843
 30
0.0
 11
648.6807259162297
 21
-54.50818785167396
 31
0.0
  0
ELLIPSE
  5
294D
330
2
100
AcDbEntity
  8
AM_VIS
100
AcDbEllipse
 10
648.8916654933109
 20
-54.6855241609968
 30
0.0
 11
0.5611981234118922
 21
-2.286824568972772
 31
0.0
210
0.0
220
0.0
230
1.0
 40
0.6361945781365094
 41
4.617755055603316
 42
4.807022905167771
  0
LINE
  5
294E
330
2
100
AcDbEntity
  8
AM_VIS
100
AcDbLine
 10
648.7867842104209
 20
-54.94036448018738
 30
0.0
 11
649.1343313666117
 21
-54.85507467943148
 31
0.0
  0
LINE
  5
294F
330
2
100
AcDbEntity
  8
AM_VIS
100
AcDbLine
 10
647.8452319661283
 20
-54.0740050543952
 30
0.0
 11
647.9305217668841
 21
-54.42155221058519
 31
0.0
  0
LINE
  5
2950
330
2
100
AcDbEntity
  8
AM_VIS
100
AcDbLine
 10
648.679380075897
 20
-55.60593915720653
 30
0.0
 11
648.5940902751413
 21
-55.2583920010166
 31
0.0
  0
ARC
  5
2951
330
2
100
AcDbEntity
  8
AM_VIS
100
AcDbCircle
 10
648.2623060210126
 20
-54.83997210580088
 30
0.0
 40
0.5339999999999919
100
AcDbArc
 50
308.4125063669301
 51
349.1638696623682
  0
ARC
  5
2952
330
2
100
AcDbEntity
  8
AM_VIS
100
AcDbCircle
 10
648.2623060210126
 20
-54.83997210580088
 30
0.0
 40
0.5339999999999919
100
AcDbArc
 50
38.41250636669811
 51
79.16386966260134
  0
ARC
  5
2953
330
2
100
AcDbEntity
  8
AM_VIS
100
AcDbCircle
 10
648.2623060210126
 20
-54.83997210580088
 30
0.0
 40
0.5339999999999919
100
AcDbArc
 50
128.4125063669305
 51
169.1638696628349
  0
ARC
  5
2954
330
2
100
AcDbEntity
  8
AM_VIS
100
AcDbCircle
 10
648.2623060210126
 20
-54.83997210580088
 30
0.0
 40
0.5339999999999919
100
AcDbArc
 50
218.4125063671659
 51
259.1638696626047
  0
LINE
  5
2B59
330
2
100
AcDbEntity
  8
LOGO
 62
     4
100
AcDbLine
 10
655.4078411628875
 20
-125.2176210572279
 30
0.0
 11
529.33310218725
 21
-125.2176210572279
 31
0.0
  0
LWPOLYLINE
  5
2B5A
330
2
100
AcDbEntity
  8
LOGO
 62
     4
100
AcDbPolyline
 90
        4
 70
     1
 43
0.0
 10
529.3331021872501
 20
-125.217621057228
 10
655.4078411628875
 20
-125.217621057228
 10
655.4078411628875
 20
28.0486291403331
 10
529.3331021872501
 20
28.0486291403331
1001
GENIUS_GENREC_14
1002
{
1000
PYDIR
1011
529.3331021872501
1021
28.0486291403331
1031
0.0
1002
}
1002
{
1000
PXDIR
1011
655.4078411628875
1021
-125.217621057228
1031
0.0
1002
}
1002
{
1000
PORI
1011
529.3331021872501
1021
-125.217621057228
1031
0.0
1002
}
1002
{
1000
PINS
1011
529.3331021872501
1021
-125.217621057228
1031
0.0
1002
}
1002
{
1000
PINS2
1011
655.4078411628875
1021
28.0486291403331
1031
0.0
1002
}
1002
{
1000
C
1070
     1
1002
}
1001
GENIUS_GENODEF_13
1002
{
1000
HIER
1070
     0
1002
}
1002
{
1000
MANEDIT
1070
     0
1002
}
1002
{
1000
NOSEL
1070
     0
1002
}
1002
{
1000
BEHIND
1070
     0
1002
}
1002
{
1000
OTHER
1070
     0
1002
}
1002
{
1000
REACTOR
1002
}
1001
GENIUS_GENOBJ-N-REC_13
1002
{
1000
OWNER
1000
GEN
1002
}
  0
LWPOLYLINE
  5
2B5B
330
2
100
AcDbEntity
  8
LOGO
 62
     4
100
AcDbPolyline
 90
        4
 70
     1
 43
0.0
 10
529.3331021872501
 20
-125.217621057228
 10
655.4078411628875
 20
-125.217621057228
 10
655.4078411628875
 20
-140.9461912873819
 10
529.3331021872501
 20
-140.9461912873819
1001
GENIUS_GENREC_14
1002
{
1000
PYDIR
1011
529.3331021872501
1021
-140.9461912873819
1031
0.0
1002
}
1002
{
1000
PXDIR
1011
655.4078411628875
1021
-125.217621057228
1031
0.0
1002
}
1002
{
1000
PORI
1011
529.3331021872501
1021
-125.217621057228
1031
0.0
1002
}
1002
{
1000
PINS
1011
529.3331021872501
1021
-125.217621057228
1031
0.0
1002
}
1002
{
1000
PINS2
1011
655.4078411628875
1021
-140.9461912873819
1031
0.0
1002
}
1002
{
1000
C
1070
     1
1002
}
1001
GENIUS_GENOBJ-N-REC_13
1002
{
1000
OWNER
1000
GEN
1002
}
1001
GENIUS_GENODEF_13
1002
{
1000
HIER
1070
     0
1002
}
1002
{
1000
MANEDIT
1070
     0
1002
}
1002
{
1000
NOSEL
1070
     0
1002
}
1002
{
1000
BEHIND
1070
     0
1002
}
1002
{
1000
OTHER
1070
     0
1002
}
1002
{
1000
REACTOR
1002
}
  0
TEXT
  5
2B5C
330
2
100
AcDbEntity
  8
LOGO
 62
     7
100
AcDbText
 10
564.8471723086878
 20
-132.1080400305657
 30
0.0
 40
2.097142697353846
  1
Order example:
 41
0.8
  7
CHINESET
100
AcDbText
  0
TEXT
  5
2B5D
330
2
100
AcDbEntity
  8
LOGO
 62
     7
100
AcDbText
 10
565.2234170512577
 20
-129.1556973316276
 30
0.0
 40
3.145714046030768
  1
訂購代號：
  7
CHINESET
100
AcDbText
  0
LINE
  5
2B5E
330
2
100
AcDbEntity
  8
LOGO
 62
     4
100
AcDbLine
 10
563.9359566935882
 20
-140.9461912873818
 30
0.0
 11
563.9359566935882
 21
-125.2176210572279
 31
0.0
  0
TEXT
  5
2B5F
330
2
100
AcDbEntity
  8
LOGO
  6
Continuous
100
AcDbText
 10
534.9828753152122
 20
-137.8563374021502
 30
0.0
 40
2.359285534523077
  1
金器工業股份有限公司
  7
CHINESET
100
AcDbText
  0
TEXT
  5
2B60
330
2
100
AcDbEntity
  8
LOGO
  6
Continuous
100
AcDbText
 10
530.6493345499181
 20
-140.2160851716629
 30
0.0
 40
1.572857023015384
  1
MINDMAN INDUSTRIAL CO., LTD.
 41
0.85
  7
CHINESET
100
AcDbText
  0
LINE
  5
2B61
330
2
100
AcDbEntity
  8
LOGO
 62
     4
100
AcDbLine
 10
563.9359566935882
 20
-128.3633351032587
 30
0.0
 11
540.8673870226961
 21
-128.3633351032587
 31
0.0
  0
LINE
  5
2B62
330
2
100
AcDbEntity
  8
LOGO
 62
     4
100
AcDbLine
 10
563.9359566935882
 20
-131.5090491492894
 30
0.0
 11
540.8673870226961
 21
-131.5090491492894
 31
0.0
  0
LINE
  5
2B63
330
2
100
AcDbEntity
  8
LOGO
 62
     4
100
AcDbLine
 10
563.9359566935882
 20
-134.6547631953201
 30
0.0
 11
529.33310218725
 21
-134.6547631953201
 31
0.0
  0
LINE
  5
2B64
330
2
100
AcDbEntity
  8
LOGO
 62
     4
100
AcDbLine
 10
540.8673870226961
 20
-134.6547631953201
 30
0.0
 11
540.8673870226961
 21
-125.2176210572279
 31
0.0
  0
TEXT
  5
2B65
330
2
100
AcDbEntity
  8
LOGO
100
AcDbText
 10
556.6336655728471
 20
-133.8683346838126
 30
0.0
 40
1.572857023015384
  1
mm
  7
CHINESET
 72
     1
 11
558.5810123632471
 21
-133.0819061723049
 31
0.0
100
AcDbText
 73
     2
  0
TEXT
  5
2B66
330
2
100
AcDbEntity
  8
LOGO
100
AcDbText
 10
555.809788084601
 20
-127.5769065917511
 30
0.0
 40
1.572857023015384
  1
1 : 1
  7
CHINESET
 72
     1
 11
558.5810123632471
 21
-126.7904780802434
 31
0.0
100
AcDbText
 73
     2
  0
LINE
  5
2B67
330
2
100
AcDbEntity
  8
LOGO
 62
     4
100
AcDbLine
 10
553.450243206819
 20
-134.6547631953201
 30
0.0
 11
553.450243206819
 21
-125.2176210572279
 31
0.0
  0
TEXT
  5
2B68
330
2
100
AcDbEntity
  8
LOGO
100
AcDbText
 10
542.1642918983699
 20
-127.5761325479406
 30
103.0824581578514
 40
1.572857023015384
  1
比例 Scale:
 41
0.9
  7
CHINESET
 72
     4
 11
547.1588151147576
 21
-126.7904780802434
 31
103.0824581578514
100
AcDbText
  0
TEXT
  5
2B69
330
2
100
AcDbEntity
  8
LOGO
100
AcDbText
 10
542.0737121858837
 20
-130.7004958855306
 30
103.0824581578514
 40
1.572857023015384
  1
投影  View:
 41
0.9
  7
CHINESET
 72
     4
 11
547.1588151147576
 21
-129.9361921262742
 31
103.0824581578514
100
AcDbText
  0
TEXT
  5
2B6A
330
2
100
AcDbEntity
  8
LOGO
100
AcDbText
 10
542.2274870466161
 20
-133.8683346838126
 30
103.0824581578514
 40
1.572857023015384
  1
單位  Unit:
 41
0.9
  7
CHINESET
 72
     4
 11
547.1588151147576
 21
-133.0819061723049
 31
103.0824581578514
100
AcDbText
  0
SOLID
  5
2B6B
330
2
100
AcDbEntity
  8
LOGO
 62
     5
100
AcDbTrace
 10
530.9649665910637
 20
-132.0401122731249
 30
0.0
 11
531.6450286960471
 21
-132.0401122731251
 31
0.0
 12
534.4825292030472
 22
-125.5912474844875
 32
0.0
 13
535.1625913080312
 23
-125.5912474844879
 33
0.0
  0
SOLID
  5
2B6C
330
2
100
AcDbEntity
  8
LOGO
 62
     5
100
AcDbTrace
 10
531.9264337050064
 20
-132.0401122731249
 30
0.0
 11
532.6064958099902
 21
-132.0401122731249
 31
0.0
 12
535.1625913080312
 22
-126.1071566675788
 32
0.0
 13
534.4825292030472
 23
-128.6007177191853
 33
0.0
  0
SOLID
  5
2B6D
330
2
100
AcDbEntity
  8
LOGO
 62
     2
100
AcDbTrace
 10
531.6450286960471
 20
-132.0401122731251
 30
0.0
 11
531.9264337050064
 21
-132.0401122731249
 31
0.0
 12
535.1625913080312
 22
-125.5912474844879
 32
0.0
 13
535.4439963169904
 23
-125.5912474844879
 33
0.0
  0
SOLID
  5
2B6E
330
2
100
AcDbEntity
  8
LOGO
 62
     5
100
AcDbTrace
 10
529.8746602651183
 20
-134.3851540144474
 30
0.0
 11
530.1091644392508
 21
-134.3851540144474
 31
0.0
 12
530.7695464459535
 22
-133.2126331437862
 32
0.0
 13
531.0040506200853
 23
-133.2126331437862
 33
0.0
  0
SOLID
  5
2B6F
330
2
100
AcDbEntity
  8
LOGO
 62
     5
100
AcDbTrace
 10
530.7695464459535
 20
-133.2126331437862
 30
0.0
 11
531.0040506200853
 21
-133.2126331437862
 31
0.0
 12
530.7695464459535
 22
-134.3851540144474
 32
0.0
 13
531.0040506200853
 23
-134.3851540144474
 33
0.0
  0
SOLID
  5
2B70
330
2
100
AcDbEntity
  8
LOGO
 62
     5
100
AcDbTrace
 10
530.7695464459535
 20
-134.3851540144474
 30
0.0
 11
531.0040506200853
 21
-134.3851540144474
 31
0.0
 12
531.6644326267891
 22
-133.2126331437862
 32
0.0
 13
531.8989368009213
 23
-133.2126331437862
 33
0.0
  0
SOLID
  5
2B71
330
2
100
AcDbEntity
  8
LOGO
 62
     5
100
AcDbTrace
 10
531.6644326267891
 20
-133.2126331437862
 30
0.0
 11
531.8989368009213
 21
-133.2126331437862
 31
0.0
 12
531.6644326267891
 22
-134.3851540144474
 32
0.0
 13
531.8989368009213
 23
-134.3851540144474
 33
0.0
  0
POLYLINE
  5
2B72
330
2
100
AcDbEntity
  8
LOGO
 62
     5
100
AcDb2dPolyline
 66
     1
 10
0.0
 20
0.0
 30
0.0
 40
0.2348799821036307
 41
0.2348799821036307
  0
VERTEX
  5
2B73
330
2B72
100
AcDbEntity
  8
LOGO
 62
     5
100
AcDbVertex
100
AcDb2dVertex
 10
539.5249326588486
 20
-133.6816414920507
 30
0.0
 42
1.0
  0
VERTEX
  5
2B74
330
2B72
100
AcDbEntity
  8
LOGO
 62
     5
100
AcDbVertex
100
AcDb2dVertex
 10
538.8202927125377
 20
-133.6816414920507
 30
0.0
 42
1.0
  0
SEQEND
  5
2B75
330
2B72
100
AcDbEntity
  8
LOGO
 62
     5
  0
POLYLINE
  5
2B76
330
2
100
AcDbEntity
  8
LOGO
 62
     5
100
AcDb2dPolyline
 66
     1
 10
0.0
 20
0.0
 30
0.0
 70
     1
  0
VERTEX
  5
2B77
330
2B76
100
AcDbEntity
  8
LOGO
 62
     5
100
AcDbVertex
100
AcDb2dVertex
 10
537.4920150713564
 20
-133.798893579117
 30
0.0
 42
1.000000057330635
  0
VERTEX
  5
2B78
330
2B76
100
AcDbEntity
  8
LOGO
 62
     5
100
AcDbVertex
100
AcDb2dVertex
 10
538.1955275937533
 20
-133.798893579117
 30
0.0
 42
1.000000057330635
  0
SEQEND
  5
2B79
330
2B76
100
AcDbEntity
  8
LOGO
 62
     5
  0
CIRCLE
  5
2B7A
330
2
100
AcDbEntity
  8
LOGO
 62
     5
100
AcDbCircle
 10
537.8437713325554
 20
-133.798893579117
 30
0.0
 40
0.3517562611983974
  0
POLYLINE
  5
2B7B
330
2
100
AcDbEntity
  8
LOGO
 62
     5
100
AcDb2dPolyline
 66
     1
 10
0.0
 20
0.0
 30
0.0
 70
     1
 40
0.2348799821036307
 41
0.2348799821036307
  0
VERTEX
  5
2B7C
330
2B7B
100
AcDbEntity
  8
LOGO
 62
     5
100
AcDbVertex
100
AcDb2dVertex
 10
537.3740113683478
 20
-133.798893579117
 30
0.0
 42
1.0
  0
VERTEX
  5
2B7D
330
2B7B
100
AcDbEntity
  8
LOGO
 62
     5
100
AcDbVertex
100
AcDb2dVertex
 10
538.3135312967623
 20
-133.798893579117
 30
0.0
 42
1.0
  0
SEQEND
  5
2B7E
330
2B7B
100
AcDbEntity
  8
LOGO
 62
     5
  0
LINE
  5
2B7F
330
2
100
AcDbEntity
  8
LOGO
100
AcDbLine
 10
539.6416210339573
 20
-134.3851540144474
 30
0.0
 11
539.6416210339573
 21
-133.6816414920507
 31
0.0
  0
SOLID
  5
2B80
330
2
100
AcDbEntity
  8
LOGO
 62
     5
100
AcDbTrace
 10
538.195504143337
 20
-133.2126331437862
 30
0.0
 11
538.4300083174688
 21
-133.2126331437862
 31
0.0
 12
538.195504143337
 22
-134.3851540144474
 32
0.0
 13
538.4300083174688
 23
-134.3851540144474
 33
0.0
  0
SOLID
  5
2B81
330
2
100
AcDbEntity
  8
LOGO
 62
     5
100
AcDbTrace
 10
538.7036043374282
 20
-134.3851540144474
 30
0.0
 11
538.938108511561
 21
-134.3851540144474
 31
0.0
 12
538.7036043374282
 22
-133.2126331437862
 32
0.0
 13
538.938108511561
 23
-133.2126331437862
 33
0.0
  0
SOLID
  5
2B82
330
2
100
AcDbEntity
  8
LOGO
 62
     5
100
AcDbTrace
 10
539.4071168598257
 20
-133.6816414920507
 30
0.0
 11
539.6416210339573
 21
-133.6816414920507
 31
0.0
 12
539.4071168598257
 22
-134.3851540144474
 32
0.0
 13
539.6416210339573
 23
-134.3851540144474
 33
0.0
  0
SOLID
  5
2B83
330
2
100
AcDbEntity
  8
LOGO
 62
     5
100
AcDbTrace
 10
538.680153920015
 20
-126.1071566675788
 30
0.0
 11
538.000091815032
 21
-128.6007177191853
 31
0.0
 12
538.680153920015
 22
-132.0401122731251
 32
0.0
 13
538.000091815032
 23
-132.0401122731251
 33
0.0
  0
SOLID
  5
2B84
330
2
100
AcDbEntity
  8
LOGO
 62
     5
100
AcDbTrace
 10
538.9615589289742
 20
-132.0401122731251
 30
0.0
 11
539.6416210339573
 21
-132.0401122731251
 31
0.0
 12
538.9615589289742
 22
-125.5912474844879
 32
0.0
 13
539.6416210339573
 23
-125.5912474844875
 33
0.0
  0
SOLID
  5
2B85
330
2
100
AcDbEntity
  8
LOGO
 62
     2
100
AcDbTrace
 10
538.680153920015
 20
-125.5912474844875
 30
0.0
 11
538.9615589289742
 21
-125.5912474844879
 31
0.0
 12
538.680153920015
 22
-132.0401122731251
 32
0.0
 13
538.9615589289742
 23
-132.0401122731251
 33
0.0
  0
POLYLINE
  5
2B86
330
2
100
AcDbEntity
  8
LOGO
 62
     5
100
AcDb2dPolyline
 66
     1
 10
0.0
 20
0.0
 30
0.0
 40
0.2348799821036307
 41
0.2348799821036307
  0
VERTEX
  5
2B87
330
2B86
100
AcDbEntity
  8
LOGO
 62
     5
100
AcDbVertex
100
AcDb2dVertex
 10
536.1636905293415
 20
-133.6816414920507
 30
0.0
 42
1.0
  0
VERTEX
  5
2B88
330
2B86
100
AcDbEntity
  8
LOGO
 62
     5
100
AcDbVertex
100
AcDb2dVertex
 10
535.4590505830303
 20
-133.6816414920507
 30
0.0
 42
1.0
  0
SEQEND
  5
2B89
330
2B86
100
AcDbEntity
  8
LOGO
 62
     5
  0
POLYLINE
  5
2B8A
330
2
100
AcDbEntity
  8
LOGO
 62
     5
100
AcDb2dPolyline
 66
     1
 10
0.0
 20
0.0
 30
0.0
 40
0.2348799821036307
 41
0.2348799821036307
  0
VERTEX
  5
2B8B
330
2B8A
100
AcDbEntity
  8
LOGO
 62
     5
100
AcDbVertex
100
AcDb2dVertex
 10
536.8672030517374
 20
-133.6816414920507
 30
0.0
 42
1.0
  0
VERTEX
  5
2B8C
330
2B8A
100
AcDbEntity
  8
LOGO
 62
     5
100
AcDbVertex
100
AcDb2dVertex
 10
536.1625631054269
 20
-133.6816414920507
 30
0.0
 42
1.0
  0
SEQEND
  5
2B8D
330
2B8A
100
AcDbEntity
  8
LOGO
 62
     5
  0
POLYLINE
  5
2B8E
330
2
100
AcDbEntity
  8
LOGO
 62
     5
100
AcDb2dPolyline
 66
     1
 10
0.0
 20
0.0
 30
0.0
 40
0.2348799821036307
 41
0.2348799821036307
  0
VERTEX
  5
2B8F
330
2B8E
100
AcDbEntity
  8
LOGO
 62
     5
100
AcDbVertex
100
AcDb2dVertex
 10
533.5059609222302
 20
-133.6816414920507
 30
0.0
 42
1.0
  0
VERTEX
  5
2B90
330
2B8E
100
AcDbEntity
  8
LOGO
 62
     5
100
AcDbVertex
100
AcDb2dVertex
 10
532.8013209759197
 20
-133.6816414920507
 30
0.0
 42
1.0
  0
SEQEND
  5
2B91
330
2B8E
100
AcDbEntity
  8
LOGO
 62
     5
  0
SOLID
  5
2B92
330
2
100
AcDbEntity
  8
LOGO
 62
     5
100
AcDbTrace
 10
532.6846326008105
 20
-133.2126331437862
 30
0.0
 11
532.9191367749423
 21
-133.2126331437862
 31
0.0
 12
532.6846326008105
 22
-134.3851540144474
 32
0.0
 13
532.9191367749423
 23
-134.3851540144474
 33
0.0
  0
SOLID
  5
2B93
330
2
100
AcDbEntity
  8
LOGO
 62
     5
100
AcDbTrace
 10
533.3881451232074
 20
-133.6816414920507
 30
0.0
 11
533.6226492973398
 21
-133.6816414920507
 31
0.0
 12
533.3881451232074
 22
-134.3851540144474
 32
0.0
 13
533.6226492973398
 23
-134.3851540144474
 33
0.0
  0
POLYLINE
  5
2B94
330
2
100
AcDbEntity
  8
LOGO
 62
     5
100
AcDb2dPolyline
 66
     1
 10
0.0
 20
0.0
 30
0.0
 70
     1
 40
0.2348799821036307
 41
0.2348799821036307
  0
VERTEX
  5
2B95
330
2B94
100
AcDbEntity
  8
LOGO
 62
     5
100
AcDbVertex
100
AcDb2dVertex
 10
534.01276923884
 20
-133.798893579117
 30
0.0
 42
1.0
  0
VERTEX
  5
2B96
330
2B94
100
AcDbEntity
  8
LOGO
 62
     5
100
AcDbVertex
100
AcDb2dVertex
 10
534.952289167255
 20
-133.798893579117
 30
0.0
 42
1.0
  0
SEQEND
  5
2B97
330
2B94
100
AcDbEntity
  8
LOGO
 62
     5
  0
SOLID
  5
2B98
330
2
100
AcDbEntity
  8
LOGO
 62
     5
100
AcDbTrace
 10
534.8342620138289
 20
-132.8608768825877
 30
0.0
 11
535.0687661879611
 21
-132.8608768825877
 31
0.0
 12
534.8342620138289
 22
-134.3851540144474
 32
0.0
 13
535.0687661879611
 23
-134.3851540144474
 33
0.0
  0
SOLID
  5
2B99
330
2
100
AcDbEntity
  8
LOGO
 62
     5
100
AcDbTrace
 10
535.3423622079218
 20
-133.2126331437862
 30
0.0
 11
535.5768663820535
 21
-133.2126331437862
 31
0.0
 12
535.3423622079218
 22
-134.3851540144474
 32
0.0
 13
535.5768663820535
 23
-134.3851540144474
 33
0.0
  0
SOLID
  5
2B9A
330
2
100
AcDbEntity
  8
LOGO
 62
     5
100
AcDbTrace
 10
536.045874730318
 20
-133.6816414920507
 30
0.0
 11
536.2803789044504
 21
-133.6816414920507
 31
0.0
 12
536.045874730318
 22
-134.3851540144474
 32
0.0
 13
536.2803789044504
 23
-134.3851540144474
 33
0.0
  0
SOLID
  5
2B9B
330
2
100
AcDbEntity
  8
LOGO
 62
     5
100
AcDbTrace
 10
536.7493872527147
 20
-133.6816414920507
 30
0.0
 11
536.9838914268468
 21
-133.6816414920507
 31
0.0
 12
536.7493872527147
 22
-134.3851540144478
 32
0.0
 13
536.9838914268468
 23
-134.3851540144478
 33
0.0
  0
SOLID
  5
2B9C
330
2
100
AcDbEntity
  8
LOGO
 62
     5
100
AcDbTrace
 10
532.176532406718
 20
-133.0484802218936
 30
0.0
 11
532.4110365808508
 21
-133.0484802218936
 31
0.0
 12
532.176532406718
 22
-132.8608768825877
 32
0.0
 13
532.4110365808508
 23
-132.8608768825877
 33
0.0
  0
SOLID
  5
2B9D
330
2
100
AcDbEntity
  8
LOGO
 62
     5
100
AcDbTrace
 10
532.176532406718
 20
-133.2126331437862
 30
0.0
 11
532.4110365808508
 21
-133.2126331437862
 31
0.0
 12
532.176532406718
 22
-134.3851540144478
 32
0.0
 13
532.4110365808508
 23
-134.3851540144474
 33
0.0
  0
SOLID
  5
2B9E
330
2
100
AcDbEntity
  8
LOGO
 62
     5
100
AcDbTrace
 10
534.4825292030472
 20
-132.0401122731249
 30
0.0
 11
535.1625913080312
 21
-132.0401122731249
 31
0.0
 12
534.4825292030472
 22
-128.6007177191853
 32
0.0
 13
535.1625913080312
 23
-126.1071566675788
 33
0.0
  0
SOLID
  5
2B9F
330
2
100
AcDbEntity
  8
LOGO
 62
     5
100
AcDbTrace
 10
535.4439963169904
 20
-125.5912474844879
 30
0.0
 11
536.1240584219736
 21
-125.5912474844875
 31
0.0
 12
535.4439963169904
 22
-131.5242030900341
 32
0.0
 13
536.1240584219736
 23
-129.0306420384276
 33
0.0
  0
SOLID
  5
2BA0
330
2
100
AcDbEntity
  8
LOGO
 62
     2
100
AcDbTrace
 10
535.1625913080312
 20
-125.5912474844879
 30
0.0
 11
535.4439963169904
 21
-125.5912474844879
 31
0.0
 12
535.1625913080312
 22
-132.0401122731249
 32
0.0
 13
535.4439963169904
 23
-132.0401122731249
 33
0.0
  0
SOLID
  5
2BA1
330
2
100
AcDbEntity
  8
LOGO
 62
     5
100
AcDbTrace
 10
535.4439963169904
 20
-131.5242030900341
 30
0.0
 11
536.1240584219736
 21
-129.0306420384276
 31
0.0
 12
538.680153920015
 22
-125.5912474844875
 32
0.0
 13
538.000091815032
 23
-125.5912474844875
 33
0.0
  0
SOLID
  5
2BA2
330
2
100
AcDbEntity
  8
LOGO
 62
     5
100
AcDbTrace
 10
535.4439963169904
 20
-132.0401122731249
 30
0.0
 11
536.1240584219736
 21
-132.0401122731249
 31
0.0
 12
538.680153920015
 22
-126.1071566675788
 32
0.0
 13
538.000091815032
 23
-128.6007177191853
 33
0.0
  0
SOLID
  5
2BA3
330
2
100
AcDbEntity
  8
LOGO
 62
     2
100
AcDbTrace
 10
535.1625913080312
 20
-132.0401122731249
 30
0.0
 11
535.4439963169904
 21
-132.0401122731249
 31
0.0
 12
538.680153920015
 22
-125.5912474844875
 32
0.0
 13
538.9615589289742
 23
-125.5912474844879
 33
0.0
  0
TEXT
  5
2BE2
330
2
100
AcDbEntity
  8
LOGO
100
AcDbText
 10
564.5598439012058
 20
-140.1094375591046
 30
0.0
 40
1.573084799999999
  1
20807102
 41
0.7
  7
CHINESET
 72
     1
 11
568.4925559012058
 21
-140.1094375591046
 31
0.0
100
AcDbText
  0
LINE
  5
2BE3
330
2
100
AcDbEntity
  8
LOGO
 62
     4
100
AcDbLine
 10
573.3744654935878
 20
-137.8004772413507
 30
0.0
 11
573.3744654935884
 21
-140.9461912873817
 31
0.0
  0
LINE
  5
2BE4
330
2
100
AcDbEntity
  8
LOGO
 62
     4
100
AcDbLine
 10
573.3744654935878
 20
-137.8004772413507
 30
0.0
 11
563.9359566935882
 21
-137.8004772413507
 31
0.0
  0
CIRCLE
  5
2BE5
330
2
100
AcDbEntity
  8
LOGO
  6
Continuous
100
AcDbCircle
 10
556.3625847147785
 20
-129.932827773592
 30
0.0
 40
0.9132378084438222
  0
CIRCLE
  5
2BE6
330
2
100
AcDbEntity
  8
LOGO
  6
Continuous
100
AcDbCircle
 10
556.3625847147785
 20
-129.932827773592
 30
0.0
 40
0.5350765113789635
  0
LINE
  5
2BE7
330
2
100
AcDbEntity
  8
LOGO
100
AcDbLine
 10
562.1014770706735
 20
-130.8460655820359
 30
0.0
 11
562.1014770706735
 21
-129.019589965148
 31
0.0
  0
LINE
  5
2BE8
330
2
100
AcDbEntity
  8
LOGO
100
AcDbLine
 10
559.2385289635538
 20
-130.4679042849708
 30
0.0
 11
559.2385289635538
 21
-129.3977512622129
 31
0.0
  0
LINE
  5
2BE9
330
2
100
AcDbEntity
  8
LOGO
  6
Continuous
100
AcDbLine
 10
559.2385289635538
 20
-129.3977512622129
 30
0.0
 11
562.1014770706735
 21
-129.019589965148
 31
0.0
  0
LINE
  5
2BEA
330
2
100
AcDbEntity
  8
LOGO
  6
Continuous
100
AcDbLine
 10
559.2385289635538
 20
-130.4679042849708
 30
0.0
 11
562.1014770706735
 21
-130.8460655820359
 31
0.0
  0
LINE
  5
2BEB
330
2
100
AcDbEntity
  8
LOGO
  6
AM_ISO08W050x2
 48
0.3
100
AcDbLine
 10
555.1036727211795
 20
-129.932827773592
 30
0.0
 11
557.6214967083776
 21
-129.932827773592
 31
0.0
1001
GENIUS_GENOREF_13
1005
2C02
  0
LINE
  5
2BEC
330
2
100
AcDbEntity
  8
LOGO
  6
AM_ISO08W050x2
 48
0.3
100
AcDbLine
 10
556.3625847147785
 20
-131.191739767191
 30
0.0
 11
556.3625847147785
 21
-128.6739157799928
 31
0.0
1001
GENIUS_GENOREF_13
1005
2C01
  0
LINE
  5
2BED
330
2
100
AcDbEntity
  8
LOGO
  6
CENTER
 48
0.5
100
AcDbLine
 10
559.0095726902546
 20
-129.932827773592
 30
0.0
 11
562.3897666772197
 21
-129.932827773592
 31
0.0
1001
GENIUS_GENOREF_13
1005
2C00
  0
POINT
  5
2C00
330
2
100
AcDbEntity
  8
0
 60
     1
100
AcDbPoint
 10
-1811.703739739273
 20
-1443.309492803441
 30
0.0
1001
GENIUS_GENOBJ-N-CRS_13
1002
{
1000
OWNER
1000
GEN
1002
}
1001
GENIUS_GENOLIS_13
1002
{
1000
ENT
1005
0
1005
0
1005
0
1005
2BED
1002
}
1001
GENIUS_GENOENT_13
1002
{
1000
MYREF
1005
2C00
1002
}
1002
{
1000
GRP
1005
0
1002
}
1001
GENIUS_GENODEF_13
1002
{
1000
HIER
1070
    10
1002
}
1002
{
1000
MANEDIT
1070
     1
1002
}
1002
{
1000
NOSEL
1070
     0
1002
}
1002
{
1000
BEHIND
1070
     0
1002
}
1002
{
1000
OTHER
1070
     0
1002
}
1002
{
1000
REACTOR
1002
}
  0
POINT
  5
2C01
330
2
100
AcDbEntity
  8
0
 60
     1
100
AcDbPoint
 10
-1823.028324962128
 20
-1434.433906324805
 30
0.0
1001
GENIUS_GENOBJ-N-CRS_13
1002
{
1000
OWNER
1000
GEN
1002
}
1001
GENIUS_GENOLIS_13
1002
{
1000
ENT
1005
0
1005
0
1005
0
1005
2BEC
1002
}
1001
GENIUS_GENOENT_13
1002
{
1000
MYREF
1005
2C01
1002
}
1002
{
1000
GRP
1005
0
1002
}
1001
GENIUS_GENODEF_13
1002
{
1000
HIER
1070
    10
1002
}
1002
{
1000
MANEDIT
1070
     1
1002
}
1002
{
1000
NOSEL
1070
     0
1002
}
1002
{
1000
BEHIND
1070
     0
1002
}
1002
{
1000
OTHER
1070
     0
1002
}
1002
{
1000
REACTOR
1002
}
  0
POINT
  5
2C02
330
2
100
AcDbEntity
  8
0
 60
     1
100
AcDbPoint
 10
-1816.669651264291
 20
-1443.309492803441
 30
0.0
1001
GENIUS_GENOBJ-N-CRS_13
1002
{
1000
OWNER
1000
GEN
1002
}
1001
GENIUS_GENOLIS_13
1002
{
1000
ENT
1005
0
1005
0
1005
0
1005
2BEB
1002
}
1001
GENIUS_GENOENT_13
1002
{
1000
MYREF
1005
2C02
1002
}
1002
{
1000
GRP
1005
0
1002
}
1001
GENIUS_GENODEF_13
1002
{
1000
HIER
1070
    10
1002
}
1002
{
1000
MANEDIT
1070
     1
1002
}
1002
{
1000
NOSEL
1070
     0
1002
}
1002
{
1000
BEHIND
1070
     0
1002
}
1002
{
1000
OTHER
1070
     0
1002
}
1002
{
1000
REACTOR
1002
}
  0
DIMENSION
  5
2D2E
102
{ACAD_XDICTIONARY
360
2D3B
102
}
102
{ACAD_REACTORS
330
2D3C
102
}
330
2
100
AcDbEntity
  8
AM_REFDIM
100
AcDbDimension
  2
*D25
 10
612.7816767151248
 20
-114.6428725919207
 30
0.0
 11
588.5566767151248
 21
-112.4828725919207
 31
0.0
 70
    32
  1
(<>)
 71
     5
 42
48.45000000000005
  3
STANDARD
100
AcDbAlignedDimension
 13
564.3316767151247
 23
-100.5532092199758
 33
0.0
 14
612.7816767151248
 24
-99.55320921997582
 34
0.0
 50
0.0000000000001132
100
AcDbRotatedDimension
1001
ACAD
1000
DSTYLE
1002
{
1070
   271
1070
     1
1002
}
  0
DIMENSION
  5
2FBD
102
{ACAD_XDICTIONARY
360
2FCC
102
}
102
{ACAD_REACTORS
330
2FCD
102
}
330
2
100
AcDbEntity
  8
AM_REFDIM
100
AcDbDimension
  2
*D26
 10
583.2190029948885
 20
-45.93997210580079
 30
0.0
 11
581.6090029948886
 21
-39.1299721058007
 31
0.0
 70
    32
 71
     5
 42
1.399999999999977
  3
STANDARD
100
AcDbAlignedDimension
 13
580.4316767151248
 23
-47.33997210580077
 33
0.0
 14
580.4316767151248
 24
-45.93997210580079
 34
0.0
 50
90.0
100
AcDbRotatedDimension
  0
LINE
  5
30CF
330
2
100
AcDbEntity
  8
AM_VIS
100
AcDbLine
 10
565.3600246275178
 20
1.904086125198232
 30
0.0
 11
565.8316767151247
 21
1.945350335992116
 31
0.0
  0
ARC
  5
30D0
330
2
100
AcDbEntity
  8
AM_VIS
100
AcDbCircle
 10
565.4158043028764
 20
1.266521518419494
 30
0.0
 40
0.6400000000000002
100
AcDbArc
 50
95.00000000000305
 51
115.2547165608965
  0
LINE
  5
30D3
330
2
100
AcDbEntity
  8
AM_VIS
100
AcDbLine
 10
594.0533288027317
 20
-8.213385453213817
 30
0.0
 11
593.5816767151249
 21
-8.2546496640077
 31
0.0
  0
LINE
  5
30D4
330
2
100
AcDbEntity
  8
AM_VIS
100
AcDbLine
 10
593.5816767151249
 20
-8.154649664007706
 30
0.0
 11
593.5816767151249
 21
-8.254649664007729
 31
0.0
  0
ARC
  5
30D5
330
2
100
AcDbEntity
  8
AM_VIS
100
AcDbCircle
 10
593.9975491273733
 20
-7.575820846435078
 30
0.0
 40
0.6400000000000002
100
AcDbArc
 50
275.0000000000031
 51
295.2547165609005
  0
DIMENSION
  5
3283
102
{ACAD_XDICTIONARY
360
3290
102
}
102
{ACAD_REACTORS
330
3291
330
34C7
102
}
330
2
100
AcDbEntity
  8
AM_REFDIM
100
AcDbDimension
  2
*D27
 10
541.4514125121837
 20
1.845350335992157
 30
0.0
 11
539.8414125121838
 21
-3.154649664007754
 31
0.0
 70
    32
 71
     5
 42
10.0
  3
STANDARD
100
AcDbAlignedDimension
 13
564.3316767151247
 23
-8.154649664007848
 33
0.0
 14
564.3316767151247
 24
1.845350335992151
 34
0.0
 50
90.00000000000003
100
AcDbRotatedDimension
  0
ENDSEC
  0
SECTION
  2
OBJECTS
  0
DICTIONARY
  5
8
330
0
100
AcDbDictionary
281
     1
  3
ACAD_COLOR
350
22EB
  3
ACAD_GROUP
350
21
  3
ACAD_LAYOUT
350
C
  3
ACAD_MATERIAL
350
22EA
  3
ACAD_MLINESTYLE
350
22
  3
ACAD_PLOTSETTINGS
350
23
  3
ACAD_PLOTSTYLENAME
350
7
  3
ACAD_TABLESTYLE
350
22EC
  3
ACDBHEADERROUNDTRIPXREC
350
35FC
  3
AcDbVariableDictionary
350
1D2
  3
AcmDictionary
350
1F4
  3
AMG
350
1DA
  3
AMGSNAPSETTINGS
350
37D
  3
ASE_INDEX_DICTIONARY
350
E58
  3
DWGPROPS
350
35FB
  0
DICTIONARY
  5
2434
330
11
100
AcDbDictionary
280
     1
281
     1
  3
ACAD_LAYERFILTERS
360
30F1
  3
ACAD_LAYERSTATES
360
2435
  3
ACLYDICTIONARY
360
30F0
  0
DICTIONARY
  5
3
330
2
100
AcDbDictionary
280
     1
281
     1
  3
ACAD_INDEX
360
30F2
  3
ACAD_LAYOUTSELFREF
360
22C3
  0
DICTIONARY
  5
1848
330
D
100
AcDbDictionary
280
     1
281
     1
  3
ACAD_LAYOUTSELFREF
360
22C8
  0
DICTIONARY
  5
34DF
330
26E6
100
AcDbDictionary
280
     1
281
     1
  3
ACMDIMBREAKPERSREACTOR
360
34E0
  0
DICTIONARY
  5
2D3B
330
2D2E
100
AcDbDictionary
280
     1
281
     1
  3
ACAD_DIMASSOC
360
2D3C
  0
DICTIONARY
  5
2FCC
330
2FBD
100
AcDbDictionary
280
     1
281
     1
  3
ACAD_DIMASSOC
360
2FCD
  0
DICTIONARY
  5
3290
330
3283
100
AcDbDictionary
280
     1
281
     1
  3
ACAD_DIMASSOC
360
3291
  3
ACMDIMBREAKPERSREACTOR
360
34C7
  0
DICTIONARY
  5
22EB
102
{ACAD_REACTORS
330
8
102
}
330
8
100
AcDbDictionary
281
     1
  0
DICTIONARY
  5
21
102
{ACAD_REACTORS
330
8
102
}
330
8
100
AcDbDictionary
281
     1
  0
DICTIONARY
  5
C
102
{ACAD_REACTORS
330
8
102
}
330
8
100
AcDbDictionary
281
     1
  3
Layout1
350
10
  3
Model
350
B
  0
DICTIONARY
  5
22EA
102
{ACAD_REACTORS
330
8
102
}
330
8
100
AcDbDictionary
281
     1
  0
DICTIONARY
  5
22
102
{ACAD_REACTORS
330
8
102
}
330
8
100
AcDbDictionary
281
     1
  3
Standard
350
24
  0
DICTIONARY
  5
23
102
{ACAD_REACTORS
330
8
102
}
330
8
100
AcDbDictionary
281
     1
  0
ACDBDICTIONARYWDFLT
  5
7
102
{ACAD_REACTORS
330
8
102
}
330
8
100
AcDbDictionary
281
     1
  3
Normal
350
6
100
AcDbDictionaryWithDefault
340
6
  0
DICTIONARY
  5
22EC
102
{ACAD_REACTORS
330
8
102
}
330
8
100
AcDbDictionary
281
     1
  3
Standard
350
22ED
  0
DICTIONARY
  5
35FC
102
{ACAD_REACTORS
330
8
102
}
330
8
100
AcDbDictionary
281
     1
  0
DICTIONARY
  5
1D2
102
{ACAD_REACTORS
330
8
102
}
330
8
100
AcDbDictionary
281
     1
  3
CTABLESTYLE
350
2CA1
  3
DIMASSOC
350
1D4
  3
HIDETEXT
350
1D3
  3
INDEXCTL
350
4C0
  3
PROJECTNAME
350
2CA2
  0
DICTIONARY
  5
1F4
102
{ACAD_REACTORS
330
8
102
}
330
8
100
AcDbDictionary
281
     1
  3
AcmStdDictionary
350
1FA
  3
AMDTSECTSYM_ARROWCOLOR
350
2360
  0
DICTIONARY
  5
1DA
102
{ACAD_REACTORS
330
8
102
}
330
8
100
AcDbDictionary
281
     1
  0
DICTIONARY
  5
37D
102
{ACAD_REACTORS
330
8
102
}
330
8
100
AcDbDictionary
281
     1
  0
DICTIONARY
  5
E58
102
{ACAD_REACTORS
330
8
102
}
330
8
100
AcDbDictionary
281
     1
  3
ASEBlockHierarchyIndexRecord
350
E5A
1001
DCO15
1040
1443953005.444
  0
XRECORD
  5
35FB
102
{ACAD_REACTORS
330
8
102
}
330
8
100
AcDbXrecord
280
     1
  1
DWGPROPS COOKIE
  2

  3

  4

  6

  7

  8

  9

300
AmdtFileType=84
301
=
302
=
303
=
304
=
305
=
306
=
307
=
308
=
309
=
 40
0.0986172106481482
 41
2452691.454954444
 42
2454664.402393657
  1

 90
        1
  0
DICTIONARY
  5
30F1
102
{ACAD_REACTORS
330
2434
102
}
330
2434
100
AcDbDictionary
281
     1
  0
DICTIONARY
  5
2435
102
{ACAD_REACTORS
330
2434
102
}
330
2434
100
AcDbDictionary
281
     1
  0
DICTIONARY
  5
30F0
102
{ACAD_REACTORS
330
2434
102
}
330
2434
100
AcDbDictionary
281
     1
1001
ACAD
1000
<All
  0
DICTIONARY
  5
30F2
102
{ACAD_REACTORS
330
3
102
}
330
3
100
AcDbDictionary
281
     1
  3
*A1
350
30F3
  0
XRECORD
  5
22C3
102
{ACAD_REACTORS
330
3
102
}
330
3
100
AcDbXrecord
280
     1
340
2
  0
XRECORD
  5
22C8
102
{ACAD_REACTORS
330
1848
102
}
330
1848
100
AcDbXrecord
280
     1
340
D
  0
DIMASSOC
  5
2D3C
102
{ACAD_REACTORS
330
2D3B
102
}
330
2D3B
100
AcDbDimAssoc
330
2D2E
 90
        3
 70
     0
 71
     0
  1
AcDbOsnapPointRef
 72
     1
331
286F
 73
     0
 91
        0
 40
0.0
 10
0.0
 20
0.0
 30
2.000000000000000E+50
 75
     0
  1
AcDbOsnapPointRef
 72
    13
331
289C
 73
     0
 91
        0
 40
0.0
 10
0.0
 20
0.0
 30
2.000000000000000E+50
 75
     0
  0
DIMASSOC
  5
2FCD
102
{ACAD_REACTORS
330
2FCC
102
}
330
2FCC
100
AcDbDimAssoc
330
2FBD
 90
        3
 70
     0
 71
     0
  1
AcDbOsnapPointRef
 72
    13
331
27C2
 73
     0
 91
        0
 40
0.0
 10
0.0
 20
0.0
 30
2.000000000000000E+50
 75
     0
  1
AcDbOsnapPointRef
 72
     1
331
27DF
 73
     0
 91
        0
 40
0.0
 10
0.0
 20
0.0
 30
2.000000000000000E+50
 75
     0
  0
DIMASSOC
  5
3291
102
{ACAD_REACTORS
330
3290
102
}
330
3290
100
AcDbDimAssoc
330
3283
 90
        3
 70
     0
 71
     0
  1
AcDbOsnapPointRef
 72
     1
331
2773
 73
     0
 91
        0
 40
0.0
 10
0.0
 20
0.0
 30
2.000000000000000E+50
 75
     0
  1
AcDbOsnapPointRef
 72
     1
331
2775
 73
     0
 91
        0
 40
0.0
 10
0.0
 20
0.0
 30
2.000000000000000E+50
 75
     0
  0
LAYOUT
  5
10
102
{ACAD_XDICTIONARY
360
35FF
102
}
102
{ACAD_REACTORS
330
C
102
}
330
C
100
AcDbPlotSettings
  1

  2
\\RD01\EPSON Stylus COLOR 1160 單色
  4
A4
  6

 40
3.757083177566528
 41
14.7637300491333
 42
3.757080078125
 43
3.757080078125
 44
209.9733276367187
 45
296.9683227539062
 46
0.0
 47
0.0
 48
0.0
 49
0.0
140
0.0
141
0.0
142
1.0
143
1.0
 70
   688
 72
     1
 73
     0
 74
     5
  7
單色出圖.ctb
 75
    16
147
1.0
148
0.0
149
0.0
100
AcDbLayout
  1
Layout1
 70
     1
 71
     1
 10
-3.757083177566528
 20
-14.7637300491333
 11
206.2162444591522
 21
282.2045927047729
 12
0.0
 22
0.0
 32
0.0
 14
26.80208481208632
 24
60.62932117531272
 34
-0.0000000000000153
 15
155.7606180029584
 25
204.40991305297
 35
0.0
146
0.0
 13
0.0
 23
0.0
 33
0.0
 16
1.0
 26
0.0
 36
0.0
 17
0.0
 27
1.0
 37
0.0
 76
     0
330
D
  0
LAYOUT
  5
B
102
{ACAD_XDICTIONARY
360
35FD
102
}
102
{ACAD_REACTORS
330
C
102
}
330
C
100
AcDbPlotSettings
  1

  2
自動 RD 上的 Epson Stylus Photo 750 單色
  4
A4
  6

 40
3.757083177566528
 41
14.7637300491333
 42
3.757080078125
 43
3.757080078125
 44
209.9733276367187
 45
296.9683227539062
 46
0.0
 47
0.0
 48
0.0
 49
0.0
140
0.0
141
0.0
142
1.0
143
1.0
 70
 11952
 72
     1
 73
     0
 74
     0
  7
單色出圖.ctb
 75
    16
147
1.0
148
47.70409695138527
149
1.582593250444062
100
AcDbLayout
  1
Model
 70
     1
 71
     0
 10
0.0
 20
0.0
 11
12.0
 21
9.0
 12
0.0
 22
0.0
 32
0.0
 14
0.0
 24
0.0
 34
0.0
 15
0.0
 25
0.0
 35
0.0
146
0.0
 13
0.0
 23
0.0
 33
0.0
 16
1.0
 26
0.0
 36
0.0
 17
0.0
 27
1.0
 37
0.0
 76
     0
330
2
  0
MLINESTYLE
  5
24
102
{ACAD_REACTORS
330
22
102
}
330
22
100
AcDbMlineStyle
  2
STANDARD
 70
     0
  3

 62
   256
 51
90.0
 52
90.0
 71
     2
 49
0.5
 62
   256
  6
BYLAYER
 49
-0.5
 62
   256
  6
BYLAYER
  0
ACDBPLACEHOLDER
  5
6
102
{ACAD_REACTORS
330
7
102
}
330
7
  0
TABLESTYLE
  5
22ED
102
{ACAD_REACTORS
330
22EC
102
}
330
22EC
100
AcDbTableStyle
  3
Standard
 70
     0
 71
     0
 40
1.5
 41
1.5
280
     0
281
     0
  7
STANDARD
140
4.5
170
     2
 62
     0
 63
     7
283
     0
274
    -2
284
     1
 64
     0
275
    -2
285
     1
 65
     0
276
    -2
286
     1
 66
     0
277
    -2
287
     1
 67
     0
278
    -2
288
     1
 68
     0
279
    -2
289
     1
 69
     0
  7
STANDARD
140
6.0
170
     5
 62
     0
 63
     7
283
     0
274
    -2
284
     1
 64
     0
275
    -2
285
     1
 65
     0
276
    -2
286
     1
 66
     0
277
    -2
287
     1
 67
     0
278
    -2
288
     1
 68
     0
279
    -2
289
     1
 69
     0
  7
STANDARD
140
4.5
170
     5
 62
     0
 63
     7
283
     0
274
    -2
284
     1
 64
     0
275
    -2
285
     1
 65
     0
276
    -2
286
     1
 66
     0
277
    -2
287
     1
 67
     0
278
    -2
288
     1
 68
     0
279
    -2
289
     1
 69
     0
  0
DICTIONARYVAR
  5
2CA1
102
{ACAD_REACTORS
330
1D2
102
}
330
1D2
100
DictionaryVariables
280
     0
  1
STANDARD
  0
DICTIONARYVAR
  5
1D4
102
{ACAD_REACTORS
330
1D2
102
}
330
1D2
100
DictionaryVariables
280
     0
  1
2
  0
DICTIONARYVAR
  5
1D3
102
{ACAD_REACTORS
330
1D2
102
}
330
1D2
100
DictionaryVariables
280
     0
  1
1
  0
DICTIONARYVAR
  5
4C0
102
{ACAD_REACTORS
330
1D2
102
}
330
1D2
100
DictionaryVariables
280
     0
  1
1
  0
DICTIONARYVAR
  5
2CA2
102
{ACAD_REACTORS
330
1D2
102
}
330
1D2
100
DictionaryVariables
280
     0
  1

  0
DICTIONARY
  5
1FA
102
{ACAD_REACTORS
330
1F4
102
}
330
1F4
100
AcDbDictionary
281
     1
  0
XRECORD
  5
2360
102
{ACAD_REACTORS
330
1F4
102
}
330
1F4
100
AcDbXrecord
280
     1
 90
-1023410169
  0
XRECORD
  5
E5A
102
{ACAD_REACTORS
330
E58
102
}
330
E58
100
AcDbXrecord
280
     1
330
0
330
0
  0
LAYER_INDEX
  5
30F3
102
{ACAD_REACTORS
330
30F2
102
}
330
30F2
100
AcDbIndex
 40
2454664.402393657
100
AcDbLayerIndex
  8
0
360
3572
 90
       15
  8
Defpoints
360
3573
 90
        0
  8
AM_5
360
3574
 90
        2
  8
AM_VIS
360
3575
 90
      536
  8
AM_PARDIM
360
3576
 90
       10
  8
AM_7
360
3577
 90
       97
  8
LOGO
360
3578
 90
      151
  8
AM_REFDIM
360
3579
 90
       17
  0
DICTIONARY
  5
35FF
330
10
100
AcDbDictionary
280
     1
281
     1
  3
ACAD_XREC_ROUNDTRIP
360
3600
  0
DICTIONARY
  5
35FD
330
B
100
AcDbDictionary
280
     1
281
     1
  3
ACAD_XREC_ROUNDTRIP
360
35FE
  0
IDBUFFER
  5
3572
330
0
100
AcDbIdBuffer
330
25
330
26
330
27
330
28
330
29
330
2A
330
2B
330
2C
330
2D
330
2E
330
2F
330
30
330
2C00
330
2C01
330
2C02
  0
IDBUFFER
  5
3573
330
0
100
AcDbIdBuffer
  0
IDBUFFER
  5
3574
330
0
100
AcDbIdBuffer
330
151
330
156
  0
IDBUFFER
  5
3575
330
0
100
AcDbIdBuffer
330
2741
330
2742
330
2743
330
2744
330
2746
330
2747
330
2748
330
2749
330
274A
330
274B
330
274C
330
274D
330
274E
330
274F
330
2750
330
2751
330
2752
330
2753
330
2754
330
2755
330
2756
330
2757
330
2758
330
2759
330
275A
330
275B
330
275C
330
275D
330
275E
330
275F
330
2760
330
2761
330
2762
330
2763
330
2764
330
2765
330
2766
330
2767
330
2768
330
2769
330
276A
330
276B
330
276C
330
276D
330
276E
330
276F
330
2770
330
2771
330
2772
330
2773
330
2774
330
2775
330
2776
330
2777
330
2778
330
2779
330
277A
330
277B
330
277C
330
277D
330
277E
330
277F
330
2780
330
2781
330
2782
330
2783
330
2784
330
2785
330
2786
330
2787
330
2788
330
2789
330
278A
330
278B
330
278C
330
278D
330
278E
330
278F
330
2790
330
2791
330
2792
330
2793
330
2794
330
2795
330
2796
330
2797
330
2798
330
2799
330
279A
330
279B
330
279C
330
279D
330
279E
330
279F
330
27A0
330
27A1
330
27A2
330
27A3
330
27A4
330
27A5
330
27A6
330
27A7
330
27A8
330
27A9
330
27AA
330
27AB
330
27AC
330
27AD
330
27AE
330
27AF
330
27B0
330
27B1
330
27B2
330
27B3
330
27B4
330
27B5
330
27B6
330
27B7
330
27B8
330
27B9
330
27BA
330
27BB
330
27BC
330
27BD
330
27BE
330
27BF
330
27C0
330
27C1
330
27C2
330
27C3
330
27C4
330
27C5
330
27C6
330
27C7
330
27C8
330
27C9
330
27CA
330
27CB
330
27CC
330
27CD
330
27CE
330
27CF
330
27D0
330
27D1
330
27D2
330
27D3
330
27D4
330
27D5
330
27D6
330
27D7
330
27D8
330
27D9
330
27DA
330
27DB
330
27DC
330
27DD
330
27DE
330
27DF
330
27E0
330
27E1
330
27E2
330
27E3
330
27E4
330
27E5
330
27E6
330
27E7
330
27E8
330
27E9
330
27EA
330
27EB
330
27EC
330
27ED
330
27EE
330
27EF
330
27F0
330
27F1
330
27F2
330
27F3
330
27F4
330
27F5
330
27F6
330
27F7
330
27F8
330
27F9
330
27FA
330
27FB
330
27FC
330
27FD
330
27FE
330
27FF
330
2800
330
2801
330
2802
330
2803
330
2804
330
2805
330
2806
330
2807
330
2808
330
2809
330
280A
330
280B
330
280C
330
280D
330
280E
330
280F
330
2810
330
2811
330
2812
330
2813
330
2814
330
2815
330
2816
330
2817
330
2818
330
2819
330
281A
330
281B
330
281C
330
281D
330
281E
330
281F
330
2820
330
2821
330
2822
330
2823
330
2824
330
2825
330
2826
330
2827
330
2828
330
2829
330
282A
330
282B
330
282C
330
282D
330
282E
330
282F
330
2830
330
2831
330
2832
330
2833
330
2834
330
2835
330
2836
330
2837
330
2838
330
2839
330
283A
330
283B
330
283C
330
283D
330
283E
330
283F
330
2840
330
2841
330
2842
330
2843
330
2844
330
2845
330
2846
330
2847
330
2848
330
2849
330
284A
330
284B
330
284C
330
284D
330
284E
330
284F
330
2850
330
2851
330
2852
330
2853
330
2854
330
2855
330
2856
330
2857
330
2858
330
2859
330
285A
330
285B
330
285C
330
285D
330
285E
330
285F
330
2860
330
2861
330
2862
330
2863
330
2864
330
2865
330
2866
330
2867
330
2868
330
2869
330
286A
330
286B
330
286C
330
286D
330
286E
330
286F
330
2870
330
2871
330
2872
330
2873
330
2874
330
2875
330
2876
330
2877
330
2878
330
2879
330
287A
330
287B
330
287C
330
287D
330
287E
330
287F
330
2880
330
2881
330
2882
330
2883
330
2884
330
2885
330
2886
330
2887
330
2888
330
2889
330
288A
330
288B
330
288C
330
288D
330
288E
330
288F
330
2890
330
2891
330
2892
330
2893
330
2894
330
2895
330
2896
330
2897
330
2898
330
2899
330
289A
330
289B
330
289C
330
289D
330
289E
330
289F
330
28A0
330
28A1
330
28A2
330
28A3
330
28A4
330
28A5
330
28A6
330
28A7
330
28A8
330
28A9
330
28AA
330
28AB
330
28AC
330
28AD
330
28AE
330
28AF
330
28B0
330
28B1
330
28B2
330
28B3
330
28B4
330
28B5
330
28B6
330
28B7
330
28B8
330
28B9
330
28BA
330
28BB
330
28BC
330
28BD
330
28BE
330
28BF
330
28C0
330
28C1
330
28C2
330
28C3
330
28C4
330
28C5
330
28C6
330
28C7
330
28C8
330
28C9
330
28CA
330
28CB
330
28CC
330
28CD
330
28CE
330
28CF
330
28D0
330
28D1
330
28D2
330
28D3
330
28D4
330
28D5
330
28D6
330
28D7
330
28D8
330
28D9
330
28DA
330
28DB
330
28DC
330
28DD
330
28DE
330
28DF
330
28E0
330
28E1
330
28E2
330
28E3
330
28E4
330
28E5
330
28E6
330
28E7
330
28E8
330
28E9
330
28EA
330
28EB
330
28EC
330
28ED
330
28EE
330
28EF
330
28F0
330
28F1
330
28F2
330
28F3
330
28F4
330
28F5
330
28F6
330
28F7
330
28F8
330
28F9
330
28FA
330
28FB
330
28FC
330
28FD
330
28FE
330
28FF
330
2900
330
2901
330
2902
330
2903
330
2904
330
2905
330
2906
330
2907
330
2908
330
2909
330
290A
330
290B
330
290C
330
290D
330
290E
330
290F
330
2910
330
2911
330
2912
330
2913
330
2914
330
2915
330
2916
330
2917
330
2918
330
2919
330
291A
330
291B
330
291C
330
291D
330
291E
330
291F
330
2920
330
2921
330
2922
330
2923
330
2924
330
2925
330
2926
330
2927
330
2928
330
2929
330
292A
330
292B
330
292C
330
292D
330
292E
330
292F
330
2930
330
2931
330
2932
330
2933
330
2934
330
2935
330
2936
330
2937
330
2938
330
2939
330
293A
330
293B
330
293C
330
293D
330
293E
330
293F
330
2940
330
2941
330
2942
330
2943
330
2944
330
2945
330
2946
330
2947
330
2948
330
2949
330
294A
330
294B
330
294C
330
294D
330
294E
330
294F
330
2950
330
2951
330
2952
330
2953
330
2954
330
30CF
330
30D0
330
30D3
330
30D4
330
30D5
  0
IDBUFFER
  5
3576
330
0
100
AcDbIdBuffer
330
31
330
43
330
52
330
5F
330
6C
330
79
330
86
330
95
330
A3
330
B0
  0
IDBUFFER
  5
3577
330
0
100
AcDbIdBuffer
330
C8
330
26C9
330
26CA
330
26CB
330
26CC
330
26CD
330
26CE
330
26CF
330
26D0
330
26D1
330
26D2
330
26D3
330
26D4
330
26D5
330
26D6
330
26D7
330
26D8
330
26D9
330
26DA
330
26DB
330
26DC
330
26DD
330
26DE
330
26E0
330
26E1
330
26E8
330
26EA
330
26EB
330
26F0
330
26F3
330
26F4
330
26F5
330
26F6
330
26F7
330
26F8
330
26F9
330
26FA
330
26FB
330
26FC
330
26FD
330
26FE
330
26FF
330
2700
330
2701
330
2702
330
2703
330
2704
330
2705
330
2706
330
2707
330
2708
330
2709
330
270A
330
270B
330
270C
330
270D
330
270E
330
270F
330
2710
330
2711
330
2712
330
2713
330
2714
330
2715
330
2716
330
2717
330
2718
330
2719
330
271A
330
271B
330
271C
330
271D
330
271E
330
271F
330
2720
330
2721
330
2722
330
2723
330
2724
330
2725
330
2726
330
2727
330
2728
330
2729
330
272A
330
272B
330
272C
330
272D
330
272E
330
272F
330
2730
330
2731
330
2732
330
2733
330
2734
330
2735
330
2736
  0
IDBUFFER
  5
3578
330
0
100
AcDbIdBuffer
330
13E2
330
13E5
330
13E6
330
13E7
330
13E8
330
14D1
330
14D2
330
14D3
330
14D4
330
14D5
330
14DF
330
14E0
330
14E1
330
14E2
330
14E3
330
14EB
330
14EC
330
14F4
330
14F5
330
14F6
330
14F7
330
14F8
330
14F9
330
14FA
330
14FB
330
14FC
330
1509
330
150A
330
150B
330
150C
330
150D
330
1533
330
1534
330
1535
330
1536
330
1537
330
1538
330
1539
330
153A
330
153B
330
153C
330
153D
330
153E
330
153F
330
1540
330
1547
330
1548
330
1549
330
154A
330
154B
330
154C
330
154D
330
154E
330
154F
330
1550
330
1553
330
15C0
330
15C1
330
15C2
330
15C4
330
15C5
330
15C6
330
15C7
330
15C8
330
15C9
330
15CA
330
15CB
330
15CD
330
15CE
330
15CF
330
15D0
330
15D1
330
15D2
330
15D3
330
15D4
330
15F8
330
15F9
330
15FA
330
15FB
330
15FC
330
15FD
330
15FE
330
15FF
330
1602
330
2138
330
2B59
330
2B5A
330
2B5B
330
2B5C
330
2B5D
330
2B5E
330
2B5F
330
2B60
330
2B61
330
2B62
330
2B63
330
2B64
330
2B65
330
2B66
330
2B67
330
2B68
330
2B69
330
2B6A
330
2B6B
330
2B6C
330
2B6D
330
2B6E
330
2B6F
330
2B70
330
2B71
330
2B72
330
2B76
330
2B7A
330
2B7B
330
2B7F
330
2B80
330
2B81
330
2B82
330
2B83
330
2B84
330
2B85
330
2B86
330
2B8A
330
2B8E
330
2B92
330
2B93
330
2B94
330
2B98
330
2B99
330
2B9A
330
2B9B
330
2B9C
330
2B9D
330
2B9E
330
2B9F
330
2BA0
330
2BA1
330
2BA2
330
2BA3
330
2BE2
330
2BE3
330
2BE4
330
2BE5
330
2BE6
330
2BE7
330
2BE8
330
2BE9
330
2BEA
330
2BEB
330
2BEC
330
2BED
  0
IDBUFFER
  5
3579
330
0
100
AcDbIdBuffer
330
26C8
330
26E2
330
26E3
330
26E4
330
26E5
330
26E6
330
2737
330
2738
330
273A
330
273B
330
273D
330
273E
330
273F
330
2740
330
2D2E
330
2FBD
330
3283
  0
XRECORD
  5
3600
102
{ACAD_REACTORS
330
35FF
102
}
330
35FF
100
AcDbXrecord
280
     1
102
SHADEPLOT
 70
     0
102
SHADEPLOTRESLEVEL
 70
     2
102
SHADEPLOTCUSTOMDPI
 70
   300
  0
XRECORD
  5
35FE
102
{ACAD_REACTORS
330
35FD
102
}
330
35FD
100
AcDbXrecord
280
     1
102
SHADEPLOT
 70
     0
102
SHADEPLOTRESLEVEL
 70
     2
102
SHADEPLOTCUSTOMDPI
 70
   300
  0
ENDSEC
  0
EOF
