  0
SECTION
  2
HEADER
  9
$ACADVER
  1
AC1015
  9
$ACADMAINTVER
 70
    20
  9
$DWGCODEPAGE
  3
ANSI_950
  9
$INSBASE
 10
0.0
 20
0.0
 30
0.0
  9
$EXTMIN
 10
209.711610108744
 20
185.8326114204864
 30
-0.0041325134987176
  9
$EXTMAX
 10
411.6815195228923
 20
332.7349575357871
 30
96.24883442660646
  9
$LIMMIN
 10
0.0
 20
0.0
  9
$LIMMAX
 10
420.0
 20
297.0
  9
$ORTHOMODE
 70
     0
  9
$REGENMODE
 70
     1
  9
$FILLMODE
 70
     1
  9
$QTEXTMODE
 70
     0
  9
$MIRRTEXT
 70
     1
  9
$LTSCALE
 40
1.0
  9
$ATTMODE
 70
     1
  9
$TEXTSIZE
 40
3.0
  9
$TRACEWID
 40
1.0
  9
$TEXTSTYLE
  7
STANDARD
  9
$CLAYER
  8
0
  9
$CELTYPE
  6
ByLayer
  9
$CECOLOR
 62
   256
  9
$CELTSCALE
 40
1.0
  9
$DISPSILH
 70
     0
  9
$DIMSCALE
 40
1.0
  9
$DIMASZ
 40
3.0
  9
$DIMEXO
 40
1.0
  9
$DIMDLI
 40
8.0
  9
$DIMRND
 40
0.0
  9
$DIMDLE
 40
0.0
  9
$DIMEXE
 40
1.5
  9
$DIMTP
 40
0.1
  9
$DIMTM
 40
0.1
  9
$DIMTXT
 40
3.5
  9
$DIMCEN
 40
0.0
  9
$DIMTSZ
 40
0.0
  9
$DIMTOL
 70
     0
  9
$DIMLIM
 70
     0
  9
$DIMTIH
 70
     0
  9
$DIMTOH
 70
     0
  9
$DIMSE1
 70
     0
  9
$DIMSE2
 70
     0
  9
$DIMTAD
 70
     1
  9
$DIMZIN
 70
     8
  9
$DIMBLK
  1

  9
$DIMASO
 70
     1
  9
$DIMSHO
 70
     1
  9
$DIMPOST
  1

  9
$DIMAPOST
  1
"
  9
$DIMALT
 70
     0
  9
$DIMALTD
 70
     2
  9
$DIMALTF
 40
0.0393701
  9
$DIMLFAC
 40
1.0
  9
$DIMTOFL
 70
     1
  9
$DIMTVP
 40
0.0
  9
$DIMTIX
 70
     0
  9
$DIMSOXD
 70
     0
  9
$DIMSAH
 70
     0
  9
$DIMBLK1
  1

  9
$DIMBLK2
  1

  9
$DIMSTYLE
  2
AM_ISO
  9
$DIMCLRD
 70
   256
  9
$DIMCLRE
 70
   256
  9
$DIMCLRT
 70
   256
  9
$DIMTFAC
 40
0.6
  9
$DIMGAP
 40
0.7
  9
$DIMJUST
 70
     0
  9
$DIMSD1
 70
     0
  9
$DIMSD2
 70
     0
  9
$DIMTOLJ
 70
     0
  9
$DIMTZIN
 70
     8
  9
$DIMALTZ
 70
     0
  9
$DIMALTTZ
 70
     0
  9
$DIMUPT
 70
     0
  9
$DIMDEC
 70
     2
  9
$DIMTDEC
 70
     8
  9
$DIMALTU
 70
     2
  9
$DIMALTTD
 70
     2
  9
$DIMTXSTY
  7
STANDARD
  9
$DIMAUNIT
 70
     0
  9
$DIMADEC
 70
     0
  9
$DIMALTRND
 40
0.0
  9
$DIMAZIN
 70
     2
  9
$DIMDSEP
 70
    46
  9
$DIMATFIT
 70
     3
  9
$DIMFRAC
 70
     0
  9
$DIMLDRBLK
  1

  9
$DIMLUNIT
 70
     2
  9
$DIMLWD
 70
    -1
  9
$DIMLWE
 70
    -1
  9
$DIMTMOVE
 70
     0
  9
$LUNITS
 70
     2
  9
$LUPREC
 70
     2
  9
$SKETCHINC
 40
1.0
  9
$FILLETRAD
 40
2.5
  9
$AUNITS
 70
     0
  9
$AUPREC
 70
     0
  9
$MENU
  1
.
  9
$ELEVATION
 40
0.0
  9
$PELEVATION
 40
0.0
  9
$THICKNESS
 40
0.0
  9
$LIMCHECK
 70
     0
  9
$CHAMFERA
 40
2.5
  9
$CHAMFERB
 40
2.5
  9
$CHAMFERC
 40
20.0
  9
$CHAMFERD
 40
0.0
  9
$SKPOLY
 70
     0
  9
$TDCREATE
 40
2454013.612854456
  9
$TDUCREATE
 40
2454013.279521123
  9
$TDUPDATE
 40
2454658.585436737
  9
$TDUUPDATE
 40
2454658.252103403
  9
$TDINDWG
 40
0.1002406019
  9
$TDUSRTIMER
 40
0.1002406019
  9
$USRTIMER
 70
     1
  9
$ANGBASE
 50
0.0
  9
$ANGDIR
 70
     0
  9
$PDMODE
 70
     0
  9
$PDSIZE
 40
0.0
  9
$PLINEWID
 40
0.0
  9
$SPLFRAME
 70
     0
  9
$SPLINETYPE
 70
     6
  9
$SPLINESEGS
 70
     8
  9
$HANDSEED
  5
19EC
  9
$SURFTAB1
 70
     6
  9
$SURFTAB2
 70
     6
  9
$SURFTYPE
 70
     6
  9
$SURFU
 70
     6
  9
$SURFV
 70
     6
  9
$UCSBASE
  2

  9
$UCSNAME
  2

  9
$UCSORG
 10
0.0
 20
0.0
 30
0.0
  9
$UCSXDIR
 10
1.0
 20
0.0
 30
0.0
  9
$UCSYDIR
 10
0.0
 20
1.0
 30
0.0
  9
$UCSORTHOREF
  2

  9
$UCSORTHOVIEW
 70
     0
  9
$UCSORGTOP
 10
0.0
 20
0.0
 30
0.0
  9
$UCSORGBOTTOM
 10
0.0
 20
0.0
 30
0.0
  9
$UCSORGLEFT
 10
0.0
 20
0.0
 30
0.0
  9
$UCSORGRIGHT
 10
0.0
 20
0.0
 30
0.0
  9
$UCSORGFRONT
 10
0.0
 20
0.0
 30
0.0
  9
$UCSORGBACK
 10
0.0
 20
0.0
 30
0.0
  9
$PUCSBASE
  2

  9
$PUCSNAME
  2

  9
$PUCSORG
 10
0.0
 20
0.0
 30
0.0
  9
$PUCSXDIR
 10
1.0
 20
0.0
 30
0.0
  9
$PUCSYDIR
 10
0.0
 20
1.0
 30
0.0
  9
$PUCSORTHOREF
  2

  9
$PUCSORTHOVIEW
 70
     0
  9
$PUCSORGTOP
 10
0.0
 20
0.0
 30
0.0
  9
$PUCSORGBOTTOM
 10
0.0
 20
0.0
 30
0.0
  9
$PUCSORGLEFT
 10
0.0
 20
0.0
 30
0.0
  9
$PUCSORGRIGHT
 10
0.0
 20
0.0
 30
0.0
  9
$PUCSORGFRONT
 10
0.0
 20
0.0
 30
0.0
  9
$PUCSORGBACK
 10
0.0
 20
0.0
 30
0.0
  9
$USERI1
 70
     0
  9
$USERI2
 70
     0
  9
$USERI3
 70
     0
  9
$USERI4
 70
     0
  9
$USERI5
 70
     0
  9
$USERR1
 40
0.0
  9
$USERR2
 40
0.0
  9
$USERR3
 40
0.0
  9
$USERR4
 40
0.0
  9
$USERR5
 40
0.0
  9
$WORLDVIEW
 70
     1
  9
$SHADEDGE
 70
     3
  9
$SHADEDIF
 70
    70
  9
$TILEMODE
 70
     1
  9
$MAXACTVP
 70
    64
  9
$PINSBASE
 10
0.0
 20
0.0
 30
0.0
  9
$PLIMCHECK
 70
     0
  9
$PEXTMIN
 10
1.000000000000000E+20
 20
1.000000000000000E+20
 30
1.000000000000000E+20
  9
$PEXTMAX
 10
-1.000000000000000E+20
 20
-1.000000000000000E+20
 30
-1.000000000000000E+20
  9
$PLIMMIN
 10
0.0
 20
0.0
  9
$PLIMMAX
 10
420.0
 20
297.0
  9
$UNITMODE
 70
     0
  9
$VISRETAIN
 70
     1
  9
$PLINEGEN
 70
     0
  9
$PSLTSCALE
 70
     1
  9
$TREEDEPTH
 70
  3020
  9
$CMLSTYLE
  2
Standard
  9
$CMLJUST
 70
     0
  9
$CMLSCALE
 40
20.0
  9
$PROXYGRAPHICS
 70
     1
  9
$MEASUREMENT
 70
     1
  9
$CELWEIGHT
370
    -1
  9
$ENDCAPS
280
     0
  9
$JOINSTYLE
280
     0
  9
$LWDISPLAY
290
     0
  9
$INSUNITS
 70
     4
  9
$HYPERLINKBASE
  1

  9
$STYLESHEET
  1
單色出圖.ctb
  9
$XEDIT
290
     1
  9
$CEPSNTYPE
380
     0
  9
$PSTYLEMODE
290
     1
  9
$FINGERPRINTGUID
  2
{25AFC6F0-9DA1-4431-A483-4DF0D038E6B1}
  9
$VERSIONGUID
  2
{E3D3B418-ACD6-4701-9091-83BCBD0DF53C}
  9
$EXTNAMES
290
     1
  9
$PSVPSCALE
 40
0.0
  9
$OLESTARTUP
290
     0
  0
ENDSEC
  0
SECTION
  2
CLASSES
  0
CLASS
  1
ACDBDICTIONARYWDFLT
  2
AcDbDictionaryWithDefault
  3
ObjectDBX Classes
 90
        0
280
     0
281
     0
  0
CLASS
  1
ACDBPLACEHOLDER
  2
AcDbPlaceHolder
  3
ObjectDBX Classes
 90
        0
280
     0
281
     0
  0
CLASS
  1
LAYOUT
  2
AcDbLayout
  3
ObjectDBX Classes
 90
        0
280
     0
281
     0
  0
CLASS
  1
ACME_DOCUMENT
  2
AcMeDbDoc
  3
AcMeServices
 90
        0
280
     0
281
     0
  0
CLASS
  1
AMGSETTINGSOBJ
  2
AmgSettingsObj
  3
"AcadM|Product Description: AutoCAD Mechanical 2000|Company: Autodesk"
 90
        0
280
     0
281
     0
  0
CLASS
  1
ACMESCOPE
  2
AcMeScope
  3
AcMeServices
 90
        0
280
     0
281
     0
  0
CLASS
  1
ACMECOMMANDHISTORY
  2
AcMeCommandHistory
  3
AcMeServices
 90
        0
280
     0
281
     0
  0
CLASS
  1
ACIMSYSVARMAN
  2
AcImSysVarManager
  3
AcMeServices
 90
        0
280
     0
281
     0
  0
CLASS
  1
ACIMREALSYSVAR
  2
AcImRealSysVar
  3
AcMeServices
 90
        0
280
     0
281
     0
  0
CLASS
  1
ACIMINTSYSVAR
  2
AcImIntSysVar
  3
AcMeServices
 90
        0
280
     0
281
     0
  0
CLASS
  1
ACMEDRAWINGMAN
  2
AcMeDrawingMan
  3
AcMeServices
 90
        0
280
     0
281
     0
  0
CLASS
  1
ACMEVIEW
  2
AcMeView
  3
AcMeServices
 90
        0
280
     0
281
     0
  0
CLASS
  1
ACDBENTITYCACHE
  2
AcMeEntityCache
  3
AcMeServices
 90
        0
280
     0
281
     0
  0
CLASS
  1
GSMANAGER
  2
AcMeGSManager
  3
AcMeServices
 90
        0
280
     0
281
     0
  0
CLASS
  1
AMDTINTERNALREACTOR
  2
AmdtInternalReactor
  3
AcMeServices
 90
        0
280
     0
281
     0
  0
CLASS
  1
ACMESTATEMGR
  2
AcMeStateMgr
  3
AcMeServices
 90
        0
280
     0
281
     0
  0
CLASS
  1
ACGREFMASTER
  2
AcGrefMaster
  3
AcAttribServices
 90
        0
280
     0
281
     0
  0
CLASS
  1
ACME_DATABASE
  2
AcMeDbDatabase
  3
AcMeServices
 90
        0
280
     0
281
     0
  0
CLASS
  1
ACRFINSADJUSTERMGR
  2
AcRfInsAdjusterMgr
  3
AcMeServices
 90
        0
280
     0
281
     0
  0
CLASS
  1
ACGREFACADMASTER
  2
AcGrefacadMaster
  3
AcGrefServices
 90
        0
280
     0
281
     0
  0
CLASS
  1
AMIMASTER
  2
AmiMaster
  3
AmiServices
 90
        0
280
     0
281
     0
  0
CLASS
  1
ACMDATADICTIONARY
  2
AcmDataDictionary
  3
"AcmSymBB|Product Description: AutoCAD Mechanical 2004 DX|Company: Autodesk"
 90
        0
280
     0
281
     0
  0
CLASS
  1
ACMDATAENTRYBLOCK
  2
AcmDataEntryBlock
  3
"AcmSymBB|Product Description: AutoCAD Mechanical 2004 DX|Company: Autodesk"
 90
    32768
280
     0
281
     0
  0
CLASS
  1
ACIMSTRSYSVAR
  2
AcImStrSysVar
  3
AcMeServices
 90
        0
280
     0
281
     0
  0
CLASS
  1
ACMSTANDARDISO
  2
AcmStandardISO
  3
"Amdt_StdImp|Product Description: AutoCAD Mechanical 2004 DX|Company: Autodesk"
 90
        0
280
     0
281
     0
  0
CLASS
  1
AMGOBJPROPCFG
  2
AmgObjPropCfg
  3
"AmgLay|Product Description: AutoCAD Mechanical 2000|Company: Autodesk"
 90
        1
280
     0
281
     0
  0
CLASS
  1
AMDTEDGESTANDARDISO
  2
AmdtEdgeStdISO
  3
"Amdt_StdImp|Product Description: AutoCAD Mechanical 2004 DX|Company: Autodesk"
 90
    32768
280
     0
281
     0
  0
CLASS
  1
ACMSURFSTANDARDISO
  2
AcmSurfTextStdISO
  3
"Amdt_StdImp|Product Description: AutoCAD Mechanical 2004 DX|Company: Autodesk"
 90
        0
280
     0
281
     0
  0
CLASS
  1
ACMFCFSTANDARDISO
  2
AcmFCFStdISO
  3
"Amdt_StdImp|Product Description: AutoCAD Mechanical 2004 DX|Company: Autodesk"
 90
        0
280
     0
281
     0
  0
CLASS
  1
ACMWELDSTANDARDISO
  2
AcmWeldingStdISO
  3
"Amdt_StdImp|Product Description: AutoCAD Mechanical 2004 DX|Company: Autodesk"
 90
        0
280
     0
281
     0
  0
CLASS
  1
ACMIDSTANDARDISO
  2
AcmIdStdISO
  3
"Amdt_StdImp|Product Description: AutoCAD Mechanical 2004 DX|Company: Autodesk"
 90
        0
280
     0
281
     0
  0
CLASS
  1
ACMDATUMSTANDARDISO
  2
AcmDatumStdISO
  3
"Amdt_StdImp|Product Description: AutoCAD Mechanical 2004 DX|Company: Autodesk"
 90
        0
280
     0
281
     0
  0
CLASS
  1
ACMBOMSTANDARDISO
  2
AcmBOMStdISO
  3
"Amdt_StdImp|Product Description: AutoCAD Mechanical 2004 DX|Company: Autodesk"
 90
        0
280
     0
281
     0
  0
CLASS
  1
ACMDETAILSTANDARDISO
  2
AmdtDetailSymStdISO
  3
"Amdt_StdImp|Product Description: AutoCAD Mechanical 2004 DX|Company: Autodesk"
 90
        0
280
     0
281
     0
  0
CLASS
  1
ACMSECTIONSTANDARDISO
  2
AmdtSectionSymStdISO
  3
"Amdt_StdImp|Product Description: AutoCAD Mechanical 2004 DX|Company: Autodesk"
 90
        0
280
     0
281
     0
  0
CLASS
  1
ACMCENTERLINESTANDARDISO
  2
AmdtCenterLineStdISO
  3
"Amdt_StdImp|Product Description: AutoCAD Mechanical 2004 DX|Company: Autodesk"
 90
        0
280
     0
281
     0
  0
CLASS
  1
ACMNOTESTANDARDISO
  2
AmdtNoteStdISO
  3
"Amdt_StdImp|Product Description: AutoCAD Mechanical 2004 DX|Company: Autodesk"
 90
        0
280
     0
281
     0
  0
CLASS
  1
ACAMGLAYSTD
  2
AcAmgLayStd
  3
"AcAmgLayStd|Product Description: AutoCAD Mechanical 2000|Company: Autodesk"
 90
        0
280
     0
281
     0
  0
CLASS
  1
ACAMGDIMSTD
  2
AcAmgDimStd
  3
"AcAmgDimStd|Product Description: AutoCAD Mechanical 2000|Company: Autodesk"
 90
        0
280
     0
281
     0
  0
CLASS
  1
ACAMGHOLECHARTSTDISO
  2
AcAmgHoleChartStdISO
  3
ACMSYMBB_MODULE_NAME
 90
        0
280
     0
281
     0
  0
CLASS
  1
ACAMGTITLESTD
  2
AcAmgTitleStd
  3
"TITLEAPP"
 90
        0
280
     0
281
     0
  0
CLASS
  1
LAYER_INDEX
  2
AcDbLayerIndex
  3
ObjectDBX Classes
 90
    32768
280
     0
281
     0
  0
CLASS
  1
IDBUFFER
  2
AcDbIdBuffer
  3
ObjectDBX Classes
 90
    32768
280
     0
281
     0
  0
CLASS
  1
DICTIONARYVAR
  2
AcDbDictionaryVar
  3
ObjectDBX Classes
 90
        0
280
     0
281
     0
  0
CLASS
  1
AM_DRAWING_MGR
  2
AcDmDwgMgr
  3
AcMechDwgViewMgmt
 90
        0
280
     0
281
     0
  0
CLASS
  1
AM_DWG_DOCUMENT
  2
AcDmDwgDocument
  3
AcMechDwgViewMgmt
 90
        0
280
     0
281
     0
  0
CLASS
  1
AM_DWG_SHEET
  2
AcDmSheet
  3
AcMechDwgViewMgmt
 90
        0
280
     0
281
     0
  0
CLASS
  1
AM_VIEWDIMPARMAP
  2
AcDmViewDimParMap
  3
AcMechDwgViewMgmt
 90
        0
280
     0
281
     0
  0
CLASS
  1
AM_DWGMGR_NAME
  2
AcDmDwgMgrName
  3
AcMechDwgViewMgmt
 90
        0
280
     0
281
     0
  0
CLASS
  1
AMDTMENUSTATEMGR
  2
AmdtMenuStateMgr
  3
McadcomServices
 90
        0
280
     0
281
     0
  0
CLASS
  1
AMDTMCOMMENUSTATE
  2
AmdtMcomMenuState
  3
McadcomServices
 90
        0
280
     0
281
     0
  0
CLASS
  1
MAPIAMMOUDLE
  2
MApiAmModule
  3
MApiAmServices
 90
        0
280
     0
281
     0
  0
CLASS
  1
AMDTADMENUSTATE
  2
AmdtAdMenuState
  3
DesignerServices
 90
        0
280
     0
281
     0
  0
CLASS
  1
ADAPPL
  2
AcAdAppl
  3
DesignerServices
 90
        0
280
     0
281
     0
  0
CLASS
  1
DEPMGR
  2
AcAdDepMgr
  3
DesignerServices
 90
        0
280
     0
281
     0
  0
CLASS
  1
PARAMMGR
  2
AcAdParamMgr
  3
DesignerServices
 90
        0
280
     0
281
     0
  0
CLASS
  1
PARAMSCOPE
  2
AcAdParamScope
  3
DesignerServices
 90
        0
280
     0
281
     0
  0
CLASS
  1
NAMEDAPPL
  2
AcAdNamedAppl
  3
DesignerServices
 90
        0
280
     0
281
     0
  0
CLASS
  1
AMDTDMMENUSTATE
  2
AmdtDmMenuState
  3
AcMechDwgViewMgmt
 90
        0
280
     0
281
     0
  0
CLASS
  1
AMDTAMMENUSTATE
  2
AmdtAmMenuState
  3
DesignerAssemblies
 90
        0
280
     0
281
     0
  0
CLASS
  1
ACAMPROJECT
  2
AcAmProject
  3
DesignerAssemblies
 90
        0
280
     0
281
     0
  0
CLASS
  1
ACAMGRCOMPDEF
  2
AcAmGrCompDef
  3
DesignerAssemblies
 90
        0
280
     0
281
     0
  0
CLASS
  1
ACCMCONTEXT
  2
AcCmContext
  3
DesignerAssemblies
 90
        0
280
     0
281
     0
  0
CLASS
  1
ACAMCOMPDEF
  2
AcAmCompDef
  3
DesignerAssemblies
 90
        0
280
     0
281
     0
  0
CLASS
  1
ACAMCOMPDEFMGR
  2
AcAmCompDefMgr
  3
DesignerAssemblies
 90
        0
280
     0
281
     0
  0
CLASS
  1
AMCONTEXTMGR
  2
AcAmContextMgr
  3
DesignerAssemblies
 90
        0
280
     0
281
     0
  0
CLASS
  1
ACAMCONTEXTMODELER
  2
AcAmContextModeler
  3
DesignerAssemblies
 90
        0
280
     0
281
     0
  0
CLASS
  1
ACMTHREADLINESTANDARDISO
  2
AmdtThreadLineStdISO
  3
"Amdt_StdImp|Product Description: AutoCAD Mechanical 2004 DX|Company: Autodesk"
 90
        0
280
     0
281
     0
  0
CLASS
  1
CATALOGSTATE
  2
AcAmCatalogState
  3
DesignerAssemblies
 90
        0
280
     0
281
     0
  0
CLASS
  1
ACAMGRCOMPDEFSET
  2
AcAmGrCompDefSet
  3
DesignerAssemblies
 90
        0
280
     0
281
     0
  0
CLASS
  1
AMDTBROWSERDBTAB
  2
AmdtBrowserDbTab
  3
McadcomServices
 90
        0
280
     0
281
     0
  0
CLASS
  1
CBROWSERAPPOBJECT
  2
CBrowserAppObject
  3
McadcomServices
 90
        0
280
     0
281
     0
  0
CLASS
  1
DM_PLACEHOLDER
  2
AcDmSelsetPlaceholder
  3
AcMechDwgViewMgmt
 90
        0
280
     0
281
     0
  0
CLASS
  1
TABLESTYLE
  2
AcDbTableStyle
  3
ObjectDBX Classes
 90
     2047
280
     0
281
     0
  0
CLASS
  1
VAACXREFPANELOBJECT
  2
VaAcXREFPanelObject
  3
VAAC_ADDIN
 90
    32768
280
     0
281
     0
  0
CLASS
  1
VAACIMAGEINVENTORY
  2
VaAcImageInventory
  3
VAAC_ADDIN
 90
    32768
280
     0
281
     0
  0
CLASS
  1
AMDTNOTETEMPLATEDB
  2
AmdtNoteTemplateDB
  3
AMDT_STDIMP_MODULE_NAME
 90
        0
280
     0
281
     0
  0
CLASS
  1
ACMBOM
  2
AcmBom
  3
"AcmSymBB|Product Description: AutoCAD Mechanical 2004 DX|Company: Autodesk"
 90
    32768
280
     0
281
     0
  0
CLASS
  1
AMDTFORMULAUPDATEDISPATCHER
  2
AmdtFormulaUpdateDispatcher
  3
AcMeServices
 90
    32768
280
     0
281
     0
  0
CLASS
  1
ACMPARTLIST
  2
AcmPartList
  3
"AcmSymBB|Product Description: AutoCAD Mechanical 2004 DX|Company: Autodesk"
 90
    33791
280
     0
281
     1
  0
CLASS
  1
ACAMGFILTERDAT
  2
AcAmgFilterDat
  3
"AcadM|Product Description: AutoCAD Mechanical 2000|Company: Autodesk"
 90
    32768
280
     0
281
     0
  0
CLASS
  1
DIMASSOC
  2
AcDbDimAssoc
  3
"AcDbDimAssoc|Product Desc:     AcDim ARX App For Dimension|Company:          Autodesk, Inc.|WEB Address:      www.autodesk.com"
 90
        0
280
     0
281
     0
  0
CLASS
  1
SORTENTSTABLE
  2
AcDbSortentsTable
  3
ObjectDBX Classes
 90
        0
280
     0
281
     0
  0
CLASS
  1
AMDTNOTE
  2
AmdtNote
  3
"AcmSymBB|Product Description: AutoCAD Mechanical 2004 DX|Company: Autodesk"
 90
    33791
280
     0
281
     1
  0
CLASS
  1
AMDTEDGESTANDARDISO13715
  2
AmdtEdgeStdISO13715
  3
"Amdt_StdImp|Product Description: AutoCAD Mechanical 2004 DX|Company: Autodesk"
 90
        0
280
     0
281
     0
  0
CLASS
  1
ACRFATTGENMGR
  2
AcRfAttGeneralMgr
  3
AcAttribServices
 90
    32768
280
     0
281
     0
  0
ENDSEC
  0
SECTION
  2
TABLES
  0
TABLE
  2
VPORT
  5
8
330
0
100
AcDbSymbolTable
 70
     3
  0
VPORT
  5
19E3
330
8
100
AcDbSymbolTableRecord
100
AcDbViewportTableRecord
  2
*Active
 70
     0
 10
0.0
 20
0.0
 11
1.0
 21
1.0
 12
310.6965648158182
 22
259.2837844781367
 13
0.0
 23
0.0
 14
2.5
 24
2.5
 15
10.0
 25
10.0
 16
0.0
 26
0.0
 36
1.0
 17
0.0
 27
0.0
 37
0.0
 40
217.7575675767182
 41
0.9354838709677418
 42
50.0
 43
0.0
 44
0.0
 50
0.0
 51
0.0
 71
     0
 72
   100
 73
     1
 74
     3
 75
     0
 76
     0
 77
     0
 78
     0
281
     0
 65
     1
110
0.0
120
0.0
130
0.0
111
1.0
121
0.0
131
0.0
112
0.0
122
1.0
132
0.0
 79
     0
146
0.0
  0
ENDTAB
  0
TABLE
  2
LTYPE
  5
5
330
0
100
AcDbSymbolTable
 70
    14
  0
LTYPE
  5
14
330
5
100
AcDbSymbolTableRecord
100
AcDbLinetypeTableRecord
  2
ByBlock
 70
     0
  3

 72
    65
 73
     0
 40
0.0
  0
LTYPE
  5
15
330
5
100
AcDbSymbolTableRecord
100
AcDbLinetypeTableRecord
  2
ByLayer
 70
     0
  3

 72
    65
 73
     0
 40
0.0
  0
LTYPE
  5
16
330
5
100
AcDbSymbolTableRecord
100
AcDbLinetypeTableRecord
  2
Continuous
 70
     0
  3
Solid line
 72
    65
 73
     0
 40
0.0
  0
LTYPE
  5
64
330
5
100
AcDbSymbolTableRecord
100
AcDbLinetypeTableRecord
  2
AM_ISO02W050
 70
     0
  3
__ __ __ __ __ __ __ __ __ __ __ __ __ __ __
 72
    65
 73
     2
 40
7.5
 49
6.0
 74
     0
 49
-1.5
 74
     0
  0
LTYPE
  5
65
330
5
100
AcDbSymbolTableRecord
100
AcDbLinetypeTableRecord
  2
AM_ISO08W050
 70
     0
  3
____ . ____ . ____ . ____ . ____ . ____ . ____
 72
    65
 73
     4
 40
18.0
 49
12.0
 74
     0
 49
-1.5
 74
     0
 49
3.0
 74
     0
 49
-1.5
 74
     0
  0
LTYPE
  5
66
330
5
100
AcDbSymbolTableRecord
100
AcDbLinetypeTableRecord
  2
AM_ISO09W050
 70
     0
  3
_____ . . _____ . . _____ . . ____ .. ____
 72
    65
 73
     6
 40
22.5
 49
12.0
 74
     0
 49
-1.5
 74
     0
 49
3.0
 74
     0
 49
-1.5
 74
     0
 49
3.0
 74
     0
 49
-1.5
 74
     0
  0
LTYPE
  5
67
330
5
100
AcDbSymbolTableRecord
100
AcDbLinetypeTableRecord
  2
Amconstr
 70
     0
  3
_______________________
 72
    65
 73
     2
 40
9999.0
 49
9999.0
 74
     0
 49
0.0
 74
     0
  0
LTYPE
  5
68
330
5
100
AcDbSymbolTableRecord
100
AcDbLinetypeTableRecord
  2
AM_ISO08W050x2
 70
     0
  3
__ . __ . __ . __ . __ . __
 72
    65
 73
     4
 40
9.0
 49
6.0
 74
     0
 49
-0.75
 74
     0
 49
1.5
 74
     0
 49
-0.75
 74
     0
  0
LTYPE
  5
69
330
5
100
AcDbSymbolTableRecord
100
AcDbLinetypeTableRecord
  2
AM_ISO02W050x2
 70
     0
  3
 _ _ _ _ _ _ _ _ _ _ _ _
 72
    65
 73
     2
 40
3.75
 49
3.0
 74
     0
 49
-0.75
 74
     0
  0
LTYPE
  5
6C
330
5
100
AcDbSymbolTableRecord
100
AcDbLinetypeTableRecord
  2
Amzigzag
 70
     0
  3
/\/-/\/-/\/-/\/-/\/-/\/
 72
    65
 73
     2
 40
11.0001
 49
0.0001
 74
     4
 75
   135
340
6B
 46
0.04
 50
0.0
 44
0.0
 45
0.0
 49
-11.0
 74
     0
  0
LTYPE
  5
7A
330
5
100
AcDbSymbolTableRecord
100
AcDbLinetypeTableRecord
  2
ACISOWELD
 70
     0
  3
_ _ _ _ _
 72
    65
 73
     2
 40
2.0
 49
2.0
 74
     0
 49
-1.0
 74
     0
  0
LTYPE
  5
7B
330
5
100
AcDbSymbolTableRecord
100
AcDbLinetypeTableRecord
  2
ACISOTGB
 70
     0
  3
__ . . __ . .
 72
    65
 73
     6
 40
9.0
 49
4.0
 74
     0
 49
-1.0
 74
     0
 49
1.0
 74
     0
 49
-1.0
 74
     0
 49
1.0
 74
     0
 49
-1.0
 74
     0
  0
LTYPE
  5
7C
330
5
100
AcDbSymbolTableRecord
100
AcDbLinetypeTableRecord
  2
ACISOTGL
 70
     0
  3
_ _ _ _ _
 72
    65
 73
     2
 40
3.0
 49
2.0
 74
     0
 49
-1.0
 74
     0
  0
LTYPE
  5
7E
330
5
100
AcDbSymbolTableRecord
100
AcDbLinetypeTableRecord
  2
CENTER
 70
     0
  3
__ . __
 72
    65
 73
     4
 40
7.0
 49
4.0
 74
     0
 49
-1.0
 74
     0
 49
1.0
 74
     0
 49
-1.0
 74
     0
  0
LTYPE
  5
D8
330
5
100
AcDbSymbolTableRecord
100
AcDbLinetypeTableRecord
  2
HIDDEN
 70
     0
  3
Hidden __ __ __ __ __ __ __ __ __ __ __ __ __ _
 72
    65
 73
     2
 40
9.524999999999998
 49
6.349999999999999
 74
     0
 49
-3.174999999999999
 74
     0
  0
LTYPE
  5
D9
330
5
100
AcDbSymbolTableRecord
100
AcDbLinetypeTableRecord
  2
PHANTOM2
 70
     0
  3
Phantom (.5x) ___ _ _ ___ _ _ ___ _ _ ___ _ _
 72
    65
 73
     6
 40
31.75
 49
15.875
 74
     0
 49
-3.174999999999999
 74
     0
 49
3.174999999999999
 74
     0
 49
-3.174999999999999
 74
     0
 49
3.174999999999999
 74
     0
 49
-3.174999999999999
 74
     0
  0
ENDTAB
  0
TABLE
  2
LAYER
  5
2
102
{ACAD_XDICTIONARY
360
3F9
102
}
330
0
100
AcDbSymbolTable
 70
     9
  0
LAYER
  5
10
330
2
100
AcDbSymbolTableRecord
100
AcDbLayerTableRecord
  2
0
 70
     0
 62
     7
  6
Continuous
370
    -3
390
F
  0
LAYER
  5
AB7
330
2
100
AcDbSymbolTableRecord
100
AcDbLayerTableRecord
  2
AM_5
 70
     0
 62
     5
  6
Continuous
370
    50
390
F
  0
LAYER
  5
AB8
330
2
100
AcDbSymbolTableRecord
100
AcDbLayerTableRecord
  2
Defpoints
 70
     0
 62
     7
  6
Continuous
290
     0
370
    -3
390
F
  0
LAYER
  5
AB9
330
2
100
AcDbSymbolTableRecord
100
AcDbLayerTableRecord
  2
LOGO
 70
     0
 62
     7
  6
Continuous
370
    -3
390
F
  0
LAYER
  5
ABA
330
2
100
AcDbSymbolTableRecord
100
AcDbLayerTableRecord
  2
AM_VIS
 70
     0
 62
     7
  6
Continuous
370
    50
390
F
  0
LAYER
  5
ABB
330
2
100
AcDbSymbolTableRecord
100
AcDbLayerTableRecord
  2
AM_7
 70
     0
 62
     1
  6
CENTER
370
    25
390
F
  0
LAYER
  5
ABC
330
2
100
AcDbSymbolTableRecord
100
AcDbLayerTableRecord
  2
AM_4
 70
     0
 62
     3
  6
Continuous
370
    25
390
F
  0
LAYER
  5
EF2
330
2
100
AcDbSymbolTableRecord
100
AcDbLayerTableRecord
  2
SL
 70
     0
 62
     4
  6
Continuous
370
    -3
390
F
1001
AcAecLayerStandard
1000

1000

  0
LAYER
  5
10CD
330
2
100
AcDbSymbolTableRecord
100
AcDbLayerTableRecord
  2
AM_REFDIM
 70
     0
 62
     5
  6
Continuous
370
    25
390
F
  0
ENDTAB
  0
TABLE
  2
STYLE
  5
3
330
0
100
AcDbSymbolTable
 70
     7
  0
STYLE
  5
11
330
3
100
AcDbSymbolTableRecord
100
AcDbTextStyleTableRecord
  2
STANDARD
 70
     0
 40
0.0
 41
1.0
 50
0.0
 71
     0
 42
3.0
  3
ISOCP.SHX
  4
CHINESET.SHX
  0
STYLE
  5
6B
330
3
100
AcDbSymbolTableRecord
100
AcDbTextStyleTableRecord
  2

 70
     1
 40
0.0
 41
1.0
 50
0.0
 71
     0
 42
2.5
  3
ltypeshp.shx
  4

  0
STYLE
  5
6D
330
3
100
AcDbSymbolTableRecord
100
AcDbTextStyleTableRecord
  2
ACISOTS
 70
     0
 40
1.0
 41
1.0
 50
0.0
 71
     0
 42
1.0
  3
isocp.shx
  4
chineset.shx
  0
STYLE
  5
79
330
3
100
AcDbSymbolTableRecord
100
AcDbTextStyleTableRecord
  2
ACISOGDT
 70
     0
 40
0.0
 41
1.0
 50
0.0
 71
     0
 42
2.5
  3
amgdt.shx
  4
chineset.shx
  0
STYLE
  5
ABE
330
3
100
AcDbSymbolTableRecord
100
AcDbTextStyleTableRecord
  2
CHINESET
 70
     0
 40
0.0
 41
0.75
 50
0.0
 71
     0
 42
3.0
  3
simplex.shx
  4
CHINESET.SHX
  0
STYLE
  5
10CF
330
3
100
AcDbSymbolTableRecord
100
AcDbTextStyleTableRecord
  2
dayus
 70
     0
 40
0.0
 41
1.0
 50
0.0
 71
     0
 42
5.0
  3
simplex.shx
  4
dayus.shx
  0
ENDTAB
  0
TABLE
  2
VIEW
  5
6
330
0
100
AcDbSymbolTable
 70
     0
  0
ENDTAB
  0
TABLE
  2
UCS
  5
7
330
0
100
AcDbSymbolTable
 70
     0
  0
ENDTAB
  0
TABLE
  2
APPID
  5
9
330
0
100
AcDbSymbolTable
 70
    21
  0
APPID
  5
12
330
9
100
AcDbSymbolTableRecord
100
AcDbRegAppTableRecord
  2
ACAD
 70
     0
  0
APPID
  5
46
330
9
100
AcDbSymbolTableRecord
100
AcDbRegAppTableRecord
  2
MCAD_NO_VIS
 70
     0
  0
APPID
  5
47
330
9
100
AcDbSymbolTableRecord
100
AcDbRegAppTableRecord
  2
ACAD_TEMP_GRAPHIC
 70
     0
  0
APPID
  5
58
330
9
100
AcDbSymbolTableRecord
100
AcDbRegAppTableRecord
  2
ACATTRIBSERVICES
 70
     0
  0
APPID
  5
EE
330
9
100
AcDbSymbolTableRecord
100
AcDbRegAppTableRecord
  2
AD_DRAW
 70
     0
  0
APPID
  5
10C
330
9
100
AcDbSymbolTableRecord
100
AcDbRegAppTableRecord
  2
DESIGNERASSEMBLIES
 70
     0
  0
APPID
  5
111
330
9
100
AcDbSymbolTableRecord
100
AcDbRegAppTableRecord
  2
ACADM_DIM_EDIT
 70
     0
  0
APPID
  5
112
330
9
100
AcDbSymbolTableRecord
100
AcDbRegAppTableRecord
  2
AMDT_DM_ADJ
 70
     0
  0
APPID
  5
22C
330
9
100
AcDbSymbolTableRecord
100
AcDbRegAppTableRecord
  2
ACAD_DSTYLE_DIMTEXT_FILL
 70
     0
  0
APPID
  5
452
330
9
100
AcDbSymbolTableRecord
100
AcDbRegAppTableRecord
  2
GENIUS_GENOENT_13
 70
     0
  0
APPID
  5
453
330
9
100
AcDbSymbolTableRecord
100
AcDbRegAppTableRecord
  2
GENIUS_GENOBJ-N-CRS_13
 70
     0
  0
APPID
  5
454
330
9
100
AcDbSymbolTableRecord
100
AcDbRegAppTableRecord
  2
GENIUS_GENOLIS_13
 70
     0
  0
APPID
  5
455
330
9
100
AcDbSymbolTableRecord
100
AcDbRegAppTableRecord
  2
GENIUS_GENODEF_13
 70
     0
  0
APPID
  5
456
330
9
100
AcDbSymbolTableRecord
100
AcDbRegAppTableRecord
  2
GENIUS_GENOREF_13
 70
     0
  0
APPID
  5
6F3
330
9
100
AcDbSymbolTableRecord
100
AcDbRegAppTableRecord
  2
ACAD_PSEXT
 70
     0
  0
APPID
  5
808
330
9
100
AcDbSymbolTableRecord
100
AcDbRegAppTableRecord
  2
GENIUS_GENDTOL_13
 70
     0
  0
APPID
  5
AC0
330
9
100
AcDbSymbolTableRecord
100
AcDbRegAppTableRecord
  2
GENIUS_GENREC_14
 70
     0
  0
APPID
  5
AC1
330
9
100
AcDbSymbolTableRecord
100
AcDbRegAppTableRecord
  2
GENIUS_GENOBJ-N-REC_13
 70
     0
  0
APPID
  5
AC2
330
9
100
AcDbSymbolTableRecord
100
AcDbRegAppTableRecord
  2
GENIUS_GENOBJ-N-CEN_13
 70
     0
  0
APPID
  5
AC3
330
9
100
AcDbSymbolTableRecord
100
AcDbRegAppTableRecord
  2
GENIUS_GENCEN_19
 70
     0
  0
APPID
  5
EF3
330
9
100
AcDbSymbolTableRecord
100
AcDbRegAppTableRecord
  2
AcAecLayerStandard
 70
     0
  0
ENDTAB
  0
TABLE
  2
DIMSTYLE
  5
A
330
0
100
AcDbSymbolTable
 70
    13
100
AcDbDimStyleTable
 71
     4
340
81
340
10D1
340
8B
340
86
  0
DIMSTYLE
105
81
330
A
100
AcDbSymbolTableRecord
100
AcDbDimStyleTableRecord
  2
AM_ISO
 70
     0
  4
"
 41
3.0
 42
1.0
 43
8.0
 44
1.5
 47
0.1
 48
0.1
 73
     0
 74
     0
 77
     1
 78
     8
 79
     2
140
3.5
141
0.0
143
0.0393701
146
0.6
147
0.7
172
     1
176
   256
177
   256
178
   256
271
     2
272
     2
283
     0
284
     8
340
11
371
    -1
372
    -1
  0
DIMSTYLE
105
82
102
{ACAD_REACTORS
330
1361
330
15D7
330
1616
102
}
330
A
100
AcDbSymbolTableRecord
100
AcDbDimStyleTableRecord
  2
AM_ISO$3
 70
     0
  4
"
 41
3.0
 42
1.0
 43
8.0
 44
1.5
 47
0.1
 48
0.1
 73
     0
 77
     1
 78
     8
 79
     2
140
3.5
141
0.0
143
0.0393701
146
0.6
147
0.7
176
   256
177
   256
178
   256
271
     2
272
     2
283
     0
284
     8
288
     1
289
     0
340
11
371
    -1
372
    -1
  0
DIMSTYLE
105
83
330
A
100
AcDbSymbolTableRecord
100
AcDbDimStyleTableRecord
  2
AM_ISO$4
 70
     0
  4
"
 41
3.0
 42
1.0
 43
8.0
 44
1.5
 47
0.1
 48
0.1
 73
     0
 77
     1
 78
     8
 79
     2
140
3.5
141
0.0
143
0.0393701
146
0.6
147
0.7
176
   256
177
   256
178
   256
271
     2
272
     2
283
     0
284
     8
288
     1
289
     0
340
11
371
    -1
372
    -1
  0
DIMSTYLE
105
84
330
A
100
AcDbSymbolTableRecord
100
AcDbDimStyleTableRecord
  2
AM_ISO$6
 70
     0
  4
"
 41
3.0
 42
1.0
 43
8.0
 44
1.5
 47
0.1
 48
0.1
 73
     0
 74
     0
 78
     8
 79
     2
140
3.5
141
0.0
143
0.0393701
146
0.6
147
0.7
172
     1
176
   256
177
   256
178
   256
271
     2
272
     2
283
     0
284
     8
340
11
371
    -1
372
    -1
  0
DIMSTYLE
105
85
330
A
100
AcDbSymbolTableRecord
100
AcDbDimStyleTableRecord
  2
AM_ISO$7
 70
     0
  4
"
 41
3.0
 42
1.0
 43
8.0
 44
1.5
 47
0.1
 48
0.1
 73
     0
 74
     0
 77
     1
 78
     8
 79
     2
140
5.0
141
0.0
143
0.0393701
146
0.6
147
0.7
172
     1
176
   256
177
   256
178
   256
271
     2
272
     2
283
     0
284
     8
340
11
371
    -1
372
    -1
  0
DIMSTYLE
105
86
330
A
100
AcDbSymbolTableRecord
100
AcDbDimStyleTableRecord
  2
AM_ISO$SF
 70
     0
  4
"
 41
2.5
 42
1.0
 43
10.0
 44
1.0
 47
0.1
 48
0.1
 73
     0
 74
     0
 75
     1
 76
     1
 77
     1
 78
     8
 79
     2
140
3.5
141
0.0
143
0.0393701
146
0.71
147
1.5
172
     1
176
   256
177
   256
178
     2
271
     2
272
     3
274
     4
283
     0
284
     8
340
11
371
    -1
372
    -1
  0
DIMSTYLE
105
8B
330
A
100
AcDbSymbolTableRecord
100
AcDbDimStyleTableRecord
  2
AM_ISO$SH
 70
     0
  4
"
 41
2.5
 42
1.0
 43
10.0
 44
1.0
 47
0.1
 48
0.1
 73
     0
 74
     0
 75
     1
 76
     1
 77
     1
 78
     8
 79
     2
140
3.5
141
0.0
143
0.0393701
144
2.0
146
0.71
147
1.5
172
     1
173
     1
176
   256
177
   256
178
     2
271
     2
272
     3
274
     4
283
     0
284
     8
340
11
343
87
371
    -1
372
    -1
  0
DIMSTYLE
105
40B
330
A
100
AcDbSymbolTableRecord
100
AcDbDimStyleTableRecord
  2
AM_ISO$0
 70
     0
  4
"
 41
3.0
 42
1.0
 43
8.0
 44
1.5
 47
0.1
 48
0.1
 73
     0
 74
     0
 77
     1
 78
     8
 79
     2
140
3.5
141
0.0
143
0.0393701
146
0.6
147
0.7
172
     1
176
   256
177
   256
178
   256
271
     2
272
     2
283
     0
284
     8
340
11
371
    -1
372
    -1
  0
DIMSTYLE
105
10D0
330
A
100
AcDbSymbolTableRecord
100
AcDbDimStyleTableRecord
  2
AM_ANSI
 70
     0
  4
"
 40
0.9
 41
3.0
 42
1.5
 43
8.0
 44
2.0
 47
0.1
 48
0.1
 73
     0
 74
     0
 77
     3
 78
     8
 79
     2
140
3.0
141
3.0
143
0.0393701
146
0.6
147
0.8
172
     1
176
   256
177
   256
178
   256
271
     2
272
     2
284
     8
340
10CF
371
    -1
372
    -1
  0
DIMSTYLE
105
10D1
330
A
100
AcDbSymbolTableRecord
100
AcDbDimStyleTableRecord
  2
Standard
 70
     0
 41
3.0
 42
1.0
 43
8.0
 44
1.0
 73
     0
 74
     0
 77
     1
 78
     8
 79
     2
140
3.5
141
0.0
146
0.6
147
1.0
172
     1
176
   256
177
   256
178
   256
271
     2
272
     2
284
     8
285
     8
340
11
371
    -1
372
    -1
  0
DIMSTYLE
105
10D2
330
A
100
AcDbSymbolTableRecord
100
AcDbDimStyleTableRecord
  2
AM_ANSI$0
 70
     0
  4
"
 40
0.9
 41
3.0
 42
1.5
 43
8.0
 44
2.0
 47
0.1
 48
0.1
 73
     0
 74
     0
 77
     3
 78
     8
 79
     2
140
3.0
141
3.0
143
0.0393701
146
0.6
147
0.8
172
     1
176
   256
177
   256
178
   256
271
     2
272
     2
284
     8
340
10CF
371
    -1
372
    -1
  0
DIMSTYLE
105
10D3
102
{ACAD_REACTORS
330
1215
330
1217
330
1216
330
1210
330
120F
330
120E
330
1532
330
1214
330
1213
330
1211
330
1212
102
}
330
A
100
AcDbSymbolTableRecord
100
AcDbDimStyleTableRecord
  2
Standard$0
 70
     0
 41
3.0
 42
1.0
 43
8.0
 44
1.0
 73
     0
 74
     0
 77
     1
 78
     8
 79
     2
140
3.5
141
0.0
146
0.6
147
1.0
172
     1
176
   256
177
   256
178
   256
271
     2
272
     2
284
     8
285
     8
340
11
371
    -1
372
    -1
  0
ENDTAB
  0
TABLE
  2
BLOCK_RECORD
  5
1
330
0
100
AcDbSymbolTable
 70
    24
  0
BLOCK_RECORD
  5
1F
102
{ACAD_XDICTIONARY
360
8F
102
}
330
1
100
AcDbSymbolTableRecord
100
AcDbBlockTableRecord
  2
*Model_Space
340
22
  0
BLOCK_RECORD
  5
1B
330
1
100
AcDbSymbolTableRecord
100
AcDbBlockTableRecord
  2
*Paper_Space
340
1E
  0
BLOCK_RECORD
  5
23
330
1
100
AcDbSymbolTableRecord
100
AcDbBlockTableRecord
  2
*Paper_Space0
340
26
  0
BLOCK_RECORD
  5
87
330
1
100
AcDbSymbolTableRecord
100
AcDbBlockTableRecord
  2
GENAXEH
340
0
  0
BLOCK_RECORD
  5
EFF
102
{ACAD_XDICTIONARY
360
F04
102
}
330
1
100
AcDbSymbolTableRecord
100
AcDbBlockTableRecord
  2
A$C00151B21
340
0
  0
BLOCK_RECORD
  5
1049
330
1
100
AcDbSymbolTableRecord
100
AcDbBlockTableRecord
  2
GENDOT
340
0
102
{BLKREFS
331
149F
331
14A7
102
}
  0
BLOCK_RECORD
  5
1252
330
1
100
AcDbSymbolTableRecord
100
AcDbBlockTableRecord
  2
*D4
340
0
  0
BLOCK_RECORD
  5
125E
330
1
100
AcDbSymbolTableRecord
100
AcDbBlockTableRecord
  2
*D5
340
0
  0
BLOCK_RECORD
  5
126A
330
1
100
AcDbSymbolTableRecord
100
AcDbBlockTableRecord
  2
*D6
340
0
  0
BLOCK_RECORD
  5
1276
330
1
100
AcDbSymbolTableRecord
100
AcDbBlockTableRecord
  2
*D7
340
0
  0
BLOCK_RECORD
  5
1284
330
1
100
AcDbSymbolTableRecord
100
AcDbBlockTableRecord
  2
*D8
340
0
  0
BLOCK_RECORD
  5
1290
330
1
100
AcDbSymbolTableRecord
100
AcDbBlockTableRecord
  2
*D9
340
0
  0
BLOCK_RECORD
  5
129C
330
1
100
AcDbSymbolTableRecord
100
AcDbBlockTableRecord
  2
*D10
340
0
  0
BLOCK_RECORD
  5
12A8
330
1
100
AcDbSymbolTableRecord
100
AcDbBlockTableRecord
  2
*D11
340
0
  0
BLOCK_RECORD
  5
12B4
330
1
100
AcDbSymbolTableRecord
100
AcDbBlockTableRecord
  2
*D12
340
0
  0
BLOCK_RECORD
  5
12BE
330
1
100
AcDbSymbolTableRecord
100
AcDbBlockTableRecord
  2
*D13
340
0
  0
BLOCK_RECORD
  5
1362
330
1
100
AcDbSymbolTableRecord
100
AcDbBlockTableRecord
  2
*D14
340
0
  0
BLOCK_RECORD
  5
150D
102
{ACAD_XDICTIONARY
360
151E
102
}
330
1
100
AcDbSymbolTableRecord
100
AcDbBlockTableRecord
  2
A$C2B0F4619
340
0
  0
BLOCK_RECORD
  5
1533
330
1
100
AcDbSymbolTableRecord
100
AcDbBlockTableRecord
  2
*D16
340
0
  0
BLOCK_RECORD
  5
15D8
330
1
100
AcDbSymbolTableRecord
100
AcDbBlockTableRecord
  2
*D17
340
0
  0
BLOCK_RECORD
  5
1617
330
1
100
AcDbSymbolTableRecord
100
AcDbBlockTableRecord
  2
*D18
340
0
  0
BLOCK_RECORD
  5
1732
102
{ACAD_XDICTIONARY
360
1745
102
}
330
1
100
AcDbSymbolTableRecord
100
AcDbBlockTableRecord
  2
A$C70C829B3
340
0
  0
BLOCK_RECORD
  5
185E
102
{ACAD_XDICTIONARY
360
1862
102
}
330
1
100
AcDbSymbolTableRecord
100
AcDbBlockTableRecord
  2
A$C29E31EDB
340
0
102
{BLKREFS
331
1866
102
}
  0
BLOCK_RECORD
  5
187C
102
{ACAD_XDICTIONARY
360
188F
102
}
330
1
100
AcDbSymbolTableRecord
100
AcDbBlockTableRecord
  2
A$C06FA3B76
340
0
102
{BLKREFS
331
1893
102
}
  0
ENDTAB
  0
ENDSEC
  0
SECTION
  2
BLOCKS
  0
BLOCK
  5
20
330
1F
100
AcDbEntity
  8
0
100
AcDbBlockBegin
  2
*Model_Space
 70
     0
 10
0.0
 20
0.0
 30
0.0
  3
*Model_Space
  1

  0
ENDBLK
  5
21
330
1F
100
AcDbEntity
  8
0
100
AcDbBlockEnd
  0
BLOCK
  5
1C
330
1B
100
AcDbEntity
 67
     1
  8
0
100
AcDbBlockBegin
  2
*Paper_Space
 70
     0
 10
0.0
 20
0.0
 30
0.0
  3
*Paper_Space
  1

  0
ENDBLK
  5
1D
330
1B
100
AcDbEntity
 67
     1
  8
0
100
AcDbBlockEnd
  0
BLOCK
  5
24
330
23
100
AcDbEntity
  8
0
100
AcDbBlockBegin
  2
*Paper_Space0
 70
     0
 10
0.0
 20
0.0
 30
0.0
  3
*Paper_Space0
  1

  0
ENDBLK
  5
25
330
23
100
AcDbEntity
  8
0
100
AcDbBlockEnd
  0
BLOCK
  5
89
330
87
100
AcDbEntity
  8
0
100
AcDbBlockBegin
  2
GENAXEH
 70
     0
 10
0.0
 20
0.0
 30
0.0
  3
GENAXEH
  1

  0
LINE
  5
88
330
87
100
AcDbEntity
  8
0
100
AcDbLine
 10
-1.0
 20
0.0
 30
0.0
 11
1.0
 21
0.0
 31
0.0
  0
ENDBLK
  5
8A
330
87
100
AcDbEntity
  8
0
100
AcDbBlockEnd
  0
BLOCK
  5
F06
330
EFF
100
AcDbEntity
  8
0
100
AcDbBlockBegin
  2
A$C00151B21
 70
     0
 10
0.0
 20
0.0
 30
0.0
  3
A$C00151B21
  1

  0
LINE
  5
F00
330
EFF
100
AcDbEntity
  8
SL
100
AcDbLine
 10
0.0
 20
0.0
 30
0.0
 11
-8.230564998653449
 21
0.0
 31
0.0
  0
LINE
  5
F01
330
EFF
100
AcDbEntity
  8
SL
100
AcDbLine
 10
-8.230564998653449
 20
0.0
 30
0.0
 11
-13.61770029913145
 21
0.0
 31
0.0
  0
TRACE
  5
F02
330
EFF
100
AcDbEntity
  8
SL
370
    35
100
AcDbTrace
 10
-13.61770029913145
 20
0.6911756092499673
 30
0.0
 11
-13.61770029913145
 21
-0.6911756092499673
 31
0.0
 12
-18.86770029913146
 22
0.0
 32
0.0
 13
-18.86770029913146
 23
0.0
 33
0.0
  0
MTEXT
  5
F03
330
EFF
100
AcDbEntity
  8
SL
100
AcDbMText
 10
-8.962027744090278
 20
1.440451871730772
 30
0.0
 40
3.674999999999999
 41
0.0
 71
     7
 72
     5
  1
SL
  7
ACISOTS
 73
     1
 44
1.0
1001
ACAD
1000
MTEXTBEGIN
1070
    73
1070
     1
1070
    44
1040
1.0
1070
    74
1070
     0
1000
MTEXTEND
  0
ENDBLK
  5
F07
330
EFF
100
AcDbEntity
  8
0
100
AcDbBlockEnd
  0
BLOCK
  5
104A
330
1049
100
AcDbEntity
  8
0
100
AcDbBlockBegin
  2
GENDOT
 70
     0
 10
0.0
 20
0.0
 30
0.0
  3
GENDOT
  1

  0
LINE
  5
104B
330
1049
100
AcDbEntity
  8
0
100
AcDbLine
 10
0.0
 20
0.0
 30
0.0
 11
-1.0
 21
0.0
 31
0.0
  0
LWPOLYLINE
  5
104C
330
1049
100
AcDbEntity
  8
0
100
AcDbPolyline
 90
        2
 70
     1
 43
0.25
 10
-0.125
 20
0.0
 42
1.0
 10
0.125
 20
0.0
 42
1.0
  0
ENDBLK
  5
104D
330
1049
100
AcDbEntity
  8
0
100
AcDbBlockEnd
  0
BLOCK
  5
125C
330
1252
100
AcDbEntity
  8
0
100
AcDbBlockBegin
  2
*D4
 70
     1
 10
0.0
 20
0.0
 30
0.0
  3
*D4
  1

  0
LINE
  5
19AA
330
1252
100
AcDbEntity
  8
AM_REFDIM
100
AcDbLine
 10
296.4295457789513
 20
281.7982567809031
 30
0.0
 11
296.4295457789513
 21
297.9920490614267
 31
0.0
  0
LINE
  5
19AB
330
1252
100
AcDbEntity
  8
AM_REFDIM
100
AcDbLine
 10
331.9295457789513
 20
281.7982567809031
 30
0.0
 11
331.9295457789513
 21
297.9920490614267
 31
0.0
  0
LINE
  5
19AC
330
1252
100
AcDbEntity
  8
AM_REFDIM
100
AcDbLine
 10
299.4295457789513
 20
296.9920490614267
 30
0.0
 11
328.9295457789513
 21
296.9920490614267
 31
0.0
  0
SOLID
  5
19AD
330
1252
100
AcDbEntity
  8
AM_REFDIM
100
AcDbTrace
 10
299.4295457789513
 20
297.4920490614267
 30
0.0
 11
299.4295457789513
 21
296.4920490614267
 31
0.0
 12
296.4295457789513
 22
296.9920490614267
 32
0.0
 13
296.4295457789513
 23
296.9920490614267
 33
0.0
  0
SOLID
  5
19AE
330
1252
100
AcDbEntity
  8
AM_REFDIM
100
AcDbTrace
 10
328.9295457789513
 20
297.4920490614267
 30
0.0
 11
328.9295457789513
 21
296.4920490614267
 31
0.0
 12
331.9295457789513
 22
296.9920490614267
 32
0.0
 13
331.9295457789513
 23
296.9920490614267
 33
0.0
  0
MTEXT
  5
19AF
330
1252
100
AcDbEntity
  8
AM_REFDIM
100
AcDbMText
 10
314.0625513684355
 20
299.7420490614267
 30
0.0
 40
3.5
 41
0.0
 71
     5
 72
     1
  1
\A1;L
 73
     1
 44
1.0
1001
ACAD
1000
MTEXTBEGIN
1070
    73
1070
     1
1070
    44
1040
1.0
1070
    74
1070
     0
1000
MTEXTEND
  0
POINT
  5
19B0
330
1252
100
AcDbEntity
  8
Defpoints
 62
     0
100
AcDbPoint
 10
296.4295457789513
 20
280.798256780903
 30
0.0
  0
POINT
  5
19B1
330
1252
100
AcDbEntity
  8
Defpoints
 62
     0
100
AcDbPoint
 10
331.9295457789513
 20
280.798256780903
 30
0.0
  0
POINT
  5
19B2
330
1252
100
AcDbEntity
  8
Defpoints
 62
     0
100
AcDbPoint
 10
331.9295457789513
 20
296.9920490614267
 30
0.0
  0
ENDBLK
  5
125D
330
1252
100
AcDbEntity
  8
0
100
AcDbBlockEnd
  0
BLOCK
  5
1268
330
125E
100
AcDbEntity
  8
0
100
AcDbBlockBegin
  2
*D5
 70
     1
 10
0.0
 20
0.0
 30
0.0
  3
*D5
  1

  0
LINE
  5
19A1
330
125E
100
AcDbEntity
  8
AM_REFDIM
100
AcDbLine
 10
299.9295457789512
 20
281.1482567809031
 30
0.0
 11
299.9295457789512
 21
289.9920490614267
 31
0.0
  0
LINE
  5
19A2
330
125E
100
AcDbEntity
  8
AM_REFDIM
100
AcDbLine
 10
328.4295457789513
 20
281.1482567809031
 30
0.0
 11
328.4295457789513
 21
289.9920490614267
 31
0.0
  0
LINE
  5
19A3
330
125E
100
AcDbEntity
  8
AM_REFDIM
100
AcDbLine
 10
302.9295457789512
 20
288.9920490614267
 30
0.0
 11
325.4295457789513
 21
288.9920490614267
 31
0.0
  0
SOLID
  5
19A4
330
125E
100
AcDbEntity
  8
AM_REFDIM
100
AcDbTrace
 10
302.9295457789512
 20
289.4920490614267
 30
0.0
 11
302.9295457789512
 21
288.4920490614267
 31
0.0
 12
299.9295457789512
 22
288.9920490614267
 32
0.0
 13
299.9295457789512
 23
288.9920490614267
 33
0.0
  0
SOLID
  5
19A5
330
125E
100
AcDbEntity
  8
AM_REFDIM
100
AcDbTrace
 10
325.4295457789513
 20
289.4920490614267
 30
0.0
 11
325.4295457789513
 21
288.4920490614267
 31
0.0
 12
328.4295457789513
 22
288.9920490614267
 32
0.0
 13
328.4295457789513
 23
288.9920490614267
 33
0.0
  0
MTEXT
  5
19A6
330
125E
100
AcDbEntity
  8
AM_REFDIM
100
AcDbMText
 10
314.1795457789513
 20
291.7420490614267
 30
0.0
 40
3.5
 41
0.0
 71
     5
 72
     1
  1
\A1;P
 73
     1
 44
1.0
1001
ACAD
1000
MTEXTBEGIN
1070
    73
1070
     1
1070
    44
1040
1.0
1070
    74
1070
     0
1000
MTEXTEND
  0
POINT
  5
19A7
330
125E
100
AcDbEntity
  8
Defpoints
 62
     0
100
AcDbPoint
 10
299.9295457789512
 20
280.1482567809031
 30
0.0
  0
POINT
  5
19A8
330
125E
100
AcDbEntity
  8
Defpoints
 62
     0
100
AcDbPoint
 10
328.4295457789513
 20
280.1482567809031
 30
0.0
  0
POINT
  5
19A9
330
125E
100
AcDbEntity
  8
Defpoints
 62
     0
100
AcDbPoint
 10
328.4295457789513
 20
288.9920490614267
 30
0.0
  0
ENDBLK
  5
1269
330
125E
100
AcDbEntity
  8
0
100
AcDbBlockEnd
  0
BLOCK
  5
1274
330
126A
100
AcDbEntity
  8
0
100
AcDbBlockBegin
  2
*D6
 70
     1
 10
0.0
 20
0.0
 30
0.0
  3
*D6
  1

  0
LINE
  5
190A
330
126A
100
AcDbEntity
  8
AM_REFDIM
100
AcDbLine
 10
332.9295457789513
 20
255.798256780903
 30
0.0
 11
340.1295457789512
 21
255.798256780903
 31
0.0
  0
LINE
  5
190B
330
126A
100
AcDbEntity
  8
AM_REFDIM
100
AcDbLine
 10
332.9295457789513
 20
280.798256780903
 30
0.0
 11
340.1295457789512
 21
280.798256780903
 31
0.0
  0
LINE
  5
190C
330
126A
100
AcDbEntity
  8
AM_REFDIM
100
AcDbLine
 10
339.1295457789512
 20
258.7982567809031
 30
0.0
 11
339.1295457789512
 21
277.7982567809031
 31
0.0
  0
SOLID
  5
190D
330
126A
100
AcDbEntity
  8
AM_REFDIM
100
AcDbTrace
 10
338.6295457789513
 20
258.7982567809031
 30
0.0
 11
339.6295457789512
 21
258.7982567809031
 31
0.0
 12
339.1295457789512
 22
255.798256780903
 32
0.0
 13
339.1295457789512
 23
255.798256780903
 33
0.0
  0
SOLID
  5
190E
330
126A
100
AcDbEntity
  8
AM_REFDIM
100
AcDbTrace
 10
338.6295457789513
 20
277.7982567809031
 30
0.0
 11
339.6295457789512
 21
277.7982567809031
 31
0.0
 12
339.1295457789512
 22
280.798256780903
 32
0.0
 13
339.1295457789512
 23
280.798256780903
 33
0.0
  0
MTEXT
  5
190F
330
126A
100
AcDbEntity
  8
AM_REFDIM
100
AcDbMText
 10
336.3792012907622
 20
268.2982567809031
 30
0.0
 40
3.5
 41
0.0
 71
     5
 72
     1
  1
\A1;25
 11
0.0000000000000001
 21
1.0
 31
0.0
 73
     1
 44
1.0
1001
ACAD
1000
MTEXTBEGIN
1070
    73
1070
     1
1070
    44
1040
1.0
1070
    74
1070
     0
1000
MTEXTEND
  0
POINT
  5
1910
330
126A
100
AcDbEntity
  8
Defpoints
 62
     0
100
AcDbPoint
 10
331.9295457789513
 20
255.798256780903
 30
0.0
  0
POINT
  5
1911
330
126A
100
AcDbEntity
  8
Defpoints
 62
     0
100
AcDbPoint
 10
331.9295457789513
 20
280.798256780903
 30
0.0
  0
POINT
  5
1912
330
126A
100
AcDbEntity
  8
Defpoints
 62
     0
100
AcDbPoint
 10
339.1295457789512
 20
280.798256780903
 30
0.0
  0
ENDBLK
  5
1275
330
126A
100
AcDbEntity
  8
0
100
AcDbBlockEnd
  0
BLOCK
  5
1282
330
1276
100
AcDbEntity
  8
0
100
AcDbBlockBegin
  2
*D7
 70
     1
 10
0.0
 20
0.0
 30
0.0
  3
*D7
  1

  0
LINE
  5
1960
330
1276
100
AcDbEntity
  8
AM_REFDIM
100
AcDbLine
 10
296.4295457789513
 20
218.7691362163288
 30
0.0
 11
296.4295457789513
 21
210.7691362163289
 31
0.0
  0
LINE
  5
1961
330
1276
100
AcDbEntity
  8
AM_REFDIM
100
AcDbLine
 10
299.9295457789513
 20
225.8696362163288
 30
0.0
 11
299.9295457789513
 21
210.7691362163289
 31
0.0
  0
LINE
  5
1962
330
1276
100
AcDbEntity
  8
AM_REFDIM
100
AcDbLine
 10
302.9295457789513
 20
211.7691362163289
 30
0.0
 11
305.9295457789513
 21
211.7691362163289
 31
0.0
  0
LINE
  5
1963
330
1276
100
AcDbEntity
  8
AM_REFDIM
100
AcDbLine
 10
293.4295457789513
 20
211.7691362163289
 30
0.0
 11
283.3845710321207
 21
211.7691362163289
 31
0.0
  0
LINE
  5
1964
330
1276
100
AcDbEntity
  8
AM_REFDIM
100
AcDbLine
 10
299.9295457789513
 20
211.7691362163289
 30
0.0
 11
296.4295457789513
 21
211.7691362163289
 31
0.0
  0
SOLID
  5
1965
330
1276
100
AcDbEntity
  8
AM_REFDIM
100
AcDbTrace
 10
302.9295457789513
 20
212.2691362163289
 30
0.0
 11
302.9295457789513
 21
211.2691362163289
 31
0.0
 12
299.9295457789513
 22
211.7691362163289
 32
0.0
 13
299.9295457789513
 23
211.7691362163289
 33
0.0
  0
SOLID
  5
1966
330
1276
100
AcDbEntity
  8
AM_REFDIM
100
AcDbTrace
 10
293.4295457789513
 20
212.2691362163289
 30
0.0
 11
293.4295457789513
 21
211.2691362163289
 31
0.0
 12
296.4295457789513
 22
211.7691362163289
 32
0.0
 13
296.4295457789513
 23
211.7691362163289
 33
0.0
  0
MTEXT
  5
1967
330
1276
100
AcDbEntity
  8
AM_REFDIM
100
AcDbMText
 10
286.907058405536
 20
214.5191362163289
 30
0.0
 40
3.5
 41
0.0
 71
     5
 72
     1
  1
\A1;3.5
 73
     1
 44
1.0
1001
ACAD
1000
MTEXTBEGIN
1070
    73
1070
     1
1070
    44
1040
1.0
1070
    74
1070
     0
1000
MTEXTEND
  0
POINT
  5
1968
330
1276
100
AcDbEntity
  8
Defpoints
 62
     0
100
AcDbPoint
 10
296.4295457789513
 20
219.7691362163288
 30
0.0
  0
POINT
  5
1969
330
1276
100
AcDbEntity
  8
Defpoints
 62
     0
100
AcDbPoint
 10
299.9295457789513
 20
226.8696362163288
 30
0.0
  0
POINT
  5
196A
330
1276
100
AcDbEntity
  8
Defpoints
 62
     0
100
AcDbPoint
 10
299.9295457789513
 20
211.7691362163289
 30
0.0
  0
ENDBLK
  5
1283
330
1276
100
AcDbEntity
  8
0
100
AcDbBlockEnd
  0
BLOCK
  5
128E
330
1284
100
AcDbEntity
  8
0
100
AcDbBlockBegin
  2
*D8
 70
     1
 10
0.0
 20
0.0
 30
0.0
  3
*D8
  1

  0
LINE
  5
194B
330
1284
100
AcDbEntity
  8
AM_REFDIM
100
AcDbLine
 10
299.9295457789513
 20
225.8696362163288
 30
0.0
 11
299.9295457789513
 21
210.7691362163289
 31
0.0
  0
LINE
  5
194C
330
1284
100
AcDbEntity
  8
AM_REFDIM
100
AcDbLine
 10
328.4295457789513
 20
225.8696362163288
 30
0.0
 11
328.4295457789513
 21
210.7691362163289
 31
0.0
  0
LINE
  5
194D
330
1284
100
AcDbEntity
  8
AM_REFDIM
100
AcDbLine
 10
302.9295457789513
 20
211.7691362163289
 30
0.0
 11
325.4295457789513
 21
211.7691362163289
 31
0.0
  0
SOLID
  5
194E
330
1284
100
AcDbEntity
  8
AM_REFDIM
100
AcDbTrace
 10
302.9295457789513
 20
212.2691362163289
 30
0.0
 11
302.9295457789513
 21
211.2691362163289
 31
0.0
 12
299.9295457789513
 22
211.7691362163289
 32
0.0
 13
299.9295457789513
 23
211.7691362163289
 33
0.0
  0
SOLID
  5
194F
330
1284
100
AcDbEntity
  8
AM_REFDIM
100
AcDbTrace
 10
325.4295457789513
 20
212.2691362163289
 30
0.0
 11
325.4295457789513
 21
211.2691362163289
 31
0.0
 12
328.4295457789513
 22
211.7691362163289
 32
0.0
 13
328.4295457789513
 23
211.7691362163289
 33
0.0
  0
MTEXT
  5
1950
330
1284
100
AcDbEntity
  8
AM_REFDIM
100
AcDbMText
 10
314.1795457789513
 20
214.5194807045179
 30
0.0
 40
3.5
 41
0.0
 71
     5
 72
     1
  1
\A1;28.5
 73
     1
 44
1.0
1001
ACAD
1000
MTEXTBEGIN
1070
    73
1070
     1
1070
    44
1040
1.0
1070
    74
1070
     0
1000
MTEXTEND
  0
POINT
  5
1951
330
1284
100
AcDbEntity
  8
Defpoints
 62
     0
100
AcDbPoint
 10
299.9295457789513
 20
226.8696362163288
 30
0.0
  0
POINT
  5
1952
330
1284
100
AcDbEntity
  8
Defpoints
 62
     0
100
AcDbPoint
 10
328.4295457789513
 20
226.8696362163288
 30
0.0
  0
POINT
  5
1953
330
1284
100
AcDbEntity
  8
Defpoints
 62
     0
100
AcDbPoint
 10
328.4295457789513
 20
211.7691362163289
 30
0.0
  0
ENDBLK
  5
128F
330
1284
100
AcDbEntity
  8
0
100
AcDbBlockEnd
  0
BLOCK
  5
129A
330
1290
100
AcDbEntity
  8
0
100
AcDbBlockBegin
  2
*D9
 70
     1
 10
0.0
 20
0.0
 30
0.0
  3
*D9
  1

  0
LINE
  5
1937
330
1290
100
AcDbEntity
  8
AM_REFDIM
100
AcDbLine
 10
295.4295457789513
 20
219.7691362163288
 30
0.0
 11
289.2837342556146
 21
219.7691362163288
 31
0.0
  0
LINE
  5
1938
330
1290
100
AcDbEntity
  8
AM_REFDIM
100
AcDbLine
 10
296.0300457789512
 20
229.7691362163288
 30
0.0
 11
289.2837342556146
 21
229.7691362163288
 31
0.0
  0
LINE
  5
1939
330
1290
100
AcDbEntity
  8
AM_REFDIM
100
AcDbLine
 10
290.2837342556146
 20
222.7691362163288
 30
0.0
 11
290.2837342556146
 21
226.7691362163288
 31
0.0
  0
SOLID
  5
193A
330
1290
100
AcDbEntity
  8
AM_REFDIM
100
AcDbTrace
 10
289.7837342556146
 20
222.7691362163288
 30
0.0
 11
290.7837342556146
 21
222.7691362163288
 31
0.0
 12
290.2837342556146
 22
219.7691362163288
 32
0.0
 13
290.2837342556146
 23
219.7691362163288
 33
0.0
  0
SOLID
  5
193B
330
1290
100
AcDbEntity
  8
AM_REFDIM
100
AcDbTrace
 10
289.7837342556146
 20
226.7691362163288
 30
0.0
 11
290.7837342556146
 21
226.7691362163288
 31
0.0
 12
290.2837342556146
 22
229.7691362163288
 32
0.0
 13
290.2837342556146
 23
229.7691362163288
 33
0.0
  0
MTEXT
  5
193C
330
1290
100
AcDbEntity
  8
AM_REFDIM
100
AcDbMText
 10
287.5337342556146
 20
224.7691362163289
 30
0.0
 40
3.5
 41
0.0
 71
     5
 72
     1
  1
\A1;10
 11
0.0000000000000001
 21
1.0
 31
0.0
 73
     1
 44
1.0
1001
ACAD
1000
MTEXTBEGIN
1070
    73
1070
     1
1070
    44
1040
1.0
1070
    74
1070
     0
1000
MTEXTEND
  0
POINT
  5
193D
330
1290
100
AcDbEntity
  8
Defpoints
 62
     0
100
AcDbPoint
 10
296.4295457789513
 20
219.7691362163288
 30
0.0
  0
POINT
  5
193E
330
1290
100
AcDbEntity
  8
Defpoints
 62
     0
100
AcDbPoint
 10
297.0300457789512
 20
229.7691362163288
 30
0.0
  0
POINT
  5
193F
330
1290
100
AcDbEntity
  8
Defpoints
 62
     0
100
AcDbPoint
 10
290.2837342556146
 20
229.7691362163288
 30
0.0
  0
ENDBLK
  5
129B
330
1290
100
AcDbEntity
  8
0
100
AcDbBlockEnd
  0
BLOCK
  5
12A6
330
129C
100
AcDbEntity
  8
0
100
AcDbBlockBegin
  2
*D10
 70
     1
 10
0.0
 20
0.0
 30
0.0
  3
*D10
  1

  0
LINE
  5
192E
330
129C
100
AcDbEntity
  8
AM_REFDIM
100
AcDbLine
 10
295.4295457789513
 20
219.7691362163288
 30
0.0
 11
281.2837342556146
 21
219.7691362163288
 31
0.0
  0
LINE
  5
192F
330
129C
100
AcDbEntity
  8
AM_REFDIM
100
AcDbLine
 10
295.4295457789513
 20
232.7691362163288
 30
0.0
 11
281.2837342556146
 21
232.7691362163288
 31
0.0
  0
LINE
  5
1930
330
129C
100
AcDbEntity
  8
AM_REFDIM
100
AcDbLine
 10
282.2837342556146
 20
222.7691362163288
 30
0.0
 11
282.2837342556146
 21
229.7691362163288
 31
0.0
  0
SOLID
  5
1931
330
129C
100
AcDbEntity
  8
AM_REFDIM
100
AcDbTrace
 10
281.7837342556146
 20
222.7691362163288
 30
0.0
 11
282.7837342556146
 21
222.7691362163288
 31
0.0
 12
282.2837342556146
 22
219.7691362163288
 32
0.0
 13
282.2837342556146
 23
219.7691362163288
 33
0.0
  0
SOLID
  5
1932
330
129C
100
AcDbEntity
  8
AM_REFDIM
100
AcDbTrace
 10
281.7837342556146
 20
229.7691362163288
 30
0.0
 11
282.7837342556146
 21
229.7691362163288
 31
0.0
 12
282.2837342556146
 22
232.7691362163288
 32
0.0
 13
282.2837342556146
 23
232.7691362163288
 33
0.0
  0
MTEXT
  5
1933
330
129C
100
AcDbEntity
  8
AM_REFDIM
100
AcDbMText
 10
279.5337342556146
 20
226.2691362163288
 30
0.0
 40
3.5
 41
0.0
 71
     5
 72
     1
  1
\A1;13
 11
0.0000000000000001
 21
1.0
 31
0.0
 73
     1
 44
1.0
1001
ACAD
1000
MTEXTBEGIN
1070
    73
1070
     1
1070
    44
1040
1.0
1070
    74
1070
     0
1000
MTEXTEND
  0
POINT
  5
1934
330
129C
100
AcDbEntity
  8
Defpoints
 62
     0
100
AcDbPoint
 10
296.4295457789513
 20
219.7691362163288
 30
0.0
  0
POINT
  5
1935
330
129C
100
AcDbEntity
  8
Defpoints
 62
     0
100
AcDbPoint
 10
296.4295457789513
 20
232.7691362163288
 30
0.0
  0
POINT
  5
1936
330
129C
100
AcDbEntity
  8
Defpoints
 62
     0
100
AcDbPoint
 10
282.2837342556146
 20
232.7691362163288
 30
0.0
  0
ENDBLK
  5
12A7
330
129C
100
AcDbEntity
  8
0
100
AcDbBlockEnd
  0
BLOCK
  5
132C
330
12A8
100
AcDbEntity
  8
0
100
AcDbBlockBegin
  2
*D11
 70
     1
 10
0.0
 20
0.0
 30
0.0
  3
*D11
  1

  0
LINE
  5
1499
330
12A8
100
AcDbEntity
  8
AM_REFDIM
100
AcDbLine
 10
353.5965835086876
 20
218.7691362163288
 30
0.0
 11
353.5965835086876
 21
210.7691362163288
 31
0.0
  0
LINE
  5
149A
330
12A8
100
AcDbEntity
  8
AM_REFDIM
100
AcDbLine
 10
358.5965835086876
 20
220.0441362163288
 30
0.0
 11
358.5965835086876
 21
210.7691362163288
 31
0.0
  0
LINE
  5
149B
330
12A8
100
AcDbEntity
  8
AM_REFDIM
100
AcDbLine
 10
350.5965835086876
 20
211.7691362163288
 30
0.0
 11
347.5965835086876
 21
211.7691362163288
 31
0.0
  0
LINE
  5
149C
330
12A8
100
AcDbEntity
  8
AM_REFDIM
100
AcDbLine
 10
361.5965835086876
 20
211.7691362163288
 30
0.0
 11
364.5965835086876
 21
211.7691362163288
 31
0.0
  0
LINE
  5
149D
330
12A8
100
AcDbEntity
  8
AM_REFDIM
100
AcDbLine
 10
353.5965835086876
 20
211.7691362163288
 30
0.0
 11
358.5965835086876
 21
211.7691362163288
 31
0.0
  0
SOLID
  5
149E
330
12A8
100
AcDbEntity
  8
AM_REFDIM
100
AcDbTrace
 10
350.5965835086876
 20
212.2691362163288
 30
0.0
 11
350.5965835086876
 21
211.2691362163289
 31
0.0
 12
353.5965835086876
 22
211.7691362163288
 32
0.0
 13
353.5965835086876
 23
211.7691362163288
 33
0.0
  0
INSERT
  5
149F
330
12A8
100
AcDbEntity
  8
AM_REFDIM
100
AcDbBlockReference
  2
GENDOT
 10
358.5965835086876
 20
211.7691362163288
 30
0.0
 41
3.0
 42
3.0
 43
3.0
 50
180.0
  0
MTEXT
  5
14A0
330
12A8
100
AcDbEntity
  8
AM_REFDIM
100
AcDbMText
 10
356.0965835086876
 20
214.5191362163288
 30
0.0
 40
3.5
 41
0.0
 71
     5
 72
     1
  1
\A1;5
 73
     1
 44
1.0
1001
ACAD
1000
MTEXTBEGIN
1070
    73
1070
     1
1070
    44
1040
1.0
1070
    74
1070
     0
1000
MTEXTEND
  0
POINT
  5
14A1
330
12A8
100
AcDbEntity
  8
Defpoints
 62
     0
100
AcDbPoint
 10
353.5965835086876
 20
219.7691362163288
 30
0.0
  0
POINT
  5
14A2
330
12A8
100
AcDbEntity
  8
Defpoints
 62
     0
100
AcDbPoint
 10
358.5965835086876
 20
221.0441362163289
 30
0.0
  0
POINT
  5
14A3
330
12A8
100
AcDbEntity
  8
Defpoints
 62
     0
100
AcDbPoint
 10
358.5965835086876
 20
211.7691362163288
 30
0.0
  0
ENDBLK
  5
132D
330
12A8
100
AcDbEntity
  8
0
100
AcDbBlockEnd
  0
BLOCK
  5
132E
330
12B4
100
AcDbEntity
  8
0
100
AcDbBlockBegin
  2
*D12
 70
     1
 10
0.0
 20
0.0
 30
0.0
  3
*D12
  1

  0
LINE
  5
14A4
330
12B4
100
AcDbEntity
  8
AM_REFDIM
100
AcDbLine
 10
358.5965835086876
 20
220.0441362163288
 30
0.0
 11
358.5965835086876
 21
210.7691362163289
 31
0.0
  0
LINE
  5
14A5
330
12B4
100
AcDbEntity
  8
AM_REFDIM
100
AcDbLine
 10
368.5965835086876
 20
220.0441362163288
 30
0.0
 11
368.5965835086876
 21
210.7691362163289
 31
0.0
  0
LINE
  5
14A6
330
12B4
100
AcDbEntity
  8
AM_REFDIM
100
AcDbLine
 10
361.5965835086876
 20
211.7691362163288
 30
0.0
 11
365.5965835086876
 21
211.7691362163288
 31
0.0
  0
INSERT
  5
14A7
330
12B4
100
AcDbEntity
  8
AM_REFDIM
100
AcDbBlockReference
  2
GENDOT
 10
358.5965835086876
 20
211.7691362163288
 30
0.0
 41
3.0
 42
3.0
 43
3.0
 50
180.0
  0
SOLID
  5
14A8
330
12B4
100
AcDbEntity
  8
AM_REFDIM
100
AcDbTrace
 10
365.5965835086876
 20
212.2691362163289
 30
0.0
 11
365.5965835086876
 21
211.2691362163289
 31
0.0
 12
368.5965835086876
 22
211.7691362163288
 32
0.0
 13
368.5965835086876
 23
211.7691362163288
 33
0.0
  0
MTEXT
  5
14A9
330
12B4
100
AcDbEntity
  8
AM_REFDIM
100
AcDbMText
 10
363.5965835086876
 20
214.5191362163289
 30
0.0
 40
3.5
 41
0.0
 71
     5
 72
     1
  1
\A1;10
 73
     1
 44
1.0
1001
ACAD
1000
MTEXTBEGIN
1070
    73
1070
     1
1070
    44
1040
1.0
1070
    74
1070
     0
1000
MTEXTEND
  0
POINT
  5
14AA
330
12B4
100
AcDbEntity
  8
Defpoints
 62
     0
100
AcDbPoint
 10
358.5965835086876
 20
221.0441362163289
 30
0.0
  0
POINT
  5
14AB
330
12B4
100
AcDbEntity
  8
Defpoints
 62
     0
100
AcDbPoint
 10
368.5965835086876
 20
221.0441362163288
 30
0.0
  0
POINT
  5
14AC
330
12B4
100
AcDbEntity
  8
Defpoints
 62
     0
100
AcDbPoint
 10
368.5965835086876
 20
211.7691362163288
 30
0.0
  0
ENDBLK
  5
132F
330
12B4
100
AcDbEntity
  8
0
100
AcDbBlockEnd
  0
BLOCK
  5
12CA
330
12BE
100
AcDbEntity
  8
0
100
AcDbBlockBegin
  2
*D13
 70
     1
 10
0.0
 20
0.0
 30
0.0
  3
*D13
  1

  0
LINE
  5
14AD
330
12BE
100
AcDbEntity
  8
AM_REFDIM
100
AcDbLine
 10
352.5965835086876
 20
219.7691362163288
 30
0.0
 11
344.5965834986876
 21
219.7691362163288
 31
0.0
  0
LINE
  5
14AE
330
12BE
100
AcDbEntity
  8
AM_REFDIM
100
AcDbLine
 10
353.8715835086876
 20
224.7691362163288
 30
0.0
 11
344.5965834986876
 21
224.7691362163288
 31
0.0
  0
LINE
  5
14AF
330
12BE
100
AcDbEntity
  8
AM_REFDIM
100
AcDbLine
 10
345.5965834986876
 20
216.7691362163288
 30
0.0
 11
345.5965834986876
 21
213.7691362163288
 31
0.0
  0
LINE
  5
14B0
330
12BE
100
AcDbEntity
  8
AM_REFDIM
100
AcDbLine
 10
345.5965834986876
 20
227.7691362163288
 30
0.0
 11
345.5965834986876
 21
230.7691362163288
 31
0.0
  0
LINE
  5
14B1
330
12BE
100
AcDbEntity
  8
AM_REFDIM
100
AcDbLine
 10
345.5965834986876
 20
219.7691362163288
 30
0.0
 11
345.5965834986876
 21
224.7691362163288
 31
0.0
  0
SOLID
  5
14B2
330
12BE
100
AcDbEntity
  8
AM_REFDIM
100
AcDbTrace
 10
345.0965834986876
 20
216.7691362163288
 30
0.0
 11
346.0965834986876
 21
216.7691362163288
 31
0.0
 12
345.5965834986876
 22
219.7691362163288
 32
0.0
 13
345.5965834986876
 23
219.7691362163288
 33
0.0
  0
SOLID
  5
14B3
330
12BE
100
AcDbEntity
  8
AM_REFDIM
100
AcDbTrace
 10
345.0965834986876
 20
227.7691362163288
 30
0.0
 11
346.0965834986876
 21
227.7691362163288
 31
0.0
 12
345.5965834986876
 22
224.7691362163288
 32
0.0
 13
345.5965834986876
 23
224.7691362163288
 33
0.0
  0
MTEXT
  5
14B4
330
12BE
100
AcDbEntity
  8
AM_REFDIM
100
AcDbMText
 10
342.8465834986876
 20
222.2691362163289
 30
0.0
 40
3.5
 41
0.0
 71
     5
 72
     1
  1
\A1;5
 11
0.0000000000000001
 21
1.0
 31
0.0
 73
     1
 44
1.0
1001
ACAD
1000
MTEXTBEGIN
1070
    73
1070
     1
1070
    44
1040
1.0
1070
    74
1070
     0
1000
MTEXTEND
  0
POINT
  5
14B5
330
12BE
100
AcDbEntity
  8
Defpoints
 62
     0
100
AcDbPoint
 10
353.5965835086876
 20
219.7691362163288
 30
0.0
  0
POINT
  5
14B6
330
12BE
100
AcDbEntity
  8
Defpoints
 62
     0
100
AcDbPoint
 10
354.8715835086876
 20
224.7691362163288
 30
0.0
  0
POINT
  5
14B7
330
12BE
100
AcDbEntity
  8
Defpoints
 62
     0
100
AcDbPoint
 10
345.5965834986876
 20
224.7691362163288
 30
0.0
  0
ENDBLK
  5
12CB
330
12BE
100
AcDbEntity
  8
0
100
AcDbBlockEnd
  0
BLOCK
  5
136B
330
1362
100
AcDbEntity
  8
0
100
AcDbBlockBegin
  2
*D14
 70
     1
 10
0.0
 20
0.0
 30
0.0
  3
*D14
  1

  0
LINE
  5
16F8
330
1362
100
AcDbEntity
  8
AM_5
100
AcDbLine
 10
296.4431579282278
 20
280.0243379569319
 30
0.0
 11
289.1614241783225
 21
286.7623904012546
 31
0.0
  0
LINE
  5
16F9
330
1362
100
AcDbEntity
  8
AM_5
100
AcDbLine
 10
289.1614241783225
 20
286.7623904012546
 30
0.0
 11
264.9225462255665
 21
286.7623904012546
 31
0.0
  0
SOLID
  5
16FA
330
1362
100
AcDbEntity
  8
AM_5
100
AcDbTrace
 10
296.7827454204414
 20
280.3913261517449
 30
0.0
 11
296.1035704360142
 21
279.657349762119
 31
0.0
 12
298.6450870971058
 22
277.9868130036505
 32
0.0
 13
298.6450870971058
 23
277.9868130036505
 33
0.0
  0
MTEXT
  5
16FB
330
1362
100
AcDbEntity
  8
AM_5
100
AcDbMText
 10
276.6919852019445
 20
289.2127348894435
 30
0.0
 40
3.5
 41
0.0
 71
     5
 72
     1
  1
2-\U+22053.5 thru
 73
     1
 44
1.0
1001
ACAD
1000
MTEXTBEGIN
1070
    73
1070
     1
1070
    44
1040
1.0
1070
    74
1070
     0
1000
MTEXTEND
  0
POINT
  5
16FC
330
1362
100
AcDbEntity
  8
Defpoints
 62
     0
100
AcDbPoint
 10
298.6450870971058
 20
277.9868130036505
 30
0.0
  0
POINT
  5
16FD
330
1362
100
AcDbEntity
  8
Defpoints
 62
     0
100
AcDbPoint
 10
301.2140044607969
 20
275.6097005581554
 30
0.0
  0
ENDBLK
  5
136C
330
1362
100
AcDbEntity
  8
0
100
AcDbBlockEnd
  0
BLOCK
  5
1520
330
150D
100
AcDbEntity
  8
0
100
AcDbBlockBegin
  2
A$C2B0F4619
 70
     0
 10
0.0
 20
0.0
 30
0.0
  3
A$C2B0F4619
  1

  0
LINE
  5
150E
330
150D
100
AcDbEntity
  8
0
 62
     4
100
AcDbLine
 10
75.37861805880123
 20
0.0000005582846825
 30
0.0
 11
75.37861805880123
 21
12.50659065229774
 31
0.0
  0
TEXT
  5
150F
330
150D
100
AcDbEntity
  8
0
 62
     4
100
AcDbText
 10
74.74829116093968
 20
15.67507358039665
 30
0.0
 40
3.0
  1
3
 41
0.75
  7
CHINESET
100
AcDbText
  0
TEXT
  5
1510
330
150D
100
AcDbEntity
  8
0
 62
     4
100
AcDbText
 10
63.76739026141007
 20
15.67507358039665
 30
0.0
 40
3.0
  1
4
 41
0.75
  7
CHINESET
100
AcDbText
  0
TEXT
  5
1511
330
150D
100
AcDbEntity
  8
0
 62
     4
100
AcDbText
 10
53.79450675398647
 20
15.67507358039665
 30
0.0
 40
3.0
  1
5
 41
0.75
  7
CHINESET
100
AcDbText
  0
TEXT
  5
1512
330
150D
100
AcDbEntity
  8
0
 62
     4
100
AcDbText
 10
42.76585810328055
 20
15.67507358039665
 30
0.0
 40
3.0
  1
6
 41
0.75
  7
CHINESET
100
AcDbText
  0
TEXT
  5
1513
330
150D
100
AcDbEntity
  8
0
 62
     4
100
AcDbText
 10
32.59549712215102
 20
15.67507358039665
 30
0.0
 40
3.0
  1
7
 41
0.75
  7
CHINESET
100
AcDbText
  0
TEXT
  5
1514
330
150D
100
AcDbEntity
  8
0
 62
     4
100
AcDbText
 10
22.05729768618557
 20
15.67507358039665
 30
0.0
 40
3.0
  1
8
 41
0.75
  7
CHINESET
100
AcDbText
  0
TEXT
  5
1515
330
150D
100
AcDbEntity
  8
0
 62
     4
100
AcDbText
 10
11.02864903547987
 20
15.67507358039665
 30
0.0
 40
3.0
  1
9
 41
0.75
  7
CHINESET
100
AcDbText
  0
TEXT
  5
1516
330
150D
100
AcDbEntity
  8
0
 62
     4
100
AcDbText
 10
0.0000003847739549
 20
15.67507358039665
 30
0.0
 40
3.0
  1
10
 41
0.75
  7
CHINESET
100
AcDbText
  0
LINE
  5
1517
330
150D
100
AcDbEntity
  8
0
 62
     4
100
AcDbLine
 10
64.87861805880124
 20
0.0000005582846825
 30
0.0
 11
64.87861805880124
 21
12.50659065229774
 31
0.0
  0
LINE
  5
1518
330
150D
100
AcDbEntity
  8
0
 62
     4
100
AcDbLine
 10
54.37861805880124
 20
0.0000005582846825
 30
0.0
 11
54.37861805880124
 21
12.50659065229774
 31
0.0
  0
LINE
  5
1519
330
150D
100
AcDbEntity
  8
0
 62
     4
100
AcDbLine
 10
43.87861805880123
 20
0.0000005582846825
 30
0.0
 11
43.87861805880123
 21
12.50659065229774
 31
0.0
  0
LINE
  5
151A
330
150D
100
AcDbEntity
  8
0
 62
     4
100
AcDbLine
 10
33.37861805880124
 20
0.0000005582846825
 30
0.0
 11
33.37861805880124
 21
12.50659065229774
 31
0.0
  0
LINE
  5
151B
330
150D
100
AcDbEntity
  8
0
 62
     4
100
AcDbLine
 10
22.87861805880124
 20
0.0000005582846825
 30
0.0
 11
22.87861805880124
 21
12.50659065229774
 31
0.0
  0
LINE
  5
151C
330
150D
100
AcDbEntity
  8
0
 62
     4
100
AcDbLine
 10
12.37861805880124
 20
0.0000005582846825
 30
0.0
 11
12.37861805880124
 21
12.50659065229774
 31
0.0
  0
LINE
  5
151D
330
150D
100
AcDbEntity
  8
0
 62
     4
100
AcDbLine
 10
1.878618058801237
 20
0.0000005582846825
 30
0.0
 11
1.878618058801237
 21
12.50659065229774
 31
0.0
  0
ENDBLK
  5
1521
330
150D
100
AcDbEntity
  8
0
100
AcDbBlockEnd
  0
BLOCK
  5
153D
330
1533
100
AcDbEntity
  8
0
100
AcDbBlockBegin
  2
*D16
 70
     1
 10
0.0
 20
0.0
 30
0.0
  3
*D16
  1

  0
LINE
  5
1925
330
1533
100
AcDbEntity
  8
AM_REFDIM
100
AcDbLine
 10
295.4295457789513
 20
255.798256780903
 30
0.0
 11
289.2837342556145
 21
255.798256780903
 31
0.0
  0
LINE
  5
1926
330
1533
100
AcDbEntity
  8
AM_REFDIM
100
AcDbLine
 10
295.5795457789512
 20
276.798256780903
 30
0.0
 11
289.2837342556145
 21
276.798256780903
 31
0.0
  0
LINE
  5
1927
330
1533
100
AcDbEntity
  8
AM_REFDIM
100
AcDbLine
 10
290.2837342556146
 20
258.7982567809031
 30
0.0
 11
290.2837342556146
 21
273.7982567809031
 31
0.0
  0
SOLID
  5
1928
330
1533
100
AcDbEntity
  8
AM_REFDIM
100
AcDbTrace
 10
289.7837342556146
 20
258.7982567809031
 30
0.0
 11
290.7837342556145
 21
258.7982567809031
 31
0.0
 12
290.2837342556146
 22
255.798256780903
 32
0.0
 13
290.2837342556146
 23
255.798256780903
 33
0.0
  0
SOLID
  5
1929
330
1533
100
AcDbEntity
  8
AM_REFDIM
100
AcDbTrace
 10
289.7837342556146
 20
273.7982567809031
 30
0.0
 11
290.7837342556145
 21
273.7982567809031
 31
0.0
 12
290.2837342556146
 22
276.798256780903
 32
0.0
 13
290.2837342556146
 23
276.798256780903
 33
0.0
  0
MTEXT
  5
192A
330
1533
100
AcDbEntity
  8
AM_REFDIM
100
AcDbMText
 10
287.5333897674255
 20
266.2982567809031
 30
0.0
 40
3.5
 41
0.0
 71
     5
 72
     1
  1
\A1;21
 11
0.0000000000000001
 21
1.0
 31
0.0
 73
     1
 44
1.0
1001
ACAD
1000
MTEXTBEGIN
1070
    73
1070
     1
1070
    44
1040
1.0
1070
    74
1070
     0
1000
MTEXTEND
  0
POINT
  5
192B
330
1533
100
AcDbEntity
  8
Defpoints
 62
     0
100
AcDbPoint
 10
296.4295457789513
 20
255.798256780903
 30
0.0
  0
POINT
  5
192C
330
1533
100
AcDbEntity
  8
Defpoints
 62
     0
100
AcDbPoint
 10
296.5795457789512
 20
276.798256780903
 30
0.0
  0
POINT
  5
192D
330
1533
100
AcDbEntity
  8
Defpoints
 62
     0
100
AcDbPoint
 10
290.2837342556146
 20
276.798256780903
 30
0.0
  0
ENDBLK
  5
153E
330
1533
100
AcDbEntity
  8
0
100
AcDbBlockEnd
  0
BLOCK
  5
15DE
330
15D8
100
AcDbEntity
  8
0
100
AcDbBlockBegin
  2
*D17
 70
     1
 10
0.0
 20
0.0
 30
0.0
  3
*D17
  1

  0
LINE
  5
160C
330
15D8
100
AcDbEntity
  8
AM_5
100
AcDbLine
 10
369.9847408956952
 20
229.7025573486571
 30
0.0
 11
372.9555998547297
 21
240.2607970027851
 31
0.0
  0
LINE
  5
160D
330
15D8
100
AcDbEntity
  8
AM_5
100
AcDbLine
 10
372.9555998547297
 20
240.2607970027851
 30
0.0
 11
396.4944778074856
 21
240.2607970027851
 31
0.0
  0
SOLID
  5
160E
330
15D8
100
AcDbEntity
  8
AM_5
100
AcDbTrace
 10
369.5034315169315
 20
229.8379873376333
 30
0.0
 11
370.4660502744589
 21
229.5671273596808
 31
0.0
 12
369.1721609618376
 22
226.814701076075
 32
0.0
 13
369.1721609618376
 23
226.814701076075
 33
0.0
  0
MTEXT
  5
160F
330
15D8
100
AcDbEntity
  8
AM_5
100
AcDbMText
 10
385.0750388311073
 20
242.7111414909741
 30
0.0
 40
3.5
 41
0.0
 71
     5
 72
     1
  1
2*2-M5*0.8
 73
     1
 44
1.0
1001
ACAD
1000
MTEXTBEGIN
1070
    73
1070
     1
1070
    44
1040
1.0
1070
    74
1070
     0
1000
MTEXTEND
  0
POINT
  5
1610
330
15D8
100
AcDbEntity
  8
Defpoints
 62
     0
100
AcDbPoint
 10
369.1721609618376
 20
226.814701076075
 30
0.0
  0
POINT
  5
1611
330
15D8
100
AcDbEntity
  8
Defpoints
 62
     0
100
AcDbPoint
 10
368.0210060555392
 20
222.7235713565834
 30
0.0
  0
ENDBLK
  5
15DF
330
15D8
100
AcDbEntity
  8
0
100
AcDbBlockEnd
  0
BLOCK
  5
161D
330
1617
100
AcDbEntity
  8
0
100
AcDbBlockBegin
  2
*D18
 70
     1
 10
0.0
 20
0.0
 30
0.0
  3
*D18
  1

  0
LINE
  5
163F
330
1617
100
AcDbEntity
  8
AM_5
100
AcDbLine
 10
330.0674920558493
 20
233.7444138473875
 30
0.0
 11
332.1001791087935
 21
238.677723008061
 31
0.0
  0
LINE
  5
1640
330
1617
100
AcDbEntity
  8
AM_5
100
AcDbLine
 10
332.1001791087935
 20
238.677723008061
 30
0.0
 11
350.8840318083801
 21
238.677723008061
 31
0.0
  0
SOLID
  5
1641
330
1617
100
AcDbEntity
  8
AM_5
100
AcDbTrace
 10
329.6051967155703
 20
233.9348948657498
 30
0.0
 11
330.5297873961283
 21
233.5539328290251
 31
0.0
 12
328.9246059456751
 22
230.9706418057138
 32
0.0
 13
328.9246059456751
 23
230.9706418057138
 33
0.0
  0
MTEXT
  5
1642
330
1617
100
AcDbEntity
  8
AM_5
100
AcDbMText
 10
341.8421054585871
 20
241.12806749625
 30
0.0
 40
3.5
 41
0.0
 71
     5
 72
     1
  1
2-M3*0.5
 73
     1
 44
1.0
1001
ACAD
1000
MTEXTBEGIN
1070
    73
1070
     1
1070
    44
1040
1.0
1070
    74
1070
     0
1000
MTEXTEND
  0
POINT
  5
1643
330
1617
100
AcDbEntity
  8
Defpoints
 62
     0
100
AcDbPoint
 10
328.9246059456751
 20
230.9706418057138
 30
0.0
  0
POINT
  5
1644
330
1617
100
AcDbEntity
  8
Defpoints
 62
     0
100
AcDbPoint
 10
327.9344856122275
 20
228.5676306269437
 30
0.0
  0
ENDBLK
  5
161E
330
1617
100
AcDbEntity
  8
0
100
AcDbBlockEnd
  0
BLOCK
  5
1747
330
1732
100
AcDbEntity
  8
0
100
AcDbBlockBegin
  2
A$C70C829B3
 70
     0
 10
0.0
 20
0.0
 30
0.0
  3
A$C70C829B3
  1

  0
LINE
  5
1733
330
1732
100
AcDbEntity
  8
0
 62
     4
100
AcDbLine
 10
75.37861752873329
 20
0.0000000898305075
 30
0.0
 11
75.37861752873329
 21
12.50659018384357
 31
0.0
  0
LINE
  5
1734
330
1732
100
AcDbEntity
  8
0
 62
     4
100
AcDbLine
 10
85.87861752873328
 20
0.0000000898305075
 30
0.0
 11
85.87861752873328
 21
12.50659018384357
 31
0.0
  0
TEXT
  5
1735
330
1732
100
AcDbEntity
  8
0
 62
     4
100
AcDbText
 10
74.74829063087174
 20
15.67507311194248
 30
0.0
 40
3.0
  1
3
 41
0.75
  7
CHINESET
100
AcDbText
  0
TEXT
  5
1736
330
1732
100
AcDbEntity
  8
0
 62
     4
100
AcDbText
 10
63.76738973134212
 20
15.67507311194248
 30
0.0
 40
3.0
  1
4
 41
0.75
  7
CHINESET
100
AcDbText
  0
TEXT
  5
1737
330
1732
100
AcDbEntity
  8
0
 62
     4
100
AcDbText
 10
53.79450622391852
 20
15.67507311194248
 30
0.0
 40
3.0
  1
5
 41
0.75
  7
CHINESET
100
AcDbText
  0
TEXT
  5
1738
330
1732
100
AcDbEntity
  8
0
 62
     4
100
AcDbText
 10
42.76585757321259
 20
15.67507311194248
 30
0.0
 40
3.0
  1
6
 41
0.75
  7
CHINESET
100
AcDbText
  0
TEXT
  5
1739
330
1732
100
AcDbEntity
  8
0
 62
     4
100
AcDbText
 10
32.59549659208307
 20
15.67507311194248
 30
0.0
 40
3.0
  1
7
 41
0.75
  7
CHINESET
100
AcDbText
  0
TEXT
  5
173A
330
1732
100
AcDbEntity
  8
0
 62
     4
100
AcDbText
 10
22.05729715611761
 20
15.67507311194248
 30
0.0
 40
3.0
  1
8
 41
0.75
  7
CHINESET
100
AcDbText
  0
TEXT
  5
173B
330
1732
100
AcDbEntity
  8
0
 62
     4
100
AcDbText
 10
11.02864850541192
 20
15.67507311194248
 30
0.0
 40
3.0
  1
9
 41
0.75
  7
CHINESET
100
AcDbText
  0
TEXT
  5
173C
330
1732
100
AcDbEntity
  8
0
 62
     4
100
AcDbText
 10
-0.0000001452939955
 20
15.67507311194248
 30
0.0
 40
3.0
  1
10
 41
0.75
  7
CHINESET
100
AcDbText
  0
LINE
  5
173D
330
1732
100
AcDbEntity
  8
0
 62
     4
100
AcDbLine
 10
64.87861752873328
 20
0.0000000898305075
 30
0.0
 11
64.87861752873328
 21
12.50659018384357
 31
0.0
  0
LINE
  5
173E
330
1732
100
AcDbEntity
  8
0
 62
     4
100
AcDbLine
 10
54.37861752873328
 20
0.0000000898305075
 30
0.0
 11
54.37861752873328
 21
12.50659018384357
 31
0.0
  0
LINE
  5
173F
330
1732
100
AcDbEntity
  8
0
 62
     4
100
AcDbLine
 10
43.87861752873329
 20
0.0000000898305075
 30
0.0
 11
43.87861752873329
 21
12.50659018384357
 31
0.0
  0
LINE
  5
1740
330
1732
100
AcDbEntity
  8
0
 62
     4
100
AcDbLine
 10
33.37861752873329
 20
0.0000000898305075
 30
0.0
 11
33.37861752873329
 21
12.50659018384357
 31
0.0
  0
LINE
  5
1741
330
1732
100
AcDbEntity
  8
0
 62
     4
100
AcDbLine
 10
22.87861752873329
 20
0.0000000898305075
 30
0.0
 11
22.87861752873329
 21
12.50659018384357
 31
0.0
  0
LINE
  5
1742
330
1732
100
AcDbEntity
  8
0
 62
     4
100
AcDbLine
 10
12.37861752873328
 20
0.0000000898305075
 30
0.0
 11
12.37861752873328
 21
12.50659018384357
 31
0.0
  0
LINE
  5
1743
330
1732
100
AcDbEntity
  8
0
 62
     4
100
AcDbLine
 10
1.878617528733286
 20
0.0000000898305075
 30
0.0
 11
1.878617528733286
 21
12.50659018384357
 31
0.0
  0
TEXT
  5
1744
330
1732
100
AcDbEntity
  8
0
 62
     4
100
AcDbText
 10
84.93520981441127
 20
15.67507311194248
 30
0.0
 40
3.0
  1
2
 41
0.75
  7
CHINESET
100
AcDbText
  0
ENDBLK
  5
1748
330
1732
100
AcDbEntity
  8
0
100
AcDbBlockEnd
  0
BLOCK
  5
1864
330
185E
100
AcDbEntity
  8
0
100
AcDbBlockBegin
  2
A$C29E31EDB
 70
     0
 10
0.0
 20
0.0
 30
0.0
  3
A$C29E31EDB
  1

  0
LINE
  5
185F
330
185E
100
AcDbEntity
  8
SL
100
AcDbLine
 10
0.0
 20
0.6911753860061936
 30
0.0
 11
8.787074561278132
 21
0.6911753860061936
 31
0.0
  0
TRACE
  5
1860
330
185E
100
AcDbEntity
  8
SL
370
    35
100
AcDbTrace
 10
8.787074561278132
 20
-0.0000002232437737
 30
0.0
 11
8.787074561278132
 21
1.38235099525616
 31
0.0
 12
14.03707456127813
 22
0.6911753860061936
 32
0.0
 13
14.03707456127813
 23
0.6911753860061936
 33
0.0
  0
MTEXT
  5
1861
330
185E
100
AcDbEntity
  8
SL
100
AcDbMText
 10
3.57376164884431
 20
1.266163268973059
 30
0.0
 40
3.674999999999999
 41
0.0
 71
     7
 72
     5
  1
SL
  7
ACISOTS
 73
     1
 44
1.0
1001
ACAD
1000
MTEXTBEGIN
1070
    73
1070
     1
1070
    44
1040
1.0
1070
    74
1070
     0
1000
MTEXTEND
  0
ENDBLK
  5
1865
330
185E
100
AcDbEntity
  8
0
100
AcDbBlockEnd
  0
BLOCK
  5
1891
330
187C
100
AcDbEntity
  8
0
100
AcDbBlockBegin
  2
A$C06FA3B76
 70
     0
 10
0.0
 20
0.0
 30
0.0
  3
A$C06FA3B76
  1

  0
LINE
  5
187D
330
187C
100
AcDbEntity
  8
0
 62
     4
100
AcDbLine
 10
75.37861793218934
 20
-0.0000000191552658
 30
0.0
 11
75.37861793218934
 21
12.50659007485779
 31
0.0
  0
LINE
  5
187E
330
187C
100
AcDbEntity
  8
0
 62
     4
100
AcDbLine
 10
85.87861793218934
 20
-0.0000000191552658
 30
0.0
 11
85.87861793218934
 21
12.50659007485779
 31
0.0
  0
TEXT
  5
187F
330
187C
100
AcDbEntity
  8
0
 62
     4
100
AcDbText
 10
74.74829103432779
 20
15.67507300295671
 30
0.0
 40
3.0
  1
9
 41
0.75
  7
CHINESET
100
AcDbText
  0
TEXT
  5
1880
330
187C
100
AcDbEntity
  8
0
 62
     4
100
AcDbText
 10
63.76739013479817
 20
15.67507300295671
 30
0.0
 40
3.0
  1
8
 41
0.75
  7
CHINESET
100
AcDbText
  0
TEXT
  5
1881
330
187C
100
AcDbEntity
  8
0
 62
     4
100
AcDbText
 10
53.79450662737458
 20
15.67507300295671
 30
0.0
 40
3.0
  1
7
 41
0.75
  7
CHINESET
100
AcDbText
  0
TEXT
  5
1882
330
187C
100
AcDbEntity
  8
0
 62
     4
100
AcDbText
 10
42.76585797666865
 20
15.67507300295671
 30
0.0
 40
3.0
  1
6
 41
0.75
  7
CHINESET
100
AcDbText
  0
TEXT
  5
1883
330
187C
100
AcDbEntity
  8
0
 62
     4
100
AcDbText
 10
32.59549699553912
 20
15.67507300295671
 30
0.0
 40
3.0
  1
5
 41
0.75
  7
CHINESET
100
AcDbText
  0
TEXT
  5
1884
330
187C
100
AcDbEntity
  8
0
 62
     4
100
AcDbText
 10
22.05729755957367
 20
15.67507300295671
 30
0.0
 40
3.0
  1
4
 41
0.75
  7
CHINESET
100
AcDbText
  0
TEXT
  5
1885
330
187C
100
AcDbEntity
  8
0
 62
     4
100
AcDbText
 10
11.02864890886798
 20
15.67507300295671
 30
0.0
 40
3.0
  1
3
 41
0.75
  7
CHINESET
100
AcDbText
  0
TEXT
  5
1886
330
187C
100
AcDbEntity
  8
0
 62
     4
100
AcDbText
 10
0.0000002581620606
 20
15.67507300295671
 30
0.0
 40
3.0
  1
2
 41
0.75
  7
CHINESET
100
AcDbText
  0
LINE
  5
1887
330
187C
100
AcDbEntity
  8
0
 62
     4
100
AcDbLine
 10
64.87861793218934
 20
-0.0000000191552658
 30
0.0
 11
64.87861793218934
 21
12.50659007485779
 31
0.0
  0
LINE
  5
1888
330
187C
100
AcDbEntity
  8
0
 62
     4
100
AcDbLine
 10
54.37861793218934
 20
-0.0000000191552658
 30
0.0
 11
54.37861793218934
 21
12.50659007485779
 31
0.0
  0
LINE
  5
1889
330
187C
100
AcDbEntity
  8
0
 62
     4
100
AcDbLine
 10
43.87861793218934
 20
-0.0000000191552658
 30
0.0
 11
43.87861793218934
 21
12.50659007485779
 31
0.0
  0
LINE
  5
188A
330
187C
100
AcDbEntity
  8
0
 62
     4
100
AcDbLine
 10
33.37861793218934
 20
-0.0000000191552658
 30
0.0
 11
33.37861793218934
 21
12.50659007485779
 31
0.0
  0
LINE
  5
188B
330
187C
100
AcDbEntity
  8
0
 62
     4
100
AcDbLine
 10
22.87861793218934
 20
-0.0000000191552658
 30
0.0
 11
22.87861793218934
 21
12.50659007485779
 31
0.0
  0
LINE
  5
188C
330
187C
100
AcDbEntity
  8
0
 62
     4
100
AcDbLine
 10
12.37861793218934
 20
-0.0000000191552658
 30
0.0
 11
12.37861793218934
 21
12.50659007485779
 31
0.0
  0
LINE
  5
188D
330
187C
100
AcDbEntity
  8
0
 62
     4
100
AcDbLine
 10
1.878617932189342
 20
-0.0000000191552658
 30
0.0
 11
1.878617932189342
 21
12.50659007485779
 31
0.0
  0
TEXT
  5
188E
330
187C
100
AcDbEntity
  8
0
 62
     4
100
AcDbText
 10
84.93521021786733
 20
15.67507300295671
 30
0.0
 40
3.0
  1
10
 41
0.75
  7
CHINESET
100
AcDbText
  0
ENDBLK
  5
1892
330
187C
100
AcDbEntity
  8
0
100
AcDbBlockEnd
  0
ENDSEC
  0
SECTION
  2
ENTITIES
  0
LINE
  5
C92
330
1F
100
AcDbEntity
  8
0
100
AcDbLine
 10
220.3626684483135
 20
278.7030889547615
 30
0.0
 11
220.3626684483135
 21
238.3830889547617
 31
0.0
  0
LINE
  5
C93
330
1F
100
AcDbEntity
  8
0
100
AcDbLine
 10
258.3355252199419
 20
278.7030889547618
 30
0.0
 11
258.3355252199419
 21
270.6390889547618
 31
0.0
  0
LINE
  5
C94
330
1F
100
AcDbEntity
  8
0
100
AcDbLine
 10
273.4555252199418
 20
278.7030889547618
 30
0.0
 11
273.4555252199418
 21
270.639088954762
 31
0.0
  0
LINE
  5
C95
330
1F
100
AcDbEntity
  8
0
100
AcDbLine
 10
243.2155252199413
 20
278.7030889547615
 30
0.0
 11
243.2155252199438
 21
238.3830889547617
 31
0.0
  0
LINE
  5
C96
330
1F
100
AcDbEntity
  8
0
100
AcDbLine
 10
220.3626684483135
 20
270.6390889547618
 30
0.0
 11
273.4555252199418
 21
270.6390889547618
 31
0.0
  0
LINE
  5
C97
330
1F
100
AcDbEntity
  8
0
100
AcDbLine
 10
220.3626684483135
 20
274.6710889547617
 30
0.0
 11
273.4555252199418
 21
274.6710889547617
 31
0.0
  0
TEXT
  5
C98
330
1F
100
AcDbEntity
  8
0
100
AcDbText
 10
231.1819491978162
 20
271.3244705368233
 30
0.0
 40
2.531438691876864
  1
2
 41
0.8
  7
CHINESET
 72
     4
 11
231.8569995156501
 21
272.5901898827617
 31
0.0
100
AcDbText
  0
TEXT
  5
C99
330
1F
100
AcDbEntity
  8
0
100
AcDbText
 10
221.8361851360807
 20
275.9061087134095
 30
0.0
 40
2.016
  1
No. of stations
 41
0.8
  7
CHINESET
100
AcDbText
  0
TEXT
  5
C9A
330
1F
100
AcDbEntity
  8
0
100
AcDbText
 10
246.9830160664489
 20
271.3453583000547
 30
0.0
 40
2.519999999999999
  1
28.5
 41
0.8
  7
CHINESET
100
AcDbText
  0
TEXT
  5
C9B
330
1F
100
AcDbEntity
  8
0
100
AcDbText
 10
249.4329139179512
 20
275.3956399200839
 30
0.0
 40
2.519999999999999
  1
P
 41
0.8
  7
CHINESET
100
AcDbText
  0
LINE
  5
C9C
330
1F
100
AcDbEntity
  8
0
100
AcDbLine
 10
220.3626684483135
 20
278.7030889547618
 30
0.0
 11
273.4555252199418
 21
278.7030889547618
 31
0.0
  0
LINE
  5
C9D
330
1F
100
AcDbEntity
  8
0
100
AcDbLine
 10
258.3355252199414
 20
278.7030889547615
 30
0.0
 11
258.3355252199437
 21
238.3830889547617
 31
0.0
  0
LINE
  5
C9E
330
1F
100
AcDbEntity
  8
0
100
AcDbLine
 10
273.4555252199415
 20
278.7030889547615
 30
0.0
 11
273.4555252199436
 21
238.3830889547617
 31
0.0
  0
LINE
  5
C9F
330
1F
100
AcDbEntity
  8
0
100
AcDbLine
 10
220.3626684483135
 20
266.6070889547618
 30
0.0
 11
273.4555252199418
 21
266.6070889547618
 31
0.0
  0
LINE
  5
CA0
330
1F
100
AcDbEntity
  8
0
100
AcDbLine
 10
220.3626684483135
 20
262.5750889547618
 30
0.0
 11
273.4555252199418
 21
262.5750889547618
 31
0.0
  0
LINE
  5
CA1
330
1F
100
AcDbEntity
  8
0
100
AcDbLine
 10
220.3626684483135
 20
258.5430889547617
 30
0.0
 11
273.4555252199418
 21
258.5430889547617
 31
0.0
  0
LINE
  5
CA2
330
1F
100
AcDbEntity
  8
0
100
AcDbLine
 10
220.3626684483135
 20
254.5110889547617
 30
0.0
 11
273.4555252199418
 21
254.5110889547617
 31
0.0
  0
LINE
  5
CA3
330
1F
100
AcDbEntity
  8
0
100
AcDbLine
 10
220.3626684483135
 20
250.4790889547617
 30
0.0
 11
273.4555252199418
 21
250.4790889547617
 31
0.0
  0
LINE
  5
CA4
330
1F
100
AcDbEntity
  8
0
100
AcDbLine
 10
220.3626684483135
 20
246.4470889547617
 30
0.0
 11
273.4555252199418
 21
246.4470889547617
 31
0.0
  0
LINE
  5
CA5
330
1F
100
AcDbEntity
  8
0
100
AcDbLine
 10
220.3626684483135
 20
242.4150889547618
 30
0.0
 11
273.4555252199418
 21
242.4150889547618
 31
0.0
  0
LINE
  5
CA6
330
1F
100
AcDbEntity
  8
0
100
AcDbLine
 10
220.3626684483135
 20
238.3830889547617
 30
0.0
 11
273.4555252199418
 21
238.3830889547617
 31
0.0
  0
TEXT
  5
CA7
330
1F
100
AcDbEntity
  8
0
100
AcDbText
 10
231.1819491978162
 20
267.2924705368233
 30
0.0
 40
2.531438691876864
  1
3
 41
0.8
  7
CHINESET
 72
     4
 11
231.8569995156501
 21
268.5581898827617
 31
0.0
100
AcDbText
  0
TEXT
  5
CA8
330
1F
100
AcDbEntity
  8
0
100
AcDbText
 10
231.1337313179715
 20
263.2604705368233
 30
0.0
 40
2.531438691876864
  1
4
 41
0.8
  7
CHINESET
 72
     4
 11
231.8569995156506
 21
264.5261898827617
 31
0.0
100
AcDbText
  0
TEXT
  5
CA9
330
1F
100
AcDbEntity
  8
0
100
AcDbText
 10
231.1819491978172
 20
259.2284705368233
 30
0.0
 40
2.531438691876864
  1
5
 41
0.8
  7
CHINESET
 72
     4
 11
231.856999515651
 21
260.4941898827617
 31
0.0
100
AcDbText
  0
TEXT
  5
CAA
330
1F
100
AcDbEntity
  8
0
100
AcDbText
 10
231.2301670776625
 20
255.1964705368233
 30
0.0
 40
2.531438691876864
  1
6
 41
0.8
  7
CHINESET
 72
     4
 11
231.856999515651
 21
256.4621898827617
 31
0.0
100
AcDbText
  0
TEXT
  5
CAB
330
1F
100
AcDbEntity
  8
0
100
AcDbText
 10
231.1819491978172
 20
251.1644705368233
 30
0.0
 40
2.531438691876864
  1
7
 41
0.8
  7
CHINESET
 72
     4
 11
231.856999515651
 21
252.4301898827618
 31
0.0
100
AcDbText
  0
TEXT
  5
CAC
330
1F
100
AcDbEntity
  8
0
100
AcDbText
 10
231.1819491978176
 20
247.1324705368233
 30
0.0
 40
2.531438691876864
  1
8
 41
0.8
  7
CHINESET
 72
     4
 11
231.8569995156515
 21
248.3981898827617
 31
0.0
100
AcDbText
  0
TEXT
  5
CAD
330
1F
100
AcDbEntity
  8
0
100
AcDbText
 10
231.2301670776633
 20
243.1004705368233
 30
0.0
 40
2.531438691876864
  1
9
 41
0.8
  7
CHINESET
 72
     4
 11
231.8569995156519
 21
244.3661898827617
 31
0.0
100
AcDbText
  0
TEXT
  5
CAE
330
1F
100
AcDbEntity
  8
0
100
AcDbText
 10
230.4104631202937
 20
239.0684705368233
 30
0.0
 40
2.531438691876864
  1
10
 41
0.8
  7
CHINESET
 72
     4
 11
231.8569995156519
 21
240.3341898827617
 31
0.0
100
AcDbText
  0
TEXT
  5
CAF
330
1F
100
AcDbEntity
  8
0
100
AcDbText
 10
262.103016066449
 20
271.3453583000547
 30
0.0
 40
2.519999999999999
  1
35.5
 41
0.8
  7
CHINESET
100
AcDbText
  0
TEXT
  5
CB0
330
1F
100
AcDbEntity
  8
0
100
AcDbText
 10
246.9830160664489
 20
267.3133583000547
 30
0.0
 40
2.519999999999999
  1
39
 41
0.8
  7
CHINESET
100
AcDbText
  0
TEXT
  5
CB1
330
1F
100
AcDbEntity
  8
0
100
AcDbText
 10
262.103016066449
 20
267.3133583000547
 30
0.0
 40
2.519999999999999
  1
46
 41
0.8
  7
CHINESET
100
AcDbText
  0
TEXT
  5
CB2
330
1F
100
AcDbEntity
  8
0
100
AcDbText
 10
246.9830160664496
 20
263.2813583000547
 30
0.0
 40
2.519999999999999
  1
49.5
 41
0.8
  7
CHINESET
100
AcDbText
  0
TEXT
  5
CB3
330
1F
100
AcDbEntity
  8
0
100
AcDbText
 10
262.1030160664495
 20
263.2813583000547
 30
0.0
 40
2.519999999999999
  1
56.5
 41
0.8
  7
CHINESET
100
AcDbText
  0
TEXT
  5
CB4
330
1F
100
AcDbEntity
  8
0
100
AcDbText
 10
246.98301606645
 20
259.2493583000547
 30
0.0
 40
2.519999999999999
  1
60
 41
0.8
  7
CHINESET
100
AcDbText
  0
TEXT
  5
CB5
330
1F
100
AcDbEntity
  8
0
100
AcDbText
 10
262.1030160664499
 20
259.2493583000547
 30
0.0
 40
2.519999999999999
  1
67
 41
0.8
  7
CHINESET
100
AcDbText
  0
TEXT
  5
CB6
330
1F
100
AcDbEntity
  8
0
100
AcDbText
 10
246.98301606645
 20
255.2173583000547
 30
0.0
 40
2.519999999999999
  1
70.5
 41
0.8
  7
CHINESET
100
AcDbText
  0
TEXT
  5
CB7
330
1F
100
AcDbEntity
  8
0
100
AcDbText
 10
262.1030160664499
 20
255.2173583000547
 30
0.0
 40
2.519999999999999
  1
77.5
 41
0.8
  7
CHINESET
100
AcDbText
  0
TEXT
  5
CB8
330
1F
100
AcDbEntity
  8
0
100
AcDbText
 10
246.98301606645
 20
251.1853583000547
 30
0.0
 40
2.519999999999999
  1
81
 41
0.8
  7
CHINESET
100
AcDbText
  0
TEXT
  5
CB9
330
1F
100
AcDbEntity
  8
0
100
AcDbText
 10
262.1030160664499
 20
251.1853583000547
 30
0.0
 40
2.519999999999999
  1
88
 41
0.8
  7
CHINESET
100
AcDbText
  0
TEXT
  5
CBA
330
1F
100
AcDbEntity
  8
0
100
AcDbText
 10
246.9830160664505
 20
247.1533583000546
 30
0.0
 40
2.519999999999999
  1
91.5
 41
0.8
  7
CHINESET
100
AcDbText
  0
TEXT
  5
CBB
330
1F
100
AcDbEntity
  8
0
100
AcDbText
 10
262.1030160664504
 20
247.1533583000546
 30
0.0
 40
2.519999999999999
  1
98.5
 41
0.8
  7
CHINESET
100
AcDbText
  0
TEXT
  5
CBC
330
1F
100
AcDbEntity
  8
0
100
AcDbText
 10
246.983016066451
 20
243.1213583000547
 30
0.0
 40
2.519999999999999
  1
102
 41
0.8
  7
CHINESET
100
AcDbText
  0
TEXT
  5
CBD
330
1F
100
AcDbEntity
  8
0
100
AcDbText
 10
262.1030160664509
 20
243.1213583000547
 30
0.0
 40
2.519999999999999
  1
109
 41
0.8
  7
CHINESET
100
AcDbText
  0
TEXT
  5
CBE
330
1F
100
AcDbEntity
  8
0
100
AcDbText
 10
246.983016066451
 20
239.0893583000547
 30
0.0
 40
2.519999999999999
  1
112.5
 41
0.8
  7
CHINESET
100
AcDbText
  0
TEXT
  5
CBF
330
1F
100
AcDbEntity
  8
0
100
AcDbText
 10
262.1030160664509
 20
239.0893583000547
 30
0.0
 40
2.519999999999999
  1
119.5
 41
0.8
  7
CHINESET
100
AcDbText
  0
TEXT
  5
CC0
330
1F
100
AcDbEntity
  8
0
100
AcDbText
 10
264.5529139179511
 20
275.3956399200839
 30
0.0
 40
2.519999999999999
  1
L
 41
0.8
  7
CHINESET
100
AcDbText
  0
CIRCLE
  5
CC2
330
1F
100
AcDbEntity
  8
0
100
AcDbCircle
 10
218.5657959770726
 20
272.7436979853351
 30
0.0
 40
1.026978008781671
  0
CIRCLE
  5
CC3
330
1F
100
AcDbEntity
  8
0
100
AcDbCircle
 10
218.5657959770726
 20
272.7436979853351
 30
0.0
 40
0.6682580190975268
  0
LINE
  5
DCA
330
1F
100
AcDbEntity
  8
LOGO
 62
     4
100
AcDbLine
 10
242.029623113581
 20
185.8399667798264
 30
0.0
 11
242.029623113581
 21
200.5258400105958
 31
0.0
  0
TEXT
  5
DCB
330
1F
100
AcDbEntity
  8
LOGO
  6
Continuous
100
AcDbText
 10
214.9959336846584
 20
188.7249844130959
 30
0.0
 40
2.202880984615384
  1
金器工業股份有限公司
  7
CHINESET
100
AcDbText
  0
TEXT
  5
DCC
330
1F
100
AcDbEntity
  8
LOGO
  6
Continuous
100
AcDbText
 10
210.9496771344305
 20
186.5216718365201
 30
0.0
 40
1.468587323076923
  1
MINDMAN INDUSTRIAL CO., LTD.
 41
0.85
  7
CHINESET
100
AcDbText
  0
LINE
  5
DCD
330
1F
100
AcDbEntity
  8
LOGO
 62
     4
100
AcDbLine
 10
242.029623113581
 20
197.5886653644418
 30
0.0
 11
220.4903423751194
 21
197.5886653644418
 31
0.0
  0
LINE
  5
DCE
330
1F
100
AcDbEntity
  8
LOGO
 62
     4
100
AcDbLine
 10
242.029623113581
 20
194.651490718288
 30
0.0
 11
220.4903423751194
 21
194.651490718288
 31
0.0
  0
LINE
  5
DCF
330
1F
100
AcDbEntity
  8
LOGO
 62
     4
100
AcDbLine
 10
242.029623113581
 20
191.7143160721343
 30
0.0
 11
209.7207020058887
 21
191.7143160721343
 31
0.0
  0
LINE
  5
DD0
330
1F
100
AcDbEntity
  8
LOGO
 62
     4
100
AcDbLine
 10
220.4903423751194
 20
191.7143160721343
 30
0.0
 11
220.4903423751194
 21
200.5258400105958
 31
0.0
  0
TEXT
  5
DD1
330
1F
100
AcDbEntity
  8
LOGO
100
AcDbText
 10
235.2114241212925
 20
192.4486097336725
 30
0.0
 40
1.468587323076923
  1
mm
  7
CHINESET
 72
     1
 11
237.029675092721
 21
193.1829033952109
 31
0.0
100
AcDbText
 73
     2
  0
TEXT
  5
DD2
330
1F
100
AcDbEntity
  8
LOGO
100
AcDbText
 10
234.4421640949188
 20
198.3229590259802
 30
0.0
 40
1.468587323076923
  1
1 : 1
  7
CHINESET
 72
     1
 11
237.029675092721
 21
199.0572526875187
 31
0.0
100
AcDbText
 73
     2
  0
LINE
  5
DD3
330
1F
100
AcDbEntity
  8
LOGO
 62
     4
100
AcDbLine
 10
232.2390409597348
 20
191.7143160721343
 30
0.0
 11
232.2390409597348
 21
200.5258400105958
 31
0.0
  0
TEXT
  5
DD4
330
1F
100
AcDbEntity
  8
LOGO
100
AcDbText
 10
221.7012712973172
 20
198.323681755962
 30
96.24879379818059
 40
1.468587323076923
  1
比例 Scale:
 41
0.9
  7
CHINESET
 72
     4
 11
226.3646916674271
 21
199.0572526875187
 31
96.24879379818059
100
AcDbText
  0
TEXT
  5
DD5
330
1F
100
AcDbEntity
  8
LOGO
100
AcDbText
 10
221.6166964023722
 20
195.406442411807
 30
96.24879379818059
 40
1.468587323076923
  1
投影  View:
 41
0.9
  7
CHINESET
 72
     4
 11
226.3646916674271
 21
196.1200780413648
 31
96.24879379818059
100
AcDbText
  0
TEXT
  5
DD6
330
1F
100
AcDbEntity
  8
LOGO
100
AcDbText
 10
221.7602770379766
 20
192.4486097336725
 30
96.24879379818059
 40
1.468587323076923
  1
單位  Unit:
 41
0.9
  7
CHINESET
 72
     4
 11
226.3646916674271
 21
193.1829033952109
 31
96.24879379818059
100
AcDbText
  0
LWPOLYLINE
  5
DD7
330
1F
100
AcDbEntity
  8
LOGO
 62
     4
100
AcDbPolyline
 90
        4
 70
     1
 43
0.0
 10
209.7207020058887
 20
200.5258400105958
 10
411.6807020058888
 20
200.5258400105958
 10
411.6807020058888
 20
332.7199667798261
 10
209.7207020058887
 20
332.7199667798261
1001
GENIUS_GENREC_14
1002
{
1000
PYDIR
1011
209.7207020058887
1021
332.7199667798261
1031
0.0
1002
}
1002
{
1000
PXDIR
1011
411.6807020058888
1021
200.5258400105958
1031
0.0
1002
}
1002
{
1000
PORI
1011
209.7207020058887
1021
200.5258400105958
1031
0.0
1002
}
1002
{
1000
PINS
1011
209.7207020058887
1021
200.5258400105958
1031
0.0
1002
}
1002
{
1000
PINS2
1011
411.6807020058888
1021
332.7199667798261
1031
0.0
1002
}
1002
{
1000
C
1070
     1
1002
}
1001
GENIUS_GENODEF_13
1002
{
1000
HIER
1070
     0
1002
}
1002
{
1000
MANEDIT
1070
     0
1002
}
1002
{
1000
NOSEL
1070
     0
1002
}
1002
{
1000
BEHIND
1070
     0
1002
}
1002
{
1000
OTHER
1070
     0
1002
}
1002
{
1000
REACTOR
1002
}
1001
GENIUS_GENOBJ-N-REC_13
1002
{
1000
OWNER
1000
GEN
1002
}
  0
SOLID
  5
DD8
330
1F
100
AcDbEntity
  8
LOGO
 62
     5
100
AcDbTrace
 10
211.2443849226148
 20
194.1556334598049
 30
0.0
 11
211.8793635453819
 21
194.1556334598047
 31
0.0
 12
214.5287571093411
 22
200.1769824688034
 32
0.0
 13
215.1637357321085
 23
200.1769824688031
 33
0.0
  0
SOLID
  5
DD9
330
1F
100
AcDbEntity
  8
LOGO
 62
     5
100
AcDbTrace
 10
212.1421133203207
 20
194.1556334598049
 30
0.0
 11
212.7770919430878
 21
194.1556334598049
 31
0.0
 12
215.1637357321085
 22
199.6952745480832
 32
0.0
 13
214.5287571093411
 23
197.3670195979372
 33
0.0
  0
SOLID
  5
DDA
330
1F
100
AcDbEntity
  8
LOGO
 62
     2
100
AcDbTrace
 10
211.8793635453819
 20
194.1556334598047
 30
0.0
 11
212.1421133203207
 21
194.1556334598049
 31
0.0
 12
215.1637357321085
 22
200.1769824688031
 32
0.0
 13
215.4264855070469
 23
200.1769824688031
 33
0.0
  0
SOLID
  5
DDB
330
1F
100
AcDbEntity
  8
LOGO
 62
     5
100
AcDbTrace
 10
210.2263584744867
 20
191.9660520019873
 30
0.0
 11
210.4453166202687
 21
191.9660520019873
 31
0.0
 12
211.0619198011302
 22
193.060842730896
 32
0.0
 13
211.2808779469115
 23
193.060842730896
 33
0.0
  0
SOLID
  5
DDC
330
1F
100
AcDbEntity
  8
LOGO
 62
     5
100
AcDbTrace
 10
211.0619198011302
 20
193.060842730896
 30
0.0
 11
211.2808779469115
 21
193.060842730896
 31
0.0
 12
211.0619198011302
 22
191.9660520019873
 32
0.0
 13
211.2808779469115
 23
191.9660520019873
 33
0.0
  0
SOLID
  5
DDD
330
1F
100
AcDbEntity
  8
LOGO
 62
     5
100
AcDbTrace
 10
211.0619198011302
 20
191.9660520019873
 30
0.0
 11
211.2808779469115
 21
191.9660520019873
 31
0.0
 12
211.897481127774
 22
193.060842730896
 32
0.0
 13
212.1164392735557
 23
193.060842730896
 33
0.0
  0
SOLID
  5
DDE
330
1F
100
AcDbEntity
  8
LOGO
 62
     5
100
AcDbTrace
 10
211.897481127774
 20
193.060842730896
 30
0.0
 11
212.1164392735557
 21
193.060842730896
 31
0.0
 12
211.897481127774
 22
191.9660520019873
 32
0.0
 13
212.1164392735557
 23
191.9660520019873
 33
0.0
  0
POLYLINE
  5
DDF
330
1F
100
AcDbEntity
  8
LOGO
 62
     5
100
AcDb2dPolyline
 66
     1
 10
0.0
 20
0.0
 30
0.0
 40
0.2193090402461538
 41
0.2193090402461538
  0
VERTEX
  5
DE0
330
DDF
100
AcDbEntity
  8
LOGO
 62
     5
100
AcDbVertex
100
AcDb2dVertex
 10
219.2368835853461
 20
192.6229264393325
 30
0.0
 42
1.0
  0
VERTEX
  5
DE1
330
DDF
100
AcDbEntity
  8
LOGO
 62
     5
100
AcDbVertex
100
AcDb2dVertex
 10
218.5789564646075
 20
192.6229264393325
 30
0.0
 42
1.0
  0
SEQEND
  5
DE2
330
DDF
100
AcDbEntity
  8
LOGO
 62
     5
  0
POLYLINE
  5
DE3
330
1F
100
AcDbEntity
  8
LOGO
 62
     5
100
AcDb2dPolyline
 66
     1
 10
0.0
 20
0.0
 30
0.0
 70
     1
  0
VERTEX
  5
DE4
330
DE3
100
AcDbEntity
  8
LOGO
 62
     5
100
AcDbVertex
100
AcDb2dVertex
 10
217.3387345774168
 20
192.5134473664416
 30
0.0
 42
1.000000057330635
  0
VERTEX
  5
DE5
330
DE3
100
AcDbEntity
  8
LOGO
 62
     5
100
AcDbVertex
100
AcDb2dVertex
 10
217.9956090147621
 20
192.5134473664416
 30
0.0
 42
1.000000057330635
  0
SEQEND
  5
DE6
330
DE3
100
AcDbEntity
  8
LOGO
 62
     5
  0
CIRCLE
  5
DE7
330
1F
100
AcDbEntity
  8
LOGO
 62
     5
100
AcDbCircle
 10
217.6671717960899
 20
192.5134473664416
 30
0.0
 40
0.32843721867264
  0
POLYLINE
  5
DE8
330
1F
100
AcDbEntity
  8
LOGO
 62
     5
100
AcDb2dPolyline
 66
     1
 10
0.0
 20
0.0
 30
0.0
 70
     1
 40
0.2193090402461538
 41
0.2193090402461538
  0
VERTEX
  5
DE9
330
DE8
100
AcDbEntity
  8
LOGO
 62
     5
100
AcDbVertex
100
AcDb2dVertex
 10
217.2285537155973
 20
192.5134473664416
 30
0.0
 42
1.0
  0
VERTEX
  5
DEA
330
DE8
100
AcDbEntity
  8
LOGO
 62
     5
100
AcDbVertex
100
AcDb2dVertex
 10
218.1057898765819
 20
192.5134473664416
 30
0.0
 42
1.0
  0
SEQEND
  5
DEB
330
DE8
100
AcDbEntity
  8
LOGO
 62
     5
  0
LINE
  5
DEC
330
1F
100
AcDbEntity
  8
LOGO
100
AcDbLine
 10
219.34583631654
 20
191.9660520019873
 30
0.0
 11
219.34583631654
 21
192.6229264393325
 31
0.0
  0
SOLID
  5
DED
330
1F
100
AcDbEntity
  8
LOGO
 62
     5
100
AcDbTrace
 10
217.9955871189485
 20
193.060842730896
 30
0.0
 11
218.2145452647298
 21
193.060842730896
 31
0.0
 12
217.9955871189485
 22
191.9660520019873
 32
0.0
 13
218.2145452647298
 23
191.9660520019873
 33
0.0
  0
SOLID
  5
DEE
330
1F
100
AcDbEntity
  8
LOGO
 62
     5
100
AcDbTrace
 10
218.470003733413
 20
191.9660520019873
 30
0.0
 11
218.688961879195
 21
191.9660520019873
 31
0.0
 12
218.470003733413
 22
193.060842730896
 32
0.0
 13
218.688961879195
 23
193.060842730896
 33
0.0
  0
SOLID
  5
DEF
330
1F
100
AcDbEntity
  8
LOGO
 62
     5
100
AcDbTrace
 10
219.1268781707586
 20
192.6229264393325
 30
0.0
 11
219.34583631654
 21
192.6229264393325
 31
0.0
 12
219.1268781707586
 22
191.9660520019873
 32
0.0
 13
219.34583631654
 23
191.9660520019873
 33
0.0
  0
SOLID
  5
DF0
330
1F
100
AcDbEntity
  8
LOGO
 62
     5
100
AcDbTrace
 10
218.4481079188348
 20
199.6952745480832
 30
0.0
 11
217.813129296068
 21
197.3670195979372
 31
0.0
 12
218.4481079188348
 22
194.1556334598047
 32
0.0
 13
217.813129296068
 23
194.1556334598047
 33
0.0
  0
SOLID
  5
DF1
330
1F
100
AcDbEntity
  8
LOGO
 62
     5
100
AcDbTrace
 10
218.7108576937732
 20
194.1556334598047
 30
0.0
 11
219.34583631654
 21
194.1556334598047
 31
0.0
 12
218.7108576937732
 22
200.1769824688031
 32
0.0
 13
219.34583631654
 23
200.1769824688034
 33
0.0
  0
SOLID
  5
DF2
330
1F
100
AcDbEntity
  8
LOGO
 62
     2
100
AcDbTrace
 10
218.4481079188348
 20
200.1769824688034
 30
0.0
 11
218.7108576937732
 21
200.1769824688031
 31
0.0
 12
218.4481079188348
 22
194.1556334598047
 32
0.0
 13
218.7108576937732
 23
194.1556334598047
 33
0.0
  0
POLYLINE
  5
DF3
330
1F
100
AcDbEntity
  8
LOGO
 62
     5
100
AcDb2dPolyline
 66
     1
 10
0.0
 20
0.0
 30
0.0
 40
0.2193090402461538
 41
0.2193090402461538
  0
VERTEX
  5
DF4
330
DF3
100
AcDbEntity
  8
LOGO
 62
     5
100
AcDbVertex
100
AcDb2dVertex
 10
216.0984688985978
 20
192.6229264393325
 30
0.0
 42
1.0
  0
VERTEX
  5
DF5
330
DF3
100
AcDbEntity
  8
LOGO
 62
     5
100
AcDbVertex
100
AcDb2dVertex
 10
215.4405417778593
 20
192.6229264393325
 30
0.0
 42
1.0
  0
SEQEND
  5
DF6
330
DF3
100
AcDbEntity
  8
LOGO
 62
     5
  0
POLYLINE
  5
DF7
330
1F
100
AcDbEntity
  8
LOGO
 62
     5
100
AcDb2dPolyline
 66
     1
 10
0.0
 20
0.0
 30
0.0
 40
0.2193090402461538
 41
0.2193090402461538
  0
VERTEX
  5
DF8
330
DF7
100
AcDbEntity
  8
LOGO
 62
     5
100
AcDbVertex
100
AcDb2dVertex
 10
216.7553433359425
 20
192.6229264393325
 30
0.0
 42
1.0
  0
VERTEX
  5
DF9
330
DF7
100
AcDbEntity
  8
LOGO
 62
     5
100
AcDbVertex
100
AcDb2dVertex
 10
216.0974162152042
 20
192.6229264393325
 30
0.0
 42
1.0
  0
SEQEND
  5
DFA
330
DF7
100
AcDbEntity
  8
LOGO
 62
     5
  0
POLYLINE
  5
DFB
330
1F
100
AcDbEntity
  8
LOGO
 62
     5
100
AcDb2dPolyline
 66
     1
 10
0.0
 20
0.0
 30
0.0
 40
0.2193090402461538
 41
0.2193090402461538
  0
VERTEX
  5
DFC
330
DFB
100
AcDbEntity
  8
LOGO
 62
     5
100
AcDbVertex
100
AcDb2dVertex
 10
213.6169286491943
 20
192.6229264393325
 30
0.0
 42
1.0
  0
VERTEX
  5
DFD
330
DFB
100
AcDbEntity
  8
LOGO
 62
     5
100
AcDbVertex
100
AcDb2dVertex
 10
212.9590015284561
 20
192.6229264393325
 30
0.0
 42
1.0
  0
SEQEND
  5
DFE
330
DFB
100
AcDbEntity
  8
LOGO
 62
     5
  0
SOLID
  5
DFF
330
1F
100
AcDbEntity
  8
LOGO
 62
     5
100
AcDbTrace
 10
212.8500487972618
 20
193.060842730896
 30
0.0
 11
213.0690069430432
 21
193.060842730896
 31
0.0
 12
212.8500487972618
 22
191.9660520019873
 32
0.0
 13
213.0690069430432
 23
191.9660520019873
 33
0.0
  0
SOLID
  5
E00
330
1F
100
AcDbEntity
  8
LOGO
 62
     5
100
AcDbTrace
 10
213.5069232346072
 20
192.6229264393325
 30
0.0
 11
213.7258813803891
 21
192.6229264393325
 31
0.0
 12
213.5069232346072
 22
191.9660520019873
 32
0.0
 13
213.7258813803891
 23
191.9660520019873
 33
0.0
  0
POLYLINE
  5
E01
330
1F
100
AcDbEntity
  8
LOGO
 62
     5
100
AcDb2dPolyline
 66
     1
 10
0.0
 20
0.0
 30
0.0
 70
     1
 40
0.2193090402461538
 41
0.2193090402461538
  0
VERTEX
  5
E02
330
E01
100
AcDbEntity
  8
LOGO
 62
     5
100
AcDbVertex
100
AcDb2dVertex
 10
214.0901390288488
 20
192.5134473664416
 30
0.0
 42
1.0
  0
VERTEX
  5
E03
330
E01
100
AcDbEntity
  8
LOGO
 62
     5
100
AcDbVertex
100
AcDb2dVertex
 10
214.9673751898337
 20
192.5134473664416
 30
0.0
 42
1.0
  0
SEQEND
  5
E04
330
E01
100
AcDbEntity
  8
LOGO
 62
     5
  0
SOLID
  5
E05
330
1F
100
AcDbEntity
  8
LOGO
 62
     5
100
AcDbTrace
 10
214.8571724321997
 20
193.3892799495689
 30
0.0
 11
215.0761305779813
 21
193.3892799495689
 31
0.0
 12
214.8571724321997
 22
191.9660520019873
 32
0.0
 13
215.0761305779813
 23
191.9660520019873
 33
0.0
  0
SOLID
  5
E06
330
1F
100
AcDbEntity
  8
LOGO
 62
     5
100
AcDbTrace
 10
215.3315890466655
 20
193.060842730896
 30
0.0
 11
215.5505471924468
 21
193.060842730896
 31
0.0
 12
215.3315890466655
 22
191.9660520019873
 32
0.0
 13
215.5505471924468
 23
191.9660520019873
 33
0.0
  0
SOLID
  5
E07
330
1F
100
AcDbEntity
  8
LOGO
 62
     5
100
AcDbTrace
 10
215.9884634840101
 20
192.6229264393325
 30
0.0
 11
216.207421629792
 21
192.6229264393325
 31
0.0
 12
215.9884634840101
 22
191.9660520019873
 32
0.0
 13
216.207421629792
 23
191.9660520019873
 33
0.0
  0
SOLID
  5
E08
330
1F
100
AcDbEntity
  8
LOGO
 62
     5
100
AcDbTrace
 10
216.6453379213554
 20
192.6229264393325
 30
0.0
 11
216.8642960671371
 21
192.6229264393325
 31
0.0
 12
216.6453379213554
 22
191.966052001987
 32
0.0
 13
216.8642960671371
 23
191.966052001987
 33
0.0
  0
SOLID
  5
E09
330
1F
100
AcDbEntity
  8
LOGO
 62
     5
100
AcDbTrace
 10
212.3756321827964
 20
193.2141134329433
 30
0.0
 11
212.5945903285787
 21
193.2141134329433
 31
0.0
 12
212.3756321827964
 22
193.3892799495689
 32
0.0
 13
212.5945903285787
 23
193.3892799495689
 33
0.0
  0
SOLID
  5
E0A
330
1F
100
AcDbEntity
  8
LOGO
 62
     5
100
AcDbTrace
 10
212.3756321827964
 20
193.060842730896
 30
0.0
 11
212.5945903285787
 21
193.060842730896
 31
0.0
 12
212.3756321827964
 22
191.966052001987
 32
0.0
 13
212.5945903285787
 23
191.9660520019873
 33
0.0
  0
SOLID
  5
E0B
330
1F
100
AcDbEntity
  8
LOGO
 62
     5
100
AcDbTrace
 10
214.5287571093411
 20
194.1556334598049
 30
0.0
 11
215.1637357321085
 21
194.1556334598049
 31
0.0
 12
214.5287571093411
 22
197.3670195979372
 32
0.0
 13
215.1637357321085
 23
199.6952745480832
 33
0.0
  0
SOLID
  5
E0C
330
1F
100
AcDbEntity
  8
LOGO
 62
     5
100
AcDbTrace
 10
215.4264855070469
 20
200.1769824688031
 30
0.0
 11
216.0614641298137
 21
200.1769824688034
 31
0.0
 12
215.4264855070469
 22
194.6373413805246
 32
0.0
 13
216.0614641298137
 23
196.9655963306707
 33
0.0
  0
SOLID
  5
E0D
330
1F
100
AcDbEntity
  8
LOGO
 62
     2
100
AcDbTrace
 10
215.1637357321085
 20
200.1769824688031
 30
0.0
 11
215.4264855070469
 21
200.1769824688031
 31
0.0
 12
215.1637357321085
 22
194.1556334598049
 32
0.0
 13
215.4264855070469
 23
194.1556334598049
 33
0.0
  0
SOLID
  5
E0E
330
1F
100
AcDbEntity
  8
LOGO
 62
     5
100
AcDbTrace
 10
215.4264855070469
 20
194.6373413805246
 30
0.0
 11
216.0614641298137
 21
196.9655963306707
 31
0.0
 12
218.4481079188348
 22
200.1769824688034
 32
0.0
 13
217.813129296068
 23
200.1769824688034
 33
0.0
  0
SOLID
  5
E0F
330
1F
100
AcDbEntity
  8
LOGO
 62
     5
100
AcDbTrace
 10
215.4264855070469
 20
194.1556334598049
 30
0.0
 11
216.0614641298137
 21
194.1556334598049
 31
0.0
 12
218.4481079188348
 22
199.6952745480832
 32
0.0
 13
217.813129296068
 23
197.3670195979372
 33
0.0
  0
SOLID
  5
E10
330
1F
100
AcDbEntity
  8
LOGO
 62
     2
100
AcDbTrace
 10
215.1637357321085
 20
194.1556334598049
 30
0.0
 11
215.4264855070469
 21
194.1556334598049
 31
0.0
 12
218.4481079188348
 22
200.1769824688034
 32
0.0
 13
218.7108576937732
 23
200.1769824688031
 33
0.0
  0
LWPOLYLINE
  5
E11
330
1F
100
AcDbEntity
  8
LOGO
 62
     4
100
AcDbPolyline
 90
        4
 70
     1
 43
0.0
 10
209.7207020058887
 20
200.5258400105958
 10
411.6807020058888
 20
200.5258400105958
 10
411.6807020058888
 20
185.8399667798262
 10
209.7207020058887
 20
185.8399667798262
1001
GENIUS_GENREC_14
1002
{
1000
PYDIR
1011
209.7207020058887
1021
185.8399667798262
1031
0.0
1002
}
1002
{
1000
PXDIR
1011
411.6807020058888
1021
200.5258400105958
1031
0.0
1002
}
1002
{
1000
PORI
1011
209.7207020058887
1021
200.5258400105958
1031
0.0
1002
}
1002
{
1000
PINS
1011
209.7207020058887
1021
200.5258400105958
1031
0.0
1002
}
1002
{
1000
PINS2
1011
411.6807020058888
1021
185.8399667798262
1031
0.0
1002
}
1002
{
1000
C
1070
     1
1002
}
1001
GENIUS_GENOBJ-N-REC_13
1002
{
1000
OWNER
1000
GEN
1002
}
1001
GENIUS_GENODEF_13
1002
{
1000
HIER
1070
     0
1002
}
1002
{
1000
MANEDIT
1070
     0
1002
}
1002
{
1000
NOSEL
1070
     0
1002
}
1002
{
1000
BEHIND
1070
     0
1002
}
1002
{
1000
OTHER
1070
     0
1002
}
1002
{
1000
REACTOR
1002
}
  0
CIRCLE
  5
E12
330
1F
100
AcDbEntity
  8
LOGO
  6
Continuous
100
AcDbCircle
 10
234.9583140764103
 20
196.1232193603958
 30
0.0
 40
0.8526963664274717
  0
CIRCLE
  5
E13
330
1F
100
AcDbEntity
  8
LOGO
  6
Continuous
100
AcDbCircle
 10
234.9583140764103
 20
196.1232193603958
 30
0.0
 40
0.4996045857880146
  0
LINE
  5
E14
330
1F
100
AcDbEntity
  8
LOGO
100
AcDbLine
 10
240.3167569857428
 20
195.2705229939682
 30
0.0
 11
240.3167569857428
 21
196.9759157268235
 31
0.0
  0
LINE
  5
E15
330
1F
100
AcDbEntity
  8
LOGO
100
AcDbLine
 10
237.6436028240997
 20
195.6236147746079
 30
0.0
 11
237.6436028240997
 21
196.622823946184
 31
0.0
  0
LINE
  5
E16
330
1F
100
AcDbEntity
  8
LOGO
  6
Continuous
100
AcDbLine
 10
237.6436028240997
 20
196.622823946184
 30
0.0
 11
240.3167569857428
 21
196.9759157268235
 31
0.0
  0
LINE
  5
E17
330
1F
100
AcDbEntity
  8
LOGO
  6
Continuous
100
AcDbLine
 10
237.6436028240997
 20
195.6236147746079
 30
0.0
 11
240.3167569857428
 21
195.2705229939682
 31
0.0
  0
LINE
  5
E18
330
1F
100
AcDbEntity
  8
LOGO
  6
AM_ISO08W050x2
 48
0.3
100
AcDbLine
 10
233.7828593671675
 20
196.1232193603958
 30
0.0
 11
236.1337687856533
 21
196.1232193603958
 31
0.0
1001
GENIUS_GENOREF_13
1005
E4F
  0
LINE
  5
E19
330
1F
100
AcDbEntity
  8
LOGO
  6
AM_ISO08W050x2
 48
0.3
100
AcDbLine
 10
234.9583140764103
 20
194.947764651153
 30
0.0
 11
234.9583140764103
 21
197.2986740696388
 31
0.0
1001
GENIUS_GENOREF_13
1005
E4E
  0
LINE
  5
E1A
330
1F
100
AcDbEntity
  8
LOGO
  6
CENTER
 48
0.5
100
AcDbLine
 10
237.4298247911406
 20
196.1232193603958
 30
0.0
 11
240.5859349563741
 21
196.1232193603958
 31
0.0
1001
GENIUS_GENOREF_13
1005
E4D
  0
TEXT
  5
E1B
330
1F
100
AcDbEntity
  8
LOGO
 62
     7
100
AcDbText
 10
242.8804313442994
 20
194.0922088496827
 30
0.0
 40
1.95811643076923
  1
Order example:
 41
0.8
  7
CHINESET
100
AcDbText
  0
TEXT
  5
E1C
330
1F
100
AcDbEntity
  8
LOGO
 62
     7
100
AcDbText
 10
243.2317336249436
 20
196.8488313510255
 30
0.0
 40
2.937174646153846
  1
訂購代號：
  7
CHINESET
100
AcDbText
  0
TEXT
  5
E1D
330
1F
100
AcDbEntity
  8
LOGO
100
AcDbText
 10
242.612150851786
 20
186.6212494392822
 30
0.0
 40
1.4688
  1
20807102
 41
0.7
  7
CHINESET
 72
     1
 11
246.2841508517861
 21
186.6212494392822
 31
0.0
100
AcDbText
  0
LINE
  5
E1E
330
1F
100
AcDbEntity
  8
LOGO
 62
     4
100
AcDbLine
 10
250.8424231135804
 20
188.7771414259806
 30
0.0
 11
250.8424231135811
 21
185.8399667798265
 31
0.0
  0
LINE
  5
E1F
330
1F
100
AcDbEntity
  8
LOGO
 62
     4
100
AcDbLine
 10
250.8424231135804
 20
188.7771414259806
 30
0.0
 11
242.029623113581
 21
188.7771414259806
 31
0.0
  0
LINE
  5
E20
330
1F
100
AcDbEntity
  8
LOGO
 62
     4
100
AcDbLine
 10
272.019972104208
 20
192.4486097336728
 30
0.0
 11
272.019972104208
 21
187.0637895490572
 31
0.0
  0
LINE
  5
E21
330
1F
100
AcDbEntity
  8
LOGO
 62
     4
100
AcDbLine
 10
262.2293899503619
 20
192.4486097336728
 30
0.0
 11
262.2293899503619
 21
187.0637895490572
 31
0.0
  0
LINE
  5
E22
330
1F
100
AcDbEntity
  8
LOGO
 62
     4
100
AcDbLine
 10
272.019972104208
 20
187.0637895490572
 30
0.0
 11
262.2293899503619
 21
187.0637895490572
 31
0.0
  0
LINE
  5
E23
330
1F
100
AcDbEntity
  8
LOGO
 62
     4
100
AcDbLine
 10
273.8348473269937
 20
199.0572526875187
 30
0.0
 11
262.2293899503619
 21
199.0572526875187
 31
0.0
  0
LINE
  5
E24
330
1F
100
AcDbEntity
  8
LOGO
 62
     4
100
AcDbLine
 10
273.8348473269937
 20
194.651490718288
 30
0.0
 11
262.2293899503619
 21
194.651490718288
 31
0.0
  0
LINE
  5
E25
330
1F
100
AcDbEntity
  8
LOGO
 62
     4
100
AcDbLine
 10
262.2293899503619
 20
199.0572526875187
 30
0.0
 11
262.2293899503619
 21
194.651490718288
 31
0.0
  0
LINE
  5
E26
330
1F
100
AcDbEntity
  8
LOGO
 62
     4
100
AcDbLine
 10
273.8348473269937
 20
199.0572526875187
 30
0.0
 11
273.8348473269937
 21
194.651490718288
 31
0.0
  0
LINE
  5
E27
330
1F
100
AcDbEntity
  8
LOGO
 62
     4
100
AcDbLine
 10
267.6355035066618
 20
194.651490718288
 30
0.0
 11
267.6355035066618
 21
192.4486097336728
 31
0.0
  0
TEXT
  5
E28
330
1F
100
AcDbEntity
  8
LOGO
  6
Continuous
 62
     7
100
AcDbText
 10
263.0122248518747
 20
195.5711870881417
 30
0.0
 40
2.5704
  1
MVSF
  7
CHINESET
100
AcDbText
  0
LINE
  5
E29
330
1F
100
AcDbEntity
  8
LOGO
 62
     4
100
AcDbLine
 10
272.019972104208
 20
192.4486097336728
 30
0.0
 11
262.2293899503619
 21
192.4486097336728
 31
0.0
  0
TEXT
  5
E2A
330
1F
100
AcDbEntity
  8
LOGO
  6
Continuous
100
AcDbText
 10
265.3711567670197
 20
187.8238454993393
 30
96.24879379818059
 40
1.1016
  1
Model
 41
0.8
  7
CHINESET
100
AcDbText
  0
TEXT
  5
E2B
330
1F
100
AcDbEntity
  8
LOGO
100
AcDbText
 10
265.0779466578331
 20
189.8659744875946
 30
96.24879379818059
 40
1.836
  1
型號
  7
CHINESET
100
AcDbText
  0
LINE
  5
E2C
330
1F
100
AcDbEntity
  8
LOGO
  6
Continuous
 62
     7
100
AcDbLine
 10
274.3032162374443
 20
196.8387657977334
 30
0.0
 11
276.2486399639456
 21
196.8387657977334
 31
0.0
  0
TEXT
  5
E2D
330
1F
100
AcDbEntity
  8
LOGO
  6
Continuous
 62
     7
100
AcDbText
 10
277.0807363164459
 20
195.5711870881417
 30
0.0
 40
2.5704
  1
100 
  7
CHINESET
100
AcDbText
  0
LINE
  5
E2E
330
1F
100
AcDbEntity
  8
LOGO
  6
Continuous
 62
     7
100
AcDbLine
 10
284.5367461457443
 20
196.8387657977334
 30
0.0
 11
286.4821698722455
 21
196.8387657977334
 31
0.0
  0
LINE
  5
E2F
330
1F
100
AcDbEntity
  8
LOGO
 62
     4
100
AcDbLine
 10
288.0102531013134
 20
192.4486097336728
 30
0.0
 11
288.0102531013134
 21
187.0637895490572
 31
0.0
  0
LINE
  5
E30
330
1F
100
AcDbEntity
  8
LOGO
 62
     4
100
AcDbLine
 10
279.067673320632
 20
192.4486097336728
 30
0.0
 11
279.067673320632
 21
187.0637895490572
 31
0.0
  0
LINE
  5
E31
330
1F
100
AcDbEntity
  8
LOGO
 62
     4
100
AcDbLine
 10
288.0102531013134
 20
187.0637895490572
 30
0.0
 11
279.067673320632
 21
187.0637895490572
 31
0.0
  0
LINE
  5
E32
330
1F
100
AcDbEntity
  8
LOGO
 62
     4
100
AcDbLine
 10
292.6675325324745
 20
199.0572526875187
 30
0.0
 11
287.0958485085521
 21
199.0572526875187
 31
0.0
  0
LINE
  5
E33
330
1F
100
AcDbEntity
  8
LOGO
 62
     4
100
AcDbLine
 10
292.6675325324745
 20
194.651490718288
 30
0.0
 11
287.0958485085521
 21
194.651490718288
 31
0.0
  0
LINE
  5
E34
330
1F
100
AcDbEntity
  8
LOGO
 62
     4
100
AcDbLine
 10
287.0958485085521
 20
199.0572526875187
 30
0.0
 11
287.0958485085521
 21
194.651490718288
 31
0.0
  0
LINE
  5
E35
330
1F
100
AcDbEntity
  8
LOGO
 62
     4
100
AcDbLine
 10
292.6675325324745
 20
199.0572526875187
 30
0.0
 11
292.6675325324745
 21
194.651490718288
 31
0.0
  0
LINE
  5
E36
330
1F
100
AcDbEntity
  8
LOGO
 62
     4
100
AcDbLine
 10
290.480876980067
 20
194.651490718288
 30
0.0
 11
290.480876980067
 21
193.5500502259804
 31
0.0
  0
TEXT
  5
E37
330
1F
100
AcDbEntity
  8
LOGO
  6
Continuous
 62
     7
100
AcDbText
 10
287.6822436456571
 20
195.5711870881417
 30
0.0
 40
2.5704
  1
3B
  7
CHINESET
100
AcDbText
  0
LINE
  5
E38
330
1F
100
AcDbEntity
  8
LOGO
 62
     4
100
AcDbLine
 10
288.0102531013134
 20
192.4486097336728
 30
0.0
 11
279.067673320632
 21
192.4486097336728
 31
0.0
  0
LINE
  5
E39
330
1F
100
AcDbEntity
  8
LOGO
 62
     4
100
AcDbLine
 10
299.1199115066132
 20
192.4486097336728
 30
0.0
 11
299.1199115066132
 21
187.0637895490572
 31
0.0
  0
LINE
  5
E3A
330
1F
100
AcDbEntity
  8
LOGO
 62
     4
100
AcDbLine
 10
291.1439215167647
 20
192.4486097336728
 30
0.0
 11
291.1439215167647
 21
187.0637895490572
 31
0.0
  0
LINE
  5
E3B
330
1F
100
AcDbEntity
  8
LOGO
 62
     4
100
AcDbLine
 10
299.1199115066132
 20
187.0637895490572
 30
0.0
 11
291.1439215167647
 21
187.0637895490572
 31
0.0
  0
LINE
  5
E3C
330
1F
100
AcDbEntity
  8
LOGO
 62
     4
100
AcDbLine
 10
299.1154300474032
 20
199.0572526875187
 30
0.0
 11
295.3800405267872
 21
199.0572526875187
 31
0.0
  0
LINE
  5
E3D
330
1F
100
AcDbEntity
  8
LOGO
 62
     4
100
AcDbLine
 10
299.1154300474032
 20
194.651490718288
 30
0.0
 11
295.3800405267872
 21
194.651490718288
 31
0.0
  0
LINE
  5
E3E
330
1F
100
AcDbEntity
  8
LOGO
 62
     4
100
AcDbLine
 10
295.3800405267872
 20
199.0572526875187
 30
0.0
 11
295.3800405267872
 21
194.651490718288
 31
0.0
  0
LINE
  5
E3F
330
1F
100
AcDbEntity
  8
LOGO
 62
     4
100
AcDbLine
 10
299.1154300474032
 20
199.0572526875187
 30
0.0
 11
299.1154300474032
 21
194.651490718288
 31
0.0
  0
LINE
  5
E40
330
1F
100
AcDbEntity
  8
LOGO
 62
     4
100
AcDbLine
 10
297.7238447208494
 20
194.651490718288
 30
0.0
 11
297.723844720849
 21
193.5500502259804
 31
0.0
  0
TEXT
  5
E41
330
1F
100
AcDbEntity
  8
LOGO
  6
Continuous
 62
     7
100
AcDbText
 10
296.3648500716875
 20
195.5711870881417
 30
0.0
 40
2.5704
  1
*
  7
CHINESET
100
AcDbText
  0
LINE
  5
E42
330
1F
100
AcDbEntity
  8
LOGO
 62
     4
100
AcDbLine
 10
299.1199115066132
 20
192.4486097336728
 30
0.0
 11
291.1439215167647
 21
192.4486097336728
 31
0.0
  0
TEXT
  5
E43
330
1F
100
AcDbEntity
  8
LOGO
  6
Continuous
100
AcDbText
 10
281.1184001301283
 20
187.8238454993393
 30
96.24879379818059
 40
1.1016
  1
Manifold
 41
0.8
  7
CHINESET
100
AcDbText
  0
TEXT
  5
E44
330
1F
100
AcDbEntity
  8
LOGO
100
AcDbText
 10
281.5625771187488
 20
189.8659744875946
 30
96.24879379818059
 40
1.836
  1
連座
  7
CHINESET
100
AcDbText
  0
TEXT
  5
E45
330
1F
100
AcDbEntity
  8
LOGO
  6
Continuous
100
AcDbText
 10
292.4872596638364
 20
187.8238454993393
 30
96.24879379818059
 40
1.1016
  1
Number
 41
0.8
  7
CHINESET
100
AcDbText
  0
TEXT
  5
E46
330
1F
100
AcDbEntity
  8
LOGO
100
AcDbText
 10
292.4108783410996
 20
189.8659744875946
 30
96.24879379818059
 40
1.836
  1
連座數
  7
CHINESET
100
AcDbText
  0
LINE
  5
E47
330
1F
100
AcDbEntity
  8
LOGO
 62
     4
100
AcDbLine
 10
290.480876980067
 20
193.5500502259804
 30
0.0
 11
283.9629643975552
 21
193.5500502259804
 31
0.0
  0
LINE
  5
E48
330
1F
100
AcDbEntity
  8
LOGO
 62
     4
100
AcDbLine
 10
283.9629643975552
 20
192.4486097336728
 30
0.0
 11
283.9629643975552
 21
193.5500502259804
 31
0.0
  0
LINE
  5
E49
330
1F
100
AcDbEntity
  8
LOGO
 62
     4
100
AcDbLine
 10
295.1319165116887
 20
192.4486097336728
 30
0.0
 11
295.1319165116887
 21
193.5500502259804
 31
0.0
  0
LINE
  5
E4A
330
1F
100
AcDbEntity
  8
LOGO
 62
     4
100
AcDbLine
 10
297.7238447208494
 20
193.5500502259804
 30
0.0
 11
295.1319165116887
 21
193.5500502259804
 31
0.0
  0
POINT
  5
E4D
330
1F
100
AcDbEntity
  8
0
 60
     1
100
AcDbPoint
 10
-1897.544112831003
 20
-477.3049321738528
 30
0.0
1001
GENIUS_GENOBJ-N-CRS_13
1002
{
1000
OWNER
1000
GEN
1002
}
1001
GENIUS_GENOLIS_13
1002
{
1000
ENT
1005
0
1005
0
1005
0
1005
E1A
1002
}
1001
GENIUS_GENOENT_13
1002
{
1000
MYREF
1005
E4D
1002
}
1002
{
1000
GRP
1005
0
1002
}
1001
GENIUS_GENODEF_13
1002
{
1000
HIER
1070
    10
1002
}
1002
{
1000
MANEDIT
1070
     1
1002
}
1002
{
1000
NOSEL
1070
     0
1002
}
1002
{
1000
BEHIND
1070
     0
1002
}
1002
{
1000
OTHER
1070
     0
1002
}
1002
{
1000
REACTOR
1002
}
  0
POINT
  5
E4E
330
1F
100
AcDbEntity
  8
0
 60
     1
100
AcDbPoint
 10
-1908.868698053857
 20
-468.4293456952166
 30
0.0
1001
GENIUS_GENOBJ-N-CRS_13
1002
{
1000
OWNER
1000
GEN
1002
}
1001
GENIUS_GENOLIS_13
1002
{
1000
ENT
1005
0
1005
0
1005
0
1005
E19
1002
}
1001
GENIUS_GENOENT_13
1002
{
1000
MYREF
1005
E4E
1002
}
1002
{
1000
GRP
1005
0
1002
}
1001
GENIUS_GENODEF_13
1002
{
1000
HIER
1070
    10
1002
}
1002
{
1000
MANEDIT
1070
     1
1002
}
1002
{
1000
NOSEL
1070
     0
1002
}
1002
{
1000
BEHIND
1070
     0
1002
}
1002
{
1000
OTHER
1070
     0
1002
}
1002
{
1000
REACTOR
1002
}
  0
POINT
  5
E4F
330
1F
100
AcDbEntity
  8
0
 60
     1
100
AcDbPoint
 10
-1902.51002435602
 20
-477.3049321738528
 30
0.0
1001
GENIUS_GENOBJ-N-CRS_13
1002
{
1000
OWNER
1000
GEN
1002
}
1001
GENIUS_GENOLIS_13
1002
{
1000
ENT
1005
0
1005
0
1005
0
1005
E18
1002
}
1001
GENIUS_GENOENT_13
1002
{
1000
MYREF
1005
E4F
1002
}
1002
{
1000
GRP
1005
0
1002
}
1001
GENIUS_GENODEF_13
1002
{
1000
HIER
1070
    10
1002
}
1002
{
1000
MANEDIT
1070
     1
1002
}
1002
{
1000
NOSEL
1070
     0
1002
}
1002
{
1000
BEHIND
1070
     0
1002
}
1002
{
1000
OTHER
1070
     0
1002
}
1002
{
1000
REACTOR
1002
}
  0
LINE
  5
1196
330
1F
100
AcDbEntity
  8
AM_7
100
AcDbLine
 10
298.9295457789513
 20
229.7691362163288
 30
0.0
 11
300.9295457789513
 21
229.7691362163288
 31
0.0
  0
LINE
  5
1197
330
1F
100
AcDbEntity
  8
AM_7
100
AcDbLine
 10
299.9295457789513
 20
228.7691362163288
 30
0.0
 11
299.9295457789513
 21
230.7691362163288
 31
0.0
  0
LINE
  5
1198
330
1F
100
AcDbEntity
  8
AM_7
100
AcDbLine
 10
297.0300457789512
 20
229.7691362163288
 30
0.0
 11
298.1295457789512
 21
229.7691362163288
 31
0.0
  0
LINE
  5
1199
330
1F
100
AcDbEntity
  8
AM_7
100
AcDbLine
 10
301.7295457789513
 20
229.7691362163288
 30
0.0
 11
302.8290457789513
 21
229.7691362163288
 31
0.0
  0
LINE
  5
119A
330
1F
100
AcDbEntity
  8
AM_7
100
AcDbLine
 10
299.9295457789513
 20
226.8696362163288
 30
0.0
 11
299.9295457789513
 21
227.9691362163288
 31
0.0
  0
LINE
  5
119B
330
1F
100
AcDbEntity
  8
AM_7
100
AcDbLine
 10
299.9295457789513
 20
231.5691362163288
 30
0.0
 11
299.9295457789513
 21
232.6686362163288
 31
0.0
  0
LINE
  5
119C
330
1F
100
AcDbEntity
  8
AM_7
100
AcDbLine
 10
327.4295457789513
 20
229.7691362163288
 30
0.0
 11
329.4295457789513
 21
229.7691362163288
 31
0.0
  0
LINE
  5
119D
330
1F
100
AcDbEntity
  8
AM_7
100
AcDbLine
 10
328.4295457789513
 20
228.7691362163288
 30
0.0
 11
328.4295457789513
 21
230.7691362163288
 31
0.0
  0
LINE
  5
119E
330
1F
100
AcDbEntity
  8
AM_7
100
AcDbLine
 10
325.5300457789513
 20
229.7691362163288
 30
0.0
 11
326.6295457789512
 21
229.7691362163288
 31
0.0
  0
LINE
  5
119F
330
1F
100
AcDbEntity
  8
AM_7
100
AcDbLine
 10
330.2295457789512
 20
229.7691362163288
 30
0.0
 11
331.3290457789513
 21
229.7691362163288
 31
0.0
  0
LINE
  5
11A0
330
1F
100
AcDbEntity
  8
AM_7
100
AcDbLine
 10
328.4295457789513
 20
226.8696362163288
 30
0.0
 11
328.4295457789513
 21
227.9691362163288
 31
0.0
  0
LINE
  5
11A1
330
1F
100
AcDbEntity
  8
AM_7
100
AcDbLine
 10
328.4295457789513
 20
231.5691362163288
 30
0.0
 11
328.4295457789513
 21
232.6686362163288
 31
0.0
  0
ARC
  5
11A2
330
1F
100
AcDbEntity
  8
AM_4
100
AcDbCircle
 10
299.9295457789513
 20
229.7691362163288
 30
0.0
 40
1.586
100
AcDbArc
 50
260.7905164022083
 51
191.8965320379333
  0
LINE
  5
11B3
330
1F
100
AcDbEntity
  8
AM_7
100
AcDbLine
 10
308.9295457789513
 20
261.998256780903
 30
0.0
 11
308.9295457789513
 21
263.998256780903
 31
0.0
  0
LINE
  5
11B6
330
1F
100
AcDbEntity
  8
AM_7
100
AcDbLine
 10
308.9295457789513
 20
258.3982567809031
 30
0.0
 11
308.9295457789513
 21
261.198256780903
 31
0.0
  0
LINE
  5
11B7
330
1F
100
AcDbEntity
  8
AM_7
100
AcDbLine
 10
308.9295457789513
 20
264.798256780903
 30
0.0
 11
308.9295457789513
 21
267.598256780903
 31
0.0
  0
LINE
  5
11B9
330
1F
100
AcDbEntity
  8
AM_7
100
AcDbLine
 10
308.9295457789513
 20
268.998256780903
 30
0.0
 11
308.9295457789513
 21
270.9982567809031
 31
0.0
  0
LINE
  5
11BC
330
1F
100
AcDbEntity
  8
AM_7
100
AcDbLine
 10
308.9295457789513
 20
265.398256780903
 30
0.0
 11
308.9295457789513
 21
268.198256780903
 31
0.0
  0
LINE
  5
11BD
330
1F
100
AcDbEntity
  8
AM_7
100
AcDbLine
 10
308.9295457789513
 20
271.7982567809031
 30
0.0
 11
308.9295457789513
 21
274.598256780903
 31
0.0
  0
LINE
  5
11BF
330
1F
100
AcDbEntity
  8
AM_7
100
AcDbLine
 10
319.4295457789513
 20
261.998256780903
 30
0.0
 11
319.4295457789513
 21
263.998256780903
 31
0.0
  0
LINE
  5
11C2
330
1F
100
AcDbEntity
  8
AM_7
100
AcDbLine
 10
319.4295457789513
 20
258.3982567809031
 30
0.0
 11
319.4295457789513
 21
261.198256780903
 31
0.0
  0
LINE
  5
11C3
330
1F
100
AcDbEntity
  8
AM_7
100
AcDbLine
 10
319.4295457789513
 20
264.798256780903
 30
0.0
 11
319.4295457789513
 21
267.598256780903
 31
0.0
  0
LINE
  5
11C5
330
1F
100
AcDbEntity
  8
AM_7
100
AcDbLine
 10
319.4295457789513
 20
268.998256780903
 30
0.0
 11
319.4295457789513
 21
270.9982567809031
 31
0.0
  0
LINE
  5
11C8
330
1F
100
AcDbEntity
  8
AM_7
100
AcDbLine
 10
319.4295457789513
 20
265.398256780903
 30
0.0
 11
319.4295457789513
 21
268.198256780903
 31
0.0
  0
LINE
  5
11C9
330
1F
100
AcDbEntity
  8
AM_7
100
AcDbLine
 10
319.4295457789513
 20
271.7982567809031
 30
0.0
 11
319.4295457789513
 21
274.598256780903
 31
0.0
  0
LINE
  5
11D0
330
1F
100
AcDbEntity
  8
AM_7
100
AcDbLine
 10
303.8295457789513
 20
261.198256780903
 30
0.0
 11
305.8295457789513
 21
261.198256780903
 31
0.0
  0
LINE
  5
11D1
330
1F
100
AcDbEntity
  8
AM_7
100
AcDbLine
 10
304.8295457789513
 20
260.198256780903
 30
0.0
 11
304.8295457789513
 21
262.198256780903
 31
0.0
  0
LINE
  5
11D2
330
1F
100
AcDbEntity
  8
AM_7
100
AcDbLine
 10
302.5690457789513
 20
261.198256780903
 30
0.0
 11
303.0295457789512
 21
261.198256780903
 31
0.0
  0
LINE
  5
11D3
330
1F
100
AcDbEntity
  8
AM_7
100
AcDbLine
 10
306.6295457789512
 20
261.198256780903
 30
0.0
 11
307.0900457789513
 21
261.198256780903
 31
0.0
  0
LINE
  5
11D4
330
1F
100
AcDbEntity
  8
AM_7
100
AcDbLine
 10
304.8295457789513
 20
258.937756780903
 30
0.0
 11
304.8295457789513
 21
259.3982567809031
 31
0.0
  0
LINE
  5
11D6
330
1F
100
AcDbEntity
  8
AM_7
100
AcDbLine
 10
314.3295457789513
 20
261.198256780903
 30
0.0
 11
316.3295457789513
 21
261.198256780903
 31
0.0
  0
LINE
  5
11D7
330
1F
100
AcDbEntity
  8
AM_7
100
AcDbLine
 10
315.3295457789513
 20
260.198256780903
 30
0.0
 11
315.3295457789513
 21
262.198256780903
 31
0.0
  0
LINE
  5
11D8
330
1F
100
AcDbEntity
  8
AM_7
100
AcDbLine
 10
313.0690457789513
 20
261.198256780903
 30
0.0
 11
313.5295457789512
 21
261.198256780903
 31
0.0
  0
LINE
  5
11D9
330
1F
100
AcDbEntity
  8
AM_7
100
AcDbLine
 10
317.1295457789512
 20
261.198256780903
 30
0.0
 11
317.5900457789513
 21
261.198256780903
 31
0.0
  0
LINE
  5
11DA
330
1F
100
AcDbEntity
  8
AM_7
100
AcDbLine
 10
315.3295457789513
 20
258.937756780903
 30
0.0
 11
315.3295457789513
 21
259.3982567809031
 31
0.0
  0
LINE
  5
11E2
330
1F
100
AcDbEntity
  8
AM_7
100
AcDbLine
 10
312.0295457789512
 20
268.298256780903
 30
0.0
 11
314.0295457789512
 21
268.298256780903
 31
0.0
  0
LINE
  5
11E3
330
1F
100
AcDbEntity
  8
AM_7
100
AcDbLine
 10
313.0295457789512
 20
267.2982567809031
 30
0.0
 11
313.0295457789512
 21
269.2982567809031
 31
0.0
  0
LINE
  5
11E4
330
1F
100
AcDbEntity
  8
AM_7
100
AcDbLine
 10
310.7690457789512
 20
268.298256780903
 30
0.0
 11
311.2295457789512
 21
268.298256780903
 31
0.0
  0
LINE
  5
11E5
330
1F
100
AcDbEntity
  8
AM_7
100
AcDbLine
 10
314.8295457789513
 20
268.298256780903
 30
0.0
 11
315.2900457789513
 21
268.298256780903
 31
0.0
  0
LINE
  5
11E6
330
1F
100
AcDbEntity
  8
AM_7
100
AcDbLine
 10
313.0295457789512
 20
266.0377567809031
 30
0.0
 11
313.0295457789512
 21
266.498256780903
 31
0.0
  0
LINE
  5
11E8
330
1F
100
AcDbEntity
  8
AM_7
100
AcDbLine
 10
322.5295457789512
 20
268.298256780903
 30
0.0
 11
324.5295457789512
 21
268.298256780903
 31
0.0
  0
LINE
  5
11E9
330
1F
100
AcDbEntity
  8
AM_7
100
AcDbLine
 10
323.5295457789512
 20
267.2982567809031
 30
0.0
 11
323.5295457789512
 21
269.2982567809031
 31
0.0
  0
LINE
  5
11EA
330
1F
100
AcDbEntity
  8
AM_7
100
AcDbLine
 10
321.2690457789512
 20
268.298256780903
 30
0.0
 11
321.7295457789512
 21
268.298256780903
 31
0.0
  0
LINE
  5
11EB
330
1F
100
AcDbEntity
  8
AM_7
100
AcDbLine
 10
325.3295457789513
 20
268.298256780903
 30
0.0
 11
325.7900457789513
 21
268.298256780903
 31
0.0
  0
LINE
  5
11EC
330
1F
100
AcDbEntity
  8
AM_7
100
AcDbLine
 10
323.5295457789512
 20
266.0377567809031
 30
0.0
 11
323.5295457789512
 21
266.498256780903
 31
0.0
  0
LINE
  5
11EE
330
1F
100
AcDbEntity
  8
AM_7
100
AcDbLine
 10
298.9295457789512
 20
276.798256780903
 30
0.0
 11
300.9295457789512
 21
276.798256780903
 31
0.0
  0
LINE
  5
11EF
330
1F
100
AcDbEntity
  8
AM_7
100
AcDbLine
 10
299.9295457789512
 20
275.7982567809031
 30
0.0
 11
299.9295457789512
 21
277.7982567809031
 31
0.0
  0
LINE
  5
11F0
102
{ACAD_REACTORS
330
1540
102
}
330
1F
100
AcDbEntity
  8
AM_7
100
AcDbLine
 10
296.5795457789512
 20
276.798256780903
 30
0.0
 11
298.1295457789512
 21
276.798256780903
 31
0.0
  0
LINE
  5
11F1
330
1F
100
AcDbEntity
  8
AM_7
100
AcDbLine
 10
301.7295457789513
 20
276.798256780903
 30
0.0
 11
303.2795457789512
 21
276.798256780903
 31
0.0
  0
LINE
  5
11F2
330
1F
100
AcDbEntity
  8
AM_7
100
AcDbLine
 10
299.9295457789512
 20
273.448256780903
 30
0.0
 11
299.9295457789512
 21
274.9982567809031
 31
0.0
  0
LINE
  5
11F3
330
1F
100
AcDbEntity
  8
AM_7
100
AcDbLine
 10
299.9295457789512
 20
278.5982567809031
 30
0.0
 11
299.9295457789512
 21
280.1482567809031
 31
0.0
  0
LINE
  5
11F4
330
1F
100
AcDbEntity
  8
AM_7
100
AcDbLine
 10
327.4295457789513
 20
276.798256780903
 30
0.0
 11
329.4295457789513
 21
276.798256780903
 31
0.0
  0
LINE
  5
11F5
330
1F
100
AcDbEntity
  8
AM_7
100
AcDbLine
 10
328.4295457789513
 20
275.7982567809031
 30
0.0
 11
328.4295457789513
 21
277.7982567809031
 31
0.0
  0
LINE
  5
11F6
330
1F
100
AcDbEntity
  8
AM_7
100
AcDbLine
 10
325.0795457789512
 20
276.798256780903
 30
0.0
 11
326.6295457789512
 21
276.798256780903
 31
0.0
  0
LINE
  5
11F7
330
1F
100
AcDbEntity
  8
AM_7
100
AcDbLine
 10
330.2295457789512
 20
276.798256780903
 30
0.0
 11
331.7795457789512
 21
276.798256780903
 31
0.0
  0
LINE
  5
11F8
330
1F
100
AcDbEntity
  8
AM_7
100
AcDbLine
 10
328.4295457789513
 20
273.448256780903
 30
0.0
 11
328.4295457789513
 21
274.9982567809031
 31
0.0
  0
LINE
  5
11F9
330
1F
100
AcDbEntity
  8
AM_7
100
AcDbLine
 10
328.4295457789513
 20
278.5982567809031
 30
0.0
 11
328.4295457789513
 21
280.1482567809031
 31
0.0
  0
LINE
  5
1200
330
1F
100
AcDbEntity
  8
AM_7
100
AcDbLine
 10
367.5965835086876
 20
224.7691362163288
 30
0.0
 11
369.5965835086876
 21
224.7691362163288
 31
0.0
  0
LINE
  5
1201
330
1F
100
AcDbEntity
  8
AM_7
100
AcDbLine
 10
368.5965835086876
 20
223.7691362163289
 30
0.0
 11
368.5965835086876
 21
225.7691362163289
 31
0.0
  0
LINE
  5
1202
330
1F
100
AcDbEntity
  8
AM_7
100
AcDbLine
 10
364.8715835086876
 20
224.7691362163288
 30
0.0
 11
366.7965835086875
 21
224.7691362163288
 31
0.0
  0
LINE
  5
1203
330
1F
100
AcDbEntity
  8
AM_7
100
AcDbLine
 10
370.3965835086877
 20
224.7691362163288
 30
0.0
 11
372.3215835086876
 21
224.7691362163288
 31
0.0
  0
LINE
  5
1204
330
1F
100
AcDbEntity
  8
AM_7
100
AcDbLine
 10
368.5965835086876
 20
221.0441362163289
 30
0.0
 11
368.5965835086876
 21
222.9691362163288
 31
0.0
  0
LINE
  5
1205
330
1F
100
AcDbEntity
  8
AM_7
100
AcDbLine
 10
368.5965835086876
 20
226.5691362163289
 30
0.0
 11
368.5965835086876
 21
228.4941362163288
 31
0.0
  0
LINE
  5
1206
330
1F
100
AcDbEntity
  8
AM_7
100
AcDbLine
 10
357.5965835086876
 20
224.7691362163288
 30
0.0
 11
359.5965835086876
 21
224.7691362163288
 31
0.0
  0
LINE
  5
1207
330
1F
100
AcDbEntity
  8
AM_7
100
AcDbLine
 10
358.5965835086876
 20
223.7691362163289
 30
0.0
 11
358.5965835086876
 21
225.7691362163289
 31
0.0
  0
LINE
  5
1208
330
1F
100
AcDbEntity
  8
AM_7
100
AcDbLine
 10
354.8715835086876
 20
224.7691362163288
 30
0.0
 11
356.7965835086876
 21
224.7691362163288
 31
0.0
  0
LINE
  5
1209
330
1F
100
AcDbEntity
  8
AM_7
100
AcDbLine
 10
360.3965835086877
 20
224.7691362163288
 30
0.0
 11
362.3215835086877
 21
224.7691362163288
 31
0.0
  0
LINE
  5
120A
330
1F
100
AcDbEntity
  8
AM_7
100
AcDbLine
 10
358.5965835086876
 20
221.0441362163289
 30
0.0
 11
358.5965835086876
 21
222.9691362163288
 31
0.0
  0
LINE
  5
120B
330
1F
100
AcDbEntity
  8
AM_7
100
AcDbLine
 10
358.5965835086876
 20
226.5691362163289
 30
0.0
 11
358.5965835086876
 21
228.4941362163288
 31
0.0
  0
ARC
  5
120D
330
1F
100
AcDbEntity
  8
AM_4
100
AcDbCircle
 10
358.5965835086876
 20
224.7691362163288
 30
0.0
 40
2.5
100
AcDbArc
 50
256.0918331822888
 51
195.1567374106364
  0
DIMENSION
  5
120E
330
1F
100
AcDbEntity
  8
AM_REFDIM
100
AcDbDimension
  2
*D4
 10
331.9295457789513
 20
296.9920490614267
 30
0.0
 11
314.0625513684355
 21
296.9920490614267
 31
0.0
 70
   160
  1
L
 71
     5
 42
35.5
  3
Standard$0
100
AcDbAlignedDimension
 13
296.4295457789513
 23
280.798256780903
 33
0.0
 14
331.9295457789513
 24
280.798256780903
 34
0.0
100
AcDbRotatedDimension
  0
DIMENSION
  5
120F
330
1F
100
AcDbEntity
  8
AM_REFDIM
100
AcDbDimension
  2
*D5
 10
328.4295457789513
 20
288.9920490614267
 30
0.0
 11
314.1795457789513
 21
291.7420490614267
 31
0.0
 70
    32
  1
P
 71
     5
 42
28.50000000000012
  3
Standard$0
100
AcDbAlignedDimension
 13
299.9295457789512
 23
280.1482567809031
 33
0.0
 14
328.4295457789513
 24
280.1482567809031
 34
0.0
100
AcDbRotatedDimension
  0
DIMENSION
  5
1210
330
1F
100
AcDbEntity
  8
AM_REFDIM
100
AcDbDimension
  2
*D6
 10
339.1295457789512
 20
280.798256780903
 30
0.0
 11
336.3792012907622
 21
268.2982567809031
 31
0.0
 70
    32
 71
     5
 42
24.99999999999997
  3
Standard$0
100
AcDbAlignedDimension
 13
331.9295457789513
 23
255.798256780903
 33
0.0
 14
331.9295457789513
 24
280.798256780903
 34
0.0
 50
90.0
100
AcDbRotatedDimension
  0
DIMENSION
  5
1211
330
1F
100
AcDbEntity
  8
AM_REFDIM
100
AcDbDimension
  2
*D7
 10
299.9295457789513
 20
211.7691362163289
 30
0.0
 11
286.907058405536
 21
211.7691362163289
 31
0.0
 70
   160
 71
     5
 42
3.5
  3
Standard$0
100
AcDbAlignedDimension
 13
296.4295457789513
 23
219.7691362163288
 33
0.0
 14
299.9295457789513
 24
226.8696362163288
 34
0.0
100
AcDbRotatedDimension
  0
DIMENSION
  5
1212
330
1F
100
AcDbEntity
  8
AM_REFDIM
100
AcDbDimension
  2
*D8
 10
328.4295457789513
 20
211.7691362163289
 30
0.0
 11
314.1795457789513
 21
214.5194807045179
 31
0.0
 70
    32
 71
     5
 42
28.5
  3
Standard$0
100
AcDbAlignedDimension
 13
299.9295457789513
 23
226.8696362163288
 33
0.0
 14
328.4295457789513
 24
226.8696362163288
 34
0.0
100
AcDbRotatedDimension
  0
DIMENSION
  5
1213
330
1F
100
AcDbEntity
  8
AM_REFDIM
100
AcDbDimension
  2
*D9
 10
290.2837342556146
 20
229.7691362163288
 30
0.0
 11
287.5337342556146
 21
224.7691362163289
 31
0.0
 70
    32
 71
     5
 42
10.0
  3
Standard$0
100
AcDbAlignedDimension
 13
296.4295457789513
 23
219.7691362163288
 33
0.0
 14
297.0300457789512
 24
229.7691362163288
 34
0.0
 50
90.0
100
AcDbRotatedDimension
  0
DIMENSION
  5
1214
330
1F
100
AcDbEntity
  8
AM_REFDIM
100
AcDbDimension
  2
*D10
 10
282.2837342556146
 20
232.7691362163288
 30
0.0
 11
279.5337342556146
 21
226.2691362163288
 31
0.0
 70
    32
 71
     5
 42
13.0
  3
Standard$0
100
AcDbAlignedDimension
 13
296.4295457789513
 23
219.7691362163288
 33
0.0
 14
296.4295457789513
 24
232.7691362163288
 34
0.0
 50
90.0
100
AcDbRotatedDimension
  0
DIMENSION
  5
1215
330
1F
100
AcDbEntity
  8
AM_REFDIM
100
AcDbDimension
  2
*D11
 10
358.5965835086876
 20
211.7691362163288
 30
0.0
 11
356.0965835086876
 21
214.5191362163288
 31
0.0
 70
    32
 71
     5
 42
5.0
  3
Standard$0
100
AcDbAlignedDimension
 13
353.5965835086876
 23
219.7691362163288
 33
0.0
 14
358.5965835086876
 24
221.0441362163289
 34
0.0
100
AcDbRotatedDimension
1001
ACAD
1000
DSTYLE
1002
{
1070
   173
1070
     1
1070
   174
1070
     1
1070
   344
1005
1049
1002
}
  0
DIMENSION
  5
1216
330
1F
100
AcDbEntity
  8
AM_REFDIM
100
AcDbDimension
  2
*D12
 10
368.5965835086876
 20
211.7691362163288
 30
0.0
 11
363.5965835086876
 21
214.5191362163289
 31
0.0
 70
    32
 71
     5
 42
10.0
  3
Standard$0
100
AcDbAlignedDimension
 13
358.5965835086876
 23
221.0441362163289
 33
0.0
 14
368.5965835086876
 24
221.0441362163288
 34
0.0
100
AcDbRotatedDimension
1001
ACAD
1000
DSTYLE
1002
{
1070
   173
1070
     1
1070
   174
1070
     1
1070
   343
1005
1049
1002
}
  0
DIMENSION
  5
1217
330
1F
100
AcDbEntity
  8
AM_REFDIM
100
AcDbDimension
  2
*D13
 10
345.5965834986876
 20
224.7691362163288
 30
0.0
 11
342.8465834986876
 21
222.2691362163289
 31
0.0
 70
    32
 71
     5
 42
5.0
  3
Standard$0
100
AcDbAlignedDimension
 13
353.5965835086876
 23
219.7691362163288
 33
0.0
 14
354.8715835086876
 24
224.7691362163288
 34
0.0
 50
90.0
100
AcDbRotatedDimension
  0
LINE
  5
1218
330
1F
100
AcDbEntity
  8
AM_VIS
100
AcDbLine
 10
296.4295457789513
 20
219.7691362163288
 30
0.0
 11
331.9295457789513
 21
219.7691362163288
 31
0.0
  0
LINE
  5
1219
330
1F
100
AcDbEntity
  8
AM_VIS
100
AcDbLine
 10
296.4295457789513
 20
219.7691362163288
 30
0.0
 11
296.4295457789513
 21
232.7691362163288
 31
0.0
  0
LINE
  5
121A
330
1F
100
AcDbEntity
  8
AM_VIS
100
AcDbLine
 10
296.4295457789513
 20
232.7691362163288
 30
0.0
 11
331.9295457789513
 21
232.7691362163288
 31
0.0
  0
LINE
  5
121B
330
1F
100
AcDbEntity
  8
AM_VIS
100
AcDbLine
 10
331.9295457789513
 20
219.7691362163288
 30
0.0
 11
331.9295457789513
 21
232.7691362163288
 31
0.0
  0
CIRCLE
  5
121C
330
1F
100
AcDbEntity
  8
AM_VIS
100
AcDbCircle
 10
299.9295457789513
 20
229.7691362163288
 30
0.0
 40
1.2995
  0
LINE
  5
1226
102
{ACAD_REACTORS
330
1540
102
}
330
1F
100
AcDbEntity
  8
AM_VIS
100
AcDbLine
 10
296.4295457789513
 20
255.798256780903
 30
0.0
 11
296.4295457789513
 21
280.798256780903
 31
0.0
  0
LINE
  5
1227
330
1F
100
AcDbEntity
  8
AM_VIS
100
AcDbLine
 10
296.4295457789513
 20
280.798256780903
 30
0.0
 11
331.9295457789513
 21
280.798256780903
 31
0.0
  0
LINE
  5
1228
330
1F
100
AcDbEntity
  8
AM_VIS
100
AcDbLine
 10
331.9295457789513
 20
255.798256780903
 30
0.0
 11
331.9295457789513
 21
280.798256780903
 31
0.0
  0
LINE
  5
1229
330
1F
100
AcDbEntity
  8
AM_VIS
100
AcDbLine
 10
296.4295457789513
 20
255.798256780903
 30
0.0
 11
331.9295457789513
 21
255.798256780903
 31
0.0
  0
CIRCLE
  5
1237
102
{ACAD_REACTORS
330
136E
102
}
330
1F
100
AcDbEntity
  8
AM_VIS
100
AcDbCircle
 10
299.9295457789513
 20
276.798256780903
 30
0.0
 40
1.75
  0
CIRCLE
  5
1238
330
1F
100
AcDbEntity
  8
AM_VIS
100
AcDbCircle
 10
328.4295457789513
 20
276.798256780903
 30
0.0
 40
1.75
  0
LINE
  5
1244
330
1F
100
AcDbEntity
  8
AM_VIS
100
AcDbLine
 10
358.0965835086876
 20
219.7691362163288
 30
0.0
 11
353.5965835086876
 21
219.7691362163288
 31
0.0
  0
LINE
  5
1245
330
1F
100
AcDbEntity
  8
AM_VIS
100
AcDbLine
 10
378.5965835086876
 20
232.7691362163288
 30
0.0
 11
378.5965835086876
 21
219.7691362163288
 31
0.0
  0
LINE
  5
1246
330
1F
100
AcDbEntity
  8
AM_VIS
100
AcDbLine
 10
373.0965835086876
 20
220.7691362163288
 30
0.0
 11
374.0965835086876
 21
219.7691362163288
 31
0.0
  0
LINE
  5
1247
330
1F
100
AcDbEntity
  8
AM_VIS
100
AcDbLine
 10
359.0965835086876
 20
220.7691362163288
 30
0.0
 11
373.0965835086876
 21
220.7691362163288
 31
0.0
  0
LINE
  5
1248
330
1F
100
AcDbEntity
  8
AM_VIS
100
AcDbLine
 10
358.0965835086876
 20
219.7691362163288
 30
0.0
 11
359.0965835086876
 21
220.7691362163288
 31
0.0
  0
LINE
  5
1249
330
1F
100
AcDbEntity
  8
AM_VIS
100
AcDbLine
 10
378.5965835086876
 20
219.7691362163288
 30
0.0
 11
374.0965835086876
 21
219.7691362163288
 31
0.0
  0
LINE
  5
124A
330
1F
100
AcDbEntity
  8
AM_VIS
100
AcDbLine
 10
353.5965835086876
 20
232.7691362163288
 30
0.0
 11
378.5965835086876
 21
232.7691362163288
 31
0.0
  0
LINE
  5
124B
330
1F
100
AcDbEntity
  8
AM_VIS
100
AcDbLine
 10
353.5965835086876
 20
219.7691362163288
 30
0.0
 11
353.5965835086876
 21
232.7691362163288
 31
0.0
  0
CIRCLE
  5
1251
330
1F
100
AcDbEntity
  8
AM_VIS
100
AcDbCircle
 10
358.5965835086876
 20
224.7691362163288
 30
0.0
 40
2.125
  0
ARC
  5
1349
330
1F
100
AcDbEntity
  8
AM_4
100
AcDbCircle
 10
304.8295457789513
 20
261.198256780903
 30
0.0
 40
0.8679999999999999
100
AcDbArc
 50
261.2578592605493
 51
194.22145927243
  0
CIRCLE
  5
134A
330
1F
100
AcDbEntity
  8
AM_VIS
100
AcDbCircle
 10
304.8295457789513
 20
261.198256780903
 30
0.0
 40
0.7870388230463288
  0
ARC
  5
134B
330
1F
100
AcDbEntity
  8
AM_4
100
AcDbCircle
 10
313.0295457789512
 20
268.298256780903
 30
0.0
 40
0.8679999999999999
100
AcDbArc
 50
261.2578592605493
 51
194.22145927243
  0
CIRCLE
  5
134C
330
1F
100
AcDbEntity
  8
AM_VIS
100
AcDbCircle
 10
313.0295457789512
 20
268.298256780903
 30
0.0
 40
0.7870388230463288
  0
ARC
  5
134D
330
1F
100
AcDbEntity
  8
AM_4
100
AcDbCircle
 10
315.3295457789513
 20
261.198256780903
 30
0.0
 40
0.8679999999999999
100
AcDbArc
 50
261.2578592605493
 51
194.22145927243
  0
CIRCLE
  5
134E
330
1F
100
AcDbEntity
  8
AM_VIS
100
AcDbCircle
 10
315.3295457789513
 20
261.198256780903
 30
0.0
 40
0.7870388230463288
  0
ARC
  5
134F
330
1F
100
AcDbEntity
  8
AM_4
100
AcDbCircle
 10
323.5295457789512
 20
268.298256780903
 30
0.0
 40
0.8679999999999999
100
AcDbArc
 50
261.2578592605493
 51
194.22145927243
  0
CIRCLE
  5
1350
330
1F
100
AcDbEntity
  8
AM_VIS
100
AcDbCircle
 10
323.5295457789512
 20
268.298256780903
 30
0.0
 40
0.7870388230463288
  0
ARC
  5
1355
330
1F
100
AcDbEntity
  8
AM_4
100
AcDbCircle
 10
328.4295457789513
 20
229.7691362163288
 30
0.0
 40
1.586
100
AcDbArc
 50
260.7905164022083
 51
191.8965320379333
  0
CIRCLE
  5
1356
102
{ACAD_REACTORS
330
1620
102
}
330
1F
100
AcDbEntity
  8
AM_VIS
100
AcDbCircle
 10
328.4295457789513
 20
229.7691362163288
 30
0.0
 40
1.2995
  0
ARC
  5
1359
330
1F
100
AcDbEntity
  8
AM_4
100
AcDbCircle
 10
368.5965835086876
 20
224.7691362163288
 30
0.0
 40
2.5
100
AcDbArc
 50
256.0918331822888
 51
195.1567374106364
  0
CIRCLE
  5
135A
102
{ACAD_REACTORS
330
15E1
102
}
330
1F
100
AcDbEntity
  8
AM_VIS
100
AcDbCircle
 10
368.5965835086876
 20
224.7691362163288
 30
0.0
 40
2.125
  0
DIMENSION
  5
1361
102
{ACAD_XDICTIONARY
360
136D
102
}
102
{ACAD_REACTORS
330
136E
102
}
330
1F
100
AcDbEntity
  8
AM_5
100
AcDbDimension
  2
*D14
 10
301.2140044607969
 20
275.6097005581554
 30
0.0
 11
276.6919852019445
 21
286.7623904012546
 31
0.0
 70
   163
  1
2-<> thru
 71
     5
 42
3.50000000000017
  3
AM_ISO$3
100
AcDbDiametricDimension
 15
298.6450870971058
 25
277.9868130036505
 35
0.0
 40
0.0
1001
ACAD
1000
DSTYLE
1002
{
1070
    40
1040
1.0
1070
   144
1040
1.0
1070
   272
1070
     8
1002
}
  0
LINE
  5
139F
330
1F
100
AcDbEntity
  8
SL
  6
ACISOTGB
 62
     4
100
AcDbLine
 10
317.2224311326144
 20
264.6046919678145
 30
0.0
 11
317.2224311326144
 21
283.734571977221
 31
0.0
  0
LINE
  5
13A1
330
1F
100
AcDbEntity
  8
SL
  6
ACISOTGB
 62
     4
100
AcDbLine
 10
310.2224311326144
 20
264.6046919678146
 30
0.0
 11
317.2224311326144
 21
264.6046919678145
 31
0.0
  0
LINE
  5
13A2
330
1F
100
AcDbEntity
  8
SL
  6
ACISOTGB
 62
     4
100
AcDbLine
 10
310.2224311326144
 20
218.2808860542161
 30
0.0
 11
310.2224311326144
 21
264.6046919678146
 31
0.0
  0
DIMENSION
  5
1532
102
{ACAD_XDICTIONARY
360
153F
102
}
102
{ACAD_REACTORS
330
1540
102
}
330
1F
100
AcDbEntity
  8
AM_REFDIM
100
AcDbDimension
  2
*D16
 10
290.2837342556146
 20
276.798256780903
 30
0.0
 11
287.5333897674255
 21
266.2982567809031
 31
0.0
 70
    32
 71
     5
 42
21.0
  3
Standard$0
100
AcDbAlignedDimension
 13
296.4295457789513
 23
255.798256780903
 33
0.0
 14
296.5795457789512
 24
276.798256780903
 34
0.0
 50
90.00000000000003
100
AcDbRotatedDimension
  0
DIMENSION
  5
15D7
102
{ACAD_XDICTIONARY
360
15E0
102
}
102
{ACAD_REACTORS
330
15E1
102
}
330
1F
100
AcDbEntity
  8
AM_5
100
AcDbDimension
  2
*D17
 10
368.0210060555392
 20
222.7235713565834
 30
0.0
 11
385.0750388311073
 21
240.2607970027851
 31
0.0
 70
   163
  1
2*2-M5*0.8
 71
     5
 42
4.25000000000017
  3
AM_ISO$3
100
AcDbDiametricDimension
 15
369.1721609618376
 25
226.814701076075
 35
0.0
 40
0.0
1001
ACAD
1000
DSTYLE
1002
{
1070
    40
1040
1.0
1070
   144
1040
1.0
1070
   272
1070
     8
1002
}
  0
DIMENSION
  5
1616
102
{ACAD_XDICTIONARY
360
161F
102
}
102
{ACAD_REACTORS
330
1620
102
}
330
1F
100
AcDbEntity
  8
AM_5
100
AcDbDimension
  2
*D18
 10
327.9344856122275
 20
228.5676306269437
 30
0.0
 11
341.8421054585871
 21
238.677723008061
 31
0.0
 70
   163
  1
2-M3*0.5
 71
     5
 42
2.599000000000046
  3
AM_ISO$3
100
AcDbDiametricDimension
 15
328.9246059456751
 25
230.9706418057138
 35
0.0
 40
0.0
1001
ACAD
1000
DSTYLE
1002
{
1070
    40
1040
1.0
1070
   144
1040
1.0
1070
   272
1070
     8
1002
}
  0
INSERT
  5
1866
330
1F
100
AcDbEntity
  8
0
100
AcDbBlockReference
  2
A$C29E31EDB
 10
296.0849855366522
 20
242.9642900314116
 30
0.0
  0
INSERT
  5
1893
330
1F
100
AcDbEntity
  8
0
100
AcDbBlockReference
  2
A$C06FA3B76
 10
315.3438132004251
 20
305.2173536570565
 30
0.0
  0
ENDSEC
  0
SECTION
  2
OBJECTS
  0
DICTIONARY
  5
C
330
0
100
AcDbDictionary
281
     1
  3
ACAD_COLOR
350
BE
  3
ACAD_GROUP
350
D
  3
ACAD_LAYOUT
350
1A
  3
ACAD_MATERIAL
350
BD
  3
ACAD_MLINESTYLE
350
17
  3
ACAD_PLOTSETTINGS
350
19
  3
ACAD_PLOTSTYLENAME
350
E
  3
ACAD_TABLESTYLE
350
11A
  3
ACDBHEADERROUNDTRIPXREC
350
19E5
  3
AcDbVariableDictionary
350
94
  3
AcmDictionary
350
5B
  3
AMG
350
41
  3
AMGSNAPSETTINGS
350
1B8
  3
DWGPROPS
350
19E4
  0
DICTIONARY
  5
3F9
330
2
100
AcDbDictionary
280
     1
281
     1
  3
ACAD_LAYERFILTERS
360
135C
  3
ACAD_LAYERSTATES
360
AC4
  3
ACLYDICTIONARY
360
135B
  3
AMLAYER_GROUPCOLORS
360
EBF
  0
DICTIONARY
  5
8F
330
1F
100
AcDbDictionary
280
     1
281
     1
  3
ACAD_SORTENTS
360
EC5
  0
DICTIONARY
  5
F04
330
EFF
100
AcDbDictionary
280
     1
281
     1
  3
ACAD_SORTENTS
360
F05
  0
DICTIONARY
  5
151E
330
150D
100
AcDbDictionary
280
     1
281
     1
  3
ACAD_SORTENTS
360
151F
  0
DICTIONARY
  5
1745
330
1732
100
AcDbDictionary
280
     1
281
     1
  3
ACAD_SORTENTS
360
1746
  0
DICTIONARY
  5
1862
330
185E
100
AcDbDictionary
280
     1
281
     1
  3
ACAD_SORTENTS
360
1863
  0
DICTIONARY
  5
188F
330
187C
100
AcDbDictionary
280
     1
281
     1
  3
ACAD_SORTENTS
360
1890
  0
DICTIONARY
  5
136D
330
1361
100
AcDbDictionary
280
     1
281
     1
  3
ACAD_DIMASSOC
360
136E
  0
DICTIONARY
  5
153F
330
1532
100
AcDbDictionary
280
     1
281
     1
  3
ACAD_DIMASSOC
360
1540
  0
DICTIONARY
  5
15E0
330
15D7
100
AcDbDictionary
280
     1
281
     1
  3
ACAD_DIMASSOC
360
15E1
  0
DICTIONARY
  5
161F
330
1616
100
AcDbDictionary
280
     1
281
     1
  3
ACAD_DIMASSOC
360
1620
  0
DICTIONARY
  5
BE
102
{ACAD_REACTORS
330
C
102
}
330
C
100
AcDbDictionary
281
     1
  0
DICTIONARY
  5
D
102
{ACAD_REACTORS
330
C
102
}
330
C
100
AcDbDictionary
281
     1
  0
DICTIONARY
  5
1A
102
{ACAD_REACTORS
330
C
102
}
330
C
100
AcDbDictionary
281
     1
  3
Model
350
22
  3
配置1
350
1E
  3
配置2
350
26
  0
DICTIONARY
  5
BD
102
{ACAD_REACTORS
330
C
102
}
330
C
100
AcDbDictionary
281
     1
  0
DICTIONARY
  5
17
102
{ACAD_REACTORS
330
C
102
}
330
C
100
AcDbDictionary
281
     1
  3
Standard
350
18
  0
DICTIONARY
  5
19
102
{ACAD_REACTORS
330
C
102
}
330
C
100
AcDbDictionary
281
     1
  0
ACDBDICTIONARYWDFLT
  5
E
102
{ACAD_REACTORS
330
C
102
}
330
C
100
AcDbDictionary
281
     1
  3
Normal
350
F
100
AcDbDictionaryWithDefault
340
F
  0
DICTIONARY
  5
11A
102
{ACAD_REACTORS
330
C
102
}
330
C
100
AcDbDictionary
281
     1
  3
Standard
350
11B
  0
DICTIONARY
  5
19E5
102
{ACAD_REACTORS
330
C
102
}
330
C
100
AcDbDictionary
281
     1
  0
DICTIONARY
  5
94
102
{ACAD_REACTORS
330
C
102
}
330
C
100
AcDbDictionary
281
     1
  3
CTABLESTYLE
350
138
  3
DIMASSOC
350
96
  3
INDEXCTL
350
95
  3
PROJECTNAME
350
FB7
  0
DICTIONARY
  5
5B
102
{ACAD_REACTORS
330
C
102
}
330
C
100
AcDbDictionary
281
     1
  3
AcmBOM
350
1B5
  3
AcmStdDictionary
350
61
  3
AMDTSECTSYM_ARROWCOLOR
350
123
  0
DICTIONARY
  5
41
102
{ACAD_REACTORS
330
C
102
}
330
C
100
AcDbDictionary
281
     1
  0
DICTIONARY
  5
1B8
102
{ACAD_REACTORS
330
C
102
}
330
C
100
AcDbDictionary
281
     1
  0
XRECORD
  5
19E4
102
{ACAD_REACTORS
330
C
102
}
330
C
100
AcDbXrecord
280
     1
  1
DWGPROPS COOKIE
  2

  3

  4

  6

  7

  8

  9

300
AmdtFileType=84
301
=
302
=
303
=
304
=
305
=
306
=
307
=
308
=
309
=
 40
0.1002402314814815
 41
2454013.612854456
 42
2454658.585436737
  1

 90
        1
  0
DICTIONARY
  5
135C
102
{ACAD_REACTORS
330
3F9
102
}
330
3F9
100
AcDbDictionary
281
     1
  0
DICTIONARY
  5
AC4
102
{ACAD_REACTORS
330
3F9
102
}
330
3F9
100
AcDbDictionary
281
     1
  0
DICTIONARY
  5
135B
102
{ACAD_REACTORS
330
3F9
102
}
330
3F9
100
AcDbDictionary
281
     1
1001
ACAD
1000
<All
  0
DICTIONARY
  5
EBF
102
{ACAD_REACTORS
330
3F9
102
}
330
3F9
100
AcDbDictionary
280
     1
281
     1
  0
SORTENTSTABLE
  5
EC5
102
{ACAD_REACTORS
330
8F
102
}
330
8F
100
AcDbSortentsTable
330
1F
331
1361
  5
13F6
331
15D7
  5
169E
331
11F5
  5
120D
331
DFB
  5
E13
331
E3A
  5
1197
331
E42
  5
119F
331
13A1
  5
13F8
331
1244
  5
1350
331
1205
  5
1218
331
DCC
  5
DDE
331
E4A
  5
11B0
331
DD4
  5
DEF
331
C95
  5
C95
331
E0B
  5
E1D
331
11C8
  5
11DC
331
DDC
  5
E00
331
C9D
  5
C9D
331
E13
  5
E25
331
134A
  5
13EB
331
120D
  5
1228
331
1215
  5
1247
331
11D0
  5
11E5
331
E1B
  5
E2D
331
135A
  5
13F5
331
CA5
  5
CA5
331
11D8
  5
11EE
331
DEC
  5
E0A
331
CAD
  5
CAD
331
E23
  5
E35
331
E2B
  5
E3D
331
CB5
  5
CB5
331
1199
  5
11B7
331
E33
  5
E45
331
CBD
  5
CBD
331
11A1
  5
11C8
331
11EE
  5
1205
331
11F6
  5
120E
331
E3B
  5
1198
331
11B9
  5
11D3
331
E43
  5
11A0
331
13A2
  5
13F9
331
1245
  5
1355
331
1206
  5
1219
331
DCD
  5
DDF
331
DD5
  5
DF0
331
C96
  5
C96
331
E0C
  5
E1E
331
11C9
  5
11DD
331
DDD
  5
E01
331
C9E
  5
C9E
331
E14
  5
E26
331
134B
  5
13EC
331
120E
  5
1229
331
1216
  5
1248
331
11D1
  5
11E6
331
E1C
  5
E2E
331
CA6
  5
CA6
331
11D9
  5
11EF
331
DED
  5
E0B
331
1226
  5
1349
331
CAE
  5
CAE
331
E24
  5
E36
331
E2C
  5
E3E
331
CB6
  5
CB6
331
119A
  5
11B9
331
E34
  5
E46
331
CBE
  5
CBE
331
11A2
  5
11C9
331
11EF
  5
1206
331
11F7
  5
120F
331
E3C
  5
1199
331
E44
  5
11A1
331
1246
  5
1356
331
1207
  5
121A
331
DCE
  5
DE3
331
E05
  5
E17
331
11C2
  5
11D8
331
DD6
  5
DF1
331
C97
  5
C97
331
E0D
  5
E1F
331
DDE
  5
E05
331
C9F
  5
C9F
331
E15
  5
E27
331
1532
  5
169D
331
134C
  5
13ED
331
120F
  5
122C
331
1217
  5
1249
331
11D2
  5
11E8
331
E1D
  5
E2F
331
CA7
  5
CA7
331
11DA
  5
11F0
331
E25
  5
E37
331
1227
  5
134A
331
CAF
  5
CAF
331
DEE
  5
E0C
331
119B
  5
11BC
331
E2D
  5
E3F
331
CB7
  5
CB7
331
11E2
  5
11F6
331
E35
  5
E47
331
CBF
  5
CBF
331
11E8
  5
1200
331
11F0
  5
1207
331
1237
  5
134E
331
11F8
  5
1210
331
11B3
  5
11D0
331
1200
  5
1213
331
E3D
  5
119A
331
E45
  5
11A2
331
1247
  5
1359
331
DCF
  5
DE7
331
E06
  5
E18
331
1866
  5
1878
331
11C3
  5
11D9
331
DD7
  5
DF2
331
C98
  5
C98
331
E0E
  5
E20
331
DDF
  5
E06
331
E16
  5
E28
331
1208
  5
121B
331
134D
  5
13EE
331
1210
  5
1237
331
1355
  5
13F2
331
1218
  5
124A
331
CA0
  5
CA0
331
11D3
  5
11E9
331
DE7
  5
E08
331
CA8
  5
CA8
331
E1E
  5
E30
331
DEF
  5
E0D
331
CB0
  5
CB0
331
E26
  5
E38
331
11E3
  5
11F7
331
119C
  5
11BD
331
DF7
  5
E12
331
CB8
  5
CB8
331
E2E
  5
E40
331
E36
  5
E48
331
1228
  5
134B
331
11E9
  5
1201
331
11F1
  5
1208
331
1238
  5
134F
331
11F9
  5
1211
331
CC0
  5
CC0
331
1201
  5
1214
331
DFF
  5
E14
331
E3E
  5
119B
331
11BC
  5
11D4
331
E46
  5
11A7
331
DD0
  5
DE8
331
E07
  5
E19
331
DD8
  5
DF3
331
C99
  5
C99
331
E0F
  5
E21
331
E17
  5
E29
331
1248
  5
135A
331
1209
  5
121C
331
134E
  5
13EF
331
1211
  5
1238
331
1356
  5
13F3
331
1219
  5
124B
331
CA1
  5
CA1
331
11D4
  5
11EA
331
DE8
  5
E09
331
CA9
  5
CA9
331
E1F
  5
E31
331
DF0
  5
E0E
331
CB1
  5
CB1
331
E27
  5
E39
331
11E4
  5
11F8
331
119D
  5
11BF
331
CB9
  5
CB9
331
E2F
  5
E41
331
E37
  5
E49
331
1229
  5
134C
331
11EA
  5
1202
331
11F2
  5
1209
331
1202
  5
1215
331
E00
  5
E15
331
E3F
  5
119C
331
11BD
  5
11D6
331
E47
  5
11AA
331
DD1
  5
DEC
331
C92
  5
C92
331
E08
  5
E1A
331
11C5
  5
11DA
331
DD9
  5
DF7
331
C9A
  5
C9A
331
E10
  5
E22
331
1249
  5
1361
331
120A
  5
1226
331
134F
  5
13F0
331
1251
  5
13A2
331
1212
  5
1244
331
CA2
  5
CA2
331
E18
  5
E2A
331
121A
  5
1251
331
CAA
  5
CAA
331
E20
  5
E32
331
DF1
  5
E0F
331
CB2
  5
CB2
331
E28
  5
E3A
331
1196
  5
11B1
331
CBA
  5
CBA
331
E30
  5
E42
331
119E
  5
11C2
331
11E5
  5
11F9
331
11EB
  5
1203
331
11F3
  5
120A
331
CC2
  5
CC2
331
E38
  5
E4A
331
11B6
  5
11D1
331
E40
  5
119D
331
DCA
  5
DDC
331
E01
  5
E16
331
139F
  5
13F7
331
1203
  5
1216
331
E48
  5
11AB
331
DD2
  5
DED
331
C93
  5
C93
331
E09
  5
E1B
331
DDA
  5
DFB
331
C9B
  5
C9B
331
E11
  5
E23
331
124A
  5
139F
331
120B
  5
1227
331
1350
  5
13F1
331
1213
  5
1245
331
CA3
  5
CA3
331
E19
  5
E2B
331
121B
  5
1347
331
11D6
  5
11EB
331
CAB
  5
CAB
331
E21
  5
E33
331
DF2
  5
E10
331
CB3
  5
CB3
331
E29
  5
E3B
331
1197
  5
11B3
331
CBB
  5
CBB
331
E31
  5
E43
331
119F
  5
11C3
331
11E6
  5
11FA
331
11EC
  5
1204
331
11F4
  5
120B
331
CC3
  5
CC3
331
E39
  5
1196
331
11B7
  5
11D2
331
E41
  5
119E
331
DCB
  5
DDD
331
1204
  5
1217
331
11BF
  5
11D7
331
E49
  5
11AD
331
DD3
  5
DEE
331
C94
  5
C94
331
E0A
  5
E1C
331
DDB
  5
DFF
331
C9C
  5
C9C
331
E12
  5
E24
331
1349
  5
13EA
331
124B
  5
13A1
331
1616
  5
16D3
331
1214
  5
1246
331
DE3
  5
E07
331
CA4
  5
CA4
331
E1A
  5
E2C
331
1359
  5
13F4
331
121C
  5
1348
331
11D7
  5
11EC
331
CAC
  5
CAC
331
E22
  5
E34
331
DF3
  5
E11
331
CB4
  5
CB4
331
E2A
  5
E3C
331
1198
  5
11B6
331
CBC
  5
CBC
331
E32
  5
E44
331
11A0
  5
11C5
  0
SORTENTSTABLE
  5
F05
102
{ACAD_REACTORS
330
F04
102
}
330
F04
100
AcDbSortentsTable
330
EFF
  0
SORTENTSTABLE
  5
151F
102
{ACAD_REACTORS
330
151E
102
}
330
151E
100
AcDbSortentsTable
330
150D
  0
SORTENTSTABLE
  5
1746
102
{ACAD_REACTORS
330
1745
102
}
330
1745
100
AcDbSortentsTable
330
1732
  0
SORTENTSTABLE
  5
1863
102
{ACAD_REACTORS
330
1862
102
}
330
1862
100
AcDbSortentsTable
330
185E
  0
SORTENTSTABLE
  5
1890
102
{ACAD_REACTORS
330
188F
102
}
330
188F
100
AcDbSortentsTable
330
187C
  0
DIMASSOC
  5
136E
102
{ACAD_REACTORS
330
136D
102
}
330
136D
100
AcDbDimAssoc
330
1361
 90
        2
 70
     0
 71
     0
  1
AcDbOsnapPointRef
 72
     3
331
1237
 73
     2
 91
        0
 40
0.0
 10
0.0
 20
0.0
 30
0.0
 75
     0
  0
DIMASSOC
  5
1540
102
{ACAD_REACTORS
330
153F
102
}
330
153F
100
AcDbDimAssoc
330
1532
 90
        3
 70
     0
 71
     0
  1
AcDbOsnapPointRef
 72
    13
331
1226
 73
     0
 91
        0
 40
0.0
 10
0.0
 20
0.0
 30
2.000000000000000E+50
 75
     0
  1
AcDbOsnapPointRef
 72
    13
331
11F0
 73
     0
 91
        0
 40
0.0
 10
0.0
 20
0.0
 30
2.000000000000000E+50
 75
     0
  0
DIMASSOC
  5
15E1
102
{ACAD_REACTORS
330
15E0
102
}
330
15E0
100
AcDbDimAssoc
330
15D7
 90
        2
 70
     0
 71
     0
  1
AcDbOsnapPointRef
 72
     3
331
135A
 73
     2
 91
        0
 40
0.0
 10
0.0
 20
0.0
 30
0.0
 75
     0
  0
DIMASSOC
  5
1620
102
{ACAD_REACTORS
330
161F
102
}
330
161F
100
AcDbDimAssoc
330
1616
 90
        2
 70
     0
 71
     0
  1
AcDbOsnapPointRef
 72
     3
331
1356
 73
     2
 91
        0
 40
0.0
 10
0.0
 20
0.0
 30
0.0
 75
     0
  0
LAYOUT
  5
22
102
{ACAD_XDICTIONARY
360
19E8
102
}
102
{ACAD_REACTORS
330
1A
102
}
330
1A
100
AcDbPlotSettings
  1

  2
\\RD\EPSON Stylus C63 Series單色
  4
A4
  6

 40
3.757083177566528
 41
3.757076978683471
 42
3.757080078125
 43
3.757080078125
 44
209.9733276367187
 45
296.9683227539062
 46
0.0
 47
0.0
 48
0.0
 49
0.0
140
0.0
141
0.0
142
1.0
143
0.3405120737814363
 70
 11952
 72
     1
 73
     0
 74
     0
  7
單色出圖.ctb
 75
     0
147
2.936753428137963
148
-2047.07469463503
149
-1261.649717473083
100
AcDbLayout
  1
Model
 70
     1
 71
     0
 10
0.0
 20
0.0
 11
12.0
 21
9.0
 12
0.0
 22
0.0
 32
0.0
 14
0.0
 24
0.0
 34
0.0
 15
0.0
 25
0.0
 35
0.0
146
0.0
 13
0.0
 23
0.0
 33
0.0
 16
1.0
 26
0.0
 36
0.0
 17
0.0
 27
1.0
 37
0.0
 76
     0
330
1F
1001
ACAD_PSEXT
1000
\\RD\EPSON Stylus C63 Series單色
1000
EPSON Stylus C63 Series
1000
\\RD
1000

1070
     0
  0
LAYOUT
  5
1E
102
{ACAD_XDICTIONARY
360
19E6
102
}
102
{ACAD_REACTORS
330
1A
102
}
330
1A
100
AcDbPlotSettings
  1

  2

  4

  6

 40
0.0
 41
0.0
 42
0.0
 43
0.0
 44
0.0
 45
0.0
 46
0.0
 47
0.0
 48
0.0
 49
0.0
140
0.0
141
0.0
142
1.0
143
1.0
 70
   688
 72
     0
 73
     0
 74
     5
  7
單色出圖.ctb
 75
    16
147
1.0
148
0.0
149
0.0
100
AcDbLayout
  1
配置1
 70
     1
 71
     1
 10
0.0
 20
0.0
 11
420.0
 21
297.0
 12
0.0
 22
0.0
 32
0.0
 14
1.000000000000000E+20
 24
1.000000000000000E+20
 34
1.000000000000000E+20
 15
-1.000000000000000E+20
 25
-1.000000000000000E+20
 35
-1.000000000000000E+20
146
0.0
 13
0.0
 23
0.0
 33
0.0
 16
1.0
 26
0.0
 36
0.0
 17
0.0
 27
1.0
 37
0.0
 76
     0
330
1B
  0
LAYOUT
  5
26
102
{ACAD_XDICTIONARY
360
19EA
102
}
102
{ACAD_REACTORS
330
1A
102
}
330
1A
100
AcDbPlotSettings
  1

  2

  4

  6

 40
0.0
 41
0.0
 42
0.0
 43
0.0
 44
0.0
 45
0.0
 46
0.0
 47
0.0
 48
0.0
 49
0.0
140
0.0
141
0.0
142
1.0
143
1.0
 70
   688
 72
     0
 73
     0
 74
     5
  7
單色出圖.ctb
 75
    16
147
1.0
148
0.0
149
0.0
100
AcDbLayout
  1
配置2
 70
     1
 71
     2
 10
0.0
 20
0.0
 11
12.0
 21
9.0
 12
0.0
 22
0.0
 32
0.0
 14
0.0
 24
0.0
 34
0.0
 15
0.0
 25
0.0
 35
0.0
146
0.0
 13
0.0
 23
0.0
 33
0.0
 16
1.0
 26
0.0
 36
0.0
 17
0.0
 27
1.0
 37
0.0
 76
     0
330
23
  0
MLINESTYLE
  5
18
102
{ACAD_REACTORS
330
17
102
}
330
17
100
AcDbMlineStyle
  2
STANDARD
 70
     0
  3

 62
   256
 51
90.0
 52
90.0
 71
     2
 49
0.5
 62
   256
  6
BYLAYER
 49
-0.5
 62
   256
  6
BYLAYER
  0
ACDBPLACEHOLDER
  5
F
102
{ACAD_REACTORS
330
E
102
}
330
E
  0
TABLESTYLE
  5
11B
102
{ACAD_REACTORS
330
11A
102
}
330
11A
100
AcDbTableStyle
  3
Standard
 70
     0
 71
     0
 40
1.5
 41
1.5
280
     0
281
     0
  7
STANDARD
140
4.5
170
     2
 62
     0
 63
     7
283
     0
274
    -2
284
     1
 64
     0
275
    -2
285
     1
 65
     0
276
    -2
286
     1
 66
     0
277
    -2
287
     1
 67
     0
278
    -2
288
     1
 68
     0
279
    -2
289
     1
 69
     0
  7
STANDARD
140
6.0
170
     5
 62
     0
 63
     7
283
     0
274
    -2
284
     1
 64
     0
275
    -2
285
     1
 65
     0
276
    -2
286
     1
 66
     0
277
    -2
287
     1
 67
     0
278
    -2
288
     1
 68
     0
279
    -2
289
     1
 69
     0
  7
STANDARD
140
4.5
170
     5
 62
     0
 63
     7
283
     0
274
    -2
284
     1
 64
     0
275
    -2
285
     1
 65
     0
276
    -2
286
     1
 66
     0
277
    -2
287
     1
 67
     0
278
    -2
288
     1
 68
     0
279
    -2
289
     1
 69
     0
  0
DICTIONARYVAR
  5
138
102
{ACAD_REACTORS
330
94
102
}
330
94
100
DictionaryVariables
280
     0
  1
STANDARD
  0
DICTIONARYVAR
  5
96
102
{ACAD_REACTORS
330
94
102
}
330
94
100
DictionaryVariables
280
     0
  1
2
  0
DICTIONARYVAR
  5
95
102
{ACAD_REACTORS
330
94
102
}
330
94
100
DictionaryVariables
280
     0
  1
0
  0
DICTIONARYVAR
  5
FB7
102
{ACAD_REACTORS
330
94
102
}
330
94
100
DictionaryVariables
280
     0
  1

  0
DICTIONARY
  5
1B5
102
{ACAD_REACTORS
330
5B
102
}
330
5B
100
AcDbDictionary
281
     1
  0
DICTIONARY
  5
61
102
{ACAD_REACTORS
330
5B
102
}
330
5B
100
AcDbDictionary
281
     1
  0
XRECORD
  5
123
102
{ACAD_REACTORS
330
5B
102
}
330
5B
100
AcDbXrecord
280
     1
 90
-1023410169
  0
DICTIONARY
  5
19E8
330
22
100
AcDbDictionary
280
     1
281
     1
  3
ACAD_XREC_ROUNDTRIP
360
19E9
  0
DICTIONARY
  5
19E6
330
1E
100
AcDbDictionary
280
     1
281
     1
  3
ACAD_XREC_ROUNDTRIP
360
19E7
  0
DICTIONARY
  5
19EA
330
26
100
AcDbDictionary
280
     1
281
     1
  3
ACAD_XREC_ROUNDTRIP
360
19EB
  0
XRECORD
  5
19E9
102
{ACAD_REACTORS
330
19E8
102
}
330
19E8
100
AcDbXrecord
280
     1
102
SHADEPLOT
 70
     0
102
SHADEPLOTRESLEVEL
 70
     2
102
SHADEPLOTCUSTOMDPI
 70
   300
  0
XRECORD
  5
19E7
102
{ACAD_REACTORS
330
19E6
102
}
330
19E6
100
AcDbXrecord
280
     1
102
SHADEPLOT
 70
     0
102
SHADEPLOTRESLEVEL
 70
     2
102
SHADEPLOTCUSTOMDPI
 70
   300
  0
XRECORD
  5
19EB
102
{ACAD_REACTORS
330
19EA
102
}
330
19EA
100
AcDbXrecord
280
     1
102
SHADEPLOT
 70
     0
102
SHADEPLOTRESLEVEL
 70
     2
102
SHADEPLOTCUSTOMDPI
 70
   300
  0
ENDSEC
  0
EOF
