  0
SECTION
  2
HEADER
  9
$ACADVER
  1
AC1015
  9
$ACADMAINTVER
 70
    20
  9
$DWGCODEPAGE
  3
ANSI_950
  9
$INSBASE
 10
0.0
 20
0.0
 30
0.0
  9
$EXTMIN
 10
94.6435557755683
 20
83.26111054572004
 30
-0.0009488308769505
  9
$EXTMAX
 10
281.2966927109481
 20
339.8959890289031
 30
140.9411884631791
  9
$LIMMIN
 10
0.0
 20
0.0
  9
$LIMMAX
 10
420.0
 20
297.0
  9
$ORTHOMODE
 70
     1
  9
$REGENMODE
 70
     1
  9
$FILLMODE
 70
     1
  9
$QTEXTMODE
 70
     0
  9
$MIRRTEXT
 70
     1
  9
$LTSCALE
 40
1.0
  9
$ATTMODE
 70
     1
  9
$TEXTSIZE
 40
3.5
  9
$TRACEWID
 40
1.0
  9
$TEXTSTYLE
  7
STANDARD
  9
$CLAYER
  8
0
  9
$CELTYPE
  6
ByLayer
  9
$CECOLOR
 62
   256
  9
$CELTSCALE
 40
1.0
  9
$DISPSILH
 70
     0
  9
$DIMSCALE
 40
1.0
  9
$DIMASZ
 40
3.0
  9
$DIMEXO
 40
1.0
  9
$DIMDLI
 40
8.0
  9
$DIMRND
 40
0.0
  9
$DIMDLE
 40
0.0
  9
$DIMEXE
 40
1.5
  9
$DIMTP
 40
0.1
  9
$DIMTM
 40
0.1
  9
$DIMTXT
 40
3.5
  9
$DIMCEN
 40
3.0
  9
$DIMTSZ
 40
0.0
  9
$DIMTOL
 70
     0
  9
$DIMLIM
 70
     0
  9
$DIMTIH
 70
     0
  9
$DIMTOH
 70
     0
  9
$DIMSE1
 70
     0
  9
$DIMSE2
 70
     0
  9
$DIMTAD
 70
     1
  9
$DIMZIN
 70
     8
  9
$DIMBLK
  1

  9
$DIMASO
 70
     1
  9
$DIMSHO
 70
     1
  9
$DIMPOST
  1

  9
$DIMAPOST
  1
"
  9
$DIMALT
 70
     0
  9
$DIMALTD
 70
     2
  9
$DIMALTF
 40
0.0393701
  9
$DIMLFAC
 40
1.0
  9
$DIMTOFL
 70
     1
  9
$DIMTVP
 40
0.0
  9
$DIMTIX
 70
     0
  9
$DIMSOXD
 70
     0
  9
$DIMSAH
 70
     0
  9
$DIMBLK1
  1

  9
$DIMBLK2
  1

  9
$DIMSTYLE
  2
AM_ISO
  9
$DIMCLRD
 70
   256
  9
$DIMCLRE
 70
   256
  9
$DIMCLRT
 70
   256
  9
$DIMTFAC
 40
0.71
  9
$DIMGAP
 40
0.8
  9
$DIMJUST
 70
     0
  9
$DIMSD1
 70
     0
  9
$DIMSD2
 70
     0
  9
$DIMTOLJ
 70
     0
  9
$DIMTZIN
 70
     8
  9
$DIMALTZ
 70
     0
  9
$DIMALTTZ
 70
     0
  9
$DIMUPT
 70
     0
  9
$DIMDEC
 70
     2
  9
$DIMTDEC
 70
     8
  9
$DIMALTU
 70
     2
  9
$DIMALTTD
 70
     2
  9
$DIMTXSTY
  7
STANDARD
  9
$DIMAUNIT
 70
     0
  9
$DIMADEC
 70
     0
  9
$DIMALTRND
 40
0.0
  9
$DIMAZIN
 70
     2
  9
$DIMDSEP
 70
    46
  9
$DIMATFIT
 70
     3
  9
$DIMFRAC
 70
     0
  9
$DIMLDRBLK
  1

  9
$DIMLUNIT
 70
     2
  9
$DIMLWD
 70
    -1
  9
$DIMLWE
 70
    -1
  9
$DIMTMOVE
 70
     0
  9
$LUNITS
 70
     2
  9
$LUPREC
 70
     2
  9
$SKETCHINC
 40
1.0
  9
$FILLETRAD
 40
2.5
  9
$AUNITS
 70
     0
  9
$AUPREC
 70
     0
  9
$MENU
  1
.
  9
$ELEVATION
 40
0.0
  9
$PELEVATION
 40
0.0
  9
$THICKNESS
 40
0.0
  9
$LIMCHECK
 70
     0
  9
$CHAMFERA
 40
2.5
  9
$CHAMFERB
 40
2.5
  9
$CHAMFERC
 40
20.0
  9
$CHAMFERD
 40
0.0
  9
$SKPOLY
 70
     0
  9
$TDCREATE
 40
2453021.369367211
  9
$TDUCREATE
 40
2453021.036033877
  9
$TDUPDATE
 40
2453514.628106910
  9
$TDUUPDATE
 40
2453514.294773576
  9
$TDINDWG
 40
0.6267518981
  9
$TDUSRTIMER
 40
0.6267515509
  9
$USRTIMER
 70
     1
  9
$ANGBASE
 50
0.0
  9
$ANGDIR
 70
     0
  9
$PDMODE
 70
     0
  9
$PDSIZE
 40
0.0
  9
$PLINEWID
 40
0.0
  9
$SPLFRAME
 70
     0
  9
$SPLINETYPE
 70
     6
  9
$SPLINESEGS
 70
     8
  9
$HANDSEED
  5
46E3
  9
$SURFTAB1
 70
     6
  9
$SURFTAB2
 70
     6
  9
$SURFTYPE
 70
     6
  9
$SURFU
 70
     6
  9
$SURFV
 70
     6
  9
$UCSBASE
  2

  9
$UCSNAME
  2

  9
$UCSORG
 10
0.0
 20
0.0
 30
0.0
  9
$UCSXDIR
 10
1.0
 20
0.0
 30
0.0
  9
$UCSYDIR
 10
0.0
 20
1.0
 30
0.0
  9
$UCSORTHOREF
  2

  9
$UCSORTHOVIEW
 70
     0
  9
$UCSORGTOP
 10
0.0
 20
0.0
 30
0.0
  9
$UCSORGBOTTOM
 10
0.0
 20
0.0
 30
0.0
  9
$UCSORGLEFT
 10
0.0
 20
0.0
 30
0.0
  9
$UCSORGRIGHT
 10
0.0
 20
0.0
 30
0.0
  9
$UCSORGFRONT
 10
0.0
 20
0.0
 30
0.0
  9
$UCSORGBACK
 10
0.0
 20
0.0
 30
0.0
  9
$PUCSBASE
  2

  9
$PUCSNAME
  2

  9
$PUCSORG
 10
0.0
 20
0.0
 30
0.0
  9
$PUCSXDIR
 10
1.0
 20
0.0
 30
0.0
  9
$PUCSYDIR
 10
0.0
 20
1.0
 30
0.0
  9
$PUCSORTHOREF
  2

  9
$PUCSORTHOVIEW
 70
     0
  9
$PUCSORGTOP
 10
0.0
 20
0.0
 30
0.0
  9
$PUCSORGBOTTOM
 10
0.0
 20
0.0
 30
0.0
  9
$PUCSORGLEFT
 10
0.0
 20
0.0
 30
0.0
  9
$PUCSORGRIGHT
 10
0.0
 20
0.0
 30
0.0
  9
$PUCSORGFRONT
 10
0.0
 20
0.0
 30
0.0
  9
$PUCSORGBACK
 10
0.0
 20
0.0
 30
0.0
  9
$USERI1
 70
     0
  9
$USERI2
 70
     0
  9
$USERI3
 70
     0
  9
$USERI4
 70
     0
  9
$USERI5
 70
     0
  9
$USERR1
 40
0.0
  9
$USERR2
 40
0.0
  9
$USERR3
 40
0.0
  9
$USERR4
 40
0.0
  9
$USERR5
 40
0.0
  9
$WORLDVIEW
 70
     1
  9
$SHADEDGE
 70
     3
  9
$SHADEDIF
 70
    70
  9
$TILEMODE
 70
     1
  9
$MAXACTVP
 70
    64
  9
$PINSBASE
 10
0.0
 20
0.0
 30
0.0
  9
$PLIMCHECK
 70
     0
  9
$PEXTMIN
 10
1.000000000000000E+20
 20
1.000000000000000E+20
 30
1.000000000000000E+20
  9
$PEXTMAX
 10
-1.000000000000000E+20
 20
-1.000000000000000E+20
 30
-1.000000000000000E+20
  9
$PLIMMIN
 10
0.0
 20
0.0
  9
$PLIMMAX
 10
420.0
 20
297.0
  9
$UNITMODE
 70
     0
  9
$VISRETAIN
 70
     1
  9
$PLINEGEN
 70
     0
  9
$PSLTSCALE
 70
     1
  9
$TREEDEPTH
 70
  3020
  9
$CMLSTYLE
  2
Standard
  9
$CMLJUST
 70
     0
  9
$CMLSCALE
 40
20.0
  9
$PROXYGRAPHICS
 70
     1
  9
$MEASUREMENT
 70
     1
  9
$CELWEIGHT
370
    -1
  9
$ENDCAPS
280
     0
  9
$JOINSTYLE
280
     0
  9
$LWDISPLAY
290
     0
  9
$INSUNITS
 70
     4
  9
$HYPERLINKBASE
  1

  9
$STYLESHEET
  1
彩色出圖.ctb
  9
$XEDIT
290
     1
  9
$CEPSNTYPE
380
     0
  9
$PSTYLEMODE
290
     1
  9
$FINGERPRINTGUID
  2
{6C02722A-18D3-491A-897A-B8025DE410A9}
  9
$VERSIONGUID
  2
{02D3F257-EB60-43DC-A95C-27DBF58707F4}
  9
$EXTNAMES
290
     1
  9
$PSVPSCALE
 40
0.0
  9
$OLESTARTUP
290
     0
  0
ENDSEC
  0
SECTION
  2
CLASSES
  0
CLASS
  1
ACDBDICTIONARYWDFLT
  2
AcDbDictionaryWithDefault
  3
ObjectDBX Classes
 90
        0
280
     0
281
     0
  0
CLASS
  1
ACDBPLACEHOLDER
  2
AcDbPlaceHolder
  3
ObjectDBX Classes
 90
        0
280
     0
281
     0
  0
CLASS
  1
LAYOUT
  2
AcDbLayout
  3
ObjectDBX Classes
 90
        0
280
     0
281
     0
  0
CLASS
  1
AMGSETTINGSOBJ
  2
AmgSettingsObj
  3
"AcadM|Product Description: AutoCAD Mechanical 2000|Company: Autodesk"
 90
        0
280
     0
281
     0
  0
CLASS
  1
ACME_DOCUMENT
  2
AcMeDbDoc
  3
AcMeServices
 90
        0
280
     0
281
     0
  0
CLASS
  1
ACMESCOPE
  2
AcMeScope
  3
AcMeServices
 90
        0
280
     0
281
     0
  0
CLASS
  1
ACMECOMMANDHISTORY
  2
AcMeCommandHistory
  3
AcMeServices
 90
        0
280
     0
281
     0
  0
CLASS
  1
ACIMSYSVARMAN
  2
AcImSysVarManager
  3
AcMeServices
 90
        0
280
     0
281
     0
  0
CLASS
  1
ACIMREALSYSVAR
  2
AcImRealSysVar
  3
AcMeServices
 90
        0
280
     0
281
     0
  0
CLASS
  1
ACIMINTSYSVAR
  2
AcImIntSysVar
  3
AcMeServices
 90
        0
280
     0
281
     0
  0
CLASS
  1
ACMEDRAWINGMAN
  2
AcMeDrawingMan
  3
AcMeServices
 90
        0
280
     0
281
     0
  0
CLASS
  1
ACMEVIEW
  2
AcMeView
  3
AcMeServices
 90
        0
280
     0
281
     0
  0
CLASS
  1
ACDBENTITYCACHE
  2
AcMeEntityCache
  3
AcMeServices
 90
        0
280
     0
281
     0
  0
CLASS
  1
GSMANAGER
  2
AcMeGSManager
  3
AcMeServices
 90
        0
280
     0
281
     0
  0
CLASS
  1
AMDTINTERNALREACTOR
  2
AmdtInternalReactor
  3
AcMeServices
 90
        0
280
     0
281
     0
  0
CLASS
  1
ACMESTATEMGR
  2
AcMeStateMgr
  3
AcMeServices
 90
        0
280
     0
281
     0
  0
CLASS
  1
ACGREFMASTER
  2
AcGrefMaster
  3
AcAttribServices
 90
        0
280
     0
281
     0
  0
CLASS
  1
ACME_DATABASE
  2
AcMeDbDatabase
  3
AcMeServices
 90
        0
280
     0
281
     0
  0
CLASS
  1
ACRFINSADJUSTERMGR
  2
AcRfInsAdjusterMgr
  3
AcMeServices
 90
        0
280
     0
281
     0
  0
CLASS
  1
ACGREFACADMASTER
  2
AcGrefacadMaster
  3
AcGrefServices
 90
        0
280
     0
281
     0
  0
CLASS
  1
AMIMASTER
  2
AmiMaster
  3
AmiServices
 90
        0
280
     0
281
     0
  0
CLASS
  1
ACMDATADICTIONARY
  2
AcmDataDictionary
  3
"AcmSymBB|Product Description: AutoCAD Mechanical 2004 DX|Company: Autodesk"
 90
        0
280
     0
281
     0
  0
CLASS
  1
ACMDATAENTRYBLOCK
  2
AcmDataEntryBlock
  3
"AcmSymBB|Product Description: AutoCAD Mechanical 2004 DX|Company: Autodesk"
 90
    32768
280
     0
281
     0
  0
CLASS
  1
ACIMSTRSYSVAR
  2
AcImStrSysVar
  3
AcMeServices
 90
        0
280
     0
281
     0
  0
CLASS
  1
ACMSTANDARDISO
  2
AcmStandardISO
  3
"Amdt_StdImp|Product Description: AutoCAD Mechanical 2004 DX|Company: Autodesk"
 90
        0
280
     0
281
     0
  0
CLASS
  1
AMGOBJPROPCFG
  2
AmgObjPropCfg
  3
"AmgLay|Product Description: AutoCAD Mechanical 2000|Company: Autodesk"
 90
        1
280
     0
281
     0
  0
CLASS
  1
AMDTEDGESTANDARDISO
  2
AmdtEdgeStdISO
  3
"Amdt_StdImp|Product Description: AutoCAD Mechanical 2004 DX|Company: Autodesk"
 90
    32768
280
     0
281
     0
  0
CLASS
  1
ACMSURFSTANDARDISO
  2
AcmSurfTextStdISO
  3
"Amdt_StdImp|Product Description: AutoCAD Mechanical 2004 DX|Company: Autodesk"
 90
        0
280
     0
281
     0
  0
CLASS
  1
ACMFCFSTANDARDISO
  2
AcmFCFStdISO
  3
"Amdt_StdImp|Product Description: AutoCAD Mechanical 2004 DX|Company: Autodesk"
 90
        0
280
     0
281
     0
  0
CLASS
  1
ACMWELDSTANDARDISO
  2
AcmWeldingStdISO
  3
"Amdt_StdImp|Product Description: AutoCAD Mechanical 2004 DX|Company: Autodesk"
 90
        0
280
     0
281
     0
  0
CLASS
  1
ACMIDSTANDARDISO
  2
AcmIdStdISO
  3
"Amdt_StdImp|Product Description: AutoCAD Mechanical 2004 DX|Company: Autodesk"
 90
        0
280
     0
281
     0
  0
CLASS
  1
ACMDATUMSTANDARDISO
  2
AcmDatumStdISO
  3
"Amdt_StdImp|Product Description: AutoCAD Mechanical 2004 DX|Company: Autodesk"
 90
        0
280
     0
281
     0
  0
CLASS
  1
ACMBOMSTANDARDISO
  2
AcmBOMStdISO
  3
"Amdt_StdImp|Product Description: AutoCAD Mechanical 2004 DX|Company: Autodesk"
 90
        0
280
     0
281
     0
  0
CLASS
  1
ACMDETAILSTANDARDISO
  2
AmdtDetailSymStdISO
  3
"Amdt_StdImp|Product Description: AutoCAD Mechanical 2004 DX|Company: Autodesk"
 90
        0
280
     0
281
     0
  0
CLASS
  1
ACMSECTIONSTANDARDISO
  2
AmdtSectionSymStdISO
  3
"Amdt_StdImp|Product Description: AutoCAD Mechanical 2004 DX|Company: Autodesk"
 90
        0
280
     0
281
     0
  0
CLASS
  1
ACMCENTERLINESTANDARDISO
  2
AmdtCenterLineStdISO
  3
"Amdt_StdImp|Product Description: AutoCAD Mechanical 2004 DX|Company: Autodesk"
 90
        0
280
     0
281
     0
  0
CLASS
  1
ACMNOTESTANDARDISO
  2
AmdtNoteStdISO
  3
"Amdt_StdImp|Product Description: AutoCAD Mechanical 2004 DX|Company: Autodesk"
 90
        0
280
     0
281
     0
  0
CLASS
  1
ACAMGLAYSTD
  2
AcAmgLayStd
  3
"AcAmgLayStd|Product Description: AutoCAD Mechanical 2000|Company: Autodesk"
 90
        0
280
     0
281
     0
  0
CLASS
  1
ACAMGDIMSTD
  2
AcAmgDimStd
  3
"AcAmgDimStd|Product Description: AutoCAD Mechanical 2000|Company: Autodesk"
 90
        0
280
     0
281
     0
  0
CLASS
  1
ACAMGHOLECHARTSTDISO
  2
AcAmgHoleChartStdISO
  3
ACMSYMBB_MODULE_NAME
 90
        0
280
     0
281
     0
  0
CLASS
  1
ACAMGTITLESTD
  2
AcAmgTitleStd
  3
"TITLEAPP"
 90
        0
280
     0
281
     0
  0
CLASS
  1
LAYER_INDEX
  2
AcDbLayerIndex
  3
ObjectDBX Classes
 90
    32768
280
     0
281
     0
  0
CLASS
  1
IDBUFFER
  2
AcDbIdBuffer
  3
ObjectDBX Classes
 90
    32768
280
     0
281
     0
  0
CLASS
  1
DICTIONARYVAR
  2
AcDbDictionaryVar
  3
ObjectDBX Classes
 90
        0
280
     0
281
     0
  0
CLASS
  1
ACAMGFILTERDAT
  2
AcAmgFilterDat
  3
"AcadM|Product Description: AutoCAD Mechanical 2000|Company: Autodesk"
 90
    32768
280
     0
281
     0
  0
CLASS
  1
AMDTFORMULAUPDATEDISPATCHER
  2
AmdtFormulaUpdateDispatcher
  3
AcMeServices
 90
    32768
280
     0
281
     0
  0
CLASS
  1
DIMASSOC
  2
AcDbDimAssoc
  3
"AcDbDimAssoc|Product Desc:     AcDim ARX App For Dimension|Company:          Autodesk, Inc.|WEB Address:      www.autodesk.com"
 90
    32768
280
     0
281
     0
  0
CLASS
  1
AMDTNOTE
  2
AmdtNote
  3
"AcmSymBB|Product Description: AutoCAD Mechanical 2004 DX|Company: Autodesk"
 90
     1023
280
     0
281
     1
  0
CLASS
  1
TABLESTYLE
  2
AcDbTableStyle
  3
ObjectDBX Classes
 90
     2047
280
     0
281
     0
  0
CLASS
  1
AM_DRAWING_MGR
  2
AcDmDwgMgr
  3
AcMechDwgViewMgmt
 90
        0
280
     0
281
     0
  0
CLASS
  1
AM_DWG_DOCUMENT
  2
AcDmDwgDocument
  3
AcMechDwgViewMgmt
 90
        0
280
     0
281
     0
  0
CLASS
  1
AM_DWG_SHEET
  2
AcDmSheet
  3
AcMechDwgViewMgmt
 90
        0
280
     0
281
     0
  0
CLASS
  1
AM_VIEWDIMPARMAP
  2
AcDmViewDimParMap
  3
AcMechDwgViewMgmt
 90
        0
280
     0
281
     0
  0
CLASS
  1
AM_DWGMGR_NAME
  2
AcDmDwgMgrName
  3
AcMechDwgViewMgmt
 90
        0
280
     0
281
     0
  0
CLASS
  1
AMDTMENUSTATEMGR
  2
AmdtMenuStateMgr
  3
McadcomServices
 90
        0
280
     0
281
     0
  0
CLASS
  1
AMDTMCOMMENUSTATE
  2
AmdtMcomMenuState
  3
McadcomServices
 90
        0
280
     0
281
     0
  0
CLASS
  1
MAPIAMMOUDLE
  2
MApiAmModule
  3
MApiAmServices
 90
        0
280
     0
281
     0
  0
CLASS
  1
AMDTADMENUSTATE
  2
AmdtAdMenuState
  3
DesignerServices
 90
        0
280
     0
281
     0
  0
CLASS
  1
ADAPPL
  2
AcAdAppl
  3
DesignerServices
 90
        0
280
     0
281
     0
  0
CLASS
  1
DEPMGR
  2
AcAdDepMgr
  3
DesignerServices
 90
        0
280
     0
281
     0
  0
CLASS
  1
PARAMMGR
  2
AcAdParamMgr
  3
DesignerServices
 90
        0
280
     0
281
     0
  0
CLASS
  1
PARAMSCOPE
  2
AcAdParamScope
  3
DesignerServices
 90
        0
280
     0
281
     0
  0
CLASS
  1
NAMEDAPPL
  2
AcAdNamedAppl
  3
DesignerServices
 90
        0
280
     0
281
     0
  0
CLASS
  1
AMDTDMMENUSTATE
  2
AmdtDmMenuState
  3
AcMechDwgViewMgmt
 90
        0
280
     0
281
     0
  0
CLASS
  1
AMDTAMMENUSTATE
  2
AmdtAmMenuState
  3
DesignerAssemblies
 90
        0
280
     0
281
     0
  0
CLASS
  1
ACAMPROJECT
  2
AcAmProject
  3
DesignerAssemblies
 90
        0
280
     0
281
     0
  0
CLASS
  1
ACAMGRCOMPDEF
  2
AcAmGrCompDef
  3
DesignerAssemblies
 90
        0
280
     0
281
     0
  0
CLASS
  1
ACCMCONTEXT
  2
AcCmContext
  3
DesignerAssemblies
 90
        0
280
     0
281
     0
  0
CLASS
  1
ACAMCOMPDEF
  2
AcAmCompDef
  3
DesignerAssemblies
 90
        0
280
     0
281
     0
  0
CLASS
  1
ACAMCOMPDEFMGR
  2
AcAmCompDefMgr
  3
DesignerAssemblies
 90
        0
280
     0
281
     0
  0
CLASS
  1
AMCONTEXTMGR
  2
AcAmContextMgr
  3
DesignerAssemblies
 90
        0
280
     0
281
     0
  0
CLASS
  1
ACAMCONTEXTMODELER
  2
AcAmContextModeler
  3
DesignerAssemblies
 90
        0
280
     0
281
     0
  0
CLASS
  1
ACMTHREADLINESTANDARDISO
  2
AmdtThreadLineStdISO
  3
"Amdt_StdImp|Product Description: AutoCAD Mechanical 2004 DX|Company: Autodesk"
 90
        0
280
     0
281
     0
  0
CLASS
  1
CATALOGSTATE
  2
AcAmCatalogState
  3
DesignerAssemblies
 90
        0
280
     0
281
     0
  0
CLASS
  1
ACAMGRCOMPDEFSET
  2
AcAmGrCompDefSet
  3
DesignerAssemblies
 90
        0
280
     0
281
     0
  0
CLASS
  1
AMDTBROWSERDBTAB
  2
AmdtBrowserDbTab
  3
McadcomServices
 90
        0
280
     0
281
     0
  0
CLASS
  1
CBROWSERAPPOBJECT
  2
CBrowserAppObject
  3
McadcomServices
 90
        0
280
     0
281
     0
  0
CLASS
  1
DM_PLACEHOLDER
  2
AcDmSelsetPlaceholder
  3
AcMechDwgViewMgmt
 90
        0
280
     0
281
     0
  0
CLASS
  1
VAACXREFPANELOBJECT
  2
VaAcXREFPanelObject
  3
VAAC_ADDIN
 90
        0
280
     0
281
     0
  0
CLASS
  1
VAACIMAGEINVENTORY
  2
VaAcImageInventory
  3
VAAC_ADDIN
 90
        0
280
     0
281
     0
  0
CLASS
  1
AMDTEDGESTANDARDISO13715
  2
AmdtEdgeStdISO13715
  3
"Amdt_StdImp|Product Description: AutoCAD Mechanical 2004 DX|Company: Autodesk"
 90
        0
280
     0
281
     0
  0
CLASS
  1
AMDTNOTETEMPLATEDB
  2
AmdtNoteTemplateDB
  3
AMDT_STDIMP_MODULE_NAME
 90
        0
280
     0
281
     0
  0
CLASS
  1
ACRFATTGENMGR
  2
AcRfAttGeneralMgr
  3
AcAttribServices
 90
        0
280
     0
281
     0
  0
CLASS
  1
SORTENTSTABLE
  2
AcDbSortentsTable
  3
ObjectDBX Classes
 90
        0
280
     0
281
     0
  0
CLASS
  1
STDPART2D
  2
AmgStdPart
  3
"AmgStdPart|Product Description: AutoCAD Mechanical 2000|Company: Autodesk"
 90
    33791
280
     0
281
     1
  0
CLASS
  1
ACAMSTDPCOMPDEF
  2
AcAmStdpCompDef
  3
DesignerAssemblies
 90
    32768
280
     0
281
     0
  0
CLASS
  1
ACRFOBJATTMGR
  2
AcRfObjAttGroupMgr
  3
AcAttribServices
 90
    32768
280
     0
281
     0
  0
CLASS
  1
ACRFMCADAPIATTHOLDER
  2
AcRfMCADAPIAttHolder
  3
AcAttribServices
 90
    32768
280
     0
281
     0
  0
CLASS
  1
AMDTSYSATTR
  2
AmdtSystemAttribute
  3
AcAttribServices
 90
    32768
280
     0
281
     0
  0
CLASS
  1
ACAMCOMP
  2
AcAmComp
  3
DesignerAssemblies
 90
    32768
280
     0
281
     0
  0
CLASS
  1
AC_AM_STDP_VIEW_DEF
  2
AcAmStdpViewDef
  3
DesignerAssemblies
 90
    32768
280
     0
281
     0
  0
CLASS
  1
AC_AM_MVD_DEP_MGR
  2
AcAmMVDdepMgr
  3
DesignerAssemblies
 90
        0
280
     0
281
     0
  0
CLASS
  1
AC_AM_MASTER_VIEW_DEF
  2
AcAmMasterViewDef
  3
DesignerAssemblies
 90
        0
280
     0
281
     0
  0
CLASS
  1
AC_AM_DIRTY_NODES
  2
AcAmDirtyNodes
  3
DesignerAssemblies
 90
        0
280
     0
281
     0
  0
CLASS
  1
AC_AM_MAPPER_CACHE
  2
AcAmMapperCache
  3
DesignerAssemblies
 90
        0
280
     0
281
     0
  0
CLASS
  1
ACAMMVDBACKUPOBJECT
  2
AcAmMVDBackupObject
  3
DesignerAssemblies
 90
        0
280
     0
281
     0
  0
CLASS
  1
AC_AM_COMP_VIEW_INST
  2
AcAmCompView
  3
DesignerAssemblies
 90
    32768
280
     0
281
     0
  0
CLASS
  1
AC_AM_2D_XREF_MGR
  2
AcAmXrefMgr2d
  3
DesignerAssemblies
 90
        0
280
     0
281
     0
  0
CLASS
  1
ACMSTANDARDANSI
  2
AcmStandardANSI
  3
"Amdt_StdImp|Product Description: AutoCAD Mechanical 2004 DX|Company: Autodesk"
 90
    32768
280
     0
281
     0
  0
CLASS
  1
ACMSURFSTANDARDANSI
  2
AcmSurfTextStdANSI
  3
"Amdt_StdImp|Product Description: AutoCAD Mechanical 2004 DX|Company: Autodesk"
 90
    32768
280
     0
281
     0
  0
CLASS
  1
ACMFCFSTANDARDANSI
  2
AcmFCFStdANSI
  3
"Amdt_StdImp|Product Description: AutoCAD Mechanical 2004 DX|Company: Autodesk"
 90
    32768
280
     0
281
     0
  0
CLASS
  1
ACMWELDSTANDARDANSI
  2
AcmWeldingStdANSI
  3
"Amdt_StdImp|Product Description: AutoCAD Mechanical 2004 DX|Company: Autodesk"
 90
    32768
280
     0
281
     0
  0
CLASS
  1
ACMIDSTANDARDANSI
  2
AcmIdStdANSI
  3
"Amdt_StdImp|Product Description: AutoCAD Mechanical 2004 DX|Company: Autodesk"
 90
    32768
280
     0
281
     0
  0
CLASS
  1
ACMDATUMSTANDARDANSI
  2
AcmDatumStdANSI
  3
"Amdt_StdImp|Product Description: AutoCAD Mechanical 2004 DX|Company: Autodesk"
 90
    32768
280
     0
281
     0
  0
CLASS
  1
ACMBOMSTANDARDANSI
  2
AcmBOMStdANSI
  3
"Amdt_StdImp|Product Description: AutoCAD Mechanical 2004 DX|Company: Autodesk"
 90
    32768
280
     0
281
     0
  0
CLASS
  1
ACMDETAILSTANDARDANSI
  2
AmdtDetailSymStdANSI
  3
"Amdt_StdImp|Product Description: AutoCAD Mechanical 2004 DX|Company: Autodesk"
 90
    32768
280
     0
281
     0
  0
CLASS
  1
ACMSECTIONSTANDARDANSI
  2
AmdtSectionSymStdANSI
  3
"Amdt_StdImp|Product Description: AutoCAD Mechanical 2004 DX|Company: Autodesk"
 90
    32768
280
     0
281
     0
  0
CLASS
  1
ACMCENTERLINESTANDARDANSI
  2
AmdtCenterLineStdANSI
  3
"Amdt_StdImp|Product Description: AutoCAD Mechanical 2004 DX|Company: Autodesk"
 90
    32768
280
     0
281
     0
  0
CLASS
  1
ACMTHREADLINESTANDARDANSI
  2
AmdtThreadLineStdANSI
  3
"Amdt_StdImp|Product Description: AutoCAD Mechanical 2004 DX|Company: Autodesk"
 90
    32768
280
     0
281
     0
  0
CLASS
  1
ACMNOTESTANDARDANSI
  2
AmdtNoteStdANSI
  3
"Amdt_StdImp|Product Description: AutoCAD Mechanical 2004 DX|Company: Autodesk"
 90
    32768
280
     0
281
     0
  0
CLASS
  1
ACAMGHOLECHARTSTDANSI
  2
AcAmgHoleChartStdANSI
  3
ACMSYMBB_MODULE_NAME
 90
    32768
280
     0
281
     0
  0
ENDSEC
  0
SECTION
  2
TABLES
  0
TABLE
  2
VPORT
  5
8
330
0
100
AcDbSymbolTable
 70
     3
  0
VPORT
  5
46DA
330
8
100
AcDbSymbolTableRecord
100
AcDbViewportTableRecord
  2
*Active
 70
     0
 10
0.0
 20
0.0
 11
1.0
 21
1.0
 12
187.9701242432581
 22
211.5850588276544
 13
0.0
 23
0.0
 14
2.5
 24
2.5
 15
10.0
 25
10.0
 16
0.0
 26
0.0
 36
1.0
 17
0.0
 27
0.0
 37
0.0
 40
259.5793569573633
 41
1.81766917293233
 42
50.0
 43
0.0
 44
0.0
 50
0.0
 51
0.0
 71
     0
 72
   100
 73
     1
 74
     3
 75
     0
 76
     0
 77
     0
 78
     0
281
     0
 65
     1
110
0.0
120
0.0
130
0.0
111
1.0
121
0.0
131
0.0
112
0.0
122
1.0
132
0.0
 79
     0
146
0.0
  0
ENDTAB
  0
TABLE
  2
LTYPE
  5
5
330
0
100
AcDbSymbolTable
 70
    14
  0
LTYPE
  5
14
330
5
100
AcDbSymbolTableRecord
100
AcDbLinetypeTableRecord
  2
ByBlock
 70
     0
  3

 72
    65
 73
     0
 40
0.0
  0
LTYPE
  5
15
330
5
100
AcDbSymbolTableRecord
100
AcDbLinetypeTableRecord
  2
ByLayer
 70
     0
  3

 72
    65
 73
     0
 40
0.0
  0
LTYPE
  5
16
330
5
100
AcDbSymbolTableRecord
100
AcDbLinetypeTableRecord
  2
Continuous
 70
     0
  3
Solid line
 72
    65
 73
     0
 40
0.0
  0
LTYPE
  5
4D
330
5
100
AcDbSymbolTableRecord
100
AcDbLinetypeTableRecord
  2
AM_ISO02W050
 70
     0
  3
__ __ __ __ __ __ __ __ __ __ __ __ __ __ __
 72
    65
 73
     2
 40
7.5
 49
6.0
 74
     0
 49
-1.5
 74
     0
  0
LTYPE
  5
4E
330
5
100
AcDbSymbolTableRecord
100
AcDbLinetypeTableRecord
  2
AM_ISO08W050
 70
     0
  3
____ . ____ . ____ . ____ . ____ . ____ . ____
 72
    65
 73
     4
 40
18.0
 49
12.0
 74
     0
 49
-1.5
 74
     0
 49
3.0
 74
     0
 49
-1.5
 74
     0
  0
LTYPE
  5
4F
330
5
100
AcDbSymbolTableRecord
100
AcDbLinetypeTableRecord
  2
AM_ISO09W050
 70
     0
  3
_____ . . _____ . . _____ . . ____ .. ____
 72
    65
 73
     6
 40
22.5
 49
12.0
 74
     0
 49
-1.5
 74
     0
 49
3.0
 74
     0
 49
-1.5
 74
     0
 49
3.0
 74
     0
 49
-1.5
 74
     0
  0
LTYPE
  5
50
330
5
100
AcDbSymbolTableRecord
100
AcDbLinetypeTableRecord
  2
Amconstr
 70
     0
  3
_______________________
 72
    65
 73
     2
 40
9999.0
 49
9999.0
 74
     0
 49
0.0
 74
     0
  0
LTYPE
  5
51
330
5
100
AcDbSymbolTableRecord
100
AcDbLinetypeTableRecord
  2
AM_ISO08W050x2
 70
     0
  3
__ . __ . __ . __ . __ . __
 72
    65
 73
     4
 40
9.0
 49
6.0
 74
     0
 49
-0.75
 74
     0
 49
1.5
 74
     0
 49
-0.75
 74
     0
  0
LTYPE
  5
52
330
5
100
AcDbSymbolTableRecord
100
AcDbLinetypeTableRecord
  2
AM_ISO02W050x2
 70
     0
  3
 _ _ _ _ _ _ _ _ _ _ _ _
 72
    65
 73
     2
 40
3.75
 49
3.0
 74
     0
 49
-0.75
 74
     0
  0
LTYPE
  5
55
330
5
100
AcDbSymbolTableRecord
100
AcDbLinetypeTableRecord
  2
Amzigzag
 70
     0
  3
/\/-/\/-/\/-/\/-/\/-/\/
 72
    65
 73
     2
 40
11.0001
 49
0.0001
 74
     4
 75
   135
340
54
 46
0.04
 50
0.0
 44
0.0
 45
0.0
 49
-11.0
 74
     0
  0
LTYPE
  5
63
330
5
100
AcDbSymbolTableRecord
100
AcDbLinetypeTableRecord
  2
ACISOWELD
 70
     0
  3
_ _ _ _ _
 72
    65
 73
     2
 40
2.0
 49
2.0
 74
     0
 49
-1.0
 74
     0
  0
LTYPE
  5
64
330
5
100
AcDbSymbolTableRecord
100
AcDbLinetypeTableRecord
  2
ACISOTGB
 70
     0
  3
__ . . __ . .
 72
    65
 73
     6
 40
9.0
 49
4.0
 74
     0
 49
-1.0
 74
     0
 49
1.0
 74
     0
 49
-1.0
 74
     0
 49
1.0
 74
     0
 49
-1.0
 74
     0
  0
LTYPE
  5
65
330
5
100
AcDbSymbolTableRecord
100
AcDbLinetypeTableRecord
  2
ACISOTGL
 70
     0
  3
_ _ _ _ _
 72
    65
 73
     2
 40
3.0
 49
2.0
 74
     0
 49
-1.0
 74
     0
  0
LTYPE
  5
68
330
5
100
AcDbSymbolTableRecord
100
AcDbLinetypeTableRecord
  2
CENTER
 70
     0
  3
__ . __
 72
    65
 73
     4
 40
7.0
 49
4.0
 74
     0
 49
-1.0
 74
     0
 49
1.0
 74
     0
 49
-1.0
 74
     0
  0
LTYPE
  5
806
330
5
100
AcDbSymbolTableRecord
100
AcDbLinetypeTableRecord
  2
HIDDEN
 70
     0
  3
Hidden __ __ __ __ __ __ __ __ __ __ __ __ __ _
 72
    65
 73
     2
 40
9.524999999999998
 49
6.349999999999999
 74
     0
 49
-3.174999999999999
 74
     0
  0
LTYPE
  5
807
330
5
100
AcDbSymbolTableRecord
100
AcDbLinetypeTableRecord
  2
PHANTOM2
 70
     0
  3
Phantom (.5x) ___ _ _ ___ _ _ ___ _ _ ___ _ _
 72
    65
 73
     6
 40
31.75
 49
15.875
 74
     0
 49
-3.174999999999999
 74
     0
 49
3.174999999999999
 74
     0
 49
-3.174999999999999
 74
     0
 49
3.174999999999999
 74
     0
 49
-3.174999999999999
 74
     0
  0
ENDTAB
  0
TABLE
  2
LAYER
  5
2
102
{ACAD_XDICTIONARY
360
AAB
102
}
330
0
100
AcDbSymbolTable
 70
     8
  0
LAYER
  5
10
330
2
100
AcDbSymbolTableRecord
100
AcDbLayerTableRecord
  2
0
 70
     0
 62
     7
  6
Continuous
370
    -3
390
F
  0
LAYER
  5
42A
330
2
100
AcDbSymbolTableRecord
100
AcDbLayerTableRecord
  2
AM_5
 70
     0
 62
     5
  6
Continuous
370
    50
390
F
  0
LAYER
  5
43E
330
2
100
AcDbSymbolTableRecord
100
AcDbLayerTableRecord
  2
Defpoints
 70
     0
 62
     7
  6
Continuous
290
     0
370
    -3
390
F
  0
LAYER
  5
CD5
330
2
100
AcDbSymbolTableRecord
100
AcDbLayerTableRecord
  2
AM_7
 70
     0
 62
     1
  6
AM_ISO08W050
370
    25
390
F
  0
LAYER
  5
CD6
330
2
100
AcDbSymbolTableRecord
100
AcDbLayerTableRecord
  2
AM_VIS
 70
     0
 62
     7
  6
Continuous
370
    50
390
F
  0
LAYER
  5
CD7
330
2
100
AcDbSymbolTableRecord
100
AcDbLayerTableRecord
  2
AM_4
 70
     0
 62
     3
  6
Continuous
370
    25
390
F
  0
LAYER
  5
CD9
330
2
100
AcDbSymbolTableRecord
100
AcDbLayerTableRecord
  2
AM_0
 70
     0
 62
     7
  6
Continuous
370
    50
390
F
  0
LAYER
  5
135E
330
2
100
AcDbSymbolTableRecord
100
AcDbLayerTableRecord
  2
LOGO
 70
     0
 62
     7
  6
Continuous
370
    -3
390
F
  0
ENDTAB
  0
TABLE
  2
STYLE
  5
3
330
0
100
AcDbSymbolTable
 70
     6
  0
STYLE
  5
11
330
3
100
AcDbSymbolTableRecord
100
AcDbTextStyleTableRecord
  2
STANDARD
 70
     0
 40
0.0
 41
1.0
 50
0.0
 71
     0
 42
3.5
  3
ISOCP.SHX
  4
CHINESET.SHX
  0
STYLE
  5
54
330
3
100
AcDbSymbolTableRecord
100
AcDbTextStyleTableRecord
  2

 70
     1
 40
0.0
 41
1.0
 50
0.0
 71
     0
 42
2.5
  3
ltypeshp.shx
  4

  0
STYLE
  5
56
330
3
100
AcDbSymbolTableRecord
100
AcDbTextStyleTableRecord
  2
ACISOTS
 70
     0
 40
1.0
 41
1.0
 50
0.0
 71
     0
 42
2.5
  3
isocp.shx
  4
chineset.shx
  0
STYLE
  5
62
330
3
100
AcDbSymbolTableRecord
100
AcDbTextStyleTableRecord
  2
ACISOGDT
 70
     0
 40
0.0
 41
1.0
 50
0.0
 71
     0
 42
3.5
  3
amgdt.shx
  4

  0
STYLE
  5
1360
330
3
100
AcDbSymbolTableRecord
100
AcDbTextStyleTableRecord
  2
CHINESET
 70
     0
 40
0.0
 41
1.0
 50
0.0
 71
     0
 42
4.0
  3
simplex.shx
  4
chineset.shx
  0
ENDTAB
  0
TABLE
  2
VIEW
  5
6
330
0
100
AcDbSymbolTable
 70
     0
  0
ENDTAB
  0
TABLE
  2
UCS
  5
7
330
0
100
AcDbSymbolTable
 70
     0
  0
ENDTAB
  0
TABLE
  2
APPID
  5
9
330
0
100
AcDbSymbolTable
 70
    32
  0
APPID
  5
12
330
9
100
AcDbSymbolTableRecord
100
AcDbRegAppTableRecord
  2
ACAD
 70
     0
  0
APPID
  5
30
330
9
100
AcDbSymbolTableRecord
100
AcDbRegAppTableRecord
  2
MCAD_NO_VIS
 70
     0
  0
APPID
  5
31
330
9
100
AcDbSymbolTableRecord
100
AcDbRegAppTableRecord
  2
ACAD_TEMP_GRAPHIC
 70
     0
  0
APPID
  5
42
330
9
100
AcDbSymbolTableRecord
100
AcDbRegAppTableRecord
  2
ACATTRIBSERVICES
 70
     0
  0
APPID
  5
20A
330
9
100
AcDbSymbolTableRecord
100
AcDbRegAppTableRecord
  2
GENIUS_GENODEF_13
 70
     0
  0
APPID
  5
20B
330
9
100
AcDbSymbolTableRecord
100
AcDbRegAppTableRecord
  2
GENIUS_GENOBJ-N-HTC_13
 70
     0
  0
APPID
  5
20C
330
9
100
AcDbSymbolTableRecord
100
AcDbRegAppTableRecord
  2
GENIUS_GENHATCH_13
 70
     0
  0
APPID
  5
809
330
9
100
AcDbSymbolTableRecord
100
AcDbRegAppTableRecord
  2
AD_DRAW
 70
     0
  0
APPID
  5
827
330
9
100
AcDbSymbolTableRecord
100
AcDbRegAppTableRecord
  2
DESIGNERASSEMBLIES
 70
     0
  0
APPID
  5
82C
330
9
100
AcDbSymbolTableRecord
100
AcDbRegAppTableRecord
  2
ACADM_DIM_EDIT
 70
     0
  0
APPID
  5
82D
330
9
100
AcDbSymbolTableRecord
100
AcDbRegAppTableRecord
  2
AMDT_DM_ADJ
 70
     0
  0
APPID
  5
FE4
330
9
100
AcDbSymbolTableRecord
100
AcDbRegAppTableRecord
  2
GENIUS_GENDTOL_13
 70
     0
  0
APPID
  5
108C
330
9
100
AcDbSymbolTableRecord
100
AcDbRegAppTableRecord
  2
ACAD_DSTYLE_DIMTEXT_FILL
 70
     0
  0
APPID
  5
1201
330
9
100
AcDbSymbolTableRecord
100
AcDbRegAppTableRecord
  2
GEVID1116400677
 70
     0
  0
APPID
  5
1202
330
9
100
AcDbSymbolTableRecord
100
AcDbRegAppTableRecord
  2
GEVDC
 70
     0
  0
APPID
  5
1203
330
9
100
AcDbSymbolTableRecord
100
AcDbRegAppTableRecord
  2
GEVRADREF
 70
     0
  0
APPID
  5
120C
330
9
100
AcDbSymbolTableRecord
100
AcDbRegAppTableRecord
  2
AMG_2DHIDE
 70
     0
  0
APPID
  5
120D
330
9
100
AcDbSymbolTableRecord
100
AcDbRegAppTableRecord
  2
AMG_2DSTRUCT_BTR
 70
     0
  0
APPID
  5
121E
330
9
100
AcDbSymbolTableRecord
100
AcDbRegAppTableRecord
  2
ACADM_2DVIEW_IGN_NOTIFY
 70
     0
  0
APPID
  5
1361
330
9
100
AcDbSymbolTableRecord
100
AcDbRegAppTableRecord
  2
GENIUS_GENREC_14
 70
     0
  0
APPID
  5
1362
330
9
100
AcDbSymbolTableRecord
100
AcDbRegAppTableRecord
  2
GENIUS_GENOBJ-N-REC_13
 70
     0
  0
APPID
  5
1E31
330
9
100
AcDbSymbolTableRecord
100
AcDbRegAppTableRecord
  2
ACAD_PSEXT
 70
     0
  0
APPID
  5
1F6E
330
9
100
AcDbSymbolTableRecord
100
AcDbRegAppTableRecord
  2
GEVID1116471484
 70
     0
  0
APPID
  5
2915
330
9
100
AcDbSymbolTableRecord
100
AcDbRegAppTableRecord
  2
GENIUS_GENOBJ-N-CEN_13
 70
     0
  0
APPID
  5
2916
330
9
100
AcDbSymbolTableRecord
100
AcDbRegAppTableRecord
  2
GENIUS_GENCEN_19
 70
     0
  0
APPID
  5
31F5
330
9
100
AcDbSymbolTableRecord
100
AcDbRegAppTableRecord
  2
GEVID1116471486
 70
     0
  0
APPID
  5
36ED
330
9
100
AcDbSymbolTableRecord
100
AcDbRegAppTableRecord
  2
GEVID1116471487
 70
     0
  0
APPID
  5
3B9C
330
9
100
AcDbSymbolTableRecord
100
AcDbRegAppTableRecord
  2
GENIUS_GENOLIS_13
 70
     0
  0
APPID
  5
3B9D
330
9
100
AcDbSymbolTableRecord
100
AcDbRegAppTableRecord
  2
GENIUS_GENOENT_13
 70
     0
  0
APPID
  5
3B9E
330
9
100
AcDbSymbolTableRecord
100
AcDbRegAppTableRecord
  2
GENIUS_GENOBJ-N-CRS_13
 70
     0
  0
APPID
  5
3B9F
330
9
100
AcDbSymbolTableRecord
100
AcDbRegAppTableRecord
  2
GENIUS_GENOREF_13
 70
     0
  0
APPID
  5
4172
330
9
100
AcDbSymbolTableRecord
100
AcDbRegAppTableRecord
  2
GEVID1116554186
 70
     0
  0
ENDTAB
  0
TABLE
  2
DIMSTYLE
  5
A
330
0
100
AcDbSymbolTable
 70
    10
100
AcDbDimStyleTable
 71
     2
340
6B
340
75
  0
DIMSTYLE
105
6B
330
A
100
AcDbSymbolTableRecord
100
AcDbDimStyleTableRecord
  2
AM_ISO
 70
     0
  4
"
 41
3.0
 42
1.0
 43
8.0
 44
1.5
 47
0.1
 48
0.1
 73
     0
 74
     0
 77
     1
 78
     8
 79
     2
140
3.5
141
3.0
143
0.0393701
146
0.71
147
0.8
172
     1
176
   256
177
   256
178
   256
271
     2
272
     2
283
     0
284
     8
340
11
371
    -1
372
    -1
  0
DIMSTYLE
105
6C
330
A
100
AcDbSymbolTableRecord
100
AcDbDimStyleTableRecord
  2
AM_ISO$3
 70
     0
  4
"
 41
3.0
 42
1.0
 43
8.0
 44
1.5
 47
0.1
 48
0.1
 73
     0
 77
     1
 78
     8
 79
     2
140
3.5
141
3.0
143
0.0393701
146
0.71
147
0.8
176
   256
177
   256
178
   256
271
     2
272
     2
283
     0
284
     8
288
     1
289
     0
340
11
371
    -1
372
    -1
  0
DIMSTYLE
105
6D
330
A
100
AcDbSymbolTableRecord
100
AcDbDimStyleTableRecord
  2
AM_ISO$4
 70
     0
  4
"
 41
3.0
 42
1.0
 43
8.0
 44
1.5
 47
0.1
 48
0.1
 73
     0
 77
     1
 78
     8
 79
     2
140
3.5
141
3.0
143
0.0393701
146
0.71
147
0.8
176
   256
177
   256
178
   256
271
     2
272
     2
283
     0
284
     8
288
     1
289
     0
340
11
371
    -1
372
    -1
  0
DIMSTYLE
105
6E
330
A
100
AcDbSymbolTableRecord
100
AcDbDimStyleTableRecord
  2
AM_ISO$6
 70
     0
  4
"
 41
3.0
 42
1.0
 43
8.0
 44
1.5
 47
0.1
 48
0.1
 73
     0
 74
     0
 78
     8
 79
     2
140
3.5
141
3.0
143
0.0393701
146
0.71
147
0.8
172
     1
176
   256
177
   256
178
   256
271
     2
272
     2
283
     0
284
     8
340
11
371
    -1
372
    -1
  0
DIMSTYLE
105
6F
330
A
100
AcDbSymbolTableRecord
100
AcDbDimStyleTableRecord
  2
AM_ISO$7
 70
     0
  4
"
 41
3.0
 42
1.0
 43
8.0
 44
1.5
 47
0.1
 48
0.1
 73
     0
 74
     0
 77
     1
 78
     8
 79
     2
140
5.0
141
3.0
143
0.0393701
146
0.71
147
0.8
172
     1
176
   256
177
   256
178
   256
271
     2
272
     2
283
     0
284
     8
340
11
371
    -1
372
    -1
  0
DIMSTYLE
105
70
330
A
100
AcDbSymbolTableRecord
100
AcDbDimStyleTableRecord
  2
AM_ISO$SF
 70
     0
  4
"
 41
2.5
 42
1.0
 43
10.0
 44
1.0
 47
0.1
 48
0.1
 73
     0
 74
     0
 75
     1
 76
     1
 77
     1
 78
     8
 79
     2
140
3.5
141
0.0
143
0.0393701
146
0.71
147
1.5
172
     1
176
   256
177
   256
178
     2
271
     2
272
     3
274
     4
283
     0
284
     8
340
11
371
    -1
372
    -1
  0
DIMSTYLE
105
75
330
A
100
AcDbSymbolTableRecord
100
AcDbDimStyleTableRecord
  2
AM_ISO$SH
 70
     0
  4
"
 41
2.5
 42
1.0
 43
10.0
 44
1.0
 47
0.1
 48
0.1
 73
     0
 74
     0
 75
     1
 76
     1
 77
     1
 78
     8
 79
     2
140
3.5
141
0.0
143
0.0393701
144
2.0
146
0.71
147
1.5
172
     1
173
     1
176
   256
177
   256
178
     2
271
     2
272
     3
274
     4
283
     0
284
     8
340
11
343
71
371
    -1
372
    -1
  0
DIMSTYLE
105
AAA
102
{ACAD_REACTORS
330
3722
330
3748
330
376E
330
3794
330
37E0
330
3806
330
382C
330
3852
330
422B
102
}
330
A
100
AcDbSymbolTableRecord
100
AcDbDimStyleTableRecord
  2
AM_ISO$0
 70
     0
  4
"
 41
3.0
 42
1.0
 43
8.0
 44
1.5
 47
0.1
 48
0.1000000001
 73
     0
 74
     0
 77
     1
 78
     8
 79
     2
140
3.0
141
0.0
143
0.0393701
146
0.71
147
1.0
172
     1
176
   256
177
   256
178
   256
271
     2
272
     2
283
     2
284
     8
340
11
371
    -1
372
    -1
  0
DIMSTYLE
105
157A
330
A
100
AcDbSymbolTableRecord
100
AcDbDimStyleTableRecord
  2
STANDARD
 70
     0
 41
3.0
 42
2.0
 43
8.0
 44
2.0
 73
     0
 74
     0
 77
     1
 78
     8
 79
     2
140
3.0
141
5.0
147
1.0
176
   256
177
   256
178
   256
271
     2
272
     2
279
     2
284
     8
285
     8
286
     8
340
1360
  0
ENDTAB
  0
TABLE
  2
BLOCK_RECORD
  5
1
330
0
100
AcDbSymbolTable
 70
    17
  0
BLOCK_RECORD
  5
1F
102
{ACAD_XDICTIONARY
360
7D
102
}
330
1
100
AcDbSymbolTableRecord
100
AcDbBlockTableRecord
  2
*Model_Space
340
22
  0
BLOCK_RECORD
  5
1B
330
1
100
AcDbSymbolTableRecord
100
AcDbBlockTableRecord
  2
*Paper_Space
340
1E
  0
BLOCK_RECORD
  5
23
330
1
100
AcDbSymbolTableRecord
100
AcDbBlockTableRecord
  2
*Paper_Space0
340
26
  0
BLOCK_RECORD
  5
71
330
1
100
AcDbSymbolTableRecord
100
AcDbBlockTableRecord
  2
GENAXEH
340
0
  0
BLOCK_RECORD
  5
3211
330
1
100
AcDbSymbolTableRecord
100
AcDbBlockTableRecord
  2
*U4
340
0
  0
BLOCK_RECORD
  5
3723
330
1
100
AcDbSymbolTableRecord
100
AcDbBlockTableRecord
  2
*D5
340
0
  0
BLOCK_RECORD
  5
3749
330
1
100
AcDbSymbolTableRecord
100
AcDbBlockTableRecord
  2
*D6
340
0
  0
BLOCK_RECORD
  5
376F
330
1
100
AcDbSymbolTableRecord
100
AcDbBlockTableRecord
  2
*D7
340
0
  0
BLOCK_RECORD
  5
3795
330
1
100
AcDbSymbolTableRecord
100
AcDbBlockTableRecord
  2
*D8
340
0
  0
BLOCK_RECORD
  5
37E1
330
1
100
AcDbSymbolTableRecord
100
AcDbBlockTableRecord
  2
*D9
340
0
  0
BLOCK_RECORD
  5
3807
330
1
100
AcDbSymbolTableRecord
100
AcDbBlockTableRecord
  2
*D10
340
0
  0
BLOCK_RECORD
  5
382D
330
1
100
AcDbSymbolTableRecord
100
AcDbBlockTableRecord
  2
*D11
340
0
  0
BLOCK_RECORD
  5
3853
330
1
100
AcDbSymbolTableRecord
100
AcDbBlockTableRecord
  2
*D12
340
0
  0
BLOCK_RECORD
  5
422C
330
1
100
AcDbSymbolTableRecord
100
AcDbBlockTableRecord
  2
*D13
340
0
  0
BLOCK_RECORD
  5
46C9
330
1
100
AcDbSymbolTableRecord
100
AcDbBlockTableRecord
  2
*S15
340
0
  0
BLOCK_RECORD
  5
46D1
330
1
100
AcDbSymbolTableRecord
100
AcDbBlockTableRecord
  2
*S16
340
0
  0
ENDTAB
  0
ENDSEC
  0
SECTION
  2
BLOCKS
  0
BLOCK
  5
20
330
1F
100
AcDbEntity
  8
0
100
AcDbBlockBegin
  2
*Model_Space
 70
     0
 10
0.0
 20
0.0
 30
0.0
  3
*Model_Space
  1

  0
ENDBLK
  5
21
330
1F
100
AcDbEntity
  8
0
100
AcDbBlockEnd
  0
BLOCK
  5
1C
330
1B
100
AcDbEntity
 67
     1
  8
0
100
AcDbBlockBegin
  2
*Paper_Space
 70
     0
 10
0.0
 20
0.0
 30
0.0
  3
*Paper_Space
  1

  0
ENDBLK
  5
1D
330
1B
100
AcDbEntity
 67
     1
  8
0
100
AcDbBlockEnd
  0
BLOCK
  5
24
330
23
100
AcDbEntity
  8
0
100
AcDbBlockBegin
  2
*Paper_Space0
 70
     0
 10
0.0
 20
0.0
 30
0.0
  3
*Paper_Space0
  1

  0
ENDBLK
  5
25
330
23
100
AcDbEntity
  8
0
100
AcDbBlockEnd
  0
BLOCK
  5
73
330
71
100
AcDbEntity
  8
0
100
AcDbBlockBegin
  2
GENAXEH
 70
     0
 10
0.0
 20
0.0
 30
0.0
  3
GENAXEH
  1

  0
LINE
  5
72
330
71
100
AcDbEntity
  8
0
100
AcDbLine
 10
-1.0
 20
0.0
 30
0.0
 11
1.0
 21
0.0
 31
0.0
  0
ENDBLK
  5
74
330
71
100
AcDbEntity
  8
0
100
AcDbBlockEnd
  0
BLOCK
  5
3212
330
3211
100
AcDbEntity
  8
0
100
AcDbBlockBegin
  2
*U4
 70
     1
 10
0.0
 20
0.0
 30
0.0
  3
*U4
  1

  0
ENDBLK
  5
3213
330
3211
100
AcDbEntity
  8
0
100
AcDbBlockEnd
  0
BLOCK
  5
372D
330
3723
100
AcDbEntity
  8
0
100
AcDbBlockBegin
  2
*D5
 70
     1
 10
0.0
 20
0.0
 30
0.0
  3
*D5
  1

  0
LINE
  5
4610
330
3723
100
AcDbEntity
  8
AM_5
100
AcDbLine
 10
124.032791622655
 20
149.1131247252118
 30
0.0
 11
124.032791622655
 21
136.3356247252118
 31
0.0
  0
LINE
  5
4611
330
3723
100
AcDbEntity
  8
AM_5
100
AcDbLine
 10
154.532791622655
 20
150.1131247252118
 30
0.0
 11
154.532791622655
 21
136.3356247252118
 31
0.0
  0
LINE
  5
4612
330
3723
100
AcDbEntity
  8
AM_5
100
AcDbLine
 10
127.032791622655
 20
137.8356247252118
 30
0.0
 11
151.532791622655
 21
137.8356247252118
 31
0.0
  0
SOLID
  5
4613
330
3723
100
AcDbEntity
  8
AM_5
100
AcDbTrace
 10
127.032791622655
 20
138.3356247252118
 30
0.0
 11
127.032791622655
 21
137.3356247252118
 31
0.0
 12
124.032791622655
 22
137.8356247252118
 32
0.0
 13
124.032791622655
 23
137.8356247252118
 33
0.0
  0
SOLID
  5
4614
330
3723
100
AcDbEntity
  8
AM_5
100
AcDbTrace
 10
151.532791622655
 20
138.3356247252118
 30
0.0
 11
151.532791622655
 21
137.3356247252118
 31
0.0
 12
154.532791622655
 22
137.8356247252118
 32
0.0
 13
154.532791622655
 23
137.8356247252118
 33
0.0
  0
MTEXT
  5
4615
330
3723
100
AcDbEntity
  8
AM_5
100
AcDbMText
 10
139.282791622655
 20
140.3356247252118
 30
0.0
 40
3.0
 41
0.0
 71
     5
 72
     1
  1
\A2;30.5
 73
     1
 44
1.0
1001
ACAD
1000
MTEXTBEGIN
1070
    73
1070
     1
1070
    44
1040
1.0
1070
    74
1070
     0
1000
MTEXTEND
  0
POINT
  5
4616
330
3723
100
AcDbEntity
  8
Defpoints
 62
     0
100
AcDbPoint
 10
124.032791622655
 20
150.1131247252118
 30
0.0
  0
POINT
  5
4617
330
3723
100
AcDbEntity
  8
Defpoints
 62
     0
100
AcDbPoint
 10
154.532791622655
 20
151.1131247252118
 30
0.0
  0
POINT
  5
4618
330
3723
100
AcDbEntity
  8
Defpoints
 62
     0
100
AcDbPoint
 10
154.532791622655
 20
137.8356247252118
 30
0.0
  0
ENDBLK
  5
372E
330
3723
100
AcDbEntity
  8
0
100
AcDbBlockEnd
  0
BLOCK
  5
3753
330
3749
100
AcDbEntity
  8
0
100
AcDbBlockBegin
  2
*D6
 70
     1
 10
0.0
 20
0.0
 30
0.0
  3
*D6
  1

  0
LINE
  5
4619
330
3749
100
AcDbEntity
  8
AM_5
100
AcDbLine
 10
154.532791622655
 20
150.1131247252118
 30
0.0
 11
154.532791622655
 21
136.3356247252119
 31
0.0
  0
LINE
  5
461A
330
3749
100
AcDbEntity
  8
AM_5
100
AcDbLine
 10
185.032791622655
 20
149.1131247252118
 30
0.0
 11
185.032791622655
 21
136.3356247252119
 31
0.0
  0
LINE
  5
461B
330
3749
100
AcDbEntity
  8
AM_5
100
AcDbLine
 10
157.532791622655
 20
137.8356247252119
 30
0.0
 11
182.032791622655
 21
137.8356247252119
 31
0.0
  0
SOLID
  5
461C
330
3749
100
AcDbEntity
  8
AM_5
100
AcDbTrace
 10
157.532791622655
 20
138.3356247252119
 30
0.0
 11
157.532791622655
 21
137.3356247252119
 31
0.0
 12
154.532791622655
 22
137.8356247252119
 32
0.0
 13
154.532791622655
 23
137.8356247252119
 33
0.0
  0
SOLID
  5
461D
330
3749
100
AcDbEntity
  8
AM_5
100
AcDbTrace
 10
182.032791622655
 20
138.3356247252119
 30
0.0
 11
182.032791622655
 21
137.3356247252119
 31
0.0
 12
185.032791622655
 22
137.8356247252119
 32
0.0
 13
185.032791622655
 23
137.8356247252119
 33
0.0
  0
MTEXT
  5
461E
330
3749
100
AcDbEntity
  8
AM_5
100
AcDbMText
 10
169.782791622655
 20
140.3356247252119
 30
0.0
 40
3.0
 41
0.0
 71
     5
 72
     1
  1
\A2;30.5
 73
     1
 44
1.0
1001
ACAD
1000
MTEXTBEGIN
1070
    73
1070
     1
1070
    44
1040
1.0
1070
    74
1070
     0
1000
MTEXTEND
  0
POINT
  5
461F
330
3749
100
AcDbEntity
  8
Defpoints
 62
     0
100
AcDbPoint
 10
154.532791622655
 20
151.1131247252118
 30
0.0
  0
POINT
  5
4620
330
3749
100
AcDbEntity
  8
Defpoints
 62
     0
100
AcDbPoint
 10
185.032791622655
 20
150.1131247252118
 30
0.0
  0
POINT
  5
4621
330
3749
100
AcDbEntity
  8
Defpoints
 62
     0
100
AcDbPoint
 10
185.032791622655
 20
137.8356247252119
 30
0.0
  0
ENDBLK
  5
3754
330
3749
100
AcDbEntity
  8
0
100
AcDbBlockEnd
  0
BLOCK
  5
3779
330
376F
100
AcDbEntity
  8
0
100
AcDbBlockBegin
  2
*D7
 70
     1
 10
0.0
 20
0.0
 30
0.0
  3
*D7
  1

  0
LINE
  5
4622
330
376F
100
AcDbEntity
  8
AM_5
100
AcDbLine
 10
112.532791622655
 20
151.2631247252118
 30
0.0
 11
112.532791622655
 21
128.3356247252119
 31
0.0
  0
LINE
  5
4623
330
376F
100
AcDbEntity
  8
AM_5
100
AcDbLine
 10
196.532791622655
 20
151.2631247252118
 30
0.0
 11
196.532791622655
 21
128.3356247252119
 31
0.0
  0
LINE
  5
4624
330
376F
100
AcDbEntity
  8
AM_5
100
AcDbLine
 10
115.532791622655
 20
129.8356247252119
 30
0.0
 11
193.532791622655
 21
129.8356247252119
 31
0.0
  0
SOLID
  5
4625
330
376F
100
AcDbEntity
  8
AM_5
100
AcDbTrace
 10
115.532791622655
 20
130.3356247252119
 30
0.0
 11
115.532791622655
 21
129.3356247252119
 31
0.0
 12
112.532791622655
 22
129.8356247252119
 32
0.0
 13
112.532791622655
 23
129.8356247252119
 33
0.0
  0
SOLID
  5
4626
330
376F
100
AcDbEntity
  8
AM_5
100
AcDbTrace
 10
193.532791622655
 20
130.3356247252119
 30
0.0
 11
193.532791622655
 21
129.3356247252119
 31
0.0
 12
196.532791622655
 22
129.8356247252119
 32
0.0
 13
196.532791622655
 23
129.8356247252119
 33
0.0
  0
MTEXT
  5
4627
330
376F
100
AcDbEntity
  8
AM_5
100
AcDbMText
 10
154.532791622655
 20
132.3356247252119
 30
0.0
 40
3.0
 41
0.0
 71
     5
 72
     1
  1
\A2;84
 73
     1
 44
1.0
1001
ACAD
1000
MTEXTBEGIN
1070
    73
1070
     1
1070
    44
1040
1.0
1070
    74
1070
     0
1000
MTEXTEND
  0
POINT
  5
4628
330
376F
100
AcDbEntity
  8
Defpoints
 62
     0
100
AcDbPoint
 10
112.532791622655
 20
152.2631247252118
 30
0.0
  0
POINT
  5
4629
330
376F
100
AcDbEntity
  8
Defpoints
 62
     0
100
AcDbPoint
 10
196.532791622655
 20
152.2631247252118
 30
0.0
  0
POINT
  5
462A
330
376F
100
AcDbEntity
  8
Defpoints
 62
     0
100
AcDbPoint
 10
196.532791622655
 20
129.8356247252119
 30
0.0
  0
ENDBLK
  5
377A
330
376F
100
AcDbEntity
  8
0
100
AcDbBlockEnd
  0
BLOCK
  5
379F
330
3795
100
AcDbEntity
  8
0
100
AcDbBlockBegin
  2
*D8
 70
     1
 10
0.0
 20
0.0
 30
0.0
  3
*D8
  1

  0
LINE
  5
462B
330
3795
100
AcDbEntity
  8
AM_5
100
AcDbLine
 10
195.532791622655
 20
150.2631247252118
 30
0.0
 11
214.8458331837579
 21
150.2631247252118
 31
0.0
  0
LINE
  5
462C
330
3795
100
AcDbEntity
  8
AM_5
100
AcDbLine
 10
197.532791622655
 20
161.7631247252118
 30
0.0
 11
214.8458331837579
 21
161.7631247252118
 31
0.0
  0
LINE
  5
462D
330
3795
100
AcDbEntity
  8
AM_5
100
AcDbLine
 10
213.3458331837579
 20
153.2631247252118
 30
0.0
 11
213.3458331837579
 21
158.7631247252118
 31
0.0
  0
SOLID
  5
462E
330
3795
100
AcDbEntity
  8
AM_5
100
AcDbTrace
 10
212.8458331837579
 20
153.2631247252118
 30
0.0
 11
213.8458331837579
 21
153.2631247252118
 31
0.0
 12
213.3458331837579
 22
150.2631247252118
 32
0.0
 13
213.3458331837579
 23
150.2631247252118
 33
0.0
  0
SOLID
  5
462F
330
3795
100
AcDbEntity
  8
AM_5
100
AcDbTrace
 10
212.8458331837579
 20
158.7631247252118
 30
0.0
 11
213.8458331837579
 21
158.7631247252118
 31
0.0
 12
213.3458331837579
 22
161.7631247252118
 32
0.0
 13
213.3458331837579
 23
161.7631247252118
 33
0.0
  0
MTEXT
  5
4630
330
3795
100
AcDbEntity
  8
AM_5
100
AcDbMText
 10
210.8458331837579
 20
156.0131247252118
 30
0.0
 40
3.0
 41
0.0
 71
     5
 72
     1
  1
\A2;11.5
 11
0.0000000000000001
 21
1.0
 31
0.0
 73
     1
 44
1.0
1001
ACAD
1000
MTEXTBEGIN
1070
    73
1070
     1
1070
    44
1040
1.0
1070
    74
1070
     0
1000
MTEXTEND
  0
POINT
  5
4631
330
3795
100
AcDbEntity
  8
Defpoints
 62
     0
100
AcDbPoint
 10
194.532791622655
 20
150.2631247252118
 30
0.0
  0
POINT
  5
4632
330
3795
100
AcDbEntity
  8
Defpoints
 62
     0
100
AcDbPoint
 10
196.532791622655
 20
161.7631247252118
 30
0.0
  0
POINT
  5
4633
330
3795
100
AcDbEntity
  8
Defpoints
 62
     0
100
AcDbPoint
 10
213.3458331837579
 20
161.7631247252118
 30
0.0
  0
ENDBLK
  5
37A0
330
3795
100
AcDbEntity
  8
0
100
AcDbBlockEnd
  0
BLOCK
  5
37EB
330
37E1
100
AcDbEntity
  8
0
100
AcDbBlockBegin
  2
*D9
 70
     1
 10
0.0
 20
0.0
 30
0.0
  3
*D9
  1

  0
LINE
  5
4634
330
37E1
100
AcDbEntity
  8
AM_5
100
AcDbLine
 10
195.532791622655
 20
150.2631247252118
 30
0.0
 11
233.5843474932466
 21
150.2631247252118
 31
0.0
  0
LINE
  5
4635
330
37E1
100
AcDbEntity
  8
AM_5
100
AcDbLine
 10
191.532791622655
 20
177.2631247252118
 30
0.0
 11
233.5843474932466
 21
177.2631247252118
 31
0.0
  0
LINE
  5
4636
330
37E1
100
AcDbEntity
  8
AM_5
100
AcDbLine
 10
232.0843474932466
 20
153.2631247252118
 30
0.0
 11
232.0843474932466
 21
174.2631247252118
 31
0.0
  0
SOLID
  5
4637
330
37E1
100
AcDbEntity
  8
AM_5
100
AcDbTrace
 10
231.5843474932466
 20
153.2631247252118
 30
0.0
 11
232.5843474932466
 21
153.2631247252118
 31
0.0
 12
232.0843474932466
 22
150.2631247252118
 32
0.0
 13
232.0843474932466
 23
150.2631247252118
 33
0.0
  0
SOLID
  5
4638
330
37E1
100
AcDbEntity
  8
AM_5
100
AcDbTrace
 10
231.5843474932466
 20
174.2631247252118
 30
0.0
 11
232.5843474932466
 21
174.2631247252118
 31
0.0
 12
232.0843474932466
 22
177.2631247252118
 32
0.0
 13
232.0843474932466
 23
177.2631247252118
 33
0.0
  0
MTEXT
  5
4639
330
37E1
100
AcDbEntity
  8
AM_5
100
AcDbMText
 10
229.584052217656
 20
163.7631247252118
 30
0.0
 40
3.0
 41
0.0
 71
     5
 72
     1
  1
\A2;27
 11
0.0000000000000001
 21
1.0
 31
0.0
 73
     1
 44
1.0
1001
ACAD
1000
MTEXTBEGIN
1070
    73
1070
     1
1070
    44
1040
1.0
1070
    74
1070
     0
1000
MTEXTEND
  0
POINT
  5
463A
330
37E1
100
AcDbEntity
  8
Defpoints
 62
     0
100
AcDbPoint
 10
194.532791622655
 20
150.2631247252118
 30
0.0
  0
POINT
  5
463B
330
37E1
100
AcDbEntity
  8
Defpoints
 62
     0
100
AcDbPoint
 10
190.532791622655
 20
177.2631247252118
 30
0.0
  0
POINT
  5
463C
330
37E1
100
AcDbEntity
  8
Defpoints
 62
     0
100
AcDbPoint
 10
232.0843474932466
 20
177.2631247252118
 30
0.0
  0
ENDBLK
  5
37EC
330
37E1
100
AcDbEntity
  8
0
100
AcDbBlockEnd
  0
BLOCK
  5
3811
330
3807
100
AcDbEntity
  8
0
100
AcDbBlockBegin
  2
*D10
 70
     1
 10
0.0
 20
0.0
 30
0.0
  3
*D10
  1

  0
LINE
  5
463D
330
3807
100
AcDbEntity
  8
AM_5
100
AcDbLine
 10
139.532791622655
 20
207.6435958643338
 30
0.0
 11
139.532791622655
 21
193.9935958643338
 31
0.0
  0
LINE
  5
463E
330
3807
100
AcDbEntity
  8
AM_5
100
AcDbLine
 10
169.532791622655
 20
207.6435958643338
 30
0.0
 11
169.532791622655
 21
193.9935958643338
 31
0.0
  0
LINE
  5
463F
330
3807
100
AcDbEntity
  8
AM_5
100
AcDbLine
 10
142.532791622655
 20
195.4935958643337
 30
0.0
 11
166.532791622655
 21
195.4935958643337
 31
0.0
  0
SOLID
  5
4640
330
3807
100
AcDbEntity
  8
AM_5
100
AcDbTrace
 10
142.532791622655
 20
195.9935958643337
 30
0.0
 11
142.532791622655
 21
194.9935958643338
 31
0.0
 12
139.532791622655
 22
195.4935958643337
 32
0.0
 13
139.532791622655
 23
195.4935958643337
 33
0.0
  0
SOLID
  5
4641
330
3807
100
AcDbEntity
  8
AM_5
100
AcDbTrace
 10
166.532791622655
 20
195.9935958643337
 30
0.0
 11
166.532791622655
 21
194.9935958643338
 31
0.0
 12
169.532791622655
 22
195.4935958643337
 32
0.0
 13
169.532791622655
 23
195.4935958643337
 33
0.0
  0
MTEXT
  5
4642
330
3807
100
AcDbEntity
  8
AM_5
100
AcDbMText
 10
154.532791622655
 20
197.9935958643338
 30
0.0
 40
3.0
 41
0.0
 71
     5
 72
     1
  1
\A2;30
 73
     1
 44
1.0
1001
ACAD
1000
MTEXTBEGIN
1070
    73
1070
     1
1070
    44
1040
1.0
1070
    74
1070
     0
1000
MTEXTEND
  0
POINT
  5
4643
330
3807
100
AcDbEntity
  8
Defpoints
 62
     0
100
AcDbPoint
 10
139.532791622655
 20
208.6435958643337
 30
0.0
  0
POINT
  5
4644
330
3807
100
AcDbEntity
  8
Defpoints
 62
     0
100
AcDbPoint
 10
169.532791622655
 20
208.6435958643337
 30
0.0
  0
POINT
  5
4645
330
3807
100
AcDbEntity
  8
Defpoints
 62
     0
100
AcDbPoint
 10
169.532791622655
 20
195.4935958643337
 30
0.0
  0
ENDBLK
  5
3812
330
3807
100
AcDbEntity
  8
0
100
AcDbBlockEnd
  0
BLOCK
  5
3837
330
382D
100
AcDbEntity
  8
0
100
AcDbBlockBegin
  2
*D11
 70
     1
 10
0.0
 20
0.0
 30
0.0
  3
*D11
  1

  0
LINE
  5
4646
330
382D
100
AcDbEntity
  8
AM_5
100
AcDbLine
 10
197.532791622655
 20
207.4935958643337
 30
0.0
 11
210.0327916226551
 21
207.4935958643337
 31
0.0
  0
LINE
  5
4647
330
382D
100
AcDbEntity
  8
AM_5
100
AcDbLine
 10
174.3827916226551
 20
212.4935958643337
 30
0.0
 11
210.0327916226551
 21
212.4935958643337
 31
0.0
  0
LINE
  5
4648
330
382D
100
AcDbEntity
  8
AM_5
100
AcDbLine
 10
208.5327916226551
 20
204.4935958643337
 30
0.0
 11
208.5327916226551
 21
201.4935958643337
 31
0.0
  0
LINE
  5
4649
330
382D
100
AcDbEntity
  8
AM_5
100
AcDbLine
 10
208.5327916226551
 20
215.4935958643337
 30
0.0
 11
208.5327916226551
 21
218.4935958643337
 31
0.0
  0
LINE
  5
464A
330
382D
100
AcDbEntity
  8
AM_5
100
AcDbLine
 10
208.5327916226551
 20
207.4935958643337
 30
0.0
 11
208.5327916226551
 21
212.4935958643337
 31
0.0
  0
SOLID
  5
464B
330
382D
100
AcDbEntity
  8
AM_5
100
AcDbTrace
 10
208.0327916226551
 20
204.4935958643337
 30
0.0
 11
209.032791622655
 21
204.4935958643337
 31
0.0
 12
208.5327916226551
 22
207.4935958643337
 32
0.0
 13
208.5327916226551
 23
207.4935958643337
 33
0.0
  0
SOLID
  5
464C
330
382D
100
AcDbEntity
  8
AM_5
100
AcDbTrace
 10
208.0327916226551
 20
215.4935958643337
 30
0.0
 11
209.032791622655
 21
215.4935958643337
 31
0.0
 12
208.5327916226551
 22
212.4935958643337
 32
0.0
 13
208.5327916226551
 23
212.4935958643337
 33
0.0
  0
MTEXT
  5
464D
330
382D
100
AcDbEntity
  8
AM_5
100
AcDbMText
 10
206.032791622655
 20
209.9935958643338
 30
0.0
 40
3.0
 41
0.0
 71
     5
 72
     1
  1
\A2;5
 11
0.0000000000000001
 21
1.0
 31
0.0
 73
     1
 44
1.0
1001
ACAD
1000
MTEXTBEGIN
1070
    73
1070
     1
1070
    44
1040
1.0
1070
    74
1070
     0
1000
MTEXTEND
  0
POINT
  5
464E
330
382D
100
AcDbEntity
  8
Defpoints
 62
     0
100
AcDbPoint
 10
196.532791622655
 20
207.4935958643337
 30
0.0
  0
POINT
  5
464F
330
382D
100
AcDbEntity
  8
Defpoints
 62
     0
100
AcDbPoint
 10
173.3827916226551
 20
212.4935958643337
 30
0.0
  0
POINT
  5
4650
330
382D
100
AcDbEntity
  8
Defpoints
 62
     0
100
AcDbPoint
 10
208.5327916226551
 20
212.4935958643337
 30
0.0
  0
ENDBLK
  5
3838
330
382D
100
AcDbEntity
  8
0
100
AcDbBlockEnd
  0
BLOCK
  5
385D
330
3853
100
AcDbEntity
  8
0
100
AcDbBlockBegin
  2
*D12
 70
     1
 10
0.0
 20
0.0
 30
0.0
  3
*D12
  1

  0
LINE
  5
4651
330
3853
100
AcDbEntity
  8
AM_5
100
AcDbLine
 10
174.3827916226551
 20
283.4935958643337
 30
0.0
 11
210.0327926226551
 21
283.4935958643337
 31
0.0
  0
LINE
  5
4652
330
3853
100
AcDbEntity
  8
AM_5
100
AcDbLine
 10
197.532791622655
 20
288.4935958643337
 30
0.0
 11
210.0327926226551
 21
288.4935958643337
 31
0.0
  0
LINE
  5
4653
330
3853
100
AcDbEntity
  8
AM_5
100
AcDbLine
 10
208.532792622655
 20
280.4935958643337
 30
0.0
 11
208.532792622655
 21
277.4935958643337
 31
0.0
  0
LINE
  5
4654
330
3853
100
AcDbEntity
  8
AM_5
100
AcDbLine
 10
208.532792622655
 20
291.4935958643337
 30
0.0
 11
208.532792622655
 21
294.4935958643337
 31
0.0
  0
LINE
  5
4655
330
3853
100
AcDbEntity
  8
AM_5
100
AcDbLine
 10
208.532792622655
 20
283.4935958643337
 30
0.0
 11
208.532792622655
 21
288.4935958643337
 31
0.0
  0
SOLID
  5
4656
330
3853
100
AcDbEntity
  8
AM_5
100
AcDbTrace
 10
208.0327926226551
 20
280.4935958643337
 30
0.0
 11
209.032792622655
 21
280.4935958643337
 31
0.0
 12
208.532792622655
 22
283.4935958643337
 32
0.0
 13
208.532792622655
 23
283.4935958643337
 33
0.0
  0
SOLID
  5
4657
330
3853
100
AcDbEntity
  8
AM_5
100
AcDbTrace
 10
208.0327926226551
 20
291.4935958643337
 30
0.0
 11
209.032792622655
 21
291.4935958643337
 31
0.0
 12
208.532792622655
 22
288.4935958643337
 32
0.0
 13
208.532792622655
 23
288.4935958643337
 33
0.0
  0
MTEXT
  5
4658
330
3853
100
AcDbEntity
  8
AM_5
100
AcDbMText
 10
206.032792622655
 20
285.9935958643338
 30
0.0
 40
3.0
 41
0.0
 71
     5
 72
     1
  1
\A2;5
 11
0.0000000000000001
 21
1.0
 31
0.0
 73
     1
 44
1.0
1001
ACAD
1000
MTEXTBEGIN
1070
    73
1070
     1
1070
    44
1040
1.0
1070
    74
1070
     0
1000
MTEXTEND
  0
POINT
  5
4659
330
3853
100
AcDbEntity
  8
Defpoints
 62
     0
100
AcDbPoint
 10
173.3827916226551
 20
283.4935958643337
 30
0.0
  0
POINT
  5
465A
330
3853
100
AcDbEntity
  8
Defpoints
 62
     0
100
AcDbPoint
 10
196.532791622655
 20
288.4935958643337
 30
0.0
  0
POINT
  5
465B
330
3853
100
AcDbEntity
  8
Defpoints
 62
     0
100
AcDbPoint
 10
208.532792622655
 20
288.4935958643337
 30
0.0
  0
ENDBLK
  5
385E
330
3853
100
AcDbEntity
  8
0
100
AcDbBlockEnd
  0
BLOCK
  5
4236
330
422C
100
AcDbEntity
  8
0
100
AcDbBlockBegin
  2
*D13
 70
     1
 10
0.0
 20
0.0
 30
0.0
  3
*D13
  1

  0
LINE
  5
465C
330
422C
100
AcDbEntity
  8
AM_5
100
AcDbLine
 10
195.532791622655
 20
150.2631247252118
 30
0.0
 11
222.845833183758
 21
150.2631247252118
 31
0.0
  0
LINE
  5
465D
330
422C
100
AcDbEntity
  8
AM_5
100
AcDbLine
 10
167.182791622655
 20
162.7631247252118
 30
0.0
 11
222.845833183758
 21
162.7631247252118
 31
0.0
  0
LINE
  5
465E
330
422C
100
AcDbEntity
  8
AM_5
100
AcDbLine
 10
221.345833183758
 20
153.2631247252118
 30
0.0
 11
221.345833183758
 21
159.7631247252118
 31
0.0
  0
SOLID
  5
465F
330
422C
100
AcDbEntity
  8
AM_5
100
AcDbTrace
 10
220.845833183758
 20
153.2631247252118
 30
0.0
 11
221.845833183758
 21
153.2631247252118
 31
0.0
 12
221.345833183758
 22
150.2631247252118
 32
0.0
 13
221.345833183758
 23
150.2631247252118
 33
0.0
  0
SOLID
  5
4660
330
422C
100
AcDbEntity
  8
AM_5
100
AcDbTrace
 10
220.845833183758
 20
159.7631247252118
 30
0.0
 11
221.845833183758
 21
159.7631247252118
 31
0.0
 12
221.345833183758
 22
162.7631247252118
 32
0.0
 13
221.345833183758
 23
162.7631247252118
 33
0.0
  0
MTEXT
  5
4661
330
422C
100
AcDbEntity
  8
AM_5
100
AcDbMText
 10
218.8455379081674
 20
156.5131247252118
 30
0.0
 40
3.0
 41
0.0
 71
     5
 72
     1
  1
\A2;12.5
 11
0.0000000000000001
 21
1.0
 31
0.0
 73
     1
 44
1.0
1001
ACAD
1000
MTEXTBEGIN
1070
    73
1070
     1
1070
    44
1040
1.0
1070
    74
1070
     0
1000
MTEXTEND
  0
POINT
  5
4662
330
422C
100
AcDbEntity
  8
Defpoints
 62
     0
100
AcDbPoint
 10
194.532791622655
 20
150.2631247252118
 30
0.0
  0
POINT
  5
4663
330
422C
100
AcDbEntity
  8
Defpoints
 62
     0
100
AcDbPoint
 10
166.182791622655
 20
162.7631247252118
 30
0.0
  0
POINT
  5
4664
330
422C
100
AcDbEntity
  8
Defpoints
 62
     0
100
AcDbPoint
 10
221.345833183758
 20
162.7631247252118
 30
0.0
  0
ENDBLK
  5
4237
330
422C
100
AcDbEntity
  8
0
100
AcDbBlockEnd
  0
BLOCK
  5
46CE
330
46C9
100
AcDbEntity
  8
0
100
AcDbBlockBegin
  2
*S15
 70
     1
 10
0.0
 20
0.0
 30
0.0
  3
*S15
  1

  0
LINE
  5
46CA
330
46C9
100
AcDbEntity
  8
AM_5
 62
     5
100
AcDbLine
 10
194.5127749130275
 20
199.2850196623322
 30
0.0
 11
180.7698950919547
 21
199.2850196623322
 31
0.0
  0
LINE
  5
46CB
330
46C9
100
AcDbEntity
  8
AM_5
 62
     5
100
AcDbLine
 10
180.7698950919547
 20
199.2850196623322
 30
0.0
 11
173.203333258686
 21
208.5200778149653
 31
0.0
  0
TRACE
  5
46CC
330
46C9
100
AcDbEntity
  8
AM_5
 62
     5
370
    35
100
AcDbTrace
 10
173.5597595128118
 20
208.8121086009408
 30
0.0
 11
172.8469070045603
 21
208.2280470289898
 31
0.0
 12
170.9851392051732
 22
211.2274040127037
 32
0.0
 13
170.9851392051732
 23
211.2274040127037
 33
0.0
  0
MTEXT
  5
46CD
330
46C9
100
AcDbEntity
  8
AM_5
 62
     2
100
AcDbMText
 10
194.5127749130275
 20
197.3517243602759
 30
0.0
 40
3.5
 41
0.0
 71
     9
 72
     5
  1

  7
ACISOTS
210
0.0
220
0.0
230
-1.0
 11
-1.0
 21
0.0
 31
0.0
 73
     1
 44
1.0
1001
ACAD
1000
MTEXTBEGIN
1070
    73
1070
     1
1070
    44
1040
1.0
1070
    74
1070
     0
1000
MTEXTEND
  0
ENDBLK
  5
46CF
330
46C9
100
AcDbEntity
  8
0
100
AcDbBlockEnd
  0
BLOCK
  5
46D6
330
46D1
100
AcDbEntity
  8
0
100
AcDbBlockBegin
  2
*S16
 70
     1
 10
0.0
 20
0.0
 30
0.0
  3
*S16
  1

  0
LINE
  5
46D2
330
46D1
100
AcDbEntity
  8
AM_5
 62
     5
100
AcDbLine
 10
221.7701472097711
 20
141.2065316558909
 30
0.0
 11
205.4333087768098
 21
141.2065316558909
 31
0.0
  0
LINE
  5
46D3
330
46D1
100
AcDbEntity
  8
AM_5
 62
     5
100
AcDbLine
 10
205.4333087768098
 20
141.2065316558909
 30
0.0
 11
194.1781831109694
 21
153.7818030230398
 31
0.0
  0
TRACE
  5
46D4
330
46D1
100
AcDbEntity
  8
AM_5
 62
     5
370
    35
100
AcDbTrace
 10
194.5215297891692
 20
154.0891053386131
 30
0.0
 11
193.8348364327696
 21
153.4745007074664
 31
0.0
 12
191.8439902731887
 22
156.3897799777028
 32
0.0
 13
191.8439902731887
 23
156.3897799777028
 33
0.0
  0
MTEXT
  5
46D5
330
46D1
100
AcDbEntity
  8
AM_5
 62
     2
100
AcDbMText
 10
221.7701472097711
 20
138.7683775810946
 30
0.0
 40
3.5
 41
0.0
 71
     9
 72
     5
  1

  7
ACISOTS
210
0.0
220
0.0
230
-1.0
 11
-1.0
 21
0.0
 31
0.0
 73
     1
 44
1.0
1001
ACAD
1000
MTEXTBEGIN
1070
    73
1070
     1
1070
    44
1040
1.0
1070
    74
1070
     0
1000
MTEXTEND
  0
ENDBLK
  5
46D7
330
46D1
100
AcDbEntity
  8
0
100
AcDbBlockEnd
  0
ENDSEC
  0
SECTION
  2
ENTITIES
  0
TEXT
  5
13F1
330
1F
100
AcDbEntity
  8
LOGO
 62
     7
100
AcDbText
 10
143.2283349906303
 20
95.36237077147701
 30
0.0
 40
2.867293939852487
  1
Order example:
 41
0.8
  7
CHINESET
100
AcDbText
  0
TEXT
  5
13F2
330
1F
100
AcDbEntity
  8
LOGO
 62
     7
100
AcDbText
 10
143.7427512349958
 20
99.39892695800377
 30
0.0
 40
4.300940909778729
  1
訂購代號:
  7
CHINESET
100
AcDbText
  0
LINE
  5
13F3
330
1F
100
AcDbEntity
  8
LOGO
 62
     1
100
AcDbLine
 10
281.2961360408962
 20
104.7832159005303
 30
0.0
 11
94.67213604089613
 21
104.7832159005303
 31
0.0
  0
LINE
  5
13F4
330
1F
100
AcDbEntity
  8
LOGO
 62
     1
100
AcDbLine
 10
281.2961360408962
 20
83.27851135163665
 30
0.0
 11
94.67213604089613
 21
83.27851135163665
 31
0.0
  0
LINE
  5
13F5
330
1F
100
AcDbEntity
  8
LOGO
 62
     1
100
AcDbLine
 10
141.9824860484623
 20
83.27851135163665
 30
0.0
 11
141.9824860484623
 21
104.7832159005303
 31
0.0
  0
LINE
  5
13F6
330
1F
100
AcDbEntity
  8
LOGO
 62
     1
100
AcDbLine
 10
94.67213604089613
 20
83.27851135163665
 30
0.0
 11
94.67213604089613
 21
104.7832159005303
 31
0.0
  0
TEXT
  5
13F7
330
1F
100
AcDbEntity
  8
LOGO
  6
Continuous
 62
     5
100
AcDbText
 10
102.3967225803763
 20
87.50307810683798
 30
0.0
 40
3.225705682334048
  1
金器工業股份有限公司
  7
CHINESET
100
AcDbText
  0
TEXT
  5
13F8
330
1F
100
AcDbEntity
  8
LOGO
  6
Continuous
 62
     5
100
AcDbText
 10
96.47173941632628
 20
84.27674043909538
 30
0.0
 40
2.150470454889364
  1
MINDMAN INDUSTRIAL CO., LTD.
 41
0.85
  7
CHINESET
100
AcDbText
  0
LINE
  5
13F9
330
1F
100
AcDbEntity
  8
LOGO
 62
     1
100
AcDbLine
 10
141.9824860484623
 20
100.4822749907516
 30
0.0
 11
110.442252710085
 21
100.4822749907516
 31
0.0
  0
LINE
  5
13FA
330
1F
100
AcDbEntity
  8
LOGO
 62
     1
100
AcDbLine
 10
141.9824860484623
 20
96.18133408097286
 30
0.0
 11
110.442252710085
 21
96.18133408097286
 31
0.0
  0
LINE
  5
13FB
330
1F
100
AcDbEntity
  8
LOGO
 62
     1
100
AcDbLine
 10
141.9824860484623
 20
91.88039317119418
 30
0.0
 11
94.67213604089613
 21
91.88039317119418
 31
0.0
  0
LINE
  5
13FC
330
1F
100
AcDbEntity
  8
LOGO
 62
     1
100
AcDbLine
 10
110.442252710085
 20
91.88039317119418
 30
0.0
 11
110.442252710085
 21
104.7832159005303
 31
0.0
  0
TEXT
  5
13FD
330
1F
100
AcDbEntity
  8
LOGO
 62
     6
100
AcDbText
 10
130.8720766155862
 20
92.95562839863883
 30
0.0
 40
2.150470454889364
  1
m/m
  7
CHINESET
 72
     1
 11
134.6610007503913
 21
94.03086362608352
 31
0.0
100
AcDbText
 73
     2
  0
TEXT
  5
13FE
330
1F
100
AcDbEntity
  8
LOGO
 62
     6
100
AcDbText
 10
130.8720766155862
 20
101.5575102181963
 30
0.0
 40
2.150470454889364
  1
1 : 1
  7
CHINESET
 72
     1
 11
134.6610007503913
 21
102.632745445641
 31
0.0
100
AcDbText
 73
     2
  0
LINE
  5
13FF
330
1F
100
AcDbEntity
  8
LOGO
 62
     1
100
AcDbLine
 10
127.6460163491997
 20
91.88039317119418
 30
0.0
 11
127.6460163491997
 21
104.7832159005303
 31
0.0
  0
CIRCLE
  5
1400
330
1F
100
AcDbEntity
  8
LOGO
  6
Continuous
 62
     6
100
AcDbCircle
 10
131.62788137302
 20
98.33640440790203
 30
0.0
 40
1.24861376247747
  0
CIRCLE
  5
1401
330
1F
100
AcDbEntity
  8
LOGO
  6
Continuous
 62
     6
100
AcDbCircle
 10
131.62788137302
 20
98.33640440790203
 30
0.0
 40
0.7315771312892432
  0
LINE
  5
1402
330
1F
100
AcDbEntity
  8
LOGO
 62
     6
100
AcDbLine
 10
139.4743151394429
 20
97.08779064542447
 30
0.0
 11
139.4743151394429
 21
99.5850181703795
 31
0.0
  0
LINE
  5
1403
330
1F
100
AcDbEntity
  8
LOGO
 62
     6
100
AcDbLine
 10
135.5599826679256
 20
97.60482727661278
 30
0.0
 11
135.5599826679256
 21
99.06798153919138
 31
0.0
  0
LINE
  5
1404
330
1F
100
AcDbEntity
  8
LOGO
  6
Continuous
 62
     6
100
AcDbLine
 10
135.5599826679256
 20
99.06798153919138
 30
0.0
 11
139.4743151394429
 21
99.5850181703795
 31
0.0
  0
LINE
  5
1405
330
1F
100
AcDbEntity
  8
LOGO
  6
Continuous
 62
     6
100
AcDbLine
 10
135.5599826679256
 20
97.60482727661278
 30
0.0
 11
139.4743151394429
 21
97.08779064542447
 31
0.0
  0
TEXT
  5
1432
330
1F
100
AcDbEntity
  8
LOGO
 62
     6
100
AcDbText
 10
112.2154308039156
 20
101.5585685205856
 30
140.9382909203313
 40
2.150470454889364
  1
比例 Scale:
 41
0.9
  7
CHINESET
 72
     4
 11
119.0441345296424
 21
102.632745445641
 31
140.9382909203313
100
AcDbText
  0
TEXT
  5
1433
330
1F
100
AcDbEntity
  8
LOGO
 62
     6
100
AcDbText
 10
112.9671354316738
 20
97.28681911837595
 30
140.9382909203313
 40
2.150470454889364
  1
投影 View:
 41
0.9
  7
CHINESET
 72
     4
 11
119.0441345296424
 21
98.33180453586217
 31
140.9382909203313
100
AcDbText
  0
TEXT
  5
1434
330
1F
100
AcDbEntity
  8
LOGO
 62
     6
100
AcDbText
 10
113.1773823198974
 20
92.95562839863883
 30
140.9382909203313
 40
2.150470454889364
  1
單位 Unit:
 41
0.9
  7
CHINESET
 72
     4
 11
119.0441345296424
 21
94.03086362608352
 31
140.9382909203313
100
AcDbText
  0
LWPOLYLINE
  5
143D
330
1F
100
AcDbEntity
  8
0
 62
     4
100
AcDbPolyline
 90
        4
 70
     1
 43
0.0
 10
94.6721360408963
 20
104.7832159005303
 10
281.2961360408961
 20
104.7832159005303
 10
281.296136040896
 20
339.8865113516367
 10
94.67213604089613
 20
339.8865113516367
1001
GENIUS_GENREC_14
1002
{
1000
PYDIR
1011
94.67213604089613
1021
339.8865113516367
1031
0.0
1002
}
1002
{
1000
PXDIR
1011
281.2961360408961
1021
104.7832159005303
1031
0.0
1002
}
1002
{
1000
PORI
1011
94.6721360408963
1021
104.7832159005303
1031
0.0
1002
}
1002
{
1000
PINS
1011
94.6721360408963
1021
104.7832159005303
1031
0.0
1002
}
1002
{
1000
PINS2
1011
281.296136040896
1021
339.8865113516367
1031
0.0
1002
}
1002
{
1000
C
1070
     1
1002
}
1001
GENIUS_GENODEF_13
1002
{
1000
HIER
1070
     0
1002
}
1002
{
1000
MANEDIT
1070
     0
1002
}
1002
{
1000
NOSEL
1070
     0
1002
}
1002
{
1000
BEHIND
1070
     0
1002
}
1002
{
1000
OTHER
1070
     0
1002
}
1002
{
1000
REACTOR
1002
}
1001
GENIUS_GENOBJ-N-REC_13
1002
{
1000
OWNER
1000
GEN
1002
}
  0
SOLID
  5
143E
330
1F
100
AcDbEntity
  8
LOGO
 62
     5
100
AcDbTrace
 10
96.9032836502698
 20
95.45524420708217
 30
0.0
 11
97.83309064661921
 21
95.45524420708181
 31
0.0
 12
101.7126301831119
 22
104.2723795172925
 32
0.0
 13
102.6424371794613
 23
104.2723795172918
 33
0.0
  0
SOLID
  5
143F
330
1F
100
AcDbEntity
  8
LOGO
 62
     5
100
AcDbTrace
 10
98.21783836924716
 20
95.45524420708217
 30
0.0
 11
99.14764536559635
 21
95.45524420708217
 31
0.0
 12
102.6424371794613
 22
103.5670086924752
 32
0.0
 13
101.7126301831119
 23
100.1577163725271
 33
0.0
  0
SOLID
  5
1440
330
1F
100
AcDbEntity
  8
LOGO
 62
     2
100
AcDbTrace
 10
97.83309064661921
 20
95.45524420708181
 30
0.0
 11
98.21783836924716
 21
95.45524420708217
 31
0.0
 12
102.6424371794613
 22
104.2723795172918
 32
0.0
 13
103.0271849020889
 23
104.2723795172918
 33
0.0
  0
SOLID
  5
1441
330
1F
100
AcDbEntity
  8
LOGO
 62
     5
100
AcDbTrace
 10
95.41257501851578
 20
92.24901318518787
 30
0.0
 11
95.73319812070568
 21
92.24901318518787
 31
0.0
 12
96.63609773177881
 22
93.85212869613473
 32
0.0
 13
96.95672083396807
 23
93.85212869613473
 33
0.0
  0
SOLID
  5
1442
330
1F
100
AcDbEntity
  8
LOGO
 62
     5
100
AcDbTrace
 10
96.63609773177881
 20
93.85212869613473
 30
0.0
 11
96.95672083396807
 21
93.85212869613473
 31
0.0
 12
96.63609773177881
 22
92.24901318518787
 32
0.0
 13
96.95672083396807
 23
92.24901318518787
 33
0.0
  0
SOLID
  5
1443
330
1F
100
AcDbEntity
  8
LOGO
 62
     5
100
AcDbTrace
 10
96.63609773177881
 20
92.24901318518787
 30
0.0
 11
96.95672083396807
 21
92.24901318518787
 31
0.0
 12
97.85962044504239
 22
93.85212869613473
 32
0.0
 13
98.1802435472314
 23
93.85212869613473
 33
0.0
  0
SOLID
  5
1444
330
1F
100
AcDbEntity
  8
LOGO
 62
     5
100
AcDbTrace
 10
97.85962044504239
 20
93.85212869613473
 30
0.0
 11
98.1802435472314
 21
93.85212869613473
 31
0.0
 12
97.85962044504239
 22
92.24901318518787
 32
0.0
 13
98.1802435472314
 23
92.24901318518787
 33
0.0
  0
POLYLINE
  5
1445
330
1F
100
AcDbEntity
  8
LOGO
 62
     5
100
AcDb2dPolyline
 66
     1
 10
0.0
 20
0.0
 30
0.0
 40
0.3211369212634784
 41
0.3211369212634784
  0
VERTEX
  5
1446
330
1445
100
AcDbEntity
  8
LOGO
 62
     5
100
AcDbVertex
100
AcDb2dVertex
 10
108.6067976087966
 20
93.21088249175581
 30
0.0
 42
1.0
  0
VERTEX
  5
1447
330
1445
100
AcDbEntity
  8
LOGO
 62
     5
100
AcDbVertex
100
AcDb2dVertex
 10
107.6433868450059
 20
93.21088249175581
 30
0.0
 42
1.0
  0
SEQEND
  5
1448
330
1445
100
AcDbEntity
  8
LOGO
 62
     5
  0
POLYLINE
  5
1449
330
1F
100
AcDbEntity
  8
LOGO
 62
     5
100
AcDb2dPolyline
 66
     1
 10
0.0
 20
0.0
 30
0.0
 70
     1
  0
VERTEX
  5
144A
330
1449
100
AcDbEntity
  8
LOGO
 62
     5
100
AcDbVertex
100
AcDb2dVertex
 10
105.8273147027498
 20
93.05057094066123
 30
0.0
 42
1.000000057330635
  0
VERTEX
  5
144B
330
1449
100
AcDbEntity
  8
LOGO
 62
     5
100
AcDbVertex
100
AcDb2dVertex
 10
106.7891840093184
 20
93.05057094066123
 30
0.0
 42
1.000000057330635
  0
SEQEND
  5
144C
330
1449
100
AcDbEntity
  8
LOGO
 62
     5
  0
CIRCLE
  5
144D
330
1F
100
AcDbEntity
  8
LOGO
 62
     5
100
AcDbCircle
 10
106.3082493560343
 20
93.05057094066123
 30
0.0
 40
0.4809346532841854
  0
POLYLINE
  5
144E
330
1F
100
AcDbEntity
  8
LOGO
 62
     5
100
AcDb2dPolyline
 66
     1
 10
0.0
 20
0.0
 30
0.0
 70
     1
 40
0.3211369212634784
 41
0.3211369212634784
  0
VERTEX
  5
144F
330
144E
100
AcDbEntity
  8
LOGO
 62
     5
100
AcDbVertex
100
AcDb2dVertex
 10
105.6659755135071
 20
93.05057094066123
 30
0.0
 42
1.0
  0
VERTEX
  5
1450
330
144E
100
AcDbEntity
  8
LOGO
 62
     5
100
AcDbVertex
100
AcDb2dVertex
 10
106.9505231985611
 20
93.05057094066123
 30
0.0
 42
1.0
  0
SEQEND
  5
1451
330
144E
100
AcDbEntity
  8
LOGO
 62
     5
  0
LINE
  5
1452
330
1F
100
AcDbEntity
  8
LOGO
 62
     5
100
AcDbLine
 10
108.76633843128
 20
92.24901318518787
 30
0.0
 11
108.76633843128
 21
93.21088249175581
 31
0.0
  0
SOLID
  5
1453
330
1F
100
AcDbEntity
  8
LOGO
 62
     5
100
AcDbTrace
 10
106.7891519470088
 20
93.85212869613473
 30
0.0
 11
107.1097750491979
 21
93.85212869613473
 31
0.0
 12
106.7891519470088
 22
92.24901318518787
 32
0.0
 13
107.1097750491979
 23
92.24901318518787
 33
0.0
  0
SOLID
  5
1454
330
1F
100
AcDbEntity
  8
LOGO
 62
     5
100
AcDbTrace
 10
107.4838460225219
 20
92.24901318518787
 30
0.0
 11
107.8044691247118
 21
92.24901318518787
 31
0.0
 12
107.4838460225219
 22
93.85212869613473
 32
0.0
 13
107.8044691247118
 23
93.85212869613473
 33
0.0
  0
SOLID
  5
1455
330
1F
100
AcDbEntity
  8
LOGO
 62
     5
100
AcDbTrace
 10
108.4457153290908
 20
93.21088249175581
 30
0.0
 11
108.76633843128
 21
93.21088249175581
 31
0.0
 12
108.4457153290908
 22
92.24901318518787
 32
0.0
 13
108.76633843128
 23
92.24901318518787
 33
0.0
  0
SOLID
  5
1456
330
1F
100
AcDbEntity
  8
LOGO
 62
     5
100
AcDbTrace
 10
107.4517837123031
 20
103.5670086924752
 30
0.0
 11
106.5219767159536
 21
100.1577163725271
 31
0.0
 12
107.4517837123031
 22
95.45524420708181
 32
0.0
 13
106.5219767159536
 23
95.45524420708181
 33
0.0
  0
SOLID
  5
1457
330
1F
100
AcDbEntity
  8
LOGO
 62
     5
100
AcDbTrace
 10
107.8365314349307
 20
95.45524420708181
 30
0.0
 11
108.76633843128
 21
95.45524420708181
 31
0.0
 12
107.8365314349307
 22
104.2723795172918
 32
0.0
 13
108.76633843128
 23
104.2723795172925
 33
0.0
  0
SOLID
  5
1458
330
1F
100
AcDbEntity
  8
LOGO
 62
     2
100
AcDbTrace
 10
107.4517837123031
 20
104.2723795172925
 30
0.0
 11
107.8365314349307
 21
104.2723795172918
 31
0.0
 12
107.4517837123031
 22
95.45524420708181
 32
0.0
 13
107.8365314349307
 23
95.45524420708181
 33
0.0
  0
POLYLINE
  5
1459
330
1F
100
AcDbEntity
  8
LOGO
 62
     5
100
AcDb2dPolyline
 66
     1
 10
0.0
 20
0.0
 30
0.0
 40
0.3211369212634784
 41
0.3211369212634784
  0
VERTEX
  5
145A
330
1459
100
AcDbEntity
  8
LOGO
 62
     5
100
AcDbVertex
100
AcDb2dVertex
 10
104.0111784358741
 20
93.21088249175581
 30
0.0
 42
1.0
  0
VERTEX
  5
145B
330
1459
100
AcDbEntity
  8
LOGO
 62
     5
100
AcDbVertex
100
AcDb2dVertex
 10
103.0477676720835
 20
93.21088249175581
 30
0.0
 42
1.0
  0
SEQEND
  5
145C
330
1459
100
AcDbEntity
  8
LOGO
 62
     5
  0
POLYLINE
  5
145D
330
1F
100
AcDbEntity
  8
LOGO
 62
     5
100
AcDb2dPolyline
 66
     1
 10
0.0
 20
0.0
 30
0.0
 40
0.3211369212634784
 41
0.3211369212634784
  0
VERTEX
  5
145E
330
145D
100
AcDbEntity
  8
LOGO
 62
     5
100
AcDbVertex
100
AcDb2dVertex
 10
104.9730477424422
 20
93.21088249175581
 30
0.0
 42
1.0
  0
VERTEX
  5
145F
330
145D
100
AcDbEntity
  8
LOGO
 62
     5
100
AcDbVertex
100
AcDb2dVertex
 10
104.0096369786515
 20
93.21088249175581
 30
0.0
 42
1.0
  0
SEQEND
  5
1460
330
145D
100
AcDbEntity
  8
LOGO
 62
     5
  0
POLYLINE
  5
1461
330
1F
100
AcDbEntity
  8
LOGO
 62
     5
100
AcDb2dPolyline
 66
     1
 10
0.0
 20
0.0
 30
0.0
 40
0.3211369212634784
 41
0.3211369212634784
  0
VERTEX
  5
1462
330
1461
100
AcDbEntity
  8
LOGO
 62
     5
100
AcDbVertex
100
AcDb2dVertex
 10
100.3774285695198
 20
93.21088249175581
 30
0.0
 42
1.0
  0
VERTEX
  5
1463
330
1461
100
AcDbEntity
  8
LOGO
 62
     5
100
AcDbVertex
100
AcDb2dVertex
 10
99.41401780572945
 20
93.21088249175581
 30
0.0
 42
1.0
  0
SEQEND
  5
1464
330
1461
100
AcDbEntity
  8
LOGO
 62
     5
  0
SOLID
  5
1465
330
1F
100
AcDbEntity
  8
LOGO
 62
     5
100
AcDbTrace
 10
99.25447698324607
 20
93.85212869613473
 30
0.0
 11
99.57510008543511
 21
93.85212869613473
 31
0.0
 12
99.25447698324607
 22
92.24901318518787
 32
0.0
 13
99.57510008543511
 23
92.24901318518787
 33
0.0
  0
SOLID
  5
1466
330
1F
100
AcDbEntity
  8
LOGO
 62
     5
100
AcDbTrace
 10
100.2163462898141
 20
93.21088249175581
 30
0.0
 11
100.5369693920038
 21
93.21088249175581
 31
0.0
 12
100.2163462898141
 22
92.24901318518787
 32
0.0
 13
100.5369693920038
 23
92.24901318518787
 33
0.0
  0
POLYLINE
  5
1467
330
1F
100
AcDbEntity
  8
LOGO
 62
     5
100
AcDb2dPolyline
 66
     1
 10
0.0
 20
0.0
 30
0.0
 70
     1
 40
0.3211369212634784
 41
0.3211369212634784
  0
VERTEX
  5
1468
330
1467
100
AcDbEntity
  8
LOGO
 62
     5
100
AcDbVertex
100
AcDb2dVertex
 10
101.0703563405846
 20
93.05057094066123
 30
0.0
 42
1.0
  0
VERTEX
  5
1469
330
1467
100
AcDbEntity
  8
LOGO
 62
     5
100
AcDbVertex
100
AcDb2dVertex
 10
102.3549040256385
 20
93.05057094066123
 30
0.0
 42
1.0
  0
SEQEND
  5
146A
330
1467
100
AcDbEntity
  8
LOGO
 62
     5
  0
SOLID
  5
146B
330
1F
100
AcDbEntity
  8
LOGO
 62
     5
100
AcDbTrace
 10
102.1935327740862
 20
94.33306334941921
 30
0.0
 11
102.5141558762752
 21
94.33306334941921
 31
0.0
 12
102.1935327740862
 22
92.24901318518787
 32
0.0
 13
102.5141558762752
 23
92.24901318518787
 33
0.0
  0
SOLID
  5
146C
330
1F
100
AcDbEntity
  8
LOGO
 62
     5
100
AcDbTrace
 10
102.8882268496001
 20
93.85212869613473
 30
0.0
 11
103.2088499517895
 21
93.85212869613473
 31
0.0
 12
102.8882268496001
 22
92.24901318518787
 32
0.0
 13
103.2088499517895
 23
92.24901318518787
 33
0.0
  0
SOLID
  5
146D
330
1F
100
AcDbEntity
  8
LOGO
 62
     5
100
AcDbTrace
 10
103.8500961561684
 20
93.21088249175581
 30
0.0
 11
104.1707192583576
 21
93.21088249175581
 31
0.0
 12
103.8500961561684
 22
92.24901318518787
 32
0.0
 13
104.1707192583576
 23
92.24901318518787
 33
0.0
  0
SOLID
  5
146E
330
1F
100
AcDbEntity
  8
LOGO
 62
     5
100
AcDbTrace
 10
104.8119654627366
 20
93.21088249175581
 30
0.0
 11
105.1325885649256
 21
93.21088249175581
 31
0.0
 12
104.8119654627366
 22
92.24901318518712
 32
0.0
 13
105.1325885649256
 23
92.24901318518712
 33
0.0
  0
SOLID
  5
146F
330
1F
100
AcDbEntity
  8
LOGO
 62
     5
100
AcDbTrace
 10
98.5597829077318
 20
94.07656486766724
 30
0.0
 11
98.88040600992191
 21
94.07656486766724
 31
0.0
 12
98.5597829077318
 22
94.33306334941921
 32
0.0
 13
98.88040600992191
 23
94.33306334941921
 33
0.0
  0
SOLID
  5
1470
330
1F
100
AcDbEntity
  8
LOGO
 62
     5
100
AcDbTrace
 10
98.5597829077318
 20
93.85212869613473
 30
0.0
 11
98.88040600992191
 21
93.85212869613473
 31
0.0
 12
98.5597829077318
 22
92.24901318518712
 32
0.0
 13
98.88040600992191
 23
92.24901318518787
 33
0.0
  0
SOLID
  5
1471
330
1F
100
AcDbEntity
  8
LOGO
 62
     5
100
AcDbTrace
 10
101.7126301831119
 20
95.45524420708217
 30
0.0
 11
102.6424371794613
 21
95.45524420708217
 31
0.0
 12
101.7126301831119
 22
100.1577163725271
 32
0.0
 13
102.6424371794613
 23
103.5670086924752
 33
0.0
  0
SOLID
  5
1472
330
1F
100
AcDbEntity
  8
LOGO
 62
     5
100
AcDbTrace
 10
103.0271849020889
 20
104.2723795172918
 30
0.0
 11
103.9569918984383
 21
104.2723795172925
 31
0.0
 12
103.0271849020889
 22
96.16061503189875
 32
0.0
 13
103.9569918984383
 23
99.56990735184682
 33
0.0
  0
SOLID
  5
1473
330
1F
100
AcDbEntity
  8
LOGO
 62
     2
100
AcDbTrace
 10
102.6424371794613
 20
104.2723795172918
 30
0.0
 11
103.0271849020889
 21
104.2723795172918
 31
0.0
 12
102.6424371794613
 22
95.45524420708217
 32
0.0
 13
103.0271849020889
 23
95.45524420708217
 33
0.0
  0
SOLID
  5
1474
330
1F
100
AcDbEntity
  8
LOGO
 62
     5
100
AcDbTrace
 10
103.0271849020889
 20
96.16061503189875
 30
0.0
 11
103.9569918984383
 21
99.56990735184682
 31
0.0
 12
107.4517837123031
 22
104.2723795172925
 32
0.0
 13
106.5219767159536
 23
104.2723795172925
 33
0.0
  0
SOLID
  5
1475
330
1F
100
AcDbEntity
  8
LOGO
 62
     5
100
AcDbTrace
 10
103.0271849020889
 20
95.45524420708217
 30
0.0
 11
103.9569918984383
 21
95.45524420708217
 31
0.0
 12
107.4517837123031
 22
103.5670086924752
 32
0.0
 13
106.5219767159536
 23
100.1577163725271
 33
0.0
  0
SOLID
  5
1476
330
1F
100
AcDbEntity
  8
LOGO
 62
     2
100
AcDbTrace
 10
102.6424371794613
 20
95.45524420708217
 30
0.0
 11
103.0271849020889
 21
95.45524420708217
 31
0.0
 12
107.4517837123031
 22
104.2723795172925
 32
0.0
 13
107.8365314349307
 23
104.2723795172918
 33
0.0
  0
TEXT
  5
1477
330
1F
100
AcDbEntity
  8
0
100
AcDbText
 10
142.9012366506636
 20
84.4225531458669
 30
0.0
 40
1.793203638807397
  1
1050520
 41
0.8
  7
CHINESET
 72
     1
 11
147.3415504229485
 21
84.4225531458669
 31
0.0
100
AcDbText
  0
LINE
  5
1478
330
1F
100
AcDbEntity
  8
LOGO
 62
     1
100
AcDbLine
 10
152.8743237516187
 20
87.57945226141549
 30
0.0
 11
152.874323751619
 21
83.27851135163665
 31
0.0
  0
LINE
  5
1479
330
1F
100
AcDbEntity
  8
LOGO
 62
     1
100
AcDbLine
 10
152.8743237516187
 20
87.57945226141549
 30
0.0
 11
141.9824860484623
 21
87.57945226141549
 31
0.0
  0
LINE
  5
1602
330
1F
100
AcDbEntity
  8
LOGO
 62
     6
100
AcDbLine
 10
229.1719271567111
 20
92.95908001101867
 30
0.0
 11
218.8700071246494
 21
92.95908001101867
 31
0.0
  0
LINE
  5
1603
330
1F
100
AcDbEntity
  8
LOGO
 62
     6
100
AcDbLine
 10
218.9381844253002
 20
96.18593623081267
 30
0.0
 11
214.7762813156381
 21
96.18593623081267
 31
0.0
  0
LINE
  5
1604
330
1F
100
AcDbEntity
  8
LOGO
 62
     6
100
AcDbLine
 10
229.1719271567111
 20
85.07120925152227
 30
0.0
 11
218.8700071246494
 21
85.07120925152225
 31
0.0
  0
LINE
  5
1605
330
1F
100
AcDbEntity
  8
LOGO
 62
     6
100
AcDbLine
 10
229.1719271567111
 20
92.95908001101867
 30
0.0
 11
229.1719271567111
 21
85.04146674848513
 31
0.0
  0
TEXT
  5
160A
330
1F
100
AcDbEntity
  8
LOGO
 62
     6
100
AcDbText
 10
177.3084360959446
 20
89.08854643504524
 30
0.0
 40
2.86831663981688
  1
型式
  7
CHINESET
 72
     4
 11
180.1767527357615
 21
90.44930295117884
 31
0.0
100
AcDbText
  0
LINE
  5
160B
330
1F
100
AcDbEntity
  8
LOGO
 62
     6
100
AcDbLine
 10
218.8700071246494
 20
92.95908001101867
 30
0.0
 11
218.8700071246494
 21
85.07120925152225
 31
0.0
  0
LINE
  5
160F
330
1F
100
AcDbEntity
  8
LOGO
 62
     6
100
AcDbLine
 10
216.8572328704692
 20
96.18593623081267
 30
0.0
 11
216.8572328704692
 21
94.57250812091569
 31
0.0
  0
TEXT
  5
1610
330
1F
100
AcDbEntity
  8
LOGO
 62
     6
100
AcDbText
 10
220.0548111236313
 20
89.08713486189579
 30
0.0
 40
2.86831663981688
  1
連座數
 41
0.9
  7
CHINESET
 72
     4
 11
223.9787021646564
 21
90.44930295117891
 31
0.0
100
AcDbText
  0
LINE
  5
1615
330
1F
100
AcDbEntity
  8
LOGO
 62
     6
100
AcDbLine
 10
180.1767527357615
 20
96.18593623081261
 30
0.0
 11
180.1767527357615
 21
92.95908001101858
 31
0.0
  0
LINE
  5
1616
330
1F
100
AcDbEntity
  8
LOGO
 62
     6
100
AcDbLine
 10
173.0059611362194
 20
92.95908001101858
 30
0.0
 11
173.0059611362194
 21
85.07120925152218
 31
0.0
  0
LINE
  5
161A
330
1F
100
AcDbEntity
  8
LOGO
 62
     6
100
AcDbLine
 10
218.9381844253004
 20
102.6396486704006
 30
0.0
 11
214.7762813156381
 21
102.6396486704006
 31
0.0
  0
LINE
  5
161D
330
1F
100
AcDbEntity
  8
LOGO
 62
     6
100
AcDbLine
 10
171.571802816311
 20
102.6396486704006
 30
0.0
 11
171.571802816311
 21
96.18593623081261
 31
0.0
  0
LINE
  5
1620
330
1F
100
AcDbEntity
  8
LOGO
 62
     6
100
AcDbLine
 10
218.9381844253004
 20
102.6396486704006
 30
0.0
 11
218.9381844253002
 21
96.18593623081267
 31
0.0
  0
TEXT
  5
1623
330
1F
100
AcDbEntity
  8
LOGO
  6
Continuous
 62
     6
100
AcDbText
 10
220.0176934715759
 20
85.96755820146503
 30
0.0
 40
1.792697899885549
  1
Number
 41
0.8
  7
CHINESET
 72
     4
 11
223.9787021646564
 21
86.86390715140779
 31
0.0
100
AcDbText
  0
TEXT
  5
1626
330
1F
100
AcDbEntity
  8
LOGO
  6
Continuous
 62
     6
100
AcDbText
 10
176.7620900693128
 20
85.96755820146498
 30
0.0
 40
1.792697899885549
  1
Model
  7
CHINESET
 72
     4
 11
180.1767527357615
 21
86.86390715140776
 31
0.0
100
AcDbText
  0
TEXT
  5
1627
330
1F
100
AcDbEntity
  8
LOGO
  6
Continuous
 62
     7
100
AcDbText
 10
215.3880942019602
 20
97.57943593642597
 30
0.0
 40
3.585395799771099
  1
2
  7
CHINESET
 72
     1
 11
216.5832261352172
 21
99.37213383631153
 31
0.0
100
AcDbText
 73
     2
  0
TEXT
  5
1628
330
1F
100
AcDbEntity
  8
LOGO
  6
Continuous
 62
     7
100
AcDbText
 10
193.4366352087762
 20
97.57943593642588
 30
0.0
 40
3.585395799771099
  1
300
  7
CHINESET
 72
     1
 11
198.0464298084818
 21
99.37213383631144
 31
0.0
100
AcDbText
 73
     2
  0
TEXT
  5
1629
330
1F
100
AcDbEntity
  8
LOGO
  6
Continuous
 62
     7
100
AcDbText
 10
173.6035271028478
 20
97.62009455072103
 30
0.0
 40
3.585395799771099
  1
MVSE
  7
CHINESET
 72
     1
 11
180.1767527357615
 21
99.41279245060659
 31
0.0
100
AcDbText
 73
     2
  0
LINE
  5
162D
330
1F
100
AcDbEntity
  8
LOGO
 62
     6
100
AcDbLine
 10
188.7817026552122
 20
102.6396486704006
 30
0.0
 11
188.7817026552122
 21
96.18593623081261
 31
0.0
  0
LINE
  5
162E
330
1F
100
AcDbEntity
  8
LOGO
 62
     6
100
AcDbLine
 10
187.3475443353039
 20
92.95908001101858
 30
0.0
 11
187.3475443353039
 21
85.0712092515222
 31
0.0
  0
LINE
  5
162F
330
1F
100
AcDbEntity
  8
LOGO
 62
     6
100
AcDbLine
 10
188.7817026552122
 20
102.6396486704006
 30
0.0
 11
171.571802816311
 21
102.6396486704006
 31
0.0
  0
LINE
  5
1630
330
1F
100
AcDbEntity
  8
LOGO
 62
     6
100
AcDbLine
 10
188.7817026552122
 20
96.18593623081261
 30
0.0
 11
171.571802816311
 21
96.18593623081261
 31
0.0
  0
LINE
  5
1631
330
1F
100
AcDbEntity
  8
LOGO
 62
     6
100
AcDbLine
 10
187.3475443353038
 20
92.95908001101858
 30
0.0
 11
173.0059611362194
 21
92.95908001101858
 31
0.0
  0
LINE
  5
1632
330
1F
100
AcDbEntity
  8
LOGO
 62
     6
100
AcDbLine
 10
187.3475443353038
 20
85.0712092515222
 30
0.0
 11
173.0059611362194
 21
85.07120925152218
 31
0.0
  0
TEXT
  5
1634
330
1F
100
AcDbEntity
  8
LOGO
  6
Continuous
 62
     7
100
AcDbText
 10
207.4836648744916
 20
97.62009455072108
 30
0.0
 40
3.585395799771099
  1
5B
  7
CHINESET
 72
     1
 11
210.386128140973
 21
99.41279245060663
 31
0.0
100
AcDbText
 73
     2
  0
LINE
  5
1635
330
1F
100
AcDbEntity
  8
LOGO
 62
     6
100
AcDbLine
 10
213.9189639386347
 20
102.6396486704006
 30
0.0
 11
206.7790475785336
 21
102.6396486704006
 31
0.0
  0
LINE
  5
1636
330
1F
100
AcDbEntity
  8
LOGO
 62
     6
100
AcDbLine
 10
216.7002119970198
 20
92.95908001101865
 30
0.0
 11
205.1872163716904
 21
92.95908001101865
 31
0.0
  0
LINE
  5
1637
330
1F
100
AcDbEntity
  8
LOGO
 62
     6
100
AcDbLine
 10
213.9189639386347
 20
96.18593623081265
 30
0.0
 11
206.7790475785336
 21
96.18593623081265
 31
0.0
  0
TEXT
  5
1638
330
1F
100
AcDbEntity
  8
LOGO
 62
     6
100
AcDbText
 10
208.3675226078306
 20
89.10148585558252
 30
0.0
 40
2.86831663981688
  1
連座
 41
0.9
  7
CHINESET
 72
     4
 11
210.9437141843551
 21
90.44930295117888
 31
0.0
100
AcDbText
  0
LINE
  5
1639
330
1F
100
AcDbEntity
  8
LOGO
 62
     6
100
AcDbLine
 10
216.7002119970198
 20
85.07120925152225
 30
0.0
 11
205.1872163716904
 21
85.0712092515222
 31
0.0
  0
TEXT
  5
163A
330
1F
100
AcDbEntity
  8
LOGO
  6
Continuous
 62
     6
100
AcDbText
 10
206.8119723579523
 20
85.96755820146498
 30
0.0
 40
1.792697899885549
  1
Manifold
 41
0.8
  7
CHINESET
 72
     4
 11
210.9437141843551
 21
86.86390715140776
 31
0.0
100
AcDbText
  0
LINE
  5
163B
330
1F
100
AcDbEntity
  8
LOGO
 62
     6
100
AcDbLine
 10
206.7790475785336
 20
102.6396486704006
 30
0.0
 11
206.7790475785336
 21
96.18593623081265
 31
0.0
  0
LINE
  5
163C
330
1F
100
AcDbEntity
  8
LOGO
 62
     6
100
AcDbLine
 10
205.1872163716904
 20
92.95908001101865
 30
0.0
 11
205.1872163716904
 21
85.07120925152225
 31
0.0
  0
LINE
  5
163D
330
1F
100
AcDbEntity
  8
LOGO
 62
     6
100
AcDbLine
 10
213.9189639386347
 20
102.6396486704006
 30
0.0
 11
213.9189639386347
 21
96.18593623081265
 31
0.0
  0
LINE
  5
163E
330
1F
100
AcDbEntity
  8
LOGO
 62
     6
100
AcDbLine
 10
216.7002119970198
 20
92.95908001101865
 30
0.0
 11
216.7002119970198
 21
85.07120925152225
 31
0.0
  0
LINE
  5
1640
330
1F
100
AcDbEntity
  8
LOGO
  6
Continuous
 62
     7
100
AcDbLine
 10
189.8935803189724
 20
99.38993238121792
 30
0.0
 11
192.7433042467912
 21
99.38993238121792
 31
0.0
  0
LINE
  5
1641
330
1F
100
AcDbEntity
  8
LOGO
  6
Continuous
 62
     7
100
AcDbLine
 10
203.5232847482688
 20
99.38993238121799
 30
0.0
 11
206.3730086760876
 21
99.38993238121799
 31
0.0
  0
LINE
  5
1642
330
1F
100
AcDbEntity
  8
LOGO
 62
     6
100
AcDbLine
 10
214.7762813156381
 20
102.6396486704006
 30
0.0
 11
214.7762813156381
 21
96.18593623081265
 31
0.0
  0
LINE
  5
1644
330
1F
100
AcDbEntity
  8
LOGO
 62
     6
100
AcDbLine
 10
210.3490057585843
 20
92.95908001101869
 30
0.0
 11
210.3490057585842
 21
96.18593623081265
 31
0.0
  0
LINE
  5
1647
330
1F
100
AcDbEntity
  8
LOGO
 62
     6
100
AcDbLine
 10
216.8572328704692
 20
94.57250812091569
 30
0.0
 11
223.9787021646564
 21
94.57250812091569
 31
0.0
  0
LINE
  5
1648
330
1F
100
AcDbEntity
  8
LOGO
 62
     6
100
AcDbLine
 10
223.9787021646564
 20
92.95908001101867
 30
0.0
 11
223.9787021646564
 21
94.57250812091569
 31
0.0
  0
TEXT
  5
1664
330
1F
100
AcDbEntity
  8
0
100
AcDbText
 10
110.1140813669663
 20
312.064914208902
 30
0.0
 40
5.759999999999999
  1
MVSE-300-5B2
100
AcDbText
  0
LINE
  5
2D18
330
1F
100
AcDbEntity
  8
LOGO
 62
     1
100
AcDbLine
 10
281.2961360408962
 20
83.27851135163665
 30
0.0
 11
281.2961360408962
 21
104.7832159005303
 31
0.0
  0
TEXT
  5
3380
330
1F
100
AcDbEntity
  8
AM_5
100
AcDbText
 10
181.2679128660314
 20
200.3173372258507
 30
0.0
 40
3.0
  1
4-%%C4.5
100
AcDbText
  0
INSERT
  5
3381
330
1F
100
AcDbEntity
  8
AM_5
100
AcDbBlockReference
  2
*S15
 10
0.0
 20
0.0
 30
0.0
  0
DIMENSION
  5
3722
330
1F
100
AcDbEntity
  8
AM_5
100
AcDbDimension
  2
*D5
 10
154.532791622655
 20
137.8356247252118
 30
0.0
 11
139.282791622655
 21
140.3356247252118
 31
0.0
 70
    32
 71
     5
 42
30.5
  3
AM_ISO$0
100
AcDbAlignedDimension
 13
124.032791622655
 23
150.1131247252118
 33
0.0
 14
154.532791622655
 24
151.1131247252118
 34
0.0
100
AcDbRotatedDimension
1001
ACAD
1000
DSTYLE
1002
{
1070
    40
1040
1.0
1070
   144
1040
1.0
1070
   272
1070
     8
1002
}
  0
DIMENSION
  5
3748
330
1F
100
AcDbEntity
  8
AM_5
100
AcDbDimension
  2
*D6
 10
185.032791622655
 20
137.8356247252119
 30
0.0
 11
169.782791622655
 21
140.3356247252119
 31
0.0
 70
    32
 71
     5
 42
30.5
  3
AM_ISO$0
100
AcDbAlignedDimension
 13
154.532791622655
 23
151.1131247252118
 33
0.0
 14
185.032791622655
 24
150.1131247252118
 34
0.0
100
AcDbRotatedDimension
1001
ACAD
1000
DSTYLE
1002
{
1070
    40
1040
1.0
1070
   144
1040
1.0
1070
   272
1070
     8
1002
}
  0
DIMENSION
  5
376E
330
1F
100
AcDbEntity
  8
AM_5
100
AcDbDimension
  2
*D7
 10
196.532791622655
 20
129.8356247252119
 30
0.0
 11
154.532791622655
 21
132.3356247252119
 31
0.0
 70
    32
 71
     5
 42
84.0
  3
AM_ISO$0
100
AcDbAlignedDimension
 13
112.532791622655
 23
152.2631247252118
 33
0.0
 14
196.532791622655
 24
152.2631247252118
 34
0.0
100
AcDbRotatedDimension
1001
ACAD
1000
DSTYLE
1002
{
1070
    40
1040
1.0
1070
   144
1040
1.0
1070
   272
1070
     8
1002
}
  0
DIMENSION
  5
3794
330
1F
100
AcDbEntity
  8
AM_5
100
AcDbDimension
  2
*D8
 10
213.3458331837579
 20
161.7631247252118
 30
0.0
 11
210.8458331837579
 21
156.0131247252118
 31
0.0
 70
    32
 71
     5
 42
11.5
  3
AM_ISO$0
100
AcDbAlignedDimension
 13
194.532791622655
 23
150.2631247252118
 33
0.0
 14
196.532791622655
 24
161.7631247252118
 34
0.0
 50
90.0
100
AcDbRotatedDimension
1001
ACAD
1000
DSTYLE
1002
{
1070
    40
1040
1.0
1070
   144
1040
1.0
1070
   272
1070
     8
1002
}
  0
DIMENSION
  5
37E0
330
1F
100
AcDbEntity
  8
AM_5
100
AcDbDimension
  2
*D9
 10
232.0843474932466
 20
177.2631247252118
 30
0.0
 11
229.584052217656
 21
163.7631247252118
 31
0.0
 70
    32
 71
     5
 42
26.99999999999997
  3
AM_ISO$0
100
AcDbAlignedDimension
 13
194.532791622655
 23
150.2631247252118
 33
0.0
 14
190.532791622655
 24
177.2631247252118
 34
0.0
 50
90.0
100
AcDbRotatedDimension
1001
ACAD
1000
DSTYLE
1002
{
1070
    40
1040
1.0
1070
   144
1040
1.0
1070
   272
1070
     8
1002
}
  0
DIMENSION
  5
3806
330
1F
100
AcDbEntity
  8
AM_5
100
AcDbDimension
  2
*D10
 10
169.532791622655
 20
195.4935958643337
 30
0.0
 11
154.532791622655
 21
197.9935958643338
 31
0.0
 70
    32
 71
     5
 42
30.0
  3
AM_ISO$0
100
AcDbAlignedDimension
 13
139.532791622655
 23
208.6435958643337
 33
0.0
 14
169.532791622655
 24
208.6435958643337
 34
0.0
100
AcDbRotatedDimension
1001
ACAD
1000
DSTYLE
1002
{
1070
    40
1040
1.0
1070
   144
1040
1.0
1070
   272
1070
     8
1002
}
  0
DIMENSION
  5
382C
330
1F
100
AcDbEntity
  8
AM_5
100
AcDbDimension
  2
*D11
 10
208.5327916226551
 20
212.4935958643337
 30
0.0
 11
206.032791622655
 21
209.9935958643338
 31
0.0
 70
    32
 71
     5
 42
4.999999999999971
  3
AM_ISO$0
100
AcDbAlignedDimension
 13
196.532791622655
 23
207.4935958643337
 33
0.0
 14
173.3827916226551
 24
212.4935958643337
 34
0.0
 50
90.0
100
AcDbRotatedDimension
1001
ACAD
1000
DSTYLE
1002
{
1070
    40
1040
1.0
1070
   144
1040
1.0
1070
   272
1070
     8
1002
}
  0
DIMENSION
  5
3852
330
1F
100
AcDbEntity
  8
AM_5
100
AcDbDimension
  2
*D12
 10
208.532792622655
 20
288.4935958643337
 30
0.0
 11
206.032792622655
 21
285.9935958643338
 31
0.0
 70
    32
 71
     5
 42
5.0
  3
AM_ISO$0
100
AcDbAlignedDimension
 13
173.3827916226551
 23
283.4935958643337
 33
0.0
 14
196.532791622655
 24
288.4935958643337
 34
0.0
 50
90.0
100
AcDbRotatedDimension
1001
ACAD
1000
DSTYLE
1002
{
1070
    40
1040
1.0
1070
   144
1040
1.0
1070
   272
1070
     8
1002
}
  0
TEXT
  5
39BB
330
1F
100
AcDbEntity
  8
AM_5
100
AcDbText
 10
205.9313265508864
 20
142.2388492194094
 30
0.0
 40
3.0
  1
3-PT3/8
100
AcDbText
  0
INSERT
  5
39BC
330
1F
100
AcDbEntity
  8
AM_5
100
AcDbBlockReference
  2
*S16
 10
0.0
 20
0.0
 30
0.0
  0
DIMENSION
  5
422B
330
1F
100
AcDbEntity
  8
AM_5
100
AcDbDimension
  2
*D13
 10
221.345833183758
 20
162.7631247252118
 30
0.0
 11
218.8455379081674
 21
156.5131247252118
 31
0.0
 70
    32
 71
     5
 42
12.49999999999997
  3
AM_ISO$0
100
AcDbAlignedDimension
 13
194.532791622655
 23
150.2631247252118
 33
0.0
 14
166.182791622655
 24
162.7631247252118
 34
0.0
 50
90.0
100
AcDbRotatedDimension
1001
ACAD
1000
DSTYLE
1002
{
1070
    40
1040
1.0
1070
   144
1040
1.0
1070
   272
1070
     8
1002
}
  0
LINE
  5
44B2
330
1F
100
AcDbEntity
  8
AM_7
100
AcDbLine
 10
123.532791622655
 20
244.9935958643337
 30
0.0
 11
125.532791622655
 21
244.9935958643337
 31
0.0
  0
LINE
  5
44B3
330
1F
100
AcDbEntity
  8
AM_7
100
AcDbLine
 10
124.532791622655
 20
243.9935958643337
 30
0.0
 11
124.532791622655
 21
245.9935958643337
 31
0.0
  0
LINE
  5
44B4
330
1F
100
AcDbEntity
  8
AM_7
100
AcDbLine
 10
121.633291622655
 20
244.9935958643337
 30
0.0
 11
122.732791622655
 21
244.9935958643337
 31
0.0
  0
LINE
  5
44B5
330
1F
100
AcDbEntity
  8
AM_7
100
AcDbLine
 10
126.332791622655
 20
244.9935958643337
 30
0.0
 11
127.432291622655
 21
244.9935958643337
 31
0.0
  0
LINE
  5
44B6
330
1F
100
AcDbEntity
  8
AM_7
100
AcDbLine
 10
124.532791622655
 20
242.0940958643337
 30
0.0
 11
124.532791622655
 21
243.1935958643337
 31
0.0
  0
LINE
  5
44B7
330
1F
100
AcDbEntity
  8
AM_7
100
AcDbLine
 10
124.532791622655
 20
246.7935958643337
 30
0.0
 11
124.532791622655
 21
247.8930958643337
 31
0.0
  0
LINE
  5
44B8
330
1F
100
AcDbEntity
  8
AM_7
100
AcDbLine
 10
123.532791622655
 20
275.9935958643337
 30
0.0
 11
125.532791622655
 21
275.9935958643337
 31
0.0
  0
LINE
  5
44B9
330
1F
100
AcDbEntity
  8
AM_7
100
AcDbLine
 10
124.532791622655
 20
274.9935958643337
 30
0.0
 11
124.532791622655
 21
276.9935958643337
 31
0.0
  0
LINE
  5
44BA
330
1F
100
AcDbEntity
  8
AM_7
100
AcDbLine
 10
121.633291622655
 20
275.9935958643337
 30
0.0
 11
122.7327916226551
 21
275.9935958643337
 31
0.0
  0
LINE
  5
44BB
330
1F
100
AcDbEntity
  8
AM_7
100
AcDbLine
 10
126.332791622655
 20
275.9935958643337
 30
0.0
 11
127.432291622655
 21
275.9935958643337
 31
0.0
  0
LINE
  5
44BC
330
1F
100
AcDbEntity
  8
AM_7
100
AcDbLine
 10
124.532791622655
 20
273.0940958643337
 30
0.0
 11
124.532791622655
 21
274.1935958643337
 31
0.0
  0
LINE
  5
44BD
330
1F
100
AcDbEntity
  8
AM_7
100
AcDbLine
 10
124.532791622655
 20
277.7935958643337
 30
0.0
 11
124.532791622655
 21
278.8930958643337
 31
0.0
  0
LINE
  5
44BE
330
1F
100
AcDbEntity
  8
AM_7
100
AcDbLine
 10
183.532791622655
 20
219.9935958643337
 30
0.0
 11
185.532791622655
 21
219.9935958643337
 31
0.0
  0
LINE
  5
44BF
330
1F
100
AcDbEntity
  8
AM_7
100
AcDbLine
 10
184.532791622655
 20
218.9935958643337
 30
0.0
 11
184.532791622655
 21
220.9935958643337
 31
0.0
  0
LINE
  5
44C0
330
1F
100
AcDbEntity
  8
AM_7
100
AcDbLine
 10
181.633291622655
 20
219.9935958643337
 30
0.0
 11
182.732791622655
 21
219.9935958643337
 31
0.0
  0
LINE
  5
44C1
330
1F
100
AcDbEntity
  8
AM_7
100
AcDbLine
 10
186.332791622655
 20
219.9935958643337
 30
0.0
 11
187.432291622655
 21
219.9935958643337
 31
0.0
  0
LINE
  5
44C2
330
1F
100
AcDbEntity
  8
AM_7
100
AcDbLine
 10
184.532791622655
 20
217.0940958643337
 30
0.0
 11
184.532791622655
 21
218.1935958643337
 31
0.0
  0
LINE
  5
44C3
330
1F
100
AcDbEntity
  8
AM_7
100
AcDbLine
 10
184.532791622655
 20
221.7935958643337
 30
0.0
 11
184.532791622655
 21
222.8930958643337
 31
0.0
  0
LINE
  5
44C4
330
1F
100
AcDbEntity
  8
AM_7
100
AcDbLine
 10
183.532791622655
 20
250.9935958643337
 30
0.0
 11
185.532791622655
 21
250.9935958643337
 31
0.0
  0
LINE
  5
44C5
330
1F
100
AcDbEntity
  8
AM_7
100
AcDbLine
 10
184.532791622655
 20
249.9935958643337
 30
0.0
 11
184.532791622655
 21
251.9935958643337
 31
0.0
  0
LINE
  5
44C6
330
1F
100
AcDbEntity
  8
AM_7
100
AcDbLine
 10
181.633291622655
 20
250.9935958643337
 30
0.0
 11
182.732791622655
 21
250.9935958643337
 31
0.0
  0
LINE
  5
44C7
330
1F
100
AcDbEntity
  8
AM_7
100
AcDbLine
 10
186.332791622655
 20
250.9935958643337
 30
0.0
 11
187.432291622655
 21
250.9935958643337
 31
0.0
  0
LINE
  5
44C8
330
1F
100
AcDbEntity
  8
AM_7
100
AcDbLine
 10
184.532791622655
 20
248.0940958643337
 30
0.0
 11
184.532791622655
 21
249.1935958643337
 31
0.0
  0
LINE
  5
44C9
330
1F
100
AcDbEntity
  8
AM_7
100
AcDbLine
 10
184.532791622655
 20
252.7935958643337
 30
0.0
 11
184.532791622655
 21
253.8930958643337
 31
0.0
  0
LINE
  5
44CA
330
1F
100
AcDbEntity
  8
AM_7
100
AcDbLine
 10
168.532791622655
 20
283.4935958643337
 30
0.0
 11
170.532791622655
 21
283.4935958643337
 31
0.0
  0
LINE
  5
44CB
330
1F
100
AcDbEntity
  8
AM_7
100
AcDbLine
 10
169.532791622655
 20
282.4935958643337
 30
0.0
 11
169.532791622655
 21
284.4935958643337
 31
0.0
  0
LINE
  5
44CC
330
1F
100
AcDbEntity
  8
AM_7
100
AcDbLine
 10
165.6827916226551
 20
283.4935958643337
 30
0.0
 11
167.7327916226551
 21
283.4935958643337
 31
0.0
  0
LINE
  5
44CD
330
1F
100
AcDbEntity
  8
AM_7
100
AcDbLine
 10
171.3327916226551
 20
283.4935958643337
 30
0.0
 11
173.3827916226551
 21
283.4935958643337
 31
0.0
  0
LINE
  5
44CE
330
1F
100
AcDbEntity
  8
AM_7
100
AcDbLine
 10
169.532791622655
 20
279.6435958643337
 30
0.0
 11
169.532791622655
 21
281.6935958643337
 31
0.0
  0
LINE
  5
44CF
330
1F
100
AcDbEntity
  8
AM_7
100
AcDbLine
 10
169.532791622655
 20
285.2935958643337
 30
0.0
 11
169.532791622655
 21
287.3435958643337
 31
0.0
  0
LINE
  5
44D0
330
1F
100
AcDbEntity
  8
AM_7
100
AcDbLine
 10
138.532791622655
 20
283.4935958643337
 30
0.0
 11
140.532791622655
 21
283.4935958643337
 31
0.0
  0
LINE
  5
44D1
330
1F
100
AcDbEntity
  8
AM_7
100
AcDbLine
 10
139.532791622655
 20
282.4935958643337
 30
0.0
 11
139.532791622655
 21
284.4935958643337
 31
0.0
  0
LINE
  5
44D2
330
1F
100
AcDbEntity
  8
AM_7
100
AcDbLine
 10
135.6827916226551
 20
283.4935958643337
 30
0.0
 11
137.7327916226551
 21
283.4935958643337
 31
0.0
  0
LINE
  5
44D3
330
1F
100
AcDbEntity
  8
AM_7
100
AcDbLine
 10
141.332791622655
 20
283.4935958643337
 30
0.0
 11
143.3827916226551
 21
283.4935958643337
 31
0.0
  0
LINE
  5
44D4
330
1F
100
AcDbEntity
  8
AM_7
100
AcDbLine
 10
139.532791622655
 20
279.6435958643337
 30
0.0
 11
139.532791622655
 21
281.6935958643337
 31
0.0
  0
LINE
  5
44D5
330
1F
100
AcDbEntity
  8
AM_7
100
AcDbLine
 10
139.532791622655
 20
285.2935958643337
 30
0.0
 11
139.532791622655
 21
287.3435958643337
 31
0.0
  0
LINE
  5
44D6
330
1F
100
AcDbEntity
  8
AM_7
100
AcDbLine
 10
168.532791622655
 20
212.4935958643337
 30
0.0
 11
170.532791622655
 21
212.4935958643337
 31
0.0
  0
LINE
  5
44D7
330
1F
100
AcDbEntity
  8
AM_7
100
AcDbLine
 10
169.532791622655
 20
211.4935958643337
 30
0.0
 11
169.532791622655
 21
213.4935958643337
 31
0.0
  0
LINE
  5
44D8
330
1F
100
AcDbEntity
  8
AM_7
100
AcDbLine
 10
165.682791622655
 20
212.4935958643337
 30
0.0
 11
167.732791622655
 21
212.4935958643337
 31
0.0
  0
LINE
  5
44D9
330
1F
100
AcDbEntity
  8
AM_7
100
AcDbLine
 10
171.332791622655
 20
212.4935958643337
 30
0.0
 11
173.3827916226551
 21
212.4935958643337
 31
0.0
  0
LINE
  5
44DA
330
1F
100
AcDbEntity
  8
AM_7
100
AcDbLine
 10
169.532791622655
 20
208.6435958643337
 30
0.0
 11
169.532791622655
 21
210.6935958643337
 31
0.0
  0
LINE
  5
44DB
330
1F
100
AcDbEntity
  8
AM_7
100
AcDbLine
 10
169.532791622655
 20
214.2935958643337
 30
0.0
 11
169.532791622655
 21
216.3435958643337
 31
0.0
  0
LINE
  5
44DC
330
1F
100
AcDbEntity
  8
AM_7
100
AcDbLine
 10
138.532791622655
 20
212.4935958643337
 30
0.0
 11
140.532791622655
 21
212.4935958643337
 31
0.0
  0
LINE
  5
44DD
330
1F
100
AcDbEntity
  8
AM_7
100
AcDbLine
 10
139.532791622655
 20
211.4935958643337
 30
0.0
 11
139.532791622655
 21
213.4935958643337
 31
0.0
  0
LINE
  5
44DE
330
1F
100
AcDbEntity
  8
AM_7
100
AcDbLine
 10
135.6827916226551
 20
212.4935958643337
 30
0.0
 11
137.7327916226551
 21
212.4935958643337
 31
0.0
  0
LINE
  5
44DF
330
1F
100
AcDbEntity
  8
AM_7
100
AcDbLine
 10
141.332791622655
 20
212.4935958643337
 30
0.0
 11
143.3827916226551
 21
212.4935958643337
 31
0.0
  0
LINE
  5
44E0
330
1F
100
AcDbEntity
  8
AM_7
100
AcDbLine
 10
139.532791622655
 20
208.6435958643337
 30
0.0
 11
139.532791622655
 21
210.6935958643337
 31
0.0
  0
LINE
  5
44E1
330
1F
100
AcDbEntity
  8
AM_7
100
AcDbLine
 10
139.532791622655
 20
214.2935958643337
 30
0.0
 11
139.532791622655
 21
216.3435958643337
 31
0.0
  0
LINE
  5
44FD
330
1F
100
AcDbEntity
  8
AM_VIS
100
AcDbLine
 10
196.532791622655
 20
207.4935958643337
 30
0.0
 11
196.532791622655
 21
288.4935958643337
 31
0.0
  0
LINE
  5
44FE
330
1F
100
AcDbEntity
  8
AM_VIS
100
AcDbLine
 10
112.532791622655
 20
288.4935958643337
 30
0.0
 11
112.532791622655
 21
207.4935958643337
 31
0.0
  0
LINE
  5
44FF
330
1F
100
AcDbEntity
  8
AM_VIS
100
AcDbLine
 10
112.9721314508752
 20
207.4935958643337
 30
0.0
 11
117.2398984038416
 21
207.4935958643337
 31
0.0
  0
LINE
  5
4500
330
1F
100
AcDbEntity
  8
AM_VIS
100
AcDbLine
 10
191.8256848414685
 20
207.4935958643337
 30
0.0
 11
196.0934517944348
 21
207.4935958643337
 31
0.0
  0
LINE
  5
4501
330
1F
100
AcDbEntity
  8
AM_VIS
100
AcDbLine
 10
196.0934517944349
 20
288.4935958643337
 30
0.0
 11
191.8256848414685
 21
288.4935958643337
 31
0.0
  0
LINE
  5
4502
330
1F
100
AcDbEntity
  8
AM_VIS
100
AcDbLine
 10
117.2398984038416
 20
288.4935958643337
 30
0.0
 11
112.9721314508752
 21
288.4935958643337
 31
0.0
  0
LINE
  5
4508
330
1F
100
AcDbEntity
  8
AM_VIS
100
AcDbLine
 10
117.532791622655
 20
288.4935958643337
 30
0.0
 11
117.532791622655
 21
207.4935958643337
 31
0.0
  0
LINE
  5
4509
330
1F
100
AcDbEntity
  8
AM_VIS
100
AcDbLine
 10
191.532791622655
 20
207.4935958643337
 30
0.0
 11
191.532791622655
 21
288.4935958643337
 31
0.0
  0
LINE
  5
4511
330
1F
100
AcDbEntity
  8
AM_VIS
100
AcDbLine
 10
118.532791622655
 20
207.4935958643337
 30
0.0
 11
190.532791622655
 21
207.4935958643337
 31
0.0
  0
LINE
  5
4512
330
1F
100
AcDbEntity
  8
AM_VIS
100
AcDbLine
 10
190.532791622655
 20
288.4935958643337
 30
0.0
 11
118.532791622655
 21
288.4935958643337
 31
0.0
  0
LINE
  5
4513
330
1F
100
AcDbEntity
  8
AM_VIS
100
AcDbLine
 10
112.9721314508752
 20
207.4935958643337
 30
0.0
 11
112.532791622655
 21
207.4935958643337
 31
0.0
  0
LINE
  5
4514
330
1F
100
AcDbEntity
  8
AM_VIS
100
AcDbLine
 10
117.2398984038416
 20
207.4935958643337
 30
0.0
 11
117.532791622655
 21
207.4935958643337
 31
0.0
  0
LINE
  5
4515
330
1F
100
AcDbEntity
  8
AM_VIS
100
AcDbLine
 10
191.532791622655
 20
207.4935958643337
 30
0.0
 11
191.8256848414685
 21
207.4935958643337
 31
0.0
  0
LINE
  5
4516
330
1F
100
AcDbEntity
  8
AM_VIS
100
AcDbLine
 10
196.532791622655
 20
207.4935958643337
 30
0.0
 11
196.0934517944349
 21
207.4935958643337
 31
0.0
  0
LINE
  5
4517
330
1F
100
AcDbEntity
  8
AM_VIS
100
AcDbLine
 10
196.0934517944349
 20
288.4935958643337
 30
0.0
 11
196.532791622655
 21
288.4935958643337
 31
0.0
  0
LINE
  5
4518
330
1F
100
AcDbEntity
  8
AM_VIS
100
AcDbLine
 10
191.8256848414685
 20
288.4935958643337
 30
0.0
 11
191.532791622655
 21
288.4935958643337
 31
0.0
  0
LINE
  5
4519
330
1F
100
AcDbEntity
  8
AM_VIS
100
AcDbLine
 10
117.532791622655
 20
288.4935958643337
 30
0.0
 11
117.2398984038416
 21
288.4935958643337
 31
0.0
  0
LINE
  5
451A
330
1F
100
AcDbEntity
  8
AM_VIS
100
AcDbLine
 10
112.532791622655
 20
288.4935958643337
 30
0.0
 11
112.9721314508752
 21
288.4935958643337
 31
0.0
  0
LINE
  5
4520
330
1F
100
AcDbEntity
  8
AM_VIS
100
AcDbLine
 10
118.532791622655
 20
207.4935958643337
 30
0.0
 11
117.532791622655
 21
207.4935958643337
 31
0.0
  0
LINE
  5
4521
330
1F
100
AcDbEntity
  8
AM_VIS
100
AcDbLine
 10
117.532791622655
 20
288.4935958643337
 30
0.0
 11
118.532791622655
 21
288.4935958643337
 31
0.0
  0
LINE
  5
4522
330
1F
100
AcDbEntity
  8
AM_VIS
100
AcDbLine
 10
190.532791622655
 20
288.4935958643337
 30
0.0
 11
191.532791622655
 21
288.4935958643337
 31
0.0
  0
LINE
  5
4523
330
1F
100
AcDbEntity
  8
AM_VIS
100
AcDbLine
 10
191.532791622655
 20
207.4935958643337
 30
0.0
 11
190.532791622655
 21
207.4935958643337
 31
0.0
  0
CIRCLE
  5
452A
330
1F
100
AcDbEntity
  8
AM_VIS
100
AcDbCircle
 10
169.532791622655
 20
283.4935958643337
 30
0.0
 40
2.25
  0
CIRCLE
  5
452B
330
1F
100
AcDbEntity
  8
AM_VIS
100
AcDbCircle
 10
139.532791622655
 20
283.4935958643337
 30
0.0
 40
2.25
  0
CIRCLE
  5
452C
330
1F
100
AcDbEntity
  8
AM_VIS
100
AcDbCircle
 10
169.532791622655
 20
212.4935958643337
 30
0.0
 40
2.25
  0
CIRCLE
  5
452D
330
1F
100
AcDbEntity
  8
AM_VIS
100
AcDbCircle
 10
139.532791622655
 20
212.4935958643337
 30
0.0
 40
2.25
  0
LINE
  5
4537
330
1F
100
AcDbEntity
  8
AM_VIS
100
AcDbLine
 10
254.6479975110472
 20
207.4935958643337
 30
0.0
 11
254.6479975110472
 21
288.4935958643337
 31
0.0
  0
LINE
  5
4538
330
1F
100
AcDbEntity
  8
AM_VIS
100
AcDbLine
 10
228.6479975110471
 20
207.4935958643337
 30
0.0
 11
233.233783948674
 21
207.4935958643337
 31
0.0
  0
LINE
  5
4539
330
1F
100
AcDbEntity
  8
AM_VIS
100
AcDbLine
 10
233.9408907298606
 20
207.4935958643337
 30
0.0
 11
238.208657682827
 21
207.4935958643337
 31
0.0
  0
LINE
  5
453A
330
1F
100
AcDbEntity
  8
AM_VIS
100
AcDbLine
 10
239.2693178546068
 20
207.4935958643337
 30
0.0
 11
252.6479975110472
 21
207.4935958643337
 31
0.0
  0
LINE
  5
453B
330
1F
100
AcDbEntity
  8
AM_VIS
100
AcDbLine
 10
252.6479975110472
 20
288.4935958643337
 30
0.0
 11
239.2693178546068
 21
288.4935958643337
 31
0.0
  0
LINE
  5
453C
330
1F
100
AcDbEntity
  8
AM_VIS
100
AcDbLine
 10
238.208657682827
 20
288.4935958643337
 30
0.0
 11
233.9408907298606
 21
288.4935958643337
 31
0.0
  0
LINE
  5
453D
330
1F
100
AcDbEntity
  8
AM_VIS
100
AcDbLine
 10
233.233783948674
 20
288.4935958643337
 30
0.0
 11
228.6479975110471
 21
288.4935958643337
 31
0.0
  0
LINE
  5
4542
330
1F
100
AcDbEntity
  8
AM_VIS
100
AcDbLine
 10
227.6479975110472
 20
288.4935958643337
 30
0.0
 11
227.6479975110472
 21
207.4935958643337
 31
0.0
  0
LINE
  5
4543
330
1F
100
AcDbEntity
  8
AM_VIS
100
AcDbLine
 10
233.233783948674
 20
207.4935958643337
 30
0.0
 11
233.9408907298606
 21
207.4935958643337
 31
0.0
  0
LINE
  5
4544
330
1F
100
AcDbEntity
  8
AM_VIS
100
AcDbLine
 10
239.2693178546068
 20
207.4935958643337
 30
0.0
 11
238.208657682827
 21
207.4935958643337
 31
0.0
  0
LINE
  5
4545
330
1F
100
AcDbEntity
  8
AM_VIS
100
AcDbLine
 10
254.6479975110472
 20
207.4935958643337
 30
0.0
 11
252.6479975110472
 21
207.4935958643337
 31
0.0
  0
LINE
  5
4546
330
1F
100
AcDbEntity
  8
AM_VIS
100
AcDbLine
 10
238.2086576828271
 20
288.4935958643337
 30
0.0
 11
239.2693178546068
 21
288.4935958643337
 31
0.0
  0
LINE
  5
4547
330
1F
100
AcDbEntity
  8
AM_VIS
100
AcDbLine
 10
233.9408907298606
 20
288.4935958643337
 30
0.0
 11
233.233783948674
 21
288.4935958643337
 31
0.0
  0
LINE
  5
4548
330
1F
100
AcDbEntity
  8
AM_VIS
100
AcDbLine
 10
252.6479975110472
 20
288.4935958643337
 30
0.0
 11
254.6479975110472
 21
288.4935958643337
 31
0.0
  0
LINE
  5
4549
330
1F
100
AcDbEntity
  8
AM_VIS
100
AcDbLine
 10
227.6479975110472
 20
288.4935958643337
 30
0.0
 11
228.6479975110471
 21
288.4935958643337
 31
0.0
  0
LINE
  5
454A
330
1F
100
AcDbEntity
  8
AM_VIS
100
AcDbLine
 10
228.6479975110471
 20
207.4935958643337
 30
0.0
 11
227.6479975110472
 21
207.4935958643337
 31
0.0
  0
LINE
  5
454D
330
1F
100
AcDbEntity
  8
AM_VIS
100
AcDbLine
 10
194.532791622655
 20
150.2631247252118
 30
0.0
 11
181.532791622655
 21
150.2631247252118
 31
0.0
  0
LINE
  5
454E
330
1F
100
AcDbEntity
  8
AM_VIS
100
AcDbLine
 10
181.532791622655
 20
150.2631247252118
 30
0.0
 11
180.532791622655
 21
151.2631247252118
 31
0.0
  0
LINE
  5
454F
330
1F
100
AcDbEntity
  8
AM_VIS
100
AcDbLine
 10
128.532791622655
 20
151.2631247252118
 30
0.0
 11
180.532791622655
 21
151.2631247252118
 31
0.0
  0
LINE
  5
4550
330
1F
100
AcDbEntity
  8
AM_VIS
100
AcDbLine
 10
128.532791622655
 20
151.2631247252118
 30
0.0
 11
127.532791622655
 21
150.2631247252118
 31
0.0
  0
LINE
  5
4551
330
1F
100
AcDbEntity
  8
AM_VIS
100
AcDbLine
 10
127.532791622655
 20
150.2631247252118
 30
0.0
 11
114.532791622655
 21
150.2631247252118
 31
0.0
  0
LINE
  5
4552
330
1F
100
AcDbEntity
  8
AM_VIS
100
AcDbLine
 10
112.532791622655
 20
152.2631247252118
 30
0.0
 11
112.532791622655
 21
165.6418043816521
 31
0.0
  0
LINE
  5
4553
330
1F
100
AcDbEntity
  8
AM_VIS
100
AcDbLine
 10
112.9721314508752
 20
166.702464553432
 30
0.0
 11
117.2398984038416
 21
170.9702315063983
 31
0.0
  0
LINE
  5
4554
330
1F
100
AcDbEntity
  8
AM_VIS
100
AcDbLine
 10
117.532791622655
 20
171.6773382875849
 30
0.0
 11
117.532791622655
 21
176.2631247252118
 31
0.0
  0
LINE
  5
4555
330
1F
100
AcDbEntity
  8
AM_VIS
100
AcDbLine
 10
191.532791622655
 20
176.2631247252118
 30
0.0
 11
191.532791622655
 21
171.6773382875849
 31
0.0
  0
LINE
  5
4556
330
1F
100
AcDbEntity
  8
AM_VIS
100
AcDbLine
 10
191.8256848414685
 20
170.9702315063983
 30
0.0
 11
196.0934517944348
 21
166.702464553432
 31
0.0
  0
LINE
  5
4557
330
1F
100
AcDbEntity
  8
AM_VIS
100
AcDbLine
 10
196.532791622655
 20
165.6418043816521
 30
0.0
 11
196.532791622655
 21
152.2631247252118
 31
0.0
  0
LINE
  5
4558
330
1F
100
AcDbEntity
  8
AM_VIS
100
AcDbLine
 10
118.532791622655
 20
177.2631247252118
 30
0.0
 11
190.532791622655
 21
177.2631247252118
 31
0.0
  0
ARC
  5
455F
330
1F
100
AcDbEntity
  8
AM_VIS
100
AcDbCircle
 10
114.532791622655
 20
152.2631247252118
 30
0.0
 40
1.999999999999999
100
AcDbArc
 50
180.0
 51
270.0
  0
ARC
  5
4560
330
1F
100
AcDbEntity
  8
AM_VIS
100
AcDbCircle
 10
114.032791622655
 20
165.6418043816521
 30
0.0
 40
1.5
100
AcDbArc
 50
135.0
 51
180.0
  0
ARC
  5
4561
330
1F
100
AcDbEntity
  8
AM_VIS
100
AcDbCircle
 10
116.532791622655
 20
171.6773382875849
 30
0.0
 40
1.0
100
AcDbArc
 50
315.0000000000006
 51
0.0
  0
ARC
  5
4562
330
1F
100
AcDbEntity
  8
AM_VIS
100
AcDbCircle
 10
192.532791622655
 20
171.6773382875849
 30
0.0
 40
1.0
100
AcDbArc
 50
180.0
 51
224.9999999999994
  0
ARC
  5
4563
330
1F
100
AcDbEntity
  8
AM_VIS
100
AcDbCircle
 10
195.032791622655
 20
165.6418043816521
 30
0.0
 40
1.5
100
AcDbArc
 50
0.0
 51
44.99999999999942
  0
ARC
  5
4564
330
1F
100
AcDbEntity
  8
AM_VIS
100
AcDbCircle
 10
194.532791622655
 20
152.2631247252118
 30
0.0
 40
1.999999999999999
100
AcDbArc
 50
270.0
 51
0.0
  0
ARC
  5
4568
330
1F
100
AcDbEntity
  8
AM_VIS
100
AcDbCircle
 10
118.532791622655
 20
176.2631247252118
 30
0.0
 40
0.9999999999999998
100
AcDbArc
 50
90.0
 51
180.0
  0
ARC
  5
4569
330
1F
100
AcDbEntity
  8
AM_VIS
100
AcDbCircle
 10
190.532791622655
 20
176.2631247252118
 30
0.0
 40
0.9999999999999998
100
AcDbArc
 50
0.0
 51
90.0
  0
ARC
  5
4570
330
1F
100
AcDbEntity
  8
AM_4
100
AcDbCircle
 10
124.032791622655
 20
161.7631247252118
 30
0.0
 40
8.649999999999998
100
AcDbArc
 50
260.0
 51
170.0
  0
LINE
  5
4571
330
1F
100
AcDbEntity
  8
AM_7
  6
AM_ISO08W050x2
100
AcDbLine
 10
124.032791622655
 20
173.4131247252118
 30
0.0
 11
124.032791622655
 21
150.1131247252118
 31
0.0
  0
CIRCLE
  5
4572
330
1F
100
AcDbEntity
  8
AM_0
100
AcDbCircle
 10
124.032791622655
 20
161.7631247252118
 30
0.0
 40
7.474999999999998
  0
LINE
  5
4573
330
1F
100
AcDbEntity
  8
AM_7
  6
AM_ISO08W050x2
100
AcDbLine
 10
112.382791622655
 20
161.7631247252118
 30
0.0
 11
135.682791622655
 21
161.7631247252118
 31
0.0
  0
ARC
  5
4574
330
1F
100
AcDbEntity
  8
AM_4
100
AcDbCircle
 10
154.532791622655
 20
162.7631247252118
 30
0.0
 40
8.649999999999998
100
AcDbArc
 50
260.0
 51
170.0
  0
LINE
  5
4575
330
1F
100
AcDbEntity
  8
AM_7
  6
AM_ISO08W050x2
100
AcDbLine
 10
154.532791622655
 20
174.4131247252118
 30
0.0
 11
154.532791622655
 21
151.1131247252118
 31
0.0
  0
CIRCLE
  5
4576
330
1F
100
AcDbEntity
  8
AM_0
100
AcDbCircle
 10
154.532791622655
 20
162.7631247252118
 30
0.0
 40
7.474999999999998
  0
LINE
  5
4577
330
1F
100
AcDbEntity
  8
AM_7
  6
AM_ISO08W050x2
100
AcDbLine
 10
142.882791622655
 20
162.7631247252118
 30
0.0
 11
166.182791622655
 21
162.7631247252118
 31
0.0
  0
ARC
  5
4578
330
1F
100
AcDbEntity
  8
AM_4
100
AcDbCircle
 10
185.032791622655
 20
161.7631247252118
 30
0.0
 40
8.649999999999998
100
AcDbArc
 50
260.0
 51
170.0
  0
LINE
  5
4579
330
1F
100
AcDbEntity
  8
AM_7
  6
AM_ISO08W050x2
100
AcDbLine
 10
185.032791622655
 20
173.4131247252118
 30
0.0
 11
185.032791622655
 21
150.1131247252118
 31
0.0
  0
CIRCLE
  5
457A
330
1F
100
AcDbEntity
  8
AM_0
100
AcDbCircle
 10
185.032791622655
 20
161.7631247252118
 30
0.0
 40
7.474999999999998
  0
LINE
  5
457B
330
1F
100
AcDbEntity
  8
AM_7
  6
AM_ISO08W050x2
100
AcDbLine
 10
173.3827916226551
 20
161.7631247252118
 30
0.0
 11
196.682791622655
 21
161.7631247252118
 31
0.0
  0
ENDSEC
  0
SECTION
  2
OBJECTS
  0
DICTIONARY
  5
C
330
0
100
AcDbDictionary
281
     1
  3
ACAD_COLOR
350
7D1
  3
ACAD_GROUP
350
D
  3
ACAD_LAYOUT
350
1A
  3
ACAD_MATERIAL
350
7D0
  3
ACAD_MLINESTYLE
350
17
  3
ACAD_PLOTSETTINGS
350
19
  3
ACAD_PLOTSTYLENAME
350
E
  3
ACAD_TABLESTYLE
350
7D2
  3
ACDBHEADERROUNDTRIPXREC
350
46DC
  3
AcDbVariableDictionary
350
82
  3
AcmDictionary
350
45
  3
AMG
350
2B
  3
AMGSNAPSETTINGS
350
87
  3
DWGPROPS
350
46DB
  0
DICTIONARY
  5
AAB
330
2
100
AcDbDictionary
280
     1
281
     1
  3
ACAD_LAYERSTATES
360
AAC
  3
AMLAYER_GROUPCOLORS
360
3426
  0
DICTIONARY
  5
7D
330
1F
100
AcDbDictionary
280
     1
281
     1
  3
ACAD_SORTENTS
360
EEA
  0
DICTIONARY
  5
7D1
102
{ACAD_REACTORS
330
C
102
}
330
C
100
AcDbDictionary
281
     1
  0
DICTIONARY
  5
D
102
{ACAD_REACTORS
330
C
102
}
330
C
100
AcDbDictionary
281
     1
  0
DICTIONARY
  5
1A
102
{ACAD_REACTORS
330
C
102
}
330
C
100
AcDbDictionary
281
     1
  3
Layout1
350
1E
  3
Layout2
350
26
  3
Model
350
22
  0
DICTIONARY
  5
7D0
102
{ACAD_REACTORS
330
C
102
}
330
C
100
AcDbDictionary
281
     1
  0
DICTIONARY
  5
17
102
{ACAD_REACTORS
330
C
102
}
330
C
100
AcDbDictionary
281
     1
  3
Standard
350
18
  0
DICTIONARY
  5
19
102
{ACAD_REACTORS
330
C
102
}
330
C
100
AcDbDictionary
281
     1
  0
ACDBDICTIONARYWDFLT
  5
E
102
{ACAD_REACTORS
330
C
102
}
330
C
100
AcDbDictionary
281
     1
  3
Normal
350
F
100
AcDbDictionaryWithDefault
340
F
  0
DICTIONARY
  5
7D2
102
{ACAD_REACTORS
330
C
102
}
330
C
100
AcDbDictionary
281
     1
  3
Standard
350
7D3
  0
DICTIONARY
  5
46DC
102
{ACAD_REACTORS
330
C
102
}
330
C
100
AcDbDictionary
281
     1
  0
DICTIONARY
  5
82
102
{ACAD_REACTORS
330
C
102
}
330
C
100
AcDbDictionary
281
     1
  3
CTABLESTYLE
350
847
  3
DIMASSOC
350
85
  3
HIDETEXT
350
84
  3
INDEXCTL
350
83
  3
PROJECTNAME
350
848
  0
DICTIONARY
  5
45
102
{ACAD_REACTORS
330
C
102
}
330
C
100
AcDbDictionary
281
     1
  3
AcmStdDictionary
350
4A
  3
AMDTSECTSYM_ARROWCOLOR
350
7DF
  0
DICTIONARY
  5
2B
102
{ACAD_REACTORS
330
C
102
}
330
C
100
AcDbDictionary
281
     1
  0
DICTIONARY
  5
87
102
{ACAD_REACTORS
330
C
102
}
330
C
100
AcDbDictionary
281
     1
  0
XRECORD
  5
46DB
102
{ACAD_REACTORS
330
C
102
}
330
C
100
AcDbXrecord
280
     1
  1
DWGPROPS COOKIE
  2

  3

  4

  6

  7

  8

  9

300
AmdtFileType=84
301
=
302
=
303
=
304
=
305
=
306
=
307
=
308
=
309
=
 40
0.626751712962963
 41
2453021.369367211
 42
2453514.62810691
  1

 90
        1
  0
DICTIONARY
  5
AAC
102
{ACAD_REACTORS
330
AAB
102
}
330
AAB
100
AcDbDictionary
281
     1
  0
DICTIONARY
  5
3426
102
{ACAD_REACTORS
330
AAB
102
}
330
AAB
100
AcDbDictionary
280
     1
281
     1
  0
SORTENTSTABLE
  5
EEA
102
{ACAD_REACTORS
330
7D
102
}
330
7D
100
AcDbSortentsTable
330
1F
331
1478
  5
1478
331
1441
  5
1441
331
1637
  5
1637
331
1449
  5
1449
331
13F2
  5
13F2
331
1647
  5
1647
331
3380
  5
3380
331
3806
  5
3806
331
1459
  5
1459
331
13FA
  5
13FA
331
1610
  5
1610
331
1402
  5
1402
331
1461
  5
1461
331
1620
  5
1620
331
1432
  5
1432
331
1471
  5
1471
331
1628
  5
1628
331
1630
  5
1630
331
1442
  5
1442
331
1479
  5
1479
331
1638
  5
1638
331
1640
  5
1640
331
1452
  5
1452
331
13F3
  5
13F3
331
3748
  5
3748
331
3381
  5
3381
331
13FB
  5
13FB
331
1648
  5
1648
331
1403
  5
1403
331
1433
  5
1433
331
1629
  5
1629
331
1472
  5
1472
331
1631
  5
1631
331
37E0
  5
37E0
331
1443
  5
1443
331
2D18
  5
2D18
331
1639
  5
1639
331
1641
  5
1641
331
1602
  5
1602
331
1453
  5
1453
331
13F4
  5
13F4
331
160A
  5
160A
331
13FC
  5
13FC
331
161A
  5
161A
331
1404
  5
1404
331
1434
  5
1434
331
146B
  5
146B
331
1473
  5
1473
331
3722
  5
3722
331
1632
  5
1632
331
1444
  5
1444
331
163A
  5
163A
331
1603
  5
1603
331
1454
  5
1454
331
1642
  5
1642
331
160B
  5
160B
331
13F5
  5
13F5
331
13FD
  5
13FD
331
1405
  5
1405
331
146C
  5
146C
331
1623
  5
1623
331
143D
  5
143D
331
1474
  5
1474
331
1445
  5
1445
331
163B
  5
163B
331
144D
  5
144D
331
1455
  5
1455
331
1604
  5
1604
331
13F6
  5
13F6
331
13FE
  5
13FE
331
145D
  5
145D
331
1465
  5
1465
331
146D
  5
146D
331
143E
  5
143E
331
1475
  5
1475
331
3852
  5
3852
331
1634
  5
1634
331
163C
  5
163C
331
144E
  5
144E
331
1605
  5
1605
331
1456
  5
1456
331
1644
  5
1644
331
13F7
  5
13F7
331
13FF
  5
13FF
331
1615
  5
1615
331
161D
  5
161D
331
1466
  5
1466
331
1664
  5
1664
331
146E
  5
146E
331
1476
  5
1476
331
143F
  5
143F
331
162D
  5
162D
331
3794
  5
3794
331
1635
  5
1635
331
163D
  5
163D
331
1457
  5
1457
331
39BB
  5
39BB
331
13F8
  5
13F8
331
1400
  5
1400
331
1616
  5
1616
331
382C
  5
382C
331
1467
  5
1467
331
146F
  5
146F
331
1626
  5
1626
331
1477
  5
1477
331
162E
  5
162E
331
1440
  5
1440
331
1636
  5
1636
331
163E
  5
163E
331
13F1
  5
13F1
331
160F
  5
160F
331
39BC
  5
39BC
331
1458
  5
1458
331
13F9
  5
13F9
331
376E
  5
376E
331
1401
  5
1401
331
1470
  5
1470
331
1627
  5
1627
331
162F
  5
162F
  0
LAYOUT
  5
1E
102
{ACAD_XDICTIONARY
360
46DD
102
}
102
{ACAD_REACTORS
330
1A
102
}
330
1A
100
AcDbPlotSettings
  1

  2
自動 RD 上的 Epson Stylus Photo 750 單色
  4

  6

 40
0.0
 41
0.0
 42
0.0
 43
0.0
 44
0.0
 45
0.0
 46
0.0
 47
0.0
 48
0.0
 49
0.0
140
0.0
141
0.0
142
1.0
143
1.0
 70
   688
 72
     0
 73
     0
 74
     5
  7
彩色出圖.ctb
 75
    16
147
1.0
148
0.0
149
0.0
100
AcDbLayout
  1
Layout1
 70
     1
 71
     1
 10
0.0
 20
0.0
 11
420.0
 21
297.0
 12
0.0
 22
0.0
 32
0.0
 14
1.000000000000000E+20
 24
1.000000000000000E+20
 34
1.000000000000000E+20
 15
-1.000000000000000E+20
 25
-1.000000000000000E+20
 35
-1.000000000000000E+20
146
0.0
 13
0.0
 23
0.0
 33
0.0
 16
1.0
 26
0.0
 36
0.0
 17
0.0
 27
1.0
 37
0.0
 76
     0
330
1B
  0
LAYOUT
  5
26
102
{ACAD_XDICTIONARY
360
46E1
102
}
102
{ACAD_REACTORS
330
1A
102
}
330
1A
100
AcDbPlotSettings
  1

  2
自動 RD 上的 Epson Stylus Photo 750 單色
  4

  6

 40
0.0
 41
0.0
 42
0.0
 43
0.0
 44
0.0
 45
0.0
 46
0.0
 47
0.0
 48
0.0
 49
0.0
140
0.0
141
0.0
142
1.0
143
1.0
 70
   688
 72
     0
 73
     0
 74
     5
  7
彩色出圖.ctb
 75
    16
147
1.0
148
0.0
149
0.0
100
AcDbLayout
  1
Layout2
 70
     1
 71
     2
 10
0.0
 20
0.0
 11
12.0
 21
9.0
 12
0.0
 22
0.0
 32
0.0
 14
0.0
 24
0.0
 34
0.0
 15
0.0
 25
0.0
 35
0.0
146
0.0
 13
0.0
 23
0.0
 33
0.0
 16
1.0
 26
0.0
 36
0.0
 17
0.0
 27
1.0
 37
0.0
 76
     0
330
23
  0
LAYOUT
  5
22
102
{ACAD_XDICTIONARY
360
46DF
102
}
102
{ACAD_REACTORS
330
1A
102
}
330
1A
100
AcDbPlotSettings
  1

  2
自動 RD 上的 Epson Stylus Photo 750 單色
  4
A4
  6

 40
3.757083177566528
 41
14.7637300491333
 42
3.757080078125
 43
3.757080078125
 44
209.9733276367187
 45
296.9683227539062
 46
7.54
 47
0.0
 48
0.0
 49
0.0
140
0.0
141
0.0
142
1.0
143
1.817317462545654
 70
 11956
 72
     1
 73
     0
 74
     1
  7
彩色出圖.ctb
 75
     0
147
0.5502615919395967
148
-125.5654918467224
149
222.8859553785132
100
AcDbLayout
  1
Model
 70
     1
 71
     0
 10
0.0
 20
0.0
 11
12.0
 21
9.0
 12
0.0
 22
0.0
 32
0.0
 14
0.0
 24
0.0
 34
0.0
 15
0.0
 25
0.0
 35
0.0
146
0.0
 13
0.0
 23
0.0
 33
0.0
 16
1.0
 26
0.0
 36
0.0
 17
0.0
 27
1.0
 37
0.0
 76
     0
330
1F
  0
MLINESTYLE
  5
18
102
{ACAD_REACTORS
330
17
102
}
330
17
100
AcDbMlineStyle
  2
STANDARD
 70
     0
  3

 62
   256
 51
90.0
 52
90.0
 71
     2
 49
0.5
 62
   256
  6
BYLAYER
 49
-0.5
 62
   256
  6
BYLAYER
  0
ACDBPLACEHOLDER
  5
F
102
{ACAD_REACTORS
330
E
102
}
330
E
  0
TABLESTYLE
  5
7D3
102
{ACAD_REACTORS
330
7D2
102
}
330
7D2
100
AcDbTableStyle
  3
Standard
 70
     0
 71
     0
 40
1.5
 41
1.5
280
     0
281
     0
  7
STANDARD
140
4.5
170
     2
 62
     0
 63
     7
283
     0
274
    -2
284
     1
 64
     0
275
    -2
285
     1
 65
     0
276
    -2
286
     1
 66
     0
277
    -2
287
     1
 67
     0
278
    -2
288
     1
 68
     0
279
    -2
289
     1
 69
     0
  7
STANDARD
140
6.0
170
     5
 62
     0
 63
     7
283
     0
274
    -2
284
     1
 64
     0
275
    -2
285
     1
 65
     0
276
    -2
286
     1
 66
     0
277
    -2
287
     1
 67
     0
278
    -2
288
     1
 68
     0
279
    -2
289
     1
 69
     0
  7
STANDARD
140
4.5
170
     5
 62
     0
 63
     7
283
     0
274
    -2
284
     1
 64
     0
275
    -2
285
     1
 65
     0
276
    -2
286
     1
 66
     0
277
    -2
287
     1
 67
     0
278
    -2
288
     1
 68
     0
279
    -2
289
     1
 69
     0
  0
DICTIONARYVAR
  5
847
102
{ACAD_REACTORS
330
82
102
}
330
82
100
DictionaryVariables
280
     0
  1
STANDARD
  0
DICTIONARYVAR
  5
85
102
{ACAD_REACTORS
330
82
102
}
330
82
100
DictionaryVariables
280
     0
  1
2
  0
DICTIONARYVAR
  5
84
102
{ACAD_REACTORS
330
82
102
}
330
82
100
DictionaryVariables
280
     0
  1
1
  0
DICTIONARYVAR
  5
83
102
{ACAD_REACTORS
330
82
102
}
330
82
100
DictionaryVariables
280
     0
  1
0
  0
DICTIONARYVAR
  5
848
102
{ACAD_REACTORS
330
82
102
}
330
82
100
DictionaryVariables
280
     0
  1

  0
DICTIONARY
  5
4A
102
{ACAD_REACTORS
330
45
102
}
330
45
100
AcDbDictionary
281
     1
  0
XRECORD
  5
7DF
102
{ACAD_REACTORS
330
45
102
}
330
45
100
AcDbXrecord
280
     1
 90
-1023410169
  0
DICTIONARY
  5
46DD
330
1E
100
AcDbDictionary
280
     1
281
     1
  3
ACAD_XREC_ROUNDTRIP
360
46DE
  0
DICTIONARY
  5
46E1
330
26
100
AcDbDictionary
280
     1
281
     1
  3
ACAD_XREC_ROUNDTRIP
360
46E2
  0
DICTIONARY
  5
46DF
330
22
100
AcDbDictionary
280
     1
281
     1
  3
ACAD_XREC_ROUNDTRIP
360
46E0
  0
XRECORD
  5
46DE
102
{ACAD_REACTORS
330
46DD
102
}
330
46DD
100
AcDbXrecord
280
     1
102
SHADEPLOT
 70
     0
102
SHADEPLOTRESLEVEL
 70
     2
102
SHADEPLOTCUSTOMDPI
 70
   300
  0
XRECORD
  5
46E2
102
{ACAD_REACTORS
330
46E1
102
}
330
46E1
100
AcDbXrecord
280
     1
102
SHADEPLOT
 70
     0
102
SHADEPLOTRESLEVEL
 70
     2
102
SHADEPLOTCUSTOMDPI
 70
   300
  0
XRECORD
  5
46E0
102
{ACAD_REACTORS
330
46DF
102
}
330
46DF
100
AcDbXrecord
280
     1
102
SHADEPLOT
 70
     0
102
SHADEPLOTRESLEVEL
 70
     2
102
SHADEPLOTCUSTOMDPI
 70
   300
  0
ENDSEC
  0
EOF
