  0
SECTION
  2
HEADER
  9
$ACADVER
  1
AC1015
  9
$ACADMAINTVER
 70
    20
  9
$DWGCODEPAGE
  3
ANSI_950
  9
$INSBASE
 10
0.0
 20
0.0
 30
0.0
  9
$EXTMIN
 10
731.7338211008703
 20
42.68658469734927
 30
0.0
  9
$EXTMAX
 10
1034.13382110087
 20
312.7743123478849
 30
198.1592813491953
  9
$LIMMIN
 10
0.0
 20
0.0
  9
$LIMMAX
 10
420.0
 20
297.0
  9
$ORTHOMODE
 70
     0
  9
$REGENMODE
 70
     1
  9
$FILLMODE
 70
     1
  9
$QTEXTMODE
 70
     0
  9
$MIRRTEXT
 70
     1
  9
$LTSCALE
 40
1.0
  9
$ATTMODE
 70
     1
  9
$TEXTSIZE
 40
3.5
  9
$TRACEWID
 40
1.0
  9
$TEXTSTYLE
  7
STANDARD
  9
$CLAYER
  8
0
  9
$CELTYPE
  6
ByLayer
  9
$CECOLOR
 62
   256
  9
$CELTSCALE
 40
1.0
  9
$DISPSILH
 70
     0
  9
$DIMSCALE
 40
1.0
  9
$DIMASZ
 40
3.0
  9
$DIMEXO
 40
1.5
  9
$DIMDLI
 40
9.0
  9
$DIMRND
 40
0.0
  9
$DIMDLE
 40
0.0
  9
$DIMEXE
 40
1.5
  9
$DIMTP
 40
0.1
  9
$DIMTM
 40
0.1
  9
$DIMTXT
 40
3.5
  9
$DIMCEN
 40
0.0
  9
$DIMTSZ
 40
0.0
  9
$DIMTOL
 70
     0
  9
$DIMLIM
 70
     0
  9
$DIMTIH
 70
     0
  9
$DIMTOH
 70
     0
  9
$DIMSE1
 70
     0
  9
$DIMSE2
 70
     0
  9
$DIMTAD
 70
     1
  9
$DIMZIN
 70
     8
  9
$DIMBLK
  1

  9
$DIMASO
 70
     1
  9
$DIMSHO
 70
     1
  9
$DIMPOST
  1

  9
$DIMAPOST
  1
"
  9
$DIMALT
 70
     0
  9
$DIMALTD
 70
     2
  9
$DIMALTF
 40
0.0393701
  9
$DIMLFAC
 40
1.0
  9
$DIMTOFL
 70
     1
  9
$DIMTVP
 40
0.0
  9
$DIMTIX
 70
     0
  9
$DIMSOXD
 70
     0
  9
$DIMSAH
 70
     0
  9
$DIMBLK1
  1

  9
$DIMBLK2
  1

  9
$DIMSTYLE
  2
AM_ISO
  9
$DIMCLRD
 70
   256
  9
$DIMCLRE
 70
   256
  9
$DIMCLRT
 70
   256
  9
$DIMTFAC
 40
0.6
  9
$DIMGAP
 40
1.0
  9
$DIMJUST
 70
     0
  9
$DIMSD1
 70
     0
  9
$DIMSD2
 70
     0
  9
$DIMTOLJ
 70
     0
  9
$DIMTZIN
 70
     8
  9
$DIMALTZ
 70
     0
  9
$DIMALTTZ
 70
     0
  9
$DIMUPT
 70
     0
  9
$DIMDEC
 70
     2
  9
$DIMTDEC
 70
     8
  9
$DIMALTU
 70
     2
  9
$DIMALTTD
 70
     2
  9
$DIMTXSTY
  7
STANDARD
  9
$DIMAUNIT
 70
     0
  9
$DIMADEC
 70
     0
  9
$DIMALTRND
 40
0.0
  9
$DIMAZIN
 70
     2
  9
$DIMDSEP
 70
    46
  9
$DIMATFIT
 70
     3
  9
$DIMFRAC
 70
     0
  9
$DIMLDRBLK
  1

  9
$DIMLUNIT
 70
     2
  9
$DIMLWD
 70
    -1
  9
$DIMLWE
 70
    -1
  9
$DIMTMOVE
 70
     0
  9
$LUNITS
 70
     2
  9
$LUPREC
 70
     2
  9
$SKETCHINC
 40
1.0
  9
$FILLETRAD
 40
2.5
  9
$AUNITS
 70
     0
  9
$AUPREC
 70
     0
  9
$MENU
  1
.
  9
$ELEVATION
 40
0.0
  9
$PELEVATION
 40
0.0
  9
$THICKNESS
 40
0.0
  9
$LIMCHECK
 70
     0
  9
$CHAMFERA
 40
2.5
  9
$CHAMFERB
 40
2.5
  9
$CHAMFERC
 40
20.0
  9
$CHAMFERD
 40
0.0
  9
$SKPOLY
 70
     0
  9
$TDCREATE
 40
2454404.589585683
  9
$TDUCREATE
 40
2454404.256252349
  9
$TDUPDATE
 40
2456883.589967257
  9
$TDUUPDATE
 40
2456883.256633924
  9
$TDINDWG
 40
0.1696547801
  9
$TDUSRTIMER
 40
0.1696545949
  9
$USRTIMER
 70
     1
  9
$ANGBASE
 50
0.0
  9
$ANGDIR
 70
     0
  9
$PDMODE
 70
     0
  9
$PDSIZE
 40
0.0
  9
$PLINEWID
 40
0.0
  9
$SPLFRAME
 70
     0
  9
$SPLINETYPE
 70
     6
  9
$SPLINESEGS
 70
     8
  9
$HANDSEED
  5
98B3
  9
$SURFTAB1
 70
     6
  9
$SURFTAB2
 70
     6
  9
$SURFTYPE
 70
     6
  9
$SURFU
 70
     6
  9
$SURFV
 70
     6
  9
$UCSBASE
  2

  9
$UCSNAME
  2

  9
$UCSORG
 10
0.0
 20
0.0
 30
0.0
  9
$UCSXDIR
 10
1.0
 20
0.0
 30
0.0
  9
$UCSYDIR
 10
0.0
 20
1.0
 30
0.0
  9
$UCSORTHOREF
  2

  9
$UCSORTHOVIEW
 70
     0
  9
$UCSORGTOP
 10
0.0
 20
0.0
 30
0.0
  9
$UCSORGBOTTOM
 10
0.0
 20
0.0
 30
0.0
  9
$UCSORGLEFT
 10
0.0
 20
0.0
 30
0.0
  9
$UCSORGRIGHT
 10
0.0
 20
0.0
 30
0.0
  9
$UCSORGFRONT
 10
0.0
 20
0.0
 30
0.0
  9
$UCSORGBACK
 10
0.0
 20
0.0
 30
0.0
  9
$PUCSBASE
  2

  9
$PUCSNAME
  2

  9
$PUCSORG
 10
0.0
 20
0.0
 30
0.0
  9
$PUCSXDIR
 10
1.0
 20
0.0
 30
0.0
  9
$PUCSYDIR
 10
0.0
 20
1.0
 30
0.0
  9
$PUCSORTHOREF
  2

  9
$PUCSORTHOVIEW
 70
     0
  9
$PUCSORGTOP
 10
0.0
 20
0.0
 30
0.0
  9
$PUCSORGBOTTOM
 10
0.0
 20
0.0
 30
0.0
  9
$PUCSORGLEFT
 10
0.0
 20
0.0
 30
0.0
  9
$PUCSORGRIGHT
 10
0.0
 20
0.0
 30
0.0
  9
$PUCSORGFRONT
 10
0.0
 20
0.0
 30
0.0
  9
$PUCSORGBACK
 10
0.0
 20
0.0
 30
0.0
  9
$USERI1
 70
     0
  9
$USERI2
 70
     0
  9
$USERI3
 70
     0
  9
$USERI4
 70
     0
  9
$USERI5
 70
     0
  9
$USERR1
 40
0.0
  9
$USERR2
 40
0.0
  9
$USERR3
 40
0.0
  9
$USERR4
 40
0.0
  9
$USERR5
 40
0.0
  9
$WORLDVIEW
 70
     1
  9
$SHADEDGE
 70
     3
  9
$SHADEDIF
 70
    70
  9
$TILEMODE
 70
     1
  9
$MAXACTVP
 70
    64
  9
$PINSBASE
 10
0.0
 20
0.0
 30
0.0
  9
$PLIMCHECK
 70
     0
  9
$PEXTMIN
 10
1.000000000000000E+20
 20
1.000000000000000E+20
 30
1.000000000000000E+20
  9
$PEXTMAX
 10
-1.000000000000000E+20
 20
-1.000000000000000E+20
 30
-1.000000000000000E+20
  9
$PLIMMIN
 10
0.0
 20
0.0
  9
$PLIMMAX
 10
420.0
 20
297.0
  9
$UNITMODE
 70
     0
  9
$VISRETAIN
 70
     1
  9
$PLINEGEN
 70
     0
  9
$PSLTSCALE
 70
     1
  9
$TREEDEPTH
 70
  3020
  9
$CMLSTYLE
  2
Standard
  9
$CMLJUST
 70
     0
  9
$CMLSCALE
 40
20.0
  9
$PROXYGRAPHICS
 70
     1
  9
$MEASUREMENT
 70
     1
  9
$CELWEIGHT
370
    -1
  9
$ENDCAPS
280
     0
  9
$JOINSTYLE
280
     0
  9
$LWDISPLAY
290
     0
  9
$INSUNITS
 70
     4
  9
$HYPERLINKBASE
  1

  9
$STYLESHEET
  1
彩色出圖.ctb
  9
$XEDIT
290
     1
  9
$CEPSNTYPE
380
     0
  9
$PSTYLEMODE
290
     1
  9
$FINGERPRINTGUID
  2
{4149E43B-FF49-4271-9BBB-2663EBED6B3C}
  9
$VERSIONGUID
  2
{614E6041-D598-4FBC-91BC-2AA2B669442D}
  9
$EXTNAMES
290
     1
  9
$PSVPSCALE
 40
0.0
  9
$OLESTARTUP
290
     0
  0
ENDSEC
  0
SECTION
  2
CLASSES
  0
CLASS
  1
ACDBDICTIONARYWDFLT
  2
AcDbDictionaryWithDefault
  3
ObjectDBX Classes
 90
        0
280
     0
281
     0
  0
CLASS
  1
ACDBPLACEHOLDER
  2
AcDbPlaceHolder
  3
ObjectDBX Classes
 90
        0
280
     0
281
     0
  0
CLASS
  1
LAYOUT
  2
AcDbLayout
  3
ObjectDBX Classes
 90
        0
280
     0
281
     0
  0
CLASS
  1
ACME_DOCUMENT
  2
AcMeDbDoc
  3
AcMeServices
 90
        0
280
     0
281
     0
  0
CLASS
  1
AMGSETTINGSOBJ
  2
AmgSettingsObj
  3
"AcadM|Product Description: AutoCAD Mechanical 2000|Company: Autodesk"
 90
        0
280
     0
281
     0
  0
CLASS
  1
ACMESCOPE
  2
AcMeScope
  3
AcMeServices
 90
        0
280
     0
281
     0
  0
CLASS
  1
ACMECOMMANDHISTORY
  2
AcMeCommandHistory
  3
AcMeServices
 90
        0
280
     0
281
     0
  0
CLASS
  1
ACIMSYSVARMAN
  2
AcImSysVarManager
  3
AcMeServices
 90
        0
280
     0
281
     0
  0
CLASS
  1
ACIMREALSYSVAR
  2
AcImRealSysVar
  3
AcMeServices
 90
        0
280
     0
281
     0
  0
CLASS
  1
ACIMINTSYSVAR
  2
AcImIntSysVar
  3
AcMeServices
 90
        0
280
     0
281
     0
  0
CLASS
  1
ACMEDRAWINGMAN
  2
AcMeDrawingMan
  3
AcMeServices
 90
        0
280
     0
281
     0
  0
CLASS
  1
ACMEVIEW
  2
AcMeView
  3
AcMeServices
 90
        0
280
     0
281
     0
  0
CLASS
  1
ACDBENTITYCACHE
  2
AcMeEntityCache
  3
AcMeServices
 90
        0
280
     0
281
     0
  0
CLASS
  1
GSMANAGER
  2
AcMeGSManager
  3
AcMeServices
 90
        0
280
     0
281
     0
  0
CLASS
  1
AMDTINTERNALREACTOR
  2
AmdtInternalReactor
  3
AcMeServices
 90
        0
280
     0
281
     0
  0
CLASS
  1
ACMESTATEMGR
  2
AcMeStateMgr
  3
AcMeServices
 90
        0
280
     0
281
     0
  0
CLASS
  1
ACGREFMASTER
  2
AcGrefMaster
  3
AcAttribServices
 90
        0
280
     0
281
     0
  0
CLASS
  1
ACME_DATABASE
  2
AcMeDbDatabase
  3
AcMeServices
 90
        0
280
     0
281
     0
  0
CLASS
  1
ACRFINSADJUSTERMGR
  2
AcRfInsAdjusterMgr
  3
AcMeServices
 90
        0
280
     0
281
     0
  0
CLASS
  1
ACGREFACADMASTER
  2
AcGrefacadMaster
  3
AcGrefServices
 90
        0
280
     0
281
     0
  0
CLASS
  1
AMIMASTER
  2
AmiMaster
  3
AmiServices
 90
        0
280
     0
281
     0
  0
CLASS
  1
ACMDATADICTIONARY
  2
AcmDataDictionary
  3
"AcmSymBB|Product Description: AutoCAD Mechanical 2004 DX|Company: Autodesk"
 90
        0
280
     0
281
     0
  0
CLASS
  1
ACMDATAENTRYBLOCK
  2
AcmDataEntryBlock
  3
"AcmSymBB|Product Description: AutoCAD Mechanical 2004 DX|Company: Autodesk"
 90
        0
280
     0
281
     0
  0
CLASS
  1
ACIMSTRSYSVAR
  2
AcImStrSysVar
  3
AcMeServices
 90
        0
280
     0
281
     0
  0
CLASS
  1
ACMSTANDARDISO
  2
AcmStandardISO
  3
"Amdt_StdImp|Product Description: AutoCAD Mechanical 2004 DX|Company: Autodesk"
 90
        0
280
     0
281
     0
  0
CLASS
  1
AMGOBJPROPCFG
  2
AmgObjPropCfg
  3
"AmgLay|Product Description: AutoCAD Mechanical 2000|Company: Autodesk"
 90
        1
280
     0
281
     0
  0
CLASS
  1
AMDTEDGESTANDARDISO
  2
AmdtEdgeStdISO
  3
"Amdt_StdImp|Product Description: AutoCAD Mechanical 2004 DX|Company: Autodesk"
 90
    32768
280
     0
281
     0
  0
CLASS
  1
ACMSURFSTANDARDISO
  2
AcmSurfTextStdISO
  3
"Amdt_StdImp|Product Description: AutoCAD Mechanical 2004 DX|Company: Autodesk"
 90
        0
280
     0
281
     0
  0
CLASS
  1
ACMFCFSTANDARDISO
  2
AcmFCFStdISO
  3
"Amdt_StdImp|Product Description: AutoCAD Mechanical 2004 DX|Company: Autodesk"
 90
        0
280
     0
281
     0
  0
CLASS
  1
ACMWELDSTANDARDISO
  2
AcmWeldingStdISO
  3
"Amdt_StdImp|Product Description: AutoCAD Mechanical 2004 DX|Company: Autodesk"
 90
        0
280
     0
281
     0
  0
CLASS
  1
ACMIDSTANDARDISO
  2
AcmIdStdISO
  3
"Amdt_StdImp|Product Description: AutoCAD Mechanical 2004 DX|Company: Autodesk"
 90
        0
280
     0
281
     0
  0
CLASS
  1
ACMDATUMSTANDARDISO
  2
AcmDatumStdISO
  3
"Amdt_StdImp|Product Description: AutoCAD Mechanical 2004 DX|Company: Autodesk"
 90
        0
280
     0
281
     0
  0
CLASS
  1
ACMBOMSTANDARDISO
  2
AcmBOMStdISO
  3
"Amdt_StdImp|Product Description: AutoCAD Mechanical 2004 DX|Company: Autodesk"
 90
        0
280
     0
281
     0
  0
CLASS
  1
ACMDETAILSTANDARDISO
  2
AmdtDetailSymStdISO
  3
"Amdt_StdImp|Product Description: AutoCAD Mechanical 2004 DX|Company: Autodesk"
 90
        0
280
     0
281
     0
  0
CLASS
  1
ACMSECTIONSTANDARDISO
  2
AmdtSectionSymStdISO
  3
"Amdt_StdImp|Product Description: AutoCAD Mechanical 2004 DX|Company: Autodesk"
 90
        0
280
     0
281
     0
  0
CLASS
  1
ACMCENTERLINESTANDARDISO
  2
AmdtCenterLineStdISO
  3
"Amdt_StdImp|Product Description: AutoCAD Mechanical 2004 DX|Company: Autodesk"
 90
        0
280
     0
281
     0
  0
CLASS
  1
ACMNOTESTANDARDISO
  2
AmdtNoteStdISO
  3
"Amdt_StdImp|Product Description: AutoCAD Mechanical 2004 DX|Company: Autodesk"
 90
        0
280
     0
281
     0
  0
CLASS
  1
ACAMGLAYSTD
  2
AcAmgLayStd
  3
"AcAmgLayStd|Product Description: AutoCAD Mechanical 2000|Company: Autodesk"
 90
        0
280
     0
281
     0
  0
CLASS
  1
ACAMGDIMSTD
  2
AcAmgDimStd
  3
"AcAmgDimStd|Product Description: AutoCAD Mechanical 2000|Company: Autodesk"
 90
        0
280
     0
281
     0
  0
CLASS
  1
ACAMGHOLECHARTSTDISO
  2
AcAmgHoleChartStdISO
  3
ACMSYMBB_MODULE_NAME
 90
        0
280
     0
281
     0
  0
CLASS
  1
ACAMGTITLESTD
  2
AcAmgTitleStd
  3
"TITLEAPP"
 90
        0
280
     0
281
     0
  0
CLASS
  1
LAYER_INDEX
  2
AcDbLayerIndex
  3
ObjectDBX Classes
 90
        0
280
     0
281
     0
  0
CLASS
  1
IDBUFFER
  2
AcDbIdBuffer
  3
ObjectDBX Classes
 90
        0
280
     0
281
     0
  0
CLASS
  1
DICTIONARYVAR
  2
AcDbDictionaryVar
  3
ObjectDBX Classes
 90
        0
280
     0
281
     0
  0
CLASS
  1
AM_DRAWING_MGR
  2
AcDmDwgMgr
  3
AcMechDwgViewMgmt
 90
        0
280
     0
281
     0
  0
CLASS
  1
AM_DWG_DOCUMENT
  2
AcDmDwgDocument
  3
AcMechDwgViewMgmt
 90
        0
280
     0
281
     0
  0
CLASS
  1
AM_DWG_SHEET
  2
AcDmSheet
  3
AcMechDwgViewMgmt
 90
        0
280
     0
281
     0
  0
CLASS
  1
AM_VIEWDIMPARMAP
  2
AcDmViewDimParMap
  3
AcMechDwgViewMgmt
 90
        0
280
     0
281
     0
  0
CLASS
  1
AM_DWGMGR_NAME
  2
AcDmDwgMgrName
  3
AcMechDwgViewMgmt
 90
        0
280
     0
281
     0
  0
CLASS
  1
AMDTMENUSTATEMGR
  2
AmdtMenuStateMgr
  3
McadcomServices
 90
        0
280
     0
281
     0
  0
CLASS
  1
AMDTMCOMMENUSTATE
  2
AmdtMcomMenuState
  3
McadcomServices
 90
        0
280
     0
281
     0
  0
CLASS
  1
MAPIAMMOUDLE
  2
MApiAmModule
  3
MApiAmServices
 90
        0
280
     0
281
     0
  0
CLASS
  1
AMDTADMENUSTATE
  2
AmdtAdMenuState
  3
DesignerServices
 90
        0
280
     0
281
     0
  0
CLASS
  1
ADAPPL
  2
AcAdAppl
  3
DesignerServices
 90
        0
280
     0
281
     0
  0
CLASS
  1
DEPMGR
  2
AcAdDepMgr
  3
DesignerServices
 90
        0
280
     0
281
     0
  0
CLASS
  1
PARAMMGR
  2
AcAdParamMgr
  3
DesignerServices
 90
        0
280
     0
281
     0
  0
CLASS
  1
PARAMSCOPE
  2
AcAdParamScope
  3
DesignerServices
 90
        0
280
     0
281
     0
  0
CLASS
  1
NAMEDAPPL
  2
AcAdNamedAppl
  3
DesignerServices
 90
        0
280
     0
281
     0
  0
CLASS
  1
AMDTDMMENUSTATE
  2
AmdtDmMenuState
  3
AcMechDwgViewMgmt
 90
        0
280
     0
281
     0
  0
CLASS
  1
AMDTAMMENUSTATE
  2
AmdtAmMenuState
  3
DesignerAssemblies
 90
        0
280
     0
281
     0
  0
CLASS
  1
ACAMPROJECT
  2
AcAmProject
  3
DesignerAssemblies
 90
        0
280
     0
281
     0
  0
CLASS
  1
ACAMGRCOMPDEF
  2
AcAmGrCompDef
  3
DesignerAssemblies
 90
        0
280
     0
281
     0
  0
CLASS
  1
ACCMCONTEXT
  2
AcCmContext
  3
DesignerAssemblies
 90
        0
280
     0
281
     0
  0
CLASS
  1
ACAMCOMPDEF
  2
AcAmCompDef
  3
DesignerAssemblies
 90
        0
280
     0
281
     0
  0
CLASS
  1
ACAMCOMPDEFMGR
  2
AcAmCompDefMgr
  3
DesignerAssemblies
 90
        0
280
     0
281
     0
  0
CLASS
  1
AMCONTEXTMGR
  2
AcAmContextMgr
  3
DesignerAssemblies
 90
        0
280
     0
281
     0
  0
CLASS
  1
ACAMCONTEXTMODELER
  2
AcAmContextModeler
  3
DesignerAssemblies
 90
        0
280
     0
281
     0
  0
CLASS
  1
ACMTHREADLINESTANDARDISO
  2
AmdtThreadLineStdISO
  3
"Amdt_StdImp|Product Description: AutoCAD Mechanical 2004 DX|Company: Autodesk"
 90
        0
280
     0
281
     0
  0
CLASS
  1
CATALOGSTATE
  2
AcAmCatalogState
  3
DesignerAssemblies
 90
        0
280
     0
281
     0
  0
CLASS
  1
ACAMGRCOMPDEFSET
  2
AcAmGrCompDefSet
  3
DesignerAssemblies
 90
        0
280
     0
281
     0
  0
CLASS
  1
AMDTBROWSERDBTAB
  2
AmdtBrowserDbTab
  3
McadcomServices
 90
        0
280
     0
281
     0
  0
CLASS
  1
CBROWSERAPPOBJECT
  2
CBrowserAppObject
  3
McadcomServices
 90
        0
280
     0
281
     0
  0
CLASS
  1
DM_PLACEHOLDER
  2
AcDmSelsetPlaceholder
  3
AcMechDwgViewMgmt
 90
        0
280
     0
281
     0
  0
CLASS
  1
TABLESTYLE
  2
AcDbTableStyle
  3
ObjectDBX Classes
 90
     2047
280
     0
281
     0
  0
CLASS
  1
VAACXREFPANELOBJECT
  2
VaAcXREFPanelObject
  3
VAAC_ADDIN
 90
    32768
280
     0
281
     0
  0
CLASS
  1
VAACIMAGEINVENTORY
  2
VaAcImageInventory
  3
VAAC_ADDIN
 90
    32768
280
     0
281
     0
  0
CLASS
  1
AMDTNOTETEMPLATEDB
  2
AmdtNoteTemplateDB
  3
AMDT_STDIMP_MODULE_NAME
 90
        0
280
     0
281
     0
  0
CLASS
  1
ACMBOM
  2
AcmBom
  3
"AcmSymBB|Product Description: AutoCAD Mechanical 2004 DX|Company: Autodesk"
 90
    32768
280
     0
281
     0
  0
CLASS
  1
AMDTFORMULAUPDATEDISPATCHER
  2
AmdtFormulaUpdateDispatcher
  3
AcMeServices
 90
    32768
280
     0
281
     0
  0
CLASS
  1
ACMPARTLIST
  2
AcmPartList
  3
"AcmSymBB|Product Description: AutoCAD Mechanical 2004 DX|Company: Autodesk"
 90
    33791
280
     0
281
     1
  0
CLASS
  1
ACAMGFILTERDAT
  2
AcAmgFilterDat
  3
"AcadM|Product Description: AutoCAD Mechanical 2000|Company: Autodesk"
 90
    32768
280
     0
281
     0
  0
CLASS
  1
DIMASSOC
  2
AcDbDimAssoc
  3
"AcDbDimAssoc|Product Desc:     AcDim ARX App For Dimension|Company:          Autodesk, Inc.|WEB Address:      www.autodesk.com"
 90
    32768
280
     0
281
     0
  0
CLASS
  1
AMDTNOTE
  2
AmdtNote
  3
"AcmSymBB|Product Description: AutoCAD Mechanical 2004 DX|Company: Autodesk"
 90
    33791
280
     0
281
     1
  0
CLASS
  1
SORTENTSTABLE
  2
AcDbSortentsTable
  3
ObjectDBX Classes
 90
    32768
280
     0
281
     0
  0
CLASS
  1
ACRFATTGENMGR
  2
AcRfAttGeneralMgr
  3
AcAttribServices
 90
    32768
280
     0
281
     0
  0
CLASS
  1
ASAPP
  2
AcAsAppObject
  3
AutoSurfServices
 90
        0
280
     0
281
     0
  0
CLASS
  1
IM_STATIC_MAN
  2
AcImStaticVarManager
  3
AcMeServices
 90
        0
280
     0
281
     0
  0
CLASS
  1
ACIMDBLSTATICVAR
  2
AcImDblStaticVar
  3
AcMeServices
 90
        0
280
     0
281
     0
  0
CLASS
  1
ACIMSTRSTATICVAR
  2
AcImStrStaticVar
  3
AcMeServices
 90
        0
280
     0
281
     0
  0
CLASS
  1
ACIMINTSTATICVAR
  2
AcImIntStaticVar
  3
AcMeServices
 90
        0
280
     0
281
     0
  0
CLASS
  1
ACASGREFMASTER
  2
AcAsGrefMaster
  3
AutoSurfResolverServices
 90
        0
280
     0
281
     0
  0
CLASS
  1
ACADGREFMODULE
  2
AcAdGrefModule
  3
AdGrefServices
 90
        0
280
     0
281
     0
  0
CLASS
  1
AMDTMAPISURFMOUDULE
  2
AmdtMApiSurfModule
  3
MApiSurfServices
 90
        0
280
     0
281
     0
  0
CLASS
  1
MAPIADMODULE
  2
MApiAdModule
  3
MApiAdServices
 90
        0
280
     0
281
     0
  0
CLASS
  1
AMDTEDGESTANDARDISO13715
  2
AmdtEdgeStdISO13715
  3
"Amdt_StdImp|Product Description: AutoCAD Mechanical 2004 DX|Company: Autodesk"
 90
        0
280
     0
281
     0
  0
ENDSEC
  0
SECTION
  2
TABLES
  0
TABLE
  2
VPORT
  5
8
330
0
100
AcDbSymbolTable
 70
     3
  0
VPORT
  5
98AA
330
8
100
AcDbSymbolTableRecord
100
AcDbViewportTableRecord
  2
*Active
 70
     0
 10
0.0
 20
0.0
 11
1.0
 21
1.0
 12
48.46074173392162
 22
-20.2557799147404
 13
0.0
 23
0.0
 14
2.5
 24
2.5
 15
10.0
 25
10.0
 16
0.0
 26
0.0
 36
1.0
 17
893.3300727976403
 27
177.7387140225166
 37
0.0
 40
550.9937686101809
 41
1.555133079847908
 42
50.0
 43
0.0
 44
0.0
 50
0.0
 51
0.0
 71
     0
 72
   100
 73
     1
 74
     3
 75
     0
 76
     0
 77
     0
 78
     0
281
     0
 65
     0
110
0.0
120
0.0
130
0.0
111
1.0
121
0.0
131
0.0
112
0.0
122
1.0
132
0.0
 79
     0
146
0.0
  0
ENDTAB
  0
TABLE
  2
LTYPE
  5
5
330
0
100
AcDbSymbolTable
 70
    16
  0
LTYPE
  5
14
330
5
100
AcDbSymbolTableRecord
100
AcDbLinetypeTableRecord
  2
ByBlock
 70
     0
  3

 72
    65
 73
     0
 40
0.0
  0
LTYPE
  5
15
330
5
100
AcDbSymbolTableRecord
100
AcDbLinetypeTableRecord
  2
ByLayer
 70
     0
  3

 72
    65
 73
     0
 40
0.0
  0
LTYPE
  5
16
330
5
100
AcDbSymbolTableRecord
100
AcDbLinetypeTableRecord
  2
Continuous
 70
     0
  3
Solid line
 72
    65
 73
     0
 40
0.0
  0
LTYPE
  5
64
330
5
100
AcDbSymbolTableRecord
100
AcDbLinetypeTableRecord
  2
AM_ISO02W050
 70
     0
  3
__ __ __ __ __ __ __ __ __ __ __ __ __ __ __
 72
    65
 73
     2
 40
7.5
 49
6.0
 74
     0
 49
-1.5
 74
     0
  0
LTYPE
  5
65
330
5
100
AcDbSymbolTableRecord
100
AcDbLinetypeTableRecord
  2
AM_ISO08W050
 70
     0
  3
____ . ____ . ____ . ____ . ____ . ____ . ____
 72
    65
 73
     4
 40
18.0
 49
12.0
 74
     0
 49
-1.5
 74
     0
 49
3.0
 74
     0
 49
-1.5
 74
     0
  0
LTYPE
  5
66
330
5
100
AcDbSymbolTableRecord
100
AcDbLinetypeTableRecord
  2
AM_ISO09W050
 70
     0
  3
_____ . . _____ . . _____ . . ____ .. ____
 72
    65
 73
     6
 40
22.5
 49
12.0
 74
     0
 49
-1.5
 74
     0
 49
3.0
 74
     0
 49
-1.5
 74
     0
 49
3.0
 74
     0
 49
-1.5
 74
     0
  0
LTYPE
  5
67
330
5
100
AcDbSymbolTableRecord
100
AcDbLinetypeTableRecord
  2
Amconstr
 70
     0
  3
_______________________
 72
    65
 73
     2
 40
9999.0
 49
9999.0
 74
     0
 49
0.0
 74
     0
  0
LTYPE
  5
68
330
5
100
AcDbSymbolTableRecord
100
AcDbLinetypeTableRecord
  2
AM_ISO08W050x2
 70
     0
  3
__ . __ . __ . __ . __ . __
 72
    65
 73
     4
 40
9.0
 49
6.0
 74
     0
 49
-0.75
 74
     0
 49
1.5
 74
     0
 49
-0.75
 74
     0
  0
LTYPE
  5
69
330
5
100
AcDbSymbolTableRecord
100
AcDbLinetypeTableRecord
  2
AM_ISO02W050x2
 70
     0
  3
 _ _ _ _ _ _ _ _ _ _ _ _
 72
    65
 73
     2
 40
3.75
 49
3.0
 74
     0
 49
-0.75
 74
     0
  0
LTYPE
  5
6C
330
5
100
AcDbSymbolTableRecord
100
AcDbLinetypeTableRecord
  2
Amzigzag
 70
     0
  3
/\/-/\/-/\/-/\/-/\/-/\/
 72
    65
 73
     2
 40
11.0001
 49
0.0001
 74
     4
 75
   135
340
6B
 46
0.04
 50
0.0
 44
0.0
 45
0.0
 49
-11.0
 74
     0
  0
LTYPE
  5
7A
330
5
100
AcDbSymbolTableRecord
100
AcDbLinetypeTableRecord
  2
ACISOWELD
 70
     0
  3
_ _ _ _ _
 72
    65
 73
     2
 40
2.0
 49
2.0
 74
     0
 49
-1.0
 74
     0
  0
LTYPE
  5
7B
330
5
100
AcDbSymbolTableRecord
100
AcDbLinetypeTableRecord
  2
ACISOTGB
 70
     0
  3
__ . . __ . .
 72
    65
 73
     6
 40
9.0
 49
4.0
 74
     0
 49
-1.0
 74
     0
 49
1.0
 74
     0
 49
-1.0
 74
     0
 49
1.0
 74
     0
 49
-1.0
 74
     0
  0
LTYPE
  5
7C
330
5
100
AcDbSymbolTableRecord
100
AcDbLinetypeTableRecord
  2
ACISOTGL
 70
     0
  3
_ _ _ _ _
 72
    65
 73
     2
 40
3.0
 49
2.0
 74
     0
 49
-1.0
 74
     0
  0
LTYPE
  5
7E
330
5
100
AcDbSymbolTableRecord
100
AcDbLinetypeTableRecord
  2
CENTER
 70
     0
  3
__ . __
 72
    65
 73
     4
 40
7.0
 49
4.0
 74
     0
 49
-1.0
 74
     0
 49
1.0
 74
     0
 49
-1.0
 74
     0
  0
LTYPE
  5
D8
330
5
100
AcDbSymbolTableRecord
100
AcDbLinetypeTableRecord
  2
HIDDEN
 70
     0
  3
Hidden __ __ __ __ __ __ __ __ __ __ __ __ __ _
 72
    65
 73
     2
 40
9.524999999999998
 49
6.349999999999999
 74
     0
 49
-3.174999999999999
 74
     0
  0
LTYPE
  5
D9
330
5
100
AcDbSymbolTableRecord
100
AcDbLinetypeTableRecord
  2
PHANTOM2
 70
     0
  3
Phantom (.5x) ___ _ _ ___ _ _ ___ _ _ ___ _ _
 72
    65
 73
     6
 40
31.75
 49
15.875
 74
     0
 49
-3.174999999999999
 74
     0
 49
3.174999999999999
 74
     0
 49
-3.174999999999999
 74
     0
 49
3.174999999999999
 74
     0
 49
-3.174999999999999
 74
     0
  0
LTYPE
  5
8781
330
5
100
AcDbSymbolTableRecord
100
AcDbLinetypeTableRecord
  2
ASULTYPE
 70
     0
  3
實線
 72
    65
 73
     2
 40
3.0
 49
2.5
 74
     0
 49
0.5
 74
     0
  0
LTYPE
  5
8782
330
5
100
AcDbSymbolTableRecord
100
AcDbLinetypeTableRecord
  2
ASVLTYPE
 70
     0
  3
__ __ __ __ __ __ __ __ __ __ __ __ __ __ __ __ __ __ __ __ __
 72
    65
 73
     2
 40
0.75
 49
0.5
 74
     0
 49
-0.25
 74
     0
  0
ENDTAB
  0
TABLE
  2
LAYER
  5
2
102
{ACAD_XDICTIONARY
360
3F9
102
}
330
0
100
AcDbSymbolTable
 70
     6
  0
LAYER
  5
10
330
2
100
AcDbSymbolTableRecord
100
AcDbLayerTableRecord
  2
0
 70
     0
 62
     7
  6
Continuous
370
    -3
390
F
  0
LAYER
  5
ACA
330
2
100
AcDbSymbolTableRecord
100
AcDbLayerTableRecord
  2
AM_VIS
 70
     0
 62
     7
  6
Continuous
370
    50
390
F
  0
LAYER
  5
2F8B
330
2
100
AcDbSymbolTableRecord
100
AcDbLayerTableRecord
  2
AM_7
 70
     0
 62
     1
  6
CENTER
370
    25
390
F
  0
LAYER
  5
30C0
330
2
100
AcDbSymbolTableRecord
100
AcDbLayerTableRecord
  2
AM_5
 70
     0
 62
     5
  6
Continuous
370
    50
390
F
  0
LAYER
  5
30C1
330
2
100
AcDbSymbolTableRecord
100
AcDbLayerTableRecord
  2
Defpoints
 70
     0
 62
     7
  6
Continuous
290
     0
370
    -3
390
F
  0
LAYER
  5
606C
330
2
100
AcDbSymbolTableRecord
100
AcDbLayerTableRecord
  2
LOGO
 70
     0
 62
     7
  6
Continuous
370
    -3
390
F
  0
ENDTAB
  0
TABLE
  2
STYLE
  5
3
330
0
100
AcDbSymbolTable
 70
     5
  0
STYLE
  5
11
330
3
100
AcDbSymbolTableRecord
100
AcDbTextStyleTableRecord
  2
STANDARD
 70
     0
 40
0.0
 41
1.0
 50
0.0
 71
     0
 42
3.5
  3
ISOCP.SHX
  4
CHINESET.SHX
  0
STYLE
  5
6B
330
3
100
AcDbSymbolTableRecord
100
AcDbTextStyleTableRecord
  2

 70
     1
 40
0.0
 41
1.0
 50
0.0
 71
     0
 42
2.5
  3
ltypeshp.shx
  4

  0
STYLE
  5
6D
330
3
100
AcDbSymbolTableRecord
100
AcDbTextStyleTableRecord
  2
ACISOTS
 70
     0
 40
1.0
 41
1.0
 50
0.0
 71
     0
 42
1.0
  3
isocp.shx
  4
chineset.shx
  0
STYLE
  5
79
330
3
100
AcDbSymbolTableRecord
100
AcDbTextStyleTableRecord
  2
ACISOGDT
 70
     0
 40
0.0
 41
1.0
 50
0.0
 71
     0
 42
2.5
  3
amgdt.shx
  4
chineset.shx
  0
STYLE
  5
606D
330
3
100
AcDbSymbolTableRecord
100
AcDbTextStyleTableRecord
  2
CHINESET
 70
     0
 40
0.0
 41
1.0
 50
0.0
 71
     0
 42
3.0
  3
simplex.shx
  4
CHINESET.SHX
  0
ENDTAB
  0
TABLE
  2
VIEW
  5
6
330
0
100
AcDbSymbolTable
 70
     0
  0
ENDTAB
  0
TABLE
  2
UCS
  5
7
330
0
100
AcDbSymbolTable
 70
     0
  0
ENDTAB
  0
TABLE
  2
APPID
  5
9
330
0
100
AcDbSymbolTable
 70
    27
  0
APPID
  5
12
330
9
100
AcDbSymbolTableRecord
100
AcDbRegAppTableRecord
  2
ACAD
 70
     0
  0
APPID
  5
46
330
9
100
AcDbSymbolTableRecord
100
AcDbRegAppTableRecord
  2
MCAD_NO_VIS
 70
     0
  0
APPID
  5
47
330
9
100
AcDbSymbolTableRecord
100
AcDbRegAppTableRecord
  2
ACAD_TEMP_GRAPHIC
 70
     0
  0
APPID
  5
58
330
9
100
AcDbSymbolTableRecord
100
AcDbRegAppTableRecord
  2
ACATTRIBSERVICES
 70
     0
  0
APPID
  5
EE
330
9
100
AcDbSymbolTableRecord
100
AcDbRegAppTableRecord
  2
AD_DRAW
 70
     0
  0
APPID
  5
10C
330
9
100
AcDbSymbolTableRecord
100
AcDbRegAppTableRecord
  2
DESIGNERASSEMBLIES
 70
     0
  0
APPID
  5
111
330
9
100
AcDbSymbolTableRecord
100
AcDbRegAppTableRecord
  2
ACADM_DIM_EDIT
 70
     0
  0
APPID
  5
112
330
9
100
AcDbSymbolTableRecord
100
AcDbRegAppTableRecord
  2
AMDT_DM_ADJ
 70
     0
  0
APPID
  5
22C
330
9
100
AcDbSymbolTableRecord
100
AcDbRegAppTableRecord
  2
ACAD_DSTYLE_DIMTEXT_FILL
 70
     0
  0
APPID
  5
452
330
9
100
AcDbSymbolTableRecord
100
AcDbRegAppTableRecord
  2
GENIUS_GENOENT_13
 70
     0
  0
APPID
  5
453
330
9
100
AcDbSymbolTableRecord
100
AcDbRegAppTableRecord
  2
GENIUS_GENOBJ-N-CRS_13
 70
     0
  0
APPID
  5
454
330
9
100
AcDbSymbolTableRecord
100
AcDbRegAppTableRecord
  2
GENIUS_GENOLIS_13
 70
     0
  0
APPID
  5
455
330
9
100
AcDbSymbolTableRecord
100
AcDbRegAppTableRecord
  2
GENIUS_GENODEF_13
 70
     0
  0
APPID
  5
456
330
9
100
AcDbSymbolTableRecord
100
AcDbRegAppTableRecord
  2
GENIUS_GENOREF_13
 70
     0
  0
APPID
  5
6F3
330
9
100
AcDbSymbolTableRecord
100
AcDbRegAppTableRecord
  2
ACAD_PSEXT
 70
     0
  0
APPID
  5
808
330
9
100
AcDbSymbolTableRecord
100
AcDbRegAppTableRecord
  2
GENIUS_GENDTOL_13
 70
     0
  0
APPID
  5
2F8D
330
9
100
AcDbSymbolTableRecord
100
AcDbRegAppTableRecord
  2
GENIUS_GENOBJ-N-CEN_13
 70
     0
  0
APPID
  5
2F8E
330
9
100
AcDbSymbolTableRecord
100
AcDbRegAppTableRecord
  2
GENIUS_GENCEN_19
 70
     0
  0
APPID
  5
30C4
330
9
100
AcDbSymbolTableRecord
100
AcDbRegAppTableRecord
  2
GENIUS_GENOBJ-N-HTC_13
 70
     0
  0
APPID
  5
30C5
330
9
100
AcDbSymbolTableRecord
100
AcDbRegAppTableRecord
  2
GENIUS_GENHATCH_13
 70
     0
  0
APPID
  5
54B1
330
9
100
AcDbSymbolTableRecord
100
AcDbRegAppTableRecord
  2
GENIUS_GENREC_14
 70
     0
  0
APPID
  5
54B2
330
9
100
AcDbSymbolTableRecord
100
AcDbRegAppTableRecord
  2
GENIUS_GENOBJ-N-REC_13
 70
     0
  0
APPID
  5
5C37
330
9
100
AcDbSymbolTableRecord
100
AcDbRegAppTableRecord
  2
AcAecLayerStandard
 70
     0
  0
APPID
  5
8702
330
9
100
AcDbSymbolTableRecord
100
AcDbRegAppTableRecord
  2
GENIUS_GENDIM_13
 70
     0
  0
APPID
  5
8703
330
9
100
AcDbSymbolTableRecord
100
AcDbRegAppTableRecord
  2
GENIUS_GE3DTOL_13
 70
     0
  0
APPID
  5
8783
330
9
100
AcDbSymbolTableRecord
100
AcDbRegAppTableRecord
  2
ASURF_PCURVE_APPNAME
 70
     0
  0
APPID
  5
8788
330
9
100
AcDbSymbolTableRecord
100
AcDbRegAppTableRecord
  2
AMG_3D2D_5.0
 70
     0
  0
ENDTAB
  0
TABLE
  2
DIMSTYLE
  5
A
330
0
100
AcDbSymbolTable
 70
     9
100
AcDbDimStyleTable
 71
     3
340
81
340
8B
340
86
  0
DIMSTYLE
105
81
330
A
100
AcDbSymbolTableRecord
100
AcDbDimStyleTableRecord
  2
AM_ISO
 70
     0
  4
"
 41
3.0
 42
1.5
 43
9.0
 44
1.5
 47
0.1
 48
0.1
 73
     0
 74
     0
 77
     1
 78
     8
 79
     2
140
3.5
141
0.0
143
0.0393701
146
0.6
147
1.0
172
     1
176
   256
177
   256
178
   256
271
     2
272
     2
283
     0
284
     8
340
11
371
    -1
372
    -1
  0
DIMSTYLE
105
82
330
A
100
AcDbSymbolTableRecord
100
AcDbDimStyleTableRecord
  2
AM_ISO$3
 70
     0
  4
"
 41
3.0
 42
1.5
 43
9.0
 44
1.5
 47
0.1
 48
0.1
 73
     0
 77
     1
 78
     8
 79
     2
140
3.5
141
0.0
143
0.0393701
146
0.6
147
1.0
176
   256
177
   256
178
   256
271
     2
272
     2
283
     0
284
     8
288
     1
289
     0
340
11
371
    -1
372
    -1
  0
DIMSTYLE
105
83
330
A
100
AcDbSymbolTableRecord
100
AcDbDimStyleTableRecord
  2
AM_ISO$4
 70
     0
  4
"
 41
3.0
 42
1.5
 43
9.0
 44
1.5
 47
0.1
 48
0.1
 73
     0
 77
     1
 78
     8
 79
     2
140
3.5
141
0.0
143
0.0393701
146
0.6
147
1.0
176
   256
177
   256
178
   256
271
     2
272
     2
283
     0
284
     8
288
     1
289
     0
340
11
371
    -1
372
    -1
  0
DIMSTYLE
105
84
330
A
100
AcDbSymbolTableRecord
100
AcDbDimStyleTableRecord
  2
AM_ISO$6
 70
     0
  4
"
 41
3.0
 42
1.5
 43
9.0
 44
1.5
 47
0.1
 48
0.1
 73
     0
 74
     0
 78
     8
 79
     2
140
3.5
141
0.0
143
0.0393701
146
0.6
147
1.0
172
     1
176
   256
177
   256
178
   256
271
     2
272
     2
283
     0
284
     8
340
11
371
    -1
372
    -1
  0
DIMSTYLE
105
85
330
A
100
AcDbSymbolTableRecord
100
AcDbDimStyleTableRecord
  2
AM_ISO$7
 70
     0
  4
"
 41
3.0
 42
1.5
 43
9.0
 44
1.5
 47
0.1
 48
0.1
 73
     0
 74
     0
 77
     1
 78
     8
 79
     2
140
5.0
141
0.0
143
0.0393701
146
0.6
147
1.0
172
     1
176
   256
177
   256
178
   256
271
     2
272
     2
283
     0
284
     8
340
11
371
    -1
372
    -1
  0
DIMSTYLE
105
86
330
A
100
AcDbSymbolTableRecord
100
AcDbDimStyleTableRecord
  2
AM_ISO$SF
 70
     0
  4
"
 41
2.5
 42
1.0
 43
10.0
 44
1.0
 47
0.1
 48
0.1
 73
     0
 74
     0
 75
     1
 76
     1
 77
     1
 78
     8
 79
     2
140
3.5
141
0.0
143
0.0393701
146
0.71
147
1.5
172
     1
176
   256
177
   256
178
     2
271
     2
272
     3
274
     4
283
     0
284
     8
340
11
371
    -1
372
    -1
  0
DIMSTYLE
105
8B
330
A
100
AcDbSymbolTableRecord
100
AcDbDimStyleTableRecord
  2
AM_ISO$SH
 70
     0
  4
"
 41
2.5
 42
1.0
 43
10.0
 44
1.0
 47
0.1
 48
0.1
 73
     0
 74
     0
 75
     1
 76
     1
 77
     1
 78
     8
 79
     2
140
3.5
141
0.0
143
0.0393701
144
2.0
146
0.71
147
1.5
172
     1
173
     1
176
   256
177
   256
178
     2
271
     2
272
     3
274
     4
283
     0
284
     8
340
11
343
87
371
    -1
372
    -1
  0
DIMSTYLE
105
40B
102
{ACAD_REACTORS
330
3DA4
330
38D7
330
38B1
330
3927
330
38FD
330
394D
330
3CD8
330
3A71
330
3D16
330
39C3
330
4789
330
3A0F
330
9378
330
93BB
330
93B4
330
93B7
330
93BA
102
}
330
A
100
AcDbSymbolTableRecord
100
AcDbDimStyleTableRecord
  2
AM_ISO$0
 70
     0
  4
"
 41
3.0
 42
1.5
 43
9.0
 44
1.5
 47
0.1
 48
0.1
 73
     0
 74
     0
 77
     1
 78
     8
 79
     2
140
3.5
141
0.0
143
0.0393701
146
0.6
147
1.0
172
     1
176
   256
177
   256
178
   256
271
     2
272
     2
283
     0
284
     8
340
11
371
    -1
372
    -1
  0
DIMSTYLE
105
87DB
330
A
100
AcDbSymbolTableRecord
100
AcDbDimStyleTableRecord
  2
ISO-25
 70
     0
 41
2.5
 42
0.625
 43
3.75
 44
1.25
 73
     0
 74
     0
 77
     1
 78
     8
140
2.5
141
2.5
143
0.03937007874016
147
0.625
171
     3
172
     1
271
     2
272
     2
274
     3
278
    44
283
     0
284
     8
340
11
  0
ENDTAB
  0
TABLE
  2
BLOCK_RECORD
  5
1
330
0
100
AcDbSymbolTable
 70
    31
  0
BLOCK_RECORD
  5
1F
102
{ACAD_XDICTIONARY
360
8F
102
}
330
1
100
AcDbSymbolTableRecord
100
AcDbBlockTableRecord
  2
*Model_Space
340
22
  0
BLOCK_RECORD
  5
1B
330
1
100
AcDbSymbolTableRecord
100
AcDbBlockTableRecord
  2
*Paper_Space
340
1E
  0
BLOCK_RECORD
  5
23
330
1
100
AcDbSymbolTableRecord
100
AcDbBlockTableRecord
  2
*Paper_Space0
340
26
  0
BLOCK_RECORD
  5
87
330
1
100
AcDbSymbolTableRecord
100
AcDbBlockTableRecord
  2
GENAXEH
340
0
  0
BLOCK_RECORD
  5
38B2
330
1
100
AcDbSymbolTableRecord
100
AcDbBlockTableRecord
  2
*D2
340
0
  0
BLOCK_RECORD
  5
38D8
330
1
100
AcDbSymbolTableRecord
100
AcDbBlockTableRecord
  2
*D3
340
0
  0
BLOCK_RECORD
  5
38FE
330
1
100
AcDbSymbolTableRecord
100
AcDbBlockTableRecord
  2
*D4
340
0
  0
BLOCK_RECORD
  5
3928
330
1
100
AcDbSymbolTableRecord
100
AcDbBlockTableRecord
  2
*D5
340
0
  0
BLOCK_RECORD
  5
394E
330
1
100
AcDbSymbolTableRecord
100
AcDbBlockTableRecord
  2
*D6
340
0
  0
BLOCK_RECORD
  5
39C4
330
1
100
AcDbSymbolTableRecord
100
AcDbBlockTableRecord
  2
*D9
340
0
  0
BLOCK_RECORD
  5
3A10
330
1
100
AcDbSymbolTableRecord
100
AcDbBlockTableRecord
  2
*D11
340
0
  0
BLOCK_RECORD
  5
3A72
330
1
100
AcDbSymbolTableRecord
100
AcDbBlockTableRecord
  2
*D13
340
0
  0
BLOCK_RECORD
  5
3CD9
330
1
100
AcDbSymbolTableRecord
100
AcDbBlockTableRecord
  2
*D14
340
0
  0
BLOCK_RECORD
  5
3D17
330
1
100
AcDbSymbolTableRecord
100
AcDbBlockTableRecord
  2
*D15
340
0
  0
BLOCK_RECORD
  5
3DA5
330
1
100
AcDbSymbolTableRecord
100
AcDbBlockTableRecord
  2
*D17
340
0
  0
BLOCK_RECORD
  5
478A
330
1
100
AcDbSymbolTableRecord
100
AcDbBlockTableRecord
  2
*D19
340
0
  0
BLOCK_RECORD
  5
86D5
330
1
100
AcDbSymbolTableRecord
100
AcDbBlockTableRecord
  2
*S20
340
0
102
{BLKREFS
331
3A8C
102
}
  0
BLOCK_RECORD
  5
86DD
330
1
100
AcDbSymbolTableRecord
100
AcDbBlockTableRecord
  2
*S21
340
0
102
{BLKREFS
331
93B8
102
}
  0
BLOCK_RECORD
  5
86E5
330
1
100
AcDbSymbolTableRecord
100
AcDbBlockTableRecord
  2
*S22
340
0
102
{BLKREFS
331
3CC2
102
}
  0
BLOCK_RECORD
  5
937B
330
1
100
AcDbSymbolTableRecord
100
AcDbBlockTableRecord
  2
*D26
340
0
  0
BLOCK_RECORD
  5
93BE
330
1
100
AcDbSymbolTableRecord
100
AcDbBlockTableRecord
  2
*D27
340
0
  0
BLOCK_RECORD
  5
93CA
330
1
100
AcDbSymbolTableRecord
100
AcDbBlockTableRecord
  2
*D28
340
0
  0
BLOCK_RECORD
  5
93D6
330
1
100
AcDbSymbolTableRecord
100
AcDbBlockTableRecord
  2
*D29
340
0
  0
BLOCK_RECORD
  5
93E2
330
1
100
AcDbSymbolTableRecord
100
AcDbBlockTableRecord
  2
*D30
340
0
  0
ENDTAB
  0
ENDSEC
  0
SECTION
  2
BLOCKS
  0
BLOCK
  5
20
330
1F
100
AcDbEntity
  8
0
100
AcDbBlockBegin
  2
*Model_Space
 70
     0
 10
0.0
 20
0.0
 30
0.0
  3
*Model_Space
  1

  0
ENDBLK
  5
21
330
1F
100
AcDbEntity
  8
0
100
AcDbBlockEnd
  0
BLOCK
  5
1C
330
1B
100
AcDbEntity
 67
     1
  8
0
100
AcDbBlockBegin
  2
*Paper_Space
 70
     0
 10
0.0
 20
0.0
 30
0.0
  3
*Paper_Space
  1

  0
ENDBLK
  5
1D
330
1B
100
AcDbEntity
 67
     1
  8
0
100
AcDbBlockEnd
  0
BLOCK
  5
24
330
23
100
AcDbEntity
  8
0
100
AcDbBlockBegin
  2
*Paper_Space0
 70
     0
 10
0.0
 20
0.0
 30
0.0
  3
*Paper_Space0
  1

  0
ENDBLK
  5
25
330
23
100
AcDbEntity
  8
0
100
AcDbBlockEnd
  0
BLOCK
  5
89
330
87
100
AcDbEntity
  8
0
100
AcDbBlockBegin
  2
GENAXEH
 70
     0
 10
0.0
 20
0.0
 30
0.0
  3
GENAXEH
  1

  0
LINE
  5
88
330
87
100
AcDbEntity
  8
0
100
AcDbLine
 10
-1.0
 20
0.0
 30
0.0
 11
1.0
 21
0.0
 31
0.0
  0
ENDBLK
  5
8A
330
87
100
AcDbEntity
  8
0
100
AcDbBlockEnd
  0
BLOCK
  5
38BC
330
38B2
100
AcDbEntity
  8
0
100
AcDbBlockBegin
  2
*D2
 70
     1
 10
0.0
 20
0.0
 30
0.0
  3
*D2
  1

  0
LINE
  5
97F0
330
38B2
100
AcDbEntity
  8
AM_5
100
AcDbLine
 10
856.7506177516188
 20
246.1277720664372
 30
0.0
 11
856.7506177516188
 21
231.6277719051606
 31
0.0
  0
LINE
  5
97F1
330
38B2
100
AcDbEntity
  8
AM_5
100
AcDbLine
 10
871.7506177516186
 20
243.1277720664372
 30
0.0
 11
871.7506177516186
 21
231.6277719051606
 31
0.0
  0
LINE
  5
97F2
330
38B2
100
AcDbEntity
  8
AM_5
100
AcDbLine
 10
860.3506177516187
 20
233.4277719051606
 30
0.0
 11
868.1506177516187
 21
233.4277719051606
 31
0.0
  0
SOLID
  5
97F3
330
38B2
100
AcDbEntity
  8
AM_5
100
AcDbTrace
 10
860.3506177516187
 20
234.0277719051606
 30
0.0
 11
860.3506177516187
 21
232.8277719051606
 31
0.0
 12
856.7506177516188
 22
233.4277719051606
 32
0.0
 13
856.7506177516188
 23
233.4277719051606
 33
0.0
  0
SOLID
  5
97F4
330
38B2
100
AcDbEntity
  8
AM_5
100
AcDbTrace
 10
868.1506177516187
 20
234.0277719051606
 30
0.0
 11
868.1506177516187
 21
232.8277719051606
 31
0.0
 12
871.7506177516186
 22
233.4277719051606
 32
0.0
 13
871.7506177516186
 23
233.4277719051606
 33
0.0
  0
MTEXT
  5
97F5
330
38B2
100
AcDbEntity
  8
AM_5
100
AcDbMText
 10
864.2506177516187
 20
236.7277719051606
 30
0.0
 40
4.2
 41
0.0
 71
     5
 72
     1
  1
15
 73
     1
 44
1.0
1001
ACAD
1000
MTEXTBEGIN
1070
    73
1070
     1
1070
    44
1040
1.0
1070
    74
1070
     0
1000
MTEXTEND
  0
POINT
  5
97F6
330
38B2
100
AcDbEntity
  8
Defpoints
 62
     0
100
AcDbPoint
 10
856.7506177516188
 20
247.9277720664372
 30
0.0
  0
POINT
  5
97F7
330
38B2
100
AcDbEntity
  8
Defpoints
 62
     0
100
AcDbPoint
 10
871.7506177516186
 20
244.9277720664372
 30
0.0
  0
POINT
  5
97F8
330
38B2
100
AcDbEntity
  8
Defpoints
 62
     0
100
AcDbPoint
 10
871.7506177516186
 20
233.4277719051606
 30
0.0
  0
ENDBLK
  5
38BD
330
38B2
100
AcDbEntity
  8
0
100
AcDbBlockEnd
  0
BLOCK
  5
38E2
330
38D8
100
AcDbEntity
  8
0
100
AcDbBlockBegin
  2
*D3
 70
     1
 10
0.0
 20
0.0
 30
0.0
  3
*D3
  1

  0
LINE
  5
97F9
330
38D8
100
AcDbEntity
  8
AM_5
100
AcDbLine
 10
849.2506177516187
 20
266.0277720664372
 30
0.0
 11
849.2506177516187
 21
277.2277719051607
 31
0.0
  0
LINE
  5
97FA
330
38D8
100
AcDbEntity
  8
AM_5
100
AcDbLine
 10
879.2506177516187
 20
253.0277720664372
 30
0.0
 11
879.2506177516187
 21
277.2277719051607
 31
0.0
  0
LINE
  5
97FB
330
38D8
100
AcDbEntity
  8
AM_5
100
AcDbLine
 10
852.8506177516188
 20
275.4277719051607
 30
0.0
 11
875.6506177516186
 21
275.4277719051607
 31
0.0
  0
SOLID
  5
97FC
330
38D8
100
AcDbEntity
  8
AM_5
100
AcDbTrace
 10
852.8506177516188
 20
276.0277719051607
 30
0.0
 11
852.8506177516188
 21
274.8277719051607
 31
0.0
 12
849.2506177516187
 22
275.4277719051607
 32
0.0
 13
849.2506177516187
 23
275.4277719051607
 33
0.0
  0
SOLID
  5
97FD
330
38D8
100
AcDbEntity
  8
AM_5
100
AcDbTrace
 10
875.6506177516186
 20
276.0277719051607
 30
0.0
 11
875.6506177516186
 21
274.8277719051607
 31
0.0
 12
879.2506177516187
 22
275.4277719051607
 32
0.0
 13
879.2506177516187
 23
275.4277719051607
 33
0.0
  0
MTEXT
  5
97FE
330
38D8
100
AcDbEntity
  8
AM_5
100
AcDbMText
 10
864.2506177516187
 20
278.7277719051607
 30
0.0
 40
4.2
 41
0.0
 71
     5
 72
     1
  1
30
 73
     1
 44
1.0
1001
ACAD
1000
MTEXTBEGIN
1070
    73
1070
     1
1070
    44
1040
1.0
1070
    74
1070
     0
1000
MTEXTEND
  0
POINT
  5
97FF
330
38D8
100
AcDbEntity
  8
Defpoints
 62
     0
100
AcDbPoint
 10
849.2506177516187
 20
264.2277720664372
 30
0.0
  0
POINT
  5
9800
330
38D8
100
AcDbEntity
  8
Defpoints
 62
     0
100
AcDbPoint
 10
879.2506177516187
 20
251.2277720664372
 30
0.0
  0
POINT
  5
9801
330
38D8
100
AcDbEntity
  8
Defpoints
 62
     0
100
AcDbPoint
 10
879.2506177516187
 20
275.4277719051607
 30
0.0
  0
ENDBLK
  5
38E3
330
38D8
100
AcDbEntity
  8
0
100
AcDbBlockEnd
  0
BLOCK
  5
390A
330
38FE
100
AcDbEntity
  8
0
100
AcDbBlockBegin
  2
*D4
 70
     1
 10
0.0
 20
0.0
 30
0.0
  3
*D4
  1

  0
LINE
  5
9802
330
38FE
100
AcDbEntity
  8
AM_5
100
AcDbLine
 10
863.1506177516186
 20
251.7277720664372
 30
0.0
 11
824.4967234651287
 21
251.7277720664372
 31
0.0
  0
LINE
  5
9803
330
38FE
100
AcDbEntity
  8
AM_5
100
AcDbLine
 10
848.1506177516187
 20
254.7277720664372
 30
0.0
 11
824.4967234651287
 21
254.7277720664372
 31
0.0
  0
LINE
  5
9804
330
38FE
100
AcDbEntity
  8
AM_5
100
AcDbLine
 10
826.2967234651288
 20
258.3277720664372
 30
0.0
 11
826.2967234651288
 21
261.9277720664372
 31
0.0
  0
LINE
  5
9805
330
38FE
100
AcDbEntity
  8
AM_5
100
AcDbLine
 10
826.2967234651286
 20
248.1277720664372
 30
0.0
 11
826.2967234651286
 21
239.4737859086522
 31
0.0
  0
LINE
  5
9806
330
38FE
100
AcDbEntity
  8
AM_5
100
AcDbLine
 10
826.2967234651286
 20
254.7277720664372
 30
0.0
 11
826.2967234651286
 21
251.7277720664372
 31
0.0
  0
SOLID
  5
9807
330
38FE
100
AcDbEntity
  8
AM_5
100
AcDbTrace
 10
825.6967234651288
 20
258.3277720664372
 30
0.0
 11
826.8967234651288
 21
258.3277720664372
 31
0.0
 12
826.2967234651286
 22
254.7277720664372
 32
0.0
 13
826.2967234651286
 23
254.7277720664372
 33
0.0
  0
SOLID
  5
9808
330
38FE
100
AcDbEntity
  8
AM_5
100
AcDbTrace
 10
825.6967234651286
 20
248.1277720664372
 30
0.0
 11
826.8967234651286
 21
248.1277720664372
 31
0.0
 12
826.2967234651286
 22
251.7277720664372
 32
0.0
 13
826.2967234651286
 23
251.7277720664372
 33
0.0
  0
MTEXT
  5
9809
330
38FE
100
AcDbEntity
  8
AM_5
100
AcDbMText
 10
822.9967234651287
 20
241.6007707567506
 30
0.0
 40
4.2
 41
0.0
 71
     5
 72
     1
  1
3
 11
0.0000000000000001
 21
1.0
 31
0.0
 73
     1
 44
1.0
1001
ACAD
1000
MTEXTBEGIN
1070
    73
1070
     1
1070
    44
1040
1.0
1070
    74
1070
     0
1000
MTEXTEND
  0
POINT
  5
980A
330
38FE
100
AcDbEntity
  8
Defpoints
 62
     0
100
AcDbPoint
 10
864.9506177516187
 20
251.7277720664372
 30
0.0
  0
POINT
  5
980B
330
38FE
100
AcDbEntity
  8
Defpoints
 62
     0
100
AcDbPoint
 10
849.9506177516186
 20
254.7277720664372
 30
0.0
  0
POINT
  5
980C
330
38FE
100
AcDbEntity
  8
Defpoints
 62
     0
100
AcDbPoint
 10
826.2967234651286
 20
254.7277720664372
 30
0.0
  0
ENDBLK
  5
390B
330
38FE
100
AcDbEntity
  8
0
100
AcDbBlockEnd
  0
BLOCK
  5
3932
330
3928
100
AcDbEntity
  8
0
100
AcDbBlockBegin
  2
*D5
 70
     1
 10
0.0
 20
0.0
 30
0.0
  3
*D5
  1

  0
LINE
  5
980D
330
3928
100
AcDbEntity
  8
AM_5
100
AcDbLine
 10
872.9506177516187
 20
246.7277720664372
 30
0.0
 11
816.2449862396574
 21
246.7277720664372
 31
0.0
  0
LINE
  5
980E
330
3928
100
AcDbEntity
  8
AM_5
100
AcDbLine
 10
842.9506177516188
 20
259.7277720664372
 30
0.0
 11
816.2449862396574
 21
259.7277720664372
 31
0.0
  0
LINE
  5
980F
330
3928
100
AcDbEntity
  8
AM_5
100
AcDbLine
 10
818.0449862396573
 20
250.3277720664372
 30
0.0
 11
818.0449862396574
 21
256.1277720664372
 31
0.0
  0
SOLID
  5
9810
330
3928
100
AcDbEntity
  8
AM_5
100
AcDbTrace
 10
817.4449862396572
 20
250.3277720664372
 30
0.0
 11
818.6449862396573
 21
250.3277720664372
 31
0.0
 12
818.0449862396573
 22
246.7277720664372
 32
0.0
 13
818.0449862396573
 23
246.7277720664372
 33
0.0
  0
SOLID
  5
9811
330
3928
100
AcDbEntity
  8
AM_5
100
AcDbTrace
 10
817.4449862396574
 20
256.1277720664372
 30
0.0
 11
818.6449862396575
 21
256.1277720664372
 31
0.0
 12
818.0449862396574
 22
259.7277720664372
 32
0.0
 13
818.0449862396574
 23
259.7277720664372
 33
0.0
  0
MTEXT
  5
9812
330
3928
100
AcDbEntity
  8
AM_5
100
AcDbMText
 10
814.7449862396573
 20
253.2277720664373
 30
0.0
 40
4.2
 41
0.0
 71
     5
 72
     1
  1
13
 11
0.0000000000000001
 21
1.0
 31
0.0
 73
     1
 44
1.0
1001
ACAD
1000
MTEXTBEGIN
1070
    73
1070
     1
1070
    44
1040
1.0
1070
    74
1070
     0
1000
MTEXTEND
  0
POINT
  5
9813
330
3928
100
AcDbEntity
  8
Defpoints
 62
     0
100
AcDbPoint
 10
874.7506177516187
 20
246.7277720664372
 30
0.0
  0
POINT
  5
9814
330
3928
100
AcDbEntity
  8
Defpoints
 62
     0
100
AcDbPoint
 10
844.7506177516187
 20
259.7277720664372
 30
0.0
  0
POINT
  5
9815
330
3928
100
AcDbEntity
  8
Defpoints
 62
     0
100
AcDbPoint
 10
818.0449862396574
 20
259.7277720664372
 30
0.0
  0
ENDBLK
  5
3933
330
3928
100
AcDbEntity
  8
0
100
AcDbBlockEnd
  0
BLOCK
  5
3958
330
394E
100
AcDbEntity
  8
0
100
AcDbBlockBegin
  2
*D6
 70
     1
 10
0.0
 20
0.0
 30
0.0
  3
*D6
  1

  0
LINE
  5
9816
330
394E
100
AcDbEntity
  8
AM_5
100
AcDbLine
 10
857.2506177516187
 20
163.7152443510145
 30
0.0
 11
857.2506177516187
 21
151.3152441349477
 31
0.0
  0
LINE
  5
9817
330
394E
100
AcDbEntity
  8
AM_5
100
AcDbLine
 10
871.2506177516187
 20
163.7152443510145
 30
0.0
 11
871.2506177516187
 21
151.3152441349477
 31
0.0
  0
LINE
  5
9818
330
394E
100
AcDbEntity
  8
AM_5
100
AcDbLine
 10
860.8506177516188
 20
153.1152441349477
 30
0.0
 11
867.6506177516186
 21
153.1152441349477
 31
0.0
  0
SOLID
  5
9819
330
394E
100
AcDbEntity
  8
AM_5
100
AcDbTrace
 10
860.8506177516188
 20
153.7152441349477
 30
0.0
 11
860.8506177516188
 21
152.5152441349477
 31
0.0
 12
857.2506177516187
 22
153.1152441349477
 32
0.0
 13
857.2506177516187
 23
153.1152441349477
 33
0.0
  0
SOLID
  5
981A
330
394E
100
AcDbEntity
  8
AM_5
100
AcDbTrace
 10
867.6506177516186
 20
153.7152441349477
 30
0.0
 11
867.6506177516186
 21
152.5152441349477
 31
0.0
 12
871.2506177516187
 22
153.1152441349477
 32
0.0
 13
871.2506177516187
 23
153.1152441349477
 33
0.0
  0
MTEXT
  5
981B
330
394E
100
AcDbEntity
  8
AM_5
100
AcDbMText
 10
864.2506177516187
 20
156.4152441349477
 30
0.0
 40
4.2
 41
0.0
 71
     5
 72
     1
  1
14
 73
     1
 44
1.0
1001
ACAD
1000
MTEXTBEGIN
1070
    73
1070
     1
1070
    44
1040
1.0
1070
    74
1070
     0
1000
MTEXTEND
  0
POINT
  5
981C
330
394E
100
AcDbEntity
  8
Defpoints
 62
     0
100
AcDbPoint
 10
857.2506177516187
 20
165.5152443510145
 30
0.0
  0
POINT
  5
981D
330
394E
100
AcDbEntity
  8
Defpoints
 62
     0
100
AcDbPoint
 10
871.2506177516187
 20
165.5152443510145
 30
0.0
  0
POINT
  5
981E
330
394E
100
AcDbEntity
  8
Defpoints
 62
     0
100
AcDbPoint
 10
871.2506177516187
 20
153.1152441349477
 30
0.0
  0
ENDBLK
  5
3959
330
394E
100
AcDbEntity
  8
0
100
AcDbBlockEnd
  0
BLOCK
  5
39CE
330
39C4
100
AcDbEntity
  8
0
100
AcDbBlockBegin
  2
*D9
 70
     1
 10
0.0
 20
0.0
 30
0.0
  3
*D9
  1

  0
LINE
  5
981F
330
39C4
100
AcDbEntity
  8
AM_5
100
AcDbLine
 10
904.5506175430023
 20
165.1152440008372
 30
0.0
 11
965.3006183476652
 21
165.1152440008372
 31
0.0
  0
LINE
  5
9820
330
39C4
100
AcDbEntity
  8
AM_5
100
AcDbLine
 10
944.8006171555721
 20
220.0152448040098
 30
0.0
 11
965.3006183476652
 21
220.0152448040098
 31
0.0
  0
LINE
  5
9821
330
39C4
100
AcDbEntity
  8
AM_5
100
AcDbLine
 10
963.5006183476651
 20
168.7152440008372
 30
0.0
 11
963.5006183476651
 21
216.4152448040098
 31
0.0
  0
SOLID
  5
9822
330
39C4
100
AcDbEntity
  8
AM_5
100
AcDbTrace
 10
962.9006183476651
 20
168.7152440008372
 30
0.0
 11
964.1006183476651
 21
168.7152440008372
 31
0.0
 12
963.5006183476651
 22
165.1152440008372
 32
0.0
 13
963.5006183476651
 23
165.1152440008372
 33
0.0
  0
SOLID
  5
9823
330
39C4
100
AcDbEntity
  8
AM_5
100
AcDbTrace
 10
962.9006183476651
 20
216.4152448040098
 30
0.0
 11
964.1006183476651
 21
216.4152448040098
 31
0.0
 12
963.5006183476651
 22
220.0152448040098
 32
0.0
 13
963.5006183476651
 23
220.0152448040098
 33
0.0
  0
MTEXT
  5
9824
330
39C4
100
AcDbEntity
  8
AM_5
100
AcDbMText
 10
960.2006183476651
 20
192.5652444024237
 30
0.0
 40
4.2
 41
0.0
 71
     5
 72
     1
  1
55
 11
0.0000000000000001
 21
1.0
 31
0.0
 73
     1
 44
1.0
1001
ACAD
1000
MTEXTBEGIN
1070
    73
1070
     1
1070
    44
1040
1.0
1070
    74
1070
     0
1000
MTEXTEND
  0
POINT
  5
9825
330
39C4
100
AcDbEntity
  8
Defpoints
 62
     0
100
AcDbPoint
 10
902.7506175430024
 20
165.1152440008372
 30
0.0
  0
POINT
  5
9826
330
39C4
100
AcDbEntity
  8
Defpoints
 62
     0
100
AcDbPoint
 10
943.0006171555723
 20
220.0152448040098
 30
0.0
  0
POINT
  5
9827
330
39C4
100
AcDbEntity
  8
Defpoints
 62
     0
100
AcDbPoint
 10
963.5006183476651
 20
220.0152448040098
 30
0.0
  0
ENDBLK
  5
39CF
330
39C4
100
AcDbEntity
  8
0
100
AcDbBlockEnd
  0
BLOCK
  5
3A1A
330
3A10
100
AcDbEntity
  8
0
100
AcDbBlockBegin
  2
*D11
 70
     1
 10
0.0
 20
0.0
 30
0.0
  3
*D11
  1

  0
LINE
  5
9828
330
3A10
100
AcDbEntity
  8
AM_5
100
AcDbLine
 10
831.7506171972956
 20
263.5277720664372
 30
0.0
 11
831.7506171972956
 21
286.2277719051609
 31
0.0
  0
LINE
  5
9829
330
3A10
100
AcDbEntity
  8
AM_5
100
AcDbLine
 10
949.4006211848462
 20
262.4467230860819
 30
0.0
 11
949.4006211848462
 21
286.2277719051609
 31
0.0
  0
LINE
  5
982A
330
3A10
100
AcDbEntity
  8
AM_5
100
AcDbLine
 10
835.3506171972956
 20
284.4277719051609
 30
0.0
 11
945.8006211848463
 21
284.4277719051609
 31
0.0
  0
SOLID
  5
982B
330
3A10
100
AcDbEntity
  8
AM_5
100
AcDbTrace
 10
835.3506171972956
 20
285.0277719051609
 30
0.0
 11
835.3506171972956
 21
283.8277719051609
 31
0.0
 12
831.7506171972956
 22
284.4277719051609
 32
0.0
 13
831.7506171972956
 23
284.4277719051609
 33
0.0
  0
SOLID
  5
982C
330
3A10
100
AcDbEntity
  8
AM_5
100
AcDbTrace
 10
945.8006211848463
 20
285.0277719051609
 30
0.0
 11
945.8006211848463
 21
283.8277719051609
 31
0.0
 12
949.4006211848462
 22
284.4277719051609
 32
0.0
 13
949.4006211848462
 23
284.4277719051609
 33
0.0
  0
MTEXT
  5
982D
330
3A10
100
AcDbEntity
  8
AM_5
100
AcDbMText
 10
890.5756191910709
 20
287.7277719051609
 30
0.0
 40
4.2
 41
0.0
 71
     5
 72
     1
  1
117.7
 73
     1
 44
1.0
1001
ACAD
1000
MTEXTBEGIN
1070
    73
1070
     1
1070
    44
1040
1.0
1070
    74
1070
     0
1000
MTEXTEND
  0
POINT
  5
982E
330
3A10
100
AcDbEntity
  8
Defpoints
 62
     0
100
AcDbPoint
 10
831.7506171972956
 20
261.7277720664372
 30
0.0
  0
POINT
  5
982F
330
3A10
100
AcDbEntity
  8
Defpoints
 62
     0
100
AcDbPoint
 10
949.4006211848462
 20
260.6467230860819
 30
0.0
  0
POINT
  5
9830
330
3A10
100
AcDbEntity
  8
Defpoints
 62
     0
100
AcDbPoint
 10
949.4006211848462
 20
284.4277719051609
 30
0.0
  0
ENDBLK
  5
3A1B
330
3A10
100
AcDbEntity
  8
0
100
AcDbBlockEnd
  0
BLOCK
  5
3A7C
330
3A72
100
AcDbEntity
  8
0
100
AcDbBlockBegin
  2
*D13
 70
     1
 10
0.0
 20
0.0
 30
0.0
  3
*D13
  1

  0
LINE
  5
9831
330
3A72
100
AcDbEntity
  8
AM_5
100
AcDbLine
 10
831.7506171972956
 20
163.8152447011918
 30
0.0
 11
831.7506171972956
 21
142.3152441349478
 31
0.0
  0
LINE
  5
9832
330
3A72
100
AcDbEntity
  8
AM_5
100
AcDbLine
 10
941.7506183476652
 20
169.8152441349477
 30
0.0
 11
941.7506183476652
 21
142.3152441349478
 31
0.0
  0
LINE
  5
9833
330
3A72
100
AcDbEntity
  8
AM_5
100
AcDbLine
 10
835.3506171972956
 20
144.1152441349478
 30
0.0
 11
938.1506183476652
 21
144.1152441349478
 31
0.0
  0
SOLID
  5
9834
330
3A72
100
AcDbEntity
  8
AM_5
100
AcDbTrace
 10
835.3506171972956
 20
144.7152441349478
 30
0.0
 11
835.3506171972956
 21
143.5152441349478
 31
0.0
 12
831.7506171972956
 22
144.1152441349478
 32
0.0
 13
831.7506171972956
 23
144.1152441349478
 33
0.0
  0
SOLID
  5
9835
330
3A72
100
AcDbEntity
  8
AM_5
100
AcDbTrace
 10
938.1506183476652
 20
144.7152441349478
 30
0.0
 11
938.1506183476652
 21
143.5152441349478
 31
0.0
 12
941.7506183476652
 22
144.1152441349478
 32
0.0
 13
941.7506183476652
 23
144.1152441349478
 33
0.0
  0
MTEXT
  5
9836
330
3A72
100
AcDbEntity
  8
AM_5
100
AcDbMText
 10
886.7506177724804
 20
147.4152441349478
 30
0.0
 40
4.2
 41
0.0
 71
     5
 72
     1
  1
110
 73
     1
 44
1.0
1001
ACAD
1000
MTEXTBEGIN
1070
    73
1070
     1
1070
    44
1040
1.0
1070
    74
1070
     0
1000
MTEXTEND
  0
POINT
  5
9837
330
3A72
100
AcDbEntity
  8
Defpoints
 62
     0
100
AcDbPoint
 10
831.7506171972956
 20
165.6152447011918
 30
0.0
  0
POINT
  5
9838
330
3A72
100
AcDbEntity
  8
Defpoints
 62
     0
100
AcDbPoint
 10
941.7506183476652
 20
171.6152441349477
 30
0.0
  0
POINT
  5
9839
330
3A72
100
AcDbEntity
  8
Defpoints
 62
     0
100
AcDbPoint
 10
941.7506183476652
 20
144.1152441349478
 30
0.0
  0
ENDBLK
  5
3A7D
330
3A72
100
AcDbEntity
  8
0
100
AcDbBlockEnd
  0
BLOCK
  5
3CE3
330
3CD9
100
AcDbEntity
  8
0
100
AcDbBlockBegin
  2
*D14
 70
     1
 10
0.0
 20
0.0
 30
0.0
  3
*D14
  1

  0
LINE
  5
983A
330
3CD9
100
AcDbEntity
  8
AM_5
100
AcDbLine
 10
831.7506171972956
 20
163.8152447011918
 30
0.0
 11
831.7506171972956
 21
151.3152441349476
 31
0.0
  0
LINE
  5
983B
330
3CD9
100
AcDbEntity
  8
AM_5
100
AcDbLine
 10
857.2506177516187
 20
163.7152443510145
 30
0.0
 11
857.2506177516187
 21
151.3152441349476
 31
0.0
  0
LINE
  5
983C
330
3CD9
100
AcDbEntity
  8
AM_5
100
AcDbLine
 10
835.3506171972956
 20
153.1152441349477
 30
0.0
 11
853.6506177516187
 21
153.1152441349477
 31
0.0
  0
SOLID
  5
983D
330
3CD9
100
AcDbEntity
  8
AM_5
100
AcDbTrace
 10
835.3506171972956
 20
153.7152441349476
 30
0.0
 11
835.3506171972956
 21
152.5152441349477
 31
0.0
 12
831.7506171972956
 22
153.1152441349477
 32
0.0
 13
831.7506171972956
 23
153.1152441349477
 33
0.0
  0
SOLID
  5
983E
330
3CD9
100
AcDbEntity
  8
AM_5
100
AcDbTrace
 10
853.6506177516187
 20
153.7152441349476
 30
0.0
 11
853.6506177516187
 21
152.5152441349477
 31
0.0
 12
857.2506177516187
 22
153.1152441349477
 32
0.0
 13
857.2506177516187
 23
153.1152441349477
 33
0.0
  0
MTEXT
  5
983F
330
3CD9
100
AcDbEntity
  8
AM_5
100
AcDbMText
 10
844.5006174744571
 20
156.4156575207744
 30
0.0
 40
4.2
 41
0.0
 71
     5
 72
     1
  1
25.5
 73
     1
 44
1.0
1001
ACAD
1000
MTEXTBEGIN
1070
    73
1070
     1
1070
    44
1040
1.0
1070
    74
1070
     0
1000
MTEXTEND
  0
POINT
  5
9840
330
3CD9
100
AcDbEntity
  8
Defpoints
 62
     0
100
AcDbPoint
 10
831.7506171972956
 20
165.6152447011918
 30
0.0
  0
POINT
  5
9841
330
3CD9
100
AcDbEntity
  8
Defpoints
 62
     0
100
AcDbPoint
 10
857.2506177516187
 20
165.5152443510145
 30
0.0
  0
POINT
  5
9842
330
3CD9
100
AcDbEntity
  8
Defpoints
 62
     0
100
AcDbPoint
 10
857.2506177516187
 20
153.1152441349477
 30
0.0
  0
ENDBLK
  5
3CE4
330
3CD9
100
AcDbEntity
  8
0
100
AcDbBlockEnd
  0
BLOCK
  5
3D23
330
3D17
100
AcDbEntity
  8
0
100
AcDbBlockBegin
  2
*D15
 70
     1
 10
0.0
 20
0.0
 30
0.0
  3
*D15
  1

  0
LINE
  5
9843
330
3D17
100
AcDbEntity
  8
AM_5
100
AcDbLine
 10
874.4506178559269
 20
192.1152447011919
 30
0.0
 11
869.333812052662
 21
192.1152447011919
 31
0.0
  0
LINE
  5
9844
330
3D17
100
AcDbEntity
  8
AM_5
100
AcDbLine
 10
874.4506178559269
 20
189.1152442094535
 30
0.0
 11
869.333812052662
 21
189.1152442094535
 31
0.0
  0
LINE
  5
9845
330
3D17
100
AcDbEntity
  8
AM_5
100
AcDbLine
 10
871.1338120526619
 20
185.5152442094535
 30
0.0
 11
871.1338120526619
 21
181.9152442094535
 31
0.0
  0
LINE
  5
9846
330
3D17
100
AcDbEntity
  8
AM_5
100
AcDbLine
 10
871.1338120526619
 20
195.7152447011918
 30
0.0
 11
871.1338120526619
 21
203.5692143973885
 31
0.0
  0
LINE
  5
9847
330
3D17
100
AcDbEntity
  8
AM_5
100
AcDbLine
 10
871.1338120526619
 20
189.1152442094535
 30
0.0
 11
871.1338120526619
 21
192.1152447011919
 31
0.0
  0
SOLID
  5
9848
330
3D17
100
AcDbEntity
  8
AM_5
100
AcDbTrace
 10
870.5338120526619
 20
185.5152442094535
 30
0.0
 11
871.7338120526619
 21
185.5152442094535
 31
0.0
 12
871.1338120526619
 22
189.1152442094535
 32
0.0
 13
871.1338120526619
 23
189.1152442094535
 33
0.0
  0
SOLID
  5
9849
330
3D17
100
AcDbEntity
  8
AM_5
100
AcDbTrace
 10
870.5338120526619
 20
195.7152447011918
 30
0.0
 11
871.7338120526619
 21
195.7152447011918
 31
0.0
 12
871.1338120526619
 22
192.1152447011919
 32
0.0
 13
871.1338120526619
 23
192.1152447011919
 33
0.0
  0
MTEXT
  5
984A
330
3D17
100
AcDbEntity
  8
AM_5
100
AcDbMText
 10
867.8338120526619
 20
201.4422295492904
 30
0.0
 40
4.2
 41
0.0
 71
     5
 72
     1
  1
3
 11
0.0000000000000001
 21
1.0
 31
0.0
 73
     1
 44
1.0
1001
ACAD
1000
MTEXTBEGIN
1070
    73
1070
     1
1070
    44
1040
1.0
1070
    74
1070
     0
1000
MTEXTEND
  0
POINT
  5
984B
330
3D17
100
AcDbEntity
  8
Defpoints
 62
     0
100
AcDbPoint
 10
876.2506178559268
 20
192.1152447011919
 30
0.0
  0
POINT
  5
984C
330
3D17
100
AcDbEntity
  8
Defpoints
 62
     0
100
AcDbPoint
 10
876.2506178559268
 20
189.1152442094535
 30
0.0
  0
POINT
  5
984D
330
3D17
100
AcDbEntity
  8
Defpoints
 62
     0
100
AcDbPoint
 10
871.1338120526619
 20
189.1152442094535
 30
0.0
  0
ENDBLK
  5
3D24
330
3D17
100
AcDbEntity
  8
0
100
AcDbBlockEnd
  0
BLOCK
  5
3DAF
330
3DA5
100
AcDbEntity
  8
0
100
AcDbBlockBegin
  2
*D17
 70
     1
 10
0.0
 20
0.0
 30
0.0
  3
*D17
  1

  0
LINE
  5
984E
330
3DA5
100
AcDbEntity
  8
AM_5
100
AcDbLine
 10
831.7506171972956
 20
263.5277720664372
 30
0.0
 11
831.7506171972956
 21
277.2277719051607
 31
0.0
  0
LINE
  5
984F
330
3DA5
100
AcDbEntity
  8
AM_5
100
AcDbLine
 10
849.2506177516187
 20
266.0277720664372
 30
0.0
 11
849.2506177516187
 21
277.2277719051607
 31
0.0
  0
LINE
  5
9850
330
3DA5
100
AcDbEntity
  8
AM_5
100
AcDbLine
 10
835.3506171972956
 20
275.4277719051607
 30
0.0
 11
845.6506177516187
 21
275.4277719051607
 31
0.0
  0
SOLID
  5
9851
330
3DA5
100
AcDbEntity
  8
AM_5
100
AcDbTrace
 10
835.3506171972956
 20
276.0277719051607
 30
0.0
 11
835.3506171972956
 21
274.8277719051607
 31
0.0
 12
831.7506171972956
 22
275.4277719051607
 32
0.0
 13
831.7506171972956
 23
275.4277719051607
 33
0.0
  0
SOLID
  5
9852
330
3DA5
100
AcDbEntity
  8
AM_5
100
AcDbTrace
 10
845.6506177516187
 20
276.0277719051607
 30
0.0
 11
845.6506177516187
 21
274.8277719051607
 31
0.0
 12
849.2506177516187
 22
275.4277719051607
 32
0.0
 13
849.2506177516187
 23
275.4277719051607
 33
0.0
  0
MTEXT
  5
9853
330
3DA5
100
AcDbEntity
  8
AM_5
100
AcDbMText
 10
840.5006174744571
 20
278.7277719051607
 30
0.0
 40
4.2
 41
0.0
 71
     5
 72
     1
  1
17.5
 73
     1
 44
1.0
1001
ACAD
1000
MTEXTBEGIN
1070
    73
1070
     1
1070
    44
1040
1.0
1070
    74
1070
     0
1000
MTEXTEND
  0
POINT
  5
9854
330
3DA5
100
AcDbEntity
  8
Defpoints
 62
     0
100
AcDbPoint
 10
831.7506171972956
 20
261.7277720664372
 30
0.0
  0
POINT
  5
9855
330
3DA5
100
AcDbEntity
  8
Defpoints
 62
     0
100
AcDbPoint
 10
849.2506177516187
 20
264.2277720664372
 30
0.0
  0
POINT
  5
9856
330
3DA5
100
AcDbEntity
  8
Defpoints
 62
     0
100
AcDbPoint
 10
849.2506177516187
 20
275.4277719051607
 30
0.0
  0
ENDBLK
  5
3DB0
330
3DA5
100
AcDbEntity
  8
0
100
AcDbBlockEnd
  0
BLOCK
  5
4794
330
478A
100
AcDbEntity
  8
0
100
AcDbBlockBegin
  2
*D19
 70
     1
 10
0.0
 20
0.0
 30
0.0
  3
*D19
  1

  0
LINE
  5
9857
330
478A
100
AcDbEntity
  8
AM_5
100
AcDbLine
 10
831.7506171972956
 20
243.3281473921617
 30
0.0
 11
831.7506171972956
 21
231.6277719051606
 31
0.0
  0
LINE
  5
9858
330
478A
100
AcDbEntity
  8
AM_5
100
AcDbLine
 10
856.7506177516188
 20
246.1277720664372
 30
0.0
 11
856.7506177516188
 21
231.6277719051606
 31
0.0
  0
LINE
  5
9859
330
478A
100
AcDbEntity
  8
AM_5
100
AcDbLine
 10
835.3506171972956
 20
233.4277719051606
 30
0.0
 11
853.1506177516186
 21
233.4277719051606
 31
0.0
  0
SOLID
  5
985A
330
478A
100
AcDbEntity
  8
AM_5
100
AcDbTrace
 10
835.3506171972956
 20
234.0277719051606
 30
0.0
 11
835.3506171972956
 21
232.8277719051606
 31
0.0
 12
831.7506171972956
 22
233.4277719051606
 32
0.0
 13
831.7506171972956
 23
233.4277719051606
 33
0.0
  0
SOLID
  5
985B
330
478A
100
AcDbEntity
  8
AM_5
100
AcDbTrace
 10
853.1506177516186
 20
234.0277719051606
 30
0.0
 11
853.1506177516186
 21
232.8277719051606
 31
0.0
 12
856.7506177516188
 22
233.4277719051606
 32
0.0
 13
856.7506177516188
 23
233.4277719051606
 33
0.0
  0
MTEXT
  5
985C
330
478A
100
AcDbEntity
  8
AM_5
100
AcDbMText
 10
844.2506174744572
 20
236.7281852909874
 30
0.0
 40
4.2
 41
0.0
 71
     5
 72
     1
  1
25
 73
     1
 44
1.0
1001
ACAD
1000
MTEXTBEGIN
1070
    73
1070
     1
1070
    44
1040
1.0
1070
    74
1070
     0
1000
MTEXTEND
  0
POINT
  5
985D
330
478A
100
AcDbEntity
  8
Defpoints
 62
     0
100
AcDbPoint
 10
831.7506171972956
 20
245.1281473921616
 30
0.0
  0
POINT
  5
985E
330
478A
100
AcDbEntity
  8
Defpoints
 62
     0
100
AcDbPoint
 10
856.7506177516188
 20
247.9277720664372
 30
0.0
  0
POINT
  5
985F
330
478A
100
AcDbEntity
  8
Defpoints
 62
     0
100
AcDbPoint
 10
856.7506177516188
 20
233.4277719051606
 30
0.0
  0
ENDBLK
  5
4795
330
478A
100
AcDbEntity
  8
0
100
AcDbBlockEnd
  0
BLOCK
  5
86DA
330
86D5
100
AcDbEntity
  8
0
100
AcDbBlockBegin
  2
*S20
 70
     1
 10
0.0
 20
0.0
 30
0.0
  3
*S20
  1

  0
LINE
  5
86D6
330
86D5
100
AcDbEntity
  8
AM_5
 62
     5
100
AcDbLine
 10
912.3859810164328
 20
270.2810559702348
 30
0.0
 11
882.3214023196273
 21
270.2810559702348
 31
0.0
  0
LINE
  5
86D7
330
86D5
100
AcDbEntity
  8
AM_5
 62
     5
100
AcDbLine
 10
882.3214023196273
 20
270.2810559702348
 30
0.0
 11
875.7605961190003
 21
262.6221712237734
 31
0.0
  0
TRACE
  5
86D8
330
86D5
100
AcDbEntity
  8
AM_5
 62
     5
370
    35
100
AcDbTrace
 10
875.3406653497089
 20
262.9818951896255
 30
0.0
 11
876.180526888292
 21
262.2624472579212
 31
0.0
 12
873.0282213137421
 22
259.4324803416362
 32
0.0
 13
873.0282213137421
 23
259.4324803416362
 33
0.0
  0
MTEXT
  5
86D9
330
86D5
100
AcDbEntity
  8
AM_5
 62
     5
100
AcDbMText
 10
912.3859810164328
 20
263.443236843958
 30
0.0
 40
4.2
 41
0.0
 71
     7
 72
     5
  1

  7
ACISOTS
 73
     1
 44
1.0
1001
ACAD
1000
MTEXTBEGIN
1070
    73
1070
     1
1070
    44
1040
1.0
1070
    74
1070
     0
1000
MTEXTEND
  0
ENDBLK
  5
86DB
330
86D5
100
AcDbEntity
  8
0
100
AcDbBlockEnd
  0
BLOCK
  5
86E2
330
86DD
100
AcDbEntity
  8
0
100
AcDbBlockBegin
  2
*S21
 70
     1
 10
0.0
 20
0.0
 30
0.0
  3
*S21
  1

  0
LINE
  5
86DE
330
86DD
100
AcDbEntity
  8
AM_5
 62
     5
100
AcDbLine
 10
909.5275747919352
 20
98.71030330624918
 30
0.0
 11
886.3805461261589
 21
98.71030330624918
 31
0.0
  0
LINE
  5
86DF
330
86DD
100
AcDbEntity
  8
AM_5
 62
     5
100
AcDbLine
 10
886.3805461261589
 20
98.71030330624918
 30
0.0
 11
875.0718298443008
 21
114.1057976799141
 31
0.0
  0
TRACE
  5
86E0
330
86DD
100
AcDbEntity
  8
AM_5
 62
     5
370
    35
100
AcDbTrace
 10
875.5174657269238
 20
114.4331382406836
 30
0.0
 11
874.6261939616777
 21
113.7784571191445
 31
0.0
 12
872.5854314224802
 22
117.4907382832287
 32
0.0
 13
872.5854314224802
 23
117.4907382832287
 33
0.0
  0
MTEXT
  5
86E1
330
86DD
100
AcDbEntity
  8
AM_5
 62
     5
100
AcDbMText
 10
909.5275747919352
 20
106.6171743451742
 30
0.0
 40
4.2
 41
0.0
 71
     7
 72
     5
  1

  7
ACISOTS
 73
     1
 44
1.0
1001
ACAD
1000
MTEXTBEGIN
1070
    73
1070
     1
1070
    44
1040
1.0
1070
    74
1070
     0
1000
MTEXTEND
  0
ENDBLK
  5
86E3
330
86DD
100
AcDbEntity
  8
0
100
AcDbBlockEnd
  0
BLOCK
  5
86EA
330
86E5
100
AcDbEntity
  8
0
100
AcDbBlockBegin
  2
*S22
 70
     1
 10
0.0
 20
0.0
 30
0.0
  3
*S22
  1

  0
LINE
  5
86E6
330
86E5
100
AcDbEntity
  8
AM_5
 62
     5
100
AcDbLine
 10
902.2932054820765
 20
153.3941155047621
 30
0.0
 11
872.2286267852709
 21
153.3941155047621
 31
0.0
  0
LINE
  5
86E7
330
86E5
100
AcDbEntity
  8
AM_5
 62
     5
100
AcDbLine
 10
872.2286267852709
 20
153.3941155047621
 30
0.0
 11
865.5434009099968
 21
163.7874364853014
 31
0.0
  0
TRACE
  5
86E8
330
86E5
100
AcDbEntity
  8
AM_5
 62
     5
370
    35
100
AcDbTrace
 10
866.008445082015
 20
164.0865637168902
 30
0.0
 11
865.0783567379786
 21
163.4883092537126
 31
0.0
 12
863.271304000291
 22
167.3197976832687
 32
0.0
 13
863.271304000291
 23
167.3197976832687
 33
0.0
  0
MTEXT
  5
86E9
330
86E5
100
AcDbEntity
  8
AM_5
 62
     5
100
AcDbMText
 10
902.2932054820765
 20
146.5562963784853
 30
0.0
 40
4.2
 41
0.0
 71
     7
 72
     5
  1

  7
ACISOTS
 73
     1
 44
1.0
1001
ACAD
1000
MTEXTBEGIN
1070
    73
1070
     1
1070
    44
1040
1.0
1070
    74
1070
     0
1000
MTEXTEND
  0
ENDBLK
  5
86EB
330
86E5
100
AcDbEntity
  8
0
100
AcDbBlockEnd
  0
BLOCK
  5
9385
330
937B
100
AcDbEntity
  8
0
100
AcDbBlockBegin
  2
*D26
 70
     1
 10
0.0
 20
0.0
 30
0.0
  3
*D26
  1

  0
LINE
  5
9860
330
937B
100
AcDbEntity
  8
AM_5
100
AcDbLine
 10
830.4506171972956
 20
165.1152447011919
 30
0.0
 11
816.2449862396574
 21
165.1152447011919
 31
0.0
  0
LINE
  5
9861
330
937B
100
AcDbEntity
  8
AM_5
100
AcDbLine
 10
830.4506171972956
 20
192.1152447011919
 30
0.0
 11
816.2449862396574
 21
192.1152447011919
 31
0.0
  0
LINE
  5
9862
330
937B
100
AcDbEntity
  8
AM_5
100
AcDbLine
 10
818.0449862396573
 20
168.7152447011919
 30
0.0
 11
818.0449862396573
 21
188.5152447011919
 31
0.0
  0
SOLID
  5
9863
330
937B
100
AcDbEntity
  8
AM_5
100
AcDbTrace
 10
817.4449862396572
 20
168.7152447011919
 30
0.0
 11
818.6449862396573
 21
168.7152447011919
 31
0.0
 12
818.0449862396573
 22
165.1152447011919
 32
0.0
 13
818.0449862396573
 23
165.1152447011919
 33
0.0
  0
SOLID
  5
9864
330
937B
100
AcDbEntity
  8
AM_5
100
AcDbTrace
 10
817.4449862396572
 20
188.5152447011919
 30
0.0
 11
818.6449862396573
 21
188.5152447011919
 31
0.0
 12
818.0449862396573
 22
192.1152447011919
 32
0.0
 13
818.0449862396573
 23
192.1152447011919
 33
0.0
  0
MTEXT
  5
9865
330
937B
100
AcDbEntity
  8
AM_5
100
AcDbMText
 10
814.7445728538304
 20
178.615244701192
 30
0.0
 40
4.2
 41
0.0
 71
     5
 72
     1
  1
27
 11
0.0000000000000001
 21
1.0
 31
0.0
 73
     1
 44
1.0
1001
ACAD
1000
MTEXTBEGIN
1070
    73
1070
     1
1070
    44
1040
1.0
1070
    74
1070
     0
1000
MTEXTEND
  0
POINT
  5
9866
330
937B
100
AcDbEntity
  8
Defpoints
 62
     0
100
AcDbPoint
 10
832.2506171972955
 20
165.1152447011918
 30
0.0
  0
POINT
  5
9867
330
937B
100
AcDbEntity
  8
Defpoints
 62
     0
100
AcDbPoint
 10
832.2506171972955
 20
192.1152447011919
 30
0.0
  0
POINT
  5
9868
330
937B
100
AcDbEntity
  8
Defpoints
 62
     0
100
AcDbPoint
 10
818.0449862396573
 20
192.1152447011919
 30
0.0
  0
ENDBLK
  5
9386
330
937B
100
AcDbEntity
  8
0
100
AcDbBlockEnd
  0
BLOCK
  5
93C8
330
93BE
100
AcDbEntity
  8
0
100
AcDbBlockBegin
  2
*D27
 70
     1
 10
0.0
 20
0.0
 30
0.0
  3
*D27
  1

  0
LINE
  5
9872
330
93BE
100
AcDbEntity
  8
AM_5
100
AcDbLine
 10
830.450617749963
 20
103.3469295357038
 30
0.0
 11
816.8449862396574
 21
103.3469295357038
 31
0.0
  0
LINE
  5
9873
330
93BE
100
AcDbEntity
  8
AM_5
100
AcDbLine
 10
830.4506177069153
 20
121.3469295357038
 30
0.0
 11
816.8449862396574
 21
121.3469295357038
 31
0.0
  0
LINE
  5
9874
330
93BE
100
AcDbEntity
  8
AM_5
100
AcDbLine
 10
818.6449862396573
 20
106.9469295357038
 30
0.0
 11
818.6449862396573
 21
117.7469295357038
 31
0.0
  0
SOLID
  5
9875
330
93BE
100
AcDbEntity
  8
AM_5
100
AcDbTrace
 10
818.0449862396573
 20
106.9469295357038
 30
0.0
 11
819.2449862396573
 21
106.9469295357038
 31
0.0
 12
818.6449862396573
 22
103.3469295357038
 32
0.0
 13
818.6449862396573
 23
103.3469295357038
 33
0.0
  0
SOLID
  5
9876
330
93BE
100
AcDbEntity
  8
AM_5
100
AcDbTrace
 10
818.0449862396573
 20
117.7469295357038
 30
0.0
 11
819.2449862396573
 21
117.7469295357038
 31
0.0
 12
818.6449862396573
 22
121.3469295357038
 32
0.0
 13
818.6449862396573
 23
121.3469295357038
 33
0.0
  0
MTEXT
  5
9877
330
93BE
100
AcDbEntity
  8
AM_5
100
AcDbMText
 10
815.3449862396573
 20
112.3469295357039
 30
0.0
 40
4.2
 41
0.0
 71
     5
 72
     1
  1
18
 11
0.0000000000000001
 21
1.0
 31
0.0
 73
     1
 44
1.0
1001
ACAD
1000
MTEXTBEGIN
1070
    73
1070
     1
1070
    44
1040
1.0
1070
    74
1070
     0
1000
MTEXTEND
  0
POINT
  5
9878
330
93BE
100
AcDbEntity
  8
Defpoints
 62
     0
100
AcDbPoint
 10
832.2506177499629
 20
103.3469295357038
 30
0.0
  0
POINT
  5
9879
330
93BE
100
AcDbEntity
  8
Defpoints
 62
     0
100
AcDbPoint
 10
832.2506177069152
 20
121.3469295357038
 30
0.0
  0
POINT
  5
987A
330
93BE
100
AcDbEntity
  8
Defpoints
 62
     0
100
AcDbPoint
 10
818.6449862396573
 20
121.3469295357038
 30
0.0
  0
ENDBLK
  5
93C9
330
93BE
100
AcDbEntity
  8
0
100
AcDbBlockEnd
  0
BLOCK
  5
93D4
330
93CA
100
AcDbEntity
  8
0
100
AcDbBlockBegin
  2
*D28
 70
     1
 10
0.0
 20
0.0
 30
0.0
  3
*D28
  1

  0
LINE
  5
987B
330
93CA
100
AcDbEntity
  8
AM_5
100
AcDbLine
 10
864.2506177516187
 20
103.746929923134
 30
0.0
 11
864.2506177516187
 21
89.54692992313411
 31
0.0
  0
LINE
  5
987C
330
93CA
100
AcDbEntity
  8
AM_5
100
AcDbLine
 10
878.2506177516188
 20
102.746929923134
 30
0.0
 11
878.2506177516188
 21
89.54692992313411
 31
0.0
  0
LINE
  5
987D
330
93CA
100
AcDbEntity
  8
AM_5
100
AcDbLine
 10
867.8506177516187
 20
91.34692992313411
 30
0.0
 11
874.6506177516186
 21
91.34692992313411
 31
0.0
  0
SOLID
  5
987E
330
93CA
100
AcDbEntity
  8
AM_5
100
AcDbTrace
 10
867.8506177516187
 20
91.94692992313411
 30
0.0
 11
867.8506177516187
 21
90.74692992313412
 31
0.0
 12
864.2506177516187
 22
91.34692992313411
 32
0.0
 13
864.2506177516187
 23
91.34692992313411
 33
0.0
  0
SOLID
  5
987F
330
93CA
100
AcDbEntity
  8
AM_5
100
AcDbTrace
 10
874.6506177516186
 20
91.94692992313411
 30
0.0
 11
874.6506177516186
 21
90.74692992313412
 31
0.0
 12
878.2506177516188
 22
91.34692992313411
 32
0.0
 13
878.2506177516188
 23
91.34692992313411
 33
0.0
  0
MTEXT
  5
9880
330
93CA
100
AcDbEntity
  8
AM_5
100
AcDbMText
 10
871.2506177516187
 20
94.64692992313411
 30
0.0
 40
4.2
 41
0.0
 71
     5
 72
     1
  1
14
 73
     1
 44
1.0
1001
ACAD
1000
MTEXTBEGIN
1070
    73
1070
     1
1070
    44
1040
1.0
1070
    74
1070
     0
1000
MTEXTEND
  0
POINT
  5
9881
330
93CA
100
AcDbEntity
  8
Defpoints
 62
     0
100
AcDbPoint
 10
864.2506177516187
 20
105.546929923134
 30
0.0
  0
POINT
  5
9882
330
93CA
100
AcDbEntity
  8
Defpoints
 62
     0
100
AcDbPoint
 10
878.2506177516188
 20
104.546929923134
 30
0.0
  0
POINT
  5
9883
330
93CA
100
AcDbEntity
  8
Defpoints
 62
     0
100
AcDbPoint
 10
878.2506177516188
 20
91.34692992313411
 30
0.0
  0
ENDBLK
  5
93D5
330
93CA
100
AcDbEntity
  8
0
100
AcDbBlockEnd
  0
BLOCK
  5
93E0
330
93D6
100
AcDbEntity
  8
0
100
AcDbBlockBegin
  2
*D29
 70
     1
 10
0.0
 20
0.0
 30
0.0
  3
*D29
  1

  0
LINE
  5
9884
330
93D6
100
AcDbEntity
  8
AM_5
100
AcDbLine
 10
831.7506177069152
 20
102.0469295357039
 30
0.0
 11
831.7506177069152
 21
89.54692992313409
 31
0.0
  0
LINE
  5
9885
330
93D6
100
AcDbEntity
  8
AM_5
100
AcDbLine
 10
850.2506177516186
 20
104.746929923134
 30
0.0
 11
850.2506177516186
 21
89.54692992313409
 31
0.0
  0
LINE
  5
9886
330
93D6
100
AcDbEntity
  8
AM_5
100
AcDbLine
 10
835.3506177069153
 20
91.34692992313409
 30
0.0
 11
846.6506177516187
 21
91.34692992313409
 31
0.0
  0
SOLID
  5
9887
330
93D6
100
AcDbEntity
  8
AM_5
100
AcDbTrace
 10
835.3506177069153
 20
91.94692992313408
 30
0.0
 11
835.3506177069153
 21
90.74692992313408
 31
0.0
 12
831.7506177069152
 22
91.34692992313409
 32
0.0
 13
831.7506177069152
 23
91.34692992313409
 33
0.0
  0
SOLID
  5
9888
330
93D6
100
AcDbEntity
  8
AM_5
100
AcDbTrace
 10
846.6506177516187
 20
91.94692992313408
 30
0.0
 11
846.6506177516187
 21
90.74692992313408
 31
0.0
 12
850.2506177516186
 22
91.34692992313409
 32
0.0
 13
850.2506177516186
 23
91.34692992313409
 33
0.0
  0
MTEXT
  5
9889
330
93D6
100
AcDbEntity
  8
AM_5
100
AcDbMText
 10
841.000617729267
 20
94.64692992313407
 30
0.0
 40
4.2
 41
0.0
 71
     5
 72
     1
  1
18.5
 73
     1
 44
1.0
1001
ACAD
1000
MTEXTBEGIN
1070
    73
1070
     1
1070
    44
1040
1.0
1070
    74
1070
     0
1000
MTEXTEND
  0
POINT
  5
988A
330
93D6
100
AcDbEntity
  8
Defpoints
 62
     0
100
AcDbPoint
 10
831.7506177069152
 20
103.8469295357039
 30
0.0
  0
POINT
  5
988B
330
93D6
100
AcDbEntity
  8
Defpoints
 62
     0
100
AcDbPoint
 10
850.2506177516186
 20
106.546929923134
 30
0.0
  0
POINT
  5
988C
330
93D6
100
AcDbEntity
  8
Defpoints
 62
     0
100
AcDbPoint
 10
850.2506177516186
 20
91.34692992313409
 30
0.0
  0
ENDBLK
  5
93E1
330
93D6
100
AcDbEntity
  8
0
100
AcDbBlockEnd
  0
BLOCK
  5
93EC
330
93E2
100
AcDbEntity
  8
0
100
AcDbBlockBegin
  2
*D30
 70
     1
 10
0.0
 20
0.0
 30
0.0
  3
*D30
  1

  0
LINE
  5
9869
330
93E2
100
AcDbEntity
  8
AM_5
100
AcDbLine
 10
850.2506177516186
 20
104.746929923134
 30
0.0
 11
850.2506177516186
 21
89.54692992313409
 31
0.0
  0
LINE
  5
986A
330
93E2
100
AcDbEntity
  8
AM_5
100
AcDbLine
 10
864.2506177516187
 20
103.746929923134
 30
0.0
 11
864.2506177516187
 21
89.54692992313409
 31
0.0
  0
LINE
  5
986B
330
93E2
100
AcDbEntity
  8
AM_5
100
AcDbLine
 10
853.8506177516188
 20
91.34692992313409
 30
0.0
 11
860.6506177516187
 21
91.34692992313409
 31
0.0
  0
SOLID
  5
986C
330
93E2
100
AcDbEntity
  8
AM_5
100
AcDbTrace
 10
853.8506177516188
 20
91.94692992313408
 30
0.0
 11
853.8506177516188
 21
90.74692992313408
 31
0.0
 12
850.2506177516186
 22
91.34692992313409
 32
0.0
 13
850.2506177516186
 23
91.34692992313409
 33
0.0
  0
SOLID
  5
986D
330
93E2
100
AcDbEntity
  8
AM_5
100
AcDbTrace
 10
860.6506177516187
 20
91.94692992313408
 30
0.0
 11
860.6506177516187
 21
90.74692992313408
 31
0.0
 12
864.2506177516187
 22
91.34692992313409
 32
0.0
 13
864.2506177516187
 23
91.34692992313409
 33
0.0
  0
MTEXT
  5
986E
330
93E2
100
AcDbEntity
  8
AM_5
100
AcDbMText
 10
857.2506177516187
 20
94.64692992313407
 30
0.0
 40
4.2
 41
0.0
 71
     5
 72
     1
  1
14
 73
     1
 44
1.0
1001
ACAD
1000
MTEXTBEGIN
1070
    73
1070
     1
1070
    44
1040
1.0
1070
    74
1070
     0
1000
MTEXTEND
  0
POINT
  5
986F
330
93E2
100
AcDbEntity
  8
Defpoints
 62
     0
100
AcDbPoint
 10
850.2506177516186
 20
106.546929923134
 30
0.0
  0
POINT
  5
9870
330
93E2
100
AcDbEntity
  8
Defpoints
 62
     0
100
AcDbPoint
 10
864.2506177516187
 20
105.546929923134
 30
0.0
  0
POINT
  5
9871
330
93E2
100
AcDbEntity
  8
Defpoints
 62
     0
100
AcDbPoint
 10
864.2506177516187
 20
91.34692992313409
 30
0.0
  0
ENDBLK
  5
93ED
330
93E2
100
AcDbEntity
  8
0
100
AcDbBlockEnd
  0
ENDSEC
  0
SECTION
  2
ENTITIES
  0
DIMENSION
  5
38B1
330
1F
100
AcDbEntity
  8
AM_5
100
AcDbDimension
  2
*D2
 10
871.7506177516186
 20
233.4277719051606
 30
0.0
 11
864.2506177516187
 21
236.7277719051606
 31
0.0
 70
    32
 71
     5
 42
15.0
  3
AM_ISO$0
100
AcDbAlignedDimension
 13
856.7506177516188
 23
247.9277720664372
 33
0.0
 14
871.7506177516186
 24
244.9277720664372
 34
0.0
100
AcDbRotatedDimension
1001
ACAD
1000
DSTYLE
1002
{
1070
    40
1040
1.199999999999999
1002
}
  0
DIMENSION
  5
38D7
330
1F
100
AcDbEntity
  8
AM_5
100
AcDbDimension
  2
*D3
 10
879.2506177516187
 20
275.4277719051607
 30
0.0
 11
864.2506177516187
 21
278.7277719051607
 31
0.0
 70
    32
 71
     5
 42
30.0
  3
AM_ISO$0
100
AcDbAlignedDimension
 13
849.2506177516187
 23
264.2277720664372
 33
0.0
 14
879.2506177516187
 24
251.2277720664372
 34
0.0
100
AcDbRotatedDimension
1001
ACAD
1000
DSTYLE
1002
{
1070
    40
1040
1.199999999999999
1002
}
  0
DIMENSION
  5
38FD
330
1F
100
AcDbEntity
  8
AM_5
100
AcDbDimension
  2
*D4
 10
826.2967234651286
 20
254.7277720664372
 30
0.0
 11
826.2967234651286
 21
241.6007707567506
 31
0.0
 70
   160
 71
     5
 42
3.0
  3
AM_ISO$0
100
AcDbAlignedDimension
 13
864.9506177516187
 23
251.7277720664372
 33
0.0
 14
849.9506177516186
 24
254.7277720664372
 34
0.0
 50
90.0
100
AcDbRotatedDimension
1001
ACAD
1000
DSTYLE
1002
{
1070
    40
1040
1.199999999999999
1002
}
  0
DIMENSION
  5
3927
330
1F
100
AcDbEntity
  8
AM_5
100
AcDbDimension
  2
*D5
 10
818.0449862396574
 20
259.7277720664372
 30
0.0
 11
814.7449862396573
 21
253.2277720664373
 31
0.0
 70
    32
 71
     5
 42
12.99999999999997
  3
AM_ISO$0
100
AcDbAlignedDimension
 13
874.7506177516187
 23
246.7277720664372
 33
0.0
 14
844.7506177516187
 24
259.7277720664372
 34
0.0
 50
90.0
100
AcDbRotatedDimension
1001
ACAD
1000
DSTYLE
1002
{
1070
    40
1040
1.199999999999999
1002
}
  0
DIMENSION
  5
394D
330
1F
100
AcDbEntity
  8
AM_5
100
AcDbDimension
  2
*D6
 10
871.2506177516187
 20
153.1152441349477
 30
0.0
 11
864.2506177516187
 21
156.4152441349477
 31
0.0
 70
    32
 71
     5
 42
14.0
  3
AM_ISO$0
100
AcDbAlignedDimension
 13
857.2506177516187
 23
165.5152443510145
 33
0.0
 14
871.2506177516187
 24
165.5152443510145
 34
0.0
100
AcDbRotatedDimension
1001
ACAD
1000
DSTYLE
1002
{
1070
    40
1040
1.199999999999999
1002
}
  0
DIMENSION
  5
39C3
330
1F
100
AcDbEntity
  8
AM_5
100
AcDbDimension
  2
*D9
 10
963.5006183476651
 20
220.0152448040098
 30
0.0
 11
960.2006183476651
 21
192.5652444024237
 31
0.0
 70
    32
 71
     5
 42
54.90000080317258
  3
AM_ISO$0
100
AcDbAlignedDimension
 13
902.7506175430024
 23
165.1152440008372
 33
0.0
 14
943.0006171555723
 24
220.0152448040098
 34
0.0
 50
90.0
100
AcDbRotatedDimension
1001
ACAD
1000
DSTYLE
1002
{
1070
    40
1040
1.199999999999999
1070
   271
1070
     0
1002
}
  0
DIMENSION
  5
3A0F
330
1F
100
AcDbEntity
  8
AM_5
100
AcDbDimension
  2
*D11
 10
949.4006211848462
 20
284.4277719051609
 30
0.0
 11
890.5756191910709
 21
287.7277719051609
 31
0.0
 70
    32
  1
<>
 71
     5
 42
117.6500039875507
  3
AM_ISO$0
100
AcDbAlignedDimension
 13
831.7506171972956
 23
261.7277720664372
 33
0.0
 14
949.4006211848462
 24
260.6467230860819
 34
0.0
100
AcDbRotatedDimension
1001
ACAD
1000
DSTYLE
1002
{
1070
    40
1040
1.199999999999999
1070
   271
1070
     1
1002
}
  0
DIMENSION
  5
3A71
330
1F
100
AcDbEntity
  8
AM_5
100
AcDbDimension
  2
*D13
 10
941.7506183476652
 20
144.1152441349478
 30
0.0
 11
886.7506177724804
 21
147.4152441349478
 31
0.0
 70
    32
  1
<>
 71
     5
 42
110.0000011503696
  3
AM_ISO$0
100
AcDbAlignedDimension
 13
831.7506171972956
 23
165.6152447011918
 33
0.0
 14
941.7506183476652
 24
171.6152441349477
 34
0.0
100
AcDbRotatedDimension
1001
ACAD
1000
DSTYLE
1002
{
1070
    40
1040
1.199999999999999
1002
}
  0
INSERT
  5
3A8C
330
1F
100
AcDbEntity
  8
AM_5
100
AcDbBlockReference
  2
*S20
 10
7.667184913185565
 20
505.4728033106017
 30
0.0
 41
-1.0
 50
180.0
  0
TEXT
  5
3A8E
330
1F
100
AcDbEntity
  8
AM_5
100
AcDbText
 10
890.3740307774979
 20
236.3474347220888
 30
0.0
 40
4.2
  1
2-%%c3.2 thru
100
AcDbText
  0
INSERT
  5
3CC2
330
1F
100
AcDbEntity
  8
AM_5
100
AcDbBlockReference
  2
*S22
 10
8.745355642660456
 20
-0.109252524509742
 30
0.0
  0
TEXT
  5
3CC3
330
1F
100
AcDbEntity
  8
AM_5
100
AcDbText
 10
881.3594259726164
 20
154.440550361974
 30
0.0
 40
4.2
  1
2-%%c3.2 thru
100
AcDbText
  0
DIMENSION
  5
3CD8
330
1F
100
AcDbEntity
  8
AM_5
100
AcDbDimension
  2
*D14
 10
857.2506177516187
 20
153.1152441349477
 30
0.0
 11
844.5006174744571
 21
156.4156575207744
 31
0.0
 70
    32
 71
     5
 42
25.50000055432315
  3
AM_ISO$0
100
AcDbAlignedDimension
 13
831.7506171972956
 23
165.6152447011918
 33
0.0
 14
857.2506177516187
 24
165.5152443510145
 34
0.0
100
AcDbRotatedDimension
1001
ACAD
1000
DSTYLE
1002
{
1070
    40
1040
1.199999999999999
1070
   271
1070
     1
1002
}
  0
DIMENSION
  5
3D16
330
1F
100
AcDbEntity
  8
AM_5
100
AcDbDimension
  2
*D15
 10
871.1338120526619
 20
189.1152442094535
 30
0.0
 11
871.1338120526619
 21
201.4422295492904
 31
0.0
 70
   160
 71
     5
 42
3.000000491738319
  3
AM_ISO$0
100
AcDbAlignedDimension
 13
876.2506178559268
 23
192.1152447011919
 33
0.0
 14
876.2506178559268
 24
189.1152442094535
 34
0.0
 50
90.0
100
AcDbRotatedDimension
1001
ACAD
1000
DSTYLE
1002
{
1070
    40
1040
1.199999999999999
1002
}
  0
DIMENSION
  5
3DA4
330
1F
100
AcDbEntity
  8
AM_5
100
AcDbDimension
  2
*D17
 10
849.2506177516187
 20
275.4277719051607
 30
0.0
 11
840.5006174744571
 21
278.7277719051607
 31
0.0
 70
    32
 71
     5
 42
17.50000055432315
  3
AM_ISO$0
100
AcDbAlignedDimension
 13
831.7506171972956
 23
261.7277720664372
 33
0.0
 14
849.2506177516187
 24
264.2277720664372
 34
0.0
100
AcDbRotatedDimension
1001
ACAD
1000
DSTYLE
1002
{
1070
    40
1040
1.199999999999999
1002
}
  0
DIMENSION
  5
4789
330
1F
100
AcDbEntity
  8
AM_5
100
AcDbDimension
  2
*D19
 10
856.7506177516188
 20
233.4277719051606
 30
0.0
 11
844.2506174744572
 21
236.7281852909874
 31
0.0
 70
    32
 71
     5
 42
25.00000055432315
  3
AM_ISO$0
100
AcDbAlignedDimension
 13
831.7506171972956
 23
245.1281473921616
 33
0.0
 14
856.7506177516188
 24
247.9277720664372
 34
0.0
100
AcDbRotatedDimension
1001
ACAD
1000
DSTYLE
1002
{
1070
    40
1040
1.199999999999999
1070
   271
1070
     1
1002
}
  0
LINE
  5
625E
330
1F
100
AcDbEntity
  8
LOGO
 62
     4
100
AcDbLine
 10
1034.13382110087
 20
72.9222060548156
 30
0.0
 11
731.7338211008703
 21
72.9222060548156
 31
0.0
  0
LWPOLYLINE
  5
625F
330
1F
100
AcDbEntity
  8
LOGO
 62
     4
100
AcDbPolyline
 90
        4
 70
     1
 43
0.0
 10
731.7338211008705
 20
72.92220605481552
 10
1034.13382110087
 20
72.92220605481552
 10
1034.13382110087
 20
312.7743123478849
 10
731.7338211008705
 20
312.7743123478849
1001
GENIUS_GENREC_14
1002
{
1000
PYDIR
1011
731.7338211008705
1021
312.7743123478849
1031
0.0
1002
}
1002
{
1000
PXDIR
1011
1034.13382110087
1021
72.92220605481552
1031
0.0
1002
}
1002
{
1000
PORI
1011
731.7338211008705
1021
72.92220605481552
1031
0.0
1002
}
1002
{
1000
PINS
1011
731.7338211008705
1021
72.92220605481552
1031
0.0
1002
}
1002
{
1000
PINS2
1011
1034.13382110087
1021
312.7743123478849
1031
0.0
1002
}
1002
{
1000
C
1070
     1
1002
}
1001
GENIUS_GENODEF_13
1002
{
1000
HIER
1070
     0
1002
}
1002
{
1000
MANEDIT
1070
     0
1002
}
1002
{
1000
NOSEL
1070
     0
1002
}
1002
{
1000
BEHIND
1070
     0
1002
}
1002
{
1000
OTHER
1070
     0
1002
}
1002
{
1000
REACTOR
1002
}
1001
GENIUS_GENOBJ-N-REC_13
1002
{
1000
OWNER
1000
GEN
1002
}
  0
LWPOLYLINE
  5
6260
330
1F
100
AcDbEntity
  8
LOGO
 62
     4
100
AcDbPolyline
 90
        4
 70
     1
 43
0.0
 10
731.7338211008705
 20
72.92220605481552
 10
1034.13382110087
 20
72.92220605481552
 10
1034.13382110087
 20
42.68658469734927
 10
731.7338211008705
 20
42.68658469734927
1001
GENIUS_GENREC_14
1002
{
1000
PYDIR
1011
731.7338211008705
1021
42.68658469734927
1031
0.0
1002
}
1002
{
1000
PXDIR
1011
1034.13382110087
1021
72.92220605481552
1031
0.0
1002
}
1002
{
1000
PORI
1011
731.7338211008705
1021
72.92220605481552
1031
0.0
1002
}
1002
{
1000
PINS
1011
731.7338211008705
1021
72.92220605481552
1031
0.0
1002
}
1002
{
1000
PINS2
1011
1034.13382110087
1021
42.68658469734927
1031
0.0
1002
}
1002
{
1000
C
1070
     1
1002
}
1001
GENIUS_GENOBJ-N-REC_13
1002
{
1000
OWNER
1000
GEN
1002
}
1001
GENIUS_GENODEF_13
1002
{
1000
HIER
1070
     0
1002
}
1002
{
1000
MANEDIT
1070
     0
1002
}
1002
{
1000
NOSEL
1070
     0
1002
}
1002
{
1000
BEHIND
1070
     0
1002
}
1002
{
1000
OTHER
1070
     0
1002
}
1002
{
1000
REACTOR
1002
}
  0
TEXT
  5
6261
330
1F
100
AcDbEntity
  8
LOGO
 62
     7
100
AcDbText
 10
800.0038520917158
 20
59.67649484117135
 30
0.0
 40
4.031416180995473
  1
Order example:
 41
0.8
  7
CHINESET
100
AcDbText
  0
TEXT
  5
6262
330
1F
100
AcDbEntity
  8
LOGO
 62
     7
100
AcDbText
 10
800.7271214930419
 20
65.35189410864174
 30
0.0
 40
6.047124271493212
  1
訂購代號：
  7
CHINESET
100
AcDbText
  0
LINE
  5
6263
330
1F
100
AcDbEntity
  8
LOGO
 62
     4
100
AcDbLine
 10
798.2521880872955
 20
42.68658469734939
 30
0.0
 11
798.2521880872955
 21
72.9222060548156
 31
0.0
  0
TEXT
  5
6264
330
1F
100
AcDbEntity
  8
LOGO
  6
Continuous
100
AcDbText
 10
742.5945922042196
 20
48.62632688349257
 30
0.0
 40
4.535343203619909
  1
金器工業股份有限公司
  7
CHINESET
100
AcDbText
  0
TEXT
  5
6265
330
1F
100
AcDbEntity
  8
LOGO
  6
Continuous
100
AcDbText
 10
734.2640640125739
 20
44.09009510818933
 30
0.0
 40
3.023562135746606
  1
MINDMAN INDUSTRIAL CO., LTD.
 41
0.85
  7
CHINESET
100
AcDbText
  0
LINE
  5
6266
330
1F
100
AcDbEntity
  8
LOGO
 62
     4
100
AcDbLine
 10
798.2521880872955
 20
66.8750817833224
 30
0.0
 11
753.9066100963452
 21
66.8750817833224
 31
0.0
  0
LINE
  5
6267
330
1F
100
AcDbEntity
  8
LOGO
 62
     4
100
AcDbLine
 10
798.2521880872955
 20
60.82795751182917
 30
0.0
 11
753.9066100963452
 21
60.82795751182917
 31
0.0
  0
LINE
  5
6268
330
1F
100
AcDbEntity
  8
LOGO
 62
     4
100
AcDbLine
 10
798.2521880872955
 20
54.78083324033613
 30
0.0
 11
731.7338211008703
 21
54.78083324033613
 31
0.0
  0
LINE
  5
6269
330
1F
100
AcDbEntity
  8
LOGO
 62
     4
100
AcDbLine
 10
753.9066100963452
 20
54.78083324033613
 30
0.0
 11
753.9066100963452
 21
72.9222060548156
 31
0.0
  0
TEXT
  5
626A
330
1F
100
AcDbEntity
  8
LOGO
100
AcDbText
 10
784.2147195737601
 20
56.29261430820903
 30
0.0
 40
3.023562135746606
  1
mm
  7
CHINESET
 72
     1
 11
787.958177456113
 21
57.80439537608234
 31
0.0
100
AcDbText
 73
     2
  0
TEXT
  5
626B
330
1F
100
AcDbEntity
  8
LOGO
100
AcDbText
 10
782.6309489312262
 20
68.3868628511955
 30
0.0
 40
3.023562135746606
  1
1 : 1
  7
CHINESET
 72
     1
 11
787.958177456113
 21
69.89864391906881
 31
0.0
100
AcDbText
 73
     2
  0
LINE
  5
626C
330
1F
100
AcDbEntity
  8
LOGO
 62
     4
100
AcDbLine
 10
778.0951071823181
 20
54.78083324033613
 30
0.0
 11
778.0951071823181
 21
72.9222060548156
 31
0.0
  0
TEXT
  5
626D
330
1F
100
AcDbEntity
  8
LOGO
100
AcDbText
 10
756.3996990538113
 20
68.38835082468751
 30
198.1592813491953
 40
3.023562135746606
  1
比例 Scale:
 41
0.9
  7
CHINESET
 72
     4
 11
766.0008586393317
 21
69.89864391906881
 31
198.1592813491953
100
AcDbText
  0
TEXT
  5
626E
330
1F
100
AcDbEntity
  8
LOGO
100
AcDbText
 10
756.2255742701008
 20
62.3822698220153
 30
198.1592813491953
 40
3.023562135746606
  1
投影  View:
 41
0.9
  7
CHINESET
 72
     4
 11
766.0008586393317
 21
63.85151964757557
 31
198.1592813491953
100
AcDbText
  0
TEXT
  5
626F
330
1F
100
AcDbEntity
  8
LOGO
100
AcDbText
 10
756.5211814610511
 20
56.29261430820903
 30
198.1592813491953
 40
3.023562135746606
  1
單位  Unit:
 41
0.9
  7
CHINESET
 72
     4
 11
766.0008586393317
 21
57.80439537608234
 31
198.1592813491953
100
AcDbText
  0
SOLID
  5
6270
330
1F
100
AcDbEntity
  8
LOGO
 62
     5
100
AcDbTrace
 10
734.8708153411887
 20
59.80707492083436
 30
0.0
 11
736.178124270415
 21
59.80707492083405
 31
0.0
 12
741.632758078566
 22
72.20396993936083
 32
0.0
 13
742.9400670077933
 23
72.20396993936009
 33
0.0
  0
SOLID
  5
6271
330
1F
100
AcDbEntity
  8
LOGO
 62
     5
100
AcDbTrace
 10
736.7190796894066
 20
59.80707492083436
 30
0.0
 11
738.026388618633
 21
59.80707492083436
 31
0.0
 12
742.9400670077933
 22
71.21221833787817
 32
0.0
 13
741.632758078566
 23
66.41875226404798
 33
0.0
  0
SOLID
  5
6272
330
1F
100
AcDbEntity
  8
LOGO
 62
     2
100
AcDbTrace
 10
736.178124270415
 20
59.80707492083405
 30
0.0
 11
736.7190796894066
 21
59.80707492083436
 31
0.0
 12
742.9400670077933
 22
72.20396993936009
 32
0.0
 13
743.4810224267842
 23
72.20396993936009
 33
0.0
  0
SOLID
  5
6273
330
1F
100
AcDbEntity
  8
LOGO
 62
     5
100
AcDbTrace
 10
732.7748785362189
 20
55.29911309591614
 30
0.0
 11
733.2256747187114
 21
55.29911309591614
 31
0.0
 12
734.4951518557791
 22
57.55309400837515
 32
0.0
 13
734.94594803827
 23
57.55309400837515
 33
0.0
  0
SOLID
  5
6274
330
1F
100
AcDbEntity
  8
LOGO
 62
     5
100
AcDbTrace
 10
734.4951518557791
 20
57.55309400837515
 30
0.0
 11
734.94594803827
 21
57.55309400837515
 31
0.0
 12
734.4951518557791
 22
55.29911309591614
 32
0.0
 13
734.94594803827
 23
55.29911309591614
 33
0.0
  0
SOLID
  5
6275
330
1F
100
AcDbEntity
  8
LOGO
 62
     5
100
AcDbTrace
 10
734.4951518557791
 20
55.29911309591614
 30
0.0
 11
734.94594803827
 21
55.29911309591614
 31
0.0
 12
736.2154251753399
 22
57.55309400837515
 32
0.0
 13
736.6662213578317
 23
57.55309400837515
 33
0.0
  0
SOLID
  5
6276
330
1F
100
AcDbEntity
  8
LOGO
 62
     5
100
AcDbTrace
 10
736.2154251753399
 20
57.55309400837515
 30
0.0
 11
736.6662213578317
 21
57.55309400837515
 31
0.0
 12
736.2154251753399
 22
55.29911309591614
 32
0.0
 13
736.6662213578317
 23
55.29911309591614
 33
0.0
  0
POLYLINE
  5
6277
330
1F
100
AcDbEntity
  8
LOGO
 62
     5
100
AcDb2dPolyline
 66
     1
 10
0.0
 20
0.0
 30
0.0
 40
0.4515186122714931
 41
0.4515186122714931
  0
VERTEX
  5
6278
330
6277
100
AcDbEntity
  8
LOGO
 62
     5
100
AcDbVertex
100
AcDb2dVertex
 10
751.3259596468118
 20
56.65150164339141
 30
0.0
 42
1.0
  0
VERTEX
  5
6279
330
6277
100
AcDbEntity
  8
LOGO
 62
     5
100
AcDbVertex
100
AcDb2dVertex
 10
749.971403809997
 20
56.65150164339141
 30
0.0
 42
1.0
  0
SEQEND
  5
627A
330
6277
100
AcDbEntity
  8
LOGO
 62
     5
  0
POLYLINE
  5
627B
330
1F
100
AcDbEntity
  8
LOGO
 62
     5
100
AcDb2dPolyline
 66
     1
 10
0.0
 20
0.0
 30
0.0
 70
     1
  0
VERTEX
  5
627C
330
627B
100
AcDbEntity
  8
LOGO
 62
     5
100
AcDbVertex
100
AcDb2dVertex
 10
747.4180058069576
 20
56.42610355214523
 30
0.0
 42
1.000000057330635
  0
VERTEX
  5
627D
330
627B
100
AcDbEntity
  8
LOGO
 62
     5
100
AcDbVertex
100
AcDb2dVertex
 10
748.7703943544332
 20
56.42610355214523
 30
0.0
 42
1.000000057330635
  0
SEQEND
  5
627E
330
627B
100
AcDbEntity
  8
LOGO
 62
     5
  0
CIRCLE
  5
627F
330
1F
100
AcDbEntity
  8
LOGO
 62
     5
100
AcDbCircle
 10
748.0942000806963
 20
56.42610355214523
 30
0.0
 40
0.6761942737377882
  0
POLYLINE
  5
6280
330
1F
100
AcDbEntity
  8
LOGO
 62
     5
100
AcDb2dPolyline
 66
     1
 10
0.0
 20
0.0
 30
0.0
 70
     1
 40
0.4515186122714931
 41
0.4515186122714931
  0
VERTEX
  5
6281
330
6280
100
AcDbEntity
  8
LOGO
 62
     5
100
AcDbVertex
100
AcDb2dVertex
 10
747.1911628561525
 20
56.42610355214523
 30
0.0
 42
1.0
  0
VERTEX
  5
6282
330
6280
100
AcDbEntity
  8
LOGO
 62
     5
100
AcDbVertex
100
AcDb2dVertex
 10
748.9972373052386
 20
56.42610355214523
 30
0.0
 42
1.0
  0
SEQEND
  5
6283
330
6280
100
AcDbEntity
  8
LOGO
 62
     5
  0
LINE
  5
6284
330
1F
100
AcDbEntity
  8
LOGO
100
AcDbLine
 10
751.5502740933874
 20
55.29911309591614
 30
0.0
 11
751.5502740933874
 21
56.65150164339141
 31
0.0
  0
SOLID
  5
6285
330
1F
100
AcDbEntity
  8
LOGO
 62
     5
100
AcDbTrace
 10
748.7703492748169
 20
57.55309400837515
 30
0.0
 11
749.2211454573078
 21
57.55309400837515
 31
0.0
 12
748.7703492748169
 22
55.29911309591614
 32
0.0
 13
749.2211454573078
 23
55.29911309591614
 33
0.0
  0
SOLID
  5
6286
330
1F
100
AcDbEntity
  8
LOGO
 62
     5
100
AcDbTrace
 10
749.7470893634199
 20
55.29911309591614
 30
0.0
 11
750.1978855459126
 21
55.29911309591614
 31
0.0
 12
749.7470893634199
 22
57.55309400837515
 32
0.0
 13
750.1978855459126
 23
57.55309400837515
 33
0.0
  0
SOLID
  5
6287
330
1F
100
AcDbEntity
  8
LOGO
 62
     5
100
AcDbTrace
 10
751.0994779108966
 20
56.65150164339141
 30
0.0
 11
751.5502740933874
 21
56.65150164339141
 31
0.0
 12
751.0994779108966
 22
55.29911309591614
 32
0.0
 13
751.5502740933874
 23
55.29911309591614
 33
0.0
  0
SOLID
  5
6288
330
1F
100
AcDbEntity
  8
LOGO
 62
     5
100
AcDbTrace
 10
749.7020097451708
 20
71.21221833787817
 30
0.0
 11
748.3947008159453
 21
66.41875226404798
 31
0.0
 12
749.7020097451708
 22
59.80707492083405
 32
0.0
 13
748.3947008159453
 23
59.80707492083405
 33
0.0
  0
SOLID
  5
6289
330
1F
100
AcDbEntity
  8
LOGO
 62
     5
100
AcDbTrace
 10
750.2429651641619
 20
59.80707492083405
 30
0.0
 11
751.5502740933874
 21
59.80707492083405
 31
0.0
 12
750.2429651641619
 22
72.20396993936009
 32
0.0
 13
751.5502740933874
 23
72.20396993936083
 33
0.0
  0
SOLID
  5
628A
330
1F
100
AcDbEntity
  8
LOGO
 62
     2
100
AcDbTrace
 10
749.7020097451708
 20
72.20396993936083
 30
0.0
 11
750.2429651641619
 21
72.20396993936009
 31
0.0
 12
749.7020097451708
 22
59.80707492083405
 32
0.0
 13
750.2429651641619
 23
59.80707492083405
 33
0.0
  0
POLYLINE
  5
628B
330
1F
100
AcDbEntity
  8
LOGO
 62
     5
100
AcDb2dPolyline
 66
     1
 10
0.0
 20
0.0
 30
0.0
 40
0.4515186122714931
 41
0.4515186122714931
  0
VERTEX
  5
628C
330
628B
100
AcDbEntity
  8
LOGO
 62
     5
100
AcDbVertex
100
AcDb2dVertex
 10
744.8645176446832
 20
56.65150164339141
 30
0.0
 42
1.0
  0
VERTEX
  5
628D
330
628B
100
AcDbEntity
  8
LOGO
 62
     5
100
AcDbVertex
100
AcDb2dVertex
 10
743.5099618078685
 20
56.65150164339141
 30
0.0
 42
1.0
  0
SEQEND
  5
628E
330
628B
100
AcDbEntity
  8
LOGO
 62
     5
  0
POLYLINE
  5
628F
330
1F
100
AcDbEntity
  8
LOGO
 62
     5
100
AcDb2dPolyline
 66
     1
 10
0.0
 20
0.0
 30
0.0
 40
0.4515186122714931
 41
0.4515186122714931
  0
VERTEX
  5
6290
330
628F
100
AcDbEntity
  8
LOGO
 62
     5
100
AcDbVertex
100
AcDb2dVertex
 10
746.2169061921572
 20
56.65150164339141
 30
0.0
 42
1.0
  0
VERTEX
  5
6291
330
628F
100
AcDbEntity
  8
LOGO
 62
     5
100
AcDbVertex
100
AcDb2dVertex
 10
744.8623503553432
 20
56.65150164339141
 30
0.0
 42
1.0
  0
SEQEND
  5
6292
330
628F
100
AcDbEntity
  8
LOGO
 62
     5
  0
POLYLINE
  5
6293
330
1F
100
AcDbEntity
  8
LOGO
 62
     5
100
AcDb2dPolyline
 66
     1
 10
0.0
 20
0.0
 30
0.0
 40
0.4515186122714931
 41
0.4515186122714931
  0
VERTEX
  5
6294
330
6293
100
AcDbEntity
  8
LOGO
 62
     5
100
AcDbVertex
100
AcDb2dVertex
 10
739.7554641900287
 20
56.65150164339141
 30
0.0
 42
1.0
  0
VERTEX
  5
6295
330
6293
100
AcDbEntity
  8
LOGO
 62
     5
100
AcDbVertex
100
AcDb2dVertex
 10
738.4009083532149
 20
56.65150164339141
 30
0.0
 42
1.0
  0
SEQEND
  5
6296
330
6293
100
AcDbEntity
  8
LOGO
 62
     5
  0
SOLID
  5
6297
330
1F
100
AcDbEntity
  8
LOGO
 62
     5
100
AcDbTrace
 10
738.1765939066383
 20
57.55309400837515
 30
0.0
 11
738.6273900891293
 21
57.55309400837515
 31
0.0
 12
738.1765939066383
 22
55.29911309591614
 32
0.0
 13
738.6273900891293
 23
55.29911309591614
 33
0.0
  0
SOLID
  5
6298
330
1F
100
AcDbEntity
  8
LOGO
 62
     5
100
AcDbTrace
 10
739.528982454114
 20
56.65150164339141
 30
0.0
 11
739.9797786366064
 21
56.65150164339141
 31
0.0
 12
739.528982454114
 22
55.29911309591614
 32
0.0
 13
739.9797786366064
 23
55.29911309591614
 33
0.0
  0
POLYLINE
  5
6299
330
1F
100
AcDbEntity
  8
LOGO
 62
     5
100
AcDb2dPolyline
 66
     1
 10
0.0
 20
0.0
 30
0.0
 70
     1
 40
0.4515186122714931
 41
0.4515186122714931
  0
VERTEX
  5
629A
330
6299
100
AcDbEntity
  8
LOGO
 62
     5
100
AcDbVertex
100
AcDb2dVertex
 10
740.7297208540232
 20
56.42610355214523
 30
0.0
 42
1.0
  0
VERTEX
  5
629B
330
6299
100
AcDbEntity
  8
LOGO
 62
     5
100
AcDbVertex
100
AcDb2dVertex
 10
742.5357953031098
 20
56.42610355214523
 30
0.0
 42
1.0
  0
SEQEND
  5
629C
330
6299
100
AcDbEntity
  8
LOGO
 62
     5
  0
SOLID
  5
629D
330
1F
100
AcDbEntity
  8
LOGO
 62
     5
100
AcDbTrace
 10
742.3089072726868
 20
58.2292882821132
 30
0.0
 11
742.7597034551786
 21
58.2292882821132
 31
0.0
 12
742.3089072726868
 22
55.29911309591614
 32
0.0
 13
742.7597034551786
 23
55.29911309591614
 33
0.0
  0
SOLID
  5
629E
330
1F
100
AcDbEntity
  8
LOGO
 62
     5
100
AcDbTrace
 10
743.2856473612929
 20
57.55309400837515
 30
0.0
 11
743.7364435437839
 21
57.55309400837515
 31
0.0
 12
743.2856473612929
 22
55.29911309591614
 32
0.0
 13
743.7364435437839
 23
55.29911309591614
 33
0.0
  0
SOLID
  5
629F
330
1F
100
AcDbEntity
  8
LOGO
 62
     5
100
AcDbTrace
 10
744.6380359087672
 20
56.65150164339141
 30
0.0
 11
745.0888320912594
 21
56.65150164339141
 31
0.0
 12
744.6380359087672
 22
55.29911309591614
 32
0.0
 13
745.0888320912594
 23
55.29911309591614
 33
0.0
  0
SOLID
  5
62A0
330
1F
100
AcDbEntity
  8
LOGO
 62
     5
100
AcDbTrace
 10
745.9904244562428
 20
56.65150164339141
 30
0.0
 11
746.4412206387343
 21
56.65150164339141
 31
0.0
 12
745.9904244562428
 22
55.2991130959154
 32
0.0
 13
746.4412206387343
 23
55.2991130959154
 33
0.0
  0
SOLID
  5
62A1
330
1F
100
AcDbEntity
  8
LOGO
 62
     5
100
AcDbTrace
 10
737.1998538180332
 20
57.86865133611946
 30
0.0
 11
737.6506500005262
 21
57.86865133611946
 31
0.0
 12
737.1998538180332
 22
58.2292882821132
 32
0.0
 13
737.6506500005262
 23
58.2292882821132
 33
0.0
  0
SOLID
  5
62A2
330
1F
100
AcDbEntity
  8
LOGO
 62
     5
100
AcDbTrace
 10
737.1998538180332
 20
57.55309400837515
 30
0.0
 11
737.6506500005262
 21
57.55309400837515
 31
0.0
 12
737.1998538180332
 22
55.2991130959154
 32
0.0
 13
737.6506500005262
 23
55.29911309591614
 33
0.0
  0
SOLID
  5
62A3
330
1F
100
AcDbEntity
  8
LOGO
 62
     5
100
AcDbTrace
 10
741.632758078566
 20
59.80707492083436
 30
0.0
 11
742.9400670077933
 21
59.80707492083436
 31
0.0
 12
741.632758078566
 22
66.41875226404798
 32
0.0
 13
742.9400670077933
 23
71.21221833787817
 33
0.0
  0
SOLID
  5
62A4
330
1F
100
AcDbEntity
  8
LOGO
 62
     5
100
AcDbTrace
 10
743.4810224267842
 20
72.20396993936009
 30
0.0
 11
744.7883313560099
 21
72.20396993936083
 31
0.0
 12
743.4810224267842
 22
60.79882652231631
 32
0.0
 13
744.7883313560099
 23
65.59229259614648
 33
0.0
  0
SOLID
  5
62A5
330
1F
100
AcDbEntity
  8
LOGO
 62
     2
100
AcDbTrace
 10
742.9400670077933
 20
72.20396993936009
 30
0.0
 11
743.4810224267842
 21
72.20396993936009
 31
0.0
 12
742.9400670077933
 22
59.80707492083436
 32
0.0
 13
743.4810224267842
 23
59.80707492083436
 33
0.0
  0
SOLID
  5
62A6
330
1F
100
AcDbEntity
  8
LOGO
 62
     5
100
AcDbTrace
 10
743.4810224267842
 20
60.79882652231631
 30
0.0
 11
744.7883313560099
 21
65.59229259614648
 31
0.0
 12
749.7020097451708
 22
72.20396993936083
 32
0.0
 13
748.3947008159453
 23
72.20396993936083
 33
0.0
  0
SOLID
  5
62A7
330
1F
100
AcDbEntity
  8
LOGO
 62
     5
100
AcDbTrace
 10
743.4810224267842
 20
59.80707492083436
 30
0.0
 11
744.7883313560099
 21
59.80707492083436
 31
0.0
 12
749.7020097451708
 22
71.21221833787817
 32
0.0
 13
748.3947008159453
 23
66.41875226404798
 33
0.0
  0
SOLID
  5
62A8
330
1F
100
AcDbEntity
  8
LOGO
 62
     2
100
AcDbTrace
 10
742.9400670077933
 20
59.80707492083436
 30
0.0
 11
743.4810224267842
 21
59.80707492083436
 31
0.0
 12
749.7020097451708
 22
72.20396993936083
 32
0.0
 13
750.2429651641619
 23
72.20396993936009
 33
0.0
  0
LINE
  5
62A9
330
1F
100
AcDbEntity
  8
LOGO
 62
     4
100
AcDbLine
 10
854.178560593214
 20
56.2926143082096
 30
0.0
 11
854.178560593214
 21
45.20621981047151
 31
0.0
  0
LINE
  5
62AA
330
1F
100
AcDbEntity
  8
LOGO
 62
     4
100
AcDbLine
 10
839.8399433394914
 20
56.2926143082096
 30
0.0
 11
839.8399433394914
 21
45.20621981047151
 31
0.0
  0
LINE
  5
62AB
330
1F
100
AcDbEntity
  8
LOGO
 62
     4
100
AcDbLine
 10
854.178560593214
 20
45.20621981047151
 30
0.0
 11
839.8399433394914
 21
45.20621981047151
 31
0.0
  0
LINE
  5
62AC
330
1F
100
AcDbEntity
  8
LOGO
 62
     4
100
AcDbLine
 10
863.8287291213289
 20
69.89864391906881
 30
0.0
 11
839.8399433394914
 21
69.89864391906881
 31
0.0
  0
LINE
  5
62AD
330
1F
100
AcDbEntity
  8
LOGO
 62
     4
100
AcDbLine
 10
863.8287291213289
 20
60.82795751182917
 30
0.0
 11
839.8399433394914
 21
60.82795751182917
 31
0.0
  0
LINE
  5
62AE
330
1F
100
AcDbEntity
  8
LOGO
 62
     4
100
AcDbLine
 10
839.8399433394914
 20
69.89864391906881
 30
0.0
 11
839.8399433394914
 21
60.82795751182917
 31
0.0
  0
LINE
  5
62AF
330
1F
100
AcDbEntity
  8
LOGO
 62
     4
100
AcDbLine
 10
863.8287291213289
 20
69.89864391906881
 30
0.0
 11
863.8287291213289
 21
60.82795751182917
 31
0.0
  0
LINE
  5
62B0
330
1F
100
AcDbEntity
  8
LOGO
 62
     4
100
AcDbLine
 10
850.9701771318736
 20
60.82795751182917
 30
0.0
 11
850.9701771318736
 21
56.2926143082096
 31
0.0
  0
TEXT
  5
62B1
330
1F
100
AcDbEntity
  8
LOGO
  6
Continuous
 62
     7
100
AcDbText
 10
840.4587934251098
 20
62.72145003799824
 30
0.0
 40
5.291999999999998
  1
MVSD1
  7
CHINESET
100
AcDbText
  0
LINE
  5
62B2
330
1F
100
AcDbEntity
  8
LOGO
 62
     4
100
AcDbLine
 10
854.178560593214
 20
56.2926143082096
 30
0.0
 11
839.8399433394914
 21
56.2926143082096
 31
0.0
  0
TEXT
  5
62B3
330
1F
100
AcDbEntity
  8
LOGO
  6
Continuous
100
AcDbText
 10
843.9235259353459
 20
46.77104088458159
 30
198.1592813491953
 40
2.267999999999999
  1
Model
 41
0.8
  7
CHINESET
100
AcDbText
  0
TEXT
  5
62B4
330
1F
100
AcDbEntity
  8
LOGO
100
AcDbText
 10
843.3198580634911
 20
50.9754240956957
 30
198.1592813491953
 40
3.78
  1
型號
  7
CHINESET
100
AcDbText
  0
LINE
  5
62B5
330
1F
100
AcDbEntity
  8
LOGO
  6
Continuous
 62
     7
100
AcDbLine
 10
864.7930180546095
 20
65.33117091068749
 30
0.0
 11
868.798302197406
 21
65.33117091068749
 31
0.0
  0
LINE
  5
62B6
330
1F
100
AcDbEntity
  8
LOGO
 62
     4
100
AcDbLine
 10
874.9064141261767
 20
56.2926143082096
 30
0.0
 11
874.9064141261767
 21
45.20621981047151
 31
0.0
  0
LINE
  5
62B7
330
1F
100
AcDbEntity
  8
LOGO
 62
     4
100
AcDbLine
 10
856.5406837690332
 20
56.2926143082096
 30
0.0
 11
856.5406837690332
 21
45.20621981047151
 31
0.0
  0
LINE
  5
62B8
330
1F
100
AcDbEntity
  8
LOGO
 62
     4
100
AcDbLine
 10
874.9064141261767
 20
45.20621981047151
 30
0.0
 11
856.5406837690332
 21
45.20621981047151
 31
0.0
  0
LINE
  5
62B9
330
1F
100
AcDbEntity
  8
LOGO
 62
     4
100
AcDbLine
 10
879.9740305645595
 20
69.89864391906881
 30
0.0
 11
870.0617582133315
 21
69.89864391906881
 31
0.0
  0
LINE
  5
62BA
330
1F
100
AcDbEntity
  8
LOGO
 62
     4
100
AcDbLine
 10
879.9740305645595
 20
60.82795751182917
 30
0.0
 11
870.0617582133315
 21
60.82795751182917
 31
0.0
  0
LINE
  5
62BB
330
1F
100
AcDbEntity
  8
LOGO
 62
     4
100
AcDbLine
 10
870.0617582133315
 20
69.89864391906881
 30
0.0
 11
870.0617582133315
 21
60.82795751182917
 31
0.0
  0
LINE
  5
62BC
330
1F
100
AcDbEntity
  8
LOGO
 62
     4
100
AcDbLine
 10
879.9740305645595
 20
69.89864391906881
 30
0.0
 11
879.9740305645595
 21
60.82795751182917
 31
0.0
  0
LINE
  5
62BD
330
1F
100
AcDbEntity
  8
LOGO
 62
     4
100
AcDbLine
 10
875.501896574288
 20
60.82795751182917
 30
0.0
 11
875.501896574288
 21
58.56028591001933
 31
0.0
  0
TEXT
  5
62BE
330
1F
100
AcDbEntity
  8
LOGO
  6
Continuous
 62
     7
100
AcDbText
 10
871.536260158647
 20
62.72145003799824
 30
0.0
 40
5.291999999999998
  1
180
  7
CHINESET
100
AcDbText
  0
LINE
  5
62BF
330
1F
100
AcDbEntity
  8
LOGO
 62
     4
100
AcDbLine
 10
874.9064141261767
 20
56.2926143082096
 30
0.0
 11
856.5406837690332
 21
56.2926143082096
 31
0.0
  0
LINE
  5
62C0
330
1F
100
AcDbEntity
  8
LOGO
  6
Continuous
 62
     7
100
AcDbLine
 10
885.4363217612608
 20
65.33117091068749
 30
0.0
 11
889.4416059040574
 21
65.33117091068749
 31
0.0
  0
LINE
  5
62C1
330
1F
100
AcDbEntity
  8
LOGO
 62
     4
100
AcDbLine
 10
892.5073927914006
 20
56.2926143082096
 30
0.0
 11
892.5073927914006
 21
45.20621981047151
 31
0.0
  0
LINE
  5
62C2
330
1F
100
AcDbEntity
  8
LOGO
 62
     4
100
AcDbLine
 10
877.3659038734868
 20
56.2926143082096
 30
0.0
 11
877.3659038734868
 21
45.20621981047151
 31
0.0
  0
LINE
  5
62C3
330
1F
100
AcDbEntity
  8
LOGO
 62
     4
100
AcDbLine
 10
892.5073927914006
 20
45.20621981047151
 30
0.0
 11
877.3659038734868
 21
45.20621981047151
 31
0.0
  0
LINE
  5
62C4
330
1F
100
AcDbEntity
  8
LOGO
 62
     4
100
AcDbLine
 10
897.1441897740575
 20
69.89864391906881
 30
0.0
 11
890.7050619199827
 21
69.89864391906881
 31
0.0
  0
LINE
  5
62C5
330
1F
100
AcDbEntity
  8
LOGO
 62
     4
100
AcDbLine
 10
897.1441897740575
 20
60.82795751182917
 30
0.0
 11
890.7050619199827
 21
60.82795751182917
 31
0.0
  0
LINE
  5
62C6
330
1F
100
AcDbEntity
  8
LOGO
 62
     4
100
AcDbLine
 10
890.7050619199827
 20
69.89864391906881
 30
0.0
 11
890.7050619199827
 21
60.82795751182917
 31
0.0
  0
LINE
  5
62C7
330
1F
100
AcDbEntity
  8
LOGO
 62
     4
100
AcDbLine
 10
897.1441897740575
 20
69.89864391906881
 30
0.0
 11
897.1441897740575
 21
60.82795751182917
 31
0.0
  0
LINE
  5
62C8
330
1F
100
AcDbEntity
  8
LOGO
 62
     4
100
AcDbLine
 10
893.9246258470202
 20
60.82795751182917
 30
0.0
 11
893.9246258470202
 21
58.56028591001933
 31
0.0
  0
TEXT
  5
62C9
330
1F
100
AcDbEntity
  8
LOGO
  6
Continuous
 62
     7
100
AcDbText
 10
891.9123460257871
 20
62.72145003799824
 30
0.0
 40
5.291999999999998
  1
4
  7
CHINESET
100
AcDbText
  0
LINE
  5
62CA
330
1F
100
AcDbEntity
  8
LOGO
 62
     4
100
AcDbLine
 10
892.5073927914006
 20
56.2926143082096
 30
0.0
 11
877.3659038734868
 21
56.2926143082096
 31
0.0
  0
LINE
  5
62CB
330
1F
100
AcDbEntity
  8
LOGO
 62
     4
100
AcDbLine
 10
919.2036452279069
 20
56.2926143082096
 30
0.0
 11
919.2036452279069
 21
45.20621981047151
 31
0.0
  0
LINE
  5
62CC
330
1F
100
AcDbEntity
  8
LOGO
 62
     4
100
AcDbLine
 10
894.47856308372
 20
56.2926143082096
 30
0.0
 11
894.47856308372
 21
45.20621981047151
 31
0.0
  0
LINE
  5
62CD
330
1F
100
AcDbEntity
  8
LOGO
 62
     4
100
AcDbLine
 10
919.2036452279069
 20
45.20621981047151
 30
0.0
 11
894.47856308372
 21
45.20621981047151
 31
0.0
  0
LINE
  5
62CE
330
1F
100
AcDbEntity
  8
LOGO
 62
     4
100
AcDbLine
 10
911.4266819630786
 20
69.89864391906881
 30
0.0
 11
899.4593342607938
 21
69.89864391906881
 31
0.0
  0
LINE
  5
62CF
330
1F
100
AcDbEntity
  8
LOGO
 62
     4
100
AcDbLine
 10
911.4266819630786
 20
60.82795751182917
 30
0.0
 11
899.4593342607938
 21
60.82795751182917
 31
0.0
  0
LINE
  5
62D0
330
1F
100
AcDbEntity
  8
LOGO
 62
     4
100
AcDbLine
 10
899.4593342607938
 20
69.89864391906881
 30
0.0
 11
899.4593342607938
 21
60.82795751182917
 31
0.0
  0
LINE
  5
62D1
330
1F
100
AcDbEntity
  8
LOGO
 62
     4
100
AcDbLine
 10
911.4266819630786
 20
69.89864391906881
 30
0.0
 11
911.4266819630786
 21
60.82795751182917
 31
0.0
  0
LINE
  5
62D2
330
1F
100
AcDbEntity
  8
LOGO
 62
     4
100
AcDbLine
 10
905.443008111936
 20
60.82795751182917
 30
0.0
 11
905.443008111936
 21
56.2926143082096
 31
0.0
  0
TEXT
  5
62D3
330
1F
100
AcDbEntity
  8
LOGO
  6
Continuous
 62
     7
100
AcDbText
 10
901.6003003640667
 20
62.72145003799824
 30
0.0
 40
5.291999999999998
  1
E1
  7
CHINESET
100
AcDbText
  0
LINE
  5
62D4
330
1F
100
AcDbEntity
  8
LOGO
 62
     4
100
AcDbLine
 10
919.2036452279069
 20
56.2926143082096
 30
0.0
 11
894.47856308372
 21
56.2926143082096
 31
0.0
  0
TEXT
  5
62D5
330
1F
100
AcDbEntity
  8
LOGO
  6
Continuous
100
AcDbText
 10
857.9816928715782
 20
46.77104088458159
 30
198.1592813491953
 40
2.267999999999999
  1
Body width
 41
0.8
  7
CHINESET
100
AcDbText
  0
TEXT
  5
62D6
330
1F
100
AcDbEntity
  8
LOGO
100
AcDbText
 10
857.9603275260598
 20
50.9754240956957
 30
198.1592813491953
 40
3.78
  1
本體寬度
  7
CHINESET
100
AcDbText
  0
TEXT
  5
62D7
330
1F
100
AcDbEntity
  8
LOGO
  6
Continuous
100
AcDbText
 10
881.587988481273
 20
46.77104088458159
 30
198.1592813491953
 40
2.267999999999999
  1
4 Way
 41
0.8
  7
CHINESET
100
AcDbText
  0
TEXT
  5
62D8
330
1F
100
AcDbEntity
  8
LOGO
100
AcDbText
 10
879.3758671630611
 20
50.9754240956957
 30
198.1592813491953
 40
3.78
  1
4方向
  7
CHINESET
100
AcDbText
  0
TEXT
  5
62D9
330
1F
100
AcDbEntity
  8
LOGO
  6
Continuous
100
AcDbText
 10
896.579614175315
 20
46.77104088458159
 30
198.1592813491953
 40
2.267999999999999
  1
Single solenoid
 41
0.8
  7
CHINESET
100
AcDbText
  0
TEXT
  5
62DA
330
1F
100
AcDbEntity
  8
LOGO
100
AcDbText
 10
900.6262397560789
 20
50.9754240956957
 30
198.1592813491953
 40
3.78
  1
單線圈
  7
CHINESET
100
AcDbText
  0
LINE
  5
62DB
330
1F
100
AcDbEntity
  8
LOGO
 62
     4
100
AcDbLine
 10
932.4803352156466
 20
69.89864391906881
 30
0.0
 11
918.1400551462662
 21
69.89864391906881
 31
0.0
  0
LINE
  5
62DC
330
1F
100
AcDbEntity
  8
LOGO
 62
     4
100
AcDbLine
 10
932.4803352156466
 20
60.82795751182917
 30
0.0
 11
918.1400551462662
 21
60.82795751182917
 31
0.0
  0
LINE
  5
62DD
330
1F
100
AcDbEntity
  8
LOGO
 62
     4
100
AcDbLine
 10
918.1400551462662
 20
69.89864391906881
 30
0.0
 11
918.1400551462662
 21
60.82795751182917
 31
0.0
  0
LINE
  5
62DE
330
1F
100
AcDbEntity
  8
LOGO
 62
     4
100
AcDbLine
 10
932.4803352156466
 20
69.89864391906881
 30
0.0
 11
932.4803352156466
 21
60.82795751182917
 31
0.0
  0
TEXT
  5
62DF
330
1F
100
AcDbEntity
  8
LOGO
  6
Continuous
 62
     7
100
AcDbText
 10
923.8968640254677
 20
62.72145003799824
 30
0.0
 40
5.291999999999998
  1
?
  7
CHINESET
100
AcDbText
  0
LINE
  5
62E0
330
1F
100
AcDbEntity
  8
LOGO
 62
     4
100
AcDbLine
 10
938.1112045517568
 20
56.2926143082096
 30
0.0
 11
938.1112045517568
 21
45.20621981047151
 31
0.0
  0
LINE
  5
62E1
330
1F
100
AcDbEntity
  8
LOGO
 62
     4
100
AcDbLine
 10
921.6900486903041
 20
56.2926143082096
 30
0.0
 11
921.6900486903041
 21
45.20621981047151
 31
0.0
  0
LINE
  5
62E2
330
1F
100
AcDbEntity
  8
LOGO
 62
     4
100
AcDbLine
 10
938.1112045517568
 20
45.20621981047151
 30
0.0
 11
921.6900486903041
 21
45.20621981047151
 31
0.0
  0
LINE
  5
62E3
330
1F
100
AcDbEntity
  8
LOGO
 62
     4
100
AcDbLine
 10
938.1112045517568
 20
56.2926143082096
 30
0.0
 11
921.6900486903041
 21
56.2926143082096
 31
0.0
  0
TEXT
  5
62E4
330
1F
100
AcDbEntity
  8
LOGO
  6
Continuous
100
AcDbText
 10
925.2595853631664
 20
46.77104088458159
 30
198.1592813491953
 40
2.267999999999999
  1
Voltage
 41
0.8
  7
CHINESET
100
AcDbText
  0
TEXT
  5
62E5
330
1F
100
AcDbEntity
  8
LOGO
100
AcDbText
 10
926.5910107085774
 20
50.9754240956957
 30
198.1592813491953
 40
3.78
  1
電壓
  7
CHINESET
100
AcDbText
  0
LINE
  5
62E6
330
1F
100
AcDbEntity
  8
LOGO
 62
     4
100
AcDbLine
 10
925.310195180957
 20
60.82795751182917
 30
0.0
 11
925.310195180957
 21
56.29261430820981
 31
0.0
  0
TEXT
  5
62E7
330
1F
100
AcDbEntity
  8
LOGO
100
AcDbText
 10
799.8547099012469
 20
44.29510781975844
 30
0.0
 40
3.024
  1
10710312
 41
0.7
  7
CHINESET
 72
     1
 11
807.0115099012468
 21
44.29510781975844
 31
0.0
100
AcDbText
  0
LINE
  5
62E8
330
1F
100
AcDbEntity
  8
LOGO
 62
     4
100
AcDbLine
 10
816.3961880872943
 20
48.73370896884333
 30
0.0
 11
816.3961880872957
 21
42.6865846973497
 31
0.0
  0
LINE
  5
62E9
330
1F
100
AcDbEntity
  8
LOGO
 62
     4
100
AcDbLine
 10
816.3961880872943
 20
48.73370896884333
 30
0.0
 11
798.2521880872955
 21
48.73370896884333
 31
0.0
  0
CIRCLE
  5
62EA
330
1F
100
AcDbEntity
  8
LOGO
  6
Continuous
100
AcDbCircle
 10
783.6936106578264
 20
63.85798706911001
 30
0.0
 40
1.755551342644794
  0
CIRCLE
  5
62EB
330
1F
100
AcDbEntity
  8
LOGO
  6
Continuous
100
AcDbCircle
 10
783.6936106578264
 20
63.85798706911001
 30
0.0
 40
1.028597676622382
  0
LINE
  5
62EC
330
1F
100
AcDbEntity
  8
LOGO
100
AcDbLine
 10
794.7256990005696
 20
62.10243572646499
 30
0.0
 11
794.7256990005696
 21
65.61353841175514
 31
0.0
  0
LINE
  5
62ED
330
1F
100
AcDbEntity
  8
LOGO
100
AcDbLine
 10
789.222146314834
 20
62.82938939248788
 30
0.0
 11
789.222146314834
 21
64.88658474573265
 31
0.0
  0
LINE
  5
62EE
330
1F
100
AcDbEntity
  8
LOGO
  6
Continuous
100
AcDbLine
 10
789.222146314834
 20
64.88658474573265
 30
0.0
 11
794.7256990005696
 21
65.61353841175514
 31
0.0
  0
LINE
  5
62EF
330
1F
100
AcDbEntity
  8
LOGO
  6
Continuous
100
AcDbLine
 10
789.222146314834
 20
62.82938939248788
 30
0.0
 11
794.7256990005696
 21
62.10243572646499
 31
0.0
  0
LINE
  5
62F0
330
1F
100
AcDbEntity
  8
LOGO
  6
AM_ISO08W050x2
 48
0.3
100
AcDbLine
 10
781.2735568446797
 20
63.85798706911001
 30
0.0
 11
786.1136644709736
 21
63.85798706911001
 31
0.0
1001
GENIUS_GENOREF_13
1005
6307
  0
LINE
  5
62F1
330
1F
100
AcDbEntity
  8
LOGO
  6
AM_ISO08W050x2
 48
0.3
100
AcDbLine
 10
783.6936106578264
 20
61.43793325596295
 30
0.0
 11
783.6936106578264
 21
66.27804088225724
 31
0.0
1001
GENIUS_GENOREF_13
1005
6306
  0
LINE
  5
62F2
330
1F
100
AcDbEntity
  8
LOGO
  6
CENTER
 48
0.5
100
AcDbLine
 10
788.7820150705064
 20
63.85798706911001
 30
0.0
 11
795.2798889401046
 21
63.85798706911001
 31
0.0
1001
GENIUS_GENOREF_13
1005
6305
  0
LINE
  5
62F3
330
1F
100
AcDbEntity
  8
LOGO
  6
Continuous
 62
     7
100
AcDbLine
 10
934.1825356595467
 20
65.33117091068749
 30
0.0
 11
938.1878198023438
 21
65.33117091068749
 31
0.0
  0
LINE
  5
62F4
330
1F
100
AcDbEntity
  8
LOGO
 62
     4
100
AcDbLine
 10
947.4361021790993
 20
69.89864391906881
 30
0.0
 11
939.4512758182688
 21
69.89864391906881
 31
0.0
  0
LINE
  5
62F5
330
1F
100
AcDbEntity
  8
LOGO
 62
     4
100
AcDbLine
 10
947.4361021790993
 20
60.82795751182917
 30
0.0
 11
939.4512758182688
 21
60.82795751182917
 31
0.0
  0
LINE
  5
62F6
330
1F
100
AcDbEntity
  8
LOGO
 62
     4
100
AcDbLine
 10
939.4512758182688
 20
69.89864391906881
 30
0.0
 11
939.4512758182688
 21
60.82795751182917
 31
0.0
  0
LINE
  5
62F7
330
1F
100
AcDbEntity
  8
LOGO
 62
     4
100
AcDbLine
 10
947.4361021790993
 20
69.89864391906881
 30
0.0
 11
947.4361021790993
 21
60.82795751182917
 31
0.0
  0
LINE
  5
62F8
330
1F
100
AcDbEntity
  8
LOGO
 62
     4
100
AcDbLine
 10
943.4436889986843
 20
60.82795751182917
 30
0.0
 11
943.4436889986843
 21
56.2926143082095
 31
0.0
  0
LINE
  5
62F9
330
1F
100
AcDbEntity
  8
LOGO
 62
     4
100
AcDbLine
 10
875.501896574288
 20
58.56028591001933
 30
0.0
 11
865.7235489476045
 21
58.56028591001933
 31
0.0
  0
LINE
  5
62FA
330
1F
100
AcDbEntity
  8
LOGO
 62
     4
100
AcDbLine
 10
865.7235489476045
 20
56.2926143082096
 30
0.0
 11
865.7235489476045
 21
58.56028591001933
 31
0.0
  0
LINE
  5
62FB
330
1F
100
AcDbEntity
  8
LOGO
 62
     4
100
AcDbLine
 10
893.9246258470202
 20
58.56028591001933
 30
0.0
 11
884.9366483324438
 21
58.56028591001933
 31
0.0
  0
LINE
  5
62FC
330
1F
100
AcDbEntity
  8
LOGO
 62
     4
100
AcDbLine
 10
884.9366483324438
 20
56.2926143082096
 30
0.0
 11
884.9366483324438
 21
58.56028591001933
 31
0.0
  0
LINE
  5
62FD
330
1F
100
AcDbEntity
  8
LOGO
 62
     4
100
AcDbLine
 10
963.4849537532771
 20
56.2926143082096
 30
0.0
 11
963.4849537532771
 21
45.20621981047151
 31
0.0
  0
LINE
  5
62FE
330
1F
100
AcDbEntity
  8
LOGO
 62
     4
100
AcDbLine
 10
940.608184570123
 20
56.2926143082096
 30
0.0
 11
940.608184570123
 21
45.20621981047151
 31
0.0
  0
LINE
  5
62FF
330
1F
100
AcDbEntity
  8
LOGO
 62
     4
100
AcDbLine
 10
963.4849537532771
 20
45.20621981047151
 30
0.0
 11
940.608184570123
 21
45.20621981047151
 31
0.0
  0
LINE
  5
6300
330
1F
100
AcDbEntity
  8
LOGO
 62
     4
100
AcDbLine
 10
963.4849537532771
 20
56.2926143082096
 30
0.0
 11
940.608184570123
 21
56.2926143082096
 31
0.0
  0
TEXT
  5
6301
330
1F
100
AcDbEntity
  8
LOGO
  6
Continuous
100
AcDbText
 10
942.873556348179
 20
46.77104088458159
 30
198.1592813491953
 40
2.267999999999999
  1
DIN connector
 41
0.8
  7
CHINESET
100
AcDbText
  0
TEXT
  5
6302
330
1F
100
AcDbEntity
  8
LOGO
100
AcDbText
 10
948.9926246414695
 20
50.9754240956957
 30
198.1592813491953
 40
3.78
  1
端子型
  7
CHINESET
100
AcDbText
  0
TEXT
  5
6303
330
1F
100
AcDbEntity
  8
LOGO
  6
Continuous
100
AcDbText
 10
942.8132268886626
 20
51.4113183903192
 30
198.1592813491953
 40
3.024
  1
DIN
 41
0.8
  7
CHINESET
100
AcDbText
  0
LINE
  5
6304
330
1F
100
AcDbEntity
  8
LOGO
  6
Continuous
 62
     7
100
AcDbLine
 10
912.8713149875439
 20
65.33117091068749
 30
0.0
 11
916.8765991303407
 21
65.33117091068749
 31
0.0
  0
POINT
  5
6305
330
1F
100
AcDbEntity
  8
0
 60
     1
100
AcDbPoint
 10
-1991.867314440899
 20
-868.8539327991232
 30
0.0
1001
GENIUS_GENOBJ-N-CRS_13
1002
{
1000
OWNER
1000
GEN
1002
}
1001
GENIUS_GENOLIS_13
1002
{
1000
ENT
1005
0
1005
0
1005
0
1005
62F2
1002
}
1001
GENIUS_GENOENT_13
1002
{
1000
MYREF
1005
6305
1002
}
1002
{
1000
GRP
1005
0
1002
}
1001
GENIUS_GENODEF_13
1002
{
1000
HIER
1070
    10
1002
}
1002
{
1000
MANEDIT
1070
     1
1002
}
1002
{
1000
NOSEL
1070
     0
1002
}
1002
{
1000
BEHIND
1070
     0
1002
}
1002
{
1000
OTHER
1070
     0
1002
}
1002
{
1000
REACTOR
1002
}
  0
POINT
  5
6306
330
1F
100
AcDbEntity
  8
0
 60
     1
100
AcDbPoint
 10
-2003.191899663754
 20
-859.978346320487
 30
0.0
1001
GENIUS_GENOBJ-N-CRS_13
1002
{
1000
OWNER
1000
GEN
1002
}
1001
GENIUS_GENOLIS_13
1002
{
1000
ENT
1005
0
1005
0
1005
0
1005
62F1
1002
}
1001
GENIUS_GENOENT_13
1002
{
1000
MYREF
1005
6306
1002
}
1002
{
1000
GRP
1005
0
1002
}
1001
GENIUS_GENODEF_13
1002
{
1000
HIER
1070
    10
1002
}
1002
{
1000
MANEDIT
1070
     1
1002
}
1002
{
1000
NOSEL
1070
     0
1002
}
1002
{
1000
BEHIND
1070
     0
1002
}
1002
{
1000
OTHER
1070
     0
1002
}
1002
{
1000
REACTOR
1002
}
  0
POINT
  5
6307
330
1F
100
AcDbEntity
  8
0
 60
     1
100
AcDbPoint
 10
-1996.833225965917
 20
-868.8539327991232
 30
0.0
1001
GENIUS_GENOBJ-N-CRS_13
1002
{
1000
OWNER
1000
GEN
1002
}
1001
GENIUS_GENOLIS_13
1002
{
1000
ENT
1005
0
1005
0
1005
0
1005
62F0
1002
}
1001
GENIUS_GENOENT_13
1002
{
1000
MYREF
1005
6307
1002
}
1002
{
1000
GRP
1005
0
1002
}
1001
GENIUS_GENODEF_13
1002
{
1000
HIER
1070
    10
1002
}
1002
{
1000
MANEDIT
1070
     1
1002
}
1002
{
1000
NOSEL
1070
     0
1002
}
1002
{
1000
BEHIND
1070
     0
1002
}
1002
{
1000
OTHER
1070
     0
1002
}
1002
{
1000
REACTOR
1002
}
  0
SPLINE
  5
8CC9
330
1F
100
AcDbEntity
  8
0
  6
Continuous
 62
     7
370
    15
100
AcDbSpline
210
0.0
220
0.0
230
1.0
 70
    24
 71
     1
 72
     4
 73
     2
 74
     0
 42
0.0000000001
 43
0.0000000001
 40
0.0
 40
0.0
 40
1.0
 40
1.0
 10
904.6828362138475
 20
191.4905069988817
 30
0.0
 10
904.250616857549
 20
191.5152447891086
 30
0.0
  0
SPLINE
  5
8CCA
330
1F
100
AcDbEntity
  8
0
  6
Continuous
 62
     7
370
    15
100
AcDbSpline
210
0.0
220
0.0
230
1.0
 70
    24
 71
     1
 72
     4
 73
     2
 74
     0
 42
0.0000000001
 43
0.0000000001
 40
0.0
 40
0.0
 40
1.0
 40
1.0
 10
904.0506171972955
 20
191.5152447891086
 30
0.0
 10
903.536642620107
 20
191.5152447891086
 30
0.0
  0
ARC
  5
8CCB
330
1F
100
AcDbEntity
  8
0
  6
Continuous
 62
     7
370
    15
100
AcDbCircle
 10
904.6302406782166
 20
190.5715338816369
 30
0.0
 40
0.920477378888216
100
AcDbArc
 50
16.46247683263889
 51
86.7243907019113
  0
ARC
  5
8CCC
330
1F
100
AcDbEntity
  8
0
  6
Continuous
 62
     7
370
    15
100
AcDbCircle
 10
899.2117868716544
 20
188.9703739142192
 30
0.0
 40
6.570553032814554
100
AcDbArc
 50
14.03197254576816
 51
16.4624768326467
  0
SPLINE
  5
8CCD
330
1F
100
AcDbEntity
  8
0
  6
Continuous
 62
     7
370
    15
100
AcDbSpline
210
0.0
220
0.0
230
1.0
 70
    24
 71
     1
 72
     4
 73
     2
 74
     0
 42
0.0000000001
 43
0.0000000001
 40
0.0
 40
0.0
 40
1.0
 40
1.0
 10
904.250616857549
 20
165.7152439129204
 30
0.0
 10
904.6828362138475
 20
165.7399817031473
 30
0.0
  0
SPLINE
  5
8CCE
330
1F
100
AcDbEntity
  8
0
  6
Continuous
 62
     7
370
    15
100
AcDbSpline
210
0.0
220
0.0
230
1.0
 70
    24
 71
     1
 72
     4
 73
     2
 74
     0
 42
0.0000000001
 43
0.0000000001
 40
0.0
 40
0.0
 40
1.0
 40
1.0
 10
904.6828362138475
 20
169.490507118091
 30
0.0
 10
904.250616857549
 20
169.5152439769954
 30
0.0
  0
SPLINE
  5
8CCF
330
1F
100
AcDbEntity
  8
0
  6
Continuous
 62
     7
370
    15
100
AcDbSpline
210
0.0
220
0.0
230
1.0
 70
    24
 71
     1
 72
     4
 73
     2
 74
     0
 42
0.0000000001
 43
0.0000000001
 40
0.0
 40
0.0
 40
1.0
 40
1.0
 10
904.0506171972955
 20
169.5152439769954
 30
0.0
 10
903.4506182165349
 20
169.5152439769954
 30
0.0
  0
SPLINE
  5
8CD0
330
1F
100
AcDbEntity
  8
0
  6
Continuous
 62
     7
370
    15
100
AcDbSpline
210
0.0
220
0.0
230
1.0
 70
    24
 71
     1
 72
     4
 73
     2
 74
     0
 42
0.0000000001
 43
0.0000000001
 40
0.0
 40
0.0
 40
1.0
 40
1.0
 10
902.7506175430024
 20
165.7152439129204
 30
0.0
 10
903.2506185562814
 20
165.7152439129204
 30
0.0
  0
SPLINE
  5
8CD1
330
1F
100
AcDbEntity
  8
0
  6
Continuous
 62
     7
370
    15
100
AcDbSpline
210
0.0
220
0.0
230
1.0
 70
    24
 71
     1
 72
     4
 73
     2
 74
     0
 42
0.0000000001
 43
0.0000000001
 40
0.0
 40
0.0
 40
1.0
 40
1.0
 10
903.2506185562814
 20
169.5152439769954
 30
0.0
 10
902.7506175430024
 20
169.5152439769954
 30
0.0
  0
ARC
  5
8CD2
330
1F
100
AcDbEntity
  8
0
  6
Continuous
 62
     7
370
    15
100
AcDbCircle
 10
904.6302406782166
 20
166.6589548203921
 30
0.0
 40
0.920477378888216
100
AcDbArc
 50
273.2756092980888
 51
343.5375231673619
  0
ARC
  5
8CD3
330
1F
100
AcDbEntity
  8
0
  6
Continuous
 62
     7
370
    15
100
AcDbCircle
 10
904.6302406782166
 20
168.5715338816369
 30
0.0
 40
0.920477378888216
100
AcDbArc
 50
16.46247683263811
 51
86.7243907019113
  0
ARC
  5
8CD4
330
1F
100
AcDbEntity
  8
0
  6
Continuous
 62
     7
370
    15
100
AcDbCircle
 10
899.2117868716544
 20
166.9703739142193
 30
0.0
 40
6.57055303281455
100
AcDbArc
 50
14.03197254576816
 51
16.4624768326467
  0
ARC
  5
8CD5
330
1F
100
AcDbEntity
  8
0
  6
Continuous
 62
     7
370
    15
100
AcDbCircle
 10
899.2117868716544
 20
168.2601147878098
 30
0.0
 40
6.57055303281455
100
AcDbArc
 50
343.5375231673541
 51
345.9683742938502
  0
SPLINE
  5
8CD6
330
1F
100
AcDbEntity
  8
0
  6
Continuous
 62
     7
370
    15
100
AcDbSpline
210
0.0
220
0.0
230
1.0
 70
    24
 71
     1
 72
     4
 73
     2
 74
     0
 42
0.0000000001
 43
0.0000000001
 40
0.0
 40
0.0
 40
1.0
 40
1.0
 10
903.2506185562814
 20
166.6152442467064
 30
0.0
 10
903.4506182165349
 20
166.6152442467064
 30
0.0
  0
SPLINE
  5
8CD7
330
1F
100
AcDbEntity
  8
0
  6
Continuous
 62
     7
370
    15
100
AcDbSpline
210
0.0
220
0.0
230
1.0
 70
    24
 71
     1
 72
     4
 73
     2
 74
     0
 42
0.0000000001
 43
0.0000000001
 40
0.0
 40
0.0
 40
1.0
 40
1.0
 10
904.0506171972955
 20
166.6152442467064
 30
0.0
 10
904.250616857549
 20
166.6152442467064
 30
0.0
  0
SPLINE
  5
8CD8
330
1F
100
AcDbEntity
  8
0
  6
Continuous
 62
     7
370
    15
100
AcDbSpline
210
0.0
220
0.0
230
1.0
 70
    24
 71
     1
 72
     4
 73
     2
 74
     0
 42
0.0000000001
 43
0.0000000001
 40
0.0
 40
0.0
 40
1.0
 40
1.0
 10
903.4506182165349
 20
168.6152445745319
 30
0.0
 10
903.2506185562814
 20
168.6152445745319
 30
0.0
  0
SPLINE
  5
8CD9
330
1F
100
AcDbEntity
  8
0
  6
Continuous
 62
     7
370
    15
100
AcDbSpline
210
0.0
220
0.0
230
1.0
 70
    24
 71
     1
 72
     4
 73
     2
 74
     0
 42
0.0000000001
 43
0.0000000001
 40
0.0
 40
0.0
 40
1.0
 40
1.0
 10
904.250616857549
 20
168.6152445745319
 30
0.0
 10
904.0506171972955
 20
168.6152445745319
 30
0.0
  0
SPLINE
  5
8CEA
330
1F
100
AcDbEntity
  8
0
  6
Continuous
 62
     7
370
    15
100
AcDbSpline
210
0.0
220
0.0
230
1.0
 70
    24
 71
     1
 72
     4
 73
     2
 74
     0
 42
0.0000000001
 43
0.0000000001
 40
0.0
 40
0.0
 40
1.0
 40
1.0
 10
936.7506156654561
 20
186.1152441833764
 30
0.0
 10
936.5506197304929
 20
184.6152444031686
 30
0.0
  0
SPLINE
  5
8CEB
330
1F
100
AcDbEntity
  8
0
  6
Continuous
 62
     7
370
    15
100
AcDbSpline
210
0.0
220
0.0
230
1.0
 70
    24
 71
     1
 72
     4
 73
     2
 74
     0
 42
0.0000000001
 43
0.0000000001
 40
0.0
 40
0.0
 40
1.0
 40
1.0
 10
936.5506197304929
 20
172.6152442988604
 30
0.0
 10
936.7506156654561
 20
171.1152445186526
 30
0.0
  0
SPLINE
  5
8CEC
330
1F
100
AcDbEntity
  8
0
  6
Continuous
 62
     7
370
    15
100
AcDbSpline
210
0.0
220
0.0
230
1.0
 70
    24
 71
     1
 72
     4
 73
     2
 74
     0
 42
0.0000000001
 43
0.0000000001
 40
0.0
 40
0.0
 40
1.0
 40
1.0
 10
934.7506190629209
 20
171.1152445186526
 30
0.0
 10
935.2506200761999
 20
171.1152445186526
 30
0.0
  0
SPLINE
  5
8CED
330
1F
100
AcDbEntity
  8
0
  6
Continuous
 62
     7
370
    15
100
AcDbSpline
210
0.0
220
0.0
230
1.0
 70
    24
 71
     1
 72
     4
 73
     2
 74
     0
 42
0.0000000001
 43
0.0000000001
 40
0.0
 40
0.0
 40
1.0
 40
1.0
 10
935.2506200761999
 20
186.1152441833764
 30
0.0
 10
934.7506190629209
 20
186.1152441833764
 30
0.0
  0
SPLINE
  5
8CEE
330
1F
100
AcDbEntity
  8
0
  6
Continuous
 62
     7
370
    15
100
AcDbSpline
210
0.0
220
0.0
230
1.0
 70
    24
 71
     1
 72
     4
 73
     2
 74
     0
 42
0.0000000001
 43
0.0000000001
 40
0.0
 40
0.0
 40
1.0
 40
1.0
 10
935.2506200761999
 20
171.1152445186526
 30
0.0
 10
935.7506210894788
 20
172.6152442988604
 30
0.0
  0
SPLINE
  5
8CEF
330
1F
100
AcDbEntity
  8
0
  6
Continuous
 62
     7
370
    15
100
AcDbSpline
210
0.0
220
0.0
230
1.0
 70
    24
 71
     1
 72
     4
 73
     2
 74
     0
 42
0.0000000001
 43
0.0000000001
 40
0.0
 40
0.0
 40
1.0
 40
1.0
 10
935.7506210894788
 20
184.6152444031686
 30
0.0
 10
935.2506200761999
 20
186.1152441833764
 30
0.0
  0
SPLINE
  5
8CF0
330
1F
100
AcDbEntity
  8
0
  6
Continuous
 62
     7
370
    15
100
AcDbSpline
210
0.0
220
0.0
230
1.0
 70
    24
 71
     1
 72
     4
 73
     2
 74
     0
 42
0.0000000001
 43
0.0000000001
 40
0.0
 40
0.0
 40
1.0
 40
1.0
 10
935.7506210894788
 20
172.6152442988604
 30
0.0
 10
936.5506197304929
 20
172.6152442988604
 30
0.0
  0
SPLINE
  5
8CF1
330
1F
100
AcDbEntity
  8
0
  6
Continuous
 62
     7
370
    15
100
AcDbSpline
210
0.0
220
0.0
230
1.0
 70
    24
 71
     1
 72
     4
 73
     2
 74
     0
 42
0.0000000001
 43
0.0000000001
 40
0.0
 40
0.0
 40
1.0
 40
1.0
 10
936.5506197304929
 20
184.6152444031686
 30
0.0
 10
935.7506210894788
 20
184.6152444031686
 30
0.0
  0
SPLINE
  5
8CF2
330
1F
100
AcDbEntity
  8
0
  6
Continuous
 62
     7
370
    15
100
AcDbSpline
210
0.0
220
0.0
230
1.0
 70
    24
 71
     1
 72
     4
 73
     2
 74
     0
 42
0.0000000001
 43
0.0000000001
 40
0.0
 40
0.0
 40
1.0
 40
1.0
 10
939.150619039079
 20
173.2152442109436
 30
0.0
 10
940.3506170006002
 20
173.2152442109436
 30
0.0
  0
SPLINE
  5
8CF3
330
1F
100
AcDbEntity
  8
0
  6
Continuous
 62
     7
370
    15
100
AcDbSpline
210
0.0
220
0.0
230
1.0
 70
    24
 71
     1
 72
     4
 73
     2
 74
     0
 42
0.0000000001
 43
0.0000000001
 40
0.0
 40
0.0
 40
1.0
 40
1.0
 10
940.3506170006002
 20
184.0152444910854
 30
0.0
 10
939.150619039079
 20
184.0152444910854
 30
0.0
  0
SPLINE
  5
8CF4
330
1F
100
AcDbEntity
  8
0
  6
Continuous
 62
     7
370
    15
100
AcDbSpline
210
0.0
220
0.0
230
1.0
 70
    24
 71
     1
 72
     4
 73
     2
 74
     0
 42
0.0000000001
 43
0.0000000001
 40
0.0
 40
0.0
 40
1.0
 40
1.0
 10
941.2506173343862
 20
171.1152445186526
 30
0.0
 10
941.7506183476652
 20
171.6152441349477
 30
0.0
  0
SPLINE
  5
8CF5
330
1F
100
AcDbEntity
  8
0
  6
Continuous
 62
     7
370
    15
100
AcDbSpline
210
0.0
220
0.0
230
1.0
 70
    24
 71
     1
 72
     4
 73
     2
 74
     0
 42
0.0000000001
 43
0.0000000001
 40
0.0
 40
0.0
 40
1.0
 40
1.0
 10
941.7506183476652
 20
185.6152445670813
 30
0.0
 10
941.2506173343862
 20
186.1152441833764
 30
0.0
  0
SPLINE
  5
8CF6
330
1F
100
AcDbEntity
  8
0
  6
Continuous
 62
     7
370
    15
100
AcDbSpline
210
0.0
220
0.0
230
1.0
 70
    24
 71
     1
 72
     4
 73
     2
 74
     0
 42
0.0000000001
 43
0.0000000001
 40
0.0
 40
0.0
 40
1.0
 40
1.0
 10
936.7506156654561
 20
171.1152445186526
 30
0.0
 10
939.150619039079
 20
171.1152445186526
 30
0.0
  0
SPLINE
  5
8CF7
330
1F
100
AcDbEntity
  8
0
  6
Continuous
 62
     7
370
    15
100
AcDbSpline
210
0.0
220
0.0
230
1.0
 70
    24
 71
     1
 72
     4
 73
     2
 74
     0
 42
0.0000000001
 43
0.0000000001
 40
0.0
 40
0.0
 40
1.0
 40
1.0
 10
940.3506170006002
 20
171.1152445186526
 30
0.0
 10
941.2506173343862
 20
171.1152445186526
 30
0.0
  0
SPLINE
  5
8CF8
330
1F
100
AcDbEntity
  8
0
  6
Continuous
 62
     7
370
    15
100
AcDbSpline
210
0.0
220
0.0
230
1.0
 70
    24
 71
     1
 72
     4
 73
     2
 74
     0
 42
0.0000000001
 43
0.0000000001
 40
0.0
 40
0.0
 40
1.0
 40
1.0
 10
939.150619039079
 20
186.1152441833764
 30
0.0
 10
936.7506156654561
 20
186.1152441833764
 30
0.0
  0
SPLINE
  5
8CF9
330
1F
100
AcDbEntity
  8
0
  6
Continuous
 62
     7
370
    15
100
AcDbSpline
210
0.0
220
0.0
230
1.0
 70
    24
 71
     1
 72
     4
 73
     2
 74
     0
 42
0.0000000001
 43
0.0000000001
 40
0.0
 40
0.0
 40
1.0
 40
1.0
 10
941.2506173343862
 20
186.1152441833764
 30
0.0
 10
940.3506170006002
 20
186.1152441833764
 30
0.0
  0
SPLINE
  5
8CFC
330
1F
100
AcDbEntity
  8
0
  6
Continuous
 62
     7
370
    15
100
AcDbSpline
210
0.0
220
0.0
230
1.0
 70
    24
 71
     1
 72
     4
 73
     2
 74
     0
 42
0.0000000001
 43
0.0000000001
 40
0.0
 40
0.0
 40
1.0
 40
1.0
 10
945.0006212086881
 20
217.9152427834124
 30
0.0
 10
943.5006181688512
 20
217.9152427834124
 30
0.0
  0
SPLINE
  5
8CFD
330
1F
100
AcDbEntity
  8
0
  6
Continuous
 62
     7
370
    15
100
AcDbSpline
210
0.0
220
0.0
230
1.0
 70
    24
 71
     1
 72
     4
 73
     2
 74
     0
 42
0.0000000001
 43
0.0000000001
 40
0.0
 40
0.0
 40
1.0
 40
1.0
 10
943.5006181688512
 20
207.1152443659157
 30
0.0
 10
945.0006212086881
 20
207.1152443659157
 30
0.0
  0
ARC
  5
8CFE
330
1F
100
AcDbEntity
  8
0
  6
Continuous
 62
     7
370
    15
100
AcDbCircle
 10
943.0006177516187
 20
205.5152443510145
 30
0.0
 40
0.5
100
AcDbArc
 50
270.0
 51
0.0
  0
ARC
  5
8CFF
330
1F
100
AcDbEntity
  8
0
  6
Continuous
 62
     7
370
    15
100
AcDbCircle
 10
943.0006177516187
 20
219.5152443510145
 30
0.0
 40
0.5
100
AcDbArc
 50
0.0
 51
90.0
  0
SPLINE
  5
8D00
330
1F
100
AcDbEntity
  8
0
  6
Continuous
 62
     7
370
    15
100
AcDbSpline
210
0.0
220
0.0
230
1.0
 70
    24
 71
     1
 72
     4
 73
     2
 74
     0
 42
0.0000000001
 43
0.0000000001
 40
0.0
 40
0.0
 40
1.0
 40
1.0
 10
943.0006171555723
 20
220.0152448040098
 30
0.0
 10
934.0006212682927
 20
220.0152448040098
 30
0.0
  0
SPLINE
  5
8D01
330
1F
100
AcDbEntity
  8
0
  6
Continuous
 62
     7
370
    15
100
AcDbSpline
210
0.0
220
0.0
230
1.0
 70
    24
 71
     1
 72
     4
 73
     2
 74
     0
 42
0.0000000001
 43
0.0000000001
 40
0.0
 40
0.0
 40
1.0
 40
1.0
 10
934.0006212682927
 20
205.0152442079634
 30
0.0
 10
943.0006171555723
 20
205.0152442079634
 30
0.0
  0
SPLINE
  5
8D02
330
1F
100
AcDbEntity
  8
0
  6
Continuous
 62
     7
370
    15
100
AcDbSpline
210
0.0
220
0.0
230
1.0
 70
    24
 71
     1
 72
     4
 73
     2
 74
     0
 42
0.0000000001
 43
0.0000000001
 40
0.0
 40
0.0
 40
1.0
 40
1.0
 10
934.0006212682927
 20
220.0152448040098
 30
0.0
 10
931.4612547846044
 20
217.9152427834124
 30
0.0
  0
LINE
  5
8D08
330
1F
100
AcDbEntity
  8
0
  6
Continuous
 62
     7
370
    15
100
AcDbLine
 10
905.7506161720956
 20
189.2589677718133
 30
0.0
 11
902.7602362425531
 21
191.5416263636798
 31
0.0
  0
SPLINE
  5
8D09
330
1F
100
AcDbEntity
  8
0
  6
Continuous
 62
     7
370
    15
100
AcDbSpline
210
0.0
220
0.0
230
1.0
 70
     8
 71
     3
 72
    14
 73
    10
 74
     0
 42
0.0000000001
 43
0.0000000001
 40
0.0
 40
0.0
 40
0.0
 40
0.0
 40
0.2538208268982655
 40
0.4061404107090448
 40
0.5335442979678097
 40
0.6614330276424089
 40
0.7800338179483522
 40
0.957932852748422
 40
1.0
 40
1.0
 40
1.0
 40
1.0
 10
902.7602362425531
 20
191.5416263636798
 30
0.0
 10
902.8294352890645
 20
191.5523874145335
 30
0.0
 10
902.9401611483809
 20
191.569606244315
 30
0.0
 10
903.0614953250978
 20
191.6216414960995
 30
0.0
 10
903.1276892875403
 20
191.6751494174154
 30
0.0
 10
903.1528681631151
 20
191.7331145491008
 30
0.0
 10
903.1401748267009
 20
191.7989677118762
 30
0.0
 10
903.1004559144248
 20
191.8469693936595
 30
0.0
 10
903.0658655777354
 20
191.874407234464
 30
0.0
 10
903.0592503936494
 20
191.8796545487494
 30
0.0
  0
LINE
  5
8D0A
330
1F
100
AcDbEntity
  8
0
  6
Continuous
 62
     7
370
    15
100
AcDbLine
 10
903.0592503936494
 20
191.8796545487494
 30
0.0
 11
905.7506161720956
 21
189.8252444934696
 31
0.0
  0
LINE
  5
8D0B
330
1F
100
AcDbEntity
  8
0
  6
Continuous
 62
     7
370
    15
100
AcDbLine
 10
905.7506161720956
 20
189.8252444934696
 30
0.0
 11
905.7506161720956
 21
189.2589677718133
 31
0.0
  0
LINE
  5
8D0C
330
1F
100
AcDbEntity
  8
0
  6
Continuous
 62
     7
370
    15
100
AcDbLine
 10
902.7506175430024
 20
192.1152447011919
 30
0.0
 11
887.2506177963222
 21
192.1152447011919
 31
0.0
  0
SPLINE
  5
8D0D
330
1F
100
AcDbEntity
  8
0
  6
Continuous
 62
     7
370
    15
100
AcDbSpline
210
0.0
220
0.0
230
1.0
 70
    24
 71
     1
 72
     4
 73
     2
 74
     0
 42
0.0000000001
 43
0.0000000001
 40
0.0
 40
0.0
 40
1.0
 40
1.0
 10
903.0592503936494
 20
191.8796545487494
 30
0.0
 10
902.7506175430024
 20
192.1152447011919
 30
0.0
  0
LINE
  5
8D0E
330
1F
100
AcDbEntity
  8
0
  6
Continuous
 62
     7
370
    15
100
AcDbLine
 10
902.7602362425531
 20
191.5416263636798
 30
0.0
 11
902.7506175430024
 21
191.5405106392354
 31
0.0
  0
LINE
  5
8D0F
330
1F
100
AcDbEntity
  8
0
  6
Continuous
 62
     7
370
    15
100
AcDbLine
 10
887.2506177963222
 20
191.5405106392354
 30
0.0
 11
902.7506175430024
 21
191.5405106392354
 31
0.0
  0
LINE
  5
8D10
330
1F
100
AcDbEntity
  8
0
  6
Continuous
 62
     7
370
    15
100
AcDbLine
 10
887.2506177963222
 20
192.1152447011919
 30
0.0
 11
887.2506177963222
 21
191.815244279489
 31
0.0
  0
LINE
  5
8D11
330
1F
100
AcDbEntity
  8
0
  6
Continuous
 62
     7
370
    15
100
AcDbLine
 10
887.2506177963222
 20
191.7443147522063
 30
0.0
 11
887.2506177963222
 21
191.5405106392354
 31
0.0
  0
LINE
  5
8D12
330
1F
100
AcDbEntity
  8
0
  6
Continuous
 62
     7
370
    15
100
AcDbLine
 10
887.2506177963222
 20
191.5405106392354
 30
0.0
 11
887.2506177963222
 21
165.6899780627936
 31
0.0
  0
LINE
  5
8D13
330
1F
100
AcDbEntity
  8
0
  6
Continuous
 62
     7
370
    15
100
AcDbLine
 10
902.7506175430024
 20
191.5405106392354
 30
0.0
 11
902.7506175430024
 21
170.1152438890785
 31
0.0
  0
LINE
  5
8D14
330
1F
100
AcDbEntity
  8
0
  6
Continuous
 62
     7
370
    15
100
AcDbLine
 10
902.7506175430024
 20
165.6899780627936
 30
0.0
 11
887.2506177963222
 21
165.6899780627936
 31
0.0
  0
LINE
  5
8D15
330
1F
100
AcDbEntity
  8
0
  6
Continuous
 62
     7
370
    15
100
AcDbLine
 10
902.7506175430024
 20
170.1152438890785
 30
0.0
 11
902.7506175430024
 21
165.6899780627936
 31
0.0
  0
LINE
  5
8D16
330
1F
100
AcDbEntity
  8
0
  6
Continuous
 62
     7
370
    15
100
AcDbLine
 10
905.7506161720956
 20
170.1152438890785
 30
0.0
 11
905.7506161720956
 21
189.2589677718133
 31
0.0
  0
LINE
  5
8D18
330
1F
100
AcDbEntity
  8
0
  6
Continuous
 62
     7
370
    15
100
AcDbLine
 10
887.2506177963222
 20
165.1152440008372
 30
0.0
 11
902.7506175430024
 21
165.1152440008372
 31
0.0
  0
LINE
  5
8D19
330
1F
100
AcDbEntity
  8
0
  6
Continuous
 62
     7
370
    15
100
AcDbLine
 10
887.2506177963222
 20
165.6899780627936
 30
0.0
 11
887.2506177963222
 21
165.4861739498228
 31
0.0
  0
LINE
  5
8D1A
330
1F
100
AcDbEntity
  8
0
  6
Continuous
 62
     7
370
    15
100
AcDbLine
 10
887.2506177963222
 20
165.4152444225401
 30
0.0
 11
887.2506177963222
 21
165.1152440008372
 31
0.0
  0
LINE
  5
8D1B
330
1F
100
AcDbEntity
  8
0
  6
Continuous
 62
     7
370
    15
100
AcDbLine
 10
902.7506175430024
 20
165.6899780627936
 30
0.0
 11
902.7506175430024
 21
165.1152440008372
 31
0.0
  0
LINE
  5
8D1C
330
1F
100
AcDbEntity
  8
0
  6
Continuous
 62
     7
370
    15
100
AcDbLine
 10
905.7506161720956
 20
170.1152438890785
 30
0.0
 11
905.7506161720956
 21
167.6152444106192
 31
0.0
  0
LINE
  5
8D1D
330
1F
100
AcDbEntity
  8
0
  6
Continuous
 62
     7
370
    15
100
AcDbLine
 10
905.7506161720956
 20
167.4052442085594
 30
0.0
 11
905.6982162387575
 21
167.3652439039797
 31
0.0
  0
LINE
  5
8D1E
330
1F
100
AcDbEntity
  8
0
  6
Continuous
 62
     7
370
    15
100
AcDbLine
 10
904.250616857549
 20
166.2602445703596
 30
0.0
 11
904.0506171972955
 21
166.1075775173158
 31
0.0
  0
LINE
  5
8D1F
330
1F
100
AcDbEntity
  8
0
  6
Continuous
 62
     7
370
    15
100
AcDbLine
 10
903.5582865567411
 20
165.7317637127489
 30
0.0
 11
902.7506175430024
 21
165.1152440008372
 31
0.0
  0
LINE
  5
8D20
330
1F
100
AcDbEntity
  8
0
  6
Continuous
 62
     7
370
    15
100
AcDbLine
 10
905.7506161720956
 20
167.6152444106192
 30
0.0
 11
905.7506161720956
 21
167.4052442085594
 31
0.0
  0
LINE
  5
8D2E
330
1F
100
AcDbEntity
  8
0
  6
Continuous
 62
     7
370
    15
100
AcDbLine
 10
841.2506177069152
 20
165.6899780627936
 30
0.0
 11
841.2506177069152
 21
191.5405106392354
 31
0.0
  0
LINE
  5
8D39
330
1F
100
AcDbEntity
  8
0
  6
Continuous
 62
     7
370
    15
100
AcDbLine
 10
904.250616857549
 20
191.5152447891086
 30
0.0
 11
904.250616857549
 21
190.9702441316694
 31
0.0
  0
LINE
  5
8D3A
330
1F
100
AcDbEntity
  8
0
  6
Continuous
 62
     7
370
    15
100
AcDbLine
 10
904.0506171972955
 20
191.1229111847132
 30
0.0
 11
904.0506171972955
 21
191.5152447891086
 31
0.0
  0
SPLINE
  5
8D3B
330
1F
100
AcDbEntity
  8
0
  6
Continuous
 62
     7
370
    15
100
AcDbSpline
210
0.0
220
0.0
230
1.0
 70
     8
 71
     3
 72
     9
 73
     5
 74
     0
 42
0.0000000001
 43
0.0000000001
 40
0.0
 40
0.0
 40
0.0
 40
0.0
 40
0.5026113651273257
 40
1.0
 40
1.0
 40
1.0
 40
1.0
 10
905.7060393483842
 20
189.8652447980493
 30
0.0
 10
905.6902756109463
 20
189.9829083870366
 30
0.0
 10
905.6589119400632
 20
190.2170129002869
 30
0.0
 10
905.6052753817784
 20
190.4470364424817
 30
0.0
 10
905.5785971672738
 20
190.5614475381225
 30
0.0
  0
LINE
  5
8D3C
330
1F
100
AcDbEntity
  8
0
  6
Continuous
 62
     7
370
    15
100
AcDbLine
 10
904.250616857549
 20
167.6152444106192
 30
0.0
 11
904.250616857549
 21
165.7152439129204
 31
0.0
  0
LINE
  5
8D3D
330
1F
100
AcDbEntity
  8
0
  6
Continuous
 62
     7
370
    15
100
AcDbLine
 10
904.250616857549
 20
169.5152439769954
 30
0.0
 11
904.250616857549
 21
167.6152444106192
 31
0.0
  0
LINE
  5
8D3E
330
1F
100
AcDbEntity
  8
0
  6
Continuous
 62
     7
370
    15
100
AcDbLine
 10
903.4506182165349
 20
169.5152439769954
 30
0.0
 11
903.4506182165349
 21
165.7317637127489
 31
0.0
  0
LINE
  5
8D3F
330
1F
100
AcDbEntity
  8
0
  6
Continuous
 62
     7
370
    15
100
AcDbLine
 10
904.0506171972955
 20
165.7317637127489
 30
0.0
 11
904.0506171972955
 21
169.5152439769954
 31
0.0
  0
LINE
  5
8D40
330
1F
100
AcDbEntity
  8
0
  6
Continuous
 62
     7
370
    15
100
AcDbLine
 10
903.4506182165349
 20
165.7317637127489
 30
0.0
 11
904.0506171972955
 21
165.7317637127489
 31
0.0
  0
LINE
  5
8D41
330
1F
100
AcDbEntity
  8
0
  6
Continuous
 62
     7
370
    15
100
AcDbLine
 10
903.2506185562814
 20
167.6152444106192
 30
0.0
 11
903.2506185562814
 21
169.5152439769954
 31
0.0
  0
LINE
  5
8D42
330
1F
100
AcDbEntity
  8
0
  6
Continuous
 62
     7
370
    15
100
AcDbLine
 10
903.2506185562814
 20
165.7152439129204
 30
0.0
 11
903.2506185562814
 21
167.6152444106192
 31
0.0
  0
SPLINE
  5
8D43
330
1F
100
AcDbEntity
  8
0
  6
Continuous
 62
     7
370
    15
100
AcDbSpline
210
0.0
220
0.0
230
1.0
 70
    24
 71
     3
 72
     9
 73
     5
 74
     0
 42
0.0000000001
 43
0.0000000001
 40
0.0
 40
0.0
 40
0.0
 40
0.0
 40
0.5026120115989611
 40
0.9999999999999998
 40
0.9999999999999998
 40
0.9999999999999998
 40
0.9999999999999998
 10
905.7060393483842
 20
167.3652439039797
 30
0.0
 10
905.6902756296718
 20
167.3652439039797
 30
0.0
 10
905.6589120363859
 20
167.3652439039797
 30
0.0
 10
905.6052753906172
 20
167.3652439039797
 30
0.0
 10
905.5785971672738
 20
167.3652439039797
 30
0.0
  0
SPLINE
  5
8D44
330
1F
100
AcDbEntity
  8
0
  6
Continuous
 62
     7
370
    15
100
AcDbSpline
210
0.0
220
0.0
230
1.0
 70
    24
 71
     1
 72
     4
 73
     2
 74
     0
 42
0.0000000001
 43
0.0000000001
 40
0.0
 40
0.0
 40
1.0
 40
1.0
 10
905.5785971672738
 20
166.6690411639065
 30
0.0
 10
905.7060393483842
 20
167.3652439039797
 30
0.0
  0
SPLINE
  5
8D45
330
1F
100
AcDbEntity
  8
0
  6
Continuous
 62
     7
370
    15
100
AcDbSpline
210
0.0
220
0.0
230
1.0
 70
     8
 71
     3
 72
     9
 73
     5
 74
     0
 42
0.0000000001
 43
0.0000000001
 40
0.0
 40
0.0
 40
0.0
 40
0.0
 40
0.5026120120113898
 40
1.0
 40
1.0
 40
1.0
 40
1.0
 10
905.7060393483842
 20
167.8652439859361
 30
0.0
 10
905.6902756296839
 20
167.9829078884203
 30
0.0
 10
905.6589120364472
 20
168.2170127241032
 30
0.0
 10
905.6052753906229
 20
168.4470365629423
 30
0.0
 10
905.5785971672738
 20
168.5614476573318
 30
0.0
  0
SPLINE
  5
8D46
330
1F
100
AcDbEntity
  8
0
  6
Continuous
 62
     7
370
    15
100
AcDbSpline
210
0.0
220
0.0
230
1.0
 70
    24
 71
     1
 72
     4
 73
     2
 74
     0
 42
0.0000000001
 43
0.0000000001
 40
0.0
 40
0.0
 40
1.0
 40
1.0
 10
905.5785971672738
 20
167.8652439859361
 30
0.0
 10
905.7060393483842
 20
167.8652439859361
 30
0.0
  0
SPLINE
  5
8D47
330
1F
100
AcDbEntity
  8
0
  6
Continuous
 62
     7
370
    15
100
AcDbSpline
210
0.0
220
0.0
230
1.0
 70
    24
 71
     1
 72
     4
 73
     2
 74
     0
 42
0.0000000001
 43
0.0000000001
 40
0.0
 40
0.0
 40
1.0
 40
1.0
 10
905.5785971672738
 20
167.8652439859361
 30
0.0
 10
905.5785971672738
 20
167.3652439039797
 30
0.0
  0
LINE
  5
8D48
330
1F
100
AcDbEntity
  8
0
  6
Continuous
 62
     7
370
    15
100
AcDbLine
 10
904.0506171972955
 20
165.7317637127489
 30
0.0
 11
904.0506171972955
 21
166.6152442467064
 31
0.0
  0
LINE
  5
8D49
330
1F
100
AcDbEntity
  8
0
  6
Continuous
 62
     7
370
    15
100
AcDbLine
 10
903.4506182165349
 20
166.6152442467064
 30
0.0
 11
903.4506182165349
 21
165.7317637127489
 31
0.0
  0
LINE
  5
8D4B
330
1F
100
AcDbEntity
  8
0
  6
Continuous
 62
     7
370
    15
100
AcDbLine
 10
905.7506161720956
 20
189.1152442094535
 30
0.0
 11
907.7506164999212
 21
189.1152442094535
 31
0.0
  0
LINE
  5
8D4C
330
1F
100
AcDbEntity
  8
0
  6
Continuous
 62
     7
370
    15
100
AcDbLine
 10
907.7506164999212
 20
189.1152442094535
 30
0.0
 11
907.7506164999212
 21
170.1152438890785
 31
0.0
  0
LINE
  5
8D4D
330
1F
100
AcDbEntity
  8
0
  6
Continuous
 62
     7
370
    15
100
AcDbLine
 10
907.7506164999212
 20
189.6152442914099
 30
0.0
 11
905.7506161720956
 21
189.6152442914099
 31
0.0
  0
LINE
  5
8D4E
330
1F
100
AcDbEntity
  8
0
  6
Continuous
 62
     7
370
    15
100
AcDbLine
 10
907.7506164999212
 20
189.3331895243973
 30
0.0
 11
907.7506164999212
 21
189.1152442094535
 31
0.0
  0
LINE
  5
8D4F
330
1F
100
AcDbEntity
  8
0
  6
Continuous
 62
     7
370
    15
100
AcDbLine
 10
905.7506161720956
 20
167.6152444106192
 30
0.0
 11
907.7506164999212
 21
167.6152444106192
 31
0.0
  0
LINE
  5
8D50
330
1F
100
AcDbEntity
  8
0
  6
Continuous
 62
     7
370
    15
100
AcDbLine
 10
907.7506164999212
 20
167.8152440708727
 30
0.0
 11
907.7506164999212
 21
167.6152444106192
 31
0.0
  0
LINE
  5
8D51
330
1F
100
AcDbEntity
  8
0
  6
Continuous
 62
     7
370
    15
100
AcDbLine
 10
905.7506161720956
 20
170.1152438890785
 30
0.0
 11
905.7506161720956
 21
167.6152444106192
 31
0.0
  0
LINE
  5
8D8B
330
1F
100
AcDbEntity
  8
0
  6
Continuous
 62
     7
370
    15
100
AcDbLine
 10
936.5506197304929
 20
176.3241484422833
 30
0.0
 11
936.5506197304929
 21
172.6152442988604
 31
0.0
  0
LINE
  5
8D8C
330
1F
100
AcDbEntity
  8
0
  6
Continuous
 62
     7
370
    15
100
AcDbLine
 10
936.5506197304929
 20
184.6152444031686
 30
0.0
 11
936.5506197304929
 21
176.3241484422833
 31
0.0
  0
LINE
  5
8D8D
330
1F
100
AcDbEntity
  8
0
  6
Continuous
 62
     7
370
    15
100
AcDbLine
 10
936.7506156654561
 20
186.1152441833764
 30
0.0
 11
936.7506156654561
 21
186.1129773442298
 31
0.0
  0
LINE
  5
8D8E
330
1F
100
AcDbEntity
  8
0
  6
Continuous
 62
     7
370
    15
100
AcDbLine
 10
936.7506156654561
 20
184.0566557493657
 30
0.0
 11
936.7506156654561
 21
186.1129773442298
 31
0.0
  0
LINE
  5
8D8F
330
1F
100
AcDbEntity
  8
0
  6
Continuous
 62
     7
370
    15
100
AcDbLine
 10
936.7506156654561
 20
184.0566557493657
 30
0.0
 11
936.7506156654561
 21
182.2044206910432
 31
0.0
  0
LINE
  5
8D90
330
1F
100
AcDbEntity
  8
0
  6
Continuous
 62
     7
370
    15
100
AcDbLine
 10
936.7506156654561
 20
176.8659632780254
 30
0.0
 11
936.7506156654561
 21
182.2044206910432
 31
0.0
  0
LINE
  5
8D91
330
1F
100
AcDbEntity
  8
0
  6
Continuous
 62
     7
370
    15
100
AcDbLine
 10
936.7506156654561
 20
176.8659632780254
 30
0.0
 11
936.7506156654561
 21
174.7066879306585
 31
0.0
  0
LINE
  5
8D92
330
1F
100
AcDbEntity
  8
0
  6
Continuous
 62
     7
370
    15
100
AcDbLine
 10
936.7506156654561
 20
171.4245521125048
 30
0.0
 11
936.7506156654561
 21
174.7066879306585
 31
0.0
  0
LINE
  5
8D93
330
1F
100
AcDbEntity
  8
0
  6
Continuous
 62
     7
370
    15
100
AcDbLine
 10
936.7506156654561
 20
171.4245521125048
 30
0.0
 11
936.7506156654561
 21
171.1152445186526
 31
0.0
  0
LINE
  5
8D94
330
1F
100
AcDbEntity
  8
0
  6
Continuous
 62
     7
370
    15
100
AcDbLine
 10
935.2506200761999
 20
175.7513743486852
 30
0.0
 11
935.2506200761999
 21
171.1152445186526
 31
0.0
  0
LINE
  5
8D95
330
1F
100
AcDbEntity
  8
0
  6
Continuous
 62
     7
370
    15
100
AcDbLine
 10
935.2506200761999
 20
186.1152441833764
 30
0.0
 11
935.2506200761999
 21
175.7513743486852
 31
0.0
  0
LINE
  5
8D96
330
1F
100
AcDbEntity
  8
0
  6
Continuous
 62
     7
370
    15
100
AcDbLine
 10
935.7506210894788
 20
184.6152444031686
 30
0.0
 11
935.7506210894788
 21
172.6152442988604
 31
0.0
  0
SPLINE
  5
8D98
330
1F
100
AcDbEntity
  8
0
  6
Continuous
 62
     7
370
    15
100
AcDbSpline
210
0.0
220
0.0
230
1.0
 70
     8
 71
     3
 72
     9
 73
     5
 74
     0
 42
0.0000000001
 43
0.0000000001
 40
0.0
 40
0.0
 40
0.0
 40
0.0
 40
0.492967964817637
 40
1.0
 40
1.0
 40
1.0
 40
1.0
 10
941.2506173343862
 20
182.2044206910432
 30
0.0
 10
941.3909333252556
 20
181.7765844866298
 30
0.0
 10
941.6755684352089
 20
180.9087061761767
 30
0.0
 10
941.7253682474918
 20
179.9973026905276
 30
0.0
 10
941.7506183476652
 20
179.5351919263266
 30
0.0
  0
SPLINE
  5
8D99
330
1F
100
AcDbEntity
  8
0
  6
Continuous
 62
     7
370
    15
100
AcDbSpline
210
0.0
220
0.0
230
1.0
 70
     8
 71
     3
 72
     9
 73
     5
 74
     0
 42
0.0000000001
 43
0.0000000001
 40
0.0
 40
0.0
 40
0.0
 40
0.0
 40
0.4919475667693199
 40
1.0
 40
1.0
 40
1.0
 40
1.0
 10
941.7506183476652
 20
179.5351919263266
 30
0.0
 10
941.726846545821
 20
179.0868517578066
 30
0.0
 10
941.6785247256722
 20
178.1754941278373
 30
0.0
 10
941.3947763745824
 20
177.3071351630191
 30
0.0
 10
941.2506173343862
 20
176.8659632780254
 30
0.0
  0
LINE
  5
8D9A
330
1F
100
AcDbEntity
  8
0
  6
Continuous
 62
     7
370
    15
100
AcDbLine
 10
940.3506170006002
 20
176.8659632780254
 30
0.0
 11
941.2506173343862
 21
176.8659632780254
 31
0.0
  0
LINE
  5
8D9B
330
1F
100
AcDbEntity
  8
0
  6
Continuous
 62
     7
370
    15
100
AcDbLine
 10
941.2506173343862
 20
182.2044206910432
 30
0.0
 11
940.3506170006002
 21
182.2044206910432
 31
0.0
  0
LINE
  5
8D9C
330
1F
100
AcDbEntity
  8
0
  6
Continuous
 62
     7
370
    15
100
AcDbLine
 10
940.3506170006002
 20
182.2044206910432
 30
0.0
 11
940.3506170006002
 21
176.8659632780254
 31
0.0
  0
LINE
  5
8D9D
330
1F
100
AcDbEntity
  8
0
  6
Continuous
 62
     7
370
    15
100
AcDbLine
 10
939.150619039079
 20
182.2044206910432
 30
0.0
 11
936.7506156654561
 21
182.2044206910432
 31
0.0
  0
LINE
  5
8D9E
330
1F
100
AcDbEntity
  8
0
  6
Continuous
 62
     7
370
    15
100
AcDbLine
 10
939.150619039079
 20
176.8659632780254
 30
0.0
 11
936.7506156654561
 21
176.8659632780254
 31
0.0
  0
LINE
  5
8D9F
330
1F
100
AcDbEntity
  8
0
  6
Continuous
 62
     7
370
    15
100
AcDbLine
 10
939.150619039079
 20
182.2044206910432
 30
0.0
 11
939.150619039079
 21
176.8659632780254
 31
0.0
  0
LINE
  5
8DA0
330
1F
100
AcDbEntity
  8
0
  6
Continuous
 62
     7
370
    15
100
AcDbLine
 10
941.2506173343862
 20
184.0566557493657
 30
0.0
 11
941.2506173343862
 21
182.2044206910432
 31
0.0
  0
SPLINE
  5
8DA1
330
1F
100
AcDbEntity
  8
0
  6
Continuous
 62
     7
370
    15
100
AcDbSpline
210
0.0
220
0.0
230
1.0
 70
     8
 71
     3
 72
     9
 73
     5
 74
     0
 42
0.0000000001
 43
0.0000000001
 40
0.0
 40
0.0
 40
0.0
 40
0.0
 40
0.4919475650210178
 40
1.0
 40
1.0
 40
1.0
 40
1.0
 10
941.7506183476652
 20
185.0848163139671
 30
0.0
 10
941.7268465455471
 20
184.9121200945386
 30
0.0
 10
941.6785247246696
 20
184.5610741056816
 30
0.0
 10
941.3947763745737
 20
184.2265908048254
 30
0.0
 10
941.2506173343862
 20
184.0566557493657
 30
0.0
  0
LINE
  5
8DA2
330
1F
100
AcDbEntity
  8
0
  6
Continuous
 62
     7
370
    15
100
AcDbLine
 10
941.7506183476652
 20
185.0848163139671
 30
0.0
 11
941.7506183476652
 21
179.5351919263266
 31
0.0
  0
SPLINE
  5
8DA3
330
1F
100
AcDbEntity
  8
0
  6
Continuous
 62
     7
370
    15
100
AcDbSpline
210
0.0
220
0.0
230
1.0
 70
     8
 71
     3
 72
     9
 73
     5
 74
     0
 42
0.0000000001
 43
0.0000000001
 40
0.0
 40
0.0
 40
0.0
 40
0.0
 40
0.4929679761740922
 40
1.0
 40
1.0
 40
1.0
 40
1.0
 10
941.2506173343862
 20
174.7066879306585
 30
0.0
 10
941.3909333251998
 20
174.4436500435204
 30
0.0
 10
941.6755684284828
 20
173.9100699737166
 30
0.0
 10
941.725368245604
 20
173.3497300661267
 30
0.0
 10
941.7506183476652
 20
173.065619788751
 30
0.0
  0
LINE
  5
8DA4
330
1F
100
AcDbEntity
  8
0
  6
Continuous
 62
     7
370
    15
100
AcDbLine
 10
941.2506173343862
 20
176.8659632780254
 30
0.0
 11
941.2506173343862
 21
174.7066879306585
 31
0.0
  0
LINE
  5
8DA5
330
1F
100
AcDbEntity
  8
0
  6
Continuous
 62
     7
370
    15
100
AcDbLine
 10
941.7506183476652
 20
179.5351919263266
 30
0.0
 11
941.7506183476652
 21
173.065619788751
 31
0.0
  0
LINE
  5
8DA6
330
1F
100
AcDbEntity
  8
0
  6
Continuous
 62
     7
370
    15
100
AcDbLine
 10
941.2506173343862
 20
174.7066879306585
 30
0.0
 11
940.3506170006002
 21
174.7066879306585
 31
0.0
  0
LINE
  5
8DA7
330
1F
100
AcDbEntity
  8
0
  6
Continuous
 62
     7
370
    15
100
AcDbLine
 10
940.3506170006002
 20
176.8659632780254
 30
0.0
 11
940.3506170006002
 21
174.7066879306585
 31
0.0
  0
LINE
  5
8DA8
330
1F
100
AcDbEntity
  8
0
  6
Continuous
 62
     7
370
    15
100
AcDbLine
 10
939.150619039079
 20
174.7066879306585
 30
0.0
 11
936.7506156654561
 21
174.7066879306585
 31
0.0
  0
LINE
  5
8DA9
330
1F
100
AcDbEntity
  8
0
  6
Continuous
 62
     7
370
    15
100
AcDbLine
 10
939.150619039079
 20
176.8659632780254
 30
0.0
 11
939.150619039079
 21
174.7066879306585
 31
0.0
  0
LINE
  5
8DAA
330
1F
100
AcDbEntity
  8
0
  6
Continuous
 62
     7
370
    15
100
AcDbLine
 10
940.3506170006002
 20
184.0566557493657
 30
0.0
 11
941.2506173343862
 21
184.0566557493657
 31
0.0
  0
LINE
  5
8DAB
330
1F
100
AcDbEntity
  8
0
  6
Continuous
 62
     7
370
    15
100
AcDbLine
 10
940.3506170006002
 20
184.0566557493657
 30
0.0
 11
940.3506170006002
 21
182.2044206910432
 31
0.0
  0
LINE
  5
8DAC
330
1F
100
AcDbEntity
  8
0
  6
Continuous
 62
     7
370
    15
100
AcDbLine
 10
939.150619039079
 20
184.0566557493657
 30
0.0
 11
936.7506156654561
 21
184.0566557493657
 31
0.0
  0
LINE
  5
8DAD
330
1F
100
AcDbEntity
  8
0
  6
Continuous
 62
     7
370
    15
100
AcDbLine
 10
939.150619039079
 20
184.0566557493657
 30
0.0
 11
939.150619039079
 21
182.2044206910432
 31
0.0
  0
SPLINE
  5
8DAE
330
1F
100
AcDbEntity
  8
0
  6
Continuous
 62
     7
370
    15
100
AcDbSpline
210
0.0
220
0.0
230
1.0
 70
     8
 71
     3
 72
     9
 73
     5
 74
     0
 42
0.0000000001
 43
0.0000000001
 40
0.0
 40
0.0
 40
0.0
 40
0.0
 40
0.4919475649448885
 40
1.0
 40
1.0
 40
1.0
 40
1.0
 10
941.7506183476652
 20
173.065619788751
 30
0.0
 10
941.7268465455352
 20
172.7899758929515
 30
0.0
 10
941.6785247246261
 20
172.2296643568421
 30
0.0
 10
941.3947763745733
 20
171.6957888591325
 30
0.0
 10
941.2506173343862
 20
171.4245521125048
 30
0.0
  0
LINE
  5
8DAF
330
1F
100
AcDbEntity
  8
0
  6
Continuous
 62
     7
370
    15
100
AcDbLine
 10
940.3506170006002
 20
171.4245521125048
 30
0.0
 11
941.2506173343862
 21
171.4245521125048
 31
0.0
  0
LINE
  5
8DB0
330
1F
100
AcDbEntity
  8
0
  6
Continuous
 62
     7
370
    15
100
AcDbLine
 10
940.3506170006002
 20
174.7066879306585
 30
0.0
 11
940.3506170006002
 21
171.4245521125048
 31
0.0
  0
LINE
  5
8DB1
330
1F
100
AcDbEntity
  8
0
  6
Continuous
 62
     7
370
    15
100
AcDbLine
 10
939.150619039079
 20
171.4245521125048
 30
0.0
 11
936.7506156654561
 21
171.4245521125048
 31
0.0
  0
LINE
  5
8DB2
330
1F
100
AcDbEntity
  8
0
  6
Continuous
 62
     7
370
    15
100
AcDbLine
 10
939.150619039079
 20
174.7066879306585
 30
0.0
 11
939.150619039079
 21
171.4245521125048
 31
0.0
  0
SPLINE
  5
8DB3
330
1F
100
AcDbEntity
  8
0
  6
Continuous
 62
     7
370
    15
100
AcDbSpline
210
0.0
220
0.0
230
1.0
 70
     8
 71
     3
 72
     9
 73
     5
 74
     0
 42
0.0000000001
 43
0.0000000001
 40
0.0
 40
0.0
 40
0.0
 40
0.0
 40
0.4929679616488803
 40
1.0
 40
1.0
 40
1.0
 40
1.0
 10
941.2506173343862
 20
186.1129773442298
 30
0.0
 10
941.3909333252712
 20
185.9481789467372
 30
0.0
 10
941.6755684370857
 20
185.613880553508
 30
0.0
 10
941.7253682480184
 20
185.2628168560701
 30
0.0
 10
941.7506183476652
 20
185.0848163139671
 30
0.0
  0
LINE
  5
8DB4
330
1F
100
AcDbEntity
  8
0
  6
Continuous
 62
     7
370
    15
100
AcDbLine
 10
941.2506173343862
 20
186.1129773442298
 30
0.0
 11
940.3506170006002
 21
186.1129773442298
 31
0.0
  0
LINE
  5
8DB5
330
1F
100
AcDbEntity
  8
0
  6
Continuous
 62
     7
370
    15
100
AcDbLine
 10
940.3506170006002
 20
186.1129773442298
 30
0.0
 11
940.3506170006002
 21
184.0566557493657
 31
0.0
  0
LINE
  5
8DB6
330
1F
100
AcDbEntity
  8
0
  6
Continuous
 62
     7
370
    15
100
AcDbLine
 10
939.150619039079
 20
186.1129773442298
 30
0.0
 11
936.7506156654561
 21
186.1129773442298
 31
0.0
  0
LINE
  5
8DB7
330
1F
100
AcDbEntity
  8
0
  6
Continuous
 62
     7
370
    15
100
AcDbLine
 10
939.150619039079
 20
186.1129773442298
 30
0.0
 11
939.150619039079
 21
184.0566557493657
 31
0.0
  0
LINE
  5
8DB8
330
1F
100
AcDbEntity
  8
0
  6
Continuous
 62
     7
370
    15
100
AcDbLine
 10
941.2506173343862
 20
171.4245521125048
 30
0.0
 11
941.2506173343862
 21
171.1152445186526
 31
0.0
  0
LINE
  5
8DB9
330
1F
100
AcDbEntity
  8
0
  6
Continuous
 62
     7
370
    15
100
AcDbLine
 10
941.7506183476652
 20
173.065619788751
 30
0.0
 11
941.7506183476652
 21
171.6152441349477
 31
0.0
  0
LINE
  5
8DBA
330
1F
100
AcDbEntity
  8
0
  6
Continuous
 62
     7
370
    15
100
AcDbLine
 10
941.2506173343862
 20
186.1152441833764
 30
0.0
 11
941.2506173343862
 21
186.1129773442298
 31
0.0
  0
LINE
  5
8DBB
330
1F
100
AcDbEntity
  8
0
  6
Continuous
 62
     7
370
    15
100
AcDbLine
 10
941.7506183476652
 20
185.6152445670813
 30
0.0
 11
941.7506183476652
 21
185.0848163139671
 31
0.0
  0
LINE
  5
8DBC
330
1F
100
AcDbEntity
  8
0
  6
Continuous
 62
     7
370
    15
100
AcDbLine
 10
939.150619039079
 20
171.4245521125048
 30
0.0
 11
939.150619039079
 21
171.1152445186526
 31
0.0
  0
LINE
  5
8DBD
330
1F
100
AcDbEntity
  8
0
  6
Continuous
 62
     7
370
    15
100
AcDbLine
 10
940.3506170006002
 20
171.4245521125048
 30
0.0
 11
940.3506170006002
 21
171.1152445186526
 31
0.0
  0
LINE
  5
8DBE
330
1F
100
AcDbEntity
  8
0
  6
Continuous
 62
     7
370
    15
100
AcDbLine
 10
939.150619039079
 20
186.1152441833764
 30
0.0
 11
939.150619039079
 21
186.1129773442298
 31
0.0
  0
LINE
  5
8DBF
330
1F
100
AcDbEntity
  8
0
  6
Continuous
 62
     7
370
    15
100
AcDbLine
 10
940.3506170006002
 20
186.1152441833764
 30
0.0
 11
940.3506170006002
 21
186.1129773442298
 31
0.0
  0
LINE
  5
8DCF
330
1F
100
AcDbEntity
  8
0
  6
Continuous
 62
     7
370
    15
100
AcDbLine
 10
917.7506181390489
 20
193.4152443554849
 30
0.0
 11
917.7506181390489
 21
190.4152447950692
 31
0.0
  0
LINE
  5
8DD0
330
1F
100
AcDbEntity
  8
0
  6
Continuous
 62
     7
370
    15
100
AcDbLine
 10
934.7506190629209
 20
193.4152443554849
 30
0.0
 11
917.7506181390489
 21
193.4152443554849
 31
0.0
  0
LINE
  5
8DD1
330
1F
100
AcDbEntity
  8
0
  6
Continuous
 62
     7
370
    15
100
AcDbLine
 10
934.7506190629209
 20
169.3152443167418
 30
0.0
 11
934.7506190629209
 21
193.4152443554849
 31
0.0
  0
LINE
  5
8DD3
330
1F
100
AcDbEntity
  8
0
  6
Continuous
 62
     7
370
    15
100
AcDbLine
 10
907.7506164999212
 20
190.4152447950692
 30
0.0
 11
907.7506164999212
 21
189.3331895243973
 31
0.0
  0
LINE
  5
8DD4
330
1F
100
AcDbEntity
  8
0
  6
Continuous
 62
     7
370
    15
100
AcDbLine
 10
907.7506164999212
 20
170.1152438890785
 30
0.0
 11
907.7506164999212
 21
169.3152443167418
 31
0.0
  0
LINE
  5
8DD5
330
1F
100
AcDbEntity
  8
0
  6
Continuous
 62
     7
370
    15
100
AcDbLine
 10
917.7506181390489
 20
190.4152447950692
 30
0.0
 11
907.7506164999212
 21
190.4152447950692
 31
0.0
  0
LINE
  5
8DD6
330
1F
100
AcDbEntity
  8
0
  6
Continuous
 62
     7
370
    15
100
AcDbLine
 10
907.7506164999212
 20
167.8152440708727
 30
0.0
 11
934.7506190629209
 21
167.8152440708727
 31
0.0
  0
LINE
  5
8DD7
330
1F
100
AcDbEntity
  8
0
  6
Continuous
 62
     7
370
    15
100
AcDbLine
 10
934.7506190629209
 20
169.3152443167418
 30
0.0
 11
934.7506190629209
 21
167.8152440708727
 31
0.0
  0
LINE
  5
8DD8
330
1F
100
AcDbEntity
  8
0
  6
Continuous
 62
     7
370
    15
100
AcDbLine
 10
907.7506164999212
 20
169.3152443167418
 30
0.0
 11
907.7506164999212
 21
167.8152440708727
 31
0.0
  0
LINE
  5
8DD9
330
1F
100
AcDbEntity
  8
0
  6
Continuous
 62
     7
370
    15
100
AcDbLine
 10
933.250616023084
 20
193.4152443554849
 30
0.0
 11
933.250616023084
 21
194.4152435880751
 31
0.0
  0
LINE
  5
8DDA
330
1F
100
AcDbEntity
  8
0
  6
Continuous
 62
     7
370
    15
100
AcDbLine
 10
934.2506180496419
 20
194.4152435880751
 30
0.0
 11
933.250616023084
 21
194.4152435880751
 31
0.0
  0
LINE
  5
8DDB
330
1F
100
AcDbEntity
  8
0
  6
Continuous
 62
     7
370
    15
100
AcDbLine
 10
934.2506180496419
 20
193.4152443554849
 30
0.0
 11
934.2506180496419
 21
194.4152435880751
 31
0.0
  0
LINE
  5
8DDC
330
1F
100
AcDbEntity
  8
0
  6
Continuous
 62
     7
370
    15
100
AcDbLine
 10
919.2506174535955
 20
194.4152435880751
 30
0.0
 11
919.2506174535955
 21
193.4152443554849
 31
0.0
  0
LINE
  5
8DDD
330
1F
100
AcDbEntity
  8
0
  6
Continuous
 62
     7
370
    15
100
AcDbLine
 10
933.250616023084
 20
194.4152435880751
 30
0.0
 11
919.2506174535955
 21
194.4152435880751
 31
0.0
  0
LINE
  5
8DDE
330
1F
100
AcDbEntity
  8
0
  6
Continuous
 62
     7
370
    15
100
AcDbLine
 10
918.2506191523279
 20
193.4152443554849
 30
0.0
 11
918.2506191523279
 21
194.4152435880751
 31
0.0
  0
LINE
  5
8DDF
330
1F
100
AcDbEntity
  8
0
  6
Continuous
 62
     7
370
    15
100
AcDbLine
 10
919.2506174535955
 20
194.4152435880751
 30
0.0
 11
918.2506191523279
 21
194.4152435880751
 31
0.0
  0
LINE
  5
8DE0
330
1F
100
AcDbEntity
  8
0
  6
Continuous
 62
     7
370
    15
100
AcDbLine
 10
886.9506183059419
 20
165.4152444225401
 30
0.0
 11
886.9506183059419
 21
165.1152440008372
 31
0.0
  0
LINE
  5
8DE1
330
1F
100
AcDbEntity
  8
0
  6
Continuous
 62
     7
370
    15
100
AcDbLine
 10
887.2506177963222
 20
165.4152444225401
 30
0.0
 11
886.9506183059419
 21
165.4152444225401
 31
0.0
  0
LINE
  5
8DE2
330
1F
100
AcDbEntity
  8
0
  6
Continuous
 62
     7
370
    15
100
AcDbLine
 10
886.9506183059419
 20
165.1152440008372
 30
0.0
 11
887.2506177963222
 21
165.4152444225401
 31
0.0
  0
LINE
  5
8DE4
330
1F
100
AcDbEntity
  8
0
  6
Continuous
 62
     7
370
    15
100
AcDbLine
 10
841.2506171972955
 20
165.4152444225401
 30
0.0
 11
886.9506183059419
 21
165.4152444225401
 31
0.0
  0
LINE
  5
8DE5
330
1F
100
AcDbEntity
  8
0
  6
Continuous
 62
     7
370
    15
100
AcDbLine
 10
886.9506183059419
 20
165.1152440008372
 30
0.0
 11
841.2506171972955
 21
165.1152440008372
 31
0.0
  0
LINE
  5
8DEC
330
1F
100
AcDbEntity
  8
0
  6
Continuous
 62
     7
370
    15
100
AcDbLine
 10
886.9506183059419
 20
165.4152444225401
 30
0.0
 11
886.9506183059419
 21
191.815244279489
 31
0.0
  0
LINE
  5
8DED
330
1F
100
AcDbEntity
  8
0
  6
Continuous
 62
     7
370
    15
100
AcDbLine
 10
886.9506183059419
 20
191.815244279489
 30
0.0
 11
887.2506177963222
 21
191.815244279489
 31
0.0
  0
LINE
  5
8DEE
330
1F
100
AcDbEntity
  8
0
  6
Continuous
 62
     7
370
    15
100
AcDbLine
 10
887.2506177963222
 20
191.815244279489
 30
0.0
 11
887.2506177963222
 21
191.7443147522063
 31
0.0
  0
LINE
  5
8DEF
330
1F
100
AcDbEntity
  8
0
  6
Continuous
 62
     7
370
    15
100
AcDbLine
 10
887.2506177963222
 20
165.4861739498228
 30
0.0
 11
887.2506177963222
 21
165.4152444225401
 31
0.0
  0
LINE
  5
8DF0
330
1F
100
AcDbEntity
  8
0
  6
Continuous
 62
     7
370
    15
100
AcDbLine
 10
886.9506183059419
 20
191.815244279489
 30
0.0
 11
882.2506169767583
 21
191.815244279489
 31
0.0
  0
LINE
  5
8DF1
330
1F
100
AcDbEntity
  8
0
  6
Continuous
 62
     7
370
    15
100
AcDbLine
 10
876.2506178559268
 20
191.815244279489
 30
0.0
 11
841.2506171972955
 21
191.815244279489
 31
0.0
  0
LINE
  5
8DF2
330
1F
100
AcDbEntity
  8
0
  6
Continuous
 62
     7
370
    15
100
AcDbLine
 10
876.2506178559268
 20
189.1152442094535
 30
0.0
 11
876.2506178559268
 21
191.815244279489
 31
0.0
  0
LINE
  5
8DF3
330
1F
100
AcDbEntity
  8
0
  6
Continuous
 62
     7
370
    15
100
AcDbLine
 10
882.2506169767583
 20
189.1152442094535
 30
0.0
 11
876.2506178559268
 21
189.1152442094535
 31
0.0
  0
LINE
  5
8DF4
330
1F
100
AcDbEntity
  8
0
  6
Continuous
 62
     7
370
    15
100
AcDbLine
 10
882.2506169767583
 20
191.815244279489
 30
0.0
 11
882.2506169767583
 21
189.1152442094535
 31
0.0
  0
CIRCLE
  5
8DF5
330
1F
100
AcDbEntity
  8
0
  6
Continuous
 62
     7
370
    15
100
AcDbCircle
 10
871.2506177516187
 20
168.6152443510145
 30
0.0
 40
1.600000000000022
  0
CIRCLE
  5
8DF6
330
1F
100
AcDbEntity
  8
0
  6
Continuous
 62
     7
370
    15
100
AcDbCircle
 10
857.2506177516187
 20
168.6152443510145
 30
0.0
 40
1.600000000000022
  0
LINE
  5
8DF9
330
1F
100
AcDbEntity
  8
0
  6
Continuous
 62
     7
370
    15
100
AcDbLine
 10
886.9506183059419
 20
191.815244279489
 30
0.0
 11
886.9506183059419
 21
192.1152447011919
 31
0.0
  0
LINE
  5
8DFA
330
1F
100
AcDbEntity
  8
0
  6
Continuous
 62
     7
370
    15
100
AcDbLine
 10
887.2506177963222
 20
191.815244279489
 30
0.0
 11
886.9506183059419
 21
192.1152447011919
 31
0.0
  0
LINE
  5
8DFB
330
1F
100
AcDbEntity
  8
0
  6
Continuous
 62
     7
370
    15
100
AcDbLine
 10
886.9506183059419
 20
192.1152447011919
 30
0.0
 11
882.2506169767583
 21
192.1152447011919
 31
0.0
  0
LINE
  5
8DFC
330
1F
100
AcDbEntity
  8
0
  6
Continuous
 62
     7
370
    15
100
AcDbLine
 10
882.2506169767583
 20
191.815244279489
 30
0.0
 11
882.2506169767583
 21
192.1152447011919
 31
0.0
  0
LINE
  5
8DFD
330
1F
100
AcDbEntity
  8
0
  6
Continuous
 62
     7
370
    15
100
AcDbLine
 10
876.2506178559268
 20
192.1152447011919
 30
0.0
 11
841.2506171972955
 21
192.1152447011919
 31
0.0
  0
LINE
  5
8DFE
330
1F
100
AcDbEntity
  8
0
  6
Continuous
 62
     7
370
    15
100
AcDbLine
 10
876.2506178559268
 20
191.815244279489
 30
0.0
 11
876.2506178559268
 21
192.1152447011919
 31
0.0
  0
LINE
  5
8DFF
330
1F
100
AcDbEntity
  8
0
  6
Continuous
 62
     7
370
    15
100
AcDbLine
 10
876.2506178559268
 20
192.1152447011918
 30
0.0
 11
882.2506169767583
 21
192.1152447011918
 31
0.0
  0
LINE
  5
8E2C
330
1F
100
AcDbEntity
  8
0
  6
Continuous
 62
     7
370
    15
100
AcDbLine
 10
949.4006211848462
 20
212.3652456921191
 30
0.0
 11
945.0006212086881
 21
212.3652456921191
 31
0.0
  0
LINE
  5
8E2D
330
1F
100
AcDbEntity
  8
0
  6
Continuous
 62
     7
370
    15
100
AcDbLine
 10
945.0006212086881
 20
212.6652433198542
 30
0.0
 11
949.4006211848462
 21
212.6652433198542
 31
0.0
  0
LINE
  5
8E2F
330
1F
100
AcDbEntity
  8
0
  6
Continuous
 62
     7
370
    15
100
AcDbLine
 10
949.4006211848462
 20
212.3652456921191
 30
0.0
 11
949.4006211848462
 21
212.6652433198542
 31
0.0
  0
LINE
  5
8E30
330
1F
100
AcDbEntity
  8
0
  6
Continuous
 62
     7
370
    15
100
AcDbLine
 10
945.0006212086881
 20
210.9564377587885
 30
0.0
 11
949.4006211848462
 21
210.9564377587885
 31
0.0
  0
LINE
  5
8E32
330
1F
100
AcDbEntity
  8
0
  6
Continuous
 62
     7
370
    15
100
AcDbLine
 10
949.4006211848462
 20
210.9564377587885
 30
0.0
 11
949.4006211848462
 21
212.3652456921191
 31
0.0
  0
LINE
  5
8E33
330
1F
100
AcDbEntity
  8
0
  6
Continuous
 62
     7
370
    15
100
AcDbLine
 10
949.4006211848462
 20
214.0740512531847
 30
0.0
 11
945.0006212086881
 21
214.0740512531847
 31
0.0
  0
LINE
  5
8E35
330
1F
100
AcDbEntity
  8
0
  6
Continuous
 62
     7
370
    15
100
AcDbLine
 10
949.4006211848462
 20
214.0740512531847
 30
0.0
 11
949.4006211848462
 21
212.6652433198542
 31
0.0
  0
LINE
  5
8E36
330
1F
100
AcDbEntity
  8
0
  6
Continuous
 62
     7
370
    15
100
AcDbLine
 10
945.0006212086881
 20
210.5564347129912
 30
0.0
 11
949.4006211848462
 21
210.5564347129912
 31
0.0
  0
LINE
  5
8E38
330
1F
100
AcDbEntity
  8
0
  6
Continuous
 62
     7
370
    15
100
AcDbLine
 10
949.4006211848462
 20
210.9564377587885
 30
0.0
 11
949.4006211848462
 21
210.5564347129912
 31
0.0
  0
LINE
  5
8E39
330
1F
100
AcDbEntity
  8
0
  6
Continuous
 62
     7
370
    15
100
AcDbLine
 10
949.4006211848462
 20
214.4740505736918
 30
0.0
 11
945.0006212086881
 21
214.4740505736918
 31
0.0
  0
LINE
  5
8E3B
330
1F
100
AcDbEntity
  8
0
  6
Continuous
 62
     7
370
    15
100
AcDbLine
 10
949.4006211848462
 20
214.4740505736918
 30
0.0
 11
949.4006211848462
 21
214.0740512531847
 31
0.0
  0
LINE
  5
8E3C
330
1F
100
AcDbEntity
  8
0
  6
Continuous
 62
     7
370
    15
100
AcDbLine
 10
949.4006211848462
 20
208.3740516227335
 30
0.0
 11
945.0006212086881
 21
208.3740516227335
 31
0.0
  0
LINE
  5
8E3E
330
1F
100
AcDbEntity
  8
0
  6
Continuous
 62
     7
370
    15
100
AcDbLine
 10
949.4006211848462
 20
210.5564347129912
 30
0.0
 11
949.4006211848462
 21
208.3740516227335
 31
0.0
  0
LINE
  5
8E3F
330
1F
100
AcDbEntity
  8
0
  6
Continuous
 62
     7
370
    15
100
AcDbLine
 10
945.0006212086881
 20
216.6564373892397
 30
0.0
 11
949.4006211848462
 21
216.6564373892397
 31
0.0
  0
LINE
  5
8E41
330
1F
100
AcDbEntity
  8
0
  6
Continuous
 62
     7
370
    15
100
AcDbLine
 10
949.4006211848462
 20
216.6564373892397
 30
0.0
 11
949.4006211848462
 21
214.4740505736918
 31
0.0
  0
LINE
  5
8E42
330
1F
100
AcDbEntity
  8
0
  6
Continuous
 62
     7
370
    15
100
AcDbLine
 10
949.4006211848462
 20
207.5740529817194
 30
0.0
 11
945.0006212086881
 21
207.5740529817194
 31
0.0
  0
LINE
  5
8E43
330
1F
100
AcDbEntity
  8
0
  6
Continuous
 62
     7
370
    15
100
AcDbLine
 10
945.0006212086881
 20
206.1652450483889
 30
0.0
 11
949.4006211848462
 21
206.1652450483889
 31
0.0
  0
LINE
  5
8E45
330
1F
100
AcDbEntity
  8
0
  6
Continuous
 62
     7
370
    15
100
AcDbLine
 10
949.4006211848462
 20
206.1652450483889
 30
0.0
 11
949.4006211848462
 21
207.5740529817194
 31
0.0
  0
LINE
  5
8E47
330
1F
100
AcDbEntity
  8
0
  6
Continuous
 62
     7
370
    15
100
AcDbLine
 10
949.4006211848462
 20
208.3740516227335
 30
0.0
 11
949.4006211848462
 21
207.5740529817194
 31
0.0
  0
LINE
  5
8E48
330
1F
100
AcDbEntity
  8
0
  6
Continuous
 62
     7
370
    15
100
AcDbLine
 10
945.0006212086881
 20
217.4564360302538
 30
0.0
 11
949.4006211848462
 21
217.4564360302538
 31
0.0
  0
LINE
  5
8E4A
330
1F
100
AcDbEntity
  8
0
  6
Continuous
 62
     7
370
    15
100
AcDbLine
 10
949.4006211848462
 20
217.4564360302538
 30
0.0
 11
949.4006211848462
 21
216.6564373892397
 31
0.0
  0
LINE
  5
8E4B
330
1F
100
AcDbEntity
  8
0
  6
Continuous
 62
     7
370
    15
100
AcDbLine
 10
949.4006211848462
 20
218.8652439635843
 30
0.0
 11
945.0006212086881
 21
218.8652439635843
 31
0.0
  0
LINE
  5
8E4D
330
1F
100
AcDbEntity
  8
0
  6
Continuous
 62
     7
370
    15
100
AcDbLine
 10
949.4006211848462
 20
217.4564360302538
 30
0.0
 11
949.4006211848462
 21
218.8652439635843
 31
0.0
  0
LINE
  5
8E4E
330
1F
100
AcDbEntity
  8
0
  6
Continuous
 62
     7
370
    15
100
AcDbLine
 10
949.4006211848462
 20
206.0152443718762
 30
0.0
 11
945.0006212086881
 21
206.0152443718762
 31
0.0
  0
LINE
  5
8E4F
330
1F
100
AcDbEntity
  8
0
  6
Continuous
 62
     7
370
    15
100
AcDbLine
 10
945.0006212086881
 20
219.0152427774519
 30
0.0
 11
945.0006212086881
 21
206.0152443718762
 31
0.0
  0
LINE
  5
8E50
330
1F
100
AcDbEntity
  8
0
  6
Continuous
 62
     7
370
    15
100
AcDbLine
 10
949.4006211848462
 20
206.0152443718762
 30
0.0
 11
949.4006211848462
 21
206.1652450483889
 31
0.0
  0
LINE
  5
8E51
330
1F
100
AcDbEntity
  8
0
  6
Continuous
 62
     7
370
    15
100
AcDbLine
 10
945.0006212086881
 20
219.0152427774519
 30
0.0
 11
949.4006211848462
 21
219.0152427774519
 31
0.0
  0
LINE
  5
8E53
330
1F
100
AcDbEntity
  8
0
  6
Continuous
 62
     7
370
    15
100
AcDbLine
 10
949.4006211848462
 20
218.8652439635843
 30
0.0
 11
949.4006211848462
 21
219.0152427774519
 31
0.0
  0
LINE
  5
8E55
330
1F
100
AcDbEntity
  8
0
  6
Continuous
 62
     7
370
    15
100
AcDbLine
 10
949.4006211848462
 20
206.4152436923832
 30
0.0
 11
949.4006211848462
 21
206.0152443718762
 31
0.0
  0
LINE
  5
8E57
330
1F
100
AcDbEntity
  8
0
  6
Continuous
 62
     7
370
    15
100
AcDbLine
 10
949.4006211848462
 20
219.0152427774519
 30
0.0
 11
949.4006211848462
 21
218.6152434569449
 31
0.0
  0
LINE
  5
8E58
330
1F
100
AcDbEntity
  8
0
  6
Continuous
 62
     7
370
    15
100
AcDbLine
 10
933.700616189977
 20
213.3798247796149
 30
0.0
 11
933.700616189977
 21
217.6152451556773
 31
0.0
  0
SPLINE
  5
8E59
330
1F
100
AcDbEntity
  8
0
  6
Continuous
 62
     7
370
    15
100
AcDbSpline
210
0.0
220
0.0
230
1.0
 70
    24
 71
     1
 72
     4
 73
     2
 74
     0
 42
0.0000000001
 43
0.0000000001
 40
0.0
 40
0.0
 40
1.0
 40
1.0
 10
933.700616189977
 20
213.3798247796149
 30
0.0
 10
933.700616189977
 20
211.6506642323584
 30
0.0
  0
LINE
  5
8E5A
330
1F
100
AcDbEntity
  8
0
  6
Continuous
 62
     7
370
    15
100
AcDbLine
 10
933.700616189977
 20
211.6506642323584
 30
0.0
 11
933.700616189977
 21
194.4152435880751
 31
0.0
  0
LINE
  5
8E5B
330
1F
100
AcDbEntity
  8
0
  6
Continuous
 62
     7
370
    15
100
AcDbLine
 10
918.8006172867025
 20
217.6152451556773
 30
0.0
 11
918.8006172867025
 21
194.4152435880751
 31
0.0
  0
LINE
  5
8E5C
330
1F
100
AcDbEntity
  8
0
  6
Continuous
 62
     7
370
    15
100
AcDbLine
 10
933.700616189977
 20
217.6152451556773
 30
0.0
 11
918.8006172867025
 21
217.6152451556773
 31
0.0
  0
LINE
  5
8E5D
330
1F
100
AcDbEntity
  8
0
  6
Continuous
 62
     7
370
    15
100
AcDbLine
 10
934.0006212682927
 20
211.6506642323584
 30
0.0
 11
934.0006212682927
 21
194.4152435880751
 31
0.0
  0
LINE
  5
8E5E
330
1F
100
AcDbEntity
  8
0
  6
Continuous
 62
     7
370
    15
100
AcDbLine
 10
933.700616189977
 20
211.6506642323584
 30
0.0
 11
934.0006212682927
 21
211.6506642323584
 31
0.0
  0
LINE
  5
8E5F
330
1F
100
AcDbEntity
  8
0
  6
Continuous
 62
     7
370
    15
100
AcDbLine
 10
934.0006212682927
 20
217.6152451556773
 30
0.0
 11
933.700616189977
 21
217.6152451556773
 31
0.0
  0
LINE
  5
8E60
330
1F
100
AcDbEntity
  8
0
  6
Continuous
 62
     7
370
    15
100
AcDbLine
 10
934.0006212682927
 20
217.6152451556773
 30
0.0
 11
934.0006212682927
 21
213.3798247796149
 31
0.0
  0
LINE
  5
8E61
330
1F
100
AcDbEntity
  8
0
  6
Continuous
 62
     7
370
    15
100
AcDbLine
 10
933.700616189977
 20
213.3798247796149
 30
0.0
 11
934.0006212682927
 21
213.3798247796149
 31
0.0
  0
SPLINE
  5
8E62
330
1F
100
AcDbEntity
  8
0
  6
Continuous
 62
     7
370
    15
100
AcDbSpline
210
0.0
220
0.0
230
1.0
 70
     8
 71
     3
 72
    10
 73
     6
 74
     0
 42
0.0000000001
 43
0.0000000001
 40
0.0
 40
0.0
 40
0.0
 40
0.0
 40
0.3465740754769492
 40
0.6723569172872864
 40
1.0
 40
1.0
 40
1.0
 40
1.0
 10
934.0006212682927
 20
213.3798247796149
 30
0.0
 10
934.0006182831755
 20
213.1804361096111
 30
0.0
 10
934.0006124920204
 20
212.7936202425523
 30
0.0
 10
934.0006123020257
 20
212.2149906193421
 30
0.0
 10
934.0006182738701
 20
211.8391297080016
 30
0.0
 10
934.0006212682927
 20
211.6506642323584
 30
0.0
  0
LINE
  5
8E63
330
1F
100
AcDbEntity
  8
0
  6
Continuous
 62
     7
370
    15
100
AcDbLine
 10
918.500615933677
 20
194.4152435880751
 30
0.0
 11
918.500615933677
 21
217.6152451556773
 31
0.0
  0
LINE
  5
8E64
330
1F
100
AcDbEntity
  8
0
  6
Continuous
 62
     7
370
    15
100
AcDbLine
 10
918.8006172867025
 20
217.6152451556773
 30
0.0
 11
918.500615933677
 21
217.6152451556773
 31
0.0
  0
LINE
  5
8E65
330
1F
100
AcDbEntity
  8
0
  6
Continuous
 62
     7
370
    15
100
AcDbLine
 10
918.8006172867025
 20
217.9152427834124
 30
0.0
 11
918.8006172867025
 21
217.6152451556773
 31
0.0
  0
LINE
  5
8E66
330
1F
100
AcDbEntity
  8
0
  6
Continuous
 62
     7
370
    15
100
AcDbLine
 10
918.8006172867025
 20
217.9152427834124
 30
0.0
 11
933.700616189977
 21
217.9152427834124
 31
0.0
  0
LINE
  5
8E67
330
1F
100
AcDbEntity
  8
0
  6
Continuous
 62
     7
370
    15
100
AcDbLine
 10
933.700616189977
 20
217.6152451556773
 30
0.0
 11
933.700616189977
 21
217.9152427834124
 31
0.0
  0
ARC
  5
8E68
330
1F
100
AcDbEntity
  8
0
  6
Continuous
 62
     7
370
    15
100
AcDbCircle
 10
933.7006177516187
 20
217.6152443510146
 30
0.0
 40
0.3000000000000114
100
AcDbArc
 50
0.0
 51
90.0
  0
ARC
  5
8E69
330
1F
100
AcDbEntity
  8
0
  6
Continuous
 62
     7
370
    15
100
AcDbCircle
 10
918.8006177516186
 20
217.6152443510146
 30
0.0
 40
0.3000000000000114
100
AcDbArc
 50
90.0
 51
180.0
  0
SPLINE
  5
8E6A
330
1F
100
AcDbEntity
  8
0
  6
Continuous
 62
     7
370
    15
100
AcDbSpline
210
0.0
220
0.0
230
1.0
 70
    24
 71
     3
 72
    25
 73
    21
 74
     0
 42
0.0000000001
 43
0.0000000001
 40
0.0
 40
0.0
 40
0.0
 40
0.0
 40
0.0582483963716592
 40
0.1199858407922074
 40
0.1842899556369614
 40
0.2499586881128849
 40
0.3156274668781267
 40
0.3478088488027994
 40
0.3800141047096459
 40
0.4417516619850581
 40
0.5000000022223709
 40
0.5582483424596837
 40
0.6199858997350959
 40
0.6842899019461828
 40
0.7499587465492081
 40
0.8156274790251314
 40
0.8478088533346614
 40
0.8800141592077936
 40
0.9417516036283418
 40
1.0
 40
1.0
 40
1.0
 40
1.0
 10
943.5006181688512
 20
205.5152452212424
 30
0.0
 10
943.5006181688512
 20
205.5379558881707
 30
0.0
 10
943.5006181688512
 20
205.5847375789312
 30
0.0
 10
943.5006181688512
 20
205.9741784485902
 30
0.0
 10
943.5006181688512
 20
206.6200267893114
 30
0.0
 10
943.5006181688512
 20
207.5302998111819
 30
0.0
 10
943.5006181688512
 20
208.466395673408
 30
0.0
 10
943.5006181688512
 20
209.2896429619021
 30
0.0
 10
943.5006181688512
 20
210.1310593084796
 30
0.0
 10
943.5006181688512
 20
211.208972054748
 30
0.0
 10
943.5006181688512
 20
212.5152119049251
 30
0.0
 10
943.5006181688512
 20
213.8216512672368
 30
0.0
 10
943.5006181688512
 20
215.1262637840505
 30
0.0
 10
943.5006181688512
 20
216.3807883215517
 30
0.0
 10
943.5006181688512
 20
217.5002533836969
 30
0.0
 10
943.5006181688512
 20
218.2603086859762
 30
0.0
 10
943.5006181688512
 20
218.7416210374306
 30
0.0
 10
943.5006181688512
 20
219.1230169711122
 30
0.0
 10
943.5006181688512
 20
219.4460800124109
 30
0.0
 10
943.5006181688512
 20
219.4926405062091
 30
0.0
 10
943.5006181688512
 20
219.5152437907309
 30
0.0
  0
LINE
  5
8E6B
330
1F
100
AcDbEntity
  8
0
  6
Continuous
 62
     7
370
    15
100
AcDbLine
 10
934.0006212682927
 20
220.0152448040098
 30
0.0
 11
934.0006212682927
 21
217.6152451556772
 31
0.0
  0
SPLINE
  5
8E6C
330
1F
100
AcDbEntity
  8
0
  6
Continuous
 62
     7
370
    15
100
AcDbSpline
210
0.0
220
0.0
230
1.0
 70
    24
 71
     1
 72
     4
 73
     2
 74
     0
 42
0.0000000001
 43
0.0000000001
 40
0.0
 40
0.0
 40
1.0
 40
1.0
 10
925.4587206037248
 20
217.9152427834124
 30
0.0
 10
926.0006162317003
 20
217.9995870810599
 30
0.0
  0
LINE
  5
8E6D
330
1F
100
AcDbEntity
  8
0
  6
Continuous
 62
     7
370
    15
100
AcDbLine
 10
926.0006162317003
 20
217.9995870810599
 30
0.0
 11
926.0006162317003
 21
217.9152427834124
 31
0.0
  0
LINE
  5
8E6E
330
1F
100
AcDbEntity
  8
0
  6
Continuous
 62
     7
370
    15
100
AcDbLine
 10
926.5006172449792
 20
217.9995870810599
 30
0.0
 11
926.5006172449792
 21
217.9152427834124
 31
0.0
  0
SPLINE
  5
8E6F
330
1F
100
AcDbEntity
  8
0
  6
Continuous
 62
     7
370
    15
100
AcDbSpline
210
0.0
220
0.0
230
1.0
 70
    24
 71
     1
 72
     4
 73
     2
 74
     0
 42
0.0000000001
 43
0.0000000001
 40
0.0
 40
0.0
 40
1.0
 40
1.0
 10
927.042516598245
 20
217.9152427834124
 30
0.0
 10
926.5006172449792
 20
217.9995870810599
 30
0.0
  0
LINE
  5
8E88
330
1F
100
AcDbEntity
  8
0
  6
Continuous
 62
     7
370
    15
100
AcDbLine
 10
905.5785971672738
 20
167.6152444106192
 30
0.0
 11
905.7506161720956
 21
167.6152444106192
 31
0.0
  0
LINE
  5
8E89
330
1F
100
AcDbEntity
  8
0
  6
Continuous
 62
     7
370
    15
100
AcDbLine
 10
904.6828362138475
 20
190.6403175216764
 30
0.0
 11
904.6828362138475
 21
191.4905069988817
 31
0.0
  0
LINE
  5
8E8A
330
1F
100
AcDbEntity
  8
0
  6
Continuous
 62
     7
370
    15
100
AcDbLine
 10
905.512983629247
 20
190.0066381913275
 30
0.0
 11
905.512983629247
 21
190.8323851075619
 31
0.0
  0
LINE
  5
8E8B
330
1F
100
AcDbEntity
  8
0
  6
Continuous
 62
     7
370
    15
100
AcDbLine
 10
904.6828362138475
 20
167.6152444106192
 30
0.0
 11
904.6828362138475
 21
169.490507118091
 31
0.0
  0
LINE
  5
8E8C
330
1F
100
AcDbEntity
  8
0
  6
Continuous
 62
     7
370
    15
100
AcDbLine
 10
904.6828362138475
 20
165.7399817031473
 30
0.0
 11
904.6828362138475
 21
167.6152444106192
 31
0.0
  0
LINE
  5
8E8D
330
1F
100
AcDbEntity
  8
0
  6
Continuous
 62
     7
370
    15
100
AcDbLine
 10
905.512983629247
 20
167.6152444106192
 30
0.0
 11
905.512983629247
 21
168.8323852267713
 31
0.0
  0
LINE
  5
8E8E
330
1F
100
AcDbEntity
  8
0
  6
Continuous
 62
     7
370
    15
100
AcDbLine
 10
905.512983629247
 20
166.3981035944671
 30
0.0
 11
905.512983629247
 21
167.6152444106192
 31
0.0
  0
LINE
  5
8E8F
330
1F
100
AcDbEntity
  8
0
  6
Continuous
 62
     7
370
    15
100
AcDbLine
 10
943.0006171555723
 20
205.0152442079634
 30
0.0
 11
943.0006171555723
 21
220.0152448040098
 31
0.0
  0
SPLINE
  5
8E91
330
1F
100
AcDbEntity
  8
0
  6
Continuous
 62
     7
370
    15
100
AcDbSpline
210
0.0
220
0.0
230
1.0
 70
    24
 71
     1
 72
     4
 73
     2
 74
     0
 42
0.0000000001
 43
0.0000000001
 40
0.0
 40
0.0
 40
1.0
 40
1.0
 10
904.250616857549
 20
257.8277721685101
 30
0.0
 10
904.6828362138475
 20
257.8525090274145
 30
0.0
  0
SPLINE
  5
8E92
330
1F
100
AcDbEntity
  8
0
  6
Continuous
 62
     7
370
    15
100
AcDbSpline
210
0.0
220
0.0
230
1.0
 70
    24
 71
     1
 72
     4
 73
     2
 74
     0
 42
0.0000000001
 43
0.0000000001
 40
0.0
 40
0.0
 40
1.0
 40
1.0
 10
904.6828362138475
 20
261.6030349080195
 30
0.0
 10
904.250616857549
 20
261.6277717669238
 30
0.0
  0
SPLINE
  5
8E93
330
1F
100
AcDbEntity
  8
0
  6
Continuous
 62
     7
370
    15
100
AcDbSpline
210
0.0
220
0.0
230
1.0
 70
    24
 71
     1
 72
     4
 73
     2
 74
     0
 42
0.0000000001
 43
0.0000000001
 40
0.0
 40
0.0
 40
1.0
 40
1.0
 10
902.7506175430024
 20
257.8277721685101
 30
0.0
 10
903.2506185562814
 20
257.8277721685101
 30
0.0
  0
SPLINE
  5
8E94
330
1F
100
AcDbEntity
  8
0
  6
Continuous
 62
     7
370
    15
100
AcDbSpline
210
0.0
220
0.0
230
1.0
 70
    24
 71
     1
 72
     4
 73
     2
 74
     0
 42
0.0000000001
 43
0.0000000001
 40
0.0
 40
0.0
 40
1.0
 40
1.0
 10
903.2506185562814
 20
261.6277717669238
 30
0.0
 10
902.7506175430024
 20
261.6277717669238
 30
0.0
  0
SPLINE
  5
8E95
330
1F
100
AcDbEntity
  8
0
  6
Continuous
 62
     7
370
    15
100
AcDbSpline
210
0.0
220
0.0
230
1.0
 70
    24
 71
     1
 72
     4
 73
     2
 74
     0
 42
0.0000000001
 43
0.0000000001
 40
0.0
 40
0.0
 40
1.0
 40
1.0
 10
903.4506182165349
 20
257.8277721685101
 30
0.0
 10
904.0506171972955
 20
257.8277721685101
 30
0.0
  0
SPLINE
  5
8E96
330
1F
100
AcDbEntity
  8
0
  6
Continuous
 62
     7
370
    15
100
AcDbSpline
210
0.0
220
0.0
230
1.0
 70
    24
 71
     1
 72
     4
 73
     2
 74
     0
 42
0.0000000001
 43
0.0000000001
 40
0.0
 40
0.0
 40
1.0
 40
1.0
 10
904.0506171972955
 20
261.6277717669238
 30
0.0
 10
903.4506182165349
 20
261.6277717669238
 30
0.0
  0
ARC
  5
8E97
330
1F
100
AcDbEntity
  8
0
  6
Continuous
 62
     7
370
    15
100
AcDbCircle
 10
904.6302406782166
 20
258.7714825358148
 30
0.0
 40
0.9204773788882018
100
AcDbArc
 50
273.2756092980888
 51
343.5375231673634
  0
ARC
  5
8E98
330
1F
100
AcDbEntity
  8
0
  6
Continuous
 62
     7
370
    15
100
AcDbCircle
 10
904.6302406782166
 20
260.6840615970595
 30
0.0
 40
0.9204773788882018
100
AcDbArc
 50
16.46247683263811
 51
86.7243907019113
  0
ARC
  5
8E99
330
1F
100
AcDbEntity
  8
0
  6
Continuous
 62
     7
370
    15
100
AcDbCircle
 10
899.2117868716544
 20
259.0829016296419
 30
0.0
 40
6.570553032814554
100
AcDbArc
 50
14.03197254576816
 51
16.4624768326467
  0
ARC
  5
8E9A
330
1F
100
AcDbEntity
  8
0
  6
Continuous
 62
     7
370
    15
100
AcDbCircle
 10
899.2117868716544
 20
260.3726425032324
 30
0.0
 40
6.57055303281456
100
AcDbArc
 50
343.5375231673541
 51
345.9683742938509
  0
SPLINE
  5
8E9B
330
1F
100
AcDbEntity
  8
0
  6
Continuous
 62
     7
370
    15
100
AcDbSpline
210
0.0
220
0.0
230
1.0
 70
    24
 71
     1
 72
     4
 73
     2
 74
     0
 42
0.0000000001
 43
0.0000000001
 40
0.0
 40
0.0
 40
1.0
 40
1.0
 10
904.0506171972955
 20
258.7277720366349
 30
0.0
 10
904.250616857549
 20
258.7277720366349
 30
0.0
  0
SPLINE
  5
8E9C
330
1F
100
AcDbEntity
  8
0
  6
Continuous
 62
     7
370
    15
100
AcDbSpline
210
0.0
220
0.0
230
1.0
 70
    24
 71
     1
 72
     4
 73
     2
 74
     0
 42
0.0000000001
 43
0.0000000001
 40
0.0
 40
0.0
 40
1.0
 40
1.0
 10
903.2506185562814
 20
258.7277720366349
 30
0.0
 10
903.4506182165349
 20
258.7277720366349
 30
0.0
  0
SPLINE
  5
8E9D
330
1F
100
AcDbEntity
  8
0
  6
Continuous
 62
     7
370
    15
100
AcDbSpline
210
0.0
220
0.0
230
1.0
 70
    24
 71
     1
 72
     4
 73
     2
 74
     0
 42
0.0000000001
 43
0.0000000001
 40
0.0
 40
0.0
 40
1.0
 40
1.0
 10
903.4506182165349
 20
260.7277718987991
 30
0.0
 10
903.2506185562814
 20
260.7277718987991
 30
0.0
  0
SPLINE
  5
8E9E
330
1F
100
AcDbEntity
  8
0
  6
Continuous
 62
     7
370
    15
100
AcDbSpline
210
0.0
220
0.0
230
1.0
 70
    24
 71
     1
 72
     4
 73
     2
 74
     0
 42
0.0000000001
 43
0.0000000001
 40
0.0
 40
0.0
 40
1.0
 40
1.0
 10
904.250616857549
 20
260.7277718987991
 30
0.0
 10
904.0506171972955
 20
260.7277718987991
 30
0.0
  0
SPLINE
  5
8EA3
330
1F
100
AcDbEntity
  8
0
  6
Continuous
 62
     7
370
    15
100
AcDbSpline
210
0.0
220
0.0
230
1.0
 70
    24
 71
     1
 72
     4
 73
     2
 74
     0
 42
0.0000000001
 43
0.0000000001
 40
0.0
 40
0.0
 40
1.0
 40
1.0
 10
945.0006212086881
 20
258.6277722065081
 30
0.0
 10
943.5006181688512
 20
258.6277722065081
 30
0.0
  0
SPLINE
  5
8EA4
330
1F
100
AcDbEntity
  8
0
  6
Continuous
 62
     7
370
    15
100
AcDbSpline
210
0.0
220
0.0
230
1.0
 70
    24
 71
     1
 72
     4
 73
     2
 74
     0
 42
0.0000000001
 43
0.0000000001
 40
0.0
 40
0.0
 40
1.0
 40
1.0
 10
943.5006181688512
 20
247.8277719263663
 30
0.0
 10
945.0006212086881
 20
247.8277719263663
 30
0.0
  0
SPLINE
  5
8EA5
330
1F
100
AcDbEntity
  8
0
  6
Continuous
 62
     7
370
    15
100
AcDbSpline
210
0.0
220
0.0
230
1.0
 70
    24
 71
     1
 72
     4
 73
     2
 74
     0
 42
0.0000000001
 43
0.0000000001
 40
0.0
 40
0.0
 40
1.0
 40
1.0
 10
949.4006211848462
 20
260.686915243112
 30
0.0
 10
945.0006212086881
 20
260.686915243112
 30
0.0
  0
SPLINE
  5
8EA6
330
1F
100
AcDbEntity
  8
0
  6
Continuous
 62
     7
370
    15
100
AcDbSpline
210
0.0
220
0.0
230
1.0
 70
    24
 71
     1
 72
     4
 73
     2
 74
     0
 42
0.0000000001
 43
0.0000000001
 40
0.0
 40
0.0
 40
1.0
 40
1.0
 10
945.0006212086881
 20
245.7686288897623
 30
0.0
 10
949.4006211848462
 20
245.7686288897623
 30
0.0
  0
ARC
  5
8EA7
330
1F
100
AcDbEntity
  8
0
  6
Continuous
 62
     7
370
    15
100
AcDbCircle
 10
943.0006177516187
 20
246.2277720664372
 30
0.0
 40
0.5
100
AcDbArc
 50
270.0
 51
0.0
  0
ARC
  5
8EA8
330
1F
100
AcDbEntity
  8
0
  6
Continuous
 62
     7
370
    15
100
AcDbCircle
 10
943.0006177516187
 20
260.2277720664372
 30
0.0
 40
0.5
100
AcDbArc
 50
0.0
 51
90.0
  0
SPLINE
  5
8EA9
330
1F
100
AcDbEntity
  8
0
  6
Continuous
 62
     7
370
    15
100
AcDbSpline
210
0.0
220
0.0
230
1.0
 70
    24
 71
     1
 72
     4
 73
     2
 74
     0
 42
0.0000000001
 43
0.0000000001
 40
0.0
 40
0.0
 40
1.0
 40
1.0
 10
943.0006171555723
 20
260.7277718987991
 30
0.0
 10
934.0006138177121
 20
260.7277718987991
 30
0.0
  0
SPLINE
  5
8EAA
330
1F
100
AcDbEntity
  8
0
  6
Continuous
 62
     7
370
    15
100
AcDbSpline
210
0.0
220
0.0
230
1.0
 70
    24
 71
     1
 72
     4
 73
     2
 74
     0
 42
0.0000000001
 43
0.0000000001
 40
0.0
 40
0.0
 40
1.0
 40
1.0
 10
934.0006138177121
 20
245.7277722340752
 30
0.0
 10
943.0006171555723
 20
245.7277722340752
 30
0.0
  0
SPLINE
  5
8EAB
330
1F
100
AcDbEntity
  8
0
  6
Continuous
 62
     7
370
    15
100
AcDbSpline
210
0.0
220
0.0
230
1.0
 70
    24
 71
     1
 72
     4
 73
     2
 74
     0
 42
0.0000000001
 43
0.0000000001
 40
0.0
 40
0.0
 40
1.0
 40
1.0
 10
933.9806984157766
 20
245.6709736642172
 30
0.0
 10
934.0006212682927
 20
245.7277722340752
 30
0.0
  0
SPLINE
  5
8EB1
330
1F
100
AcDbEntity
  8
0
  6
Continuous
 62
     7
370
    15
100
AcDbSpline
210
0.0
220
0.0
230
1.0
 70
    24
 71
     1
 72
     4
 73
     2
 74
     0
 42
0.0000000001
 43
0.0000000001
 40
0.0
 40
0.0
 40
1.0
 40
1.0
 10
903.0592503936494
 20
244.7355444227089
 30
0.0
 10
902.7506175430024
 20
245.1152818892826
 30
0.0
  0
LINE
  5
8EB2
330
1F
100
AcDbEntity
  8
0
  6
Continuous
 62
     7
370
    15
100
AcDbLine
 10
902.7506175430024
 20
257.227772256427
 30
0.0
 11
902.7506175430024
 21
245.1152818892826
 31
0.0
  0
LINE
  5
8EB4
330
1F
100
AcDbEntity
  8
0
  6
Continuous
 62
     7
370
    15
100
AcDbLine
 10
905.7506161720956
 20
245.1841056962241
 30
0.0
 11
905.7506161720956
 21
257.227772256427
 31
0.0
  0
LINE
  5
8EB5
330
1F
100
AcDbEntity
  8
0
  6
Continuous
 62
     7
370
    15
100
AcDbLine
 10
903.0592503936494
 20
244.7355444227089
 30
0.0
 11
905.7506161720956
 21
245.1841056962241
 31
0.0
  0
LINE
  5
8EB6
330
1F
100
AcDbEntity
  8
0
  6
Continuous
 62
     7
370
    15
100
AcDbLine
 10
887.2506177963222
 20
261.3402622435917
 30
0.0
 11
887.2506177963222
 21
245.1152818892826
 31
0.0
  0
LINE
  5
8EB7
330
1F
100
AcDbEntity
  8
0
  6
Continuous
 62
     7
370
    15
100
AcDbLine
 10
887.2506177963222
 20
261.3402622435917
 30
0.0
 11
902.7506175430024
 21
261.3402622435917
 31
0.0
  0
LINE
  5
8EB8
330
1F
100
AcDbEntity
  8
0
  6
Continuous
 62
     7
370
    15
100
AcDbLine
 10
902.7506175430024
 20
245.1152818892826
 30
0.0
 11
887.2506177963222
 21
245.1152818892826
 31
0.0
  0
LINE
  5
8EB9
330
1F
100
AcDbEntity
  8
0
  6
Continuous
 62
     7
370
    15
100
AcDbLine
 10
902.7506175430024
 20
261.3402622435917
 30
0.0
 11
902.7506175430024
 21
257.227772256427
 31
0.0
  0
LINE
  5
8EBA
330
1F
100
AcDbEntity
  8
0
  6
Continuous
 62
     7
370
    15
100
AcDbLine
 10
902.7506175430024
 20
262.227771679007
 30
0.0
 11
887.2506177963222
 21
262.227771679007
 31
0.0
  0
LINE
  5
8EBB
330
1F
100
AcDbEntity
  8
0
  6
Continuous
 62
     7
370
    15
100
AcDbLine
 10
887.2506177963222
 20
262.227771679007
 30
0.0
 11
887.2506177963222
 21
261.9277721886267
 31
0.0
  0
LINE
  5
8EBC
330
1F
100
AcDbEntity
  8
0
  6
Continuous
 62
     7
370
    15
100
AcDbLine
 10
887.2506177963222
 20
261.8197741602291
 30
0.0
 11
887.2506177963222
 21
261.3402622435917
 31
0.0
  0
LINE
  5
8EBD
330
1F
100
AcDbEntity
  8
0
  6
Continuous
 62
     7
370
    15
100
AcDbLine
 10
902.7506175430024
 20
262.227771679007
 30
0.0
 11
902.7506175430024
 21
261.3402622435917
 31
0.0
  0
SPLINE
  5
8EBE
330
1F
100
AcDbEntity
  8
0
  6
Continuous
 62
     7
370
    15
100
AcDbSpline
210
0.0
220
0.0
230
1.0
 70
     8
 71
     3
 72
    14
 73
    10
 74
     0
 42
0.0000000001
 43
0.0000000001
 40
0.0
 40
0.0
 40
0.0
 40
0.0
 40
0.2538208268982655
 40
0.4061404107090448
 40
0.5335442979678097
 40
0.6614330276424089
 40
0.7800338179483522
 40
0.957932852748422
 40
1.0
 40
1.0
 40
1.0
 40
1.0
 10
902.7602362425531
 20
244.2293752600183
 30
0.0
 10
902.8294352890645
 20
244.2448355171756
 30
0.0
 10
902.9401611483809
 20
244.2695735785406
 30
0.0
 10
903.0614953250978
 20
244.3452786016274
 30
0.0
 10
903.1276892875403
 20
244.4240985311856
 30
0.0
 10
903.1528681631151
 20
244.5106768858126
 30
0.0
 10
903.1401748267009
 20
244.6105226281718
 30
0.0
 10
903.1004559144248
 20
244.6845541006877
 30
0.0
 10
903.0658655777354
 20
244.7273583748097
 30
0.0
 10
903.0592503936494
 20
244.7355444227089
 30
0.0
  0
LINE
  5
8EBF
330
1F
100
AcDbEntity
  8
0
  6
Continuous
 62
     7
370
    15
100
AcDbLine
 10
902.7602362425531
 20
244.2293752600183
 30
0.0
 11
902.7506175430024
 21
244.2277724538674
 31
0.0
  0
LINE
  5
8EC0
330
1F
100
AcDbEntity
  8
0
  6
Continuous
 62
     7
370
    15
100
AcDbLine
 10
887.2506177963222
 20
244.2277724538674
 30
0.0
 11
902.7506175430024
 21
244.2277724538674
 31
0.0
  0
LINE
  5
8EC1
330
1F
100
AcDbEntity
  8
0
  6
Continuous
 62
     7
370
    15
100
AcDbLine
 10
887.2506177963222
 20
245.1152818892826
 30
0.0
 11
887.2506177963222
 21
244.6357699726452
 31
0.0
  0
LINE
  5
8EC2
330
1F
100
AcDbEntity
  8
0
  6
Continuous
 62
     7
370
    15
100
AcDbLine
 10
887.2506177963222
 20
244.5277719442477
 30
0.0
 11
887.2506177963222
 21
244.2277724538674
 31
0.0
  0
LINE
  5
8EC3
330
1F
100
AcDbEntity
  8
0
  6
Continuous
 62
     7
370
    15
100
AcDbLine
 10
905.7506161720956
 20
244.7277716045012
 30
0.0
 11
902.7602362425531
 21
244.2293752600183
 31
0.0
  0
LINE
  5
8EC4
330
1F
100
AcDbEntity
  8
0
  6
Continuous
 62
     7
370
    15
100
AcDbLine
 10
905.7506161720956
 20
245.1841056962241
 30
0.0
 11
905.7506161720956
 21
244.7277716045012
 31
0.0
  0
LINE
  5
8EC5
330
1F
100
AcDbEntity
  8
0
  6
Continuous
 62
     7
370
    15
100
AcDbLine
 10
905.7506161720956
 20
259.7277722005476
 30
0.0
 11
905.7506161720956
 21
257.227772256427
 31
0.0
  0
LINE
  5
8EC6
330
1F
100
AcDbEntity
  8
0
  6
Continuous
 62
     7
370
    15
100
AcDbLine
 10
902.7506175430024
 20
262.227771679007
 30
0.0
 11
905.7506161720956
 21
261.7277725283732
 31
0.0
  0
LINE
  5
8EC7
330
1F
100
AcDbEntity
  8
0
  6
Continuous
 62
     7
370
    15
100
AcDbLine
 10
905.7506161720956
 20
261.7277725283732
 30
0.0
 11
905.7506161720956
 21
259.7277722005476
 31
0.0
  0
LINE
  5
8EE0
330
1F
100
AcDbEntity
  8
0
  6
Continuous
 62
     7
370
    15
100
AcDbLine
 10
904.250616857549
 20
261.6277717669238
 30
0.0
 11
904.250616857549
 21
257.8277721685101
 31
0.0
  0
LINE
  5
8EE1
330
1F
100
AcDbEntity
  8
0
  6
Continuous
 62
     7
370
    15
100
AcDbLine
 10
903.2506185562814
 20
257.8277721685101
 30
0.0
 11
903.2506185562814
 21
261.6277717669238
 31
0.0
  0
LINE
  5
8EE2
330
1F
100
AcDbEntity
  8
0
  6
Continuous
 62
     7
370
    15
100
AcDbLine
 10
904.0506171972955
 20
257.8277721685101
 30
0.0
 11
904.0506171972955
 21
261.6277717669238
 31
0.0
  0
LINE
  5
8EE3
330
1F
100
AcDbEntity
  8
0
  6
Continuous
 62
     7
370
    15
100
AcDbLine
 10
903.4506182165349
 20
261.6277717669238
 30
0.0
 11
903.4506182165349
 21
257.8277721685101
 31
0.0
  0
SPLINE
  5
8EE4
330
1F
100
AcDbEntity
  8
0
  6
Continuous
 62
     7
370
    15
100
AcDbSpline
210
0.0
220
0.0
230
1.0
 70
    24
 71
     1
 72
     4
 73
     2
 74
     0
 42
0.0000000001
 43
0.0000000001
 40
0.0
 40
0.0
 40
1.0
 40
1.0
 10
905.5785971672738
 20
260.673974981599
 30
0.0
 10
905.7060393483842
 20
259.9777722415258
 30
0.0
  0
SPLINE
  5
8EE5
330
1F
100
AcDbEntity
  8
0
  6
Continuous
 62
     7
370
    15
100
AcDbSpline
210
0.0
220
0.0
230
1.0
 70
    24
 71
     3
 72
     9
 73
     5
 74
     0
 42
0.0000000001
 43
0.0000000001
 40
0.0
 40
0.0
 40
0.0
 40
0.0
 40
0.5026113651273257
 40
1.0
 40
1.0
 40
1.0
 40
1.0
 10
905.7060393483842
 20
259.9777722415258
 30
0.0
 10
905.6902756109463
 20
259.9777722415258
 30
0.0
 10
905.6589119400632
 20
259.9777722415258
 30
0.0
 10
905.6052753817784
 20
259.9777722415258
 30
0.0
 10
905.5785971672738
 20
259.9777722415258
 30
0.0
  0
SPLINE
  5
8EE6
330
1F
100
AcDbEntity
  8
0
  6
Continuous
 62
     7
370
    15
100
AcDbSpline
210
0.0
220
0.0
230
1.0
 70
    24
 71
     1
 72
     4
 73
     2
 74
     0
 42
0.0000000001
 43
0.0000000001
 40
0.0
 40
0.0
 40
1.0
 40
1.0
 10
905.5785971672738
 20
259.9777722415258
 30
0.0
 10
905.5785971672738
 20
259.4777721595694
 30
0.0
  0
SPLINE
  5
8EE7
330
1F
100
AcDbEntity
  8
0
  6
Continuous
 62
     7
370
    15
100
AcDbSpline
210
0.0
220
0.0
230
1.0
 70
    24
 71
     3
 72
     9
 73
     5
 74
     0
 42
0.0000000001
 43
0.0000000001
 40
0.0
 40
0.0
 40
0.0
 40
0.0
 40
0.5026113651273257
 40
1.0
 40
1.0
 40
1.0
 40
1.0
 10
905.7060393483842
 20
259.4777721595694
 30
0.0
 10
905.6902756109463
 20
259.4777721595694
 30
0.0
 10
905.6589119400632
 20
259.4777721595694
 30
0.0
 10
905.6052753817784
 20
259.4777721595694
 30
0.0
 10
905.5785971672738
 20
259.4777721595694
 30
0.0
  0
SPLINE
  5
8EE8
330
1F
100
AcDbEntity
  8
0
  6
Continuous
 62
     7
370
    15
100
AcDbSpline
210
0.0
220
0.0
230
1.0
 70
    24
 71
     1
 72
     4
 73
     2
 74
     0
 42
0.0000000001
 43
0.0000000001
 40
0.0
 40
0.0
 40
1.0
 40
1.0
 10
905.5785971672738
 20
258.7815689538349
 30
0.0
 10
905.7060393483842
 20
259.4777721595694
 30
0.0
  0
LINE
  5
8EE9
330
1F
100
AcDbEntity
  8
0
  6
Continuous
 62
     7
370
    15
100
AcDbLine
 10
905.7506161720956
 20
257.227772256427
 30
0.0
 11
907.7506164999212
 21
257.227772256427
 31
0.0
  0
LINE
  5
8EEA
330
1F
100
AcDbEntity
  8
0
  6
Continuous
 62
     7
370
    15
100
AcDbLine
 10
905.7506161720956
 20
259.7277722005476
 30
0.0
 11
907.7506164999212
 21
259.7277722005476
 31
0.0
  0
LINE
  5
8EEB
330
1F
100
AcDbEntity
  8
0
  6
Continuous
 62
     7
370
    15
100
AcDbLine
 10
905.7506161720956
 20
259.7277722005476
 30
0.0
 11
905.7506161720956
 21
257.227772256427
 31
0.0
  0
LINE
  5
8EEC
330
1F
100
AcDbEntity
  8
0
  6
Continuous
 62
     7
370
    15
100
AcDbLine
 10
907.7506164999212
 20
245.477772193097
 30
0.0
 11
905.7506161720956
 21
245.477772193097
 31
0.0
  0
LINE
  5
8EED
330
1F
100
AcDbEntity
  8
0
  6
Continuous
 62
     7
370
    15
100
AcDbLine
 10
905.7506161720956
 20
244.9777721111407
 30
0.0
 11
907.7506164999212
 21
244.9777721111407
 31
0.0
  0
LINE
  5
8EEE
330
1F
100
AcDbEntity
  8
0
  6
Continuous
 62
     7
370
    15
100
AcDbLine
 10
907.7506164999212
 20
245.027772026204
 30
0.0
 11
907.7506164999212
 21
244.9777721111407
 31
0.0
  0
LINE
  5
8EEF
330
1F
100
AcDbEntity
  8
0
  6
Continuous
 62
     7
370
    15
100
AcDbLine
 10
907.7506164999212
 20
261.4777720217337
 30
0.0
 11
905.7506161720956
 21
261.4777720217337
 31
0.0
  0
LINE
  5
8EF0
330
1F
100
AcDbEntity
  8
0
  6
Continuous
 62
     7
370
    15
100
AcDbLine
 10
905.7506161720956
 20
261.4777720217337
 30
0.0
 11
905.7506161720956
 21
259.7277722005476
 31
0.0
  0
LINE
  5
8EF1
330
1F
100
AcDbEntity
  8
0
  6
Continuous
 62
     7
370
    15
100
AcDbLine
 10
907.7506164999212
 20
261.4777720217337
 30
0.0
 11
907.7506164999212
 21
261.4277721066703
 31
0.0
  0
LINE
  5
8F0A
330
1F
100
AcDbEntity
  8
0
  6
Continuous
 62
     7
370
    15
100
AcDbLine
 10
919.2506174535955
 20
261.2277724464168
 30
0.0
 11
933.250616023084
 21
261.2277724464168
 31
0.0
  0
ARC
  5
8F0B
330
1F
100
AcDbEntity
  8
0
  6
Continuous
 62
     7
370
    15
100
AcDbCircle
 10
933.2506177516187
 20
260.2277720664372
 30
0.0
 40
1.000000000000032
100
AcDbArc
 50
29.99999999999658
 51
90.0
  0
ARC
  5
8F0C
330
1F
100
AcDbEntity
  8
0
  6
Continuous
 62
     7
370
    15
100
AcDbCircle
 10
933.2506177516187
 20
246.2277720664372
 30
0.0
 40
1.000000000000032
100
AcDbArc
 50
270.0
 51
330.0000000000041
  0
LINE
  5
8F0D
330
1F
100
AcDbEntity
  8
0
  6
Continuous
 62
     7
370
    15
100
AcDbLine
 10
933.250616023084
 20
245.2277716864576
 30
0.0
 11
919.2506174535955
 21
245.2277716864576
 31
0.0
  0
ARC
  5
8F0E
330
1F
100
AcDbEntity
  8
0
  6
Continuous
 62
     7
370
    15
100
AcDbCircle
 10
919.2506177516188
 20
246.2277720664372
 30
0.0
 40
1.0
100
AcDbArc
 50
180.0
 51
270.0
  0
LINE
  5
8F0F
330
1F
100
AcDbEntity
  8
0
  6
Continuous
 62
     7
370
    15
100
AcDbLine
 10
918.2506191523279
 20
246.2277718503703
 30
0.0
 11
918.2506191523279
 21
260.227772282504
 31
0.0
  0
ARC
  5
8F10
330
1F
100
AcDbEntity
  8
0
  6
Continuous
 62
     7
370
    15
100
AcDbCircle
 10
919.2506177516188
 20
260.2277720664372
 30
0.0
 40
1.0
100
AcDbArc
 50
90.0
 51
180.0
  0
LINE
  5
8F11
330
1F
100
AcDbEntity
  8
0
  6
Continuous
 62
     7
370
    15
100
AcDbLine
 10
934.7506190629209
 20
245.027772026204
 30
0.0
 11
917.7506181390489
 21
245.027772026204
 31
0.0
  0
LINE
  5
8F12
330
1F
100
AcDbEntity
  8
0
  6
Continuous
 62
     7
370
    15
100
AcDbLine
 10
917.7506181390489
 20
261.4277721066703
 30
0.0
 11
917.7506181390489
 21
245.027772026204
 31
0.0
  0
LINE
  5
8F13
330
1F
100
AcDbEntity
  8
0
  6
Continuous
 62
     7
370
    15
100
AcDbLine
 10
934.7506190629209
 20
245.027772026204
 30
0.0
 11
934.7506190629209
 21
245.7277722340752
 31
0.0
  0
LINE
  5
8F14
330
1F
100
AcDbEntity
  8
0
  6
Continuous
 62
     7
370
    15
100
AcDbLine
 10
934.7506190629209
 20
260.7277718987991
 30
0.0
 11
934.7506190629209
 21
261.4277721066703
 31
0.0
  0
LINE
  5
8F15
330
1F
100
AcDbEntity
  8
0
  6
Continuous
 62
     7
370
    15
100
AcDbLine
 10
934.7506190629209
 20
261.4277721066703
 30
0.0
 11
917.7506181390489
 21
261.4277721066703
 31
0.0
  0
LINE
  5
8F16
330
1F
100
AcDbEntity
  8
0
  6
Continuous
 62
     7
370
    15
100
AcDbLine
 10
907.7506164999212
 20
261.4277721066703
 30
0.0
 11
907.7506164999212
 21
245.027772026204
 31
0.0
  0
LINE
  5
8F17
330
1F
100
AcDbEntity
  8
0
  6
Continuous
 62
     7
370
    15
100
AcDbLine
 10
917.7506181390489
 20
245.027772026204
 30
0.0
 11
907.7506164999212
 21
245.027772026204
 31
0.0
  0
LINE
  5
8F18
330
1F
100
AcDbEntity
  8
0
  6
Continuous
 62
     7
370
    15
100
AcDbLine
 10
907.7506164999212
 20
261.4277721066703
 30
0.0
 11
917.7506181390489
 21
261.4277721066703
 31
0.0
  0
CIRCLE
  5
8F1A
330
1F
100
AcDbEntity
  8
0
  6
Continuous
 62
     7
370
    15
100
AcDbCircle
 10
856.7506177516188
 20
254.7277720664372
 30
0.0
 40
5.144197846113918
  0
CIRCLE
  5
8F1B
330
1F
100
AcDbEntity
  8
0
  6
Continuous
 62
     7
370
    15
100
AcDbCircle
 10
871.7506177516186
 20
251.7277720664372
 30
0.0
 40
5.144197846043425
  0
LINE
  5
8F1C
330
1F
100
AcDbEntity
  8
0
  6
Continuous
 62
     7
370
    15
100
AcDbLine
 10
846.2506185264791
 20
261.9277721886267
 30
0.0
 11
846.2506185264791
 21
259.7277722005476
 31
0.0
  0
ARC
  5
8F1D
330
1F
100
AcDbEntity
  8
0
  6
Continuous
 62
     7
370
    15
100
AcDbCircle
 10
849.2506177516187
 20
259.7277720664372
 30
0.0
 40
3.0
100
AcDbArc
 50
180.0
 51
0.0
  0
LINE
  5
8F1E
330
1F
100
AcDbEntity
  8
0
  6
Continuous
 62
     7
370
    15
100
AcDbLine
 10
852.2506176473106
 20
259.7277722005476
 30
0.0
 11
852.2506176473106
 21
261.9277721886267
 31
0.0
  0
LINE
  5
8F1F
330
1F
100
AcDbEntity
  8
0
  6
Continuous
 62
     7
370
    15
100
AcDbLine
 10
852.2506176473106
 20
261.9277721886267
 30
0.0
 11
886.9506183059419
 21
261.9277721886267
 31
0.0
  0
LINE
  5
8F20
330
1F
100
AcDbEntity
  8
0
  6
Continuous
 62
     7
370
    15
100
AcDbLine
 10
886.9506183059419
 20
261.9277721886267
 30
0.0
 11
886.9506183059419
 21
244.5277719442477
 31
0.0
  0
LINE
  5
8F21
330
1F
100
AcDbEntity
  8
0
  6
Continuous
 62
     7
370
    15
100
AcDbLine
 10
886.9506183059419
 20
244.5277719442477
 30
0.0
 11
882.2506169767583
 21
244.5277719442477
 31
0.0
  0
LINE
  5
8F22
330
1F
100
AcDbEntity
  8
0
  6
Continuous
 62
     7
370
    15
100
AcDbLine
 10
882.2506169767583
 20
244.5277719442477
 30
0.0
 11
882.2506169767583
 21
246.7277719323267
 31
0.0
  0
ARC
  5
8F23
330
1F
100
AcDbEntity
  8
0
  6
Continuous
 62
     7
370
    15
100
AcDbCircle
 10
879.2506177516187
 20
246.7277720664372
 30
0.0
 40
3.0
100
AcDbArc
 50
0.0
 51
180.0
  0
LINE
  5
8F24
330
1F
100
AcDbEntity
  8
0
  6
Continuous
 62
     7
370
    15
100
AcDbLine
 10
876.2506178559268
 20
246.7277719323267
 30
0.0
 11
876.2506178559268
 21
244.5277719442477
 31
0.0
  0
LINE
  5
8F25
330
1F
100
AcDbEntity
  8
0
  6
Continuous
 62
     7
370
    15
100
AcDbLine
 10
876.2506178559268
 20
244.5277719442477
 30
0.0
 11
841.2506171972955
 21
244.5277719442477
 31
0.0
  0
LINE
  5
8F26
330
1F
100
AcDbEntity
  8
0
  6
Continuous
 62
     7
370
    15
100
AcDbLine
 10
841.2506171972955
 20
244.5277719442477
 30
0.0
 11
841.2506171972955
 21
261.9277721886267
 31
0.0
  0
LINE
  5
8F27
330
1F
100
AcDbEntity
  8
0
  6
Continuous
 62
     7
370
    15
100
AcDbLine
 10
841.2506171972957
 20
261.9277721886267
 30
0.0
 11
846.2506185264791
 21
261.9277721886267
 31
0.0
  0
LINE
  5
8F28
330
1F
100
AcDbEntity
  8
0
  6
Continuous
 62
     7
370
    15
100
AcDbLine
 10
886.9506183059419
 20
244.2277724538674
 30
0.0
 11
886.9506183059419
 21
244.5277719442477
 31
0.0
  0
LINE
  5
8F29
330
1F
100
AcDbEntity
  8
0
  6
Continuous
 62
     7
370
    15
100
AcDbLine
 10
887.2506177963222
 20
244.5277719442477
 30
0.0
 11
886.9506183059419
 21
244.5277719442477
 31
0.0
  0
LINE
  5
8F2A
330
1F
100
AcDbEntity
  8
0
  6
Continuous
 62
     7
370
    15
100
AcDbLine
 10
886.9506183059419
 20
244.2277724538674
 30
0.0
 11
887.2506177963222
 21
244.5277719442477
 31
0.0
  0
LINE
  5
8F2B
330
1F
100
AcDbEntity
  8
0
  6
Continuous
 62
     7
370
    15
100
AcDbLine
 10
887.2506177963222
 20
261.9277721886267
 30
0.0
 11
886.9506183059419
 21
261.9277721886267
 31
0.0
  0
LINE
  5
8F2C
330
1F
100
AcDbEntity
  8
0
  6
Continuous
 62
     7
370
    15
100
AcDbLine
 10
887.2506177963222
 20
261.9277721886267
 30
0.0
 11
887.2506177963222
 21
261.8197741602291
 31
0.0
  0
LINE
  5
8F2D
330
1F
100
AcDbEntity
  8
0
  6
Continuous
 62
     7
370
    15
100
AcDbLine
 10
887.2506177963222
 20
244.6357699726452
 30
0.0
 11
887.2506177963222
 21
244.5277719442477
 31
0.0
  0
LINE
  5
8F2E
330
1F
100
AcDbEntity
  8
0
  6
Continuous
 62
     7
370
    15
100
AcDbLine
 10
886.9506183059419
 20
244.2277724538674
 30
0.0
 11
882.2506169767583
 21
244.2277724538674
 31
0.0
  0
LINE
  5
8F2F
330
1F
100
AcDbEntity
  8
0
  6
Continuous
 62
     7
370
    15
100
AcDbLine
 10
882.2506169767583
 20
244.2277724538674
 30
0.0
 11
882.2506169767583
 21
244.5277719442477
 31
0.0
  0
LINE
  5
8F30
330
1F
100
AcDbEntity
  8
0
  6
Continuous
 62
     7
370
    15
100
AcDbLine
 10
841.2506171972957
 20
262.227771679007
 30
0.0
 11
846.2506185264791
 21
262.227771679007
 31
0.0
  0
LINE
  5
8F31
330
1F
100
AcDbEntity
  8
0
  6
Continuous
 62
     7
370
    15
100
AcDbLine
 10
846.2506185264791
 20
262.227771679007
 30
0.0
 11
846.2506185264791
 21
261.9277721886267
 31
0.0
  0
LINE
  5
8F33
330
1F
100
AcDbEntity
  8
0
  6
Continuous
 62
     7
370
    15
100
AcDbLine
 10
852.2506176473106
 20
262.227771679007
 30
0.0
 11
852.2506176473106
 21
261.9277721886267
 31
0.0
  0
LINE
  5
8F34
330
1F
100
AcDbEntity
  8
0
  6
Continuous
 62
     7
370
    15
100
AcDbLine
 10
852.2506176473106
 20
262.227771679007
 30
0.0
 11
886.9506183059419
 21
262.227771679007
 31
0.0
  0
LINE
  5
8F35
330
1F
100
AcDbEntity
  8
0
  6
Continuous
 62
     7
370
    15
100
AcDbLine
 10
886.9506183059419
 20
261.9277721886267
 30
0.0
 11
886.9506183059419
 21
262.227771679007
 31
0.0
  0
LINE
  5
8F36
330
1F
100
AcDbEntity
  8
0
  6
Continuous
 62
     7
370
    15
100
AcDbLine
 10
876.2506178559268
 20
244.2277724538674
 30
0.0
 11
876.2506178559268
 21
244.5277719442477
 31
0.0
  0
LINE
  5
8F37
330
1F
100
AcDbEntity
  8
0
  6
Continuous
 62
     7
370
    15
100
AcDbLine
 10
876.2506178559268
 20
244.2277724538674
 30
0.0
 11
841.2506171972955
 21
244.2277724538673
 31
0.0
  0
LINE
  5
8F39
330
1F
100
AcDbEntity
  8
0
  6
Continuous
 62
     7
370
    15
100
AcDbLine
 10
887.2506177963222
 20
261.9277721886267
 30
0.0
 11
886.9506183059419
 21
262.227771679007
 31
0.0
  0
CIRCLE
  5
8F41
330
1F
100
AcDbEntity
  8
0
  6
Continuous
 62
     7
370
    15
100
AcDbCircle
 10
871.7506177516186
 20
251.7277720664372
 30
0.0
 40
4.573499999999626
  0
CIRCLE
  5
8F42
330
1F
100
AcDbEntity
  8
0
  6
Continuous
 62
     7
370
    15
100
AcDbCircle
 10
856.7506177516188
 20
254.7277720664372
 30
0.0
 40
4.573499999995533
  0
LINE
  5
8F43
330
1F
100
AcDbEntity
  8
0
  6
Continuous
 62
     7
370
    15
100
AcDbLine
 10
846.2506185264791
 20
262.227771679007
 30
0.0
 11
852.2506176473106
 21
262.227771679007
 31
0.0
  0
LINE
  5
8F44
330
1F
100
AcDbEntity
  8
0
  6
Continuous
 62
     7
370
    15
100
AcDbLine
 10
882.2506169767583
 20
244.2277724538674
 30
0.0
 11
876.2506178559268
 21
244.2277724538674
 31
0.0
  0
LINE
  5
8F77
330
1F
100
AcDbEntity
  8
0
  6
Continuous
 62
     7
370
    15
100
AcDbLine
 10
949.4006211848462
 20
251.2749517253344
 30
0.0
 11
945.0006212086881
 21
251.2749517253344
 31
0.0
  0
LINE
  5
8F78
330
1F
100
AcDbEntity
  8
0
  6
Continuous
 62
     7
370
    15
100
AcDbLine
 10
949.4006211848462
 20
249.6482004561205
 30
0.0
 11
949.4006211848462
 21
251.2749517253344
 31
0.0
  0
LINE
  5
8F79
330
1F
100
AcDbEntity
  8
0
  6
Continuous
 62
     7
370
    15
100
AcDbLine
 10
945.0006212086881
 20
249.6482004561205
 30
0.0
 11
949.4006211848462
 21
249.6482004561205
 31
0.0
  0
LINE
  5
8F7A
330
1F
100
AcDbEntity
  8
0
  6
Continuous
 62
     7
370
    15
100
AcDbLine
 10
945.0006212086881
 20
251.2749517253344
 30
0.0
 11
945.0006212086881
 21
249.6482004561205
 31
0.0
  0
LINE
  5
8F7B
330
1F
100
AcDbEntity
  8
0
  6
Continuous
 62
     7
370
    15
100
AcDbLine
 10
949.4006211848462
 20
251.9677720182319
 30
0.0
 11
945.0006212086881
 21
251.9677720182319
 31
0.0
  0
LINE
  5
8F7C
330
1F
100
AcDbEntity
  8
0
  6
Continuous
 62
     7
370
    15
100
AcDbLine
 10
949.4006211848462
 20
251.9677720182319
 30
0.0
 11
949.4006211848462
 21
251.2749517253344
 31
0.0
  0
LINE
  5
8F7D
330
1F
100
AcDbEntity
  8
0
  6
Continuous
 62
     7
370
    15
100
AcDbLine
 10
945.0006212086881
 20
251.2749517253344
 30
0.0
 11
945.0006212086881
 21
251.9677720182319
 31
0.0
  0
LINE
  5
8F7E
330
1F
100
AcDbEntity
  8
0
  6
Continuous
 62
     7
370
    15
100
AcDbLine
 10
945.0006212086881
 20
254.4877721146424
 30
0.0
 11
949.4006211848462
 21
254.4877721146424
 31
0.0
  0
LINE
  5
8F7F
330
1F
100
AcDbEntity
  8
0
  6
Continuous
 62
     7
370
    15
100
AcDbLine
 10
945.0006212086881
 20
255.18059240754
 30
0.0
 11
949.4006211848462
 21
255.18059240754
 31
0.0
  0
LINE
  5
8F80
330
1F
100
AcDbEntity
  8
0
  6
Continuous
 62
     7
370
    15
100
AcDbLine
 10
949.4006211848462
 20
255.18059240754
 30
0.0
 11
949.4006211848462
 21
254.4877721146424
 31
0.0
  0
LINE
  5
8F81
330
1F
100
AcDbEntity
  8
0
  6
Continuous
 62
     7
370
    15
100
AcDbLine
 10
945.0006212086881
 20
254.4877721146424
 30
0.0
 11
945.0006212086881
 21
255.18059240754
 31
0.0
  0
LINE
  5
8F82
330
1F
100
AcDbEntity
  8
0
  6
Continuous
 62
     7
370
    15
100
AcDbLine
 10
949.4006211848462
 20
256.8073436767538
 30
0.0
 11
945.0006212086881
 21
256.8073436767538
 31
0.0
  0
LINE
  5
8F83
330
1F
100
AcDbEntity
  8
0
  6
Continuous
 62
     7
370
    15
100
AcDbLine
 10
949.4006211848462
 20
255.18059240754
 30
0.0
 11
949.4006211848462
 21
256.8073436767538
 31
0.0
  0
LINE
  5
8F84
330
1F
100
AcDbEntity
  8
0
  6
Continuous
 62
     7
370
    15
100
AcDbLine
 10
945.0006212086881
 20
256.8073436767538
 30
0.0
 11
945.0006212086881
 21
255.18059240754
 31
0.0
  0
LINE
  5
8F85
330
1F
100
AcDbEntity
  8
0
  6
Continuous
 62
     7
370
    15
100
AcDbLine
 10
945.0006212086881
 20
257.0671512429346
 30
0.0
 11
949.4006211848462
 21
257.0671512429346
 31
0.0
  0
LINE
  5
8F86
330
1F
100
AcDbEntity
  8
0
  6
Continuous
 62
     7
370
    15
100
AcDbLine
 10
949.4006211848462
 20
256.8073436767538
 30
0.0
 11
949.4006211848462
 21
257.0671512429346
 31
0.0
  0
LINE
  5
8F87
330
1F
100
AcDbEntity
  8
0
  6
Continuous
 62
     7
370
    15
100
AcDbLine
 10
945.0006212086881
 20
257.0671512429346
 30
0.0
 11
945.0006212086881
 21
256.8073436767538
 31
0.0
  0
LINE
  5
8F88
330
1F
100
AcDbEntity
  8
0
  6
Continuous
 62
     7
370
    15
100
AcDbLine
 10
949.4006211848462
 20
249.3883928899397
 30
0.0
 11
945.0006212086881
 21
249.3883928899397
 31
0.0
  0
LINE
  5
8F89
330
1F
100
AcDbEntity
  8
0
  6
Continuous
 62
     7
370
    15
100
AcDbLine
 10
949.4006211848462
 20
249.3883928899397
 30
0.0
 11
949.4006211848462
 21
249.6482004561205
 31
0.0
  0
LINE
  5
8F8A
330
1F
100
AcDbEntity
  8
0
  6
Continuous
 62
     7
370
    15
100
AcDbLine
 10
945.0006212086881
 20
249.6482004561205
 30
0.0
 11
945.0006212086881
 21
249.3883928899397
 31
0.0
  0
LINE
  5
8F8B
330
1F
100
AcDbEntity
  8
0
  6
Continuous
 62
     7
370
    15
100
AcDbLine
 10
949.4006211848462
 20
257.8805269357492
 30
0.0
 11
945.0006212086881
 21
257.8805269357492
 31
0.0
  0
LINE
  5
8F8C
330
1F
100
AcDbEntity
  8
0
  6
Continuous
 62
     7
370
    15
100
AcDbLine
 10
949.4006211848462
 20
257.0671512429346
 30
0.0
 11
949.4006211848462
 21
257.8805269357492
 31
0.0
  0
LINE
  5
8F8D
330
1F
100
AcDbEntity
  8
0
  6
Continuous
 62
     7
370
    15
100
AcDbLine
 10
945.0006212086881
 20
257.8805269357492
 30
0.0
 11
945.0006212086881
 21
257.0671512429346
 31
0.0
  0
LINE
  5
8F8E
330
1F
100
AcDbEntity
  8
0
  6
Continuous
 62
     7
370
    15
100
AcDbLine
 10
945.0006212086881
 20
248.5750171971251
 30
0.0
 11
949.4006211848462
 21
248.5750171971251
 31
0.0
  0
LINE
  5
8F8F
330
1F
100
AcDbEntity
  8
0
  6
Continuous
 62
     7
370
    15
100
AcDbLine
 10
949.4006211848462
 20
248.5750171971251
 30
0.0
 11
949.4006211848462
 21
249.3883928899397
 31
0.0
  0
LINE
  5
8F90
330
1F
100
AcDbEntity
  8
0
  6
Continuous
 62
     7
370
    15
100
AcDbLine
 10
945.0006212086881
 20
249.3883928899397
 30
0.0
 11
945.0006212086881
 21
248.5750171971251
 31
0.0
  0
LINE
  5
8F91
330
1F
100
AcDbEntity
  8
0
  6
Continuous
 62
     7
370
    15
100
AcDbLine
 10
949.4006211848462
 20
254.4877721146424
 30
0.0
 11
949.4006211848462
 21
251.9677720182319
 31
0.0
  0
LINE
  5
8F92
330
1F
100
AcDbEntity
  8
0
  6
Continuous
 62
     7
370
    15
100
AcDbLine
 10
945.0006212086881
 20
254.4877721146424
 30
0.0
 11
945.0006212086881
 21
251.9677720182319
 31
0.0
  0
LINE
  5
8F93
330
1F
100
AcDbEntity
  8
0
  6
Continuous
 62
     7
370
    15
100
AcDbLine
 10
945.0006212086881
 20
259.1405272167851
 30
0.0
 11
949.4006211848462
 21
259.1405272167851
 31
0.0
  0
LINE
  5
8F94
330
1F
100
AcDbEntity
  8
0
  6
Continuous
 62
     7
370
    15
100
AcDbLine
 10
949.4006211848462
 20
259.1405272167851
 30
0.0
 11
949.4006211848462
 21
257.8805269357492
 31
0.0
  0
LINE
  5
8F95
330
1F
100
AcDbEntity
  8
0
  6
Continuous
 62
     7
370
    15
100
AcDbLine
 10
945.0006212086881
 20
259.1405272167851
 30
0.0
 11
945.0006212086881
 21
257.8805269357492
 31
0.0
  0
LINE
  5
8F96
330
1F
100
AcDbEntity
  8
0
  6
Continuous
 62
     7
370
    15
100
AcDbLine
 10
949.4006211848462
 20
247.3150169160892
 30
0.0
 11
945.0006212086881
 21
247.3150169160892
 31
0.0
  0
LINE
  5
8F97
330
1F
100
AcDbEntity
  8
0
  6
Continuous
 62
     7
370
    15
100
AcDbLine
 10
949.4006211848462
 20
248.5750171971251
 30
0.0
 11
949.4006211848462
 21
247.3150169160892
 31
0.0
  0
LINE
  5
8F98
330
1F
100
AcDbEntity
  8
0
  6
Continuous
 62
     7
370
    15
100
AcDbLine
 10
945.0006212086881
 20
248.5750171971251
 30
0.0
 11
945.0006212086881
 21
247.3150169160892
 31
0.0
  0
LINE
  5
8F99
330
1F
100
AcDbEntity
  8
0
  6
Continuous
 62
     7
370
    15
100
AcDbLine
 10
945.0006212086881
 20
259.8333473932673
 30
0.0
 11
949.4006211848462
 21
259.8333473932673
 31
0.0
  0
LINE
  5
8F9A
330
1F
100
AcDbEntity
  8
0
  6
Continuous
 62
     7
370
    15
100
AcDbLine
 10
949.4006211848462
 20
259.8333473932673
 30
0.0
 11
949.4006211848462
 21
259.1405272167851
 31
0.0
  0
LINE
  5
8F9B
330
1F
100
AcDbEntity
  8
0
  6
Continuous
 62
     7
370
    15
100
AcDbLine
 10
945.0006212086881
 20
259.1405272167851
 30
0.0
 11
945.0006212086881
 21
259.8333473932673
 31
0.0
  0
LINE
  5
8F9C
330
1F
100
AcDbEntity
  8
0
  6
Continuous
 62
     7
370
    15
100
AcDbLine
 10
949.4006211848462
 20
246.622196739607
 30
0.0
 11
945.0006212086881
 21
246.622196739607
 31
0.0
  0
LINE
  5
8F9D
330
1F
100
AcDbEntity
  8
0
  6
Continuous
 62
     7
370
    15
100
AcDbLine
 10
949.4006211848462
 20
247.3150169160892
 30
0.0
 11
949.4006211848462
 21
246.622196739607
 31
0.0
  0
LINE
  5
8F9E
330
1F
100
AcDbEntity
  8
0
  6
Continuous
 62
     7
370
    15
100
AcDbLine
 10
945.0006212086881
 20
246.622196739607
 30
0.0
 11
945.0006212086881
 21
247.3150169160892
 31
0.0
  0
LINE
  5
8F9F
330
1F
100
AcDbEntity
  8
0
  6
Continuous
 62
     7
370
    15
100
AcDbLine
 10
945.0006212086881
 20
245.8088210467924
 30
0.0
 11
949.4006211848462
 21
245.8088210467924
 31
0.0
  0
LINE
  5
8FA0
330
1F
100
AcDbEntity
  8
0
  6
Continuous
 62
     7
370
    15
100
AcDbLine
 10
949.4006211848462
 20
246.622196739607
 30
0.0
 11
949.4006211848462
 21
245.8088210467924
 31
0.0
  0
LINE
  5
8FA1
330
1F
100
AcDbEntity
  8
0
  6
Continuous
 62
     7
370
    15
100
AcDbLine
 10
945.0006212086881
 20
246.622196739607
 30
0.0
 11
945.0006212086881
 21
245.8088210467924
 31
0.0
  0
LINE
  5
8FA2
330
1F
100
AcDbEntity
  8
0
  6
Continuous
 62
     7
370
    15
100
AcDbLine
 10
949.4006211848462
 20
260.6467230860819
 30
0.0
 11
945.0006212086881
 21
260.6467230860819
 31
0.0
  0
LINE
  5
8FA3
330
1F
100
AcDbEntity
  8
0
  6
Continuous
 62
     7
370
    15
100
AcDbLine
 10
949.4006211848462
 20
259.8333473932673
 30
0.0
 11
949.4006211848462
 21
260.6467230860819
 31
0.0
  0
LINE
  5
8FA4
330
1F
100
AcDbEntity
  8
0
  6
Continuous
 62
     7
370
    15
100
AcDbLine
 10
945.0006212086881
 20
260.6467230860819
 30
0.0
 11
945.0006212086881
 21
259.8333473932673
 31
0.0
  0
LINE
  5
8FA5
330
1F
100
AcDbEntity
  8
0
  6
Continuous
 62
     7
370
    15
100
AcDbLine
 10
949.4006211848462
 20
260.6467230860819
 30
0.0
 11
949.4006211848462
 21
260.686915243112
 31
0.0
  0
LINE
  5
8FA6
330
1F
100
AcDbEntity
  8
0
  6
Continuous
 62
     7
370
    15
100
AcDbLine
 10
945.0006212086881
 20
260.686915243112
 30
0.0
 11
945.0006212086881
 21
260.6467230860819
 31
0.0
  0
LINE
  5
8FA7
330
1F
100
AcDbEntity
  8
0
  6
Continuous
 62
     7
370
    15
100
AcDbLine
 10
949.4006211848462
 20
245.7686288897623
 30
0.0
 11
949.4006211848462
 21
245.8088210467924
 31
0.0
  0
LINE
  5
8FA8
330
1F
100
AcDbEntity
  8
0
  6
Continuous
 62
     7
370
    15
100
AcDbLine
 10
945.0006212086881
 20
245.8088210467924
 30
0.0
 11
945.0006212086881
 21
245.7686288897623
 31
0.0
  0
SPLINE
  5
8FA9
330
1F
100
AcDbEntity
  8
0
  6
Continuous
 62
     7
370
    15
100
AcDbSpline
210
0.0
220
0.0
230
1.0
 70
    24
 71
     3
 72
    16
 73
    12
 74
     0
 42
0.0000000001
 43
0.0000000001
 40
0.0
 40
0.0
 40
0.0
 40
0.0
 40
0.1164967930304003
 40
0.2399716821757751
 40
0.3685799121822117
 40
0.4999173774577129
 40
0.6312550669874181
 40
0.6956175380229114
 40
0.760028204383189
 40
0.8835033192382923
 40
1.0
 40
1.0
 40
1.0
 40
1.0
 10
943.5006181688512
 20
253.2277720664372
 30
0.0
 10
943.5006181688512
 20
253.6547134238151
 30
0.0
 10
943.5006181688512
 20
254.5341696994367
 30
0.0
 10
943.5006181688512
 20
255.8387940211115
 30
0.0
 10
943.5006181688512
 20
257.0933160949661
 30
0.0
 10
943.5006181688512
 20
258.2127816246841
 30
0.0
 10
943.5006181688512
 20
258.9728338971044
 30
0.0
 10
943.5006181688512
 20
259.4541483651636
 30
0.0
 10
943.5006181688512
 20
259.8355451098182
 30
0.0
 10
943.5006181688512
 20
260.1586075348951
 30
0.0
 10
943.5006181688512
 20
260.2051687030682
 30
0.0
 10
943.5006181688512
 20
260.227772282504
 30
0.0
  0
SPLINE
  5
8FAA
330
1F
100
AcDbEntity
  8
0
  6
Continuous
 62
     7
370
    15
100
AcDbSpline
210
0.0
220
0.0
230
1.0
 70
    24
 71
     3
 72
    16
 73
    12
 74
     0
 42
0.0000000001
 43
0.0000000001
 40
0.0
 40
0.0
 40
0.0
 40
0.0
 40
0.1164966809924232
 40
0.2399717960920626
 40
0.3685798010858658
 40
0.4999174908756785
 40
0.6312549564112865
 40
0.6956177053164225
 40
0.7600283173489754
 40
0.8835032067388857
 40
1.0
 40
1.0
 40
1.0
 40
1.0
 10
943.5006181688512
 20
246.2277718503703
 30
0.0
 10
943.5006181688512
 20
246.2504828395424
 30
0.0
 10
943.5006181688512
 20
246.2972652612922
 30
0.0
 10
943.5006181688512
 20
246.6867045982338
 30
0.0
 10
943.5006181688512
 20
247.3325567644784
 30
0.0
 10
943.5006181688512
 20
248.2428267868654
 30
0.0
 10
943.5006181688512
 20
249.1789240262659
 30
0.0
 10
943.5006181688512
 20
250.0021698717692
 30
0.0
 10
943.5006181688512
 20
250.8435887275116
 30
0.0
 10
943.5006181688512
 20
251.921489856228
 30
0.0
 10
943.5006181688512
 20
252.8008684301647
 30
0.0
 10
943.5006181688512
 20
253.2277720664372
 30
0.0
  0
SPLINE
  5
8FAB
330
1F
100
AcDbEntity
  8
0
  6
Continuous
 62
     7
370
    15
100
AcDbSpline
210
0.0
220
0.0
230
1.0
 70
     8
 71
     3
 72
    11
 73
     7
 74
     0
 42
0.0000000001
 43
0.0000000001
 40
0.0
 40
0.0
 40
0.0
 40
0.0
 40
0.3208866402789585
 40
0.6705869087854572
 40
0.9325554593713698
 40
1.0
 40
1.0
 40
1.0
 40
1.0
 10
933.700616189977
 20
248.3873021472921
 30
0.0
 10
933.7508647129535
 20
248.3166324720365
 30
0.0
 10
933.8558737643262
 20
248.1689474234061
 30
0.0
 10
933.9530929858907
 20
247.9533586575815
 30
0.0
 10
933.9973066776787
 20
247.8036503423368
 30
0.0
 10
934.0000579654269
 20
247.741421828307
 30
0.0
 10
934.0006212682927
 20
247.7286810670723
 30
0.0
  0
SPLINE
  5
8FAC
330
1F
100
AcDbEntity
  8
0
  6
Continuous
 62
     7
370
    15
100
AcDbSpline
210
0.0
220
0.0
230
1.0
 70
     8
 71
     3
 72
    16
 73
    12
 74
     0
 42
0.0000000001
 43
0.0000000001
 40
0.0
 40
0.0
 40
0.0
 40
0.0
 40
0.1457691132325545
 40
0.2911109625546801
 40
0.3702347128761047
 40
0.4492138739810162
 40
0.5290147522161641
 40
0.6088741321901596
 40
0.7116751824258774
 40
0.8147767610429459
 40
1.0
 40
1.0
 40
1.0
 40
1.0
 10
933.700616189977
 20
258.0682419855823
 30
0.0
 10
933.3758460160396
 20
257.6517879561886
 30
0.0
 10
932.7272576021609
 20
256.8201005659858
 30
0.0
 10
932.0524061545755
 20
255.6527754382985
 30
0.0
 10
931.6544201208554
 20
254.6256606008098
 30
0.0
 10
931.4668016857014
 20
253.7800425446384
 30
0.0
 10
931.4473972224901
 20
252.9105190717676
 30
0.0
 10
931.6026169164796
 20
251.9675410122237
 30
0.0
 10
931.9686870335505
 20
250.9931922939533
 30
0.0
 10
932.6521149520312
 20
249.7482364397357
 30
0.0
 10
933.2905061860095
 20
248.9196169866785
 30
0.0
 10
933.700616189977
 20
248.3873021472921
 30
0.0
  0
SPLINE
  5
8FAD
330
1F
100
AcDbEntity
  8
0
  6
Continuous
 62
     7
370
    15
100
AcDbSpline
210
0.0
220
0.0
230
1.0
 70
     8
 71
     3
 72
    11
 73
     7
 74
     0
 42
0.0000000001
 43
0.0000000001
 40
0.0
 40
0.0
 40
0.0
 40
0.0
 40
0.1876799598455096
 40
0.5368279233185785
 40
0.9071659050883377
 40
1.0
 40
1.0
 40
1.0
 40
1.0
 10
934.0006212682927
 20
258.726863065802
 30
0.0
 10
933.9966032442411
 20
258.6897989634326
 30
0.0
 10
933.9851103415925
 20
258.5837831420258
 30
0.0
 10
933.8978954604716
 20
258.3743504212392
 30
0.0
 10
933.7923724924396
 20
258.1868758608168
 30
0.0
 10
933.7159363675699
 20
258.0880498024662
 30
0.0
 10
933.700616189977
 20
258.0682419855823
 30
0.0
  0
LINE
  5
8FAE
330
1F
100
AcDbEntity
  8
0
  6
Continuous
 62
     7
370
    15
100
AcDbLine
 10
934.0006212682927
 20
258.726863065802
 30
0.0
 11
934.0006212682927
 21
247.7286810670723
 31
0.0
  0
SPLINE
  5
8FAF
330
1F
100
AcDbEntity
  8
0
  6
Continuous
 62
     7
370
    15
100
AcDbSpline
210
0.0
220
0.0
230
1.0
 70
    24
 71
     3
 72
     9
 73
     5
 74
     0
 42
0.0000000001
 43
0.0000000001
 40
0.0
 40
0.0
 40
0.0
 40
0.0
 40
0.5963420292507525
 40
0.9999999999999998
 40
0.9999999999999998
 40
0.9999999999999998
 40
0.9999999999999998
 10
934.0006138177121
 20
245.7621017154981
 30
0.0
 10
934.0006138177121
 20
245.7492001415421
 30
0.0
 10
934.0006138177121
 20
245.7275656208757
 30
0.0
 10
934.0006138177121
 20
245.7314841329551
 30
0.0
 10
934.0006138177121
 20
245.7330658715894
 30
0.0
  0
SPLINE
  5
8FB0
330
1F
100
AcDbEntity
  8
0
  6
Continuous
 62
     7
370
    15
100
AcDbSpline
210
0.0
220
0.0
230
1.0
 70
    24
 71
     1
 72
     4
 73
     2
 74
     0
 42
0.0000000001
 43
0.0000000001
 40
0.0
 40
0.0
 40
1.0
 40
1.0
 10
934.0006138177121
 20
260.722478261285
 30
0.0
 10
934.0006138177121
 20
260.7218249384989
 30
0.0
  0
LINE
  5
8FB2
330
1F
100
AcDbEntity
  8
0
  6
Continuous
 62
     7
370
    15
100
AcDbLine
 10
926.5006172449792
 20
254.8691430045967
 30
0.0
 11
926.5006172449792
 21
253.4777720783115
 31
0.0
  0
SPLINE
  5
8FB3
330
1F
100
AcDbEntity
  8
0
  6
Continuous
 62
     7
370
    15
100
AcDbSpline
210
0.0
220
0.0
230
1.0
 70
    24
 71
     1
 72
     4
 73
     2
 74
     0
 42
0.0000000001
 43
0.0000000001
 40
0.0
 40
0.0
 40
1.0
 40
1.0
 10
926.5006172449792
 20
254.8691430045967
 30
0.0
 10
926.0006162317003
 20
254.8691430045967
 30
0.0
  0
LINE
  5
8FB4
330
1F
100
AcDbEntity
  8
0
  6
Continuous
 62
     7
370
    15
100
AcDbLine
 10
926.0006162317003
 20
254.8691430045967
 30
0.0
 11
926.0006162317003
 21
253.4777720783115
 31
0.0
  0
SPLINE
  5
8FB5
330
1F
100
AcDbEntity
  8
0
  6
Continuous
 62
     7
370
    15
100
AcDbSpline
210
0.0
220
0.0
230
1.0
 70
    24
 71
     1
 72
     4
 73
     2
 74
     0
 42
0.0000000001
 43
0.0000000001
 40
0.0
 40
0.0
 40
1.0
 40
1.0
 10
924.6092463822568
 20
253.4777720783115
 30
0.0
 10
924.6092463822568
 20
252.9777720545628
 30
0.0
  0
LINE
  5
8FB6
330
1F
100
AcDbEntity
  8
0
  6
Continuous
 62
     7
370
    15
100
AcDbLine
 10
926.0006162317003
 20
252.9777720545628
 30
0.0
 11
926.0006162317003
 21
251.5864011282777
 31
0.0
  0
SPLINE
  5
8FB7
330
1F
100
AcDbEntity
  8
0
  6
Continuous
 62
     7
370
    15
100
AcDbSpline
210
0.0
220
0.0
230
1.0
 70
    24
 71
     1
 72
     4
 73
     2
 74
     0
 42
0.0000000001
 43
0.0000000001
 40
0.0
 40
0.0
 40
1.0
 40
1.0
 10
926.0006162317003
 20
251.5864011282777
 30
0.0
 10
926.5006172449792
 20
251.5864011282777
 30
0.0
  0
LINE
  5
8FB8
330
1F
100
AcDbEntity
  8
0
  6
Continuous
 62
     7
370
    15
100
AcDbLine
 10
926.5006172449792
 20
252.9777720545628
 30
0.0
 11
926.5006172449792
 21
251.5864011282777
 31
0.0
  0
SPLINE
  5
8FB9
330
1F
100
AcDbEntity
  8
0
  6
Continuous
 62
     7
370
    15
100
AcDbSpline
210
0.0
220
0.0
230
1.0
 70
    24
 71
     1
 72
     4
 73
     2
 74
     0
 42
0.0000000001
 43
0.0000000001
 40
0.0
 40
0.0
 40
1.0
 40
1.0
 10
927.8919870944227
 20
252.9777720545628
 30
0.0
 10
927.8919870944227
 20
253.4777720783115
 30
0.0
  0
SPLINE
  5
8FBA
330
1F
100
AcDbEntity
  8
0
  6
Continuous
 62
     7
370
    15
100
AcDbSpline
210
0.0
220
0.0
230
1.0
 70
    24
 71
     3
 72
     9
 73
     5
 74
     0
 42
0.0000000001
 43
0.0000000001
 40
0.0
 40
0.0
 40
0.0
 40
0.0
 40
0.4918113976245627
 40
1.0
 40
1.0
 40
1.0
 40
1.0
 10
924.6092463822568
 20
252.9777720545628
 30
0.0
 10
924.8295729580423
 20
252.9777720545628
 30
0.0
 10
925.2775629331623
 20
252.9777720545628
 30
0.0
 10
925.7569812880015
 20
252.9777720545628
 30
0.0
 10
926.0006162317003
 20
252.9777720545628
 30
0.0
  0
SPLINE
  5
8FBB
330
1F
100
AcDbEntity
  8
0
  6
Continuous
 62
     7
370
    15
100
AcDbSpline
210
0.0
220
0.0
230
1.0
 70
    24
 71
     3
 72
     9
 73
     5
 74
     0
 42
0.0000000001
 43
0.0000000001
 40
0.0
 40
0.0
 40
0.0
 40
0.0
 40
0.4918113976245627
 40
1.0
 40
1.0
 40
1.0
 40
1.0
 10
924.6092463822568
 20
253.4777720783115
 30
0.0
 10
924.8295729580423
 20
253.4777720783115
 30
0.0
 10
925.2775629331623
 20
253.4777720783115
 30
0.0
 10
925.7569812880015
 20
253.4777720783115
 30
0.0
 10
926.0006162317003
 20
253.4777720783115
 30
0.0
  0
SPLINE
  5
8FBC
330
1F
100
AcDbEntity
  8
0
  6
Continuous
 62
     7
370
    15
100
AcDbSpline
210
0.0
220
0.0
230
1.0
 70
    24
 71
     3
 72
     9
 73
     5
 74
     0
 42
0.0000000001
 43
0.0000000001
 40
0.0
 40
0.0
 40
0.0
 40
0.0
 40
0.4918104205268385
 40
1.0
 40
1.0
 40
1.0
 40
1.0
 10
926.5006172449792
 20
253.4777720783115
 30
0.0
 10
926.7363926923721
 20
253.4777720783115
 30
0.0
 10
927.215795806971
 20
253.4777720783115
 30
0.0
 10
927.6641421532493
 20
253.4777720783115
 30
0.0
 10
927.8919870944227
 20
253.4777720783115
 30
0.0
  0
SPLINE
  5
8FBD
330
1F
100
AcDbEntity
  8
0
  6
Continuous
 62
     7
370
    15
100
AcDbSpline
210
0.0
220
0.0
230
1.0
 70
    24
 71
     3
 72
     9
 73
     5
 74
     0
 42
0.0000000001
 43
0.0000000001
 40
0.0
 40
0.0
 40
0.0
 40
0.0
 40
0.4918088977801103
 40
1.0
 40
1.0
 40
1.0
 40
1.0
 10
927.8919870944227
 20
252.9777720545628
 30
0.0
 10
927.6716617749089
 20
252.9777720545628
 30
0.0
 10
927.2236720770642
 20
252.9777720545628
 30
0.0
 10
926.7442535000544
 20
252.9777720545628
 30
0.0
 10
926.5006172449792
 20
252.9777720545628
 30
0.0
  0
LINE
  5
8FBE
330
1F
100
AcDbEntity
  8
0
  6
Continuous
 62
     7
370
    15
100
AcDbLine
 10
933.700616189977
 20
245.477772193097
 30
0.0
 11
918.8006172867025
 21
245.477772193097
 31
0.0
  0
CIRCLE
  5
8FC6
330
1F
100
AcDbEntity
  8
0
  6
Continuous
 62
     7
370
    15
100
AcDbCircle
 10
926.2506177516186
 20
253.2277720664372
 30
0.0
 40
2.899999999999977
  0
LINE
  5
8FC7
330
1F
100
AcDbEntity
  8
0
  6
Continuous
 62
     7
370
    15
100
AcDbLine
 10
918.500615933677
 20
245.7777721491386
 30
0.0
 11
918.500615933677
 21
260.6777719837357
 31
0.0
  0
LINE
  5
8FCA
330
1F
100
AcDbEntity
  8
0
  6
Continuous
 62
     7
370
    15
100
AcDbLine
 10
933.700616189977
 20
260.9777719397773
 30
0.0
 11
918.8006172867025
 21
260.9777719397773
 31
0.0
  0
LINE
  5
8FCD
330
1F
100
AcDbEntity
  8
0
  6
Continuous
 62
     7
370
    15
100
AcDbLine
 10
934.0006212682927
 20
247.7286810670723
 30
0.0
 11
934.0006212682927
 21
245.7777721491386
 31
0.0
  0
LINE
  5
8FCF
330
1F
100
AcDbEntity
  8
0
  6
Continuous
 62
     7
370
    15
100
AcDbLine
 10
934.0006212682927
 20
260.6777719837357
 30
0.0
 11
934.0006212682927
 21
258.726863065802
 31
0.0
  0
ARC
  5
8FD1
330
1F
100
AcDbEntity
  8
0
  6
Continuous
 62
     7
370
    15
100
AcDbCircle
 10
933.7006177516187
 20
260.6777720664372
 30
0.0
 40
0.2999999999999829
100
AcDbArc
 50
0.0
 51
90.0
  0
ARC
  5
8FD2
330
1F
100
AcDbEntity
  8
0
  6
Continuous
 62
     7
370
    15
100
AcDbCircle
 10
933.7006177516187
 20
245.7777720664373
 30
0.0
 40
0.2999999999999971
100
AcDbArc
 50
270.0
 51
0.0
  0
ARC
  5
8FD3
330
1F
100
AcDbEntity
  8
0
  6
Continuous
 62
     7
370
    15
100
AcDbCircle
 10
918.8006177516186
 20
260.6777720664372
 30
0.0
 40
0.2999999999999829
100
AcDbArc
 50
90.0
 51
180.0
  0
ARC
  5
8FD4
330
1F
100
AcDbEntity
  8
0
  6
Continuous
 62
     7
370
    15
100
AcDbCircle
 10
918.8006177516186
 20
245.7777720664373
 30
0.0
 40
0.29999999999999
100
AcDbArc
 50
180.0
 51
270.0
  0
CIRCLE
  5
8FD9
330
1F
100
AcDbEntity
  8
0
  6
Continuous
 62
     7
370
    15
100
AcDbCircle
 10
926.2506177516186
 20
253.2277720664372
 30
0.0
 40
2.427957320947996
  0
LINE
  5
901D
330
1F
100
AcDbEntity
  8
0
  6
Continuous
 62
     7
370
    15
100
AcDbLine
 10
905.7506161720956
 20
259.7277722005476
 30
0.0
 11
905.5785971672738
 21
259.7277722005476
 31
0.0
  0
LINE
  5
901E
330
1F
100
AcDbEntity
  8
0
  6
Continuous
 62
     7
370
    15
100
AcDbLine
 10
904.6828362138475
 20
257.8525090274145
 30
0.0
 11
904.6828362138475
 21
261.6030349080195
 31
0.0
  0
LINE
  5
901F
330
1F
100
AcDbEntity
  8
0
  6
Continuous
 62
     7
370
    15
100
AcDbLine
 10
905.512983629247
 20
258.5106309187342
 30
0.0
 11
905.512983629247
 21
260.9449130166997
 31
0.0
  0
LINE
  5
9020
330
1F
100
AcDbEntity
  8
0
  6
Continuous
 62
     7
370
    15
100
AcDbLine
 10
943.0006171555723
 20
253.2277720664372
 30
0.0
 11
943.0006171555723
 21
260.7277718987991
 31
0.0
  0
LINE
  5
9021
330
1F
100
AcDbEntity
  8
0
  6
Continuous
 62
     7
370
    15
100
AcDbLine
 10
943.0006171555723
 20
245.7277722340752
 30
0.0
 11
943.0006171555723
 21
253.2277720664372
 31
0.0
  0
SPLINE
  5
9024
330
1F
100
AcDbEntity
  8
0
  6
Continuous
 62
     7
370
    15
100
AcDbSpline
210
0.0
220
0.0
230
1.0
 70
    24
 71
     1
 72
     4
 73
     2
 74
     0
 42
0.0000000001
 43
0.0000000001
 40
0.0
 40
0.0
 40
1.0
 40
1.0
 10
904.250616857549
 20
116.9469300252069
 30
0.0
 10
904.6828362138475
 20
116.9716668841113
 30
0.0
  0
SPLINE
  5
9025
330
1F
100
AcDbEntity
  8
0
  6
Continuous
 62
     7
370
    15
100
AcDbSpline
210
0.0
220
0.0
230
1.0
 70
    24
 71
     1
 72
     4
 73
     2
 74
     0
 42
0.0000000001
 43
0.0000000001
 40
0.0
 40
0.0
 40
1.0
 40
1.0
 10
904.6828362138475
 20
120.7221927647163
 30
0.0
 10
904.250616857549
 20
120.7469296236207
 30
0.0
  0
SPLINE
  5
9026
330
1F
100
AcDbEntity
  8
0
  6
Continuous
 62
     7
370
    15
100
AcDbSpline
210
0.0
220
0.0
230
1.0
 70
    24
 71
     1
 72
     4
 73
     2
 74
     0
 42
0.0000000001
 43
0.0000000001
 40
0.0
 40
0.0
 40
1.0
 40
1.0
 10
902.7506175430024
 20
116.9469300252069
 30
0.0
 10
903.2506185562814
 20
116.9469300252069
 30
0.0
  0
SPLINE
  5
9027
330
1F
100
AcDbEntity
  8
0
  6
Continuous
 62
     7
370
    15
100
AcDbSpline
210
0.0
220
0.0
230
1.0
 70
    24
 71
     1
 72
     4
 73
     2
 74
     0
 42
0.0000000001
 43
0.0000000001
 40
0.0
 40
0.0
 40
1.0
 40
1.0
 10
903.2506185562814
 20
120.7469296236207
 30
0.0
 10
902.7506175430024
 20
120.7469296236207
 30
0.0
  0
SPLINE
  5
9028
330
1F
100
AcDbEntity
  8
0
  6
Continuous
 62
     7
370
    15
100
AcDbSpline
210
0.0
220
0.0
230
1.0
 70
    24
 71
     1
 72
     4
 73
     2
 74
     0
 42
0.0000000001
 43
0.0000000001
 40
0.0
 40
0.0
 40
1.0
 40
1.0
 10
903.4506182165349
 20
116.9469300252069
 30
0.0
 10
904.0506171972955
 20
116.9469300252069
 30
0.0
  0
SPLINE
  5
9029
330
1F
100
AcDbEntity
  8
0
  6
Continuous
 62
     7
370
    15
100
AcDbSpline
210
0.0
220
0.0
230
1.0
 70
    24
 71
     1
 72
     4
 73
     2
 74
     0
 42
0.0000000001
 43
0.0000000001
 40
0.0
 40
0.0
 40
1.0
 40
1.0
 10
904.0506171972955
 20
120.7469296236207
 30
0.0
 10
903.4506182165349
 20
120.7469296236207
 30
0.0
  0
ARC
  5
902A
330
1F
100
AcDbEntity
  8
0
  6
Continuous
 62
     7
370
    15
100
AcDbCircle
 10
904.6302406782166
 20
117.8906403925116
 30
0.0
 40
0.9204773788881876
100
AcDbArc
 50
273.2756092980888
 51
343.5375231673634
  0
ARC
  5
902B
330
1F
100
AcDbEntity
  8
0
  6
Continuous
 62
     7
370
    15
100
AcDbCircle
 10
904.6302406782166
 20
119.8032194537564
 30
0.0
 40
0.920477378888216
100
AcDbArc
 50
16.46247683263811
 51
86.7243907019113
  0
ARC
  5
902C
330
1F
100
AcDbEntity
  8
0
  6
Continuous
 62
     7
370
    15
100
AcDbCircle
 10
899.2117868716544
 20
118.2020594863387
 30
0.0
 40
6.57055303281454
100
AcDbArc
 50
14.03197254576816
 51
16.4624768326467
  0
ARC
  5
902D
330
1F
100
AcDbEntity
  8
0
  6
Continuous
 62
     7
370
    15
100
AcDbCircle
 10
899.2117868716544
 20
119.4918003599293
 30
0.0
 40
6.570553032814546
100
AcDbArc
 50
343.5375231673541
 51
345.9683742938502
  0
SPLINE
  5
902E
330
1F
100
AcDbEntity
  8
0
  6
Continuous
 62
     7
370
    15
100
AcDbSpline
210
0.0
220
0.0
230
1.0
 70
    24
 71
     1
 72
     4
 73
     2
 74
     0
 42
0.0000000001
 43
0.0000000001
 40
0.0
 40
0.0
 40
1.0
 40
1.0
 10
904.0506171972955
 20
117.8469298933317
 30
0.0
 10
904.250616857549
 20
117.8469298933317
 30
0.0
  0
SPLINE
  5
902F
330
1F
100
AcDbEntity
  8
0
  6
Continuous
 62
     7
370
    15
100
AcDbSpline
210
0.0
220
0.0
230
1.0
 70
    24
 71
     1
 72
     4
 73
     2
 74
     0
 42
0.0000000001
 43
0.0000000001
 40
0.0
 40
0.0
 40
1.0
 40
1.0
 10
903.2506185562814
 20
117.8469298933317
 30
0.0
 10
903.4506182165349
 20
117.8469298933317
 30
0.0
  0
SPLINE
  5
9030
330
1F
100
AcDbEntity
  8
0
  6
Continuous
 62
     7
370
    15
100
AcDbSpline
210
0.0
220
0.0
230
1.0
 70
    24
 71
     1
 72
     4
 73
     2
 74
     0
 42
0.0000000001
 43
0.0000000001
 40
0.0
 40
0.0
 40
1.0
 40
1.0
 10
903.4506182165349
 20
119.8469297554959
 30
0.0
 10
903.2506185562814
 20
119.8469297554959
 30
0.0
  0
SPLINE
  5
9031
330
1F
100
AcDbEntity
  8
0
  6
Continuous
 62
     7
370
    15
100
AcDbSpline
210
0.0
220
0.0
230
1.0
 70
    24
 71
     1
 72
     4
 73
     2
 74
     0
 42
0.0000000001
 43
0.0000000001
 40
0.0
 40
0.0
 40
1.0
 40
1.0
 10
904.250616857549
 20
119.8469297554959
 30
0.0
 10
904.0506171972955
 20
119.8469297554959
 30
0.0
  0
SPLINE
  5
903E
330
1F
100
AcDbEntity
  8
0
  6
Continuous
 62
     7
370
    15
100
AcDbSpline
210
0.0
220
0.0
230
1.0
 70
    24
 71
     1
 72
     4
 73
     2
 74
     0
 42
0.0000000001
 43
0.0000000001
 40
0.0
 40
0.0
 40
1.0
 40
1.0
 10
936.7506156654561
 20
119.8469297554958
 30
0.0
 10
936.5506197304929
 20
118.3469299752879
 30
0.0
  0
SPLINE
  5
903F
330
1F
100
AcDbEntity
  8
0
  6
Continuous
 62
     7
370
    15
100
AcDbSpline
210
0.0
220
0.0
230
1.0
 70
    24
 71
     1
 72
     4
 73
     2
 74
     0
 42
0.0000000001
 43
0.0000000001
 40
0.0
 40
0.0
 40
1.0
 40
1.0
 10
936.5506197304929
 20
106.3469298709798
 30
0.0
 10
936.7506156654561
 20
104.8469300907719
 30
0.0
  0
SPLINE
  5
9040
330
1F
100
AcDbEntity
  8
0
  6
Continuous
 62
     7
370
    15
100
AcDbSpline
210
0.0
220
0.0
230
1.0
 70
    24
 71
     1
 72
     4
 73
     2
 74
     0
 42
0.0000000001
 43
0.0000000001
 40
0.0
 40
0.0
 40
1.0
 40
1.0
 10
934.7506190629209
 20
104.8469300907719
 30
0.0
 10
935.2506200761999
 20
104.8469300907719
 30
0.0
  0
SPLINE
  5
9041
330
1F
100
AcDbEntity
  8
0
  6
Continuous
 62
     7
370
    15
100
AcDbSpline
210
0.0
220
0.0
230
1.0
 70
    24
 71
     1
 72
     4
 73
     2
 74
     0
 42
0.0000000001
 43
0.0000000001
 40
0.0
 40
0.0
 40
1.0
 40
1.0
 10
935.2506200761999
 20
119.8469297554958
 30
0.0
 10
934.7506190629209
 20
119.8469297554958
 30
0.0
  0
SPLINE
  5
9042
330
1F
100
AcDbEntity
  8
0
  6
Continuous
 62
     7
370
    15
100
AcDbSpline
210
0.0
220
0.0
230
1.0
 70
    24
 71
     1
 72
     4
 73
     2
 74
     0
 42
0.0000000001
 43
0.0000000001
 40
0.0
 40
0.0
 40
1.0
 40
1.0
 10
935.2506200761999
 20
104.8469300907719
 30
0.0
 10
935.7506210894788
 20
106.3469298709798
 30
0.0
  0
SPLINE
  5
9043
330
1F
100
AcDbEntity
  8
0
  6
Continuous
 62
     7
370
    15
100
AcDbSpline
210
0.0
220
0.0
230
1.0
 70
    24
 71
     1
 72
     4
 73
     2
 74
     0
 42
0.0000000001
 43
0.0000000001
 40
0.0
 40
0.0
 40
1.0
 40
1.0
 10
935.7506210894788
 20
118.3469299752879
 30
0.0
 10
935.2506200761999
 20
119.8469297554958
 30
0.0
  0
SPLINE
  5
9044
330
1F
100
AcDbEntity
  8
0
  6
Continuous
 62
     7
370
    15
100
AcDbSpline
210
0.0
220
0.0
230
1.0
 70
    24
 71
     1
 72
     4
 73
     2
 74
     0
 42
0.0000000001
 43
0.0000000001
 40
0.0
 40
0.0
 40
1.0
 40
1.0
 10
935.7506210894788
 20
106.3469298709798
 30
0.0
 10
936.5506197304929
 20
106.3469298709798
 30
0.0
  0
SPLINE
  5
9045
330
1F
100
AcDbEntity
  8
0
  6
Continuous
 62
     7
370
    15
100
AcDbSpline
210
0.0
220
0.0
230
1.0
 70
    24
 71
     1
 72
     4
 73
     2
 74
     0
 42
0.0000000001
 43
0.0000000001
 40
0.0
 40
0.0
 40
1.0
 40
1.0
 10
936.5506197304929
 20
118.3469299752879
 30
0.0
 10
935.7506210894788
 20
118.3469299752879
 30
0.0
  0
SPLINE
  5
9046
330
1F
100
AcDbEntity
  8
0
  6
Continuous
 62
     7
370
    15
100
AcDbSpline
210
0.0
220
0.0
230
1.0
 70
    24
 71
     1
 72
     4
 73
     2
 74
     0
 42
0.0000000001
 43
0.0000000001
 40
0.0
 40
0.0
 40
1.0
 40
1.0
 10
939.150619039079
 20
106.946929783063
 30
0.0
 10
940.3506170006002
 20
106.946929783063
 30
0.0
  0
SPLINE
  5
9047
330
1F
100
AcDbEntity
  8
0
  6
Continuous
 62
     7
370
    15
100
AcDbSpline
210
0.0
220
0.0
230
1.0
 70
    24
 71
     1
 72
     4
 73
     2
 74
     0
 42
0.0000000001
 43
0.0000000001
 40
0.0
 40
0.0
 40
1.0
 40
1.0
 10
940.3506170006002
 20
117.7469300632048
 30
0.0
 10
939.150619039079
 20
117.7469300632048
 30
0.0
  0
SPLINE
  5
9048
330
1F
100
AcDbEntity
  8
0
  6
Continuous
 62
     7
370
    15
100
AcDbSpline
210
0.0
220
0.0
230
1.0
 70
    24
 71
     1
 72
     4
 73
     2
 74
     0
 42
0.0000000001
 43
0.0000000001
 40
0.0
 40
0.0
 40
1.0
 40
1.0
 10
941.7506183476652
 20
119.3469301392007
 30
0.0
 10
941.6757251115049
 20
119.421823375361
 30
0.0
  0
SPLINE
  5
9049
330
1F
100
AcDbEntity
  8
0
  6
Continuous
 62
     7
370
    15
100
AcDbSpline
210
0.0
220
0.0
230
1.0
 70
    24
 71
     1
 72
     4
 73
     2
 74
     0
 42
0.0000000001
 43
0.0000000001
 40
0.0
 40
0.0
 40
1.0
 40
1.0
 10
941.6757251115049
 20
105.2720364709068
 30
0.0
 10
941.7506183476652
 20
105.346929707067
 30
0.0
  0
SPLINE
  5
904E
330
1F
100
AcDbEntity
  8
0
  6
Continuous
 62
     7
370
    15
100
AcDbSpline
210
0.0
220
0.0
230
1.0
 70
    24
 71
     1
 72
     4
 73
     2
 74
     0
 42
0.0000000001
 43
0.0000000001
 40
0.0
 40
0.0
 40
1.0
 40
1.0
 10
945.0006212086881
 20
117.7469300632046
 30
0.0
 10
943.5006181688512
 20
117.7469300632046
 30
0.0
  0
SPLINE
  5
904F
330
1F
100
AcDbEntity
  8
0
  6
Continuous
 62
     7
370
    15
100
AcDbSpline
210
0.0
220
0.0
230
1.0
 70
    24
 71
     1
 72
     4
 73
     2
 74
     0
 42
0.0000000001
 43
0.0000000001
 40
0.0
 40
0.0
 40
1.0
 40
1.0
 10
943.5006181688512
 20
106.9469297830627
 30
0.0
 10
945.0006212086881
 20
106.9469297830627
 30
0.0
  0
SPLINE
  5
9050
330
1F
100
AcDbEntity
  8
0
  6
Continuous
 62
     7
370
    15
100
AcDbSpline
210
0.0
220
0.0
230
1.0
 70
    24
 71
     1
 72
     4
 73
     2
 74
     0
 42
0.0000000001
 43
0.0000000001
 40
0.0
 40
0.0
 40
1.0
 40
1.0
 10
945.0006212086881
 20
104.8877867464588
 30
0.0
 10
949.4006211848462
 20
104.8877867464588
 30
0.0
  0
SPLINE
  5
9051
330
1F
100
AcDbEntity
  8
0
  6
Continuous
 62
     7
370
    15
100
AcDbSpline
210
0.0
220
0.0
230
1.0
 70
    24
 71
     1
 72
     4
 73
     2
 74
     0
 42
0.0000000001
 43
0.0000000001
 40
0.0
 40
0.0
 40
1.0
 40
1.0
 10
949.4006211848462
 20
119.8060730998085
 30
0.0
 10
945.0006212086881
 20
119.8060730998085
 30
0.0
  0
ARC
  5
9052
330
1F
100
AcDbEntity
  8
0
  6
Continuous
 62
     7
370
    15
100
AcDbCircle
 10
943.0006177516187
 20
105.3469299231337
 30
0.0
 40
0.5
100
AcDbArc
 50
270.0
 51
0.0
  0
ARC
  5
9053
330
1F
100
AcDbEntity
  8
0
  6
Continuous
 62
     7
370
    15
100
AcDbCircle
 10
943.0006177516187
 20
119.3469299231336
 30
0.0
 40
0.5
100
AcDbArc
 50
0.0000000000008142
 51
90.0
  0
SPLINE
  5
9054
330
1F
100
AcDbEntity
  8
0
  6
Continuous
 62
     7
370
    15
100
AcDbSpline
210
0.0
220
0.0
230
1.0
 70
    24
 71
     1
 72
     4
 73
     2
 74
     0
 42
0.0000000001
 43
0.0000000001
 40
0.0
 40
0.0
 40
1.0
 40
1.0
 10
943.0006171555723
 20
119.8469297554956
 30
0.0
 10
935.2506200761999
 20
119.8469297554956
 30
0.0
  0
SPLINE
  5
9055
330
1F
100
AcDbEntity
  8
0
  6
Continuous
 62
     7
370
    15
100
AcDbSpline
210
0.0
220
0.0
230
1.0
 70
    24
 71
     1
 72
     4
 73
     2
 74
     0
 42
0.0000000001
 43
0.0000000001
 40
0.0
 40
0.0
 40
1.0
 40
1.0
 10
935.2506200761999
 20
104.8469300907717
 30
0.0
 10
943.0006171555723
 20
104.8469300907717
 30
0.0
  0
LINE
  5
905A
330
1F
100
AcDbEntity
  8
0
  6
Continuous
 62
     7
370
    15
100
AcDbLine
 10
887.2506177963222
 20
120.4594201002885
 30
0.0
 11
887.2506177963222
 21
104.2344397459795
 31
0.0
  0
LINE
  5
905B
330
1F
100
AcDbEntity
  8
0
  6
Continuous
 62
     7
370
    15
100
AcDbLine
 10
887.2506177963222
 20
120.4594201002885
 30
0.0
 11
902.7506175430024
 21
120.4594201002885
 31
0.0
  0
LINE
  5
905C
330
1F
100
AcDbEntity
  8
0
  6
Continuous
 62
     7
370
    15
100
AcDbLine
 10
902.7506175430024
 20
120.4594201002885
 30
0.0
 11
902.7506175430024
 21
116.3469301131238
 31
0.0
  0
LINE
  5
905D
330
1F
100
AcDbEntity
  8
0
  6
Continuous
 62
     7
370
    15
100
AcDbLine
 10
902.7506175430024
 20
116.3469301131238
 30
0.0
 11
902.7506175430024
 21
104.2344397459795
 31
0.0
  0
LINE
  5
905E
330
1F
100
AcDbEntity
  8
0
  6
Continuous
 62
     7
370
    15
100
AcDbLine
 10
902.7506175430024
 20
104.2344397459795
 30
0.0
 11
887.2506177963222
 21
104.2344397459795
 31
0.0
  0
SPLINE
  5
905F
330
1F
100
AcDbEntity
  8
0
  6
Continuous
 62
     7
370
    15
100
AcDbSpline
210
0.0
220
0.0
230
1.0
 70
    24
 71
     1
 72
     4
 73
     2
 74
     0
 42
0.0000000001
 43
0.0000000001
 40
0.0
 40
0.0
 40
1.0
 40
1.0
 10
903.0592503936494
 20
103.8547022794057
 30
0.0
 10
902.7506175430024
 20
104.2344397459795
 30
0.0
  0
LINE
  5
9061
330
1F
100
AcDbEntity
  8
0
  6
Continuous
 62
     7
370
    15
100
AcDbLine
 10
905.7506161720956
 20
104.303263552921
 30
0.0
 11
905.7506161720956
 21
116.3469301131238
 31
0.0
  0
LINE
  5
9062
330
1F
100
AcDbEntity
  8
0
  6
Continuous
 62
     7
370
    15
100
AcDbLine
 10
903.0592503936494
 20
103.8547022794057
 30
0.0
 11
905.7506161720956
 21
104.303263552921
 31
0.0
  0
SPLINE
  5
9063
330
1F
100
AcDbEntity
  8
0
  6
Continuous
 62
     7
370
    15
100
AcDbSpline
210
0.0
220
0.0
230
1.0
 70
     8
 71
     3
 72
    13
 73
     9
 74
     0
 42
0.0000000001
 43
0.0000000001
 40
0.0
 40
0.0
 40
0.0
 40
0.0
 40
0.1751122698175479
 40
0.3154413812512002
 40
0.4568091542283772
 40
0.5767781625885396
 40
0.7371707721086827
 40
1.0
 40
1.0
 40
1.0
 40
1.0
 10
903.0592503936494
 20
103.8547022794057
 30
0.0
 10
903.0850163540675
 20
103.8193255248701
 30
0.0
 10
903.1314302926912
 20
103.755599023429
 30
0.0
 10
903.1549596080136
 20
103.6482120661806
 30
0.0
 10
903.1335798840999
 20
103.5539273687432
 30
0.0
 10
903.0688123601201
 20
103.4704648043278
 30
0.0
 10
902.9472645884169
 20
103.3906244107962
 30
0.0
 10
902.8318876373592
 20
103.3646584795107
 30
0.0
 10
902.7602362425531
 20
103.3485331167151
 30
0.0
  0
SPLINE
  5
9064
330
1F
100
AcDbEntity
  8
0
  6
Continuous
 62
     7
370
    15
100
AcDbSpline
210
0.0
220
0.0
230
1.0
 70
    24
 71
     1
 72
     4
 73
     2
 74
     0
 42
0.0000000001
 43
0.0000000001
 40
0.0
 40
0.0
 40
1.0
 40
1.0
 10
902.7506175430024
 20
103.3469303105642
 30
0.0
 10
902.7602362425531
 20
103.3485331167151
 30
0.0
  0
LINE
  5
9065
330
1F
100
AcDbEntity
  8
0
  6
Continuous
 62
     7
370
    15
100
AcDbLine
 10
887.2506177963222
 20
103.3469303105642
 30
0.0
 11
902.7506175430024
 21
103.3469303105642
 31
0.0
  0
LINE
  5
9066
330
1F
100
AcDbEntity
  8
0
  6
Continuous
 62
     7
370
    15
100
AcDbLine
 10
887.2506177963222
 20
104.2344397459795
 30
0.0
 11
887.2506177963222
 21
103.754927829342
 31
0.0
  0
LINE
  5
9067
330
1F
100
AcDbEntity
  8
0
  6
Continuous
 62
     7
370
    15
100
AcDbLine
 10
887.2506177963222
 20
103.6469298009445
 30
0.0
 11
887.2506177963222
 21
103.3469303105642
 31
0.0
  0
LINE
  5
9068
330
1F
100
AcDbEntity
  8
0
  6
Continuous
 62
     7
370
    15
100
AcDbLine
 10
902.7506175430024
 20
121.3469295357038
 30
0.0
 11
887.2506177963222
 21
121.3469295357038
 31
0.0
  0
LINE
  5
9069
330
1F
100
AcDbEntity
  8
0
  6
Continuous
 62
     7
370
    15
100
AcDbLine
 10
887.2506177963222
 20
121.3469295357038
 30
0.0
 11
887.2506177963222
 21
121.0469300453235
 31
0.0
  0
LINE
  5
906A
330
1F
100
AcDbEntity
  8
0
  6
Continuous
 62
     7
370
    15
100
AcDbLine
 10
887.2506177963222
 20
120.938932016926
 30
0.0
 11
887.2506177963222
 21
120.4594201002885
 31
0.0
  0
LINE
  5
906B
330
1F
100
AcDbEntity
  8
0
  6
Continuous
 62
     7
370
    15
100
AcDbLine
 10
902.7506175430024
 20
121.3469295357038
 30
0.0
 11
902.7506175430024
 21
120.4594201002885
 31
0.0
  0
LINE
  5
906C
330
1F
100
AcDbEntity
  8
0
  6
Continuous
 62
     7
370
    15
100
AcDbLine
 10
905.7506161720956
 20
103.846929461198
 30
0.0
 11
902.7602362425531
 21
103.3485331167151
 31
0.0
  0
LINE
  5
906D
330
1F
100
AcDbEntity
  8
0
  6
Continuous
 62
     7
370
    15
100
AcDbLine
 10
905.7506161720956
 20
104.303263552921
 30
0.0
 11
905.7506161720956
 21
103.846929461198
 31
0.0
  0
LINE
  5
906E
330
1F
100
AcDbEntity
  8
0
  6
Continuous
 62
     7
370
    15
100
AcDbLine
 10
905.7506161720956
 20
118.8469300572444
 30
0.0
 11
905.7506161720956
 21
116.3469301131238
 31
0.0
  0
LINE
  5
906F
330
1F
100
AcDbEntity
  8
0
  6
Continuous
 62
     7
370
    15
100
AcDbLine
 10
902.7506175430024
 20
121.3469295357038
 30
0.0
 11
905.7506161720956
 21
120.84693038507
 31
0.0
  0
LINE
  5
9070
330
1F
100
AcDbEntity
  8
0
  6
Continuous
 62
     7
370
    15
100
AcDbLine
 10
905.7506161720956
 20
120.84693038507
 30
0.0
 11
905.7506161720956
 21
118.8469300572444
 31
0.0
  0
LINE
  5
9071
330
1F
100
AcDbEntity
  8
0
  6
Continuous
 62
     7
370
    15
100
AcDbLine
 10
841.2506177069152
 20
104.2344397459795
 30
0.0
 11
841.2506177069152
 21
120.4594201002885
 31
0.0
  0
LINE
  5
9089
330
1F
100
AcDbEntity
  8
0
  6
Continuous
 62
     7
370
    15
100
AcDbLine
 10
904.250616857549
 20
120.7469296236207
 30
0.0
 11
904.250616857549
 21
116.9469300252069
 31
0.0
  0
LINE
  5
908A
330
1F
100
AcDbEntity
  8
0
  6
Continuous
 62
     7
370
    15
100
AcDbLine
 10
903.2506185562814
 20
116.9469300252069
 30
0.0
 11
903.2506185562814
 21
120.7469296236207
 31
0.0
  0
LINE
  5
908B
330
1F
100
AcDbEntity
  8
0
  6
Continuous
 62
     7
370
    15
100
AcDbLine
 10
903.4506182165349
 20
118.5969300162662
 30
0.0
 11
904.0506171972955
 21
118.5969300162662
 31
0.0
  0
LINE
  5
908C
330
1F
100
AcDbEntity
  8
0
  6
Continuous
 62
     7
370
    15
100
AcDbLine
 10
903.4506182165349
 20
119.0969300982226
 30
0.0
 11
904.0506171972955
 21
119.0969300982226
 31
0.0
  0
LINE
  5
908D
330
1F
100
AcDbEntity
  8
0
  6
Continuous
 62
     7
370
    15
100
AcDbLine
 10
903.4506182165349
 20
118.5969300162662
 30
0.0
 11
903.4506182165349
 21
116.9469300252069
 31
0.0
  0
LINE
  5
908E
330
1F
100
AcDbEntity
  8
0
  6
Continuous
 62
     7
370
    15
100
AcDbLine
 10
903.4506182165349
 20
120.7469296236207
 30
0.0
 11
903.4506182165349
 21
119.0969300982226
 31
0.0
  0
LINE
  5
908F
330
1F
100
AcDbEntity
  8
0
  6
Continuous
 62
     7
370
    15
100
AcDbLine
 10
904.0506171972955
 20
119.0969300982226
 30
0.0
 11
904.0506171972955
 21
120.7469296236207
 31
0.0
  0
LINE
  5
9090
330
1F
100
AcDbEntity
  8
0
  6
Continuous
 62
     7
370
    15
100
AcDbLine
 10
904.0506171972955
 20
116.9469300252069
 30
0.0
 11
904.0506171972955
 21
118.5969300162662
 31
0.0
  0
SPLINE
  5
9091
330
1F
100
AcDbEntity
  8
0
  6
Continuous
 62
     7
370
    15
100
AcDbSpline
210
0.0
220
0.0
230
1.0
 70
     8
 71
     3
 72
     9
 73
     5
 74
     0
 42
0.0000000001
 43
0.0000000001
 40
0.0
 40
0.0
 40
0.0
 40
0.0
 40
0.5026120115989611
 40
0.9999999999999998
 40
0.9999999999999998
 40
0.9999999999999998
 40
0.9999999999999998
 10
905.7060393483842
 20
119.0969300982226
 30
0.0
 10
905.6902756296718
 20
119.2145938459439
 30
0.0
 10
905.6589120363859
 20
119.4486983739016
 30
0.0
 10
905.6052753906172
 20
119.6787218995759
 30
0.0
 10
905.5785971672738
 20
119.7931328382958
 30
0.0
  0
SPLINE
  5
9092
330
1F
100
AcDbEntity
  8
0
  6
Continuous
 62
     7
370
    15
100
AcDbSpline
210
0.0
220
0.0
230
1.0
 70
    24
 71
     1
 72
     4
 73
     2
 74
     0
 42
0.0000000001
 43
0.0000000001
 40
0.0
 40
0.0
 40
1.0
 40
1.0
 10
905.5785971672738
 20
119.0969300982226
 30
0.0
 10
905.7060393483842
 20
119.0969300982226
 30
0.0
  0
SPLINE
  5
9093
330
1F
100
AcDbEntity
  8
0
  6
Continuous
 62
     7
370
    15
100
AcDbSpline
210
0.0
220
0.0
230
1.0
 70
    24
 71
     1
 72
     4
 73
     2
 74
     0
 42
0.0000000001
 43
0.0000000001
 40
0.0
 40
0.0
 40
1.0
 40
1.0
 10
905.5785971672738
 20
119.0969300982226
 30
0.0
 10
905.5785971672738
 20
118.5969300162662
 30
0.0
  0
SPLINE
  5
9094
330
1F
100
AcDbEntity
  8
0
  6
Continuous
 62
     7
370
    15
100
AcDbSpline
210
0.0
220
0.0
230
1.0
 70
    24
 71
     1
 72
     4
 73
     2
 74
     0
 42
0.0000000001
 43
0.0000000001
 40
0.0
 40
0.0
 40
1.0
 40
1.0
 10
905.5785971672738
 20
118.5969300162662
 30
0.0
 10
905.7060393483842
 20
118.5969300162662
 30
0.0
  0
SPLINE
  5
9095
330
1F
100
AcDbEntity
  8
0
  6
Continuous
 62
     7
370
    15
100
AcDbSpline
210
0.0
220
0.0
230
1.0
 70
    24
 71
     1
 72
     4
 73
     2
 74
     0
 42
0.0000000001
 43
0.0000000001
 40
0.0
 40
0.0
 40
1.0
 40
1.0
 10
905.5785971672738
 20
117.9007268105318
 30
0.0
 10
905.7060393483842
 20
118.5969300162662
 30
0.0
  0
LINE
  5
9096
330
1F
100
AcDbEntity
  8
0
  6
Continuous
 62
     7
370
    15
100
AcDbLine
 10
907.7506164999212
 20
104.5969300497939
 30
0.0
 11
905.7506161720956
 21
104.5969300497939
 31
0.0
  0
LINE
  5
9097
330
1F
100
AcDbEntity
  8
0
  6
Continuous
 62
     7
370
    15
100
AcDbLine
 10
905.7506161720956
 20
104.0969299678375
 30
0.0
 11
907.7506164999212
 21
104.0969299678375
 31
0.0
  0
LINE
  5
9098
330
1F
100
AcDbEntity
  8
0
  6
Continuous
 62
     7
370
    15
100
AcDbLine
 10
907.7506164999212
 20
104.5969300497939
 30
0.0
 11
907.7506164999212
 21
104.0969299678375
 31
0.0
  0
LINE
  5
909A
330
1F
100
AcDbEntity
  8
0
  6
Continuous
 62
     7
370
    15
100
AcDbLine
 10
907.7506164999212
 20
116.3469301131238
 30
0.0
 11
907.7506164999212
 21
104.5969300497939
 31
0.0
  0
LINE
  5
909C
330
1F
100
AcDbEntity
  8
0
  6
Continuous
 62
     7
370
    15
100
AcDbLine
 10
905.7506161720956
 20
118.8469300572444
 30
0.0
 11
905.7506161720956
 21
116.3469301131238
 31
0.0
  0
LINE
  5
909E
330
1F
100
AcDbEntity
  8
0
  6
Continuous
 62
     7
370
    15
100
AcDbLine
 10
905.7506161720956
 20
120.5969298784305
 30
0.0
 11
907.7506164999212
 21
120.5969298784305
 31
0.0
  0
LINE
  5
909F
330
1F
100
AcDbEntity
  8
0
  6
Continuous
 62
     7
370
    15
100
AcDbLine
 10
905.7506161720956
 20
120.5969298784305
 30
0.0
 11
905.7506161720956
 21
118.8469300572444
 31
0.0
  0
LINE
  5
90A0
330
1F
100
AcDbEntity
  8
0
  6
Continuous
 62
     7
370
    15
100
AcDbLine
 10
907.7506164999212
 20
120.5969298784305
 30
0.0
 11
907.7506164999212
 21
120.5469299633671
 31
0.0
  0
LINE
  5
90E1
330
1F
100
AcDbEntity
  8
0
  6
Continuous
 62
     7
370
    15
100
AcDbLine
 10
936.5506197304929
 20
117.8922773864736
 30
0.0
 11
936.5506197304929
 21
106.3469298709798
 31
0.0
  0
LINE
  5
90E2
330
1F
100
AcDbEntity
  8
0
  6
Continuous
 62
     7
370
    15
100
AcDbLine
 10
936.5506197304929
 20
118.3469299752879
 30
0.0
 11
936.5506197304929
 21
117.8922773864736
 31
0.0
  0
LINE
  5
90E3
330
1F
100
AcDbEntity
  8
0
  6
Continuous
 62
     7
370
    15
100
AcDbLine
 10
936.7506156654561
 20
107.1854340438415
 30
0.0
 11
936.7506156654561
 21
105.7615056228508
 31
0.0
  0
LINE
  5
90E4
330
1F
100
AcDbEntity
  8
0
  6
Continuous
 62
     7
370
    15
100
AcDbLine
 10
936.7506156654561
 20
104.8469300907719
 30
0.0
 11
936.7506156654561
 21
105.7615056228508
 31
0.0
  0
LINE
  5
90E5
330
1F
100
AcDbEntity
  8
0
  6
Continuous
 62
     7
370
    15
100
AcDbLine
 10
936.7506156654561
 20
119.640078355061
 30
0.0
 11
936.7506156654561
 21
119.8469297554958
 31
0.0
  0
LINE
  5
90E6
330
1F
100
AcDbEntity
  8
0
  6
Continuous
 62
     7
370
    15
100
AcDbLine
 10
936.7506156654561
 20
119.640078355061
 30
0.0
 11
936.7506156654561
 21
118.7479598042239
 31
0.0
  0
LINE
  5
90E7
330
1F
100
AcDbEntity
  8
0
  6
Continuous
 62
     7
370
    15
100
AcDbLine
 10
936.7506156654561
 20
114.4785824757685
 30
0.0
 11
936.7506156654561
 21
118.7479598042239
 31
0.0
  0
LINE
  5
90E8
330
1F
100
AcDbEntity
  8
0
  6
Continuous
 62
     7
370
    15
100
AcDbLine
 10
936.7506156654561
 20
114.4785824757685
 30
0.0
 11
936.7506156654561
 21
112.1625355621484
 31
0.0
  0
LINE
  5
90E9
330
1F
100
AcDbEntity
  8
0
  6
Continuous
 62
     7
370
    15
100
AcDbLine
 10
936.7506156654561
 20
112.1625355621484
 30
0.0
 11
936.7506156654561
 21
107.1854340438415
 31
0.0
  0
LINE
  5
90EA
330
1F
100
AcDbEntity
  8
0
  6
Continuous
 62
     7
370
    15
100
AcDbLine
 10
935.2506200761999
 20
119.2786143687238
 30
0.0
 11
935.2506200761999
 21
104.8469300907719
 31
0.0
  0
LINE
  5
90EB
330
1F
100
AcDbEntity
  8
0
  6
Continuous
 62
     7
370
    15
100
AcDbLine
 10
935.2506200761999
 20
119.8469297554958
 30
0.0
 11
935.2506200761999
 21
119.2786143687238
 31
0.0
  0
LINE
  5
90EC
330
1F
100
AcDbEntity
  8
0
  6
Continuous
 62
     7
370
    15
100
AcDbLine
 10
935.7506210894788
 20
117.8922773864736
 30
0.0
 11
935.7506210894788
 21
106.3469298709798
 31
0.0
  0
LINE
  5
90ED
330
1F
100
AcDbEntity
  8
0
  6
Continuous
 62
     7
370
    15
100
AcDbLine
 10
935.7506210894788
 20
118.3469299752879
 30
0.0
 11
935.7506210894788
 21
117.8922773864736
 31
0.0
  0
SPLINE
  5
90EE
330
1F
100
AcDbEntity
  8
0
  6
Continuous
 62
     7
370
    15
100
AcDbSpline
210
0.0
220
0.0
230
1.0
 70
     8
 71
     3
 72
     9
 73
     5
 74
     0
 42
0.0000000001
 43
0.0000000001
 40
0.0
 40
0.0
 40
0.0
 40
0.0
 40
0.4929679616488803
 40
1.0
 40
1.0
 40
1.0
 40
1.0
 10
941.2506173343862
 20
112.1625355621484
 30
0.0
 10
941.3909333252712
 20
111.7636592821757
 30
0.0
 10
941.6755684370857
 20
110.9545270240902
 30
0.0
 10
941.7253682480184
 20
110.1048156592275
 30
0.0
 10
941.7506183476652
 20
109.6739847738911
 30
0.0
  0
LINE
  5
90EF
330
1F
100
AcDbEntity
  8
0
  6
Continuous
 62
     7
370
    15
100
AcDbLine
 10
941.2506173343862
 20
114.4785824757685
 30
0.0
 11
941.2506173343862
 21
112.1625355621484
 31
0.0
  0
SPLINE
  5
90F0
330
1F
100
AcDbEntity
  8
0
  6
Continuous
 62
     7
370
    15
100
AcDbSpline
210
0.0
220
0.0
230
1.0
 70
     8
 71
     3
 72
     9
 73
     5
 74
     0
 42
0.0000000001
 43
0.0000000001
 40
0.0
 40
0.0
 40
0.0
 40
0.0
 40
0.4919475649448885
 40
1.0
 40
1.0
 40
1.0
 40
1.0
 10
941.7506183476652
 20
116.6132711399962
 30
0.0
 10
941.7268465455352
 20
116.2547156043263
 30
0.0
 10
941.6785247246261
 20
115.5258665130416
 30
0.0
 10
941.3947763745733
 20
114.8314052244758
 30
0.0
 10
941.2506173343862
 20
114.4785824757685
 30
0.0
  0
LINE
  5
90F1
330
1F
100
AcDbEntity
  8
0
  6
Continuous
 62
     7
370
    15
100
AcDbLine
 10
941.7506183476652
 20
116.6132711399962
 30
0.0
 11
941.7506183476652
 21
109.6739847738911
 31
0.0
  0
LINE
  5
90F2
330
1F
100
AcDbEntity
  8
0
  6
Continuous
 62
     7
370
    15
100
AcDbLine
 10
939.150619039079
 20
112.1625355621484
 30
0.0
 11
936.7506156654561
 21
112.1625355621484
 31
0.0
  0
LINE
  5
90F3
330
1F
100
AcDbEntity
  8
0
  6
Continuous
 62
     7
370
    15
100
AcDbLine
 10
939.150619039079
 20
114.4785824757685
 30
0.0
 11
936.7506156654561
 21
114.4785824757685
 31
0.0
  0
LINE
  5
90F4
330
1F
100
AcDbEntity
  8
0
  6
Continuous
 62
     7
370
    15
100
AcDbLine
 10
939.150619039079
 20
114.4785824757685
 30
0.0
 11
939.150619039079
 21
112.1625355621484
 31
0.0
  0
LINE
  5
90F5
330
1F
100
AcDbEntity
  8
0
  6
Continuous
 62
     7
370
    15
100
AcDbLine
 10
941.2506173343862
 20
112.1625355621484
 30
0.0
 11
940.3506170006002
 21
112.1625355621484
 31
0.0
  0
LINE
  5
90F6
330
1F
100
AcDbEntity
  8
0
  6
Continuous
 62
     7
370
    15
100
AcDbLine
 10
940.3506170006002
 20
114.4785824757685
 30
0.0
 11
941.2506173343862
 21
114.4785824757685
 31
0.0
  0
LINE
  5
90F7
330
1F
100
AcDbEntity
  8
0
  6
Continuous
 62
     7
370
    15
100
AcDbLine
 10
940.3506170006002
 20
114.4785824757685
 30
0.0
 11
940.3506170006002
 21
112.1625355621484
 31
0.0
  0
SPLINE
  5
90F8
330
1F
100
AcDbEntity
  8
0
  6
Continuous
 62
     7
370
    15
100
AcDbSpline
210
0.0
220
0.0
230
1.0
 70
     8
 71
     3
 72
     9
 73
     5
 74
     0
 42
0.0000000001
 43
0.0000000001
 40
0.0
 40
0.0
 40
0.0
 40
0.0
 40
0.4929679761740922
 40
1.0
 40
1.0
 40
1.0
 40
1.0
 10
941.2506173343862
 20
118.7479598042239
 30
0.0
 10
941.3909333251998
 20
118.4058021126253
 30
0.0
 10
941.6755684284828
 20
117.7117251986358
 30
0.0
 10
941.725368245604
 20
116.9828395205127
 30
0.0
 10
941.7506183476652
 20
116.6132711399962
 30
0.0
  0
LINE
  5
90F9
330
1F
100
AcDbEntity
  8
0
  6
Continuous
 62
     7
370
    15
100
AcDbLine
 10
941.2506173343862
 20
118.7479598042239
 30
0.0
 11
940.3506170006002
 21
118.7479598042239
 31
0.0
  0
LINE
  5
90FA
330
1F
100
AcDbEntity
  8
0
  6
Continuous
 62
     7
370
    15
100
AcDbLine
 10
940.3506170006002
 20
118.7479598042239
 30
0.0
 11
940.3506170006002
 21
114.4785824757685
 31
0.0
  0
LINE
  5
90FB
330
1F
100
AcDbEntity
  8
0
  6
Continuous
 62
     7
370
    15
100
AcDbLine
 10
939.150619039079
 20
118.7479598042239
 30
0.0
 11
936.7506156654561
 21
118.7479598042239
 31
0.0
  0
LINE
  5
90FC
330
1F
100
AcDbEntity
  8
0
  6
Continuous
 62
     7
370
    15
100
AcDbLine
 10
939.150619039079
 20
118.7479598042239
 30
0.0
 11
939.150619039079
 21
114.4785824757685
 31
0.0
  0
SPLINE
  5
90FD
330
1F
100
AcDbEntity
  8
0
  6
Continuous
 62
     7
370
    15
100
AcDbSpline
210
0.0
220
0.0
230
1.0
 70
     8
 71
     3
 72
     9
 73
     5
 74
     0
 42
0.0000000001
 43
0.0000000001
 40
0.0
 40
0.0
 40
0.0
 40
0.0
 40
0.4919475650210178
 40
1.0
 40
1.0
 40
1.0
 40
1.0
 10
941.7506183476652
 20
109.6739847738911
 30
0.0
 10
941.7268465455471
 20
109.2559923729646
 30
0.0
 10
941.6785247246696
 20
108.4063237687328
 30
0.0
 10
941.3947763745737
 20
107.5967433479377
 30
0.0
 10
941.2506173343862
 20
107.1854340438415
 30
0.0
  0
LINE
  5
90FE
330
1F
100
AcDbEntity
  8
0
  6
Continuous
 62
     7
370
    15
100
AcDbLine
 10
940.3506170006002
 20
107.1854340438415
 30
0.0
 11
941.2506173343862
 21
107.1854340438415
 31
0.0
  0
LINE
  5
90FF
330
1F
100
AcDbEntity
  8
0
  6
Continuous
 62
     7
370
    15
100
AcDbLine
 10
940.3506170006002
 20
112.1625355621484
 30
0.0
 11
940.3506170006002
 21
107.1854340438415
 31
0.0
  0
LINE
  5
9100
330
1F
100
AcDbEntity
  8
0
  6
Continuous
 62
     7
370
    15
100
AcDbLine
 10
936.7506156654561
 20
107.1854340438415
 30
0.0
 11
939.150619039079
 21
107.1854340438415
 31
0.0
  0
LINE
  5
9101
330
1F
100
AcDbEntity
  8
0
  6
Continuous
 62
     7
370
    15
100
AcDbLine
 10
939.150619039079
 20
112.1625355621484
 30
0.0
 11
939.150619039079
 21
107.1854340438415
 31
0.0
  0
SPLINE
  5
9102
330
1F
100
AcDbEntity
  8
0
  6
Continuous
 62
     7
370
    15
100
AcDbSpline
210
0.0
220
0.0
230
1.0
 70
     8
 71
     3
 72
     9
 73
     5
 74
     0
 42
0.0000000001
 43
0.0000000001
 40
0.0
 40
0.0
 40
0.0
 40
0.0
 40
0.492967964817637
 40
1.0
 40
1.0
 40
1.0
 40
1.0
 10
941.2506173343862
 20
105.7615056228508
 30
0.0
 10
941.3909333252556
 20
105.7047870640375
 30
0.0
 10
941.6755684352089
 20
105.5897318010972
 30
0.0
 10
941.7253682474918
 20
105.4689060722358
 30
0.0
 10
941.7506183476652
 20
105.4076435570288
 30
0.0
  0
LINE
  5
9103
330
1F
100
AcDbEntity
  8
0
  6
Continuous
 62
     7
370
    15
100
AcDbLine
 10
941.2506173343862
 20
107.1854340438415
 30
0.0
 11
941.2506173343862
 21
105.7615056228508
 31
0.0
  0
LINE
  5
9104
330
1F
100
AcDbEntity
  8
0
  6
Continuous
 62
     7
370
    15
100
AcDbLine
 10
941.7506183476652
 20
109.6739847738911
 30
0.0
 11
941.7506183476652
 21
105.4076435570288
 31
0.0
  0
LINE
  5
9105
330
1F
100
AcDbEntity
  8
0
  6
Continuous
 62
     7
370
    15
100
AcDbLine
 10
941.2506173343862
 20
119.640078355061
 30
0.0
 11
941.2506173343862
 21
118.7479598042239
 31
0.0
  0
SPLINE
  5
9106
330
1F
100
AcDbEntity
  8
0
  6
Continuous
 62
     7
370
    15
100
AcDbSpline
210
0.0
220
0.0
230
1.0
 70
     8
 71
     3
 72
     9
 73
     5
 74
     0
 42
0.0000000001
 43
0.0000000001
 40
0.0
 40
0.0
 40
0.0
 40
0.0
 40
0.2310611680472681
 40
1.0
 40
1.0
 40
1.0
 40
1.0
 10
941.6621427030767
 20
119.4082405012715
 30
0.0
 10
941.6516388636461
 20
119.4266098790198
 30
0.0
 10
941.6061797347092
 20
119.5061099434553
 30
0.0
 10
941.405176515208
 20
119.5818437162605
 30
0.0
 10
941.2506173343862
 20
119.640078355061
 30
0.0
  0
LINE
  5
9107
330
1F
100
AcDbEntity
  8
0
  6
Continuous
 62
     7
370
    15
100
AcDbLine
 10
941.7506183476652
 20
119.3469301392007
 30
0.0
 11
941.7506183476652
 21
116.6132711399962
 31
0.0
  0
LINE
  5
9108
330
1F
100
AcDbEntity
  8
0
  6
Continuous
 62
     7
370
    15
100
AcDbLine
 10
939.150619039079
 20
105.7615056228508
 30
0.0
 11
936.7506156654561
 21
105.7615056228508
 31
0.0
  0
LINE
  5
9109
330
1F
100
AcDbEntity
  8
0
  6
Continuous
 62
     7
370
    15
100
AcDbLine
 10
939.150619039079
 20
107.1854340438415
 30
0.0
 11
939.150619039079
 21
105.7615056228508
 31
0.0
  0
LINE
  5
910A
330
1F
100
AcDbEntity
  8
0
  6
Continuous
 62
     7
370
    15
100
AcDbLine
 10
941.2506173343862
 20
105.7615056228508
 30
0.0
 11
940.3506170006002
 21
105.7615056228508
 31
0.0
  0
LINE
  5
910B
330
1F
100
AcDbEntity
  8
0
  6
Continuous
 62
     7
370
    15
100
AcDbLine
 10
940.3506170006002
 20
107.1854340438415
 30
0.0
 11
940.3506170006002
 21
105.7615056228508
 31
0.0
  0
LINE
  5
910C
330
1F
100
AcDbEntity
  8
0
  6
Continuous
 62
     7
370
    15
100
AcDbLine
 10
939.150619039079
 20
119.640078355061
 30
0.0
 11
936.7506156654561
 21
119.640078355061
 31
0.0
  0
LINE
  5
910D
330
1F
100
AcDbEntity
  8
0
  6
Continuous
 62
     7
370
    15
100
AcDbLine
 10
939.150619039079
 20
119.640078355061
 30
0.0
 11
939.150619039079
 21
118.7479598042239
 31
0.0
  0
LINE
  5
910E
330
1F
100
AcDbEntity
  8
0
  6
Continuous
 62
     7
370
    15
100
AcDbLine
 10
940.3506170006002
 20
119.640078355061
 30
0.0
 11
941.2506173343862
 21
119.640078355061
 31
0.0
  0
LINE
  5
910F
330
1F
100
AcDbEntity
  8
0
  6
Continuous
 62
     7
370
    15
100
AcDbLine
 10
940.3506170006002
 20
119.640078355061
 30
0.0
 11
940.3506170006002
 21
118.7479598042239
 31
0.0
  0
SPLINE
  5
9110
330
1F
100
AcDbEntity
  8
0
  6
Continuous
 62
     7
370
    15
100
AcDbSpline
210
0.0
220
0.0
230
1.0
 70
     8
 71
     3
 72
     9
 73
     5
 74
     0
 42
0.0000000001
 43
0.0000000001
 40
0.0
 40
0.0
 40
0.0
 40
0.0
 40
0.4919475667693199
 40
1.0
 40
1.0
 40
1.0
 40
1.0
 10
941.7506183476652
 20
105.4076435570288
 30
0.0
 10
941.726846545821
 20
105.3482065766581
 30
0.0
 10
941.6785247256722
 20
105.2273868300313
 30
0.0
 10
941.3947763745824
 20
105.1122679289912
 30
0.0
 10
941.2506173343862
 20
105.0537814912069
 30
0.0
  0
LINE
  5
9111
330
1F
100
AcDbEntity
  8
0
  6
Continuous
 62
     7
370
    15
100
AcDbLine
 10
941.2506173343862
 20
105.0537814912069
 30
0.0
 11
940.3506170006002
 21
105.0537814912069
 31
0.0
  0
LINE
  5
9112
330
1F
100
AcDbEntity
  8
0
  6
Continuous
 62
     7
370
    15
100
AcDbLine
 10
940.3506170006002
 20
105.7615056228508
 30
0.0
 11
940.3506170006002
 21
105.0537814912069
 31
0.0
  0
LINE
  5
9113
330
1F
100
AcDbEntity
  8
0
  6
Continuous
 62
     7
370
    15
100
AcDbLine
 10
939.150619039079
 20
105.0537814912069
 30
0.0
 11
936.7506156654561
 21
105.0537814912069
 31
0.0
  0
LINE
  5
9114
330
1F
100
AcDbEntity
  8
0
  6
Continuous
 62
     7
370
    15
100
AcDbLine
 10
939.150619039079
 20
105.7615056228508
 30
0.0
 11
939.150619039079
 21
105.0537814912069
 31
0.0
  0
LINE
  5
9115
330
1F
100
AcDbEntity
  8
0
  6
Continuous
 62
     7
370
    15
100
AcDbLine
 10
941.7506183476652
 20
105.4076435570288
 30
0.0
 11
941.7506183476652
 21
105.346929707067
 31
0.0
  0
LINE
  5
911F
330
1F
100
AcDbEntity
  8
0
  6
Continuous
 62
     7
370
    15
100
AcDbLine
 10
934.7506190629209
 20
105.64693012877
 30
0.0
 11
907.7506164999212
 21
105.64693012877
 31
0.0
  0
LINE
  5
9120
330
1F
100
AcDbEntity
  8
0
  6
Continuous
 62
     7
370
    15
100
AcDbLine
 10
934.7506190629209
 20
105.64693012877
 30
0.0
 11
934.7506190629209
 21
104.1469298829009
 31
0.0
  0
LINE
  5
9121
330
1F
100
AcDbEntity
  8
0
  6
Continuous
 62
     7
370
    15
100
AcDbLine
 10
907.7506164999212
 20
104.1469298829009
 30
0.0
 11
934.7506190629209
 21
104.1469298829009
 31
0.0
  0
LINE
  5
9122
330
1F
100
AcDbEntity
  8
0
  6
Continuous
 62
     7
370
    15
100
AcDbLine
 10
934.7506190629209
 20
119.046929717498
 30
0.0
 11
934.7506190629209
 21
105.64693012877
 31
0.0
  0
LINE
  5
9123
330
1F
100
AcDbEntity
  8
0
  6
Continuous
 62
     7
370
    15
100
AcDbLine
 10
907.7506164999212
 20
119.046929717498
 30
0.0
 11
934.7506190629209
 21
119.046929717498
 31
0.0
  0
LINE
  5
9124
330
1F
100
AcDbEntity
  8
0
  6
Continuous
 62
     7
370
    15
100
AcDbLine
 10
907.7506164999212
 20
119.046929717498
 30
0.0
 11
907.7506164999212
 21
116.3549427468945
 31
0.0
  0
LINE
  5
9125
330
1F
100
AcDbEntity
  8
0
  6
Continuous
 62
     7
370
    15
100
AcDbLine
 10
907.7506164999212
 20
120.5469299633671
 30
0.0
 11
934.7506190629209
 21
120.5469299633671
 31
0.0
  0
LINE
  5
9126
330
1F
100
AcDbEntity
  8
0
  6
Continuous
 62
     7
370
    15
100
AcDbLine
 10
934.7506190629209
 20
120.5469299633671
 30
0.0
 11
934.7506190629209
 21
119.046929717498
 31
0.0
  0
LINE
  5
9127
330
1F
100
AcDbEntity
  8
0
  6
Continuous
 62
     7
370
    15
100
AcDbLine
 10
907.7506164999212
 20
120.5469299633671
 30
0.0
 11
907.7506164999212
 21
119.046929717498
 31
0.0
  0
LINE
  5
9129
330
1F
100
AcDbEntity
  8
0
  6
Continuous
 62
     7
370
    15
100
AcDbLine
 10
841.2506177069152
 20
103.6469298009445
 30
0.0
 11
886.9506183059419
 21
103.6469298009445
 31
0.0
  0
LINE
  5
912A
330
1F
100
AcDbEntity
  8
0
  6
Continuous
 62
     7
370
    15
100
AcDbLine
 10
886.9506183059419
 20
103.6469298009445
 30
0.0
 11
886.9506183059419
 21
103.3469303105642
 31
0.0
  0
LINE
  5
912B
330
1F
100
AcDbEntity
  8
0
  6
Continuous
 62
     7
370
    15
100
AcDbLine
 10
886.9506183059419
 20
103.3469303105642
 30
0.0
 11
841.2506177069152
 21
103.3469303105642
 31
0.0
  0
LINE
  5
912C
330
1F
100
AcDbEntity
  8
0
  6
Continuous
 62
     7
370
    15
100
AcDbLine
 10
887.2506177963222
 20
103.6469298009445
 30
0.0
 11
886.9506183059419
 21
103.6469298009445
 31
0.0
  0
LINE
  5
912D
330
1F
100
AcDbEntity
  8
0
  6
Continuous
 62
     7
370
    15
100
AcDbLine
 10
886.9506183059419
 20
103.3469303105642
 30
0.0
 11
887.2506177963222
 21
103.6469298009445
 31
0.0
  0
LINE
  5
912E
330
1F
100
AcDbEntity
  8
0
  6
Continuous
 62
     7
370
    15
100
AcDbLine
 10
886.9506183059419
 20
121.0469300453235
 30
0.0
 11
887.2506177963222
 21
121.0469300453235
 31
0.0
  0
LINE
  5
912F
330
1F
100
AcDbEntity
  8
0
  6
Continuous
 62
     7
370
    15
100
AcDbLine
 10
887.2506177963222
 20
121.0469300453235
 30
0.0
 11
887.2506177963222
 21
120.938932016926
 31
0.0
  0
LINE
  5
9130
330
1F
100
AcDbEntity
  8
0
  6
Continuous
 62
     7
370
    15
100
AcDbLine
 10
887.2506177963222
 20
103.754927829342
 30
0.0
 11
887.2506177963222
 21
103.6469298009445
 31
0.0
  0
LINE
  5
9131
330
1F
100
AcDbEntity
  8
0
  6
Continuous
 62
     7
370
    15
100
AcDbLine
 10
886.9506183059419
 20
103.6469298009445
 30
0.0
 11
886.9506183059419
 21
121.0469300453235
 31
0.0
  0
CIRCLE
  5
9134
330
1F
100
AcDbEntity
  8
0
  6
Continuous
 62
     7
370
    15
100
AcDbCircle
 10
878.2506177516188
 20
111.346929923134
 30
0.0
 40
5.144197845983399
  0
LINE
  5
9136
330
1F
100
AcDbEntity
  8
0
  6
Continuous
 62
     7
370
    15
100
AcDbLine
 10
886.9506183059419
 20
121.0469300453235
 30
0.0
 11
841.2506177069152
 21
121.0469300453235
 31
0.0
  0
CIRCLE
  5
9137
330
1F
100
AcDbEntity
  8
0
  6
Continuous
 62
     7
370
    15
100
AcDbCircle
 10
864.2506177516187
 20
112.346929923134
 30
0.0
 40
5.144197845993403
  0
CIRCLE
  5
9138
330
1F
100
AcDbEntity
  8
0
  6
Continuous
 62
     7
370
    15
100
AcDbCircle
 10
850.2506177516186
 20
113.346929923134
 30
0.0
 40
5.144197846003379
  0
LINE
  5
913D
330
1F
100
AcDbEntity
  8
0
  6
Continuous
 62
     7
370
    15
100
AcDbLine
 10
841.2506177069152
 20
121.3469295357038
 30
0.0
 11
886.9506183059419
 21
121.3469295357038
 31
0.0
  0
LINE
  5
913E
330
1F
100
AcDbEntity
  8
0
  6
Continuous
 62
     7
370
    15
100
AcDbLine
 10
886.9506183059419
 20
121.3469295357038
 30
0.0
 11
886.9506183059419
 21
121.0469300453235
 31
0.0
  0
LINE
  5
913F
330
1F
100
AcDbEntity
  8
0
  6
Continuous
 62
     7
370
    15
100
AcDbLine
 10
887.2506177963222
 20
121.0469300453235
 30
0.0
 11
886.9506183059419
 21
121.3469295357038
 31
0.0
  0
CIRCLE
  5
9144
330
1F
100
AcDbEntity
  8
0
  6
Continuous
 62
     7
370
    15
100
AcDbCircle
 10
878.2506177516188
 20
111.346929923134
 30
0.0
 40
4.573499999996442
  0
CIRCLE
  5
9145
330
1F
100
AcDbEntity
  8
0
  6
Continuous
 62
     7
370
    15
100
AcDbCircle
 10
864.2506177516187
 20
112.346929923134
 30
0.0
 40
4.573499999995789
  0
CIRCLE
  5
9146
330
1F
100
AcDbEntity
  8
0
  6
Continuous
 62
     7
370
    15
100
AcDbCircle
 10
850.2506177516186
 20
113.346929923134
 30
0.0
 40
4.573499999995107
  0
LINE
  5
9179
330
1F
100
AcDbEntity
  8
0
  6
Continuous
 62
     7
370
    15
100
AcDbLine
 10
949.4006211848462
 20
110.394109582031
 30
0.0
 11
945.0006212086881
 21
110.394109582031
 31
0.0
  0
LINE
  5
917A
330
1F
100
AcDbEntity
  8
0
  6
Continuous
 62
     7
370
    15
100
AcDbLine
 10
945.0006212086881
 20
108.7673583128171
 30
0.0
 11
949.4006211848462
 21
108.7673583128171
 31
0.0
  0
LINE
  5
917B
330
1F
100
AcDbEntity
  8
0
  6
Continuous
 62
     7
370
    15
100
AcDbLine
 10
949.4006211848462
 20
108.7673583128171
 30
0.0
 11
949.4006211848462
 21
110.394109582031
 31
0.0
  0
LINE
  5
917C
330
1F
100
AcDbEntity
  8
0
  6
Continuous
 62
     7
370
    15
100
AcDbLine
 10
945.0006212086881
 20
110.394109582031
 30
0.0
 11
945.0006212086881
 21
108.7673583128171
 31
0.0
  0
LINE
  5
917D
330
1F
100
AcDbEntity
  8
0
  6
Continuous
 62
     7
370
    15
100
AcDbLine
 10
949.4006211848462
 20
111.0869298749285
 30
0.0
 11
945.0006212086881
 21
111.0869298749285
 31
0.0
  0
LINE
  5
917E
330
1F
100
AcDbEntity
  8
0
  6
Continuous
 62
     7
370
    15
100
AcDbLine
 10
949.4006211848462
 20
111.0869298749285
 30
0.0
 11
949.4006211848462
 21
110.394109582031
 31
0.0
  0
LINE
  5
917F
330
1F
100
AcDbEntity
  8
0
  6
Continuous
 62
     7
370
    15
100
AcDbLine
 10
945.0006212086881
 20
110.394109582031
 30
0.0
 11
945.0006212086881
 21
111.0869298749285
 31
0.0
  0
LINE
  5
9180
330
1F
100
AcDbEntity
  8
0
  6
Continuous
 62
     7
370
    15
100
AcDbLine
 10
945.0006212086881
 20
113.606929971339
 30
0.0
 11
949.4006211848462
 21
113.606929971339
 31
0.0
  0
LINE
  5
9181
330
1F
100
AcDbEntity
  8
0
  6
Continuous
 62
     7
370
    15
100
AcDbLine
 10
945.0006212086881
 20
114.2997502642365
 30
0.0
 11
949.4006211848462
 21
114.2997502642365
 31
0.0
  0
LINE
  5
9182
330
1F
100
AcDbEntity
  8
0
  6
Continuous
 62
     7
370
    15
100
AcDbLine
 10
949.4006211848462
 20
114.2997502642365
 30
0.0
 11
949.4006211848462
 21
113.606929971339
 31
0.0
  0
LINE
  5
9183
330
1F
100
AcDbEntity
  8
0
  6
Continuous
 62
     7
370
    15
100
AcDbLine
 10
945.0006212086881
 20
113.606929971339
 30
0.0
 11
945.0006212086881
 21
114.2997502642365
 31
0.0
  0
LINE
  5
9184
330
1F
100
AcDbEntity
  8
0
  6
Continuous
 62
     7
370
    15
100
AcDbLine
 10
949.4006211848462
 20
115.9265015334504
 30
0.0
 11
945.0006212086881
 21
115.9265015334504
 31
0.0
  0
LINE
  5
9185
330
1F
100
AcDbEntity
  8
0
  6
Continuous
 62
     7
370
    15
100
AcDbLine
 10
949.4006211848462
 20
114.2997502642365
 30
0.0
 11
949.4006211848462
 21
115.9265015334504
 31
0.0
  0
LINE
  5
9186
330
1F
100
AcDbEntity
  8
0
  6
Continuous
 62
     7
370
    15
100
AcDbLine
 10
945.0006212086881
 20
115.9265015334504
 30
0.0
 11
945.0006212086881
 21
114.2997502642365
 31
0.0
  0
LINE
  5
9187
330
1F
100
AcDbEntity
  8
0
  6
Continuous
 62
     7
370
    15
100
AcDbLine
 10
949.4006211848462
 20
108.5075507466363
 30
0.0
 11
945.0006212086881
 21
108.5075507466363
 31
0.0
  0
LINE
  5
9188
330
1F
100
AcDbEntity
  8
0
  6
Continuous
 62
     7
370
    15
100
AcDbLine
 10
949.4006211848462
 20
108.5075507466363
 30
0.0
 11
949.4006211848462
 21
108.7673583128171
 31
0.0
  0
LINE
  5
9189
330
1F
100
AcDbEntity
  8
0
  6
Continuous
 62
     7
370
    15
100
AcDbLine
 10
945.0006212086881
 20
108.7673583128171
 30
0.0
 11
945.0006212086881
 21
108.5075507466363
 31
0.0
  0
LINE
  5
918A
330
1F
100
AcDbEntity
  8
0
  6
Continuous
 62
     7
370
    15
100
AcDbLine
 10
945.0006212086881
 20
116.1863090996312
 30
0.0
 11
949.4006211848462
 21
116.1863090996312
 31
0.0
  0
LINE
  5
918B
330
1F
100
AcDbEntity
  8
0
  6
Continuous
 62
     7
370
    15
100
AcDbLine
 10
949.4006211848462
 20
115.9265015334504
 30
0.0
 11
949.4006211848462
 21
116.1863090996312
 31
0.0
  0
LINE
  5
918C
330
1F
100
AcDbEntity
  8
0
  6
Continuous
 62
     7
370
    15
100
AcDbLine
 10
945.0006212086881
 20
116.1863090996312
 30
0.0
 11
945.0006212086881
 21
115.9265015334504
 31
0.0
  0
LINE
  5
918D
330
1F
100
AcDbEntity
  8
0
  6
Continuous
 62
     7
370
    15
100
AcDbLine
 10
945.0006212086881
 20
107.6941750538217
 30
0.0
 11
949.4006211848462
 21
107.6941750538217
 31
0.0
  0
LINE
  5
918E
330
1F
100
AcDbEntity
  8
0
  6
Continuous
 62
     7
370
    15
100
AcDbLine
 10
949.4006211848462
 20
107.6941750538217
 30
0.0
 11
949.4006211848462
 21
108.5075507466363
 31
0.0
  0
LINE
  5
918F
330
1F
100
AcDbEntity
  8
0
  6
Continuous
 62
     7
370
    15
100
AcDbLine
 10
945.0006212086881
 20
108.5075507466363
 30
0.0
 11
945.0006212086881
 21
107.6941750538217
 31
0.0
  0
LINE
  5
9190
330
1F
100
AcDbEntity
  8
0
  6
Continuous
 62
     7
370
    15
100
AcDbLine
 10
949.4006211848462
 20
116.9996847924458
 30
0.0
 11
945.0006212086881
 21
116.9996847924458
 31
0.0
  0
LINE
  5
9191
330
1F
100
AcDbEntity
  8
0
  6
Continuous
 62
     7
370
    15
100
AcDbLine
 10
949.4006211848462
 20
116.1863090996312
 30
0.0
 11
949.4006211848462
 21
116.9996847924458
 31
0.0
  0
LINE
  5
9192
330
1F
100
AcDbEntity
  8
0
  6
Continuous
 62
     7
370
    15
100
AcDbLine
 10
945.0006212086881
 20
116.9996847924458
 30
0.0
 11
945.0006212086881
 21
116.1863090996312
 31
0.0
  0
LINE
  5
9193
330
1F
100
AcDbEntity
  8
0
  6
Continuous
 62
     7
370
    15
100
AcDbLine
 10
949.4006211848462
 20
113.606929971339
 30
0.0
 11
949.4006211848462
 21
111.0869298749285
 31
0.0
  0
LINE
  5
9194
330
1F
100
AcDbEntity
  8
0
  6
Continuous
 62
     7
370
    15
100
AcDbLine
 10
945.0006212086881
 20
113.606929971339
 30
0.0
 11
945.0006212086881
 21
111.0869298749285
 31
0.0
  0
LINE
  5
9195
330
1F
100
AcDbEntity
  8
0
  6
Continuous
 62
     7
370
    15
100
AcDbLine
 10
949.4006211848462
 20
106.4341747727857
 30
0.0
 11
945.0006212086881
 21
106.4341747727857
 31
0.0
  0
LINE
  5
9196
330
1F
100
AcDbEntity
  8
0
  6
Continuous
 62
     7
370
    15
100
AcDbLine
 10
949.4006211848462
 20
107.6941750538217
 30
0.0
 11
949.4006211848462
 21
106.4341747727857
 31
0.0
  0
LINE
  5
9197
330
1F
100
AcDbEntity
  8
0
  6
Continuous
 62
     7
370
    15
100
AcDbLine
 10
945.0006212086881
 20
107.6941750538217
 30
0.0
 11
945.0006212086881
 21
106.4341747727857
 31
0.0
  0
LINE
  5
9198
330
1F
100
AcDbEntity
  8
0
  6
Continuous
 62
     7
370
    15
100
AcDbLine
 10
945.0006212086881
 20
118.2596850734816
 30
0.0
 11
949.4006211848462
 21
118.2596850734816
 31
0.0
  0
LINE
  5
9199
330
1F
100
AcDbEntity
  8
0
  6
Continuous
 62
     7
370
    15
100
AcDbLine
 10
949.4006211848462
 20
118.2596850734816
 30
0.0
 11
949.4006211848462
 21
116.9996847924458
 31
0.0
  0
LINE
  5
919A
330
1F
100
AcDbEntity
  8
0
  6
Continuous
 62
     7
370
    15
100
AcDbLine
 10
945.0006212086881
 20
118.2596850734816
 30
0.0
 11
945.0006212086881
 21
116.9996847924458
 31
0.0
  0
LINE
  5
919B
330
1F
100
AcDbEntity
  8
0
  6
Continuous
 62
     7
370
    15
100
AcDbLine
 10
949.4006211848462
 20
105.7413545963035
 30
0.0
 11
945.0006212086881
 21
105.7413545963035
 31
0.0
  0
LINE
  5
919C
330
1F
100
AcDbEntity
  8
0
  6
Continuous
 62
     7
370
    15
100
AcDbLine
 10
949.4006211848462
 20
106.4341747727857
 30
0.0
 11
949.4006211848462
 21
105.7413545963035
 31
0.0
  0
LINE
  5
919D
330
1F
100
AcDbEntity
  8
0
  6
Continuous
 62
     7
370
    15
100
AcDbLine
 10
945.0006212086881
 20
105.7413545963035
 30
0.0
 11
945.0006212086881
 21
106.4341747727857
 31
0.0
  0
LINE
  5
919E
330
1F
100
AcDbEntity
  8
0
  6
Continuous
 62
     7
370
    15
100
AcDbLine
 10
945.0006212086881
 20
118.9525052499638
 30
0.0
 11
949.4006211848462
 21
118.9525052499638
 31
0.0
  0
LINE
  5
919F
330
1F
100
AcDbEntity
  8
0
  6
Continuous
 62
     7
370
    15
100
AcDbLine
 10
949.4006211848462
 20
118.9525052499638
 30
0.0
 11
949.4006211848462
 21
118.2596850734816
 31
0.0
  0
LINE
  5
91A0
330
1F
100
AcDbEntity
  8
0
  6
Continuous
 62
     7
370
    15
100
AcDbLine
 10
945.0006212086881
 20
118.2596850734816
 30
0.0
 11
945.0006212086881
 21
118.9525052499638
 31
0.0
  0
LINE
  5
91A1
330
1F
100
AcDbEntity
  8
0
  6
Continuous
 62
     7
370
    15
100
AcDbLine
 10
945.0006212086881
 20
104.9279789034889
 30
0.0
 11
949.4006211848462
 21
104.9279789034889
 31
0.0
  0
LINE
  5
91A2
330
1F
100
AcDbEntity
  8
0
  6
Continuous
 62
     7
370
    15
100
AcDbLine
 10
949.4006211848462
 20
104.9279789034889
 30
0.0
 11
949.4006211848462
 21
105.7413545963035
 31
0.0
  0
LINE
  5
91A3
330
1F
100
AcDbEntity
  8
0
  6
Continuous
 62
     7
370
    15
100
AcDbLine
 10
945.0006212086881
 20
105.7413545963035
 30
0.0
 11
945.0006212086881
 21
104.9279789034889
 31
0.0
  0
LINE
  5
91A4
330
1F
100
AcDbEntity
  8
0
  6
Continuous
 62
     7
370
    15
100
AcDbLine
 10
949.4006211848462
 20
119.7658809427784
 30
0.0
 11
945.0006212086881
 21
119.7658809427784
 31
0.0
  0
LINE
  5
91A5
330
1F
100
AcDbEntity
  8
0
  6
Continuous
 62
     7
370
    15
100
AcDbLine
 10
949.4006211848462
 20
118.9525052499638
 30
0.0
 11
949.4006211848462
 21
119.7658809427784
 31
0.0
  0
LINE
  5
91A6
330
1F
100
AcDbEntity
  8
0
  6
Continuous
 62
     7
370
    15
100
AcDbLine
 10
945.0006212086881
 20
119.7658809427784
 30
0.0
 11
945.0006212086881
 21
118.9525052499638
 31
0.0
  0
LINE
  5
91A7
330
1F
100
AcDbEntity
  8
0
  6
Continuous
 62
     7
370
    15
100
AcDbLine
 10
949.4006211848462
 20
104.8877867464588
 30
0.0
 11
949.4006211848462
 21
104.9279789034889
 31
0.0
  0
LINE
  5
91A8
330
1F
100
AcDbEntity
  8
0
  6
Continuous
 62
     7
370
    15
100
AcDbLine
 10
945.0006212086881
 20
104.9279789034889
 30
0.0
 11
945.0006212086881
 21
104.8877867464588
 31
0.0
  0
LINE
  5
91A9
330
1F
100
AcDbEntity
  8
0
  6
Continuous
 62
     7
370
    15
100
AcDbLine
 10
949.4006211848462
 20
119.7658809427784
 30
0.0
 11
949.4006211848462
 21
119.8060730998085
 31
0.0
  0
LINE
  5
91AA
330
1F
100
AcDbEntity
  8
0
  6
Continuous
 62
     7
370
    15
100
AcDbLine
 10
945.0006212086881
 20
119.8060730998085
 30
0.0
 11
945.0006212086881
 21
119.7658809427784
 31
0.0
  0
LINE
  5
91AB
330
1F
100
AcDbEntity
  8
0
  6
Continuous
 62
     7
370
    15
100
AcDbLine
 10
943.5006181688512
 20
105.3469297070668
 30
0.0
 11
943.5006181688512
 21
119.3469301392005
 31
0.0
  0
LINE
  5
91AD
330
1F
100
AcDbEntity
  8
0
  6
Continuous
 62
     7
370
    15
100
AcDbLine
 10
905.7506161720956
 20
118.8469300572444
 30
0.0
 11
905.5785971672738
 21
118.8469300572444
 31
0.0
  0
LINE
  5
91AE
330
1F
100
AcDbEntity
  8
0
  6
Continuous
 62
     7
370
    15
100
AcDbLine
 10
904.6828362138475
 20
116.9716668841113
 30
0.0
 11
904.6828362138475
 21
120.7221927647163
 31
0.0
  0
LINE
  5
91AF
330
1F
100
AcDbEntity
  8
0
  6
Continuous
 62
     7
370
    15
100
AcDbLine
 10
905.512983629247
 20
117.6297887754311
 30
0.0
 11
905.512983629247
 21
120.0640708733965
 31
0.0
  0
LINE
  5
91B0
330
1F
100
AcDbEntity
  8
0
  6
Continuous
 62
     7
370
    15
100
AcDbLine
 10
943.0006171555723
 20
104.8469300907717
 30
0.0
 11
943.0006171555723
 21
119.8469297554956
 31
0.0
  0
LINE
  5
925A
330
1F
100
AcDbEntity
  8
AM_7
100
AcDbLine
 10
829.2706185889395
 20
253.2277720664372
 30
0.0
 11
953.7323332725611
 21
253.2277720664372
 31
0.0
1001
GENIUS_GENOBJ-N-CEN_13
1002
{
1000
OWNER
1000
GEN
1002
}
1001
GENIUS_GENODEF_13
1002
{
1000
HIER
1070
     0
1002
}
1002
{
1000
MANEDIT
1070
     0
1002
}
1002
{
1000
NOSEL
1070
     0
1002
}
1002
{
1000
BEHIND
1070
     0
1002
}
1002
{
1000
OTHER
1070
     0
1002
}
1002
{
1000
REACTOR
1002
}
1001
GENIUS_GENCEN_19
1002
{
1040
2.0
1002
}
  0
LINE
  5
925B
330
1F
100
AcDbEntity
  8
AM_7
100
AcDbLine
 10
826.7495732742473
 20
112.3469295357038
 30
0.0
 11
953.7323332725609
 21
112.346929923134
 31
0.0
1001
GENIUS_GENOBJ-N-CEN_13
1002
{
1000
OWNER
1000
GEN
1002
}
1001
GENIUS_GENODEF_13
1002
{
1000
HIER
1070
     0
1002
}
1002
{
1000
MANEDIT
1070
     0
1002
}
1002
{
1000
NOSEL
1070
     0
1002
}
1002
{
1000
BEHIND
1070
     0
1002
}
1002
{
1000
OTHER
1070
     0
1002
}
1002
{
1000
REACTOR
1002
}
1001
GENIUS_GENCEN_19
1002
{
1040
2.0
1002
}
  0
LINE
  5
925C
330
1F
100
AcDbEntity
  8
AM_7
  6
AM_ISO08W050x2
100
AcDbLine
 10
849.2506177516187
 20
259.7277720664372
 30
0.0
 11
853.7506177516187
 21
259.7277720664372
 31
0.0
1001
GENIUS_GENOREF_13
1005
9294
  0
LINE
  5
925D
330
1F
100
AcDbEntity
  8
AM_7
  6
AM_ISO08W050x2
100
AcDbLine
 10
849.2506177516187
 20
259.7277720664372
 30
0.0
 11
849.2506177516187
 21
264.2277720664372
 31
0.0
1001
GENIUS_GENOREF_13
1005
9294
  0
LINE
  5
925E
330
1F
100
AcDbEntity
  8
AM_7
  6
AM_ISO08W050x2
100
AcDbLine
 10
849.2506177516187
 20
259.7277720664372
 30
0.0
 11
844.7506177516187
 21
259.7277720664372
 31
0.0
1001
GENIUS_GENOREF_13
1005
9294
  0
LINE
  5
925F
330
1F
100
AcDbEntity
  8
AM_7
  6
AM_ISO08W050x2
100
AcDbLine
 10
849.2506177516187
 20
259.7277720664372
 30
0.0
 11
849.2506177516187
 21
255.2277720664372
 31
0.0
1001
GENIUS_GENOREF_13
1005
9294
  0
LINE
  5
9260
330
1F
100
AcDbEntity
  8
AM_7
  6
AM_ISO08W050x2
100
AcDbLine
 10
879.2506177516187
 20
246.7277720664372
 30
0.0
 11
883.7506177516187
 21
246.7277720664372
 31
0.0
1001
GENIUS_GENOREF_13
1005
9293
  0
LINE
  5
9261
330
1F
100
AcDbEntity
  8
AM_7
  6
AM_ISO08W050x2
100
AcDbLine
 10
879.2506177516187
 20
246.7277720664372
 30
0.0
 11
879.2506177516187
 21
251.2277720664372
 31
0.0
1001
GENIUS_GENOREF_13
1005
9293
  0
LINE
  5
9262
330
1F
100
AcDbEntity
  8
AM_7
  6
AM_ISO08W050x2
100
AcDbLine
 10
879.2506177516187
 20
246.7277720664372
 30
0.0
 11
874.7506177516187
 21
246.7277720664372
 31
0.0
1001
GENIUS_GENOREF_13
1005
9293
  0
LINE
  5
9263
330
1F
100
AcDbEntity
  8
AM_7
  6
AM_ISO08W050x2
100
AcDbLine
 10
879.2506177516187
 20
246.7277720664372
 30
0.0
 11
879.2506177516187
 21
242.2277720664372
 31
0.0
1001
GENIUS_GENOREF_13
1005
9293
  0
LINE
  5
9264
330
1F
100
AcDbEntity
  8
AM_7
100
AcDbLine
 10
871.7506177516186
 20
251.7277720664372
 30
0.0
 11
878.5506177516186
 21
251.7277720664372
 31
0.0
1001
GENIUS_GENOREF_13
1005
9292
  0
LINE
  5
9265
330
1F
100
AcDbEntity
  8
AM_7
100
AcDbLine
 10
871.7506177516186
 20
251.7277720664372
 30
0.0
 11
871.7506177516186
 21
258.5277720664372
 31
0.0
1001
GENIUS_GENOREF_13
1005
9292
  0
LINE
  5
9266
330
1F
100
AcDbEntity
  8
AM_7
100
AcDbLine
 10
871.7506177516186
 20
251.7277720664372
 30
0.0
 11
864.9506177516187
 21
251.7277720664372
 31
0.0
1001
GENIUS_GENOREF_13
1005
9292
  0
LINE
  5
9267
330
1F
100
AcDbEntity
  8
AM_7
100
AcDbLine
 10
871.7506177516186
 20
251.7277720664372
 30
0.0
 11
871.7506177516186
 21
244.9277720664372
 31
0.0
1001
GENIUS_GENOREF_13
1005
9292
  0
LINE
  5
9268
330
1F
100
AcDbEntity
  8
AM_7
100
AcDbLine
 10
856.7506177516188
 20
254.7277720664372
 30
0.0
 11
863.5506177516187
 21
254.7277720664372
 31
0.0
1001
GENIUS_GENOREF_13
1005
9291
  0
LINE
  5
9269
330
1F
100
AcDbEntity
  8
AM_7
100
AcDbLine
 10
856.7506177516188
 20
254.7277720664372
 30
0.0
 11
856.7506177516188
 21
261.5277720664372
 31
0.0
1001
GENIUS_GENOREF_13
1005
9291
  0
LINE
  5
926A
330
1F
100
AcDbEntity
  8
AM_7
100
AcDbLine
 10
856.7506177516188
 20
254.7277720664372
 30
0.0
 11
849.9506177516186
 21
254.7277720664372
 31
0.0
1001
GENIUS_GENOREF_13
1005
9291
  0
LINE
  5
926B
330
1F
100
AcDbEntity
  8
AM_7
100
AcDbLine
 10
856.7506177516188
 20
254.7277720664372
 30
0.0
 11
856.7506177516188
 21
247.9277720664372
 31
0.0
1001
GENIUS_GENOREF_13
1005
9291
  0
LINE
  5
926C
330
1F
100
AcDbEntity
  8
AM_7
  6
AM_ISO08W050x2
100
AcDbLine
 10
857.2506177516187
 20
168.6152443510145
 30
0.0
 11
860.3506177516186
 21
168.6152443510145
 31
0.0
1001
GENIUS_GENOREF_13
1005
9290
  0
LINE
  5
926D
330
1F
100
AcDbEntity
  8
AM_7
  6
AM_ISO08W050x2
100
AcDbLine
 10
857.2506177516187
 20
168.6152443510145
 30
0.0
 11
857.2506177516187
 21
171.7152443510145
 31
0.0
1001
GENIUS_GENOREF_13
1005
9290
  0
LINE
  5
926E
330
1F
100
AcDbEntity
  8
AM_7
  6
AM_ISO08W050x2
100
AcDbLine
 10
857.2506177516187
 20
168.6152443510145
 30
0.0
 11
854.1506177516186
 21
168.6152443510145
 31
0.0
1001
GENIUS_GENOREF_13
1005
9290
  0
LINE
  5
926F
330
1F
100
AcDbEntity
  8
AM_7
  6
AM_ISO08W050x2
100
AcDbLine
 10
857.2506177516187
 20
168.6152443510145
 30
0.0
 11
857.2506177516187
 21
165.5152443510145
 31
0.0
1001
GENIUS_GENOREF_13
1005
9290
  0
LINE
  5
9270
330
1F
100
AcDbEntity
  8
AM_7
  6
AM_ISO08W050x2
100
AcDbLine
 10
871.2506177516187
 20
168.6152443510145
 30
0.0
 11
874.3506177516186
 21
168.6152443510145
 31
0.0
1001
GENIUS_GENOREF_13
1005
928F
  0
LINE
  5
9271
330
1F
100
AcDbEntity
  8
AM_7
  6
AM_ISO08W050x2
100
AcDbLine
 10
871.2506177516187
 20
168.6152443510145
 30
0.0
 11
871.2506177516187
 21
171.7152443510145
 31
0.0
1001
GENIUS_GENOREF_13
1005
928F
  0
LINE
  5
9272
330
1F
100
AcDbEntity
  8
AM_7
  6
AM_ISO08W050x2
100
AcDbLine
 10
871.2506177516187
 20
168.6152443510145
 30
0.0
 11
868.1506177516185
 21
168.6152443510145
 31
0.0
1001
GENIUS_GENOREF_13
1005
928F
  0
LINE
  5
9273
330
1F
100
AcDbEntity
  8
AM_7
  6
AM_ISO08W050x2
100
AcDbLine
 10
871.2506177516187
 20
168.6152443510145
 30
0.0
 11
871.2506177516187
 21
165.5152443510145
 31
0.0
1001
GENIUS_GENOREF_13
1005
928F
  0
LINE
  5
9274
330
1F
100
AcDbEntity
  8
AM_7
100
AcDbLine
 10
864.2506177516187
 20
112.346929923134
 30
0.0
 11
871.0506177516187
 21
112.346929923134
 31
0.0
1001
GENIUS_GENOREF_13
1005
928E
  0
LINE
  5
9275
330
1F
100
AcDbEntity
  8
AM_7
100
AcDbLine
 10
864.2506177516187
 20
112.346929923134
 30
0.0
 11
864.2506177516187
 21
119.146929923134
 31
0.0
1001
GENIUS_GENOREF_13
1005
928E
  0
LINE
  5
9276
330
1F
100
AcDbEntity
  8
AM_7
100
AcDbLine
 10
864.2506177516187
 20
112.346929923134
 30
0.0
 11
857.4506177516186
 21
112.346929923134
 31
0.0
1001
GENIUS_GENOREF_13
1005
928E
  0
LINE
  5
9277
330
1F
100
AcDbEntity
  8
AM_7
100
AcDbLine
 10
864.2506177516187
 20
112.346929923134
 30
0.0
 11
864.2506177516187
 21
105.546929923134
 31
0.0
1001
GENIUS_GENOREF_13
1005
928E
  0
LINE
  5
9278
330
1F
100
AcDbEntity
  8
AM_7
100
AcDbLine
 10
850.2506177516186
 20
113.346929923134
 30
0.0
 11
857.0506177516186
 21
113.346929923134
 31
0.0
1001
GENIUS_GENOREF_13
1005
928D
  0
LINE
  5
9279
330
1F
100
AcDbEntity
  8
AM_7
100
AcDbLine
 10
850.2506177516186
 20
113.346929923134
 30
0.0
 11
850.2506177516186
 21
120.146929923134
 31
0.0
1001
GENIUS_GENOREF_13
1005
928D
  0
LINE
  5
927A
330
1F
100
AcDbEntity
  8
AM_7
100
AcDbLine
 10
850.2506177516186
 20
113.346929923134
 30
0.0
 11
843.4506177516187
 21
113.346929923134
 31
0.0
1001
GENIUS_GENOREF_13
1005
928D
  0
LINE
  5
927B
330
1F
100
AcDbEntity
  8
AM_7
100
AcDbLine
 10
850.2506177516186
 20
113.346929923134
 30
0.0
 11
850.2506177516186
 21
106.546929923134
 31
0.0
1001
GENIUS_GENOREF_13
1005
928D
  0
LINE
  5
9280
330
1F
100
AcDbEntity
  8
AM_7
100
AcDbLine
 10
878.2506177516188
 20
111.346929923134
 30
0.0
 11
885.0506177516187
 21
111.346929923134
 31
0.0
1001
GENIUS_GENOREF_13
1005
928B
  0
LINE
  5
9281
330
1F
100
AcDbEntity
  8
AM_7
100
AcDbLine
 10
878.2506177516188
 20
111.346929923134
 30
0.0
 11
878.2506177516188
 21
118.146929923134
 31
0.0
1001
GENIUS_GENOREF_13
1005
928B
  0
LINE
  5
9282
330
1F
100
AcDbEntity
  8
AM_7
100
AcDbLine
 10
878.2506177516188
 20
111.346929923134
 30
0.0
 11
871.4506177516186
 21
111.346929923134
 31
0.0
1001
GENIUS_GENOREF_13
1005
928B
  0
LINE
  5
9283
330
1F
100
AcDbEntity
  8
AM_7
100
AcDbLine
 10
878.2506177516188
 20
111.346929923134
 30
0.0
 11
878.2506177516188
 21
104.546929923134
 31
0.0
1001
GENIUS_GENOREF_13
1005
928B
  0
LINE
  5
9288
330
1F
100
AcDbEntity
  8
AM_7
100
AcDbLine
 10
950.9822850167783
 20
212.3652456921191
 30
0.0
 11
932.6977501900717
 21
212.3652456921191
 31
0.0
1001
GENIUS_GENOBJ-N-CEN_13
1002
{
1000
OWNER
1000
GEN
1002
}
1001
GENIUS_GENODEF_13
1002
{
1000
HIER
1070
     0
1002
}
1002
{
1000
MANEDIT
1070
     0
1002
}
1002
{
1000
NOSEL
1070
     0
1002
}
1002
{
1000
BEHIND
1070
     0
1002
}
1002
{
1000
OTHER
1070
     0
1002
}
1002
{
1000
REACTOR
1002
}
1001
GENIUS_GENCEN_19
1002
{
1040
1.5
1002
}
  0
LINE
  5
9289
330
1F
100
AcDbEntity
  8
AM_7
  6
AM_ISO08W050x2
100
AcDbLine
 10
943.4159264332482
 20
178.6152443510145
 30
0.0
 11
932.4853008207066
 21
178.6152443510145
 31
0.0
1001
GENIUS_GENODEF_13
1002
{
1000
HIER
1070
     0
1002
}
1002
{
1000
MANEDIT
1070
     0
1002
}
1002
{
1000
NOSEL
1070
     0
1002
}
1002
{
1000
BEHIND
1070
     0
1002
}
1002
{
1000
OTHER
1070
     0
1002
}
1002
{
1000
REACTOR
1002
}
1001
GENIUS_GENOBJ-N-CEN_13
1002
{
1000
OWNER
1000
GEN
1002
}
1001
GENIUS_GENCEN_19
1002
{
1040
1.5
1002
}
  0
POINT
  5
928B
330
1F
100
AcDbEntity
  8
0
 60
     1
100
AcDbPoint
 10
294.5134231469816
 20
14.92339127014725
 30
0.0
1001
GENIUS_GENODEF_13
1002
{
1000
HIER
1070
    10
1002
}
1002
{
1000
MANEDIT
1070
     0
1002
}
1002
{
1000
NOSEL
1070
     0
1002
}
1002
{
1000
BEHIND
1070
     0
1002
}
1002
{
1000
OTHER
1070
     0
1002
}
1002
{
1000
REACTOR
1002
}
1001
GENIUS_GENOENT_13
1002
{
1000
MYREF
1005
928B
1002
}
1002
{
1000
GRP
1005
0
1002
}
1001
GENIUS_GENOBJ-N-CRS_13
1002
{
1000
OWNER
1000
GEN
1002
}
1001
GENIUS_GENOLIS_13
1002
{
1000
ENT
1005
9283
1005
9282
1005
9281
1005
9280
1002
}
  0
POINT
  5
928D
330
1F
100
AcDbEntity
  8
0
 60
     1
100
AcDbPoint
 10
294.5134231469816
 20
14.92339127014725
 30
0.0
1001
GENIUS_GENODEF_13
1002
{
1000
HIER
1070
    10
1002
}
1002
{
1000
MANEDIT
1070
     0
1002
}
1002
{
1000
NOSEL
1070
     0
1002
}
1002
{
1000
BEHIND
1070
     0
1002
}
1002
{
1000
OTHER
1070
     0
1002
}
1002
{
1000
REACTOR
1002
}
1001
GENIUS_GENOENT_13
1002
{
1000
MYREF
1005
928D
1002
}
1002
{
1000
GRP
1005
0
1002
}
1001
GENIUS_GENOBJ-N-CRS_13
1002
{
1000
OWNER
1000
GEN
1002
}
1001
GENIUS_GENOLIS_13
1002
{
1000
ENT
1005
927B
1005
927A
1005
9279
1005
9278
1002
}
  0
POINT
  5
928E
330
1F
100
AcDbEntity
  8
0
 60
     1
100
AcDbPoint
 10
294.5134231469816
 20
14.92339127014725
 30
0.0
1001
GENIUS_GENOENT_13
1002
{
1000
MYREF
1005
928E
1002
}
1002
{
1000
GRP
1005
0
1002
}
1001
GENIUS_GENOLIS_13
1002
{
1000
ENT
1005
9277
1005
9276
1005
9275
1005
9274
1002
}
1001
GENIUS_GENODEF_13
1002
{
1000
HIER
1070
    10
1002
}
1002
{
1000
MANEDIT
1070
     0
1002
}
1002
{
1000
NOSEL
1070
     0
1002
}
1002
{
1000
BEHIND
1070
     0
1002
}
1002
{
1000
OTHER
1070
     0
1002
}
1002
{
1000
REACTOR
1002
}
1001
GENIUS_GENOBJ-N-CRS_13
1002
{
1000
OWNER
1000
GEN
1002
}
  0
POINT
  5
928F
330
1F
100
AcDbEntity
  8
0
 60
     1
100
AcDbPoint
 10
294.5134231469816
 20
14.92339127014725
 30
0.0
1001
GENIUS_GENOLIS_13
1002
{
1000
ENT
1005
9273
1005
9272
1005
9271
1005
9270
1002
}
1001
GENIUS_GENODEF_13
1002
{
1000
HIER
1070
    10
1002
}
1002
{
1000
MANEDIT
1070
     0
1002
}
1002
{
1000
NOSEL
1070
     0
1002
}
1002
{
1000
BEHIND
1070
     0
1002
}
1002
{
1000
OTHER
1070
     0
1002
}
1002
{
1000
REACTOR
1002
}
1001
GENIUS_GENOBJ-N-CRS_13
1002
{
1000
OWNER
1000
GEN
1002
}
1001
GENIUS_GENOENT_13
1002
{
1000
MYREF
1005
928F
1002
}
1002
{
1000
GRP
1005
0
1002
}
  0
POINT
  5
9290
330
1F
100
AcDbEntity
  8
0
 60
     1
100
AcDbPoint
 10
294.5134231469816
 20
14.92339127014725
 30
0.0
1001
GENIUS_GENODEF_13
1002
{
1000
HIER
1070
    10
1002
}
1002
{
1000
MANEDIT
1070
     0
1002
}
1002
{
1000
NOSEL
1070
     0
1002
}
1002
{
1000
BEHIND
1070
     0
1002
}
1002
{
1000
OTHER
1070
     0
1002
}
1002
{
1000
REACTOR
1002
}
1001
GENIUS_GENOLIS_13
1002
{
1000
ENT
1005
926F
1005
926E
1005
926D
1005
926C
1002
}
1001
GENIUS_GENOENT_13
1002
{
1000
MYREF
1005
9290
1002
}
1002
{
1000
GRP
1005
0
1002
}
1001
GENIUS_GENOBJ-N-CRS_13
1002
{
1000
OWNER
1000
GEN
1002
}
  0
POINT
  5
9291
330
1F
100
AcDbEntity
  8
0
 60
     1
100
AcDbPoint
 10
294.5134231469816
 20
14.92339127014725
 30
0.0
1001
GENIUS_GENOLIS_13
1002
{
1000
ENT
1005
926B
1005
926A
1005
9269
1005
9268
1002
}
1001
GENIUS_GENOENT_13
1002
{
1000
MYREF
1005
9291
1002
}
1002
{
1000
GRP
1005
0
1002
}
1001
GENIUS_GENOBJ-N-CRS_13
1002
{
1000
OWNER
1000
GEN
1002
}
1001
GENIUS_GENODEF_13
1002
{
1000
HIER
1070
    10
1002
}
1002
{
1000
MANEDIT
1070
     0
1002
}
1002
{
1000
NOSEL
1070
     0
1002
}
1002
{
1000
BEHIND
1070
     0
1002
}
1002
{
1000
OTHER
1070
     0
1002
}
1002
{
1000
REACTOR
1002
}
  0
POINT
  5
9292
330
1F
100
AcDbEntity
  8
0
 60
     1
100
AcDbPoint
 10
294.5134231469816
 20
14.92339127014725
 30
0.0
1001
GENIUS_GENOLIS_13
1002
{
1000
ENT
1005
9267
1005
9266
1005
9265
1005
9264
1002
}
1001
GENIUS_GENOBJ-N-CRS_13
1002
{
1000
OWNER
1000
GEN
1002
}
1001
GENIUS_GENODEF_13
1002
{
1000
HIER
1070
    10
1002
}
1002
{
1000
MANEDIT
1070
     0
1002
}
1002
{
1000
NOSEL
1070
     0
1002
}
1002
{
1000
BEHIND
1070
     0
1002
}
1002
{
1000
OTHER
1070
     0
1002
}
1002
{
1000
REACTOR
1002
}
1001
GENIUS_GENOENT_13
1002
{
1000
MYREF
1005
9292
1002
}
1002
{
1000
GRP
1005
0
1002
}
  0
POINT
  5
9293
330
1F
100
AcDbEntity
  8
0
 60
     1
100
AcDbPoint
 10
294.5134231469816
 20
14.92339127014725
 30
0.0
1001
GENIUS_GENOBJ-N-CRS_13
1002
{
1000
OWNER
1000
GEN
1002
}
1001
GENIUS_GENOENT_13
1002
{
1000
MYREF
1005
9293
1002
}
1002
{
1000
GRP
1005
0
1002
}
1001
GENIUS_GENOLIS_13
1002
{
1000
ENT
1005
9263
1005
9262
1005
9261
1005
9260
1002
}
1001
GENIUS_GENODEF_13
1002
{
1000
HIER
1070
    10
1002
}
1002
{
1000
MANEDIT
1070
     0
1002
}
1002
{
1000
NOSEL
1070
     0
1002
}
1002
{
1000
BEHIND
1070
     0
1002
}
1002
{
1000
OTHER
1070
     0
1002
}
1002
{
1000
REACTOR
1002
}
  0
POINT
  5
9294
330
1F
100
AcDbEntity
  8
0
 60
     1
100
AcDbPoint
 10
294.5134231469816
 20
14.92339127014725
 30
0.0
1001
GENIUS_GENOLIS_13
1002
{
1000
ENT
1005
925F
1005
925E
1005
925D
1005
925C
1002
}
1001
GENIUS_GENOENT_13
1002
{
1000
MYREF
1005
9294
1002
}
1002
{
1000
GRP
1005
0
1002
}
1001
GENIUS_GENOBJ-N-CRS_13
1002
{
1000
OWNER
1000
GEN
1002
}
1001
GENIUS_GENODEF_13
1002
{
1000
HIER
1070
    10
1002
}
1002
{
1000
MANEDIT
1070
     0
1002
}
1002
{
1000
NOSEL
1070
     0
1002
}
1002
{
1000
BEHIND
1070
     0
1002
}
1002
{
1000
OTHER
1070
     0
1002
}
1002
{
1000
REACTOR
1002
}
  0
CIRCLE
  5
9295
330
1F
100
AcDbEntity
  8
AM_VIS
100
AcDbCircle
 10
879.2506177516187
 20
246.7277720664372
 30
0.0
 40
1.6
  0
CIRCLE
  5
9296
330
1F
100
AcDbEntity
  8
AM_VIS
100
AcDbCircle
 10
849.2506177516187
 20
259.7277720664372
 30
0.0
 40
1.6
  0
LINE
  5
9297
330
1F
100
AcDbEntity
  8
AM_7
  6
AM_ISO08W050x2
100
AcDbLine
 10
849.2506177516187
 20
105.846929923134
 30
0.0
 11
853.7506177516187
 21
105.846929923134
 31
0.0
1001
GENIUS_GENOREF_13
1005
92A2
  0
LINE
  5
9298
330
1F
100
AcDbEntity
  8
AM_7
  6
AM_ISO08W050x2
100
AcDbLine
 10
849.2506177516187
 20
105.846929923134
 30
0.0
 11
849.2506177516187
 21
101.346929923134
 31
0.0
1001
GENIUS_GENOREF_13
1005
92A2
  0
LINE
  5
9299
330
1F
100
AcDbEntity
  8
AM_7
  6
AM_ISO08W050x2
100
AcDbLine
 10
849.2506177516187
 20
105.846929923134
 30
0.0
 11
844.7506177516187
 21
105.846929923134
 31
0.0
1001
GENIUS_GENOREF_13
1005
92A2
  0
LINE
  5
929A
330
1F
100
AcDbEntity
  8
AM_7
  6
AM_ISO08W050x2
100
AcDbLine
 10
849.2506177516187
 20
105.846929923134
 30
0.0
 11
849.2506177516187
 21
110.346929923134
 31
0.0
1001
GENIUS_GENOREF_13
1005
92A2
  0
LINE
  5
929B
330
1F
100
AcDbEntity
  8
AM_7
  6
AM_ISO08W050x2
100
AcDbLine
 10
879.2506177516187
 20
118.846929923134
 30
0.0
 11
883.7506177516187
 21
118.846929923134
 31
0.0
1001
GENIUS_GENOREF_13
1005
92A1
  0
LINE
  5
929C
330
1F
100
AcDbEntity
  8
AM_7
  6
AM_ISO08W050x2
100
AcDbLine
 10
879.2506177516187
 20
118.846929923134
 30
0.0
 11
879.2506177516187
 21
114.346929923134
 31
0.0
1001
GENIUS_GENOREF_13
1005
92A1
  0
LINE
  5
929D
330
1F
100
AcDbEntity
  8
AM_7
  6
AM_ISO08W050x2
100
AcDbLine
 10
879.2506177516187
 20
118.846929923134
 30
0.0
 11
874.7506177516187
 21
118.846929923134
 31
0.0
1001
GENIUS_GENOREF_13
1005
92A1
  0
LINE
  5
929E
330
1F
100
AcDbEntity
  8
AM_7
  6
AM_ISO08W050x2
100
AcDbLine
 10
879.2506177516187
 20
118.846929923134
 30
0.0
 11
879.2506177516187
 21
123.346929923134
 31
0.0
1001
GENIUS_GENOREF_13
1005
92A1
  0
CIRCLE
  5
929F
330
1F
100
AcDbEntity
  8
AM_VIS
100
AcDbCircle
 10
879.2506177516187
 20
118.846929923134
 30
0.0
 40
1.6
  0
CIRCLE
  5
92A0
330
1F
100
AcDbEntity
  8
AM_VIS
100
AcDbCircle
 10
849.2506177516187
 20
105.846929923134
 30
0.0
 40
1.6
  0
POINT
  5
92A1
330
1F
100
AcDbEntity
  8
0
 60
     1
100
AcDbPoint
 10
294.5134231469816
 20
-142.1346760540483
 30
0.0
1001
GENIUS_GENOBJ-N-CRS_13
1002
{
1000
OWNER
1000
GEN
1002
}
1001
GENIUS_GENOENT_13
1002
{
1000
MYREF
1005
92A1
1002
}
1002
{
1000
GRP
1005
0
1002
}
1001
GENIUS_GENOLIS_13
1002
{
1000
ENT
1005
929E
1005
929D
1005
929C
1005
929B
1002
}
1001
GENIUS_GENODEF_13
1002
{
1000
HIER
1070
    10
1002
}
1002
{
1000
MANEDIT
1070
     0
1002
}
1002
{
1000
NOSEL
1070
     0
1002
}
1002
{
1000
BEHIND
1070
     0
1002
}
1002
{
1000
OTHER
1070
     0
1002
}
1002
{
1000
REACTOR
1002
}
  0
POINT
  5
92A2
330
1F
100
AcDbEntity
  8
0
 60
     1
100
AcDbPoint
 10
294.5134231469816
 20
-142.1346760540483
 30
0.0
1001
GENIUS_GENOLIS_13
1002
{
1000
ENT
1005
929A
1005
9299
1005
9298
1005
9297
1002
}
1001
GENIUS_GENOENT_13
1002
{
1000
MYREF
1005
92A2
1002
}
1002
{
1000
GRP
1005
0
1002
}
1001
GENIUS_GENOBJ-N-CRS_13
1002
{
1000
OWNER
1000
GEN
1002
}
1001
GENIUS_GENODEF_13
1002
{
1000
HIER
1070
    10
1002
}
1002
{
1000
MANEDIT
1070
     0
1002
}
1002
{
1000
NOSEL
1070
     0
1002
}
1002
{
1000
BEHIND
1070
     0
1002
}
1002
{
1000
OTHER
1070
     0
1002
}
1002
{
1000
REACTOR
1002
}
  0
DIMENSION
  5
9378
330
1F
100
AcDbEntity
  8
AM_5
100
AcDbDimension
  2
*D26
 10
818.0449862396573
 20
192.1152447011919
 30
0.0
 11
814.7445728538304
 21
178.615244701192
 31
0.0
 70
    32
 71
     5
 42
27.00000000000006
  3
AM_ISO$0
100
AcDbAlignedDimension
 13
832.2506171972955
 23
165.1152447011918
 33
0.0
 14
832.2506171972955
 24
192.1152447011919
 34
0.0
 50
90.0
100
AcDbRotatedDimension
1001
ACAD
1000
DSTYLE
1002
{
1070
    40
1040
1.199999999999999
1002
}
  0
DIMENSION
  5
93B4
330
1F
100
AcDbEntity
  8
AM_5
100
AcDbDimension
  2
*D30
 10
864.2506177516187
 20
91.34692992313409
 30
0.0
 11
857.2506177516187
 21
94.64692992313407
 31
0.0
 70
    32
 71
     5
 42
14.0
  3
AM_ISO$0
100
AcDbAlignedDimension
 13
850.2506177516186
 23
106.546929923134
 33
0.0
 14
864.2506177516187
 24
105.546929923134
 34
0.0
100
AcDbRotatedDimension
1001
ACAD
1000
DSTYLE
1002
{
1070
    40
1040
1.199999999999999
1002
}
  0
DIMENSION
  5
93B7
330
1F
100
AcDbEntity
  8
AM_5
100
AcDbDimension
  2
*D27
 10
818.6449862396573
 20
121.3469295357038
 30
0.0
 11
815.3449862396573
 21
112.3469295357039
 31
0.0
 70
    32
 71
     5
 42
18.0
  3
AM_ISO$0
100
AcDbAlignedDimension
 13
832.2506177499629
 23
103.3469295357038
 33
0.0
 14
832.2506177069152
 24
121.3469295357038
 34
0.0
 50
90.0
100
AcDbRotatedDimension
1001
ACAD
1000
DSTYLE
1002
{
1070
    40
1040
1.199999999999999
1002
}
  0
INSERT
  5
93B8
330
1F
100
AcDbEntity
  8
AM_5
100
AcDbBlockReference
  2
*S21
 10
9.165186329138464
 20
-9.087768660432942
 30
0.0
  0
TEXT
  5
93B9
330
1F
100
AcDbEntity
  8
AM_5
100
AcDbText
 10
897.1226320181669
 20
90.77822202753791
 30
0.0
 40
4.2
  1
5-Rc1/8
100
AcDbText
  0
DIMENSION
  5
93BA
330
1F
100
AcDbEntity
  8
AM_5
100
AcDbDimension
  2
*D28
 10
878.2506177516188
 20
91.34692992313411
 30
0.0
 11
871.2506177516187
 21
94.64692992313411
 31
0.0
 70
    32
 71
     5
 42
14.0
  3
AM_ISO$0
100
AcDbAlignedDimension
 13
864.2506177516187
 23
105.546929923134
 33
0.0
 14
878.2506177516188
 24
104.546929923134
 34
0.0
100
AcDbRotatedDimension
1001
ACAD
1000
DSTYLE
1002
{
1070
    40
1040
1.199999999999999
1002
}
  0
DIMENSION
  5
93BB
330
1F
100
AcDbEntity
  8
AM_5
100
AcDbDimension
  2
*D29
 10
850.2506177516186
 20
91.34692992313409
 30
0.0
 11
841.000617729267
 21
94.64692992313407
 31
0.0
 70
    32
 71
     5
 42
18.50000004470348
  3
AM_ISO$0
100
AcDbAlignedDimension
 13
831.7506177069152
 23
103.8469295357039
 33
0.0
 14
850.2506177516186
 24
106.546929923134
 34
0.0
100
AcDbRotatedDimension
1001
ACAD
1000
DSTYLE
1002
{
1070
    40
1040
1.199999999999999
1002
}
  0
LINE
  5
9625
330
1F
100
AcDbEntity
  8
AM_VIS
100
AcDbLine
 10
841.2506171972955
 20
244.7277720664372
 30
0.0
 11
841.2506171972955
 21
261.7277720664372
 31
0.0
  0
LINE
  5
9629
330
1F
100
AcDbEntity
  8
AM_VIS
100
AcDbLine
 10
831.6737156897257
 20
245.8069932110097
 30
0.0
 11
831.766012292222
 21
245.8507077996173
 31
0.0
  0
LINE
  5
962A
330
1F
100
AcDbEntity
  8
AM_VIS
100
AcDbLine
 10
831.766012292222
 20
247.6048363332564
 30
0.0
 11
831.6737156897255
 21
247.648550921864
 31
0.0
  0
LINE
  5
962B
330
1F
100
AcDbEntity
  8
AM_VIS
100
AcDbLine
 10
832.8271656077628
 20
244.2998147454837
 30
0.0
 11
833.6506171972954
 21
244.2277720664372
 31
0.0
  0
LINE
  5
962C
330
1F
100
AcDbEntity
  8
AM_VIS
100
AcDbLine
 10
832.8271656077628
 20
249.1557293873908
 30
0.0
 11
833.6286281924444
 21
249.2258482777905
 31
0.0
  0
ELLIPSE
  5
962D
330
1F
100
AcDbEntity
  8
AM_VIS
100
AcDbEllipse
 10
834.7775318082875
 20
246.7277720664372
 30
0.0
 11
0.0
 21
-3.797925352447207
 31
0.0
210
0.0
220
0.0
230
1.0
 40
0.7878555911522268
 41
4.620366885744062
 42
4.80441107502531
  0
LINE
  5
962E
330
1F
100
AcDbEntity
  8
AM_VIS
100
AcDbLine
 10
831.7979752910483
 20
248.0678756905935
 30
0.0
 11
831.7853150845825
 21
248.0777720664373
 31
0.0
  0
LINE
  5
962F
330
1F
100
AcDbEntity
  8
AM_VIS
100
AcDbLine
 10
831.7853150845825
 20
245.3777720664372
 30
0.0
 11
831.7979752910483
 21
245.387668442281
 31
0.0
  0
ARC
  5
9630
330
1F
100
AcDbEntity
  8
AM_VIS
100
AcDbCircle
 10
835.5506171972955
 20
246.7277720664372
 30
0.0
 40
3.984745788629259
100
AcDbArc
 50
160.3478770841364
 51
166.6395752447173
  0
LINE
  5
9631
330
1F
100
AcDbEntity
  8
AM_VIS
100
AcDbLine
 10
831.6737156897254
 20
246.3787720664373
 30
0.0
 11
831.7979752910488
 21
246.3787720664373
 31
0.0
  0
ARC
  5
9632
330
1F
100
AcDbEntity
  8
AM_VIS
100
AcDbCircle
 10
835.5506171972955
 20
246.7277720664372
 30
0.0
 40
3.984745788629259
100
AcDbArc
 50
193.3604247552941
 51
199.6521229158635
  0
LINE
  5
9633
330
1F
100
AcDbEntity
  8
AM_VIS
100
AcDbLine
 10
831.7979752910488
 20
247.0767720664373
 30
0.0
 11
831.6737156897255
 21
247.0767720664373
 31
0.0
  0
ELLIPSE
  5
9634
330
1F
100
AcDbEntity
  8
AM_VIS
100
AcDbEllipse
 10
835.1832996262363
 20
247.5033063886339
 30
0.0
 11
3.529431858666831
 21
1.671650500098938
 31
0.0
210
0.0
220
0.0
230
1.0
 40
0.1282764997594527
 41
3.203083561053125
 42
3.361166884187238
  0
ELLIPSE
  5
9635
330
1F
100
AcDbEntity
  8
AM_VIS
100
AcDbEllipse
 10
835.1832996262359
 20
245.9522377442397
 30
0.0
 11
3.529431858666618
 21
-1.671650500098896
 31
0.0
210
0.0
220
0.0
230
1.0
 40
0.1282764997598366
 41
2.922018422992307
 42
3.080101746126575
  0
ELLIPSE
  5
9636
330
1F
100
AcDbEntity
  8
AM_VIS
100
AcDbEllipse
 10
835.1832996262359
 20
246.6167780232055
 30
0.0
 11
1.129633334147969
 21
-3.738346314860829
 31
0.0
210
0.0
220
0.0
230
1.0
 40
0.8962897953664862
 41
4.509389004077959
 42
4.667472327212744
  0
ELLIPSE
  5
9637
330
1F
100
AcDbEntity
  8
AM_VIS
100
AcDbEllipse
 10
835.1832996262363
 20
246.8387661096685
 30
0.0
 11
-1.129633334144913
 21
-3.738346314861969
 31
0.0
210
0.0
220
0.0
230
1.0
 40
0.8962897953665368
 41
4.757305633555944
 42
4.915388956690565
  0
ARC
  5
9638
330
1F
100
AcDbEntity
  8
AM_VIS
100
AcDbCircle
 10
832.9143213505105
 20
245.2960094435755
 30
0.0
 40
1.0
100
AcDbArc
 50
208.506223015159
 51
265.0000000000003
  0
ARC
  5
9639
330
1F
100
AcDbEntity
  8
AM_VIS
100
AcDbCircle
 10
832.9143213505105
 20
248.159534689299
 30
0.0
 40
0.9999999999999998
100
AcDbArc
 50
94.99999999999975
 51
151.493776984841
  0
ARC
  5
963A
330
1F
100
AcDbEntity
  8
AM_VIS
100
AcDbCircle
 10
835.5506171972955
 20
246.7277720664372
 30
0.0
 40
4.0
100
AcDbArc
 50
199.7246335587018
 51
208.5062230151597
  0
ARC
  5
963B
330
1F
100
AcDbEntity
  8
AM_VIS
100
AcDbCircle
 10
835.5506171972955
 20
246.7277720664372
 30
0.0
 40
4.0
100
AcDbArc
 50
151.4937769848402
 51
160.2753664412981
  0
LINE
  5
963C
330
1F
100
AcDbEntity
  8
AM_VIS
100
AcDbLine
 10
834.2506171972955
 20
244.1498858146895
 30
0.0
 11
834.2506171972955
 21
244.1296340881115
 31
0.0
  0
ELLIPSE
  5
963D
330
1F
100
AcDbEntity
  8
AM_VIS
100
AcDbEllipse
 10
833.9803144876301
 20
246.7277720664372
 30
0.0
 11
-7.143441290581794
 21
0.0000000000000091
 31
0.0
210
0.0
220
0.0
230
1.0
 40
0.3639702342662129
 41
1.524626078932947
 42
1.608644647235596
  0
ELLIPSE
  5
963E
330
1F
100
AcDbEntity
  8
AM_VIS
100
AcDbEllipse
 10
833.320919906961
 20
246.7277720664372
 30
0.0
 11
-7.143441290581963
 21
0.0000000000000091
 31
0.0
210
0.0
220
0.0
230
1.0
 40
0.3639702342662044
 41
1.616966574656841
 42
1.70131354300112
  0
LINE
  5
963F
330
1F
100
AcDbEntity
  8
AM_VIS
100
AcDbLine
 10
834.2506171972955
 20
244.1277720664373
 30
0.0
 11
833.9803144876301
 21
244.1277720664373
 31
0.0
  0
LINE
  5
9640
330
1F
100
AcDbEntity
  8
AM_VIS
100
AcDbLine
 10
834.2506171972955
 20
249.2277720664372
 30
0.0
 11
834.2506171972955
 21
244.1498858146895
 31
0.0
  0
LINE
  5
9641
330
1F
100
AcDbEntity
  8
AM_VIS
100
AcDbLine
 10
834.2506171972955
 20
244.1296340881115
 30
0.0
 11
834.2506171972955
 21
244.1277720664373
 31
0.0
  0
LINE
  5
9642
330
1F
100
AcDbEntity
  8
AM_VIS
100
AcDbLine
 10
833.6506171972954
 20
249.2277720664372
 30
0.0
 11
833.6506171972954
 21
244.1305427735176
 31
0.0
  0
LINE
  5
9643
330
1F
100
AcDbEntity
  8
AM_VIS
100
AcDbLine
 10
834.7506171972954
 20
244.2277720664372
 30
0.0
 11
834.2506171972955
 21
244.2277720664372
 31
0.0
  0
LINE
  5
9644
330
1F
100
AcDbEntity
  8
AM_VIS
100
AcDbLine
 10
833.6506171972954
 20
244.2277720664372
 30
0.0
 11
832.2506171972955
 21
244.2277720664372
 31
0.0
  0
LINE
  5
9645
330
1F
100
AcDbEntity
  8
AM_VIS
100
AcDbLine
 10
834.7506171972955
 20
244.2277720664372
 30
0.0
 11
841.2506171972955
 21
244.2277720664372
 31
0.0
  0
LINE
  5
9646
330
1F
100
AcDbEntity
  8
AM_VIS
100
AcDbLine
 10
834.7506171972955
 20
249.2277720664372
 30
0.0
 11
834.7506171972955
 21
244.7277720664372
 31
0.0
  0
LINE
  5
9647
330
1F
100
AcDbEntity
  8
AM_VIS
100
AcDbLine
 10
832.2506171972955
 20
249.2277720664372
 30
0.0
 11
834.7506171972955
 21
249.2277720664372
 31
0.0
  0
LINE
  5
9648
330
1F
100
AcDbEntity
  8
AM_VIS
100
AcDbLine
 10
841.2506171972955
 20
262.2277720664373
 30
0.0
 11
832.2506171972955
 21
262.2277720664373
 31
0.0
  0
ARC
  5
9649
330
1F
100
AcDbEntity
  8
AM_VIS
100
AcDbCircle
 10
832.2506171972955
 20
244.7277720664372
 30
0.0
 40
0.5000000000000015
100
AcDbArc
 50
180.0
 51
270.0
  0
LINE
  5
964A
330
1F
100
AcDbEntity
  8
AM_VIS
100
AcDbLine
 10
831.7506171972956
 20
246.6277720664373
 30
0.0
 11
831.7506171972956
 21
246.3787720664373
 31
0.0
  0
LINE
  5
964B
330
1F
100
AcDbEntity
  8
AM_VIS
100
AcDbLine
 10
831.7506171972956
 20
245.9173676081557
 30
0.0
 11
831.7506171972956
 21
245.8434161959935
 31
0.0
  0
LINE
  5
964C
330
1F
100
AcDbEntity
  8
AM_VIS
100
AcDbLine
 10
831.7506171972956
 20
245.528522717886
 30
0.0
 11
831.7506171972956
 21
244.7277720664373
 31
0.0
  0
ARC
  5
964D
330
1F
100
AcDbEntity
  8
AM_VIS
100
AcDbCircle
 10
832.2506171972955
 20
249.7277720664373
 30
0.0
 40
0.5000000000000013
100
AcDbArc
 50
180.0
 51
270.0
  0
LINE
  5
964E
330
1F
100
AcDbEntity
  8
AM_VIS
100
AcDbLine
 10
831.7506171972956
 20
261.7277720664372
 30
0.0
 11
831.7506171972956
 21
249.7277720664373
 31
0.0
  0
LINE
  5
964F
330
1F
100
AcDbEntity
  8
AM_VIS
100
AcDbLine
 10
841.2506171972955
 20
244.2277724538674
 30
0.0
 11
841.2506171972955
 21
262.2277720664373
 31
0.0
  0
LINE
  5
9650
330
1F
100
AcDbEntity
  8
AM_VIS
100
AcDbLine
 10
834.7506171972955
 20
244.2277720664372
 30
0.0
 11
834.7506171972955
 21
244.7277720664372
 31
0.0
  0
LINE
  5
9651
330
1F
100
AcDbEntity
  8
AM_VIS
100
AcDbLine
 10
831.7506171972956
 20
249.7277720664373
 30
0.0
 11
831.7506171972956
 21
247.9270214149885
 31
0.0
  0
LINE
  5
9652
330
1F
100
AcDbEntity
  8
AM_VIS
100
AcDbLine
 10
831.7506171972956
 20
247.6121279368809
 30
0.0
 11
831.7506171972956
 21
247.5381765247188
 31
0.0
  0
LINE
  5
9653
330
1F
100
AcDbEntity
  8
AM_VIS
100
AcDbLine
 10
831.7506171972956
 20
247.0767720664373
 30
0.0
 11
831.7506171972956
 21
246.6277720664373
 31
0.0
  0
ARC
  5
9654
330
1F
100
AcDbEntity
  8
AM_VIS
100
AcDbCircle
 10
832.2506171972955
 20
261.7277720664372
 30
0.0
 40
0.5
100
AcDbArc
 50
90.0
 51
180.0
  0
LINE
  5
96F4
330
1F
100
AcDbEntity
  8
AM_VIS
100
AcDbLine
 10
831.6737156897255
 20
188.6944658457645
 30
0.0
 11
831.766012292222
 21
188.7381804343721
 31
0.0
  0
LINE
  5
96F5
330
1F
100
AcDbEntity
  8
AM_VIS
100
AcDbLine
 10
831.7660122922218
 20
190.4923089680106
 30
0.0
 11
831.6737156897254
 21
190.5360235566184
 31
0.0
  0
LINE
  5
96F6
330
1F
100
AcDbEntity
  8
AM_VIS
100
AcDbLine
 10
832.8271656077626
 20
187.1872873802383
 30
0.0
 11
833.6286281924444
 21
187.1171684898385
 31
0.0
  0
LINE
  5
96F7
330
1F
100
AcDbEntity
  8
AM_VIS
100
AcDbLine
 10
832.8271656077628
 20
192.0432020221453
 30
0.0
 11
833.6506171972954
 21
192.1152447011919
 31
0.0
  0
LINE
  5
96F8
330
1F
100
AcDbEntity
  8
AM_VIS
100
AcDbLine
 10
833.6506171972954
 20
189.7352447011918
 30
0.0
 11
833.6506171972954
 21
189.4952447011918
 31
0.0
  0
LINE
  5
96F9
330
1F
100
AcDbEntity
  8
AM_VIS
100
AcDbLine
 10
831.7853150845818
 20
188.2652447011938
 30
0.0
 11
831.7979752910474
 21
188.2751410770374
 31
0.0
  0
LINE
  5
96FA
330
1F
100
AcDbEntity
  8
AM_VIS
100
AcDbLine
 10
831.7979752910488
 20
190.9553483253501
 30
0.0
 11
831.7853150845831
 21
190.9652447011939
 31
0.0
  0
LINE
  5
96FB
330
1F
100
AcDbEntity
  8
AM_VIS
100
AcDbLine
 10
831.673715689725
 20
189.2662447011938
 30
0.0
 11
831.7979752910481
 21
189.2662447011938
 31
0.0
  0
ELLIPSE
  5
96FC
330
1F
100
AcDbEntity
  8
AM_VIS
100
AcDbEllipse
 10
834.7775318082916
 20
189.6152447011918
 30
0.0
 11
0.0
 21
-3.79792535244857
 31
0.0
210
0.0
220
0.0
230
1.0
 40
0.7878555911532167
 41
4.620366885743574
 42
4.804411075024748
  0
ARC
  5
96FD
330
1F
100
AcDbEntity
  8
AM_VIS
100
AcDbCircle
 10
835.5506171972955
 20
189.6152447011918
 30
0.0
 40
3.984745788629433
100
AcDbArc
 50
193.360424755291
 51
199.6521229158341
  0
ARC
  5
96FE
330
1F
100
AcDbEntity
  8
AM_VIS
100
AcDbCircle
 10
835.5506171972955
 20
189.6152447011918
 30
0.0
 40
3.984745788629433
100
AcDbArc
 50
160.347877084105
 51
166.6395752447208
  0
LINE
  5
96FF
330
1F
100
AcDbEntity
  8
AM_VIS
100
AcDbLine
 10
831.7979752910483
 20
189.9642447011938
 30
0.0
 11
831.6737156897257
 21
189.9642447011938
 31
0.0
  0
ELLIPSE
  5
9700
330
1F
100
AcDbEntity
  8
AM_VIS
100
AcDbEllipse
 10
835.1832996262359
 20
189.50425065796
 30
0.0
 11
1.129633334147972
 21
-3.738346314860828
 31
0.0
210
0.0
220
0.0
230
1.0
 40
0.8962897953664864
 41
4.509389004077446
 42
4.667472327212738
  0
ELLIPSE
  5
9701
330
1F
100
AcDbEntity
  8
AM_VIS
100
AcDbEllipse
 10
835.1832996262363
 20
189.7262387444232
 30
0.0
 11
-1.12963333414491
 21
-3.738346314861971
 31
0.0
210
0.0
220
0.0
230
1.0
 40
0.896289795366537
 41
4.757305633555943
 42
4.915388956690055
  0
ELLIPSE
  5
9702
330
1F
100
AcDbEntity
  8
AM_VIS
100
AcDbEllipse
 10
835.1832996262363
 20
190.3907790233885
 30
0.0
 11
3.529431858666831
 21
1.671650500098942
 31
0.0
210
0.0
220
0.0
230
1.0
 40
0.1282764997594526
 41
3.203083561052614
 42
3.361166884187238
  0
ELLIPSE
  5
9703
330
1F
100
AcDbEntity
  8
AM_VIS
100
AcDbEllipse
 10
835.1832996262359
 20
188.8397103789944
 30
0.0
 11
3.529431858666618
 21
-1.671650500098893
 31
0.0
210
0.0
220
0.0
230
1.0
 40
0.1282764997598366
 41
2.922018422992294
 42
3.080101746127075
  0
ARC
  5
9704
330
1F
100
AcDbEntity
  8
AM_VIS
100
AcDbCircle
 10
832.9143213505105
 20
188.1834820783301
 30
0.0
 40
1.0
100
AcDbArc
 50
208.506223015159
 51
264.9999999999987
  0
ARC
  5
9705
330
1F
100
AcDbEntity
  8
AM_VIS
100
AcDbCircle
 10
832.9143213505105
 20
191.0470073240536
 30
0.0
 40
1.0
100
AcDbArc
 50
94.99999999999975
 51
151.4937769848424
  0
ARC
  5
9706
330
1F
100
AcDbEntity
  8
AM_VIS
100
AcDbCircle
 10
835.5506171972955
 20
189.6152447011918
 30
0.0
 40
3.999999999999999
100
AcDbArc
 50
151.493776984841
 51
160.2753664412688
  0
ARC
  5
9707
330
1F
100
AcDbEntity
  8
AM_VIS
100
AcDbCircle
 10
835.5506171972955
 20
189.6152447011918
 30
0.0
 40
4.0
100
AcDbArc
 50
199.7246335586709
 51
208.5062230151597
  0
LINE
  5
9708
330
1F
100
AcDbEntity
  8
AM_VIS
100
AcDbLine
 10
833.6506171972954
 20
189.4952447011918
 30
0.0
 11
834.2506171972955
 21
189.7136268417515
 31
0.0
  0
LINE
  5
9709
330
1F
100
AcDbEntity
  8
AM_VIS
100
AcDbLine
 10
834.2506171972955
 20
189.9536268417515
 30
0.0
 11
833.6506171972954
 21
189.7352447011918
 31
0.0
  0
LINE
  5
970A
330
1F
100
AcDbEntity
  8
AM_VIS
100
AcDbLine
 10
834.2506171972955
 20
192.2152447011918
 30
0.0
 11
833.6506171972954
 21
192.2152447011918
 31
0.0
  0
LINE
  5
970B
330
1F
100
AcDbEntity
  8
AM_VIS
100
AcDbLine
 10
834.2506171972955
 20
192.2152447011918
 30
0.0
 11
834.2506171972955
 21
189.9536268417515
 31
0.0
  0
LINE
  5
970C
330
1F
100
AcDbEntity
  8
AM_VIS
100
AcDbLine
 10
834.2506171972955
 20
189.7136268417515
 30
0.0
 11
834.2506171972955
 21
187.1152447011919
 31
0.0
  0
LINE
  5
970D
330
1F
100
AcDbEntity
  8
AM_VIS
100
AcDbLine
 10
833.6506171972954
 20
192.2152447011918
 30
0.0
 11
833.6506171972954
 21
189.7352447011918
 31
0.0
  0
LINE
  5
970E
330
1F
100
AcDbEntity
  8
AM_VIS
100
AcDbLine
 10
833.6506171972954
 20
189.4952447011918
 30
0.0
 11
833.6506171972954
 21
187.1152447011919
 31
0.0
  0
LINE
  5
970F
330
1F
100
AcDbEntity
  8
AM_VIS
100
AcDbLine
 10
834.7506171972954
 20
192.1152447011917
 30
0.0
 11
834.2506171972955
 21
192.1152447011917
 31
0.0
  0
LINE
  5
9710
330
1F
100
AcDbEntity
  8
AM_VIS
100
AcDbLine
 10
834.2506171972955
 20
189.7136268417516
 30
0.0
 11
834.2506171972955
 21
189.9536268417515
 31
0.0
  0
LINE
  5
9711
330
1F
100
AcDbEntity
  8
AM_VIS
100
AcDbLine
 10
832.2506171972955
 20
165.1152447011918
 30
0.0
 11
841.2506171972955
 21
165.1152447011918
 31
0.0
  0
LINE
  5
9712
330
1F
100
AcDbEntity
  8
AM_VIS
100
AcDbLine
 10
834.7506171972955
 20
187.1152447011919
 30
0.0
 11
832.2506171972955
 21
187.1152447011919
 31
0.0
  0
LINE
  5
9713
330
1F
100
AcDbEntity
  8
AM_VIS
100
AcDbLine
 10
834.7506171972955
 20
191.6152447011918
 30
0.0
 11
834.7506171972955
 21
187.1152447011919
 31
0.0
  0
LINE
  5
9714
330
1F
100
AcDbEntity
  8
AM_VIS
100
AcDbLine
 10
841.2506171972955
 20
192.1152447011919
 30
0.0
 11
834.7506171972955
 21
192.1152447011919
 31
0.0
  0
LINE
  5
9715
330
1F
100
AcDbEntity
  8
AM_VIS
100
AcDbLine
 10
832.2506171972955
 20
192.1152447011919
 30
0.0
 11
833.6506171972954
 21
192.1152447011919
 31
0.0
  0
LINE
  5
9716
330
1F
100
AcDbEntity
  8
AM_VIS
100
AcDbLine
 10
831.7506171972956
 20
186.6152447011918
 30
0.0
 11
831.7506171972956
 21
165.6152447011918
 31
0.0
  0
ARC
  5
9717
330
1F
100
AcDbEntity
  8
AM_VIS
100
AcDbCircle
 10
832.2506171972955
 20
186.6152447011918
 30
0.0
 40
0.5
100
AcDbArc
 50
90.0
 51
180.0
  0
LINE
  5
9718
330
1F
100
AcDbEntity
  8
AM_VIS
100
AcDbLine
 10
831.7506171972956
 20
191.6152447011919
 30
0.0
 11
831.7506171972956
 21
190.8144940497432
 31
0.0
  0
LINE
  5
9719
330
1F
100
AcDbEntity
  8
AM_VIS
100
AcDbLine
 10
831.7506171972956
 20
190.4996005716355
 30
0.0
 11
831.7506171972956
 21
190.4256491594734
 31
0.0
  0
LINE
  5
971A
330
1F
100
AcDbEntity
  8
AM_VIS
100
AcDbLine
 10
831.7506171972956
 20
189.9642447011938
 30
0.0
 11
831.7506171972956
 21
189.7152447011919
 31
0.0
  0
ARC
  5
971B
330
1F
100
AcDbEntity
  8
AM_VIS
100
AcDbCircle
 10
832.2506171972955
 20
191.6152447011919
 30
0.0
 40
0.5000000000000001
100
AcDbArc
 50
90.0
 51
180.0
  0
LINE
  5
971C
330
1F
100
AcDbEntity
  8
AM_VIS
100
AcDbLine
 10
841.2506171972955
 20
165.6152447011918
 30
0.0
 11
841.2506171972955
 21
191.6152447011918
 31
0.0
  0
LINE
  5
971D
330
1F
100
AcDbEntity
  8
AM_VIS
100
AcDbLine
 10
834.7506171972955
 20
191.6152447011918
 30
0.0
 11
834.7506171972955
 21
192.1152447011919
 31
0.0
  0
LINE
  5
971E
330
1F
100
AcDbEntity
  8
AM_VIS
100
AcDbLine
 10
831.7506171972956
 20
189.7152447011919
 30
0.0
 11
831.7506171972956
 21
189.2662447011938
 31
0.0
  0
LINE
  5
971F
330
1F
100
AcDbEntity
  8
AM_VIS
100
AcDbLine
 10
831.7506171972956
 20
188.8048402429103
 30
0.0
 11
831.7506171972956
 21
188.7308888307482
 31
0.0
  0
LINE
  5
9720
330
1F
100
AcDbEntity
  8
AM_VIS
100
AcDbLine
 10
831.7506171972956
 20
188.4159953526405
 30
0.0
 11
831.7506171972956
 21
186.6152447011918
 31
0.0
  0
ARC
  5
9721
330
1F
100
AcDbEntity
  8
AM_VIS
100
AcDbCircle
 10
832.2506171972955
 20
165.6152447011918
 30
0.0
 40
0.5
100
AcDbArc
 50
180.0
 51
270.0
  0
LINE
  5
9724
330
1F
100
AcDbEntity
  8
AM_VIS
100
AcDbLine
 10
841.2506171972955
 20
165.1152447011918
 30
0.0
 11
841.2506171972955
 21
192.1152447011919
 31
0.0
  0
LINE
  5
9754
330
1F
100
AcDbEntity
  8
0
  6
Continuous
 62
     7
370
    15
100
AcDbLine
 10
841.2506177069152
 20
103.6469294135142
 30
0.0
 11
841.2506177069152
 21
121.0469296578933
 31
0.0
  0
LINE
  5
9755
330
1F
100
AcDbEntity
  8
AM_VIS
100
AcDbLine
 10
841.2506177069152
 20
103.8469295357037
 30
0.0
 11
841.2506177069152
 21
120.8469295357037
 31
0.0
  0
LINE
  5
9756
330
1F
100
AcDbEntity
  8
AM_VIS
100
AcDbLine
 10
831.6737161993454
 20
104.9261506802762
 30
0.0
 11
831.7660128018415
 21
104.9698652688838
 31
0.0
  0
LINE
  5
9757
330
1F
100
AcDbEntity
  8
AM_VIS
100
AcDbLine
 10
831.7660128018415
 20
106.7239938025229
 30
0.0
 11
831.6737161993453
 21
106.7677083911306
 31
0.0
  0
LINE
  5
9758
330
1F
100
AcDbEntity
  8
AM_VIS
100
AcDbLine
 10
832.8271661173825
 20
103.4189722147503
 30
0.0
 11
833.6506177069152
 21
103.3469295357038
 31
0.0
  0
LINE
  5
9759
330
1F
100
AcDbEntity
  8
AM_VIS
100
AcDbLine
 10
832.8271661173825
 20
108.2748868566573
 30
0.0
 11
833.6286287020639
 21
108.3450057470571
 31
0.0
  0
ELLIPSE
  5
975A
330
1F
100
AcDbEntity
  8
AM_VIS
100
AcDbEllipse
 10
834.7775323179073
 20
105.8469295357038
 30
0.0
 11
0.0
 21
-3.797925352447207
 31
0.0
210
0.0
220
0.0
230
1.0
 40
0.7878555911522268
 41
4.620366885744062
 42
4.80441107502531
  0
LINE
  5
975B
330
1F
100
AcDbEntity
  8
AM_VIS
100
AcDbLine
 10
831.797975800668
 20
107.1870331598601
 30
0.0
 11
831.7853155942021
 21
107.1969295357038
 31
0.0
  0
LINE
  5
975C
330
1F
100
AcDbEntity
  8
AM_VIS
100
AcDbLine
 10
831.7853155942021
 20
104.4969295357038
 30
0.0
 11
831.797975800668
 21
104.5068259115475
 31
0.0
  0
ARC
  5
975D
330
1F
100
AcDbEntity
  8
AM_VIS
100
AcDbCircle
 10
835.550617706915
 20
105.8469295357038
 30
0.0
 40
3.984745788629259
100
AcDbArc
 50
160.3478770841364
 51
166.6395752447173
  0
LINE
  5
975E
330
1F
100
AcDbEntity
  8
AM_VIS
100
AcDbLine
 10
831.6737161993449
 20
105.4979295357038
 30
0.0
 11
831.7979758006684
 21
105.4979295357038
 31
0.0
  0
ARC
  5
975F
330
1F
100
AcDbEntity
  8
AM_VIS
100
AcDbCircle
 10
835.550617706915
 20
105.8469295357038
 30
0.0
 40
3.984745788629259
100
AcDbArc
 50
193.3604247552941
 51
199.6521229158635
  0
LINE
  5
9760
330
1F
100
AcDbEntity
  8
AM_VIS
100
AcDbLine
 10
831.7979758006684
 20
106.1959295357038
 30
0.0
 11
831.6737161993453
 21
106.1959295357038
 31
0.0
  0
ELLIPSE
  5
9761
330
1F
100
AcDbEntity
  8
AM_VIS
100
AcDbEllipse
 10
835.183300135856
 20
106.6224638579004
 30
0.0
 11
3.529431858666831
 21
1.671650500098938
 31
0.0
210
0.0
220
0.0
230
1.0
 40
0.1282764997594527
 41
3.203083561053125
 42
3.361166884187238
  0
ELLIPSE
  5
9762
330
1F
100
AcDbEntity
  8
AM_VIS
100
AcDbEllipse
 10
835.1833001358556
 20
105.0713952135063
 30
0.0
 11
3.529431858666618
 21
-1.671650500098896
 31
0.0
210
0.0
220
0.0
230
1.0
 40
0.1282764997598366
 41
2.922018422992307
 42
3.080101746126575
  0
ELLIPSE
  5
9763
330
1F
100
AcDbEntity
  8
AM_VIS
100
AcDbEllipse
 10
835.1833001358555
 20
105.735935492472
 30
0.0
 11
1.129633334147969
 21
-3.738346314860829
 31
0.0
210
0.0
220
0.0
230
1.0
 40
0.8962897953664862
 41
4.509389004077959
 42
4.667472327212744
  0
ELLIPSE
  5
9764
330
1F
100
AcDbEntity
  8
AM_VIS
100
AcDbEllipse
 10
835.183300135856
 20
105.9579235789351
 30
0.0
 11
-1.129633334144913
 21
-3.738346314861969
 31
0.0
210
0.0
220
0.0
230
1.0
 40
0.8962897953665368
 41
4.757305633555944
 42
4.915388956690565
  0
ARC
  5
9765
330
1F
100
AcDbEntity
  8
AM_VIS
100
AcDbCircle
 10
832.91432186013
 20
104.415166912842
 30
0.0
 40
1.0
100
AcDbArc
 50
208.506223015159
 51
265.0000000000003
  0
ARC
  5
9766
330
1F
100
AcDbEntity
  8
AM_VIS
100
AcDbCircle
 10
832.91432186013
 20
107.2786921585656
 30
0.0
 40
0.9999999999999998
100
AcDbArc
 50
94.99999999999975
 51
151.493776984841
  0
ARC
  5
9767
330
1F
100
AcDbEntity
  8
AM_VIS
100
AcDbCircle
 10
835.550617706915
 20
105.8469295357038
 30
0.0
 40
4.0
100
AcDbArc
 50
199.7246335587018
 51
208.5062230151597
  0
ARC
  5
9768
330
1F
100
AcDbEntity
  8
AM_VIS
100
AcDbCircle
 10
835.550617706915
 20
105.8469295357038
 30
0.0
 40
4.0
100
AcDbArc
 50
151.4937769848402
 51
160.2753664412981
  0
LINE
  5
9769
330
1F
100
AcDbEntity
  8
AM_VIS
100
AcDbLine
 10
834.2506177069152
 20
103.269043283956
 30
0.0
 11
834.2506177069152
 21
103.248791557378
 31
0.0
  0
ELLIPSE
  5
976A
330
1F
100
AcDbEntity
  8
AM_VIS
100
AcDbEllipse
 10
833.9803149972498
 20
105.8469295357038
 30
0.0
 11
-7.143441290581794
 21
0.0000000000000091
 31
0.0
210
0.0
220
0.0
230
1.0
 40
0.3639702342662129
 41
1.524626078932947
 42
1.608644647235596
  0
ELLIPSE
  5
976B
330
1F
100
AcDbEntity
  8
AM_VIS
100
AcDbEllipse
 10
833.3209204165806
 20
105.8469295357038
 30
0.0
 11
-7.143441290581963
 21
0.0000000000000091
 31
0.0
210
0.0
220
0.0
230
1.0
 40
0.3639702342662044
 41
1.616966574656841
 42
1.70131354300112
  0
LINE
  5
976C
330
1F
100
AcDbEntity
  8
AM_VIS
100
AcDbLine
 10
834.2506177069152
 20
103.2469295357038
 30
0.0
 11
833.9803149972498
 21
103.2469295357038
 31
0.0
  0
LINE
  5
976D
330
1F
100
AcDbEntity
  8
AM_VIS
100
AcDbLine
 10
834.2506177069152
 20
108.3469295357038
 30
0.0
 11
834.2506177069152
 21
103.269043283956
 31
0.0
  0
LINE
  5
976E
330
1F
100
AcDbEntity
  8
AM_VIS
100
AcDbLine
 10
834.2506177069152
 20
103.248791557378
 30
0.0
 11
834.2506177069152
 21
103.2469295357038
 31
0.0
  0
LINE
  5
976F
330
1F
100
AcDbEntity
  8
AM_VIS
100
AcDbLine
 10
833.6506177069152
 20
108.3469295357038
 30
0.0
 11
833.6506177069152
 21
103.2497002427842
 31
0.0
  0
LINE
  5
9770
330
1F
100
AcDbEntity
  8
AM_VIS
100
AcDbLine
 10
834.7506177069151
 20
103.3469295357038
 30
0.0
 11
834.250617706915
 21
103.3469295357038
 31
0.0
  0
LINE
  5
9771
330
1F
100
AcDbEntity
  8
AM_VIS
100
AcDbLine
 10
833.6506177069152
 20
103.3469295357038
 30
0.0
 11
832.2506177069152
 21
103.3469295357038
 31
0.0
  0
LINE
  5
9772
330
1F
100
AcDbEntity
  8
AM_VIS
100
AcDbLine
 10
834.7506177069153
 20
103.3469295357038
 30
0.0
 11
841.2506177069152
 21
103.3469295357038
 31
0.0
  0
LINE
  5
9773
330
1F
100
AcDbEntity
  8
AM_VIS
100
AcDbLine
 10
834.7506177069153
 20
108.3469295357038
 30
0.0
 11
834.7506177069153
 21
103.8469295357038
 31
0.0
  0
LINE
  5
9774
330
1F
100
AcDbEntity
  8
AM_VIS
100
AcDbLine
 10
832.2506177069152
 20
108.3469295357038
 30
0.0
 11
834.7506177069153
 21
108.3469295357038
 31
0.0
  0
LINE
  5
9775
330
1F
100
AcDbEntity
  8
AM_VIS
100
AcDbLine
 10
841.2506177069152
 20
121.3469295357038
 30
0.0
 11
832.2506177069152
 21
121.3469295357038
 31
0.0
  0
ARC
  5
9776
330
1F
100
AcDbEntity
  8
AM_VIS
100
AcDbCircle
 10
832.2506177069152
 20
103.8469295357038
 30
0.0
 40
0.5000000000000015
100
AcDbArc
 50
180.0
 51
270.0
  0
LINE
  5
9777
330
1F
100
AcDbEntity
  8
AM_VIS
100
AcDbLine
 10
831.7506177069152
 20
105.7469295357038
 30
0.0
 11
831.7506177069152
 21
105.4979295357038
 31
0.0
  0
LINE
  5
9778
330
1F
100
AcDbEntity
  8
AM_VIS
100
AcDbLine
 10
831.7506177069152
 20
105.0365250774223
 30
0.0
 11
831.7506177069152
 21
104.9625736652601
 31
0.0
  0
LINE
  5
9779
330
1F
100
AcDbEntity
  8
AM_VIS
100
AcDbLine
 10
831.7506177069152
 20
104.6476801871526
 30
0.0
 11
831.7506177069152
 21
103.8469295357039
 31
0.0
  0
ARC
  5
977A
330
1F
100
AcDbEntity
  8
AM_VIS
100
AcDbCircle
 10
832.2506177069152
 20
108.8469295357038
 30
0.0
 40
0.5000000000000013
100
AcDbArc
 50
180.0
 51
270.0
  0
LINE
  5
977B
330
1F
100
AcDbEntity
  8
AM_VIS
100
AcDbLine
 10
831.7506177069152
 20
120.8469295357038
 30
0.0
 11
831.7506177069152
 21
108.8469295357038
 31
0.0
  0
LINE
  5
977C
330
1F
100
AcDbEntity
  8
AM_VIS
100
AcDbLine
 10
841.2506177069152
 20
103.3469299231339
 30
0.0
 11
841.2506177069152
 21
121.3469295357038
 31
0.0
  0
LINE
  5
977D
330
1F
100
AcDbEntity
  8
AM_VIS
100
AcDbLine
 10
834.7506177069153
 20
103.3469295357038
 30
0.0
 11
834.7506177069153
 21
103.8469295357038
 31
0.0
  0
LINE
  5
977E
330
1F
100
AcDbEntity
  8
AM_VIS
100
AcDbLine
 10
831.7506177069152
 20
108.8469295357038
 30
0.0
 11
831.7506177069152
 21
107.046178884255
 31
0.0
  0
LINE
  5
977F
330
1F
100
AcDbEntity
  8
AM_VIS
100
AcDbLine
 10
831.7506177069152
 20
106.7312854061475
 30
0.0
 11
831.7506177069152
 21
106.6573339939853
 31
0.0
  0
LINE
  5
9780
330
1F
100
AcDbEntity
  8
AM_VIS
100
AcDbLine
 10
831.7506177069152
 20
106.1959295357038
 30
0.0
 11
831.7506177069152
 21
105.7469295357038
 31
0.0
  0
ARC
  5
9781
330
1F
100
AcDbEntity
  8
AM_VIS
100
AcDbCircle
 10
832.2506177069152
 20
120.8469295357038
 30
0.0
 40
0.5
100
AcDbArc
 50
90.0
 51
180.0
  0
ENDSEC
  0
SECTION
  2
OBJECTS
  0
DICTIONARY
  5
C
330
0
100
AcDbDictionary
281
     1
  3
ACAD_COLOR
350
BE
  3
ACAD_GROUP
350
D
  3
ACAD_LAYOUT
350
1A
  3
ACAD_MATERIAL
350
BD
  3
ACAD_MLINESTYLE
350
17
  3
ACAD_PLOTSETTINGS
350
19
  3
ACAD_PLOTSTYLENAME
350
E
  3
ACAD_TABLESTYLE
350
11A
  3
ACDBHEADERROUNDTRIPXREC
350
98AC
  3
AcDbVariableDictionary
350
94
  3
AcmDictionary
350
5B
  3
AMG
350
41
  3
AMGSNAPSETTINGS
350
1B8
  3
DWGPROPS
350
98AB
  3
MAPISURF_MODULE
350
8786
  0
DICTIONARY
  5
3F9
330
2
100
AcDbDictionary
280
     1
281
     1
  3
ACAD_LAYERFILTERS
360
5C3B
  3
ACAD_LAYERSTATES
360
ACD
  3
ACLYDICTIONARY
360
5C3A
  0
DICTIONARY
  5
8F
330
1F
100
AcDbDictionary
280
     1
281
     1
  3
ACAD_INDEX
360
961B
  0
DICTIONARY
  5
BE
102
{ACAD_REACTORS
330
C
102
}
330
C
100
AcDbDictionary
281
     1
  0
DICTIONARY
  5
D
102
{ACAD_REACTORS
330
C
102
}
330
C
100
AcDbDictionary
281
     1
  0
DICTIONARY
  5
1A
102
{ACAD_REACTORS
330
C
102
}
330
C
100
AcDbDictionary
281
     1
  3
Model
350
22
  3
配置1
350
1E
  3
配置2
350
26
  0
DICTIONARY
  5
BD
102
{ACAD_REACTORS
330
C
102
}
330
C
100
AcDbDictionary
281
     1
  0
DICTIONARY
  5
17
102
{ACAD_REACTORS
330
C
102
}
330
C
100
AcDbDictionary
281
     1
  3
Standard
350
18
  0
DICTIONARY
  5
19
102
{ACAD_REACTORS
330
C
102
}
330
C
100
AcDbDictionary
281
     1
  0
ACDBDICTIONARYWDFLT
  5
E
102
{ACAD_REACTORS
330
C
102
}
330
C
100
AcDbDictionary
281
     1
  3
Normal
350
F
100
AcDbDictionaryWithDefault
340
F
  0
DICTIONARY
  5
11A
102
{ACAD_REACTORS
330
C
102
}
330
C
100
AcDbDictionary
281
     1
  3
Standard
350
11B
  0
DICTIONARY
  5
98AC
102
{ACAD_REACTORS
330
C
102
}
330
C
100
AcDbDictionary
281
     1
  0
DICTIONARY
  5
94
102
{ACAD_REACTORS
330
C
102
}
330
C
100
AcDbDictionary
281
     1
  3
CTABLESTYLE
350
138
  3
DIMASSOC
350
96
  3
INDEXCTL
350
95
  3
PROJECTNAME
350
86F7
  0
DICTIONARY
  5
5B
102
{ACAD_REACTORS
330
C
102
}
330
C
100
AcDbDictionary
281
     1
  3
AcmBOM
350
1B5
  3
AcmStdDictionary
350
61
  3
AMDTSECTSYM_ARROWCOLOR
350
123
  0
DICTIONARY
  5
41
102
{ACAD_REACTORS
330
C
102
}
330
C
100
AcDbDictionary
281
     1
  3
AcMgSettings
350
8700
  0
DICTIONARY
  5
1B8
102
{ACAD_REACTORS
330
C
102
}
330
C
100
AcDbDictionary
281
     1
  0
XRECORD
  5
98AB
102
{ACAD_REACTORS
330
C
102
}
330
C
100
AcDbXrecord
280
     1
  1
DWGPROPS COOKIE
  2

  3

  4

  6

  7

  8

  9

300
AmdtFileType=84
301
=
302
=
303
=
304
=
305
=
306
=
307
=
308
=
309
=
 40
0.1696547800925926
 41
2454404.589585683
 42
2456883.589967257
  1

 90
        1
  0
DICTIONARY
  5
5C3B
102
{ACAD_REACTORS
330
3F9
102
}
330
3F9
100
AcDbDictionary
281
     1
  0
DICTIONARY
  5
ACD
102
{ACAD_REACTORS
330
3F9
102
}
330
3F9
100
AcDbDictionary
281
     1
  0
DICTIONARY
  5
5C3A
102
{ACAD_REACTORS
330
3F9
102
}
330
3F9
100
AcDbDictionary
281
     1
1001
ACAD
1000
<All
  0
DICTIONARY
  5
961B
102
{ACAD_REACTORS
330
8F
102
}
330
8F
100
AcDbDictionary
281
     1
  3
*A1
350
961C
  0
LAYOUT
  5
22
102
{ACAD_XDICTIONARY
360
98AF
102
}
102
{ACAD_REACTORS
330
1A
102
}
330
1A
100
AcDbPlotSettings
  1

  2
\\RD\EPSON Stylus C63 Series單色
  4
A4
  6

 40
3.757083177566528
 41
3.757076978683471
 42
3.757080078125
 43
3.757080078125
 44
209.9733276367187
 45
296.9683227539062
 46
0.0
 47
0.0
 48
0.0
 49
0.0
140
0.0
141
0.0
142
1.0
143
0.3405120737814363
 70
 11952
 72
     1
 73
     0
 74
     0
  7
彩色出圖.ctb
 75
     0
147
2.936753428137963
148
-2047.07469463503
149
-1261.649717473083
100
AcDbLayout
  1
Model
 70
     1
 71
     0
 10
0.0
 20
0.0
 11
12.0
 21
9.0
 12
0.0
 22
0.0
 32
0.0
 14
0.0
 24
0.0
 34
0.0
 15
0.0
 25
0.0
 35
0.0
146
0.0
 13
0.0
 23
0.0
 33
0.0
 16
1.0
 26
0.0
 36
0.0
 17
0.0
 27
1.0
 37
0.0
 76
     0
330
1F
1001
ACAD_PSEXT
1000
\\RD\EPSON Stylus C63 Series單色
1000
EPSON Stylus C63 Series
1000
\\RD
1000

1070
     0
  0
LAYOUT
  5
1E
102
{ACAD_XDICTIONARY
360
98AD
102
}
102
{ACAD_REACTORS
330
1A
102
}
330
1A
100
AcDbPlotSettings
  1

  2

  4

  6

 40
0.0
 41
0.0
 42
0.0
 43
0.0
 44
0.0
 45
0.0
 46
0.0
 47
0.0
 48
0.0
 49
0.0
140
0.0
141
0.0
142
1.0
143
1.0
 70
   688
 72
     0
 73
     0
 74
     5
  7
彩色出圖.ctb
 75
    16
147
1.0
148
0.0
149
0.0
100
AcDbLayout
  1
配置1
 70
     1
 71
     1
 10
0.0
 20
0.0
 11
420.0
 21
297.0
 12
0.0
 22
0.0
 32
0.0
 14
1.000000000000000E+20
 24
1.000000000000000E+20
 34
1.000000000000000E+20
 15
-1.000000000000000E+20
 25
-1.000000000000000E+20
 35
-1.000000000000000E+20
146
0.0
 13
0.0
 23
0.0
 33
0.0
 16
1.0
 26
0.0
 36
0.0
 17
0.0
 27
1.0
 37
0.0
 76
     0
330
1B
  0
LAYOUT
  5
26
102
{ACAD_XDICTIONARY
360
98B1
102
}
102
{ACAD_REACTORS
330
1A
102
}
330
1A
100
AcDbPlotSettings
  1

  2

  4

  6

 40
0.0
 41
0.0
 42
0.0
 43
0.0
 44
0.0
 45
0.0
 46
0.0
 47
0.0
 48
0.0
 49
0.0
140
0.0
141
0.0
142
1.0
143
1.0
 70
   688
 72
     0
 73
     0
 74
     5
  7
彩色出圖.ctb
 75
    16
147
1.0
148
0.0
149
0.0
100
AcDbLayout
  1
配置2
 70
     1
 71
     2
 10
0.0
 20
0.0
 11
12.0
 21
9.0
 12
0.0
 22
0.0
 32
0.0
 14
0.0
 24
0.0
 34
0.0
 15
0.0
 25
0.0
 35
0.0
146
0.0
 13
0.0
 23
0.0
 33
0.0
 16
1.0
 26
0.0
 36
0.0
 17
0.0
 27
1.0
 37
0.0
 76
     0
330
23
  0
MLINESTYLE
  5
18
102
{ACAD_REACTORS
330
17
102
}
330
17
100
AcDbMlineStyle
  2
STANDARD
 70
     0
  3

 62
   256
 51
90.0
 52
90.0
 71
     2
 49
0.5
 62
   256
  6
BYLAYER
 49
-0.5
 62
   256
  6
BYLAYER
  0
ACDBPLACEHOLDER
  5
F
102
{ACAD_REACTORS
330
E
102
}
330
E
  0
TABLESTYLE
  5
11B
102
{ACAD_REACTORS
330
11A
102
}
330
11A
100
AcDbTableStyle
  3
Standard
 70
     0
 71
     0
 40
1.5
 41
1.5
280
     0
281
     0
  7
STANDARD
140
4.5
170
     2
 62
     0
 63
     7
283
     0
274
    -2
284
     1
 64
     0
275
    -2
285
     1
 65
     0
276
    -2
286
     1
 66
     0
277
    -2
287
     1
 67
     0
278
    -2
288
     1
 68
     0
279
    -2
289
     1
 69
     0
  7
STANDARD
140
6.0
170
     5
 62
     0
 63
     7
283
     0
274
    -2
284
     1
 64
     0
275
    -2
285
     1
 65
     0
276
    -2
286
     1
 66
     0
277
    -2
287
     1
 67
     0
278
    -2
288
     1
 68
     0
279
    -2
289
     1
 69
     0
  7
STANDARD
140
4.5
170
     5
 62
     0
 63
     7
283
     0
274
    -2
284
     1
 64
     0
275
    -2
285
     1
 65
     0
276
    -2
286
     1
 66
     0
277
    -2
287
     1
 67
     0
278
    -2
288
     1
 68
     0
279
    -2
289
     1
 69
     0
  0
DICTIONARYVAR
  5
138
102
{ACAD_REACTORS
330
94
102
}
330
94
100
DictionaryVariables
280
     0
  1
STANDARD
  0
DICTIONARYVAR
  5
96
102
{ACAD_REACTORS
330
94
102
}
330
94
100
DictionaryVariables
280
     0
  1
2
  0
DICTIONARYVAR
  5
95
102
{ACAD_REACTORS
330
94
102
}
330
94
100
DictionaryVariables
280
     0
  1
1
  0
DICTIONARYVAR
  5
86F7
102
{ACAD_REACTORS
330
94
102
}
330
94
100
DictionaryVariables
280
     0
  1

  0
DICTIONARY
  5
1B5
102
{ACAD_REACTORS
330
5B
102
}
330
5B
100
AcDbDictionary
281
     1
  0
DICTIONARY
  5
61
102
{ACAD_REACTORS
330
5B
102
}
330
5B
100
AcDbDictionary
281
     1
  0
XRECORD
  5
123
102
{ACAD_REACTORS
330
5B
102
}
330
5B
100
AcDbXrecord
280
     1
 90
-1023410169
  0
DICTIONARY
  5
8700
102
{ACAD_REACTORS
330
41
102
}
330
41
100
AcDbDictionary
281
     1
  3
DWGSETTINGS
350
8701
  3
TRANSSETTINGS
350
8704
  0
LAYER_INDEX
  5
961C
102
{ACAD_REACTORS
330
961B
102
}
330
961B
100
AcDbIndex
 40
2456883.589967257
100
AcDbLayerIndex
  8
0
360
961D
 90
      669
  8
AM_VIS
360
961E
 90
      141
  8
AM_7
360
961F
 90
       48
  8
AM_5
360
9620
 90
       23
  8
Defpoints
360
9621
 90
        0
  8
LOGO
360
9622
 90
      146
  0
DICTIONARY
  5
98AF
330
22
100
AcDbDictionary
280
     1
281
     1
  3
ACAD_XREC_ROUNDTRIP
360
98B0
  0
DICTIONARY
  5
98AD
330
1E
100
AcDbDictionary
280
     1
281
     1
  3
ACAD_XREC_ROUNDTRIP
360
98AE
  0
DICTIONARY
  5
98B1
330
26
100
AcDbDictionary
280
     1
281
     1
  3
ACAD_XREC_ROUNDTRIP
360
98B2
  0
IDBUFFER
  5
961D
330
0
100
AcDbIdBuffer
330
6305
330
6306
330
6307
330
8CC9
330
8CCA
330
8CCB
330
8CCC
330
8CCD
330
8CCE
330
8CCF
330
8CD0
330
8CD1
330
8CD2
330
8CD3
330
8CD4
330
8CD5
330
8CD6
330
8CD7
330
8CD8
330
8CD9
330
8CEA
330
8CEB
330
8CEC
330
8CED
330
8CEE
330
8CEF
330
8CF0
330
8CF1
330
8CF2
330
8CF3
330
8CF4
330
8CF5
330
8CF6
330
8CF7
330
8CF8
330
8CF9
330
8CFC
330
8CFD
330
8CFE
330
8CFF
330
8D00
330
8D01
330
8D02
330
8D08
330
8D09
330
8D0A
330
8D0B
330
8D0C
330
8D0D
330
8D0E
330
8D0F
330
8D10
330
8D11
330
8D12
330
8D13
330
8D14
330
8D15
330
8D16
330
8D18
330
8D19
330
8D1A
330
8D1B
330
8D1C
330
8D1D
330
8D1E
330
8D1F
330
8D20
330
8D2E
330
8D39
330
8D3A
330
8D3B
330
8D3C
330
8D3D
330
8D3E
330
8D3F
330
8D40
330
8D41
330
8D42
330
8D43
330
8D44
330
8D45
330
8D46
330
8D47
330
8D48
330
8D49
330
8D4B
330
8D4C
330
8D4D
330
8D4E
330
8D4F
330
8D50
330
8D51
330
8D8B
330
8D8C
330
8D8D
330
8D8E
330
8D8F
330
8D90
330
8D91
330
8D92
330
8D93
330
8D94
330
8D95
330
8D96
330
8D98
330
8D99
330
8D9A
330
8D9B
330
8D9C
330
8D9D
330
8D9E
330
8D9F
330
8DA0
330
8DA1
330
8DA2
330
8DA3
330
8DA4
330
8DA5
330
8DA6
330
8DA7
330
8DA8
330
8DA9
330
8DAA
330
8DAB
330
8DAC
330
8DAD
330
8DAE
330
8DAF
330
8DB0
330
8DB1
330
8DB2
330
8DB3
330
8DB4
330
8DB5
330
8DB6
330
8DB7
330
8DB8
330
8DB9
330
8DBA
330
8DBB
330
8DBC
330
8DBD
330
8DBE
330
8DBF
330
8DCF
330
8DD0
330
8DD1
330
8DD3
330
8DD4
330
8DD5
330
8DD6
330
8DD7
330
8DD8
330
8DD9
330
8DDA
330
8DDB
330
8DDC
330
8DDD
330
8DDE
330
8DDF
330
8DE0
330
8DE1
330
8DE2
330
8DE4
330
8DE5
330
8DEC
330
8DED
330
8DEE
330
8DEF
330
8DF0
330
8DF1
330
8DF2
330
8DF3
330
8DF4
330
8DF5
330
8DF6
330
8DF9
330
8DFA
330
8DFB
330
8DFC
330
8DFD
330
8DFE
330
8DFF
330
8E2C
330
8E2D
330
8E2F
330
8E30
330
8E32
330
8E33
330
8E35
330
8E36
330
8E38
330
8E39
330
8E3B
330
8E3C
330
8E3E
330
8E3F
330
8E41
330
8E42
330
8E43
330
8E45
330
8E47
330
8E48
330
8E4A
330
8E4B
330
8E4D
330
8E4E
330
8E4F
330
8E50
330
8E51
330
8E53
330
8E55
330
8E57
330
8E58
330
8E59
330
8E5A
330
8E5B
330
8E5C
330
8E5D
330
8E5E
330
8E5F
330
8E60
330
8E61
330
8E62
330
8E63
330
8E64
330
8E65
330
8E66
330
8E67
330
8E68
330
8E69
330
8E6A
330
8E6B
330
8E6C
330
8E6D
330
8E6E
330
8E6F
330
8E88
330
8E89
330
8E8A
330
8E8B
330
8E8C
330
8E8D
330
8E8E
330
8E8F
330
8E91
330
8E92
330
8E93
330
8E94
330
8E95
330
8E96
330
8E97
330
8E98
330
8E99
330
8E9A
330
8E9B
330
8E9C
330
8E9D
330
8E9E
330
8EA3
330
8EA4
330
8EA5
330
8EA6
330
8EA7
330
8EA8
330
8EA9
330
8EAA
330
8EAB
330
8EB1
330
8EB2
330
8EB4
330
8EB5
330
8EB6
330
8EB7
330
8EB8
330
8EB9
330
8EBA
330
8EBB
330
8EBC
330
8EBD
330
8EBE
330
8EBF
330
8EC0
330
8EC1
330
8EC2
330
8EC3
330
8EC4
330
8EC5
330
8EC6
330
8EC7
330
8EE0
330
8EE1
330
8EE2
330
8EE3
330
8EE4
330
8EE5
330
8EE6
330
8EE7
330
8EE8
330
8EE9
330
8EEA
330
8EEB
330
8EEC
330
8EED
330
8EEE
330
8EEF
330
8EF0
330
8EF1
330
8F0A
330
8F0B
330
8F0C
330
8F0D
330
8F0E
330
8F0F
330
8F10
330
8F11
330
8F12
330
8F13
330
8F14
330
8F15
330
8F16
330
8F17
330
8F18
330
8F1A
330
8F1B
330
8F1C
330
8F1D
330
8F1E
330
8F1F
330
8F20
330
8F21
330
8F22
330
8F23
330
8F24
330
8F25
330
8F26
330
8F27
330
8F28
330
8F29
330
8F2A
330
8F2B
330
8F2C
330
8F2D
330
8F2E
330
8F2F
330
8F30
330
8F31
330
8F33
330
8F34
330
8F35
330
8F36
330
8F37
330
8F39
330
8F41
330
8F42
330
8F43
330
8F44
330
8F77
330
8F78
330
8F79
330
8F7A
330
8F7B
330
8F7C
330
8F7D
330
8F7E
330
8F7F
330
8F80
330
8F81
330
8F82
330
8F83
330
8F84
330
8F85
330
8F86
330
8F87
330
8F88
330
8F89
330
8F8A
330
8F8B
330
8F8C
330
8F8D
330
8F8E
330
8F8F
330
8F90
330
8F91
330
8F92
330
8F93
330
8F94
330
8F95
330
8F96
330
8F97
330
8F98
330
8F99
330
8F9A
330
8F9B
330
8F9C
330
8F9D
330
8F9E
330
8F9F
330
8FA0
330
8FA1
330
8FA2
330
8FA3
330
8FA4
330
8FA5
330
8FA6
330
8FA7
330
8FA8
330
8FA9
330
8FAA
330
8FAB
330
8FAC
330
8FAD
330
8FAE
330
8FAF
330
8FB0
330
8FB2
330
8FB3
330
8FB4
330
8FB5
330
8FB6
330
8FB7
330
8FB8
330
8FB9
330
8FBA
330
8FBB
330
8FBC
330
8FBD
330
8FBE
330
8FC6
330
8FC7
330
8FCA
330
8FCD
330
8FCF
330
8FD1
330
8FD2
330
8FD3
330
8FD4
330
8FD9
330
901D
330
901E
330
901F
330
9020
330
9021
330
9024
330
9025
330
9026
330
9027
330
9028
330
9029
330
902A
330
902B
330
902C
330
902D
330
902E
330
902F
330
9030
330
9031
330
903E
330
903F
330
9040
330
9041
330
9042
330
9043
330
9044
330
9045
330
9046
330
9047
330
9048
330
9049
330
904E
330
904F
330
9050
330
9051
330
9052
330
9053
330
9054
330
9055
330
905A
330
905B
330
905C
330
905D
330
905E
330
905F
330
9061
330
9062
330
9063
330
9064
330
9065
330
9066
330
9067
330
9068
330
9069
330
906A
330
906B
330
906C
330
906D
330
906E
330
906F
330
9070
330
9071
330
9089
330
908A
330
908B
330
908C
330
908D
330
908E
330
908F
330
9090
330
9091
330
9092
330
9093
330
9094
330
9095
330
9096
330
9097
330
9098
330
909A
330
909C
330
909E
330
909F
330
90A0
330
90E1
330
90E2
330
90E3
330
90E4
330
90E5
330
90E6
330
90E7
330
90E8
330
90E9
330
90EA
330
90EB
330
90EC
330
90ED
330
90EE
330
90EF
330
90F0
330
90F1
330
90F2
330
90F3
330
90F4
330
90F5
330
90F6
330
90F7
330
90F8
330
90F9
330
90FA
330
90FB
330
90FC
330
90FD
330
90FE
330
90FF
330
9100
330
9101
330
9102
330
9103
330
9104
330
9105
330
9106
330
9107
330
9108
330
9109
330
910A
330
910B
330
910C
330
910D
330
910E
330
910F
330
9110
330
9111
330
9112
330
9113
330
9114
330
9115
330
911F
330
9120
330
9121
330
9122
330
9123
330
9124
330
9125
330
9126
330
9127
330
9129
330
912A
330
912B
330
912C
330
912D
330
912E
330
912F
330
9130
330
9131
330
9134
330
9136
330
9137
330
9138
330
913D
330
913E
330
913F
330
9144
330
9145
330
9146
330
9179
330
917A
330
917B
330
917C
330
917D
330
917E
330
917F
330
9180
330
9181
330
9182
330
9183
330
9184
330
9185
330
9186
330
9187
330
9188
330
9189
330
918A
330
918B
330
918C
330
918D
330
918E
330
918F
330
9190
330
9191
330
9192
330
9193
330
9194
330
9195
330
9196
330
9197
330
9198
330
9199
330
919A
330
919B
330
919C
330
919D
330
919E
330
919F
330
91A0
330
91A1
330
91A2
330
91A3
330
91A4
330
91A5
330
91A6
330
91A7
330
91A8
330
91A9
330
91AA
330
91AB
330
91AD
330
91AE
330
91AF
330
91B0
330
928B
330
928D
330
928E
330
928F
330
9290
330
9291
330
9292
330
9293
330
9294
330
92A1
330
92A2
330
9754
  0
IDBUFFER
  5
961E
330
0
100
AcDbIdBuffer
330
9295
330
9296
330
929F
330
92A0
330
9625
330
9629
330
962A
330
962B
330
962C
330
962D
330
962E
330
962F
330
9630
330
9631
330
9632
330
9633
330
9634
330
9635
330
9636
330
9637
330
9638
330
9639
330
963A
330
963B
330
963C
330
963D
330
963E
330
963F
330
9640
330
9641
330
9642
330
9643
330
9644
330
9645
330
9646
330
9647
330
9648
330
9649
330
964A
330
964B
330
964C
330
964D
330
964E
330
964F
330
9650
330
9651
330
9652
330
9653
330
9654
330
96F4
330
96F5
330
96F6
330
96F7
330
96F8
330
96F9
330
96FA
330
96FB
330
96FC
330
96FD
330
96FE
330
96FF
330
9700
330
9701
330
9702
330
9703
330
9704
330
9705
330
9706
330
9707
330
9708
330
9709
330
970A
330
970B
330
970C
330
970D
330
970E
330
970F
330
9710
330
9711
330
9712
330
9713
330
9714
330
9715
330
9716
330
9717
330
9718
330
9719
330
971A
330
971B
330
971C
330
971D
330
971E
330
971F
330
9720
330
9721
330
9724
330
9755
330
9756
330
9757
330
9758
330
9759
330
975A
330
975B
330
975C
330
975D
330
975E
330
975F
330
9760
330
9761
330
9762
330
9763
330
9764
330
9765
330
9766
330
9767
330
9768
330
9769
330
976A
330
976B
330
976C
330
976D
330
976E
330
976F
330
9770
330
9771
330
9772
330
9773
330
9774
330
9775
330
9776
330
9777
330
9778
330
9779
330
977A
330
977B
330
977C
330
977D
330
977E
330
977F
330
9780
330
9781
  0
IDBUFFER
  5
961F
330
0
100
AcDbIdBuffer
330
925A
330
925B
330
925C
330
925D
330
925E
330
925F
330
9260
330
9261
330
9262
330
9263
330
9264
330
9265
330
9266
330
9267
330
9268
330
9269
330
926A
330
926B
330
926C
330
926D
330
926E
330
926F
330
9270
330
9271
330
9272
330
9273
330
9274
330
9275
330
9276
330
9277
330
9278
330
9279
330
927A
330
927B
330
9280
330
9281
330
9282
330
9283
330
9288
330
9289
330
9297
330
9298
330
9299
330
929A
330
929B
330
929C
330
929D
330
929E
  0
IDBUFFER
  5
9620
330
0
100
AcDbIdBuffer
330
38B1
330
38D7
330
38FD
330
3927
330
394D
330
39C3
330
3A0F
330
3A71
330
3A8C
330
3A8E
330
3CC2
330
3CC3
330
3CD8
330
3D16
330
3DA4
330
4789
330
9378
330
93B4
330
93B7
330
93B8
330
93B9
330
93BA
330
93BB
  0
IDBUFFER
  5
9621
330
0
100
AcDbIdBuffer
  0
IDBUFFER
  5
9622
330
0
100
AcDbIdBuffer
330
625E
330
625F
330
6260
330
6261
330
6262
330
6263
330
6264
330
6265
330
6266
330
6267
330
6268
330
6269
330
626A
330
626B
330
626C
330
626D
330
626E
330
626F
330
6270
330
6271
330
6272
330
6273
330
6274
330
6275
330
6276
330
6277
330
627B
330
627F
330
6280
330
6284
330
6285
330
6286
330
6287
330
6288
330
6289
330
628A
330
628B
330
628F
330
6293
330
6297
330
6298
330
6299
330
629D
330
629E
330
629F
330
62A0
330
62A1
330
62A2
330
62A3
330
62A4
330
62A5
330
62A6
330
62A7
330
62A8
330
62A9
330
62AA
330
62AB
330
62AC
330
62AD
330
62AE
330
62AF
330
62B0
330
62B1
330
62B2
330
62B3
330
62B4
330
62B5
330
62B6
330
62B7
330
62B8
330
62B9
330
62BA
330
62BB
330
62BC
330
62BD
330
62BE
330
62BF
330
62C0
330
62C1
330
62C2
330
62C3
330
62C4
330
62C5
330
62C6
330
62C7
330
62C8
330
62C9
330
62CA
330
62CB
330
62CC
330
62CD
330
62CE
330
62CF
330
62D0
330
62D1
330
62D2
330
62D3
330
62D4
330
62D5
330
62D6
330
62D7
330
62D8
330
62D9
330
62DA
330
62DB
330
62DC
330
62DD
330
62DE
330
62DF
330
62E0
330
62E1
330
62E2
330
62E3
330
62E4
330
62E5
330
62E6
330
62E7
330
62E8
330
62E9
330
62EA
330
62EB
330
62EC
330
62ED
330
62EE
330
62EF
330
62F0
330
62F1
330
62F2
330
62F3
330
62F4
330
62F5
330
62F6
330
62F7
330
62F8
330
62F9
330
62FA
330
62FB
330
62FC
330
62FD
330
62FE
330
62FF
330
6300
330
6301
330
6302
330
6303
330
6304
  0
XRECORD
  5
98B0
102
{ACAD_REACTORS
330
98AF
102
}
330
98AF
100
AcDbXrecord
280
     1
102
SHADEPLOT
 70
     0
102
SHADEPLOTRESLEVEL
 70
     2
102
SHADEPLOTCUSTOMDPI
 70
   300
  0
XRECORD
  5
98AE
102
{ACAD_REACTORS
330
98AD
102
}
330
98AD
100
AcDbXrecord
280
     1
102
SHADEPLOT
 70
     0
102
SHADEPLOTRESLEVEL
 70
     2
102
SHADEPLOTCUSTOMDPI
 70
   300
  0
XRECORD
  5
98B2
102
{ACAD_REACTORS
330
98B1
102
}
330
98B1
100
AcDbXrecord
280
     1
102
SHADEPLOT
 70
     0
102
SHADEPLOTRESLEVEL
 70
     2
102
SHADEPLOTCUSTOMDPI
 70
   300
  0
ENDSEC
  0
EOF
