  0
SECTION
  2
HEADER
  9
$ACADVER
  1
AC1015
  9
$ACADMAINTVER
 70
    20
  9
$DWGCODEPAGE
  3
ANSI_950
  9
$INSBASE
 10
0.0
 20
0.0
 30
0.0
  9
$EXTMIN
 10
109.8641978831313
 20
93.87769098546504
 30
-0.0092160318786227
  9
$EXTMAX
 10
324.3310555540154
 20
329.3760938137903
 30
151.0490558709117
  9
$LIMMIN
 10
0.0
 20
0.0
  9
$LIMMAX
 10
420.0
 20
297.0
  9
$ORTHOMODE
 70
     1
  9
$REGENMODE
 70
     1
  9
$FILLMODE
 70
     1
  9
$QTEXTMODE
 70
     0
  9
$MIRRTEXT
 70
     1
  9
$LTSCALE
 40
1.0
  9
$ATTMODE
 70
     1
  9
$TEXTSIZE
 40
3.5
  9
$TRACEWID
 40
1.0
  9
$TEXTSTYLE
  7
STANDARD
  9
$CLAYER
  8
0
  9
$CELTYPE
  6
ByLayer
  9
$CECOLOR
 62
   256
  9
$CELTSCALE
 40
1.0
  9
$DISPSILH
 70
     0
  9
$DIMSCALE
 40
1.0
  9
$DIMASZ
 40
3.0
  9
$DIMEXO
 40
1.0
  9
$DIMDLI
 40
8.0
  9
$DIMRND
 40
0.0
  9
$DIMDLE
 40
0.0
  9
$DIMEXE
 40
1.5
  9
$DIMTP
 40
0.1
  9
$DIMTM
 40
0.1
  9
$DIMTXT
 40
3.5
  9
$DIMCEN
 40
3.0
  9
$DIMTSZ
 40
0.0
  9
$DIMTOL
 70
     0
  9
$DIMLIM
 70
     0
  9
$DIMTIH
 70
     0
  9
$DIMTOH
 70
     0
  9
$DIMSE1
 70
     0
  9
$DIMSE2
 70
     0
  9
$DIMTAD
 70
     1
  9
$DIMZIN
 70
     8
  9
$DIMBLK
  1

  9
$DIMASO
 70
     1
  9
$DIMSHO
 70
     1
  9
$DIMPOST
  1

  9
$DIMAPOST
  1
"
  9
$DIMALT
 70
     0
  9
$DIMALTD
 70
     2
  9
$DIMALTF
 40
0.0393701
  9
$DIMLFAC
 40
1.0
  9
$DIMTOFL
 70
     1
  9
$DIMTVP
 40
0.0
  9
$DIMTIX
 70
     0
  9
$DIMSOXD
 70
     0
  9
$DIMSAH
 70
     0
  9
$DIMBLK1
  1

  9
$DIMBLK2
  1

  9
$DIMSTYLE
  2
AM_ISO
  9
$DIMCLRD
 70
   256
  9
$DIMCLRE
 70
   256
  9
$DIMCLRT
 70
   256
  9
$DIMTFAC
 40
0.71
  9
$DIMGAP
 40
0.8
  9
$DIMJUST
 70
     0
  9
$DIMSD1
 70
     0
  9
$DIMSD2
 70
     0
  9
$DIMTOLJ
 70
     0
  9
$DIMTZIN
 70
     8
  9
$DIMALTZ
 70
     0
  9
$DIMALTTZ
 70
     0
  9
$DIMUPT
 70
     0
  9
$DIMDEC
 70
     2
  9
$DIMTDEC
 70
     8
  9
$DIMALTU
 70
     2
  9
$DIMALTTD
 70
     2
  9
$DIMTXSTY
  7
STANDARD
  9
$DIMAUNIT
 70
     0
  9
$DIMADEC
 70
     0
  9
$DIMALTRND
 40
0.0
  9
$DIMAZIN
 70
     2
  9
$DIMDSEP
 70
    46
  9
$DIMATFIT
 70
     3
  9
$DIMFRAC
 70
     0
  9
$DIMLDRBLK
  1

  9
$DIMLUNIT
 70
     2
  9
$DIMLWD
 70
    -1
  9
$DIMLWE
 70
    -1
  9
$DIMTMOVE
 70
     0
  9
$LUNITS
 70
     2
  9
$LUPREC
 70
     2
  9
$SKETCHINC
 40
1.0
  9
$FILLETRAD
 40
2.5
  9
$AUNITS
 70
     0
  9
$AUPREC
 70
     0
  9
$MENU
  1
.
  9
$ELEVATION
 40
0.0
  9
$PELEVATION
 40
0.0
  9
$THICKNESS
 40
0.0
  9
$LIMCHECK
 70
     0
  9
$CHAMFERA
 40
2.5
  9
$CHAMFERB
 40
2.5
  9
$CHAMFERC
 40
20.0
  9
$CHAMFERD
 40
0.0
  9
$SKPOLY
 70
     0
  9
$TDCREATE
 40
2453021.369367211
  9
$TDUCREATE
 40
2453021.036033877
  9
$TDUPDATE
 40
2453514.588048855
  9
$TDUUPDATE
 40
2453514.254715521
  9
$TDINDWG
 40
0.4072546296
  9
$TDUSRTIMER
 40
0.4072542824
  9
$USRTIMER
 70
     1
  9
$ANGBASE
 50
0.0
  9
$ANGDIR
 70
     0
  9
$PDMODE
 70
     0
  9
$PDSIZE
 40
0.0
  9
$PLINEWID
 40
0.0
  9
$SPLFRAME
 70
     0
  9
$SPLINETYPE
 70
     6
  9
$SPLINESEGS
 70
     8
  9
$HANDSEED
  5
2CB1
  9
$SURFTAB1
 70
     6
  9
$SURFTAB2
 70
     6
  9
$SURFTYPE
 70
     6
  9
$SURFU
 70
     6
  9
$SURFV
 70
     6
  9
$UCSBASE
  2

  9
$UCSNAME
  2

  9
$UCSORG
 10
0.0
 20
0.0
 30
0.0
  9
$UCSXDIR
 10
1.0
 20
0.0
 30
0.0
  9
$UCSYDIR
 10
0.0
 20
1.0
 30
0.0
  9
$UCSORTHOREF
  2

  9
$UCSORTHOVIEW
 70
     0
  9
$UCSORGTOP
 10
0.0
 20
0.0
 30
0.0
  9
$UCSORGBOTTOM
 10
0.0
 20
0.0
 30
0.0
  9
$UCSORGLEFT
 10
0.0
 20
0.0
 30
0.0
  9
$UCSORGRIGHT
 10
0.0
 20
0.0
 30
0.0
  9
$UCSORGFRONT
 10
0.0
 20
0.0
 30
0.0
  9
$UCSORGBACK
 10
0.0
 20
0.0
 30
0.0
  9
$PUCSBASE
  2

  9
$PUCSNAME
  2

  9
$PUCSORG
 10
0.0
 20
0.0
 30
0.0
  9
$PUCSXDIR
 10
1.0
 20
0.0
 30
0.0
  9
$PUCSYDIR
 10
0.0
 20
1.0
 30
0.0
  9
$PUCSORTHOREF
  2

  9
$PUCSORTHOVIEW
 70
     0
  9
$PUCSORGTOP
 10
0.0
 20
0.0
 30
0.0
  9
$PUCSORGBOTTOM
 10
0.0
 20
0.0
 30
0.0
  9
$PUCSORGLEFT
 10
0.0
 20
0.0
 30
0.0
  9
$PUCSORGRIGHT
 10
0.0
 20
0.0
 30
0.0
  9
$PUCSORGFRONT
 10
0.0
 20
0.0
 30
0.0
  9
$PUCSORGBACK
 10
0.0
 20
0.0
 30
0.0
  9
$USERI1
 70
     0
  9
$USERI2
 70
     0
  9
$USERI3
 70
     0
  9
$USERI4
 70
     0
  9
$USERI5
 70
     0
  9
$USERR1
 40
0.0
  9
$USERR2
 40
0.0
  9
$USERR3
 40
0.0
  9
$USERR4
 40
0.0
  9
$USERR5
 40
0.0
  9
$WORLDVIEW
 70
     1
  9
$SHADEDGE
 70
     3
  9
$SHADEDIF
 70
    70
  9
$TILEMODE
 70
     1
  9
$MAXACTVP
 70
    64
  9
$PINSBASE
 10
0.0
 20
0.0
 30
0.0
  9
$PLIMCHECK
 70
     0
  9
$PEXTMIN
 10
1.000000000000000E+20
 20
1.000000000000000E+20
 30
1.000000000000000E+20
  9
$PEXTMAX
 10
-1.000000000000000E+20
 20
-1.000000000000000E+20
 30
-1.000000000000000E+20
  9
$PLIMMIN
 10
0.0
 20
0.0
  9
$PLIMMAX
 10
420.0
 20
297.0
  9
$UNITMODE
 70
     0
  9
$VISRETAIN
 70
     1
  9
$PLINEGEN
 70
     0
  9
$PSLTSCALE
 70
     1
  9
$TREEDEPTH
 70
  3020
  9
$CMLSTYLE
  2
Standard
  9
$CMLJUST
 70
     0
  9
$CMLSCALE
 40
20.0
  9
$PROXYGRAPHICS
 70
     1
  9
$MEASUREMENT
 70
     1
  9
$CELWEIGHT
370
    -1
  9
$ENDCAPS
280
     0
  9
$JOINSTYLE
280
     0
  9
$LWDISPLAY
290
     0
  9
$INSUNITS
 70
     4
  9
$HYPERLINKBASE
  1

  9
$STYLESHEET
  1
彩色出圖.ctb
  9
$XEDIT
290
     1
  9
$CEPSNTYPE
380
     0
  9
$PSTYLEMODE
290
     1
  9
$FINGERPRINTGUID
  2
{6C02722A-18D3-491A-897A-B8025DE410A9}
  9
$VERSIONGUID
  2
{B967A201-440C-40B2-A1B3-B3840449D0EB}
  9
$EXTNAMES
290
     1
  9
$PSVPSCALE
 40
0.0
  9
$OLESTARTUP
290
     0
  0
ENDSEC
  0
SECTION
  2
CLASSES
  0
CLASS
  1
ACDBDICTIONARYWDFLT
  2
AcDbDictionaryWithDefault
  3
ObjectDBX Classes
 90
        0
280
     0
281
     0
  0
CLASS
  1
ACDBPLACEHOLDER
  2
AcDbPlaceHolder
  3
ObjectDBX Classes
 90
        0
280
     0
281
     0
  0
CLASS
  1
LAYOUT
  2
AcDbLayout
  3
ObjectDBX Classes
 90
        0
280
     0
281
     0
  0
CLASS
  1
AMGSETTINGSOBJ
  2
AmgSettingsObj
  3
"AcadM|Product Description: AutoCAD Mechanical 2000|Company: Autodesk"
 90
        0
280
     0
281
     0
  0
CLASS
  1
ACME_DOCUMENT
  2
AcMeDbDoc
  3
AcMeServices
 90
        0
280
     0
281
     0
  0
CLASS
  1
ACMESCOPE
  2
AcMeScope
  3
AcMeServices
 90
        0
280
     0
281
     0
  0
CLASS
  1
ACMECOMMANDHISTORY
  2
AcMeCommandHistory
  3
AcMeServices
 90
        0
280
     0
281
     0
  0
CLASS
  1
ACIMSYSVARMAN
  2
AcImSysVarManager
  3
AcMeServices
 90
        0
280
     0
281
     0
  0
CLASS
  1
ACIMREALSYSVAR
  2
AcImRealSysVar
  3
AcMeServices
 90
        0
280
     0
281
     0
  0
CLASS
  1
ACIMINTSYSVAR
  2
AcImIntSysVar
  3
AcMeServices
 90
        0
280
     0
281
     0
  0
CLASS
  1
ACMEDRAWINGMAN
  2
AcMeDrawingMan
  3
AcMeServices
 90
        0
280
     0
281
     0
  0
CLASS
  1
ACMEVIEW
  2
AcMeView
  3
AcMeServices
 90
        0
280
     0
281
     0
  0
CLASS
  1
ACDBENTITYCACHE
  2
AcMeEntityCache
  3
AcMeServices
 90
        0
280
     0
281
     0
  0
CLASS
  1
GSMANAGER
  2
AcMeGSManager
  3
AcMeServices
 90
        0
280
     0
281
     0
  0
CLASS
  1
AMDTINTERNALREACTOR
  2
AmdtInternalReactor
  3
AcMeServices
 90
        0
280
     0
281
     0
  0
CLASS
  1
ACMESTATEMGR
  2
AcMeStateMgr
  3
AcMeServices
 90
        0
280
     0
281
     0
  0
CLASS
  1
ACGREFMASTER
  2
AcGrefMaster
  3
AcAttribServices
 90
        0
280
     0
281
     0
  0
CLASS
  1
ACME_DATABASE
  2
AcMeDbDatabase
  3
AcMeServices
 90
        0
280
     0
281
     0
  0
CLASS
  1
ACRFINSADJUSTERMGR
  2
AcRfInsAdjusterMgr
  3
AcMeServices
 90
        0
280
     0
281
     0
  0
CLASS
  1
ACGREFACADMASTER
  2
AcGrefacadMaster
  3
AcGrefServices
 90
        0
280
     0
281
     0
  0
CLASS
  1
AMIMASTER
  2
AmiMaster
  3
AmiServices
 90
        0
280
     0
281
     0
  0
CLASS
  1
ACMDATADICTIONARY
  2
AcmDataDictionary
  3
"AcmSymBB|Product Description: AutoCAD Mechanical 2004 DX|Company: Autodesk"
 90
        0
280
     0
281
     0
  0
CLASS
  1
ACMDATAENTRYBLOCK
  2
AcmDataEntryBlock
  3
"AcmSymBB|Product Description: AutoCAD Mechanical 2004 DX|Company: Autodesk"
 90
    32768
280
     0
281
     0
  0
CLASS
  1
ACIMSTRSYSVAR
  2
AcImStrSysVar
  3
AcMeServices
 90
        0
280
     0
281
     0
  0
CLASS
  1
ACMSTANDARDISO
  2
AcmStandardISO
  3
"Amdt_StdImp|Product Description: AutoCAD Mechanical 2004 DX|Company: Autodesk"
 90
        0
280
     0
281
     0
  0
CLASS
  1
AMGOBJPROPCFG
  2
AmgObjPropCfg
  3
"AmgLay|Product Description: AutoCAD Mechanical 2000|Company: Autodesk"
 90
        1
280
     0
281
     0
  0
CLASS
  1
AMDTEDGESTANDARDISO
  2
AmdtEdgeStdISO
  3
"Amdt_StdImp|Product Description: AutoCAD Mechanical 2004 DX|Company: Autodesk"
 90
    32768
280
     0
281
     0
  0
CLASS
  1
ACMSURFSTANDARDISO
  2
AcmSurfTextStdISO
  3
"Amdt_StdImp|Product Description: AutoCAD Mechanical 2004 DX|Company: Autodesk"
 90
        0
280
     0
281
     0
  0
CLASS
  1
ACMFCFSTANDARDISO
  2
AcmFCFStdISO
  3
"Amdt_StdImp|Product Description: AutoCAD Mechanical 2004 DX|Company: Autodesk"
 90
        0
280
     0
281
     0
  0
CLASS
  1
ACMWELDSTANDARDISO
  2
AcmWeldingStdISO
  3
"Amdt_StdImp|Product Description: AutoCAD Mechanical 2004 DX|Company: Autodesk"
 90
        0
280
     0
281
     0
  0
CLASS
  1
ACMIDSTANDARDISO
  2
AcmIdStdISO
  3
"Amdt_StdImp|Product Description: AutoCAD Mechanical 2004 DX|Company: Autodesk"
 90
        0
280
     0
281
     0
  0
CLASS
  1
ACMDATUMSTANDARDISO
  2
AcmDatumStdISO
  3
"Amdt_StdImp|Product Description: AutoCAD Mechanical 2004 DX|Company: Autodesk"
 90
        0
280
     0
281
     0
  0
CLASS
  1
ACMBOMSTANDARDISO
  2
AcmBOMStdISO
  3
"Amdt_StdImp|Product Description: AutoCAD Mechanical 2004 DX|Company: Autodesk"
 90
        0
280
     0
281
     0
  0
CLASS
  1
ACMDETAILSTANDARDISO
  2
AmdtDetailSymStdISO
  3
"Amdt_StdImp|Product Description: AutoCAD Mechanical 2004 DX|Company: Autodesk"
 90
        0
280
     0
281
     0
  0
CLASS
  1
ACMSECTIONSTANDARDISO
  2
AmdtSectionSymStdISO
  3
"Amdt_StdImp|Product Description: AutoCAD Mechanical 2004 DX|Company: Autodesk"
 90
        0
280
     0
281
     0
  0
CLASS
  1
ACMCENTERLINESTANDARDISO
  2
AmdtCenterLineStdISO
  3
"Amdt_StdImp|Product Description: AutoCAD Mechanical 2004 DX|Company: Autodesk"
 90
        0
280
     0
281
     0
  0
CLASS
  1
ACMNOTESTANDARDISO
  2
AmdtNoteStdISO
  3
"Amdt_StdImp|Product Description: AutoCAD Mechanical 2004 DX|Company: Autodesk"
 90
        0
280
     0
281
     0
  0
CLASS
  1
ACAMGLAYSTD
  2
AcAmgLayStd
  3
"AcAmgLayStd|Product Description: AutoCAD Mechanical 2000|Company: Autodesk"
 90
        0
280
     0
281
     0
  0
CLASS
  1
ACAMGDIMSTD
  2
AcAmgDimStd
  3
"AcAmgDimStd|Product Description: AutoCAD Mechanical 2000|Company: Autodesk"
 90
        0
280
     0
281
     0
  0
CLASS
  1
ACAMGHOLECHARTSTDISO
  2
AcAmgHoleChartStdISO
  3
ACMSYMBB_MODULE_NAME
 90
        0
280
     0
281
     0
  0
CLASS
  1
ACAMGTITLESTD
  2
AcAmgTitleStd
  3
"TITLEAPP"
 90
        0
280
     0
281
     0
  0
CLASS
  1
LAYER_INDEX
  2
AcDbLayerIndex
  3
ObjectDBX Classes
 90
    32768
280
     0
281
     0
  0
CLASS
  1
IDBUFFER
  2
AcDbIdBuffer
  3
ObjectDBX Classes
 90
    32768
280
     0
281
     0
  0
CLASS
  1
DICTIONARYVAR
  2
AcDbDictionaryVar
  3
ObjectDBX Classes
 90
        0
280
     0
281
     0
  0
CLASS
  1
ACAMGFILTERDAT
  2
AcAmgFilterDat
  3
"AcadM|Product Description: AutoCAD Mechanical 2000|Company: Autodesk"
 90
    32768
280
     0
281
     0
  0
CLASS
  1
AMDTFORMULAUPDATEDISPATCHER
  2
AmdtFormulaUpdateDispatcher
  3
AcMeServices
 90
    32768
280
     0
281
     0
  0
CLASS
  1
DIMASSOC
  2
AcDbDimAssoc
  3
"AcDbDimAssoc|Product Desc:     AcDim ARX App For Dimension|Company:          Autodesk, Inc.|WEB Address:      www.autodesk.com"
 90
        0
280
     0
281
     0
  0
CLASS
  1
AMDTNOTE
  2
AmdtNote
  3
"AcmSymBB|Product Description: AutoCAD Mechanical 2004 DX|Company: Autodesk"
 90
    33791
280
     0
281
     1
  0
CLASS
  1
TABLESTYLE
  2
AcDbTableStyle
  3
ObjectDBX Classes
 90
     2047
280
     0
281
     0
  0
CLASS
  1
AM_DRAWING_MGR
  2
AcDmDwgMgr
  3
AcMechDwgViewMgmt
 90
        0
280
     0
281
     0
  0
CLASS
  1
AM_DWG_DOCUMENT
  2
AcDmDwgDocument
  3
AcMechDwgViewMgmt
 90
        0
280
     0
281
     0
  0
CLASS
  1
AM_DWG_SHEET
  2
AcDmSheet
  3
AcMechDwgViewMgmt
 90
        0
280
     0
281
     0
  0
CLASS
  1
AM_VIEWDIMPARMAP
  2
AcDmViewDimParMap
  3
AcMechDwgViewMgmt
 90
        0
280
     0
281
     0
  0
CLASS
  1
AM_DWGMGR_NAME
  2
AcDmDwgMgrName
  3
AcMechDwgViewMgmt
 90
        0
280
     0
281
     0
  0
CLASS
  1
AMDTMENUSTATEMGR
  2
AmdtMenuStateMgr
  3
McadcomServices
 90
        0
280
     0
281
     0
  0
CLASS
  1
AMDTMCOMMENUSTATE
  2
AmdtMcomMenuState
  3
McadcomServices
 90
        0
280
     0
281
     0
  0
CLASS
  1
MAPIAMMOUDLE
  2
MApiAmModule
  3
MApiAmServices
 90
        0
280
     0
281
     0
  0
CLASS
  1
AMDTADMENUSTATE
  2
AmdtAdMenuState
  3
DesignerServices
 90
        0
280
     0
281
     0
  0
CLASS
  1
ADAPPL
  2
AcAdAppl
  3
DesignerServices
 90
        0
280
     0
281
     0
  0
CLASS
  1
DEPMGR
  2
AcAdDepMgr
  3
DesignerServices
 90
        0
280
     0
281
     0
  0
CLASS
  1
PARAMMGR
  2
AcAdParamMgr
  3
DesignerServices
 90
        0
280
     0
281
     0
  0
CLASS
  1
PARAMSCOPE
  2
AcAdParamScope
  3
DesignerServices
 90
        0
280
     0
281
     0
  0
CLASS
  1
NAMEDAPPL
  2
AcAdNamedAppl
  3
DesignerServices
 90
        0
280
     0
281
     0
  0
CLASS
  1
AMDTDMMENUSTATE
  2
AmdtDmMenuState
  3
AcMechDwgViewMgmt
 90
        0
280
     0
281
     0
  0
CLASS
  1
AMDTAMMENUSTATE
  2
AmdtAmMenuState
  3
DesignerAssemblies
 90
        0
280
     0
281
     0
  0
CLASS
  1
ACAMPROJECT
  2
AcAmProject
  3
DesignerAssemblies
 90
        0
280
     0
281
     0
  0
CLASS
  1
ACAMGRCOMPDEF
  2
AcAmGrCompDef
  3
DesignerAssemblies
 90
        0
280
     0
281
     0
  0
CLASS
  1
ACCMCONTEXT
  2
AcCmContext
  3
DesignerAssemblies
 90
        0
280
     0
281
     0
  0
CLASS
  1
ACAMCOMPDEF
  2
AcAmCompDef
  3
DesignerAssemblies
 90
        0
280
     0
281
     0
  0
CLASS
  1
ACAMCOMPDEFMGR
  2
AcAmCompDefMgr
  3
DesignerAssemblies
 90
        0
280
     0
281
     0
  0
CLASS
  1
AMCONTEXTMGR
  2
AcAmContextMgr
  3
DesignerAssemblies
 90
        0
280
     0
281
     0
  0
CLASS
  1
ACAMCONTEXTMODELER
  2
AcAmContextModeler
  3
DesignerAssemblies
 90
        0
280
     0
281
     0
  0
CLASS
  1
ACMTHREADLINESTANDARDISO
  2
AmdtThreadLineStdISO
  3
"Amdt_StdImp|Product Description: AutoCAD Mechanical 2004 DX|Company: Autodesk"
 90
        0
280
     0
281
     0
  0
CLASS
  1
CATALOGSTATE
  2
AcAmCatalogState
  3
DesignerAssemblies
 90
        0
280
     0
281
     0
  0
CLASS
  1
ACAMGRCOMPDEFSET
  2
AcAmGrCompDefSet
  3
DesignerAssemblies
 90
        0
280
     0
281
     0
  0
CLASS
  1
AMDTBROWSERDBTAB
  2
AmdtBrowserDbTab
  3
McadcomServices
 90
        0
280
     0
281
     0
  0
CLASS
  1
CBROWSERAPPOBJECT
  2
CBrowserAppObject
  3
McadcomServices
 90
        0
280
     0
281
     0
  0
CLASS
  1
DM_PLACEHOLDER
  2
AcDmSelsetPlaceholder
  3
AcMechDwgViewMgmt
 90
        0
280
     0
281
     0
  0
CLASS
  1
VAACXREFPANELOBJECT
  2
VaAcXREFPanelObject
  3
VAAC_ADDIN
 90
        0
280
     0
281
     0
  0
CLASS
  1
VAACIMAGEINVENTORY
  2
VaAcImageInventory
  3
VAAC_ADDIN
 90
        0
280
     0
281
     0
  0
CLASS
  1
AMDTEDGESTANDARDISO13715
  2
AmdtEdgeStdISO13715
  3
"Amdt_StdImp|Product Description: AutoCAD Mechanical 2004 DX|Company: Autodesk"
 90
        0
280
     0
281
     0
  0
CLASS
  1
AMDTNOTETEMPLATEDB
  2
AmdtNoteTemplateDB
  3
AMDT_STDIMP_MODULE_NAME
 90
        0
280
     0
281
     0
  0
CLASS
  1
ACRFATTGENMGR
  2
AcRfAttGeneralMgr
  3
AcAttribServices
 90
        0
280
     0
281
     0
  0
CLASS
  1
SORTENTSTABLE
  2
AcDbSortentsTable
  3
ObjectDBX Classes
 90
        0
280
     0
281
     0
  0
CLASS
  1
STDPART2D
  2
AmgStdPart
  3
"AmgStdPart|Product Description: AutoCAD Mechanical 2000|Company: Autodesk"
 90
    33791
280
     0
281
     1
  0
CLASS
  1
ACAMSTDPCOMPDEF
  2
AcAmStdpCompDef
  3
DesignerAssemblies
 90
    32768
280
     0
281
     0
  0
CLASS
  1
ACRFOBJATTMGR
  2
AcRfObjAttGroupMgr
  3
AcAttribServices
 90
    32768
280
     0
281
     0
  0
CLASS
  1
ACRFMCADAPIATTHOLDER
  2
AcRfMCADAPIAttHolder
  3
AcAttribServices
 90
    32768
280
     0
281
     0
  0
CLASS
  1
AMDTSYSATTR
  2
AmdtSystemAttribute
  3
AcAttribServices
 90
    32768
280
     0
281
     0
  0
CLASS
  1
ACAMCOMP
  2
AcAmComp
  3
DesignerAssemblies
 90
    32768
280
     0
281
     0
  0
CLASS
  1
AC_AM_STDP_VIEW_DEF
  2
AcAmStdpViewDef
  3
DesignerAssemblies
 90
    32768
280
     0
281
     0
  0
CLASS
  1
AC_AM_MVD_DEP_MGR
  2
AcAmMVDdepMgr
  3
DesignerAssemblies
 90
    32768
280
     0
281
     0
  0
CLASS
  1
AC_AM_MASTER_VIEW_DEF
  2
AcAmMasterViewDef
  3
DesignerAssemblies
 90
    32768
280
     0
281
     0
  0
CLASS
  1
AC_AM_DIRTY_NODES
  2
AcAmDirtyNodes
  3
DesignerAssemblies
 90
    32768
280
     0
281
     0
  0
CLASS
  1
AC_AM_MAPPER_CACHE
  2
AcAmMapperCache
  3
DesignerAssemblies
 90
    32768
280
     0
281
     0
  0
CLASS
  1
ACAMMVDBACKUPOBJECT
  2
AcAmMVDBackupObject
  3
DesignerAssemblies
 90
    32768
280
     0
281
     0
  0
CLASS
  1
AC_AM_COMP_VIEW_INST
  2
AcAmCompView
  3
DesignerAssemblies
 90
    32768
280
     0
281
     0
  0
CLASS
  1
AC_AM_2D_XREF_MGR
  2
AcAmXrefMgr2d
  3
DesignerAssemblies
 90
    32768
280
     0
281
     0
  0
CLASS
  1
ACMSTANDARDANSI
  2
AcmStandardANSI
  3
"Amdt_StdImp|Product Description: AutoCAD Mechanical 2004 DX|Company: Autodesk"
 90
    32768
280
     0
281
     0
  0
CLASS
  1
ACMSURFSTANDARDANSI
  2
AcmSurfTextStdANSI
  3
"Amdt_StdImp|Product Description: AutoCAD Mechanical 2004 DX|Company: Autodesk"
 90
    32768
280
     0
281
     0
  0
CLASS
  1
ACMFCFSTANDARDANSI
  2
AcmFCFStdANSI
  3
"Amdt_StdImp|Product Description: AutoCAD Mechanical 2004 DX|Company: Autodesk"
 90
    32768
280
     0
281
     0
  0
CLASS
  1
ACMWELDSTANDARDANSI
  2
AcmWeldingStdANSI
  3
"Amdt_StdImp|Product Description: AutoCAD Mechanical 2004 DX|Company: Autodesk"
 90
    32768
280
     0
281
     0
  0
CLASS
  1
ACMIDSTANDARDANSI
  2
AcmIdStdANSI
  3
"Amdt_StdImp|Product Description: AutoCAD Mechanical 2004 DX|Company: Autodesk"
 90
    32768
280
     0
281
     0
  0
CLASS
  1
ACMDATUMSTANDARDANSI
  2
AcmDatumStdANSI
  3
"Amdt_StdImp|Product Description: AutoCAD Mechanical 2004 DX|Company: Autodesk"
 90
    32768
280
     0
281
     0
  0
CLASS
  1
ACMBOMSTANDARDANSI
  2
AcmBOMStdANSI
  3
"Amdt_StdImp|Product Description: AutoCAD Mechanical 2004 DX|Company: Autodesk"
 90
    32768
280
     0
281
     0
  0
CLASS
  1
ACMDETAILSTANDARDANSI
  2
AmdtDetailSymStdANSI
  3
"Amdt_StdImp|Product Description: AutoCAD Mechanical 2004 DX|Company: Autodesk"
 90
    32768
280
     0
281
     0
  0
CLASS
  1
ACMSECTIONSTANDARDANSI
  2
AmdtSectionSymStdANSI
  3
"Amdt_StdImp|Product Description: AutoCAD Mechanical 2004 DX|Company: Autodesk"
 90
    32768
280
     0
281
     0
  0
CLASS
  1
ACMCENTERLINESTANDARDANSI
  2
AmdtCenterLineStdANSI
  3
"Amdt_StdImp|Product Description: AutoCAD Mechanical 2004 DX|Company: Autodesk"
 90
    32768
280
     0
281
     0
  0
CLASS
  1
ACMTHREADLINESTANDARDANSI
  2
AmdtThreadLineStdANSI
  3
"Amdt_StdImp|Product Description: AutoCAD Mechanical 2004 DX|Company: Autodesk"
 90
    32768
280
     0
281
     0
  0
CLASS
  1
ACMNOTESTANDARDANSI
  2
AmdtNoteStdANSI
  3
"Amdt_StdImp|Product Description: AutoCAD Mechanical 2004 DX|Company: Autodesk"
 90
    32768
280
     0
281
     0
  0
CLASS
  1
ACAMGHOLECHARTSTDANSI
  2
AcAmgHoleChartStdANSI
  3
ACMSYMBB_MODULE_NAME
 90
    32768
280
     0
281
     0
  0
ENDSEC
  0
SECTION
  2
TABLES
  0
TABLE
  2
VPORT
  5
8
330
0
100
AcDbSymbolTable
 70
     4
  0
VPORT
  5
2CA8
330
8
100
AcDbSymbolTableRecord
100
AcDbViewportTableRecord
  2
*Active
 70
     0
 10
0.0
 20
0.0
 11
1.0
 21
1.0
 12
217.0976267185733
 22
211.6268923996277
 13
0.0
 23
0.0
 14
2.5
 24
2.5
 15
10.0
 25
10.0
 16
0.0
 26
0.0
 36
1.0
 17
0.0
 27
0.0
 37
0.0
 40
238.149416743841
 41
1.81766917293233
 42
50.0
 43
0.0
 44
0.0
 50
0.0
 51
0.0
 71
     0
 72
   100
 73
     1
 74
     3
 75
     0
 76
     0
 77
     0
 78
     0
281
     0
 65
     1
110
0.0
120
0.0
130
0.0
111
1.0
121
0.0
131
0.0
112
0.0
122
1.0
132
0.0
 79
     0
146
0.0
  0
ENDTAB
  0
TABLE
  2
LTYPE
  5
5
330
0
100
AcDbSymbolTable
 70
    14
  0
LTYPE
  5
14
330
5
100
AcDbSymbolTableRecord
100
AcDbLinetypeTableRecord
  2
ByBlock
 70
     0
  3

 72
    65
 73
     0
 40
0.0
  0
LTYPE
  5
15
330
5
100
AcDbSymbolTableRecord
100
AcDbLinetypeTableRecord
  2
ByLayer
 70
     0
  3

 72
    65
 73
     0
 40
0.0
  0
LTYPE
  5
16
330
5
100
AcDbSymbolTableRecord
100
AcDbLinetypeTableRecord
  2
Continuous
 70
     0
  3
Solid line
 72
    65
 73
     0
 40
0.0
  0
LTYPE
  5
4D
330
5
100
AcDbSymbolTableRecord
100
AcDbLinetypeTableRecord
  2
AM_ISO02W050
 70
     0
  3
__ __ __ __ __ __ __ __ __ __ __ __ __ __ __
 72
    65
 73
     2
 40
7.5
 49
6.0
 74
     0
 49
-1.5
 74
     0
  0
LTYPE
  5
4E
330
5
100
AcDbSymbolTableRecord
100
AcDbLinetypeTableRecord
  2
AM_ISO08W050
 70
     0
  3
____ . ____ . ____ . ____ . ____ . ____ . ____
 72
    65
 73
     4
 40
18.0
 49
12.0
 74
     0
 49
-1.5
 74
     0
 49
3.0
 74
     0
 49
-1.5
 74
     0
  0
LTYPE
  5
4F
330
5
100
AcDbSymbolTableRecord
100
AcDbLinetypeTableRecord
  2
AM_ISO09W050
 70
     0
  3
_____ . . _____ . . _____ . . ____ .. ____
 72
    65
 73
     6
 40
22.5
 49
12.0
 74
     0
 49
-1.5
 74
     0
 49
3.0
 74
     0
 49
-1.5
 74
     0
 49
3.0
 74
     0
 49
-1.5
 74
     0
  0
LTYPE
  5
50
330
5
100
AcDbSymbolTableRecord
100
AcDbLinetypeTableRecord
  2
Amconstr
 70
     0
  3
_______________________
 72
    65
 73
     2
 40
9999.0
 49
9999.0
 74
     0
 49
0.0
 74
     0
  0
LTYPE
  5
51
330
5
100
AcDbSymbolTableRecord
100
AcDbLinetypeTableRecord
  2
AM_ISO08W050x2
 70
     0
  3
__ . __ . __ . __ . __ . __
 72
    65
 73
     4
 40
9.0
 49
6.0
 74
     0
 49
-0.75
 74
     0
 49
1.5
 74
     0
 49
-0.75
 74
     0
  0
LTYPE
  5
52
330
5
100
AcDbSymbolTableRecord
100
AcDbLinetypeTableRecord
  2
AM_ISO02W050x2
 70
     0
  3
 _ _ _ _ _ _ _ _ _ _ _ _
 72
    65
 73
     2
 40
3.75
 49
3.0
 74
     0
 49
-0.75
 74
     0
  0
LTYPE
  5
55
330
5
100
AcDbSymbolTableRecord
100
AcDbLinetypeTableRecord
  2
Amzigzag
 70
     0
  3
/\/-/\/-/\/-/\/-/\/-/\/
 72
    65
 73
     2
 40
11.0001
 49
0.0001
 74
     4
 75
   135
340
54
 46
0.04
 50
0.0
 44
0.0
 45
0.0
 49
-11.0
 74
     0
  0
LTYPE
  5
63
330
5
100
AcDbSymbolTableRecord
100
AcDbLinetypeTableRecord
  2
ACISOWELD
 70
     0
  3
_ _ _ _ _
 72
    65
 73
     2
 40
2.0
 49
2.0
 74
     0
 49
-1.0
 74
     0
  0
LTYPE
  5
64
330
5
100
AcDbSymbolTableRecord
100
AcDbLinetypeTableRecord
  2
ACISOTGB
 70
     0
  3
__ . . __ . .
 72
    65
 73
     6
 40
9.0
 49
4.0
 74
     0
 49
-1.0
 74
     0
 49
1.0
 74
     0
 49
-1.0
 74
     0
 49
1.0
 74
     0
 49
-1.0
 74
     0
  0
LTYPE
  5
65
330
5
100
AcDbSymbolTableRecord
100
AcDbLinetypeTableRecord
  2
ACISOTGL
 70
     0
  3
_ _ _ _ _
 72
    65
 73
     2
 40
3.0
 49
2.0
 74
     0
 49
-1.0
 74
     0
  0
LTYPE
  5
68
330
5
100
AcDbSymbolTableRecord
100
AcDbLinetypeTableRecord
  2
CENTER
 70
     0
  3
__ . __
 72
    65
 73
     4
 40
7.0
 49
4.0
 74
     0
 49
-1.0
 74
     0
 49
1.0
 74
     0
 49
-1.0
 74
     0
  0
LTYPE
  5
806
330
5
100
AcDbSymbolTableRecord
100
AcDbLinetypeTableRecord
  2
HIDDEN
 70
     0
  3
Hidden __ __ __ __ __ __ __ __ __ __ __ __ __ _
 72
    65
 73
     2
 40
9.524999999999998
 49
6.349999999999999
 74
     0
 49
-3.174999999999999
 74
     0
  0
LTYPE
  5
807
330
5
100
AcDbSymbolTableRecord
100
AcDbLinetypeTableRecord
  2
PHANTOM2
 70
     0
  3
Phantom (.5x) ___ _ _ ___ _ _ ___ _ _ ___ _ _
 72
    65
 73
     6
 40
31.75
 49
15.875
 74
     0
 49
-3.174999999999999
 74
     0
 49
3.174999999999999
 74
     0
 49
-3.174999999999999
 74
     0
 49
3.174999999999999
 74
     0
 49
-3.174999999999999
 74
     0
  0
ENDTAB
  0
TABLE
  2
LAYER
  5
2
102
{ACAD_XDICTIONARY
360
AAB
102
}
330
0
100
AcDbSymbolTable
 70
     8
  0
LAYER
  5
10
330
2
100
AcDbSymbolTableRecord
100
AcDbLayerTableRecord
  2
0
 70
     0
 62
     7
  6
Continuous
370
    -3
390
F
  0
LAYER
  5
42A
330
2
100
AcDbSymbolTableRecord
100
AcDbLayerTableRecord
  2
AM_5
 70
     0
 62
     5
  6
Continuous
370
    50
390
F
  0
LAYER
  5
43E
330
2
100
AcDbSymbolTableRecord
100
AcDbLayerTableRecord
  2
Defpoints
 70
     0
 62
     7
  6
Continuous
290
     0
370
    -3
390
F
  0
LAYER
  5
CD5
330
2
100
AcDbSymbolTableRecord
100
AcDbLayerTableRecord
  2
AM_7
 70
     0
 62
     1
  6
CENTER
370
    25
390
F
  0
LAYER
  5
CD6
330
2
100
AcDbSymbolTableRecord
100
AcDbLayerTableRecord
  2
AM_VIS
 70
     0
 62
     7
  6
Continuous
370
    50
390
F
  0
LAYER
  5
CD7
330
2
100
AcDbSymbolTableRecord
100
AcDbLayerTableRecord
  2
AM_4
 70
     0
 62
     3
  6
Continuous
370
    25
390
F
  0
LAYER
  5
CD9
330
2
100
AcDbSymbolTableRecord
100
AcDbLayerTableRecord
  2
AM_0
 70
     0
 62
     7
  6
Continuous
370
    50
390
F
  0
LAYER
  5
135E
330
2
100
AcDbSymbolTableRecord
100
AcDbLayerTableRecord
  2
LOGO
 70
     0
 62
     7
  6
Continuous
370
    -3
390
F
  0
ENDTAB
  0
TABLE
  2
STYLE
  5
3
330
0
100
AcDbSymbolTable
 70
     8
  0
STYLE
  5
11
330
3
100
AcDbSymbolTableRecord
100
AcDbTextStyleTableRecord
  2
STANDARD
 70
     0
 40
0.0
 41
1.0
 50
0.0
 71
     0
 42
3.5
  3
ISOCP.SHX
  4
CHINESET.SHX
  0
STYLE
  5
54
330
3
100
AcDbSymbolTableRecord
100
AcDbTextStyleTableRecord
  2

 70
     1
 40
0.0
 41
1.0
 50
0.0
 71
     0
 42
2.5
  3
ltypeshp.shx
  4

  0
STYLE
  5
56
330
3
100
AcDbSymbolTableRecord
100
AcDbTextStyleTableRecord
  2
ACISOTS
 70
     0
 40
1.0
 41
1.0
 50
0.0
 71
     0
 42
2.5
  3
isocp.shx
  4
chineset.shx
  0
STYLE
  5
62
330
3
100
AcDbSymbolTableRecord
100
AcDbTextStyleTableRecord
  2
ACISOGDT
 70
     0
 40
0.0
 41
1.0
 50
0.0
 71
     0
 42
3.5
  3
amgdt.shx
  4

  0
STYLE
  5
135F
330
3
100
AcDbSymbolTableRecord
100
AcDbTextStyleTableRecord
  2
DAYUS
 70
     0
 40
0.0
 41
1.0
 50
0.0
 71
     0
 42
3.0
  3
simplex
  4
dayus
  0
STYLE
  5
1360
330
3
100
AcDbSymbolTableRecord
100
AcDbTextStyleTableRecord
  2
CHINESET
 70
     0
 40
0.0
 41
1.0
 50
0.0
 71
     0
 42
4.0
  3
simplex.shx
  4
chineset.shx
  0
ENDTAB
  0
TABLE
  2
VIEW
  5
6
330
0
100
AcDbSymbolTable
 70
     0
  0
ENDTAB
  0
TABLE
  2
UCS
  5
7
330
0
100
AcDbSymbolTable
 70
     0
  0
ENDTAB
  0
TABLE
  2
APPID
  5
9
330
0
100
AcDbSymbolTable
 70
    25
  0
APPID
  5
12
330
9
100
AcDbSymbolTableRecord
100
AcDbRegAppTableRecord
  2
ACAD
 70
     0
  0
APPID
  5
30
330
9
100
AcDbSymbolTableRecord
100
AcDbRegAppTableRecord
  2
MCAD_NO_VIS
 70
     0
  0
APPID
  5
31
330
9
100
AcDbSymbolTableRecord
100
AcDbRegAppTableRecord
  2
ACAD_TEMP_GRAPHIC
 70
     0
  0
APPID
  5
42
330
9
100
AcDbSymbolTableRecord
100
AcDbRegAppTableRecord
  2
ACATTRIBSERVICES
 70
     0
  0
APPID
  5
20A
330
9
100
AcDbSymbolTableRecord
100
AcDbRegAppTableRecord
  2
GENIUS_GENODEF_13
 70
     0
  0
APPID
  5
20B
330
9
100
AcDbSymbolTableRecord
100
AcDbRegAppTableRecord
  2
GENIUS_GENOBJ-N-HTC_13
 70
     0
  0
APPID
  5
20C
330
9
100
AcDbSymbolTableRecord
100
AcDbRegAppTableRecord
  2
GENIUS_GENHATCH_13
 70
     0
  0
APPID
  5
809
330
9
100
AcDbSymbolTableRecord
100
AcDbRegAppTableRecord
  2
AD_DRAW
 70
     0
  0
APPID
  5
827
330
9
100
AcDbSymbolTableRecord
100
AcDbRegAppTableRecord
  2
DESIGNERASSEMBLIES
 70
     0
  0
APPID
  5
82C
330
9
100
AcDbSymbolTableRecord
100
AcDbRegAppTableRecord
  2
ACADM_DIM_EDIT
 70
     0
  0
APPID
  5
82D
330
9
100
AcDbSymbolTableRecord
100
AcDbRegAppTableRecord
  2
AMDT_DM_ADJ
 70
     0
  0
APPID
  5
FE4
330
9
100
AcDbSymbolTableRecord
100
AcDbRegAppTableRecord
  2
GENIUS_GENDTOL_13
 70
     0
  0
APPID
  5
108C
330
9
100
AcDbSymbolTableRecord
100
AcDbRegAppTableRecord
  2
ACAD_DSTYLE_DIMTEXT_FILL
 70
     0
  0
APPID
  5
1201
330
9
100
AcDbSymbolTableRecord
100
AcDbRegAppTableRecord
  2
GEVID1116400677
 70
     0
  0
APPID
  5
1202
330
9
100
AcDbSymbolTableRecord
100
AcDbRegAppTableRecord
  2
GEVDC
 70
     0
  0
APPID
  5
1203
330
9
100
AcDbSymbolTableRecord
100
AcDbRegAppTableRecord
  2
GEVRADREF
 70
     0
  0
APPID
  5
120C
330
9
100
AcDbSymbolTableRecord
100
AcDbRegAppTableRecord
  2
AMG_2DHIDE
 70
     0
  0
APPID
  5
120D
330
9
100
AcDbSymbolTableRecord
100
AcDbRegAppTableRecord
  2
AMG_2DSTRUCT_BTR
 70
     0
  0
APPID
  5
121E
330
9
100
AcDbSymbolTableRecord
100
AcDbRegAppTableRecord
  2
ACADM_2DVIEW_IGN_NOTIFY
 70
     0
  0
APPID
  5
1361
330
9
100
AcDbSymbolTableRecord
100
AcDbRegAppTableRecord
  2
GENIUS_GENREC_14
 70
     0
  0
APPID
  5
1362
330
9
100
AcDbSymbolTableRecord
100
AcDbRegAppTableRecord
  2
GENIUS_GENOBJ-N-REC_13
 70
     0
  0
APPID
  5
1E31
330
9
100
AcDbSymbolTableRecord
100
AcDbRegAppTableRecord
  2
ACAD_PSEXT
 70
     0
  0
APPID
  5
1F6E
330
9
100
AcDbSymbolTableRecord
100
AcDbRegAppTableRecord
  2
GEVID1116471484
 70
     0
  0
APPID
  5
2915
330
9
100
AcDbSymbolTableRecord
100
AcDbRegAppTableRecord
  2
GENIUS_GENOBJ-N-CEN_13
 70
     0
  0
APPID
  5
2916
330
9
100
AcDbSymbolTableRecord
100
AcDbRegAppTableRecord
  2
GENIUS_GENCEN_19
 70
     0
  0
ENDTAB
  0
TABLE
  2
DIMSTYLE
  5
A
330
0
100
AcDbSymbolTable
 70
    11
100
AcDbDimStyleTable
 71
     2
340
6B
340
75
  0
DIMSTYLE
105
6B
330
A
100
AcDbSymbolTableRecord
100
AcDbDimStyleTableRecord
  2
AM_ISO
 70
     0
  4
"
 41
3.0
 42
1.0
 43
8.0
 44
1.5
 47
0.1
 48
0.1
 73
     0
 74
     0
 77
     1
 78
     8
 79
     2
140
3.5
141
3.0
143
0.0393701
146
0.71
147
0.8
172
     1
176
   256
177
   256
178
   256
271
     2
272
     2
283
     0
284
     8
340
11
371
    -1
372
    -1
  0
DIMSTYLE
105
6C
330
A
100
AcDbSymbolTableRecord
100
AcDbDimStyleTableRecord
  2
AM_ISO$3
 70
     0
  4
"
 41
3.0
 42
1.0
 43
8.0
 44
1.5
 47
0.1
 48
0.1
 73
     0
 77
     1
 78
     8
 79
     2
140
3.5
141
3.0
143
0.0393701
146
0.71
147
0.8
176
   256
177
   256
178
   256
271
     2
272
     2
283
     0
284
     8
288
     1
289
     0
340
11
371
    -1
372
    -1
  0
DIMSTYLE
105
6D
330
A
100
AcDbSymbolTableRecord
100
AcDbDimStyleTableRecord
  2
AM_ISO$4
 70
     0
  4
"
 41
3.0
 42
1.0
 43
8.0
 44
1.5
 47
0.1
 48
0.1
 73
     0
 77
     1
 78
     8
 79
     2
140
3.5
141
3.0
143
0.0393701
146
0.71
147
0.8
176
   256
177
   256
178
   256
271
     2
272
     2
283
     0
284
     8
288
     1
289
     0
340
11
371
    -1
372
    -1
  0
DIMSTYLE
105
6E
330
A
100
AcDbSymbolTableRecord
100
AcDbDimStyleTableRecord
  2
AM_ISO$6
 70
     0
  4
"
 41
3.0
 42
1.0
 43
8.0
 44
1.5
 47
0.1
 48
0.1
 73
     0
 74
     0
 78
     8
 79
     2
140
3.5
141
3.0
143
0.0393701
146
0.71
147
0.8
172
     1
176
   256
177
   256
178
   256
271
     2
272
     2
283
     0
284
     8
340
11
371
    -1
372
    -1
  0
DIMSTYLE
105
6F
330
A
100
AcDbSymbolTableRecord
100
AcDbDimStyleTableRecord
  2
AM_ISO$7
 70
     0
  4
"
 41
3.0
 42
1.0
 43
8.0
 44
1.5
 47
0.1
 48
0.1
 73
     0
 74
     0
 77
     1
 78
     8
 79
     2
140
5.0
141
3.0
143
0.0393701
146
0.71
147
0.8
172
     1
176
   256
177
   256
178
   256
271
     2
272
     2
283
     0
284
     8
340
11
371
    -1
372
    -1
  0
DIMSTYLE
105
70
330
A
100
AcDbSymbolTableRecord
100
AcDbDimStyleTableRecord
  2
AM_ISO$SF
 70
     0
  4
"
 41
2.5
 42
1.0
 43
10.0
 44
1.0
 47
0.1
 48
0.1
 73
     0
 74
     0
 75
     1
 76
     1
 77
     1
 78
     8
 79
     2
140
3.5
141
0.0
143
0.0393701
146
0.71
147
1.5
172
     1
176
   256
177
   256
178
     2
271
     2
272
     3
274
     4
283
     0
284
     8
340
11
371
    -1
372
    -1
  0
DIMSTYLE
105
75
330
A
100
AcDbSymbolTableRecord
100
AcDbDimStyleTableRecord
  2
AM_ISO$SH
 70
     0
  4
"
 41
2.5
 42
1.0
 43
10.0
 44
1.0
 47
0.1
 48
0.1
 73
     0
 74
     0
 75
     1
 76
     1
 77
     1
 78
     8
 79
     2
140
3.5
141
0.0
143
0.0393701
144
2.0
146
0.71
147
1.5
172
     1
173
     1
176
   256
177
   256
178
     2
271
     2
272
     3
274
     4
283
     0
284
     8
340
11
343
71
371
    -1
372
    -1
  0
DIMSTYLE
105
AAA
102
{ACAD_REACTORS
330
19B1
330
19E1
330
1A07
330
1A7E
330
1AAE
330
1AD4
330
1AFA
330
1B20
330
1B4A
330
1B74
330
2AEA
102
}
330
A
100
AcDbSymbolTableRecord
100
AcDbDimStyleTableRecord
  2
AM_ISO$0
 70
     0
  4
"
 41
3.0
 42
1.0
 43
8.0
 44
1.5
 47
0.1
 48
0.1000000001
 73
     0
 74
     0
 77
     1
 78
     8
 79
     2
140
3.0
141
0.0
143
0.0393701
146
0.71
147
1.0
172
     1
176
   256
177
   256
178
   256
271
     2
272
     2
283
     2
284
     8
340
11
371
    -1
372
    -1
  0
DIMSTYLE
105
157A
330
A
100
AcDbSymbolTableRecord
100
AcDbDimStyleTableRecord
  2
STANDARD
 70
     0
 41
3.0
 42
2.0
 43
8.0
 44
2.0
 73
     0
 74
     0
 77
     1
 78
     8
 79
     2
140
3.0
141
5.0
147
1.0
176
   256
177
   256
178
   256
271
     2
272
     2
279
     2
284
     8
285
     8
286
     8
340
1360
  0
ENDTAB
  0
TABLE
  2
BLOCK_RECORD
  5
1
330
0
100
AcDbSymbolTable
 70
    19
  0
BLOCK_RECORD
  5
1F
102
{ACAD_XDICTIONARY
360
7D
102
}
330
1
100
AcDbSymbolTableRecord
100
AcDbBlockTableRecord
  2
*Model_Space
340
22
  0
BLOCK_RECORD
  5
1B
330
1
100
AcDbSymbolTableRecord
100
AcDbBlockTableRecord
  2
*Paper_Space
340
1E
  0
BLOCK_RECORD
  5
23
330
1
100
AcDbSymbolTableRecord
100
AcDbBlockTableRecord
  2
*Paper_Space0
340
26
  0
BLOCK_RECORD
  5
71
330
1
100
AcDbSymbolTableRecord
100
AcDbBlockTableRecord
  2
GENAXEH
340
0
  0
BLOCK_RECORD
  5
19B2
330
1
100
AcDbSymbolTableRecord
100
AcDbBlockTableRecord
  2
*D2
340
0
  0
BLOCK_RECORD
  5
19E2
330
1
100
AcDbSymbolTableRecord
100
AcDbBlockTableRecord
  2
*D3
340
0
  0
BLOCK_RECORD
  5
1A08
330
1
100
AcDbSymbolTableRecord
100
AcDbBlockTableRecord
  2
*D4
340
0
  0
BLOCK_RECORD
  5
1A7F
330
1
100
AcDbSymbolTableRecord
100
AcDbBlockTableRecord
  2
*D5
340
0
  0
BLOCK_RECORD
  5
1AAF
330
1
100
AcDbSymbolTableRecord
100
AcDbBlockTableRecord
  2
*D6
340
0
  0
BLOCK_RECORD
  5
1AD5
330
1
100
AcDbSymbolTableRecord
100
AcDbBlockTableRecord
  2
*D7
340
0
  0
BLOCK_RECORD
  5
1AFB
330
1
100
AcDbSymbolTableRecord
100
AcDbBlockTableRecord
  2
*D8
340
0
  0
BLOCK_RECORD
  5
1B21
330
1
100
AcDbSymbolTableRecord
100
AcDbBlockTableRecord
  2
*D9
340
0
  0
BLOCK_RECORD
  5
1B4B
330
1
100
AcDbSymbolTableRecord
100
AcDbBlockTableRecord
  2
*D10
340
0
  0
BLOCK_RECORD
  5
1B75
330
1
100
AcDbSymbolTableRecord
100
AcDbBlockTableRecord
  2
*D11
340
0
  0
BLOCK_RECORD
  5
2AEB
330
1
100
AcDbSymbolTableRecord
100
AcDbBlockTableRecord
  2
*D12
340
0
  0
BLOCK_RECORD
  5
2B32
330
1
100
AcDbSymbolTableRecord
100
AcDbBlockTableRecord
  2
*S13
340
0
102
{BLKREFS
331
23D3
102
}
  0
BLOCK_RECORD
  5
2B3A
330
1
100
AcDbSymbolTableRecord
100
AcDbBlockTableRecord
  2
*S14
340
0
102
{BLKREFS
331
23DC
102
}
  0
BLOCK_RECORD
  5
2B42
330
1
100
AcDbSymbolTableRecord
100
AcDbBlockTableRecord
  2
*S15
340
0
102
{BLKREFS
331
2AC6
102
}
  0
ENDTAB
  0
ENDSEC
  0
SECTION
  2
BLOCKS
  0
BLOCK
  5
20
330
1F
100
AcDbEntity
  8
0
100
AcDbBlockBegin
  2
*Model_Space
 70
     0
 10
0.0
 20
0.0
 30
0.0
  3
*Model_Space
  1

  0
ENDBLK
  5
21
330
1F
100
AcDbEntity
  8
0
100
AcDbBlockEnd
  0
BLOCK
  5
1C
330
1B
100
AcDbEntity
 67
     1
  8
0
100
AcDbBlockBegin
  2
*Paper_Space
 70
     0
 10
0.0
 20
0.0
 30
0.0
  3
*Paper_Space
  1

  0
ENDBLK
  5
1D
330
1B
100
AcDbEntity
 67
     1
  8
0
100
AcDbBlockEnd
  0
BLOCK
  5
24
330
23
100
AcDbEntity
  8
0
100
AcDbBlockBegin
  2
*Paper_Space0
 70
     0
 10
0.0
 20
0.0
 30
0.0
  3
*Paper_Space0
  1

  0
ENDBLK
  5
25
330
23
100
AcDbEntity
  8
0
100
AcDbBlockEnd
  0
BLOCK
  5
73
330
71
100
AcDbEntity
  8
0
100
AcDbBlockBegin
  2
GENAXEH
 70
     0
 10
0.0
 20
0.0
 30
0.0
  3
GENAXEH
  1

  0
LINE
  5
72
330
71
100
AcDbEntity
  8
0
100
AcDbLine
 10
-1.0
 20
0.0
 30
0.0
 11
1.0
 21
0.0
 31
0.0
  0
ENDBLK
  5
74
330
71
100
AcDbEntity
  8
0
100
AcDbBlockEnd
  0
BLOCK
  5
19BC
330
19B2
100
AcDbEntity
  8
0
100
AcDbBlockBegin
  2
*D2
 70
     1
 10
0.0
 20
0.0
 30
0.0
  3
*D2
  1

  0
LINE
  5
2A61
330
19B2
100
AcDbEntity
  8
AM_5
100
AcDbLine
 10
264.9433371463041
 20
228.8866228668215
 30
0.0
 11
291.2993371463041
 21
228.8866228668215
 31
0.0
  0
LINE
  5
2A62
330
19B2
100
AcDbEntity
  8
AM_5
100
AcDbLine
 10
264.9433371463041
 20
253.3866228668216
 30
0.0
 11
291.2993371463041
 21
253.3866228668216
 31
0.0
  0
LINE
  5
2A63
330
19B2
100
AcDbEntity
  8
AM_5
100
AcDbLine
 10
289.7993371463041
 20
231.8866228668215
 30
0.0
 11
289.7993371463041
 21
250.3866228668215
 31
0.0
  0
SOLID
  5
2A64
330
19B2
100
AcDbEntity
  8
AM_5
100
AcDbTrace
 10
289.2993371463041
 20
231.8866228668215
 30
0.0
 11
290.2993371463041
 21
231.8866228668215
 31
0.0
 12
289.7993371463041
 22
228.8866228668215
 32
0.0
 13
289.7993371463041
 23
228.8866228668215
 33
0.0
  0
SOLID
  5
2A65
330
19B2
100
AcDbEntity
  8
AM_5
100
AcDbTrace
 10
289.2993371463041
 20
250.3866228668215
 30
0.0
 11
290.2993371463041
 21
250.3866228668215
 31
0.0
 12
289.7993371463041
 22
253.3866228668216
 32
0.0
 13
289.7993371463041
 23
253.3866228668216
 33
0.0
  0
MTEXT
  5
2A66
330
19B2
100
AcDbEntity
  8
AM_5
100
AcDbMText
 10
287.2990418707135
 20
241.1366228668216
 30
0.0
 40
3.0
 41
0.0
 71
     5
 72
     1
  1
\A2;24.5
 11
0.0000000000000001
 21
1.0
 31
0.0
 73
     1
 44
1.0
1001
ACAD
1000
MTEXTBEGIN
1070
    73
1070
     1
1070
    44
1040
1.0
1070
    74
1070
     0
1000
MTEXTEND
  0
POINT
  5
2A67
330
19B2
100
AcDbEntity
  8
Defpoints
 62
     0
100
AcDbPoint
 10
263.9433371463041
 20
228.8866228668215
 30
0.0
  0
POINT
  5
2A68
330
19B2
100
AcDbEntity
  8
Defpoints
 62
     0
100
AcDbPoint
 10
263.9433371463041
 20
253.3866228668216
 30
0.0
  0
POINT
  5
2A69
330
19B2
100
AcDbEntity
  8
Defpoints
 62
     0
100
AcDbPoint
 10
289.7993371463041
 20
253.3866228668216
 30
0.0
  0
ENDBLK
  5
19BD
330
19B2
100
AcDbEntity
  8
0
100
AcDbBlockEnd
  0
BLOCK
  5
19EC
330
19E2
100
AcDbEntity
  8
0
100
AcDbBlockBegin
  2
*D3
 70
     1
 10
0.0
 20
0.0
 30
0.0
  3
*D3
  1

  0
LINE
  5
2A6A
330
19E2
100
AcDbEntity
  8
AM_5
100
AcDbLine
 10
264.9433371463041
 20
253.3866228668216
 30
0.0
 11
291.2993371463041
 21
253.3866228668216
 31
0.0
  0
LINE
  5
2A6B
330
19E2
100
AcDbEntity
  8
AM_5
100
AcDbLine
 10
264.9433371463041
 20
277.8866228668215
 30
0.0
 11
291.2993371463041
 21
277.8866228668215
 31
0.0
  0
LINE
  5
2A6C
330
19E2
100
AcDbEntity
  8
AM_5
100
AcDbLine
 10
289.7993371463041
 20
256.3866228668215
 30
0.0
 11
289.7993371463041
 21
274.8866228668215
 31
0.0
  0
SOLID
  5
2A6D
330
19E2
100
AcDbEntity
  8
AM_5
100
AcDbTrace
 10
289.2993371463041
 20
256.3866228668215
 30
0.0
 11
290.2993371463041
 21
256.3866228668215
 31
0.0
 12
289.7993371463041
 22
253.3866228668216
 32
0.0
 13
289.7993371463041
 23
253.3866228668216
 33
0.0
  0
SOLID
  5
2A6E
330
19E2
100
AcDbEntity
  8
AM_5
100
AcDbTrace
 10
289.2993371463041
 20
274.8866228668215
 30
0.0
 11
290.2993371463041
 21
274.8866228668215
 31
0.0
 12
289.7993371463041
 22
277.8866228668215
 32
0.0
 13
289.7993371463041
 23
277.8866228668215
 33
0.0
  0
MTEXT
  5
2A6F
330
19E2
100
AcDbEntity
  8
AM_5
100
AcDbMText
 10
287.2990418707135
 20
265.6366228668216
 30
0.0
 40
3.0
 41
0.0
 71
     5
 72
     1
  1
\A2;24.5
 11
0.0000000000000001
 21
1.0
 31
0.0
 73
     1
 44
1.0
1001
ACAD
1000
MTEXTBEGIN
1070
    73
1070
     1
1070
    44
1040
1.0
1070
    74
1070
     0
1000
MTEXTEND
  0
POINT
  5
2A70
330
19E2
100
AcDbEntity
  8
Defpoints
 62
     0
100
AcDbPoint
 10
263.9433371463041
 20
253.3866228668216
 30
0.0
  0
POINT
  5
2A71
330
19E2
100
AcDbEntity
  8
Defpoints
 62
     0
100
AcDbPoint
 10
263.9433371463041
 20
277.8866228668215
 30
0.0
  0
POINT
  5
2A72
330
19E2
100
AcDbEntity
  8
Defpoints
 62
     0
100
AcDbPoint
 10
289.7993371463041
 20
277.8866228668215
 30
0.0
  0
ENDBLK
  5
19ED
330
19E2
100
AcDbEntity
  8
0
100
AcDbBlockEnd
  0
BLOCK
  5
1A12
330
1A08
100
AcDbEntity
  8
0
100
AcDbBlockBegin
  2
*D4
 70
     1
 10
0.0
 20
0.0
 30
0.0
  3
*D4
  1

  0
LINE
  5
2A73
330
1A08
100
AcDbEntity
  8
AM_5
100
AcDbLine
 10
278.7993371463041
 20
214.3866228668215
 30
0.0
 11
299.2993371463041
 21
214.3866228668215
 31
0.0
  0
LINE
  5
2A74
330
1A08
100
AcDbEntity
  8
AM_5
100
AcDbLine
 10
264.9433371463041
 20
253.3866228668216
 30
0.0
 11
299.2993371463041
 21
253.3866228668216
 31
0.0
  0
LINE
  5
2A75
330
1A08
100
AcDbEntity
  8
AM_5
100
AcDbLine
 10
297.7993371463041
 20
217.3866228668215
 30
0.0
 11
297.7993371463041
 21
250.3866228668215
 31
0.0
  0
SOLID
  5
2A76
330
1A08
100
AcDbEntity
  8
AM_5
100
AcDbTrace
 10
297.2993371463041
 20
217.3866228668215
 30
0.0
 11
298.2993371463041
 21
217.3866228668215
 31
0.0
 12
297.7993371463041
 22
214.3866228668215
 32
0.0
 13
297.7993371463041
 23
214.3866228668215
 33
0.0
  0
SOLID
  5
2A77
330
1A08
100
AcDbEntity
  8
AM_5
100
AcDbTrace
 10
297.2993371463041
 20
250.3866228668215
 30
0.0
 11
298.2993371463041
 21
250.3866228668215
 31
0.0
 12
297.7993371463041
 22
253.3866228668216
 32
0.0
 13
297.7993371463041
 23
253.3866228668216
 33
0.0
  0
MTEXT
  5
2A78
330
1A08
100
AcDbEntity
  8
AM_5
100
AcDbMText
 10
295.299337146304
 20
233.8866228668216
 30
0.0
 40
3.0
 41
0.0
 71
     5
 72
     1
  1
\A2;39
 11
0.0000000000000001
 21
1.0
 31
0.0
 73
     1
 44
1.0
1001
ACAD
1000
MTEXTBEGIN
1070
    73
1070
     1
1070
    44
1040
1.0
1070
    74
1070
     0
1000
MTEXTEND
  0
POINT
  5
2A79
330
1A08
100
AcDbEntity
  8
Defpoints
 62
     0
100
AcDbPoint
 10
277.7993371463041
 20
214.3866228668215
 30
0.0
  0
POINT
  5
2A7A
330
1A08
100
AcDbEntity
  8
Defpoints
 62
     0
100
AcDbPoint
 10
263.9433371463041
 20
253.3866228668216
 30
0.0
  0
POINT
  5
2A7B
330
1A08
100
AcDbEntity
  8
Defpoints
 62
     0
100
AcDbPoint
 10
297.7993371463041
 20
253.3866228668216
 30
0.0
  0
ENDBLK
  5
1A13
330
1A08
100
AcDbEntity
  8
0
100
AcDbBlockEnd
  0
BLOCK
  5
1A89
330
1A7F
100
AcDbEntity
  8
0
100
AcDbBlockBegin
  2
*D5
 70
     1
 10
0.0
 20
0.0
 30
0.0
  3
*D5
  1

  0
LINE
  5
2A7C
330
1A7F
100
AcDbEntity
  8
AM_5
100
AcDbLine
 10
204.8258993388558
 20
242.8866228668216
 30
0.0
 11
217.3258993388558
 21
242.8866228668216
 31
0.0
  0
LINE
  5
2A7D
330
1A7F
100
AcDbEntity
  8
AM_5
100
AcDbLine
 10
204.8258993388558
 20
263.8866228668216
 30
0.0
 11
217.3258993388558
 21
263.8866228668216
 31
0.0
  0
LINE
  5
2A7E
330
1A7F
100
AcDbEntity
  8
AM_5
100
AcDbLine
 10
215.8258993388558
 20
245.8866228668215
 30
0.0
 11
215.8258993388558
 21
260.8866228668215
 31
0.0
  0
SOLID
  5
2A7F
330
1A7F
100
AcDbEntity
  8
AM_5
100
AcDbTrace
 10
215.3258993388558
 20
245.8866228668215
 30
0.0
 11
216.3258993388558
 21
245.8866228668215
 31
0.0
 12
215.8258993388558
 22
242.8866228668216
 32
0.0
 13
215.8258993388558
 23
242.8866228668216
 33
0.0
  0
SOLID
  5
2A80
330
1A7F
100
AcDbEntity
  8
AM_5
100
AcDbTrace
 10
215.3258993388558
 20
260.8866228668215
 30
0.0
 11
216.3258993388558
 21
260.8866228668215
 31
0.0
 12
215.8258993388558
 22
263.8866228668216
 32
0.0
 13
215.8258993388558
 23
263.8866228668216
 33
0.0
  0
MTEXT
  5
2A81
330
1A7F
100
AcDbEntity
  8
AM_5
100
AcDbMText
 10
213.3256040632653
 20
253.3866228668216
 30
0.0
 40
3.0
 41
0.0
 71
     5
 72
     1
  1
\A2;21
 11
0.0000000000000001
 21
1.0
 31
0.0
 73
     1
 44
1.0
1001
ACAD
1000
MTEXTBEGIN
1070
    73
1070
     1
1070
    44
1040
1.0
1070
    74
1070
     0
1000
MTEXTEND
  0
POINT
  5
2A82
330
1A7F
100
AcDbEntity
  8
Defpoints
 62
     0
100
AcDbPoint
 10
203.8258993388558
 20
242.8866228668216
 30
0.0
  0
POINT
  5
2A83
330
1A7F
100
AcDbEntity
  8
Defpoints
 62
     0
100
AcDbPoint
 10
203.8258993388558
 20
263.8866228668216
 30
0.0
  0
POINT
  5
2A84
330
1A7F
100
AcDbEntity
  8
Defpoints
 62
     0
100
AcDbPoint
 10
215.8258993388558
 20
263.8866228668216
 30
0.0
  0
ENDBLK
  5
1A8A
330
1A7F
100
AcDbEntity
  8
0
100
AcDbBlockEnd
  0
BLOCK
  5
1AB9
330
1AAF
100
AcDbEntity
  8
0
100
AcDbBlockBegin
  2
*D6
 70
     1
 10
0.0
 20
0.0
 30
0.0
  3
*D6
  1

  0
LINE
  5
2A85
330
1AAF
100
AcDbEntity
  8
AM_5
100
AcDbLine
 10
255.2993371463041
 20
219.2426228668215
 30
0.0
 11
255.2993371463041
 21
200.8866218668215
 31
0.0
  0
LINE
  5
2A86
330
1AAF
100
AcDbEntity
  8
AM_5
100
AcDbLine
 10
277.7993371463041
 20
213.3866228668215
 30
0.0
 11
277.7993371463041
 21
200.8866218668215
 31
0.0
  0
LINE
  5
2A87
330
1AAF
100
AcDbEntity
  8
AM_5
100
AcDbLine
 10
258.2993371463041
 20
202.3866218668215
 30
0.0
 11
274.7993371463041
 21
202.3866218668215
 31
0.0
  0
SOLID
  5
2A88
330
1AAF
100
AcDbEntity
  8
AM_5
100
AcDbTrace
 10
258.2993371463041
 20
202.8866218668215
 30
0.0
 11
258.2993371463041
 21
201.8866218668216
 31
0.0
 12
255.2993371463041
 22
202.3866218668215
 32
0.0
 13
255.2993371463041
 23
202.3866218668215
 33
0.0
  0
SOLID
  5
2A89
330
1AAF
100
AcDbEntity
  8
AM_5
100
AcDbTrace
 10
274.7993371463041
 20
202.8866218668215
 30
0.0
 11
274.7993371463041
 21
201.8866218668216
 31
0.0
 12
277.7993371463041
 22
202.3866218668215
 32
0.0
 13
277.7993371463041
 23
202.3866218668215
 33
0.0
  0
MTEXT
  5
2A8A
330
1AAF
100
AcDbEntity
  8
AM_5
100
AcDbMText
 10
266.5493371463041
 20
204.8869171424121
 30
0.0
 40
3.0
 41
0.0
 71
     5
 72
     1
  1
\A2;22.5
 73
     1
 44
1.0
1001
ACAD
1000
MTEXTBEGIN
1070
    73
1070
     1
1070
    44
1040
1.0
1070
    74
1070
     0
1000
MTEXTEND
  0
POINT
  5
2A8B
330
1AAF
100
AcDbEntity
  8
Defpoints
 62
     0
100
AcDbPoint
 10
255.2993371463041
 20
220.2426228668215
 30
0.0
  0
POINT
  5
2A8C
330
1AAF
100
AcDbEntity
  8
Defpoints
 62
     0
100
AcDbPoint
 10
277.7993371463041
 20
214.3866228668215
 30
0.0
  0
POINT
  5
2A8D
330
1AAF
100
AcDbEntity
  8
Defpoints
 62
     0
100
AcDbPoint
 10
277.7993371463041
 20
202.3866218668215
 30
0.0
  0
ENDBLK
  5
1ABA
330
1AAF
100
AcDbEntity
  8
0
100
AcDbBlockEnd
  0
BLOCK
  5
1ADF
330
1AD5
100
AcDbEntity
  8
0
100
AcDbBlockBegin
  2
*D7
 70
     1
 10
0.0
 20
0.0
 30
0.0
  3
*D7
  1

  0
LINE
  5
2A8E
330
1AD5
100
AcDbEntity
  8
AM_5
100
AcDbLine
 10
205.7818993388559
 20
145.0845389407989
 30
0.0
 11
218.2818993388559
 21
145.0845389407989
 31
0.0
  0
LINE
  5
2A8F
330
1AD5
100
AcDbEntity
  8
AM_5
100
AcDbLine
 10
187.7258993388558
 20
156.0845389407989
 30
0.0
 11
218.2818993388559
 21
156.0845389407989
 31
0.0
  0
LINE
  5
2A90
330
1AD5
100
AcDbEntity
  8
AM_5
100
AcDbLine
 10
216.7818993388558
 20
148.0845389407989
 30
0.0
 11
216.7818993388558
 21
153.0845389407988
 31
0.0
  0
SOLID
  5
2A91
330
1AD5
100
AcDbEntity
  8
AM_5
100
AcDbTrace
 10
216.2818993388559
 20
148.0845389407989
 30
0.0
 11
217.2818993388558
 21
148.0845389407989
 31
0.0
 12
216.7818993388558
 22
145.0845389407989
 32
0.0
 13
216.7818993388558
 23
145.0845389407989
 33
0.0
  0
SOLID
  5
2A92
330
1AD5
100
AcDbEntity
  8
AM_5
100
AcDbTrace
 10
216.2818993388559
 20
153.0845389407988
 30
0.0
 11
217.2818993388558
 21
153.0845389407988
 31
0.0
 12
216.7818993388558
 22
156.0845389407989
 32
0.0
 13
216.7818993388558
 23
156.0845389407989
 33
0.0
  0
MTEXT
  5
2A93
330
1AD5
100
AcDbEntity
  8
AM_5
100
AcDbMText
 10
214.2818993388558
 20
150.5845389407989
 30
0.0
 40
3.0
 41
0.0
 71
     5
 72
     1
  1
\A2;11
 11
0.0000000000000001
 21
1.0
 31
0.0
 73
     1
 44
1.0
1001
ACAD
1000
MTEXTBEGIN
1070
    73
1070
     1
1070
    44
1040
1.0
1070
    74
1070
     0
1000
MTEXTEND
  0
POINT
  5
2A94
330
1AD5
100
AcDbEntity
  8
Defpoints
 62
     0
100
AcDbPoint
 10
204.7818993388558
 20
145.0845389407989
 30
0.0
  0
POINT
  5
2A95
330
1AD5
100
AcDbEntity
  8
Defpoints
 62
     0
100
AcDbPoint
 10
186.7258993388558
 20
156.0845389407989
 30
0.0
  0
POINT
  5
2A96
330
1AD5
100
AcDbEntity
  8
Defpoints
 62
     0
100
AcDbPoint
 10
216.7818993388558
 20
156.0845389407989
 30
0.0
  0
ENDBLK
  5
1AE0
330
1AD5
100
AcDbEntity
  8
0
100
AcDbBlockEnd
  0
BLOCK
  5
1B05
330
1AFB
100
AcDbEntity
  8
0
100
AcDbBlockBegin
  2
*D8
 70
     1
 10
0.0
 20
0.0
 30
0.0
  3
*D8
  1

  0
LINE
  5
2A97
330
1AFB
100
AcDbEntity
  8
AM_5
100
AcDbLine
 10
205.7818993388559
 20
145.0845389407989
 30
0.0
 11
226.2818993388559
 21
145.0845389407989
 31
0.0
  0
LINE
  5
2A98
330
1AFB
100
AcDbEntity
  8
AM_5
100
AcDbLine
 10
201.3258993388558
 20
178.0845389407989
 30
0.0
 11
226.2818993388559
 21
178.0845389407989
 31
0.0
  0
LINE
  5
2A99
330
1AFB
100
AcDbEntity
  8
AM_5
100
AcDbLine
 10
224.7818993388559
 20
148.0845389407989
 30
0.0
 11
224.7818993388559
 21
175.0845389407989
 31
0.0
  0
SOLID
  5
2A9A
330
1AFB
100
AcDbEntity
  8
AM_5
100
AcDbTrace
 10
224.2818993388559
 20
148.0845389407989
 30
0.0
 11
225.2818993388558
 21
148.0845389407989
 31
0.0
 12
224.7818993388559
 22
145.0845389407989
 32
0.0
 13
224.7818993388559
 23
145.0845389407989
 33
0.0
  0
SOLID
  5
2A9B
330
1AFB
100
AcDbEntity
  8
AM_5
100
AcDbTrace
 10
224.2818993388559
 20
175.0845389407989
 30
0.0
 11
225.2818993388558
 21
175.0845389407989
 31
0.0
 12
224.7818993388559
 22
178.0845389407989
 32
0.0
 13
224.7818993388559
 23
178.0845389407989
 33
0.0
  0
MTEXT
  5
2A9C
330
1AFB
100
AcDbEntity
  8
AM_5
100
AcDbMText
 10
222.2818993388558
 20
161.5845389407989
 30
0.0
 40
3.0
 41
0.0
 71
     5
 72
     1
  1
\A2;33
 11
0.0000000000000001
 21
1.0
 31
0.0
 73
     1
 44
1.0
1001
ACAD
1000
MTEXTBEGIN
1070
    73
1070
     1
1070
    44
1040
1.0
1070
    74
1070
     0
1000
MTEXTEND
  0
POINT
  5
2A9D
330
1AFB
100
AcDbEntity
  8
Defpoints
 62
     0
100
AcDbPoint
 10
204.7818993388558
 20
145.0845389407989
 30
0.0
  0
POINT
  5
2A9E
330
1AFB
100
AcDbEntity
  8
Defpoints
 62
     0
100
AcDbPoint
 10
200.3258993388558
 20
178.0845389407989
 30
0.0
  0
POINT
  5
2A9F
330
1AFB
100
AcDbEntity
  8
Defpoints
 62
     0
100
AcDbPoint
 10
224.7818993388559
 20
178.0845389407989
 30
0.0
  0
ENDBLK
  5
1B06
330
1AFB
100
AcDbEntity
  8
0
100
AcDbBlockEnd
  0
BLOCK
  5
1B2B
330
1B21
100
AcDbEntity
  8
0
100
AcDbBlockBegin
  2
*D9
 70
     1
 10
0.0
 20
0.0
 30
0.0
  3
*D9
  1

  0
LINE
  5
2AA0
330
1B21
100
AcDbEntity
  8
AM_5
100
AcDbLine
 10
205.7818993388559
 20
145.0845389407989
 30
0.0
 11
234.2818993388558
 21
145.0845389407989
 31
0.0
  0
LINE
  5
2AA1
330
1B21
100
AcDbEntity
  8
AM_5
100
AcDbLine
 10
205.7818993388559
 20
189.0845389407989
 30
0.0
 11
234.2818993388558
 21
189.0845389407989
 31
0.0
  0
LINE
  5
2AA2
330
1B21
100
AcDbEntity
  8
AM_5
100
AcDbLine
 10
232.7818993388559
 20
148.0845389407989
 30
0.0
 11
232.7818993388559
 21
186.0845389407989
 31
0.0
  0
SOLID
  5
2AA3
330
1B21
100
AcDbEntity
  8
AM_5
100
AcDbTrace
 10
232.2818993388558
 20
148.0845389407989
 30
0.0
 11
233.2818993388559
 21
148.0845389407989
 31
0.0
 12
232.7818993388559
 22
145.0845389407989
 32
0.0
 13
232.7818993388559
 23
145.0845389407989
 33
0.0
  0
SOLID
  5
2AA4
330
1B21
100
AcDbEntity
  8
AM_5
100
AcDbTrace
 10
232.2818993388558
 20
186.0845389407989
 30
0.0
 11
233.2818993388559
 21
186.0845389407989
 31
0.0
 12
232.7818993388559
 22
189.0845389407989
 32
0.0
 13
232.7818993388559
 23
189.0845389407989
 33
0.0
  0
MTEXT
  5
2AA5
330
1B21
100
AcDbEntity
  8
AM_5
100
AcDbMText
 10
230.2818993388558
 20
167.0845389407989
 30
0.0
 40
3.0
 41
0.0
 71
     5
 72
     1
  1
\A2;44
 11
0.0000000000000001
 21
1.0
 31
0.0
 73
     1
 44
1.0
1001
ACAD
1000
MTEXTBEGIN
1070
    73
1070
     1
1070
    44
1040
1.0
1070
    74
1070
     0
1000
MTEXTEND
  0
POINT
  5
2AA6
330
1B21
100
AcDbEntity
  8
Defpoints
 62
     0
100
AcDbPoint
 10
204.7818993388558
 20
145.0845389407989
 30
0.0
  0
POINT
  5
2AA7
330
1B21
100
AcDbEntity
  8
Defpoints
 62
     0
100
AcDbPoint
 10
204.7818993388558
 20
189.0845389407989
 30
0.0
  0
POINT
  5
2AA8
330
1B21
100
AcDbEntity
  8
Defpoints
 62
     0
100
AcDbPoint
 10
232.7818993388559
 20
189.0845389407989
 30
0.0
  0
ENDBLK
  5
1B2C
330
1B21
100
AcDbEntity
  8
0
100
AcDbBlockEnd
  0
BLOCK
  5
1B57
330
1B4B
100
AcDbEntity
  8
0
100
AcDbBlockBegin
  2
*D10
 70
     1
 10
0.0
 20
0.0
 30
0.0
  3
*D10
  1

  0
LINE
  5
2AA9
330
1B4B
100
AcDbEntity
  8
AM_5
100
AcDbLine
 10
135.7818993388558
 20
213.3866228668215
 30
0.0
 11
135.7818993388558
 21
200.8866228668214
 31
0.0
  0
LINE
  5
2AAA
330
1B4B
100
AcDbEntity
  8
AM_5
100
AcDbLine
 10
141.7818993388558
 20
236.8426228668216
 30
0.0
 11
141.7818993388558
 21
200.8866228668214
 31
0.0
  0
LINE
  5
2AAB
330
1B4B
100
AcDbEntity
  8
AM_5
100
AcDbLine
 10
132.7818993388558
 20
202.3866228668214
 30
0.0
 11
129.7818993388558
 21
202.3866228668214
 31
0.0
  0
LINE
  5
2AAC
330
1B4B
100
AcDbEntity
  8
AM_5
100
AcDbLine
 10
144.7818993388558
 20
202.3866228668214
 30
0.0
 11
147.7818993388558
 21
202.3866228668214
 31
0.0
  0
LINE
  5
2AAD
330
1B4B
100
AcDbEntity
  8
AM_5
100
AcDbLine
 10
135.7818993388558
 20
202.3866228668214
 30
0.0
 11
141.7818993388558
 21
202.3866228668214
 31
0.0
  0
SOLID
  5
2AAE
330
1B4B
100
AcDbEntity
  8
AM_5
100
AcDbTrace
 10
132.7818993388558
 20
202.8866228668214
 30
0.0
 11
132.7818993388558
 21
201.8866228668214
 31
0.0
 12
135.7818993388558
 22
202.3866228668214
 32
0.0
 13
135.7818993388558
 23
202.3866228668214
 33
0.0
  0
SOLID
  5
2AAF
330
1B4B
100
AcDbEntity
  8
AM_5
100
AcDbTrace
 10
144.7818993388558
 20
202.8866228668214
 30
0.0
 11
144.7818993388558
 21
201.8866228668214
 31
0.0
 12
141.7818993388558
 22
202.3866228668214
 32
0.0
 13
141.7818993388558
 23
202.3866228668214
 33
0.0
  0
MTEXT
  5
2AB0
330
1B4B
100
AcDbEntity
  8
AM_5
100
AcDbMText
 10
138.7818993388558
 20
204.8866228668214
 30
0.0
 40
3.0
 41
0.0
 71
     5
 72
     1
  1
\A2;6
 73
     1
 44
1.0
1001
ACAD
1000
MTEXTBEGIN
1070
    73
1070
     1
1070
    44
1040
1.0
1070
    74
1070
     0
1000
MTEXTEND
  0
POINT
  5
2AB1
330
1B4B
100
AcDbEntity
  8
Defpoints
 62
     0
100
AcDbPoint
 10
135.7818993388558
 20
214.3866228668215
 30
0.0
  0
POINT
  5
2AB2
330
1B4B
100
AcDbEntity
  8
Defpoints
 62
     0
100
AcDbPoint
 10
141.7818993388558
 20
237.8426228668216
 30
0.0
  0
POINT
  5
2AB3
330
1B4B
100
AcDbEntity
  8
Defpoints
 62
     0
100
AcDbPoint
 10
141.7818993388558
 20
202.3866228668214
 30
0.0
  0
ENDBLK
  5
1B58
330
1B4B
100
AcDbEntity
  8
0
100
AcDbBlockEnd
  0
BLOCK
  5
1B81
330
1B75
100
AcDbEntity
  8
0
100
AcDbBlockBegin
  2
*D11
 70
     1
 10
0.0
 20
0.0
 30
0.0
  3
*D11
  1

  0
LINE
  5
2AB4
330
1B75
100
AcDbEntity
  8
AM_5
100
AcDbLine
 10
198.7818993388558
 20
236.8426228668216
 30
0.0
 11
198.7818993388558
 21
200.8866228668216
 31
0.0
  0
LINE
  5
2AB5
330
1B75
100
AcDbEntity
  8
AM_5
100
AcDbLine
 10
204.7818993388558
 20
213.3866228668215
 30
0.0
 11
204.7818993388558
 21
200.8866228668216
 31
0.0
  0
LINE
  5
2AB6
330
1B75
100
AcDbEntity
  8
AM_5
100
AcDbLine
 10
195.7818993388558
 20
202.3866228668216
 30
0.0
 11
192.7818993388558
 21
202.3866228668216
 31
0.0
  0
LINE
  5
2AB7
330
1B75
100
AcDbEntity
  8
AM_5
100
AcDbLine
 10
207.7818993388559
 20
202.3866228668216
 30
0.0
 11
210.7818993388558
 21
202.3866228668216
 31
0.0
  0
LINE
  5
2AB8
330
1B75
100
AcDbEntity
  8
AM_5
100
AcDbLine
 10
198.7818993388558
 20
202.3866228668216
 30
0.0
 11
204.7818993388558
 21
202.3866228668216
 31
0.0
  0
SOLID
  5
2AB9
330
1B75
100
AcDbEntity
  8
AM_5
100
AcDbTrace
 10
195.7818993388558
 20
202.8866228668216
 30
0.0
 11
195.7818993388558
 21
201.8866228668216
 31
0.0
 12
198.7818993388558
 22
202.3866228668216
 32
0.0
 13
198.7818993388558
 23
202.3866228668216
 33
0.0
  0
SOLID
  5
2ABA
330
1B75
100
AcDbEntity
  8
AM_5
100
AcDbTrace
 10
207.7818993388559
 20
202.8866228668216
 30
0.0
 11
207.7818993388559
 21
201.8866228668216
 31
0.0
 12
204.7818993388558
 22
202.3866228668216
 32
0.0
 13
204.7818993388558
 23
202.3866228668216
 33
0.0
  0
MTEXT
  5
2ABB
330
1B75
100
AcDbEntity
  8
AM_5
100
AcDbMText
 10
201.7818993388559
 20
204.8866228668216
 30
0.0
 40
3.0
 41
0.0
 71
     5
 72
     1
  1
\A2;6
 73
     1
 44
1.0
1001
ACAD
1000
MTEXTBEGIN
1070
    73
1070
     1
1070
    44
1040
1.0
1070
    74
1070
     0
1000
MTEXTEND
  0
POINT
  5
2ABC
330
1B75
100
AcDbEntity
  8
Defpoints
 62
     0
100
AcDbPoint
 10
198.7818993388558
 20
237.8426228668216
 30
0.0
  0
POINT
  5
2ABD
330
1B75
100
AcDbEntity
  8
Defpoints
 62
     0
100
AcDbPoint
 10
204.7818993388558
 20
214.3866228668215
 30
0.0
  0
POINT
  5
2ABE
330
1B75
100
AcDbEntity
  8
Defpoints
 62
     0
100
AcDbPoint
 10
204.7818993388558
 20
202.3866228668216
 30
0.0
  0
ENDBLK
  5
1B82
330
1B75
100
AcDbEntity
  8
0
100
AcDbBlockEnd
  0
BLOCK
  5
2AF5
330
2AEB
100
AcDbEntity
  8
0
100
AcDbBlockBegin
  2
*D12
 70
     1
 10
0.0
 20
0.0
 30
0.0
  3
*D12
  1

  0
LINE
  5
2AF9
330
2AEB
100
AcDbEntity
  8
AM_5
100
AcDbLine
 10
278.7993371463041
 20
288.3866228668215
 30
0.0
 11
307.2993371463041
 21
288.3866228668215
 31
0.0
  0
LINE
  5
2AFA
330
2AEB
100
AcDbEntity
  8
AM_5
100
AcDbLine
 10
278.7993371463041
 20
214.3866228668215
 30
0.0
 11
307.2993371463041
 21
214.3866228668215
 31
0.0
  0
LINE
  5
2AFB
330
2AEB
100
AcDbEntity
  8
AM_5
100
AcDbLine
 10
305.7993371463041
 20
285.3866228668215
 30
0.0
 11
305.7993371463041
 21
217.3866228668215
 31
0.0
  0
SOLID
  5
2AFC
330
2AEB
100
AcDbEntity
  8
AM_5
100
AcDbTrace
 10
305.2993371463041
 20
285.3866228668215
 30
0.0
 11
306.2993371463041
 21
285.3866228668215
 31
0.0
 12
305.7993371463041
 22
288.3866228668215
 32
0.0
 13
305.7993371463041
 23
288.3866228668215
 33
0.0
  0
SOLID
  5
2AFD
330
2AEB
100
AcDbEntity
  8
AM_5
100
AcDbTrace
 10
305.2993371463041
 20
217.3866228668215
 30
0.0
 11
306.2993371463041
 21
217.3866228668215
 31
0.0
 12
305.7993371463041
 22
214.3866228668215
 32
0.0
 13
305.7993371463041
 23
214.3866228668215
 33
0.0
  0
MTEXT
  5
2AFE
330
2AEB
100
AcDbEntity
  8
AM_5
100
AcDbMText
 10
303.2993371463041
 20
251.3866228668216
 30
0.0
 40
3.0
 41
0.0
 71
     5
 72
     1
  1
\A2;74
 11
0.0000000000000001
 21
1.0
 31
0.0
 73
     1
 44
1.0
1001
ACAD
1000
MTEXTBEGIN
1070
    73
1070
     1
1070
    44
1040
1.0
1070
    74
1070
     0
1000
MTEXTEND
  0
POINT
  5
2AFF
330
2AEB
100
AcDbEntity
  8
Defpoints
 62
     0
100
AcDbPoint
 10
277.7993371463041
 20
288.3866228668215
 30
0.0
  0
POINT
  5
2B00
330
2AEB
100
AcDbEntity
  8
Defpoints
 62
     0
100
AcDbPoint
 10
277.7993371463041
 20
214.3866228668215
 30
0.0
  0
POINT
  5
2B01
330
2AEB
100
AcDbEntity
  8
Defpoints
 62
     0
100
AcDbPoint
 10
305.7993371463041
 20
214.3866228668215
 30
0.0
  0
ENDBLK
  5
2AF6
330
2AEB
100
AcDbEntity
  8
0
100
AcDbBlockEnd
  0
BLOCK
  5
2B37
330
2B32
100
AcDbEntity
  8
0
100
AcDbBlockBegin
  2
*S13
 70
     1
 10
0.0
 20
0.0
 30
0.0
  3
*S13
  1

  0
LINE
  5
2B33
330
2B32
100
AcDbEntity
  8
AM_5
 62
     5
100
AcDbLine
 10
205.0391038213795
 20
135.3233274611673
 30
0.0
 11
191.9614241361894
 21
135.3233274611673
 31
0.0
  0
LINE
  5
2B34
330
2B32
100
AcDbEntity
  8
AM_5
 62
     5
100
AcDbLine
 10
191.9614241361894
 20
135.3233274611673
 30
0.0
 11
184.6639772717841
 21
148.2632118444089
 31
0.0
  0
TRACE
  5
2B35
330
2B32
100
AcDbEntity
  8
AM_5
 62
     5
370
    35
100
AcDbTrace
 10
185.065336200308
 20
148.4895581831946
 30
0.0
 11
184.2626183432602
 21
148.0368655056231
 31
0.0
 12
182.9447061303808
 22
151.3118355900255
 32
0.0
 13
182.9447061303808
 23
151.3118355900255
 33
0.0
  0
MTEXT
  5
2B36
330
2B32
100
AcDbEntity
  8
AM_5
 62
     2
100
AcDbMText
 10
205.0391038213795
 20
130.6546480799516
 30
0.0
 40
3.5
 41
0.0
 71
     9
 72
     5
  1

  7
ACISOTS
210
0.0
220
0.0
230
-1.0
 11
-1.0
 21
0.0
 31
0.0
 73
     1
 44
1.0
1001
ACAD
1000
MTEXTBEGIN
1070
    73
1070
     1
1070
    44
1040
1.0
1070
    74
1070
     0
1000
MTEXTEND
  0
ENDBLK
  5
2B38
330
2B32
100
AcDbEntity
  8
0
100
AcDbBlockEnd
  0
BLOCK
  5
2B3F
330
2B3A
100
AcDbEntity
  8
0
100
AcDbBlockBegin
  2
*S14
 70
     1
 10
0.0
 20
0.0
 30
0.0
  3
*S14
  1

  0
LINE
  5
2B3B
330
2B3A
100
AcDbEntity
  8
AM_5
 62
     5
100
AcDbLine
 10
224.0764322164471
 20
273.9443155423207
 30
0.0
 11
208.4615403236578
 21
273.9443155423207
 31
0.0
  0
LINE
  5
2B3C
330
2B3A
100
AcDbEntity
  8
AM_5
 62
     5
100
AcDbLine
 10
208.4615403236578
 20
273.9443155423207
 30
0.0
 11
202.7781658491953
 21
267.9904738745328
 31
0.0
  0
TRACE
  5
2B3D
330
2B3A
100
AcDbEntity
  8
AM_5
 62
     5
370
    35
100
AcDbTrace
 10
202.4448599054789
 20
268.3086386156197
 30
0.0
 11
203.1114717929117
 21
267.6723091334459
 31
0.0
 12
200.3614646977774
 22
265.4587638704575
 32
0.0
 13
200.3614646977774
 23
265.4587638704575
 33
0.0
  0
MTEXT
  5
2B3E
330
2B3A
100
AcDbEntity
  8
AM_5
 62
     2
100
AcDbMText
 10
224.0764322164471
 20
269.275636161105
 30
0.0
 40
3.5
 41
0.0
 71
     9
 72
     5
  1

  7
ACISOTS
210
0.0
220
0.0
230
-1.0
 11
-1.0
 21
0.0
 31
0.0
 73
     1
 44
1.0
1001
ACAD
1000
MTEXTBEGIN
1070
    73
1070
     1
1070
    44
1040
1.0
1070
    74
1070
     0
1000
MTEXTEND
  0
ENDBLK
  5
2B40
330
2B3A
100
AcDbEntity
  8
0
100
AcDbBlockEnd
  0
BLOCK
  5
2B47
330
2B42
100
AcDbEntity
  8
0
100
AcDbBlockBegin
  2
*S15
 70
     1
 10
0.0
 20
0.0
 30
0.0
  3
*S15
  1

  0
LINE
  5
2B43
330
2B42
100
AcDbEntity
  8
AM_5
 62
     5
100
AcDbLine
 10
286.7142339405163
 20
296.6754319253736
 30
0.0
 11
269.3310677738021
 21
296.6754319253736
 31
0.0
  0
LINE
  5
2B44
330
2B42
100
AcDbEntity
  8
AM_5
 62
     5
100
AcDbLine
 10
269.3310677738021
 20
296.6754319253736
 30
0.0
 11
262.6731833481563
 21
284.8915546334099
 31
0.0
  0
TRACE
  5
2B45
330
2B42
100
AcDbEntity
  8
AM_5
 62
     5
370
    35
100
AcDbTrace
 10
262.2720047032256
 20
285.11822035521
 30
0.0
 11
263.0743619930871
 21
284.6648889116099
 31
0.0
 12
260.9514862518981
 22
281.8443002776438
 32
0.0
 13
260.9514862518981
 23
281.8443002776438
 33
0.0
  0
MTEXT
  5
2B46
330
2B42
100
AcDbEntity
  8
AM_5
 62
     2
100
AcDbMText
 10
286.7142339405163
 20
295.6340498867426
 30
0.0
 40
3.5
 41
0.0
 71
     9
 72
     5
  1

  7
ACISOTS
210
0.0
220
0.0
230
-1.0
 11
-1.0
 21
0.0
 31
0.0
 73
     1
 44
1.0
1001
ACAD
1000
MTEXTBEGIN
1070
    73
1070
     1
1070
    44
1040
1.0
1070
    74
1070
     0
1000
MTEXTEND
  0
ENDBLK
  5
2B48
330
2B42
100
AcDbEntity
  8
0
100
AcDbBlockEnd
  0
ENDSEC
  0
SECTION
  2
ENTITIES
  0
TEXT
  5
13F1
330
1F
100
AcDbEntity
  8
LOGO
 62
     7
100
AcDbText
 10
161.921196391571
 20
106.8450682624471
 30
0.0
 40
3.072803004814478
  1
Order example:
 41
0.8
  7
CHINESET
100
AcDbText
  0
TEXT
  5
13F2
330
1F
100
AcDbEntity
  8
LOGO
 62
     7
100
AcDbText
 10
162.4724826616815
 20
111.1709386612455
 30
0.0
 40
4.609204507221718
  1
訂購代號:
  7
CHINESET
100
AcDbText
  0
LINE
  5
13F3
330
1F
100
AcDbEntity
  8
LOGO
 62
     1
100
AcDbLine
 10
324.3146422016955
 20
116.9411385739325
 30
0.0
 11
109.8848034841913
 21
116.9411385739325
 31
0.0
  0
LINE
  5
13F4
330
1F
100
AcDbEntity
  8
LOGO
 62
     1
100
AcDbLine
 10
324.3146422016955
 20
93.89511603782393
 30
0.0
 11
109.8848034841913
 21
93.89511603782393
 31
0.0
  0
LINE
  5
13F5
330
1F
100
AcDbEntity
  8
LOGO
 62
     1
100
AcDbLine
 10
160.5860530636304
 20
93.89511603782393
 30
0.0
 11
160.5860530636304
 21
116.9411385739325
 31
0.0
  0
LINE
  5
13F6
330
1F
100
AcDbEntity
  8
LOGO
 62
     1
100
AcDbLine
 10
109.8848034841913
 20
93.89511603782393
 30
0.0
 11
109.8848034841913
 21
116.9411385739325
 31
0.0
  0
TEXT
  5
13F7
330
1F
100
AcDbEntity
  8
LOGO
  6
Continuous
 62
     5
100
AcDbText
 10
118.1630383730374
 20
98.422472385562
 30
0.0
 40
3.456903380416289
  1
金器工業股份有限公司
  7
CHINESET
100
AcDbText
  0
TEXT
  5
13F8
330
1F
100
AcDbEntity
  8
LOGO
  6
Continuous
 62
     5
100
AcDbText
 10
111.8133907778193
 20
94.96489172311491
 30
0.0
 40
2.304602253610859
  1
MINDMAN INDUSTRIAL CO., LTD.
 41
0.85
  7
CHINESET
100
AcDbText
  0
LINE
  5
13F9
330
1F
100
AcDbEntity
  8
LOGO
 62
     1
100
AcDbLine
 10
160.5860530636304
 20
112.3319340667109
 30
0.0
 11
126.7852200106711
 21
112.3319340667109
 31
0.0
  0
LINE
  5
13FA
330
1F
100
AcDbEntity
  8
LOGO
 62
     1
100
AcDbLine
 10
160.5860530636304
 20
107.7227295594891
 30
0.0
 11
126.7852200106711
 21
107.7227295594891
 31
0.0
  0
LINE
  5
13FB
330
1F
100
AcDbEntity
  8
LOGO
 62
     1
100
AcDbLine
 10
160.5860530636304
 20
103.1135250522674
 30
0.0
 11
109.8848034841913
 21
103.1135250522674
 31
0.0
  0
LINE
  5
13FC
330
1F
100
AcDbEntity
  8
LOGO
 62
     1
100
AcDbLine
 10
126.7852200106711
 20
103.1135250522674
 30
0.0
 11
126.7852200106711
 21
116.9411385739325
 31
0.0
  0
TEXT
  5
13FD
330
1F
100
AcDbEntity
  8
LOGO
 62
     6
100
AcDbText
 10
148.6793214183156
 20
104.2658261790728
 30
0.0
 40
2.304602253610859
  1
m/m
  7
CHINESET
 72
     1
 11
152.739811103249
 21
105.4181273058782
 31
0.0
100
AcDbText
 73
     2
  0
TEXT
  5
13FE
330
1F
100
AcDbEntity
  8
LOGO
 62
     6
100
AcDbText
 10
148.6793214183156
 20
113.4842351935163
 30
0.0
 40
2.304602253610859
  1
1 : 1
  7
CHINESET
 72
     1
 11
152.739811103249
 21
114.6365363203218
 31
0.0
100
AcDbText
 73
     2
  0
LINE
  5
13FF
330
1F
100
AcDbEntity
  8
LOGO
 62
     1
100
AcDbLine
 10
145.2220380395578
 20
103.1135250522674
 30
0.0
 11
145.2220380395578
 21
116.9411385739325
 31
0.0
  0
CIRCLE
  5
1400
330
1F
100
AcDbEntity
  8
LOGO
  6
Continuous
 62
     6
100
AcDbCircle
 10
149.4892973672116
 20
110.0322613741851
 30
0.0
 40
1.338106312668757
  0
CIRCLE
  5
1401
330
1F
100
AcDbEntity
  8
LOGO
  6
Continuous
 62
     6
100
AcDbCircle
 10
149.4892973672116
 20
110.0322613741851
 30
0.0
 40
0.7840118433741034
  0
LINE
  5
1402
330
1F
100
AcDbEntity
  8
LOGO
 62
     6
100
AcDbLine
 10
157.8981127033129
 20
108.6941550615162
 30
0.0
 11
157.8981127033129
 21
111.3703676868539
 31
0.0
  0
LINE
  5
1403
330
1F
100
AcDbEntity
  8
LOGO
 62
     6
100
AcDbLine
 10
153.7032262240635
 20
109.248249530811
 30
0.0
 11
153.7032262240635
 21
110.8162732175593
 31
0.0
  0
LINE
  5
1404
330
1F
100
AcDbEntity
  8
LOGO
  6
Continuous
 62
     6
100
AcDbLine
 10
153.7032262240635
 20
110.8162732175593
 30
0.0
 11
157.8981127033129
 21
111.3703676868539
 31
0.0
  0
LINE
  5
1405
330
1F
100
AcDbEntity
  8
LOGO
  6
Continuous
 62
     6
100
AcDbLine
 10
153.7032262240635
 20
109.248249530811
 30
0.0
 11
157.8981127033129
 21
108.6941550615162
 31
0.0
  0
LINE
  5
1424
330
1F
100
AcDbEntity
  8
LOGO
 62
     1
100
AcDbLine
 10
324.3146422016955
 20
93.89511603782393
 30
0.0
 11
324.3146422016955
 21
116.9411385739325
 31
0.0
  0
TEXT
  5
1432
330
1F
100
AcDbEntity
  8
LOGO
 62
     6
100
AcDbText
 10
128.6854880296083
 20
113.4853693481687
 30
151.039835091233
 40
2.304602253610859
  1
比例 Scale:
 41
0.9
  7
CHINESET
 72
     4
 11
136.0036290251146
 21
114.6365363203218
 31
151.039835091233
100
AcDbText
  0
TEXT
  5
1433
330
1F
100
AcDbEntity
  8
LOGO
 62
     6
100
AcDbText
 10
129.4910699780803
 20
108.9074486067746
 30
151.039835091233
 40
2.304602253610859
  1
投影 View:
 41
0.9
  7
CHINESET
 72
     4
 11
136.0036290251146
 21
110.0273318130999
 31
151.039835091233
100
AcDbText
  0
TEXT
  5
1434
330
1F
100
AcDbEntity
  8
LOGO
 62
     6
100
AcDbText
 10
129.7163860019824
 20
104.2658261790728
 30
151.039835091233
 40
2.304602253610859
  1
單位 Unit:
 41
0.9
  7
CHINESET
 72
     4
 11
136.0036290251146
 21
105.4181273058782
 31
151.039835091233
100
AcDbText
  0
LWPOLYLINE
  5
143D
330
1F
100
AcDbEntity
  8
0
 62
     4
100
AcDbPolyline
 90
        4
 70
     1
 43
0.0
 10
109.8848034841914
 20
116.9411385739325
 10
324.3146422016955
 20
116.9411385739325
 10
324.3146422016955
 20
329.369470247866
 10
109.8848034841914
 20
329.369470247866
1001
GENIUS_GENREC_14
1002
{
1000
PYDIR
1011
109.8848034841914
1021
329.369470247866
1031
0.0
1002
}
1002
{
1000
PXDIR
1011
324.3146422016955
1021
116.9411385739325
1031
0.0
1002
}
1002
{
1000
PORI
1011
109.8848034841914
1021
116.9411385739325
1031
0.0
1002
}
1002
{
1000
PINS
1011
109.8848034841914
1021
116.9411385739325
1031
0.0
1002
}
1002
{
1000
PINS2
1011
324.3146422016955
1021
329.369470247866
1031
0.0
1002
}
1002
{
1000
C
1070
     1
1002
}
1001
GENIUS_GENODEF_13
1002
{
1000
HIER
1070
     0
1002
}
1002
{
1000
MANEDIT
1070
     0
1002
}
1002
{
1000
NOSEL
1070
     0
1002
}
1002
{
1000
BEHIND
1070
     0
1002
}
1002
{
1000
OTHER
1070
     0
1002
}
1002
{
1000
REACTOR
1002
}
1001
GENIUS_GENOBJ-N-REC_13
1002
{
1000
OWNER
1000
GEN
1002
}
  0
SOLID
  5
143E
330
1F
100
AcDbEntity
  8
LOGO
 62
     5
100
AcDbTrace
 10
112.2758653083657
 20
106.9445982645959
 30
0.0
 11
113.2723148500639
 21
106.9445982645956
 31
0.0
 12
117.4299146619774
 22
116.3936887462171
 32
0.0
 13
118.4263642036756
 23
116.3936887462163
 33
0.0
  0
SOLID
  5
143F
330
1F
100
AcDbEntity
  8
LOGO
 62
     5
100
AcDbTrace
 10
113.6846387983534
 20
106.9445982645959
 30
0.0
 11
114.6810883400514
 21
106.9445982645959
 31
0.0
 12
118.4263642036756
 22
115.6377615076869
 32
0.0
 13
117.4299146619774
 23
111.9841131881266
 33
0.0
  0
SOLID
  5
1440
330
1F
100
AcDbEntity
  8
LOGO
 62
     2
100
AcDbTrace
 10
113.2723148500639
 20
106.9445982645956
 30
0.0
 11
113.6846387983534
 21
106.9445982645959
 31
0.0
 12
118.4263642036756
 22
116.3936887462163
 32
0.0
 13
118.8386881519648
 23
116.3936887462163
 33
0.0
  0
SOLID
  5
1441
330
1F
100
AcDbEntity
  8
LOGO
 62
     5
100
AcDbTrace
 10
110.6783123336636
 20
103.5085653621886
 30
0.0
 11
111.0219156239049
 21
103.5085653621886
 31
0.0
 12
111.9895292331653
 22
105.226581813392
 32
0.0
 13
112.3331325234059
 23
105.226581813392
 33
0.0
  0
SOLID
  5
1442
330
1F
100
AcDbEntity
  8
LOGO
 62
     5
100
AcDbTrace
 10
111.9895292331653
 20
105.226581813392
 30
0.0
 11
112.3331325234059
 21
105.226581813392
 31
0.0
 12
111.9895292331653
 22
103.5085653621886
 32
0.0
 13
112.3331325234059
 23
103.5085653621886
 33
0.0
  0
SOLID
  5
1443
330
1F
100
AcDbEntity
  8
LOGO
 62
     5
100
AcDbTrace
 10
111.9895292331653
 20
103.5085653621886
 30
0.0
 11
112.3331325234059
 21
103.5085653621886
 31
0.0
 12
113.3007461326676
 22
105.226581813392
 32
0.0
 13
113.6443494229079
 23
105.226581813392
 33
0.0
  0
SOLID
  5
1444
330
1F
100
AcDbEntity
  8
LOGO
 62
     5
100
AcDbTrace
 10
113.3007461326676
 20
105.226581813392
 30
0.0
 11
113.6443494229079
 21
105.226581813392
 31
0.0
 12
113.3007461326676
 22
103.5085653621886
 32
0.0
 13
113.6443494229079
 23
103.5085653621886
 33
0.0
  0
POLYLINE
  5
1445
330
1F
100
AcDbEntity
  8
LOGO
 62
     5
100
AcDb2dPolyline
 66
     1
 10
0.0
 20
0.0
 30
0.0
 40
0.3441539365392216
 41
0.3441539365392216
  0
VERTEX
  5
1446
330
1445
100
AcDbEntity
  8
LOGO
 62
     5
100
AcDbVertex
100
AcDb2dVertex
 10
124.8182113716018
 20
104.5393752329105
 30
0.0
 42
1.0
  0
VERTEX
  5
1447
330
1445
100
AcDbEntity
  8
LOGO
 62
     5
100
AcDbVertex
100
AcDb2dVertex
 10
123.7857495619839
 20
104.5393752329105
 30
0.0
 42
1.0
  0
SEQEND
  5
1448
330
1445
100
AcDbEntity
  8
LOGO
 62
     5
  0
POLYLINE
  5
1449
330
1F
100
AcDbEntity
  8
LOGO
 62
     5
100
AcDb2dPolyline
 66
     1
 10
0.0
 20
0.0
 30
0.0
 70
     1
  0
VERTEX
  5
144A
330
1449
100
AcDbEntity
  8
LOGO
 62
     5
100
AcDbVertex
100
AcDb2dVertex
 10
121.8395131269529
 20
104.3675735877902
 30
0.0
 42
1.000000057330635
  0
VERTEX
  5
144B
330
1449
100
AcDbEntity
  8
LOGO
 62
     5
100
AcDbVertex
100
AcDb2dVertex
 10
122.8703229976754
 20
104.3675735877902
 30
0.0
 42
1.000000057330635
  0
SEQEND
  5
144C
330
1449
100
AcDbEntity
  8
LOGO
 62
     5
  0
CIRCLE
  5
144D
330
1F
100
AcDbEntity
  8
LOGO
 62
     5
100
AcDbCircle
 10
122.3549180623143
 20
104.3675735877902
 30
0.0
 40
0.5154049353611385
  0
POLYLINE
  5
144E
330
1F
100
AcDbEntity
  8
LOGO
 62
     5
100
AcDb2dPolyline
 66
     1
 10
0.0
 20
0.0
 30
0.0
 70
     1
 40
0.3441539365392216
 41
0.3441539365392216
  0
VERTEX
  5
144F
330
144E
100
AcDbEntity
  8
LOGO
 62
     5
100
AcDbVertex
100
AcDb2dVertex
 10
121.6666101892357
 20
104.3675735877902
 30
0.0
 42
1.0
  0
VERTEX
  5
1450
330
144E
100
AcDbEntity
  8
LOGO
 62
     5
100
AcDbVertex
100
AcDb2dVertex
 10
123.0432259353926
 20
104.3675735877902
 30
0.0
 42
1.0
  0
SEQEND
  5
1451
330
144E
100
AcDbEntity
  8
LOGO
 62
     5
  0
LINE
  5
1452
330
1F
100
AcDbEntity
  8
LOGO
 62
     5
100
AcDbLine
 10
124.9891870472741
 20
103.5085653621886
 30
0.0
 11
124.9891870472741
 21
104.5393752329105
 31
0.0
  0
SOLID
  5
1453
330
1F
100
AcDbEntity
  8
LOGO
 62
     5
100
AcDbTrace
 10
122.8702886373471
 20
105.226581813392
 30
0.0
 11
123.2138919275874
 21
105.226581813392
 31
0.0
 12
122.8702886373471
 22
103.5085653621886
 32
0.0
 13
123.2138919275874
 23
103.5085653621886
 33
0.0
  0
SOLID
  5
1454
330
1F
100
AcDbEntity
  8
LOGO
 62
     5
100
AcDbTrace
 10
123.6147738863108
 20
103.5085653621886
 30
0.0
 11
123.9583771765521
 21
103.5085653621886
 31
0.0
 12
123.6147738863108
 22
105.226581813392
 32
0.0
 13
123.9583771765521
 23
105.226581813392
 33
0.0
  0
SOLID
  5
1455
330
1F
100
AcDbEntity
  8
LOGO
 62
     5
100
AcDbTrace
 10
124.6455837570336
 20
104.5393752329105
 30
0.0
 11
124.9891870472741
 21
104.5393752329105
 31
0.0
 12
124.6455837570336
 22
103.5085653621886
 32
0.0
 13
124.9891870472741
 23
103.5085653621886
 33
0.0
  0
SOLID
  5
1456
330
1F
100
AcDbEntity
  8
LOGO
 62
     5
100
AcDbTrace
 10
123.5804135572869
 20
115.6377615076869
 30
0.0
 11
122.5839640155886
 21
111.9841131881266
 31
0.0
 12
123.5804135572869
 22
106.9445982645956
 32
0.0
 13
122.5839640155886
 23
106.9445982645956
 33
0.0
  0
SOLID
  5
1457
330
1F
100
AcDbEntity
  8
LOGO
 62
     5
100
AcDbTrace
 10
123.992737505576
 20
106.9445982645956
 30
0.0
 11
124.9891870472741
 21
106.9445982645956
 31
0.0
 12
123.992737505576
 22
116.3936887462163
 32
0.0
 13
124.9891870472741
 23
116.3936887462171
 33
0.0
  0
SOLID
  5
1458
330
1F
100
AcDbEntity
  8
LOGO
 62
     2
100
AcDbTrace
 10
123.5804135572869
 20
116.3936887462171
 30
0.0
 11
123.992737505576
 21
116.3936887462163
 31
0.0
 12
123.5804135572869
 22
106.9445982645956
 32
0.0
 13
123.992737505576
 23
106.9445982645956
 33
0.0
  0
POLYLINE
  5
1459
330
1F
100
AcDbEntity
  8
LOGO
 62
     5
100
AcDb2dPolyline
 66
     1
 10
0.0
 20
0.0
 30
0.0
 40
0.3441539365392216
 41
0.3441539365392216
  0
VERTEX
  5
145A
330
1459
100
AcDbEntity
  8
LOGO
 62
     5
100
AcDbVertex
100
AcDb2dVertex
 10
119.8932079712647
 20
104.5393752329105
 30
0.0
 42
1.0
  0
VERTEX
  5
145B
330
1459
100
AcDbEntity
  8
LOGO
 62
     5
100
AcDbVertex
100
AcDb2dVertex
 10
118.8607461616469
 20
104.5393752329105
 30
0.0
 42
1.0
  0
SEQEND
  5
145C
330
1459
100
AcDbEntity
  8
LOGO
 62
     5
  0
POLYLINE
  5
145D
330
1F
100
AcDbEntity
  8
LOGO
 62
     5
100
AcDb2dPolyline
 66
     1
 10
0.0
 20
0.0
 30
0.0
 40
0.3441539365392216
 41
0.3441539365392216
  0
VERTEX
  5
145E
330
145D
100
AcDbEntity
  8
LOGO
 62
     5
100
AcDbVertex
100
AcDb2dVertex
 10
120.9240178419867
 20
104.5393752329105
 30
0.0
 42
1.0
  0
VERTEX
  5
145F
330
145D
100
AcDbEntity
  8
LOGO
 62
     5
100
AcDbVertex
100
AcDb2dVertex
 10
119.8915560323688
 20
104.5393752329105
 30
0.0
 42
1.0
  0
SEQEND
  5
1460
330
145D
100
AcDbEntity
  8
LOGO
 62
     5
  0
POLYLINE
  5
1461
330
1F
100
AcDbEntity
  8
LOGO
 62
     5
100
AcDb2dPolyline
 66
     1
 10
0.0
 20
0.0
 30
0.0
 40
0.3441539365392216
 41
0.3441539365392216
  0
VERTEX
  5
1462
330
1461
100
AcDbEntity
  8
LOGO
 62
     5
100
AcDbVertex
100
AcDb2dVertex
 10
115.9990144416498
 20
104.5393752329105
 30
0.0
 42
1.0
  0
VERTEX
  5
1463
330
1461
100
AcDbEntity
  8
LOGO
 62
     5
100
AcDbVertex
100
AcDb2dVertex
 10
114.9665526320322
 20
104.5393752329105
 30
0.0
 42
1.0
  0
SEQEND
  5
1464
330
1461
100
AcDbEntity
  8
LOGO
 62
     5
  0
SOLID
  5
1465
330
1F
100
AcDbEntity
  8
LOGO
 62
     5
100
AcDbTrace
 10
114.7955769563598
 20
105.226581813392
 30
0.0
 11
115.1391802466001
 21
105.226581813392
 31
0.0
 12
114.7955769563598
 22
103.5085653621886
 32
0.0
 13
115.1391802466001
 23
103.5085653621886
 33
0.0
  0
SOLID
  5
1466
330
1F
100
AcDbEntity
  8
LOGO
 62
     5
100
AcDbTrace
 10
115.8263868270818
 20
104.5393752329105
 30
0.0
 11
116.1699901173228
 21
104.5393752329105
 31
0.0
 12
115.8263868270818
 22
103.5085653621886
 32
0.0
 13
116.1699901173228
 23
103.5085653621886
 33
0.0
  0
POLYLINE
  5
1467
330
1F
100
AcDbEntity
  8
LOGO
 62
     5
100
AcDb2dPolyline
 66
     1
 10
0.0
 20
0.0
 30
0.0
 70
     1
 40
0.3441539365392216
 41
0.3441539365392216
  0
VERTEX
  5
1468
330
1467
100
AcDbEntity
  8
LOGO
 62
     5
100
AcDbVertex
100
AcDb2dVertex
 10
116.7416067888986
 20
104.3675735877902
 30
0.0
 42
1.0
  0
VERTEX
  5
1469
330
1467
100
AcDbEntity
  8
LOGO
 62
     5
100
AcDbVertex
100
AcDb2dVertex
 10
118.1182225350555
 20
104.3675735877902
 30
0.0
 42
1.0
  0
SEQEND
  5
146A
330
1467
100
AcDbEntity
  8
LOGO
 62
     5
  0
SOLID
  5
146B
330
1F
100
AcDbEntity
  8
LOGO
 62
     5
100
AcDbTrace
 10
117.9452852370099
 20
105.7419867487534
 30
0.0
 11
118.2888885272502
 21
105.7419867487534
 31
0.0
 12
117.9452852370099
 22
103.5085653621886
 32
0.0
 13
118.2888885272502
 23
103.5085653621886
 33
0.0
  0
SOLID
  5
146C
330
1F
100
AcDbEntity
  8
LOGO
 62
     5
100
AcDbTrace
 10
118.6897704859745
 20
105.226581813392
 30
0.0
 11
119.0333737762152
 21
105.226581813392
 31
0.0
 12
118.6897704859745
 22
103.5085653621886
 32
0.0
 13
119.0333737762152
 23
103.5085653621886
 33
0.0
  0
SOLID
  5
146D
330
1F
100
AcDbEntity
  8
LOGO
 62
     5
100
AcDbTrace
 10
119.7205803566967
 20
104.5393752329105
 30
0.0
 11
120.0641836469372
 21
104.5393752329105
 31
0.0
 12
119.7205803566967
 22
103.5085653621886
 32
0.0
 13
120.0641836469372
 23
103.5085653621886
 33
0.0
  0
SOLID
  5
146E
330
1F
100
AcDbEntity
  8
LOGO
 62
     5
100
AcDbTrace
 10
120.7513902274188
 20
104.5393752329105
 30
0.0
 11
121.0949935176591
 21
104.5393752329105
 31
0.0
 12
120.7513902274188
 22
103.5085653621878
 32
0.0
 13
121.0949935176591
 23
103.5085653621878
 33
0.0
  0
SOLID
  5
146F
330
1F
100
AcDbEntity
  8
LOGO
 62
     5
100
AcDbTrace
 10
114.0510917073948
 20
105.4671041165604
 30
0.0
 11
114.3946949976363
 21
105.4671041165604
 31
0.0
 12
114.0510917073948
 22
105.7419867487534
 32
0.0
 13
114.3946949976363
 23
105.7419867487534
 33
0.0
  0
SOLID
  5
1470
330
1F
100
AcDbEntity
  8
LOGO
 62
     5
100
AcDbTrace
 10
114.0510917073948
 20
105.226581813392
 30
0.0
 11
114.3946949976363
 21
105.226581813392
 31
0.0
 12
114.0510917073948
 22
103.5085653621878
 32
0.0
 13
114.3946949976363
 23
103.5085653621886
 33
0.0
  0
SOLID
  5
1471
330
1F
100
AcDbEntity
  8
LOGO
 62
     5
100
AcDbTrace
 10
117.4299146619774
 20
106.9445982645959
 30
0.0
 11
118.4263642036756
 21
106.9445982645959
 31
0.0
 12
117.4299146619774
 22
111.9841131881266
 32
0.0
 13
118.4263642036756
 23
115.6377615076869
 33
0.0
  0
SOLID
  5
1472
330
1F
100
AcDbEntity
  8
LOGO
 62
     5
100
AcDbTrace
 10
118.8386881519648
 20
116.3936887462163
 30
0.0
 11
119.835137693663
 21
116.3936887462171
 31
0.0
 12
118.8386881519648
 22
107.7005255031254
 32
0.0
 13
119.835137693663
 23
111.3541738226856
 33
0.0
  0
SOLID
  5
1473
330
1F
100
AcDbEntity
  8
LOGO
 62
     2
100
AcDbTrace
 10
118.4263642036756
 20
116.3936887462163
 30
0.0
 11
118.8386881519648
 21
116.3936887462163
 31
0.0
 12
118.4263642036756
 22
106.9445982645959
 32
0.0
 13
118.8386881519648
 23
106.9445982645959
 33
0.0
  0
SOLID
  5
1474
330
1F
100
AcDbEntity
  8
LOGO
 62
     5
100
AcDbTrace
 10
118.8386881519648
 20
107.7005255031254
 30
0.0
 11
119.835137693663
 21
111.3541738226856
 31
0.0
 12
123.5804135572869
 22
116.3936887462171
 32
0.0
 13
122.5839640155886
 23
116.3936887462171
 33
0.0
  0
SOLID
  5
1475
330
1F
100
AcDbEntity
  8
LOGO
 62
     5
100
AcDbTrace
 10
118.8386881519648
 20
106.9445982645959
 30
0.0
 11
119.835137693663
 21
106.9445982645959
 31
0.0
 12
123.5804135572869
 22
115.6377615076869
 32
0.0
 13
122.5839640155886
 23
111.9841131881266
 33
0.0
  0
SOLID
  5
1476
330
1F
100
AcDbEntity
  8
LOGO
 62
     2
100
AcDbTrace
 10
118.4263642036756
 20
106.9445982645959
 30
0.0
 11
118.8386881519648
 21
106.9445982645959
 31
0.0
 12
123.5804135572869
 22
116.3936887462171
 32
0.0
 13
123.992737505576
 23
116.3936887462163
 33
0.0
  0
TEXT
  5
1477
330
1F
100
AcDbEntity
  8
0
100
AcDbText
 10
161.753675557131
 20
95.12115534062553
 30
0.0
 40
1.921728865319999
  1
1050519
 41
0.8
  7
CHINESET
 72
     1
 11
166.3292204745595
 21
95.12115534062553
 31
0.0
100
AcDbText
  0
LINE
  5
1478
330
1F
100
AcDbEntity
  8
LOGO
 62
     1
100
AcDbLine
 10
172.2585471728087
 20
98.5043205450458
 30
0.0
 11
172.2585471728089
 21
93.89511603782393
 31
0.0
  0
LINE
  5
1479
330
1F
100
AcDbEntity
  8
LOGO
 62
     1
100
AcDbLine
 10
172.2585471728087
 20
98.5043205450458
 30
0.0
 11
160.5860530636304
 21
98.5043205450458
 31
0.0
  0
LINE
  5
1602
330
1F
100
AcDbEntity
  8
LOGO
 62
     6
100
AcDbLine
 10
258.4909917315548
 20
104.2695251806802
 30
0.0
 11
247.450696772641
 21
104.2695251806802
 31
0.0
  0
LINE
  5
1603
330
1F
100
AcDbEntity
  8
LOGO
 62
     6
100
AcDbLine
 10
248.1840043534735
 20
107.7276615616322
 30
0.0
 11
243.7238029756635
 21
107.7276615616322
 31
0.0
  0
LINE
  5
1604
330
1F
100
AcDbEntity
  8
LOGO
 62
     6
100
AcDbLine
 10
258.4909917315548
 20
95.81630291613072
 30
0.0
 11
247.450696772641
 21
95.81630291613068
 31
0.0
  0
LINE
  5
1605
330
1F
100
AcDbEntity
  8
LOGO
 62
     6
100
AcDbLine
 10
258.4909917315548
 20
104.2695251806802
 30
0.0
 11
258.4909917315548
 21
95.78442866304735
 31
0.0
  0
TEXT
  5
160A
330
1F
100
AcDbEntity
  8
LOGO
 62
     6
100
AcDbText
 10
198.4439384883157
 20
100.1215768182258
 30
0.0
 40
3.073899005290723
  1
型式
  7
CHINESET
 72
     4
 11
201.5178374936064
 21
101.5798635510507
 31
0.0
100
AcDbText
  0
LINE
  5
160B
330
1F
100
AcDbEntity
  8
LOGO
 62
     6
100
AcDbLine
 10
247.450696772641
 20
104.2695251806802
 30
0.0
 11
247.450696772641
 21
95.81630291613068
 31
0.0
  0
LINE
  5
160F
330
1F
100
AcDbEntity
  8
LOGO
 62
     6
100
AcDbLine
 10
245.9539036645685
 20
107.7276615616322
 30
0.0
 11
245.9539036645685
 21
105.9985933711562
 31
0.0
  0
TEXT
  5
1610
330
1F
100
AcDbEntity
  8
LOGO
 62
     6
100
AcDbText
 10
248.720419851111
 20
100.1200640726524
 30
0.0
 40
3.073899005290723
  1
連座數
 41
0.9
  7
CHINESET
 72
     4
 11
252.9255499962425
 21
101.5798635510508
 31
0.0
100
AcDbText
  0
LINE
  5
1615
330
1F
100
AcDbEntity
  8
LOGO
 62
     6
100
AcDbLine
 10
201.5178374936064
 20
107.7276615616322
 30
0.0
 11
201.5178374936064
 21
104.2695251806801
 31
0.0
  0
LINE
  5
1616
330
1F
100
AcDbEntity
  8
LOGO
 62
     6
100
AcDbLine
 10
193.8330899803796
 20
104.2695251806801
 30
0.0
 11
193.8330899803796
 21
95.81630291613059
 31
0.0
  0
LINE
  5
161A
330
1F
100
AcDbEntity
  8
LOGO
 62
     6
100
AcDbLine
 10
248.1840043534736
 20
114.6439343235364
 30
0.0
 11
243.7238029756635
 21
114.6439343235364
 31
0.0
  0
LINE
  5
161D
330
1F
100
AcDbEntity
  8
LOGO
 62
     6
100
AcDbLine
 10
192.2961404777343
 20
114.6439343235363
 30
0.0
 11
192.2961404777343
 21
107.7276615616322
 31
0.0
  0
LINE
  5
1620
330
1F
100
AcDbEntity
  8
LOGO
 62
     6
100
AcDbLine
 10
248.1840043534736
 20
114.6439343235364
 30
0.0
 11
248.1840043534735
 21
107.7276615616322
 31
0.0
  0
TEXT
  5
1623
330
1F
100
AcDbEntity
  8
LOGO
  6
Continuous
 62
     6
100
AcDbText
 10
248.6806418460791
 20
96.77689635528402
 30
0.0
 40
1.921186878306702
  1
Number
 41
0.8
  7
CHINESET
 72
     4
 11
252.9255499962425
 21
97.73748979443737
 31
0.0
100
AcDbText
  0
TEXT
  5
1626
330
1F
100
AcDbEntity
  8
LOGO
  6
Continuous
 62
     6
100
AcDbText
 10
197.8584339158793
 20
96.77689635528397
 30
0.0
 40
1.921186878306702
  1
Model
  7
CHINESET
 72
     4
 11
201.5178374936064
 21
97.73748979443732
 31
0.0
100
AcDbText
  0
TEXT
  5
1627
330
1F
100
AcDbEntity
  8
LOGO
  6
Continuous
 62
     7
100
AcDbText
 10
244.3794666484195
 20
109.221038303759
 30
0.0
 40
3.842373756613404
  1
2
  7
CHINESET
 72
     1
 11
245.660257900624
 21
111.1422251820657
 31
0.0
100
AcDbText
 73
     2
  0
TEXT
  5
1628
330
1F
100
AcDbEntity
  8
LOGO
  6
Continuous
 62
     7
100
AcDbText
 10
215.7259830478744
 20
109.2210383037589
 30
0.0
 40
3.842373756613404
  1
220M
  7
CHINESET
 72
     1
 11
222.6788498455558
 21
111.1422251820656
 31
0.0
100
AcDbText
 73
     2
  0
TEXT
  5
1629
330
1F
100
AcDbEntity
  8
LOGO
  6
Continuous
 62
     7
100
AcDbText
 10
194.2905154275955
 20
109.2646110642775
 30
0.0
 40
3.842373756613404
  1
MVSC
  7
CHINESET
 72
     1
 11
201.5178374936064
 21
111.1857979425842
 31
0.0
100
AcDbText
 73
     2
  0
LINE
  5
162D
330
1F
100
AcDbEntity
  8
LOGO
 62
     6
100
AcDbLine
 10
210.7395345094786
 20
114.6439343235363
 30
0.0
 11
210.7395345094786
 21
107.7276615616322
 31
0.0
  0
LINE
  5
162E
330
1F
100
AcDbEntity
  8
LOGO
 62
     6
100
AcDbLine
 10
209.2025850068334
 20
104.2695251806801
 30
0.0
 11
209.2025850068334
 21
95.81630291613061
 31
0.0
  0
LINE
  5
162F
330
1F
100
AcDbEntity
  8
LOGO
 62
     6
100
AcDbLine
 10
210.7395345094786
 20
114.6439343235363
 30
0.0
 11
192.2961404777343
 21
114.6439343235363
 31
0.0
  0
LINE
  5
1630
330
1F
100
AcDbEntity
  8
LOGO
 62
     6
100
AcDbLine
 10
210.7395345094786
 20
107.7276615616322
 30
0.0
 11
192.2961404777343
 21
107.7276615616322
 31
0.0
  0
LINE
  5
1631
330
1F
100
AcDbEntity
  8
LOGO
 62
     6
100
AcDbLine
 10
209.2025850068333
 20
104.2695251806801
 30
0.0
 11
193.8330899803796
 21
104.2695251806801
 31
0.0
  0
LINE
  5
1632
330
1F
100
AcDbEntity
  8
LOGO
 62
     6
100
AcDbLine
 10
209.2025850068333
 20
95.81630291613061
 30
0.0
 11
193.8330899803796
 21
95.81630291613059
 31
0.0
  0
TEXT
  5
1634
330
1F
100
AcDbEntity
  8
LOGO
  6
Continuous
 62
     7
100
AcDbText
 10
235.703832868591
 20
109.2646110642776
 30
0.0
 40
3.842373756613404
  1
5M
  7
CHINESET
 72
     1
 11
238.9972960885454
 21
111.1857979425843
 31
0.0
100
AcDbText
 73
     2
  0
LINE
  5
1635
330
1F
100
AcDbEntity
  8
LOGO
 62
     6
100
AcDbLine
 10
243.076892832877
 20
114.6439343235364
 30
0.0
 11
235.1316833458763
 21
114.6439343235363
 31
0.0
  0
LINE
  5
1636
330
1F
100
AcDbEntity
  8
LOGO
 62
     6
100
AcDbLine
 10
245.7639325940826
 20
104.2695251806801
 30
0.0
 11
233.4257599846333
 21
104.2695251806801
 31
0.0
  0
LINE
  5
1637
330
1F
100
AcDbEntity
  8
LOGO
 62
     6
100
AcDbLine
 10
243.076892832877
 20
107.7276615616322
 30
0.0
 11
235.1316833458763
 21
107.7276615616322
 31
0.0
  0
TEXT
  5
1638
330
1F
100
AcDbEntity
  8
LOGO
 62
     6
100
AcDbText
 10
236.8340099804967
 20
100.1354436526493
 30
0.0
 40
3.073899005290723
  1
連座
 41
0.9
  7
CHINESET
 72
     4
 11
239.5948462893579
 21
101.5798635510507
 31
0.0
100
AcDbText
  0
LINE
  5
1639
330
1F
100
AcDbEntity
  8
LOGO
 62
     6
100
AcDbLine
 10
245.7639325940826
 20
95.81630291613066
 30
0.0
 11
233.4257599846333
 21
95.81630291613064
 31
0.0
  0
TEXT
  5
163A
330
1F
100
AcDbEntity
  8
LOGO
  6
Continuous
 62
     6
100
AcDbText
 10
235.1669679603082
 20
96.77689635528398
 30
0.0
 40
1.921186878306702
  1
Manifold
 41
0.8
  7
CHINESET
 72
     4
 11
239.5948462893579
 21
97.73748979443734
 31
0.0
100
AcDbText
  0
LINE
  5
163B
330
1F
100
AcDbEntity
  8
LOGO
 62
     6
100
AcDbLine
 10
235.1316833458763
 20
114.6439343235363
 30
0.0
 11
235.1316833458763
 21
107.7276615616322
 31
0.0
  0
LINE
  5
163C
330
1F
100
AcDbEntity
  8
LOGO
 62
     6
100
AcDbLine
 10
233.4257599846333
 20
104.2695251806801
 30
0.0
 11
233.4257599846333
 21
95.81630291613066
 31
0.0
  0
LINE
  5
163D
330
1F
100
AcDbEntity
  8
LOGO
 62
     6
100
AcDbLine
 10
243.076892832877
 20
114.6439343235364
 30
0.0
 11
243.076892832877
 21
107.7276615616322
 31
0.0
  0
LINE
  5
163E
330
1F
100
AcDbEntity
  8
LOGO
 62
     6
100
AcDbLine
 10
245.7639325940826
 20
104.2695251806801
 30
0.0
 11
245.7639325940826
 21
95.81630291613068
 31
0.0
  0
LINE
  5
1640
330
1F
100
AcDbEntity
  8
LOGO
  6
Continuous
 62
     7
100
AcDbLine
 10
211.9311043651886
 20
111.1612994114321
 30
0.0
 11
214.9850780532662
 21
111.1612994114321
 31
0.0
  0
LINE
  5
1641
330
1F
100
AcDbEntity
  8
LOGO
  6
Continuous
 62
     7
100
AcDbLine
 10
231.1128945918715
 20
111.1612994114321
 30
0.0
 11
234.1668682799491
 21
111.1612994114321
 31
0.0
  0
LINE
  5
1642
330
1F
100
AcDbEntity
  8
LOGO
 62
     6
100
AcDbLine
 10
243.7238029756635
 20
114.6439343235364
 30
0.0
 11
243.7238029756635
 21
107.7276615616322
 31
0.0
  0
LINE
  5
1644
330
1F
100
AcDbEntity
  8
LOGO
 62
     6
100
AcDbLine
 10
239.1042880893767
 20
104.2695251806801
 30
0.0
 11
239.1042880893767
 21
107.7276615616322
 31
0.0
  0
LINE
  5
1647
330
1F
100
AcDbEntity
  8
LOGO
 62
     6
100
AcDbLine
 10
245.9539036645685
 20
105.9985933711562
 30
0.0
 11
252.9255499962425
 21
105.9985933711562
 31
0.0
  0
LINE
  5
1648
330
1F
100
AcDbEntity
  8
LOGO
 62
     6
100
AcDbLine
 10
252.9255499962425
 20
104.2695251806802
 30
0.0
 11
252.9255499962425
 21
105.9985933711562
 31
0.0
  0
LINE
  5
1813
330
1F
100
AcDbEntity
  8
AM_7
100
AcDbLine
 10
181.7818993388558
 20
253.3866228668216
 30
0.0
 11
181.7818993388558
 21
253.3866228668216
 31
0.0
  0
LINE
  5
1814
330
1F
100
AcDbEntity
  8
AM_7
100
AcDbLine
 10
181.7818993388558
 20
253.3866228668216
 30
0.0
 11
181.7818993388558
 21
253.3866228668216
 31
0.0
  0
LINE
  5
1815
330
1F
100
AcDbEntity
  8
AM_7
100
AcDbLine
 10
175.4878993388558
 20
253.3866228668216
 30
0.0
 11
181.7818993388558
 21
253.3866228668216
 31
0.0
  0
LINE
  5
1816
330
1F
100
AcDbEntity
  8
AM_7
100
AcDbLine
 10
181.7818993388558
 20
253.3866228668216
 30
0.0
 11
188.0758993388558
 21
253.3866228668216
 31
0.0
  0
LINE
  5
1819
330
1F
100
AcDbEntity
  8
AM_7
100
AcDbLine
 10
173.2818993388558
 20
234.3866228668215
 30
0.0
 11
173.2818993388558
 21
234.3866228668215
 31
0.0
  0
LINE
  5
181A
330
1F
100
AcDbEntity
  8
AM_7
100
AcDbLine
 10
173.2818993388558
 20
234.3866228668215
 30
0.0
 11
173.2818993388558
 21
234.3866228668215
 31
0.0
  0
LINE
  5
181B
330
1F
100
AcDbEntity
  8
AM_7
100
AcDbLine
 10
169.1883993388559
 20
234.3866228668215
 30
0.0
 11
173.2818993388558
 21
234.3866228668215
 31
0.0
  0
LINE
  5
181C
330
1F
100
AcDbEntity
  8
AM_7
100
AcDbLine
 10
173.2818993388558
 20
234.3866228668215
 30
0.0
 11
177.3753993388558
 21
234.3866228668215
 31
0.0
  0
LINE
  5
181D
330
1F
100
AcDbEntity
  8
AM_7
100
AcDbLine
 10
173.2818993388558
 20
230.2931228668215
 30
0.0
 11
173.2818993388558
 21
234.3866228668215
 31
0.0
  0
LINE
  5
181E
330
1F
100
AcDbEntity
  8
AM_7
100
AcDbLine
 10
173.2818993388558
 20
234.3866228668215
 30
0.0
 11
173.2818993388558
 21
238.4801228668215
 31
0.0
  0
LINE
  5
1837
330
1F
100
AcDbEntity
  8
AM_7
100
AcDbLine
 10
190.2818993388558
 20
272.3866228668216
 30
0.0
 11
190.2818993388558
 21
272.3866228668216
 31
0.0
  0
LINE
  5
1838
330
1F
100
AcDbEntity
  8
AM_7
100
AcDbLine
 10
190.2818993388558
 20
272.3866228668216
 30
0.0
 11
190.2818993388558
 21
272.3866228668216
 31
0.0
  0
LINE
  5
1839
330
1F
100
AcDbEntity
  8
AM_7
100
AcDbLine
 10
186.1883993388559
 20
272.3866228668216
 30
0.0
 11
190.2818993388558
 21
272.3866228668216
 31
0.0
  0
LINE
  5
183A
330
1F
100
AcDbEntity
  8
AM_7
100
AcDbLine
 10
190.2818993388558
 20
272.3866228668216
 30
0.0
 11
194.3753993388558
 21
272.3866228668216
 31
0.0
  0
LINE
  5
183B
330
1F
100
AcDbEntity
  8
AM_7
100
AcDbLine
 10
190.2818993388558
 20
268.2931228668215
 30
0.0
 11
190.2818993388558
 21
272.3866228668216
 31
0.0
  0
LINE
  5
183C
330
1F
100
AcDbEntity
  8
AM_7
100
AcDbLine
 10
190.2818993388558
 20
272.3866228668216
 30
0.0
 11
190.2818993388558
 21
276.4801228668215
 31
0.0
  0
LINE
  5
183D
330
1F
100
AcDbEntity
  8
AM_7
100
AcDbLine
 10
191.6818993388558
 20
178.0845389407989
 30
0.0
 11
191.6818993388558
 21
178.0845389407989
 31
0.0
  0
LINE
  5
183E
330
1F
100
AcDbEntity
  8
AM_7
100
AcDbLine
 10
191.6818993388558
 20
178.0845389407989
 30
0.0
 11
191.6818993388558
 21
178.0845389407989
 31
0.0
  0
LINE
  5
183F
330
1F
100
AcDbEntity
  8
AM_7
100
AcDbLine
 10
183.0378993388558
 20
178.0845389407989
 30
0.0
 11
191.6818993388558
 21
178.0845389407989
 31
0.0
  0
LINE
  5
1840
102
{ACAD_REACTORS
330
1B08
102
}
330
1F
100
AcDbEntity
  8
AM_7
100
AcDbLine
 10
191.6818993388558
 20
178.0845389407989
 30
0.0
 11
200.3258993388558
 21
178.0845389407989
 31
0.0
  0
LINE
  5
1841
330
1F
100
AcDbEntity
  8
AM_7
100
AcDbLine
 10
191.6818993388558
 20
169.4405389407989
 30
0.0
 11
191.6818993388558
 21
178.0845389407989
 31
0.0
  0
LINE
  5
1842
330
1F
100
AcDbEntity
  8
AM_7
100
AcDbLine
 10
191.6818993388558
 20
178.0845389407989
 30
0.0
 11
191.6818993388558
 21
186.7285389407989
 31
0.0
  0
LINE
  5
1843
330
1F
100
AcDbEntity
  8
AM_7
100
AcDbLine
 10
178.0818993388558
 20
156.0845389407989
 30
0.0
 11
178.0818993388558
 21
156.0845389407989
 31
0.0
  0
LINE
  5
1844
330
1F
100
AcDbEntity
  8
AM_7
100
AcDbLine
 10
178.0818993388558
 20
156.0845389407989
 30
0.0
 11
178.0818993388558
 21
156.0845389407989
 31
0.0
  0
LINE
  5
1845
330
1F
100
AcDbEntity
  8
AM_7
100
AcDbLine
 10
169.4378993388558
 20
156.0845389407989
 30
0.0
 11
178.0818993388558
 21
156.0845389407989
 31
0.0
  0
LINE
  5
1846
102
{ACAD_REACTORS
330
1AE2
102
}
330
1F
100
AcDbEntity
  8
AM_7
100
AcDbLine
 10
178.0818993388558
 20
156.0845389407989
 30
0.0
 11
186.7258993388558
 21
156.0845389407989
 31
0.0
  0
LINE
  5
1847
330
1F
100
AcDbEntity
  8
AM_7
100
AcDbLine
 10
178.0818993388558
 20
147.4405389407989
 30
0.0
 11
178.0818993388558
 21
156.0845389407989
 31
0.0
  0
LINE
  5
1848
330
1F
100
AcDbEntity
  8
AM_7
100
AcDbLine
 10
178.0818993388558
 20
156.0845389407989
 30
0.0
 11
178.0818993388558
 21
164.7285389407989
 31
0.0
  0
LINE
  5
1849
330
1F
100
AcDbEntity
  8
AM_7
100
AcDbLine
 10
190.5818993388558
 20
178.0845389407989
 30
0.0
 11
190.5818993388558
 21
178.0845389407989
 31
0.0
  0
LINE
  5
184A
330
1F
100
AcDbEntity
  8
AM_7
100
AcDbLine
 10
190.5818993388558
 20
178.0845389407989
 30
0.0
 11
190.5818993388558
 21
178.0845389407989
 31
0.0
  0
LINE
  5
184B
330
1F
100
AcDbEntity
  8
AM_7
100
AcDbLine
 10
183.8878993388558
 20
178.0845389407989
 30
0.0
 11
190.5818993388558
 21
178.0845389407989
 31
0.0
  0
LINE
  5
184C
330
1F
100
AcDbEntity
  8
AM_7
100
AcDbLine
 10
190.5818993388558
 20
178.0845389407989
 30
0.0
 11
197.2758993388558
 21
178.0845389407989
 31
0.0
  0
LINE
  5
184D
330
1F
100
AcDbEntity
  8
AM_7
100
AcDbLine
 10
198.7818993388558
 20
263.8866228668216
 30
0.0
 11
198.7818993388558
 21
263.8866228668216
 31
0.0
  0
LINE
  5
184E
330
1F
100
AcDbEntity
  8
AM_7
100
AcDbLine
 10
198.7818993388558
 20
263.8866228668216
 30
0.0
 11
198.7818993388558
 21
263.8866228668216
 31
0.0
  0
LINE
  5
184F
330
1F
100
AcDbEntity
  8
AM_7
100
AcDbLine
 10
193.7378993388558
 20
263.8866228668216
 30
0.0
 11
198.7818993388558
 21
263.8866228668216
 31
0.0
  0
LINE
  5
1850
102
{ACAD_REACTORS
330
1A8C
102
}
330
1F
100
AcDbEntity
  8
AM_7
100
AcDbLine
 10
198.7818993388558
 20
263.8866228668216
 30
0.0
 11
203.8258993388558
 21
263.8866228668216
 31
0.0
  0
LINE
  5
1851
330
1F
100
AcDbEntity
  8
AM_7
100
AcDbLine
 10
198.7818993388558
 20
258.8426228668216
 30
0.0
 11
198.7818993388558
 21
263.8866228668216
 31
0.0
  0
LINE
  5
1852
330
1F
100
AcDbEntity
  8
AM_7
100
AcDbLine
 10
198.7818993388558
 20
263.8866228668216
 30
0.0
 11
198.7818993388558
 21
268.9306228668215
 31
0.0
  0
LINE
  5
1853
330
1F
100
AcDbEntity
  8
AM_7
100
AcDbLine
 10
141.7818993388558
 20
263.8866228668216
 30
0.0
 11
141.7818993388558
 21
263.8866228668216
 31
0.0
  0
LINE
  5
1854
330
1F
100
AcDbEntity
  8
AM_7
100
AcDbLine
 10
141.7818993388558
 20
263.8866228668216
 30
0.0
 11
141.7818993388558
 21
263.8866228668216
 31
0.0
  0
LINE
  5
1855
330
1F
100
AcDbEntity
  8
AM_7
100
AcDbLine
 10
136.7378993388558
 20
263.8866228668216
 30
0.0
 11
141.7818993388558
 21
263.8866228668216
 31
0.0
  0
LINE
  5
1856
330
1F
100
AcDbEntity
  8
AM_7
100
AcDbLine
 10
141.7818993388558
 20
263.8866228668216
 30
0.0
 11
146.8258993388558
 21
263.8866228668216
 31
0.0
  0
LINE
  5
1857
330
1F
100
AcDbEntity
  8
AM_7
100
AcDbLine
 10
141.7818993388558
 20
258.8426228668216
 30
0.0
 11
141.7818993388558
 21
263.8866228668216
 31
0.0
  0
LINE
  5
1858
330
1F
100
AcDbEntity
  8
AM_7
100
AcDbLine
 10
141.7818993388558
 20
263.8866228668216
 30
0.0
 11
141.7818993388558
 21
268.9306228668215
 31
0.0
  0
LINE
  5
1859
330
1F
100
AcDbEntity
  8
AM_7
100
AcDbLine
 10
198.7818993388558
 20
242.8866228668216
 30
0.0
 11
198.7818993388558
 21
242.8866228668216
 31
0.0
  0
LINE
  5
185A
330
1F
100
AcDbEntity
  8
AM_7
100
AcDbLine
 10
198.7818993388558
 20
242.8866228668216
 30
0.0
 11
198.7818993388558
 21
242.8866228668216
 31
0.0
  0
LINE
  5
185B
330
1F
100
AcDbEntity
  8
AM_7
100
AcDbLine
 10
193.7378993388558
 20
242.8866228668216
 30
0.0
 11
198.7818993388558
 21
242.8866228668216
 31
0.0
  0
LINE
  5
185C
102
{ACAD_REACTORS
330
1A8C
102
}
330
1F
100
AcDbEntity
  8
AM_7
100
AcDbLine
 10
198.7818993388558
 20
242.8866228668216
 30
0.0
 11
203.8258993388558
 21
242.8866228668216
 31
0.0
  0
LINE
  5
185D
102
{ACAD_REACTORS
330
1B84
102
}
330
1F
100
AcDbEntity
  8
AM_7
100
AcDbLine
 10
198.7818993388558
 20
237.8426228668216
 30
0.0
 11
198.7818993388558
 21
242.8866228668216
 31
0.0
  0
LINE
  5
185E
330
1F
100
AcDbEntity
  8
AM_7
100
AcDbLine
 10
198.7818993388558
 20
242.8866228668216
 30
0.0
 11
198.7818993388558
 21
247.9306228668215
 31
0.0
  0
LINE
  5
185F
330
1F
100
AcDbEntity
  8
AM_7
100
AcDbLine
 10
141.7818993388558
 20
242.8866228668216
 30
0.0
 11
141.7818993388558
 21
242.8866228668216
 31
0.0
  0
LINE
  5
1860
330
1F
100
AcDbEntity
  8
AM_7
100
AcDbLine
 10
141.7818993388558
 20
242.8866228668216
 30
0.0
 11
141.7818993388558
 21
242.8866228668216
 31
0.0
  0
LINE
  5
1861
330
1F
100
AcDbEntity
  8
AM_7
100
AcDbLine
 10
136.7378993388558
 20
242.8866228668216
 30
0.0
 11
141.7818993388558
 21
242.8866228668216
 31
0.0
  0
LINE
  5
1862
330
1F
100
AcDbEntity
  8
AM_7
100
AcDbLine
 10
141.7818993388558
 20
242.8866228668216
 30
0.0
 11
146.8258993388558
 21
242.8866228668216
 31
0.0
  0
LINE
  5
1863
102
{ACAD_REACTORS
330
1B5A
102
}
330
1F
100
AcDbEntity
  8
AM_7
100
AcDbLine
 10
141.7818993388558
 20
237.8426228668216
 30
0.0
 11
141.7818993388558
 21
242.8866228668216
 31
0.0
  0
LINE
  5
1864
330
1F
100
AcDbEntity
  8
AM_7
100
AcDbLine
 10
141.7818993388558
 20
242.8866228668216
 30
0.0
 11
141.7818993388558
 21
247.9306228668215
 31
0.0
  0
LINE
  5
1865
330
1F
100
AcDbEntity
  8
AM_7
100
AcDbLine
 10
208.3414512978549
 20
253.3866228668216
 30
0.0
 11
133.626136245545
 21
253.3866228668216
 31
0.0
  0
TEXT
  5
1866
330
1F
100
AcDbEntity
  8
0
100
AcDbText
 10
139.8395527110921
 20
230.8929912117293
 30
0.0
 40
3.0
  1
R2
 50
270.0
  7
DAYUS
100
AcDbText
  0
TEXT
  5
1867
330
1F
100
AcDbEntity
  8
0
100
AcDbText
 10
139.8626735549182
 20
254.1229901254575
 30
0.0
 40
3.0
  1
P
 50
270.0
  7
DAYUS
100
AcDbText
  0
TEXT
  5
1868
330
1F
100
AcDbEntity
  8
0
100
AcDbText
 10
140.1349285965037
 20
279.9529212612273
 30
0.0
 40
3.0
  1
R1
 50
270.0
  7
DAYUS
100
AcDbText
  0
TEXT
  5
1869
330
1F
100
AcDbEntity
  8
0
100
AcDbText
 10
200.1612226034136
 20
252.5015318099153
 30
0.0
 40
3.0
  1
P
 50
90.0
  7
DAYUS
100
AcDbText
  0
TEXT
  5
186A
330
1F
100
AcDbEntity
  8
0
100
AcDbText
 10
200.1381017595875
 20
226.3234288337404
 30
0.0
 40
3.0
  1
R2
 50
90.0
  7
DAYUS
100
AcDbText
  0
TEXT
  5
186B
330
1F
100
AcDbEntity
  8
0
100
AcDbText
 10
200.4334785760293
 20
275.5307638160615
 30
0.0
 40
3.0
  1
R1
 50
90.0
  7
DAYUS
100
AcDbText
  0
TEXT
  5
186C
330
1F
100
AcDbEntity
  8
0
100
AcDbText
 10
137.6773687285986
 20
177.0156705846392
 30
0.0
 40
3.0
  1
A
  7
DAYUS
100
AcDbText
  0
TEXT
  5
186D
330
1F
100
AcDbEntity
  8
0
100
AcDbText
 10
137.6773687285986
 20
154.3877770275996
 30
0.0
 40
3.0
  1
B
  7
DAYUS
100
AcDbText
  0
TEXT
  5
186E
330
1F
100
AcDbEntity
  8
0
100
AcDbText
 10
200.7054902709738
 20
177.0156705846392
 30
0.0
 40
3.0
  1
A
  7
DAYUS
100
AcDbText
  0
TEXT
  5
186F
330
1F
100
AcDbEntity
  8
0
100
AcDbText
 10
200.7054902709738
 20
154.3877770275996
 30
0.0
 40
3.0
  1
B
  7
DAYUS
100
AcDbText
  0
LINE
  5
1893
330
1F
100
AcDbEntity
  8
AM_VIS
100
AcDbLine
 10
135.7818993388558
 20
214.3866228668215
 30
0.0
 11
204.7818993388558
 21
214.3866228668215
 31
0.0
  0
LINE
  5
1894
102
{ACAD_REACTORS
330
1B84
102
}
330
1F
100
AcDbEntity
  8
AM_VIS
100
AcDbLine
 10
204.7818993388558
 20
214.3866228668215
 30
0.0
 11
204.7818993388558
 21
288.3866228668215
 31
0.0
  0
LINE
  5
1895
330
1F
100
AcDbEntity
  8
AM_VIS
100
AcDbLine
 10
135.7818993388558
 20
288.3866228668215
 30
0.0
 11
204.7818993388558
 21
288.3866228668215
 31
0.0
  0
LINE
  5
1896
102
{ACAD_REACTORS
330
1B5A
102
}
330
1F
100
AcDbEntity
  8
AM_VIS
100
AcDbLine
 10
135.7818993388558
 20
288.3866228668215
 30
0.0
 11
135.7818993388558
 21
214.3866228668215
 31
0.0
  0
CIRCLE
  5
1897
330
1F
100
AcDbEntity
  8
AM_VIS
100
AcDbCircle
 10
198.7818993388558
 20
263.8866228668216
 30
0.0
 40
2.25
  0
CIRCLE
  5
1898
330
1F
100
AcDbEntity
  8
AM_VIS
100
AcDbCircle
 10
141.7818993388558
 20
263.8866228668216
 30
0.0
 40
2.25
  0
CIRCLE
  5
1899
330
1F
100
AcDbEntity
  8
AM_VIS
100
AcDbCircle
 10
198.7818993388558
 20
242.8866228668216
 30
0.0
 40
2.25
  0
CIRCLE
  5
189A
330
1F
100
AcDbEntity
  8
AM_VIS
100
AcDbCircle
 10
141.7818993388558
 20
242.8866228668216
 30
0.0
 40
2.25
  0
LINE
  5
18BF
330
1F
100
AcDbEntity
  8
AM_VIS
100
AcDbLine
 10
204.7818993388558
 20
145.0845389407989
 30
0.0
 11
204.7818993388558
 21
189.0845389407989
 31
0.0
  0
LINE
  5
18C0
102
{ACAD_REACTORS
330
1B2E
102
}
330
1F
100
AcDbEntity
  8
AM_VIS
100
AcDbLine
 10
135.7818993388558
 20
189.0845389407989
 30
0.0
 11
204.7818993388558
 21
189.0845389407989
 31
0.0
  0
LINE
  5
18C1
330
1F
100
AcDbEntity
  8
AM_VIS
100
AcDbLine
 10
135.7818993388558
 20
189.0845389407989
 30
0.0
 11
135.7818993388558
 21
145.0845389407989
 31
0.0
  0
LINE
  5
18C2
102
{ACAD_REACTORS
330
1AE2
102
}
330
1F
100
AcDbEntity
  8
AM_VIS
100
AcDbLine
 10
135.7818993388558
 20
145.0845389407989
 30
0.0
 11
204.7818993388558
 21
145.0845389407989
 31
0.0
  0
LINE
  5
18D3
330
1F
100
AcDbEntity
  8
AM_VIS
100
AcDbLine
 10
277.7993371463041
 20
214.3866228668215
 30
0.0
 11
233.7993371463041
 21
214.3866228668215
 31
0.0
  0
LINE
  5
18D4
330
1F
100
AcDbEntity
  8
AM_VIS
100
AcDbLine
 10
233.7993371463041
 20
214.3866228668215
 30
0.0
 11
233.7993371463041
 21
288.3866228668215
 31
0.0
  0
LINE
  5
18D5
330
1F
100
AcDbEntity
  8
AM_VIS
100
AcDbLine
 10
266.7993371463041
 20
269.3866228668215
 30
0.0
 11
277.7993371463041
 21
280.3866228668216
 31
0.0
  0
LINE
  5
18D6
330
1F
100
AcDbEntity
  8
AM_VIS
100
AcDbLine
 10
277.7993371463041
 20
288.3866228668215
 30
0.0
 11
277.7993371463041
 21
280.3866228668216
 31
0.0
  0
LINE
  5
18D7
102
{ACAD_REACTORS
330
2AF8
102
}
330
1F
100
AcDbEntity
  8
AM_VIS
100
AcDbLine
 10
233.7993371463041
 20
288.3866228668215
 30
0.0
 11
277.7993371463041
 21
288.3866228668215
 31
0.0
  0
LINE
  5
18D8
102
{ACAD_REACTORS
330
1A15
102
}
330
1F
100
AcDbEntity
  8
AM_VIS
100
AcDbLine
 10
277.7993371463041
 20
226.3866228668216
 30
0.0
 11
277.7993371463041
 21
214.3866228668215
 31
0.0
  0
LINE
  5
18D9
330
1F
100
AcDbEntity
  8
AM_VIS
100
AcDbLine
 10
277.7993371463041
 20
226.3866228668216
 30
0.0
 11
272.7993371463041
 21
231.3866228668215
 31
0.0
  0
LINE
  5
18DA
330
1F
100
AcDbEntity
  8
AM_VIS
100
AcDbLine
 10
272.7993371463041
 20
231.3866228668215
 30
0.0
 11
272.7993371463041
 21
253.7866228668215
 31
0.0
  0
LINE
  5
18DB
330
1F
100
AcDbEntity
  8
AM_VIS
100
AcDbLine
 10
272.7993371463041
 20
253.7866228668215
 30
0.0
 11
266.7993371463041
 21
259.7866228668215
 31
0.0
  0
LINE
  5
18DC
330
1F
100
AcDbEntity
  8
AM_VIS
100
AcDbLine
 10
266.7993371463041
 20
259.7866228668215
 30
0.0
 11
266.7993371463041
 21
269.3866228668215
 31
0.0
  0
LINE
  5
18E7
330
1F
100
AcDbEntity
  8
AM_7
100
AcDbLine
 10
168.6818993388558
 20
178.0845389407989
 30
0.0
 11
168.6818993388558
 21
178.0845389407989
 31
0.0
  0
LINE
  5
18E8
330
1F
100
AcDbEntity
  8
AM_7
100
AcDbLine
 10
168.6818993388558
 20
178.0845389407989
 30
0.0
 11
168.6818993388558
 21
178.0845389407989
 31
0.0
  0
LINE
  5
18E9
330
1F
100
AcDbEntity
  8
AM_7
100
AcDbLine
 10
160.0378993388558
 20
178.0845389407989
 30
0.0
 11
168.6818993388558
 21
178.0845389407989
 31
0.0
  0
LINE
  5
18EA
330
1F
100
AcDbEntity
  8
AM_7
100
AcDbLine
 10
168.6818993388558
 20
178.0845389407989
 30
0.0
 11
177.3258993388558
 21
178.0845389407989
 31
0.0
  0
LINE
  5
18EB
330
1F
100
AcDbEntity
  8
AM_7
100
AcDbLine
 10
168.6818993388558
 20
169.4405389407989
 30
0.0
 11
168.6818993388558
 21
178.0845389407989
 31
0.0
  0
LINE
  5
18EC
330
1F
100
AcDbEntity
  8
AM_7
100
AcDbLine
 10
168.6818993388558
 20
178.0845389407989
 30
0.0
 11
168.6818993388558
 21
186.7285389407989
 31
0.0
  0
LINE
  5
18ED
330
1F
100
AcDbEntity
  8
AM_7
100
AcDbLine
 10
155.0818993388558
 20
156.0845389407989
 30
0.0
 11
155.0818993388558
 21
156.0845389407989
 31
0.0
  0
LINE
  5
18EE
330
1F
100
AcDbEntity
  8
AM_7
100
AcDbLine
 10
155.0818993388558
 20
156.0845389407989
 30
0.0
 11
155.0818993388558
 21
156.0845389407989
 31
0.0
  0
LINE
  5
18EF
330
1F
100
AcDbEntity
  8
AM_7
100
AcDbLine
 10
146.4378993388558
 20
156.0845389407989
 30
0.0
 11
155.0818993388558
 21
156.0845389407989
 31
0.0
  0
LINE
  5
18F0
330
1F
100
AcDbEntity
  8
AM_7
100
AcDbLine
 10
155.0818993388558
 20
156.0845389407989
 30
0.0
 11
163.7258993388558
 21
156.0845389407989
 31
0.0
  0
LINE
  5
18F1
330
1F
100
AcDbEntity
  8
AM_7
100
AcDbLine
 10
155.0818993388558
 20
147.4405389407989
 30
0.0
 11
155.0818993388558
 21
156.0845389407989
 31
0.0
  0
LINE
  5
18F2
330
1F
100
AcDbEntity
  8
AM_7
100
AcDbLine
 10
155.0818993388558
 20
156.0845389407989
 30
0.0
 11
155.0818993388558
 21
164.7285389407989
 31
0.0
  0
LINE
  5
18F3
330
1F
100
AcDbEntity
  8
AM_7
100
AcDbLine
 10
158.7818993388558
 20
253.3866228668216
 30
0.0
 11
158.7818993388558
 21
253.3866228668216
 31
0.0
  0
LINE
  5
18F4
330
1F
100
AcDbEntity
  8
AM_7
100
AcDbLine
 10
158.7818993388558
 20
253.3866228668216
 30
0.0
 11
158.7818993388558
 21
253.3866228668216
 31
0.0
  0
LINE
  5
18F5
330
1F
100
AcDbEntity
  8
AM_7
100
AcDbLine
 10
152.4878993388558
 20
253.3866228668216
 30
0.0
 11
158.7818993388558
 21
253.3866228668216
 31
0.0
  0
LINE
  5
18F6
330
1F
100
AcDbEntity
  8
AM_7
100
AcDbLine
 10
158.7818993388558
 20
253.3866228668216
 30
0.0
 11
165.0758993388558
 21
253.3866228668216
 31
0.0
  0
LINE
  5
18F9
330
1F
100
AcDbEntity
  8
AM_7
100
AcDbLine
 10
150.2818993388558
 20
234.3866228668215
 30
0.0
 11
150.2818993388558
 21
234.3866228668215
 31
0.0
  0
LINE
  5
18FA
330
1F
100
AcDbEntity
  8
AM_7
100
AcDbLine
 10
150.2818993388558
 20
234.3866228668215
 30
0.0
 11
150.2818993388558
 21
234.3866228668215
 31
0.0
  0
LINE
  5
18FB
330
1F
100
AcDbEntity
  8
AM_7
100
AcDbLine
 10
146.1883993388558
 20
234.3866228668215
 30
0.0
 11
150.2818993388558
 21
234.3866228668215
 31
0.0
  0
LINE
  5
18FC
330
1F
100
AcDbEntity
  8
AM_7
100
AcDbLine
 10
150.2818993388558
 20
234.3866228668215
 30
0.0
 11
154.3753993388558
 21
234.3866228668215
 31
0.0
  0
LINE
  5
18FD
330
1F
100
AcDbEntity
  8
AM_7
100
AcDbLine
 10
150.2818993388558
 20
230.2931228668215
 30
0.0
 11
150.2818993388558
 21
234.3866228668215
 31
0.0
  0
LINE
  5
18FE
330
1F
100
AcDbEntity
  8
AM_7
100
AcDbLine
 10
150.2818993388558
 20
234.3866228668215
 30
0.0
 11
150.2818993388558
 21
238.4801228668215
 31
0.0
  0
LINE
  5
1917
330
1F
100
AcDbEntity
  8
AM_7
100
AcDbLine
 10
167.2818993388558
 20
272.3866228668216
 30
0.0
 11
167.2818993388558
 21
272.3866228668216
 31
0.0
  0
LINE
  5
1918
330
1F
100
AcDbEntity
  8
AM_7
100
AcDbLine
 10
167.2818993388558
 20
272.3866228668216
 30
0.0
 11
167.2818993388558
 21
272.3866228668216
 31
0.0
  0
LINE
  5
1919
330
1F
100
AcDbEntity
  8
AM_7
100
AcDbLine
 10
163.1883993388558
 20
272.3866228668216
 30
0.0
 11
167.2818993388558
 21
272.3866228668216
 31
0.0
  0
LINE
  5
191A
330
1F
100
AcDbEntity
  8
AM_7
100
AcDbLine
 10
167.2818993388558
 20
272.3866228668216
 30
0.0
 11
171.3753993388558
 21
272.3866228668216
 31
0.0
  0
LINE
  5
191B
330
1F
100
AcDbEntity
  8
AM_7
100
AcDbLine
 10
167.2818993388558
 20
268.2931228668215
 30
0.0
 11
167.2818993388558
 21
272.3866228668216
 31
0.0
  0
LINE
  5
191C
330
1F
100
AcDbEntity
  8
AM_7
100
AcDbLine
 10
167.2818993388558
 20
272.3866228668216
 30
0.0
 11
167.2818993388558
 21
276.4801228668215
 31
0.0
  0
LINE
  5
191D
330
1F
100
AcDbEntity
  8
AM_7
100
AcDbLine
 10
167.5818993388558
 20
178.0845389407989
 30
0.0
 11
167.5818993388558
 21
178.0845389407989
 31
0.0
  0
LINE
  5
191E
330
1F
100
AcDbEntity
  8
AM_7
100
AcDbLine
 10
167.5818993388558
 20
178.0845389407989
 30
0.0
 11
167.5818993388558
 21
178.0845389407989
 31
0.0
  0
LINE
  5
191F
330
1F
100
AcDbEntity
  8
AM_7
100
AcDbLine
 10
160.8878993388558
 20
178.0845389407989
 30
0.0
 11
167.5818993388558
 21
178.0845389407989
 31
0.0
  0
LINE
  5
1920
330
1F
100
AcDbEntity
  8
AM_7
100
AcDbLine
 10
167.5818993388558
 20
178.0845389407989
 30
0.0
 11
174.2758993388559
 21
178.0845389407989
 31
0.0
  0
LINE
  5
1921
330
1F
100
AcDbEntity
  8
AM_7
100
AcDbLine
 10
255.2993371463041
 20
277.8866228668215
 30
0.0
 11
255.2993371463041
 21
277.8866228668215
 31
0.0
  0
LINE
  5
1922
330
1F
100
AcDbEntity
  8
AM_7
100
AcDbLine
 10
255.2993371463041
 20
277.8866228668215
 30
0.0
 11
255.2993371463041
 21
277.8866228668215
 31
0.0
  0
LINE
  5
1923
330
1F
100
AcDbEntity
  8
AM_7
100
AcDbLine
 10
246.6553371463041
 20
277.8866228668215
 30
0.0
 11
255.2993371463041
 21
277.8866228668215
 31
0.0
  0
LINE
  5
1924
102
{ACAD_REACTORS
330
19EF
102
}
330
1F
100
AcDbEntity
  8
AM_7
100
AcDbLine
 10
255.2993371463041
 20
277.8866228668215
 30
0.0
 11
263.9433371463041
 21
277.8866228668215
 31
0.0
  0
LINE
  5
1925
330
1F
100
AcDbEntity
  8
AM_7
100
AcDbLine
 10
255.2993371463041
 20
269.2426228668215
 30
0.0
 11
255.2993371463041
 21
277.8866228668215
 31
0.0
  0
LINE
  5
1926
330
1F
100
AcDbEntity
  8
AM_7
100
AcDbLine
 10
255.2993371463041
 20
277.8866228668215
 30
0.0
 11
255.2993371463041
 21
286.5306228668215
 31
0.0
  0
LINE
  5
1927
330
1F
100
AcDbEntity
  8
AM_7
100
AcDbLine
 10
255.2993371463041
 20
253.3866228668216
 30
0.0
 11
255.2993371463041
 21
253.3866228668216
 31
0.0
  0
LINE
  5
1928
330
1F
100
AcDbEntity
  8
AM_7
100
AcDbLine
 10
255.2993371463041
 20
253.3866228668216
 30
0.0
 11
255.2993371463041
 21
253.3866228668216
 31
0.0
  0
LINE
  5
1929
330
1F
100
AcDbEntity
  8
AM_7
100
AcDbLine
 10
246.6553371463041
 20
253.3866228668216
 30
0.0
 11
255.2993371463041
 21
253.3866228668216
 31
0.0
  0
LINE
  5
192A
102
{ACAD_REACTORS
330
19BF
102
}
330
1F
100
AcDbEntity
  8
AM_7
100
AcDbLine
 10
255.2993371463041
 20
253.3866228668216
 30
0.0
 11
263.9433371463041
 21
253.3866228668216
 31
0.0
  0
LINE
  5
192B
330
1F
100
AcDbEntity
  8
AM_7
100
AcDbLine
 10
255.2993371463041
 20
244.7426228668216
 30
0.0
 11
255.2993371463041
 21
253.3866228668216
 31
0.0
  0
LINE
  5
192C
330
1F
100
AcDbEntity
  8
AM_7
100
AcDbLine
 10
255.2993371463041
 20
253.3866228668216
 30
0.0
 11
255.2993371463041
 21
262.0306228668216
 31
0.0
  0
LINE
  5
192D
330
1F
100
AcDbEntity
  8
AM_7
100
AcDbLine
 10
255.2993371463041
 20
228.8866228668215
 30
0.0
 11
255.2993371463041
 21
228.8866228668215
 31
0.0
  0
LINE
  5
192E
330
1F
100
AcDbEntity
  8
AM_7
100
AcDbLine
 10
255.2993371463041
 20
228.8866228668215
 30
0.0
 11
255.2993371463041
 21
228.8866228668215
 31
0.0
  0
LINE
  5
192F
330
1F
100
AcDbEntity
  8
AM_7
100
AcDbLine
 10
246.6553371463041
 20
228.8866228668215
 30
0.0
 11
255.2993371463041
 21
228.8866228668215
 31
0.0
  0
LINE
  5
1930
102
{ACAD_REACTORS
330
19BF
102
}
330
1F
100
AcDbEntity
  8
AM_7
100
AcDbLine
 10
255.2993371463041
 20
228.8866228668215
 30
0.0
 11
263.9433371463041
 21
228.8866228668215
 31
0.0
  0
LINE
  5
1931
102
{ACAD_REACTORS
330
1ABC
102
}
330
1F
100
AcDbEntity
  8
AM_7
100
AcDbLine
 10
255.2993371463041
 20
220.2426228668215
 30
0.0
 11
255.2993371463041
 21
228.8866228668215
 31
0.0
  0
LINE
  5
1932
330
1F
100
AcDbEntity
  8
AM_7
100
AcDbLine
 10
255.2993371463041
 20
228.8866228668215
 30
0.0
 11
255.2993371463041
 21
237.5306228668216
 31
0.0
  0
LINE
  5
1984
330
1F
100
AcDbEntity
  8
AM_7
100
AcDbLine
 10
167.2818993388558
 20
272.3866228668216
 30
0.0
 11
171.3753993388558
 21
272.3866228668216
 31
0.0
  0
DIMENSION
  5
19B1
102
{ACAD_XDICTIONARY
360
19BE
102
}
102
{ACAD_REACTORS
330
19BF
102
}
330
1F
100
AcDbEntity
  8
AM_5
100
AcDbDimension
  2
*D2
 10
289.7993371463041
 20
253.3866228668216
 30
0.0
 11
287.2990418707135
 21
241.1366228668216
 31
0.0
 70
    32
 71
     5
 42
24.5
  3
AM_ISO$0
100
AcDbAlignedDimension
 13
263.9433371463041
 23
228.8866228668215
 33
0.0
 14
263.9433371463041
 24
253.3866228668216
 34
0.0
 50
90.0
100
AcDbRotatedDimension
1001
ACAD
1000
DSTYLE
1002
{
1070
    40
1040
1.0
1070
   144
1040
1.0
1002
}
  0
DIMENSION
  5
19E1
102
{ACAD_XDICTIONARY
360
19EE
102
}
102
{ACAD_REACTORS
330
19EF
102
}
330
1F
100
AcDbEntity
  8
AM_5
100
AcDbDimension
  2
*D3
 10
289.7993371463041
 20
277.8866228668215
 30
0.0
 11
287.2990418707135
 21
265.6366228668216
 31
0.0
 70
    32
 71
     5
 42
24.5
  3
AM_ISO$0
100
AcDbAlignedDimension
 13
263.9433371463041
 23
253.3866228668216
 33
0.0
 14
263.9433371463041
 24
277.8866228668215
 34
0.0
 50
90.0
100
AcDbRotatedDimension
1001
ACAD
1000
DSTYLE
1002
{
1070
    40
1040
1.0
1070
   144
1040
1.0
1002
}
  0
DIMENSION
  5
1A07
102
{ACAD_XDICTIONARY
360
1A14
102
}
102
{ACAD_REACTORS
330
1A15
102
}
330
1F
100
AcDbEntity
  8
AM_5
100
AcDbDimension
  2
*D4
 10
297.7993371463041
 20
253.3866228668216
 30
0.0
 11
295.299337146304
 21
233.8866228668216
 31
0.0
 70
    32
 71
     5
 42
39.0
  3
AM_ISO$0
100
AcDbAlignedDimension
 13
277.7993371463041
 23
214.3866228668215
 33
0.0
 14
263.9433371463041
 24
253.3866228668216
 34
0.0
 50
90.0
100
AcDbRotatedDimension
1001
ACAD
1000
DSTYLE
1002
{
1070
    40
1040
1.0
1070
   144
1040
1.0
1002
}
  0
DIMENSION
  5
1A7E
102
{ACAD_XDICTIONARY
360
1A8B
102
}
102
{ACAD_REACTORS
330
1A8C
102
}
330
1F
100
AcDbEntity
  8
AM_5
100
AcDbDimension
  2
*D5
 10
215.8258993388558
 20
263.8866228668216
 30
0.0
 11
213.3256040632653
 21
253.3866228668216
 31
0.0
 70
    32
 71
     5
 42
21.0
  3
AM_ISO$0
100
AcDbAlignedDimension
 13
203.8258993388558
 23
242.8866228668216
 33
0.0
 14
203.8258993388558
 24
263.8866228668216
 34
0.0
 50
90.0
100
AcDbRotatedDimension
1001
ACAD
1000
DSTYLE
1002
{
1070
    40
1040
1.0
1070
   144
1040
1.0
1070
   272
1070
     8
1002
}
  0
DIMENSION
  5
1AAE
102
{ACAD_XDICTIONARY
360
1ABB
102
}
102
{ACAD_REACTORS
330
1ABC
102
}
330
1F
100
AcDbEntity
  8
AM_5
100
AcDbDimension
  2
*D6
 10
277.7993371463041
 20
202.3866218668215
 30
0.0
 11
266.5493371463041
 21
204.8869171424121
 31
0.0
 70
    32
 71
     5
 42
22.5
  3
AM_ISO$0
100
AcDbAlignedDimension
 13
255.2993371463041
 23
220.2426228668215
 33
0.0
 14
277.7993371463041
 24
214.3866228668215
 34
0.0
100
AcDbRotatedDimension
1001
ACAD
1000
DSTYLE
1002
{
1070
    40
1040
1.0
1070
   144
1040
1.0
1070
   272
1070
     8
1002
}
  0
DIMENSION
  5
1AD4
102
{ACAD_XDICTIONARY
360
1AE1
102
}
102
{ACAD_REACTORS
330
1AE2
102
}
330
1F
100
AcDbEntity
  8
AM_5
100
AcDbDimension
  2
*D7
 10
216.7818993388558
 20
156.0845389407989
 30
0.0
 11
214.2818993388558
 21
150.5845389407989
 31
0.0
 70
    32
 71
     5
 42
10.99999999999997
  3
AM_ISO$0
100
AcDbAlignedDimension
 13
204.7818993388558
 23
145.0845389407989
 33
0.0
 14
186.7258993388558
 24
156.0845389407989
 34
0.0
 50
90.0
100
AcDbRotatedDimension
1001
ACAD
1000
DSTYLE
1002
{
1070
    40
1040
1.0
1070
   144
1040
1.0
1070
   272
1070
     8
1002
}
  0
DIMENSION
  5
1AFA
102
{ACAD_XDICTIONARY
360
1B07
102
}
102
{ACAD_REACTORS
330
1B08
102
}
330
1F
100
AcDbEntity
  8
AM_5
100
AcDbDimension
  2
*D8
 10
224.7818993388559
 20
178.0845389407989
 30
0.0
 11
222.2818993388558
 21
161.5845389407989
 31
0.0
 70
    32
 71
     5
 42
33.0
  3
AM_ISO$0
100
AcDbAlignedDimension
 13
204.7818993388558
 23
145.0845389407989
 33
0.0
 14
200.3258993388558
 24
178.0845389407989
 34
0.0
 50
90.0
100
AcDbRotatedDimension
1001
ACAD
1000
DSTYLE
1002
{
1070
    40
1040
1.0
1070
   144
1040
1.0
1070
   272
1070
     8
1002
}
  0
DIMENSION
  5
1B20
102
{ACAD_XDICTIONARY
360
1B2D
102
}
102
{ACAD_REACTORS
330
1B2E
102
}
330
1F
100
AcDbEntity
  8
AM_5
100
AcDbDimension
  2
*D9
 10
232.7818993388559
 20
189.0845389407989
 30
0.0
 11
230.2818993388558
 21
167.0845389407989
 31
0.0
 70
    32
 71
     5
 42
44.0
  3
AM_ISO$0
100
AcDbAlignedDimension
 13
204.7818993388558
 23
145.0845389407989
 33
0.0
 14
204.7818993388558
 24
189.0845389407989
 34
0.0
 50
90.0
100
AcDbRotatedDimension
1001
ACAD
1000
DSTYLE
1002
{
1070
    40
1040
1.0
1070
   144
1040
1.0
1070
   272
1070
     8
1002
}
  0
DIMENSION
  5
1B4A
102
{ACAD_XDICTIONARY
360
1B59
102
}
102
{ACAD_REACTORS
330
1B5A
102
}
330
1F
100
AcDbEntity
  8
AM_5
100
AcDbDimension
  2
*D10
 10
141.7818993388558
 20
202.3866228668214
 30
0.0
 11
138.7818993388558
 21
204.8866228668214
 31
0.0
 70
    32
 71
     5
 42
6.0
  3
AM_ISO$0
100
AcDbAlignedDimension
 13
135.7818993388558
 23
214.3866228668215
 33
0.0
 14
141.7818993388558
 24
237.8426228668216
 34
0.0
100
AcDbRotatedDimension
1001
ACAD
1000
DSTYLE
1002
{
1070
    40
1040
1.0
1070
   144
1040
1.0
1070
   272
1070
     8
1002
}
  0
DIMENSION
  5
1B74
102
{ACAD_XDICTIONARY
360
1B83
102
}
102
{ACAD_REACTORS
330
1B84
102
}
330
1F
100
AcDbEntity
  8
AM_5
100
AcDbDimension
  2
*D11
 10
204.7818993388558
 20
202.3866228668216
 30
0.0
 11
201.7818993388559
 21
204.8866228668216
 31
0.0
 70
    32
 71
     5
 42
6.0
  3
AM_ISO$0
100
AcDbAlignedDimension
 13
198.7818993388558
 23
237.8426228668216
 33
0.0
 14
204.7818993388558
 24
214.3866228668215
 34
0.0
100
AcDbRotatedDimension
1001
ACAD
1000
DSTYLE
1002
{
1070
    40
1040
1.0
1070
   144
1040
1.0
1070
   272
1070
     8
1002
}
  0
TEXT
  5
1E26
330
1F
100
AcDbEntity
  8
0
100
AcDbText
 10
123.5526249277884
 20
306.8593046397514
 30
0.0
 40
4.0
  1
MVSC-220M-5M2
100
AcDbText
  0
ARC
  5
1F92
330
1F
100
AcDbEntity
  8
AM_4
100
AcDbCircle
 10
255.2993371463041
 20
277.8866228668215
 30
0.0
 40
6.899999999999999
100
AcDbArc
 50
260.0
 51
170.0
  0
CIRCLE
  5
1F93
330
1F
100
AcDbEntity
  8
AM_0
100
AcDbCircle
 10
255.2993371463041
 20
277.8866228668215
 30
0.0
 40
5.7225
  0
ARC
  5
1F94
330
1F
100
AcDbEntity
  8
AM_4
100
AcDbCircle
 10
255.2993371463041
 20
253.3866228668216
 30
0.0
 40
6.899999999999999
100
AcDbArc
 50
260.0
 51
170.0
  0
CIRCLE
  5
1F95
330
1F
100
AcDbEntity
  8
AM_0
100
AcDbCircle
 10
255.2993371463041
 20
253.3866228668216
 30
0.0
 40
5.7225
  0
ARC
  5
1F96
330
1F
100
AcDbEntity
  8
AM_4
100
AcDbCircle
 10
255.2993371463041
 20
228.8866228668215
 30
0.0
 40
6.899999999999999
100
AcDbArc
 50
260.0
 51
170.0
  0
CIRCLE
  5
1F97
330
1F
100
AcDbEntity
  8
AM_0
100
AcDbCircle
 10
255.2993371463041
 20
228.8866228668215
 30
0.0
 40
5.7225
  0
ARC
  5
1F98
330
1F
100
AcDbEntity
  8
AM_4
100
AcDbCircle
 10
178.0818993388558
 20
156.0845389407989
 30
0.0
 40
6.899999999999999
100
AcDbArc
 50
260.0
 51
170.0
  0
CIRCLE
  5
1F99
330
1F
100
AcDbEntity
  8
AM_0
100
AcDbCircle
 10
178.0818993388558
 20
156.0845389407989
 30
0.0
 40
5.7225
  0
ARC
  5
1F9A
330
1F
100
AcDbEntity
  8
AM_4
100
AcDbCircle
 10
155.0818993388558
 20
156.0845389407989
 30
0.0
 40
6.899999999999999
100
AcDbArc
 50
260.0
 51
170.0
  0
CIRCLE
  5
1F9B
330
1F
100
AcDbEntity
  8
AM_0
100
AcDbCircle
 10
155.0818993388558
 20
156.0845389407989
 30
0.0
 40
5.7225
  0
ARC
  5
1F9C
330
1F
100
AcDbEntity
  8
AM_4
100
AcDbCircle
 10
168.6818993388558
 20
178.0845389407989
 30
0.0
 40
6.899999999999999
100
AcDbArc
 50
260.0
 51
170.0
  0
CIRCLE
  5
1F9D
330
1F
100
AcDbEntity
  8
AM_0
100
AcDbCircle
 10
168.6818993388558
 20
178.0845389407989
 30
0.0
 40
5.7225
  0
ARC
  5
1F9E
330
1F
100
AcDbEntity
  8
AM_4
100
AcDbCircle
 10
191.6818993388558
 20
178.0845389407989
 30
0.0
 40
6.899999999999999
100
AcDbArc
 50
260.0
 51
170.0
  0
CIRCLE
  5
1F9F
330
1F
100
AcDbEntity
  8
AM_0
100
AcDbCircle
 10
191.6818993388558
 20
178.0845389407989
 30
0.0
 40
5.7225
  0
TEXT
  5
23D2
330
1F
100
AcDbEntity
  8
AM_5
100
AcDbText
 10
191.964290422163
 20
136.3556450246858
 30
0.0
 40
3.5
  1
PT1/4
100
AcDbText
  0
INSERT
  5
23D3
330
1F
100
AcDbEntity
  8
AM_5
100
AcDbBlockReference
  2
*S13
 10
0.0
 20
0.0
 30
0.0
  0
TEXT
  5
23DB
330
1F
100
AcDbEntity
  8
AM_5
100
AcDbText
 10
208.9595580977344
 20
274.9766331058392
 30
0.0
 40
3.5
  1
4-%%C4.5
100
AcDbText
  0
INSERT
  5
23DC
330
1F
100
AcDbEntity
  8
AM_5
100
AcDbBlockReference
  2
*S14
 10
0.0
 20
0.0
 30
0.0
  0
TEXT
  5
2AC5
330
1F
100
AcDbEntity
  8
AM_5
100
AcDbText
 10
269.3339340597756
 20
297.7077494888921
 30
0.0
 40
3.5
  1
3-PT1/4
100
AcDbText
  0
INSERT
  5
2AC6
330
1F
100
AcDbEntity
  8
AM_5
100
AcDbBlockReference
  2
*S15
 10
0.0
 20
0.0
 30
0.0
  0
DIMENSION
  5
2AEA
102
{ACAD_XDICTIONARY
360
2AF7
102
}
102
{ACAD_REACTORS
330
2AF8
102
}
330
1F
100
AcDbEntity
  8
AM_5
100
AcDbDimension
  2
*D12
 10
305.7993371463041
 20
214.3866228668215
 30
0.0
 11
303.2993371463041
 21
251.3866228668216
 31
0.0
 70
    32
 71
     5
 42
74.0
  3
AM_ISO$0
100
AcDbAlignedDimension
 13
277.7993371463041
 23
288.3866228668215
 33
0.0
 14
277.7993371463041
 24
214.3866228668215
 34
0.0
 50
90.00000000000003
100
AcDbRotatedDimension
1001
ACAD
1000
DSTYLE
1002
{
1070
    40
1040
1.0
1070
   144
1040
1.0
1070
   272
1070
     8
1002
}
  0
ENDSEC
  0
SECTION
  2
OBJECTS
  0
DICTIONARY
  5
C
330
0
100
AcDbDictionary
281
     1
  3
ACAD_COLOR
350
7D1
  3
ACAD_GROUP
350
D
  3
ACAD_LAYOUT
350
1A
  3
ACAD_MATERIAL
350
7D0
  3
ACAD_MLINESTYLE
350
17
  3
ACAD_PLOTSETTINGS
350
19
  3
ACAD_PLOTSTYLENAME
350
E
  3
ACAD_TABLESTYLE
350
7D2
  3
ACDBHEADERROUNDTRIPXREC
350
2CAA
  3
AcDbVariableDictionary
350
82
  3
AcmDictionary
350
45
  3
AMG
350
2B
  3
AMGSNAPSETTINGS
350
87
  3
DWGPROPS
350
2CA9
  0
DICTIONARY
  5
AAB
330
2
100
AcDbDictionary
280
     1
281
     1
  3
ACAD_LAYERSTATES
360
AAC
  0
DICTIONARY
  5
7D
330
1F
100
AcDbDictionary
280
     1
281
     1
  3
ACAD_SORTENTS
360
EEA
  0
DICTIONARY
  5
19BE
330
19B1
100
AcDbDictionary
280
     1
281
     1
  3
ACAD_DIMASSOC
360
19BF
  0
DICTIONARY
  5
19EE
330
19E1
100
AcDbDictionary
280
     1
281
     1
  3
ACAD_DIMASSOC
360
19EF
  0
DICTIONARY
  5
1A14
330
1A07
100
AcDbDictionary
280
     1
281
     1
  3
ACAD_DIMASSOC
360
1A15
  0
DICTIONARY
  5
1A8B
330
1A7E
100
AcDbDictionary
280
     1
281
     1
  3
ACAD_DIMASSOC
360
1A8C
  0
DICTIONARY
  5
1ABB
330
1AAE
100
AcDbDictionary
280
     1
281
     1
  3
ACAD_DIMASSOC
360
1ABC
  0
DICTIONARY
  5
1AE1
330
1AD4
100
AcDbDictionary
280
     1
281
     1
  3
ACAD_DIMASSOC
360
1AE2
  0
DICTIONARY
  5
1B07
330
1AFA
100
AcDbDictionary
280
     1
281
     1
  3
ACAD_DIMASSOC
360
1B08
  0
DICTIONARY
  5
1B2D
330
1B20
100
AcDbDictionary
280
     1
281
     1
  3
ACAD_DIMASSOC
360
1B2E
  0
DICTIONARY
  5
1B59
330
1B4A
100
AcDbDictionary
280
     1
281
     1
  3
ACAD_DIMASSOC
360
1B5A
  0
DICTIONARY
  5
1B83
330
1B74
100
AcDbDictionary
280
     1
281
     1
  3
ACAD_DIMASSOC
360
1B84
  0
DICTIONARY
  5
2AF7
330
2AEA
100
AcDbDictionary
280
     1
281
     1
  3
ACAD_DIMASSOC
360
2AF8
  0
DICTIONARY
  5
7D1
102
{ACAD_REACTORS
330
C
102
}
330
C
100
AcDbDictionary
281
     1
  0
DICTIONARY
  5
D
102
{ACAD_REACTORS
330
C
102
}
330
C
100
AcDbDictionary
281
     1
  0
DICTIONARY
  5
1A
102
{ACAD_REACTORS
330
C
102
}
330
C
100
AcDbDictionary
281
     1
  3
Layout1
350
1E
  3
Layout2
350
26
  3
Model
350
22
  0
DICTIONARY
  5
7D0
102
{ACAD_REACTORS
330
C
102
}
330
C
100
AcDbDictionary
281
     1
  0
DICTIONARY
  5
17
102
{ACAD_REACTORS
330
C
102
}
330
C
100
AcDbDictionary
281
     1
  3
Standard
350
18
  0
DICTIONARY
  5
19
102
{ACAD_REACTORS
330
C
102
}
330
C
100
AcDbDictionary
281
     1
  0
ACDBDICTIONARYWDFLT
  5
E
102
{ACAD_REACTORS
330
C
102
}
330
C
100
AcDbDictionary
281
     1
  3
Normal
350
F
100
AcDbDictionaryWithDefault
340
F
  0
DICTIONARY
  5
7D2
102
{ACAD_REACTORS
330
C
102
}
330
C
100
AcDbDictionary
281
     1
  3
Standard
350
7D3
  0
DICTIONARY
  5
2CAA
102
{ACAD_REACTORS
330
C
102
}
330
C
100
AcDbDictionary
281
     1
  0
DICTIONARY
  5
82
102
{ACAD_REACTORS
330
C
102
}
330
C
100
AcDbDictionary
281
     1
  3
CTABLESTYLE
350
847
  3
DIMASSOC
350
85
  3
HIDETEXT
350
84
  3
INDEXCTL
350
83
  3
PROJECTNAME
350
848
  0
DICTIONARY
  5
45
102
{ACAD_REACTORS
330
C
102
}
330
C
100
AcDbDictionary
281
     1
  3
AcmStdDictionary
350
4A
  3
AMDTSECTSYM_ARROWCOLOR
350
7DF
  0
DICTIONARY
  5
2B
102
{ACAD_REACTORS
330
C
102
}
330
C
100
AcDbDictionary
281
     1
  0
DICTIONARY
  5
87
102
{ACAD_REACTORS
330
C
102
}
330
C
100
AcDbDictionary
281
     1
  0
XRECORD
  5
2CA9
102
{ACAD_REACTORS
330
C
102
}
330
C
100
AcDbXrecord
280
     1
  1
DWGPROPS COOKIE
  2

  3

  4

  6

  7

  8

  9

300
AmdtFileType=84
301
=
302
=
303
=
304
=
305
=
306
=
307
=
308
=
309
=
 40
0.4072540856481482
 41
2453021.369367211
 42
2453514.588048855
  1

 90
        1
  0
DICTIONARY
  5
AAC
102
{ACAD_REACTORS
330
AAB
102
}
330
AAB
100
AcDbDictionary
281
     1
  0
SORTENTSTABLE
  5
EEA
102
{ACAD_REACTORS
330
7D
102
}
330
7D
100
AcDbSortentsTable
330
1F
331
191C
  5
191C
331
13F8
  5
13F8
331
1854
  5
1854
331
18D5
  5
18D5
331
1924
  5
1924
331
1400
  5
1400
331
1457
  5
1457
331
192C
  5
192C
331
1616
  5
1616
331
185C
  5
185C
331
1815
  5
1815
331
1864
  5
1864
331
1467
  5
1467
331
186C
  5
186C
331
1626
  5
1626
331
181D
  5
181D
331
146F
  5
146F
331
1AFA
  5
1AFA
331
18ED
  5
18ED
331
1984
  5
1984
331
162E
  5
162E
331
1894
  5
1894
331
18F5
  5
18F5
331
1440
  5
1440
331
1477
  5
1477
331
18FD
  5
18FD
331
1636
  5
1636
331
183D
  5
183D
331
163E
  5
163E
331
1845
  5
1845
331
13F1
  5
13F1
331
184D
  5
184D
331
191D
  5
191D
331
13F9
  5
13F9
331
160F
  5
160F
331
1855
  5
1855
331
1458
  5
1458
331
18D6
  5
18D6
331
1925
  5
1925
331
1401
  5
1401
331
1B4A
  5
1B4A
331
192D
  5
192D
331
185D
  5
185D
331
1816
  5
1816
331
1865
  5
1865
331
181E
  5
181E
331
1627
  5
1627
331
186D
  5
186D
331
18EE
  5
18EE
331
1470
  5
1470
331
162F
  5
162F
331
1895
  5
1895
331
1478
  5
1478
331
18F6
  5
18F6
331
1441
  5
1441
331
1637
  5
1637
331
183E
  5
183E
331
18FE
  5
18FE
331
1449
  5
1449
331
1846
  5
1846
331
13F2
  5
13F2
331
184E
  5
184E
331
191E
  5
191E
331
13FA
  5
13FA
331
1647
  5
1647
331
1610
  5
1610
331
1856
  5
1856
331
1459
  5
1459
331
18D7
  5
18D7
331
1926
  5
1926
331
1AD4
  5
1AD4
331
1402
  5
1402
331
185E
  5
185E
331
192E
  5
192E
331
1461
  5
1461
331
1620
  5
1620
331
1866
  5
1866
331
18E7
  5
18E7
331
1432
  5
1432
331
186E
  5
186E
331
1628
  5
1628
331
18EF
  5
18EF
331
1471
  5
1471
331
1630
  5
1630
331
1837
  5
1837
331
1896
  5
1896
331
1479
  5
1479
331
1442
  5
1442
331
1638
  5
1638
331
183F
  5
183F
331
1847
  5
1847
331
1917
  5
1917
331
13F3
  5
13F3
331
184F
  5
184F
331
18C0
  5
18C0
331
1640
  5
1640
331
191F
  5
191F
331
13FB
  5
13FB
331
1452
  5
1452
331
1857
  5
1857
331
1648
  5
1648
331
18D8
  5
18D8
331
1927
  5
1927
331
1403
  5
1403
331
192F
  5
192F
331
185F
  5
185F
331
1867
  5
1867
331
1433
  5
1433
331
186F
  5
186F
331
18E8
  5
18E8
331
1629
  5
1629
331
18F0
  5
18F0
331
1472
  5
1472
331
1631
  5
1631
331
1838
  5
1838
331
1897
  5
1897
331
1A7E
  5
1A7E
331
1B74
  5
1B74
331
1443
  5
1443
331
1639
  5
1639
331
1840
  5
1840
331
18BF
  5
18BF
331
1602
  5
1602
331
1848
  5
1848
331
13F4
  5
13F4
331
1AAE
  5
1AAE
331
18C1
  5
18C1
331
1918
  5
1918
331
1641
  5
1641
331
160A
  5
160A
331
1850
  5
1850
331
13FC
  5
13FC
331
1453
  5
1453
331
1920
  5
1920
331
1858
  5
1858
331
1404
  5
1404
331
18D9
  5
18D9
331
1928
  5
1928
331
161A
  5
161A
331
1860
  5
1860
331
1424
  5
1424
331
1930
  5
1930
331
1A07
  5
1A07
331
1868
  5
1868
331
1819
  5
1819
331
146B
  5
146B
331
1434
  5
1434
331
18E9
  5
18E9
331
1473
  5
1473
331
18F1
  5
18F1
331
1898
  5
1898
331
1632
  5
1632
331
1839
  5
1839
331
1444
  5
1444
331
18F9
  5
18F9
331
163A
  5
163A
331
1841
  5
1841
331
1603
  5
1603
331
1849
  5
1849
331
13F5
  5
13F5
331
18C2
  5
18C2
331
1919
  5
1919
331
1642
  5
1642
331
160B
  5
160B
331
1851
  5
1851
331
13FD
  5
13FD
331
1454
  5
1454
331
1921
  5
1921
331
1859
  5
1859
331
1405
  5
1405
331
18DA
  5
18DA
331
1929
  5
1929
331
1861
  5
1861
331
1931
  5
1931
331
1869
  5
1869
331
1623
  5
1623
331
181A
  5
181A
331
146C
  5
146C
331
18EA
  5
18EA
331
1474
  5
1474
331
143D
  5
143D
331
19B1
  5
19B1
331
18F2
  5
18F2
331
183A
  5
183A
331
1445
  5
1445
331
18FA
  5
18FA
331
1899
  5
1899
331
144D
  5
144D
331
163B
  5
163B
331
1842
  5
1842
331
13F6
  5
13F6
331
1E26
  5
1E26
331
1604
  5
1604
331
184A
  5
184A
331
19E1
  5
19E1
331
191A
  5
191A
331
1852
  5
1852
331
18D3
  5
18D3
331
1922
  5
1922
331
13FE
  5
13FE
331
1455
  5
1455
331
185A
  5
185A
331
18DB
  5
18DB
331
192A
  5
192A
331
145D
  5
145D
331
1813
  5
1813
331
1862
  5
1862
331
1932
  5
1932
331
1465
  5
1465
331
186A
  5
186A
331
181B
  5
181B
331
146D
  5
146D
331
18EB
  5
18EB
331
1475
  5
1475
331
18F3
  5
18F3
331
143E
  5
143E
331
189A
  5
189A
331
18FB
  5
18FB
331
1634
  5
1634
331
183B
  5
183B
331
163C
  5
163C
331
1843
  5
1843
331
144E
  5
144E
331
1605
  5
1605
331
184B
  5
184B
331
13F7
  5
13F7
331
191B
  5
191B
331
1B20
  5
1B20
331
1644
  5
1644
331
1853
  5
1853
331
18D4
  5
18D4
331
1923
  5
1923
331
13FF
  5
13FF
331
1456
  5
1456
331
18DC
  5
18DC
331
192B
  5
192B
331
1615
  5
1615
331
185B
  5
185B
331
161D
  5
161D
331
1814
  5
1814
331
1863
  5
1863
331
1466
  5
1466
331
186B
  5
186B
331
181C
  5
181C
331
146E
  5
146E
331
18EC
  5
18EC
331
162D
  5
162D
331
1893
  5
1893
331
1476
  5
1476
331
18F4
  5
18F4
331
143F
  5
143F
331
18FC
  5
18FC
331
1635
  5
1635
331
183C
  5
183C
331
163D
  5
163D
331
1844
  5
1844
331
184C
  5
184C
  0
DIMASSOC
  5
19BF
102
{ACAD_REACTORS
330
19BE
102
}
330
19BE
100
AcDbDimAssoc
330
19B1
 90
        3
 70
     0
 71
     0
  1
AcDbOsnapPointRef
 72
     1
331
1930
 73
     0
 91
        0
 40
0.0
 10
0.0
 20
0.0
 30
2.000000000000000E+50
 75
     0
  1
AcDbOsnapPointRef
 72
     1
331
192A
 73
     0
 91
        0
 40
0.0
 10
0.0
 20
0.0
 30
2.000000000000000E+50
 75
     0
  0
DIMASSOC
  5
19EF
102
{ACAD_REACTORS
330
19EE
102
}
330
19EE
100
AcDbDimAssoc
330
19E1
 90
        2
 70
     0
 71
     0
  1
AcDbOsnapPointRef
 72
     1
331
1924
 73
     0
 91
        0
 40
0.0
 10
0.0
 20
0.0
 30
2.000000000000000E+50
 75
     0
  0
DIMASSOC
  5
1A15
102
{ACAD_REACTORS
330
1A14
102
}
330
1A14
100
AcDbDimAssoc
330
1A07
 90
        1
 70
     0
 71
     0
  1
AcDbOsnapPointRef
 72
     1
331
18D8
 73
     0
 91
        0
 40
0.0
 10
0.0
 20
0.0
 30
2.000000000000000E+50
 75
     0
  0
DIMASSOC
  5
1A8C
102
{ACAD_REACTORS
330
1A8B
102
}
330
1A8B
100
AcDbDimAssoc
330
1A7E
 90
        3
 70
     0
 71
     0
  1
AcDbOsnapPointRef
 72
     1
331
185C
 73
     0
 91
        0
 40
0.0
 10
0.0
 20
0.0
 30
2.000000000000000E+50
 75
     0
  1
AcDbOsnapPointRef
 72
     1
331
1850
 73
     0
 91
        0
 40
0.0
 10
0.0
 20
0.0
 30
2.000000000000000E+50
 75
     0
  0
DIMASSOC
  5
1ABC
102
{ACAD_REACTORS
330
1ABB
102
}
330
1ABB
100
AcDbDimAssoc
330
1AAE
 90
        1
 70
     0
 71
     0
  1
AcDbOsnapPointRef
 72
    13
331
1931
 73
     0
 91
        0
 40
0.0
 10
0.0
 20
0.0
 30
2.000000000000000E+50
 75
     0
  0
DIMASSOC
  5
1AE2
102
{ACAD_REACTORS
330
1AE1
102
}
330
1AE1
100
AcDbDimAssoc
330
1AD4
 90
        3
 70
     0
 71
     0
  1
AcDbOsnapPointRef
 72
     1
331
18C2
 73
     0
 91
        0
 40
0.0
 10
0.0
 20
0.0
 30
2.000000000000000E+50
 75
     0
  1
AcDbOsnapPointRef
 72
     1
331
1846
 73
     0
 91
        0
 40
0.0
 10
0.0
 20
0.0
 30
2.000000000000000E+50
 75
     0
  0
DIMASSOC
  5
1B08
102
{ACAD_REACTORS
330
1B07
102
}
330
1B07
100
AcDbDimAssoc
330
1AFA
 90
        2
 70
     0
 71
     0
  1
AcDbOsnapPointRef
 72
     1
331
1840
 73
     0
 91
        0
 40
0.0
 10
0.0
 20
0.0
 30
2.000000000000000E+50
 75
     0
  0
DIMASSOC
  5
1B2E
102
{ACAD_REACTORS
330
1B2D
102
}
330
1B2D
100
AcDbDimAssoc
330
1B20
 90
        2
 70
     0
 71
     0
  1
AcDbOsnapPointRef
 72
     1
331
18C0
 73
     0
 91
        0
 40
0.0
 10
0.0
 20
0.0
 30
2.000000000000000E+50
 75
     0
  0
DIMASSOC
  5
1B5A
102
{ACAD_REACTORS
330
1B59
102
}
330
1B59
100
AcDbDimAssoc
330
1B4A
 90
        3
 70
     0
 71
     0
  1
AcDbOsnapPointRef
 72
     1
331
1896
 73
     0
 91
        0
 40
0.0
 10
0.0
 20
0.0
 30
2.000000000000000E+50
 75
     0
  1
AcDbOsnapPointRef
 72
    13
331
1863
 73
     0
 91
        0
 40
0.0
 10
0.0
 20
0.0
 30
2.000000000000000E+50
 75
     0
  0
DIMASSOC
  5
1B84
102
{ACAD_REACTORS
330
1B83
102
}
330
1B83
100
AcDbDimAssoc
330
1B74
 90
        3
 70
     0
 71
     0
  1
AcDbOsnapPointRef
 72
    13
331
185D
 73
     0
 91
        0
 40
0.0
 10
0.0
 20
0.0
 30
2.000000000000000E+50
 75
     0
  1
AcDbOsnapPointRef
 72
    13
331
1894
 73
     0
 91
        0
 40
0.0
 10
0.0
 20
0.0
 30
2.000000000000000E+50
 75
     0
  0
DIMASSOC
  5
2AF8
102
{ACAD_REACTORS
330
2AF7
102
}
330
2AF7
100
AcDbDimAssoc
330
2AEA
 90
        1
 70
     0
 71
     0
  1
AcDbOsnapPointRef
 72
     1
331
18D7
 73
     0
 91
        0
 40
0.0
 10
0.0
 20
0.0
 30
2.000000000000000E+50
 75
     0
  0
LAYOUT
  5
1E
102
{ACAD_XDICTIONARY
360
2CAB
102
}
102
{ACAD_REACTORS
330
1A
102
}
330
1A
100
AcDbPlotSettings
  1

  2
自動 RD 上的 Epson Stylus Photo 750 單色
  4

  6

 40
0.0
 41
0.0
 42
0.0
 43
0.0
 44
0.0
 45
0.0
 46
0.0
 47
0.0
 48
0.0
 49
0.0
140
0.0
141
0.0
142
1.0
143
1.0
 70
   688
 72
     0
 73
     0
 74
     5
  7
彩色出圖.ctb
 75
    16
147
1.0
148
0.0
149
0.0
100
AcDbLayout
  1
Layout1
 70
     1
 71
     1
 10
0.0
 20
0.0
 11
420.0
 21
297.0
 12
0.0
 22
0.0
 32
0.0
 14
1.000000000000000E+20
 24
1.000000000000000E+20
 34
1.000000000000000E+20
 15
-1.000000000000000E+20
 25
-1.000000000000000E+20
 35
-1.000000000000000E+20
146
0.0
 13
0.0
 23
0.0
 33
0.0
 16
1.0
 26
0.0
 36
0.0
 17
0.0
 27
1.0
 37
0.0
 76
     0
330
1B
  0
LAYOUT
  5
26
102
{ACAD_XDICTIONARY
360
2CAF
102
}
102
{ACAD_REACTORS
330
1A
102
}
330
1A
100
AcDbPlotSettings
  1

  2
自動 RD 上的 Epson Stylus Photo 750 單色
  4

  6

 40
0.0
 41
0.0
 42
0.0
 43
0.0
 44
0.0
 45
0.0
 46
0.0
 47
0.0
 48
0.0
 49
0.0
140
0.0
141
0.0
142
1.0
143
1.0
 70
   688
 72
     0
 73
     0
 74
     5
  7
彩色出圖.ctb
 75
    16
147
1.0
148
0.0
149
0.0
100
AcDbLayout
  1
Layout2
 70
     1
 71
     2
 10
0.0
 20
0.0
 11
12.0
 21
9.0
 12
0.0
 22
0.0
 32
0.0
 14
0.0
 24
0.0
 34
0.0
 15
0.0
 25
0.0
 35
0.0
146
0.0
 13
0.0
 23
0.0
 33
0.0
 16
1.0
 26
0.0
 36
0.0
 17
0.0
 27
1.0
 37
0.0
 76
     0
330
23
  0
LAYOUT
  5
22
102
{ACAD_XDICTIONARY
360
2CAD
102
}
102
{ACAD_REACTORS
330
1A
102
}
330
1A
100
AcDbPlotSettings
  1

  2
自動 RD 上的 Epson Stylus Photo 750 單色
  4
A4
  6

 40
3.757083177566528
 41
14.7637300491333
 42
3.757080078125
 43
3.757080078125
 44
209.9733276367187
 45
296.9683227539062
 46
7.54
 47
0.0
 48
0.0
 49
0.0
140
0.0
141
0.0
142
1.0
143
1.817317462545654
 70
 11956
 72
     1
 73
     0
 74
     1
  7
彩色出圖.ctb
 75
     0
147
0.5502615919395967
148
-125.5654918467224
149
222.8859553785132
100
AcDbLayout
  1
Model
 70
     1
 71
     0
 10
0.0
 20
0.0
 11
12.0
 21
9.0
 12
0.0
 22
0.0
 32
0.0
 14
0.0
 24
0.0
 34
0.0
 15
0.0
 25
0.0
 35
0.0
146
0.0
 13
0.0
 23
0.0
 33
0.0
 16
1.0
 26
0.0
 36
0.0
 17
0.0
 27
1.0
 37
0.0
 76
     0
330
1F
  0
MLINESTYLE
  5
18
102
{ACAD_REACTORS
330
17
102
}
330
17
100
AcDbMlineStyle
  2
STANDARD
 70
     0
  3

 62
   256
 51
90.0
 52
90.0
 71
     2
 49
0.5
 62
   256
  6
BYLAYER
 49
-0.5
 62
   256
  6
BYLAYER
  0
ACDBPLACEHOLDER
  5
F
102
{ACAD_REACTORS
330
E
102
}
330
E
  0
TABLESTYLE
  5
7D3
102
{ACAD_REACTORS
330
7D2
102
}
330
7D2
100
AcDbTableStyle
  3
Standard
 70
     0
 71
     0
 40
1.5
 41
1.5
280
     0
281
     0
  7
STANDARD
140
4.5
170
     2
 62
     0
 63
     7
283
     0
274
    -2
284
     1
 64
     0
275
    -2
285
     1
 65
     0
276
    -2
286
     1
 66
     0
277
    -2
287
     1
 67
     0
278
    -2
288
     1
 68
     0
279
    -2
289
     1
 69
     0
  7
STANDARD
140
6.0
170
     5
 62
     0
 63
     7
283
     0
274
    -2
284
     1
 64
     0
275
    -2
285
     1
 65
     0
276
    -2
286
     1
 66
     0
277
    -2
287
     1
 67
     0
278
    -2
288
     1
 68
     0
279
    -2
289
     1
 69
     0
  7
STANDARD
140
4.5
170
     5
 62
     0
 63
     7
283
     0
274
    -2
284
     1
 64
     0
275
    -2
285
     1
 65
     0
276
    -2
286
     1
 66
     0
277
    -2
287
     1
 67
     0
278
    -2
288
     1
 68
     0
279
    -2
289
     1
 69
     0
  0
DICTIONARYVAR
  5
847
102
{ACAD_REACTORS
330
82
102
}
330
82
100
DictionaryVariables
280
     0
  1
STANDARD
  0
DICTIONARYVAR
  5
85
102
{ACAD_REACTORS
330
82
102
}
330
82
100
DictionaryVariables
280
     0
  1
2
  0
DICTIONARYVAR
  5
84
102
{ACAD_REACTORS
330
82
102
}
330
82
100
DictionaryVariables
280
     0
  1
1
  0
DICTIONARYVAR
  5
83
102
{ACAD_REACTORS
330
82
102
}
330
82
100
DictionaryVariables
280
     0
  1
0
  0
DICTIONARYVAR
  5
848
102
{ACAD_REACTORS
330
82
102
}
330
82
100
DictionaryVariables
280
     0
  1

  0
DICTIONARY
  5
4A
102
{ACAD_REACTORS
330
45
102
}
330
45
100
AcDbDictionary
281
     1
  0
XRECORD
  5
7DF
102
{ACAD_REACTORS
330
45
102
}
330
45
100
AcDbXrecord
280
     1
 90
-1023410169
  0
DICTIONARY
  5
2CAB
330
1E
100
AcDbDictionary
280
     1
281
     1
  3
ACAD_XREC_ROUNDTRIP
360
2CAC
  0
DICTIONARY
  5
2CAF
330
26
100
AcDbDictionary
280
     1
281
     1
  3
ACAD_XREC_ROUNDTRIP
360
2CB0
  0
DICTIONARY
  5
2CAD
330
22
100
AcDbDictionary
280
     1
281
     1
  3
ACAD_XREC_ROUNDTRIP
360
2CAE
  0
XRECORD
  5
2CAC
102
{ACAD_REACTORS
330
2CAB
102
}
330
2CAB
100
AcDbXrecord
280
     1
102
SHADEPLOT
 70
     0
102
SHADEPLOTRESLEVEL
 70
     2
102
SHADEPLOTCUSTOMDPI
 70
   300
  0
XRECORD
  5
2CB0
102
{ACAD_REACTORS
330
2CAF
102
}
330
2CAF
100
AcDbXrecord
280
     1
102
SHADEPLOT
 70
     0
102
SHADEPLOTRESLEVEL
 70
     2
102
SHADEPLOTCUSTOMDPI
 70
   300
  0
XRECORD
  5
2CAE
102
{ACAD_REACTORS
330
2CAD
102
}
330
2CAD
100
AcDbXrecord
280
     1
102
SHADEPLOT
 70
     0
102
SHADEPLOTRESLEVEL
 70
     2
102
SHADEPLOTCUSTOMDPI
 70
   300
  0
ENDSEC
  0
EOF
