  0
SECTION
  2
HEADER
  9
$ACADVER
  1
AC1015
  9
$ACADMAINTVER
 70
    20
  9
$DWGCODEPAGE
  3
ANSI_950
  9
$INSBASE
 10
0.0
 20
0.0
 30
0.0
  9
$EXTMIN
 10
109.8641978831313
 20
106.7696641844456
 30
-0.0092160318786227
  9
$EXTMAX
 10
253.8354500031978
 20
318.7207397467966
 30
135.9409238374138
  9
$LIMMIN
 10
0.0
 20
0.0
  9
$LIMMAX
 10
420.0
 20
297.0
  9
$ORTHOMODE
 70
     1
  9
$REGENMODE
 70
     1
  9
$FILLMODE
 70
     1
  9
$QTEXTMODE
 70
     0
  9
$MIRRTEXT
 70
     1
  9
$LTSCALE
 40
1.0
  9
$ATTMODE
 70
     1
  9
$TEXTSIZE
 40
3.5
  9
$TRACEWID
 40
1.0
  9
$TEXTSTYLE
  7
STANDARD
  9
$CLAYER
  8
0
  9
$CELTYPE
  6
ByLayer
  9
$CECOLOR
 62
   256
  9
$CELTSCALE
 40
1.0
  9
$DISPSILH
 70
     0
  9
$DIMSCALE
 40
1.0
  9
$DIMASZ
 40
3.0
  9
$DIMEXO
 40
1.0
  9
$DIMDLI
 40
8.0
  9
$DIMRND
 40
0.0
  9
$DIMDLE
 40
0.0
  9
$DIMEXE
 40
1.5
  9
$DIMTP
 40
0.1
  9
$DIMTM
 40
0.1
  9
$DIMTXT
 40
3.5
  9
$DIMCEN
 40
3.0
  9
$DIMTSZ
 40
0.0
  9
$DIMTOL
 70
     0
  9
$DIMLIM
 70
     0
  9
$DIMTIH
 70
     0
  9
$DIMTOH
 70
     0
  9
$DIMSE1
 70
     0
  9
$DIMSE2
 70
     0
  9
$DIMTAD
 70
     1
  9
$DIMZIN
 70
     8
  9
$DIMBLK
  1

  9
$DIMASO
 70
     1
  9
$DIMSHO
 70
     1
  9
$DIMPOST
  1

  9
$DIMAPOST
  1
"
  9
$DIMALT
 70
     0
  9
$DIMALTD
 70
     2
  9
$DIMALTF
 40
0.0393701
  9
$DIMLFAC
 40
1.0
  9
$DIMTOFL
 70
     1
  9
$DIMTVP
 40
0.0
  9
$DIMTIX
 70
     0
  9
$DIMSOXD
 70
     0
  9
$DIMSAH
 70
     0
  9
$DIMBLK1
  1

  9
$DIMBLK2
  1

  9
$DIMSTYLE
  2
AM_ISO
  9
$DIMCLRD
 70
   256
  9
$DIMCLRE
 70
   256
  9
$DIMCLRT
 70
   256
  9
$DIMTFAC
 40
0.71
  9
$DIMGAP
 40
0.8
  9
$DIMJUST
 70
     0
  9
$DIMSD1
 70
     0
  9
$DIMSD2
 70
     0
  9
$DIMTOLJ
 70
     0
  9
$DIMTZIN
 70
     8
  9
$DIMALTZ
 70
     0
  9
$DIMALTTZ
 70
     0
  9
$DIMUPT
 70
     0
  9
$DIMDEC
 70
     2
  9
$DIMTDEC
 70
     8
  9
$DIMALTU
 70
     2
  9
$DIMALTTD
 70
     2
  9
$DIMTXSTY
  7
STANDARD
  9
$DIMAUNIT
 70
     0
  9
$DIMADEC
 70
     0
  9
$DIMALTRND
 40
0.0
  9
$DIMAZIN
 70
     2
  9
$DIMDSEP
 70
    46
  9
$DIMATFIT
 70
     3
  9
$DIMFRAC
 70
     0
  9
$DIMLDRBLK
  1

  9
$DIMLUNIT
 70
     2
  9
$DIMLWD
 70
    -1
  9
$DIMLWE
 70
    -1
  9
$DIMTMOVE
 70
     0
  9
$LUNITS
 70
     2
  9
$LUPREC
 70
     2
  9
$SKETCHINC
 40
1.0
  9
$FILLETRAD
 40
2.5
  9
$AUNITS
 70
     0
  9
$AUPREC
 70
     0
  9
$MENU
  1
.
  9
$ELEVATION
 40
0.0
  9
$PELEVATION
 40
0.0
  9
$THICKNESS
 40
0.0
  9
$LIMCHECK
 70
     0
  9
$CHAMFERA
 40
2.5
  9
$CHAMFERB
 40
2.5
  9
$CHAMFERC
 40
20.0
  9
$CHAMFERD
 40
0.0
  9
$SKPOLY
 70
     0
  9
$TDCREATE
 40
2453021.369367211
  9
$TDUCREATE
 40
2453021.036033877
  9
$TDUPDATE
 40
2453559.602850475
  9
$TDUUPDATE
 40
2453559.269517141
  9
$TDINDWG
 40
0.4104562963
  9
$TDUSRTIMER
 40
0.4104559491
  9
$USRTIMER
 70
     1
  9
$ANGBASE
 50
0.0
  9
$ANGDIR
 70
     0
  9
$PDMODE
 70
     0
  9
$PDSIZE
 40
0.0
  9
$PLINEWID
 40
0.0
  9
$SPLFRAME
 70
     0
  9
$SPLINETYPE
 70
     6
  9
$SPLINESEGS
 70
     8
  9
$HANDSEED
  5
2BEB
  9
$SURFTAB1
 70
     6
  9
$SURFTAB2
 70
     6
  9
$SURFTYPE
 70
     6
  9
$SURFU
 70
     6
  9
$SURFV
 70
     6
  9
$UCSBASE
  2

  9
$UCSNAME
  2

  9
$UCSORG
 10
0.0
 20
0.0
 30
0.0
  9
$UCSXDIR
 10
1.0
 20
0.0
 30
0.0
  9
$UCSYDIR
 10
0.0
 20
1.0
 30
0.0
  9
$UCSORTHOREF
  2

  9
$UCSORTHOVIEW
 70
     0
  9
$UCSORGTOP
 10
0.0
 20
0.0
 30
0.0
  9
$UCSORGBOTTOM
 10
0.0
 20
0.0
 30
0.0
  9
$UCSORGLEFT
 10
0.0
 20
0.0
 30
0.0
  9
$UCSORGRIGHT
 10
0.0
 20
0.0
 30
0.0
  9
$UCSORGFRONT
 10
0.0
 20
0.0
 30
0.0
  9
$UCSORGBACK
 10
0.0
 20
0.0
 30
0.0
  9
$PUCSBASE
  2

  9
$PUCSNAME
  2

  9
$PUCSORG
 10
0.0
 20
0.0
 30
0.0
  9
$PUCSXDIR
 10
1.0
 20
0.0
 30
0.0
  9
$PUCSYDIR
 10
0.0
 20
1.0
 30
0.0
  9
$PUCSORTHOREF
  2

  9
$PUCSORTHOVIEW
 70
     0
  9
$PUCSORGTOP
 10
0.0
 20
0.0
 30
0.0
  9
$PUCSORGBOTTOM
 10
0.0
 20
0.0
 30
0.0
  9
$PUCSORGLEFT
 10
0.0
 20
0.0
 30
0.0
  9
$PUCSORGRIGHT
 10
0.0
 20
0.0
 30
0.0
  9
$PUCSORGFRONT
 10
0.0
 20
0.0
 30
0.0
  9
$PUCSORGBACK
 10
0.0
 20
0.0
 30
0.0
  9
$USERI1
 70
     0
  9
$USERI2
 70
     0
  9
$USERI3
 70
     0
  9
$USERI4
 70
     0
  9
$USERI5
 70
     0
  9
$USERR1
 40
0.0
  9
$USERR2
 40
0.0
  9
$USERR3
 40
0.0
  9
$USERR4
 40
0.0
  9
$USERR5
 40
0.0
  9
$WORLDVIEW
 70
     1
  9
$SHADEDGE
 70
     3
  9
$SHADEDIF
 70
    70
  9
$TILEMODE
 70
     1
  9
$MAXACTVP
 70
    64
  9
$PINSBASE
 10
0.0
 20
0.0
 30
0.0
  9
$PLIMCHECK
 70
     0
  9
$PEXTMIN
 10
1.000000000000000E+20
 20
1.000000000000000E+20
 30
1.000000000000000E+20
  9
$PEXTMAX
 10
-1.000000000000000E+20
 20
-1.000000000000000E+20
 30
-1.000000000000000E+20
  9
$PLIMMIN
 10
0.0
 20
0.0
  9
$PLIMMAX
 10
420.0
 20
297.0
  9
$UNITMODE
 70
     0
  9
$VISRETAIN
 70
     1
  9
$PLINEGEN
 70
     0
  9
$PSLTSCALE
 70
     1
  9
$TREEDEPTH
 70
  3020
  9
$CMLSTYLE
  2
Standard
  9
$CMLJUST
 70
     0
  9
$CMLSCALE
 40
20.0
  9
$PROXYGRAPHICS
 70
     1
  9
$MEASUREMENT
 70
     1
  9
$CELWEIGHT
370
    -1
  9
$ENDCAPS
280
     0
  9
$JOINSTYLE
280
     0
  9
$LWDISPLAY
290
     0
  9
$INSUNITS
 70
     4
  9
$HYPERLINKBASE
  1

  9
$STYLESHEET
  1
彩色出圖.ctb
  9
$XEDIT
290
     1
  9
$CEPSNTYPE
380
     0
  9
$PSTYLEMODE
290
     1
  9
$FINGERPRINTGUID
  2
{6C02722A-18D3-491A-897A-B8025DE410A9}
  9
$VERSIONGUID
  2
{52366219-C9E8-4074-BC24-CFEB6C0BF27D}
  9
$EXTNAMES
290
     1
  9
$PSVPSCALE
 40
0.0
  9
$OLESTARTUP
290
     0
  0
ENDSEC
  0
SECTION
  2
CLASSES
  0
CLASS
  1
ACDBDICTIONARYWDFLT
  2
AcDbDictionaryWithDefault
  3
ObjectDBX Classes
 90
        0
280
     0
281
     0
  0
CLASS
  1
ACDBPLACEHOLDER
  2
AcDbPlaceHolder
  3
ObjectDBX Classes
 90
        0
280
     0
281
     0
  0
CLASS
  1
LAYOUT
  2
AcDbLayout
  3
ObjectDBX Classes
 90
        0
280
     0
281
     0
  0
CLASS
  1
AMGSETTINGSOBJ
  2
AmgSettingsObj
  3
"AcadM|Product Description: AutoCAD Mechanical 2000|Company: Autodesk"
 90
        0
280
     0
281
     0
  0
CLASS
  1
ACME_DOCUMENT
  2
AcMeDbDoc
  3
AcMeServices
 90
        0
280
     0
281
     0
  0
CLASS
  1
ACMESCOPE
  2
AcMeScope
  3
AcMeServices
 90
        0
280
     0
281
     0
  0
CLASS
  1
ACMECOMMANDHISTORY
  2
AcMeCommandHistory
  3
AcMeServices
 90
        0
280
     0
281
     0
  0
CLASS
  1
ACIMSYSVARMAN
  2
AcImSysVarManager
  3
AcMeServices
 90
        0
280
     0
281
     0
  0
CLASS
  1
ACIMREALSYSVAR
  2
AcImRealSysVar
  3
AcMeServices
 90
        0
280
     0
281
     0
  0
CLASS
  1
ACIMINTSYSVAR
  2
AcImIntSysVar
  3
AcMeServices
 90
        0
280
     0
281
     0
  0
CLASS
  1
ACMEDRAWINGMAN
  2
AcMeDrawingMan
  3
AcMeServices
 90
        0
280
     0
281
     0
  0
CLASS
  1
ACMEVIEW
  2
AcMeView
  3
AcMeServices
 90
        0
280
     0
281
     0
  0
CLASS
  1
ACDBENTITYCACHE
  2
AcMeEntityCache
  3
AcMeServices
 90
        0
280
     0
281
     0
  0
CLASS
  1
GSMANAGER
  2
AcMeGSManager
  3
AcMeServices
 90
        0
280
     0
281
     0
  0
CLASS
  1
AMDTINTERNALREACTOR
  2
AmdtInternalReactor
  3
AcMeServices
 90
        0
280
     0
281
     0
  0
CLASS
  1
ACMESTATEMGR
  2
AcMeStateMgr
  3
AcMeServices
 90
        0
280
     0
281
     0
  0
CLASS
  1
ACGREFMASTER
  2
AcGrefMaster
  3
AcAttribServices
 90
        0
280
     0
281
     0
  0
CLASS
  1
ACME_DATABASE
  2
AcMeDbDatabase
  3
AcMeServices
 90
        0
280
     0
281
     0
  0
CLASS
  1
ACRFINSADJUSTERMGR
  2
AcRfInsAdjusterMgr
  3
AcMeServices
 90
        0
280
     0
281
     0
  0
CLASS
  1
ACGREFACADMASTER
  2
AcGrefacadMaster
  3
AcGrefServices
 90
        0
280
     0
281
     0
  0
CLASS
  1
AMIMASTER
  2
AmiMaster
  3
AmiServices
 90
        0
280
     0
281
     0
  0
CLASS
  1
ACMDATADICTIONARY
  2
AcmDataDictionary
  3
"AcmSymBB|Product Description: AutoCAD Mechanical 2004 DX|Company: Autodesk"
 90
        0
280
     0
281
     0
  0
CLASS
  1
ACMDATAENTRYBLOCK
  2
AcmDataEntryBlock
  3
"AcmSymBB|Product Description: AutoCAD Mechanical 2004 DX|Company: Autodesk"
 90
    32768
280
     0
281
     0
  0
CLASS
  1
ACIMSTRSYSVAR
  2
AcImStrSysVar
  3
AcMeServices
 90
        0
280
     0
281
     0
  0
CLASS
  1
ACMSTANDARDISO
  2
AcmStandardISO
  3
"Amdt_StdImp|Product Description: AutoCAD Mechanical 2004 DX|Company: Autodesk"
 90
        0
280
     0
281
     0
  0
CLASS
  1
AMGOBJPROPCFG
  2
AmgObjPropCfg
  3
"AmgLay|Product Description: AutoCAD Mechanical 2000|Company: Autodesk"
 90
        1
280
     0
281
     0
  0
CLASS
  1
AMDTEDGESTANDARDISO
  2
AmdtEdgeStdISO
  3
"Amdt_StdImp|Product Description: AutoCAD Mechanical 2004 DX|Company: Autodesk"
 90
    32768
280
     0
281
     0
  0
CLASS
  1
ACMSURFSTANDARDISO
  2
AcmSurfTextStdISO
  3
"Amdt_StdImp|Product Description: AutoCAD Mechanical 2004 DX|Company: Autodesk"
 90
        0
280
     0
281
     0
  0
CLASS
  1
ACMFCFSTANDARDISO
  2
AcmFCFStdISO
  3
"Amdt_StdImp|Product Description: AutoCAD Mechanical 2004 DX|Company: Autodesk"
 90
        0
280
     0
281
     0
  0
CLASS
  1
ACMWELDSTANDARDISO
  2
AcmWeldingStdISO
  3
"Amdt_StdImp|Product Description: AutoCAD Mechanical 2004 DX|Company: Autodesk"
 90
        0
280
     0
281
     0
  0
CLASS
  1
ACMIDSTANDARDISO
  2
AcmIdStdISO
  3
"Amdt_StdImp|Product Description: AutoCAD Mechanical 2004 DX|Company: Autodesk"
 90
        0
280
     0
281
     0
  0
CLASS
  1
ACMDATUMSTANDARDISO
  2
AcmDatumStdISO
  3
"Amdt_StdImp|Product Description: AutoCAD Mechanical 2004 DX|Company: Autodesk"
 90
        0
280
     0
281
     0
  0
CLASS
  1
ACMBOMSTANDARDISO
  2
AcmBOMStdISO
  3
"Amdt_StdImp|Product Description: AutoCAD Mechanical 2004 DX|Company: Autodesk"
 90
        0
280
     0
281
     0
  0
CLASS
  1
ACMDETAILSTANDARDISO
  2
AmdtDetailSymStdISO
  3
"Amdt_StdImp|Product Description: AutoCAD Mechanical 2004 DX|Company: Autodesk"
 90
        0
280
     0
281
     0
  0
CLASS
  1
ACMSECTIONSTANDARDISO
  2
AmdtSectionSymStdISO
  3
"Amdt_StdImp|Product Description: AutoCAD Mechanical 2004 DX|Company: Autodesk"
 90
        0
280
     0
281
     0
  0
CLASS
  1
ACMCENTERLINESTANDARDISO
  2
AmdtCenterLineStdISO
  3
"Amdt_StdImp|Product Description: AutoCAD Mechanical 2004 DX|Company: Autodesk"
 90
        0
280
     0
281
     0
  0
CLASS
  1
ACMNOTESTANDARDISO
  2
AmdtNoteStdISO
  3
"Amdt_StdImp|Product Description: AutoCAD Mechanical 2004 DX|Company: Autodesk"
 90
        0
280
     0
281
     0
  0
CLASS
  1
ACAMGLAYSTD
  2
AcAmgLayStd
  3
"AcAmgLayStd|Product Description: AutoCAD Mechanical 2000|Company: Autodesk"
 90
        0
280
     0
281
     0
  0
CLASS
  1
ACAMGDIMSTD
  2
AcAmgDimStd
  3
"AcAmgDimStd|Product Description: AutoCAD Mechanical 2000|Company: Autodesk"
 90
        0
280
     0
281
     0
  0
CLASS
  1
ACAMGHOLECHARTSTDISO
  2
AcAmgHoleChartStdISO
  3
ACMSYMBB_MODULE_NAME
 90
        0
280
     0
281
     0
  0
CLASS
  1
ACAMGTITLESTD
  2
AcAmgTitleStd
  3
"TITLEAPP"
 90
        0
280
     0
281
     0
  0
CLASS
  1
LAYER_INDEX
  2
AcDbLayerIndex
  3
ObjectDBX Classes
 90
    32768
280
     0
281
     0
  0
CLASS
  1
IDBUFFER
  2
AcDbIdBuffer
  3
ObjectDBX Classes
 90
    32768
280
     0
281
     0
  0
CLASS
  1
DICTIONARYVAR
  2
AcDbDictionaryVar
  3
ObjectDBX Classes
 90
        0
280
     0
281
     0
  0
CLASS
  1
ACAMGFILTERDAT
  2
AcAmgFilterDat
  3
"AcadM|Product Description: AutoCAD Mechanical 2000|Company: Autodesk"
 90
    32768
280
     0
281
     0
  0
CLASS
  1
AMDTFORMULAUPDATEDISPATCHER
  2
AmdtFormulaUpdateDispatcher
  3
AcMeServices
 90
    32768
280
     0
281
     0
  0
CLASS
  1
DIMASSOC
  2
AcDbDimAssoc
  3
"AcDbDimAssoc|Product Desc:     AcDim ARX App For Dimension|Company:          Autodesk, Inc.|WEB Address:      www.autodesk.com"
 90
        0
280
     0
281
     0
  0
CLASS
  1
AMDTNOTE
  2
AmdtNote
  3
"AcmSymBB|Product Description: AutoCAD Mechanical 2004 DX|Company: Autodesk"
 90
    33791
280
     0
281
     1
  0
CLASS
  1
TABLESTYLE
  2
AcDbTableStyle
  3
ObjectDBX Classes
 90
     2047
280
     0
281
     0
  0
CLASS
  1
AM_DRAWING_MGR
  2
AcDmDwgMgr
  3
AcMechDwgViewMgmt
 90
        0
280
     0
281
     0
  0
CLASS
  1
AM_DWG_DOCUMENT
  2
AcDmDwgDocument
  3
AcMechDwgViewMgmt
 90
        0
280
     0
281
     0
  0
CLASS
  1
AM_DWG_SHEET
  2
AcDmSheet
  3
AcMechDwgViewMgmt
 90
        0
280
     0
281
     0
  0
CLASS
  1
AM_VIEWDIMPARMAP
  2
AcDmViewDimParMap
  3
AcMechDwgViewMgmt
 90
        0
280
     0
281
     0
  0
CLASS
  1
AM_DWGMGR_NAME
  2
AcDmDwgMgrName
  3
AcMechDwgViewMgmt
 90
        0
280
     0
281
     0
  0
CLASS
  1
AMDTMENUSTATEMGR
  2
AmdtMenuStateMgr
  3
McadcomServices
 90
        0
280
     0
281
     0
  0
CLASS
  1
AMDTMCOMMENUSTATE
  2
AmdtMcomMenuState
  3
McadcomServices
 90
        0
280
     0
281
     0
  0
CLASS
  1
MAPIAMMOUDLE
  2
MApiAmModule
  3
MApiAmServices
 90
        0
280
     0
281
     0
  0
CLASS
  1
AMDTADMENUSTATE
  2
AmdtAdMenuState
  3
DesignerServices
 90
        0
280
     0
281
     0
  0
CLASS
  1
ADAPPL
  2
AcAdAppl
  3
DesignerServices
 90
        0
280
     0
281
     0
  0
CLASS
  1
DEPMGR
  2
AcAdDepMgr
  3
DesignerServices
 90
        0
280
     0
281
     0
  0
CLASS
  1
PARAMMGR
  2
AcAdParamMgr
  3
DesignerServices
 90
        0
280
     0
281
     0
  0
CLASS
  1
PARAMSCOPE
  2
AcAdParamScope
  3
DesignerServices
 90
        0
280
     0
281
     0
  0
CLASS
  1
NAMEDAPPL
  2
AcAdNamedAppl
  3
DesignerServices
 90
        0
280
     0
281
     0
  0
CLASS
  1
AMDTDMMENUSTATE
  2
AmdtDmMenuState
  3
AcMechDwgViewMgmt
 90
        0
280
     0
281
     0
  0
CLASS
  1
AMDTAMMENUSTATE
  2
AmdtAmMenuState
  3
DesignerAssemblies
 90
        0
280
     0
281
     0
  0
CLASS
  1
ACAMPROJECT
  2
AcAmProject
  3
DesignerAssemblies
 90
        0
280
     0
281
     0
  0
CLASS
  1
ACAMGRCOMPDEF
  2
AcAmGrCompDef
  3
DesignerAssemblies
 90
        0
280
     0
281
     0
  0
CLASS
  1
ACCMCONTEXT
  2
AcCmContext
  3
DesignerAssemblies
 90
        0
280
     0
281
     0
  0
CLASS
  1
ACAMCOMPDEF
  2
AcAmCompDef
  3
DesignerAssemblies
 90
        0
280
     0
281
     0
  0
CLASS
  1
ACAMCOMPDEFMGR
  2
AcAmCompDefMgr
  3
DesignerAssemblies
 90
        0
280
     0
281
     0
  0
CLASS
  1
AMCONTEXTMGR
  2
AcAmContextMgr
  3
DesignerAssemblies
 90
        0
280
     0
281
     0
  0
CLASS
  1
ACAMCONTEXTMODELER
  2
AcAmContextModeler
  3
DesignerAssemblies
 90
        0
280
     0
281
     0
  0
CLASS
  1
ACMTHREADLINESTANDARDISO
  2
AmdtThreadLineStdISO
  3
"Amdt_StdImp|Product Description: AutoCAD Mechanical 2004 DX|Company: Autodesk"
 90
        0
280
     0
281
     0
  0
CLASS
  1
CATALOGSTATE
  2
AcAmCatalogState
  3
DesignerAssemblies
 90
        0
280
     0
281
     0
  0
CLASS
  1
ACAMGRCOMPDEFSET
  2
AcAmGrCompDefSet
  3
DesignerAssemblies
 90
        0
280
     0
281
     0
  0
CLASS
  1
AMDTBROWSERDBTAB
  2
AmdtBrowserDbTab
  3
McadcomServices
 90
        0
280
     0
281
     0
  0
CLASS
  1
CBROWSERAPPOBJECT
  2
CBrowserAppObject
  3
McadcomServices
 90
        0
280
     0
281
     0
  0
CLASS
  1
DM_PLACEHOLDER
  2
AcDmSelsetPlaceholder
  3
AcMechDwgViewMgmt
 90
        0
280
     0
281
     0
  0
CLASS
  1
VAACXREFPANELOBJECT
  2
VaAcXREFPanelObject
  3
VAAC_ADDIN
 90
    32768
280
     0
281
     0
  0
CLASS
  1
VAACIMAGEINVENTORY
  2
VaAcImageInventory
  3
VAAC_ADDIN
 90
    32768
280
     0
281
     0
  0
CLASS
  1
AMDTEDGESTANDARDISO13715
  2
AmdtEdgeStdISO13715
  3
"Amdt_StdImp|Product Description: AutoCAD Mechanical 2004 DX|Company: Autodesk"
 90
        0
280
     0
281
     0
  0
CLASS
  1
AMDTNOTETEMPLATEDB
  2
AmdtNoteTemplateDB
  3
AMDT_STDIMP_MODULE_NAME
 90
        0
280
     0
281
     0
  0
CLASS
  1
ACRFATTGENMGR
  2
AcRfAttGeneralMgr
  3
AcAttribServices
 90
        0
280
     0
281
     0
  0
CLASS
  1
SORTENTSTABLE
  2
AcDbSortentsTable
  3
ObjectDBX Classes
 90
        0
280
     0
281
     0
  0
CLASS
  1
STDPART2D
  2
AmgStdPart
  3
"AmgStdPart|Product Description: AutoCAD Mechanical 2000|Company: Autodesk"
 90
    33791
280
     0
281
     1
  0
CLASS
  1
ACAMSTDPCOMPDEF
  2
AcAmStdpCompDef
  3
DesignerAssemblies
 90
    32768
280
     0
281
     0
  0
CLASS
  1
ACRFOBJATTMGR
  2
AcRfObjAttGroupMgr
  3
AcAttribServices
 90
    32768
280
     0
281
     0
  0
CLASS
  1
ACRFMCADAPIATTHOLDER
  2
AcRfMCADAPIAttHolder
  3
AcAttribServices
 90
    32768
280
     0
281
     0
  0
CLASS
  1
AMDTSYSATTR
  2
AmdtSystemAttribute
  3
AcAttribServices
 90
    32768
280
     0
281
     0
  0
CLASS
  1
ACAMCOMP
  2
AcAmComp
  3
DesignerAssemblies
 90
    32768
280
     0
281
     0
  0
CLASS
  1
AC_AM_STDP_VIEW_DEF
  2
AcAmStdpViewDef
  3
DesignerAssemblies
 90
    32768
280
     0
281
     0
  0
CLASS
  1
AC_AM_MVD_DEP_MGR
  2
AcAmMVDdepMgr
  3
DesignerAssemblies
 90
    32768
280
     0
281
     0
  0
CLASS
  1
AC_AM_MASTER_VIEW_DEF
  2
AcAmMasterViewDef
  3
DesignerAssemblies
 90
    32768
280
     0
281
     0
  0
CLASS
  1
AC_AM_DIRTY_NODES
  2
AcAmDirtyNodes
  3
DesignerAssemblies
 90
    32768
280
     0
281
     0
  0
CLASS
  1
AC_AM_MAPPER_CACHE
  2
AcAmMapperCache
  3
DesignerAssemblies
 90
    32768
280
     0
281
     0
  0
CLASS
  1
ACAMMVDBACKUPOBJECT
  2
AcAmMVDBackupObject
  3
DesignerAssemblies
 90
    32768
280
     0
281
     0
  0
CLASS
  1
AC_AM_COMP_VIEW_INST
  2
AcAmCompView
  3
DesignerAssemblies
 90
    32768
280
     0
281
     0
  0
CLASS
  1
AC_AM_2D_XREF_MGR
  2
AcAmXrefMgr2d
  3
DesignerAssemblies
 90
    32768
280
     0
281
     0
  0
CLASS
  1
ACMSTANDARDANSI
  2
AcmStandardANSI
  3
"Amdt_StdImp|Product Description: AutoCAD Mechanical 2004 DX|Company: Autodesk"
 90
    32768
280
     0
281
     0
  0
CLASS
  1
ACMSURFSTANDARDANSI
  2
AcmSurfTextStdANSI
  3
"Amdt_StdImp|Product Description: AutoCAD Mechanical 2004 DX|Company: Autodesk"
 90
    32768
280
     0
281
     0
  0
CLASS
  1
ACMFCFSTANDARDANSI
  2
AcmFCFStdANSI
  3
"Amdt_StdImp|Product Description: AutoCAD Mechanical 2004 DX|Company: Autodesk"
 90
    32768
280
     0
281
     0
  0
CLASS
  1
ACMWELDSTANDARDANSI
  2
AcmWeldingStdANSI
  3
"Amdt_StdImp|Product Description: AutoCAD Mechanical 2004 DX|Company: Autodesk"
 90
    32768
280
     0
281
     0
  0
CLASS
  1
ACMIDSTANDARDANSI
  2
AcmIdStdANSI
  3
"Amdt_StdImp|Product Description: AutoCAD Mechanical 2004 DX|Company: Autodesk"
 90
    32768
280
     0
281
     0
  0
CLASS
  1
ACMDATUMSTANDARDANSI
  2
AcmDatumStdANSI
  3
"Amdt_StdImp|Product Description: AutoCAD Mechanical 2004 DX|Company: Autodesk"
 90
    32768
280
     0
281
     0
  0
CLASS
  1
ACMBOMSTANDARDANSI
  2
AcmBOMStdANSI
  3
"Amdt_StdImp|Product Description: AutoCAD Mechanical 2004 DX|Company: Autodesk"
 90
    32768
280
     0
281
     0
  0
CLASS
  1
ACMDETAILSTANDARDANSI
  2
AmdtDetailSymStdANSI
  3
"Amdt_StdImp|Product Description: AutoCAD Mechanical 2004 DX|Company: Autodesk"
 90
    32768
280
     0
281
     0
  0
CLASS
  1
ACMSECTIONSTANDARDANSI
  2
AmdtSectionSymStdANSI
  3
"Amdt_StdImp|Product Description: AutoCAD Mechanical 2004 DX|Company: Autodesk"
 90
    32768
280
     0
281
     0
  0
CLASS
  1
ACMCENTERLINESTANDARDANSI
  2
AmdtCenterLineStdANSI
  3
"Amdt_StdImp|Product Description: AutoCAD Mechanical 2004 DX|Company: Autodesk"
 90
    32768
280
     0
281
     0
  0
CLASS
  1
ACMTHREADLINESTANDARDANSI
  2
AmdtThreadLineStdANSI
  3
"Amdt_StdImp|Product Description: AutoCAD Mechanical 2004 DX|Company: Autodesk"
 90
    32768
280
     0
281
     0
  0
CLASS
  1
ACMNOTESTANDARDANSI
  2
AmdtNoteStdANSI
  3
"Amdt_StdImp|Product Description: AutoCAD Mechanical 2004 DX|Company: Autodesk"
 90
    32768
280
     0
281
     0
  0
CLASS
  1
ACAMGHOLECHARTSTDANSI
  2
AcAmgHoleChartStdANSI
  3
ACMSYMBB_MODULE_NAME
 90
    32768
280
     0
281
     0
  0
ENDSEC
  0
SECTION
  2
TABLES
  0
TABLE
  2
VPORT
  5
8
330
0
100
AcDbSymbolTable
 70
     6
  0
VPORT
  5
2BE2
330
8
100
AcDbSymbolTableRecord
100
AcDbViewportTableRecord
  2
*Active
 70
     0
 10
0.0
 20
0.0
 11
1.0
 21
1.0
 12
181.8498239431645
 22
212.7452019656212
 13
0.0
 23
0.0
 14
2.5
 24
2.5
 15
10.0
 25
10.0
 16
0.0
 26
0.0
 36
1.0
 17
0.0
 27
0.0
 37
0.0
 40
214.3370163754356
 41
1.81766917293233
 42
50.0
 43
0.0
 44
0.0
 50
0.0
 51
0.0
 71
     0
 72
   100
 73
     1
 74
     3
 75
     0
 76
     0
 77
     0
 78
     0
281
     0
 65
     1
110
0.0
120
0.0
130
0.0
111
1.0
121
0.0
131
0.0
112
0.0
122
1.0
132
0.0
 79
     0
146
0.0
  0
ENDTAB
  0
TABLE
  2
LTYPE
  5
5
330
0
100
AcDbSymbolTable
 70
    14
  0
LTYPE
  5
14
330
5
100
AcDbSymbolTableRecord
100
AcDbLinetypeTableRecord
  2
ByBlock
 70
     0
  3

 72
    65
 73
     0
 40
0.0
  0
LTYPE
  5
15
330
5
100
AcDbSymbolTableRecord
100
AcDbLinetypeTableRecord
  2
ByLayer
 70
     0
  3

 72
    65
 73
     0
 40
0.0
  0
LTYPE
  5
16
330
5
100
AcDbSymbolTableRecord
100
AcDbLinetypeTableRecord
  2
Continuous
 70
     0
  3
Solid line
 72
    65
 73
     0
 40
0.0
  0
LTYPE
  5
4D
330
5
100
AcDbSymbolTableRecord
100
AcDbLinetypeTableRecord
  2
AM_ISO02W050
 70
     0
  3
__ __ __ __ __ __ __ __ __ __ __ __ __ __ __
 72
    65
 73
     2
 40
7.5
 49
6.0
 74
     0
 49
-1.5
 74
     0
  0
LTYPE
  5
4E
330
5
100
AcDbSymbolTableRecord
100
AcDbLinetypeTableRecord
  2
AM_ISO08W050
 70
     0
  3
____ . ____ . ____ . ____ . ____ . ____ . ____
 72
    65
 73
     4
 40
18.0
 49
12.0
 74
     0
 49
-1.5
 74
     0
 49
3.0
 74
     0
 49
-1.5
 74
     0
  0
LTYPE
  5
4F
330
5
100
AcDbSymbolTableRecord
100
AcDbLinetypeTableRecord
  2
AM_ISO09W050
 70
     0
  3
_____ . . _____ . . _____ . . ____ .. ____
 72
    65
 73
     6
 40
22.5
 49
12.0
 74
     0
 49
-1.5
 74
     0
 49
3.0
 74
     0
 49
-1.5
 74
     0
 49
3.0
 74
     0
 49
-1.5
 74
     0
  0
LTYPE
  5
50
330
5
100
AcDbSymbolTableRecord
100
AcDbLinetypeTableRecord
  2
Amconstr
 70
     0
  3
_______________________
 72
    65
 73
     2
 40
9999.0
 49
9999.0
 74
     0
 49
0.0
 74
     0
  0
LTYPE
  5
51
330
5
100
AcDbSymbolTableRecord
100
AcDbLinetypeTableRecord
  2
AM_ISO08W050x2
 70
     0
  3
__ . __ . __ . __ . __ . __
 72
    65
 73
     4
 40
9.0
 49
6.0
 74
     0
 49
-0.75
 74
     0
 49
1.5
 74
     0
 49
-0.75
 74
     0
  0
LTYPE
  5
52
330
5
100
AcDbSymbolTableRecord
100
AcDbLinetypeTableRecord
  2
AM_ISO02W050x2
 70
     0
  3
 _ _ _ _ _ _ _ _ _ _ _ _
 72
    65
 73
     2
 40
3.75
 49
3.0
 74
     0
 49
-0.75
 74
     0
  0
LTYPE
  5
55
330
5
100
AcDbSymbolTableRecord
100
AcDbLinetypeTableRecord
  2
Amzigzag
 70
     0
  3
/\/-/\/-/\/-/\/-/\/-/\/
 72
    65
 73
     2
 40
11.0001
 49
0.0001
 74
     4
 75
   135
340
54
 46
0.04
 50
0.0
 44
0.0
 45
0.0
 49
-11.0
 74
     0
  0
LTYPE
  5
63
330
5
100
AcDbSymbolTableRecord
100
AcDbLinetypeTableRecord
  2
ACISOWELD
 70
     0
  3
_ _ _ _ _
 72
    65
 73
     2
 40
2.0
 49
2.0
 74
     0
 49
-1.0
 74
     0
  0
LTYPE
  5
64
330
5
100
AcDbSymbolTableRecord
100
AcDbLinetypeTableRecord
  2
ACISOTGB
 70
     0
  3
__ . . __ . .
 72
    65
 73
     6
 40
9.0
 49
4.0
 74
     0
 49
-1.0
 74
     0
 49
1.0
 74
     0
 49
-1.0
 74
     0
 49
1.0
 74
     0
 49
-1.0
 74
     0
  0
LTYPE
  5
65
330
5
100
AcDbSymbolTableRecord
100
AcDbLinetypeTableRecord
  2
ACISOTGL
 70
     0
  3
_ _ _ _ _
 72
    65
 73
     2
 40
3.0
 49
2.0
 74
     0
 49
-1.0
 74
     0
  0
LTYPE
  5
68
330
5
100
AcDbSymbolTableRecord
100
AcDbLinetypeTableRecord
  2
CENTER
 70
     0
  3
__ . __
 72
    65
 73
     4
 40
7.0
 49
4.0
 74
     0
 49
-1.0
 74
     0
 49
1.0
 74
     0
 49
-1.0
 74
     0
  0
LTYPE
  5
806
330
5
100
AcDbSymbolTableRecord
100
AcDbLinetypeTableRecord
  2
HIDDEN
 70
     0
  3
Hidden __ __ __ __ __ __ __ __ __ __ __ __ __ _
 72
    65
 73
     2
 40
9.524999999999998
 49
6.349999999999999
 74
     0
 49
-3.174999999999999
 74
     0
  0
LTYPE
  5
807
330
5
100
AcDbSymbolTableRecord
100
AcDbLinetypeTableRecord
  2
PHANTOM2
 70
     0
  3
Phantom (.5x) ___ _ _ ___ _ _ ___ _ _ ___ _ _
 72
    65
 73
     6
 40
31.75
 49
15.875
 74
     0
 49
-3.174999999999999
 74
     0
 49
3.174999999999999
 74
     0
 49
-3.174999999999999
 74
     0
 49
3.174999999999999
 74
     0
 49
-3.174999999999999
 74
     0
  0
ENDTAB
  0
TABLE
  2
LAYER
  5
2
102
{ACAD_XDICTIONARY
360
AAB
102
}
330
0
100
AcDbSymbolTable
 70
     8
  0
LAYER
  5
10
330
2
100
AcDbSymbolTableRecord
100
AcDbLayerTableRecord
  2
0
 70
     0
 62
     7
  6
Continuous
370
    -3
390
F
  0
LAYER
  5
42A
330
2
100
AcDbSymbolTableRecord
100
AcDbLayerTableRecord
  2
AM_5
 70
     0
 62
     5
  6
Continuous
370
    50
390
F
  0
LAYER
  5
43E
330
2
100
AcDbSymbolTableRecord
100
AcDbLayerTableRecord
  2
Defpoints
 70
     0
 62
     7
  6
Continuous
290
     0
370
    -3
390
F
  0
LAYER
  5
CD5
330
2
100
AcDbSymbolTableRecord
100
AcDbLayerTableRecord
  2
AM_7
 70
     0
 62
     1
  6
CENTER
370
    25
390
F
  0
LAYER
  5
CD6
330
2
100
AcDbSymbolTableRecord
100
AcDbLayerTableRecord
  2
AM_VIS
 70
     0
 62
     7
  6
Continuous
370
    50
390
F
  0
LAYER
  5
CD7
330
2
100
AcDbSymbolTableRecord
100
AcDbLayerTableRecord
  2
AM_4
 70
     0
 62
     3
  6
Continuous
370
    25
390
F
  0
LAYER
  5
CD9
330
2
100
AcDbSymbolTableRecord
100
AcDbLayerTableRecord
  2
AM_0
 70
     0
 62
     7
  6
Continuous
370
    50
390
F
  0
LAYER
  5
135E
330
2
100
AcDbSymbolTableRecord
100
AcDbLayerTableRecord
  2
LOGO
 70
     0
 62
     7
  6
Continuous
370
    -3
390
F
  0
ENDTAB
  0
TABLE
  2
STYLE
  5
3
330
0
100
AcDbSymbolTable
 70
     6
  0
STYLE
  5
11
330
3
100
AcDbSymbolTableRecord
100
AcDbTextStyleTableRecord
  2
STANDARD
 70
     0
 40
0.0
 41
1.0
 50
0.0
 71
     0
 42
3.5
  3
ISOCP.SHX
  4
CHINESET.SHX
  0
STYLE
  5
54
330
3
100
AcDbSymbolTableRecord
100
AcDbTextStyleTableRecord
  2

 70
     1
 40
0.0
 41
1.0
 50
0.0
 71
     0
 42
2.5
  3
ltypeshp.shx
  4

  0
STYLE
  5
56
330
3
100
AcDbSymbolTableRecord
100
AcDbTextStyleTableRecord
  2
ACISOTS
 70
     0
 40
1.0
 41
1.0
 50
0.0
 71
     0
 42
2.5
  3
isocp.shx
  4
chineset.shx
  0
STYLE
  5
62
330
3
100
AcDbSymbolTableRecord
100
AcDbTextStyleTableRecord
  2
ACISOGDT
 70
     0
 40
0.0
 41
1.0
 50
0.0
 71
     0
 42
3.5
  3
amgdt.shx
  4

  0
STYLE
  5
1360
330
3
100
AcDbSymbolTableRecord
100
AcDbTextStyleTableRecord
  2
CHINESET
 70
     0
 40
0.0
 41
1.0
 50
0.0
 71
     0
 42
4.0
  3
simplex.shx
  4
chineset.shx
  0
ENDTAB
  0
TABLE
  2
VIEW
  5
6
330
0
100
AcDbSymbolTable
 70
     0
  0
ENDTAB
  0
TABLE
  2
UCS
  5
7
330
0
100
AcDbSymbolTable
 70
     0
  0
ENDTAB
  0
TABLE
  2
APPID
  5
9
330
0
100
AcDbSymbolTable
 70
    25
  0
APPID
  5
12
330
9
100
AcDbSymbolTableRecord
100
AcDbRegAppTableRecord
  2
ACAD
 70
     0
  0
APPID
  5
30
330
9
100
AcDbSymbolTableRecord
100
AcDbRegAppTableRecord
  2
MCAD_NO_VIS
 70
     0
  0
APPID
  5
31
330
9
100
AcDbSymbolTableRecord
100
AcDbRegAppTableRecord
  2
ACAD_TEMP_GRAPHIC
 70
     0
  0
APPID
  5
42
330
9
100
AcDbSymbolTableRecord
100
AcDbRegAppTableRecord
  2
ACATTRIBSERVICES
 70
     0
  0
APPID
  5
20A
330
9
100
AcDbSymbolTableRecord
100
AcDbRegAppTableRecord
  2
GENIUS_GENODEF_13
 70
     0
  0
APPID
  5
20B
330
9
100
AcDbSymbolTableRecord
100
AcDbRegAppTableRecord
  2
GENIUS_GENOBJ-N-HTC_13
 70
     0
  0
APPID
  5
20C
330
9
100
AcDbSymbolTableRecord
100
AcDbRegAppTableRecord
  2
GENIUS_GENHATCH_13
 70
     0
  0
APPID
  5
809
330
9
100
AcDbSymbolTableRecord
100
AcDbRegAppTableRecord
  2
AD_DRAW
 70
     0
  0
APPID
  5
827
330
9
100
AcDbSymbolTableRecord
100
AcDbRegAppTableRecord
  2
DESIGNERASSEMBLIES
 70
     0
  0
APPID
  5
82C
330
9
100
AcDbSymbolTableRecord
100
AcDbRegAppTableRecord
  2
ACADM_DIM_EDIT
 70
     0
  0
APPID
  5
82D
330
9
100
AcDbSymbolTableRecord
100
AcDbRegAppTableRecord
  2
AMDT_DM_ADJ
 70
     0
  0
APPID
  5
FE4
330
9
100
AcDbSymbolTableRecord
100
AcDbRegAppTableRecord
  2
GENIUS_GENDTOL_13
 70
     0
  0
APPID
  5
108C
330
9
100
AcDbSymbolTableRecord
100
AcDbRegAppTableRecord
  2
ACAD_DSTYLE_DIMTEXT_FILL
 70
     0
  0
APPID
  5
1201
330
9
100
AcDbSymbolTableRecord
100
AcDbRegAppTableRecord
  2
GEVID1116400677
 70
     0
  0
APPID
  5
1202
330
9
100
AcDbSymbolTableRecord
100
AcDbRegAppTableRecord
  2
GEVDC
 70
     0
  0
APPID
  5
1203
330
9
100
AcDbSymbolTableRecord
100
AcDbRegAppTableRecord
  2
GEVRADREF
 70
     0
  0
APPID
  5
120C
330
9
100
AcDbSymbolTableRecord
100
AcDbRegAppTableRecord
  2
AMG_2DHIDE
 70
     0
  0
APPID
  5
120D
330
9
100
AcDbSymbolTableRecord
100
AcDbRegAppTableRecord
  2
AMG_2DSTRUCT_BTR
 70
     0
  0
APPID
  5
121E
330
9
100
AcDbSymbolTableRecord
100
AcDbRegAppTableRecord
  2
ACADM_2DVIEW_IGN_NOTIFY
 70
     0
  0
APPID
  5
1361
330
9
100
AcDbSymbolTableRecord
100
AcDbRegAppTableRecord
  2
GENIUS_GENREC_14
 70
     0
  0
APPID
  5
1362
330
9
100
AcDbSymbolTableRecord
100
AcDbRegAppTableRecord
  2
GENIUS_GENOBJ-N-REC_13
 70
     0
  0
APPID
  5
1E31
330
9
100
AcDbSymbolTableRecord
100
AcDbRegAppTableRecord
  2
ACAD_PSEXT
 70
     0
  0
APPID
  5
1F6E
330
9
100
AcDbSymbolTableRecord
100
AcDbRegAppTableRecord
  2
GEVID1116471484
 70
     0
  0
APPID
  5
2915
330
9
100
AcDbSymbolTableRecord
100
AcDbRegAppTableRecord
  2
GENIUS_GENOBJ-N-CEN_13
 70
     0
  0
APPID
  5
2916
330
9
100
AcDbSymbolTableRecord
100
AcDbRegAppTableRecord
  2
GENIUS_GENCEN_19
 70
     0
  0
ENDTAB
  0
TABLE
  2
DIMSTYLE
  5
A
330
0
100
AcDbSymbolTable
 70
    10
100
AcDbDimStyleTable
 71
     2
340
6B
340
75
  0
DIMSTYLE
105
6B
330
A
100
AcDbSymbolTableRecord
100
AcDbDimStyleTableRecord
  2
AM_ISO
 70
     0
  4
"
 41
3.0
 42
1.0
 43
8.0
 44
1.5
 47
0.1
 48
0.1
 73
     0
 74
     0
 77
     1
 78
     8
 79
     2
140
3.5
141
3.0
143
0.0393701
146
0.71
147
0.8
172
     1
176
   256
177
   256
178
   256
271
     2
272
     2
283
     0
284
     8
340
11
371
    -1
372
    -1
  0
DIMSTYLE
105
6C
330
A
100
AcDbSymbolTableRecord
100
AcDbDimStyleTableRecord
  2
AM_ISO$3
 70
     0
  4
"
 41
3.0
 42
1.0
 43
8.0
 44
1.5
 47
0.1
 48
0.1
 73
     0
 77
     1
 78
     8
 79
     2
140
3.5
141
3.0
143
0.0393701
146
0.71
147
0.8
176
   256
177
   256
178
   256
271
     2
272
     2
283
     0
284
     8
288
     1
289
     0
340
11
371
    -1
372
    -1
  0
DIMSTYLE
105
6D
330
A
100
AcDbSymbolTableRecord
100
AcDbDimStyleTableRecord
  2
AM_ISO$4
 70
     0
  4
"
 41
3.0
 42
1.0
 43
8.0
 44
1.5
 47
0.1
 48
0.1
 73
     0
 77
     1
 78
     8
 79
     2
140
3.5
141
3.0
143
0.0393701
146
0.71
147
0.8
176
   256
177
   256
178
   256
271
     2
272
     2
283
     0
284
     8
288
     1
289
     0
340
11
371
    -1
372
    -1
  0
DIMSTYLE
105
6E
330
A
100
AcDbSymbolTableRecord
100
AcDbDimStyleTableRecord
  2
AM_ISO$6
 70
     0
  4
"
 41
3.0
 42
1.0
 43
8.0
 44
1.5
 47
0.1
 48
0.1
 73
     0
 74
     0
 78
     8
 79
     2
140
3.5
141
3.0
143
0.0393701
146
0.71
147
0.8
172
     1
176
   256
177
   256
178
   256
271
     2
272
     2
283
     0
284
     8
340
11
371
    -1
372
    -1
  0
DIMSTYLE
105
6F
330
A
100
AcDbSymbolTableRecord
100
AcDbDimStyleTableRecord
  2
AM_ISO$7
 70
     0
  4
"
 41
3.0
 42
1.0
 43
8.0
 44
1.5
 47
0.1
 48
0.1
 73
     0
 74
     0
 77
     1
 78
     8
 79
     2
140
5.0
141
3.0
143
0.0393701
146
0.71
147
0.8
172
     1
176
   256
177
   256
178
   256
271
     2
272
     2
283
     0
284
     8
340
11
371
    -1
372
    -1
  0
DIMSTYLE
105
70
330
A
100
AcDbSymbolTableRecord
100
AcDbDimStyleTableRecord
  2
AM_ISO$SF
 70
     0
  4
"
 41
2.5
 42
1.0
 43
10.0
 44
1.0
 47
0.1
 48
0.1
 73
     0
 74
     0
 75
     1
 76
     1
 77
     1
 78
     8
 79
     2
140
3.5
141
0.0
143
0.0393701
146
0.71
147
1.5
172
     1
176
   256
177
   256
178
     2
271
     2
272
     3
274
     4
283
     0
284
     8
340
11
371
    -1
372
    -1
  0
DIMSTYLE
105
75
330
A
100
AcDbSymbolTableRecord
100
AcDbDimStyleTableRecord
  2
AM_ISO$SH
 70
     0
  4
"
 41
2.5
 42
1.0
 43
10.0
 44
1.0
 47
0.1
 48
0.1
 73
     0
 74
     0
 75
     1
 76
     1
 77
     1
 78
     8
 79
     2
140
3.5
141
0.0
143
0.0393701
144
2.0
146
0.71
147
1.5
172
     1
173
     1
176
   256
177
   256
178
     2
271
     2
272
     3
274
     4
283
     0
284
     8
340
11
343
71
371
    -1
372
    -1
  0
DIMSTYLE
105
AAA
102
{ACAD_REACTORS
330
1FB6
330
1FE6
330
200C
330
2032
330
2058
330
2082
330
20B0
330
20D6
102
}
330
A
100
AcDbSymbolTableRecord
100
AcDbDimStyleTableRecord
  2
AM_ISO$0
 70
     0
  4
"
 41
3.0
 42
1.0
 43
8.0
 44
1.5
 47
0.1
 48
0.1000000001
 73
     0
 74
     0
 77
     1
 78
     8
 79
     2
140
3.0
141
0.0
143
0.0393701
146
0.71
147
1.0
172
     1
176
   256
177
   256
178
   256
271
     2
272
     2
283
     2
284
     8
340
11
371
    -1
372
    -1
  0
ENDTAB
  0
TABLE
  2
BLOCK_RECORD
  5
1
330
0
100
AcDbSymbolTable
 70
    23
  0
BLOCK_RECORD
  5
1F
102
{ACAD_XDICTIONARY
360
7D
102
}
330
1
100
AcDbSymbolTableRecord
100
AcDbBlockTableRecord
  2
*Model_Space
340
22
  0
BLOCK_RECORD
  5
1B
330
1
100
AcDbSymbolTableRecord
100
AcDbBlockTableRecord
  2
*Paper_Space
340
1E
  0
BLOCK_RECORD
  5
23
330
1
100
AcDbSymbolTableRecord
100
AcDbBlockTableRecord
  2
*Paper_Space0
340
26
  0
BLOCK_RECORD
  5
71
330
1
100
AcDbSymbolTableRecord
100
AcDbBlockTableRecord
  2
GENAXEH
340
0
  0
BLOCK_RECORD
  5
1FB7
330
1
100
AcDbSymbolTableRecord
100
AcDbBlockTableRecord
  2
*D9
340
0
  0
BLOCK_RECORD
  5
1FE7
330
1
100
AcDbSymbolTableRecord
100
AcDbBlockTableRecord
  2
*D10
340
0
  0
BLOCK_RECORD
  5
200D
330
1
100
AcDbSymbolTableRecord
100
AcDbBlockTableRecord
  2
*D11
340
0
  0
BLOCK_RECORD
  5
2033
330
1
100
AcDbSymbolTableRecord
100
AcDbBlockTableRecord
  2
*D12
340
0
  0
BLOCK_RECORD
  5
2059
330
1
100
AcDbSymbolTableRecord
100
AcDbBlockTableRecord
  2
*D13
340
0
  0
BLOCK_RECORD
  5
2083
330
1
100
AcDbSymbolTableRecord
100
AcDbBlockTableRecord
  2
*D14
340
0
  0
BLOCK_RECORD
  5
20B1
330
1
100
AcDbSymbolTableRecord
100
AcDbBlockTableRecord
  2
*D15
340
0
  0
BLOCK_RECORD
  5
20D7
330
1
100
AcDbSymbolTableRecord
100
AcDbBlockTableRecord
  2
*D16
340
0
  0
BLOCK_RECORD
  5
2A33
330
1
100
AcDbSymbolTableRecord
100
AcDbBlockTableRecord
  2
*S18
340
0
102
{BLKREFS
331
23D6
102
}
  0
BLOCK_RECORD
  5
2A3B
330
1
100
AcDbSymbolTableRecord
100
AcDbBlockTableRecord
  2
*S19
340
0
102
{BLKREFS
331
23D9
102
}
  0
ENDTAB
  0
ENDSEC
  0
SECTION
  2
BLOCKS
  0
BLOCK
  5
20
330
1F
100
AcDbEntity
  8
0
100
AcDbBlockBegin
  2
*Model_Space
 70
     0
 10
0.0
 20
0.0
 30
0.0
  3
*Model_Space
  1

  0
ENDBLK
  5
21
330
1F
100
AcDbEntity
  8
0
100
AcDbBlockEnd
  0
BLOCK
  5
1C
330
1B
100
AcDbEntity
 67
     1
  8
0
100
AcDbBlockBegin
  2
*Paper_Space
 70
     0
 10
0.0
 20
0.0
 30
0.0
  3
*Paper_Space
  1

  0
ENDBLK
  5
1D
330
1B
100
AcDbEntity
 67
     1
  8
0
100
AcDbBlockEnd
  0
BLOCK
  5
24
330
23
100
AcDbEntity
  8
0
100
AcDbBlockBegin
  2
*Paper_Space0
 70
     0
 10
0.0
 20
0.0
 30
0.0
  3
*Paper_Space0
  1

  0
ENDBLK
  5
25
330
23
100
AcDbEntity
  8
0
100
AcDbBlockEnd
  0
BLOCK
  5
73
330
71
100
AcDbEntity
  8
0
100
AcDbBlockBegin
  2
GENAXEH
 70
     0
 10
0.0
 20
0.0
 30
0.0
  3
GENAXEH
  1

  0
LINE
  5
72
330
71
100
AcDbEntity
  8
0
100
AcDbLine
 10
-1.0
 20
0.0
 30
0.0
 11
1.0
 21
0.0
 31
0.0
  0
ENDBLK
  5
74
330
71
100
AcDbEntity
  8
0
100
AcDbBlockEnd
  0
BLOCK
  5
1FC1
330
1FB7
100
AcDbEntity
  8
0
100
AcDbBlockBegin
  2
*D9
 70
     1
 10
0.0
 20
0.0
 30
0.0
  3
*D9
  1

  0
LINE
  5
2B80
330
1FB7
100
AcDbEntity
  8
AM_5
100
AcDbLine
 10
128.1566308114501
 20
156.214828273011
 30
0.0
 11
128.1566308114501
 21
143.7148282730109
 31
0.0
  0
LINE
  5
2B81
330
1FB7
100
AcDbEntity
  8
AM_5
100
AcDbLine
 10
138.1566308114501
 20
158.764828273011
 30
0.0
 11
138.1566308114501
 21
143.7148282730109
 31
0.0
  0
LINE
  5
2B82
330
1FB7
100
AcDbEntity
  8
AM_5
100
AcDbLine
 10
131.1566308114501
 20
145.2148282730109
 30
0.0
 11
135.1566308114501
 21
145.2148282730109
 31
0.0
  0
SOLID
  5
2B83
330
1FB7
100
AcDbEntity
  8
AM_5
100
AcDbTrace
 10
131.1566308114501
 20
145.7148282730109
 30
0.0
 11
131.1566308114501
 21
144.7148282730109
 31
0.0
 12
128.1566308114501
 22
145.2148282730109
 32
0.0
 13
128.1566308114501
 23
145.2148282730109
 33
0.0
  0
SOLID
  5
2B84
330
1FB7
100
AcDbEntity
  8
AM_5
100
AcDbTrace
 10
135.1566308114501
 20
145.7148282730109
 30
0.0
 11
135.1566308114501
 21
144.7148282730109
 31
0.0
 12
138.1566308114501
 22
145.2148282730109
 32
0.0
 13
138.1566308114501
 23
145.2148282730109
 33
0.0
  0
MTEXT
  5
2B85
330
1FB7
100
AcDbEntity
  8
AM_5
100
AcDbMText
 10
133.1566308114501
 20
147.7148282730109
 30
0.0
 40
3.0
 41
0.0
 71
     5
 72
     1
  1
\A2;10
 73
     1
 44
1.0
1001
ACAD
1000
MTEXTBEGIN
1070
    73
1070
     1
1070
    44
1040
1.0
1070
    74
1070
     0
1000
MTEXTEND
  0
POINT
  5
2B86
330
1FB7
100
AcDbEntity
  8
Defpoints
 62
     0
100
AcDbPoint
 10
128.1566308114501
 20
157.214828273011
 30
0.0
  0
POINT
  5
2B87
330
1FB7
100
AcDbEntity
  8
Defpoints
 62
     0
100
AcDbPoint
 10
138.1566308114501
 20
159.764828273011
 30
0.0
  0
POINT
  5
2B88
330
1FB7
100
AcDbEntity
  8
Defpoints
 62
     0
100
AcDbPoint
 10
138.1566308114501
 20
145.2148282730109
 30
0.0
  0
ENDBLK
  5
1FC2
330
1FB7
100
AcDbEntity
  8
0
100
AcDbBlockEnd
  0
BLOCK
  5
1FF1
330
1FE7
100
AcDbEntity
  8
0
100
AcDbBlockBegin
  2
*D10
 70
     1
 10
0.0
 20
0.0
 30
0.0
  3
*D10
  1

  0
LINE
  5
2B89
330
1FE7
100
AcDbEntity
  8
AM_5
100
AcDbLine
 10
138.1566308114501
 20
158.764828273011
 30
0.0
 11
138.1566308114501
 21
143.714828273011
 31
0.0
  0
LINE
  5
2B8A
330
1FE7
100
AcDbEntity
  8
AM_5
100
AcDbLine
 10
160.1566308114501
 20
158.764828273011
 30
0.0
 11
160.1566308114501
 21
143.714828273011
 31
0.0
  0
LINE
  5
2B8B
330
1FE7
100
AcDbEntity
  8
AM_5
100
AcDbLine
 10
141.1566308114501
 20
145.214828273011
 30
0.0
 11
157.1566308114501
 21
145.214828273011
 31
0.0
  0
SOLID
  5
2B8C
330
1FE7
100
AcDbEntity
  8
AM_5
100
AcDbTrace
 10
141.1566308114501
 20
145.714828273011
 30
0.0
 11
141.1566308114501
 21
144.714828273011
 31
0.0
 12
138.1566308114501
 22
145.214828273011
 32
0.0
 13
138.1566308114501
 23
145.214828273011
 33
0.0
  0
SOLID
  5
2B8D
330
1FE7
100
AcDbEntity
  8
AM_5
100
AcDbTrace
 10
157.1566308114501
 20
145.714828273011
 30
0.0
 11
157.1566308114501
 21
144.714828273011
 31
0.0
 12
160.1566308114501
 22
145.214828273011
 32
0.0
 13
160.1566308114501
 23
145.214828273011
 33
0.0
  0
MTEXT
  5
2B8E
330
1FE7
100
AcDbEntity
  8
AM_5
100
AcDbMText
 10
149.1566308114501
 20
147.7151235486016
 30
0.0
 40
3.0
 41
0.0
 71
     5
 72
     1
  1
\A2;22
 73
     1
 44
1.0
1001
ACAD
1000
MTEXTBEGIN
1070
    73
1070
     1
1070
    44
1040
1.0
1070
    74
1070
     0
1000
MTEXTEND
  0
POINT
  5
2B8F
330
1FE7
100
AcDbEntity
  8
Defpoints
 62
     0
100
AcDbPoint
 10
138.1566308114501
 20
159.764828273011
 30
0.0
  0
POINT
  5
2B90
330
1FE7
100
AcDbEntity
  8
Defpoints
 62
     0
100
AcDbPoint
 10
160.1566308114501
 20
159.764828273011
 30
0.0
  0
POINT
  5
2B91
330
1FE7
100
AcDbEntity
  8
Defpoints
 62
     0
100
AcDbPoint
 10
160.1566308114501
 20
145.214828273011
 30
0.0
  0
ENDBLK
  5
1FF2
330
1FE7
100
AcDbEntity
  8
0
100
AcDbBlockEnd
  0
BLOCK
  5
2017
330
200D
100
AcDbEntity
  8
0
100
AcDbBlockBegin
  2
*D11
 70
     1
 10
0.0
 20
0.0
 30
0.0
  3
*D11
  1

  0
LINE
  5
2B92
330
200D
100
AcDbEntity
  8
AM_5
100
AcDbLine
 10
128.1566308114501
 20
215.8539974607771
 30
0.0
 11
128.1566308114501
 21
195.3539974607771
 31
0.0
  0
LINE
  5
2B93
330
200D
100
AcDbEntity
  8
AM_5
100
AcDbLine
 10
170.1566308114501
 20
215.8539974607771
 30
0.0
 11
170.1566308114501
 21
195.3539974607771
 31
0.0
  0
LINE
  5
2B94
330
200D
100
AcDbEntity
  8
AM_5
100
AcDbLine
 10
131.1566308114501
 20
196.8539974607772
 30
0.0
 11
167.1566308114501
 21
196.8539974607772
 31
0.0
  0
SOLID
  5
2B95
330
200D
100
AcDbEntity
  8
AM_5
100
AcDbTrace
 10
131.1566308114501
 20
197.3539974607771
 30
0.0
 11
131.1566308114501
 21
196.3539974607772
 31
0.0
 12
128.1566308114501
 22
196.8539974607772
 32
0.0
 13
128.1566308114501
 23
196.8539974607772
 33
0.0
  0
SOLID
  5
2B96
330
200D
100
AcDbEntity
  8
AM_5
100
AcDbTrace
 10
167.1566308114501
 20
197.3539974607771
 30
0.0
 11
167.1566308114501
 21
196.3539974607772
 31
0.0
 12
170.1566308114501
 22
196.8539974607772
 32
0.0
 13
170.1566308114501
 23
196.8539974607772
 33
0.0
  0
MTEXT
  5
2B97
330
200D
100
AcDbEntity
  8
AM_5
100
AcDbMText
 10
149.1566308114501
 20
199.3542927363677
 30
0.0
 40
3.0
 41
0.0
 71
     5
 72
     1
  1
\A2;42
 73
     1
 44
1.0
1001
ACAD
1000
MTEXTBEGIN
1070
    73
1070
     1
1070
    44
1040
1.0
1070
    74
1070
     0
1000
MTEXTEND
  0
POINT
  5
2B98
330
200D
100
AcDbEntity
  8
Defpoints
 62
     0
100
AcDbPoint
 10
128.1566308114501
 20
216.8539974607771
 30
0.0
  0
POINT
  5
2B99
330
200D
100
AcDbEntity
  8
Defpoints
 62
     0
100
AcDbPoint
 10
170.1566308114501
 20
216.8539974607771
 30
0.0
  0
POINT
  5
2B9A
330
200D
100
AcDbEntity
  8
Defpoints
 62
     0
100
AcDbPoint
 10
170.1566308114501
 20
196.8539974607772
 30
0.0
  0
ENDBLK
  5
2018
330
200D
100
AcDbEntity
  8
0
100
AcDbBlockEnd
  0
BLOCK
  5
203D
330
2033
100
AcDbEntity
  8
0
100
AcDbBlockBegin
  2
*D12
 70
     1
 10
0.0
 20
0.0
 30
0.0
  3
*D12
  1

  0
LINE
  5
2B9B
330
2033
100
AcDbEntity
  8
AM_5
100
AcDbLine
 10
128.1566308114501
 20
215.8539974607771
 30
0.0
 11
128.1566308114501
 21
203.3539974607771
 31
0.0
  0
LINE
  5
2B9C
330
2033
100
AcDbEntity
  8
AM_5
100
AcDbLine
 10
149.1566308114501
 20
218.0039974607771
 30
0.0
 11
149.1566308114501
 21
203.3539974607771
 31
0.0
  0
LINE
  5
2B9D
330
2033
100
AcDbEntity
  8
AM_5
100
AcDbLine
 10
131.1566308114501
 20
204.8539974607771
 30
0.0
 11
146.1566308114501
 21
204.8539974607771
 31
0.0
  0
SOLID
  5
2B9E
330
2033
100
AcDbEntity
  8
AM_5
100
AcDbTrace
 10
131.1566308114501
 20
205.3539974607771
 30
0.0
 11
131.1566308114501
 21
204.3539974607771
 31
0.0
 12
128.1566308114501
 22
204.8539974607771
 32
0.0
 13
128.1566308114501
 23
204.8539974607771
 33
0.0
  0
SOLID
  5
2B9F
330
2033
100
AcDbEntity
  8
AM_5
100
AcDbTrace
 10
146.1566308114501
 20
205.3539974607771
 30
0.0
 11
146.1566308114501
 21
204.3539974607771
 31
0.0
 12
149.1566308114501
 22
204.8539974607771
 32
0.0
 13
149.1566308114501
 23
204.8539974607771
 33
0.0
  0
MTEXT
  5
2BA0
330
2033
100
AcDbEntity
  8
AM_5
100
AcDbMText
 10
138.6566308114501
 20
207.3542927363677
 30
0.0
 40
3.0
 41
0.0
 71
     5
 72
     1
  1
\A2;21
 73
     1
 44
1.0
1001
ACAD
1000
MTEXTBEGIN
1070
    73
1070
     1
1070
    44
1040
1.0
1070
    74
1070
     0
1000
MTEXTEND
  0
POINT
  5
2BA1
330
2033
100
AcDbEntity
  8
Defpoints
 62
     0
100
AcDbPoint
 10
128.1566308114501
 20
216.8539974607771
 30
0.0
  0
POINT
  5
2BA2
330
2033
100
AcDbEntity
  8
Defpoints
 62
     0
100
AcDbPoint
 10
149.1566308114501
 20
219.0039974607771
 30
0.0
  0
POINT
  5
2BA3
330
2033
100
AcDbEntity
  8
Defpoints
 62
     0
100
AcDbPoint
 10
149.1566308114501
 20
204.8539974607771
 30
0.0
  0
ENDBLK
  5
203E
330
2033
100
AcDbEntity
  8
0
100
AcDbBlockEnd
  0
BLOCK
  5
2065
330
2059
100
AcDbEntity
  8
0
100
AcDbBlockBegin
  2
*D13
 70
     1
 10
0.0
 20
0.0
 30
0.0
  3
*D13
  1

  0
LINE
  5
2BA4
330
2059
100
AcDbEntity
  8
AM_5
100
AcDbLine
 10
171.1566308114501
 20
216.8539974607771
 30
0.0
 11
183.6566308114501
 21
216.8539974607771
 31
0.0
  0
LINE
  5
2BA5
330
2059
100
AcDbEntity
  8
AM_5
100
AcDbLine
 10
154.0066308114501
 20
222.8539974607771
 30
0.0
 11
183.6566308114501
 21
222.8539974607771
 31
0.0
  0
LINE
  5
2BA6
330
2059
100
AcDbEntity
  8
AM_5
100
AcDbLine
 10
182.1566308114501
 20
213.8539974607771
 30
0.0
 11
182.1566308114501
 21
210.8539974607771
 31
0.0
  0
LINE
  5
2BA7
330
2059
100
AcDbEntity
  8
AM_5
100
AcDbLine
 10
182.1566308114501
 20
225.8539974607771
 30
0.0
 11
182.1566308114501
 21
228.8539974607771
 31
0.0
  0
LINE
  5
2BA8
330
2059
100
AcDbEntity
  8
AM_5
100
AcDbLine
 10
182.1566308114501
 20
216.8539974607771
 30
0.0
 11
182.1566308114501
 21
222.8539974607771
 31
0.0
  0
SOLID
  5
2BA9
330
2059
100
AcDbEntity
  8
AM_5
100
AcDbTrace
 10
181.6566308114501
 20
213.8539974607771
 30
0.0
 11
182.6566308114501
 21
213.8539974607771
 31
0.0
 12
182.1566308114501
 22
216.8539974607771
 32
0.0
 13
182.1566308114501
 23
216.8539974607771
 33
0.0
  0
SOLID
  5
2BAA
330
2059
100
AcDbEntity
  8
AM_5
100
AcDbTrace
 10
181.6566308114501
 20
225.8539974607771
 30
0.0
 11
182.6566308114501
 21
225.8539974607771
 31
0.0
 12
182.1566308114501
 22
222.8539974607771
 32
0.0
 13
182.1566308114501
 23
222.8539974607771
 33
0.0
  0
MTEXT
  5
2BAB
330
2059
100
AcDbEntity
  8
AM_5
100
AcDbMText
 10
179.65663081145
 20
219.8539974607772
 30
0.0
 40
3.0
 41
0.0
 71
     5
 72
     1
  1
\A2;6
 11
0.0000000000000001
 21
1.0
 31
0.0
 73
     1
 44
1.0
1001
ACAD
1000
MTEXTBEGIN
1070
    73
1070
     1
1070
    44
1040
1.0
1070
    74
1070
     0
1000
MTEXTEND
  0
POINT
  5
2BAC
330
2059
100
AcDbEntity
  8
Defpoints
 62
     0
100
AcDbPoint
 10
170.1566308114501
 20
216.8539974607771
 30
0.0
  0
POINT
  5
2BAD
330
2059
100
AcDbEntity
  8
Defpoints
 62
     0
100
AcDbPoint
 10
153.0066308114501
 20
222.8539974607771
 30
0.0
  0
POINT
  5
2BAE
330
2059
100
AcDbEntity
  8
Defpoints
 62
     0
100
AcDbPoint
 10
182.1566308114501
 20
222.8539974607771
 30
0.0
  0
ENDBLK
  5
2066
330
2059
100
AcDbEntity
  8
0
100
AcDbBlockEnd
  0
BLOCK
  5
208F
330
2083
100
AcDbEntity
  8
0
100
AcDbBlockBegin
  2
*D14
 70
     1
 10
0.0
 20
0.0
 30
0.0
  3
*D14
  1

  0
LINE
  5
2BAF
330
2083
100
AcDbEntity
  8
AM_5
100
AcDbLine
 10
154.0066308114501
 20
287.8539974607771
 30
0.0
 11
183.6566308114501
 21
287.8539974607771
 31
0.0
  0
LINE
  5
2BB0
330
2083
100
AcDbEntity
  8
AM_5
100
AcDbLine
 10
171.1566308114501
 20
293.8539974607771
 30
0.0
 11
183.6566308114501
 21
293.8539974607771
 31
0.0
  0
LINE
  5
2BB1
330
2083
100
AcDbEntity
  8
AM_5
100
AcDbLine
 10
182.1566308114501
 20
284.8539974607771
 30
0.0
 11
182.1566308114501
 21
281.8539974607771
 31
0.0
  0
LINE
  5
2BB2
330
2083
100
AcDbEntity
  8
AM_5
100
AcDbLine
 10
182.1566308114501
 20
296.8539974607771
 30
0.0
 11
182.1566308114501
 21
299.8539974607771
 31
0.0
  0
LINE
  5
2BB3
330
2083
100
AcDbEntity
  8
AM_5
100
AcDbLine
 10
182.1566308114501
 20
287.8539974607771
 30
0.0
 11
182.1566308114501
 21
293.8539974607771
 31
0.0
  0
SOLID
  5
2BB4
330
2083
100
AcDbEntity
  8
AM_5
100
AcDbTrace
 10
181.6566308114501
 20
284.8539974607771
 30
0.0
 11
182.6566308114501
 21
284.8539974607771
 31
0.0
 12
182.1566308114501
 22
287.8539974607771
 32
0.0
 13
182.1566308114501
 23
287.8539974607771
 33
0.0
  0
SOLID
  5
2BB5
330
2083
100
AcDbEntity
  8
AM_5
100
AcDbTrace
 10
181.6566308114501
 20
296.8539974607771
 30
0.0
 11
182.6566308114501
 21
296.8539974607771
 31
0.0
 12
182.1566308114501
 22
293.8539974607771
 32
0.0
 13
182.1566308114501
 23
293.8539974607771
 33
0.0
  0
MTEXT
  5
2BB6
330
2083
100
AcDbEntity
  8
AM_5
100
AcDbMText
 10
179.65663081145
 20
290.8539974607772
 30
0.0
 40
3.0
 41
0.0
 71
     5
 72
     1
  1
\A2;6
 11
0.0000000000000001
 21
1.0
 31
0.0
 73
     1
 44
1.0
1001
ACAD
1000
MTEXTBEGIN
1070
    73
1070
     1
1070
    44
1040
1.0
1070
    74
1070
     0
1000
MTEXTEND
  0
POINT
  5
2BB7
330
2083
100
AcDbEntity
  8
Defpoints
 62
     0
100
AcDbPoint
 10
153.0066308114501
 20
287.8539974607771
 30
0.0
  0
POINT
  5
2BB8
330
2083
100
AcDbEntity
  8
Defpoints
 62
     0
100
AcDbPoint
 10
170.1566308114501
 20
293.8539974607771
 30
0.0
  0
POINT
  5
2BB9
330
2083
100
AcDbEntity
  8
Defpoints
 62
     0
100
AcDbPoint
 10
182.1566308114501
 20
293.8539974607771
 30
0.0
  0
ENDBLK
  5
2090
330
2083
100
AcDbEntity
  8
0
100
AcDbBlockEnd
  0
BLOCK
  5
20BB
330
20B1
100
AcDbEntity
  8
0
100
AcDbBlockBegin
  2
*D15
 70
     1
 10
0.0
 20
0.0
 30
0.0
  3
*D15
  1

  0
LINE
  5
2BBA
330
20B1
100
AcDbEntity
  8
AM_5
100
AcDbLine
 10
171.1566308114501
 20
157.214828273011
 30
0.0
 11
183.6566318114501
 21
157.214828273011
 31
0.0
  0
LINE
  5
2BBB
330
20B1
100
AcDbEntity
  8
AM_5
100
AcDbLine
 10
168.60663081145
 20
167.214828273011
 30
0.0
 11
183.6566318114501
 21
167.214828273011
 31
0.0
  0
LINE
  5
2BBC
330
20B1
100
AcDbEntity
  8
AM_5
100
AcDbLine
 10
182.1566318114501
 20
160.214828273011
 30
0.0
 11
182.1566318114501
 21
164.214828273011
 31
0.0
  0
SOLID
  5
2BBD
330
20B1
100
AcDbEntity
  8
AM_5
100
AcDbTrace
 10
181.6566318114501
 20
160.214828273011
 30
0.0
 11
182.6566318114501
 21
160.214828273011
 31
0.0
 12
182.1566318114501
 22
157.214828273011
 32
0.0
 13
182.1566318114501
 23
157.214828273011
 33
0.0
  0
SOLID
  5
2BBE
330
20B1
100
AcDbEntity
  8
AM_5
100
AcDbTrace
 10
181.6566318114501
 20
164.214828273011
 30
0.0
 11
182.6566318114501
 21
164.214828273011
 31
0.0
 12
182.1566318114501
 22
167.214828273011
 32
0.0
 13
182.1566318114501
 23
167.214828273011
 33
0.0
  0
MTEXT
  5
2BBF
330
20B1
100
AcDbEntity
  8
AM_5
100
AcDbMText
 10
179.65663181145
 20
162.214828273011
 30
0.0
 40
3.0
 41
0.0
 71
     5
 72
     1
  1
\A2;10
 11
0.0000000000000001
 21
1.0
 31
0.0
 73
     1
 44
1.0
1001
ACAD
1000
MTEXTBEGIN
1070
    73
1070
     1
1070
    44
1040
1.0
1070
    74
1070
     0
1000
MTEXTEND
  0
POINT
  5
2BC0
330
20B1
100
AcDbEntity
  8
Defpoints
 62
     0
100
AcDbPoint
 10
170.1566308114501
 20
157.214828273011
 30
0.0
  0
POINT
  5
2BC1
330
20B1
100
AcDbEntity
  8
Defpoints
 62
     0
100
AcDbPoint
 10
167.60663081145
 20
167.214828273011
 30
0.0
  0
POINT
  5
2BC2
330
20B1
100
AcDbEntity
  8
Defpoints
 62
     0
100
AcDbPoint
 10
182.1566318114501
 20
167.214828273011
 30
0.0
  0
ENDBLK
  5
20BC
330
20B1
100
AcDbEntity
  8
0
100
AcDbBlockEnd
  0
BLOCK
  5
20E1
330
20D7
100
AcDbEntity
  8
0
100
AcDbBlockBegin
  2
*D16
 70
     1
 10
0.0
 20
0.0
 30
0.0
  3
*D16
  1

  0
LINE
  5
2BC3
330
20D7
100
AcDbEntity
  8
AM_5
100
AcDbLine
 10
171.1566308114501
 20
157.214828273011
 30
0.0
 11
191.6566318114501
 21
157.214828273011
 31
0.0
  0
LINE
  5
2BC4
330
20D7
100
AcDbEntity
  8
AM_5
100
AcDbLine
 10
171.1566308114501
 20
185.214828273011
 30
0.0
 11
191.6566318114501
 21
185.214828273011
 31
0.0
  0
LINE
  5
2BC5
330
20D7
100
AcDbEntity
  8
AM_5
100
AcDbLine
 10
190.1566318114501
 20
160.214828273011
 30
0.0
 11
190.1566318114501
 21
182.214828273011
 31
0.0
  0
SOLID
  5
2BC6
330
20D7
100
AcDbEntity
  8
AM_5
100
AcDbTrace
 10
189.6566318114501
 20
160.214828273011
 30
0.0
 11
190.6566318114501
 21
160.214828273011
 31
0.0
 12
190.1566318114501
 22
157.214828273011
 32
0.0
 13
190.1566318114501
 23
157.214828273011
 33
0.0
  0
SOLID
  5
2BC7
330
20D7
100
AcDbEntity
  8
AM_5
100
AcDbTrace
 10
189.6566318114501
 20
182.214828273011
 30
0.0
 11
190.6566318114501
 21
182.214828273011
 31
0.0
 12
190.1566318114501
 22
185.214828273011
 32
0.0
 13
190.1566318114501
 23
185.214828273011
 33
0.0
  0
MTEXT
  5
2BC8
330
20D7
100
AcDbEntity
  8
AM_5
100
AcDbMText
 10
187.6563365358595
 20
171.214828273011
 30
0.0
 40
3.0
 41
0.0
 71
     5
 72
     1
  1
\A2;28
 11
0.0000000000000001
 21
1.0
 31
0.0
 73
     1
 44
1.0
1001
ACAD
1000
MTEXTBEGIN
1070
    73
1070
     1
1070
    44
1040
1.0
1070
    74
1070
     0
1000
MTEXTEND
  0
POINT
  5
2BC9
330
20D7
100
AcDbEntity
  8
Defpoints
 62
     0
100
AcDbPoint
 10
170.1566308114501
 20
157.214828273011
 30
0.0
  0
POINT
  5
2BCA
330
20D7
100
AcDbEntity
  8
Defpoints
 62
     0
100
AcDbPoint
 10
170.1566308114501
 20
185.214828273011
 30
0.0
  0
POINT
  5
2BCB
330
20D7
100
AcDbEntity
  8
Defpoints
 62
     0
100
AcDbPoint
 10
190.1566318114501
 20
185.214828273011
 30
0.0
  0
ENDBLK
  5
20E2
330
20D7
100
AcDbEntity
  8
0
100
AcDbBlockEnd
  0
BLOCK
  5
2A38
330
2A33
100
AcDbEntity
  8
0
100
AcDbBlockBegin
  2
*S18
 70
     1
 10
0.0
 20
0.0
 30
0.0
  3
*S18
  1

  0
LINE
  5
2A34
330
2A33
100
AcDbEntity
  8
AM_5
 62
     5
100
AcDbLine
 10
338.650443790684
 20
146.1822870449584
 30
0.0
 11
320.9484094621964
 21
146.1822870449584
 31
0.0
  0
LINE
  5
2A35
330
2A33
100
AcDbEntity
  8
AM_5
 62
     5
100
AcDbLine
 10
320.9484094621964
 20
146.1822870449584
 30
0.0
 11
313.6509625977911
 21
159.1221714282
 31
0.0
  0
TRACE
  5
2A36
330
2A33
100
AcDbEntity
  8
AM_5
 62
     5
370
    35
100
AcDbTrace
 10
314.052321526315
 20
159.3485177669858
 30
0.0
 11
313.2496036692672
 21
158.8958250894142
 31
0.0
 12
311.9316914563878
 22
162.1707951738167
 32
0.0
 13
311.9316914563878
 23
162.1707951738167
 33
0.0
  0
MTEXT
  5
2A37
330
2A33
100
AcDbEntity
  8
AM_5
 62
     2
100
AcDbMText
 10
338.650443790684
 20
141.5136076637427
 30
0.0
 40
3.5
 41
0.0
 71
     9
 72
     5
  1

  7
ACISOTS
210
0.0
220
0.0
230
-1.0
 11
-1.0
 21
0.0
 31
0.0
 73
     1
 44
1.0
1001
ACAD
1000
MTEXTBEGIN
1070
    73
1070
     1
1070
    44
1040
1.0
1070
    74
1070
     0
1000
MTEXTEND
  0
ENDBLK
  5
2A39
330
2A33
100
AcDbEntity
  8
0
100
AcDbBlockEnd
  0
BLOCK
  5
2A40
330
2A3B
100
AcDbEntity
  8
0
100
AcDbBlockBegin
  2
*S19
 70
     1
 10
0.0
 20
0.0
 30
0.0
  3
*S19
  1

  0
LINE
  5
2A3C
330
2A3B
100
AcDbEntity
  8
AM_5
 62
     5
100
AcDbLine
 10
341.6564444342841
 20
200.8534172419156
 30
0.0
 11
326.0415525414949
 21
200.8534172419156
 31
0.0
  0
LINE
  5
2A3D
330
2A3B
100
AcDbEntity
  8
AM_5
 62
     5
100
AcDbLine
 10
326.0415525414949
 20
200.8534172419156
 30
0.0
 11
300.6546495379923
 21
219.1221430883866
 31
0.0
  0
TRACE
  5
2A3E
330
2A3B
100
AcDbEntity
  8
AM_5
 62
     5
370
    35
100
AcDbTrace
 10
300.9237921303637
 20
219.4961536758826
 30
0.0
 11
300.3855069456209
 21
218.7481325008904
 31
0.0
 12
297.8137570671406
 22
221.1664840504225
 32
0.0
 13
297.8137570671406
 23
221.1664840504225
 33
0.0
  0
MTEXT
  5
2A3F
330
2A3B
100
AcDbEntity
  8
AM_5
 62
     2
100
AcDbMText
 10
341.6564444342841
 20
196.1847378606999
 30
0.0
 40
3.5
 41
0.0
 71
     9
 72
     5
  1

  7
ACISOTS
210
0.0
220
0.0
230
-1.0
 11
-1.0
 21
0.0
 31
0.0
 73
     1
 44
1.0
1001
ACAD
1000
MTEXTBEGIN
1070
    73
1070
     1
1070
    44
1040
1.0
1070
    74
1070
     0
1000
MTEXTEND
  0
ENDBLK
  5
2A41
330
2A3B
100
AcDbEntity
  8
0
100
AcDbBlockEnd
  0
ENDSEC
  0
SECTION
  2
ENTITIES
  0
TEXT
  5
13F1
330
1F
100
AcDbEntity
  8
LOGO
 62
     7
100
AcDbText
 10
156.7175571008331
 20
118.4263070794269
 30
0.0
 40
2.765522704333031
  1
Order example:
 41
0.8
  7
CHINESET
100
AcDbText
  0
TEXT
  5
13F2
330
1F
100
AcDbEntity
  8
LOGO
 62
     7
100
AcDbText
 10
157.2137147439324
 20
122.3195904383454
 30
0.0
 40
4.148284056499546
  1
訂購代號:
  7
CHINESET
100
AcDbText
  0
LINE
  5
13F3
330
1F
100
AcDbEntity
  8
LOGO
 62
     1
100
AcDbLine
 10
253.8296009641491
 20
127.5127703597638
 30
0.0
 11
109.8848034841913
 21
127.5127703597638
 31
0.0
  0
LINE
  5
13F4
330
1F
100
AcDbEntity
  8
LOGO
 62
     1
100
AcDbLine
 10
253.8296009641491
 20
106.771350077266
 30
0.0
 11
109.8848034841913
 21
106.771350077266
 31
0.0
  0
LINE
  5
13F5
330
1F
100
AcDbEntity
  8
LOGO
 62
     1
100
AcDbLine
 10
155.5159281056864
 20
106.771350077266
 30
0.0
 11
155.5159281056864
 21
127.5127703597638
 31
0.0
  0
LINE
  5
13F6
330
1F
100
AcDbEntity
  8
LOGO
 62
     1
100
AcDbLine
 10
109.8848034841913
 20
106.771350077266
 30
0.0
 11
109.8848034841913
 21
127.5127703597638
 31
0.0
  0
TEXT
  5
13F7
330
1F
100
AcDbEntity
  8
LOGO
  6
Continuous
 62
     5
100
AcDbText
 10
117.3352148841528
 20
110.8459707902303
 30
0.0
 40
3.11121304237466
  1
金器工業股份有限公司
  7
CHINESET
100
AcDbText
  0
TEXT
  5
13F8
330
1F
100
AcDbEntity
  8
LOGO
  6
Continuous
 62
     5
100
AcDbText
 10
111.6205320484565
 20
107.7341481940279
 30
0.0
 40
2.074142028249773
  1
MINDMAN INDUSTRIAL CO., LTD.
 41
0.85
  7
CHINESET
100
AcDbText
  0
LINE
  5
13F9
330
1F
100
AcDbEntity
  8
LOGO
 62
     1
100
AcDbLine
 10
155.5159281056864
 20
123.3644863032643
 30
0.0
 11
125.0951783580231
 21
123.3644863032643
 31
0.0
  0
LINE
  5
13FA
330
1F
100
AcDbEntity
  8
LOGO
 62
     1
100
AcDbLine
 10
155.5159281056864
 20
119.2162022467647
 30
0.0
 11
125.0951783580231
 21
119.2162022467647
 31
0.0
  0
LINE
  5
13FB
330
1F
100
AcDbEntity
  8
LOGO
 62
     1
100
AcDbLine
 10
155.5159281056864
 20
115.0679181902652
 30
0.0
 11
109.8848034841913
 21
115.0679181902652
 31
0.0
  0
LINE
  5
13FC
330
1F
100
AcDbEntity
  8
LOGO
 62
     1
100
AcDbLine
 10
125.0951783580231
 20
115.0679181902652
 30
0.0
 11
125.0951783580231
 21
127.5127703597638
 31
0.0
  0
TEXT
  5
13FD
330
1F
100
AcDbEntity
  8
LOGO
 62
     6
100
AcDbText
 10
144.7998696249032
 20
116.10498920439
 30
0.0
 40
2.074142028249773
  1
m/m
  7
CHINESET
 72
     1
 11
148.4543103413432
 21
117.1420602185149
 31
0.0
100
AcDbText
 73
     2
  0
TEXT
  5
13FE
330
1F
100
AcDbEntity
  8
LOGO
 62
     6
100
AcDbText
 10
144.7998696249032
 20
124.4015573173892
 30
0.0
 40
2.074142028249773
  1
1 : 1
  7
CHINESET
 72
     1
 11
148.4543103413432
 21
125.4386283315141
 31
0.0
100
AcDbText
 73
     2
  0
LINE
  5
13FF
330
1F
100
AcDbEntity
  8
LOGO
 62
     1
100
AcDbLine
 10
141.6883145840212
 20
115.0679181902652
 30
0.0
 11
141.6883145840212
 21
127.5127703597638
 31
0.0
  0
CIRCLE
  5
1400
330
1F
100
AcDbEntity
  8
LOGO
  6
Continuous
 62
     6
100
AcDbCircle
 10
145.5288479789096
 20
121.2947808799911
 30
0.0
 40
1.204295681401881
  0
CIRCLE
  5
1401
330
1F
100
AcDbEntity
  8
LOGO
  6
Continuous
 62
     6
100
AcDbCircle
 10
145.5288479789096
 20
121.2947808799911
 30
0.0
 40
0.7056106590366931
  0
LINE
  5
1402
330
1F
100
AcDbEntity
  8
LOGO
 62
     6
100
AcDbLine
 10
153.0967817814007
 20
120.0904851985891
 30
0.0
 11
153.0967817814007
 21
122.499076561393
 31
0.0
  0
LINE
  5
1403
330
1F
100
AcDbEntity
  8
LOGO
 62
     6
100
AcDbLine
 10
149.3213839500763
 20
120.5891702209544
 30
0.0
 11
149.3213839500763
 21
122.0003915390279
 31
0.0
  0
LINE
  5
1404
330
1F
100
AcDbEntity
  8
LOGO
  6
Continuous
 62
     6
100
AcDbLine
 10
149.3213839500763
 20
122.0003915390279
 30
0.0
 11
153.0967817814007
 21
122.499076561393
 31
0.0
  0
LINE
  5
1405
330
1F
100
AcDbEntity
  8
LOGO
  6
Continuous
 62
     6
100
AcDbLine
 10
149.3213839500763
 20
120.5891702209544
 30
0.0
 11
153.0967817814007
 21
120.0904851985891
 31
0.0
  0
LINE
  5
1424
330
1F
100
AcDbEntity
  8
LOGO
 62
     1
100
AcDbLine
 10
253.8296009641491
 20
106.771350077266
 30
0.0
 11
253.8296009641491
 21
127.5127703597638
 31
0.0
  0
TEXT
  5
1432
330
1F
100
AcDbEntity
  8
LOGO
 62
     6
100
AcDbText
 10
126.8054195750666
 20
124.4025780565763
 30
135.9358515821097
 40
2.074142028249773
  1
比例 Scale:
 41
0.9
  7
CHINESET
 72
     4
 11
133.3917464710222
 21
125.4386283315141
 31
135.9358515821097
100
AcDbText
  0
TEXT
  5
1433
330
1F
100
AcDbEntity
  8
LOGO
 62
     6
100
AcDbText
 10
127.5304433286914
 20
120.2824493893217
 30
135.9358515821097
 40
2.074142028249773
  1
投影 View:
 41
0.9
  7
CHINESET
 72
     4
 11
133.3917464710222
 21
121.2903442750144
 31
135.9358515821097
100
AcDbText
  0
TEXT
  5
1434
330
1F
100
AcDbEntity
  8
LOGO
 62
     6
100
AcDbText
 10
127.7332277502033
 20
116.10498920439
 30
135.9358515821097
 40
2.074142028249773
  1
單位 Unit:
 41
0.9
  7
CHINESET
 72
     4
 11
133.3917464710222
 21
117.1420602185149
 31
135.9358515821097
100
AcDbText
  0
LWPOLYLINE
  5
143D
330
1F
100
AcDbEntity
  8
0
 62
     4
100
AcDbPolyline
 90
        4
 70
     1
 43
0.0
 10
109.8848034841914
 20
127.5127703597638
 10
253.8296009641491
 20
127.5127703597638
 10
253.8296009641491
 20
318.6982688663039
 10
109.8848034841914
 20
318.6982688663039
1001
GENIUS_GENREC_14
1002
{
1000
PYDIR
1011
109.8848034841914
1021
318.6982688663039
1031
0.0
1002
}
1002
{
1000
PXDIR
1011
253.8296009641491
1021
127.5127703597638
1031
0.0
1002
}
1002
{
1000
PORI
1011
109.8848034841914
1021
127.5127703597638
1031
0.0
1002
}
1002
{
1000
PINS
1011
109.8848034841914
1021
127.5127703597638
1031
0.0
1002
}
1002
{
1000
PINS2
1011
253.8296009641491
1021
318.6982688663039
1031
0.0
1002
}
1002
{
1000
C
1070
     1
1002
}
1001
GENIUS_GENODEF_13
1002
{
1000
HIER
1070
     0
1002
}
1002
{
1000
MANEDIT
1070
     0
1002
}
1002
{
1000
NOSEL
1070
     0
1002
}
1002
{
1000
BEHIND
1070
     0
1002
}
1002
{
1000
OTHER
1070
     0
1002
}
1002
{
1000
REACTOR
1002
}
1001
GENIUS_GENOBJ-N-REC_13
1002
{
1000
OWNER
1000
GEN
1002
}
  0
SOLID
  5
143E
330
1F
100
AcDbEntity
  8
LOGO
 62
     5
100
AcDbTrace
 10
112.0367591259483
 20
118.5158840813608
 30
0.0
 11
112.9335637134766
 21
118.5158840813605
 31
0.0
 12
116.6754035441988
 22
127.0200655148199
 32
0.0
 13
117.5722081317272
 23
127.0200655148192
 33
0.0
  0
SOLID
  5
143F
330
1F
100
AcDbEntity
  8
LOGO
 62
     5
100
AcDbTrace
 10
113.3046552669372
 20
118.5158840813608
 30
0.0
 11
114.2014598544654
 21
118.5158840813608
 31
0.0
 12
117.5722081317272
 22
126.3397310001427
 32
0.0
 13
116.6754035441988
 23
123.0514475125385
 33
0.0
  0
SOLID
  5
1440
330
1F
100
AcDbEntity
  8
LOGO
 62
     2
100
AcDbTrace
 10
112.9335637134766
 20
118.5158840813605
 30
0.0
 11
113.3046552669372
 21
118.5158840813608
 31
0.0
 12
117.5722081317272
 22
127.0200655148192
 32
0.0
 13
117.9432996851874
 23
127.0200655148192
 33
0.0
  0
SOLID
  5
1441
330
1F
100
AcDbEntity
  8
LOGO
 62
     5
100
AcDbTrace
 10
110.5989614487164
 20
115.4234544691943
 30
0.0
 11
110.9082044099335
 21
115.4234544691943
 31
0.0
 12
111.7790566582679
 22
116.9696692752773
 32
0.0
 13
112.0882996194844
 23
116.9696692752773
 33
0.0
  0
SOLID
  5
1442
330
1F
100
AcDbEntity
  8
LOGO
 62
     5
100
AcDbTrace
 10
111.7790566582679
 20
116.9696692752773
 30
0.0
 11
112.0882996194844
 21
116.9696692752773
 31
0.0
 12
111.7790566582679
 22
115.4234544691943
 32
0.0
 13
112.0882996194844
 23
115.4234544691943
 33
0.0
  0
SOLID
  5
1443
330
1F
100
AcDbEntity
  8
LOGO
 62
     5
100
AcDbTrace
 10
111.7790566582679
 20
115.4234544691943
 30
0.0
 11
112.0882996194844
 21
115.4234544691943
 31
0.0
 12
112.95915186782
 22
116.9696692752773
 32
0.0
 13
113.2683948290363
 23
116.9696692752773
 33
0.0
  0
SOLID
  5
1444
330
1F
100
AcDbEntity
  8
LOGO
 62
     5
100
AcDbTrace
 10
112.95915186782
 20
116.9696692752773
 30
0.0
 11
113.2683948290363
 21
116.9696692752773
 31
0.0
 12
112.95915186782
 22
115.4234544691943
 32
0.0
 13
113.2683948290363
 23
115.4234544691943
 33
0.0
  0
POLYLINE
  5
1445
330
1F
100
AcDbEntity
  8
LOGO
 62
     5
100
AcDb2dPolyline
 66
     1
 10
0.0
 20
0.0
 30
0.0
 40
0.3097385428852994
 41
0.3097385428852994
  0
VERTEX
  5
1446
330
1445
100
AcDbEntity
  8
LOGO
 62
     5
100
AcDbVertex
100
AcDb2dVertex
 10
123.3248705828607
 20
116.3511833528439
 30
0.0
 42
1.0
  0
VERTEX
  5
1447
330
1445
100
AcDbEntity
  8
LOGO
 62
     5
100
AcDbVertex
100
AcDb2dVertex
 10
122.3956549542046
 20
116.3511833528439
 30
0.0
 42
1.0
  0
SEQEND
  5
1448
330
1445
100
AcDbEntity
  8
LOGO
 62
     5
  0
POLYLINE
  5
1449
330
1F
100
AcDbEntity
  8
LOGO
 62
     5
100
AcDb2dPolyline
 66
     1
 10
0.0
 20
0.0
 30
0.0
 70
     1
  0
VERTEX
  5
144A
330
1449
100
AcDbEntity
  8
LOGO
 62
     5
100
AcDbVertex
100
AcDb2dVertex
 10
120.6440421626767
 20
116.1965618722357
 30
0.0
 42
1.000000057330635
  0
VERTEX
  5
144B
330
1449
100
AcDbEntity
  8
LOGO
 62
     5
100
AcDbVertex
100
AcDb2dVertex
 10
121.5717710463269
 20
116.1965618722357
 30
0.0
 42
1.000000057330635
  0
SEQEND
  5
144C
330
1449
100
AcDbEntity
  8
LOGO
 62
     5
  0
CIRCLE
  5
144D
330
1F
100
AcDbEntity
  8
LOGO
 62
     5
100
AcDbCircle
 10
121.1079066045021
 20
116.1965618722357
 30
0.0
 40
0.4638644418250246
  0
POLYLINE
  5
144E
330
1F
100
AcDbEntity
  8
LOGO
 62
     5
100
AcDb2dPolyline
 66
     1
 10
0.0
 20
0.0
 30
0.0
 70
     1
 40
0.3097385428852994
 41
0.3097385428852994
  0
VERTEX
  5
144F
330
144E
100
AcDbEntity
  8
LOGO
 62
     5
100
AcDbVertex
100
AcDb2dVertex
 10
120.4884295187312
 20
116.1965618722357
 30
0.0
 42
1.0
  0
VERTEX
  5
1450
330
144E
100
AcDbEntity
  8
LOGO
 62
     5
100
AcDbVertex
100
AcDb2dVertex
 10
121.7273836902725
 20
116.1965618722357
 30
0.0
 42
1.0
  0
SEQEND
  5
1451
330
144E
100
AcDbEntity
  8
LOGO
 62
     5
  0
LINE
  5
1452
330
1F
100
AcDbEntity
  8
LOGO
 62
     5
100
AcDbLine
 10
123.4787486909658
 20
115.4234544691943
 30
0.0
 11
123.4787486909658
 21
116.3511833528439
 31
0.0
  0
SOLID
  5
1453
330
1F
100
AcDbEntity
  8
LOGO
 62
     5
100
AcDbTrace
 10
121.5717401220315
 20
116.9696692752773
 30
0.0
 11
121.8809830832478
 21
116.9696692752773
 31
0.0
 12
121.5717401220315
 22
115.4234544691943
 32
0.0
 13
121.8809830832478
 23
115.4234544691943
 33
0.0
  0
SOLID
  5
1454
330
1F
100
AcDbEntity
  8
LOGO
 62
     5
100
AcDbTrace
 10
122.2417768460989
 20
115.4234544691943
 30
0.0
 11
122.551019807316
 21
115.4234544691943
 31
0.0
 12
122.2417768460989
 22
116.9696692752773
 32
0.0
 13
122.551019807316
 23
116.9696692752773
 33
0.0
  0
SOLID
  5
1455
330
1F
100
AcDbEntity
  8
LOGO
 62
     5
100
AcDbTrace
 10
123.1695057297494
 20
116.3511833528439
 30
0.0
 11
123.4787486909658
 21
116.3511833528439
 31
0.0
 12
123.1695057297494
 22
115.4234544691943
 32
0.0
 13
123.4787486909658
 23
115.4234544691943
 33
0.0
  0
SOLID
  5
1456
330
1F
100
AcDbEntity
  8
LOGO
 62
     5
100
AcDbTrace
 10
122.2108525499773
 20
126.3397310001427
 30
0.0
 11
121.3140479624489
 21
123.0514475125385
 31
0.0
 12
122.2108525499773
 22
118.5158840813605
 32
0.0
 13
121.3140479624489
 23
118.5158840813605
 33
0.0
  0
SOLID
  5
1457
330
1F
100
AcDbEntity
  8
LOGO
 62
     5
100
AcDbTrace
 10
122.5819441034376
 20
118.5158840813605
 30
0.0
 11
123.4787486909658
 21
118.5158840813605
 31
0.0
 12
122.5819441034376
 22
127.0200655148192
 32
0.0
 13
123.4787486909658
 23
127.0200655148199
 33
0.0
  0
SOLID
  5
1458
330
1F
100
AcDbEntity
  8
LOGO
 62
     2
100
AcDbTrace
 10
122.2108525499773
 20
127.0200655148199
 30
0.0
 11
122.5819441034376
 21
127.0200655148192
 31
0.0
 12
122.2108525499773
 22
118.5158840813605
 32
0.0
 13
122.5819441034376
 23
118.5158840813605
 33
0.0
  0
POLYLINE
  5
1459
330
1F
100
AcDbEntity
  8
LOGO
 62
     5
100
AcDb2dPolyline
 66
     1
 10
0.0
 20
0.0
 30
0.0
 40
0.3097385428852994
 41
0.3097385428852994
  0
VERTEX
  5
145A
330
1459
100
AcDbEntity
  8
LOGO
 62
     5
100
AcDbVertex
100
AcDb2dVertex
 10
118.8923675225574
 20
116.3511833528439
 30
0.0
 42
1.0
  0
VERTEX
  5
145B
330
1459
100
AcDbEntity
  8
LOGO
 62
     5
100
AcDbVertex
100
AcDb2dVertex
 10
117.9631518939013
 20
116.3511833528439
 30
0.0
 42
1.0
  0
SEQEND
  5
145C
330
1459
100
AcDbEntity
  8
LOGO
 62
     5
  0
POLYLINE
  5
145D
330
1F
100
AcDbEntity
  8
LOGO
 62
     5
100
AcDb2dPolyline
 66
     1
 10
0.0
 20
0.0
 30
0.0
 40
0.3097385428852994
 41
0.3097385428852994
  0
VERTEX
  5
145E
330
145D
100
AcDbEntity
  8
LOGO
 62
     5
100
AcDbVertex
100
AcDb2dVertex
 10
119.8200964062071
 20
116.3511833528439
 30
0.0
 42
1.0
  0
VERTEX
  5
145F
330
145D
100
AcDbEntity
  8
LOGO
 62
     5
100
AcDbVertex
100
AcDb2dVertex
 10
118.8908807775511
 20
116.3511833528439
 30
0.0
 42
1.0
  0
SEQEND
  5
1460
330
145D
100
AcDbEntity
  8
LOGO
 62
     5
  0
POLYLINE
  5
1461
330
1F
100
AcDbEntity
  8
LOGO
 62
     5
100
AcDb2dPolyline
 66
     1
 10
0.0
 20
0.0
 30
0.0
 40
0.3097385428852994
 41
0.3097385428852994
  0
VERTEX
  5
1462
330
1461
100
AcDbEntity
  8
LOGO
 62
     5
100
AcDbVertex
100
AcDb2dVertex
 10
115.387593345904
 20
116.3511833528439
 30
0.0
 42
1.0
  0
VERTEX
  5
1463
330
1461
100
AcDbEntity
  8
LOGO
 62
     5
100
AcDbVertex
100
AcDb2dVertex
 10
114.4583777172481
 20
116.3511833528439
 30
0.0
 42
1.0
  0
SEQEND
  5
1464
330
1461
100
AcDbEntity
  8
LOGO
 62
     5
  0
SOLID
  5
1465
330
1F
100
AcDbEntity
  8
LOGO
 62
     5
100
AcDbTrace
 10
114.304499609143
 20
116.9696692752773
 30
0.0
 11
114.6137425703593
 21
116.9696692752773
 31
0.0
 12
114.304499609143
 22
115.4234544691943
 32
0.0
 13
114.6137425703593
 23
115.4234544691943
 33
0.0
  0
SOLID
  5
1466
330
1F
100
AcDbEntity
  8
LOGO
 62
     5
100
AcDbTrace
 10
115.2322284927927
 20
116.3511833528439
 30
0.0
 11
115.5414714540097
 21
116.3511833528439
 31
0.0
 12
115.2322284927927
 22
115.4234544691943
 32
0.0
 13
115.5414714540097
 23
115.4234544691943
 33
0.0
  0
POLYLINE
  5
1467
330
1F
100
AcDbEntity
  8
LOGO
 62
     5
100
AcDb2dPolyline
 66
     1
 10
0.0
 20
0.0
 30
0.0
 70
     1
 40
0.3097385428852994
 41
0.3097385428852994
  0
VERTEX
  5
1468
330
1467
100
AcDbEntity
  8
LOGO
 62
     5
100
AcDbVertex
100
AcDb2dVertex
 10
116.0559264584279
 20
116.1965618722357
 30
0.0
 42
1.0
  0
VERTEX
  5
1469
330
1467
100
AcDbEntity
  8
LOGO
 62
     5
100
AcDbVertex
100
AcDb2dVertex
 10
117.294880629969
 20
116.1965618722357
 30
0.0
 42
1.0
  0
SEQEND
  5
146A
330
1467
100
AcDbEntity
  8
LOGO
 62
     5
  0
SOLID
  5
146B
330
1F
100
AcDbEntity
  8
LOGO
 62
     5
100
AcDbTrace
 10
117.139237061728
 20
117.4335337171026
 30
0.0
 11
117.4484800229443
 21
117.4335337171026
 31
0.0
 12
117.139237061728
 22
115.4234544691943
 32
0.0
 13
117.4484800229443
 23
115.4234544691943
 33
0.0
  0
SOLID
  5
146C
330
1F
100
AcDbEntity
  8
LOGO
 62
     5
100
AcDbTrace
 10
117.8092737857962
 20
116.9696692752773
 30
0.0
 11
118.1185167470128
 21
116.9696692752773
 31
0.0
 12
117.8092737857962
 22
115.4234544691943
 32
0.0
 13
118.1185167470128
 23
115.4234544691943
 33
0.0
  0
SOLID
  5
146D
330
1F
100
AcDbEntity
  8
LOGO
 62
     5
100
AcDbTrace
 10
118.7370026694462
 20
116.3511833528439
 30
0.0
 11
119.0462456306626
 21
116.3511833528439
 31
0.0
 12
118.7370026694462
 22
115.4234544691943
 32
0.0
 13
119.0462456306626
 23
115.4234544691943
 33
0.0
  0
SOLID
  5
146E
330
1F
100
AcDbEntity
  8
LOGO
 62
     5
100
AcDbTrace
 10
119.664731553096
 20
116.3511833528439
 30
0.0
 11
119.9739745143123
 21
116.3511833528439
 31
0.0
 12
119.664731553096
 22
115.4234544691936
 32
0.0
 13
119.9739745143123
 23
115.4234544691936
 33
0.0
  0
SOLID
  5
146F
330
1F
100
AcDbEntity
  8
LOGO
 62
     5
100
AcDbTrace
 10
113.6344628850744
 20
117.1861393481288
 30
0.0
 11
113.9437058462918
 21
117.1861393481288
 31
0.0
 12
113.6344628850744
 22
117.4335337171026
 32
0.0
 13
113.9437058462918
 23
117.4335337171026
 33
0.0
  0
SOLID
  5
1470
330
1F
100
AcDbEntity
  8
LOGO
 62
     5
100
AcDbTrace
 10
113.6344628850744
 20
116.9696692752773
 30
0.0
 11
113.9437058462918
 21
116.9696692752773
 31
0.0
 12
113.6344628850744
 22
115.4234544691936
 32
0.0
 13
113.9437058462918
 23
115.4234544691943
 33
0.0
  0
SOLID
  5
1471
330
1F
100
AcDbEntity
  8
LOGO
 62
     5
100
AcDbTrace
 10
116.6754035441988
 20
118.5158840813608
 30
0.0
 11
117.5722081317272
 21
118.5158840813608
 31
0.0
 12
116.6754035441988
 22
123.0514475125385
 32
0.0
 13
117.5722081317272
 23
126.3397310001427
 33
0.0
  0
SOLID
  5
1472
330
1F
100
AcDbEntity
  8
LOGO
 62
     5
100
AcDbTrace
 10
117.9432996851874
 20
127.0200655148192
 30
0.0
 11
118.8401042727158
 21
127.0200655148199
 31
0.0
 12
117.9432996851874
 22
119.1962185960373
 32
0.0
 13
118.8401042727158
 23
122.4845020836416
 33
0.0
  0
SOLID
  5
1473
330
1F
100
AcDbEntity
  8
LOGO
 62
     2
100
AcDbTrace
 10
117.5722081317272
 20
127.0200655148192
 30
0.0
 11
117.9432996851874
 21
127.0200655148192
 31
0.0
 12
117.5722081317272
 22
118.5158840813608
 32
0.0
 13
117.9432996851874
 23
118.5158840813608
 33
0.0
  0
SOLID
  5
1474
330
1F
100
AcDbEntity
  8
LOGO
 62
     5
100
AcDbTrace
 10
117.9432996851874
 20
119.1962185960373
 30
0.0
 11
118.8401042727158
 21
122.4845020836416
 31
0.0
 12
122.2108525499773
 22
127.0200655148199
 32
0.0
 13
121.3140479624489
 23
127.0200655148199
 33
0.0
  0
SOLID
  5
1475
330
1F
100
AcDbEntity
  8
LOGO
 62
     5
100
AcDbTrace
 10
117.9432996851874
 20
118.5158840813608
 30
0.0
 11
118.8401042727158
 21
118.5158840813608
 31
0.0
 12
122.2108525499773
 22
126.3397310001427
 32
0.0
 13
121.3140479624489
 23
123.0514475125385
 33
0.0
  0
SOLID
  5
1476
330
1F
100
AcDbEntity
  8
LOGO
 62
     2
100
AcDbTrace
 10
117.5722081317272
 20
118.5158840813608
 30
0.0
 11
117.9432996851874
 21
118.5158840813608
 31
0.0
 12
122.2108525499773
 22
127.0200655148199
 32
0.0
 13
122.5819441034376
 23
127.0200655148192
 33
0.0
  0
TEXT
  5
1477
330
1F
100
AcDbEntity
  8
0
100
AcDbText
 10
156.566788349837
 20
107.8747854497875
 30
0.0
 40
1.729555978787999
  1
1050519
 41
0.8
  7
CHINESET
 72
     1
 11
160.6847787755227
 21
107.8747854497875
 31
0.0
100
AcDbText
  0
LINE
  5
1478
330
1F
100
AcDbEntity
  8
LOGO
 62
     1
100
AcDbLine
 10
166.0211728039469
 20
110.9196341337657
 30
0.0
 11
166.0211728039472
 21
106.771350077266
 31
0.0
  0
LINE
  5
1479
330
1F
100
AcDbEntity
  8
LOGO
 62
     1
100
AcDbLine
 10
166.0211728039469
 20
110.9196341337657
 30
0.0
 11
155.5159281056864
 21
110.9196341337657
 31
0.0
  0
LINE
  5
1602
330
1F
100
AcDbEntity
  8
LOGO
 62
     6
100
AcDbLine
 10
235.2127351420855
 20
116.1083183058366
 30
0.0
 11
225.276469679063
 21
116.1083183058366
 31
0.0
  0
LINE
  5
1603
330
1F
100
AcDbEntity
  8
LOGO
 62
     6
100
AcDbLine
 10
232.1239611515655
 20
119.2206410486935
 30
0.0
 11
228.1097799115365
 21
119.2206410486935
 31
0.0
  0
LINE
  5
1604
330
1F
100
AcDbEntity
  8
LOGO
 62
     6
100
AcDbLine
 10
235.2127351420855
 20
108.5004182677421
 30
0.0
 11
225.276469679063
 21
108.5004182677421
 31
0.0
  0
LINE
  5
1605
330
1F
100
AcDbEntity
  8
LOGO
 62
     6
100
AcDbLine
 10
235.2127351420855
 20
116.1083183058366
 30
0.0
 11
235.2127351420855
 21
108.4717314399671
 31
0.0
  0
TEXT
  5
160A
330
1F
100
AcDbEntity
  8
LOGO
 62
     6
100
AcDbText
 10
189.5880249879032
 20
112.3751647796277
 30
0.0
 40
2.766509104761651
  1
型式
  7
CHINESET
 72
     4
 11
192.3545340926649
 21
113.6876228391701
 31
0.0
100
AcDbText
  0
LINE
  5
160B
330
1F
100
AcDbEntity
  8
LOGO
 62
     6
100
AcDbLine
 10
225.276469679063
 20
116.1083183058366
 30
0.0
 11
225.276469679063
 21
108.5004182677421
 31
0.0
  0
LINE
  5
160F
330
1F
100
AcDbEntity
  8
LOGO
 62
     6
100
AcDbLine
 10
230.116870531551
 20
119.2206410486935
 30
0.0
 11
230.1168705315511
 21
116.1083183058367
 31
0.0
  0
TEXT
  5
1610
330
1F
100
AcDbEntity
  8
LOGO
 62
     6
100
AcDbText
 10
226.419220449686
 20
112.3738033086116
 30
0.0
 40
2.766509104761651
  1
連座數
 41
0.9
  7
CHINESET
 72
     4
 11
230.2038375803044
 21
113.6876228391702
 31
0.0
100
AcDbText
  0
LINE
  5
1615
330
1F
100
AcDbEntity
  8
LOGO
 62
     6
100
AcDbLine
 10
192.3545340926649
 20
119.2206410486934
 30
0.0
 11
192.3545340926649
 21
116.1083183058366
 31
0.0
  0
LINE
  5
1616
330
1F
100
AcDbEntity
  8
LOGO
 62
     6
100
AcDbLine
 10
185.4382613307608
 20
116.1083183058366
 30
0.0
 11
185.4382613307608
 21
108.500418267742
 31
0.0
  0
LINE
  5
161A
330
1F
100
AcDbEntity
  8
LOGO
 62
     6
100
AcDbLine
 10
232.1239611515657
 20
125.4452865344072
 30
0.0
 11
228.1097799115365
 21
125.4452865344072
 31
0.0
  0
LINE
  5
161D
330
1F
100
AcDbEntity
  8
LOGO
 62
     6
100
AcDbLine
 10
184.05500677838
 20
125.4452865344072
 30
0.0
 11
184.05500677838
 21
119.2206410486934
 31
0.0
  0
LINE
  5
1620
330
1F
100
AcDbEntity
  8
LOGO
 62
     6
100
AcDbLine
 10
232.1239611515657
 20
125.4452865344072
 30
0.0
 11
232.1239611515655
 21
119.2206410486935
 31
0.0
  0
TEXT
  5
1623
330
1F
100
AcDbEntity
  8
LOGO
  6
Continuous
 62
     6
100
AcDbText
 10
226.3834202451573
 20
109.3649523629801
 30
0.0
 40
1.729068190476031
  1
Number
 41
0.8
  7
CHINESET
 72
     4
 11
230.2038375803044
 21
110.2294864582181
 31
0.0
100
AcDbText
  0
TEXT
  5
1626
330
1F
100
AcDbEntity
  8
LOGO
  6
Continuous
 62
     6
100
AcDbText
 10
189.0610708727105
 20
109.36495236298
 30
0.0
 40
1.729068190476031
  1
Model
  7
CHINESET
 72
     4
 11
192.3545340926649
 21
110.2294864582181
 31
0.0
100
AcDbText
  0
TEXT
  5
1627
330
1F
100
AcDbEntity
  8
LOGO
  6
Continuous
 62
     7
100
AcDbText
 10
228.6998772170169
 20
120.5646801166076
 30
0.0
 40
3.458136380952063
  1
2
  7
CHINESET
 72
     1
 11
229.852589344001
 21
122.2937483070836
 31
0.0
100
AcDbText
 73
     2
  0
TEXT
  5
1628
330
1F
100
AcDbEntity
  8
LOGO
  6
Continuous
 62
     7
100
AcDbText
 10
205.1853040345263
 20
120.5646801166075
 30
0.0
 40
3.458136380952063
  1
220
  7
CHINESET
 72
     1
 11
209.6314793814646
 21
122.2937483070835
 31
0.0
100
AcDbText
 73
     2
  0
TEXT
  5
1629
330
1F
100
AcDbEntity
  8
LOGO
  6
Continuous
 62
     7
100
AcDbText
 10
185.849944233255
 20
120.6038956010743
 30
0.0
 40
3.458136380952063
  1
MVSC
  7
CHINESET
 72
     1
 11
192.3545340926649
 21
122.3329637915503
 31
0.0
100
AcDbText
 73
     2
  0
LINE
  5
162D
330
1F
100
AcDbEntity
  8
LOGO
 62
     6
100
AcDbLine
 10
200.6540614069499
 20
125.4452865344072
 30
0.0
 11
200.6540614069499
 21
119.2206410486934
 31
0.0
  0
LINE
  5
162E
330
1F
100
AcDbEntity
  8
LOGO
 62
     6
100
AcDbLine
 10
199.2708068545691
 20
116.1083183058366
 30
0.0
 11
199.2708068545691
 21
108.500418267742
 31
0.0
  0
LINE
  5
162F
330
1F
100
AcDbEntity
  8
LOGO
 62
     6
100
AcDbLine
 10
200.6540614069499
 20
125.4452865344072
 30
0.0
 11
184.05500677838
 21
125.4452865344072
 31
0.0
  0
LINE
  5
1630
330
1F
100
AcDbEntity
  8
LOGO
 62
     6
100
AcDbLine
 10
200.6540614069499
 20
119.2206410486934
 30
0.0
 11
184.05500677838
 21
119.2206410486934
 31
0.0
  0
LINE
  5
1631
330
1F
100
AcDbEntity
  8
LOGO
 62
     6
100
AcDbLine
 10
199.270806854569
 20
116.1083183058366
 30
0.0
 11
185.4382613307608
 21
116.1083183058366
 31
0.0
  0
LINE
  5
1632
330
1F
100
AcDbEntity
  8
LOGO
 62
     6
100
AcDbLine
 10
199.270806854569
 20
108.500418267742
 30
0.0
 11
185.4382613307608
 21
108.500418267742
 31
0.0
  0
TEXT
  5
1634
330
1F
100
AcDbEntity
  8
LOGO
  6
Continuous
 62
     7
100
AcDbText
 10
220.2685020777065
 20
120.6038956010743
 30
0.0
 40
3.458136380952063
  1
3B
  7
CHINESET
 72
     1
 11
223.0679458146677
 21
122.3329637915503
 31
0.0
100
AcDbText
 73
     2
  0
LINE
  5
1635
330
1F
100
AcDbEntity
  8
LOGO
 62
     6
100
AcDbLine
 10
227.297614384629
 20
125.4452865344072
 30
0.0
 11
218.8667897983765
 21
125.4452865344072
 31
0.0
  0
LINE
  5
1636
330
1F
100
AcDbEntity
  8
LOGO
 62
     6
100
AcDbLine
 10
223.8331892805025
 20
116.1083183058366
 30
0.0
 11
212.7288339319981
 21
116.1083183058366
 31
0.0
  0
LINE
  5
1637
330
1F
100
AcDbEntity
  8
LOGO
 62
     6
100
AcDbLine
 10
227.297614384629
 20
119.2206410486935
 30
0.0
 11
218.8667897983765
 21
119.2206410486935
 31
0.0
  0
TEXT
  5
1638
330
1F
100
AcDbEntity
  8
LOGO
 62
     6
100
AcDbText
 10
215.7962589282752
 20
112.3876449306088
 30
0.0
 40
2.766509104761651
  1
連座
 41
0.9
  7
CHINESET
 72
     4
 11
218.2810116062503
 21
113.6876228391702
 31
0.0
100
AcDbText
  0
LINE
  5
1639
330
1F
100
AcDbEntity
  8
LOGO
 62
     6
100
AcDbLine
 10
223.8331892805025
 20
108.5004182677421
 30
0.0
 11
212.7288339319981
 21
108.5004182677421
 31
0.0
  0
TEXT
  5
163A
330
1F
100
AcDbEntity
  8
LOGO
  6
Continuous
 62
     6
100
AcDbText
 10
214.2959211101055
 20
109.3649523629801
 30
0.0
 40
1.729068190476031
  1
Manifold
 41
0.8
  7
CHINESET
 72
     4
 11
218.2810116062503
 21
110.2294864582181
 31
0.0
100
AcDbText
  0
LINE
  5
163B
330
1F
100
AcDbEntity
  8
LOGO
 62
     6
100
AcDbLine
 10
218.8667897983765
 20
125.4452865344072
 30
0.0
 11
218.8667897983765
 21
119.2206410486935
 31
0.0
  0
LINE
  5
163C
330
1F
100
AcDbEntity
  8
LOGO
 62
     6
100
AcDbLine
 10
212.7288339319981
 20
116.1083183058366
 30
0.0
 11
212.7288339319981
 21
108.5004182677421
 31
0.0
  0
LINE
  5
163D
330
1F
100
AcDbEntity
  8
LOGO
 62
     6
100
AcDbLine
 10
227.297614384629
 20
125.4452865344072
 30
0.0
 11
227.297614384629
 21
119.2206410486935
 31
0.0
  0
LINE
  5
163E
330
1F
100
AcDbEntity
  8
LOGO
 62
     6
100
AcDbLine
 10
223.8331892805025
 20
116.1083183058366
 30
0.0
 11
223.8331892805025
 21
108.5004182677421
 31
0.0
  0
LINE
  5
1640
330
1F
100
AcDbEntity
  8
LOGO
  6
Continuous
 62
     7
100
AcDbLine
 10
201.7264742770889
 20
122.3109151135134
 30
0.0
 11
204.4750505963587
 21
122.3109151135134
 31
0.0
  0
LINE
  5
1641
330
1F
100
AcDbEntity
  8
LOGO
  6
Continuous
 62
     7
100
AcDbLine
 10
215.2346438619349
 20
122.3109151135134
 30
0.0
 11
217.9832201812047
 21
122.3109151135134
 31
0.0
  0
LINE
  5
1642
330
1F
100
AcDbEntity
  8
LOGO
 62
     6
100
AcDbLine
 10
228.1097799115365
 20
125.4452865344072
 30
0.0
 11
228.1097799115365
 21
119.2206410486935
 31
0.0
  0
LINE
  5
1644
330
1F
100
AcDbEntity
  8
LOGO
 62
     6
100
AcDbLine
 10
223.0822020915027
 20
117.664479677265
 30
0.0
 11
223.0822020915027
 21
119.2206410486935
 31
0.0
  0
LINE
  5
1ECD
330
1F
100
AcDbEntity
  8
AM_7
100
AcDbLine
 10
137.1566308114501
 20
167.214828273011
 30
0.0
 11
139.1566308114501
 21
167.214828273011
 31
0.0
  0
LINE
  5
1ECE
330
1F
100
AcDbEntity
  8
AM_7
100
AcDbLine
 10
138.1566308114501
 20
166.214828273011
 30
0.0
 11
138.1566308114501
 21
168.214828273011
 31
0.0
  0
LINE
  5
1ECF
330
1F
100
AcDbEntity
  8
AM_7
100
AcDbLine
 10
130.70663081145
 20
167.214828273011
 30
0.0
 11
136.3566308114501
 21
167.214828273011
 31
0.0
  0
LINE
  5
1ED0
330
1F
100
AcDbEntity
  8
AM_7
100
AcDbLine
 10
139.9566308114502
 20
167.214828273011
 30
0.0
 11
145.60663081145
 21
167.214828273011
 31
0.0
  0
LINE
  5
1ED1
102
{ACAD_REACTORS
330
1FC4
102
}
330
1F
100
AcDbEntity
  8
AM_7
100
AcDbLine
 10
138.1566308114501
 20
159.764828273011
 30
0.0
 11
138.1566308114501
 21
165.414828273011
 31
0.0
  0
LINE
  5
1ED2
330
1F
100
AcDbEntity
  8
AM_7
100
AcDbLine
 10
138.1566308114501
 20
169.014828273011
 30
0.0
 11
138.1566308114501
 21
174.664828273011
 31
0.0
  0
LINE
  5
1ED3
330
1F
100
AcDbEntity
  8
AM_7
100
AcDbLine
 10
159.1566308114501
 20
167.214828273011
 30
0.0
 11
161.1566308114501
 21
167.214828273011
 31
0.0
  0
LINE
  5
1ED4
330
1F
100
AcDbEntity
  8
AM_7
100
AcDbLine
 10
160.1566308114501
 20
166.214828273011
 30
0.0
 11
160.1566308114501
 21
168.214828273011
 31
0.0
  0
LINE
  5
1ED5
330
1F
100
AcDbEntity
  8
AM_7
100
AcDbLine
 10
152.7066308114501
 20
167.214828273011
 30
0.0
 11
158.35663081145
 21
167.214828273011
 31
0.0
  0
LINE
  5
1ED6
102
{ACAD_REACTORS
330
20BE
102
}
330
1F
100
AcDbEntity
  8
AM_7
100
AcDbLine
 10
161.9566308114501
 20
167.214828273011
 30
0.0
 11
167.60663081145
 21
167.214828273011
 31
0.0
  0
LINE
  5
1ED7
102
{ACAD_REACTORS
330
1FF4
102
}
330
1F
100
AcDbEntity
  8
AM_7
100
AcDbLine
 10
160.1566308114501
 20
159.764828273011
 30
0.0
 11
160.1566308114501
 21
165.414828273011
 31
0.0
  0
LINE
  5
1ED8
330
1F
100
AcDbEntity
  8
AM_7
100
AcDbLine
 10
160.1566308114501
 20
169.014828273011
 30
0.0
 11
160.1566308114501
 21
174.664828273011
 31
0.0
  0
LINE
  5
1F01
330
1F
100
AcDbEntity
  8
AM_7
100
AcDbLine
 10
160.6566308114501
 20
235.3539974607771
 30
0.0
 11
162.6566308114501
 21
235.3539974607771
 31
0.0
  0
LINE
  5
1F02
330
1F
100
AcDbEntity
  8
AM_7
100
AcDbLine
 10
161.6566308114501
 20
234.3539974607771
 30
0.0
 11
161.6566308114501
 21
236.3539974607771
 31
0.0
  0
LINE
  5
1F03
330
1F
100
AcDbEntity
  8
AM_7
100
AcDbLine
 10
158.8066308114501
 20
235.3539974607771
 30
0.0
 11
159.85663081145
 21
235.3539974607771
 31
0.0
  0
LINE
  5
1F04
330
1F
100
AcDbEntity
  8
AM_7
100
AcDbLine
 10
163.4566308114501
 20
235.3539974607771
 30
0.0
 11
164.5066308114501
 21
235.3539974607771
 31
0.0
  0
LINE
  5
1F05
330
1F
100
AcDbEntity
  8
AM_7
100
AcDbLine
 10
161.6566308114501
 20
232.5039974607771
 30
0.0
 11
161.6566308114501
 21
233.5539974607771
 31
0.0
  0
LINE
  5
1F06
330
1F
100
AcDbEntity
  8
AM_7
100
AcDbLine
 10
161.6566308114501
 20
237.1539974607771
 30
0.0
 11
161.6566308114501
 21
238.2039974607771
 31
0.0
  0
LINE
  5
1F0D
330
1F
100
AcDbEntity
  8
AM_7
100
AcDbLine
 10
160.6566308114501
 20
258.3539974607771
 30
0.0
 11
162.6566308114501
 21
258.3539974607771
 31
0.0
  0
LINE
  5
1F0E
330
1F
100
AcDbEntity
  8
AM_7
100
AcDbLine
 10
161.6566308114501
 20
257.3539974607771
 30
0.0
 11
161.6566308114501
 21
259.3539974607771
 31
0.0
  0
LINE
  5
1F0F
330
1F
100
AcDbEntity
  8
AM_7
100
AcDbLine
 10
158.8066308114501
 20
258.3539974607771
 30
0.0
 11
159.85663081145
 21
258.3539974607771
 31
0.0
  0
LINE
  5
1F10
330
1F
100
AcDbEntity
  8
AM_7
100
AcDbLine
 10
163.4566308114501
 20
258.3539974607771
 30
0.0
 11
164.5066308114501
 21
258.3539974607771
 31
0.0
  0
LINE
  5
1F11
330
1F
100
AcDbEntity
  8
AM_7
100
AcDbLine
 10
161.6566308114501
 20
255.5039974607771
 30
0.0
 11
161.6566308114501
 21
256.5539974607771
 31
0.0
  0
LINE
  5
1F12
330
1F
100
AcDbEntity
  8
AM_7
100
AcDbLine
 10
161.6566308114501
 20
260.1539974607771
 30
0.0
 11
161.6566308114501
 21
261.2039974607772
 31
0.0
  0
LINE
  5
1F13
330
1F
100
AcDbEntity
  8
AM_7
100
AcDbLine
 10
135.6566308114501
 20
252.3539974607771
 30
0.0
 11
137.6566308114501
 21
252.3539974607771
 31
0.0
  0
LINE
  5
1F14
330
1F
100
AcDbEntity
  8
AM_7
100
AcDbLine
 10
136.6566308114501
 20
251.3539974607771
 30
0.0
 11
136.6566308114501
 21
253.3539974607771
 31
0.0
  0
LINE
  5
1F15
330
1F
100
AcDbEntity
  8
AM_7
100
AcDbLine
 10
133.8066308114501
 20
252.3539974607771
 30
0.0
 11
134.8566308114501
 21
252.3539974607771
 31
0.0
  0
LINE
  5
1F16
330
1F
100
AcDbEntity
  8
AM_7
100
AcDbLine
 10
138.4566308114501
 20
252.3539974607771
 30
0.0
 11
139.5066308114501
 21
252.3539974607771
 31
0.0
  0
LINE
  5
1F17
330
1F
100
AcDbEntity
  8
AM_7
100
AcDbLine
 10
136.6566308114501
 20
249.5039974607771
 30
0.0
 11
136.6566308114501
 21
250.5539974607771
 31
0.0
  0
LINE
  5
1F18
330
1F
100
AcDbEntity
  8
AM_7
100
AcDbLine
 10
136.6566308114501
 20
254.1539974607772
 30
0.0
 11
136.6566308114501
 21
255.2039974607771
 31
0.0
  0
LINE
  5
1F1F
330
1F
100
AcDbEntity
  8
AM_7
100
AcDbLine
 10
135.6566308114501
 20
275.3539974607771
 30
0.0
 11
137.6566308114501
 21
275.3539974607771
 31
0.0
  0
LINE
  5
1F20
330
1F
100
AcDbEntity
  8
AM_7
100
AcDbLine
 10
136.6566308114501
 20
274.3539974607771
 30
0.0
 11
136.6566308114501
 21
276.3539974607771
 31
0.0
  0
LINE
  5
1F21
330
1F
100
AcDbEntity
  8
AM_7
100
AcDbLine
 10
133.8066308114501
 20
275.3539974607771
 30
0.0
 11
134.8566308114501
 21
275.3539974607771
 31
0.0
  0
LINE
  5
1F22
330
1F
100
AcDbEntity
  8
AM_7
100
AcDbLine
 10
138.4566308114501
 20
275.3539974607771
 30
0.0
 11
139.5066308114501
 21
275.3539974607771
 31
0.0
  0
LINE
  5
1F23
330
1F
100
AcDbEntity
  8
AM_7
100
AcDbLine
 10
136.6566308114501
 20
272.5039974607771
 30
0.0
 11
136.6566308114501
 21
273.5539974607771
 31
0.0
  0
LINE
  5
1F24
330
1F
100
AcDbEntity
  8
AM_7
100
AcDbLine
 10
136.6566308114501
 20
277.1539974607772
 30
0.0
 11
136.6566308114501
 21
278.2039974607771
 31
0.0
  0
LINE
  5
1F25
330
1F
100
AcDbEntity
  8
AM_7
100
AcDbLine
 10
148.1566308114501
 20
222.8539974607771
 30
0.0
 11
150.1566308114501
 21
222.8539974607771
 31
0.0
  0
LINE
  5
1F26
330
1F
100
AcDbEntity
  8
AM_7
100
AcDbLine
 10
149.1566308114501
 20
221.8539974607771
 30
0.0
 11
149.1566308114501
 21
223.8539974607771
 31
0.0
  0
LINE
  5
1F27
330
1F
100
AcDbEntity
  8
AM_7
100
AcDbLine
 10
145.30663081145
 20
222.8539974607771
 30
0.0
 11
147.35663081145
 21
222.8539974607771
 31
0.0
  0
LINE
  5
1F28
102
{ACAD_REACTORS
330
2068
102
}
330
1F
100
AcDbEntity
  8
AM_7
100
AcDbLine
 10
150.9566308114501
 20
222.8539974607771
 30
0.0
 11
153.0066308114501
 21
222.8539974607771
 31
0.0
  0
LINE
  5
1F29
102
{ACAD_REACTORS
330
2040
102
}
330
1F
100
AcDbEntity
  8
AM_7
100
AcDbLine
 10
149.1566308114501
 20
219.0039974607771
 30
0.0
 11
149.1566308114501
 21
221.0539974607771
 31
0.0
  0
LINE
  5
1F2A
330
1F
100
AcDbEntity
  8
AM_7
100
AcDbLine
 10
149.1566308114501
 20
224.6539974607771
 30
0.0
 11
149.1566308114501
 21
226.7039974607771
 31
0.0
  0
LINE
  5
1F2B
330
1F
100
AcDbEntity
  8
AM_7
100
AcDbLine
 10
148.1566308114501
 20
287.8539974607771
 30
0.0
 11
150.1566308114501
 21
287.8539974607771
 31
0.0
  0
LINE
  5
1F2C
330
1F
100
AcDbEntity
  8
AM_7
100
AcDbLine
 10
149.1566308114501
 20
286.8539974607771
 30
0.0
 11
149.1566308114501
 21
288.8539974607771
 31
0.0
  0
LINE
  5
1F2D
330
1F
100
AcDbEntity
  8
AM_7
100
AcDbLine
 10
145.30663081145
 20
287.8539974607771
 30
0.0
 11
147.35663081145
 21
287.8539974607771
 31
0.0
  0
LINE
  5
1F2E
102
{ACAD_REACTORS
330
2092
102
}
330
1F
100
AcDbEntity
  8
AM_7
100
AcDbLine
 10
150.9566308114501
 20
287.8539974607771
 30
0.0
 11
153.0066308114501
 21
287.8539974607771
 31
0.0
  0
LINE
  5
1F2F
330
1F
100
AcDbEntity
  8
AM_7
100
AcDbLine
 10
149.1566308114501
 20
284.0039974607771
 30
0.0
 11
149.1566308114501
 21
286.0539974607771
 31
0.0
  0
LINE
  5
1F30
330
1F
100
AcDbEntity
  8
AM_7
100
AcDbLine
 10
149.1566308114501
 20
289.6539974607772
 30
0.0
 11
149.1566308114501
 21
291.7039974607771
 31
0.0
  0
LINE
  5
1F37
330
1F
100
AcDbEntity
  8
AM_VIS
100
AcDbLine
 10
128.1566308114501
 20
185.214828273011
 30
0.0
 11
170.1566308114501
 21
185.214828273011
 31
0.0
  0
LINE
  5
1F38
102
{ACAD_REACTORS
330
20E4
102
}
330
1F
100
AcDbEntity
  8
AM_VIS
100
AcDbLine
 10
170.1566308114501
 20
185.214828273011
 30
0.0
 11
170.1566308114501
 21
157.214828273011
 31
0.0
  0
LINE
  5
1F39
102
{ACAD_REACTORS
330
20BE
102
}
330
1F
100
AcDbEntity
  8
AM_VIS
100
AcDbLine
 10
170.1566308114501
 20
157.214828273011
 30
0.0
 11
128.1566308114501
 21
157.214828273011
 31
0.0
  0
LINE
  5
1F3A
102
{ACAD_REACTORS
330
1FC4
102
}
330
1F
100
AcDbEntity
  8
AM_VIS
100
AcDbLine
 10
128.1566308114501
 20
157.214828273011
 30
0.0
 11
128.1566308114501
 21
185.214828273011
 31
0.0
  0
LINE
  5
1F41
330
1F
100
AcDbEntity
  8
AM_VIS
100
AcDbLine
 10
170.1566308114501
 20
216.8539974607771
 30
0.0
 11
170.1566308114501
 21
293.8539974607771
 31
0.0
  0
LINE
  5
1F42
330
1F
100
AcDbEntity
  8
AM_VIS
100
AcDbLine
 10
128.1566308114501
 20
216.8539974607771
 30
0.0
 11
128.1566308114501
 21
293.8539974607771
 31
0.0
  0
LINE
  5
1F44
102
{ACAD_REACTORS
330
2092
102
}
330
1F
100
AcDbEntity
  8
AM_VIS
100
AcDbLine
 10
170.1566308114501
 20
293.8539974607771
 30
0.0
 11
128.1566308114501
 21
293.8539974607771
 31
0.0
  0
LINE
  5
1F45
102
{ACAD_REACTORS
330
201A
102
}
330
1F
100
AcDbEntity
  8
AM_VIS
100
AcDbLine
 10
128.1566308114501
 20
216.8539974607771
 30
0.0
 11
170.1566308114501
 21
216.8539974607771
 31
0.0
  0
CIRCLE
  5
1F52
330
1F
100
AcDbEntity
  8
AM_VIS
100
AcDbCircle
 10
149.1566308114501
 20
222.8539974607771
 30
0.0
 40
2.25
  0
CIRCLE
  5
1F53
330
1F
100
AcDbEntity
  8
AM_VIS
100
AcDbCircle
 10
149.1566308114501
 20
287.8539974607771
 30
0.0
 40
2.25
  0
LINE
  5
1F5F
330
1F
100
AcDbEntity
  8
AM_VIS
100
AcDbLine
 10
225.281666134603
 20
216.8539974607771
 30
0.0
 11
225.281666134603
 21
293.8539974607771
 31
0.0
  0
LINE
  5
1F60
330
1F
100
AcDbEntity
  8
AM_VIS
100
AcDbLine
 10
197.281666134603
 20
216.8539974607771
 30
0.0
 11
197.281666134603
 21
293.8539974607771
 31
0.0
  0
LINE
  5
1F61
330
1F
100
AcDbEntity
  8
AM_VIS
100
AcDbLine
 10
225.281666134603
 20
293.8539974607771
 30
0.0
 11
197.281666134603
 21
293.8539974607771
 31
0.0
  0
LINE
  5
1F62
330
1F
100
AcDbEntity
  8
AM_VIS
100
AcDbLine
 10
197.281666134603
 20
216.8539974607771
 30
0.0
 11
225.281666134603
 21
216.8539974607771
 31
0.0
  0
ARC
  5
1F8E
330
1F
100
AcDbEntity
  8
AM_4
100
AcDbCircle
 10
138.1566308114501
 20
167.214828273011
 30
0.0
 40
6.899999999999999
100
AcDbArc
 50
260.0
 51
170.0
  0
CIRCLE
  5
1F8F
330
1F
100
AcDbEntity
  8
AM_0
100
AcDbCircle
 10
138.1566308114501
 20
167.214828273011
 30
0.0
 40
5.7225
  0
ARC
  5
1F90
330
1F
100
AcDbEntity
  8
AM_4
100
AcDbCircle
 10
160.1566308114501
 20
167.214828273011
 30
0.0
 40
6.899999999999999
100
AcDbArc
 50
260.0
 51
170.0
  0
CIRCLE
  5
1F91
330
1F
100
AcDbEntity
  8
AM_0
100
AcDbCircle
 10
160.1566308114501
 20
167.214828273011
 30
0.0
 40
5.7225
  0
DIMENSION
  5
1FB6
102
{ACAD_XDICTIONARY
360
1FC3
102
}
102
{ACAD_REACTORS
330
1FC4
102
}
330
1F
100
AcDbEntity
  8
AM_5
100
AcDbDimension
  2
*D9
 10
138.1566308114501
 20
145.2148282730109
 30
0.0
 11
133.1566308114501
 21
147.7148282730109
 31
0.0
 70
    32
 71
     5
 42
10.0
  3
AM_ISO$0
100
AcDbAlignedDimension
 13
128.1566308114501
 23
157.214828273011
 33
0.0
 14
138.1566308114501
 24
159.764828273011
 34
0.0
 50
0.0000000000002036
100
AcDbRotatedDimension
1001
ACAD
1000
DSTYLE
1002
{
1070
    40
1040
1.0
1070
   144
1040
1.0
1070
   272
1070
     8
1002
}
  0
DIMENSION
  5
1FE6
102
{ACAD_XDICTIONARY
360
1FF3
102
}
102
{ACAD_REACTORS
330
1FF4
102
}
330
1F
100
AcDbEntity
  8
AM_5
100
AcDbDimension
  2
*D10
 10
160.1566308114501
 20
145.214828273011
 30
0.0
 11
149.1566308114501
 21
147.7151235486016
 31
0.0
 70
    32
 71
     5
 42
22.0
  3
AM_ISO$0
100
AcDbAlignedDimension
 13
138.1566308114501
 23
159.764828273011
 33
0.0
 14
160.1566308114501
 24
159.764828273011
 34
0.0
 50
0.0000000000002036
100
AcDbRotatedDimension
1001
ACAD
1000
DSTYLE
1002
{
1070
    40
1040
1.0
1070
   144
1040
1.0
1070
   272
1070
     8
1002
}
  0
DIMENSION
  5
200C
102
{ACAD_XDICTIONARY
360
2019
102
}
102
{ACAD_REACTORS
330
201A
102
}
330
1F
100
AcDbEntity
  8
AM_5
100
AcDbDimension
  2
*D11
 10
170.1566308114501
 20
196.8539974607772
 30
0.0
 11
149.1566308114501
 21
199.3542927363677
 31
0.0
 70
    32
 71
     5
 42
42.0
  3
AM_ISO$0
100
AcDbAlignedDimension
 13
128.1566308114501
 23
216.8539974607771
 33
0.0
 14
170.1566308114501
 24
216.8539974607771
 34
0.0
 50
0.0000000000001018
100
AcDbRotatedDimension
1001
ACAD
1000
DSTYLE
1002
{
1070
    40
1040
1.0
1070
   144
1040
1.0
1070
   272
1070
     8
1002
}
  0
DIMENSION
  5
2032
102
{ACAD_XDICTIONARY
360
203F
102
}
102
{ACAD_REACTORS
330
2040
102
}
330
1F
100
AcDbEntity
  8
AM_5
100
AcDbDimension
  2
*D12
 10
149.1566308114501
 20
204.8539974607771
 30
0.0
 11
138.6566308114501
 21
207.3542927363677
 31
0.0
 70
    32
 71
     5
 42
21.0
  3
AM_ISO$0
100
AcDbAlignedDimension
 13
128.1566308114501
 23
216.8539974607771
 33
0.0
 14
149.1566308114501
 24
219.0039974607771
 34
0.0
 50
0.0000000000001018
100
AcDbRotatedDimension
1001
ACAD
1000
DSTYLE
1002
{
1070
    40
1040
1.0
1070
   144
1040
1.0
1070
   272
1070
     8
1002
}
  0
DIMENSION
  5
2058
102
{ACAD_XDICTIONARY
360
2067
102
}
102
{ACAD_REACTORS
330
2068
102
}
330
1F
100
AcDbEntity
  8
AM_5
100
AcDbDimension
  2
*D13
 10
182.1566308114501
 20
222.8539974607771
 30
0.0
 11
179.65663081145
 21
219.8539974607772
 31
0.0
 70
    32
 71
     5
 42
6.0
  3
AM_ISO$0
100
AcDbAlignedDimension
 13
170.1566308114501
 23
216.8539974607771
 33
0.0
 14
153.0066308114501
 24
222.8539974607771
 34
0.0
 50
90.0
100
AcDbRotatedDimension
1001
ACAD
1000
DSTYLE
1002
{
1070
    40
1040
1.0
1070
   144
1040
1.0
1070
   272
1070
     8
1002
}
  0
DIMENSION
  5
2082
102
{ACAD_XDICTIONARY
360
2091
102
}
102
{ACAD_REACTORS
330
2092
102
}
330
1F
100
AcDbEntity
  8
AM_5
100
AcDbDimension
  2
*D14
 10
182.1566308114501
 20
293.8539974607771
 30
0.0
 11
179.65663081145
 21
290.8539974607772
 31
0.0
 70
    32
 71
     5
 42
6.0
  3
AM_ISO$0
100
AcDbAlignedDimension
 13
153.0066308114501
 23
287.8539974607771
 33
0.0
 14
170.1566308114501
 24
293.8539974607771
 34
0.0
 50
90.0
100
AcDbRotatedDimension
1001
ACAD
1000
DSTYLE
1002
{
1070
    40
1040
1.0
1070
   144
1040
1.0
1070
   272
1070
     8
1002
}
  0
DIMENSION
  5
20B0
102
{ACAD_XDICTIONARY
360
20BD
102
}
102
{ACAD_REACTORS
330
20BE
102
}
330
1F
100
AcDbEntity
  8
AM_5
100
AcDbDimension
  2
*D15
 10
182.1566318114501
 20
167.214828273011
 30
0.0
 11
179.65663181145
 21
162.214828273011
 31
0.0
 70
    32
 71
     5
 42
10.0
  3
AM_ISO$0
100
AcDbAlignedDimension
 13
170.1566308114501
 23
157.214828273011
 33
0.0
 14
167.60663081145
 24
167.214828273011
 34
0.0
 50
90.0
100
AcDbRotatedDimension
1001
ACAD
1000
DSTYLE
1002
{
1070
    40
1040
1.0
1070
   144
1040
1.0
1070
   272
1070
     8
1002
}
  0
DIMENSION
  5
20D6
102
{ACAD_XDICTIONARY
360
20E3
102
}
102
{ACAD_REACTORS
330
20E4
102
}
330
1F
100
AcDbEntity
  8
AM_5
100
AcDbDimension
  2
*D16
 10
190.1566318114501
 20
185.214828273011
 30
0.0
 11
187.6563365358595
 21
171.214828273011
 31
0.0
 70
    32
 71
     5
 42
28.0
  3
AM_ISO$0
100
AcDbAlignedDimension
 13
170.1566308114501
 23
157.214828273011
 33
0.0
 14
170.1566308114501
 24
185.214828273011
 34
0.0
 50
90.0
100
AcDbRotatedDimension
1001
ACAD
1000
DSTYLE
1002
{
1070
    40
1040
1.0
1070
   144
1040
1.0
1070
   272
1070
     8
1002
}
  0
TEXT
  5
23D5
330
1F
100
AcDbEntity
  8
AM_5
100
AcDbText
 10
174.3524654945324
 20
147.2146046084769
 30
0.0
 40
3.5
  1
2-PT1/4
100
AcDbText
  0
INSERT
  5
23D6
330
1F
100
AcDbEntity
  8
AM_5
100
AcDbBlockReference
  2
*S18
 10
-147.0306989655787
 20
0.0
 30
0.0
  0
TEXT
  5
23D8
330
1F
100
AcDbEntity
  8
AM_5
100
AcDbText
 10
179.5088713499928
 20
201.8857348054341
 30
0.0
 40
3.5
  1
2-%%C4.5
100
AcDbText
  0
INSERT
  5
23D9
330
1F
100
AcDbEntity
  8
AM_5
100
AcDbBlockReference
  2
*S19
 10
-147.0306989655787
 20
0.0
 30
0.0
  0
LINE
  5
2914
330
1F
100
AcDbEntity
  8
AM_7
100
AcDbLine
 10
149.1566308114501
 20
213.8539974607771
 30
0.0
 11
149.1566308114501
 21
296.8539974607771
 31
0.0
1001
GENIUS_GENODEF_13
1002
{
1000
HIER
1070
     0
1002
}
1002
{
1000
MANEDIT
1070
     0
1002
}
1002
{
1000
NOSEL
1070
     0
1002
}
1002
{
1000
BEHIND
1070
     0
1002
}
1002
{
1000
OTHER
1070
     0
1002
}
1002
{
1000
REACTOR
1002
}
1001
GENIUS_GENOBJ-N-CEN_13
1002
{
1000
OWNER
1000
GEN
1002
}
1001
GENIUS_GENCEN_19
1002
{
1040
3.0
1002
}
  0
LINE
  5
2923
330
1F
100
AcDbEntity
  8
AM_7
100
AcDbLine
 10
149.1566308114501
 20
154.214828273011
 30
0.0
 11
149.1566308114501
 21
188.214828273011
 31
0.0
1001
GENIUS_GENODEF_13
1002
{
1000
HIER
1070
     0
1002
}
1002
{
1000
MANEDIT
1070
     0
1002
}
1002
{
1000
NOSEL
1070
     0
1002
}
1002
{
1000
BEHIND
1070
     0
1002
}
1002
{
1000
OTHER
1070
     0
1002
}
1002
{
1000
REACTOR
1002
}
1001
GENIUS_GENOBJ-N-CEN_13
1002
{
1000
OWNER
1000
GEN
1002
}
1001
GENIUS_GENCEN_19
1002
{
1040
3.0
1002
}
  0
LINE
  5
2BCD
330
1F
100
AcDbEntity
  8
LOGO
 62
     6
100
AcDbLine
 10
223.0822020915027
 20
117.664479677265
 30
0.0
 11
218.2810116062503
 21
117.664479677265
 31
0.0
  0
LINE
  5
2BCE
330
1F
100
AcDbEntity
  8
LOGO
 62
     6
100
AcDbLine
 10
218.2810116062503
 20
116.1083183058366
 30
0.0
 11
218.2810116062503
 21
117.664479677265
 31
0.0
  0
ENDSEC
  0
SECTION
  2
OBJECTS
  0
DICTIONARY
  5
C
330
0
100
AcDbDictionary
281
     1
  3
ACAD_COLOR
350
7D1
  3
ACAD_GROUP
350
D
  3
ACAD_LAYOUT
350
1A
  3
ACAD_MATERIAL
350
7D0
  3
ACAD_MLINESTYLE
350
17
  3
ACAD_PLOTSETTINGS
350
19
  3
ACAD_PLOTSTYLENAME
350
E
  3
ACAD_TABLESTYLE
350
7D2
  3
ACDBHEADERROUNDTRIPXREC
350
2BE4
  3
AcDbVariableDictionary
350
82
  3
AcmDictionary
350
45
  3
AMG
350
2B
  3
AMGSNAPSETTINGS
350
87
  3
DWGPROPS
350
2BE3
  0
DICTIONARY
  5
AAB
330
2
100
AcDbDictionary
280
     1
281
     1
  3
ACAD_LAYERSTATES
360
AAC
  0
DICTIONARY
  5
7D
330
1F
100
AcDbDictionary
280
     1
281
     1
  3
ACAD_SORTENTS
360
EEA
  0
DICTIONARY
  5
1FC3
330
1FB6
100
AcDbDictionary
280
     1
281
     1
  3
ACAD_DIMASSOC
360
1FC4
  0
DICTIONARY
  5
1FF3
330
1FE6
100
AcDbDictionary
280
     1
281
     1
  3
ACAD_DIMASSOC
360
1FF4
  0
DICTIONARY
  5
2019
330
200C
100
AcDbDictionary
280
     1
281
     1
  3
ACAD_DIMASSOC
360
201A
  0
DICTIONARY
  5
203F
330
2032
100
AcDbDictionary
280
     1
281
     1
  3
ACAD_DIMASSOC
360
2040
  0
DICTIONARY
  5
2067
330
2058
100
AcDbDictionary
280
     1
281
     1
  3
ACAD_DIMASSOC
360
2068
  0
DICTIONARY
  5
2091
330
2082
100
AcDbDictionary
280
     1
281
     1
  3
ACAD_DIMASSOC
360
2092
  0
DICTIONARY
  5
20BD
330
20B0
100
AcDbDictionary
280
     1
281
     1
  3
ACAD_DIMASSOC
360
20BE
  0
DICTIONARY
  5
20E3
330
20D6
100
AcDbDictionary
280
     1
281
     1
  3
ACAD_DIMASSOC
360
20E4
  0
DICTIONARY
  5
7D1
102
{ACAD_REACTORS
330
C
102
}
330
C
100
AcDbDictionary
281
     1
  0
DICTIONARY
  5
D
102
{ACAD_REACTORS
330
C
102
}
330
C
100
AcDbDictionary
281
     1
  0
DICTIONARY
  5
1A
102
{ACAD_REACTORS
330
C
102
}
330
C
100
AcDbDictionary
281
     1
  3
Layout1
350
1E
  3
Layout2
350
26
  3
Model
350
22
  0
DICTIONARY
  5
7D0
102
{ACAD_REACTORS
330
C
102
}
330
C
100
AcDbDictionary
281
     1
  0
DICTIONARY
  5
17
102
{ACAD_REACTORS
330
C
102
}
330
C
100
AcDbDictionary
281
     1
  3
Standard
350
18
  0
DICTIONARY
  5
19
102
{ACAD_REACTORS
330
C
102
}
330
C
100
AcDbDictionary
281
     1
  0
ACDBDICTIONARYWDFLT
  5
E
102
{ACAD_REACTORS
330
C
102
}
330
C
100
AcDbDictionary
281
     1
  3
Normal
350
F
100
AcDbDictionaryWithDefault
340
F
  0
DICTIONARY
  5
7D2
102
{ACAD_REACTORS
330
C
102
}
330
C
100
AcDbDictionary
281
     1
  3
Standard
350
7D3
  0
DICTIONARY
  5
2BE4
102
{ACAD_REACTORS
330
C
102
}
330
C
100
AcDbDictionary
281
     1
  0
DICTIONARY
  5
82
102
{ACAD_REACTORS
330
C
102
}
330
C
100
AcDbDictionary
281
     1
  3
CTABLESTYLE
350
847
  3
DIMASSOC
350
85
  3
HIDETEXT
350
84
  3
INDEXCTL
350
83
  3
PROJECTNAME
350
848
  0
DICTIONARY
  5
45
102
{ACAD_REACTORS
330
C
102
}
330
C
100
AcDbDictionary
281
     1
  3
AcmStdDictionary
350
4A
  3
AMDTSECTSYM_ARROWCOLOR
350
7DF
  0
DICTIONARY
  5
2B
102
{ACAD_REACTORS
330
C
102
}
330
C
100
AcDbDictionary
281
     1
  0
DICTIONARY
  5
87
102
{ACAD_REACTORS
330
C
102
}
330
C
100
AcDbDictionary
281
     1
  0
XRECORD
  5
2BE3
102
{ACAD_REACTORS
330
C
102
}
330
C
100
AcDbXrecord
280
     1
  1
DWGPROPS COOKIE
  2

  3

  4

  6

  7

  8

  9

300
AmdtFileType=84
301
=
302
=
303
=
304
=
305
=
306
=
307
=
308
=
309
=
 40
0.4104561111111112
 41
2453021.369367211
 42
2453559.602850475
  1

 90
        1
  0
DICTIONARY
  5
AAC
102
{ACAD_REACTORS
330
AAB
102
}
330
AAB
100
AcDbDictionary
281
     1
  0
SORTENTSTABLE
  5
EEA
102
{ACAD_REACTORS
330
7D
102
}
330
7D
100
AcDbSortentsTable
330
1F
331
1445
  5
1445
331
13F6
  5
13F6
331
144D
  5
144D
331
1604
  5
1604
331
163B
  5
163B
331
1F02
  5
1F02
331
1F39
  5
1F39
331
13FE
  5
13FE
331
1455
  5
1455
331
1F41
  5
1F41
331
145D
  5
145D
331
1F12
  5
1F12
331
1465
  5
1465
331
1F61
  5
1F61
331
146D
  5
146D
331
1F22
  5
1F22
331
143E
  5
143E
331
1475
  5
1475
331
1F2A
  5
1F2A
331
1ED3
  5
1ED3
331
1634
  5
1634
331
13F7
  5
13F7
331
144E
  5
144E
331
1605
  5
1605
331
163C
  5
163C
331
1F03
  5
1F03
331
1F3A
  5
1F3A
331
13FF
  5
13FF
331
1456
  5
1456
331
1644
  5
1644
331
1F42
  5
1F42
331
1F52
  5
1F52
331
1615
  5
1615
331
1F13
  5
1F13
331
1466
  5
1466
331
161D
  5
161D
331
1F62
  5
1F62
331
146E
  5
146E
331
1F23
  5
1F23
331
143F
  5
143F
331
1476
  5
1476
331
162D
  5
162D
331
1F2B
  5
1F2B
331
1ED4
  5
1ED4
331
1635
  5
1635
331
13F8
  5
13F8
331
163D
  5
163D
331
1F04
  5
1F04
331
1400
  5
1400
331
1457
  5
1457
331
1F53
  5
1F53
331
1616
  5
1616
331
1F14
  5
1F14
331
1467
  5
1467
331
146F
  5
146F
331
1626
  5
1626
331
1F24
  5
1F24
331
1ECD
  5
1ECD
331
1477
  5
1477
331
162E
  5
162E
331
1F2C
  5
1F2C
331
1ED5
  5
1ED5
331
1440
  5
1440
331
13F1
  5
13F1
331
1636
  5
1636
331
13F9
  5
13F9
331
163E
  5
163E
331
1F05
  5
1F05
331
1401
  5
1401
331
1458
  5
1458
331
160F
  5
160F
331
1F0D
  5
1F0D
331
1F44
  5
1F44
331
1F15
  5
1F15
331
1470
  5
1470
331
1627
  5
1627
331
1F25
  5
1F25
331
1ECE
  5
1ECE
331
1478
  5
1478
331
162F
  5
162F
331
1F2D
  5
1F2D
331
1ED6
  5
1ED6
331
1441
  5
1441
331
13F2
  5
13F2
331
1449
  5
1449
331
1637
  5
1637
331
13FA
  5
13FA
331
1F06
  5
1F06
331
1402
  5
1402
331
1459
  5
1459
331
1610
  5
1610
331
1F0E
  5
1F0E
331
1F45
  5
1F45
331
1F16
  5
1F16
331
1461
  5
1461
331
1432
  5
1432
331
1620
  5
1620
331
1471
  5
1471
331
1628
  5
1628
331
1F26
  5
1F26
331
1479
  5
1479
331
1ECF
  5
1ECF
331
1F2E
  5
1F2E
331
1ED7
  5
1ED7
331
1442
  5
1442
331
1630
  5
1630
331
13F3
  5
13F3
331
1638
  5
1638
331
13FB
  5
13FB
331
1452
  5
1452
331
1640
  5
1640
331
1403
  5
1403
331
1F0F
  5
1F0F
331
1F17
  5
1F17
331
1433
  5
1433
331
1F1F
  5
1F1F
331
1472
  5
1472
331
1629
  5
1629
331
1F27
  5
1F27
331
1ED0
  5
1ED0
331
1F2F
  5
1F2F
331
1443
  5
1443
331
1631
  5
1631
331
1ED8
  5
1ED8
331
1602
  5
1602
331
1639
  5
1639
331
1F37
  5
1F37
331
13F4
  5
13F4
331
1453
  5
1453
331
160A
  5
160A
331
1641
  5
1641
331
13FC
  5
13FC
331
1F10
  5
1F10
331
1404
  5
1404
331
161A
  5
161A
331
1F18
  5
1F18
331
1424
  5
1424
331
1F5F
  5
1F5F
331
146B
  5
146B
331
1F20
  5
1F20
331
1434
  5
1434
331
1473
  5
1473
331
1F28
  5
1F28
331
1ED1
  5
1ED1
331
1444
  5
1444
331
1632
  5
1632
331
1F30
  5
1F30
331
1603
  5
1603
331
163A
  5
163A
331
1F01
  5
1F01
331
1F38
  5
1F38
331
13F5
  5
13F5
331
1454
  5
1454
331
160B
  5
160B
331
1642
  5
1642
331
13FD
  5
13FD
331
1F11
  5
1F11
331
1405
  5
1405
331
1F60
  5
1F60
331
146C
  5
146C
331
1623
  5
1623
331
1F21
  5
1F21
331
1474
  5
1474
331
1F29
  5
1F29
331
143D
  5
143D
331
1ED2
  5
1ED2
  0
DIMASSOC
  5
1FC4
102
{ACAD_REACTORS
330
1FC3
102
}
330
1FC3
100
AcDbDimAssoc
330
1FB6
 90
        3
 70
     0
 71
     0
  1
AcDbOsnapPointRef
 72
    13
331
1F3A
 73
     0
 91
        0
 40
0.0
 10
0.0
 20
0.0
 30
2.000000000000000E+50
 75
     0
  1
AcDbOsnapPointRef
 72
    13
331
1ED1
 73
     0
 91
        0
 40
0.0
 10
0.0
 20
0.0
 30
2.000000000000000E+50
 75
     0
  0
DIMASSOC
  5
1FF4
102
{ACAD_REACTORS
330
1FF3
102
}
330
1FF3
100
AcDbDimAssoc
330
1FE6
 90
        2
 70
     0
 71
     0
  1
AcDbOsnapPointRef
 72
    13
331
1ED7
 73
     0
 91
        0
 40
0.0
 10
0.0
 20
0.0
 30
2.000000000000000E+50
 75
     0
  0
DIMASSOC
  5
201A
102
{ACAD_REACTORS
330
2019
102
}
330
2019
100
AcDbDimAssoc
330
200C
 90
        3
 70
     0
 71
     0
  1
AcDbOsnapPointRef
 72
    13
331
1F45
 73
     0
 91
        0
 40
0.0
 10
0.0
 20
0.0
 30
2.000000000000000E+50
 75
     0
  1
AcDbOsnapPointRef
 72
     1
331
1F45
 73
     0
 91
        0
 40
0.0
 10
0.0
 20
0.0
 30
2.000000000000000E+50
 75
     0
  0
DIMASSOC
  5
2040
102
{ACAD_REACTORS
330
203F
102
}
330
203F
100
AcDbDimAssoc
330
2032
 90
        2
 70
     0
 71
     0
  1
AcDbOsnapPointRef
 72
    13
331
1F29
 73
     0
 91
        0
 40
0.0
 10
0.0
 20
0.0
 30
2.000000000000000E+50
 75
     0
  0
DIMASSOC
  5
2068
102
{ACAD_REACTORS
330
2067
102
}
330
2067
100
AcDbDimAssoc
330
2058
 90
        2
 70
     0
 71
     0
  1
AcDbOsnapPointRef
 72
     1
331
1F28
 73
     0
 91
        0
 40
0.0
 10
0.0
 20
0.0
 30
2.000000000000000E+50
 75
     0
  0
DIMASSOC
  5
2092
102
{ACAD_REACTORS
330
2091
102
}
330
2091
100
AcDbDimAssoc
330
2082
 90
        3
 70
     0
 71
     0
  1
AcDbOsnapPointRef
 72
     1
331
1F2E
 73
     0
 91
        0
 40
0.0
 10
0.0
 20
0.0
 30
2.000000000000000E+50
 75
     0
  1
AcDbOsnapPointRef
 72
    13
331
1F44
 73
     0
 91
        0
 40
0.0
 10
0.0
 20
0.0
 30
2.000000000000000E+50
 75
     0
  0
DIMASSOC
  5
20BE
102
{ACAD_REACTORS
330
20BD
102
}
330
20BD
100
AcDbDimAssoc
330
20B0
 90
        3
 70
     0
 71
     0
  1
AcDbOsnapPointRef
 72
    13
331
1F39
 73
     0
 91
        0
 40
0.0
 10
0.0
 20
0.0
 30
2.000000000000000E+50
 75
     0
  1
AcDbOsnapPointRef
 72
     1
331
1ED6
 73
     0
 91
        0
 40
0.0
 10
0.0
 20
0.0
 30
2.000000000000000E+50
 75
     0
  0
DIMASSOC
  5
20E4
102
{ACAD_REACTORS
330
20E3
102
}
330
20E3
100
AcDbDimAssoc
330
20D6
 90
        2
 70
     0
 71
     0
  1
AcDbOsnapPointRef
 72
    13
331
1F38
 73
     0
 91
        0
 40
0.0
 10
0.0
 20
0.0
 30
2.000000000000000E+50
 75
     0
  0
LAYOUT
  5
1E
102
{ACAD_XDICTIONARY
360
2BE5
102
}
102
{ACAD_REACTORS
330
1A
102
}
330
1A
100
AcDbPlotSettings
  1

  2
自動 RD 上的 Epson Stylus Photo 750 單色
  4

  6

 40
0.0
 41
0.0
 42
0.0
 43
0.0
 44
0.0
 45
0.0
 46
0.0
 47
0.0
 48
0.0
 49
0.0
140
0.0
141
0.0
142
1.0
143
1.0
 70
   688
 72
     0
 73
     0
 74
     5
  7
彩色出圖.ctb
 75
    16
147
1.0
148
0.0
149
0.0
100
AcDbLayout
  1
Layout1
 70
     1
 71
     1
 10
0.0
 20
0.0
 11
420.0
 21
297.0
 12
0.0
 22
0.0
 32
0.0
 14
1.000000000000000E+20
 24
1.000000000000000E+20
 34
1.000000000000000E+20
 15
-1.000000000000000E+20
 25
-1.000000000000000E+20
 35
-1.000000000000000E+20
146
0.0
 13
0.0
 23
0.0
 33
0.0
 16
1.0
 26
0.0
 36
0.0
 17
0.0
 27
1.0
 37
0.0
 76
     0
330
1B
  0
LAYOUT
  5
26
102
{ACAD_XDICTIONARY
360
2BE9
102
}
102
{ACAD_REACTORS
330
1A
102
}
330
1A
100
AcDbPlotSettings
  1

  2
自動 RD 上的 Epson Stylus Photo 750 單色
  4

  6

 40
0.0
 41
0.0
 42
0.0
 43
0.0
 44
0.0
 45
0.0
 46
0.0
 47
0.0
 48
0.0
 49
0.0
140
0.0
141
0.0
142
1.0
143
1.0
 70
   688
 72
     0
 73
     0
 74
     5
  7
彩色出圖.ctb
 75
    16
147
1.0
148
0.0
149
0.0
100
AcDbLayout
  1
Layout2
 70
     1
 71
     2
 10
0.0
 20
0.0
 11
12.0
 21
9.0
 12
0.0
 22
0.0
 32
0.0
 14
0.0
 24
0.0
 34
0.0
 15
0.0
 25
0.0
 35
0.0
146
0.0
 13
0.0
 23
0.0
 33
0.0
 16
1.0
 26
0.0
 36
0.0
 17
0.0
 27
1.0
 37
0.0
 76
     0
330
23
  0
LAYOUT
  5
22
102
{ACAD_XDICTIONARY
360
2BE7
102
}
102
{ACAD_REACTORS
330
1A
102
}
330
1A
100
AcDbPlotSettings
  1

  2
自動 RD 上的 Epson Stylus Photo 750 單色
  4
A4
  6

 40
3.757083177566528
 41
14.7637300491333
 42
3.757080078125
 43
3.757080078125
 44
209.9733276367187
 45
296.9683227539062
 46
7.54
 47
0.0
 48
0.0
 49
0.0
140
0.0
141
0.0
142
1.0
143
1.817317462545654
 70
 11956
 72
     1
 73
     0
 74
     1
  7
彩色出圖.ctb
 75
     0
147
0.5502615919395967
148
-125.5654918467224
149
222.8859553785132
100
AcDbLayout
  1
Model
 70
     1
 71
     0
 10
0.0
 20
0.0
 11
12.0
 21
9.0
 12
0.0
 22
0.0
 32
0.0
 14
0.0
 24
0.0
 34
0.0
 15
0.0
 25
0.0
 35
0.0
146
0.0
 13
0.0
 23
0.0
 33
0.0
 16
1.0
 26
0.0
 36
0.0
 17
0.0
 27
1.0
 37
0.0
 76
     0
330
1F
  0
MLINESTYLE
  5
18
102
{ACAD_REACTORS
330
17
102
}
330
17
100
AcDbMlineStyle
  2
STANDARD
 70
     0
  3

 62
   256
 51
90.0
 52
90.0
 71
     2
 49
0.5
 62
   256
  6
BYLAYER
 49
-0.5
 62
   256
  6
BYLAYER
  0
ACDBPLACEHOLDER
  5
F
102
{ACAD_REACTORS
330
E
102
}
330
E
  0
TABLESTYLE
  5
7D3
102
{ACAD_REACTORS
330
7D2
102
}
330
7D2
100
AcDbTableStyle
  3
Standard
 70
     0
 71
     0
 40
1.5
 41
1.5
280
     0
281
     0
  7
STANDARD
140
4.5
170
     2
 62
     0
 63
     7
283
     0
274
    -2
284
     1
 64
     0
275
    -2
285
     1
 65
     0
276
    -2
286
     1
 66
     0
277
    -2
287
     1
 67
     0
278
    -2
288
     1
 68
     0
279
    -2
289
     1
 69
     0
  7
STANDARD
140
6.0
170
     5
 62
     0
 63
     7
283
     0
274
    -2
284
     1
 64
     0
275
    -2
285
     1
 65
     0
276
    -2
286
     1
 66
     0
277
    -2
287
     1
 67
     0
278
    -2
288
     1
 68
     0
279
    -2
289
     1
 69
     0
  7
STANDARD
140
4.5
170
     5
 62
     0
 63
     7
283
     0
274
    -2
284
     1
 64
     0
275
    -2
285
     1
 65
     0
276
    -2
286
     1
 66
     0
277
    -2
287
     1
 67
     0
278
    -2
288
     1
 68
     0
279
    -2
289
     1
 69
     0
  0
DICTIONARYVAR
  5
847
102
{ACAD_REACTORS
330
82
102
}
330
82
100
DictionaryVariables
280
     0
  1
STANDARD
  0
DICTIONARYVAR
  5
85
102
{ACAD_REACTORS
330
82
102
}
330
82
100
DictionaryVariables
280
     0
  1
2
  0
DICTIONARYVAR
  5
84
102
{ACAD_REACTORS
330
82
102
}
330
82
100
DictionaryVariables
280
     0
  1
1
  0
DICTIONARYVAR
  5
83
102
{ACAD_REACTORS
330
82
102
}
330
82
100
DictionaryVariables
280
     0
  1
0
  0
DICTIONARYVAR
  5
848
102
{ACAD_REACTORS
330
82
102
}
330
82
100
DictionaryVariables
280
     0
  1

  0
DICTIONARY
  5
4A
102
{ACAD_REACTORS
330
45
102
}
330
45
100
AcDbDictionary
281
     1
  0
XRECORD
  5
7DF
102
{ACAD_REACTORS
330
45
102
}
330
45
100
AcDbXrecord
280
     1
 90
-1023410169
  0
DICTIONARY
  5
2BE5
330
1E
100
AcDbDictionary
280
     1
281
     1
  3
ACAD_XREC_ROUNDTRIP
360
2BE6
  0
DICTIONARY
  5
2BE9
330
26
100
AcDbDictionary
280
     1
281
     1
  3
ACAD_XREC_ROUNDTRIP
360
2BEA
  0
DICTIONARY
  5
2BE7
330
22
100
AcDbDictionary
280
     1
281
     1
  3
ACAD_XREC_ROUNDTRIP
360
2BE8
  0
XRECORD
  5
2BE6
102
{ACAD_REACTORS
330
2BE5
102
}
330
2BE5
100
AcDbXrecord
280
     1
102
SHADEPLOT
 70
     0
102
SHADEPLOTRESLEVEL
 70
     2
102
SHADEPLOTCUSTOMDPI
 70
   300
  0
XRECORD
  5
2BEA
102
{ACAD_REACTORS
330
2BE9
102
}
330
2BE9
100
AcDbXrecord
280
     1
102
SHADEPLOT
 70
     0
102
SHADEPLOTRESLEVEL
 70
     2
102
SHADEPLOTCUSTOMDPI
 70
   300
  0
XRECORD
  5
2BE8
102
{ACAD_REACTORS
330
2BE7
102
}
330
2BE7
100
AcDbXrecord
280
     1
102
SHADEPLOT
 70
     0
102
SHADEPLOTRESLEVEL
 70
     2
102
SHADEPLOTCUSTOMDPI
 70
   300
  0
ENDSEC
  0
EOF
