  0
SECTION
  2
HEADER
  9
$ACADVER
  1
AC1015
  9
$ACADMAINTVER
 70
    20
  9
$DWGCODEPAGE
  3
ANSI_950
  9
$INSBASE
 10
0.0
 20
0.0
 30
0.0
  9
$EXTMIN
 10
1569.328606380539
 20
519.9939822441024
 30
-0.0141564438437172
  9
$EXTMAX
 10
1900.408101959732
 20
789.9665905478796
 30
204.4622936723698
  9
$LIMMIN
 10
0.0
 20
0.0
  9
$LIMMAX
 10
420.0
 20
297.0
  9
$ORTHOMODE
 70
     1
  9
$REGENMODE
 70
     1
  9
$FILLMODE
 70
     1
  9
$QTEXTMODE
 70
     0
  9
$MIRRTEXT
 70
     1
  9
$LTSCALE
 40
1.0
  9
$ATTMODE
 70
     1
  9
$TEXTSIZE
 40
3.0
  9
$TRACEWID
 40
1.0
  9
$TEXTSTYLE
  7
STANDARD
  9
$CLAYER
  8
0
  9
$CELTYPE
  6
ByLayer
  9
$CECOLOR
 62
   256
  9
$CELTSCALE
 40
1.0
  9
$DISPSILH
 70
     0
  9
$DIMSCALE
 40
1.0
  9
$DIMASZ
 40
3.0
  9
$DIMEXO
 40
1.0
  9
$DIMDLI
 40
10.0
  9
$DIMRND
 40
0.0
  9
$DIMDLE
 40
0.0
  9
$DIMEXE
 40
1.5
  9
$DIMTP
 40
0.1
  9
$DIMTM
 40
0.1
  9
$DIMTXT
 40
3.5
  9
$DIMCEN
 40
0.0
  9
$DIMTSZ
 40
0.0
  9
$DIMTOL
 70
     0
  9
$DIMLIM
 70
     0
  9
$DIMTIH
 70
     0
  9
$DIMTOH
 70
     0
  9
$DIMSE1
 70
     0
  9
$DIMSE2
 70
     0
  9
$DIMTAD
 70
     1
  9
$DIMZIN
 70
     8
  9
$DIMBLK
  1

  9
$DIMASO
 70
     1
  9
$DIMSHO
 70
     1
  9
$DIMPOST
  1

  9
$DIMAPOST
  1
"
  9
$DIMALT
 70
     0
  9
$DIMALTD
 70
     2
  9
$DIMALTF
 40
0.0393701
  9
$DIMLFAC
 40
1.0
  9
$DIMTOFL
 70
     1
  9
$DIMTVP
 40
0.0
  9
$DIMTIX
 70
     0
  9
$DIMSOXD
 70
     0
  9
$DIMSAH
 70
     0
  9
$DIMBLK1
  1

  9
$DIMBLK2
  1

  9
$DIMSTYLE
  2
AM_ISO
  9
$DIMCLRD
 70
   256
  9
$DIMCLRE
 70
   256
  9
$DIMCLRT
 70
   256
  9
$DIMTFAC
 40
0.6
  9
$DIMGAP
 40
0.7
  9
$DIMJUST
 70
     0
  9
$DIMSD1
 70
     0
  9
$DIMSD2
 70
     0
  9
$DIMTOLJ
 70
     0
  9
$DIMTZIN
 70
     8
  9
$DIMALTZ
 70
     0
  9
$DIMALTTZ
 70
     0
  9
$DIMUPT
 70
     0
  9
$DIMDEC
 70
     2
  9
$DIMTDEC
 70
     8
  9
$DIMALTU
 70
     2
  9
$DIMALTTD
 70
     2
  9
$DIMTXSTY
  7
STANDARD
  9
$DIMAUNIT
 70
     0
  9
$DIMADEC
 70
     0
  9
$DIMALTRND
 40
0.0
  9
$DIMAZIN
 70
     2
  9
$DIMDSEP
 70
    46
  9
$DIMATFIT
 70
     3
  9
$DIMFRAC
 70
     0
  9
$DIMLDRBLK
  1

  9
$DIMLUNIT
 70
     2
  9
$DIMLWD
 70
    -1
  9
$DIMLWE
 70
    -1
  9
$DIMTMOVE
 70
     0
  9
$LUNITS
 70
     2
  9
$LUPREC
 70
     2
  9
$SKETCHINC
 40
1.0
  9
$FILLETRAD
 40
1.0
  9
$AUNITS
 70
     0
  9
$AUPREC
 70
     0
  9
$MENU
  1
.
  9
$ELEVATION
 40
0.0
  9
$PELEVATION
 40
0.0
  9
$THICKNESS
 40
0.0
  9
$LIMCHECK
 70
     0
  9
$CHAMFERA
 40
2.5
  9
$CHAMFERB
 40
2.5
  9
$CHAMFERC
 40
20.0
  9
$CHAMFERD
 40
0.0
  9
$SKPOLY
 70
     0
  9
$TDCREATE
 40
2454098.708838426
  9
$TDUCREATE
 40
2454098.375505093
  9
$TDUPDATE
 40
2454789.581803762
  9
$TDUUPDATE
 40
2454789.248470429
  9
$TDINDWG
 40
0.5967539236
  9
$TDUSRTIMER
 40
0.5967539236
  9
$USRTIMER
 70
     1
  9
$ANGBASE
 50
0.0
  9
$ANGDIR
 70
     0
  9
$PDMODE
 70
     0
  9
$PDSIZE
 40
0.0
  9
$PLINEWID
 40
0.0
  9
$SPLFRAME
 70
     0
  9
$SPLINETYPE
 70
     6
  9
$SPLINESEGS
 70
     8
  9
$HANDSEED
  5
C0FE
  9
$SURFTAB1
 70
     6
  9
$SURFTAB2
 70
     6
  9
$SURFTYPE
 70
     6
  9
$SURFU
 70
     6
  9
$SURFV
 70
     6
  9
$UCSBASE
  2

  9
$UCSNAME
  2

  9
$UCSORG
 10
0.0
 20
0.0
 30
0.0
  9
$UCSXDIR
 10
1.0
 20
0.0
 30
0.0
  9
$UCSYDIR
 10
0.0
 20
1.0
 30
0.0
  9
$UCSORTHOREF
  2

  9
$UCSORTHOVIEW
 70
     0
  9
$UCSORGTOP
 10
0.0
 20
0.0
 30
0.0
  9
$UCSORGBOTTOM
 10
0.0
 20
0.0
 30
0.0
  9
$UCSORGLEFT
 10
0.0
 20
0.0
 30
0.0
  9
$UCSORGRIGHT
 10
0.0
 20
0.0
 30
0.0
  9
$UCSORGFRONT
 10
0.0
 20
0.0
 30
0.0
  9
$UCSORGBACK
 10
0.0
 20
0.0
 30
0.0
  9
$PUCSBASE
  2

  9
$PUCSNAME
  2

  9
$PUCSORG
 10
0.0
 20
0.0
 30
0.0
  9
$PUCSXDIR
 10
1.0
 20
0.0
 30
0.0
  9
$PUCSYDIR
 10
0.0
 20
1.0
 30
0.0
  9
$PUCSORTHOREF
  2

  9
$PUCSORTHOVIEW
 70
     0
  9
$PUCSORGTOP
 10
0.0
 20
0.0
 30
0.0
  9
$PUCSORGBOTTOM
 10
0.0
 20
0.0
 30
0.0
  9
$PUCSORGLEFT
 10
0.0
 20
0.0
 30
0.0
  9
$PUCSORGRIGHT
 10
0.0
 20
0.0
 30
0.0
  9
$PUCSORGFRONT
 10
0.0
 20
0.0
 30
0.0
  9
$PUCSORGBACK
 10
0.0
 20
0.0
 30
0.0
  9
$USERI1
 70
     0
  9
$USERI2
 70
     0
  9
$USERI3
 70
     0
  9
$USERI4
 70
     0
  9
$USERI5
 70
     0
  9
$USERR1
 40
0.0
  9
$USERR2
 40
0.0
  9
$USERR3
 40
0.0
  9
$USERR4
 40
0.0
  9
$USERR5
 40
0.0
  9
$WORLDVIEW
 70
     1
  9
$SHADEDGE
 70
     3
  9
$SHADEDIF
 70
    70
  9
$TILEMODE
 70
     1
  9
$MAXACTVP
 70
    64
  9
$PINSBASE
 10
0.0
 20
0.0
 30
0.0
  9
$PLIMCHECK
 70
     0
  9
$PEXTMIN
 10
1.000000000000000E+20
 20
1.000000000000000E+20
 30
1.000000000000000E+20
  9
$PEXTMAX
 10
-1.000000000000000E+20
 20
-1.000000000000000E+20
 30
-1.000000000000000E+20
  9
$PLIMMIN
 10
0.0
 20
0.0
  9
$PLIMMAX
 10
420.0
 20
297.0
  9
$UNITMODE
 70
     0
  9
$VISRETAIN
 70
     1
  9
$PLINEGEN
 70
     0
  9
$PSLTSCALE
 70
     1
  9
$TREEDEPTH
 70
  3020
  9
$CMLSTYLE
  2
Standard
  9
$CMLJUST
 70
     0
  9
$CMLSCALE
 40
20.0
  9
$PROXYGRAPHICS
 70
     1
  9
$MEASUREMENT
 70
     1
  9
$CELWEIGHT
370
    -1
  9
$ENDCAPS
280
     0
  9
$JOINSTYLE
280
     0
  9
$LWDISPLAY
290
     0
  9
$INSUNITS
 70
     4
  9
$HYPERLINKBASE
  1

  9
$STYLESHEET
  1
acad.ctb
  9
$XEDIT
290
     1
  9
$CEPSNTYPE
380
     0
  9
$PSTYLEMODE
290
     1
  9
$FINGERPRINTGUID
  2
{7A381171-16FB-4E44-972A-3DD660A2669C}
  9
$VERSIONGUID
  2
{128BE0D8-B8F2-4674-8ED6-71126E23A2C7}
  9
$EXTNAMES
290
     1
  9
$PSVPSCALE
 40
0.0
  9
$OLESTARTUP
290
     0
  0
ENDSEC
  0
SECTION
  2
CLASSES
  0
CLASS
  1
ACDBDICTIONARYWDFLT
  2
AcDbDictionaryWithDefault
  3
ObjectDBX Classes
 90
        0
280
     0
281
     0
  0
CLASS
  1
ACDBPLACEHOLDER
  2
AcDbPlaceHolder
  3
ObjectDBX Classes
 90
        0
280
     0
281
     0
  0
CLASS
  1
LAYOUT
  2
AcDbLayout
  3
ObjectDBX Classes
 90
        0
280
     0
281
     0
  0
CLASS
  1
ACME_DOCUMENT
  2
AcMeDbDoc
  3
AcMeServices
 90
        0
280
     0
281
     0
  0
CLASS
  1
AMGSETTINGSOBJ
  2
AmgSettingsObj
  3
"AcadM|Product Description: AutoCAD Mechanical 2000|Company: Autodesk"
 90
        0
280
     0
281
     0
  0
CLASS
  1
ACMESCOPE
  2
AcMeScope
  3
AcMeServices
 90
        0
280
     0
281
     0
  0
CLASS
  1
ACMECOMMANDHISTORY
  2
AcMeCommandHistory
  3
AcMeServices
 90
        0
280
     0
281
     0
  0
CLASS
  1
ACIMSYSVARMAN
  2
AcImSysVarManager
  3
AcMeServices
 90
        0
280
     0
281
     0
  0
CLASS
  1
ACIMREALSYSVAR
  2
AcImRealSysVar
  3
AcMeServices
 90
        0
280
     0
281
     0
  0
CLASS
  1
ACIMINTSYSVAR
  2
AcImIntSysVar
  3
AcMeServices
 90
        0
280
     0
281
     0
  0
CLASS
  1
ACMEDRAWINGMAN
  2
AcMeDrawingMan
  3
AcMeServices
 90
        0
280
     0
281
     0
  0
CLASS
  1
ACMEVIEW
  2
AcMeView
  3
AcMeServices
 90
        0
280
     0
281
     0
  0
CLASS
  1
ACDBENTITYCACHE
  2
AcMeEntityCache
  3
AcMeServices
 90
        0
280
     0
281
     0
  0
CLASS
  1
GSMANAGER
  2
AcMeGSManager
  3
AcMeServices
 90
        0
280
     0
281
     0
  0
CLASS
  1
AMDTINTERNALREACTOR
  2
AmdtInternalReactor
  3
AcMeServices
 90
        0
280
     0
281
     0
  0
CLASS
  1
ACMESTATEMGR
  2
AcMeStateMgr
  3
AcMeServices
 90
        0
280
     0
281
     0
  0
CLASS
  1
ACGREFMASTER
  2
AcGrefMaster
  3
AcAttribServices
 90
        0
280
     0
281
     0
  0
CLASS
  1
ACME_DATABASE
  2
AcMeDbDatabase
  3
AcMeServices
 90
        0
280
     0
281
     0
  0
CLASS
  1
ACRFINSADJUSTERMGR
  2
AcRfInsAdjusterMgr
  3
AcMeServices
 90
        0
280
     0
281
     0
  0
CLASS
  1
ACGREFACADMASTER
  2
AcGrefacadMaster
  3
AcGrefServices
 90
        0
280
     0
281
     0
  0
CLASS
  1
AMIMASTER
  2
AmiMaster
  3
AmiServices
 90
        0
280
     0
281
     0
  0
CLASS
  1
ACMDATADICTIONARY
  2
AcmDataDictionary
  3
"AcmSymBB|Product Description: AutoCAD Mechanical 2004 DX|Company: Autodesk"
 90
        0
280
     0
281
     0
  0
CLASS
  1
ACMDATAENTRYBLOCK
  2
AcmDataEntryBlock
  3
"AcmSymBB|Product Description: AutoCAD Mechanical 2004 DX|Company: Autodesk"
 90
    32768
280
     0
281
     0
  0
CLASS
  1
ACIMSTRSYSVAR
  2
AcImStrSysVar
  3
AcMeServices
 90
        0
280
     0
281
     0
  0
CLASS
  1
ACMSTANDARDISO
  2
AcmStandardISO
  3
"Amdt_StdImp|Product Description: AutoCAD Mechanical 2004 DX|Company: Autodesk"
 90
        0
280
     0
281
     0
  0
CLASS
  1
AMGOBJPROPCFG
  2
AmgObjPropCfg
  3
"AmgLay|Product Description: AutoCAD Mechanical 2000|Company: Autodesk"
 90
        1
280
     0
281
     0
  0
CLASS
  1
AMDTEDGESTANDARDISO
  2
AmdtEdgeStdISO
  3
"Amdt_StdImp|Product Description: AutoCAD Mechanical 2004 DX|Company: Autodesk"
 90
    32768
280
     0
281
     0
  0
CLASS
  1
ACMSURFSTANDARDISO
  2
AcmSurfTextStdISO
  3
"Amdt_StdImp|Product Description: AutoCAD Mechanical 2004 DX|Company: Autodesk"
 90
        0
280
     0
281
     0
  0
CLASS
  1
ACMFCFSTANDARDISO
  2
AcmFCFStdISO
  3
"Amdt_StdImp|Product Description: AutoCAD Mechanical 2004 DX|Company: Autodesk"
 90
        0
280
     0
281
     0
  0
CLASS
  1
ACMWELDSTANDARDISO
  2
AcmWeldingStdISO
  3
"Amdt_StdImp|Product Description: AutoCAD Mechanical 2004 DX|Company: Autodesk"
 90
        0
280
     0
281
     0
  0
CLASS
  1
ACMIDSTANDARDISO
  2
AcmIdStdISO
  3
"Amdt_StdImp|Product Description: AutoCAD Mechanical 2004 DX|Company: Autodesk"
 90
        0
280
     0
281
     0
  0
CLASS
  1
ACMDATUMSTANDARDISO
  2
AcmDatumStdISO
  3
"Amdt_StdImp|Product Description: AutoCAD Mechanical 2004 DX|Company: Autodesk"
 90
        0
280
     0
281
     0
  0
CLASS
  1
ACMBOMSTANDARDISO
  2
AcmBOMStdISO
  3
"Amdt_StdImp|Product Description: AutoCAD Mechanical 2004 DX|Company: Autodesk"
 90
        0
280
     0
281
     0
  0
CLASS
  1
ACMDETAILSTANDARDISO
  2
AmdtDetailSymStdISO
  3
"Amdt_StdImp|Product Description: AutoCAD Mechanical 2004 DX|Company: Autodesk"
 90
        0
280
     0
281
     0
  0
CLASS
  1
ACMSECTIONSTANDARDISO
  2
AmdtSectionSymStdISO
  3
"Amdt_StdImp|Product Description: AutoCAD Mechanical 2004 DX|Company: Autodesk"
 90
        0
280
     0
281
     0
  0
CLASS
  1
ACMCENTERLINESTANDARDISO
  2
AmdtCenterLineStdISO
  3
"Amdt_StdImp|Product Description: AutoCAD Mechanical 2004 DX|Company: Autodesk"
 90
        0
280
     0
281
     0
  0
CLASS
  1
ACMNOTESTANDARDISO
  2
AmdtNoteStdISO
  3
"Amdt_StdImp|Product Description: AutoCAD Mechanical 2004 DX|Company: Autodesk"
 90
        0
280
     0
281
     0
  0
CLASS
  1
ACAMGLAYSTD
  2
AcAmgLayStd
  3
"AcAmgLayStd|Product Description: AutoCAD Mechanical 2000|Company: Autodesk"
 90
        0
280
     0
281
     0
  0
CLASS
  1
ACAMGDIMSTD
  2
AcAmgDimStd
  3
"AcAmgDimStd|Product Description: AutoCAD Mechanical 2000|Company: Autodesk"
 90
        0
280
     0
281
     0
  0
CLASS
  1
ACAMGHOLECHARTSTDISO
  2
AcAmgHoleChartStdISO
  3
ACMSYMBB_MODULE_NAME
 90
        0
280
     0
281
     0
  0
CLASS
  1
ACAMGTITLESTD
  2
AcAmgTitleStd
  3
"TITLEAPP"
 90
        0
280
     0
281
     0
  0
CLASS
  1
LAYER_INDEX
  2
AcDbLayerIndex
  3
ObjectDBX Classes
 90
    32768
280
     0
281
     0
  0
CLASS
  1
IDBUFFER
  2
AcDbIdBuffer
  3
ObjectDBX Classes
 90
    32768
280
     0
281
     0
  0
CLASS
  1
DICTIONARYVAR
  2
AcDbDictionaryVar
  3
ObjectDBX Classes
 90
        0
280
     0
281
     0
  0
CLASS
  1
AM_DRAWING_MGR
  2
AcDmDwgMgr
  3
AcMechDwgViewMgmt
 90
        0
280
     0
281
     0
  0
CLASS
  1
AM_DWG_DOCUMENT
  2
AcDmDwgDocument
  3
AcMechDwgViewMgmt
 90
        0
280
     0
281
     0
  0
CLASS
  1
AM_DWG_SHEET
  2
AcDmSheet
  3
AcMechDwgViewMgmt
 90
        0
280
     0
281
     0
  0
CLASS
  1
AM_VIEWDIMPARMAP
  2
AcDmViewDimParMap
  3
AcMechDwgViewMgmt
 90
        0
280
     0
281
     0
  0
CLASS
  1
AM_DWGMGR_NAME
  2
AcDmDwgMgrName
  3
AcMechDwgViewMgmt
 90
        0
280
     0
281
     0
  0
CLASS
  1
AMDTMENUSTATEMGR
  2
AmdtMenuStateMgr
  3
McadcomServices
 90
        0
280
     0
281
     0
  0
CLASS
  1
AMDTMCOMMENUSTATE
  2
AmdtMcomMenuState
  3
McadcomServices
 90
        0
280
     0
281
     0
  0
CLASS
  1
MAPIAMMOUDLE
  2
MApiAmModule
  3
MApiAmServices
 90
        0
280
     0
281
     0
  0
CLASS
  1
AMDTADMENUSTATE
  2
AmdtAdMenuState
  3
DesignerServices
 90
        0
280
     0
281
     0
  0
CLASS
  1
ADAPPL
  2
AcAdAppl
  3
DesignerServices
 90
        0
280
     0
281
     0
  0
CLASS
  1
DEPMGR
  2
AcAdDepMgr
  3
DesignerServices
 90
        0
280
     0
281
     0
  0
CLASS
  1
PARAMMGR
  2
AcAdParamMgr
  3
DesignerServices
 90
        0
280
     0
281
     0
  0
CLASS
  1
PARAMSCOPE
  2
AcAdParamScope
  3
DesignerServices
 90
        0
280
     0
281
     0
  0
CLASS
  1
NAMEDAPPL
  2
AcAdNamedAppl
  3
DesignerServices
 90
        0
280
     0
281
     0
  0
CLASS
  1
AMDTDMMENUSTATE
  2
AmdtDmMenuState
  3
AcMechDwgViewMgmt
 90
        0
280
     0
281
     0
  0
CLASS
  1
AMDTAMMENUSTATE
  2
AmdtAmMenuState
  3
DesignerAssemblies
 90
        0
280
     0
281
     0
  0
CLASS
  1
ACAMPROJECT
  2
AcAmProject
  3
DesignerAssemblies
 90
        0
280
     0
281
     0
  0
CLASS
  1
ACAMGRCOMPDEF
  2
AcAmGrCompDef
  3
DesignerAssemblies
 90
        0
280
     0
281
     0
  0
CLASS
  1
ACCMCONTEXT
  2
AcCmContext
  3
DesignerAssemblies
 90
        0
280
     0
281
     0
  0
CLASS
  1
ACAMCOMPDEF
  2
AcAmCompDef
  3
DesignerAssemblies
 90
        0
280
     0
281
     0
  0
CLASS
  1
ACAMCOMPDEFMGR
  2
AcAmCompDefMgr
  3
DesignerAssemblies
 90
        0
280
     0
281
     0
  0
CLASS
  1
AMCONTEXTMGR
  2
AcAmContextMgr
  3
DesignerAssemblies
 90
        0
280
     0
281
     0
  0
CLASS
  1
ACAMCONTEXTMODELER
  2
AcAmContextModeler
  3
DesignerAssemblies
 90
        0
280
     0
281
     0
  0
CLASS
  1
ACMTHREADLINESTANDARDISO
  2
AmdtThreadLineStdISO
  3
"Amdt_StdImp|Product Description: AutoCAD Mechanical 2004 DX|Company: Autodesk"
 90
        0
280
     0
281
     0
  0
CLASS
  1
CATALOGSTATE
  2
AcAmCatalogState
  3
DesignerAssemblies
 90
        0
280
     0
281
     0
  0
CLASS
  1
ACAMGRCOMPDEFSET
  2
AcAmGrCompDefSet
  3
DesignerAssemblies
 90
        0
280
     0
281
     0
  0
CLASS
  1
AMDTBROWSERDBTAB
  2
AmdtBrowserDbTab
  3
McadcomServices
 90
        0
280
     0
281
     0
  0
CLASS
  1
CBROWSERAPPOBJECT
  2
CBrowserAppObject
  3
McadcomServices
 90
        0
280
     0
281
     0
  0
CLASS
  1
DM_PLACEHOLDER
  2
AcDmSelsetPlaceholder
  3
AcMechDwgViewMgmt
 90
        0
280
     0
281
     0
  0
CLASS
  1
TABLESTYLE
  2
AcDbTableStyle
  3
ObjectDBX Classes
 90
     2047
280
     0
281
     0
  0
CLASS
  1
VAACXREFPANELOBJECT
  2
VaAcXREFPanelObject
  3
VAAC_ADDIN
 90
    32768
280
     0
281
     0
  0
CLASS
  1
VAACIMAGEINVENTORY
  2
VaAcImageInventory
  3
VAAC_ADDIN
 90
    32768
280
     0
281
     0
  0
CLASS
  1
AMDTNOTETEMPLATEDB
  2
AmdtNoteTemplateDB
  3
AMDT_STDIMP_MODULE_NAME
 90
        0
280
     0
281
     0
  0
CLASS
  1
ACMBOM
  2
AcmBom
  3
"AcmSymBB|Product Description: AutoCAD Mechanical 2004 DX|Company: Autodesk"
 90
    32768
280
     0
281
     0
  0
CLASS
  1
AMDTFORMULAUPDATEDISPATCHER
  2
AmdtFormulaUpdateDispatcher
  3
AcMeServices
 90
    32768
280
     0
281
     0
  0
CLASS
  1
ACMPARTLIST
  2
AcmPartList
  3
"AcmSymBB|Product Description: AutoCAD Mechanical 2004 DX|Company: Autodesk"
 90
    33791
280
     0
281
     1
  0
CLASS
  1
ACAMGFILTERDAT
  2
AcAmgFilterDat
  3
"AcadM|Product Description: AutoCAD Mechanical 2000|Company: Autodesk"
 90
    32768
280
     0
281
     0
  0
CLASS
  1
DIMASSOC
  2
AcDbDimAssoc
  3
"AcDbDimAssoc|Product Desc:     AcDim ARX App For Dimension|Company:          Autodesk, Inc.|WEB Address:      www.autodesk.com"
 90
    32768
280
     0
281
     0
  0
CLASS
  1
SORTENTSTABLE
  2
AcDbSortentsTable
  3
ObjectDBX Classes
 90
        0
280
     0
281
     0
  0
CLASS
  1
AMDTNOTE
  2
AmdtNote
  3
"AcmSymBB|Product Description: AutoCAD Mechanical 2004 DX|Company: Autodesk"
 90
    33791
280
     0
281
     1
  0
CLASS
  1
ACMSTANDARDANSI
  2
AcmStandardANSI
  3
"Amdt_StdImp|Product Description: AutoCAD Mechanical 2004 DX|Company: Autodesk"
 90
    32768
280
     0
281
     0
  0
CLASS
  1
ACMSURFSTANDARDANSI
  2
AcmSurfTextStdANSI
  3
"Amdt_StdImp|Product Description: AutoCAD Mechanical 2004 DX|Company: Autodesk"
 90
    32768
280
     0
281
     0
  0
CLASS
  1
ACMFCFSTANDARDANSI
  2
AcmFCFStdANSI
  3
"Amdt_StdImp|Product Description: AutoCAD Mechanical 2004 DX|Company: Autodesk"
 90
    32768
280
     0
281
     0
  0
CLASS
  1
ACMWELDSTANDARDANSI
  2
AcmWeldingStdANSI
  3
"Amdt_StdImp|Product Description: AutoCAD Mechanical 2004 DX|Company: Autodesk"
 90
    32768
280
     0
281
     0
  0
CLASS
  1
ACMIDSTANDARDANSI
  2
AcmIdStdANSI
  3
"Amdt_StdImp|Product Description: AutoCAD Mechanical 2004 DX|Company: Autodesk"
 90
    32768
280
     0
281
     0
  0
CLASS
  1
ACMDATUMSTANDARDANSI
  2
AcmDatumStdANSI
  3
"Amdt_StdImp|Product Description: AutoCAD Mechanical 2004 DX|Company: Autodesk"
 90
    32768
280
     0
281
     0
  0
CLASS
  1
ACMBOMSTANDARDANSI
  2
AcmBOMStdANSI
  3
"Amdt_StdImp|Product Description: AutoCAD Mechanical 2004 DX|Company: Autodesk"
 90
    32768
280
     0
281
     0
  0
CLASS
  1
ACMDETAILSTANDARDANSI
  2
AmdtDetailSymStdANSI
  3
"Amdt_StdImp|Product Description: AutoCAD Mechanical 2004 DX|Company: Autodesk"
 90
    32768
280
     0
281
     0
  0
CLASS
  1
ACMSECTIONSTANDARDANSI
  2
AmdtSectionSymStdANSI
  3
"Amdt_StdImp|Product Description: AutoCAD Mechanical 2004 DX|Company: Autodesk"
 90
    32768
280
     0
281
     0
  0
CLASS
  1
ACMCENTERLINESTANDARDANSI
  2
AmdtCenterLineStdANSI
  3
"Amdt_StdImp|Product Description: AutoCAD Mechanical 2004 DX|Company: Autodesk"
 90
    32768
280
     0
281
     0
  0
CLASS
  1
ACMNOTESTANDARDANSI
  2
AmdtNoteStdANSI
  3
"Amdt_StdImp|Product Description: AutoCAD Mechanical 2004 DX|Company: Autodesk"
 90
    32768
280
     0
281
     0
  0
CLASS
  1
ACAMGHOLECHARTSTDANSI
  2
AcAmgHoleChartStdANSI
  3
ACMSYMBB_MODULE_NAME
 90
    32768
280
     0
281
     0
  0
CLASS
  1
ACMTHREADLINESTANDARDANSI
  2
AmdtThreadLineStdANSI
  3
"Amdt_StdImp|Product Description: AutoCAD Mechanical 2004 DX|Company: Autodesk"
 90
    32768
280
     0
281
     0
  0
CLASS
  1
AMDTEDGESTANDARDISO13715
  2
AmdtEdgeStdISO13715
  3
"Amdt_StdImp|Product Description: AutoCAD Mechanical 2004 DX|Company: Autodesk"
 90
        0
280
     0
281
     0
  0
CLASS
  1
ACRFATTGENMGR
  2
AcRfAttGeneralMgr
  3
AcAttribServices
 90
        0
280
     0
281
     0
  0
ENDSEC
  0
SECTION
  2
TABLES
  0
TABLE
  2
VPORT
  5
8
330
0
100
AcDbSymbolTable
 70
     4
  0
VPORT
  5
C0F5
330
8
100
AcDbSymbolTableRecord
100
AcDbViewportTableRecord
  2
*Active
 70
     0
 10
0.0
 20
0.0
 11
1.0
 21
1.0
 12
1734.868354170136
 22
654.980286395991
 13
0.0
 23
0.0
 14
2.5
 24
2.5
 15
10.0
 25
10.0
 16
0.0
 26
0.0
 36
1.0
 17
0.0
 27
0.0
 37
0.0
 40
272.0983768730982
 41
1.283837056504599
 42
50.0
 43
0.0
 44
0.0
 50
0.0
 51
0.0
 71
     0
 72
   100
 73
     1
 74
     3
 75
     0
 76
     0
 77
     0
 78
     0
281
     0
 65
     1
110
0.0
120
0.0
130
0.0
111
1.0
121
0.0
131
0.0
112
0.0
122
1.0
132
0.0
 79
     0
146
0.0
  0
ENDTAB
  0
TABLE
  2
LTYPE
  5
5
330
0
100
AcDbSymbolTable
 70
    16
  0
LTYPE
  5
14
330
5
100
AcDbSymbolTableRecord
100
AcDbLinetypeTableRecord
  2
ByBlock
 70
     0
  3

 72
    65
 73
     0
 40
0.0
  0
LTYPE
  5
15
330
5
100
AcDbSymbolTableRecord
100
AcDbLinetypeTableRecord
  2
ByLayer
 70
     0
  3

 72
    65
 73
     0
 40
0.0
  0
LTYPE
  5
16
330
5
100
AcDbSymbolTableRecord
100
AcDbLinetypeTableRecord
  2
Continuous
 70
     0
  3
Solid line
 72
    65
 73
     0
 40
0.0
  0
LTYPE
  5
64
330
5
100
AcDbSymbolTableRecord
100
AcDbLinetypeTableRecord
  2
AM_ISO02W050
 70
     0
  3
__ __ __ __ __ __ __ __ __ __ __ __ __ __ __
 72
    65
 73
     2
 40
7.5
 49
6.0
 74
     0
 49
-1.5
 74
     0
  0
LTYPE
  5
65
330
5
100
AcDbSymbolTableRecord
100
AcDbLinetypeTableRecord
  2
AM_ISO08W050
 70
     0
  3
____ . ____ . ____ . ____ . ____ . ____ . ____
 72
    65
 73
     4
 40
18.0
 49
12.0
 74
     0
 49
-1.5
 74
     0
 49
3.0
 74
     0
 49
-1.5
 74
     0
  0
LTYPE
  5
66
330
5
100
AcDbSymbolTableRecord
100
AcDbLinetypeTableRecord
  2
AM_ISO09W050
 70
     0
  3
_____ . . _____ . . _____ . . ____ .. ____
 72
    65
 73
     6
 40
22.5
 49
12.0
 74
     0
 49
-1.5
 74
     0
 49
3.0
 74
     0
 49
-1.5
 74
     0
 49
3.0
 74
     0
 49
-1.5
 74
     0
  0
LTYPE
  5
67
330
5
100
AcDbSymbolTableRecord
100
AcDbLinetypeTableRecord
  2
Amconstr
 70
     0
  3
_______________________
 72
    65
 73
     2
 40
9999.0
 49
9999.0
 74
     0
 49
0.0
 74
     0
  0
LTYPE
  5
68
330
5
100
AcDbSymbolTableRecord
100
AcDbLinetypeTableRecord
  2
AM_ISO08W050x2
 70
     0
  3
__ . __ . __ . __ . __ . __
 72
    65
 73
     4
 40
9.0
 49
6.0
 74
     0
 49
-0.75
 74
     0
 49
1.5
 74
     0
 49
-0.75
 74
     0
  0
LTYPE
  5
69
330
5
100
AcDbSymbolTableRecord
100
AcDbLinetypeTableRecord
  2
AM_ISO02W050x2
 70
     0
  3
 _ _ _ _ _ _ _ _ _ _ _ _
 72
    65
 73
     2
 40
3.75
 49
3.0
 74
     0
 49
-0.75
 74
     0
  0
LTYPE
  5
6C
330
5
100
AcDbSymbolTableRecord
100
AcDbLinetypeTableRecord
  2
Amzigzag
 70
     0
  3
/\/-/\/-/\/-/\/-/\/-/\/
 72
    65
 73
     2
 40
11.0001
 49
0.0001
 74
     4
 75
   135
340
6B
 46
0.04
 50
0.0
 44
0.0
 45
0.0
 49
-11.0
 74
     0
  0
LTYPE
  5
7A
330
5
100
AcDbSymbolTableRecord
100
AcDbLinetypeTableRecord
  2
ACISOWELD
 70
     0
  3
_ _ _ _ _
 72
    65
 73
     2
 40
2.0
 49
2.0
 74
     0
 49
-1.0
 74
     0
  0
LTYPE
  5
7B
330
5
100
AcDbSymbolTableRecord
100
AcDbLinetypeTableRecord
  2
ACISOTGB
 70
     0
  3
__ . . __ . .
 72
    65
 73
     6
 40
9.0
 49
4.0
 74
     0
 49
-1.0
 74
     0
 49
1.0
 74
     0
 49
-1.0
 74
     0
 49
1.0
 74
     0
 49
-1.0
 74
     0
  0
LTYPE
  5
7C
330
5
100
AcDbSymbolTableRecord
100
AcDbLinetypeTableRecord
  2
ACISOTGL
 70
     0
  3
_ _ _ _ _
 72
    65
 73
     2
 40
3.0
 49
2.0
 74
     0
 49
-1.0
 74
     0
  0
LTYPE
  5
7E
330
5
100
AcDbSymbolTableRecord
100
AcDbLinetypeTableRecord
  2
CENTER
 70
     0
  3
__ . __
 72
    65
 73
     4
 40
7.0
 49
4.0
 74
     0
 49
-1.0
 74
     0
 49
1.0
 74
     0
 49
-1.0
 74
     0
  0
LTYPE
  5
D8
330
5
100
AcDbSymbolTableRecord
100
AcDbLinetypeTableRecord
  2
HIDDEN
 70
     0
  3
Hidden __ __ __ __ __ __ __ __ __ __ __ __ __ _
 72
    65
 73
     2
 40
9.524999999999998
 49
6.349999999999999
 74
     0
 49
-3.174999999999999
 74
     0
  0
LTYPE
  5
D9
330
5
100
AcDbSymbolTableRecord
100
AcDbLinetypeTableRecord
  2
PHANTOM2
 70
     0
  3
Phantom (.5x) ___ _ _ ___ _ _ ___ _ _ ___ _ _
 72
    65
 73
     6
 40
31.75
 49
15.875
 74
     0
 49
-3.174999999999999
 74
     0
 49
3.174999999999999
 74
     0
 49
-3.174999999999999
 74
     0
 49
3.174999999999999
 74
     0
 49
-3.174999999999999
 74
     0
  0
ENDTAB
  0
TABLE
  2
LAYER
  5
2
102
{ACAD_XDICTIONARY
360
3F9
102
}
330
0
100
AcDbSymbolTable
 70
     7
  0
LAYER
  5
10
330
2
100
AcDbSymbolTableRecord
100
AcDbLayerTableRecord
  2
0
 70
     0
 62
     7
  6
Continuous
370
    -3
390
F
  0
LAYER
  5
A8E
330
2
100
AcDbSymbolTableRecord
100
AcDbLayerTableRecord
  2
AM_VIS
 70
     0
 62
     7
  6
Continuous
370
    50
390
F
  0
LAYER
  5
A8F
330
2
100
AcDbSymbolTableRecord
100
AcDbLayerTableRecord
  2
AM_7
 70
     0
 62
     1
  6
CENTER
370
    25
390
F
  0
LAYER
  5
33A3
330
2
100
AcDbSymbolTableRecord
100
AcDbLayerTableRecord
  2
AM_5
 70
     0
 62
     5
  6
Continuous
370
    50
390
F
  0
LAYER
  5
33B7
330
2
100
AcDbSymbolTableRecord
100
AcDbLayerTableRecord
  2
Defpoints
 70
     0
 62
     7
  6
Continuous
290
     0
370
    -3
390
F
  0
LAYER
  5
98E9
330
2
100
AcDbSymbolTableRecord
100
AcDbLayerTableRecord
  2
LOGO
 70
     0
 62
     7
  6
Continuous
370
    -3
390
F
  0
ENDTAB
  0
TABLE
  2
STYLE
  5
3
330
0
100
AcDbSymbolTable
 70
     8
  0
STYLE
  5
11
330
3
100
AcDbSymbolTableRecord
100
AcDbTextStyleTableRecord
  2
STANDARD
 70
     0
 40
0.0
 41
1.0
 50
0.0
 71
     0
 42
3.0
  3
ISOCP.SHX
  4
CHINESET.SHX
  0
STYLE
  5
6B
330
3
100
AcDbSymbolTableRecord
100
AcDbTextStyleTableRecord
  2

 70
     1
 40
0.0
 41
1.0
 50
0.0
 71
     0
 42
2.5
  3
ltypeshp.shx
  4

  0
STYLE
  5
6D
330
3
100
AcDbSymbolTableRecord
100
AcDbTextStyleTableRecord
  2
ACISOTS
 70
     0
 40
1.0
 41
1.0
 50
0.0
 71
     0
 42
1.0
  3
isocp.shx
  4
chineset.shx
  0
STYLE
  5
79
330
3
100
AcDbSymbolTableRecord
100
AcDbTextStyleTableRecord
  2
ACISOGDT
 70
     0
 40
0.0
 41
1.0
 50
0.0
 71
     0
 42
2.5
  3
amgdt.shx
  4
chineset.shx
  0
STYLE
  5
98EA
330
3
100
AcDbSymbolTableRecord
100
AcDbTextStyleTableRecord
  2
CHINESET
 70
     0
 40
0.0
 41
1.0
 50
0.0
 71
     0
 42
3.0
  3
simplex.shx
  4
CHINESET.SHX
  0
ENDTAB
  0
TABLE
  2
VIEW
  5
6
330
0
100
AcDbSymbolTable
 70
     0
  0
ENDTAB
  0
TABLE
  2
UCS
  5
7
330
0
100
AcDbSymbolTable
 70
     0
  0
ENDTAB
  0
TABLE
  2
APPID
  5
9
330
0
100
AcDbSymbolTable
 70
    23
  0
APPID
  5
12
330
9
100
AcDbSymbolTableRecord
100
AcDbRegAppTableRecord
  2
ACAD
 70
     0
  0
APPID
  5
46
330
9
100
AcDbSymbolTableRecord
100
AcDbRegAppTableRecord
  2
MCAD_NO_VIS
 70
     0
  0
APPID
  5
47
330
9
100
AcDbSymbolTableRecord
100
AcDbRegAppTableRecord
  2
ACAD_TEMP_GRAPHIC
 70
     0
  0
APPID
  5
58
330
9
100
AcDbSymbolTableRecord
100
AcDbRegAppTableRecord
  2
ACATTRIBSERVICES
 70
     0
  0
APPID
  5
EE
330
9
100
AcDbSymbolTableRecord
100
AcDbRegAppTableRecord
  2
AD_DRAW
 70
     0
  0
APPID
  5
10C
330
9
100
AcDbSymbolTableRecord
100
AcDbRegAppTableRecord
  2
DESIGNERASSEMBLIES
 70
     0
  0
APPID
  5
111
330
9
100
AcDbSymbolTableRecord
100
AcDbRegAppTableRecord
  2
ACADM_DIM_EDIT
 70
     0
  0
APPID
  5
112
330
9
100
AcDbSymbolTableRecord
100
AcDbRegAppTableRecord
  2
AMDT_DM_ADJ
 70
     0
  0
APPID
  5
22C
330
9
100
AcDbSymbolTableRecord
100
AcDbRegAppTableRecord
  2
ACAD_DSTYLE_DIMTEXT_FILL
 70
     0
  0
APPID
  5
452
330
9
100
AcDbSymbolTableRecord
100
AcDbRegAppTableRecord
  2
GENIUS_GENOENT_13
 70
     0
  0
APPID
  5
453
330
9
100
AcDbSymbolTableRecord
100
AcDbRegAppTableRecord
  2
GENIUS_GENOBJ-N-CRS_13
 70
     0
  0
APPID
  5
454
330
9
100
AcDbSymbolTableRecord
100
AcDbRegAppTableRecord
  2
GENIUS_GENOLIS_13
 70
     0
  0
APPID
  5
455
330
9
100
AcDbSymbolTableRecord
100
AcDbRegAppTableRecord
  2
GENIUS_GENODEF_13
 70
     0
  0
APPID
  5
456
330
9
100
AcDbSymbolTableRecord
100
AcDbRegAppTableRecord
  2
GENIUS_GENOREF_13
 70
     0
  0
APPID
  5
6F3
330
9
100
AcDbSymbolTableRecord
100
AcDbRegAppTableRecord
  2
ACAD_PSEXT
 70
     0
  0
APPID
  5
808
330
9
100
AcDbSymbolTableRecord
100
AcDbRegAppTableRecord
  2
GENIUS_GENDTOL_13
 70
     0
  0
APPID
  5
17FF
330
9
100
AcDbSymbolTableRecord
100
AcDbRegAppTableRecord
  2
GENIUS_GENOBJ-N-CEN_13
 70
     0
  0
APPID
  5
1800
330
9
100
AcDbSymbolTableRecord
100
AcDbRegAppTableRecord
  2
GENIUS_GENCEN_19
 70
     0
  0
APPID
  5
34E6
330
9
100
AcDbSymbolTableRecord
100
AcDbRegAppTableRecord
  2
GENIUS_GENOBJ-N-HTC_13
 70
     0
  0
APPID
  5
34E7
330
9
100
AcDbSymbolTableRecord
100
AcDbRegAppTableRecord
  2
GENIUS_GENHATCH_13
 70
     0
  0
APPID
  5
98AD
330
9
100
AcDbSymbolTableRecord
100
AcDbRegAppTableRecord
  2
AcAecLayerStandard
 70
     0
  0
APPID
  5
98EB
330
9
100
AcDbSymbolTableRecord
100
AcDbRegAppTableRecord
  2
GENIUS_GENREC_14
 70
     0
  0
APPID
  5
98EC
330
9
100
AcDbSymbolTableRecord
100
AcDbRegAppTableRecord
  2
GENIUS_GENOBJ-N-REC_13
 70
     0
  0
ENDTAB
  0
TABLE
  2
DIMSTYLE
  5
A
330
0
100
AcDbSymbolTable
 70
    15
100
AcDbDimStyleTable
 71
     3
340
81
340
8B
340
86
  0
DIMSTYLE
105
81
330
A
100
AcDbSymbolTableRecord
100
AcDbDimStyleTableRecord
  2
AM_ISO
 70
     0
  4
"
 41
3.0
 42
1.0
 43
10.0
 44
1.5
 47
0.1
 48
0.1
 73
     0
 74
     0
 77
     1
 78
     8
 79
     2
140
3.5
141
0.0
143
0.0393701
146
0.6
147
0.7
172
     1
176
   256
177
   256
178
   256
271
     2
272
     2
283
     0
284
     8
340
11
371
    -1
372
    -1
  0
DIMSTYLE
105
82
330
A
100
AcDbSymbolTableRecord
100
AcDbDimStyleTableRecord
  2
AM_ISO$3
 70
     0
  4
"
 41
3.0
 42
1.0
 43
10.0
 44
1.5
 47
0.1
 48
0.1
 73
     0
 77
     1
 78
     8
 79
     2
140
3.5
141
0.0
143
0.0393701
146
0.6
147
0.7
176
   256
177
   256
178
   256
271
     2
272
     2
283
     0
284
     8
288
     1
289
     0
340
11
371
    -1
372
    -1
  0
DIMSTYLE
105
83
102
{ACAD_REACTORS
330
B993
102
}
330
A
100
AcDbSymbolTableRecord
100
AcDbDimStyleTableRecord
  2
AM_ISO$4
 70
     0
  4
"
 41
3.0
 42
1.0
 43
10.0
 44
1.5
 47
0.1
 48
0.1
 73
     0
 77
     1
 78
     8
 79
     2
140
3.5
141
0.0
143
0.0393701
146
0.6
147
0.7
176
   256
177
   256
178
   256
271
     2
272
     2
283
     0
284
     8
288
     1
289
     0
340
11
371
    -1
372
    -1
  0
DIMSTYLE
105
84
330
A
100
AcDbSymbolTableRecord
100
AcDbDimStyleTableRecord
  2
AM_ISO$6
 70
     0
  4
"
 41
3.0
 42
1.0
 43
10.0
 44
1.5
 47
0.1
 48
0.1
 73
     0
 74
     0
 78
     8
 79
     2
140
3.5
141
0.0
143
0.0393701
146
0.6
147
0.7
172
     1
176
   256
177
   256
178
   256
271
     2
272
     2
283
     0
284
     8
340
11
371
    -1
372
    -1
  0
DIMSTYLE
105
85
330
A
100
AcDbSymbolTableRecord
100
AcDbDimStyleTableRecord
  2
AM_ISO$7
 70
     0
  4
"
 41
3.0
 42
1.0
 43
10.0
 44
1.5
 47
0.1
 48
0.1
 73
     0
 74
     0
 77
     1
 78
     8
 79
     2
140
5.0
141
0.0
143
0.0393701
146
0.6
147
0.7
172
     1
176
   256
177
   256
178
   256
271
     2
272
     2
283
     0
284
     8
340
11
371
    -1
372
    -1
  0
DIMSTYLE
105
86
330
A
100
AcDbSymbolTableRecord
100
AcDbDimStyleTableRecord
  2
AM_ISO$SF
 70
     0
  4
"
 41
2.5
 42
1.0
 43
10.0
 44
1.0
 47
0.1
 48
0.1
 73
     0
 74
     0
 75
     1
 76
     1
 77
     1
 78
     8
 79
     2
140
3.5
141
0.0
143
0.0393701
146
0.71
147
1.5
172
     1
176
   256
177
   256
178
     2
271
     2
272
     3
274
     4
283
     0
284
     8
340
11
371
    -1
372
    -1
  0
DIMSTYLE
105
8B
330
A
100
AcDbSymbolTableRecord
100
AcDbDimStyleTableRecord
  2
AM_ISO$SH
 70
     0
  4
"
 41
2.5
 42
1.0
 43
10.0
 44
1.0
 47
0.1
 48
0.1
 73
     0
 74
     0
 75
     1
 76
     1
 77
     1
 78
     8
 79
     2
140
3.5
141
0.0
143
0.0393701
144
2.0
146
0.71
147
1.5
172
     1
173
     1
176
   256
177
   256
178
     2
271
     2
272
     3
274
     4
283
     0
284
     8
340
11
343
87
371
    -1
372
    -1
  0
DIMSTYLE
105
40B
102
{ACAD_REACTORS
330
B7F3
330
B7F6
330
B7F9
330
B7FA
330
B7FD
330
B800
330
B801
330
B802
330
B9E2
330
B9E3
330
B9E4
330
BA5F
330
BA60
330
BA61
330
BA62
330
BA63
330
BA64
102
}
330
A
100
AcDbSymbolTableRecord
100
AcDbDimStyleTableRecord
  2
AM_ISO$0
 70
     0
  4
"
 41
3.0
 42
1.0
 43
10.0
 44
1.5
 47
0.1
 48
0.1
 73
     0
 74
     0
 77
     1
 78
     8
 79
     2
140
3.5
141
0.0
143
0.0393701
146
0.6
147
0.7
172
     1
176
   256
177
   256
178
   256
271
     2
272
     2
283
     0
284
     8
340
11
371
    -1
372
    -1
  0
ENDTAB
  0
TABLE
  2
BLOCK_RECORD
  5
1
330
0
100
AcDbSymbolTable
 70
    27
  0
BLOCK_RECORD
  5
1F
102
{ACAD_XDICTIONARY
360
8F
102
}
330
1
100
AcDbSymbolTableRecord
100
AcDbBlockTableRecord
  2
*Model_Space
340
22
  0
BLOCK_RECORD
  5
1B
330
1
100
AcDbSymbolTableRecord
100
AcDbBlockTableRecord
  2
*Paper_Space
340
1E
  0
BLOCK_RECORD
  5
23
330
1
100
AcDbSymbolTableRecord
100
AcDbBlockTableRecord
  2
*Paper_Space0
340
26
  0
BLOCK_RECORD
  5
87
330
1
100
AcDbSymbolTableRecord
100
AcDbBlockTableRecord
  2
GENAXEH
340
0
  0
BLOCK_RECORD
  5
B804
330
1
100
AcDbSymbolTableRecord
100
AcDbBlockTableRecord
  2
*D2
340
0
  0
BLOCK_RECORD
  5
B810
330
1
100
AcDbSymbolTableRecord
100
AcDbBlockTableRecord
  2
*D3
340
0
  0
BLOCK_RECORD
  5
B81C
330
1
100
AcDbSymbolTableRecord
100
AcDbBlockTableRecord
  2
*D4
340
0
  0
BLOCK_RECORD
  5
B828
330
1
100
AcDbSymbolTableRecord
100
AcDbBlockTableRecord
  2
*D5
340
0
  0
BLOCK_RECORD
  5
B834
330
1
100
AcDbSymbolTableRecord
100
AcDbBlockTableRecord
  2
*D6
340
0
  0
BLOCK_RECORD
  5
B84C
330
1
100
AcDbSymbolTableRecord
100
AcDbBlockTableRecord
  2
*D7
340
0
  0
BLOCK_RECORD
  5
B858
330
1
100
AcDbSymbolTableRecord
100
AcDbBlockTableRecord
  2
*D8
340
0
  0
BLOCK_RECORD
  5
B86D
330
1
100
AcDbSymbolTableRecord
100
AcDbBlockTableRecord
  2
*D9
340
0
  0
BLOCK_RECORD
  5
B994
330
1
100
AcDbSymbolTableRecord
100
AcDbBlockTableRecord
  2
*D10
340
0
  0
BLOCK_RECORD
  5
B9E9
330
1
100
AcDbSymbolTableRecord
100
AcDbBlockTableRecord
  2
*D11
340
0
  0
BLOCK_RECORD
  5
B9F5
330
1
100
AcDbSymbolTableRecord
100
AcDbBlockTableRecord
  2
*D12
340
0
  0
BLOCK_RECORD
  5
BA01
330
1
100
AcDbSymbolTableRecord
100
AcDbBlockTableRecord
  2
*D13
340
0
  0
BLOCK_RECORD
  5
BA69
330
1
100
AcDbSymbolTableRecord
100
AcDbBlockTableRecord
  2
*D14
340
0
  0
BLOCK_RECORD
  5
BA75
330
1
100
AcDbSymbolTableRecord
100
AcDbBlockTableRecord
  2
*D15
340
0
  0
BLOCK_RECORD
  5
BA81
330
1
100
AcDbSymbolTableRecord
100
AcDbBlockTableRecord
  2
*D16
340
0
  0
BLOCK_RECORD
  5
BA8D
330
1
100
AcDbSymbolTableRecord
100
AcDbBlockTableRecord
  2
*D17
340
0
  0
BLOCK_RECORD
  5
BA99
330
1
100
AcDbSymbolTableRecord
100
AcDbBlockTableRecord
  2
*D18
340
0
  0
BLOCK_RECORD
  5
BAA5
330
1
100
AcDbSymbolTableRecord
100
AcDbBlockTableRecord
  2
*D19
340
0
  0
BLOCK_RECORD
  5
BDDF
330
1
100
AcDbSymbolTableRecord
100
AcDbBlockTableRecord
  2
*S20
340
0
102
{BLKREFS
331
B7FF
102
}
  0
BLOCK_RECORD
  5
BDE7
330
1
100
AcDbSymbolTableRecord
100
AcDbBlockTableRecord
  2
*S21
340
0
102
{BLKREFS
331
B9E8
102
}
  0
BLOCK_RECORD
  5
BDEF
330
1
100
AcDbSymbolTableRecord
100
AcDbBlockTableRecord
  2
*S22
340
0
102
{BLKREFS
331
BA66
102
}
  0
BLOCK_RECORD
  5
BDF7
330
1
100
AcDbSymbolTableRecord
100
AcDbBlockTableRecord
  2
*S23
340
0
102
{BLKREFS
331
BA68
102
}
  0
ENDTAB
  0
ENDSEC
  0
SECTION
  2
BLOCKS
  0
BLOCK
  5
20
330
1F
100
AcDbEntity
  8
0
100
AcDbBlockBegin
  2
*Model_Space
 70
     0
 10
0.0
 20
0.0
 30
0.0
  3
*Model_Space
  1

  0
ENDBLK
  5
21
330
1F
100
AcDbEntity
  8
0
100
AcDbBlockEnd
  0
BLOCK
  5
1C
330
1B
100
AcDbEntity
 67
     1
  8
0
100
AcDbBlockBegin
  2
*Paper_Space
 70
     0
 10
0.0
 20
0.0
 30
0.0
  3
*Paper_Space
  1

  0
ENDBLK
  5
1D
330
1B
100
AcDbEntity
 67
     1
  8
0
100
AcDbBlockEnd
  0
BLOCK
  5
24
330
23
100
AcDbEntity
  8
0
100
AcDbBlockBegin
  2
*Paper_Space0
 70
     0
 10
0.0
 20
0.0
 30
0.0
  3
*Paper_Space0
  1

  0
ENDBLK
  5
25
330
23
100
AcDbEntity
  8
0
100
AcDbBlockEnd
  0
BLOCK
  5
89
330
87
100
AcDbEntity
  8
0
100
AcDbBlockBegin
  2
GENAXEH
 70
     0
 10
0.0
 20
0.0
 30
0.0
  3
GENAXEH
  1

  0
LINE
  5
88
330
87
100
AcDbEntity
  8
0
100
AcDbLine
 10
-1.0
 20
0.0
 30
0.0
 11
1.0
 21
0.0
 31
0.0
  0
ENDBLK
  5
8A
330
87
100
AcDbEntity
  8
0
100
AcDbBlockEnd
  0
BLOCK
  5
B80E
330
B804
100
AcDbEntity
  8
0
100
AcDbBlockBegin
  2
*D2
 70
     1
 10
0.0
 20
0.0
 30
0.0
  3
*D2
  1

  0
LINE
  5
B9D8
330
B804
100
AcDbEntity
  8
AM_5
100
AcDbLine
 10
1712.594847871669
 20
586.8319227503791
 30
0.0
 11
1712.594847871669
 21
563.2319227503792
 31
0.0
  0
LINE
  5
B9D9
330
B804
100
AcDbEntity
  8
AM_5
100
AcDbLine
 10
1758.994847871669
 20
587.131922750379
 30
0.0
 11
1758.994847871669
 21
563.2319227503792
 31
0.0
  0
LINE
  5
B9DA
330
B804
100
AcDbEntity
  8
AM_5
100
AcDbLine
 10
1716.194847871669
 20
565.0319227503792
 30
0.0
 11
1755.394847871669
 21
565.0319227503792
 31
0.0
  0
SOLID
  5
B9DB
330
B804
100
AcDbEntity
  8
AM_5
100
AcDbTrace
 10
1716.194847871669
 20
565.6319227503792
 30
0.0
 11
1716.194847871669
 21
564.4319227503792
 31
0.0
 12
1712.594847871669
 22
565.0319227503792
 32
0.0
 13
1712.594847871669
 23
565.0319227503792
 33
0.0
  0
SOLID
  5
B9DC
330
B804
100
AcDbEntity
  8
AM_5
100
AcDbTrace
 10
1755.394847871669
 20
565.6319227503792
 30
0.0
 11
1755.394847871669
 21
564.4319227503792
 31
0.0
 12
1758.994847871669
 22
565.0319227503792
 32
0.0
 13
1758.994847871669
 23
565.0319227503792
 33
0.0
  0
MTEXT
  5
B9DD
330
B804
100
AcDbEntity
  8
AM_5
100
AcDbMText
 10
1735.794847871669
 20
567.9719227503792
 30
0.0
 40
4.2
 41
0.0
 71
     5
 72
     1
  1
46.4
 73
     1
 44
1.0
1001
ACAD
1000
MTEXTBEGIN
1070
    73
1070
     1
1070
    44
1040
1.0
1070
    74
1070
     0
1000
MTEXTEND
  0
POINT
  5
B9DE
330
B804
100
AcDbEntity
  8
Defpoints
 62
     0
100
AcDbPoint
 10
1712.594847871669
 20
588.0319227503791
 30
0.0
  0
POINT
  5
B9DF
330
B804
100
AcDbEntity
  8
Defpoints
 62
     0
100
AcDbPoint
 10
1758.994847871669
 20
588.3319227503791
 30
0.0
  0
POINT
  5
B9E0
330
B804
100
AcDbEntity
  8
Defpoints
 62
     0
100
AcDbPoint
 10
1758.994847871669
 20
565.0319227503792
 30
0.0
  0
ENDBLK
  5
B80F
330
B804
100
AcDbEntity
  8
0
100
AcDbBlockEnd
  0
BLOCK
  5
B81A
330
B810
100
AcDbEntity
  8
0
100
AcDbBlockBegin
  2
*D3
 70
     1
 10
0.0
 20
0.0
 30
0.0
  3
*D3
  1

  0
LINE
  5
B958
330
B810
100
AcDbEntity
  8
AM_5
100
AcDbLine
 10
1712.394847871669
 20
587.0319227503792
 30
0.0
 11
1678.794847871669
 21
587.0319227503792
 31
0.0
  0
LINE
  5
B959
330
B810
100
AcDbEntity
  8
AM_5
100
AcDbLine
 10
1704.593219232803
 20
709.0171153141093
 30
0.0
 11
1678.794847871669
 21
709.0171153141093
 31
0.0
  0
LINE
  5
B95A
330
B810
100
AcDbEntity
  8
AM_5
100
AcDbLine
 10
1680.594847871669
 20
590.6319227503792
 30
0.0
 11
1680.594847871669
 21
705.4171153141092
 31
0.0
  0
SOLID
  5
B95B
330
B810
100
AcDbEntity
  8
AM_5
100
AcDbTrace
 10
1679.994847871669
 20
590.6319227503792
 30
0.0
 11
1681.194847871669
 21
590.6319227503792
 31
0.0
 12
1680.594847871669
 22
587.0319227503792
 32
0.0
 13
1680.594847871669
 23
587.0319227503792
 33
0.0
  0
SOLID
  5
B95C
330
B810
100
AcDbEntity
  8
AM_5
100
AcDbTrace
 10
1679.994847871669
 20
705.4171153141092
 30
0.0
 11
1681.194847871669
 21
705.4171153141092
 31
0.0
 12
1680.594847871669
 22
709.0171153141093
 32
0.0
 13
1680.594847871669
 23
709.0171153141093
 33
0.0
  0
MTEXT
  5
B95D
330
B810
100
AcDbEntity
  8
AM_5
100
AcDbMText
 10
1677.654434485842
 20
648.0245190322444
 30
0.0
 40
4.2
 41
0.0
 71
     5
 72
     1
  1
122
 11
0.0000000000000001
 21
1.0
 31
0.0
 73
     1
 44
1.0
1001
ACAD
1000
MTEXTBEGIN
1070
    73
1070
     1
1070
    44
1040
1.0
1070
    74
1070
     0
1000
MTEXTEND
  0
POINT
  5
B95E
330
B810
100
AcDbEntity
  8
Defpoints
 62
     0
100
AcDbPoint
 10
1713.594847871669
 20
587.0319227503792
 30
0.0
  0
POINT
  5
B95F
330
B810
100
AcDbEntity
  8
Defpoints
 62
     0
100
AcDbPoint
 10
1705.793219232803
 20
709.0171153141093
 30
0.0
  0
POINT
  5
B960
330
B810
100
AcDbEntity
  8
Defpoints
 62
     0
100
AcDbPoint
 10
1680.594847871669
 20
709.0171153141093
 30
0.0
  0
ENDBLK
  5
B81B
330
B810
100
AcDbEntity
  8
0
100
AcDbBlockEnd
  0
BLOCK
  5
B826
330
B81C
100
AcDbEntity
  8
0
100
AcDbBlockBegin
  2
*D4
 70
     1
 10
0.0
 20
0.0
 30
0.0
  3
*D4
  1

  0
LINE
  5
B986
330
B81C
100
AcDbEntity
  8
AM_5
100
AcDbLine
 10
1715.793219232802
 20
720.2171153141089
 30
0.0
 11
1715.793219232802
 21
731.3451181186131
 31
0.0
  0
LINE
  5
B987
330
B81C
100
AcDbEntity
  8
AM_5
100
AcDbLine
 10
1760.794847871669
 20
697.2319227503792
 30
0.0
 11
1760.794847871669
 21
731.3451181186131
 31
0.0
  0
LINE
  5
B988
330
B81C
100
AcDbEntity
  8
AM_5
100
AcDbLine
 10
1719.393219232802
 20
729.5451181186132
 30
0.0
 11
1757.194847871669
 21
729.5451181186132
 31
0.0
  0
SOLID
  5
B989
330
B81C
100
AcDbEntity
  8
AM_5
100
AcDbTrace
 10
1719.393219232802
 20
730.1451181186132
 30
0.0
 11
1719.393219232802
 21
728.9451181186132
 31
0.0
 12
1715.793219232802
 22
729.5451181186132
 32
0.0
 13
1715.793219232802
 23
729.5451181186132
 33
0.0
  0
SOLID
  5
B98A
330
B81C
100
AcDbEntity
  8
AM_5
100
AcDbTrace
 10
1757.194847871669
 20
730.1451181186132
 30
0.0
 11
1757.194847871669
 21
728.9451181186132
 31
0.0
 12
1760.794847871669
 22
729.5451181186132
 32
0.0
 13
1760.794847871669
 23
729.5451181186132
 33
0.0
  0
MTEXT
  5
B98B
330
B81C
100
AcDbEntity
  8
AM_5
100
AcDbMText
 10
1738.294033552236
 20
732.4851181186133
 30
0.0
 40
4.2
 41
0.0
 71
     5
 72
     1
  1
45
 73
     1
 44
1.0
1001
ACAD
1000
MTEXTBEGIN
1070
    73
1070
     1
1070
    44
1040
1.0
1070
    74
1070
     0
1000
MTEXTEND
  0
POINT
  5
B98C
330
B81C
100
AcDbEntity
  8
Defpoints
 62
     0
100
AcDbPoint
 10
1715.793219232802
 20
719.0171153141088
 30
0.0
  0
POINT
  5
B98D
330
B81C
100
AcDbEntity
  8
Defpoints
 62
     0
100
AcDbPoint
 10
1760.794847871669
 20
696.0319227503791
 30
0.0
  0
POINT
  5
B98E
330
B81C
100
AcDbEntity
  8
Defpoints
 62
     0
100
AcDbPoint
 10
1760.794847871669
 20
729.5451181186132
 30
0.0
  0
ENDBLK
  5
B827
330
B81C
100
AcDbEntity
  8
0
100
AcDbBlockEnd
  0
BLOCK
  5
B832
330
B828
100
AcDbEntity
  8
0
100
AcDbBlockBegin
  2
*D5
 70
     1
 10
0.0
 20
0.0
 30
0.0
  3
*D5
  1

  0
LINE
  5
BD2D
330
B828
100
AcDbEntity
  8
AM_5
100
AcDbLine
 10
1712.394847871669
 20
587.0319227503792
 30
0.0
 11
1688.794847871669
 21
587.0319227503792
 31
0.0
  0
LINE
  5
BD2E
330
B828
100
AcDbEntity
  8
AM_5
100
AcDbLine
 10
1701.783644148198
 20
700.0128190768025
 30
0.0
 11
1688.794847871669
 21
700.0128190768025
 31
0.0
  0
LINE
  5
BD2F
330
B828
100
AcDbEntity
  8
AM_5
100
AcDbLine
 10
1690.594847871669
 20
590.6319227503792
 30
0.0
 11
1690.594847871669
 21
696.4128190768025
 31
0.0
  0
SOLID
  5
BD30
330
B828
100
AcDbEntity
  8
AM_5
100
AcDbTrace
 10
1689.994847871669
 20
590.6319227503792
 30
0.0
 11
1691.194847871669
 21
590.6319227503792
 31
0.0
 12
1690.594847871669
 22
587.0319227503792
 32
0.0
 13
1690.594847871669
 23
587.0319227503792
 33
0.0
  0
SOLID
  5
BD31
330
B828
100
AcDbEntity
  8
AM_5
100
AcDbTrace
 10
1689.994847871669
 20
696.4128190768025
 30
0.0
 11
1691.194847871669
 21
696.4128190768025
 31
0.0
 12
1690.594847871669
 22
700.0128190768025
 32
0.0
 13
1690.594847871669
 23
700.0128190768025
 33
0.0
  0
MTEXT
  5
BD32
330
B828
100
AcDbEntity
  8
AM_5
100
AcDbMText
 10
1687.654847871669
 20
643.5223709135911
 30
0.0
 40
4.2
 41
0.0
 71
     5
 72
     1
  1
113
 11
0.0000000000000001
 21
1.0
 31
0.0
 73
     1
 44
1.0
1001
ACAD
1000
MTEXTBEGIN
1070
    73
1070
     1
1070
    44
1040
1.0
1070
    74
1070
     0
1000
MTEXTEND
  0
POINT
  5
BD33
330
B828
100
AcDbEntity
  8
Defpoints
 62
     0
100
AcDbPoint
 10
1713.594847871669
 20
587.0319227503792
 30
0.0
  0
POINT
  5
BD34
330
B828
100
AcDbEntity
  8
Defpoints
 62
     0
100
AcDbPoint
 10
1702.983644148198
 20
700.0128190768025
 30
0.0
  0
POINT
  5
BD35
330
B828
100
AcDbEntity
  8
Defpoints
 62
     0
100
AcDbPoint
 10
1690.594847871669
 20
700.0128190768025
 30
0.0
  0
ENDBLK
  5
B833
330
B828
100
AcDbEntity
  8
0
100
AcDbBlockEnd
  0
BLOCK
  5
B840
330
B834
100
AcDbEntity
  8
0
100
AcDbBlockBegin
  2
*D6
 70
     1
 10
0.0
 20
0.0
 30
0.0
  3
*D6
  1

  0
LINE
  5
B9C2
330
B834
100
AcDbEntity
  8
AM_5
100
AcDbLine
 10
1758.994847871669
 20
587.131922750379
 30
0.0
 11
1758.994847871669
 21
573.2319227503792
 31
0.0
  0
LINE
  5
B9C3
330
B834
100
AcDbEntity
  8
AM_5
100
AcDbLine
 10
1754.994847871669
 20
620.3319227503791
 30
0.0
 11
1754.994847871669
 21
573.2319227503792
 31
0.0
  0
LINE
  5
B9C4
330
B834
100
AcDbEntity
  8
AM_5
100
AcDbLine
 10
1751.394847871669
 20
575.0319227503791
 30
0.0
 11
1747.794847871669
 21
575.0319227503791
 31
0.0
  0
LINE
  5
B9C5
330
B834
100
AcDbEntity
  8
AM_5
100
AcDbLine
 10
1762.594847871669
 20
575.0319227503791
 30
0.0
 11
1769.974847871669
 21
575.0319227503791
 31
0.0
  0
LINE
  5
B9C6
330
B834
100
AcDbEntity
  8
AM_5
100
AcDbLine
 10
1754.994847871669
 20
575.0319227503791
 30
0.0
 11
1758.994847871669
 21
575.0319227503791
 31
0.0
  0
SOLID
  5
B9C7
330
B834
100
AcDbEntity
  8
AM_5
100
AcDbTrace
 10
1751.394847871669
 20
575.6319227503792
 30
0.0
 11
1751.394847871669
 21
574.4319227503791
 31
0.0
 12
1754.994847871669
 22
575.0319227503791
 32
0.0
 13
1754.994847871669
 23
575.0319227503791
 33
0.0
  0
SOLID
  5
B9C8
330
B834
100
AcDbEntity
  8
AM_5
100
AcDbTrace
 10
1762.594847871669
 20
575.6319227503792
 30
0.0
 11
1762.594847871669
 21
574.4319227503791
 31
0.0
 12
1758.994847871669
 22
575.0319227503791
 32
0.0
 13
1758.994847871669
 23
575.0319227503791
 33
0.0
  0
MTEXT
  5
B9C9
330
B834
100
AcDbEntity
  8
AM_5
100
AcDbMText
 10
1768.084847871669
 20
577.9719227503792
 30
0.0
 40
4.2
 41
0.0
 71
     5
 72
     1
  1
4
 73
     1
 44
1.0
1001
ACAD
1000
MTEXTBEGIN
1070
    73
1070
     1
1070
    44
1040
1.0
1070
    74
1070
     0
1000
MTEXTEND
  0
POINT
  5
B9CA
330
B834
100
AcDbEntity
  8
Defpoints
 62
     0
100
AcDbPoint
 10
1758.994847871669
 20
588.3319227503791
 30
0.0
  0
POINT
  5
B9CB
330
B834
100
AcDbEntity
  8
Defpoints
 62
     0
100
AcDbPoint
 10
1754.994847871669
 20
621.5319227503791
 30
0.0
  0
POINT
  5
B9CC
330
B834
100
AcDbEntity
  8
Defpoints
 62
     0
100
AcDbPoint
 10
1754.994847871669
 20
575.0319227503791
 30
0.0
  0
ENDBLK
  5
B841
330
B834
100
AcDbEntity
  8
0
100
AcDbBlockEnd
  0
BLOCK
  5
B856
330
B84C
100
AcDbEntity
  8
0
100
AcDbBlockBegin
  2
*D7
 70
     1
 10
0.0
 20
0.0
 30
0.0
  3
*D7
  1

  0
LINE
  5
B96A
330
B84C
100
AcDbEntity
  8
AM_5
100
AcDbLine
 10
1712.394847871669
 20
587.0319227503792
 30
0.0
 11
1698.794847871669
 21
587.0319227503792
 31
0.0
  0
LINE
  5
B96B
330
B84C
100
AcDbEntity
  8
AM_5
100
AcDbLine
 10
1711.844847871669
 20
619.0319227503792
 30
0.0
 11
1698.794847871669
 21
619.0319227503792
 31
0.0
  0
LINE
  5
B96C
330
B84C
100
AcDbEntity
  8
AM_5
100
AcDbLine
 10
1700.594847871669
 20
590.6319227503792
 30
0.0
 11
1700.594847871669
 21
615.4319227503791
 31
0.0
  0
SOLID
  5
B96D
330
B84C
100
AcDbEntity
  8
AM_5
100
AcDbTrace
 10
1699.994847871669
 20
590.6319227503792
 30
0.0
 11
1701.194847871669
 21
590.6319227503792
 31
0.0
 12
1700.594847871669
 22
587.0319227503792
 32
0.0
 13
1700.594847871669
 23
587.0319227503792
 33
0.0
  0
SOLID
  5
B96E
330
B84C
100
AcDbEntity
  8
AM_5
100
AcDbTrace
 10
1699.994847871669
 20
615.4319227503791
 30
0.0
 11
1701.194847871669
 21
615.4319227503791
 31
0.0
 12
1700.594847871669
 22
619.0319227503792
 32
0.0
 13
1700.594847871669
 23
619.0319227503792
 33
0.0
  0
MTEXT
  5
B96F
330
B84C
100
AcDbEntity
  8
AM_5
100
AcDbMText
 10
1697.654434485842
 20
603.0319227503794
 30
0.0
 40
4.2
 41
0.0
 71
     5
 72
     1
  1
32
 11
0.0000000000000001
 21
1.0
 31
0.0
 73
     1
 44
1.0
1001
ACAD
1000
MTEXTBEGIN
1070
    73
1070
     1
1070
    44
1040
1.0
1070
    74
1070
     0
1000
MTEXTEND
  0
POINT
  5
B970
330
B84C
100
AcDbEntity
  8
Defpoints
 62
     0
100
AcDbPoint
 10
1713.594847871669
 20
587.0319227503792
 30
0.0
  0
POINT
  5
B971
330
B84C
100
AcDbEntity
  8
Defpoints
 62
     0
100
AcDbPoint
 10
1713.044847871669
 20
619.0319227503792
 30
0.0
  0
POINT
  5
B972
330
B84C
100
AcDbEntity
  8
Defpoints
 62
     0
100
AcDbPoint
 10
1700.594847871669
 20
619.0319227503792
 30
0.0
  0
ENDBLK
  5
B857
330
B84C
100
AcDbEntity
  8
0
100
AcDbBlockEnd
  0
BLOCK
  5
B862
330
B858
100
AcDbEntity
  8
0
100
AcDbBlockBegin
  2
*D8
 70
     1
 10
0.0
 20
0.0
 30
0.0
  3
*D8
  1

  0
LINE
  5
B961
330
B858
100
AcDbEntity
  8
AM_5
100
AcDbLine
 10
1711.844847871669
 20
619.0319227503792
 30
0.0
 11
1698.794847871669
 21
619.0319227503792
 31
0.0
  0
LINE
  5
B962
330
B858
100
AcDbEntity
  8
AM_5
100
AcDbLine
 10
1711.844847871669
 20
645.0319227503792
 30
0.0
 11
1698.794847871669
 21
645.0319227503792
 31
0.0
  0
LINE
  5
B963
330
B858
100
AcDbEntity
  8
AM_5
100
AcDbLine
 10
1700.594847871669
 20
622.6319227503791
 30
0.0
 11
1700.594847871669
 21
641.4319227503791
 31
0.0
  0
SOLID
  5
B964
330
B858
100
AcDbEntity
  8
AM_5
100
AcDbTrace
 10
1699.994847871669
 20
622.6319227503791
 30
0.0
 11
1701.194847871669
 21
622.6319227503791
 31
0.0
 12
1700.594847871669
 22
619.0319227503792
 32
0.0
 13
1700.594847871669
 23
619.0319227503792
 33
0.0
  0
SOLID
  5
B965
330
B858
100
AcDbEntity
  8
AM_5
100
AcDbTrace
 10
1699.994847871669
 20
641.4319227503791
 30
0.0
 11
1701.194847871669
 21
641.4319227503791
 31
0.0
 12
1700.594847871669
 22
645.0319227503792
 32
0.0
 13
1700.594847871669
 23
645.0319227503792
 33
0.0
  0
MTEXT
  5
B966
330
B858
100
AcDbEntity
  8
AM_5
100
AcDbMText
 10
1697.654434485842
 20
632.0319227503794
 30
0.0
 40
4.2
 41
0.0
 71
     5
 72
     1
  1
26
 11
0.0000000000000001
 21
1.0
 31
0.0
 73
     1
 44
1.0
1001
ACAD
1000
MTEXTBEGIN
1070
    73
1070
     1
1070
    44
1040
1.0
1070
    74
1070
     0
1000
MTEXTEND
  0
POINT
  5
B967
330
B858
100
AcDbEntity
  8
Defpoints
 62
     0
100
AcDbPoint
 10
1713.044847871669
 20
619.0319227503792
 30
0.0
  0
POINT
  5
B968
330
B858
100
AcDbEntity
  8
Defpoints
 62
     0
100
AcDbPoint
 10
1713.044847871669
 20
645.0319227503792
 30
0.0
  0
POINT
  5
B969
330
B858
100
AcDbEntity
  8
Defpoints
 62
     0
100
AcDbPoint
 10
1700.594847871669
 20
645.0319227503792
 30
0.0
  0
ENDBLK
  5
B863
330
B858
100
AcDbEntity
  8
0
100
AcDbBlockEnd
  0
BLOCK
  5
B879
330
B86D
100
AcDbEntity
  8
0
100
AcDbBlockBegin
  2
*D9
 70
     1
 10
0.0
 20
0.0
 30
0.0
  3
*D9
  1

  0
LINE
  5
BE97
330
B86D
100
AcDbEntity
  8
AM_5
100
AcDbLine
 10
1712.594847871669
 20
586.8319227503791
 30
0.0
 11
1712.594847871669
 21
573.2319227503792
 31
0.0
  0
LINE
  5
BE98
330
B86D
100
AcDbEntity
  8
AM_5
100
AcDbLine
 10
1717.294847871669
 20
613.5819227503791
 30
0.0
 11
1717.294847871669
 21
573.2319227503792
 31
0.0
  0
LINE
  5
BE99
330
B86D
100
AcDbEntity
  8
AM_5
100
AcDbLine
 10
1708.994847871669
 20
575.0319227503791
 30
0.0
 11
1705.394847871669
 21
575.0319227503791
 31
0.0
  0
LINE
  5
BE9A
330
B86D
100
AcDbEntity
  8
AM_5
100
AcDbLine
 10
1720.894847871669
 20
575.0319227503791
 30
0.0
 11
1732.474847871669
 21
575.0319227503791
 31
0.0
  0
LINE
  5
BE9B
330
B86D
100
AcDbEntity
  8
AM_5
100
AcDbLine
 10
1712.594847871669
 20
575.0319227503791
 30
0.0
 11
1717.294847871669
 21
575.0319227503791
 31
0.0
  0
SOLID
  5
BE9C
330
B86D
100
AcDbEntity
  8
AM_5
100
AcDbTrace
 10
1708.994847871669
 20
575.6319227503792
 30
0.0
 11
1708.994847871669
 21
574.4319227503791
 31
0.0
 12
1712.594847871669
 22
575.0319227503791
 32
0.0
 13
1712.594847871669
 23
575.0319227503791
 33
0.0
  0
SOLID
  5
BE9D
330
B86D
100
AcDbEntity
  8
AM_5
100
AcDbTrace
 10
1720.894847871669
 20
575.6319227503792
 30
0.0
 11
1720.894847871669
 21
574.4319227503791
 31
0.0
 12
1717.294847871669
 22
575.0319227503791
 32
0.0
 13
1717.294847871669
 23
575.0319227503791
 33
0.0
  0
MTEXT
  5
BE9E
330
B86D
100
AcDbEntity
  8
AM_5
100
AcDbMText
 10
1728.484847871669
 20
577.9719227503792
 30
0.0
 40
4.2
 41
0.0
 71
     5
 72
     1
  1
4.7
 73
     1
 44
1.0
1001
ACAD
1000
MTEXTBEGIN
1070
    73
1070
     1
1070
    44
1040
1.0
1070
    74
1070
     0
1000
MTEXTEND
  0
POINT
  5
BE9F
330
B86D
100
AcDbEntity
  8
Defpoints
 62
     0
100
AcDbPoint
 10
1712.594847871669
 20
588.0319227503791
 30
0.0
  0
POINT
  5
BEA0
330
B86D
100
AcDbEntity
  8
Defpoints
 62
     0
100
AcDbPoint
 10
1717.294847871669
 20
614.7819227503791
 30
0.0
  0
POINT
  5
BEA1
330
B86D
100
AcDbEntity
  8
Defpoints
 62
     0
100
AcDbPoint
 10
1717.294847871669
 20
575.0319227503791
 30
0.0
  0
ENDBLK
  5
B87A
330
B86D
100
AcDbEntity
  8
0
100
AcDbBlockEnd
  0
BLOCK
  5
B99A
330
B994
100
AcDbEntity
  8
0
100
AcDbBlockBegin
  2
*D10
 70
     1
 10
0.0
 20
0.0
 30
0.0
  3
*D10
  1

  0
LINE
  5
B9B5
330
B994
100
AcDbEntity
  8
AM_5
100
AcDbLine
 10
1707.158590634755
 20
717.4937413512651
 30
0.0
 11
1701.236579265388
 21
723.3073875545608
 31
0.0
  0
LINE
  5
B9B6
330
B994
100
AcDbEntity
  8
AM_5
100
AcDbLine
 10
1701.236579265388
 20
723.3073875545608
 30
0.0
 11
1690.982609569191
 21
723.3073875545605
 31
0.0
  0
LINE
  5
B9B7
330
B994
100
AcDbEntity
  8
AM_5
100
AcDbLine
 10
1715.793219232801
 20
709.0171153141097
 30
0.0
 11
1709.727571044091
 21
714.9717699683098
 31
0.0
  0
SOLID
  5
B9B8
330
B994
100
AcDbEntity
  8
AM_5
100
AcDbTrace
 10
1707.57891919858
 20
717.9219047528212
 30
0.0
 11
1706.738262070928
 21
717.065577949709
 31
0.0
 12
1709.727571044091
 22
714.9717699683098
 32
0.0
 13
1709.727571044091
 23
714.9717699683098
 33
0.0
  0
MTEXT
  5
B9B9
330
B994
100
AcDbEntity
  8
AM_5
100
AcDbMText
 10
1695.689594417289
 20
726.2473875545609
 30
0.0
 40
4.2
 41
0.0
 71
     5
 72
     1
  1
R8.5
 73
     1
 44
1.0
1001
ACAD
1000
MTEXTBEGIN
1070
    73
1070
     1
1070
    44
1040
1.0
1070
    74
1070
     0
1000
MTEXTEND
  0
POINT
  5
B9BA
330
B994
100
AcDbEntity
  8
Defpoints
 62
     0
100
AcDbPoint
 10
1709.727571044091
 20
714.9717699683098
 30
0.0
  0
POINT
  5
B9BB
330
B994
100
AcDbEntity
  8
Defpoints
 62
     0
100
AcDbPoint
 10
1715.793219232801
 20
709.0171153141097
 30
0.0
  0
ENDBLK
  5
B99B
330
B994
100
AcDbEntity
  8
0
100
AcDbBlockEnd
  0
BLOCK
  5
B9F3
330
B9E9
100
AcDbEntity
  8
0
100
AcDbBlockBegin
  2
*D11
 70
     1
 10
0.0
 20
0.0
 30
0.0
  3
*D11
  1

  0
LINE
  5
BA31
330
B9E9
100
AcDbEntity
  8
AM_5
100
AcDbLine
 10
1616.733252678943
 20
587.0319227503792
 30
0.0
 11
1603.133252678943
 21
587.0319227503792
 31
0.0
  0
LINE
  5
BA32
330
B9E9
100
AcDbEntity
  8
AM_5
100
AcDbLine
 10
1620.583252678943
 20
606.0319227503791
 30
0.0
 11
1603.133252678943
 21
606.0319227503791
 31
0.0
  0
LINE
  5
BA33
330
B9E9
100
AcDbEntity
  8
AM_5
100
AcDbLine
 10
1604.933252678943
 20
590.6319227503792
 30
0.0
 11
1604.933252678943
 21
602.4319227503792
 31
0.0
  0
SOLID
  5
BA34
330
B9E9
100
AcDbEntity
  8
AM_5
100
AcDbTrace
 10
1604.333252678943
 20
590.6319227503792
 30
0.0
 11
1605.533252678943
 21
590.6319227503792
 31
0.0
 12
1604.933252678943
 22
587.0319227503792
 32
0.0
 13
1604.933252678943
 23
587.0319227503792
 33
0.0
  0
SOLID
  5
BA35
330
B9E9
100
AcDbEntity
  8
AM_5
100
AcDbTrace
 10
1604.333252678943
 20
602.4319227503792
 30
0.0
 11
1605.533252678943
 21
602.4319227503792
 31
0.0
 12
1604.933252678943
 22
606.0319227503791
 32
0.0
 13
1604.933252678943
 23
606.0319227503791
 33
0.0
  0
MTEXT
  5
BA36
330
B9E9
100
AcDbEntity
  8
AM_5
100
AcDbMText
 10
1601.993252678943
 20
596.5319227503794
 30
0.0
 40
4.2
 41
0.0
 71
     5
 72
     1
  1
19
 11
0.0000000000000001
 21
1.0
 31
0.0
 73
     1
 44
1.0
1001
ACAD
1000
MTEXTBEGIN
1070
    73
1070
     1
1070
    44
1040
1.0
1070
    74
1070
     0
1000
MTEXTEND
  0
POINT
  5
BA37
330
B9E9
100
AcDbEntity
  8
Defpoints
 62
     0
100
AcDbPoint
 10
1617.933252678943
 20
587.0319227503792
 30
0.0
  0
POINT
  5
BA38
330
B9E9
100
AcDbEntity
  8
Defpoints
 62
     0
100
AcDbPoint
 10
1621.783252678943
 20
606.0319227503791
 30
0.0
  0
POINT
  5
BA39
330
B9E9
100
AcDbEntity
  8
Defpoints
 62
     0
100
AcDbPoint
 10
1604.933252678943
 20
606.0319227503791
 30
0.0
  0
ENDBLK
  5
B9F4
330
B9E9
100
AcDbEntity
  8
0
100
AcDbBlockEnd
  0
BLOCK
  5
B9FF
330
B9F5
100
AcDbEntity
  8
0
100
AcDbBlockBegin
  2
*D12
 70
     1
 10
0.0
 20
0.0
 30
0.0
  3
*D12
  1

  0
LINE
  5
BA43
330
B9F5
100
AcDbEntity
  8
AM_5
100
AcDbLine
 10
1620.583252678943
 20
606.0319227503791
 30
0.0
 11
1603.133252678943
 21
606.0319227503791
 31
0.0
  0
LINE
  5
BA44
330
B9F5
100
AcDbEntity
  8
AM_5
100
AcDbLine
 10
1620.583252678943
 20
632.0319227503792
 30
0.0
 11
1603.133252678943
 21
632.0319227503792
 31
0.0
  0
LINE
  5
BA45
330
B9F5
100
AcDbEntity
  8
AM_5
100
AcDbLine
 10
1604.933252678943
 20
609.6319227503792
 30
0.0
 11
1604.933252678943
 21
628.4319227503791
 31
0.0
  0
SOLID
  5
BA46
330
B9F5
100
AcDbEntity
  8
AM_5
100
AcDbTrace
 10
1604.333252678943
 20
609.6319227503792
 30
0.0
 11
1605.533252678943
 21
609.6319227503792
 31
0.0
 12
1604.933252678943
 22
606.0319227503791
 32
0.0
 13
1604.933252678943
 23
606.0319227503791
 33
0.0
  0
SOLID
  5
BA47
330
B9F5
100
AcDbEntity
  8
AM_5
100
AcDbTrace
 10
1604.333252678943
 20
628.4319227503791
 30
0.0
 11
1605.533252678943
 21
628.4319227503791
 31
0.0
 12
1604.933252678943
 22
632.0319227503792
 32
0.0
 13
1604.933252678943
 23
632.0319227503792
 33
0.0
  0
MTEXT
  5
BA48
330
B9F5
100
AcDbEntity
  8
AM_5
100
AcDbMText
 10
1601.992839293116
 20
619.0319227503794
 30
0.0
 40
4.2
 41
0.0
 71
     5
 72
     1
  1
26
 11
0.0000000000000001
 21
1.0
 31
0.0
 73
     1
 44
1.0
1001
ACAD
1000
MTEXTBEGIN
1070
    73
1070
     1
1070
    44
1040
1.0
1070
    74
1070
     0
1000
MTEXTEND
  0
POINT
  5
BA49
330
B9F5
100
AcDbEntity
  8
Defpoints
 62
     0
100
AcDbPoint
 10
1621.783252678943
 20
606.0319227503791
 30
0.0
  0
POINT
  5
BA4A
330
B9F5
100
AcDbEntity
  8
Defpoints
 62
     0
100
AcDbPoint
 10
1621.783252678943
 20
632.0319227503792
 30
0.0
  0
POINT
  5
BA4B
330
B9F5
100
AcDbEntity
  8
Defpoints
 62
     0
100
AcDbPoint
 10
1604.933252678943
 20
632.0319227503792
 30
0.0
  0
ENDBLK
  5
BA00
330
B9F5
100
AcDbEntity
  8
0
100
AcDbBlockEnd
  0
BLOCK
  5
BA0B
330
BA01
100
AcDbEntity
  8
0
100
AcDbBlockBegin
  2
*D13
 70
     1
 10
0.0
 20
0.0
 30
0.0
  3
*D13
  1

  0
LINE
  5
BA55
330
BA01
100
AcDbEntity
  8
AM_5
100
AcDbLine
 10
1620.583252678943
 20
632.0319227503792
 30
0.0
 11
1603.133252678943
 21
632.0319227503792
 31
0.0
  0
LINE
  5
BA56
330
BA01
100
AcDbEntity
  8
AM_5
100
AcDbLine
 10
1620.583252678943
 20
658.0319227503792
 30
0.0
 11
1603.133252678943
 21
658.0319227503792
 31
0.0
  0
LINE
  5
BA57
330
BA01
100
AcDbEntity
  8
AM_5
100
AcDbLine
 10
1604.933252678943
 20
635.6319227503791
 30
0.0
 11
1604.933252678943
 21
654.4319227503791
 31
0.0
  0
SOLID
  5
BA58
330
BA01
100
AcDbEntity
  8
AM_5
100
AcDbTrace
 10
1604.333252678943
 20
635.6319227503791
 30
0.0
 11
1605.533252678943
 21
635.6319227503791
 31
0.0
 12
1604.933252678943
 22
632.0319227503792
 32
0.0
 13
1604.933252678943
 23
632.0319227503792
 33
0.0
  0
SOLID
  5
BA59
330
BA01
100
AcDbEntity
  8
AM_5
100
AcDbTrace
 10
1604.333252678943
 20
654.4319227503791
 30
0.0
 11
1605.533252678943
 21
654.4319227503791
 31
0.0
 12
1604.933252678943
 22
658.0319227503792
 32
0.0
 13
1604.933252678943
 23
658.0319227503792
 33
0.0
  0
MTEXT
  5
BA5A
330
BA01
100
AcDbEntity
  8
AM_5
100
AcDbMText
 10
1601.992839293116
 20
645.0319227503793
 30
0.0
 40
4.2
 41
0.0
 71
     5
 72
     1
  1
26
 11
0.0000000000000001
 21
1.0
 31
0.0
 73
     1
 44
1.0
1001
ACAD
1000
MTEXTBEGIN
1070
    73
1070
     1
1070
    44
1040
1.0
1070
    74
1070
     0
1000
MTEXTEND
  0
POINT
  5
BA5B
330
BA01
100
AcDbEntity
  8
Defpoints
 62
     0
100
AcDbPoint
 10
1621.783252678943
 20
632.0319227503792
 30
0.0
  0
POINT
  5
BA5C
330
BA01
100
AcDbEntity
  8
Defpoints
 62
     0
100
AcDbPoint
 10
1621.783252678943
 20
658.0319227503792
 30
0.0
  0
POINT
  5
BA5D
330
BA01
100
AcDbEntity
  8
Defpoints
 62
     0
100
AcDbPoint
 10
1604.933252678943
 20
658.0319227503792
 30
0.0
  0
ENDBLK
  5
BA0C
330
BA01
100
AcDbEntity
  8
0
100
AcDbBlockEnd
  0
BLOCK
  5
BA73
330
BA69
100
AcDbEntity
  8
0
100
AcDbBlockBegin
  2
*D14
 70
     1
 10
0.0
 20
0.0
 30
0.0
  3
*D14
  1

  0
LINE
  5
BB26
330
BA69
100
AcDbEntity
  8
AM_5
100
AcDbLine
 10
1815.29570391324
 20
618.8319227503791
 30
0.0
 11
1815.29570391324
 21
574.7319227503794
 31
0.0
  0
LINE
  5
BB27
330
BA69
100
AcDbEntity
  8
AM_5
100
AcDbLine
 10
1838.29570391324
 20
631.8319227503791
 30
0.0
 11
1838.29570391324
 21
574.7319227503794
 31
0.0
  0
LINE
  5
BB28
330
BA69
100
AcDbEntity
  8
AM_5
100
AcDbLine
 10
1818.89570391324
 20
576.5319227503794
 30
0.0
 11
1834.69570391324
 21
576.5319227503794
 31
0.0
  0
SOLID
  5
BB29
330
BA69
100
AcDbEntity
  8
AM_5
100
AcDbTrace
 10
1818.89570391324
 20
577.1319227503794
 30
0.0
 11
1818.89570391324
 21
575.9319227503794
 31
0.0
 12
1815.29570391324
 22
576.5319227503794
 32
0.0
 13
1815.29570391324
 23
576.5319227503794
 33
0.0
  0
SOLID
  5
BB2A
330
BA69
100
AcDbEntity
  8
AM_5
100
AcDbTrace
 10
1834.69570391324
 20
577.1319227503794
 30
0.0
 11
1834.69570391324
 21
575.9319227503794
 31
0.0
 12
1838.29570391324
 22
576.5319227503794
 32
0.0
 13
1838.29570391324
 23
576.5319227503794
 33
0.0
  0
MTEXT
  5
BB2B
330
BA69
100
AcDbEntity
  8
AM_5
100
AcDbMText
 10
1826.79570391324
 20
579.4723361362062
 30
0.0
 40
4.2
 41
0.0
 71
     5
 72
     1
  1
23
 73
     1
 44
1.0
1001
ACAD
1000
MTEXTBEGIN
1070
    73
1070
     1
1070
    44
1040
1.0
1070
    74
1070
     0
1000
MTEXTEND
  0
POINT
  5
BB2C
330
BA69
100
AcDbEntity
  8
Defpoints
 62
     0
100
AcDbPoint
 10
1815.29570391324
 20
620.0319227503792
 30
0.0
  0
POINT
  5
BB2D
330
BA69
100
AcDbEntity
  8
Defpoints
 62
     0
100
AcDbPoint
 10
1838.29570391324
 20
633.0319227503792
 30
0.0
  0
POINT
  5
BB2E
330
BA69
100
AcDbEntity
  8
Defpoints
 62
     0
100
AcDbPoint
 10
1838.29570391324
 20
576.5319227503794
 30
0.0
  0
ENDBLK
  5
BA74
330
BA69
100
AcDbEntity
  8
0
100
AcDbBlockEnd
  0
BLOCK
  5
BA7F
330
BA75
100
AcDbEntity
  8
0
100
AcDbBlockBegin
  2
*D15
 70
     1
 10
0.0
 20
0.0
 30
0.0
  3
*D15
  1

  0
LINE
  5
BB14
330
BA75
100
AcDbEntity
  8
AM_5
100
AcDbLine
 10
1811.79570391324
 20
587.1319227503793
 30
0.0
 11
1811.79570391324
 21
564.7319227503794
 31
0.0
  0
LINE
  5
BB15
330
BA75
100
AcDbEntity
  8
AM_5
100
AcDbLine
 10
1841.79570391324
 20
587.3319227503793
 30
0.0
 11
1841.79570391324
 21
564.7319227503794
 31
0.0
  0
LINE
  5
BB16
330
BA75
100
AcDbEntity
  8
AM_5
100
AcDbLine
 10
1815.39570391324
 20
566.5319227503793
 30
0.0
 11
1838.19570391324
 21
566.5319227503793
 31
0.0
  0
SOLID
  5
BB17
330
BA75
100
AcDbEntity
  8
AM_5
100
AcDbTrace
 10
1815.39570391324
 20
567.1319227503794
 30
0.0
 11
1815.39570391324
 21
565.9319227503793
 31
0.0
 12
1811.79570391324
 22
566.5319227503793
 32
0.0
 13
1811.79570391324
 23
566.5319227503793
 33
0.0
  0
SOLID
  5
BB18
330
BA75
100
AcDbEntity
  8
AM_5
100
AcDbTrace
 10
1838.19570391324
 20
567.1319227503794
 30
0.0
 11
1838.19570391324
 21
565.9319227503793
 31
0.0
 12
1841.79570391324
 22
566.5319227503793
 32
0.0
 13
1841.79570391324
 23
566.5319227503793
 33
0.0
  0
MTEXT
  5
BB19
330
BA75
100
AcDbEntity
  8
AM_5
100
AcDbMText
 10
1826.79570391324
 20
569.4719227503794
 30
0.0
 40
4.2
 41
0.0
 71
     5
 72
     1
  1
30
 73
     1
 44
1.0
1001
ACAD
1000
MTEXTBEGIN
1070
    73
1070
     1
1070
    44
1040
1.0
1070
    74
1070
     0
1000
MTEXTEND
  0
POINT
  5
BB1A
330
BA75
100
AcDbEntity
  8
Defpoints
 62
     0
100
AcDbPoint
 10
1811.79570391324
 20
588.3319227503793
 30
0.0
  0
POINT
  5
BB1B
330
BA75
100
AcDbEntity
  8
Defpoints
 62
     0
100
AcDbPoint
 10
1841.79570391324
 20
588.5319227503794
 30
0.0
  0
POINT
  5
BB1C
330
BA75
100
AcDbEntity
  8
Defpoints
 62
     0
100
AcDbPoint
 10
1841.79570391324
 20
566.5319227503793
 30
0.0
  0
ENDBLK
  5
BA80
330
BA75
100
AcDbEntity
  8
0
100
AcDbBlockEnd
  0
BLOCK
  5
BA8B
330
BA81
100
AcDbEntity
  8
0
100
AcDbBlockBegin
  2
*D16
 70
     1
 10
0.0
 20
0.0
 30
0.0
  3
*D16
  1

  0
LINE
  5
BB38
330
BA81
100
AcDbEntity
  8
AM_5
100
AcDbLine
 10
1841.99570391324
 20
587.0319227503792
 30
0.0
 11
1851.995703913241
 21
587.0319227503792
 31
0.0
  0
LINE
  5
BB39
330
BA81
100
AcDbEntity
  8
AM_5
100
AcDbLine
 10
1837.995703913241
 20
617.0319227503791
 30
0.0
 11
1851.995703913241
 21
617.0319227503791
 31
0.0
  0
LINE
  5
BB3A
330
BA81
100
AcDbEntity
  8
AM_5
100
AcDbLine
 10
1850.195703913241
 20
590.6319227503792
 30
0.0
 11
1850.195703913241
 21
613.4319227503791
 31
0.0
  0
SOLID
  5
BB3B
330
BA81
100
AcDbEntity
  8
AM_5
100
AcDbTrace
 10
1849.595703913241
 20
590.6319227503792
 30
0.0
 11
1850.795703913241
 21
590.6319227503792
 31
0.0
 12
1850.195703913241
 22
587.0319227503792
 32
0.0
 13
1850.195703913241
 23
587.0319227503792
 33
0.0
  0
SOLID
  5
BB3C
330
BA81
100
AcDbEntity
  8
AM_5
100
AcDbTrace
 10
1849.595703913241
 20
613.4319227503791
 30
0.0
 11
1850.795703913241
 21
613.4319227503791
 31
0.0
 12
1850.195703913241
 22
617.0319227503791
 32
0.0
 13
1850.195703913241
 23
617.0319227503791
 33
0.0
  0
MTEXT
  5
BB3D
330
BA81
100
AcDbEntity
  8
AM_5
100
AcDbMText
 10
1847.25570391324
 20
602.0319227503795
 30
0.0
 40
4.2
 41
0.0
 71
     5
 72
     1
  1
30
 11
0.0000000000000001
 21
1.0
 31
0.0
 73
     1
 44
1.0
1001
ACAD
1000
MTEXTBEGIN
1070
    73
1070
     1
1070
    44
1040
1.0
1070
    74
1070
     0
1000
MTEXTEND
  0
POINT
  5
BB3E
330
BA81
100
AcDbEntity
  8
Defpoints
 62
     0
100
AcDbPoint
 10
1840.79570391324
 20
587.0319227503792
 30
0.0
  0
POINT
  5
BB3F
330
BA81
100
AcDbEntity
  8
Defpoints
 62
     0
100
AcDbPoint
 10
1836.79570391324
 20
617.0319227503791
 30
0.0
  0
POINT
  5
BB40
330
BA81
100
AcDbEntity
  8
Defpoints
 62
     0
100
AcDbPoint
 10
1850.195703913241
 20
617.0319227503791
 30
0.0
  0
ENDBLK
  5
BA8C
330
BA81
100
AcDbEntity
  8
0
100
AcDbBlockEnd
  0
BLOCK
  5
BA97
330
BA8D
100
AcDbEntity
  8
0
100
AcDbBlockBegin
  2
*D17
 70
     1
 10
0.0
 20
0.0
 30
0.0
  3
*D17
  1

  0
LINE
  5
BB4A
330
BA8D
100
AcDbEntity
  8
AM_5
100
AcDbLine
 10
1838.145703913241
 20
617.0319227503791
 30
0.0
 11
1851.995703913241
 21
617.0319227503791
 31
0.0
  0
LINE
  5
BB4B
330
BA8D
100
AcDbEntity
  8
AM_5
100
AcDbLine
 10
1838.145703913241
 20
647.0319227503791
 30
0.0
 11
1851.995703913241
 21
647.0319227503791
 31
0.0
  0
LINE
  5
BB4C
330
BA8D
100
AcDbEntity
  8
AM_5
100
AcDbLine
 10
1850.195703913241
 20
620.6319227503792
 30
0.0
 11
1850.195703913241
 21
643.4319227503792
 31
0.0
  0
SOLID
  5
BB4D
330
BA8D
100
AcDbEntity
  8
AM_5
100
AcDbTrace
 10
1849.595703913241
 20
620.6319227503792
 30
0.0
 11
1850.795703913241
 21
620.6319227503792
 31
0.0
 12
1850.195703913241
 22
617.0319227503791
 32
0.0
 13
1850.195703913241
 23
617.0319227503791
 33
0.0
  0
SOLID
  5
BB4E
330
BA8D
100
AcDbEntity
  8
AM_5
100
AcDbTrace
 10
1849.595703913241
 20
643.4319227503792
 30
0.0
 11
1850.795703913241
 21
643.4319227503792
 31
0.0
 12
1850.195703913241
 22
647.0319227503791
 32
0.0
 13
1850.195703913241
 23
647.0319227503791
 33
0.0
  0
MTEXT
  5
BB4F
330
BA8D
100
AcDbEntity
  8
AM_5
100
AcDbMText
 10
1847.25570391324
 20
632.0319227503794
 30
0.0
 40
4.2
 41
0.0
 71
     5
 72
     1
  1
30
 11
0.0000000000000001
 21
1.0
 31
0.0
 73
     1
 44
1.0
1001
ACAD
1000
MTEXTBEGIN
1070
    73
1070
     1
1070
    44
1040
1.0
1070
    74
1070
     0
1000
MTEXTEND
  0
POINT
  5
BB50
330
BA8D
100
AcDbEntity
  8
Defpoints
 62
     0
100
AcDbPoint
 10
1836.94570391324
 20
617.0319227503791
 30
0.0
  0
POINT
  5
BB51
330
BA8D
100
AcDbEntity
  8
Defpoints
 62
     0
100
AcDbPoint
 10
1836.94570391324
 20
647.0319227503791
 30
0.0
  0
POINT
  5
BB52
330
BA8D
100
AcDbEntity
  8
Defpoints
 62
     0
100
AcDbPoint
 10
1850.195703913241
 20
647.0319227503791
 30
0.0
  0
ENDBLK
  5
BA98
330
BA8D
100
AcDbEntity
  8
0
100
AcDbBlockEnd
  0
BLOCK
  5
BAA3
330
BA99
100
AcDbEntity
  8
0
100
AcDbBlockBegin
  2
*D18
 70
     1
 10
0.0
 20
0.0
 30
0.0
  3
*D18
  1

  0
LINE
  5
BD90
330
BA99
100
AcDbEntity
  8
AM_5
100
AcDbLine
 10
1808.59570391324
 20
625.5319227503791
 30
0.0
 11
1797.595703913241
 21
625.5319227503791
 31
0.0
  0
LINE
  5
BD91
330
BA99
100
AcDbEntity
  8
AM_5
100
AcDbLine
 10
1831.59570391324
 20
638.5319227503791
 30
0.0
 11
1797.595703913241
 21
638.5319227503791
 31
0.0
  0
LINE
  5
BD92
330
BA99
100
AcDbEntity
  8
AM_5
100
AcDbLine
 10
1799.395703913241
 20
629.1319227503792
 30
0.0
 11
1799.395703913241
 21
634.9319227503791
 31
0.0
  0
SOLID
  5
BD93
330
BA99
100
AcDbEntity
  8
AM_5
100
AcDbTrace
 10
1798.795703913241
 20
629.1319227503792
 30
0.0
 11
1799.995703913241
 21
629.1319227503792
 31
0.0
 12
1799.395703913241
 22
625.5319227503791
 32
0.0
 13
1799.395703913241
 23
625.5319227503791
 33
0.0
  0
SOLID
  5
BD94
330
BA99
100
AcDbEntity
  8
AM_5
100
AcDbTrace
 10
1798.795703913241
 20
634.9319227503791
 30
0.0
 11
1799.995703913241
 21
634.9319227503791
 31
0.0
 12
1799.395703913241
 22
638.5319227503791
 32
0.0
 13
1799.395703913241
 23
638.5319227503791
 33
0.0
  0
MTEXT
  5
BD95
330
BA99
100
AcDbEntity
  8
AM_5
100
AcDbMText
 10
1796.45570391324
 20
632.0319227503794
 30
0.0
 40
4.2
 41
0.0
 71
     5
 72
     1
  1
13
 11
0.0000000000000001
 21
1.0
 31
0.0
 73
     1
 44
1.0
1001
ACAD
1000
MTEXTBEGIN
1070
    73
1070
     1
1070
    44
1040
1.0
1070
    74
1070
     0
1000
MTEXTEND
  0
POINT
  5
BD96
330
BA99
100
AcDbEntity
  8
Defpoints
 62
     0
100
AcDbPoint
 10
1809.795703913241
 20
625.5319227503791
 30
0.0
  0
POINT
  5
BD97
330
BA99
100
AcDbEntity
  8
Defpoints
 62
     0
100
AcDbPoint
 10
1832.79570391324
 20
638.5319227503791
 30
0.0
  0
POINT
  5
BD98
330
BA99
100
AcDbEntity
  8
Defpoints
 62
     0
100
AcDbPoint
 10
1799.395703913241
 20
638.5319227503791
 30
0.0
  0
ENDBLK
  5
BAA4
330
BA99
100
AcDbEntity
  8
0
100
AcDbBlockEnd
  0
BLOCK
  5
BAAF
330
BAA5
100
AcDbEntity
  8
0
100
AcDbBlockBegin
  2
*D19
 70
     1
 10
0.0
 20
0.0
 30
0.0
  3
*D19
  1

  0
LINE
  5
BB02
330
BAA5
100
AcDbEntity
  8
AM_5
100
AcDbLine
 10
1811.59570391324
 20
587.0319227503792
 30
0.0
 11
1797.595703913241
 21
587.0319227503792
 31
0.0
  0
LINE
  5
BB03
330
BAA5
100
AcDbEntity
  8
AM_5
100
AcDbLine
 10
1808.59570391324
 20
625.5319227503791
 30
0.0
 11
1797.595703913241
 21
625.5319227503791
 31
0.0
  0
LINE
  5
BB04
330
BAA5
100
AcDbEntity
  8
AM_5
100
AcDbLine
 10
1799.395703913241
 20
590.6319227503792
 30
0.0
 11
1799.395703913241
 21
621.9319227503791
 31
0.0
  0
SOLID
  5
BB05
330
BAA5
100
AcDbEntity
  8
AM_5
100
AcDbTrace
 10
1798.795703913241
 20
590.6319227503792
 30
0.0
 11
1799.995703913241
 21
590.6319227503792
 31
0.0
 12
1799.395703913241
 22
587.0319227503792
 32
0.0
 13
1799.395703913241
 23
587.0319227503792
 33
0.0
  0
SOLID
  5
BB06
330
BAA5
100
AcDbEntity
  8
AM_5
100
AcDbTrace
 10
1798.795703913241
 20
621.9319227503791
 30
0.0
 11
1799.995703913241
 21
621.9319227503791
 31
0.0
 12
1799.395703913241
 22
625.5319227503791
 32
0.0
 13
1799.395703913241
 23
625.5319227503791
 33
0.0
  0
MTEXT
  5
BB07
330
BAA5
100
AcDbEntity
  8
AM_5
100
AcDbMText
 10
1796.45570391324
 20
606.2819227503795
 30
0.0
 40
4.2
 41
0.0
 71
     5
 72
     1
  1
38.5
 11
0.0000000000000001
 21
1.0
 31
0.0
 73
     1
 44
1.0
1001
ACAD
1000
MTEXTBEGIN
1070
    73
1070
     1
1070
    44
1040
1.0
1070
    74
1070
     0
1000
MTEXTEND
  0
POINT
  5
BB08
330
BAA5
100
AcDbEntity
  8
Defpoints
 62
     0
100
AcDbPoint
 10
1812.79570391324
 20
587.0319227503792
 30
0.0
  0
POINT
  5
BB09
330
BAA5
100
AcDbEntity
  8
Defpoints
 62
     0
100
AcDbPoint
 10
1809.795703913241
 20
625.5319227503791
 30
0.0
  0
POINT
  5
BB0A
330
BAA5
100
AcDbEntity
  8
Defpoints
 62
     0
100
AcDbPoint
 10
1799.395703913241
 20
625.5319227503791
 30
0.0
  0
ENDBLK
  5
BAB0
330
BAA5
100
AcDbEntity
  8
0
100
AcDbBlockEnd
  0
BLOCK
  5
BDE4
330
BDDF
100
AcDbEntity
  8
0
100
AcDbBlockBegin
  2
*S20
 70
     1
 10
0.0
 20
0.0
 30
0.0
  3
*S20
  1

  0
LINE
  5
BDE0
330
BDDF
100
AcDbEntity
  8
AM_5
 62
     5
100
AcDbLine
 10
1668.493311058953
 20
572.5166900456473
 30
0.0
 11
1697.255218093332
 21
572.5166900456473
 31
0.0
  0
LINE
  5
BDE1
330
BDDF
100
AcDbEntity
  8
AM_5
 62
     5
100
AcDbLine
 10
1697.255218093332
 20
572.5166900456473
 30
0.0
 11
1713.574117770345
 21
613.379484628359
 31
0.0
  0
TRACE
  5
BDE2
330
BDDF
100
AcDbEntity
  8
AM_5
 62
     5
370
    35
100
AcDbTrace
 10
1714.08762365707
 20
613.1744117464235
 30
0.0
 11
1713.06061188362
 21
613.5845575102944
 31
0.0
 12
1715.131800963664
 22
617.2799490967587
 32
0.0
 13
1715.131800963664
 23
617.2799490967587
 33
0.0
  0
MTEXT
  5
BDE3
330
BDDF
100
AcDbEntity
  8
AM_5
 62
     5
100
AcDbMText
 10
1668.493311058953
 20
579.3036964219516
 30
0.0
 40
4.2
 41
0.0
 71
     7
 72
     5
  1

  7
ACISOTS
210
0.0
220
0.0
230
-1.0
 11
-1.0
 21
0.0
 31
0.0
 73
     1
 44
1.0
1001
ACAD
1000
MTEXTBEGIN
1070
    73
1070
     1
1070
    44
1040
1.0
1070
    74
1070
     0
1000
MTEXTEND
  0
ENDBLK
  5
BDE5
330
BDDF
100
AcDbEntity
  8
0
100
AcDbBlockEnd
  0
BLOCK
  5
BDEC
330
BDE7
100
AcDbEntity
  8
0
100
AcDbBlockBegin
  2
*S21
 70
     1
 10
0.0
 20
0.0
 30
0.0
  3
*S21
  1

  0
LINE
  5
BDE8
330
BDE7
100
AcDbEntity
  8
AM_VIS
 62
     5
100
AcDbLine
 10
1589.748476710815
 20
669.8125577119043
 30
0.0
 11
1611.230433664305
 21
669.8125577119043
 31
0.0
  0
LINE
  5
BDE9
330
BDE7
100
AcDbEntity
  8
AM_VIS
 62
     5
100
AcDbLine
 10
1611.230433664305
 20
669.8125577119043
 30
0.0
 11
1620.996548236631
 21
664.6637136223057
 31
0.0
  0
TRACE
  5
BDEA
330
BDE7
100
AcDbEntity
  8
AM_VIS
 62
     5
100
AcDbTrace
 10
1620.738673742818
 20
664.1745879451565
 30
0.0
 11
1621.254422730445
 21
665.1528392994549
 31
0.0
 12
1624.711826627054
 22
662.7049623666174
 32
0.0
 13
1624.711826627054
 23
662.7049623666174
 33
0.0
  0
MTEXT
  5
BDEB
330
BDE7
100
AcDbEntity
  8
AM_VIS
 62
     5
100
AcDbMText
 10
1589.748476710815
 20
676.937458319786
 30
0.0
 40
4.2
 41
0.0
 71
     7
 72
     5
  1

  7
ACISOTS
210
0.0
220
0.0
230
-1.0
 11
-1.0
 21
0.0
 31
0.0
 73
     1
 44
1.0
1001
ACAD
1000
MTEXTBEGIN
1070
    73
1070
     1
1070
    44
1040
1.0
1070
    74
1070
     0
1000
MTEXTEND
  0
ENDBLK
  5
BDED
330
BDE7
100
AcDbEntity
  8
0
100
AcDbBlockEnd
  0
BLOCK
  5
BDF4
330
BDEF
100
AcDbEntity
  8
0
100
AcDbBlockBegin
  2
*S22
 70
     1
 10
0.0
 20
0.0
 30
0.0
  3
*S22
  1

  0
LINE
  5
BDF0
330
BDEF
100
AcDbEntity
  8
AM_5
 62
     5
100
AcDbLine
 10
1878.558413583571
 20
654.2560964884022
 30
0.0
 11
1849.796506549192
 21
654.2560964884022
 31
0.0
  0
LINE
  5
BDF1
330
BDEF
100
AcDbEntity
  8
AM_5
 62
     5
100
AcDbLine
 10
1849.796506549192
 20
654.2560964884022
 30
0.0
 11
1842.374665823595
 21
643.4678670704349
 31
0.0
  0
TRACE
  5
BDF2
330
BDEF
100
AcDbEntity
  8
AM_5
 62
     5
370
    35
100
AcDbTrace
 10
1841.91911694735
 20
643.7812652260748
 30
0.0
 11
1842.830214699839
 21
643.154468914795
 31
0.0
 12
1839.994170483351
 22
640.0076298047148
 32
0.0
 13
1839.994170483351
 23
640.0076298047148
 33
0.0
  0
MTEXT
  5
BDF3
330
BDEF
100
AcDbEntity
  8
AM_5
 62
     5
100
AcDbMText
 10
1878.558413583571
 20
661.0431028647065
 30
0.0
 40
4.2
 41
0.0
 71
     7
 72
     5
  1

  7
ACISOTS
 73
     1
 44
1.0
1001
ACAD
1000
MTEXTBEGIN
1070
    73
1070
     1
1070
    44
1040
1.0
1070
    74
1070
     0
1000
MTEXTEND
  0
ENDBLK
  5
BDF5
330
BDEF
100
AcDbEntity
  8
0
100
AcDbBlockEnd
  0
BLOCK
  5
BDFC
330
BDF7
100
AcDbEntity
  8
0
100
AcDbBlockBegin
  2
*S23
 70
     1
 10
0.0
 20
0.0
 30
0.0
  3
*S23
  1

  0
LINE
  5
BDF8
330
BDF7
100
AcDbEntity
  8
AM_VIS
 62
     5
100
AcDbLine
 10
1869.840278497359
 20
666.7490340272635
 30
0.0
 11
1846.366058497471
 21
666.7490340272635
 31
0.0
  0
LINE
  5
BDF9
330
BDF7
100
AcDbEntity
  8
AM_VIS
 62
     5
100
AcDbLine
 10
1846.366058497471
 20
666.7490340272635
 30
0.0
 11
1836.132688987996
 21
656.4955204998071
 31
0.0
  0
TRACE
  5
BDFA
330
BDF7
100
AcDbEntity
  8
AM_VIS
 62
     5
100
AcDbTrace
 10
1835.741316764495
 20
656.886123834762
 30
0.0
 11
1836.524061211498
 21
656.104917164852
 31
0.0
 12
1833.16576208683
 22
653.522753310279
 32
0.0
 13
1833.16576208683
 23
653.522753310279
 33
0.0
  0
MTEXT
  5
BDFB
330
BDF7
100
AcDbEntity
  8
AM_VIS
 62
     5
100
AcDbMText
 10
1869.840278497359
 20
673.8739346351451
 30
0.0
 40
4.2
 41
0.0
 71
     7
 72
     5
  1

  7
ACISOTS
 73
     1
 44
1.0
1001
ACAD
1000
MTEXTBEGIN
1070
    73
1070
     1
1070
    44
1040
1.0
1070
    74
1070
     0
1000
MTEXTEND
  0
ENDBLK
  5
BDFD
330
BDF7
100
AcDbEntity
  8
0
100
AcDbBlockEnd
  0
ENDSEC
  0
SECTION
  2
ENTITIES
  0
LINE
  5
99E7
330
1F
100
AcDbEntity
  8
LOGO
 62
     4
100
AcDbLine
 10
1695.668812196934
 20
534.0758301285553
 30
0.0
 11
1695.668812196934
 21
522.6374865991427
 31
0.0
  0
LINE
  5
99E8
330
1F
100
AcDbEntity
  8
LOGO
 62
     4
100
AcDbLine
 10
1680.87500074468
 20
534.0758301285553
 30
0.0
 11
1680.87500074468
 21
522.6374865991427
 31
0.0
  0
LINE
  5
99E9
330
1F
100
AcDbEntity
  8
LOGO
 62
     4
100
AcDbLine
 10
1695.668812196934
 20
522.6374865991427
 30
0.0
 11
1680.87500074468
 21
522.6374865991427
 31
0.0
  0
LINE
  5
99EA
330
1F
100
AcDbEntity
  8
LOGO
 62
     4
100
AcDbLine
 10
1705.625335281497
 20
548.1137971873782
 30
0.0
 11
1680.87500074468
 21
548.1137971873782
 31
0.0
  0
LINE
  5
99EB
330
1F
100
AcDbEntity
  8
LOGO
 62
     4
100
AcDbLine
 10
1705.625335281497
 20
538.7551524814959
 30
0.0
 11
1680.87500074468
 21
538.7551524814959
 31
0.0
  0
LINE
  5
99EC
330
1F
100
AcDbEntity
  8
LOGO
 62
     4
100
AcDbLine
 10
1680.87500074468
 20
548.1137971873782
 30
0.0
 11
1680.87500074468
 21
538.7551524814959
 31
0.0
  0
LINE
  5
99ED
330
1F
100
AcDbEntity
  8
LOGO
 62
     4
100
AcDbLine
 10
1705.625335281497
 20
548.1137971873782
 30
0.0
 11
1705.625335281497
 21
538.7551524814959
 31
0.0
  0
LINE
  5
99EE
330
1F
100
AcDbEntity
  8
LOGO
 62
     4
100
AcDbLine
 10
1692.358575292376
 20
538.7551524814959
 30
0.0
 11
1692.358575292376
 21
534.0758301285553
 31
0.0
  0
TEXT
  5
99EF
330
1F
100
AcDbEntity
  8
LOGO
  6
Continuous
 62
     7
100
AcDbText
 10
1682.537885339397
 20
540.7087558815118
 30
0.0
 40
5.46
  1
MVMA
  7
CHINESET
100
AcDbText
  0
LINE
  5
99F0
330
1F
100
AcDbEntity
  8
LOGO
 62
     4
100
AcDbLine
 10
1695.668812196934
 20
534.0758301285553
 30
0.0
 11
1680.87500074468
 21
534.0758301285553
 31
0.0
  0
TEXT
  5
99F1
330
1F
100
AcDbEntity
  8
LOGO
  6
Continuous
100
AcDbText
 10
1685.08822088326
 20
524.2519845327485
 30
204.4500521856777
 40
2.339999999999999
  1
Model
 41
0.8
  7
CHINESET
100
AcDbText
  0
TEXT
  5
99F2
330
1F
100
AcDbEntity
  8
LOGO
100
AcDbText
 10
1684.465388951981
 20
528.5898402267552
 30
204.4500521856777
 40
3.9
  1
型號
  7
CHINESET
100
AcDbText
  0
LINE
  5
99F3
330
1F
100
AcDbEntity
  8
LOGO
  6
Continuous
 62
     7
100
AcDbLine
 10
1706.620236561865
 20
543.4013250358737
 30
0.0
 11
1710.752672582211
 21
543.4013250358737
 31
0.0
  0
LINE
  5
99F4
330
1F
100
AcDbEntity
  8
LOGO
 62
     4
100
AcDbLine
 10
1717.054692826181
 20
534.0758301285553
 30
0.0
 11
1717.054692826181
 21
522.6374865991427
 31
0.0
  0
LINE
  5
99F5
330
1F
100
AcDbEntity
  8
LOGO
 62
     4
100
AcDbLine
 10
1698.10592341008
 20
534.0758301285553
 30
0.0
 11
1698.10592341008
 21
522.6374865991427
 31
0.0
  0
LINE
  5
99F6
330
1F
100
AcDbEntity
  8
LOGO
 62
     4
100
AcDbLine
 10
1717.054692826181
 20
522.6374865991427
 30
0.0
 11
1698.10592341008
 21
522.6374865991427
 31
0.0
  0
LINE
  5
99F7
330
1F
100
AcDbEntity
  8
LOGO
 62
     4
100
AcDbLine
 10
1728.553013962412
 20
548.1137971873782
 30
0.0
 11
1712.056238312928
 21
548.1137971873782
 31
0.0
  0
LINE
  5
99F8
330
1F
100
AcDbEntity
  8
LOGO
 62
     4
100
AcDbLine
 10
1728.553013962412
 20
538.7551524814959
 30
0.0
 11
1712.056238312928
 21
538.7551524814959
 31
0.0
  0
LINE
  5
99F9
330
1F
100
AcDbEntity
  8
LOGO
 62
     4
100
AcDbLine
 10
1712.056238312928
 20
548.1137971873782
 30
0.0
 11
1712.056238312928
 21
538.7551524814959
 31
0.0
  0
LINE
  5
99FA
330
1F
100
AcDbEntity
  8
LOGO
 62
     4
100
AcDbLine
 10
1728.553013962412
 20
548.1137971873782
 30
0.0
 11
1728.553013962412
 21
538.7551524814959
 31
0.0
  0
LINE
  5
99FB
330
1F
100
AcDbEntity
  8
LOGO
 62
     4
100
AcDbLine
 10
1717.669079478994
 20
538.7551524814959
 30
0.0
 11
1717.669079478994
 21
536.4154913050255
 31
0.0
  0
TEXT
  5
99FC
330
1F
100
AcDbEntity
  8
LOGO
  6
Continuous
 62
     7
100
AcDbText
 10
1713.577549843809
 20
540.7087558815118
 30
0.0
 40
5.46
  1
300
  7
CHINESET
100
AcDbText
  0
LINE
  5
99FD
330
1F
100
AcDbEntity
  8
LOGO
 62
     4
100
AcDbLine
 10
1717.054692826181
 20
534.0758301285553
 30
0.0
 11
1698.10592341008
 21
534.0758301285553
 31
0.0
  0
LINE
  5
99FE
330
1F
100
AcDbEntity
  8
LOGO
  6
Continuous
 62
     7
100
AcDbLine
 10
1729.610076223404
 20
543.4013250358737
 30
0.0
 11
1733.742512243749
 21
543.4013250358737
 31
0.0
  0
LINE
  5
99FF
330
1F
100
AcDbEntity
  8
LOGO
 62
     4
100
AcDbLine
 10
1735.214432718872
 20
534.0758301285553
 30
0.0
 11
1735.214432718872
 21
522.6374865991427
 31
0.0
  0
LINE
  5
9A00
330
1F
100
AcDbEntity
  8
LOGO
 62
     4
100
AcDbLine
 10
1719.592261613088
 20
534.0758301285553
 30
0.0
 11
1719.592261613088
 21
522.6374865991427
 31
0.0
  0
LINE
  5
9A01
330
1F
100
AcDbEntity
  8
LOGO
 62
     4
100
AcDbLine
 10
1735.214432718872
 20
522.6374865991427
 30
0.0
 11
1719.592261613088
 21
522.6374865991427
 31
0.0
  0
LINE
  5
9A02
330
1F
100
AcDbEntity
  8
LOGO
 62
     4
100
AcDbLine
 10
1741.689622585813
 20
548.1137971873782
 30
0.0
 11
1735.046077974466
 21
548.1137971873782
 31
0.0
  0
LINE
  5
9A03
330
1F
100
AcDbEntity
  8
LOGO
 62
     4
100
AcDbLine
 10
1741.689622585813
 20
538.7551524814959
 30
0.0
 11
1735.046077974466
 21
538.7551524814959
 31
0.0
  0
LINE
  5
9A04
330
1F
100
AcDbEntity
  8
LOGO
 62
     4
100
AcDbLine
 10
1735.046077974466
 20
548.1137971873782
 30
0.0
 11
1735.046077974466
 21
538.7551524814959
 31
0.0
  0
LINE
  5
9A05
330
1F
100
AcDbEntity
  8
LOGO
 62
     4
100
AcDbLine
 10
1741.689622585813
 20
548.1137971873782
 30
0.0
 11
1741.689622585813
 21
538.7551524814959
 31
0.0
  0
LINE
  5
9A06
330
1F
100
AcDbEntity
  8
LOGO
 62
     4
100
AcDbLine
 10
1738.367850280139
 20
538.7551524814959
 30
0.0
 11
1738.367850280139
 21
536.4154913050255
 31
0.0
  0
TEXT
  5
9A07
330
1F
100
AcDbEntity
  8
LOGO
  6
Continuous
 62
     7
100
AcDbText
 10
1736.29168855982
 20
540.7087558815118
 30
0.0
 40
5.46
  1
4
  7
CHINESET
100
AcDbText
  0
LINE
  5
9A08
330
1F
100
AcDbEntity
  8
LOGO
 62
     4
100
AcDbLine
 10
1735.214432718872
 20
534.0758301285553
 30
0.0
 11
1719.592261613088
 21
534.0758301285553
 31
0.0
  0
LINE
  5
9A09
330
1F
100
AcDbEntity
  8
LOGO
 62
     4
100
AcDbLine
 10
1764.899522301005
 20
534.0758301285553
 30
0.0
 11
1764.899522301005
 21
522.6374865991427
 31
0.0
  0
LINE
  5
9A0A
330
1F
100
AcDbEntity
  8
LOGO
 62
     4
100
AcDbLine
 10
1738.382669384716
 20
534.0758301285553
 30
0.0
 11
1738.382669384716
 21
522.6374865991427
 31
0.0
  0
LINE
  5
9A0B
330
1F
100
AcDbEntity
  8
LOGO
 62
     4
100
AcDbLine
 10
1764.899522301005
 20
522.6374865991427
 30
0.0
 11
1738.382669384716
 21
522.6374865991427
 31
0.0
  0
LINE
  5
9A0C
330
1F
100
AcDbEntity
  8
LOGO
 62
     4
100
AcDbLine
 10
1755.868823784054
 20
548.1137971873782
 30
0.0
 11
1743.521560281697
 21
548.1137971873782
 31
0.0
  0
LINE
  5
9A0D
330
1F
100
AcDbEntity
  8
LOGO
 62
     4
100
AcDbLine
 10
1755.868823784054
 20
538.7551524814959
 30
0.0
 11
1743.521560281697
 21
538.7551524814959
 31
0.0
  0
LINE
  5
9A0E
330
1F
100
AcDbEntity
  8
LOGO
 62
     4
100
AcDbLine
 10
1743.521560281697
 20
548.1137971873782
 30
0.0
 11
1743.521560281697
 21
538.7551524814959
 31
0.0
  0
LINE
  5
9A0F
330
1F
100
AcDbEntity
  8
LOGO
 62
     4
100
AcDbLine
 10
1755.868823784054
 20
548.1137971873782
 30
0.0
 11
1755.868823784054
 21
538.7551524814959
 31
0.0
  0
LINE
  5
9A10
330
1F
100
AcDbEntity
  8
LOGO
 62
     4
100
AcDbLine
 10
1749.695192032876
 20
538.7551524814959
 30
0.0
 11
1749.695192032876
 21
534.0758301285553
 31
0.0
  0
TEXT
  5
9A11
330
1F
100
AcDbEntity
  8
LOGO
  6
Continuous
 62
     7
100
AcDbText
 10
1745.730493562852
 20
540.7087558815118
 30
0.0
 40
5.46
  1
R1
  7
CHINESET
100
AcDbText
  0
LINE
  5
9A12
330
1F
100
AcDbEntity
  8
LOGO
 62
     4
100
AcDbLine
 10
1764.899522301005
 20
534.0758301285553
 30
0.0
 11
1738.382669384716
 21
534.0758301285553
 31
0.0
  0
TEXT
  5
9A13
330
1F
100
AcDbEntity
  8
LOGO
  6
Continuous
100
AcDbText
 10
1699.592678833341
 20
524.2519845327485
 30
204.4500521856777
 40
2.339999999999999
  1
Body width
 41
0.8
  7
CHINESET
100
AcDbText
  0
TEXT
  5
9A14
330
1F
100
AcDbEntity
  8
LOGO
100
AcDbText
 10
1699.570635222886
 20
528.5898402267552
 30
204.4500521856777
 40
3.9
  1
本體寬度
  7
CHINESET
100
AcDbText
  0
TEXT
  5
9A15
330
1F
100
AcDbEntity
  8
LOGO
  6
Continuous
100
AcDbText
 10
1723.948380652868
 20
524.2519845327485
 30
204.4500521856777
 40
2.339999999999999
  1
4 Way
 41
0.8
  7
CHINESET
100
AcDbText
  0
TEXT
  5
9A16
330
1F
100
AcDbEntity
  8
LOGO
100
AcDbText
 10
1721.666033261061
 20
528.5898402267552
 30
204.4500521856777
 40
3.9
  1
4方向
  7
CHINESET
100
AcDbText
  0
TEXT
  5
9A17
330
1F
100
AcDbEntity
  8
LOGO
  6
Continuous
100
AcDbText
 10
1743.858636340173
 20
524.2519845327485
 30
204.4500521856777
 40
2.339999999999999
  1
Roller lever
 41
0.8
  7
CHINESET
100
AcDbText
  0
TEXT
  5
9A18
330
1F
100
AcDbEntity
  8
LOGO
100
AcDbText
 10
1739.835104962297
 20
528.5898402267552
 30
204.4500521856777
 40
3.9
  1
滾輪式操縱桿
  7
CHINESET
100
AcDbText
  0
LINE
  5
9A37
330
1F
100
AcDbEntity
  8
LOGO
 62
     4
100
AcDbLine
 10
1717.669079478994
 20
536.4154913050255
 30
0.0
 11
1707.58030811813
 21
536.4154913050255
 31
0.0
  0
LINE
  5
9A38
330
1F
100
AcDbEntity
  8
LOGO
 62
     4
100
AcDbLine
 10
1707.58030811813
 20
534.0758301285553
 30
0.0
 11
1707.58030811813
 21
536.4154913050255
 31
0.0
  0
LINE
  5
9A39
330
1F
100
AcDbEntity
  8
LOGO
 62
     4
100
AcDbLine
 10
1738.367850280139
 20
536.4154913050255
 30
0.0
 11
1727.40334716598
 21
536.4154913050255
 31
0.0
  0
LINE
  5
9A3A
330
1F
100
AcDbEntity
  8
LOGO
 62
     4
100
AcDbLine
 10
1727.40334716598
 20
534.0758301285553
 30
0.0
 11
1727.40334716598
 21
536.4154913050255
 31
0.0
  0
LINE
  5
9AFB
330
1F
100
AcDbEntity
  8
LOGO
 62
     4
100
AcDbLine
 10
1900.358827569441
 20
551.2333454226725
 30
0.0
 11
1569.336938117531
 21
551.2333454226725
 31
0.0
  0
LWPOLYLINE
  5
9AFC
330
1F
100
AcDbEntity
  8
LOGO
 62
     4
100
AcDbPolyline
 90
        4
 70
     1
 43
0.0
 10
1569.336938117531
 20
551.2333454226725
 10
1900.35882756944
 20
551.2333454226725
 10
1900.35882756944
 20
789.9171854226717
 10
1569.336938117531
 20
789.9171854226717
1001
GENIUS_GENREC_14
1002
{
1000
PYDIR
1011
1569.336938117531
1021
789.9171854226717
1031
0.0
1002
}
1002
{
1000
PXDIR
1011
1900.35882756944
1021
551.2333454226725
1031
0.0
1002
}
1002
{
1000
PORI
1011
1569.336938117531
1021
551.2333454226725
1031
0.0
1002
}
1002
{
1000
PINS
1011
1569.336938117531
1021
551.2333454226725
1031
0.0
1002
}
1002
{
1000
PINS2
1011
1900.35882756944
1021
789.9171854226717
1031
0.0
1002
}
1002
{
1000
C
1070
     1
1002
}
1001
GENIUS_GENODEF_13
1002
{
1000
HIER
1070
     0
1002
}
1002
{
1000
MANEDIT
1070
     0
1002
}
1002
{
1000
NOSEL
1070
     0
1002
}
1002
{
1000
BEHIND
1070
     0
1002
}
1002
{
1000
OTHER
1070
     0
1002
}
1002
{
1000
REACTOR
1002
}
1001
GENIUS_GENOBJ-N-REC_13
1002
{
1000
OWNER
1000
GEN
1002
}
  0
LWPOLYLINE
  5
9AFD
330
1F
100
AcDbEntity
  8
LOGO
 62
     4
100
AcDbPolyline
 90
        4
 70
     1
 43
0.0
 10
1569.336938117531
 20
551.2333454226725
 10
1900.35882756944
 20
551.2333454226725
 10
1900.35882756944
 20
520.0378630697308
 10
1569.336938117531
 20
520.0378630697308
1001
GENIUS_GENREC_14
1002
{
1000
PYDIR
1011
1569.336938117531
1021
520.0378630697308
1031
0.0
1002
}
1002
{
1000
PXDIR
1011
1900.35882756944
1021
551.2333454226725
1031
0.0
1002
}
1002
{
1000
PORI
1011
1569.336938117531
1021
551.2333454226725
1031
0.0
1002
}
1002
{
1000
PINS
1011
1569.336938117531
1021
551.2333454226725
1031
0.0
1002
}
1002
{
1000
PINS2
1011
1900.35882756944
1021
520.0378630697308
1031
0.0
1002
}
1002
{
1000
C
1070
     1
1002
}
1001
GENIUS_GENOBJ-N-REC_13
1002
{
1000
OWNER
1000
GEN
1002
}
1001
GENIUS_GENODEF_13
1002
{
1000
HIER
1070
     0
1002
}
1002
{
1000
MANEDIT
1070
     0
1002
}
1002
{
1000
NOSEL
1070
     0
1002
}
1002
{
1000
BEHIND
1070
     0
1002
}
1002
{
1000
OTHER
1070
     0
1002
}
1002
{
1000
REACTOR
1002
}
  0
TEXT
  5
9AFE
330
1F
100
AcDbEntity
  8
LOGO
 62
     7
100
AcDbText
 10
1639.774271679515
 20
537.5671354403411
 30
0.0
 40
4.159397647058823
  1
Order example:
 41
0.8
  7
CHINESET
100
AcDbText
  0
TEXT
  5
9AFF
330
1F
100
AcDbEntity
  8
LOGO
 62
     7
100
AcDbText
 10
1640.520502014216
 20
543.4227061131281
 30
0.0
 40
6.239096470588234
  1
訂購代號：
  7
CHINESET
100
AcDbText
  0
LINE
  5
9B00
330
1F
100
AcDbEntity
  8
LOGO
 62
     4
100
AcDbLine
 10
1637.966999294002
 20
520.0378630697311
 30
0.0
 11
1637.966999294002
 21
551.2333454226725
 31
0.0
  0
TEXT
  5
9B01
330
1F
100
AcDbEntity
  8
LOGO
  6
Continuous
100
AcDbText
 10
1580.542495605114
 20
526.1661684998788
 30
0.0
 40
4.679322352941176
  1
金器工業股份有限公司
  7
CHINESET
100
AcDbText
  0
TEXT
  5
9B02
330
1F
100
AcDbEntity
  8
LOGO
  6
Continuous
100
AcDbText
 10
1571.947506201035
 20
521.4859293666296
 30
0.0
 40
3.119548235294117
  1
MINDMAN INDUSTRIAL CO., LTD.
 41
0.85
  7
CHINESET
100
AcDbText
  0
LINE
  5
9B03
330
1F
100
AcDbEntity
  8
LOGO
 62
     4
100
AcDbLine
 10
1637.966999294002
 20
544.9942489520842
 30
0.0
 11
1592.213625176355
 21
544.9942489520842
 31
0.0
  0
LINE
  5
9B04
330
1F
100
AcDbEntity
  8
LOGO
 62
     4
100
AcDbLine
 10
1637.966999294002
 20
538.7551524814959
 30
0.0
 11
1592.213625176355
 21
538.7551524814959
 31
0.0
  0
LINE
  5
9B05
330
1F
100
AcDbEntity
  8
LOGO
 62
     4
100
AcDbLine
 10
1637.966999294002
 20
532.5160560109082
 30
0.0
 11
1569.336938117531
 21
532.5160560109082
 31
0.0
  0
LINE
  5
9B06
330
1F
100
AcDbEntity
  8
LOGO
 62
     4
100
AcDbLine
 10
1592.213625176355
 20
532.5160560109082
 30
0.0
 11
1592.213625176355
 21
551.2333454226725
 31
0.0
  0
TEXT
  5
9B07
330
1F
100
AcDbEntity
  8
LOGO
100
AcDbText
 10
1623.483896859402
 20
534.0758301285546
 30
0.0
 40
3.119548235294117
  1
mm
  7
CHINESET
 72
     1
 11
1627.346194674528
 21
535.6356042462017
 31
0.0
100
AcDbText
 73
     2
  0
TEXT
  5
9B08
330
1F
100
AcDbEntity
  8
LOGO
100
AcDbText
 10
1621.849847783772
 20
546.5540230697312
 30
0.0
 40
3.119548235294117
  1
1 : 1
  7
CHINESET
 72
     1
 11
1627.346194674528
 21
548.1137971873782
 31
0.0
100
AcDbText
 73
     2
  0
LINE
  5
9B09
330
1F
100
AcDbEntity
  8
LOGO
 62
     4
100
AcDbLine
 10
1617.170011058708
 20
532.5160560109082
 30
0.0
 11
1617.170011058708
 21
551.2333454226725
 31
0.0
  0
TEXT
  5
9B0A
330
1F
100
AcDbEntity
  8
LOGO
100
AcDbText
 10
1594.78585981501
 20
546.5555582804769
 30
204.4500521856777
 40
3.119548235294117
  1
比例 Scale:
 41
0.9
  7
CHINESET
 72
     4
 11
1604.691818117531
 21
548.1137971873782
 31
204.4500521856777
100
AcDbText
  0
TEXT
  5
9B0B
330
1F
100
AcDbEntity
  8
LOGO
100
AcDbText
 10
1594.606207260388
 20
540.3588080396246
 30
204.4500521856777
 40
3.119548235294117
  1
投影  View:
 41
0.9
  7
CHINESET
 72
     4
 11
1604.691818117531
 21
541.8747007167898
 31
204.4500521856777
100
AcDbText
  0
TEXT
  5
9B0C
330
1F
100
AcDbEntity
  8
LOGO
100
AcDbText
 10
1594.911198806607
 20
534.0758301285546
 30
204.4500521856777
 40
3.119548235294117
  1
單位  Unit:
 41
0.9
  7
CHINESET
 72
     4
 11
1604.691818117531
 21
535.6356042462017
 31
204.4500521856777
100
AcDbText
  0
SOLID
  5
9B0D
330
1F
100
AcDbEntity
  8
LOGO
 62
     5
100
AcDbTrace
 10
1572.57351947659
 20
537.7018609193586
 30
0.0
 11
1573.922330276585
 21
537.7018609193583
 31
0.0
 12
1579.550127062773
 22
550.4923081606953
 32
0.0
 13
1580.89893786277
 23
550.4923081606945
 33
0.0
  0
SOLID
  5
9B0E
330
1F
100
AcDbEntity
  8
LOGO
 62
     5
100
AcDbTrace
 10
1574.480458883481
 20
537.7018609193586
 30
0.0
 11
1575.829269683477
 21
537.7018609193586
 31
0.0
 12
1580.89893786277
 22
549.4690723813879
 32
0.0
 13
1579.550127062773
 23
544.5234327814043
 33
0.0
  0
SOLID
  5
9B0F
330
1F
100
AcDbEntity
  8
LOGO
 62
     2
100
AcDbTrace
 10
1573.922330276585
 20
537.7018609193583
 30
0.0
 11
1574.480458883481
 21
537.7018609193586
 31
0.0
 12
1580.89893786277
 22
550.4923081606945
 32
0.0
 13
1581.457066469664
 23
550.4923081606945
 33
0.0
  0
SOLID
  5
9B10
330
1F
100
AcDbEntity
  8
LOGO
 62
     5
100
AcDbTrace
 10
1570.411044995272
 20
533.0507891952366
 30
0.0
 11
1570.876152167685
 21
533.0507891952366
 31
0.0
 12
1572.185930166247
 22
535.3763250572974
 32
0.0
 13
1572.651037338658
 23
535.3763250572974
 33
0.0
  0
SOLID
  5
9B11
330
1F
100
AcDbEntity
  8
LOGO
 62
     5
100
AcDbTrace
 10
1572.185930166247
 20
535.3763250572974
 30
0.0
 11
1572.651037338658
 21
535.3763250572974
 31
0.0
 12
1572.185930166247
 22
533.0507891952366
 32
0.0
 13
1572.651037338658
 23
533.0507891952366
 33
0.0
  0
SOLID
  5
9B12
330
1F
100
AcDbEntity
  8
LOGO
 62
     5
100
AcDbTrace
 10
1572.185930166247
 20
533.0507891952366
 30
0.0
 11
1572.651037338658
 21
533.0507891952366
 31
0.0
 12
1573.960815337222
 22
535.3763250572974
 32
0.0
 13
1574.425922509634
 23
535.3763250572974
 33
0.0
  0
SOLID
  5
9B13
330
1F
100
AcDbEntity
  8
LOGO
 62
     5
100
AcDbTrace
 10
1573.960815337222
 20
535.3763250572974
 30
0.0
 11
1574.425922509634
 21
535.3763250572974
 31
0.0
 12
1573.960815337222
 22
533.0507891952366
 32
0.0
 13
1574.425922509634
 23
533.0507891952366
 33
0.0
  0
POLYLINE
  5
9B14
330
1F
100
AcDbEntity
  8
LOGO
 62
     5
100
AcDb2dPolyline
 66
     1
 10
0.0
 20
0.0
 30
0.0
 40
0.4658525364705881
 41
0.4658525364705881
  0
VERTEX
  5
9B15
330
9B14
100
AcDbEntity
  8
LOGO
 62
     5
100
AcDbVertex
100
AcDb2dVertex
 10
1589.551049315725
 20
534.446110712473
 30
0.0
 42
1.0
  0
VERTEX
  5
9B16
330
9B14
100
AcDbEntity
  8
LOGO
 62
     5
100
AcDbVertex
100
AcDb2dVertex
 10
1588.153491706313
 20
534.446110712473
 30
0.0
 42
1.0
  0
SEQEND
  5
9B17
330
9B14
100
AcDbEntity
  8
LOGO
 62
     5
  0
POLYLINE
  5
9B18
330
1F
100
AcDbEntity
  8
LOGO
 62
     5
100
AcDb2dPolyline
 66
     1
 10
0.0
 20
0.0
 30
0.0
 70
     1
  0
VERTEX
  5
9B19
330
9B18
100
AcDbEntity
  8
LOGO
 62
     5
100
AcDbVertex
100
AcDb2dVertex
 10
1585.519033449209
 20
534.2135571262666
 30
0.0
 42
1.000000057330635
  0
VERTEX
  5
9B1A
330
9B18
100
AcDbEntity
  8
LOGO
 62
     5
100
AcDbVertex
100
AcDb2dVertex
 10
1586.914354966445
 20
534.2135571262666
 30
0.0
 42
1.000000057330635
  0
SEQEND
  5
9B1B
330
9B18
100
AcDbEntity
  8
LOGO
 62
     5
  0
CIRCLE
  5
9B1C
330
1F
100
AcDbEntity
  8
LOGO
 62
     5
100
AcDbCircle
 10
1586.216694207828
 20
534.2135571262666
 30
0.0
 40
0.697660758618353
  0
POLYLINE
  5
9B1D
330
1F
100
AcDbEntity
  8
LOGO
 62
     5
100
AcDb2dPolyline
 66
     1
 10
0.0
 20
0.0
 30
0.0
 70
     1
 40
0.4658525364705881
 41
0.4658525364705881
  0
VERTEX
  5
9B1E
330
9B1D
100
AcDbEntity
  8
LOGO
 62
     5
100
AcDbVertex
100
AcDb2dVertex
 10
1585.284989134886
 20
534.2135571262666
 30
0.0
 42
1.0
  0
VERTEX
  5
9B1F
330
9B1D
100
AcDbEntity
  8
LOGO
 62
     5
100
AcDbVertex
100
AcDb2dVertex
 10
1587.148399280768
 20
534.2135571262666
 30
0.0
 42
1.0
  0
SEQEND
  5
9B20
330
9B1D
100
AcDbEntity
  8
LOGO
 62
     5
  0
LINE
  5
9B21
330
1F
100
AcDbEntity
  8
LOGO
100
AcDbLine
 10
1589.782484855843
 20
533.0507891952366
 30
0.0
 11
1589.782484855843
 21
534.446110712473
 31
0.0
  0
SOLID
  5
9B22
330
1F
100
AcDbEntity
  8
LOGO
 62
     5
100
AcDbTrace
 10
1586.91430845573
 20
535.3763250572974
 30
0.0
 11
1587.379415628141
 21
535.3763250572974
 31
0.0
 12
1586.91430845573
 22
533.0507891952366
 32
0.0
 13
1587.379415628141
 23
533.0507891952366
 33
0.0
  0
SOLID
  5
9B23
330
1F
100
AcDbEntity
  8
LOGO
 62
     5
100
AcDbTrace
 10
1587.922056166194
 20
533.0507891952366
 30
0.0
 11
1588.387163338607
 21
533.0507891952366
 31
0.0
 12
1587.922056166194
 22
535.3763250572974
 32
0.0
 13
1588.387163338607
 23
535.3763250572974
 33
0.0
  0
SOLID
  5
9B24
330
1F
100
AcDbEntity
  8
LOGO
 62
     5
100
AcDbTrace
 10
1589.317377683431
 20
534.446110712473
 30
0.0
 11
1589.782484855843
 21
534.446110712473
 31
0.0
 12
1589.317377683431
 22
533.0507891952366
 32
0.0
 13
1589.782484855843
 23
533.0507891952366
 33
0.0
  0
SOLID
  5
9B25
330
1F
100
AcDbEntity
  8
LOGO
 62
     5
100
AcDbTrace
 10
1587.875545448953
 20
549.4690723813879
 30
0.0
 11
1586.526734648958
 21
544.5234327814043
 31
0.0
 12
1587.875545448953
 22
537.7018609193583
 32
0.0
 13
1586.526734648958
 23
537.7018609193583
 33
0.0
  0
SOLID
  5
9B26
330
1F
100
AcDbEntity
  8
LOGO
 62
     5
100
AcDbTrace
 10
1588.433674055848
 20
537.7018609193583
 30
0.0
 11
1589.782484855843
 21
537.7018609193583
 31
0.0
 12
1588.433674055848
 22
550.4923081606945
 32
0.0
 13
1589.782484855843
 23
550.4923081606953
 33
0.0
  0
SOLID
  5
9B27
330
1F
100
AcDbEntity
  8
LOGO
 62
     2
100
AcDbTrace
 10
1587.875545448953
 20
550.4923081606953
 30
0.0
 11
1588.433674055848
 21
550.4923081606945
 31
0.0
 12
1587.875545448953
 22
537.7018609193583
 32
0.0
 13
1588.433674055848
 23
537.7018609193583
 33
0.0
  0
POLYLINE
  5
9B28
330
1F
100
AcDbEntity
  8
LOGO
 62
     5
100
AcDb2dPolyline
 66
     1
 10
0.0
 20
0.0
 30
0.0
 40
0.4658525364705881
 41
0.4658525364705881
  0
VERTEX
  5
9B29
330
9B28
100
AcDbEntity
  8
LOGO
 62
     5
100
AcDbVertex
100
AcDb2dVertex
 10
1582.884482170672
 20
534.446110712473
 30
0.0
 42
1.0
  0
VERTEX
  5
9B2A
330
9B28
100
AcDbEntity
  8
LOGO
 62
     5
100
AcDbVertex
100
AcDb2dVertex
 10
1581.486924561259
 20
534.446110712473
 30
0.0
 42
1.0
  0
SEQEND
  5
9B2B
330
9B28
100
AcDbEntity
  8
LOGO
 62
     5
  0
POLYLINE
  5
9B2C
330
1F
100
AcDbEntity
  8
LOGO
 62
     5
100
AcDb2dPolyline
 66
     1
 10
0.0
 20
0.0
 30
0.0
 40
0.4658525364705881
 41
0.4658525364705881
  0
VERTEX
  5
9B2D
330
9B2C
100
AcDbEntity
  8
LOGO
 62
     5
100
AcDbVertex
100
AcDb2dVertex
 10
1584.279803687907
 20
534.446110712473
 30
0.0
 42
1.0
  0
VERTEX
  5
9B2E
330
9B2C
100
AcDbEntity
  8
LOGO
 62
     5
100
AcDbVertex
100
AcDb2dVertex
 10
1582.882246078496
 20
534.446110712473
 30
0.0
 42
1.0
  0
SEQEND
  5
9B2F
330
9B2C
100
AcDbEntity
  8
LOGO
 62
     5
  0
POLYLINE
  5
9B30
330
1F
100
AcDbEntity
  8
LOGO
 62
     5
100
AcDb2dPolyline
 66
     1
 10
0.0
 20
0.0
 30
0.0
 40
0.4658525364705881
 41
0.4658525364705881
  0
VERTEX
  5
9B31
330
9B30
100
AcDbEntity
  8
LOGO
 62
     5
100
AcDbVertex
100
AcDb2dVertex
 10
1577.613236542854
 20
534.446110712473
 30
0.0
 42
1.0
  0
VERTEX
  5
9B32
330
9B30
100
AcDbEntity
  8
LOGO
 62
     5
100
AcDbVertex
100
AcDb2dVertex
 10
1576.215678933442
 20
534.446110712473
 30
0.0
 42
1.0
  0
SEQEND
  5
9B33
330
9B30
100
AcDbEntity
  8
LOGO
 62
     5
  0
SOLID
  5
9B34
330
1F
100
AcDbEntity
  8
LOGO
 62
     5
100
AcDbTrace
 10
1575.984243393324
 20
535.3763250572974
 30
0.0
 11
1576.449350565735
 21
535.3763250572974
 31
0.0
 12
1575.984243393324
 22
533.0507891952366
 32
0.0
 13
1576.449350565735
 23
533.0507891952366
 33
0.0
  0
SOLID
  5
9B35
330
1F
100
AcDbEntity
  8
LOGO
 62
     5
100
AcDbTrace
 10
1577.379564910561
 20
534.446110712473
 30
0.0
 11
1577.844672082973
 21
534.446110712473
 31
0.0
 12
1577.379564910561
 22
533.0507891952366
 32
0.0
 13
1577.844672082973
 23
533.0507891952366
 33
0.0
  0
POLYLINE
  5
9B36
330
1F
100
AcDbEntity
  8
LOGO
 62
     5
100
AcDb2dPolyline
 66
     1
 10
0.0
 20
0.0
 30
0.0
 70
     1
 40
0.4658525364705881
 41
0.4658525364705881
  0
VERTEX
  5
9B37
330
9B36
100
AcDbEntity
  8
LOGO
 62
     5
100
AcDbVertex
100
AcDb2dVertex
 10
1578.618421989832
 20
534.2135571262666
 30
0.0
 42
1.0
  0
VERTEX
  5
9B38
330
9B36
100
AcDbEntity
  8
LOGO
 62
     5
100
AcDbVertex
100
AcDb2dVertex
 10
1580.481832135715
 20
534.2135571262666
 30
0.0
 42
1.0
  0
SEQEND
  5
9B39
330
9B36
100
AcDbEntity
  8
LOGO
 62
     5
  0
SOLID
  5
9B3A
330
1F
100
AcDbEntity
  8
LOGO
 62
     5
100
AcDbTrace
 10
1580.247741310675
 20
536.0739858159161
 30
0.0
 11
1580.712848483087
 21
536.0739858159161
 31
0.0
 12
1580.247741310675
 22
533.0507891952366
 32
0.0
 13
1580.712848483087
 23
533.0507891952366
 33
0.0
  0
SOLID
  5
9B3B
330
1F
100
AcDbEntity
  8
LOGO
 62
     5
100
AcDbTrace
 10
1581.255489021142
 20
535.3763250572974
 30
0.0
 11
1581.720596193553
 21
535.3763250572974
 31
0.0
 12
1581.255489021142
 22
533.0507891952366
 32
0.0
 13
1581.720596193553
 23
533.0507891952366
 33
0.0
  0
SOLID
  5
9B3C
330
1F
100
AcDbEntity
  8
LOGO
 62
     5
100
AcDbTrace
 10
1582.650810538377
 20
534.446110712473
 30
0.0
 11
1583.11591771079
 21
534.446110712473
 31
0.0
 12
1582.650810538377
 22
533.0507891952366
 32
0.0
 13
1583.11591771079
 23
533.0507891952366
 33
0.0
  0
SOLID
  5
9B3D
330
1F
100
AcDbEntity
  8
LOGO
 62
     5
100
AcDbTrace
 10
1584.046132055614
 20
534.446110712473
 30
0.0
 11
1584.511239228026
 21
534.446110712473
 31
0.0
 12
1584.046132055614
 22
533.0507891952358
 32
0.0
 13
1584.511239228026
 23
533.0507891952358
 33
0.0
  0
SOLID
  5
9B3E
330
1F
100
AcDbEntity
  8
LOGO
 62
     5
100
AcDbTrace
 10
1574.976495682858
 20
535.7019000779859
 30
0.0
 11
1575.441602855271
 21
535.7019000779859
 31
0.0
 12
1574.976495682858
 22
536.0739858159161
 32
0.0
 13
1575.441602855271
 23
536.0739858159161
 33
0.0
  0
SOLID
  5
9B3F
330
1F
100
AcDbEntity
  8
LOGO
 62
     5
100
AcDbTrace
 10
1574.976495682858
 20
535.3763250572974
 30
0.0
 11
1575.441602855271
 21
535.3763250572974
 31
0.0
 12
1574.976495682858
 22
533.0507891952358
 32
0.0
 13
1575.441602855271
 23
533.0507891952366
 33
0.0
  0
SOLID
  5
9B40
330
1F
100
AcDbEntity
  8
LOGO
 62
     5
100
AcDbTrace
 10
1579.550127062773
 20
537.7018609193586
 30
0.0
 11
1580.89893786277
 21
537.7018609193586
 31
0.0
 12
1579.550127062773
 22
544.5234327814043
 32
0.0
 13
1580.89893786277
 23
549.4690723813879
 33
0.0
  0
SOLID
  5
9B41
330
1F
100
AcDbEntity
  8
LOGO
 62
     5
100
AcDbTrace
 10
1581.457066469664
 20
550.4923081606945
 30
0.0
 11
1582.80587726966
 21
550.4923081606953
 31
0.0
 12
1581.457066469664
 22
538.7250966986653
 32
0.0
 13
1582.80587726966
 23
543.6707362986488
 33
0.0
  0
SOLID
  5
9B42
330
1F
100
AcDbEntity
  8
LOGO
 62
     2
100
AcDbTrace
 10
1580.89893786277
 20
550.4923081606945
 30
0.0
 11
1581.457066469664
 21
550.4923081606945
 31
0.0
 12
1580.89893786277
 22
537.7018609193586
 32
0.0
 13
1581.457066469664
 23
537.7018609193586
 33
0.0
  0
SOLID
  5
9B43
330
1F
100
AcDbEntity
  8
LOGO
 62
     5
100
AcDbTrace
 10
1581.457066469664
 20
538.7250966986653
 30
0.0
 11
1582.80587726966
 21
543.6707362986488
 31
0.0
 12
1587.875545448953
 22
550.4923081606953
 32
0.0
 13
1586.526734648958
 23
550.4923081606953
 33
0.0
  0
SOLID
  5
9B44
330
1F
100
AcDbEntity
  8
LOGO
 62
     5
100
AcDbTrace
 10
1581.457066469664
 20
537.7018609193586
 30
0.0
 11
1582.80587726966
 21
537.7018609193586
 31
0.0
 12
1587.875545448953
 22
549.4690723813879
 32
0.0
 13
1586.526734648958
 23
544.5234327814043
 33
0.0
  0
SOLID
  5
9B45
330
1F
100
AcDbEntity
  8
LOGO
 62
     2
100
AcDbTrace
 10
1580.89893786277
 20
537.7018609193586
 30
0.0
 11
1581.457066469664
 21
537.7018609193586
 31
0.0
 12
1587.875545448953
 22
550.4923081606953
 32
0.0
 13
1588.433674055848
 23
550.4923081606945
 33
0.0
  0
TEXT
  5
9B84
330
1F
100
AcDbEntity
  8
LOGO
100
AcDbText
 10
1639.620394816333
 20
521.6974504182484
 30
0.0
 40
3.12
  1
20811193
 41
0.7
  7
CHINESET
 72
     1
 11
1647.004394816333
 21
521.6974504182484
 31
0.0
100
AcDbText
  0
LINE
  5
9B85
330
1F
100
AcDbEntity
  8
LOGO
 62
     4
100
AcDbLine
 10
1656.686999294
 20
526.2769595403201
 30
0.0
 11
1656.686999294002
 21
520.0378630697314
 31
0.0
  0
LINE
  5
9B86
330
1F
100
AcDbEntity
  8
LOGO
 62
     4
100
AcDbLine
 10
1656.686999294
 20
526.2769595403201
 30
0.0
 11
1637.966999294002
 21
526.2769595403201
 31
0.0
  0
CIRCLE
  5
9B87
330
1F
100
AcDbEntity
  8
LOGO
  6
Continuous
100
AcDbCircle
 10
1622.94624480328
 20
541.8813734532939
 30
0.0
 40
1.811283131300185
  0
CIRCLE
  5
9B88
330
1F
100
AcDbEntity
  8
LOGO
  6
Continuous
100
AcDbCircle
 10
1622.94624480328
 20
541.8813734532939
 30
0.0
 40
1.061251571118331
  0
LINE
  5
9B89
330
1F
100
AcDbEntity
  8
LOGO
100
AcDbLine
 10
1634.328558172777
 20
540.0700903219932
 30
0.0
 11
1634.328558172777
 21
543.6926565845943
 31
0.0
  0
LINE
  5
9B8A
330
1F
100
AcDbEntity
  8
LOGO
100
AcDbLine
 10
1628.650289528764
 20
540.8201218821757
 30
0.0
 11
1628.650289528764
 21
542.9426250244123
 31
0.0
  0
LINE
  5
9B8B
330
1F
100
AcDbEntity
  8
LOGO
  6
Continuous
100
AcDbLine
 10
1628.650289528764
 20
542.9426250244123
 30
0.0
 11
1634.328558172777
 21
543.6926565845943
 31
0.0
  0
LINE
  5
9B8C
330
1F
100
AcDbEntity
  8
LOGO
  6
Continuous
100
AcDbLine
 10
1628.650289528764
 20
540.8201218821757
 30
0.0
 11
1634.328558172777
 21
540.0700903219932
 31
0.0
  0
LINE
  5
9B8D
330
1F
100
AcDbEntity
  8
LOGO
  6
AM_ISO08W050x2
 48
0.3
100
AcDbLine
 10
1620.449363884953
 20
541.8813734532939
 30
0.0
 11
1625.443125721606
 21
541.8813734532939
 31
0.0
1001
GENIUS_GENOREF_13
1005
9BA4
  0
LINE
  5
9B8E
330
1F
100
AcDbEntity
  8
LOGO
  6
AM_ISO08W050x2
 48
0.3
100
AcDbLine
 10
1622.94624480328
 20
539.3844925349674
 30
0.0
 11
1622.94624480328
 21
544.3782543716202
 31
0.0
1001
GENIUS_GENOREF_13
1005
9BA3
  0
LINE
  5
9B8F
330
1F
100
AcDbEntity
  8
LOGO
  6
CENTER
 48
0.5
100
AcDbLine
 10
1628.196185863981
 20
541.8813734532939
 30
0.0
 11
1634.900341443725
 21
541.8813734532939
 31
0.0
1001
GENIUS_GENOREF_13
1005
9BA2
  0
POINT
  5
9BA2
330
1F
100
AcDbEntity
  8
0
 60
     1
100
AcDbPoint
 10
-1109.691215426562
 20
-378.1221793033367
 30
0.0
1001
GENIUS_GENOBJ-N-CRS_13
1002
{
1000
OWNER
1000
GEN
1002
}
1001
GENIUS_GENOLIS_13
1002
{
1000
ENT
1005
0
1005
0
1005
0
1005
9B8F
1002
}
1001
GENIUS_GENOENT_13
1002
{
1000
MYREF
1005
9BA2
1002
}
1002
{
1000
GRP
1005
0
1002
}
1001
GENIUS_GENODEF_13
1002
{
1000
HIER
1070
    10
1002
}
1002
{
1000
MANEDIT
1070
     1
1002
}
1002
{
1000
NOSEL
1070
     0
1002
}
1002
{
1000
BEHIND
1070
     0
1002
}
1002
{
1000
OTHER
1070
     0
1002
}
1002
{
1000
REACTOR
1002
}
  0
POINT
  5
9BA3
330
1F
100
AcDbEntity
  8
0
 60
     1
100
AcDbPoint
 10
-1121.015800649417
 20
-369.2465928247004
 30
0.0
1001
GENIUS_GENOBJ-N-CRS_13
1002
{
1000
OWNER
1000
GEN
1002
}
1001
GENIUS_GENOLIS_13
1002
{
1000
ENT
1005
0
1005
0
1005
0
1005
9B8E
1002
}
1001
GENIUS_GENOENT_13
1002
{
1000
MYREF
1005
9BA3
1002
}
1002
{
1000
GRP
1005
0
1002
}
1001
GENIUS_GENODEF_13
1002
{
1000
HIER
1070
    10
1002
}
1002
{
1000
MANEDIT
1070
     1
1002
}
1002
{
1000
NOSEL
1070
     0
1002
}
1002
{
1000
BEHIND
1070
     0
1002
}
1002
{
1000
OTHER
1070
     0
1002
}
1002
{
1000
REACTOR
1002
}
  0
POINT
  5
9BA4
330
1F
100
AcDbEntity
  8
0
 60
     1
100
AcDbPoint
 10
-1114.65712695158
 20
-378.1221793033367
 30
0.0
1001
GENIUS_GENOBJ-N-CRS_13
1002
{
1000
OWNER
1000
GEN
1002
}
1001
GENIUS_GENOLIS_13
1002
{
1000
ENT
1005
0
1005
0
1005
0
1005
9B8D
1002
}
1001
GENIUS_GENOENT_13
1002
{
1000
MYREF
1005
9BA4
1002
}
1002
{
1000
GRP
1005
0
1002
}
1001
GENIUS_GENODEF_13
1002
{
1000
HIER
1070
    10
1002
}
1002
{
1000
MANEDIT
1070
     1
1002
}
1002
{
1000
NOSEL
1070
     0
1002
}
1002
{
1000
BEHIND
1070
     0
1002
}
1002
{
1000
OTHER
1070
     0
1002
}
1002
{
1000
REACTOR
1002
}
  0
LINE
  5
B2EB
330
1F
100
AcDbEntity
  8
AM_VIS
100
AcDbLine
 10
1719.944847871669
 20
597.5319227503791
 30
0.0
 11
1719.944847871669
 21
603.5319227503792
 31
0.0
  0
LINE
  5
B2EC
330
1F
100
AcDbEntity
  8
AM_VIS
100
AcDbLine
 10
1755.994847871669
 20
657.0319227503792
 30
0.0
 11
1753.258618722095
 21
657.0319227503792
 31
0.0
  0
LINE
  5
B2ED
330
1F
100
AcDbEntity
  8
AM_VIS
100
AcDbLine
 10
1753.258618722095
 20
657.0319227503792
 30
0.0
 11
1753.258618722095
 21
666.5319227503792
 31
0.0
  0
ARC
  5
B2EE
330
1F
100
AcDbEntity
  8
AM_VIS
100
AcDbCircle
 10
1746.603978166475
 20
656.7248270345753
 30
0.0
 40
5.994200690410047
100
AcDbArc
 50
2.936670890653552
 51
25.32660416936291
  0
ARC
  5
B2EF
330
1F
100
AcDbEntity
  8
AM_VIS
100
AcDbCircle
 10
1751.209144149131
 20
658.9776834208322
 30
0.0
 40
0.8704743926764525
100
AcDbArc
 50
20.95617660904487
 51
84.34971341855669
  0
LINE
  5
B2F0
330
1F
100
AcDbEntity
  8
AM_VIS
100
AcDbLine
 10
1719.944847871669
 20
666.5319227503792
 30
0.0
 11
1719.944847871669
 21
660.5319227503791
 31
0.0
  0
LINE
  5
B2F1
330
1F
100
AcDbEntity
  8
AM_VIS
100
AcDbLine
 10
1745.693738219503
 20
626.2608175921248
 30
0.0
 11
1752.294847871669
 21
626.2608175921248
 31
0.0
  0
LINE
  5
B2F2
330
1F
100
AcDbEntity
  8
AM_VIS
100
AcDbLine
 10
1745.468969529601
 20
626.0332586267661
 30
0.0
 11
1745.59661517123
 21
626.165879842155
 31
0.0
  0
ARC
  5
B2F3
330
1F
100
AcDbEntity
  8
AM_VIS
100
AcDbCircle
 10
1747.695919224431
 20
626.0298554036137
 30
0.0
 40
2.015458337206184
100
AcDbArc
 50
93.71201919084477
 51
173.4197129853406
  0
LINE
  5
B2F4
330
1F
100
AcDbEntity
  8
AM_VIS
100
AcDbLine
 10
1745.596842595247
 20
626.1656688897917
 30
0.0
 11
1745.693566404996
 21
626.2609919314395
 31
0.0
  0
LINE
  5
B2F5
330
1F
100
AcDbEntity
  8
AM_VIS
100
AcDbLine
 10
1726.053105018428
 20
622.9587718551607
 30
0.0
 11
1726.056547091462
 21
622.9623362988442
 31
0.0
  0
LINE
  5
B2F6
330
1F
100
AcDbEntity
  8
AM_VIS
100
AcDbLine
 10
1726.053094625554
 20
622.9587818912375
 30
0.0
 11
1721.498186338951
 21
618.4038736046334
 31
0.0
  0
LINE
  5
B2F7
330
1F
100
AcDbEntity
  8
AM_VIS
100
AcDbLine
 10
1716.794847871669
 20
603.5319227503792
 30
0.0
 11
1715.594847871669
 21
603.5319227503792
 31
0.0
  0
LINE
  5
B2F8
330
1F
100
AcDbEntity
  8
AM_VIS
100
AcDbLine
 10
1715.594847871669
 20
660.5319227503791
 30
0.0
 11
1716.794847871669
 21
660.5319227503791
 31
0.0
  0
SPLINE
  5
B2F9
330
1F
100
AcDbEntity
  8
AM_VIS
100
AcDbSpline
210
0.0
220
0.0
230
1.0
 70
     8
 71
     3
 72
    18
 73
    14
 74
     0
 42
0.0000000001
 43
0.0000000001
 40
-1.746057581613662
 40
-1.746057581613662
 40
-1.746057581613662
 40
-1.746057581613662
 40
-1.436782234810284
 40
-1.436782234810284
 40
-1.101649339737924
 40
-1.101649339737924
 40
-0.6783412032038355
 40
-0.6783412032038355
 40
-0.3450856397090692
 40
-0.3450856397090692
 40
0.0
 40
0.0
 40
0.0028552333331768
 40
0.0028552333331768
 40
0.0028552333331768
 40
0.0028552333331768
 10
1721.145788674342
 20
641.4636241453986
 30
0.0
 10
1721.064467596487
 20
641.5259208946233
 30
0.0
 10
1720.992869286174
 20
641.5971393121971
 30
0.0
 10
1720.866780380687
 20
641.7575171168675
 30
0.0
 10
1720.816665603636
 20
641.84444071244
 30
0.0
 10
1720.734633305953
 20
642.039001997374
 30
0.0
 10
1720.711527612859
 20
642.1444576296423
 30
0.0
 10
1720.702109591431
 20
642.3175236534754
 30
0.0
 10
1720.709001152649
 20
642.3890056060291
 30
0.0
 10
1720.742227177348
 20
642.5217492749977
 30
0.0
 10
1720.769412661863
 20
642.5832349148071
 30
0.0
 10
1720.806285562552
 20
642.6376977253371
 30
0.0
 10
1720.806588800184
 20
642.6381441594882
 30
0.0
 10
1720.806892692893
 20
642.6385901003459
 30
0.0
  0
SPLINE
  5
B2FA
330
1F
100
AcDbEntity
  8
AM_VIS
100
AcDbSpline
210
0.0
220
0.0
230
1.0
 70
     8
 71
     3
 72
    18
 73
    14
 74
     0
 42
0.0000000001
 43
0.0000000001
 40
0.0
 40
0.0
 40
0.0
 40
0.0
 40
0.3073162635071974
 40
0.3073162635071974
 40
0.6403004613325596
 40
0.6403004613325596
 40
1.06086233103661
 40
1.06086233103661
 40
1.392073853605181
 40
1.392073853605181
 40
1.735024358968402
 40
1.735024358968402
 40
1.737860238109406
 40
1.737860238109406
 40
1.737860238109406
 40
1.737860238109406
 10
1721.145788674342
 20
648.6002213553597
 30
0.0
 10
1721.064468775331
 20
648.5379255091994
 30
0.0
 10
1720.992871337344
 20
648.4667082338119
 30
0.0
 10
1720.866788617615
 20
648.3063394715657
 30
0.0
 10
1720.816676585914
 20
648.21942414326
 30
0.0
 10
1720.734648652166
 20
648.0248883512175
 30
0.0
 10
1720.711539757665
 20
647.9194489264732
 30
0.0
 10
1720.70210569864
 20
647.7463778787095
 30
0.0
 10
1720.708994102065
 20
647.6748798544377
 30
0.0
 10
1720.74222021308
 20
647.5421118446923
 30
0.0
 10
1720.769408158665
 20
647.4806170740968
 30
0.0
 10
1720.806285843007
 20
647.4261473625283
 30
0.0
 10
1720.806588940699
 20
647.4257011350736
 30
0.0
 10
1720.806892692893
 20
647.4252554004124
 30
0.0
  0
LINE
  5
B2FB
330
1F
100
AcDbEntity
  8
AM_VIS
100
AcDbLine
 10
1755.994847871669
 20
607.8030279086334
 30
0.0
 11
1747.727142672876
 21
607.8030279086334
 31
0.0
  0
SPLINE
  5
B2FC
330
1F
100
AcDbEntity
  8
AM_VIS
100
AcDbSpline
210
0.0
220
0.0
230
1.0
 70
     8
 71
     3
 72
     8
 73
     4
 74
     0
 42
0.0000000001
 43
0.0000000001
 40
0.0
 40
0.0
 40
0.0
 40
0.0
 40
0.3305160557323544
 40
0.3305160557323544
 40
0.3305160557323544
 40
0.3305160557323544
 10
1746.718175441544
 20
607.9682038216764
 30
0.0
 10
1746.743473179261
 20
607.941872983175
 30
0.0
 10
1746.784957182759
 20
607.9185006749792
 30
0.0
 10
1746.841234274302
 20
607.8983309048894
 30
0.0
  0
ARC
  5
B2FD
330
1F
100
AcDbEntity
  8
AM_VIS
100
AcDbCircle
 10
1747.611100595491
 20
610.8895575719255
 30
0.0
 40
3.088710269042813
100
AcDbArc
 50
255.5667632379273
 51
272.1530949126742
  0
LINE
  5
B2FE
330
1F
100
AcDbEntity
  8
AM_VIS
100
AcDbLine
 10
1725.082705237668
 20
617.0957641853824
 30
0.0
 11
1726.056536387438
 21
617.0319357275193
 31
0.0
  0
LINE
  5
B2FF
330
1F
100
AcDbEntity
  8
AM_VIS
100
AcDbLine
 10
1743.291726964273
 20
623.6432759310948
 30
0.0
 11
1745.465958468211
 21
626.0359758141685
 31
0.0
  0
SPLINE
  5
B300
330
1F
100
AcDbEntity
  8
AM_VIS
100
AcDbSpline
210
0.0
220
0.0
230
1.0
 70
     8
 71
     3
 72
    18
 73
    14
 74
     0
 42
0.0000000001
 43
0.0000000001
 40
0.0
 40
0.0
 40
0.0
 40
0.0
 40
1.05999063664739
 40
1.05999063664739
 40
2.11998127329478
 40
2.11998127329478
 40
3.17997190994217
 40
3.17997190994217
 40
4.23996254658956
 40
4.23996254658956
 40
6.359943819884341
 40
6.359943819884341
 40
8.475042059050643
 40
8.475042059050643
 40
8.475042059050643
 40
8.475042059050643
 10
1739.34132499693
 20
617.0319227503791
 30
0.0
 10
1739.34132499693
 20
617.385252962595
 30
0.0
 10
1739.3939333159
 20
617.7175294120754
 30
0.0
 10
1739.567741835594
 20
618.3553159379345
 30
0.0
 10
1739.688741167014
 20
618.6608680132291
 30
0.0
 10
1739.973303923729
 20
619.2569136552588
 30
0.0
 10
1740.136828737765
 20
619.5469320485692
 30
0.0
 10
1740.489797028784
 20
620.1165656060658
 30
0.0
 10
1740.679346883177
 20
620.3961039584038
 30
0.0
 10
1741.270598567288
 20
621.2216583140289
 30
0.0
 10
1741.691815734949
 20
621.7516210032074
 30
0.0
 10
1742.517209127278
 20
622.7495358290232
 30
0.0
 10
1742.921848326133
 20
623.2171231480103
 30
0.0
 10
1743.294847871669
 20
623.6404399819524
 30
0.0
  0
LINE
  5
B301
330
1F
100
AcDbEntity
  8
AM_VIS
100
AcDbLine
 10
1726.056536308161
 20
617.0319334481498
 30
0.0
 11
1726.056928207946
 21
617.0319206122375
 31
0.0
  0
SPLINE
  5
B302
330
1F
100
AcDbEntity
  8
AM_VIS
100
AcDbSpline
210
0.0
220
0.0
230
1.0
 70
     8
 71
     3
 72
    44
 73
    40
 74
     0
 42
0.0000000001
 43
0.0000000001
 40
17.59793500998278
 40
17.59793500998278
 40
17.59793500998278
 40
17.59793500998278
 40
18.00571694314746
 40
18.00571694314746
 40
19.91087531314113
 40
19.91087531314113
 40
21.8160336831348
 40
21.8160336831348
 40
23.72119205312847
 40
23.72119205312847
 40
25.84117332642325
 40
25.84117332642325
 40
27.96115459971803
 40
27.96115459971803
 40
29.02114523636541
 40
29.02114523636541
 40
30.08113587301281
 40
30.08113587301281
 40
31.14112650966019
 40
31.14112650966019
 40
32.20111714630758
 40
32.20111714630758
 40
33.26110778295497
 40
33.26110778295497
 40
34.32109841960236
 40
34.32109841960236
 40
35.38108905624975
 40
35.38108905624975
 40
36.44107969289713
 40
36.44107969289713
 40
38.56106096619191
 40
38.56106096619191
 40
40.68104223948668
 40
40.68104223948668
 40
42.58620060948035
 40
42.58620060948035
 40
44.49135897947402
 40
44.49135897947402
 40
46.02046535884971
 40
46.02046535884971
 40
46.02046535884971
 40
46.02046535884971
 10
1725.907987905026
 20
641.2608175921259
 30
0.0
 10
1725.928514674838
 20
641.2388273861275
 30
0.0
 10
1725.951804267225
 20
641.2138674680855
 30
0.0
 10
1726.099229775462
 20
641.0557647031547
 30
0.0
 10
1726.280472636027
 20
640.8611223020656
 30
0.0
 10
1726.737775892554
 20
640.3663082452529
 30
0.0
 10
1727.014247040909
 20
640.0656736247348
 30
0.0
 10
1727.623620880206
 20
639.3947450828862
 30
0.0
 10
1727.956417125247
 20
639.0244867947102
 30
0.0
 10
1728.665982559811
 20
638.2192814656646
 30
0.0
 10
1729.071534939924
 20
637.7506864218603
 30
0.0
 10
1729.897880008389
 20
636.7516210032074
 30
0.0
 10
1730.31909717605
 20
636.2216583140289
 30
0.0
 10
1730.910348860161
 20
635.3961039584038
 30
0.0
 10
1731.099898714554
 20
635.1165656060657
 30
0.0
 10
1731.452867005573
 20
634.5469320485692
 30
0.0
 10
1731.616391819609
 20
634.2569136552588
 30
0.0
 10
1731.900954576324
 20
633.660868013229
 30
0.0
 10
1732.021953907744
 20
633.3553159379345
 30
0.0
 10
1732.195762427438
 20
632.7175294120754
 30
0.0
 10
1732.248370746408
 20
632.3852529625948
 30
0.0
 10
1732.248370746408
 20
631.6785925381633
 30
0.0
 10
1732.195762427438
 20
631.3463160886828
 30
0.0
 10
1732.021953907744
 20
630.7085295628239
 30
0.0
 10
1731.900954576324
 20
630.4029774875291
 30
0.0
 10
1731.616391819609
 20
629.8069318454995
 30
0.0
 10
1731.452867005573
 20
629.516913452189
 30
0.0
 10
1731.099898714554
 20
628.9472798946925
 30
0.0
 10
1730.910348860161
 20
628.6677415423544
 30
0.0
 10
1730.31909717605
 20
627.8421871867294
 30
0.0
 10
1729.897880008389
 20
627.3122244975509
 30
0.0
 10
1729.071534939924
 20
626.3131590788979
 30
0.0
 10
1728.665982559811
 20
625.8445640350936
 30
0.0
 10
1727.956417125247
 20
625.039358706048
 30
0.0
 10
1727.623620880206
 20
624.6691004178721
 30
0.0
 10
1727.014247040909
 20
623.9981718760233
 30
0.0
 10
1726.737775892554
 20
623.6975372555055
 30
0.0
 10
1726.325605314402
 20
623.2515579344242
 30
0.0
 10
1726.172434961645
 20
623.0867908844831
 30
0.0
 10
1726.056536378202
 20
622.9623466443086
 30
0.0
  0
SPLINE
  5
B303
330
1F
100
AcDbEntity
  8
AM_VIS
100
AcDbSpline
210
0.0
220
0.0
230
1.0
 70
     8
 71
     3
 72
    18
 73
    14
 74
     0
 42
0.0000000001
 43
0.0000000001
 40
-8.475042059050624
 40
-8.475042059050624
 40
-8.475042059050624
 40
-8.475042059050624
 40
-6.359943819884335
 40
-6.359943819884335
 40
-4.239962546589552
 40
-4.239962546589552
 40
-3.179971909942167
 40
-3.179971909942167
 40
-2.119981273294776
 40
-2.119981273294776
 40
-1.059990636647384
 40
-1.059990636647384
 40
0.0
 40
0.0
 40
0.0
 40
0.0
 10
1743.294847871669
 20
640.4234055188059
 30
0.0
 10
1742.921848326133
 20
640.8467223527479
 30
0.0
 10
1742.517209127278
 20
641.3143096717351
 30
0.0
 10
1741.691815734949
 20
642.3122244975509
 30
0.0
 10
1741.270598567288
 20
642.8421871867294
 30
0.0
 10
1740.679346883177
 20
643.6677415423545
 30
0.0
 10
1740.489797028784
 20
643.9472798946925
 30
0.0
 10
1740.136828737765
 20
644.5169134521891
 30
0.0
 10
1739.973303923729
 20
644.8069318454995
 30
0.0
 10
1739.688741167014
 20
645.4029774875293
 30
0.0
 10
1739.567741835594
 20
645.7085295628238
 30
0.0
 10
1739.3939333159
 20
646.3463160886829
 30
0.0
 10
1739.34132499693
 20
646.6785925381633
 30
0.0
 10
1739.34132499693
 20
647.0319227503791
 30
0.0
  0
LINE
  5
B305
330
1F
100
AcDbEntity
  8
AM_VIS
100
AcDbLine
 10
1743.287639344117
 20
611.6113589711686
 30
0.0
 11
1746.711943860423
 21
607.962355969162
 31
0.0
  0
ARC
  5
B306
330
1F
100
AcDbEntity
  8
AM_VIS
100
AcDbCircle
 10
1758.582210807192
 20
626.9324563096429
 30
0.0
 40
21.63867490216699
100
AcDbArc
 50
207.2284050728331
 51
225.0504956712529
  0
LINE
  5
B307
330
1F
100
AcDbEntity
  8
AM_VIS
100
AcDbLine
 10
1750.644847871669
 20
598.5319227503792
 30
0.0
 11
1750.644847871669
 21
603.5319227503792
 31
0.0
  0
LINE
  5
B308
330
1F
100
AcDbEntity
  8
AM_VIS
100
AcDbLine
 10
1755.994847871669
 20
603.5319227503792
 30
0.0
 11
1753.794847871669
 21
603.5319227503792
 31
0.0
  0
LINE
  5
B309
330
1F
100
AcDbEntity
  8
AM_VIS
100
AcDbLine
 10
1751.294847871669
 20
635.0428942032825
 30
0.0
 11
1751.294847871669
 21
655.6856315485955
 31
0.0
  0
LINE
  5
B30A
330
1F
100
AcDbEntity
  8
AM_VIS
100
AcDbLine
 10
1751.294847871669
 20
658.3782139521628
 30
0.0
 11
1751.294847871669
 21
666.5319227503792
 31
0.0
  0
ARC
  5
B30B
330
1F
100
AcDbEntity
  8
AM_VIS
100
AcDbCircle
 10
1764.790038400062
 20
657.0319227503792
 30
0.0
 40
13.56217782650067
100
AcDbArc
 50
174.3029758049843
 51
185.6970241950092
  0
LINE
  5
B30C
330
1F
100
AcDbEntity
  8
AM_VIS
100
AcDbLine
 10
1743.294847871669
 20
666.5319227503792
 30
0.0
 11
1743.294847871669
 21
632.0319227503792
 31
0.0
  0
LINE
  5
B30D
330
1F
100
AcDbEntity
  8
AM_VIS
100
AcDbLine
 10
1755.994847871669
 20
637.8030279086336
 30
0.0
 11
1751.294847871669
 21
637.8030279086336
 31
0.0
  0
LINE
  5
B30E
330
1F
100
AcDbEntity
  8
AM_VIS
100
AcDbLine
 10
1725.907987905026
 20
647.0319227503791
 30
0.0
 11
1725.907987905026
 21
641.2608175921259
 31
0.0
  0
LINE
  5
B30F
330
1F
100
AcDbEntity
  8
AM_VIS
100
AcDbLine
 10
1725.907987905025
 20
641.2608175921247
 30
0.0
 11
1721.745861619385
 21
641.2608175921247
 31
0.0
  0
ARC
  5
B310
330
1F
100
AcDbEntity
  8
AM_VIS
100
AcDbCircle
 10
1721.744654629313
 20
642.246410677743
 30
0.0
 40
0.9855938246780016
100
AcDbArc
 50
232.5824296317397
 51
270.0701662820323
  0
ARC
  5
B311
330
1F
100
AcDbEntity
  8
AM_VIS
100
AcDbCircle
 10
1721.744653872499
 20
647.8174370623105
 30
0.0
 40
0.9855915863115141
100
AcDbArc
 50
89.92978956241504
 51
127.4176145238312
  0
LINE
  5
B312
330
1F
100
AcDbEntity
  8
AM_VIS
100
AcDbLine
 10
1721.745861619385
 20
648.8030279086334
 30
0.0
 11
1724.810936640352
 21
648.8030279086334
 31
0.0
  0
ARC
  5
B313
330
1F
100
AcDbEntity
  8
AM_VIS
100
AcDbCircle
 10
1758.849616946512
 20
636.9361111146779
 30
0.0
 40
21.96585685498432
100
AcDbArc
 50
135.0832908350701
 51
152.637808423793
  0
LINE
  5
B314
330
1F
100
AcDbEntity
  8
AM_VIS
100
AcDbLine
 10
1725.790121226361
 20
647.9409819122102
 30
0.0
 11
1725.90798533648
 21
647.0319224173542
 31
0.0
  0
ARC
  5
B315
330
1F
100
AcDbEntity
  8
AM_VIS
100
AcDbCircle
 10
1724.813827181006
 20
647.8191650860871
 30
0.0
 40
0.9838670686704055
100
AcDbArc
 50
7.112308269983991
 51
90.16833170197999
  0
LINE
  5
B316
330
1F
100
AcDbEntity
  8
AM_VIS
100
AcDbLine
 10
1754.994847871669
 20
629.5319227503791
 30
0.0
 11
1758.994847871669
 21
629.5319227503791
 31
0.0
  0
LINE
  5
B317
330
1F
100
AcDbEntity
  8
AM_VIS
100
AcDbLine
 10
1754.994847871669
 20
621.5319227503791
 30
0.0
 11
1754.994847871669
 21
629.5319227503791
 31
0.0
  0
LINE
  5
B318
330
1F
100
AcDbEntity
  8
AM_VIS
100
AcDbLine
 10
1758.994847871669
 20
621.5319227503791
 30
0.0
 11
1754.994847871669
 21
621.5319227503791
 31
0.0
  0
LINE
  5
B319
330
1F
100
AcDbEntity
  8
AM_VIS
100
AcDbLine
 10
1712.594847871669
 20
595.0319227503792
 30
0.0
 11
1758.994847871669
 21
595.0319227503792
 31
0.0
  0
LINE
  5
B31A
330
1F
100
AcDbEntity
  8
AM_VIS
100
AcDbLine
 10
1712.594847871669
 20
595.0319227503792
 30
0.0
 11
1712.594847871669
 21
669.0319227503792
 31
0.0
  0
LINE
  5
B31B
330
1F
100
AcDbEntity
  8
AM_VIS
100
AcDbLine
 10
1752.294847871669
 20
628.2819227503791
 30
0.0
 11
1752.294847871669
 21
620.5319227503792
 31
0.0
  0
LINE
  5
B31C
330
1F
100
AcDbEntity
  8
AM_VIS
100
AcDbLine
 10
1755.994847871669
 20
666.5319227503792
 30
0.0
 11
1755.994847871669
 21
637.2350468119407
 31
0.0
  0
LINE
  5
B31D
330
1F
100
AcDbEntity
  8
AM_VIS
100
AcDbLine
 10
1755.994847871669
 20
666.5319227503792
 30
0.0
 11
1715.594847871669
 21
666.5319227503792
 31
0.0
  0
LINE
  5
B31E
330
1F
100
AcDbEntity
  8
AM_VIS
100
AcDbLine
 10
1715.594847871669
 20
650.2819227503792
 30
0.0
 11
1715.594847871669
 21
666.5319227503792
 31
0.0
  0
LINE
  5
B31F
330
1F
100
AcDbEntity
  8
AM_VIS
100
AcDbLine
 10
1716.594847871669
 20
649.2819227503791
 30
0.0
 11
1717.294847871669
 21
649.2819227503791
 31
0.0
  0
LINE
  5
B320
330
1F
100
AcDbEntity
  8
AM_VIS
100
AcDbLine
 10
1717.294847871669
 20
640.7819227503791
 30
0.0
 11
1716.594847871669
 21
640.7819227503791
 31
0.0
  0
LINE
  5
B321
330
1F
100
AcDbEntity
  8
AM_VIS
100
AcDbLine
 10
1715.594847871669
 20
630.0319227503791
 30
0.0
 11
1715.594847871669
 21
639.7819227503791
 31
0.0
  0
LINE
  5
B322
330
1F
100
AcDbEntity
  8
AM_VIS
100
AcDbLine
 10
1718.294847871669
 20
630.0319227503791
 30
0.0
 11
1715.594847871669
 21
630.0319227503791
 31
0.0
  0
LINE
  5
B323
330
1F
100
AcDbEntity
  8
AM_VIS
100
AcDbLine
 10
1719.294847871669
 20
622.7819227503792
 30
0.0
 11
1719.294847871669
 21
629.0319227503792
 31
0.0
  0
LINE
  5
B324
330
1F
100
AcDbEntity
  8
AM_VIS
100
AcDbLine
 10
1717.294847871669
 20
614.7819227503791
 30
0.0
 11
1716.594847871669
 21
614.7819227503791
 31
0.0
  0
LINE
  5
B325
330
1F
100
AcDbEntity
  8
AM_VIS
100
AcDbLine
 10
1715.594847871669
 20
597.5319227503791
 30
0.0
 11
1715.594847871669
 21
613.7819227503792
 31
0.0
  0
LINE
  5
B326
330
1F
100
AcDbEntity
  8
AM_VIS
100
AcDbLine
 10
1715.594847871669
 20
597.5319227503791
 30
0.0
 11
1755.994847871669
 21
597.5319227503791
 31
0.0
  0
LINE
  5
B327
330
1F
100
AcDbEntity
  8
AM_VIS
100
AcDbLine
 10
1755.994847871669
 20
619.5319227503792
 30
0.0
 11
1755.994847871669
 21
597.5319227503791
 31
0.0
  0
LINE
  5
B328
330
1F
100
AcDbEntity
  8
AM_VIS
100
AcDbLine
 10
1753.294847871669
 20
619.5319227503792
 30
0.0
 11
1755.994847871669
 21
619.5319227503792
 31
0.0
  0
LINE
  5
B35F
330
1F
100
AcDbEntity
  8
AM_VIS
100
AcDbLine
 10
1841.79570391324
 20
642.5319227503791
 30
0.0
 11
1841.79570391324
 21
634.5319227503791
 31
0.0
  0
LINE
  5
B360
330
1F
100
AcDbEntity
  8
AM_VIS
100
AcDbLine
 10
1811.79570391324
 20
621.5319227503791
 30
0.0
 11
1811.79570391324
 21
629.5319227503791
 31
0.0
  0
LINE
  5
B361
330
1F
100
AcDbEntity
  8
AM_VIS
100
AcDbLine
 10
1841.79570391324
 20
642.5319227503791
 30
0.0
 11
1841.79570391324
 21
669.0319227503792
 31
0.0
  0
LINE
  5
B362
330
1F
100
AcDbEntity
  8
AM_VIS
100
AcDbLine
 10
1838.29570391324
 20
642.5319227503791
 30
0.0
 11
1841.79570391324
 21
642.5319227503791
 31
0.0
  0
LINE
  5
B363
330
1F
100
AcDbEntity
  8
AM_VIS
100
AcDbLine
 10
1841.79570391324
 20
634.5319227503791
 30
0.0
 11
1838.29570391324
 21
634.5319227503791
 31
0.0
  0
LINE
  5
B364
330
1F
100
AcDbEntity
  8
AM_VIS
100
AcDbLine
 10
1841.79570391324
 20
595.0319227503792
 30
0.0
 11
1841.79570391324
 21
634.5319227503791
 31
0.0
  0
LINE
  5
B365
330
1F
100
AcDbEntity
  8
AM_VIS
100
AcDbLine
 10
1811.79570391324
 20
595.0319227503792
 30
0.0
 11
1841.79570391324
 21
595.0319227503792
 31
0.0
  0
LINE
  5
B366
330
1F
100
AcDbEntity
  8
AM_VIS
100
AcDbLine
 10
1811.79570391324
 20
621.5319227503791
 30
0.0
 11
1811.79570391324
 21
595.0319227503792
 31
0.0
  0
LINE
  5
B367
330
1F
100
AcDbEntity
  8
AM_VIS
100
AcDbLine
 10
1815.29570391324
 20
621.5319227503791
 30
0.0
 11
1811.79570391324
 21
621.5319227503791
 31
0.0
  0
LINE
  5
B368
330
1F
100
AcDbEntity
  8
AM_VIS
100
AcDbLine
 10
1811.79570391324
 20
629.5319227503791
 30
0.0
 11
1815.29570391324
 21
629.5319227503791
 31
0.0
  0
LINE
  5
B369
330
1F
100
AcDbEntity
  8
AM_VIS
100
AcDbLine
 10
1811.79570391324
 20
669.0319227503792
 30
0.0
 11
1811.79570391324
 21
629.5319227503791
 31
0.0
  0
LINE
  5
B372
330
1F
100
AcDbEntity
  8
AM_VIS
100
AcDbLine
 10
1841.79570391324
 20
669.0319227503792
 30
0.0
 11
1811.79570391324
 21
669.0319227503792
 31
0.0
  0
CIRCLE
  5
B373
330
1F
100
AcDbEntity
  8
AM_VIS
100
AcDbCircle
 10
1826.79570391324
 20
647.0319227503791
 30
0.0
 40
7.459296353444777
  0
CIRCLE
  5
B37C
330
1F
100
AcDbEntity
  8
AM_VIS
100
AcDbCircle
 10
1826.79570391324
 20
617.0319227503791
 30
0.0
 40
7.459296353444778
  0
CIRCLE
  5
B37D
330
1F
100
AcDbEntity
  8
AM_VIS
100
AcDbCircle
 10
1815.29570391324
 20
625.5319227503791
 30
0.0
 40
2.25
  0
CIRCLE
  5
B37E
330
1F
100
AcDbEntity
  8
AM_VIS
100
AcDbCircle
 10
1838.29570391324
 20
638.5319227503791
 30
0.0
 40
2.25
  0
ARC
  5
B37F
330
1F
100
AcDbEntity
  8
AM_VIS
100
AcDbCircle
 10
1838.29570391324
 20
638.5319227503791
 30
0.0
 40
4.0
100
AcDbArc
 50
90.0
 51
270.0
  0
ARC
  5
B380
330
1F
100
AcDbEntity
  8
AM_VIS
100
AcDbCircle
 10
1815.29570391324
 20
625.5319227503791
 30
0.0
 40
4.0
100
AcDbArc
 50
270.0
 51
90.0
  0
CIRCLE
  5
B381
330
1F
100
AcDbEntity
  8
AM_VIS
100
AcDbCircle
 10
1826.79570391324
 20
647.0319227503791
 30
0.0
 40
8.65
  0
CIRCLE
  5
B382
330
1F
100
AcDbEntity
  8
AM_VIS
100
AcDbCircle
 10
1826.79570391324
 20
617.0319227503791
 30
0.0
 40
8.65
  0
LINE
  5
B383
330
1F
100
AcDbEntity
  8
AM_VIS
100
AcDbLine
 10
1811.79570391324
 20
595.0319227503792
 30
0.0
 11
1811.79570391324
 21
588.0319227503791
 31
0.0
  0
LINE
  5
B384
330
1F
100
AcDbEntity
  8
AM_VIS
100
AcDbLine
 10
1812.79570391324
 20
587.0319227503792
 30
0.0
 11
1814.29570391324
 21
587.0319227503792
 31
0.0
  0
LINE
  5
B385
330
1F
100
AcDbEntity
  8
AM_VIS
100
AcDbLine
 10
1823.29570391324
 20
590.0319227503792
 30
0.0
 11
1823.29570391324
 21
588.0319227503791
 31
0.0
  0
LINE
  5
B386
330
1F
100
AcDbEntity
  8
AM_VIS
100
AcDbLine
 10
1824.29570391324
 20
587.0319227503792
 30
0.0
 11
1840.79570391324
 21
587.0319227503792
 31
0.0
  0
LINE
  5
B387
330
1F
100
AcDbEntity
  8
AM_VIS
100
AcDbLine
 10
1841.79570391324
 20
588.0319227503791
 30
0.0
 11
1841.79570391324
 21
595.0319227503792
 31
0.0
  0
LINE
  5
B388
330
1F
100
AcDbEntity
  8
AM_VIS
100
AcDbLine
 10
1816.29570391324
 20
591.0319227503792
 30
0.0
 11
1822.295703913241
 21
591.0319227503792
 31
0.0
  0
LINE
  5
B389
330
1F
100
AcDbEntity
  8
AM_VIS
100
AcDbLine
 10
1815.29570391324
 20
588.0319227503791
 30
0.0
 11
1815.29570391324
 21
590.0319227503792
 31
0.0
  0
LINE
  5
B38A
330
1F
100
AcDbEntity
  8
AM_VIS
100
AcDbLine
 10
1812.79570391324
 20
595.0319227503792
 30
0.0
 11
1840.79570391324
 21
595.0319227503792
 31
0.0
  0
ARC
  5
B38B
330
1F
100
AcDbEntity
  8
AM_VIS
100
AcDbCircle
 10
1814.29570391324
 20
588.0319227503791
 30
0.0
 40
1.0
100
AcDbArc
 50
270.0
 51
0.0
  0
ARC
  5
B38C
330
1F
100
AcDbEntity
  8
AM_VIS
100
AcDbCircle
 10
1812.79570391324
 20
588.0319227503791
 30
0.0
 40
1.0
100
AcDbArc
 50
180.0
 51
270.0
  0
LINE
  5
B38D
330
1F
100
AcDbEntity
  8
AM_VIS
100
AcDbLine
 10
1814.29570391324
 20
587.0319227503792
 30
0.0
 11
1818.203473282833
 21
587.0319227503792
 31
0.0
  0
LINE
  5
B38E
330
1F
100
AcDbEntity
  8
AM_VIS
100
AcDbLine
 10
1818.984203913242
 20
587.0319227503792
 30
0.0
 11
1819.607203913242
 21
587.0319227503792
 31
0.0
  0
LINE
  5
B38F
330
1F
100
AcDbEntity
  8
AM_VIS
100
AcDbLine
 10
1820.387934543648
 20
587.0319227503792
 30
0.0
 11
1824.29570391324
 21
587.0319227503792
 31
0.0
  0
ARC
  5
B390
330
1F
100
AcDbEntity
  8
AM_VIS
100
AcDbCircle
 10
1840.79570391324
 20
588.0319227503791
 30
0.0
 40
1.0
100
AcDbArc
 50
270.0
 51
0.0
  0
ARC
  5
B391
330
1F
100
AcDbEntity
  8
AM_VIS
100
AcDbCircle
 10
1824.29570391324
 20
588.0319227503791
 30
0.0
 40
0.9999999999999998
100
AcDbArc
 50
180.0
 51
270.0
  0
ARC
  5
B392
330
1F
100
AcDbEntity
  8
AM_VIS
100
AcDbCircle
 10
1822.295703913241
 20
590.0319227503792
 30
0.0
 40
1.0
100
AcDbArc
 50
0.0
 51
90.0
  0
ARC
  5
B393
330
1F
100
AcDbEntity
  8
AM_VIS
100
AcDbCircle
 10
1816.29570391324
 20
590.0319227503792
 30
0.0
 40
1.0
100
AcDbArc
 50
90.0
 51
180.0
  0
LINE
  5
B394
330
1F
100
AcDbEntity
  8
AM_VIS
100
AcDbLine
 10
1815.49570391324
 20
590.6319227503792
 30
0.0
 11
1815.49570391324
 21
590.0319227503792
 31
0.0
  0
LINE
  5
B395
330
1F
100
AcDbEntity
  8
AM_VIS
100
AcDbLine
 10
1823.09570391324
 20
590.6319227503792
 30
0.0
 11
1823.09570391324
 21
590.0319227503792
 31
0.0
  0
LINE
  5
B396
330
1F
100
AcDbEntity
  8
AM_VIS
100
AcDbLine
 10
1823.203058885547
 20
588.9729852382512
 30
0.0
 11
1823.29570391324
 21
590.0319227503792
 31
0.0
  0
LINE
  5
B397
330
1F
100
AcDbEntity
  8
AM_VIS
100
AcDbLine
 10
1815.388348940934
 20
588.9729852382512
 30
0.0
 11
1815.29570391324
 21
590.0319227503792
 31
0.0
  0
LINE
  5
B398
330
1F
100
AcDbEntity
  8
AM_VIS
100
AcDbLine
 10
1815.29570391324
 20
590.0319227503792
 30
0.0
 11
1823.29570391324
 21
590.0319227503792
 31
0.0
  0
LINE
  5
B399
330
1F
100
AcDbEntity
  8
AM_VIS
100
AcDbLine
 10
1821.595703913239
 20
587.3524490889504
 30
0.0
 11
1821.589906732873
 21
587.3582417271122
 31
0.0
  0
ARC
  5
B39A
330
1F
100
AcDbEntity
  8
AM_VIS
100
AcDbCircle
 10
1819.29570391324
 20
593.4319227503791
 30
0.0
 40
6.492531690334708
100
AcDbArc
 50
272.7500042420105
 51
290.6929831855646
  0
ARC
  5
B39B
330
1F
100
AcDbEntity
  8
AM_VIS
100
AcDbCircle
 10
1819.29570391324
 20
593.4319227503791
 30
0.0
 40
6.492531690334708
100
AcDbArc
 50
249.3070168144087
 51
267.2499957580286
  0
LINE
  5
B39C
330
1F
100
AcDbEntity
  8
AM_VIS
100
AcDbLine
 10
1817.001501093606
 20
587.358241727113
 30
0.0
 11
1816.995703913239
 21
587.3524490889511
 31
0.0
  0
ELLIPSE
  5
B39D
330
1F
100
AcDbEntity
  8
AM_VIS
100
AcDbEllipse
 10
1819.29570391324
 20
591.5398029396786
 30
0.0
 11
5.924134808644385
 21
0.0000000000000013
 31
0.0
210
0.0
220
0.0
230
1.0
 40
0.706829602293616
 41
4.659783202667246
 42
4.764994758102813
  0
LINE
  5
B39E
330
1F
100
AcDbEntity
  8
AM_VIS
100
AcDbLine
 10
1818.984203913242
 20
587.3582417271125
 30
0.0
 11
1818.984203913242
 21
586.9468679703482
 31
0.0
  0
LINE
  5
B39F
330
1F
100
AcDbEntity
  8
AM_VIS
100
AcDbLine
 10
1819.607203913242
 20
586.9468679703484
 30
0.0
 11
1819.607203913242
 21
587.3582417271127
 31
0.0
  0
ARC
  5
B3A0
330
1F
100
AcDbEntity
  8
AM_VIS
100
AcDbCircle
 10
1821.6091473686
 20
589.1124344266475
 30
0.0
 40
1.6
100
AcDbArc
 50
298.1727341318594
 51
355.0000000000006
  0
ARC
  5
B3A1
330
1F
100
AcDbEntity
  8
AM_VIS
100
AcDbCircle
 10
1816.982260457881
 20
589.1124344266475
 30
0.0
 40
1.599999999999999
100
AcDbArc
 50
184.9999999999994
 51
241.8272658681406
  0
ARC
  5
B3A2
330
1F
100
AcDbEntity
  8
AM_VIS
100
AcDbCircle
 10
1819.29570391324
 20
593.4319227503791
 30
0.0
 40
6.500000000000034
100
AcDbArc
 50
241.8272658681406
 51
249.2772556184044
  0
ARC
  5
B3A3
330
1F
100
AcDbEntity
  8
AM_VIS
100
AcDbCircle
 10
1819.29570391324
 20
593.4319227503791
 30
0.0
 40
6.500000000000036
100
AcDbArc
 50
290.7227443815811
 51
298.1727341318594
  0
ARC
  5
B3A4
330
1F
100
AcDbEntity
  8
AM_VIS
100
AcDbCircle
 10
1837.79570391324
 20
593.4319227503791
 30
0.0
 40
6.492531690334708
100
AcDbArc
 50
260.3151479664727
 51
267.2499957579895
  0
ARC
  5
B3A5
330
1F
100
AcDbEntity
  8
AM_VIS
100
AcDbCircle
 10
1837.79570391324
 20
593.4319227503791
 30
0.0
 40
6.492531690334708
100
AcDbArc
 50
272.7500042419714
 51
279.6848520335274
  0
LINE
  5
B3A6
330
1F
100
AcDbEntity
  8
AM_VIS
100
AcDbLine
 10
1837.484203913238
 20
587.0319227503792
 30
0.0
 11
1837.484203913238
 21
586.9468679703484
 31
0.0
  0
LINE
  5
B3A7
330
1F
100
AcDbEntity
  8
AM_VIS
100
AcDbLine
 10
1838.107203913239
 20
586.9468679703482
 30
0.0
 11
1838.107203913239
 21
587.0319227503792
 31
0.0
  0
LINE
  5
B3A8
330
1F
100
AcDbEntity
  8
AM_VIS
100
AcDbLine
 10
1812.79570391324
 20
669.0319227503792
 30
0.0
 11
1840.79570391324
 21
669.0319227503792
 31
0.0
  0
LINE
  5
B3A9
330
1F
100
AcDbEntity
  8
AM_VIS
100
AcDbLine
 10
1811.79570391324
 20
686.0319227503792
 30
0.0
 11
1811.79570391324
 21
669.0319227503792
 31
0.0
  0
LINE
  5
B3AA
330
1F
100
AcDbEntity
  8
AM_VIS
100
AcDbLine
 10
1841.79570391324
 20
669.0319227503792
 30
0.0
 11
1841.79570391324
 21
686.0319227503792
 31
0.0
  0
LINE
  5
B3AB
330
1F
100
AcDbEntity
  8
AM_VIS
100
AcDbLine
 10
1840.79570391324
 20
686.0319227503792
 30
0.0
 11
1832.79570391324
 21
686.0319227503792
 31
0.0
  0
LINE
  5
B3AC
330
1F
100
AcDbEntity
  8
AM_VIS
100
AcDbLine
 10
1820.79570391324
 20
686.0319227503792
 30
0.0
 11
1812.79570391324
 21
686.0319227503792
 31
0.0
  0
LINE
  5
B3AD
330
1F
100
AcDbEntity
  8
AM_VIS
100
AcDbLine
 10
1840.79570391324
 20
686.0319227503792
 30
0.0
 11
1841.79570391324
 21
686.0319227503792
 31
0.0
  0
LINE
  5
B3AE
330
1F
100
AcDbEntity
  8
AM_VIS
100
AcDbLine
 10
1811.79570391324
 20
686.0319227503792
 30
0.0
 11
1812.79570391324
 21
686.0319227503792
 31
0.0
  0
LINE
  5
B3AF
330
1F
100
AcDbEntity
  8
AM_VIS
100
AcDbLine
 10
1834.84570391324
 20
686.0319227503792
 30
0.0
 11
1834.84570391324
 21
687.4319227503791
 31
0.0
  0
LINE
  5
B3B0
330
1F
100
AcDbEntity
  8
AM_VIS
100
AcDbLine
 10
1832.79570391324
 20
687.4319227503791
 30
0.0
 11
1834.84570391324
 21
687.4319227503791
 31
0.0
  0
LINE
  5
B3B1
330
1F
100
AcDbEntity
  8
AM_VIS
100
AcDbLine
 10
1818.74570391324
 20
687.4319227503791
 30
0.0
 11
1818.74570391324
 21
686.0319227503792
 31
0.0
  0
LINE
  5
B3B2
330
1F
100
AcDbEntity
  8
AM_VIS
100
AcDbLine
 10
1820.79570391324
 20
696.0319227503791
 30
0.0
 11
1832.79570391324
 21
696.0319227503791
 31
0.0
  0
LINE
  5
B3B3
330
1F
100
AcDbEntity
  8
AM_VIS
100
AcDbLine
 10
1832.79570391324
 20
686.0319227503792
 30
0.0
 11
1820.79570391324
 21
686.0319227503792
 31
0.0
  0
LINE
  5
B3B4
330
1F
100
AcDbEntity
  8
AM_VIS
100
AcDbLine
 10
1820.79570391324
 20
696.0319227503791
 30
0.0
 11
1820.79570391324
 21
686.0319227503792
 31
0.0
  0
LINE
  5
B3B5
330
1F
100
AcDbEntity
  8
AM_VIS
100
AcDbLine
 10
1818.74570391324
 20
687.4319227503791
 30
0.0
 11
1820.79570391324
 21
687.4319227503791
 31
0.0
  0
LINE
  5
B3B6
330
1F
100
AcDbEntity
  8
AM_VIS
100
AcDbLine
 10
1832.79570391324
 20
686.0319227503792
 30
0.0
 11
1832.79570391324
 21
696.0319227503791
 31
0.0
  0
LINE
  5
B3B7
330
1F
100
AcDbEntity
  8
AM_VIS
100
AcDbLine
 10
1820.79570391324
 20
687.4349344403791
 30
0.0
 11
1820.14570391324
 21
687.4349344403791
 31
0.0
  0
LINE
  5
B3B8
330
1F
100
AcDbEntity
  8
AM_VIS
100
AcDbLine
 10
1833.44570391324
 20
687.4349344403791
 30
0.0
 11
1832.79570391324
 21
687.4349344403791
 31
0.0
  0
LINE
  5
B3B9
330
1F
100
AcDbEntity
  8
AM_VIS
100
AcDbLine
 10
1833.44570391324
 20
697.0319227503791
 30
0.0
 11
1834.84570391324
 21
697.0319227503791
 31
0.0
  0
LINE
  5
B3BA
330
1F
100
AcDbEntity
  8
AM_VIS
100
AcDbLine
 10
1818.74570391324
 20
697.0319227503791
 30
0.0
 11
1820.14570391324
 21
697.0319227503791
 31
0.0
  0
LINE
  5
B3BB
330
1F
100
AcDbEntity
  8
AM_VIS
100
AcDbLine
 10
1834.84570391324
 20
697.0319227503791
 30
0.0
 11
1834.84570391324
 21
687.4319227503792
 31
0.0
  0
LINE
  5
B3BC
330
1F
100
AcDbEntity
  8
AM_VIS
100
AcDbLine
 10
1818.74570391324
 20
687.4319227503791
 30
0.0
 11
1818.74570391324
 21
697.0319227503791
 31
0.0
  0
LINE
  5
B3BD
330
1F
100
AcDbEntity
  8
AM_VIS
100
AcDbLine
 10
1833.44570391324
 20
687.4349344403791
 30
0.0
 11
1833.44570391324
 21
697.0319227503791
 31
0.0
  0
LINE
  5
B3BE
330
1F
100
AcDbEntity
  8
AM_VIS
100
AcDbLine
 10
1820.14570391324
 20
697.0319227503791
 30
0.0
 11
1820.14570391324
 21
687.4349344403793
 31
0.0
  0
LINE
  5
B3BF
330
1F
100
AcDbEntity
  8
AM_VIS
100
AcDbLine
 10
1833.24570391324
 20
709.8940944320824
 30
0.0
 11
1833.24570391324
 21
711.0234463272664
 31
0.0
  0
LINE
  5
B3C0
330
1F
100
AcDbEntity
  8
AM_VIS
100
AcDbLine
 10
1831.84570391324
 20
709.8940944320824
 30
0.0
 11
1833.24570391324
 21
709.8940944320824
 31
0.0
  0
LINE
  5
B3C1
330
1F
100
AcDbEntity
  8
AM_VIS
100
AcDbLine
 10
1833.24570391324
 20
707.4760480989748
 30
0.0
 11
1833.24570391324
 21
709.8940944320824
 31
0.0
  0
LINE
  5
B3C2
330
1F
100
AcDbEntity
  8
AM_VIS
100
AcDbLine
 10
1820.34570391324
 20
707.4760480989748
 30
0.0
 11
1820.34570391324
 21
694.4511108096793
 31
0.0
  0
LINE
  5
B3C3
330
1F
100
AcDbEntity
  8
AM_VIS
100
AcDbLine
 10
1833.24570391324
 20
694.4511108096792
 30
0.0
 11
1833.24570391324
 21
707.4760480989748
 31
0.0
  0
LINE
  5
B3C4
330
1F
100
AcDbEntity
  8
AM_VIS
100
AcDbLine
 10
1831.84570391324
 20
711.0234463272664
 30
0.0
 11
1833.24570391324
 21
711.0234463272664
 31
0.0
  0
LINE
  5
B3C5
330
1F
100
AcDbEntity
  8
AM_VIS
100
AcDbLine
 10
1820.34570391324
 20
694.4511108096792
 30
0.0
 11
1820.34570391324
 21
690.9704501219177
 31
0.0
  0
LINE
  5
B3C6
330
1F
100
AcDbEntity
  8
AM_VIS
100
AcDbLine
 10
1820.34570391324
 20
694.4511108096792
 30
0.0
 11
1820.79570391324
 21
694.4511108096792
 31
0.0
  0
LINE
  5
B3C7
330
1F
100
AcDbEntity
  8
AM_VIS
100
AcDbLine
 10
1832.79570391324
 20
694.4511108096792
 30
0.0
 11
1833.24570391324
 21
694.4511108096792
 31
0.0
  0
LINE
  5
B3C8
330
1F
100
AcDbEntity
  8
AM_VIS
100
AcDbLine
 10
1833.24570391324
 20
690.9704501219177
 30
0.0
 11
1833.24570391324
 21
694.4511108096792
 31
0.0
  0
LINE
  5
B3C9
330
1F
100
AcDbEntity
  8
AM_VIS
100
AcDbLine
 10
1831.84570391324
 20
711.0234463272664
 30
0.0
 11
1831.84570391324
 21
709.8940944320824
 31
0.0
  0
LINE
  5
B3CA
330
1F
100
AcDbEntity
  8
AM_VIS
100
AcDbLine
 10
1831.84570391324
 20
709.8940944320824
 30
0.0
 11
1831.84570391324
 21
707.4760480989749
 31
0.0
  0
LINE
  5
B3CB
330
1F
100
AcDbEntity
  8
AM_VIS
100
AcDbLine
 10
1831.84570391324
 20
707.4760480989748
 30
0.0
 11
1833.24570391324
 21
707.4760480989748
 31
0.0
  0
LINE
  5
B3CC
330
1F
100
AcDbEntity
  8
AM_VIS
100
AcDbLine
 10
1820.34570391324
 20
707.4760480989748
 30
0.0
 11
1821.74570391324
 21
707.4760480989748
 31
0.0
  0
LINE
  5
B3CD
330
1F
100
AcDbEntity
  8
AM_VIS
100
AcDbLine
 10
1820.34570391324
 20
709.8940944320824
 30
0.0
 11
1820.34570391324
 21
707.476048098975
 31
0.0
  0
LINE
  5
B3CE
330
1F
100
AcDbEntity
  8
AM_VIS
100
AcDbLine
 10
1821.74570391324
 20
707.4760480989748
 30
0.0
 11
1821.74570391324
 21
709.8940944320824
 31
0.0
  0
LINE
  5
B3CF
330
1F
100
AcDbEntity
  8
AM_VIS
100
AcDbLine
 10
1820.34570391324
 20
709.8940944320824
 30
0.0
 11
1821.74570391324
 21
709.8940944320824
 31
0.0
  0
LINE
  5
B3D0
330
1F
100
AcDbEntity
  8
AM_VIS
100
AcDbLine
 10
1820.34570391324
 20
711.0234463272664
 30
0.0
 11
1820.34570391324
 21
709.8940944320824
 31
0.0
  0
LINE
  5
B3D1
330
1F
100
AcDbEntity
  8
AM_VIS
100
AcDbLine
 10
1820.34570391324
 20
711.0234463272664
 30
0.0
 11
1821.74570391324
 21
711.0234463272664
 31
0.0
  0
LINE
  5
B3D2
330
1F
100
AcDbEntity
  8
AM_VIS
100
AcDbLine
 10
1821.74570391324
 20
709.8940944320824
 30
0.0
 11
1821.74570391324
 21
711.0234463272664
 31
0.0
  0
LINE
  5
B3D3
330
1F
100
AcDbEntity
  8
AM_VIS
100
AcDbLine
 10
1821.74570391324
 20
707.4760480989748
 30
0.0
 11
1831.84570391324
 21
707.4760480989748
 31
0.0
  0
LINE
  5
B3D4
330
1F
100
AcDbEntity
  8
AM_VIS
100
AcDbLine
 10
1820.34570391324
 20
688.5531932237403
 30
0.0
 11
1820.79570391324
 21
688.5531932237403
 31
0.0
  0
LINE
  5
B3D5
330
1F
100
AcDbEntity
  8
AM_VIS
100
AcDbLine
 10
1831.84570391324
 20
713.0171153141093
 30
0.0
 11
1833.24570391324
 21
713.0171153141093
 31
0.0
  0
LINE
  5
B3D6
330
1F
100
AcDbEntity
  8
AM_VIS
100
AcDbLine
 10
1832.79570391324
 20
688.5531932237402
 30
0.0
 11
1833.24570391324
 21
688.5531932237402
 31
0.0
  0
LINE
  5
B3D7
330
1F
100
AcDbEntity
  8
AM_VIS
100
AcDbLine
 10
1820.34570391324
 20
713.0171153141094
 30
0.0
 11
1821.74570391324
 21
713.0171153141094
 31
0.0
  0
LINE
  5
B3D8
330
1F
100
AcDbEntity
  8
AM_VIS
100
AcDbLine
 10
1820.34570391324
 20
688.5531932237403
 30
0.0
 11
1820.34570391324
 21
690.9704501219177
 31
0.0
  0
LINE
  5
B3D9
330
1F
100
AcDbEntity
  8
AM_VIS
100
AcDbLine
 10
1833.24570391324
 20
713.0171153141093
 30
0.0
 11
1833.24570391324
 21
711.0234463272665
 31
0.0
  0
LINE
  5
B3DA
330
1F
100
AcDbEntity
  8
AM_VIS
100
AcDbLine
 10
1833.24570391324
 20
690.9704501219177
 30
0.0
 11
1833.24570391324
 21
688.5531932237402
 31
0.0
  0
LINE
  5
B3DB
330
1F
100
AcDbEntity
  8
AM_VIS
100
AcDbLine
 10
1820.34570391324
 20
711.0234463272665
 30
0.0
 11
1820.34570391324
 21
713.0171153141093
 31
0.0
  0
LINE
  5
B3DC
330
1F
100
AcDbEntity
  8
AM_VIS
100
AcDbLine
 10
1821.74570391324
 20
713.0171153141093
 30
0.0
 11
1821.74570391324
 21
711.0234463272665
 31
0.0
  0
LINE
  5
B3DD
330
1F
100
AcDbEntity
  8
AM_VIS
100
AcDbLine
 10
1831.84570391324
 20
711.0234463272665
 30
0.0
 11
1831.84570391324
 21
713.0171153141093
 31
0.0
  0
LINE
  5
B3DE
330
1F
100
AcDbEntity
  8
AM_VIS
100
AcDbLine
 10
1822.495703913241
 20
711.5171153141094
 30
0.0
 11
1822.995703913241
 21
712.0171153141094
 31
0.0
  0
LINE
  5
B3DF
330
1F
100
AcDbEntity
  8
AM_VIS
100
AcDbLine
 10
1831.295703913241
 20
711.5171153141094
 30
0.0
 11
1830.79570391324
 21
712.0171153141094
 31
0.0
  0
LINE
  5
B3E0
330
1F
100
AcDbEntity
  8
AM_VIS
100
AcDbLine
 10
1830.295703913241
 20
717.5171153141094
 30
0.0
 11
1823.495703913241
 21
717.5171153141094
 31
0.0
  0
LINE
  5
B3E1
330
1F
100
AcDbEntity
  8
AM_VIS
100
AcDbLine
 10
1822.995703913241
 20
707.4760480989748
 30
0.0
 11
1822.995703913241
 21
717.0171153141094
 31
0.0
  0
LINE
  5
B3E2
330
1F
100
AcDbEntity
  8
AM_VIS
100
AcDbLine
 10
1830.79570391324
 20
717.0171153141094
 30
0.0
 11
1830.79570391324
 21
707.4760480989748
 31
0.0
  0
LINE
  5
B3E3
330
1F
100
AcDbEntity
  8
AM_VIS
100
AcDbLine
 10
1822.495703913241
 20
707.4760480989748
 30
0.0
 11
1822.495703913241
 21
711.5171153141094
 31
0.0
  0
LINE
  5
B3E4
330
1F
100
AcDbEntity
  8
AM_VIS
100
AcDbLine
 10
1831.295703913241
 20
711.5171153141094
 30
0.0
 11
1831.295703913241
 21
707.4760480989748
 31
0.0
  0
ARC
  5
B3E5
330
1F
100
AcDbEntity
  8
AM_VIS
100
AcDbCircle
 10
1823.495703913241
 20
717.0171153141094
 30
0.0
 40
0.5
100
AcDbArc
 50
90.0
 51
180.0
  0
ARC
  5
B3E6
330
1F
100
AcDbEntity
  8
AM_VIS
100
AcDbCircle
 10
1830.295703913241
 20
717.0171153141094
 30
0.0
 40
0.5
100
AcDbArc
 50
0.0
 51
90.0
  0
LINE
  5
B3E7
330
1F
100
AcDbEntity
  8
AM_VIS
100
AcDbLine
 10
1834.245703913241
 20
711.8171153141095
 30
0.0
 11
1834.04570391324
 21
712.0171153141095
 31
0.0
  0
LINE
  5
B3E8
330
1F
100
AcDbEntity
  8
AM_VIS
100
AcDbLine
 10
1834.245703913241
 20
706.2171153141096
 30
0.0
 11
1834.04570391324
 21
706.0171153141095
 31
0.0
  0
LINE
  5
B3E9
330
1F
100
AcDbEntity
  8
AM_VIS
100
AcDbLine
 10
1834.04570391324
 20
712.0171153141095
 30
0.0
 11
1833.445703913241
 21
712.0171153141095
 31
0.0
  0
LINE
  5
B3EA
330
1F
100
AcDbEntity
  8
AM_VIS
100
AcDbLine
 10
1834.04570391324
 20
706.0171153141095
 30
0.0
 11
1833.445703913241
 21
706.0171153141095
 31
0.0
  0
LINE
  5
B3EB
330
1F
100
AcDbEntity
  8
AM_VIS
100
AcDbLine
 10
1833.245703913241
 20
706.2171153141096
 30
0.0
 11
1833.445703913241
 21
706.0171153141095
 31
0.0
  0
LINE
  5
B3EC
330
1F
100
AcDbEntity
  8
AM_VIS
100
AcDbLine
 10
1833.245703913241
 20
711.8171153141095
 30
0.0
 11
1833.445703913241
 21
712.0171153141095
 31
0.0
  0
LINE
  5
B3ED
330
1F
100
AcDbEntity
  8
AM_VIS
100
AcDbLine
 10
1831.84570391324
 20
710.4671153141095
 30
0.0
 11
1831.295703913241
 21
710.4671153141095
 31
0.0
  0
LINE
  5
B3EE
330
1F
100
AcDbEntity
  8
AM_VIS
100
AcDbLine
 10
1822.495703913241
 20
710.4671153141095
 30
0.0
 11
1821.74570391324
 21
710.4671153141095
 31
0.0
  0
LINE
  5
B3EF
330
1F
100
AcDbEntity
  8
AM_VIS
100
AcDbLine
 10
1820.34570391324
 20
710.4671153141095
 30
0.0
 11
1819.745703913241
 21
710.4671153141095
 31
0.0
  0
LINE
  5
B3F0
330
1F
100
AcDbEntity
  8
AM_VIS
100
AcDbLine
 10
1831.84570391324
 20
707.5671153141095
 30
0.0
 11
1831.295703913241
 21
707.5671153141095
 31
0.0
  0
LINE
  5
B3F1
330
1F
100
AcDbEntity
  8
AM_VIS
100
AcDbLine
 10
1822.495703913241
 20
707.5671153141095
 30
0.0
 11
1821.74570391324
 21
707.5671153141095
 31
0.0
  0
LINE
  5
B3F2
330
1F
100
AcDbEntity
  8
AM_VIS
100
AcDbLine
 10
1820.34570391324
 20
707.5671153141095
 30
0.0
 11
1819.745703913241
 21
707.5671153141095
 31
0.0
  0
LINE
  5
B3F3
330
1F
100
AcDbEntity
  8
AM_VIS
100
AcDbLine
 10
1834.245703913241
 20
711.8171153141095
 30
0.0
 11
1834.245703913241
 21
706.2171153141096
 31
0.0
  0
LINE
  5
B3F4
330
1F
100
AcDbEntity
  8
AM_VIS
100
AcDbLine
 10
1834.04570391324
 20
706.0171153141095
 30
0.0
 11
1834.04570391324
 21
712.0171153141095
 31
0.0
  0
LINE
  5
B3F5
330
1F
100
AcDbEntity
  8
AM_VIS
100
AcDbLine
 10
1833.445703913241
 20
712.0171153141095
 30
0.0
 11
1833.445703913241
 21
706.0171153141095
 31
0.0
  0
LINE
  5
B3F6
330
1F
100
AcDbEntity
  8
AM_VIS
100
AcDbLine
 10
1819.745703913241
 20
707.5671153141095
 30
0.0
 11
1819.745703913241
 21
710.4671153141095
 31
0.0
  0
LINE
  5
B3F7
330
1F
100
AcDbEntity
  8
AM_VIS
100
AcDbLine
 10
1835.84570391324
 20
694.8319227503794
 30
0.0
 11
1835.64570391324
 21
695.0319227503793
 31
0.0
  0
LINE
  5
B3F8
330
1F
100
AcDbEntity
  8
AM_VIS
100
AcDbLine
 10
1835.84570391324
 20
689.2319227503793
 30
0.0
 11
1835.64570391324
 21
689.0319227503793
 31
0.0
  0
LINE
  5
B3F9
330
1F
100
AcDbEntity
  8
AM_VIS
100
AcDbLine
 10
1835.64570391324
 20
695.0319227503793
 30
0.0
 11
1835.04570391324
 21
695.0319227503793
 31
0.0
  0
LINE
  5
B3FA
330
1F
100
AcDbEntity
  8
AM_VIS
100
AcDbLine
 10
1835.64570391324
 20
689.0319227503793
 30
0.0
 11
1835.04570391324
 21
689.0319227503793
 31
0.0
  0
LINE
  5
B3FB
330
1F
100
AcDbEntity
  8
AM_VIS
100
AcDbLine
 10
1834.84570391324
 20
689.2319227503793
 30
0.0
 11
1835.04570391324
 21
689.0319227503793
 31
0.0
  0
LINE
  5
B3FC
330
1F
100
AcDbEntity
  8
AM_VIS
100
AcDbLine
 10
1834.84570391324
 20
694.8319227503792
 30
0.0
 11
1835.04570391324
 21
695.0319227503793
 31
0.0
  0
LINE
  5
B3FD
330
1F
100
AcDbEntity
  8
AM_VIS
100
AcDbLine
 10
1833.44570391324
 20
693.4819227503792
 30
0.0
 11
1833.24570391324
 21
693.4819227503792
 31
0.0
  0
LINE
  5
B3FE
330
1F
100
AcDbEntity
  8
AM_VIS
100
AcDbLine
 10
1820.34570391324
 20
693.4819227503792
 30
0.0
 11
1820.14570391324
 21
693.4819227503792
 31
0.0
  0
LINE
  5
B3FF
330
1F
100
AcDbEntity
  8
AM_VIS
100
AcDbLine
 10
1818.74570391324
 20
693.4819227503792
 30
0.0
 11
1817.34570391324
 21
693.4819227503792
 31
0.0
  0
LINE
  5
B400
330
1F
100
AcDbEntity
  8
AM_VIS
100
AcDbLine
 10
1833.44570391324
 20
690.5819227503793
 30
0.0
 11
1833.24570391324
 21
690.5819227503793
 31
0.0
  0
LINE
  5
B401
330
1F
100
AcDbEntity
  8
AM_VIS
100
AcDbLine
 10
1820.34570391324
 20
690.5819227503793
 30
0.0
 11
1820.14570391324
 21
690.5819227503793
 31
0.0
  0
LINE
  5
B402
330
1F
100
AcDbEntity
  8
AM_VIS
100
AcDbLine
 10
1818.74570391324
 20
690.5819227503793
 30
0.0
 11
1817.34570391324
 21
690.5819227503793
 31
0.0
  0
LINE
  5
B403
330
1F
100
AcDbEntity
  8
AM_VIS
100
AcDbLine
 10
1835.84570391324
 20
694.8319227503794
 30
0.0
 11
1835.84570391324
 21
689.2319227503792
 31
0.0
  0
LINE
  5
B404
330
1F
100
AcDbEntity
  8
AM_VIS
100
AcDbLine
 10
1835.64570391324
 20
689.0319227503793
 30
0.0
 11
1835.64570391324
 21
695.0319227503793
 31
0.0
  0
LINE
  5
B405
330
1F
100
AcDbEntity
  8
AM_VIS
100
AcDbLine
 10
1835.04570391324
 20
695.0319227503793
 30
0.0
 11
1835.04570391324
 21
689.0319227503793
 31
0.0
  0
LINE
  5
B406
330
1F
100
AcDbEntity
  8
AM_VIS
100
AcDbLine
 10
1817.34570391324
 20
690.5819227503793
 30
0.0
 11
1817.34570391324
 21
693.4819227503792
 31
0.0
  0
LINE
  5
B407
330
1F
100
AcDbEntity
  8
AM_VIS
100
AcDbLine
 10
1758.994847871669
 20
780.1329957454535
 30
0.0
 11
1758.994847871669
 21
779.1329957454535
 31
0.0
  0
LINE
  5
B408
330
1F
100
AcDbEntity
  8
AM_VIS
100
AcDbLine
 10
1758.994847871669
 20
751.1329957454535
 30
0.0
 11
1758.994847871669
 21
750.1329957454535
 31
0.0
  0
LINE
  5
B409
330
1F
100
AcDbEntity
  8
AM_VIS
100
AcDbLine
 10
1758.994847871669
 20
750.1329957454535
 30
0.0
 11
1757.994847871669
 21
750.1329957454535
 31
0.0
  0
LINE
  5
B40A
330
1F
100
AcDbEntity
  8
AM_VIS
100
AcDbLine
 10
1713.594847871669
 20
750.1329957454535
 30
0.0
 11
1712.594847871669
 21
750.1329957454535
 31
0.0
  0
LINE
  5
B40B
330
1F
100
AcDbEntity
  8
AM_VIS
100
AcDbLine
 10
1712.594847871669
 20
750.1329957454535
 30
0.0
 11
1712.594847871669
 21
751.1329957454535
 31
0.0
  0
LINE
  5
B40C
330
1F
100
AcDbEntity
  8
AM_VIS
100
AcDbLine
 10
1712.594847871669
 20
779.1329957454535
 30
0.0
 11
1712.594847871669
 21
780.1329957454535
 31
0.0
  0
LINE
  5
B40D
330
1F
100
AcDbEntity
  8
AM_VIS
100
AcDbLine
 10
1712.594847871669
 20
780.1329957454535
 30
0.0
 11
1713.594847871669
 21
780.1329957454535
 31
0.0
  0
LINE
  5
B40E
330
1F
100
AcDbEntity
  8
AM_VIS
100
AcDbLine
 10
1757.994847871669
 20
780.1329957454535
 30
0.0
 11
1758.994847871669
 21
780.1329957454535
 31
0.0
  0
LINE
  5
B40F
330
1F
100
AcDbEntity
  8
AM_VIS
100
AcDbLine
 10
1712.594847871669
 20
751.1329957454535
 30
0.0
 11
1712.594847871669
 21
758.1329957454535
 31
0.0
  0
LINE
  5
B410
330
1F
100
AcDbEntity
  8
AM_VIS
100
AcDbLine
 10
1720.794847871669
 20
750.1329957454535
 30
0.0
 11
1713.594847871669
 21
750.1329957454535
 31
0.0
  0
LINE
  5
B411
330
1F
100
AcDbEntity
  8
AM_VIS
100
AcDbLine
 10
1713.594847871669
 20
780.1329957454535
 30
0.0
 11
1757.994847871669
 21
780.1329957454535
 31
0.0
  0
LINE
  5
B412
330
1F
100
AcDbEntity
  8
AM_VIS
100
AcDbLine
 10
1758.994847871669
 20
779.1329957454535
 30
0.0
 11
1758.994847871669
 21
773.1829957454534
 31
0.0
  0
LINE
  5
B413
330
1F
100
AcDbEntity
  8
AM_VIS
100
AcDbLine
 10
1758.994847871669
 20
771.7829957454536
 30
0.0
 11
1758.994847871669
 21
771.5829957454533
 31
0.0
  0
LINE
  5
B414
330
1F
100
AcDbEntity
  8
AM_VIS
100
AcDbLine
 10
1758.994847871669
 20
758.6829957454535
 30
0.0
 11
1758.994847871669
 21
758.4829957454534
 31
0.0
  0
LINE
  5
B415
330
1F
100
AcDbEntity
  8
AM_VIS
100
AcDbLine
 10
1758.994847871669
 20
757.0829957454535
 30
0.0
 11
1758.994847871669
 21
751.1329957454535
 31
0.0
  0
LINE
  5
B416
330
1F
100
AcDbEntity
  8
AM_VIS
100
AcDbLine
 10
1757.994847871669
 20
750.1329957454535
 30
0.0
 11
1720.794847871669
 21
750.1329957454535
 31
0.0
  0
LINE
  5
B417
330
1F
100
AcDbEntity
  8
AM_VIS
100
AcDbLine
 10
1720.794847871669
 20
754.1329957454535
 30
0.0
 11
1720.794847871669
 21
750.1329957454535
 31
0.0
  0
LINE
  5
B418
330
1F
100
AcDbEntity
  8
AM_VIS
100
AcDbLine
 10
1712.594847871669
 20
758.1329957454535
 30
0.0
 11
1714.343219232802
 21
758.1329957454535
 31
0.0
  0
LINE
  5
B419
330
1F
100
AcDbEntity
  8
AM_VIS
100
AcDbLine
 10
1712.594847871669
 20
758.1329957454535
 30
0.0
 11
1712.594847871669
 21
758.6829957454535
 31
0.0
  0
LINE
  5
B41A
330
1F
100
AcDbEntity
  8
AM_VIS
100
AcDbLine
 10
1712.594847871669
 20
760.0829957454534
 30
0.0
 11
1712.594847871669
 21
761.3329957454538
 31
0.0
  0
LINE
  5
B41B
330
1F
100
AcDbEntity
  8
AM_VIS
100
AcDbLine
 10
1712.594847871669
 20
769.1329957454537
 30
0.0
 11
1712.594847871669
 21
770.1829957454535
 31
0.0
  0
LINE
  5
B41C
330
1F
100
AcDbEntity
  8
AM_VIS
100
AcDbLine
 10
1712.594847871669
 20
771.5829957454534
 30
0.0
 11
1712.594847871669
 21
779.1329957454535
 31
0.0
  0
ARC
  5
B41D
330
1F
100
AcDbEntity
  8
AM_VIS
100
AcDbCircle
 10
1713.594847871669
 20
751.1329957454535
 30
0.0
 40
0.9999999999999998
100
AcDbArc
 50
180.0
 51
270.0
  0
ARC
  5
B41E
330
1F
100
AcDbEntity
  8
AM_VIS
100
AcDbCircle
 10
1753.794847871669
 20
772.6329957454534
 30
0.0
 40
4.0
100
AcDbArc
 50
7.90320773348677
 51
172.0967922665132
  0
ARC
  5
B41F
330
1F
100
AcDbEntity
  8
AM_VIS
100
AcDbCircle
 10
1753.794847871669
 20
772.6329957454534
 30
0.0
 40
4.0
100
AcDbArc
 50
344.781544842226
 51
347.7311010040438
  0
ARC
  5
B420
330
1F
100
AcDbEntity
  8
AM_VIS
100
AcDbCircle
 10
1757.994847871669
 20
779.1329957454535
 30
0.0
 40
0.9999999999999998
100
AcDbArc
 50
0.0
 51
90.0
  0
ARC
  5
B421
330
1F
100
AcDbEntity
  8
AM_VIS
100
AcDbCircle
 10
1757.994847871669
 20
751.1329957454535
 30
0.0
 40
0.9999999999999998
100
AcDbArc
 50
270.0
 51
0.0
  0
ARC
  5
B422
330
1F
100
AcDbEntity
  8
AM_VIS
100
AcDbCircle
 10
1716.794847871669
 20
754.1329957454535
 30
0.0
 40
4.0
100
AcDbArc
 50
59.99999999999946
 51
83.56402725419682
  0
ARC
  5
B423
330
1F
100
AcDbEntity
  8
AM_VIS
100
AcDbCircle
 10
1716.794847871669
 20
754.1329957454535
 30
0.0
 40
4.0
100
AcDbArc
 50
0.0
 51
47.51888712456678
  0
ARC
  5
B424
330
1F
100
AcDbEntity
  8
AM_VIS
100
AcDbCircle
 10
1713.594847871669
 20
779.1329957454535
 30
0.0
 40
0.9999999999999998
100
AcDbArc
 50
90.0
 51
180.0
  0
LINE
  5
B425
330
1F
100
AcDbEntity
  8
AM_VIS
100
AcDbLine
 10
1754.106347871669
 20
774.1829957454535
 30
0.0
 11
1754.106347871669
 21
774.9271985650867
 31
0.0
  0
ELLIPSE
  5
B426
330
1F
100
AcDbEntity
  8
AM_VIS
100
AcDbEllipse
 10
1753.794847871669
 20
770.7423584478834
 30
0.0
 11
-5.924134808644414
 21
0.0
 31
0.0
210
0.0
220
0.0
230
1.0
 40
0.7073838514706199
 41
4.659783202666896
 42
4.76499475810248
  0
LINE
  5
B427
330
1F
100
AcDbEntity
  8
AM_VIS
100
AcDbLine
 10
1753.483347871669
 20
774.9271985650867
 30
0.0
 11
1753.483347871669
 21
774.1829957454535
 31
0.0
  0
LINE
  5
B428
330
1F
100
AcDbEntity
  8
AM_VIS
100
AcDbLine
 10
1716.48334787167
 20
754.1329957454535
 30
0.0
 11
1716.794847871669
 21
754.1329957454535
 31
0.0
  0
LINE
  5
B429
330
1F
100
AcDbEntity
  8
AM_VIS
100
AcDbLine
 10
1716.794847871669
 20
754.1329957454535
 30
0.0
 11
1717.106347871669
 21
754.1329957454535
 31
0.0
  0
LINE
  5
B42A
330
1F
100
AcDbEntity
  8
AM_VIS
100
AcDbLine
 10
1716.794847871669
 20
754.1329957454534
 30
0.0
 11
1716.483347871669
 21
754.444495745454
 31
0.0
  0
LINE
  5
B42B
330
1F
100
AcDbEntity
  8
AM_VIS
100
AcDbLine
 10
1716.48334787167
 20
753.8214957454543
 30
0.0
 11
1716.794847871669
 21
754.1329957454536
 31
0.0
  0
LINE
  5
B42C
330
1F
100
AcDbEntity
  8
AM_VIS
100
AcDbLine
 10
1716.48334787167
 20
754.4444957454559
 30
0.0
 11
1716.48334787167
 21
753.8214957454559
 31
0.0
  0
LINE
  5
B42D
330
1F
100
AcDbEntity
  8
AM_VIS
100
AcDbLine
 10
1717.106347871669
 20
753.8214957454557
 30
0.0
 11
1716.48334787167
 21
753.8214957454557
 31
0.0
  0
LINE
  5
B42E
330
1F
100
AcDbEntity
  8
AM_VIS
100
AcDbLine
 10
1716.794847871669
 20
754.4444957454556
 30
0.0
 11
1716.794847871669
 21
754.1329957454535
 31
0.0
  0
LINE
  5
B42F
330
1F
100
AcDbEntity
  8
AM_VIS
100
AcDbLine
 10
1717.10634787167
 20
754.4444957454544
 30
0.0
 11
1716.794847871669
 21
754.1329957454537
 31
0.0
  0
LINE
  5
B430
330
1F
100
AcDbEntity
  8
AM_VIS
100
AcDbLine
 10
1717.106347871669
 20
753.8214957454559
 30
0.0
 11
1717.106347871669
 21
754.4444957454559
 31
0.0
  0
LINE
  5
B431
330
1F
100
AcDbEntity
  8
AM_VIS
100
AcDbLine
 10
1716.794847871669
 20
754.1329957454535
 30
0.0
 11
1716.794847871669
 21
753.8214957454555
 31
0.0
  0
LINE
  5
B432
330
1F
100
AcDbEntity
  8
AM_VIS
100
AcDbLine
 10
1716.794847871669
 20
754.1329957454535
 30
0.0
 11
1717.106347871669
 21
753.8214957454542
 31
0.0
  0
LINE
  5
B433
330
1F
100
AcDbEntity
  8
AM_VIS
100
AcDbLine
 10
1716.48334787167
 20
754.4444957454556
 30
0.0
 11
1717.106347871669
 21
754.4444957454556
 31
0.0
  0
ARC
  5
B434
330
1F
100
AcDbEntity
  8
AM_VIS
100
AcDbCircle
 10
1716.794847871669
 20
754.1329957454535
 30
0.0
 40
3.999999999999971
100
AcDbArc
 50
99.06872154600611
 51
0.0
  0
LINE
  5
B435
330
1F
100
AcDbEntity
  8
AM_VIS
100
AcDbLine
 10
1717.106347871669
 20
754.4444957454555
 30
0.0
 11
1717.106347871669
 21
756.4271985650865
 31
0.0
  0
ELLIPSE
  5
B436
330
1F
100
AcDbEntity
  8
AM_VIS
100
AcDbEllipse
 10
1716.794847871669
 20
752.2423584478834
 30
0.0
 11
-5.924134808644414
 21
0.0
 31
0.0
210
0.0
220
0.0
230
1.0
 40
0.7073838514706199
 41
4.659783202666896
 42
4.76499475810248
  0
LINE
  5
B437
330
1F
100
AcDbEntity
  8
AM_VIS
100
AcDbLine
 10
1716.48334787167
 20
756.4271985650865
 30
0.0
 11
1716.48334787167
 21
754.4444957454555
 31
0.0
  0
LINE
  5
B438
330
1F
100
AcDbEntity
  8
AM_VIS
100
AcDbLine
 10
1716.48334787167
 20
753.8214957454555
 30
0.0
 11
1716.48334787167
 21
751.8387929258201
 31
0.0
  0
ELLIPSE
  5
B439
330
1F
100
AcDbEntity
  8
AM_VIS
100
AcDbEllipse
 10
1716.794847871669
 20
756.0236330430237
 30
0.0
 11
5.924134808644421
 21
0.0
 31
0.0
210
0.0
220
0.0
230
1.0
 40
0.707383851470658
 41
4.659783202666898
 42
4.764994758102482
  0
LINE
  5
B43A
330
1F
100
AcDbEntity
  8
AM_VIS
100
AcDbLine
 10
1717.106347871669
 20
751.8387929258201
 30
0.0
 11
1717.106347871669
 21
753.8214957454555
 31
0.0
  0
LINE
  5
B43B
330
1F
100
AcDbEntity
  8
AM_VIS
100
AcDbLine
 10
1719.089050691303
 20
754.4444957454558
 30
0.0
 11
1717.106347871669
 21
754.4444957454558
 31
0.0
  0
ELLIPSE
  5
B43C
330
1F
100
AcDbEntity
  8
AM_VIS
100
AcDbEllipse
 10
1718.68548516924
 20
754.1329957454537
 30
0.0
 11
0.0000000000000059
 21
-5.924134808644385
 31
0.0
210
0.0
220
0.0
230
1.0
 40
0.7073838514706481
 41
4.659783202666567
 42
4.764994758102133
  0
LINE
  5
B43D
330
1F
100
AcDbEntity
  8
AM_VIS
100
AcDbLine
 10
1717.106347871669
 20
753.8214957454555
 30
0.0
 11
1719.089050691303
 21
753.8214957454555
 31
0.0
  0
LINE
  5
B43E
330
1F
100
AcDbEntity
  8
AM_VIS
100
AcDbLine
 10
1714.500645052036
 20
753.8214957454555
 30
0.0
 11
1716.48334787167
 21
753.8214957454555
 31
0.0
  0
ELLIPSE
  5
B43F
330
1F
100
AcDbEntity
  8
AM_VIS
100
AcDbEllipse
 10
1714.904210574099
 20
754.1329957454537
 30
0.0
 11
0.0000000000000059
 21
5.924134808644383
 31
0.0
210
0.0
220
0.0
230
1.0
 40
0.707383851470648
 41
4.659783202667245
 42
4.764994758102812
  0
LINE
  5
B440
330
1F
100
AcDbEntity
  8
AM_VIS
100
AcDbLine
 10
1716.48334787167
 20
754.4444957454558
 30
0.0
 11
1714.500645052036
 21
754.4444957454558
 31
0.0
  0
ARC
  5
B441
330
1F
100
AcDbEntity
  8
AM_VIS
100
AcDbCircle
 10
1722.294847871669
 20
765.1329957454535
 30
0.0
 40
2.800000000000039
100
AcDbArc
 50
315.5370924073663
 51
44.46290759263365
  0
ARC
  5
B442
330
1F
100
AcDbEntity
  8
AM_VIS
100
AcDbCircle
 10
1722.294847871669
 20
765.1329957454535
 30
0.0
 40
2.949999999999988
100
AcDbArc
 50
312.6418945061447
 51
47.35810549385524
  0
LINE
  5
B443
330
1F
100
AcDbEntity
  8
AM_VIS
100
AcDbLine
 10
1753.554150789444
 20
773.1829957454534
 30
0.0
 11
1721.290429622334
 21
773.1829957454534
 31
0.0
  0
LINE
  5
B444
330
1F
100
AcDbEntity
  8
AM_VIS
100
AcDbLine
 10
1718.794847871669
 20
773.1829957454536
 30
0.0
 11
1718.794847871669
 21
771.7829957454536
 31
0.0
  0
LINE
  5
B445
330
1F
100
AcDbEntity
  8
AM_VIS
100
AcDbLine
 10
1759.394847871669
 20
759.1329957454535
 30
0.0
 11
1760.794847871669
 21
759.1329957454535
 31
0.0
  0
LINE
  5
B446
330
1F
100
AcDbEntity
  8
AM_VIS
100
AcDbLine
 10
1760.794847871669
 20
759.1329957454535
 30
0.0
 11
1760.794847871669
 21
771.1329957454535
 31
0.0
  0
LINE
  5
B447
330
1F
100
AcDbEntity
  8
AM_VIS
100
AcDbLine
 10
1759.394847871669
 20
771.1329957454535
 30
0.0
 11
1759.394847871669
 21
759.1329957454535
 31
0.0
  0
LINE
  5
B448
330
1F
100
AcDbEntity
  8
AM_VIS
100
AcDbLine
 10
1718.794847871669
 20
758.4829957454535
 30
0.0
 11
1718.794847871669
 21
757.0829957454535
 31
0.0
  0
LINE
  5
B449
330
1F
100
AcDbEntity
  8
AM_VIS
100
AcDbLine
 10
1721.290429622334
 20
757.0829957454535
 30
0.0
 11
1753.554150789444
 21
757.0829957454535
 31
0.0
  0
LINE
  5
B44A
330
1F
100
AcDbEntity
  8
AM_VIS
100
AcDbLine
 10
1760.794847871669
 20
771.1329957454535
 30
0.0
 11
1759.394847871669
 21
771.1329957454535
 31
0.0
  0
LINE
  5
B44B
330
1F
100
AcDbEntity
  8
AM_VIS
100
AcDbLine
 10
1721.290429622334
 20
771.7829957454535
 30
0.0
 11
1753.554150789444
 21
771.7829957454535
 31
0.0
  0
LINE
  5
B44C
330
1F
100
AcDbEntity
  8
AM_VIS
100
AcDbLine
 10
1756.361494377202
 20
758.6829957454533
 30
0.0
 11
1756.361494377202
 21
758.4829957454535
 31
0.0
  0
LINE
  5
B44D
330
1F
100
AcDbEntity
  8
AM_VIS
100
AcDbLine
 10
1718.794847871669
 20
758.4829957454535
 30
0.0
 11
1718.794847871669
 21
758.6829957454535
 31
0.0
  0
LINE
  5
B44E
330
1F
100
AcDbEntity
  8
AM_VIS
100
AcDbLine
 10
1718.794847871669
 20
760.0829957454534
 30
0.0
 11
1718.794847871669
 21
761.3329957454537
 31
0.0
  0
LINE
  5
B44F
330
1F
100
AcDbEntity
  8
AM_VIS
100
AcDbLine
 10
1718.794847871669
 20
769.1329957454537
 30
0.0
 11
1718.794847871669
 21
770.1829957454535
 31
0.0
  0
LINE
  5
B450
330
1F
100
AcDbEntity
  8
AM_VIS
100
AcDbLine
 10
1718.794847871669
 20
771.5829957454534
 30
0.0
 11
1718.794847871669
 21
771.7829957454535
 31
0.0
  0
LINE
  5
B451
330
1F
100
AcDbEntity
  8
AM_VIS
100
AcDbLine
 10
1756.361494377202
 20
771.7829957454535
 30
0.0
 11
1756.361494377202
 21
771.5829957454531
 31
0.0
  0
LINE
  5
B452
330
1F
100
AcDbEntity
  8
AM_VIS
100
AcDbLine
 10
1753.554150789444
 20
758.4829957454535
 30
0.0
 11
1721.290429622334
 21
758.4829957454535
 31
0.0
  0
LINE
  5
B453
330
1F
100
AcDbEntity
  8
AM_VIS
100
AcDbLine
 10
1759.394847871669
 20
771.7829957454534
 30
0.0
 11
1759.394847871669
 21
773.1829957454534
 31
0.0
  0
LINE
  5
B454
330
1F
100
AcDbEntity
  8
AM_VIS
100
AcDbLine
 10
1759.394847871669
 20
757.0829957454535
 30
0.0
 11
1759.394847871669
 21
758.4829957454537
 31
0.0
  0
LINE
  5
B455
330
1F
100
AcDbEntity
  8
AM_VIS
100
AcDbLine
 10
1753.554150789444
 20
773.1829957454534
 30
0.0
 11
1759.394847871669
 21
773.1829957454534
 31
0.0
  0
LINE
  5
B456
330
1F
100
AcDbEntity
  8
AM_VIS
100
AcDbLine
 10
1718.794847871669
 20
773.1829957454534
 30
0.0
 11
1721.290429622334
 21
773.1829957454534
 31
0.0
  0
LINE
  5
B457
330
1F
100
AcDbEntity
  8
AM_VIS
100
AcDbLine
 10
1721.290429622334
 20
757.0829957454535
 30
0.0
 11
1718.794847871669
 21
757.0829957454535
 31
0.0
  0
LINE
  5
B458
330
1F
100
AcDbEntity
  8
AM_VIS
100
AcDbLine
 10
1759.394847871669
 20
757.0829957454535
 30
0.0
 11
1753.554150789444
 21
757.0829957454535
 31
0.0
  0
LINE
  5
B459
330
1F
100
AcDbEntity
  8
AM_VIS
100
AcDbLine
 10
1721.290429622334
 20
771.7829957454535
 30
0.0
 11
1718.794847871669
 21
771.7829957454535
 31
0.0
  0
LINE
  5
B45A
330
1F
100
AcDbEntity
  8
AM_VIS
100
AcDbLine
 10
1759.394847871669
 20
771.7829957454535
 30
0.0
 11
1753.554150789444
 21
771.7829957454535
 31
0.0
  0
LINE
  5
B45B
330
1F
100
AcDbEntity
  8
AM_VIS
100
AcDbLine
 10
1718.794847871669
 20
758.4829957454535
 30
0.0
 11
1721.290429622334
 21
758.4829957454535
 31
0.0
  0
LINE
  5
B45C
330
1F
100
AcDbEntity
  8
AM_VIS
100
AcDbLine
 10
1753.554150789444
 20
758.4829957454535
 30
0.0
 11
1759.394847871669
 21
758.4829957454535
 31
0.0
  0
LINE
  5
B45D
330
1F
100
AcDbEntity
  8
AM_VIS
100
AcDbLine
 10
1722.070432597556
 20
771.5829957454534
 30
0.0
 11
1719.253657913901
 21
771.5829957454534
 31
0.0
  0
LINE
  5
B45E
330
1F
100
AcDbEntity
  8
AM_VIS
100
AcDbLine
 10
1722.070432597556
 20
770.1829957454535
 30
0.0
 11
1722.070432597556
 21
771.5829957454534
 31
0.0
  0
LINE
  5
B45F
330
1F
100
AcDbEntity
  8
AM_VIS
100
AcDbLine
 10
1724.15603864939
 20
771.5829957454534
 30
0.0
 11
1722.070432597556
 21
771.5829957454534
 31
0.0
  0
LINE
  5
B460
330
1F
100
AcDbEntity
  8
AM_VIS
100
AcDbLine
 10
1727.026545180109
 20
758.6829957454535
 30
0.0
 11
1759.512711599216
 21
758.6829957454532
 31
0.0
  0
LINE
  5
B461
330
1F
100
AcDbEntity
  8
AM_VIS
100
AcDbLine
 10
1759.512711599216
 20
771.5829957454531
 30
0.0
 11
1727.026545180109
 21
771.5829957454534
 31
0.0
  0
LINE
  5
B462
330
1F
100
AcDbEntity
  8
AM_VIS
100
AcDbLine
 10
1719.253657913901
 20
770.1829957454535
 30
0.0
 11
1719.253657913901
 21
771.5829957454534
 31
0.0
  0
LINE
  5
B463
330
1F
100
AcDbEntity
  8
AM_VIS
100
AcDbLine
 10
1759.512711599216
 20
758.6829957454533
 30
0.0
 11
1759.512711599216
 21
759.1329957454535
 31
0.0
  0
LINE
  5
B464
330
1F
100
AcDbEntity
  8
AM_VIS
100
AcDbLine
 10
1759.512711599216
 20
771.1329957454535
 30
0.0
 11
1759.512711599216
 21
771.5829957454533
 31
0.0
  0
LINE
  5
B465
330
1F
100
AcDbEntity
  8
AM_VIS
100
AcDbLine
 10
1719.253657913901
 20
770.1829957454535
 30
0.0
 11
1722.070432597556
 21
770.1829957454535
 31
0.0
  0
LINE
  5
B466
330
1F
100
AcDbEntity
  8
AM_VIS
100
AcDbLine
 10
1722.070432597556
 20
770.1829957454535
 30
0.0
 11
1724.15603864939
 21
770.1829957454535
 31
0.0
  0
LINE
  5
B467
330
1F
100
AcDbEntity
  8
AM_VIS
100
AcDbLine
 10
1727.026545180109
 20
770.1829957454535
 30
0.0
 11
1727.026545180109
 21
771.5829957454534
 31
0.0
  0
LINE
  5
B468
330
1F
100
AcDbEntity
  8
AM_VIS
100
AcDbLine
 10
1727.026545180109
 20
758.6829957454535
 30
0.0
 11
1727.026545180109
 21
760.0829957454534
 31
0.0
  0
LINE
  5
B469
330
1F
100
AcDbEntity
  8
AM_VIS
100
AcDbLine
 10
1722.070432597556
 20
758.6829957454535
 30
0.0
 11
1724.15603864939
 21
758.6829957454535
 31
0.0
  0
LINE
  5
B46A
330
1F
100
AcDbEntity
  8
AM_VIS
100
AcDbLine
 10
1724.15603864939
 20
760.0829957454534
 30
0.0
 11
1722.070432597556
 21
760.0829957454534
 31
0.0
  0
LINE
  5
B46B
330
1F
100
AcDbEntity
  8
AM_VIS
100
AcDbLine
 10
1722.070432597556
 20
758.6829957454535
 30
0.0
 11
1722.070432597556
 21
760.0829957454534
 31
0.0
  0
LINE
  5
B46C
330
1F
100
AcDbEntity
  8
AM_VIS
100
AcDbLine
 10
1719.253657913901
 20
758.6829957454535
 30
0.0
 11
1722.070432597556
 21
758.6829957454535
 31
0.0
  0
LINE
  5
B46D
330
1F
100
AcDbEntity
  8
AM_VIS
100
AcDbLine
 10
1719.253657913901
 20
758.6829957454535
 30
0.0
 11
1719.253657913901
 21
760.0829957454534
 31
0.0
  0
LINE
  5
B46E
330
1F
100
AcDbEntity
  8
AM_VIS
100
AcDbLine
 10
1722.070432597555
 20
760.0829957454534
 30
0.0
 11
1719.253657913901
 21
760.0829957454534
 31
0.0
  0
LINE
  5
B46F
330
1F
100
AcDbEntity
  8
AM_VIS
100
AcDbLine
 10
1726.505547688537
 20
760.0829957454534
 30
0.0
 11
1726.505547688537
 21
770.1829957454535
 31
0.0
  0
LINE
  5
B470
330
1F
100
AcDbEntity
  8
AM_VIS
100
AcDbLine
 10
1727.026545180109
 20
760.0829957454534
 30
0.0
 11
1727.026545180109
 21
770.1829957454535
 31
0.0
  0
LINE
  5
B471
330
1F
100
AcDbEntity
  8
AM_VIS
100
AcDbLine
 10
1711.793219232802
 20
770.1829957454535
 30
0.0
 11
1711.793219232802
 21
771.5829957454535
 31
0.0
  0
LINE
  5
B472
330
1F
100
AcDbEntity
  8
AM_VIS
100
AcDbLine
 10
1711.793219232802
 20
758.6829957454535
 30
0.0
 11
1711.793219232802
 21
760.0829957454536
 31
0.0
  0
LINE
  5
B473
330
1F
100
AcDbEntity
  8
AM_VIS
100
AcDbLine
 10
1711.793219232802
 20
771.5829957454534
 30
0.0
 11
1719.253657913901
 21
771.5829957454534
 31
0.0
  0
LINE
  5
B474
330
1F
100
AcDbEntity
  8
AM_VIS
100
AcDbLine
 10
1719.253657913901
 20
758.6829957454535
 30
0.0
 11
1711.793219232802
 21
758.6829957454535
 31
0.0
  0
LINE
  5
B475
330
1F
100
AcDbEntity
  8
AM_VIS
100
AcDbLine
 10
1711.793219232802
 20
760.0829957454534
 30
0.0
 11
1719.253657913901
 21
760.0829957454534
 31
0.0
  0
LINE
  5
B476
330
1F
100
AcDbEntity
  8
AM_VIS
100
AcDbLine
 10
1719.253657913901
 20
770.1829957454535
 30
0.0
 11
1711.793219232802
 21
770.1829957454535
 31
0.0
  0
LINE
  5
B477
330
1F
100
AcDbEntity
  8
AM_VIS
100
AcDbLine
 10
1727.026545180109
 20
771.5829957454534
 30
0.0
 11
1724.156038649391
 21
771.5829957454534
 31
0.0
  0
LINE
  5
B478
330
1F
100
AcDbEntity
  8
AM_VIS
100
AcDbLine
 10
1724.156038649391
 20
770.1829957454535
 30
0.0
 11
1727.026545180109
 21
770.1829957454535
 31
0.0
  0
LINE
  5
B479
330
1F
100
AcDbEntity
  8
AM_VIS
100
AcDbLine
 10
1724.156038649391
 20
758.6829957454535
 30
0.0
 11
1727.026545180109
 21
758.6829957454535
 31
0.0
  0
LINE
  5
B47A
330
1F
100
AcDbEntity
  8
AM_VIS
100
AcDbLine
 10
1727.026545180109
 20
760.0829957454534
 30
0.0
 11
1724.156038649391
 21
760.0829957454534
 31
0.0
  0
LINE
  5
B47B
330
1F
100
AcDbEntity
  8
AM_VIS
100
AcDbLine
 10
1718.293219232802
 20
760.8329957454538
 30
0.0
 11
1718.793219232802
 21
761.3329957454538
 31
0.0
  0
LINE
  5
B47C
330
1F
100
AcDbEntity
  8
AM_VIS
100
AcDbLine
 10
1713.293219232802
 20
760.8329957454538
 30
0.0
 11
1712.793219232802
 21
761.3329957454538
 31
0.0
  0
LINE
  5
B47D
330
1F
100
AcDbEntity
  8
AM_VIS
100
AcDbLine
 10
1713.293219232802
 20
769.6329957454537
 30
0.0
 11
1712.793219232802
 21
769.1329957454537
 31
0.0
  0
LINE
  5
B47E
330
1F
100
AcDbEntity
  8
AM_VIS
100
AcDbLine
 10
1718.293219232802
 20
769.6329957454537
 30
0.0
 11
1718.793219232802
 21
769.1329957454537
 31
0.0
  0
LINE
  5
B47F
330
1F
100
AcDbEntity
  8
AM_VIS
100
AcDbLine
 10
1707.293219232802
 20
768.6329957454537
 30
0.0
 11
1707.293219232802
 21
761.8329957454538
 31
0.0
  0
LINE
  5
B480
330
1F
100
AcDbEntity
  8
AM_VIS
100
AcDbLine
 10
1724.293219232802
 20
768.6329957454537
 30
0.0
 11
1724.293219232802
 21
761.8329957454538
 31
0.0
  0
LINE
  5
B481
330
1F
100
AcDbEntity
  8
AM_VIS
100
AcDbLine
 10
1723.793219232802
 20
761.3329957454538
 30
0.0
 11
1707.793219232802
 21
761.3329957454538
 31
0.0
  0
LINE
  5
B482
330
1F
100
AcDbEntity
  8
AM_VIS
100
AcDbLine
 10
1707.793219232802
 20
769.1329957454537
 30
0.0
 11
1723.793219232802
 21
769.1329957454537
 31
0.0
  0
LINE
  5
B483
330
1F
100
AcDbEntity
  8
AM_VIS
100
AcDbLine
 10
1718.293219232802
 20
760.8329957454538
 30
0.0
 11
1713.293219232802
 21
760.8329957454538
 31
0.0
  0
LINE
  5
B484
330
1F
100
AcDbEntity
  8
AM_VIS
100
AcDbLine
 10
1713.293219232802
 20
769.6329957454537
 30
0.0
 11
1718.293219232802
 21
769.6329957454537
 31
0.0
  0
ARC
  5
B485
330
1F
100
AcDbEntity
  8
AM_VIS
100
AcDbCircle
 10
1723.793219232802
 20
761.8329957454538
 30
0.0
 40
0.5
100
AcDbArc
 50
270.0
 51
0.0
  0
ARC
  5
B486
330
1F
100
AcDbEntity
  8
AM_VIS
100
AcDbCircle
 10
1707.793219232802
 20
761.8329957454538
 30
0.0
 40
0.5
100
AcDbArc
 50
180.0
 51
270.0
  0
ARC
  5
B487
330
1F
100
AcDbEntity
  8
AM_VIS
100
AcDbCircle
 10
1723.793219232802
 20
768.6329957454537
 30
0.0
 40
0.5
100
AcDbArc
 50
0.0
 51
90.0
  0
ARC
  5
B488
330
1F
100
AcDbEntity
  8
AM_VIS
100
AcDbCircle
 10
1707.793219232802
 20
768.6329957454537
 30
0.0
 40
0.5
100
AcDbArc
 50
90.0
 51
180.0
  0
LINE
  5
B489
330
1F
100
AcDbEntity
  8
AM_VIS
100
AcDbLine
 10
1712.993219232803
 20
772.5829957454537
 30
0.0
 11
1712.793219232802
 21
772.3829957454539
 31
0.0
  0
LINE
  5
B48A
330
1F
100
AcDbEntity
  8
AM_VIS
100
AcDbLine
 10
1718.593219232802
 20
772.5829957454537
 30
0.0
 11
1718.793219232803
 21
772.3829957454539
 31
0.0
  0
LINE
  5
B48B
330
1F
100
AcDbEntity
  8
AM_VIS
100
AcDbLine
 10
1712.793219232802
 20
772.3829957454537
 30
0.0
 11
1712.793219232802
 21
771.7829957454538
 31
0.0
  0
LINE
  5
B48C
330
1F
100
AcDbEntity
  8
AM_VIS
100
AcDbLine
 10
1718.793219232803
 20
772.3829957454537
 30
0.0
 11
1718.793219232803
 21
771.7829957454538
 31
0.0
  0
LINE
  5
B48D
330
1F
100
AcDbEntity
  8
AM_VIS
100
AcDbLine
 10
1718.593219232802
 20
771.5829957454538
 30
0.0
 11
1718.793219232803
 21
771.7829957454538
 31
0.0
  0
LINE
  5
B48E
330
1F
100
AcDbEntity
  8
AM_VIS
100
AcDbLine
 10
1712.993219232803
 20
771.5829957454538
 30
0.0
 11
1712.793219232802
 21
771.7829957454538
 31
0.0
  0
LINE
  5
B48F
330
1F
100
AcDbEntity
  8
AM_VIS
100
AcDbLine
 10
1714.343219232802
 20
770.1829957454535
 30
0.0
 11
1714.343219232802
 21
769.6329957454537
 31
0.0
  0
LINE
  5
B490
330
1F
100
AcDbEntity
  8
AM_VIS
100
AcDbLine
 10
1714.343219232802
 20
760.8329957454538
 30
0.0
 11
1714.343219232802
 21
760.0829957454534
 31
0.0
  0
LINE
  5
B491
330
1F
100
AcDbEntity
  8
AM_VIS
100
AcDbLine
 10
1714.343219232802
 20
758.6829957454535
 30
0.0
 11
1714.343219232802
 21
758.0829957454538
 31
0.0
  0
LINE
  5
B492
330
1F
100
AcDbEntity
  8
AM_VIS
100
AcDbLine
 10
1717.243219232803
 20
770.1829957454535
 30
0.0
 11
1717.243219232803
 21
769.6329957454537
 31
0.0
  0
LINE
  5
B493
330
1F
100
AcDbEntity
  8
AM_VIS
100
AcDbLine
 10
1717.243219232803
 20
760.8329957454538
 30
0.0
 11
1717.243219232803
 21
760.0829957454533
 31
0.0
  0
LINE
  5
B494
330
1F
100
AcDbEntity
  8
AM_VIS
100
AcDbLine
 10
1717.243219232803
 20
758.6829957454535
 30
0.0
 11
1717.243219232803
 21
758.0829957454538
 31
0.0
  0
LINE
  5
B495
330
1F
100
AcDbEntity
  8
AM_VIS
100
AcDbLine
 10
1712.993219232803
 20
772.5829957454537
 30
0.0
 11
1718.593219232802
 21
772.5829957454537
 31
0.0
  0
LINE
  5
B496
330
1F
100
AcDbEntity
  8
AM_VIS
100
AcDbLine
 10
1718.793219232803
 20
772.3829957454537
 30
0.0
 11
1712.793219232802
 21
772.3829957454537
 31
0.0
  0
LINE
  5
B497
330
1F
100
AcDbEntity
  8
AM_VIS
100
AcDbLine
 10
1712.793219232802
 20
771.7829957454538
 30
0.0
 11
1718.793219232803
 21
771.7829957454538
 31
0.0
  0
LINE
  5
B498
330
1F
100
AcDbEntity
  8
AM_VIS
100
AcDbLine
 10
1717.243219232803
 20
758.0829957454538
 30
0.0
 11
1714.343219232802
 21
758.0829957454538
 31
0.0
  0
LINE
  5
B499
330
1F
100
AcDbEntity
  8
AM_VIS
100
AcDbLine
 10
1751.594847871669
 20
774.1829957454535
 30
0.0
 11
1751.394847871669
 21
773.9829957454534
 31
0.0
  0
LINE
  5
B49A
330
1F
100
AcDbEntity
  8
AM_VIS
100
AcDbLine
 10
1757.194847871669
 20
774.1829957454535
 30
0.0
 11
1757.394847871669
 21
773.9829957454534
 31
0.0
  0
LINE
  5
B49B
330
1F
100
AcDbEntity
  8
AM_VIS
100
AcDbLine
 10
1751.394847871669
 20
773.9829957454534
 30
0.0
 11
1751.394847871669
 21
773.3829957454535
 31
0.0
  0
LINE
  5
B49C
330
1F
100
AcDbEntity
  8
AM_VIS
100
AcDbLine
 10
1757.394847871669
 20
773.9829957454534
 30
0.0
 11
1757.394847871669
 21
773.3829957454535
 31
0.0
  0
LINE
  5
B49D
330
1F
100
AcDbEntity
  8
AM_VIS
100
AcDbLine
 10
1757.194847871669
 20
773.1829957454534
 30
0.0
 11
1757.394847871669
 21
773.3829957454535
 31
0.0
  0
LINE
  5
B49E
330
1F
100
AcDbEntity
  8
AM_VIS
100
AcDbLine
 10
1751.594847871669
 20
773.1829957454534
 30
0.0
 11
1751.394847871669
 21
773.3829957454535
 31
0.0
  0
LINE
  5
B49F
330
1F
100
AcDbEntity
  8
AM_VIS
100
AcDbLine
 10
1752.944847871669
 20
771.7829957454535
 30
0.0
 11
1752.944847871669
 21
771.5829957454533
 31
0.0
  0
LINE
  5
B4A0
330
1F
100
AcDbEntity
  8
AM_VIS
100
AcDbLine
 10
1752.944847871669
 20
758.6829957454535
 30
0.0
 11
1752.944847871669
 21
758.4829957454535
 31
0.0
  0
LINE
  5
B4A1
330
1F
100
AcDbEntity
  8
AM_VIS
100
AcDbLine
 10
1752.944847871669
 20
757.0829957454535
 30
0.0
 11
1752.944847871669
 21
755.6829957454534
 31
0.0
  0
LINE
  5
B4A2
330
1F
100
AcDbEntity
  8
AM_VIS
100
AcDbLine
 10
1755.844847871669
 20
771.7829957454534
 30
0.0
 11
1755.844847871669
 21
771.5829957454533
 31
0.0
  0
LINE
  5
B4A3
330
1F
100
AcDbEntity
  8
AM_VIS
100
AcDbLine
 10
1755.844847871669
 20
758.6829957454533
 30
0.0
 11
1755.844847871669
 21
758.4829957454537
 31
0.0
  0
LINE
  5
B4A4
330
1F
100
AcDbEntity
  8
AM_VIS
100
AcDbLine
 10
1755.844847871669
 20
757.0829957454535
 30
0.0
 11
1755.844847871669
 21
755.6829957454534
 31
0.0
  0
LINE
  5
B4A5
330
1F
100
AcDbEntity
  8
AM_VIS
100
AcDbLine
 10
1751.594847871669
 20
774.1829957454535
 30
0.0
 11
1757.194847871669
 21
774.1829957454535
 31
0.0
  0
LINE
  5
B4A6
330
1F
100
AcDbEntity
  8
AM_VIS
100
AcDbLine
 10
1757.394847871669
 20
773.9829957454534
 30
0.0
 11
1751.394847871669
 21
773.9829957454534
 31
0.0
  0
LINE
  5
B4A7
330
1F
100
AcDbEntity
  8
AM_VIS
100
AcDbLine
 10
1751.394847871669
 20
773.3829957454535
 30
0.0
 11
1757.394847871669
 21
773.3829957454535
 31
0.0
  0
LINE
  5
B4A8
330
1F
100
AcDbEntity
  8
AM_VIS
100
AcDbLine
 10
1755.844847871669
 20
755.6829957454534
 30
0.0
 11
1752.944847871669
 21
755.6829957454534
 31
0.0
  0
LINE
  5
B4A9
330
1F
100
AcDbEntity
  8
AM_VIS
100
AcDbLine
 10
1758.994847871669
 20
621.5319227503791
 30
0.0
 11
1758.994847871669
 21
595.0319227503792
 31
0.0
  0
LINE
  5
B4AA
330
1F
100
AcDbEntity
  8
AM_VIS
100
AcDbLine
 10
1758.994847871669
 20
669.0319227503792
 30
0.0
 11
1758.994847871669
 21
629.5319227503791
 31
0.0
  0
LINE
  5
B4AB
330
1F
100
AcDbEntity
  8
AM_VIS
100
AcDbLine
 10
1758.994847871669
 20
669.0319227503792
 30
0.0
 11
1712.594847871669
 21
669.0319227503792
 31
0.0
  0
LINE
  5
B4AC
330
1F
100
AcDbEntity
  8
AM_VIS
100
AcDbLine
 10
1755.994847871669
 20
653.2819227503791
 30
0.0
 11
1751.294847871669
 21
653.2819227503791
 31
0.0
  0
LINE
  5
B4AD
330
1F
100
AcDbEntity
  8
AM_VIS
100
AcDbLine
 10
1753.258618722095
 20
657.0319227503792
 30
0.0
 11
1752.590307103164
 21
657.0319227503792
 31
0.0
  0
LINE
  5
B4AE
330
1F
100
AcDbEntity
  8
AM_VIS
100
AcDbLine
 10
1716.794847871669
 20
603.5319227503792
 30
0.0
 11
1719.944847871669
 21
603.5319227503792
 31
0.0
  0
LINE
  5
B4AF
330
1F
100
AcDbEntity
  8
AM_VIS
100
AcDbLine
 10
1719.944847871669
 20
660.5319227503791
 30
0.0
 11
1716.794847871669
 21
660.5319227503791
 31
0.0
  0
LINE
  5
B4B0
330
1F
100
AcDbEntity
  8
AM_VIS
100
AcDbLine
 10
1739.34132499693
 20
617.0319227503791
 30
0.0
 11
1721.044847871669
 21
617.0319227503791
 31
0.0
  0
ARC
  5
B4B1
330
1F
100
AcDbEntity
  8
AM_VIS
100
AcDbCircle
 10
1749.644847871669
 20
598.5319227503792
 30
0.0
 40
1.0
100
AcDbArc
 50
270.0
 51
0.0
  0
LINE
  5
B4B2
330
1F
100
AcDbEntity
  8
AM_VIS
100
AcDbLine
 10
1750.644847871669
 20
603.5319227503792
 30
0.0
 11
1753.794847871669
 21
603.5319227503792
 31
0.0
  0
LINE
  5
B4B3
330
1F
100
AcDbEntity
  8
AM_VIS
100
AcDbLine
 10
1750.644847871669
 20
603.5319227503792
 30
0.0
 11
1749.644847871669
 21
603.5319227503792
 31
0.0
  0
LINE
  5
B4B4
330
1F
100
AcDbEntity
  8
AM_VIS
100
AcDbLine
 10
1725.907987905026
 20
647.0319227503791
 30
0.0
 11
1739.34132499693
 21
647.0319227503791
 31
0.0
  0
CIRCLE
  5
B4B5
330
1F
100
AcDbEntity
  8
AM_VIS
100
AcDbCircle
 10
1717.294847871669
 20
619.0319227503792
 30
0.0
 40
2.75
  0
CIRCLE
  5
B4B6
330
1F
100
AcDbEntity
  8
AM_VIS
100
AcDbCircle
 10
1717.294847871669
 20
645.0319227503792
 30
0.0
 40
2.75
  0
ARC
  5
B4B7
330
1F
100
AcDbEntity
  8
AM_VIS
100
AcDbCircle
 10
1754.294847871669
 20
632.0319227503792
 30
0.0
 40
4.25
100
AcDbArc
 50
225.4500654070433
 51
241.9275130641455
  0
ARC
  5
B4B8
330
1F
100
AcDbEntity
  8
AM_VIS
100
AcDbCircle
 10
1750.611812157384
 20
628.2905663215828
 30
0.0
 40
1.0
100
AcDbArc
 50
45.45006540704329
 51
131.5591475918667
  0
ARC
  5
B4B9
330
1F
100
AcDbEntity
  8
AM_VIS
100
AcDbCircle
 10
1747.294847871669
 20
632.0319227503792
 30
0.0
 40
4.0
100
AcDbArc
 50
48.44085240813324
 51
311.5591475918667
  0
ARC
  5
B4BA
330
1F
100
AcDbEntity
  8
AM_VIS
100
AcDbCircle
 10
1750.611812157384
 20
635.7732791791756
 30
0.0
 40
1.0
100
AcDbArc
 50
228.4408524081332
 51
314.5499345929567
  0
ARC
  5
B4BB
330
1F
100
AcDbEntity
  8
AM_VIS
100
AcDbCircle
 10
1754.294847871669
 20
632.0319227503792
 30
0.0
 40
4.25
100
AcDbArc
 50
82.33774433922834
 51
134.5499345929567
  0
ARC
  5
B4BC
330
1F
100
AcDbEntity
  8
AM_VIS
100
AcDbCircle
 10
1754.994847871669
 20
637.2350468119406
 30
0.0
 40
1.0
100
AcDbArc
 50
262.3377443392275
 51
0.0
  0
ARC
  5
B4BD
330
1F
100
AcDbEntity
  8
AM_VIS
100
AcDbCircle
 10
1716.594847871669
 20
650.2819227503792
 30
0.0
 40
0.9999999999999998
100
AcDbArc
 50
180.0
 51
270.0
  0
ARC
  5
B4BE
330
1F
100
AcDbEntity
  8
AM_VIS
100
AcDbCircle
 10
1717.294847871669
 20
645.0319227503792
 30
0.0
 40
4.25
100
AcDbArc
 50
270.0
 51
90.0
  0
ARC
  5
B4BF
330
1F
100
AcDbEntity
  8
AM_VIS
100
AcDbCircle
 10
1716.594847871669
 20
639.7819227503791
 30
0.0
 40
0.9999999999999998
100
AcDbArc
 50
90.0
 51
180.0
  0
ARC
  5
B4C0
330
1F
100
AcDbEntity
  8
AM_VIS
100
AcDbCircle
 10
1718.294847871669
 20
629.0319227503792
 30
0.0
 40
0.9999999999999998
100
AcDbArc
 50
0.0
 51
90.0
  0
ARC
  5
B4C1
330
1F
100
AcDbEntity
  8
AM_VIS
100
AcDbCircle
 10
1717.294847871669
 20
619.0319227503792
 30
0.0
 40
4.25
100
AcDbArc
 50
270.0
 51
61.9275130641455
  0
ARC
  5
B4C2
330
1F
100
AcDbEntity
  8
AM_VIS
100
AcDbCircle
 10
1716.594847871669
 20
613.7819227503792
 30
0.0
 40
0.9999999999999998
100
AcDbArc
 50
90.0
 51
180.0
  0
ARC
  5
B4C3
330
1F
100
AcDbEntity
  8
AM_VIS
100
AcDbCircle
 10
1753.294847871669
 20
620.5319227503792
 30
0.0
 40
0.9999999999999998
100
AcDbArc
 50
180.0
 51
270.0
  0
LINE
  5
B4C4
330
1F
100
AcDbEntity
  8
AM_VIS
100
AcDbLine
 10
1758.994847871669
 20
629.5319227503791
 30
0.0
 11
1758.994847871669
 21
621.5319227503791
 31
0.0
  0
LINE
  5
B4C5
330
1F
100
AcDbEntity
  8
AM_VIS
100
AcDbLine
 10
1713.594847871669
 20
587.0319227503792
 30
0.0
 11
1757.994847871669
 21
587.0319227503792
 31
0.0
  0
LINE
  5
B4C6
330
1F
100
AcDbEntity
  8
AM_VIS
100
AcDbLine
 10
1712.594847871669
 20
595.0319227503792
 30
0.0
 11
1712.594847871669
 21
588.0319227503791
 31
0.0
  0
LINE
  5
B4C7
330
1F
100
AcDbEntity
  8
AM_VIS
100
AcDbLine
 10
1758.994847871669
 20
588.0319227503791
 30
0.0
 11
1758.994847871669
 21
595.0319227503792
 31
0.0
  0
LINE
  5
B4C8
330
1F
100
AcDbEntity
  8
AM_VIS
100
AcDbLine
 10
1713.594847871669
 20
595.0319227503792
 30
0.0
 11
1757.994847871669
 21
595.0319227503792
 31
0.0
  0
ARC
  5
B4C9
330
1F
100
AcDbEntity
  8
AM_VIS
100
AcDbCircle
 10
1757.994847871669
 20
588.0319227503791
 30
0.0
 40
1.0
100
AcDbArc
 50
270.0
 51
0.0
  0
ARC
  5
B4CA
330
1F
100
AcDbEntity
  8
AM_VIS
100
AcDbCircle
 10
1713.594847871669
 20
588.0319227503791
 30
0.0
 40
1.0
100
AcDbArc
 50
180.0
 51
270.0
  0
LINE
  5
B4CB
330
1F
100
AcDbEntity
  8
AM_VIS
100
AcDbLine
 10
1754.106347871669
 20
586.9468679703483
 30
0.0
 11
1754.106347871669
 21
587.0319227503792
 31
0.0
  0
LINE
  5
B4CC
330
1F
100
AcDbEntity
  8
AM_VIS
100
AcDbLine
 10
1753.483347871669
 20
587.0319227503792
 30
0.0
 11
1753.483347871669
 21
586.9468679703483
 31
0.0
  0
ARC
  5
B4CD
330
1F
100
AcDbEntity
  8
AM_VIS
100
AcDbCircle
 10
1753.794847871669
 20
593.4319227503791
 30
0.0
 40
6.492531690334804
100
AcDbArc
 50
260.3151479664598
 51
267.2499957580025
  0
ARC
  5
B4CE
330
1F
100
AcDbEntity
  8
AM_VIS
100
AcDbCircle
 10
1753.794847871669
 20
593.4319227503791
 30
0.0
 40
6.492531690334804
100
AcDbArc
 50
272.7500042419975
 51
279.6848520335402
  0
LINE
  5
B4CF
330
1F
100
AcDbEntity
  8
AM_VIS
100
AcDbLine
 10
1717.106347871669
 20
586.9468679703484
 30
0.0
 11
1717.106347871669
 21
587.0319227503792
 31
0.0
  0
LINE
  5
B4D0
330
1F
100
AcDbEntity
  8
AM_VIS
100
AcDbLine
 10
1716.483347871669
 20
587.0319227503792
 30
0.0
 11
1716.483347871669
 21
586.9468679703484
 31
0.0
  0
ARC
  5
B4D1
330
1F
100
AcDbEntity
  8
AM_VIS
100
AcDbCircle
 10
1716.794847871669
 20
593.4319227503791
 30
0.0
 40
6.492531690334613
100
AcDbArc
 50
272.7500042419975
 51
279.6848520335274
  0
ARC
  5
B4D2
330
1F
100
AcDbEntity
  8
AM_VIS
100
AcDbCircle
 10
1716.794847871669
 20
593.4319227503791
 30
0.0
 40
6.492531690334613
100
AcDbArc
 50
260.3151479664727
 51
267.2499957580025
  0
ELLIPSE
  5
B4D3
330
1F
100
AcDbEntity
  8
AM_VIS
100
AcDbEllipse
 10
1716.794847871669
 20
681.58141823427
 30
0.0
 11
0.0000000000000064
 21
-10.44041419392712
 31
-0.0000000000000001
210
0.0
220
0.0
230
1.0
 40
0.363970234266219
 41
4.712388980384689
 42
4.765044888646253
  0
LINE
  5
B4D4
330
1F
100
AcDbEntity
  8
AM_VIS
100
AcDbLine
 10
1712.994847871669
 20
682.0319227503792
 30
0.0
 11
1712.994847871669
 21
681.58141823427
 31
0.0
  0
LINE
  5
B4D5
330
1F
100
AcDbEntity
  8
AM_VIS
100
AcDbLine
 10
1720.594847871669
 20
682.0319227503792
 30
0.0
 11
1720.594847871669
 21
681.0319227503791
 31
0.0
  0
LINE
  5
B4D6
330
1F
100
AcDbEntity
  8
AM_VIS
100
AcDbLine
 10
1712.594847871669
 20
681.0319227503791
 30
0.0
 11
1712.594847871669
 21
686.0319227503792
 31
0.0
  0
LINE
  5
B4D7
330
1F
100
AcDbEntity
  8
AM_VIS
100
AcDbLine
 10
1758.994847871669
 20
669.0319227503792
 30
0.0
 11
1758.994847871669
 21
686.0319227503792
 31
0.0
  0
LINE
  5
B4D8
330
1F
100
AcDbEntity
  8
AM_VIS
100
AcDbLine
 10
1720.794847871669
 20
686.0319227503792
 30
0.0
 11
1720.794847871669
 21
681.0319227503791
 31
0.0
  0
LINE
  5
B4D9
330
1F
100
AcDbEntity
  8
AM_VIS
100
AcDbLine
 10
1713.594847871669
 20
669.0319227503792
 30
0.0
 11
1757.994847871669
 21
669.0319227503792
 31
0.0
  0
LINE
  5
B4DA
330
1F
100
AcDbEntity
  8
AM_VIS
100
AcDbLine
 10
1720.794847871669
 20
681.0319227503791
 30
0.0
 11
1713.594847871669
 21
681.0319227503791
 31
0.0
  0
LINE
  5
B4DB
330
1F
100
AcDbEntity
  8
AM_VIS
100
AcDbLine
 10
1712.594847871669
 20
681.0319227503791
 30
0.0
 11
1712.594847871669
 21
669.0319227503792
 31
0.0
  0
LINE
  5
B4DC
330
1F
100
AcDbEntity
  8
AM_VIS
100
AcDbLine
 10
1757.994847871669
 20
686.0319227503792
 30
0.0
 11
1720.794847871669
 21
686.0319227503792
 31
0.0
  0
LINE
  5
B4DD
330
1F
100
AcDbEntity
  8
AM_VIS
100
AcDbLine
 10
1712.594847871669
 20
686.0319227503792
 30
0.0
 11
1716.794847871669
 21
686.0319227503792
 31
0.0
  0
LINE
  5
B4DE
330
1F
100
AcDbEntity
  8
AM_VIS
100
AcDbLine
 10
1712.594847871669
 20
681.0319227503791
 30
0.0
 11
1713.594847871669
 21
681.0319227503791
 31
0.0
  0
LINE
  5
B4DF
330
1F
100
AcDbEntity
  8
AM_VIS
100
AcDbLine
 10
1757.994847871669
 20
686.0319227503792
 30
0.0
 11
1758.994847871669
 21
686.0319227503792
 31
0.0
  0
LINE
  5
B4E0
330
1F
100
AcDbEntity
  8
AM_VIS
100
AcDbLine
 10
1716.794847871669
 20
686.0319227503792
 30
0.0
 11
1718.794847871669
 21
686.0319227503792
 31
0.0
  0
LINE
  5
B4E1
330
1F
100
AcDbEntity
  8
AM_VIS
100
AcDbLine
 10
1719.496236403517
 20
686.0319227503792
 30
0.0
 11
1720.794847871669
 21
686.0319227503792
 31
0.0
  0
LINE
  5
B4E2
330
1F
100
AcDbEntity
  8
AM_VIS
100
AcDbLine
 10
1712.887492899363
 20
683.090860262507
 30
0.0
 11
1712.794847871669
 21
682.0319227503792
 31
0.0
  0
LINE
  5
B4E3
330
1F
100
AcDbEntity
  8
AM_VIS
100
AcDbLine
 10
1720.702202843976
 20
683.090860262507
 30
0.0
 11
1720.79484787167
 21
682.0319227503792
 31
0.0
  0
LINE
  5
B4E4
330
1F
100
AcDbEntity
  8
AM_VIS
100
AcDbLine
 10
1720.79484787167
 20
682.0319227503792
 30
0.0
 11
1712.794847871669
 21
682.0319227503792
 31
0.0
  0
LINE
  5
B4E5
330
1F
100
AcDbEntity
  8
AM_VIS
100
AcDbLine
 10
1716.48334787167
 20
685.11697753041
 30
0.0
 11
1716.48334787167
 21
684.7056037736455
 31
0.0
  0
ELLIPSE
  5
B4E6
330
1F
100
AcDbEntity
  8
AM_VIS
100
AcDbEllipse
 10
1716.794847871669
 20
680.5240425610795
 30
0.0
 11
5.924134808644421
 21
0.0000000000000036
 31
0.0
210
0.0
220
0.0
230
1.0
 40
0.7068296022936068
 41
1.518190549077104
 42
1.623402104512688
  0
LINE
  5
B4E7
330
1F
100
AcDbEntity
  8
AM_VIS
100
AcDbLine
 10
1717.106347871669
 20
684.7056037736455
 30
0.0
 11
1717.106347871669
 21
685.11697753041
 31
0.0
  0
LINE
  5
B4E8
330
1F
100
AcDbEntity
  8
AM_VIS
100
AcDbLine
 10
1714.494847871669
 20
684.7113964118075
 30
0.0
 11
1714.500645052036
 21
684.7056037736457
 31
0.0
  0
ARC
  5
B4E9
330
1F
100
AcDbEntity
  8
AM_VIS
100
AcDbCircle
 10
1716.794847871669
 20
678.6319227503792
 30
0.0
 40
6.492531690334802
100
AcDbArc
 50
69.30701681442089
 51
87.24999575800255
  0
ARC
  5
B4EA
330
1F
100
AcDbEntity
  8
AM_VIS
100
AcDbCircle
 10
1716.794847871669
 20
678.6319227503792
 30
0.0
 40
6.492531690334802
100
AcDbArc
 50
92.75000424199744
 51
110.6929831855791
  0
LINE
  5
B4EB
330
1F
100
AcDbEntity
  8
AM_VIS
100
AcDbLine
 10
1719.089050691303
 20
684.7056037736457
 30
0.0
 11
1719.094847871669
 21
684.7113964118075
 31
0.0
  0
ARC
  5
B4EC
330
1F
100
AcDbEntity
  8
AM_VIS
100
AcDbCircle
 10
1714.48140441631
 20
682.9514110741106
 30
0.0
 40
1.6
100
AcDbArc
 50
118.1727341318709
 51
174.999999999994
  0
ARC
  5
B4ED
330
1F
100
AcDbEntity
  8
AM_VIS
100
AcDbCircle
 10
1719.108291327029
 20
682.9514110741106
 30
0.0
 40
1.6
100
AcDbArc
 50
5.000000000005948
 51
61.82726586812909
  0
ARC
  5
B4EE
330
1F
100
AcDbEntity
  8
AM_VIS
100
AcDbCircle
 10
1716.794847871669
 20
678.631922750379
 30
0.0
 40
6.500000000000032
100
AcDbArc
 50
61.82726586812909
 51
69.2772556184067
  0
ARC
  5
B4EF
330
1F
100
AcDbEntity
  8
AM_VIS
100
AcDbCircle
 10
1716.794847871669
 20
678.631922750379
 30
0.0
 40
6.500000000000032
100
AcDbArc
 50
110.7227443815933
 51
118.1727341318709
  0
ARC
  5
B4F0
330
1F
100
AcDbEntity
  8
AM_VIS
100
AcDbCircle
 10
1735.79484787167
 20
691.0319227503792
 30
0.0
 40
4.0
100
AcDbArc
 50
55.28947302061244
 51
144.0698437467377
  0
LINE
  5
B4F1
330
1F
100
AcDbEntity
  8
AM_VIS
100
AcDbLine
 10
1719.496236403517
 20
686.0319227503792
 30
0.0
 11
1718.794847871669
 21
686.0319227503792
 31
0.0
  0
LINE
  5
B4F2
330
1F
100
AcDbEntity
  8
AM_VIS
100
AcDbLine
 10
1718.794847871669
 20
686.0319227503792
 30
0.0
 11
1718.794847871669
 21
688.5002988408534
 31
0.0
  0
LINE
  5
B4F3
330
1F
100
AcDbEntity
  8
AM_VIS
100
AcDbLine
 10
1756.354439665896
 20
687.4319227503791
 30
0.0
 11
1756.354439665896
 21
686.0319227503792
 31
0.0
  0
LINE
  5
B4F4
330
1F
100
AcDbEntity
  8
AM_VIS
100
AcDbLine
 10
1760.794847871669
 20
686.0319227503792
 30
0.0
 11
1758.994847871669
 21
686.0319227503792
 31
0.0
  0
LINE
  5
B4F5
330
1F
100
AcDbEntity
  8
AM_VIS
100
AcDbLine
 10
1759.394847871669
 20
696.0319227503791
 30
0.0
 11
1760.794847871669
 21
696.0319227503791
 31
0.0
  0
LINE
  5
B4F6
330
1F
100
AcDbEntity
  8
AM_VIS
100
AcDbLine
 10
1760.794847871669
 20
696.0319227503791
 30
0.0
 11
1760.794847871669
 21
686.0319227503792
 31
0.0
  0
LINE
  5
B4F7
330
1F
100
AcDbEntity
  8
AM_VIS
100
AcDbLine
 10
1759.394847871669
 20
687.4349344403791
 30
0.0
 11
1759.394847871669
 21
694.1571408209703
 31
0.0
  0
LINE
  5
B4F8
330
1F
100
AcDbEntity
  8
AM_VIS
100
AcDbLine
 10
1759.394847871669
 20
694.498366852149
 30
0.0
 11
1759.394847871669
 21
696.0319227503791
 31
0.0
  0
LINE
  5
B4F9
330
1F
100
AcDbEntity
  8
AM_VIS
100
AcDbLine
 10
1721.290429622334
 20
691.4575885171851
 30
0.0
 11
1753.554150789444
 21
696.9607388775986
 31
0.0
  0
LINE
  5
B4FA
330
1F
100
AcDbEntity
  8
AM_VIS
100
AcDbLine
 10
1759.394847871669
 20
687.4349344403791
 30
0.0
 11
1756.361494377202
 21
687.4349344403791
 31
0.0
  0
ARC
  5
B4FB
330
1F
100
AcDbEntity
  8
AM_VIS
100
AcDbCircle
 10
1721.794847871669
 20
688.5002988408534
 30
0.0
 40
3.0
100
AcDbArc
 50
99.67965838367335
 51
180.0
  0
ARC
  5
B4FC
330
1F
100
AcDbEntity
  8
AM_VIS
100
AcDbCircle
 10
1754.394847871669
 20
692.0319227503791
 30
0.0
 40
5.0
100
AcDbArc
 50
293.0739180656293
 51
99.67965838367335
  0
CIRCLE
  5
B4FD
330
1F
100
AcDbEntity
  8
AM_VIS
100
AcDbCircle
 10
1754.394847871669
 20
692.0319227503791
 30
0.0
 40
1.649999999999999
  0
LINE
  5
B4FE
330
1F
100
AcDbEntity
  8
AM_VIS
100
AcDbLine
 10
1742.220639085149
 20
695.0276072745453
 30
0.0
 11
1716.909169201828
 21
705.1759363718272
 31
0.0
  0
LINE
  5
B4FF
330
1F
100
AcDbEntity
  8
AM_VIS
100
AcDbLine
 10
1727.026545180109
 20
707.4760480989748
 30
0.0
 11
1753.343103287121
 21
696.9247409797597
 31
0.0
  0
LINE
  5
B500
330
1F
100
AcDbEntity
  8
AM_VIS
100
AcDbLine
 10
1758.527746769202
 20
694.8460205992058
 30
0.0
 11
1759.512711599216
 21
694.4511108096792
 31
0.0
  0
LINE
  5
B501
330
1F
100
AcDbEntity
  8
AM_VIS
100
AcDbLine
 10
1759.512711599216
 20
694.4511108096792
 30
0.0
 11
1759.155537834664
 21
693.5602653416318
 31
0.0
  0
LINE
  5
B502
330
1F
100
AcDbEntity
  8
AM_VIS
100
AcDbLine
 10
1722.070432597556
 20
709.8940944320826
 30
0.0
 11
1724.15603864939
 21
707.3573000485566
 31
0.0
  0
LINE
  5
B503
330
1F
100
AcDbEntity
  8
AM_VIS
100
AcDbLine
 10
1719.253657913901
 20
711.0234463272664
 30
0.0
 11
1722.070432597556
 21
709.8940944320824
 31
0.0
  0
ARC
  5
B504
330
1F
100
AcDbEntity
  8
AM_VIS
100
AcDbCircle
 10
1715.793219232802
 20
709.0171153141093
 30
0.0
 40
4.0
100
AcDbArc
 50
30.10476947706405
 51
286.1997843843056
  0
ARC
  5
B505
330
1F
100
AcDbEntity
  8
AM_VIS
100
AcDbCircle
 10
1725.546459015355
 20
708.5004234915452
 30
0.0
 40
1.8
100
AcDbArc
 50
219.425071061259
 51
325.3126885237805
  0
CIRCLE
  5
B506
330
1F
100
AcDbEntity
  8
AM_VIS
100
AcDbCircle
 10
1715.793219232802
 20
709.0171153141093
 30
0.0
 40
1.649999999999999
  0
LINE
  5
B507
330
1F
100
AcDbEntity
  8
AM_VIS
100
AcDbLine
 10
1738.261795894618
 20
694.3523562947234
 30
0.0
 11
1735.187530857678
 21
695.5849458468491
 31
0.0
  0
LINE
  5
B508
330
1F
100
AcDbEntity
  8
AM_VIS
100
AcDbLine
 10
1734.075460621689
 20
698.185580344472
 30
0.0
 11
1734.11267472823
 21
698.2783979628123
 31
0.0
  0
LINE
  5
B509
330
1F
100
AcDbEntity
  8
AM_VIS
100
AcDbLine
 10
1735.412121384994
 20
697.7574004712405
 30
0.0
 11
1735.337693171912
 21
697.57176523456
 31
0.0
  0
LINE
  5
B50A
330
1F
100
AcDbEntity
  8
AM_VIS
100
AcDbLine
 10
1735.615710730909
 20
696.9216066101542
 30
0.0
 11
1740.901024688306
 21
694.8025236146047
 31
0.0
  0
LINE
  5
B50B
330
1F
100
AcDbEntity
  8
AM_VIS
100
AcDbLine
 10
1742.064085392211
 20
695.0009042632201
 30
0.0
 11
1742.094989905496
 21
695.0779848002996
 31
0.0
  0
ARC
  5
B50C
330
1F
100
AcDbEntity
  8
AM_VIS
100
AcDbCircle
 10
1735.931812988495
 20
697.4412982136551
 30
0.0
 40
1.999999999999999
100
AcDbArc
 50
158.1522769306862
 51
248.1522769306838
  0
ARC
  5
B50D
330
1F
100
AcDbEntity
  8
AM_VIS
100
AcDbCircle
 10
1735.801781263614
 20
697.3856947018557
 30
0.0
 40
0.5
100
AcDbArc
 50
158.1522769306862
 51
248.1522769306838
  0
ARC
  5
B50E
330
1F
100
AcDbEntity
  8
AM_VIS
100
AcDbCircle
 10
1715.793219232802
 20
709.0171153141094
 30
0.0
 40
8.5
100
AcDbArc
 50
348.9176166212876
 51
316.4003770850916
  0
CIRCLE
  5
B511
330
1F
100
AcDbEntity
  8
AM_VIS
100
AcDbCircle
 10
1754.394847871669
 20
692.0319227503792
 30
0.0
 40
1.449999999999999
  0
LINE
  5
B576
330
1F
100
AcDbEntity
  8
AM_VIS
100
AcDbLine
 10
1616.933252678943
 20
669.0319227503792
 30
0.0
 11
1616.933252678943
 21
595.0319227503792
 31
0.0
  0
LINE
  5
B577
330
1F
100
AcDbEntity
  8
AM_VIS
100
AcDbLine
 10
1616.933252678943
 20
595.0319227503792
 30
0.0
 11
1646.933252678944
 21
595.0319227503792
 31
0.0
  0
LINE
  5
B578
330
1F
100
AcDbEntity
  8
AM_VIS
100
AcDbLine
 10
1646.933252678944
 20
595.0319227503792
 30
0.0
 11
1646.933252678944
 21
669.0319227503792
 31
0.0
  0
LINE
  5
B579
330
1F
100
AcDbEntity
  8
AM_VIS
100
AcDbLine
 10
1646.933252678944
 20
669.0319227503792
 30
0.0
 11
1616.933252678943
 21
669.0319227503792
 31
0.0
  0
CIRCLE
  5
B57E
330
1F
100
AcDbEntity
  8
AM_VIS
100
AcDbCircle
 10
1631.933252678943
 20
658.0319227503792
 30
0.0
 40
7.459296353444777
  0
CIRCLE
  5
B583
330
1F
100
AcDbEntity
  8
AM_VIS
100
AcDbCircle
 10
1631.933252678943
 20
606.0319227503791
 30
0.0
 40
7.459296353444777
  0
CIRCLE
  5
B584
330
1F
100
AcDbEntity
  8
AM_VIS
100
AcDbCircle
 10
1631.933252678943
 20
632.0319227503792
 30
0.0
 40
7.459296353444778
  0
CIRCLE
  5
B58B
330
1F
100
AcDbEntity
  8
AM_VIS
100
AcDbCircle
 10
1631.933252678943
 20
632.0319227503792
 30
0.0
 40
8.65
  0
CIRCLE
  5
B58C
330
1F
100
AcDbEntity
  8
AM_VIS
100
AcDbCircle
 10
1643.433252678943
 20
625.5319227503791
 30
0.0
 40
2.25
  0
CIRCLE
  5
B58D
330
1F
100
AcDbEntity
  8
AM_VIS
100
AcDbCircle
 10
1620.433252678943
 20
638.5319227503791
 30
0.0
 40
2.25
  0
CIRCLE
  5
B58E
330
1F
100
AcDbEntity
  8
AM_VIS
100
AcDbCircle
 10
1631.933252678943
 20
658.0319227503792
 30
0.0
 40
8.65
  0
CIRCLE
  5
B58F
330
1F
100
AcDbEntity
  8
AM_VIS
100
AcDbCircle
 10
1631.933252678943
 20
606.0319227503791
 30
0.0
 40
8.65
  0
LINE
  5
B590
330
1F
100
AcDbEntity
  8
AM_VIS
100
AcDbLine
 10
1646.933252678944
 20
588.0319227503791
 30
0.0
 11
1646.933252678944
 21
595.0319227503792
 31
0.0
  0
LINE
  5
B591
330
1F
100
AcDbEntity
  8
AM_VIS
100
AcDbLine
 10
1624.933252678943
 20
590.0319227503792
 30
0.0
 11
1624.933252678943
 21
588.0319227503791
 31
0.0
  0
LINE
  5
B592
330
1F
100
AcDbEntity
  8
AM_VIS
100
AcDbLine
 10
1625.933252678943
 20
587.0319227503792
 30
0.0
 11
1645.933252678943
 21
587.0319227503792
 31
0.0
  0
LINE
  5
B593
330
1F
100
AcDbEntity
  8
AM_VIS
100
AcDbLine
 10
1617.933252678943
 20
587.0319227503792
 30
0.0
 11
1619.841022048535
 21
587.0319227503792
 31
0.0
  0
LINE
  5
B594
330
1F
100
AcDbEntity
  8
AM_VIS
100
AcDbLine
 10
1620.621752678945
 20
587.0319227503792
 30
0.0
 11
1620.933252678943
 21
587.0319227503792
 31
0.0
  0
LINE
  5
B595
330
1F
100
AcDbEntity
  8
AM_VIS
100
AcDbLine
 10
1616.933252678943
 20
595.0319227503792
 30
0.0
 11
1616.933252678943
 21
592.0319227503791
 31
0.0
  0
LINE
  5
B596
330
1F
100
AcDbEntity
  8
AM_VIS
100
AcDbLine
 10
1617.933252678943
 20
591.0319227503792
 30
0.0
 11
1618.883862525752
 21
591.0319227503792
 31
0.0
  0
LINE
  5
B597
330
1F
100
AcDbEntity
  8
AM_VIS
100
AcDbLine
 10
1620.369282444677
 20
591.0319227503792
 30
0.0
 11
1620.769282444677
 21
591.0319227503792
 31
0.0
  0
LINE
  5
B598
330
1F
100
AcDbEntity
  8
AM_VIS
100
AcDbLine
 10
1622.982642832135
 20
591.0319227503792
 30
0.0
 11
1623.933252678943
 21
591.0319227503792
 31
0.0
  0
LINE
  5
B599
330
1F
100
AcDbEntity
  8
AM_VIS
100
AcDbLine
 10
1616.933252678943
 20
588.0319227503791
 30
0.0
 11
1616.933252678943
 21
592.0319227503791
 31
0.0
  0
LINE
  5
B59A
330
1F
100
AcDbEntity
  8
AM_VIS
100
AcDbLine
 10
1617.933252678943
 20
595.0319227503792
 30
0.0
 11
1645.933252678943
 21
595.0319227503792
 31
0.0
  0
ARC
  5
B59B
330
1F
100
AcDbEntity
  8
AM_VIS
100
AcDbCircle
 10
1625.933252678943
 20
588.0319227503791
 30
0.0
 40
1.0
100
AcDbArc
 50
180.0
 51
270.0
  0
ARC
  5
B59C
330
1F
100
AcDbEntity
  8
AM_VIS
100
AcDbCircle
 10
1645.933252678943
 20
588.0319227503791
 30
0.0
 40
1.0
100
AcDbArc
 50
270.0
 51
0.0
  0
LINE
  5
B59D
330
1F
100
AcDbEntity
  8
AM_VIS
100
AcDbLine
 10
1620.933252678943
 20
587.0319227503792
 30
0.0
 11
1621.244752678945
 21
587.0319227503792
 31
0.0
  0
LINE
  5
B59E
330
1F
100
AcDbEntity
  8
AM_VIS
100
AcDbLine
 10
1622.025483309351
 20
587.0319227503792
 30
0.0
 11
1625.933252678943
 21
587.0319227503792
 31
0.0
  0
ARC
  5
B59F
330
1F
100
AcDbEntity
  8
AM_VIS
100
AcDbCircle
 10
1617.933252678943
 20
588.0319227503791
 30
0.0
 40
1.0
100
AcDbArc
 50
180.0
 51
270.0
  0
ARC
  5
B5A0
330
1F
100
AcDbEntity
  8
AM_VIS
100
AcDbCircle
 10
1617.933252678943
 20
592.0319227503791
 30
0.0
 40
1.0
100
AcDbArc
 50
180.0
 51
270.0
  0
ARC
  5
B5A1
330
1F
100
AcDbEntity
  8
AM_VIS
100
AcDbCircle
 10
1623.933252678943
 20
590.0319227503792
 30
0.0
 40
1.0
100
AcDbArc
 50
0.0
 51
90.0
  0
ARC
  5
B5A2
330
1F
100
AcDbEntity
  8
AM_VIS
100
AcDbCircle
 10
1639.433252678943
 20
593.4319227503791
 30
0.0
 40
6.492531690334708
100
AcDbArc
 50
260.3151479664727
 51
267.2499957579895
  0
ARC
  5
B5A3
330
1F
100
AcDbEntity
  8
AM_VIS
100
AcDbCircle
 10
1639.433252678943
 20
593.4319227503791
 30
0.0
 40
6.492531690334708
100
AcDbArc
 50
272.7500042419714
 51
279.6848520335274
  0
LINE
  5
B5A4
330
1F
100
AcDbEntity
  8
AM_VIS
100
AcDbLine
 10
1639.121752678941
 20
587.0319227503792
 30
0.0
 11
1639.121752678941
 21
586.9468679703484
 31
0.0
  0
LINE
  5
B5A5
330
1F
100
AcDbEntity
  8
AM_VIS
100
AcDbLine
 10
1639.744752678941
 20
586.9468679703482
 30
0.0
 11
1639.744752678941
 21
587.0319227503792
 31
0.0
  0
LINE
  5
B5A6
330
1F
100
AcDbEntity
  8
AM_VIS
100
AcDbLine
 10
1621.133252678943
 20
590.0319227503792
 30
0.0
 11
1620.769282444677
 21
591.0319227503792
 31
0.0
  0
LINE
  5
B5A7
330
1F
100
AcDbEntity
  8
AM_VIS
100
AcDbLine
 10
1620.369282444677
 20
591.0319227503792
 30
0.0
 11
1620.733252678943
 21
590.0319227503792
 31
0.0
  0
LINE
  5
B5A8
330
1F
100
AcDbEntity
  8
AM_VIS
100
AcDbLine
 10
1617.133252678943
 20
591.0319227503792
 30
0.0
 11
1617.133252678943
 21
590.0319227503792
 31
0.0
  0
LINE
  5
B5A9
330
1F
100
AcDbEntity
  8
AM_VIS
100
AcDbLine
 10
1624.733252678943
 20
590.6319227503792
 30
0.0
 11
1624.733252678943
 21
590.0319227503792
 31
0.0
  0
LINE
  5
B5AA
330
1F
100
AcDbEntity
  8
AM_VIS
100
AcDbLine
 10
1618.883862525752
 20
591.0319227503792
 30
0.0
 11
1620.369282444677
 21
591.0319227503792
 31
0.0
  0
LINE
  5
B5AB
330
1F
100
AcDbEntity
  8
AM_VIS
100
AcDbLine
 10
1617.133252678943
 20
591.0319227503792
 30
0.0
 11
1617.933252678943
 21
591.0319227503792
 31
0.0
  0
LINE
  5
B5AC
330
1F
100
AcDbEntity
  8
AM_VIS
100
AcDbLine
 10
1620.769282444677
 20
591.0319227503792
 30
0.0
 11
1622.982642832135
 21
591.0319227503792
 31
0.0
  0
LINE
  5
B5AD
330
1F
100
AcDbEntity
  8
AM_VIS
100
AcDbLine
 10
1624.84060765125
 20
588.9729852382512
 30
0.0
 11
1624.933252678943
 21
590.0319227503792
 31
0.0
  0
LINE
  5
B5AE
330
1F
100
AcDbEntity
  8
AM_VIS
100
AcDbLine
 10
1617.025897706637
 20
588.9729852382512
 30
0.0
 11
1616.933252678943
 21
590.0319227503792
 31
0.0
  0
LINE
  5
B5AF
330
1F
100
AcDbEntity
  8
AM_VIS
100
AcDbLine
 10
1616.933252678943
 20
590.0319227503792
 30
0.0
 11
1624.933252678943
 21
590.0319227503792
 31
0.0
  0
LINE
  5
B5B0
330
1F
100
AcDbEntity
  8
AM_VIS
100
AcDbLine
 10
1620.379988629118
 20
591.0025077503791
 30
0.0
 11
1620.779988629118
 21
591.0025077503791
 31
0.0
  0
LINE
  5
B5B1
330
1F
100
AcDbEntity
  8
AM_VIS
100
AcDbLine
 10
1623.233252678942
 20
587.3524490889504
 30
0.0
 11
1623.227455498575
 21
587.3582417271122
 31
0.0
  0
ARC
  5
B5B2
330
1F
100
AcDbEntity
  8
AM_VIS
100
AcDbCircle
 10
1620.933252678943
 20
593.4319227503791
 30
0.0
 40
6.492531690334708
100
AcDbArc
 50
272.7500042420105
 51
290.6929831855646
  0
ARC
  5
B5B3
330
1F
100
AcDbEntity
  8
AM_VIS
100
AcDbCircle
 10
1620.933252678943
 20
593.4319227503791
 30
0.0
 40
6.492531690334708
100
AcDbArc
 50
249.3070168144087
 51
267.2499957580286
  0
LINE
  5
B5B4
330
1F
100
AcDbEntity
  8
AM_VIS
100
AcDbLine
 10
1618.639049859309
 20
587.358241727113
 30
0.0
 11
1618.633252678942
 21
587.3524490889511
 31
0.0
  0
ELLIPSE
  5
B5B5
330
1F
100
AcDbEntity
  8
AM_VIS
100
AcDbEllipse
 10
1620.933252678943
 20
591.5398029396786
 30
0.0
 11
5.924134808644385
 21
-0.0000000000000013
 31
0.0
210
0.0
220
0.0
230
1.0
 40
0.7068296022936169
 41
4.659783202667248
 42
4.764994758102814
  0
LINE
  5
B5B6
330
1F
100
AcDbEntity
  8
AM_VIS
100
AcDbLine
 10
1620.621752678945
 20
587.3582417271125
 30
0.0
 11
1620.621752678945
 21
586.9468679703482
 31
0.0
  0
LINE
  5
B5B7
330
1F
100
AcDbEntity
  8
AM_VIS
100
AcDbLine
 10
1621.244752678945
 20
586.9468679703484
 30
0.0
 11
1621.244752678945
 21
587.3582417271127
 31
0.0
  0
ARC
  5
B5B8
330
1F
100
AcDbEntity
  8
AM_VIS
100
AcDbCircle
 10
1623.246696134303
 20
589.1124344266475
 30
0.0
 40
1.6
100
AcDbArc
 50
298.1727341318594
 51
355.0000000000006
  0
ARC
  5
B5B9
330
1F
100
AcDbEntity
  8
AM_VIS
100
AcDbCircle
 10
1618.619809223584
 20
589.1124344266475
 30
0.0
 40
1.599999999999999
100
AcDbArc
 50
184.9999999999994
 51
241.8272658681406
  0
ARC
  5
B5BA
330
1F
100
AcDbEntity
  8
AM_VIS
100
AcDbCircle
 10
1620.933252678943
 20
593.4319227503791
 30
0.0
 40
6.500000000000034
100
AcDbArc
 50
241.8272658681406
 51
249.2772556184044
  0
ARC
  5
B5BB
330
1F
100
AcDbEntity
  8
AM_VIS
100
AcDbCircle
 10
1620.933252678943
 20
593.4319227503791
 30
0.0
 40
6.500000000000036
100
AcDbArc
 50
290.7227443815811
 51
298.1727341318594
  0
LINE
  5
B5CE
330
1F
100
AcDbEntity
  8
AM_VIS
100
AcDbLine
 10
1643.133252678943
 20
681.0319227503791
 30
0.0
 11
1642.769282444677
 21
682.0319227503792
 31
0.0
  0
LINE
  5
B5CF
330
1F
100
AcDbEntity
  8
AM_VIS
100
AcDbLine
 10
1642.369282444677
 20
682.0319227503792
 30
0.0
 11
1642.733252678944
 21
681.0319227503791
 31
0.0
  0
LINE
  5
B5D0
330
1F
100
AcDbEntity
  8
AM_VIS
100
AcDbLine
 10
1639.133252678943
 20
682.0319227503792
 30
0.0
 11
1639.133252678943
 21
681.0319227503791
 31
0.0
  0
LINE
  5
B5D1
330
1F
100
AcDbEntity
  8
AM_VIS
100
AcDbLine
 10
1646.733252678943
 20
682.0319227503792
 30
0.0
 11
1646.733252678943
 21
681.0319227503791
 31
0.0
  0
LINE
  5
B5D2
330
1F
100
AcDbEntity
  8
AM_VIS
100
AcDbLine
 10
1617.933252678943
 20
669.0319227503792
 30
0.0
 11
1645.933252678943
 21
669.0319227503792
 31
0.0
  0
LINE
  5
B5D3
330
1F
100
AcDbEntity
  8
AM_VIS
100
AcDbLine
 10
1638.933252678943
 20
681.0319227503791
 30
0.0
 11
1638.933252678943
 21
686.0319227503792
 31
0.0
  0
LINE
  5
B5D4
330
1F
100
AcDbEntity
  8
AM_VIS
100
AcDbLine
 10
1646.933252678944
 20
686.0319227503792
 30
0.0
 11
1646.933252678944
 21
681.0319227503791
 31
0.0
  0
LINE
  5
B5D5
330
1F
100
AcDbEntity
  8
AM_VIS
100
AcDbLine
 10
1645.933252678943
 20
681.0319227503791
 30
0.0
 11
1638.933252678943
 21
681.0319227503791
 31
0.0
  0
LINE
  5
B5D6
330
1F
100
AcDbEntity
  8
AM_VIS
100
AcDbLine
 10
1646.933252678944
 20
669.0319227503792
 30
0.0
 11
1646.933252678944
 21
681.0319227503791
 31
0.0
  0
LINE
  5
B5D7
330
1F
100
AcDbEntity
  8
AM_VIS
100
AcDbLine
 10
1616.933252678943
 20
686.0319227503792
 30
0.0
 11
1616.933252678943
 21
669.0319227503792
 31
0.0
  0
LINE
  5
B5D8
330
1F
100
AcDbEntity
  8
AM_VIS
100
AcDbLine
 10
1642.933252678943
 20
686.0319227503792
 30
0.0
 11
1646.933252678944
 21
686.0319227503792
 31
0.0
  0
LINE
  5
B5D9
330
1F
100
AcDbEntity
  8
AM_VIS
100
AcDbLine
 10
1638.933252678943
 20
686.0319227503792
 30
0.0
 11
1617.933252678943
 21
686.0319227503792
 31
0.0
  0
LINE
  5
B5DA
330
1F
100
AcDbEntity
  8
AM_VIS
100
AcDbLine
 10
1645.933252678943
 20
681.0319227503791
 30
0.0
 11
1646.933252678944
 21
681.0319227503791
 31
0.0
  0
LINE
  5
B5DB
330
1F
100
AcDbEntity
  8
AM_VIS
100
AcDbLine
 10
1638.933252678943
 20
686.0319227503792
 30
0.0
 11
1639.469151063806
 21
686.0319227503792
 31
0.0
  0
LINE
  5
B5DC
330
1F
100
AcDbEntity
  8
AM_VIS
100
AcDbLine
 10
1639.983252678943
 20
686.0319227503792
 30
0.0
 11
1642.933252678943
 21
686.0319227503792
 31
0.0
  0
LINE
  5
B5DD
330
1F
100
AcDbEntity
  8
AM_VIS
100
AcDbLine
 10
1616.933252678943
 20
686.0319227503792
 30
0.0
 11
1617.933252678943
 21
686.0319227503792
 31
0.0
  0
LINE
  5
B5DE
330
1F
100
AcDbEntity
  8
AM_VIS
100
AcDbLine
 10
1639.025897706637
 20
683.090860262507
 30
0.0
 11
1638.933252678943
 21
682.0319227503792
 31
0.0
  0
LINE
  5
B5DF
330
1F
100
AcDbEntity
  8
AM_VIS
100
AcDbLine
 10
1646.84060765125
 20
683.0908602625068
 30
0.0
 11
1646.933252678943
 21
682.031922750379
 31
0.0
  0
LINE
  5
B5E0
330
1F
100
AcDbEntity
  8
AM_VIS
100
AcDbLine
 10
1646.933252678944
 20
682.0319227503792
 30
0.0
 11
1638.933252678943
 21
682.0319227503792
 31
0.0
  0
LINE
  5
B5E1
330
1F
100
AcDbEntity
  8
AM_VIS
100
AcDbLine
 10
1643.122546494502
 20
681.0613377503791
 30
0.0
 11
1642.722546494503
 21
681.0613377503791
 31
0.0
  0
LINE
  5
B5E2
330
1F
100
AcDbEntity
  8
AM_VIS
100
AcDbLine
 10
1640.633252678943
 20
684.7113964118074
 30
0.0
 11
1640.63904985931
 21
684.7056037736456
 31
0.0
  0
ARC
  5
B5E3
330
1F
100
AcDbEntity
  8
AM_VIS
100
AcDbCircle
 10
1642.933252678943
 20
678.631922750379
 30
0.0
 40
6.492531690334706
100
AcDbArc
 50
92.75000424201047
 51
110.6929831855791
  0
ARC
  5
B5E4
330
1F
100
AcDbEntity
  8
AM_VIS
100
AcDbCircle
 10
1642.933252678943
 20
678.631922750379
 30
0.0
 40
6.492531690334706
100
AcDbArc
 50
69.30701681442089
 51
87.24999575802858
  0
LINE
  5
B5E5
330
1F
100
AcDbEntity
  8
AM_VIS
100
AcDbLine
 10
1645.227455498577
 20
684.7056037736455
 30
0.0
 11
1645.233252678943
 21
684.7113964118072
 31
0.0
  0
ELLIPSE
  5
B5E6
330
1F
100
AcDbEntity
  8
AM_VIS
100
AcDbEllipse
 10
1642.933252678943
 20
680.5240425610795
 30
0.0
 11
5.924134808644385
 21
-0.0000000000000013
 31
0.0
210
0.0
220
0.0
230
1.0
 40
0.7068296022936166
 41
1.518190549077452
 42
1.623402104513018
  0
LINE
  5
B5E7
330
1F
100
AcDbEntity
  8
AM_VIS
100
AcDbLine
 10
1643.244752678941
 20
684.7056037736457
 30
0.0
 11
1643.244752678941
 21
685.11697753041
 31
0.0
  0
LINE
  5
B5E8
330
1F
100
AcDbEntity
  8
AM_VIS
100
AcDbLine
 10
1642.621752678941
 20
685.1169775304099
 30
0.0
 11
1642.621752678941
 21
684.7056037736455
 31
0.0
  0
ARC
  5
B5E9
330
1F
100
AcDbEntity
  8
AM_VIS
100
AcDbCircle
 10
1640.619809223584
 20
682.9514110741106
 30
0.0
 40
1.6
100
AcDbArc
 50
118.1727341318594
 51
174.999999999994
  0
ARC
  5
B5EA
330
1F
100
AcDbEntity
  8
AM_VIS
100
AcDbCircle
 10
1645.246696134303
 20
682.9514110741106
 30
0.0
 40
1.599999999999999
100
AcDbArc
 50
4.999999999999459
 51
61.82726586814056
  0
ARC
  5
B5EB
330
1F
100
AcDbEntity
  8
AM_VIS
100
AcDbCircle
 10
1642.933252678943
 20
678.631922750379
 30
0.0
 40
6.500000000000033
100
AcDbArc
 50
61.82726586814056
 51
69.2772556184067
  0
ARC
  5
B5EC
330
1F
100
AcDbEntity
  8
AM_VIS
100
AcDbCircle
 10
1642.933252678943
 20
678.631922750379
 30
0.0
 40
6.500000000000033
100
AcDbArc
 50
110.7227443815956
 51
118.1727341318709
  0
LINE
  5
B5ED
330
1F
100
AcDbEntity
  8
AM_VIS
100
AcDbLine
 10
1635.933252678944
 20
687.4349344403791
 30
0.0
 11
1635.933252678944
 21
691.0319227503792
 31
0.0
  0
LINE
  5
B5EE
330
1F
100
AcDbEntity
  8
AM_VIS
100
AcDbLine
 10
1627.933252678943
 20
687.4349344403791
 30
0.0
 11
1627.933252678943
 21
691.0319227503792
 31
0.0
  0
ARC
  5
B5EF
330
1F
100
AcDbEntity
  8
AM_VIS
100
AcDbCircle
 10
1631.933252678943
 20
691.0319227503792
 30
0.0
 40
4.0
100
AcDbArc
 50
0.0
 51
180.0
  0
LINE
  5
B5F0
330
1F
100
AcDbEntity
  8
AM_VIS
100
AcDbLine
 10
1629.219706124243
 20
689.1231018419079
 30
0.0
 11
1629.133252678943
 21
688.134934440379
 31
0.0
  0
LINE
  5
B5F1
330
1F
100
AcDbEntity
  8
AM_VIS
100
AcDbLine
 10
1634.646799233644
 20
689.1231018419079
 30
0.0
 11
1634.733252678944
 21
688.134934440379
 31
0.0
  0
LINE
  5
B5F2
330
1F
100
AcDbEntity
  8
AM_VIS
100
AcDbLine
 10
1631.680752678943
 20
690.5221668893432
 30
0.0
 11
1631.680752678943
 21
690.2992751421414
 31
0.0
  0
ELLIPSE
  5
B5F3
330
1F
100
AcDbEntity
  8
AM_VIS
100
AcDbEllipse
 10
1631.933252678943
 20
686.6421962327696
 30
0.0
 11
4.670872363904375
 21
-0.000000000000001
 31
0.0
210
0.0
220
0.0
230
1.0
 40
0.7841006838458165
 41
1.516711538556882
 42
1.62488111503291
  0
LINE
  5
B5F4
330
1F
100
AcDbEntity
  8
AM_VIS
100
AcDbLine
 10
1632.185752678944
 20
690.2992751421414
 30
0.0
 11
1632.185752678944
 21
690.5221668893431
 31
0.0
  0
LINE
  5
B5F5
330
1F
100
AcDbEntity
  8
AM_VIS
100
AcDbLine
 10
1630.433252678943
 20
690.3046304474637
 30
0.0
 11
1630.437491525707
 21
690.2992751421415
 31
0.0
  0
ARC
  5
B5F6
330
1F
100
AcDbEntity
  8
AM_VIS
100
AcDbCircle
 10
1631.933252678943
 20
685.5349344403789
 30
0.0
 40
4.993620304949241
100
AcDbArc
 50
72.5703586381492
 51
87.10163059562281
  0
ARC
  5
B5F7
330
1F
100
AcDbEntity
  8
AM_VIS
100
AcDbCircle
 10
1631.933252678943
 20
685.5349344403789
 30
0.0
 40
4.993620304949241
100
AcDbArc
 50
92.89836940437718
 51
107.4296413618508
  0
LINE
  5
B5F8
330
1F
100
AcDbEntity
  8
AM_VIS
100
AcDbLine
 10
1633.42901383218
 20
690.2992751421415
 30
0.0
 11
1633.433252678943
 21
690.3046304474637
 31
0.0
  0
ARC
  5
B5F9
330
1F
100
AcDbEntity
  8
AM_VIS
100
AcDbCircle
 10
1630.415139761953
 20
689.0185149506109
 30
0.0
 40
1.199999999999999
100
AcDbArc
 50
113.5471372370812
 51
175.000000000007
  0
ARC
  5
B5FA
330
1F
100
AcDbEntity
  8
AM_VIS
100
AcDbCircle
 10
1633.451365595934
 20
689.0185149506109
 30
0.0
 40
1.199999999999999
100
AcDbArc
 50
4.99999999999297
 51
66.45286276291876
  0
ARC
  5
B5FB
330
1F
100
AcDbEntity
  8
AM_VIS
100
AcDbCircle
 10
1631.933252678943
 20
685.5349344403789
 30
0.0
 40
5.000000000000034
100
AcDbArc
 50
66.45286276292137
 51
72.54239687627988
  0
ARC
  5
B5FC
330
1F
100
AcDbEntity
  8
AM_VIS
100
AcDbCircle
 10
1631.933252678943
 20
685.5349344403789
 30
0.0
 40
5.000000000000034
100
AcDbArc
 50
107.4576031237201
 51
113.5471372370786
  0
ELLIPSE
  5
B5FD
330
1F
100
AcDbEntity
  8
AM_VIS
100
AcDbEllipse
 10
1631.933252678943
 20
687.8195812791026
 30
0.0
 11
0.0
 21
-8.105058387392034
 31
-0.0000000000000001
210
0.0
220
0.0
230
1.0
 40
0.3639702342661606
 41
4.712388980384688
 42
4.75986443980218
  0
LINE
  5
B5FE
330
1F
100
AcDbEntity
  8
AM_VIS
100
AcDbLine
 10
1628.983252678943
 20
688.134934440379
 30
0.0
 11
1628.983252678943
 21
687.8195812791026
 31
0.0
  0
LINE
  5
B5FF
330
1F
100
AcDbEntity
  8
AM_VIS
100
AcDbLine
 10
1634.883252678944
 20
688.134934440379
 30
0.0
 11
1634.883252678944
 21
687.4349344403791
 31
0.0
  0
LINE
  5
B600
330
1F
100
AcDbEntity
  8
AM_VIS
100
AcDbLine
 10
1628.983252678943
 20
688.134934440379
 30
0.0
 11
1634.883252678944
 21
688.134934440379
 31
0.0
  0
LINE
  5
B601
330
1F
100
AcDbEntity
  8
AM_VIS
100
AcDbLine
 10
1623.883252678943
 20
696.9607388775984
 30
0.0
 11
1623.883252678943
 21
691.457588517185
 31
0.0
  0
LINE
  5
B602
330
1F
100
AcDbEntity
  8
AM_VIS
100
AcDbLine
 10
1639.983252678943
 20
686.0319227503792
 30
0.0
 11
1639.469151063806
 21
686.0319227503792
 31
0.0
  0
LINE
  5
B603
330
1F
100
AcDbEntity
  8
AM_VIS
100
AcDbLine
 10
1623.883252678943
 20
688.5002988408534
 30
0.0
 11
1623.883252678943
 21
686.0319227503792
 31
0.0
  0
LINE
  5
B604
330
1F
100
AcDbEntity
  8
AM_VIS
100
AcDbLine
 10
1639.983252678943
 20
686.0319227503792
 30
0.0
 11
1639.983252678943
 21
688.5002988408534
 31
0.0
  0
LINE
  5
B605
330
1F
100
AcDbEntity
  8
AM_VIS
100
AcDbLine
 10
1637.933252678944
 20
687.4349344403791
 30
0.0
 11
1637.933252678944
 21
688.5531932237403
 31
0.0
  0
LINE
  5
B606
330
1F
100
AcDbEntity
  8
AM_VIS
100
AcDbLine
 10
1639.983252678943
 20
691.4575885171851
 30
0.0
 11
1639.983252678943
 21
696.9607388775986
 31
0.0
  0
LINE
  5
B607
330
1F
100
AcDbEntity
  8
AM_VIS
100
AcDbLine
 10
1625.933252678943
 20
687.4349344403791
 30
0.0
 11
1625.933252678943
 21
688.5531932237403
 31
0.0
  0
LINE
  5
B608
330
1F
100
AcDbEntity
  8
AM_VIS
100
AcDbLine
 10
1625.283252678943
 20
687.4349344403791
 30
0.0
 11
1625.283252678943
 21
688.5002988408536
 31
0.0
  0
LINE
  5
B609
330
1F
100
AcDbEntity
  8
AM_VIS
100
AcDbLine
 10
1625.283252678943
 20
691.4575885171851
 30
0.0
 11
1625.283252678943
 21
696.9607388775986
 31
0.0
  0
LINE
  5
B60A
330
1F
100
AcDbEntity
  8
AM_VIS
100
AcDbLine
 10
1638.583252678943
 20
687.4349344403791
 30
0.0
 11
1625.283252678943
 21
687.4349344403791
 31
0.0
  0
LINE
  5
B60B
330
1F
100
AcDbEntity
  8
AM_VIS
100
AcDbLine
 10
1638.583252678943
 20
696.9607388775986
 30
0.0
 11
1638.583252678943
 21
691.4575885171851
 31
0.0
  0
LINE
  5
B60C
330
1F
100
AcDbEntity
  8
AM_VIS
100
AcDbLine
 10
1638.583252678943
 20
688.5002988408536
 30
0.0
 11
1638.583252678943
 21
687.4349344403791
 31
0.0
  0
LINE
  5
B60D
330
1F
100
AcDbEntity
  8
AM_VIS
100
AcDbLine
 10
1625.283252678944
 20
697.0319227503791
 30
0.0
 11
1623.883252678943
 21
697.0319227503791
 31
0.0
  0
LINE
  5
B60E
330
1F
100
AcDbEntity
  8
AM_VIS
100
AcDbLine
 10
1639.983252678943
 20
697.0319227503791
 30
0.0
 11
1638.583252678943
 21
697.0319227503791
 31
0.0
  0
LINE
  5
B60F
330
1F
100
AcDbEntity
  8
AM_VIS
100
AcDbLine
 10
1623.883252678943
 20
696.9607388775984
 30
0.0
 11
1623.883252678943
 21
697.0319227503791
 31
0.0
  0
LINE
  5
B610
330
1F
100
AcDbEntity
  8
AM_VIS
100
AcDbLine
 10
1623.883252678943
 20
688.5002988408534
 30
0.0
 11
1623.883252678943
 21
691.457588517185
 31
0.0
  0
LINE
  5
B611
330
1F
100
AcDbEntity
  8
AM_VIS
100
AcDbLine
 10
1639.983252678943
 20
691.457588517185
 30
0.0
 11
1639.983252678943
 21
688.5002988408534
 31
0.0
  0
LINE
  5
B612
330
1F
100
AcDbEntity
  8
AM_VIS
100
AcDbLine
 10
1639.983252678943
 20
697.0319227503791
 30
0.0
 11
1639.983252678943
 21
696.9607388775986
 31
0.0
  0
LINE
  5
B613
330
1F
100
AcDbEntity
  8
AM_VIS
100
AcDbLine
 10
1625.283252678943
 20
691.457588517185
 30
0.0
 11
1625.283252678943
 21
688.5002988408534
 31
0.0
  0
LINE
  5
B614
330
1F
100
AcDbEntity
  8
AM_VIS
100
AcDbLine
 10
1625.283252678943
 20
697.0319227503791
 30
0.0
 11
1625.283252678943
 21
696.9607388775986
 31
0.0
  0
LINE
  5
B615
330
1F
100
AcDbEntity
  8
AM_VIS
100
AcDbLine
 10
1638.583252678943
 20
688.5002988408534
 30
0.0
 11
1638.583252678943
 21
691.457588517185
 31
0.0
  0
LINE
  5
B616
330
1F
100
AcDbEntity
  8
AM_VIS
100
AcDbLine
 10
1638.583252678943
 20
696.9607388775984
 30
0.0
 11
1638.583252678943
 21
697.0319227503791
 31
0.0
  0
LINE
  5
B617
330
1F
100
AcDbEntity
  8
AM_VIS
100
AcDbLine
 10
1638.383252678943
 20
691.596137681256
 30
0.0
 11
1638.383252678943
 21
705.0171153141094
 31
0.0
  0
LINE
  5
B618
330
1F
100
AcDbEntity
  8
AM_VIS
100
AcDbLine
 10
1638.383252678943
 20
691.596137681256
 30
0.0
 11
1636.983252678944
 21
691.596137681256
 31
0.0
  0
LINE
  5
B619
330
1F
100
AcDbEntity
  8
AM_VIS
100
AcDbLine
 10
1625.483252678943
 20
705.0171153141094
 30
0.0
 11
1625.483252678943
 21
691.596137681256
 31
0.0
  0
LINE
  5
B61A
330
1F
100
AcDbEntity
  8
AM_VIS
100
AcDbLine
 10
1626.883252678944
 20
691.596137681256
 30
0.0
 11
1625.483252678943
 21
691.596137681256
 31
0.0
  0
LINE
  5
B61B
330
1F
100
AcDbEntity
  8
AM_VIS
100
AcDbLine
 10
1636.983252678944
 20
705.0171153141094
 30
0.0
 11
1636.983252678944
 21
691.596137681256
 31
0.0
  0
LINE
  5
B61C
330
1F
100
AcDbEntity
  8
AM_VIS
100
AcDbLine
 10
1626.883252678944
 20
691.596137681256
 30
0.0
 11
1626.883252678943
 21
705.0171153141093
 31
0.0
  0
LINE
  5
B61D
330
1F
100
AcDbEntity
  8
AM_VIS
100
AcDbLine
 10
1636.983252678944
 20
706.1766014422106
 30
0.0
 11
1635.892738807044
 21
706.1766014422106
 31
0.0
  0
LINE
  5
B61E
330
1F
100
AcDbEntity
  8
AM_VIS
100
AcDbLine
 10
1627.773766550842
 20
706.1766014422105
 30
0.0
 11
1626.883252678943
 21
706.1766014422105
 31
0.0
  0
LINE
  5
B61F
330
1F
100
AcDbEntity
  8
AM_VIS
100
AcDbLine
 10
1636.983252678944
 20
707.4760480989748
 30
0.0
 11
1636.233252678943
 21
707.4760480989748
 31
0.0
  0
LINE
  5
B620
330
1F
100
AcDbEntity
  8
AM_VIS
100
AcDbLine
 10
1627.433252678943
 20
707.4760480989748
 30
0.0
 11
1626.883252678943
 21
707.4760480989748
 31
0.0
  0
LINE
  5
B621
330
1F
100
AcDbEntity
  8
AM_VIS
100
AcDbLine
 10
1638.383252678943
 20
688.5531932237403
 30
0.0
 11
1636.983252678944
 21
688.5531932237403
 31
0.0
  0
LINE
  5
B622
330
1F
100
AcDbEntity
  8
AM_VIS
100
AcDbLine
 10
1626.883252678943
 20
713.0171153141093
 30
0.0
 11
1625.483252678943
 21
713.0171153141093
 31
0.0
  0
LINE
  5
B623
330
1F
100
AcDbEntity
  8
AM_VIS
100
AcDbLine
 10
1626.883252678943
 20
705.0171153141093
 30
0.0
 11
1625.483252678943
 21
705.0171153141093
 31
0.0
  0
LINE
  5
B624
330
1F
100
AcDbEntity
  8
AM_VIS
100
AcDbLine
 10
1626.883252678944
 20
688.5531932237402
 30
0.0
 11
1625.483252678943
 21
688.5531932237402
 31
0.0
  0
LINE
  5
B625
330
1F
100
AcDbEntity
  8
AM_VIS
100
AcDbLine
 10
1638.383252678943
 20
713.0171153141094
 30
0.0
 11
1636.983252678943
 21
713.0171153141094
 31
0.0
  0
LINE
  5
B626
330
1F
100
AcDbEntity
  8
AM_VIS
100
AcDbLine
 10
1638.383252678943
 20
705.0171153141094
 30
0.0
 11
1636.983252678943
 21
705.0171153141094
 31
0.0
  0
LINE
  5
B627
330
1F
100
AcDbEntity
  8
AM_VIS
100
AcDbLine
 10
1638.383252678943
 20
691.596137681256
 30
0.0
 11
1638.383252678943
 21
688.5531932237403
 31
0.0
  0
LINE
  5
B628
330
1F
100
AcDbEntity
  8
AM_VIS
100
AcDbLine
 10
1625.483252678943
 20
705.0171153141093
 30
0.0
 11
1625.483252678943
 21
713.0171153141093
 31
0.0
  0
LINE
  5
B629
330
1F
100
AcDbEntity
  8
AM_VIS
100
AcDbLine
 10
1625.483252678943
 20
688.5531932237403
 30
0.0
 11
1625.483252678943
 21
691.596137681256
 31
0.0
  0
LINE
  5
B62A
330
1F
100
AcDbEntity
  8
AM_VIS
100
AcDbLine
 10
1636.983252678944
 20
688.5531932237403
 30
0.0
 11
1636.983252678944
 21
691.596137681256
 31
0.0
  0
LINE
  5
B62B
330
1F
100
AcDbEntity
  8
AM_VIS
100
AcDbLine
 10
1638.383252678943
 20
713.0171153141093
 30
0.0
 11
1638.383252678943
 21
705.0171153141093
 31
0.0
  0
LINE
  5
B62C
330
1F
100
AcDbEntity
  8
AM_VIS
100
AcDbLine
 10
1636.983252678944
 20
705.0171153141093
 30
0.0
 11
1636.983252678944
 21
713.0171153141093
 31
0.0
  0
LINE
  5
B62D
330
1F
100
AcDbEntity
  8
AM_VIS
100
AcDbLine
 10
1626.883252678944
 20
691.596137681256
 30
0.0
 11
1626.883252678944
 21
688.5531932237403
 31
0.0
  0
LINE
  5
B62E
330
1F
100
AcDbEntity
  8
AM_VIS
100
AcDbLine
 10
1626.883252678943
 20
713.0171153141093
 30
0.0
 11
1626.883252678943
 21
705.0171153141093
 31
0.0
  0
LINE
  5
B62F
330
1F
100
AcDbEntity
  8
AM_VIS
100
AcDbLine
 10
1627.433252678943
 20
704.3158961151683
 30
0.0
 11
1627.433252678943
 21
703.016449458404
 31
0.0
  0
LINE
  5
B630
330
1F
100
AcDbEntity
  8
AM_VIS
100
AcDbLine
 10
1636.433252678943
 20
704.3158961151683
 30
0.0
 11
1635.733252678943
 21
704.3158961151683
 31
0.0
  0
LINE
  5
B631
330
1F
100
AcDbEntity
  8
AM_VIS
100
AcDbLine
 10
1627.933252678943
 20
704.3158961151683
 30
0.0
 11
1627.433252678943
 21
704.3158961151683
 31
0.0
  0
LINE
  5
B632
330
1F
100
AcDbEntity
  8
AM_VIS
100
AcDbLine
 10
1627.433252678943
 20
700.6916560396603
 30
0.0
 11
1627.433252678943
 21
698.185580344472
 31
0.0
  0
LINE
  5
B633
330
1F
100
AcDbEntity
  8
AM_VIS
100
AcDbLine
 10
1627.433252678943
 20
695.584945846849
 30
0.0
 11
1627.433252678943
 21
693.3520994543983
 31
0.0
  0
LINE
  5
B634
330
1F
100
AcDbEntity
  8
AM_VIS
100
AcDbLine
 10
1636.433252678943
 20
693.3520994543983
 30
0.0
 11
1636.433252678943
 21
695.5849458468491
 31
0.0
  0
LINE
  5
B635
330
1F
100
AcDbEntity
  8
AM_VIS
100
AcDbLine
 10
1636.433252678943
 20
698.185580344472
 30
0.0
 11
1636.433252678943
 21
700.6916560396603
 31
0.0
  0
LINE
  5
B636
330
1F
100
AcDbEntity
  8
AM_VIS
100
AcDbLine
 10
1636.433252678943
 20
703.0164494584042
 30
0.0
 11
1636.433252678943
 21
704.3158961151683
 31
0.0
  0
LINE
  5
B637
330
1F
100
AcDbEntity
  8
AM_VIS
100
AcDbLine
 10
1627.433252678943
 20
703.016449458404
 30
0.0
 11
1627.433252678943
 21
701.3418146640661
 31
0.0
  0
LINE
  5
B638
330
1F
100
AcDbEntity
  8
AM_VIS
100
AcDbLine
 10
1636.433252678943
 20
703.0164494584042
 30
0.0
 11
1635.733252678943
 21
703.0164494584042
 31
0.0
  0
LINE
  5
B639
330
1F
100
AcDbEntity
  8
AM_VIS
100
AcDbLine
 10
1627.933252678943
 20
703.016449458404
 30
0.0
 11
1627.433252678943
 21
703.016449458404
 31
0.0
  0
LINE
  5
B63A
330
1F
100
AcDbEntity
  8
AM_VIS
100
AcDbLine
 10
1636.433252678943
 20
701.3418146640661
 30
0.0
 11
1636.433252678943
 21
703.016449458404
 31
0.0
  0
LINE
  5
B63B
330
1F
100
AcDbEntity
  8
AM_VIS
100
AcDbLine
 10
1636.433252678943
 20
693.2084518212044
 30
0.0
 11
1635.289250474511
 21
693.2084518212044
 31
0.0
  0
LINE
  5
B63C
330
1F
100
AcDbEntity
  8
AM_VIS
100
AcDbLine
 10
1628.577254883376
 20
693.2084518212044
 30
0.0
 11
1627.433252678943
 21
693.2084518212044
 31
0.0
  0
LINE
  5
B63D
330
1F
100
AcDbEntity
  8
AM_VIS
100
AcDbLine
 10
1627.433252678943
 20
695.5849458468491
 30
0.0
 11
1627.433252678943
 21
698.185580344472
 31
0.0
  0
LINE
  5
B63E
330
1F
100
AcDbEntity
  8
AM_VIS
100
AcDbLine
 10
1627.433252678943
 20
693.2084518212044
 30
0.0
 11
1627.433252678943
 21
693.3520994543982
 31
0.0
  0
LINE
  5
B63F
330
1F
100
AcDbEntity
  8
AM_VIS
100
AcDbLine
 10
1636.433252678943
 20
693.3520994543983
 30
0.0
 11
1636.433252678943
 21
693.2084518212045
 31
0.0
  0
LINE
  5
B640
330
1F
100
AcDbEntity
  8
AM_VIS
100
AcDbLine
 10
1636.433252678943
 20
698.185580344472
 30
0.0
 11
1636.433252678943
 21
695.5849458468491
 31
0.0
  0
LINE
  5
B641
330
1F
100
AcDbEntity
  8
AM_VIS
100
AcDbLine
 10
1627.433252678943
 20
701.3418146640661
 30
0.0
 11
1627.433252678943
 21
700.6916560396603
 31
0.0
  0
LINE
  5
B642
330
1F
100
AcDbEntity
  8
AM_VIS
100
AcDbLine
 10
1636.433252678943
 20
700.6916560396603
 30
0.0
 11
1636.433252678943
 21
701.3418146640661
 31
0.0
  0
LINE
  5
B643
330
1F
100
AcDbEntity
  8
AM_VIS
100
AcDbLine
 10
1636.233252678943
 20
711.5171153141094
 30
0.0
 11
1635.733252678943
 21
712.0171153141094
 31
0.0
  0
LINE
  5
B644
330
1F
100
AcDbEntity
  8
AM_VIS
100
AcDbLine
 10
1636.233252678943
 20
706.5171153141094
 30
0.0
 11
1635.733252678943
 21
706.0171153141094
 31
0.0
  0
LINE
  5
B645
330
1F
100
AcDbEntity
  8
AM_VIS
100
AcDbLine
 10
1627.433252678943
 20
706.5171153141094
 30
0.0
 11
1627.933252678943
 21
706.0171153141094
 31
0.0
  0
LINE
  5
B646
330
1F
100
AcDbEntity
  8
AM_VIS
100
AcDbLine
 10
1627.433252678943
 20
711.5171153141094
 30
0.0
 11
1627.933252678943
 21
712.0171153141094
 31
0.0
  0
LINE
  5
B647
330
1F
100
AcDbEntity
  8
AM_VIS
100
AcDbLine
 10
1628.433252678943
 20
700.5171153141094
 30
0.0
 11
1635.233252678943
 21
700.5171153141094
 31
0.0
  0
LINE
  5
B648
330
1F
100
AcDbEntity
  8
AM_VIS
100
AcDbLine
 10
1628.433252678943
 20
717.5171153141094
 30
0.0
 11
1635.233252678943
 21
717.5171153141094
 31
0.0
  0
LINE
  5
B649
330
1F
100
AcDbEntity
  8
AM_VIS
100
AcDbLine
 10
1635.733252678943
 20
717.0171153141094
 30
0.0
 11
1635.733252678943
 21
701.0171153141094
 31
0.0
  0
LINE
  5
B64A
330
1F
100
AcDbEntity
  8
AM_VIS
100
AcDbLine
 10
1627.933252678943
 20
701.0171153141094
 30
0.0
 11
1627.933252678943
 21
717.0171153141094
 31
0.0
  0
LINE
  5
B64B
330
1F
100
AcDbEntity
  8
AM_VIS
100
AcDbLine
 10
1636.233252678943
 20
711.5171153141094
 30
0.0
 11
1636.233252678943
 21
706.5171153141094
 31
0.0
  0
LINE
  5
B64C
330
1F
100
AcDbEntity
  8
AM_VIS
100
AcDbLine
 10
1627.433252678943
 20
706.5171153141094
 30
0.0
 11
1627.433252678943
 21
711.5171153141094
 31
0.0
  0
ARC
  5
B64D
330
1F
100
AcDbEntity
  8
AM_VIS
100
AcDbCircle
 10
1635.233252678943
 20
717.0171153141094
 30
0.0
 40
0.5
100
AcDbArc
 50
0.0
 51
90.0
  0
ARC
  5
B64E
330
1F
100
AcDbEntity
  8
AM_VIS
100
AcDbCircle
 10
1635.233252678943
 20
701.0171153141094
 30
0.0
 40
0.5
100
AcDbArc
 50
270.0
 51
0.0
  0
ARC
  5
B64F
330
1F
100
AcDbEntity
  8
AM_VIS
100
AcDbCircle
 10
1628.433252678943
 20
717.0171153141094
 30
0.0
 40
0.5
100
AcDbArc
 50
90.0
 51
180.0
  0
ARC
  5
B650
330
1F
100
AcDbEntity
  8
AM_VIS
100
AcDbCircle
 10
1628.433252678943
 20
701.0171153141094
 30
0.0
 40
0.5
100
AcDbArc
 50
180.0
 51
270.0
  0
LINE
  5
B651
330
1F
100
AcDbEntity
  8
AM_VIS
100
AcDbLine
 10
1624.483252678943
 20
706.2171153141096
 30
0.0
 11
1624.683252678943
 21
706.0171153141095
 31
0.0
  0
LINE
  5
B652
330
1F
100
AcDbEntity
  8
AM_VIS
100
AcDbLine
 10
1624.483252678943
 20
711.8171153141095
 30
0.0
 11
1624.683252678943
 21
712.0171153141095
 31
0.0
  0
LINE
  5
B653
330
1F
100
AcDbEntity
  8
AM_VIS
100
AcDbLine
 10
1624.683252678943
 20
706.0171153141095
 30
0.0
 11
1625.283252678943
 21
706.0171153141095
 31
0.0
  0
LINE
  5
B654
330
1F
100
AcDbEntity
  8
AM_VIS
100
AcDbLine
 10
1624.683252678943
 20
712.0171153141095
 30
0.0
 11
1625.283252678943
 21
712.0171153141095
 31
0.0
  0
LINE
  5
B655
330
1F
100
AcDbEntity
  8
AM_VIS
100
AcDbLine
 10
1625.483252678943
 20
711.8171153141095
 30
0.0
 11
1625.283252678943
 21
712.0171153141095
 31
0.0
  0
LINE
  5
B656
330
1F
100
AcDbEntity
  8
AM_VIS
100
AcDbLine
 10
1625.483252678943
 20
706.2171153141096
 30
0.0
 11
1625.283252678943
 21
706.0171153141095
 31
0.0
  0
LINE
  5
B657
330
1F
100
AcDbEntity
  8
AM_VIS
100
AcDbLine
 10
1626.883252678943
 20
707.5671153141095
 30
0.0
 11
1627.433252678943
 21
707.5671153141095
 31
0.0
  0
LINE
  5
B658
330
1F
100
AcDbEntity
  8
AM_VIS
100
AcDbLine
 10
1636.233252678943
 20
707.5671153141095
 30
0.0
 11
1636.983252678944
 21
707.5671153141095
 31
0.0
  0
LINE
  5
B659
330
1F
100
AcDbEntity
  8
AM_VIS
100
AcDbLine
 10
1638.383252678943
 20
707.5671153141095
 30
0.0
 11
1638.983252678943
 21
707.5671153141095
 31
0.0
  0
LINE
  5
B65A
330
1F
100
AcDbEntity
  8
AM_VIS
100
AcDbLine
 10
1626.883252678943
 20
710.4671153141095
 30
0.0
 11
1627.433252678943
 21
710.4671153141095
 31
0.0
  0
LINE
  5
B65B
330
1F
100
AcDbEntity
  8
AM_VIS
100
AcDbLine
 10
1636.233252678943
 20
710.4671153141095
 30
0.0
 11
1636.983252678944
 21
710.4671153141095
 31
0.0
  0
LINE
  5
B65C
330
1F
100
AcDbEntity
  8
AM_VIS
100
AcDbLine
 10
1638.383252678943
 20
710.4671153141095
 30
0.0
 11
1638.983252678943
 21
710.4671153141095
 31
0.0
  0
LINE
  5
B65D
330
1F
100
AcDbEntity
  8
AM_VIS
100
AcDbLine
 10
1624.483252678943
 20
706.2171153141096
 30
0.0
 11
1624.483252678943
 21
711.8171153141095
 31
0.0
  0
LINE
  5
B65E
330
1F
100
AcDbEntity
  8
AM_VIS
100
AcDbLine
 10
1624.683252678943
 20
712.0171153141095
 30
0.0
 11
1624.683252678943
 21
706.0171153141095
 31
0.0
  0
LINE
  5
B65F
330
1F
100
AcDbEntity
  8
AM_VIS
100
AcDbLine
 10
1625.283252678943
 20
706.0171153141095
 30
0.0
 11
1625.283252678943
 21
712.0171153141095
 31
0.0
  0
LINE
  5
B660
330
1F
100
AcDbEntity
  8
AM_VIS
100
AcDbLine
 10
1638.983252678943
 20
710.4671153141095
 30
0.0
 11
1638.983252678943
 21
707.5671153141095
 31
0.0
  0
LINE
  5
B661
330
1F
100
AcDbEntity
  8
AM_VIS
100
AcDbLine
 10
1622.883252678943
 20
689.2319227503793
 30
0.0
 11
1623.083252678943
 21
689.0319227503793
 31
0.0
  0
LINE
  5
B662
330
1F
100
AcDbEntity
  8
AM_VIS
100
AcDbLine
 10
1622.883252678943
 20
694.8319227503794
 30
0.0
 11
1623.083252678943
 21
695.0319227503793
 31
0.0
  0
LINE
  5
B663
330
1F
100
AcDbEntity
  8
AM_VIS
100
AcDbLine
 10
1623.083252678943
 20
689.0319227503793
 30
0.0
 11
1623.683252678943
 21
689.0319227503793
 31
0.0
  0
LINE
  5
B664
330
1F
100
AcDbEntity
  8
AM_VIS
100
AcDbLine
 10
1623.083252678943
 20
695.0319227503793
 30
0.0
 11
1623.683252678943
 21
695.0319227503793
 31
0.0
  0
LINE
  5
B665
330
1F
100
AcDbEntity
  8
AM_VIS
100
AcDbLine
 10
1623.883252678943
 20
694.8319227503792
 30
0.0
 11
1623.683252678943
 21
695.0319227503793
 31
0.0
  0
LINE
  5
B666
330
1F
100
AcDbEntity
  8
AM_VIS
100
AcDbLine
 10
1623.883252678943
 20
689.2319227503793
 30
0.0
 11
1623.683252678943
 21
689.0319227503793
 31
0.0
  0
LINE
  5
B667
330
1F
100
AcDbEntity
  8
AM_VIS
100
AcDbLine
 10
1625.283252678944
 20
690.5819227503793
 30
0.0
 11
1625.483252678943
 21
690.5819227503793
 31
0.0
  0
LINE
  5
B668
330
1F
100
AcDbEntity
  8
AM_VIS
100
AcDbLine
 10
1626.883252678944
 20
690.5819227503793
 30
0.0
 11
1627.933252678943
 21
690.5819227503793
 31
0.0
  0
LINE
  5
B669
330
1F
100
AcDbEntity
  8
AM_VIS
100
AcDbLine
 10
1635.933252678944
 20
690.5819227503793
 30
0.0
 11
1636.983252678944
 21
690.5819227503793
 31
0.0
  0
LINE
  5
B66A
330
1F
100
AcDbEntity
  8
AM_VIS
100
AcDbLine
 10
1638.383252678943
 20
690.5819227503793
 30
0.0
 11
1638.583252678943
 21
690.5819227503793
 31
0.0
  0
LINE
  5
B66B
330
1F
100
AcDbEntity
  8
AM_VIS
100
AcDbLine
 10
1639.983252678943
 20
690.5819227503793
 30
0.0
 11
1641.383252678943
 21
690.5819227503793
 31
0.0
  0
LINE
  5
B66C
330
1F
100
AcDbEntity
  8
AM_VIS
100
AcDbLine
 10
1625.283252678943
 20
693.4819227503792
 30
0.0
 11
1625.483252678943
 21
693.4819227503792
 31
0.0
  0
LINE
  5
B66D
330
1F
100
AcDbEntity
  8
AM_VIS
100
AcDbLine
 10
1626.883252678944
 20
693.4819227503792
 30
0.0
 11
1627.433252678943
 21
693.4819227503792
 31
0.0
  0
LINE
  5
B66E
330
1F
100
AcDbEntity
  8
AM_VIS
100
AcDbLine
 10
1636.433252678943
 20
693.4819227503792
 30
0.0
 11
1636.983252678944
 21
693.4819227503792
 31
0.0
  0
LINE
  5
B66F
330
1F
100
AcDbEntity
  8
AM_VIS
100
AcDbLine
 10
1638.383252678943
 20
693.4819227503792
 30
0.0
 11
1638.583252678943
 21
693.4819227503792
 31
0.0
  0
LINE
  5
B670
330
1F
100
AcDbEntity
  8
AM_VIS
100
AcDbLine
 10
1639.983252678943
 20
693.4819227503792
 30
0.0
 11
1641.383252678943
 21
693.4819227503792
 31
0.0
  0
LINE
  5
B671
330
1F
100
AcDbEntity
  8
AM_VIS
100
AcDbLine
 10
1622.883252678943
 20
689.2319227503793
 30
0.0
 11
1622.883252678943
 21
694.8319227503794
 31
0.0
  0
LINE
  5
B672
330
1F
100
AcDbEntity
  8
AM_VIS
100
AcDbLine
 10
1623.083252678943
 20
695.0319227503793
 30
0.0
 11
1623.083252678943
 21
689.0319227503793
 31
0.0
  0
LINE
  5
B673
330
1F
100
AcDbEntity
  8
AM_VIS
100
AcDbLine
 10
1623.683252678943
 20
689.0319227503793
 30
0.0
 11
1623.683252678943
 21
695.0319227503793
 31
0.0
  0
LINE
  5
B674
330
1F
100
AcDbEntity
  8
AM_VIS
100
AcDbLine
 10
1641.383252678943
 20
693.4819227503792
 30
0.0
 11
1641.383252678943
 21
690.5819227503793
 31
0.0
  0
LINE
  5
B6CD
330
1F
100
AcDbEntity
  8
AM_7
  6
AM_ISO08W050x2
100
AcDbLine
 10
1838.29570391324
 20
638.5319227503791
 30
0.0
 11
1843.79570391324
 21
638.5319227503791
 31
0.0
1001
GENIUS_GENOREF_13
1005
B6D1
  0
LINE
  5
B6CE
330
1F
100
AcDbEntity
  8
AM_7
  6
AM_ISO08W050x2
100
AcDbLine
 10
1838.29570391324
 20
638.5319227503791
 30
0.0
 11
1838.29570391324
 21
644.0319227503792
 31
0.0
1001
GENIUS_GENOREF_13
1005
B6D1
  0
LINE
  5
B6CF
330
1F
100
AcDbEntity
  8
AM_7
  6
AM_ISO08W050x2
100
AcDbLine
 10
1838.29570391324
 20
638.5319227503791
 30
0.0
 11
1832.79570391324
 21
638.5319227503791
 31
0.0
1001
GENIUS_GENOREF_13
1005
B6D1
  0
LINE
  5
B6D0
330
1F
100
AcDbEntity
  8
AM_7
  6
AM_ISO08W050x2
100
AcDbLine
 10
1838.29570391324
 20
638.5319227503791
 30
0.0
 11
1838.29570391324
 21
633.0319227503792
 31
0.0
1001
GENIUS_GENOREF_13
1005
B6D1
  0
POINT
  5
B6D1
330
1F
100
AcDbEntity
  8
0
 60
     1
100
AcDbPoint
 10
0.0
 20
0.0
 30
0.0
1001
GENIUS_GENOLIS_13
1002
{
1000
ENT
1005
B6D0
1005
B6CF
1005
B6CE
1005
B6CD
1002
}
1001
GENIUS_GENOENT_13
1002
{
1000
MYREF
1005
B6D1
1002
}
1002
{
1000
GRP
1005
0
1002
}
1001
GENIUS_GENOBJ-N-CRS_13
1002
{
1000
OWNER
1000
GEN
1002
}
1001
GENIUS_GENODEF_13
1002
{
1000
HIER
1070
    10
1002
}
1002
{
1000
MANEDIT
1070
     0
1002
}
1002
{
1000
NOSEL
1070
     0
1002
}
1002
{
1000
BEHIND
1070
     0
1002
}
1002
{
1000
OTHER
1070
     0
1002
}
1002
{
1000
REACTOR
1002
}
  0
LINE
  5
B6DF
330
1F
100
AcDbEntity
  8
AM_7
  6
AM_ISO08W050x2
100
AcDbLine
 10
1815.29570391324
 20
625.5319227503791
 30
0.0
 11
1820.79570391324
 21
625.5319227503791
 31
0.0
1001
GENIUS_GENOREF_13
1005
B6E3
  0
LINE
  5
B6E0
330
1F
100
AcDbEntity
  8
AM_7
  6
AM_ISO08W050x2
100
AcDbLine
 10
1815.29570391324
 20
625.5319227503791
 30
0.0
 11
1815.29570391324
 21
631.0319227503791
 31
0.0
1001
GENIUS_GENOREF_13
1005
B6E3
  0
LINE
  5
B6E1
330
1F
100
AcDbEntity
  8
AM_7
  6
AM_ISO08W050x2
100
AcDbLine
 10
1815.29570391324
 20
625.5319227503791
 30
0.0
 11
1809.795703913241
 21
625.5319227503791
 31
0.0
1001
GENIUS_GENOREF_13
1005
B6E3
  0
LINE
  5
B6E2
330
1F
100
AcDbEntity
  8
AM_7
  6
AM_ISO08W050x2
100
AcDbLine
 10
1815.29570391324
 20
625.5319227503791
 30
0.0
 11
1815.29570391324
 21
620.0319227503792
 31
0.0
1001
GENIUS_GENOREF_13
1005
B6E3
  0
POINT
  5
B6E3
330
1F
100
AcDbEntity
  8
0
 60
     1
100
AcDbPoint
 10
0.0
 20
0.0
 30
0.0
1001
GENIUS_GENOENT_13
1002
{
1000
MYREF
1005
B6E3
1002
}
1002
{
1000
GRP
1005
0
1002
}
1001
GENIUS_GENOBJ-N-CRS_13
1002
{
1000
OWNER
1000
GEN
1002
}
1001
GENIUS_GENODEF_13
1002
{
1000
HIER
1070
    10
1002
}
1002
{
1000
MANEDIT
1070
     0
1002
}
1002
{
1000
NOSEL
1070
     0
1002
}
1002
{
1000
BEHIND
1070
     0
1002
}
1002
{
1000
OTHER
1070
     0
1002
}
1002
{
1000
REACTOR
1002
}
1001
GENIUS_GENOLIS_13
1002
{
1000
ENT
1005
B6E2
1005
B6E1
1005
B6E0
1005
B6DF
1002
}
  0
LINE
  5
B6F1
330
1F
100
AcDbEntity
  8
AM_7
  6
AM_ISO08W050x2
100
AcDbLine
 10
1717.294847871669
 20
645.0319227503792
 30
0.0
 11
1721.544847871669
 21
645.0319227503792
 31
0.0
1001
GENIUS_GENOREF_13
1005
B6F5
  0
LINE
  5
B6F2
330
1F
100
AcDbEntity
  8
AM_7
  6
AM_ISO08W050x2
100
AcDbLine
 10
1717.294847871669
 20
645.0319227503792
 30
0.0
 11
1717.294847871669
 21
649.2819227503791
 31
0.0
1001
GENIUS_GENOREF_13
1005
B6F5
  0
LINE
  5
B6F3
330
1F
100
AcDbEntity
  8
AM_7
  6
AM_ISO08W050x2
100
AcDbLine
 10
1717.294847871669
 20
645.0319227503792
 30
0.0
 11
1713.044847871669
 21
645.0319227503792
 31
0.0
1001
GENIUS_GENOREF_13
1005
B6F5
  0
LINE
  5
B6F4
330
1F
100
AcDbEntity
  8
AM_7
  6
AM_ISO08W050x2
100
AcDbLine
 10
1717.294847871669
 20
645.0319227503792
 30
0.0
 11
1717.294847871669
 21
640.7819227503791
 31
0.0
1001
GENIUS_GENOREF_13
1005
B6F5
  0
POINT
  5
B6F5
330
1F
100
AcDbEntity
  8
0
 60
     1
100
AcDbPoint
 10
0.0
 20
0.0
 30
0.0
1001
GENIUS_GENOLIS_13
1002
{
1000
ENT
1005
B6F4
1005
B6F3
1005
B6F2
1005
B6F1
1002
}
1001
GENIUS_GENOENT_13
1002
{
1000
MYREF
1005
B6F5
1002
}
1002
{
1000
GRP
1005
0
1002
}
1001
GENIUS_GENODEF_13
1002
{
1000
HIER
1070
    10
1002
}
1002
{
1000
MANEDIT
1070
     0
1002
}
1002
{
1000
NOSEL
1070
     0
1002
}
1002
{
1000
BEHIND
1070
     0
1002
}
1002
{
1000
OTHER
1070
     0
1002
}
1002
{
1000
REACTOR
1002
}
1001
GENIUS_GENOBJ-N-CRS_13
1002
{
1000
OWNER
1000
GEN
1002
}
  0
LINE
  5
B703
330
1F
100
AcDbEntity
  8
AM_7
  6
AM_ISO08W050x2
100
AcDbLine
 10
1717.294847871669
 20
619.0319227503792
 30
0.0
 11
1721.544847871669
 21
619.0319227503792
 31
0.0
1001
GENIUS_GENOREF_13
1005
B707
  0
LINE
  5
B704
330
1F
100
AcDbEntity
  8
AM_7
  6
AM_ISO08W050x2
100
AcDbLine
 10
1717.294847871669
 20
619.0319227503792
 30
0.0
 11
1717.294847871669
 21
623.2819227503791
 31
0.0
1001
GENIUS_GENOREF_13
1005
B707
  0
LINE
  5
B705
330
1F
100
AcDbEntity
  8
AM_7
  6
AM_ISO08W050x2
100
AcDbLine
 10
1717.294847871669
 20
619.0319227503792
 30
0.0
 11
1713.044847871669
 21
619.0319227503792
 31
0.0
1001
GENIUS_GENOREF_13
1005
B707
  0
LINE
  5
B706
330
1F
100
AcDbEntity
  8
AM_7
  6
AM_ISO08W050x2
100
AcDbLine
 10
1717.294847871669
 20
619.0319227503792
 30
0.0
 11
1717.294847871669
 21
614.7819227503791
 31
0.0
1001
GENIUS_GENOREF_13
1005
B707
  0
POINT
  5
B707
330
1F
100
AcDbEntity
  8
0
 60
     1
100
AcDbPoint
 10
0.0
 20
0.0
 30
0.0
1001
GENIUS_GENODEF_13
1002
{
1000
HIER
1070
    10
1002
}
1002
{
1000
MANEDIT
1070
     0
1002
}
1002
{
1000
NOSEL
1070
     0
1002
}
1002
{
1000
BEHIND
1070
     0
1002
}
1002
{
1000
OTHER
1070
     0
1002
}
1002
{
1000
REACTOR
1002
}
1001
GENIUS_GENOBJ-N-CRS_13
1002
{
1000
OWNER
1000
GEN
1002
}
1001
GENIUS_GENOENT_13
1002
{
1000
MYREF
1005
B707
1002
}
1002
{
1000
GRP
1005
0
1002
}
1001
GENIUS_GENOLIS_13
1002
{
1000
ENT
1005
B706
1005
B705
1005
B704
1005
B703
1002
}
  0
LINE
  5
B715
330
1F
100
AcDbEntity
  8
AM_7
  6
AM_ISO08W050x2
100
AcDbLine
 10
1620.433252678943
 20
638.5319227503791
 30
0.0
 11
1624.183252678943
 21
638.5319227503791
 31
0.0
1001
GENIUS_GENOREF_13
1005
B719
  0
LINE
  5
B716
330
1F
100
AcDbEntity
  8
AM_7
  6
AM_ISO08W050x2
100
AcDbLine
 10
1620.433252678943
 20
638.5319227503791
 30
0.0
 11
1620.433252678943
 21
642.2819227503792
 31
0.0
1001
GENIUS_GENOREF_13
1005
B719
  0
LINE
  5
B717
330
1F
100
AcDbEntity
  8
AM_7
  6
AM_ISO08W050x2
100
AcDbLine
 10
1620.433252678943
 20
638.5319227503791
 30
0.0
 11
1616.683252678943
 21
638.5319227503791
 31
0.0
1001
GENIUS_GENOREF_13
1005
B719
  0
LINE
  5
B718
330
1F
100
AcDbEntity
  8
AM_7
  6
AM_ISO08W050x2
100
AcDbLine
 10
1620.433252678943
 20
638.5319227503791
 30
0.0
 11
1620.433252678943
 21
634.7819227503792
 31
0.0
1001
GENIUS_GENOREF_13
1005
B719
  0
POINT
  5
B719
330
1F
100
AcDbEntity
  8
0
 60
     1
100
AcDbPoint
 10
0.0
 20
0.0
 30
0.0
1001
GENIUS_GENOLIS_13
1002
{
1000
ENT
1005
B718
1005
B717
1005
B716
1005
B715
1002
}
1001
GENIUS_GENOBJ-N-CRS_13
1002
{
1000
OWNER
1000
GEN
1002
}
1001
GENIUS_GENODEF_13
1002
{
1000
HIER
1070
    10
1002
}
1002
{
1000
MANEDIT
1070
     0
1002
}
1002
{
1000
NOSEL
1070
     0
1002
}
1002
{
1000
BEHIND
1070
     0
1002
}
1002
{
1000
OTHER
1070
     0
1002
}
1002
{
1000
REACTOR
1002
}
1001
GENIUS_GENOENT_13
1002
{
1000
MYREF
1005
B719
1002
}
1002
{
1000
GRP
1005
0
1002
}
  0
LINE
  5
B727
330
1F
100
AcDbEntity
  8
AM_7
  6
AM_ISO08W050x2
100
AcDbLine
 10
1643.433252678943
 20
625.5319227503791
 30
0.0
 11
1647.183252678943
 21
625.5319227503791
 31
0.0
1001
GENIUS_GENOREF_13
1005
B72B
  0
LINE
  5
B728
330
1F
100
AcDbEntity
  8
AM_7
  6
AM_ISO08W050x2
100
AcDbLine
 10
1643.433252678943
 20
625.5319227503791
 30
0.0
 11
1643.433252678943
 21
629.2819227503791
 31
0.0
1001
GENIUS_GENOREF_13
1005
B72B
  0
LINE
  5
B729
330
1F
100
AcDbEntity
  8
AM_7
  6
AM_ISO08W050x2
100
AcDbLine
 10
1643.433252678943
 20
625.5319227503791
 30
0.0
 11
1639.683252678943
 21
625.5319227503791
 31
0.0
1001
GENIUS_GENOREF_13
1005
B72B
  0
LINE
  5
B72A
330
1F
100
AcDbEntity
  8
AM_7
  6
AM_ISO08W050x2
100
AcDbLine
 10
1643.433252678943
 20
625.5319227503791
 30
0.0
 11
1643.433252678943
 21
621.7819227503792
 31
0.0
1001
GENIUS_GENOREF_13
1005
B72B
  0
POINT
  5
B72B
330
1F
100
AcDbEntity
  8
0
 60
     1
100
AcDbPoint
 10
0.0
 20
0.0
 30
0.0
1001
GENIUS_GENOENT_13
1002
{
1000
MYREF
1005
B72B
1002
}
1002
{
1000
GRP
1005
0
1002
}
1001
GENIUS_GENODEF_13
1002
{
1000
HIER
1070
    10
1002
}
1002
{
1000
MANEDIT
1070
     0
1002
}
1002
{
1000
NOSEL
1070
     0
1002
}
1002
{
1000
BEHIND
1070
     0
1002
}
1002
{
1000
OTHER
1070
     0
1002
}
1002
{
1000
REACTOR
1002
}
1001
GENIUS_GENOLIS_13
1002
{
1000
ENT
1005
B72A
1005
B729
1005
B728
1005
B727
1002
}
1001
GENIUS_GENOBJ-N-CRS_13
1002
{
1000
OWNER
1000
GEN
1002
}
  0
LINE
  5
B739
330
1F
100
AcDbEntity
  8
AM_7
100
AcDbLine
 10
1631.933252678943
 20
658.0319227503792
 30
0.0
 11
1642.083252678943
 21
658.0319227503792
 31
0.0
1001
GENIUS_GENOREF_13
1005
B73D
  0
LINE
  5
B73A
330
1F
100
AcDbEntity
  8
AM_7
100
AcDbLine
 10
1631.933252678943
 20
658.0319227503792
 30
0.0
 11
1631.933252678943
 21
668.1819227503792
 31
0.0
1001
GENIUS_GENOREF_13
1005
B73D
  0
LINE
  5
B73B
330
1F
100
AcDbEntity
  8
AM_7
100
AcDbLine
 10
1631.933252678943
 20
658.0319227503792
 30
0.0
 11
1621.783252678943
 21
658.0319227503792
 31
0.0
1001
GENIUS_GENOREF_13
1005
B73D
  0
LINE
  5
B73C
330
1F
100
AcDbEntity
  8
AM_7
100
AcDbLine
 10
1631.933252678943
 20
658.0319227503792
 30
0.0
 11
1631.933252678943
 21
647.8819227503791
 31
0.0
1001
GENIUS_GENOREF_13
1005
B73D
  0
POINT
  5
B73D
330
1F
100
AcDbEntity
  8
0
 60
     1
100
AcDbPoint
 10
0.0
 20
0.0
 30
0.0
1001
GENIUS_GENOBJ-N-CRS_13
1002
{
1000
OWNER
1000
GEN
1002
}
1001
GENIUS_GENOENT_13
1002
{
1000
MYREF
1005
B73D
1002
}
1002
{
1000
GRP
1005
0
1002
}
1001
GENIUS_GENOLIS_13
1002
{
1000
ENT
1005
B73C
1005
B73B
1005
B73A
1005
B739
1002
}
1001
GENIUS_GENODEF_13
1002
{
1000
HIER
1070
    10
1002
}
1002
{
1000
MANEDIT
1070
     0
1002
}
1002
{
1000
NOSEL
1070
     0
1002
}
1002
{
1000
BEHIND
1070
     0
1002
}
1002
{
1000
OTHER
1070
     0
1002
}
1002
{
1000
REACTOR
1002
}
  0
LINE
  5
B74B
330
1F
100
AcDbEntity
  8
AM_7
100
AcDbLine
 10
1631.933252678943
 20
632.0319227503792
 30
0.0
 11
1642.083252678943
 21
632.0319227503792
 31
0.0
1001
GENIUS_GENOREF_13
1005
B74F
  0
LINE
  5
B74C
330
1F
100
AcDbEntity
  8
AM_7
100
AcDbLine
 10
1631.933252678943
 20
632.0319227503792
 30
0.0
 11
1631.933252678943
 21
642.1819227503792
 31
0.0
1001
GENIUS_GENOREF_13
1005
B74F
  0
LINE
  5
B74D
330
1F
100
AcDbEntity
  8
AM_7
100
AcDbLine
 10
1631.933252678943
 20
632.0319227503792
 30
0.0
 11
1621.783252678943
 21
632.0319227503792
 31
0.0
1001
GENIUS_GENOREF_13
1005
B74F
  0
LINE
  5
B74E
330
1F
100
AcDbEntity
  8
AM_7
100
AcDbLine
 10
1631.933252678943
 20
632.0319227503792
 30
0.0
 11
1631.933252678943
 21
621.881922750379
 31
0.0
1001
GENIUS_GENOREF_13
1005
B74F
  0
POINT
  5
B74F
330
1F
100
AcDbEntity
  8
0
 60
     1
100
AcDbPoint
 10
0.0
 20
0.0
 30
0.0
1001
GENIUS_GENODEF_13
1002
{
1000
HIER
1070
    10
1002
}
1002
{
1000
MANEDIT
1070
     0
1002
}
1002
{
1000
NOSEL
1070
     0
1002
}
1002
{
1000
BEHIND
1070
     0
1002
}
1002
{
1000
OTHER
1070
     0
1002
}
1002
{
1000
REACTOR
1002
}
1001
GENIUS_GENOENT_13
1002
{
1000
MYREF
1005
B74F
1002
}
1002
{
1000
GRP
1005
0
1002
}
1001
GENIUS_GENOBJ-N-CRS_13
1002
{
1000
OWNER
1000
GEN
1002
}
1001
GENIUS_GENOLIS_13
1002
{
1000
ENT
1005
B74E
1005
B74D
1005
B74C
1005
B74B
1002
}
  0
LINE
  5
B75D
330
1F
100
AcDbEntity
  8
AM_7
100
AcDbLine
 10
1631.933252678943
 20
606.0319227503791
 30
0.0
 11
1642.083252678943
 21
606.0319227503791
 31
0.0
1001
GENIUS_GENOREF_13
1005
B761
  0
LINE
  5
B75E
330
1F
100
AcDbEntity
  8
AM_7
100
AcDbLine
 10
1631.933252678943
 20
606.0319227503791
 30
0.0
 11
1631.933252678943
 21
616.1819227503793
 31
0.0
1001
GENIUS_GENOREF_13
1005
B761
  0
LINE
  5
B75F
330
1F
100
AcDbEntity
  8
AM_7
100
AcDbLine
 10
1631.933252678943
 20
606.0319227503791
 30
0.0
 11
1621.783252678943
 21
606.0319227503791
 31
0.0
1001
GENIUS_GENOREF_13
1005
B761
  0
LINE
  5
B760
330
1F
100
AcDbEntity
  8
AM_7
100
AcDbLine
 10
1631.933252678943
 20
606.0319227503791
 30
0.0
 11
1631.933252678943
 21
595.8819227503791
 31
0.0
1001
GENIUS_GENOREF_13
1005
B761
  0
POINT
  5
B761
330
1F
100
AcDbEntity
  8
0
 60
     1
100
AcDbPoint
 10
0.0
 20
0.0
 30
0.0
1001
GENIUS_GENODEF_13
1002
{
1000
HIER
1070
    10
1002
}
1002
{
1000
MANEDIT
1070
     0
1002
}
1002
{
1000
NOSEL
1070
     0
1002
}
1002
{
1000
BEHIND
1070
     0
1002
}
1002
{
1000
OTHER
1070
     0
1002
}
1002
{
1000
REACTOR
1002
}
1001
GENIUS_GENOLIS_13
1002
{
1000
ENT
1005
B760
1005
B75F
1005
B75E
1005
B75D
1002
}
1001
GENIUS_GENOBJ-N-CRS_13
1002
{
1000
OWNER
1000
GEN
1002
}
1001
GENIUS_GENOENT_13
1002
{
1000
MYREF
1005
B761
1002
}
1002
{
1000
GRP
1005
0
1002
}
  0
LINE
  5
B76F
330
1F
100
AcDbEntity
  8
AM_7
100
AcDbLine
 10
1826.79570391324
 20
617.0319227503791
 30
0.0
 11
1836.94570391324
 21
617.0319227503791
 31
0.0
1001
GENIUS_GENOREF_13
1005
B773
  0
LINE
  5
B770
330
1F
100
AcDbEntity
  8
AM_7
100
AcDbLine
 10
1826.79570391324
 20
617.0319227503791
 30
0.0
 11
1826.79570391324
 21
627.1819227503792
 31
0.0
1001
GENIUS_GENOREF_13
1005
B773
  0
LINE
  5
B771
330
1F
100
AcDbEntity
  8
AM_7
100
AcDbLine
 10
1826.79570391324
 20
617.0319227503791
 30
0.0
 11
1816.64570391324
 21
617.0319227503791
 31
0.0
1001
GENIUS_GENOREF_13
1005
B773
  0
LINE
  5
B772
330
1F
100
AcDbEntity
  8
AM_7
100
AcDbLine
 10
1826.79570391324
 20
617.0319227503791
 30
0.0
 11
1826.79570391324
 21
606.8819227503791
 31
0.0
1001
GENIUS_GENOREF_13
1005
B773
  0
POINT
  5
B773
330
1F
100
AcDbEntity
  8
0
 60
     1
100
AcDbPoint
 10
0.0
 20
0.0
 30
0.0
1001
GENIUS_GENODEF_13
1002
{
1000
HIER
1070
    10
1002
}
1002
{
1000
MANEDIT
1070
     0
1002
}
1002
{
1000
NOSEL
1070
     0
1002
}
1002
{
1000
BEHIND
1070
     0
1002
}
1002
{
1000
OTHER
1070
     0
1002
}
1002
{
1000
REACTOR
1002
}
1001
GENIUS_GENOENT_13
1002
{
1000
MYREF
1005
B773
1002
}
1002
{
1000
GRP
1005
0
1002
}
1001
GENIUS_GENOBJ-N-CRS_13
1002
{
1000
OWNER
1000
GEN
1002
}
1001
GENIUS_GENOLIS_13
1002
{
1000
ENT
1005
B772
1005
B771
1005
B770
1005
B76F
1002
}
  0
LINE
  5
B781
330
1F
100
AcDbEntity
  8
AM_7
100
AcDbLine
 10
1826.79570391324
 20
647.0319227503791
 30
0.0
 11
1836.94570391324
 21
647.0319227503791
 31
0.0
1001
GENIUS_GENOREF_13
1005
B785
  0
LINE
  5
B782
330
1F
100
AcDbEntity
  8
AM_7
100
AcDbLine
 10
1826.79570391324
 20
647.0319227503791
 30
0.0
 11
1826.79570391324
 21
657.1819227503793
 31
0.0
1001
GENIUS_GENOREF_13
1005
B785
  0
LINE
  5
B783
330
1F
100
AcDbEntity
  8
AM_7
100
AcDbLine
 10
1826.79570391324
 20
647.0319227503791
 30
0.0
 11
1816.64570391324
 21
647.0319227503791
 31
0.0
1001
GENIUS_GENOREF_13
1005
B785
  0
LINE
  5
B784
330
1F
100
AcDbEntity
  8
AM_7
100
AcDbLine
 10
1826.79570391324
 20
647.0319227503791
 30
0.0
 11
1826.79570391324
 21
636.8819227503791
 31
0.0
1001
GENIUS_GENOREF_13
1005
B785
  0
POINT
  5
B785
330
1F
100
AcDbEntity
  8
0
 60
     1
100
AcDbPoint
 10
0.0
 20
0.0
 30
0.0
1001
GENIUS_GENOENT_13
1002
{
1000
MYREF
1005
B785
1002
}
1002
{
1000
GRP
1005
0
1002
}
1001
GENIUS_GENOBJ-N-CRS_13
1002
{
1000
OWNER
1000
GEN
1002
}
1001
GENIUS_GENOLIS_13
1002
{
1000
ENT
1005
B784
1005
B783
1005
B782
1005
B781
1002
}
1001
GENIUS_GENODEF_13
1002
{
1000
HIER
1070
    10
1002
}
1002
{
1000
MANEDIT
1070
     0
1002
}
1002
{
1000
NOSEL
1070
     0
1002
}
1002
{
1000
BEHIND
1070
     0
1002
}
1002
{
1000
OTHER
1070
     0
1002
}
1002
{
1000
REACTOR
1002
}
  0
LINE
  5
B793
330
1F
100
AcDbEntity
  8
AM_7
100
AcDbLine
 10
1715.793219232802
 20
709.0171153141093
 30
0.0
 11
1725.793219232802
 21
709.0171153141093
 31
0.0
1001
GENIUS_GENOREF_13
1005
B797
  0
LINE
  5
B794
330
1F
100
AcDbEntity
  8
AM_7
100
AcDbLine
 10
1715.793219232802
 20
709.0171153141093
 30
0.0
 11
1715.793219232802
 21
719.0171153141088
 31
0.0
1001
GENIUS_GENOREF_13
1005
B797
  0
LINE
  5
B795
330
1F
100
AcDbEntity
  8
AM_7
100
AcDbLine
 10
1715.793219232802
 20
709.0171153141093
 30
0.0
 11
1705.793219232803
 21
709.0171153141093
 31
0.0
1001
GENIUS_GENOREF_13
1005
B797
  0
LINE
  5
B796
330
1F
100
AcDbEntity
  8
AM_7
100
AcDbLine
 10
1715.793219232802
 20
709.0171153141093
 30
0.0
 11
1715.793219232802
 21
699.0171153141098
 31
0.0
1001
GENIUS_GENOREF_13
1005
B797
  0
POINT
  5
B797
330
1F
100
AcDbEntity
  8
0
 60
     1
100
AcDbPoint
 10
0.0
 20
0.0
 30
0.0
1001
GENIUS_GENOBJ-N-CRS_13
1002
{
1000
OWNER
1000
GEN
1002
}
1001
GENIUS_GENODEF_13
1002
{
1000
HIER
1070
    10
1002
}
1002
{
1000
MANEDIT
1070
     0
1002
}
1002
{
1000
NOSEL
1070
     0
1002
}
1002
{
1000
BEHIND
1070
     0
1002
}
1002
{
1000
OTHER
1070
     0
1002
}
1002
{
1000
REACTOR
1002
}
1001
GENIUS_GENOLIS_13
1002
{
1000
ENT
1005
B796
1005
B795
1005
B794
1005
B793
1002
}
1001
GENIUS_GENOENT_13
1002
{
1000
MYREF
1005
B797
1002
}
1002
{
1000
GRP
1005
0
1002
}
  0
LINE
  5
B7A4
330
1F
100
AcDbEntity
  8
AM_7
100
AcDbLine
 10
1622.983252678943
 20
709.0171153141096
 30
0.0
 11
1640.483252678943
 21
709.0171153141096
 31
0.0
1001
GENIUS_GENODEF_13
1002
{
1000
HIER
1070
     0
1002
}
1002
{
1000
MANEDIT
1070
     0
1002
}
1002
{
1000
NOSEL
1070
     0
1002
}
1002
{
1000
BEHIND
1070
     0
1002
}
1002
{
1000
OTHER
1070
     0
1002
}
1002
{
1000
REACTOR
1002
}
1001
GENIUS_GENOBJ-N-CEN_13
1002
{
1000
OWNER
1000
GEN
1002
}
1001
GENIUS_GENCEN_19
1002
{
1040
1.5
1002
}
  0
LINE
  5
B7B5
330
1F
100
AcDbEntity
  8
AM_7
100
AcDbLine
 10
1835.745703913241
 20
709.0171153141096
 30
0.0
 11
1818.245703913241
 21
709.0171153141096
 31
0.0
1001
GENIUS_GENODEF_13
1002
{
1000
HIER
1070
     0
1002
}
1002
{
1000
MANEDIT
1070
     0
1002
}
1002
{
1000
NOSEL
1070
     0
1002
}
1002
{
1000
BEHIND
1070
     0
1002
}
1002
{
1000
OTHER
1070
     0
1002
}
1002
{
1000
REACTOR
1002
}
1001
GENIUS_GENOBJ-N-CEN_13
1002
{
1000
OWNER
1000
GEN
1002
}
1001
GENIUS_GENCEN_19
1002
{
1040
1.5
1002
}
  0
LINE
  5
B7CF
330
1F
100
AcDbEntity
  8
AM_7
100
AcDbLine
 10
1826.79570391324
 20
584.584049268972
 30
0.0
 11
1826.79570391324
 21
720.9524049779282
 31
0.0
1001
GENIUS_GENODEF_13
1002
{
1000
HIER
1070
     0
1002
}
1002
{
1000
MANEDIT
1070
     0
1002
}
1002
{
1000
NOSEL
1070
     0
1002
}
1002
{
1000
BEHIND
1070
     0
1002
}
1002
{
1000
OTHER
1070
     0
1002
}
1002
{
1000
REACTOR
1002
}
1001
GENIUS_GENOBJ-N-CEN_13
1002
{
1000
OWNER
1000
GEN
1002
}
1001
GENIUS_GENCEN_19
1002
{
1040
1.5
1002
}
  0
LINE
  5
B7E5
330
1F
100
AcDbEntity
  8
AM_7
100
AcDbLine
 10
1631.933252678943
 20
583.5040383667336
 30
0.0
 11
1631.933252678943
 21
723.1836249664462
 31
0.0
1001
GENIUS_GENODEF_13
1002
{
1000
HIER
1070
     0
1002
}
1002
{
1000
MANEDIT
1070
     0
1002
}
1002
{
1000
NOSEL
1070
     0
1002
}
1002
{
1000
BEHIND
1070
     0
1002
}
1002
{
1000
OTHER
1070
     0
1002
}
1002
{
1000
REACTOR
1002
}
1001
GENIUS_GENOBJ-N-CEN_13
1002
{
1000
OWNER
1000
GEN
1002
}
1001
GENIUS_GENCEN_19
1002
{
1040
1.5
1002
}
  0
LINE
  5
B7F2
330
1F
100
AcDbEntity
  8
AM_7
100
AcDbLine
 10
1762.294847871669
 20
765.1329957454535
 30
0.0
 11
1705.251532488737
 21
765.1329957454535
 31
0.0
1001
GENIUS_GENODEF_13
1002
{
1000
HIER
1070
     0
1002
}
1002
{
1000
MANEDIT
1070
     0
1002
}
1002
{
1000
NOSEL
1070
     0
1002
}
1002
{
1000
BEHIND
1070
     0
1002
}
1002
{
1000
OTHER
1070
     0
1002
}
1002
{
1000
REACTOR
1002
}
1001
GENIUS_GENOBJ-N-CEN_13
1002
{
1000
OWNER
1000
GEN
1002
}
1001
GENIUS_GENCEN_19
1002
{
1040
1.5
1002
}
  0
DIMENSION
  5
B7F3
330
1F
100
AcDbEntity
  8
AM_5
100
AcDbDimension
  2
*D7
 10
1700.594847871669
 20
619.0319227503792
 30
0.0
 11
1697.654434485842
 21
603.0319227503794
 31
0.0
 70
    32
 71
     5
 42
32.0
  3
AM_ISO$0
100
AcDbAlignedDimension
 13
1713.594847871669
 23
587.0319227503792
 33
0.0
 14
1713.044847871669
 24
619.0319227503792
 34
0.0
 50
90.0
100
AcDbRotatedDimension
1001
ACAD
1000
DSTYLE
1002
{
1070
    40
1040
1.199999999999999
1070
   272
1070
     8
1002
}
  0
DIMENSION
  5
B7F6
330
1F
100
AcDbEntity
  8
AM_5
100
AcDbDimension
  2
*D8
 10
1700.594847871669
 20
645.0319227503792
 30
0.0
 11
1697.654434485842
 21
632.0319227503794
 31
0.0
 70
    32
 71
     5
 42
26.0
  3
AM_ISO$0
100
AcDbAlignedDimension
 13
1713.044847871669
 23
619.0319227503792
 33
0.0
 14
1713.044847871669
 24
645.0319227503792
 34
0.0
 50
90.0
100
AcDbRotatedDimension
1001
ACAD
1000
DSTYLE
1002
{
1070
    40
1040
1.199999999999999
1070
   272
1070
     8
1002
}
  0
DIMENSION
  5
B7F9
330
1F
100
AcDbEntity
  8
AM_5
100
AcDbDimension
  2
*D2
 10
1758.994847871669
 20
565.0319227503792
 30
0.0
 11
1735.794847871669
 21
567.9719227503792
 31
0.0
 70
    32
 71
     5
 42
46.39999999999986
  3
AM_ISO$0
100
AcDbAlignedDimension
 13
1712.594847871669
 23
588.0319227503791
 33
0.0
 14
1758.994847871669
 24
588.3319227503791
 34
0.0
100
AcDbRotatedDimension
1001
ACAD
1000
DSTYLE
1002
{
1070
    40
1040
1.199999999999999
1070
   272
1070
     8
1002
}
  0
DIMENSION
  5
B7FA
330
1F
100
AcDbEntity
  8
AM_5
100
AcDbDimension
  2
*D9
 10
1717.294847871669
 20
575.0319227503791
 30
0.0
 11
1728.484847871669
 21
577.9719227503792
 31
0.0
 70
    32
  1
<>
 71
     5
 42
4.699999999999818
  3
AM_ISO$0
100
AcDbAlignedDimension
 13
1712.594847871669
 23
588.0319227503791
 33
0.0
 14
1717.294847871669
 24
614.7819227503791
 34
0.0
100
AcDbRotatedDimension
1001
ACAD
1000
DSTYLE
1002
{
1070
    40
1040
1.199999999999999
1070
   272
1070
     8
1002
}
  0
DIMENSION
  5
B7FD
330
1F
100
AcDbEntity
  8
AM_5
100
AcDbDimension
  2
*D3
 10
1680.594847871669
 20
709.0171153141093
 30
0.0
 11
1677.654434485842
 21
648.0245190322444
 31
0.0
 70
    32
 71
     5
 42
121.9851925637301
  3
AM_ISO$0
100
AcDbAlignedDimension
 13
1713.594847871669
 23
587.0319227503792
 33
0.0
 14
1705.793219232803
 24
709.0171153141093
 34
0.0
 50
90.0
100
AcDbRotatedDimension
1001
ACAD
1000
DSTYLE
1002
{
1070
    40
1040
1.199999999999999
1070
   271
1070
     1
1070
   272
1070
     8
1002
}
  0
TEXT
  5
B7FE
330
1F
100
AcDbEntity
  8
AM_5
100
AcDbText
 10
1667.889054499327
 20
573.6620485047492
 30
0.0
 40
4.199999999999999
  1
2-%%c5.5thru
100
AcDbText
  0
INSERT
  5
B7FF
330
1F
100
AcDbEntity
  8
AM_5
100
AcDbBlockReference
  2
*S20
 10
0.0
 20
0.0
 30
0.0
  0
DIMENSION
  5
B800
330
1F
100
AcDbEntity
  8
AM_5
100
AcDbDimension
  2
*D4
 10
1760.794847871669
 20
729.5451181186132
 30
0.0
 11
1738.294033552236
 21
729.5451181186132
 31
0.0
 70
   160
 71
     5
 42
45.0016286388668
  3
AM_ISO$0
100
AcDbAlignedDimension
 13
1715.793219232802
 23
719.0171153141088
 33
0.0
 14
1760.794847871669
 24
696.0319227503791
 34
0.0
100
AcDbRotatedDimension
1001
ACAD
1000
DSTYLE
1002
{
1070
    40
1040
1.199999999999999
1070
   271
1070
     1
1070
   272
1070
     8
1002
}
  0
DIMENSION
  5
B801
330
1F
100
AcDbEntity
  8
AM_5
100
AcDbDimension
  2
*D5
 10
1690.594847871669
 20
700.0128190768025
 30
0.0
 11
1687.654847871669
 21
643.5223709135911
 31
0.0
 70
    32
 71
     5
 42
112.9808963264233
  3
AM_ISO$0
100
AcDbAlignedDimension
 13
1713.594847871669
 23
587.0319227503792
 33
0.0
 14
1702.983644148198
 24
700.0128190768025
 34
0.0
 50
90.0
100
AcDbRotatedDimension
1001
ACAD
1000
DSTYLE
1002
{
1070
    40
1040
1.199999999999999
1070
   271
1070
     1
1070
   272
1070
     8
1002
}
  0
DIMENSION
  5
B802
330
1F
100
AcDbEntity
  8
AM_5
100
AcDbDimension
  2
*D6
 10
1754.994847871669
 20
575.0319227503791
 30
0.0
 11
1768.084847871669
 21
575.0319227503791
 31
0.0
 70
   160
 71
     5
 42
4.0
  3
AM_ISO$0
100
AcDbAlignedDimension
 13
1758.994847871669
 23
588.3319227503791
 33
0.0
 14
1754.994847871669
 24
621.5319227503791
 34
0.0
100
AcDbRotatedDimension
1001
ACAD
1000
DSTYLE
1002
{
1070
    40
1040
1.199999999999999
1070
   272
1070
     8
1002
}
  0
DIMENSION
  5
B993
330
1F
100
AcDbEntity
  8
AM_5
100
AcDbDimension
  2
*D10
 10
1715.793219232801
 20
709.0171153141097
 30
0.0
 11
1695.689594417289
 21
723.3073875545608
 31
0.0
 70
   164
 71
     5
 42
8.499999999999886
  3
AM_ISO$4
100
AcDbRadialDimension
 15
1709.727571044091
 25
714.9717699683098
 35
0.0
 40
0.0
1001
ACAD
1000
DSTYLE
1002
{
1070
    40
1040
1.199999999999999
1070
   172
1070
     1
1002
}
  0
DIMENSION
  5
B9E2
330
1F
100
AcDbEntity
  8
AM_5
100
AcDbDimension
  2
*D11
 10
1604.933252678943
 20
606.0319227503791
 30
0.0
 11
1601.993252678943
 21
596.5319227503794
 31
0.0
 70
    32
 71
     5
 42
19.0
  3
AM_ISO$0
100
AcDbAlignedDimension
 13
1617.933252678943
 23
587.0319227503792
 33
0.0
 14
1621.783252678943
 24
606.0319227503791
 34
0.0
 50
90.0
100
AcDbRotatedDimension
1001
ACAD
1000
DSTYLE
1002
{
1070
    40
1040
1.199999999999999
1070
   272
1070
     8
1002
}
  0
DIMENSION
  5
B9E3
330
1F
100
AcDbEntity
  8
AM_5
100
AcDbDimension
  2
*D12
 10
1604.933252678943
 20
632.0319227503792
 30
0.0
 11
1601.992839293116
 21
619.0319227503794
 31
0.0
 70
    32
 71
     5
 42
26.0
  3
AM_ISO$0
100
AcDbAlignedDimension
 13
1621.783252678943
 23
606.0319227503791
 33
0.0
 14
1621.783252678943
 24
632.0319227503792
 34
0.0
 50
90.0
100
AcDbRotatedDimension
1001
ACAD
1000
DSTYLE
1002
{
1070
    40
1040
1.199999999999999
1070
   272
1070
     8
1002
}
  0
DIMENSION
  5
B9E4
330
1F
100
AcDbEntity
  8
AM_5
100
AcDbDimension
  2
*D13
 10
1604.933252678943
 20
658.0319227503792
 30
0.0
 11
1601.992839293116
 21
645.0319227503793
 31
0.0
 70
    32
 71
     5
 42
26.0
  3
AM_ISO$0
100
AcDbAlignedDimension
 13
1621.783252678943
 23
632.0319227503792
 33
0.0
 14
1621.783252678943
 24
658.0319227503792
 34
0.0
 50
90.0
100
AcDbRotatedDimension
1001
ACAD
1000
DSTYLE
1002
{
1070
    40
1040
1.199999999999999
1070
   272
1070
     8
1002
}
  0
TEXT
  5
B9E7
330
1F
100
AcDbEntity
  8
AM_5
100
AcDbText
 10
1589.72409452773
 20
670.9579161710063
 30
0.0
 40
4.199999999999999
  1
3-PT3/8
100
AcDbText
  0
INSERT
  5
B9E8
330
1F
100
AcDbEntity
  8
AM_VIS
100
AcDbBlockReference
  2
*S21
 10
0.0
 20
0.0
 30
0.0
  0
DIMENSION
  5
BA5F
330
1F
100
AcDbEntity
  8
AM_5
100
AcDbDimension
  2
*D14
 10
1838.29570391324
 20
576.5319227503794
 30
0.0
 11
1826.79570391324
 21
579.4723361362062
 31
0.0
 70
    32
 71
     5
 42
23.0
  3
AM_ISO$0
100
AcDbAlignedDimension
 13
1815.29570391324
 23
620.0319227503792
 33
0.0
 14
1838.29570391324
 24
633.0319227503792
 34
0.0
 50
180.0
100
AcDbRotatedDimension
1001
ACAD
1000
DSTYLE
1002
{
1070
    40
1040
1.199999999999999
1070
   272
1070
     8
1002
}
  0
DIMENSION
  5
BA60
330
1F
100
AcDbEntity
  8
AM_5
100
AcDbDimension
  2
*D15
 10
1841.79570391324
 20
566.5319227503793
 30
0.0
 11
1826.79570391324
 21
569.4719227503794
 31
0.0
 70
    32
 71
     5
 42
30.0
  3
AM_ISO$0
100
AcDbAlignedDimension
 13
1811.79570391324
 23
588.3319227503793
 33
0.0
 14
1841.79570391324
 24
588.5319227503794
 34
0.0
 50
180.0
100
AcDbRotatedDimension
1001
ACAD
1000
DSTYLE
1002
{
1070
    40
1040
1.199999999999999
1070
   272
1070
     8
1002
}
  0
DIMENSION
  5
BA61
330
1F
100
AcDbEntity
  8
AM_5
100
AcDbDimension
  2
*D16
 10
1850.195703913241
 20
617.0319227503791
 30
0.0
 11
1847.25570391324
 21
602.0319227503795
 31
0.0
 70
    32
 71
     5
 42
30.0
  3
AM_ISO$0
100
AcDbAlignedDimension
 13
1840.79570391324
 23
587.0319227503792
 33
0.0
 14
1836.79570391324
 24
617.0319227503791
 34
0.0
 50
90.0
100
AcDbRotatedDimension
1001
ACAD
1000
DSTYLE
1002
{
1070
    40
1040
1.199999999999999
1070
   272
1070
     8
1002
}
  0
DIMENSION
  5
BA62
330
1F
100
AcDbEntity
  8
AM_5
100
AcDbDimension
  2
*D17
 10
1850.195703913241
 20
647.0319227503791
 30
0.0
 11
1847.25570391324
 21
632.0319227503794
 31
0.0
 70
    32
 71
     5
 42
30.0
  3
AM_ISO$0
100
AcDbAlignedDimension
 13
1836.94570391324
 23
617.0319227503791
 33
0.0
 14
1836.94570391324
 24
647.0319227503791
 34
0.0
 50
90.0
100
AcDbRotatedDimension
1001
ACAD
1000
DSTYLE
1002
{
1070
    40
1040
1.199999999999999
1070
   272
1070
     8
1002
}
  0
DIMENSION
  5
BA63
330
1F
100
AcDbEntity
  8
AM_5
100
AcDbDimension
  2
*D18
 10
1799.395703913241
 20
638.5319227503791
 30
0.0
 11
1796.45570391324
 21
632.0319227503794
 31
0.0
 70
    32
 71
     5
 42
13.0
  3
AM_ISO$0
100
AcDbAlignedDimension
 13
1809.795703913241
 23
625.5319227503791
 33
0.0
 14
1832.79570391324
 24
638.5319227503791
 34
0.0
 50
90.0
100
AcDbRotatedDimension
1001
ACAD
1000
DSTYLE
1002
{
1070
    40
1040
1.199999999999999
1070
   272
1070
     8
1002
}
  0
DIMENSION
  5
BA64
330
1F
100
AcDbEntity
  8
AM_5
100
AcDbDimension
  2
*D19
 10
1799.395703913241
 20
625.5319227503791
 30
0.0
 11
1796.45570391324
 21
606.2819227503795
 31
0.0
 70
    32
 71
     5
 42
38.5
  3
AM_ISO$0
100
AcDbAlignedDimension
 13
1812.79570391324
 23
587.0319227503792
 33
0.0
 14
1809.795703913241
 24
625.5319227503791
 34
0.0
 50
90.0
100
AcDbRotatedDimension
1001
ACAD
1000
DSTYLE
1002
{
1070
    40
1040
1.199999999999999
1070
   272
1070
     8
1002
}
  0
TEXT
  5
BA65
330
1F
100
AcDbEntity
  8
AM_5
100
AcDbText
 10
1850.88809400843
 20
655.4014549475042
 30
0.0
 40
4.199999999999999
  1
2-%%c4.5thru
100
AcDbText
  0
INSERT
  5
BA66
330
1F
100
AcDbEntity
  8
AM_5
100
AcDbBlockReference
  2
*S22
 10
0.0
 20
0.0
 30
0.0
  0
TEXT
  5
BA67
330
1F
100
AcDbEntity
  8
AM_5
100
AcDbText
 10
1847.45764595671
 20
667.8943924863654
 30
0.0
 40
4.199999999999999
  1
2-PT3/8
100
AcDbText
  0
INSERT
  5
BA68
330
1F
100
AcDbEntity
  8
AM_VIS
100
AcDbBlockReference
  2
*S23
 10
0.0
 20
0.0
 30
0.0
  0
LINE
  5
BCFF
330
1F
100
AcDbEntity
  8
0
  6
ACISOTGB
 62
     4
100
AcDbLine
 10
1733.596140839934
 20
693.5565460048078
 30
0.0
 11
1714.925409526995
 21
696.5157421240173
 31
0.0
  0
LINE
  5
BD00
330
1F
100
AcDbEntity
  8
0
  6
ACISOTGB
 62
     4
100
AcDbLine
 10
1724.278516846492
 20
701.006977378736
 30
0.0
 11
1751.749718192264
 21
696.6529608675517
 31
0.0
  0
LINE
  5
BD01
330
1F
100
AcDbEntity
  8
0
  6
ACISOTGB
 62
     4
100
AcDbLine
 10
1757.798923792229
 20
695.6941989724935
 30
0.0
 11
1758.847024190428
 21
695.52808150345
 31
0.0
  0
LINE
  5
BD02
330
1F
100
AcDbEntity
  8
0
  6
ACISOTGB
 62
     4
100
AcDbLine
 10
1758.847024190428
 20
695.5280815034501
 30
0.0
 11
1758.696780252827
 21
694.580133453588
 31
0.0
  0
LINE
  5
BD03
330
1F
100
AcDbEntity
  8
0
  6
ACISOTGB
 62
     4
100
AcDbLine
 10
1718.908938788163
 20
702.263015385926
 30
0.0
 11
1721.506199357645
 21
700.2532104496326
 31
0.0
  0
LINE
  5
BD04
330
1F
100
AcDbEntity
  8
0
  6
ACISOTGB
 62
     4
100
AcDbLine
 10
1715.911610784546
 20
702.7380734459256
 30
0.0
 11
1718.908938788163
 21
702.263015385926
 31
0.0
  0
ARC
  5
BD05
330
1F
100
AcDbEntity
  8
0
  6
ACISOTGB
 62
     4
100
AcDbCircle
 10
1712.983644148197
 20
700.0128190768025
 30
0.0
 40
4.0
100
AcDbArc
 50
42.94637725034109
 51
299.0413921575752
  0
ARC
  5
BD06
330
1F
100
AcDbEntity
  8
0
  6
ACISOTGB
 62
     4
100
AcDbCircle
 10
1722.607776108677
 20
701.6767724123118
 30
0.0
 40
1.8
100
AcDbArc
 50
232.2666788345268
 51
338.1542962970479
  0
CIRCLE
  5
BD07
330
1F
100
AcDbEntity
  8
0
  6
ACISOTGB
 62
     4
100
AcDbCircle
 10
1712.983644148197
 20
700.0128190768025
 30
0.0
 40
1.649999999999999
  0
ARC
  5
BD08
330
1F
100
AcDbEntity
  8
0
  6
ACISOTGB
 62
     4
100
AcDbCircle
 10
1712.983644148198
 20
700.0128190768023
 30
0.0
 40
8.5
100
AcDbArc
 50
1.759224394559678
 51
329.2419848583729
  0
LINE
  5
BD16
330
1F
100
AcDbEntity
  8
AM_7
  6
AM_ISO08W050x2
100
AcDbLine
 10
1754.394847871669
 20
692.0319227503792
 30
0.0
 11
1757.544847871669
 21
692.0319227503792
 31
0.0
1001
GENIUS_GENOREF_13
1005
BD1A
  0
LINE
  5
BD17
330
1F
100
AcDbEntity
  8
AM_7
  6
AM_ISO08W050x2
100
AcDbLine
 10
1754.394847871669
 20
692.0319227503792
 30
0.0
 11
1754.394847871669
 21
695.1819227503793
 31
0.0
1001
GENIUS_GENOREF_13
1005
BD1A
  0
LINE
  5
BD18
330
1F
100
AcDbEntity
  8
AM_7
  6
AM_ISO08W050x2
100
AcDbLine
 10
1754.394847871669
 20
692.0319227503792
 30
0.0
 11
1751.244847871669
 21
692.0319227503792
 31
0.0
1001
GENIUS_GENOREF_13
1005
BD1A
  0
LINE
  5
BD19
330
1F
100
AcDbEntity
  8
AM_7
  6
AM_ISO08W050x2
100
AcDbLine
 10
1754.394847871669
 20
692.0319227503792
 30
0.0
 11
1754.394847871669
 21
688.8819227503792
 31
0.0
1001
GENIUS_GENOREF_13
1005
BD1A
  0
POINT
  5
BD1A
330
1F
100
AcDbEntity
  8
0
 60
     1
100
AcDbPoint
 10
0.0
 20
0.0
 30
0.0
1001
GENIUS_GENODEF_13
1002
{
1000
HIER
1070
    10
1002
}
1002
{
1000
MANEDIT
1070
     0
1002
}
1002
{
1000
NOSEL
1070
     0
1002
}
1002
{
1000
BEHIND
1070
     0
1002
}
1002
{
1000
OTHER
1070
     0
1002
}
1002
{
1000
REACTOR
1002
}
1001
GENIUS_GENOENT_13
1002
{
1000
MYREF
1005
BD1A
1002
}
1002
{
1000
GRP
1005
0
1002
}
1001
GENIUS_GENOBJ-N-CRS_13
1002
{
1000
OWNER
1000
GEN
1002
}
1001
GENIUS_GENOLIS_13
1002
{
1000
ENT
1005
BD19
1005
BD18
1005
BD17
1005
BD16
1002
}
  0
LINE
  5
BD28
330
1F
100
AcDbEntity
  8
AM_7
100
AcDbLine
 10
1712.983644148197
 20
700.0128190768025
 30
0.0
 11
1722.983644148197
 21
700.0128190768025
 31
0.0
1001
GENIUS_GENOREF_13
1005
BD2C
  0
LINE
  5
BD29
330
1F
100
AcDbEntity
  8
AM_7
100
AcDbLine
 10
1712.983644148197
 20
700.0128190768025
 30
0.0
 11
1712.983644148197
 21
710.0128190768018
 31
0.0
1001
GENIUS_GENOREF_13
1005
BD2C
  0
LINE
  5
BD2A
330
1F
100
AcDbEntity
  8
AM_7
100
AcDbLine
 10
1712.983644148197
 20
700.0128190768025
 30
0.0
 11
1702.983644148198
 21
700.0128190768025
 31
0.0
1001
GENIUS_GENOREF_13
1005
BD2C
  0
LINE
  5
BD2B
330
1F
100
AcDbEntity
  8
AM_7
100
AcDbLine
 10
1712.983644148197
 20
700.0128190768025
 30
0.0
 11
1712.983644148197
 21
690.0128190768032
 31
0.0
1001
GENIUS_GENOREF_13
1005
BD2C
  0
POINT
  5
BD2C
330
1F
100
AcDbEntity
  8
0
 60
     1
100
AcDbPoint
 10
0.0
 20
0.0
 30
0.0
1001
GENIUS_GENODEF_13
1002
{
1000
HIER
1070
    10
1002
}
1002
{
1000
MANEDIT
1070
     0
1002
}
1002
{
1000
NOSEL
1070
     0
1002
}
1002
{
1000
BEHIND
1070
     0
1002
}
1002
{
1000
OTHER
1070
     0
1002
}
1002
{
1000
REACTOR
1002
}
1001
GENIUS_GENOENT_13
1002
{
1000
MYREF
1005
BD2C
1002
}
1002
{
1000
GRP
1005
0
1002
}
1001
GENIUS_GENOBJ-N-CRS_13
1002
{
1000
OWNER
1000
GEN
1002
}
1001
GENIUS_GENOLIS_13
1002
{
1000
ENT
1005
BD2B
1005
BD2A
1005
BD29
1005
BD28
1002
}
  0
LINE
  5
BD6C
330
1F
100
AcDbEntity
  8
AM_7
  6
AM_ISO08W050x2
100
AcDbLine
 10
1735.79484787167
 20
696.5319227503791
 30
0.0
 11
1735.79484787167
 21
691.1684552863184
 31
0.0
1001
GENIUS_GENODEF_13
1002
{
1000
HIER
1070
     0
1002
}
1002
{
1000
MANEDIT
1070
     0
1002
}
1002
{
1000
NOSEL
1070
     0
1002
}
1002
{
1000
BEHIND
1070
     0
1002
}
1002
{
1000
OTHER
1070
     0
1002
}
1002
{
1000
REACTOR
1002
}
1001
GENIUS_GENOBJ-N-CEN_13
1002
{
1000
OWNER
1000
GEN
1002
}
1001
GENIUS_GENCEN_19
1002
{
1040
1.5
1002
}
  0
ARC
  5
BD6D
330
1F
100
AcDbEntity
  8
0
  6
ACISOTGB
 62
     3
100
AcDbCircle
 10
1754.394847871669
 20
692.0319227503792
 30
0.0
 40
42.17324388756394
100
AcDbArc
 50
141.1680109146649
 51
184.5210127197811
  0
LINE
  5
C068
330
1F
100
AcDbEntity
  8
AM_VIS
100
AcDbLine
 10
1645.172231371082
 20
616.2319227503772
 30
0.0
 11
1645.172231371082
 21
616.0767289590471
 31
0.0
  0
LINE
  5
C069
330
1F
100
AcDbEntity
  8
AM_VIS
100
AcDbLine
 10
1642.21631660253
 20
616.2319227503772
 30
0.0
 11
1645.172231371082
 21
616.2319227503772
 31
0.0
  0
LINE
  5
C06A
330
1F
100
AcDbEntity
  8
AM_VIS
100
AcDbLine
 10
1642.21631660253
 20
616.091401075138
 30
0.0
 11
1642.21631660253
 21
616.2319227503772
 31
0.0
  0
LINE
  5
C06B
330
1F
100
AcDbEntity
  8
AM_VIS
100
AcDbLine
 10
1642.875907436475
 20
615.4499609575773
 30
0.0
 11
1642.21631660253
 21
616.091401075138
 31
0.0
  0
LINE
  5
C06C
330
1F
100
AcDbEntity
  8
AM_VIS
100
AcDbLine
 10
1642.965799978724
 20
615.5368915233379
 30
0.0
 11
1642.875907436475
 21
615.4499609575773
 31
0.0
  0
LINE
  5
C06D
330
1F
100
AcDbEntity
  8
AM_VIS
100
AcDbLine
 10
1642.382290610612
 20
616.0767289590471
 30
0.0
 11
1642.965799978724
 21
615.5368915233379
 31
0.0
  0
LINE
  5
C06E
330
1F
100
AcDbEntity
  8
AM_VIS
100
AcDbLine
 10
1645.172231371082
 20
616.0767289590471
 30
0.0
 11
1642.382290610612
 21
616.0767289590471
 31
0.0
  0
SPLINE
  5
C06F
330
1F
100
AcDbEntity
  8
AM_VIS
100
AcDbSpline
210
0.0
220
0.0
230
1.0
 70
     8
 71
     3
 72
     8
 73
     4
 74
     0
 42
0.0000000001
 43
0.0000000001
 40
0.0
 40
0.0
 40
0.0
 40
0.0
 40
80.0
 40
80.0
 40
80.0
 40
80.0
 10
1643.057690133022
 20
614.4309032793994
 30
0.0
 10
1642.788311011243
 20
614.4309032793994
 30
0.0
 10
1642.593004240296
 20
614.3420095431761
 30
0.0
 10
1642.471769853815
 20
614.1642220707295
 30
0.0
  0
SPLINE
  5
C070
330
1F
100
AcDbEntity
  8
AM_VIS
100
AcDbSpline
210
0.0
220
0.0
230
1.0
 70
     8
 71
     3
 72
     8
 73
     4
 74
     0
 42
0.0000000001
 43
0.0000000001
 40
0.0
 40
0.0
 40
0.0
 40
0.0
 40
80.0
 40
80.0
 40
80.0
 40
80.0
 10
1643.638203083058
 20
614.1794108106264
 30
0.0
 10
1643.525028061586
 20
614.3470724564754
 30
0.0
 10
1643.331523722484
 20
614.4309032793994
 30
0.0
 10
1643.057690133022
 20
614.4309032793994
 30
0.0
  0
SPLINE
  5
C071
330
1F
100
AcDbEntity
  8
AM_VIS
100
AcDbSpline
210
0.0
220
0.0
230
1.0
 70
     8
 71
     3
 72
     8
 73
     4
 74
     0
 42
0.0000000001
 43
0.0000000001
 40
0.0
 40
0.0
 40
0.0
 40
0.0
 40
80.0
 40
80.0
 40
80.0
 40
80.0
 10
1643.776520496725
 20
613.6688487239257
 30
0.0
 10
1643.776520496725
 20
613.8717555826628
 30
0.0
 10
1643.730414714592
 20
614.0419429336848
 30
0.0
 10
1643.638203083058
 20
614.1794108106264
 30
0.0
  0
LINE
  5
C072
330
1F
100
AcDbEntity
  8
AM_VIS
100
AcDbLine
 10
1643.776520496725
 20
612.9911416151822
 30
0.0
 11
1643.776520496725
 21
613.6688487239257
 31
0.0
  0
LINE
  5
C073
330
1F
100
AcDbEntity
  8
AM_VIS
100
AcDbLine
 10
1642.33672439092
 20
612.9911416151822
 30
0.0
 11
1643.776520496725
 21
612.9911416151822
 31
0.0
  0
LINE
  5
C074
330
1F
100
AcDbEntity
  8
AM_VIS
100
AcDbLine
 10
1642.33672439092
 20
613.6688487239257
 30
0.0
 11
1642.33672439092
 21
612.9911416151822
 31
0.0
  0
SPLINE
  5
C075
330
1F
100
AcDbEntity
  8
AM_VIS
100
AcDbSpline
210
0.0
220
0.0
230
1.0
 70
     8
 71
     3
 72
     8
 73
     4
 74
     0
 42
0.0000000001
 43
0.0000000001
 40
0.0
 40
0.0
 40
0.0
 40
0.0
 40
80.0
 40
80.0
 40
80.0
 40
80.0
 10
1642.471769853815
 20
614.1642220707295
 30
0.0
 10
1642.381739545218
 20
614.0332521844261
 30
0.0
 10
1642.33672439092
 20
613.8681277467035
 30
0.0
 10
1642.33672439092
 20
613.6688487239257
 30
0.0
  0
SPLINE
  5
C076
330
1F
100
AcDbEntity
  8
AM_VIS
100
AcDbSpline
210
0.0
220
0.0
230
1.0
 70
     8
 71
     3
 72
     8
 73
     4
 74
     0
 42
0.0000000001
 43
0.0000000001
 40
0.0
 40
0.0
 40
0.0
 40
0.0
 40
80.0
 40
80.0
 40
80.0
 40
80.0
 10
1643.057449041912
 20
614.5839616923308
 30
0.0
 10
1643.529413612462
 20
614.5839616586968
 30
0.0
 10
1643.80724239239
 20
614.3772088115261
 30
0.0
 10
1643.890935448965
 20
613.9637031508177
 30
0.0
  0
SPLINE
  5
C077
330
1F
100
AcDbEntity
  8
AM_VIS
100
AcDbSpline
210
0.0
220
0.0
230
1.0
 70
     8
 71
     3
 72
     8
 73
     4
 74
     0
 42
0.0000000001
 43
0.0000000001
 40
0.0
 40
0.0
 40
0.0
 40
0.0
 40
80.0
 40
80.0
 40
80.0
 40
80.0
 10
1642.344990371817
 20
614.2503260384005
 30
0.0
 10
1642.496900743057
 20
614.4727497740527
 30
0.0
 10
1642.734386955211
 20
614.5839616586968
 30
0.0
 10
1643.057449041912
 20
614.5839616923308
 30
0.0
  0
SPLINE
  5
C078
330
1F
100
AcDbEntity
  8
AM_VIS
100
AcDbSpline
210
0.0
220
0.0
230
1.0
 70
     8
 71
     3
 72
     8
 73
     4
 74
     0
 42
0.0000000001
 43
0.0000000001
 40
0.0
 40
0.0
 40
0.0
 40
0.0
 40
80.0
 40
80.0
 40
80.0
 40
80.0
 10
1642.183252678943
 20
613.6688487239257
 30
0.0
 10
1642.183252678943
 20
613.8985970483068
 30
0.0
 10
1642.237165265658
 20
614.09242283101
 30
0.0
 10
1642.344990371817
 20
614.2503260384005
 30
0.0
  0
LINE
  5
C079
330
1F
100
AcDbEntity
  8
AM_VIS
100
AcDbLine
 10
1642.183252678943
 20
612.8359478238522
 30
0.0
 11
1642.183252678943
 21
613.6688487239257
 31
0.0
  0
LINE
  5
C07A
330
1F
100
AcDbEntity
  8
AM_VIS
100
AcDbLine
 10
1645.172231371082
 20
612.8359478238522
 30
0.0
 11
1642.183252678943
 21
612.8359478238522
 31
0.0
  0
LINE
  5
C07B
330
1F
100
AcDbEntity
  8
AM_VIS
100
AcDbLine
 10
1645.172231371082
 20
612.9911416151822
 30
0.0
 11
1645.172231371082
 21
612.8359478238522
 31
0.0
  0
LINE
  5
C07C
330
1F
100
AcDbEntity
  8
AM_VIS
100
AcDbLine
 10
1643.92954446807
 20
612.9911416151822
 30
0.0
 11
1645.172231371082
 21
612.9911416151822
 31
0.0
  0
LINE
  5
C07D
330
1F
100
AcDbEntity
  8
AM_VIS
100
AcDbLine
 10
1643.92954446807
 20
613.6688487239257
 30
0.0
 11
1643.92954446807
 21
612.9911416151822
 31
0.0
  0
SPLINE
  5
C07E
330
1F
100
AcDbEntity
  8
AM_VIS
100
AcDbSpline
210
0.0
220
0.0
230
1.0
 70
     8
 71
     3
 72
     8
 73
     4
 74
     0
 42
0.0000000001
 43
0.0000000001
 40
0.0
 40
0.0
 40
0.0
 40
0.0
 40
80.0
 40
80.0
 40
80.0
 40
80.0
 10
1643.916559989744
 20
613.8268322838079
 30
0.0
 10
1643.92521633105
 20
613.7892909539036
 30
0.0
 10
1643.92954446807
 20
613.7366297672765
 30
0.0
 10
1643.92954446807
 20
613.6688487239257
 30
0.0
  0
LINE
  5
C07F
330
1F
100
AcDbEntity
  8
AM_VIS
100
AcDbLine
 10
1645.183252678943
 20
614.4555634557405
 30
0.0
 11
1643.916559989744
 21
613.8268322838079
 31
0.0
  0
LINE
  5
C080
330
1F
100
AcDbEntity
  8
AM_VIS
100
AcDbLine
 10
1645.138513057342
 20
614.5817918723455
 30
0.0
 11
1645.183252678943
 21
614.4555634557405
 31
0.0
  0
LINE
  5
C081
330
1F
100
AcDbEntity
  8
AM_VIS
100
AcDbLine
 10
1643.890935448965
 20
613.9637031508177
 30
0.0
 11
1645.138513057342
 21
614.5817918723455
 31
0.0
  0
SPLINE
  5
C082
330
1F
100
AcDbEntity
  8
AM_VIS
100
AcDbSpline
210
0.0
220
0.0
230
1.0
 70
     8
 71
     3
 72
     8
 73
     4
 74
     0
 42
0.0000000001
 43
0.0000000001
 40
0.0
 40
0.0
 40
0.0
 40
0.0
 40
80.0
 40
80.0
 40
80.0
 40
80.0
 10
1619.560914459917
 20
623.2532999627742
 30
0.0
 10
1619.290542052291
 20
623.2532999627742
 30
0.0
 10
1619.094515123634
 20
623.164078447287
 30
0.0
 10
1618.972833707704
 20
622.9856354163143
 30
0.0
  0
SPLINE
  5
C083
330
1F
100
AcDbEntity
  8
AM_VIS
100
AcDbSpline
210
0.0
220
0.0
230
1.0
 70
     8
 71
     3
 72
     8
 73
     4
 74
     0
 42
0.0000000001
 43
0.0000000001
 40
0.0
 40
0.0
 40
0.0
 40
0.0
 40
80.0
 40
80.0
 40
80.0
 40
80.0
 10
1620.143567944431
 20
623.0008801618891
 30
0.0
 10
1620.029975610932
 20
623.1691600291456
 30
0.0
 10
1619.835757760256
 20
623.2532999627742
 30
0.0
 10
1619.560914459917
 20
623.2532999627742
 30
0.0
  0
SPLINE
  5
C084
330
1F
100
AcDbEntity
  8
AM_VIS
100
AcDbSpline
210
0.0
220
0.0
230
1.0
 70
     8
 71
     3
 72
     8
 73
     4
 74
     0
 42
0.0000000001
 43
0.0000000001
 40
0.0
 40
0.0
 40
0.0
 40
0.0
 40
80.0
 40
80.0
 40
80.0
 40
80.0
 10
1620.282395378058
 20
622.4884354716237
 30
0.0
 10
1620.282395378058
 20
622.6920905119937
 30
0.0
 10
1620.236119589355
 20
622.862905397496
 30
0.0
 10
1620.143567944431
 20
623.0008801618891
 30
0.0
  0
LINE
  5
C085
330
1F
100
AcDbEntity
  8
AM_VIS
100
AcDbLine
 10
1620.282395378058
 20
621.8082294428627
 30
0.0
 11
1620.282395378058
 21
622.4884354716237
 31
0.0
  0
LINE
  5
C086
330
1F
100
AcDbEntity
  8
AM_VIS
100
AcDbLine
 10
1618.837290289563
 20
621.8082294428627
 30
0.0
 11
1620.282395378058
 21
621.8082294428627
 31
0.0
  0
LINE
  5
C087
330
1F
100
AcDbEntity
  8
AM_VIS
100
AcDbLine
 10
1618.837290289563
 20
622.4884354716237
 30
0.0
 11
1618.837290289563
 21
621.8082294428627
 31
0.0
  0
SPLINE
  5
C088
330
1F
100
AcDbEntity
  8
AM_VIS
100
AcDbSpline
210
0.0
220
0.0
230
1.0
 70
     8
 71
     3
 72
     8
 73
     4
 74
     0
 42
0.0000000001
 43
0.0000000001
 40
0.0
 40
0.0
 40
0.0
 40
0.0
 40
80.0
 40
80.0
 40
80.0
 40
80.0
 10
1618.972833707704
 20
622.9856354163143
 30
0.0
 10
1618.882471428943
 20
622.8541826027008
 30
0.0
 10
1618.837290289563
 20
622.6884492990571
 30
0.0
 10
1618.837290289563
 20
622.4884354716237
 30
0.0
  0
SPLINE
  5
C089
330
1F
100
AcDbEntity
  8
AM_VIS
100
AcDbSpline
210
0.0
220
0.0
230
1.0
 70
     8
 71
     3
 72
     8
 73
     4
 74
     0
 42
0.0000000001
 43
0.0000000001
 40
0.0
 40
0.0
 40
0.0
 40
0.0
 40
80.0
 40
80.0
 40
80.0
 40
80.0
 10
1619.560603342661
 20
623.4069227503846
 30
0.0
 10
1619.889972811687
 20
623.4069227166259
 30
0.0
 10
1620.129498530713
 20
623.295058778573
 30
0.0
 10
1620.27918049974
 20
623.071330936225
 30
0.0
  0
SPLINE
  5
C08A
330
1F
100
AcDbEntity
  8
AM_VIS
100
AcDbSpline
210
0.0
220
0.0
230
1.0
 70
     8
 71
     3
 72
     8
 73
     4
 74
     0
 42
0.0000000001
 43
0.0000000001
 40
0.0
 40
0.0
 40
0.0
 40
0.0
 40
80.0
 40
80.0
 40
80.0
 40
80.0
 10
1618.84558674974
 20
623.0720568764914
 30
0.0
 10
1618.998011182275
 20
623.2953007586615
 30
0.0
 10
1619.236350024076
 20
623.4069227166259
 30
0.0
 10
1619.560603342661
 20
623.4069227503846
 30
0.0
  0
SPLINE
  5
C08B
330
1F
100
AcDbEntity
  8
AM_VIS
100
AcDbSpline
210
0.0
220
0.0
230
1.0
 70
     8
 71
     3
 72
     8
 73
     4
 74
     0
 42
0.0000000001
 43
0.0000000001
 40
0.0
 40
0.0
 40
0.0
 40
0.0
 40
80.0
 40
80.0
 40
80.0
 40
80.0
 10
1618.683252678943
 20
622.4884354716237
 30
0.0
 10
1618.683252678943
 20
622.7190309505926
 30
0.0
 10
1618.737364058381
 20
622.913571430135
 30
0.0
 10
1618.84558674974
 20
623.0720568764914
 30
0.0
  0
LINE
  5
C08C
330
1F
100
AcDbEntity
  8
AM_VIS
100
AcDbLine
 10
1618.683252678943
 20
621.6524634030397
 30
0.0
 11
1618.683252678943
 21
622.4884354716237
 31
0.0
  0
LINE
  5
C08D
330
1F
100
AcDbEntity
  8
AM_VIS
100
AcDbLine
 10
1621.683252678943
 20
621.6524634030397
 30
0.0
 11
1618.683252678943
 21
621.6524634030397
 31
0.0
  0
LINE
  5
C08E
330
1F
100
AcDbEntity
  8
AM_VIS
100
AcDbLine
 10
1621.683252678943
 20
621.8082294428627
 30
0.0
 11
1621.683252678943
 21
621.6524634030397
 31
0.0
  0
LINE
  5
C08F
330
1F
100
AcDbEntity
  8
AM_VIS
100
AcDbLine
 10
1620.435776185581
 20
621.8082294428627
 30
0.0
 11
1621.683252678943
 21
621.8082294428627
 31
0.0
  0
LINE
  5
C090
330
1F
100
AcDbEntity
  8
AM_VIS
100
AcDbLine
 10
1620.435776185581
 20
622.4884354716237
 30
0.0
 11
1620.435776185581
 21
621.8082294428627
 31
0.0
  0
SPLINE
  5
C091
330
1F
100
AcDbEntity
  8
AM_VIS
100
AcDbSpline
210
0.0
220
0.0
230
1.0
 70
     8
 71
     3
 72
     8
 73
     4
 74
     0
 42
0.0000000001
 43
0.0000000001
 40
0.0
 40
0.0
 40
0.0
 40
0.0
 40
80.0
 40
80.0
 40
80.0
 40
80.0
 10
1620.27918049974
 20
623.071330936225
 30
0.0
 10
1620.383577623634
 20
622.9170167769329
 30
0.0
 10
1620.435776185581
 20
622.7227182774799
 30
0.0
 10
1620.435776185581
 20
622.4884354716237
 30
0.0
  0
LINE
  5
C092
330
1F
100
AcDbEntity
  8
AM_VIS
100
AcDbLine
 10
1645.183252678943
 20
650.5211712894338
 30
0.0
 11
1645.183252678943
 21
649.1056764026548
 31
0.0
  0
LINE
  5
C093
330
1F
100
AcDbEntity
  8
AM_VIS
100
AcDbLine
 10
1645.037560111376
 20
650.5211712894338
 30
0.0
 11
1645.183252678943
 21
650.5211712894338
 31
0.0
  0
LINE
  5
C094
330
1F
100
AcDbEntity
  8
AM_VIS
100
AcDbLine
 10
1645.037560111376
 20
649.3093720746778
 30
0.0
 11
1645.037560111376
 21
650.5211712894338
 31
0.0
  0
LINE
  5
C095
330
1F
100
AcDbEntity
  8
AM_VIS
100
AcDbLine
 10
1643.301370374342
 20
650.4151632543712
 30
0.0
 11
1645.037560111376
 21
649.3093720746778
 31
0.0
  0
SPLINE
  5
C096
330
1F
100
AcDbEntity
  8
AM_VIS
100
AcDbSpline
210
0.0
220
0.0
230
1.0
 70
     8
 71
     3
 72
     8
 73
     4
 74
     0
 42
0.0000000001
 43
0.0000000001
 40
0.0
 40
0.0
 40
0.0
 40
0.0
 40
80.0
 40
80.0
 40
80.0
 40
80.0
 10
1642.889082664334
 20
650.5319227503536
 30
0.0
 10
1643.038735706891
 20
650.5319227169161
 30
0.0
 10
1643.176164954705
 20
650.4930029072142
 30
0.0
 10
1643.301370374342
 20
650.4151632543712
 30
0.0
  0
SPLINE
  5
C097
330
1F
100
AcDbEntity
  8
AM_VIS
100
AcDbSpline
210
0.0
220
0.0
230
1.0
 70
     8
 71
     3
 72
     8
 73
     4
 74
     0
 42
0.0000000001
 43
0.0000000001
 40
0.0
 40
0.0
 40
0.0
 40
0.0
 40
80.0
 40
80.0
 40
80.0
 40
80.0
 10
1642.372396214371
 20
650.2813520783306
 30
0.0
 10
1642.518670867402
 20
650.4483991707206
 30
0.0
 10
1642.690899684057
 20
650.5319227169161
 30
0.0
 10
1642.889082664334
 20
650.5319227503536
 30
0.0
  0
SPLINE
  5
C098
330
1F
100
AcDbEntity
  8
AM_VIS
100
AcDbSpline
210
0.0
220
0.0
230
1.0
 70
     8
 71
     3
 72
     8
 73
     4
 74
     0
 42
0.0000000001
 43
0.0000000001
 40
0.0
 40
0.0
 40
0.0
 40
0.0
 40
80.0
 40
80.0
 40
80.0
 40
80.0
 10
1642.183252678943
 20
649.8413297079873
 30
0.0
 10
1642.183252678943
 20
650.043735650092
 30
0.0
 10
1642.246300546378
 20
650.1904097846859
 30
0.0
 10
1642.372396214371
 20
650.2813520783306
 30
0.0
  0
SPLINE
  5
C099
330
1F
100
AcDbEntity
  8
AM_VIS
100
AcDbSpline
210
0.0
220
0.0
230
1.0
 70
     8
 71
     3
 72
     8
 73
     4
 74
     0
 42
0.0000000001
 43
0.0000000001
 40
0.0
 40
0.0
 40
0.0
 40
0.0
 40
80.0
 40
80.0
 40
80.0
 40
80.0
 10
1642.329698533582
 20
649.3999377247878
 30
0.0
 10
1642.232067974969
 20
649.5295943862069
 30
0.0
 10
1642.183252678943
 20
649.6767250472735
 30
0.0
 10
1642.183252678943
 20
649.8413297079873
 30
0.0
  0
SPLINE
  5
C09A
330
1F
100
AcDbEntity
  8
AM_VIS
100
AcDbSpline
210
0.0
220
0.0
230
1.0
 70
     8
 71
     3
 72
     8
 73
     4
 74
     0
 42
0.0000000001
 43
0.0000000001
 40
0.0
 40
0.0
 40
0.0
 40
0.0
 40
80.0
 40
80.0
 40
80.0
 40
80.0
 10
1642.75006695944
 20
649.1335822645983
 30
0.0
 10
1642.568867178579
 20
649.1802175489105
 30
0.0
 10
1642.428744381105
 20
649.2690027357452
 30
0.0
 10
1642.329698533582
 20
649.3999377247878
 30
0.0
  0
LINE
  5
C09B
330
1F
100
AcDbEntity
  8
AM_VIS
100
AcDbLine
 10
1642.784581203414
 20
649.2688315341379
 30
0.0
 11
1642.75006695944
 21
649.1335822645983
 31
0.0
  0
LINE
  5
C09C
330
1F
100
AcDbEntity
  8
AM_VIS
100
AcDbLine
 10
1642.784577821518
 20
649.2688222021911
 30
0.0
 11
1642.724006308806
 21
649.2907733075858
 31
0.0
  0
LINE
  5
C09D
330
1F
100
AcDbEntity
  8
AM_VIS
100
AcDbLine
 10
1642.723869059515
 20
649.2904861368292
 30
0.0
 11
1642.6892897048
 21
649.3063450785044
 31
0.0
  0
SPLINE
  5
C09E
330
1F
100
AcDbEntity
  8
AM_VIS
100
AcDbSpline
210
0.0
220
0.0
230
1.0
 70
     8
 71
     3
 72
     8
 73
     4
 74
     0
 42
0.0000000001
 43
0.0000000001
 40
0.0
 40
0.0
 40
0.0
 40
0.0
 40
80.0
 40
80.0
 40
80.0
 40
80.0
 10
1642.335382426935
 20
649.8413297079873
 30
0.0
 10
1642.335382426935
 20
649.597241859004
 30
0.0
 10
1642.453374574488
 20
649.4189639077553
 30
0.0
 10
1642.689358869594
 20
649.3064958876807
 30
0.0
  0
SPLINE
  5
C09F
330
1F
100
AcDbEntity
  8
AM_VIS
100
AcDbSpline
210
0.0
220
0.0
230
1.0
 70
     8
 71
     3
 72
     8
 73
     4
 74
     0
 42
0.0000000001
 43
0.0000000001
 40
0.0
 40
0.0
 40
0.0
 40
0.0
 40
80.0
 40
80.0
 40
80.0
 40
80.0
 10
1642.494788243225
 20
650.2264134826405
 30
0.0
 10
1642.388517721323
 20
650.124183285227
 30
0.0
 10
1642.335382426935
 20
649.9958220381554
 30
0.0
 10
1642.335382426935
 20
649.8413297079873
 30
0.0
  0
SPLINE
  5
C0A0
330
1F
100
AcDbEntity
  8
AM_VIS
100
AcDbSpline
210
0.0
220
0.0
230
1.0
 70
     8
 71
     3
 72
     8
 73
     4
 74
     0
 42
0.0000000001
 43
0.0000000001
 40
0.0
 40
0.0
 40
0.0
 40
0.0
 40
80.0
 40
80.0
 40
80.0
 40
80.0
 10
1642.889082664334
 20
650.3797587620415
 30
0.0
 10
1642.732490272266
 20
650.3797587620415
 30
0.0
 10
1642.601058798563
 20
650.3286436466155
 30
0.0
 10
1642.494788243225
 20
650.2264134826405
 30
0.0
  0
SPLINE
  5
C0A1
330
1F
100
AcDbEntity
  8
AM_VIS
100
AcDbSpline
210
0.0
220
0.0
230
1.0
 70
     8
 71
     3
 72
     8
 73
     4
 74
     0
 42
0.0000000001
 43
0.0000000001
 40
0.0
 40
0.0
 40
0.0
 40
0.0
 40
80.0
 40
80.0
 40
80.0
 40
80.0
 10
1643.223268201223
 20
650.2849473120781
 30
0.0
 10
1643.11963418407
 20
650.3481549453868
 30
0.0
 10
1643.008239016253
 20
650.3797587620415
 30
0.0
 10
1642.889082664334
 20
650.3797587620415
 30
0.0
  0
LINE
  5
C0A2
330
1F
100
AcDbEntity
  8
AM_VIS
100
AcDbLine
 10
1645.183252678943
 20
649.1056764026548
 30
0.0
 11
1643.223268201223
 21
650.2849473120781
 31
0.0
  0
SPLINE
  5
C0A3
330
1F
100
AcDbEntity
  8
AM_VIS
100
AcDbSpline
210
0.0
220
0.0
230
1.0
 70
     8
 71
     3
 72
     8
 73
     4
 74
     0
 42
0.0000000001
 43
0.0000000001
 40
0.0
 40
0.0
 40
0.0
 40
0.0
 40
80.0
 40
80.0
 40
80.0
 40
80.0
 10
1643.052580199031
 20
648.1290739556129
 30
0.0
 10
1642.784775243048
 20
648.1290739556129
 30
0.0
 10
1642.59060978267
 20
648.0406996860733
 30
0.0
 10
1642.470083851332
 20
647.8639511469942
 30
0.0
  0
SPLINE
  5
C0A4
330
1F
100
AcDbEntity
  8
AM_VIS
100
AcDbSpline
210
0.0
220
0.0
230
1.0
 70
     8
 71
     3
 72
     8
 73
     4
 74
     0
 42
0.0000000001
 43
0.0000000001
 40
0.0
 40
0.0
 40
0.0
 40
0.0
 40
80.0
 40
80.0
 40
80.0
 40
80.0
 10
1643.62970081627
 20
647.879051128732
 30
0.0
 10
1643.51718715358
 20
648.0457330133199
 30
0.0
 10
1643.324813592208
 20
648.1290739556129
 30
0.0
 10
1643.052580199031
 20
648.1290739556129
 30
0.0
  0
SPLINE
  5
C0A5
330
1F
100
AcDbEntity
  8
AM_VIS
100
AcDbSpline
210
0.0
220
0.0
230
1.0
 70
     8
 71
     3
 72
     8
 73
     4
 74
     0
 42
0.0000000001
 43
0.0000000001
 40
0.0
 40
0.0
 40
0.0
 40
0.0
 40
80.0
 40
80.0
 40
80.0
 40
80.0
 10
1643.767209947022
 20
647.3714726042621
 30
0.0
 10
1643.767209947022
 20
647.5731937399382
 30
0.0
 10
1643.721373592397
 20
647.7423865702826
 30
0.0
 10
1643.62970081627
 20
647.879051128732
 30
0.0
  0
LINE
  5
C0A6
330
1F
100
AcDbEntity
  8
AM_VIS
100
AcDbLine
 10
1643.767209947022
 20
646.6977258000256
 30
0.0
 11
1643.767209947022
 21
647.3714726042621
 31
0.0
  0
LINE
  5
C0A7
330
1F
100
AcDbEntity
  8
AM_VIS
100
AcDbLine
 10
1642.335827551113
 20
646.6977258000256
 30
0.0
 11
1643.767209947022
 21
646.6977258000256
 31
0.0
  0
LINE
  5
C0A8
330
1F
100
AcDbEntity
  8
AM_VIS
100
AcDbLine
 10
1642.335827551113
 20
647.3714726042621
 30
0.0
 11
1642.335827551113
 21
646.6977258000256
 31
0.0
  0
SPLINE
  5
C0A9
330
1F
100
AcDbEntity
  8
AM_VIS
100
AcDbSpline
210
0.0
220
0.0
230
1.0
 70
     8
 71
     3
 72
     8
 73
     4
 74
     0
 42
0.0000000001
 43
0.0000000001
 40
0.0
 40
0.0
 40
0.0
 40
0.0
 40
80.0
 40
80.0
 40
80.0
 40
80.0
 10
1642.470083851332
 20
647.8639511469942
 30
0.0
 10
1642.380579651186
 20
647.7337466069943
 30
0.0
 10
1642.335827551113
 20
647.5695871038965
 30
0.0
 10
1642.335827551113
 20
647.3714726042621
 30
0.0
  0
SPLINE
  5
C0AA
330
1F
100
AcDbEntity
  8
AM_VIS
100
AcDbSpline
210
0.0
220
0.0
230
1.0
 70
     8
 71
     3
 72
     8
 73
     4
 74
     0
 42
0.0000000001
 43
0.0000000001
 40
0.0
 40
0.0
 40
0.0
 40
0.0
 40
80.0
 40
80.0
 40
80.0
 40
80.0
 10
1643.052340516782
 20
648.281237943926
 30
0.0
 10
1643.521547076692
 20
648.2812379104885
 30
0.0
 10
1643.797752313714
 20
648.0756932611089
 30
0.0
 10
1643.880956294722
 20
647.6646039957882
 30
0.0
  0
SPLINE
  5
C0AB
330
1F
100
AcDbEntity
  8
AM_VIS
100
AcDbSpline
210
0.0
220
0.0
230
1.0
 70
     8
 71
     3
 72
     8
 73
     4
 74
     0
 42
0.0000000001
 43
0.0000000001
 40
0.0
 40
0.0
 40
0.0
 40
0.0
 40
80.0
 40
80.0
 40
80.0
 40
80.0
 10
1642.34404522825
 20
647.9495519505003
 30
0.0
 10
1642.495067883661
 20
648.1706759126796
 30
0.0
 10
1642.731166302026
 20
648.2812379104885
 30
0.0
 10
1643.052340516782
 20
648.281237943926
 30
0.0
  0
SPLINE
  5
C0AC
330
1F
100
AcDbEntity
  8
AM_VIS
100
AcDbSpline
210
0.0
220
0.0
230
1.0
 70
     8
 71
     3
 72
     8
 73
     4
 74
     0
 42
0.0000000001
 43
0.0000000001
 40
0.0
 40
0.0
 40
0.0
 40
0.0
 40
80.0
 40
80.0
 40
80.0
 40
80.0
 10
1642.183252678943
 20
647.3714726042621
 30
0.0
 10
1642.183252678943
 20
647.599878352606
 30
0.0
 10
1642.236850217671
 20
647.792571479164
 30
0.0
 10
1642.34404522825
 20
647.9495519505003
 30
0.0
  0
LINE
  5
C0AD
330
1F
100
AcDbEntity
  8
AM_VIS
100
AcDbLine
 10
1642.183252678943
 20
646.5434389117858
 30
0.0
 11
1642.183252678943
 21
647.3714726042621
 31
0.0
  0
LINE
  5
C0AE
330
1F
100
AcDbEntity
  8
AM_VIS
100
AcDbLine
 10
1645.154764731537
 20
646.5434389117858
 30
0.0
 11
1642.183252678943
 21
646.5434389117858
 31
0.0
  0
LINE
  5
C0AF
330
1F
100
AcDbEntity
  8
AM_VIS
100
AcDbLine
 10
1645.154764731537
 20
646.6977258000256
 30
0.0
 11
1645.154764731537
 21
646.5434389117858
 31
0.0
  0
LINE
  5
C0B0
330
1F
100
AcDbEntity
  8
AM_VIS
100
AcDbLine
 10
1643.919339695013
 20
646.6977258000256
 30
0.0
 11
1645.154764731537
 21
646.6977258000256
 31
0.0
  0
LINE
  5
C0B1
330
1F
100
AcDbEntity
  8
AM_VIS
100
AcDbLine
 10
1643.919339695013
 20
647.3714726042621
 30
0.0
 11
1643.919339695013
 21
646.6977258000256
 31
0.0
  0
SPLINE
  5
C0B2
330
1F
100
AcDbEntity
  8
AM_VIS
100
AcDbSpline
210
0.0
220
0.0
230
1.0
 70
     8
 71
     3
 72
     8
 73
     4
 74
     0
 42
0.0000000001
 43
0.0000000001
 40
0.0
 40
0.0
 40
0.0
 40
0.0
 40
80.0
 40
80.0
 40
80.0
 40
80.0
 10
1643.906431093845
 20
647.5285329585354
 30
0.0
 10
1643.915036850249
 20
647.4912110082064
 30
0.0
 10
1643.919339695013
 20
647.4388575567822
 30
0.0
 10
1643.919339695013
 20
647.3714726042621
 30
0.0
  0
LINE
  5
C0B3
330
1F
100
AcDbEntity
  8
AM_VIS
100
AcDbLine
 10
1645.165721634386
 20
648.1535900257372
 30
0.0
 11
1643.906431093845
 21
647.5285329585354
 31
0.0
  0
LINE
  5
C0B4
330
1F
100
AcDbEntity
  8
AM_VIS
100
AcDbLine
 10
1645.121243456884
 20
648.2790808036774
 30
0.0
 11
1645.165721634386
 21
648.1535900257372
 31
0.0
  0
LINE
  5
C0B5
330
1F
100
AcDbEntity
  8
AM_VIS
100
AcDbLine
 10
1643.880956294722
 20
647.6646039957882
 30
0.0
 11
1645.121243456884
 21
648.2790808036774
 31
0.0
  0
LINE
  5
C0B6
330
1F
100
AcDbEntity
  8
AM_VIS
100
AcDbLine
 10
1645.433252678943
 20
645.5319227503792
 30
0.0
 11
1641.933252678943
 21
645.5319227503792
 31
0.0
  0
LINE
  5
C0B7
330
1F
100
AcDbEntity
  8
AM_VIS
100
AcDbLine
 10
1645.433252678943
 20
651.5319227503791
 30
0.0
 11
1645.433252678943
 21
645.5319227503792
 31
0.0
  0
LINE
  5
C0B8
330
1F
100
AcDbEntity
  8
AM_VIS
100
AcDbLine
 10
1641.933252678943
 20
651.5319227503791
 30
0.0
 11
1645.433252678943
 21
651.5319227503791
 31
0.0
  0
LINE
  5
C0B9
330
1F
100
AcDbEntity
  8
AM_VIS
100
AcDbLine
 10
1641.933252678943
 20
645.5319227503792
 30
0.0
 11
1641.933252678943
 21
651.5319227503791
 31
0.0
  0
LINE
  5
C0BA
330
1F
100
AcDbEntity
  8
AM_VIS
100
AcDbLine
 10
1641.933252678943
 20
617.5319227503791
 30
0.0
 11
1645.433252678943
 21
617.5319227503791
 31
0.0
  0
LINE
  5
C0BB
330
1F
100
AcDbEntity
  8
AM_VIS
100
AcDbLine
 10
1641.933252678943
 20
611.5319227503792
 30
0.0
 11
1641.933252678943
 21
617.5319227503791
 31
0.0
  0
LINE
  5
C0BC
330
1F
100
AcDbEntity
  8
AM_VIS
100
AcDbLine
 10
1645.433252678943
 20
611.5319227503792
 30
0.0
 11
1641.933252678943
 21
611.5319227503792
 31
0.0
  0
LINE
  5
C0BD
330
1F
100
AcDbEntity
  8
AM_VIS
100
AcDbLine
 10
1645.433252678943
 20
617.5319227503791
 30
0.0
 11
1645.433252678943
 21
611.5319227503792
 31
0.0
  0
LINE
  5
C0BE
330
1F
100
AcDbEntity
  8
AM_VIS
100
AcDbLine
 10
1618.433252678944
 20
625.5319227503791
 30
0.0
 11
1621.933252678944
 21
625.5319227503791
 31
0.0
  0
LINE
  5
C0BF
330
1F
100
AcDbEntity
  8
AM_VIS
100
AcDbLine
 10
1618.433252678944
 20
619.5319227503792
 30
0.0
 11
1618.433252678944
 21
625.5319227503791
 31
0.0
  0
LINE
  5
C0C0
330
1F
100
AcDbEntity
  8
AM_VIS
100
AcDbLine
 10
1621.933252678944
 20
619.5319227503792
 30
0.0
 11
1618.433252678944
 21
619.5319227503792
 31
0.0
  0
LINE
  5
C0C1
330
1F
100
AcDbEntity
  8
AM_VIS
100
AcDbLine
 10
1621.933252678944
 20
625.5319227503791
 30
0.0
 11
1621.933252678944
 21
619.5319227503792
 31
0.0
  0
LINE
  5
C0C2
330
1F
100
AcDbEntity
  8
AM_VIS
100
AcDbLine
 10
1839.111656759222
 20
608.141463766004
 30
0.0
 11
1837.23564531949
 21
607.5303100271644
 31
0.0
  0
LINE
  5
C0C3
330
1F
100
AcDbEntity
  8
AM_VIS
100
AcDbLine
 10
1839.111656759222
 20
606.9220510985928
 30
0.0
 11
1839.111656759222
 21
608.141463766004
 31
0.0
  0
LINE
  5
C0C4
330
1F
100
AcDbEntity
  8
AM_VIS
100
AcDbLine
 10
1837.23564531949
 20
607.5303100271644
 30
0.0
 11
1839.111656759222
 21
606.9220510985928
 31
0.0
  0
LINE
  5
C0C5
330
1F
100
AcDbEntity
  8
AM_VIS
100
AcDbLine
 10
1840.017627741366
 20
608.5765921142178
 30
0.0
 11
1840.04570391324
 21
608.4391409423428
 31
0.0
  0
LINE
  5
C0C6
330
1F
100
AcDbEntity
  8
AM_VIS
100
AcDbLine
 10
1837.04570391324
 20
607.598285752611
 30
0.0
 11
1840.017627741366
 21
608.5765921142178
 31
0.0
  0
LINE
  5
C0C7
330
1F
100
AcDbEntity
  8
AM_VIS
100
AcDbLine
 10
1840.018011390919
 20
606.4869227503791
 30
0.0
 11
1837.04570391324
 21
607.4643920584144
 31
0.0
  0
LINE
  5
C0C8
330
1F
100
AcDbEntity
  8
AM_VIS
100
AcDbLine
 10
1840.04570391324
 20
606.623432236986
 30
0.0
 11
1840.018011390919
 21
606.4869227503791
 31
0.0
  0
LINE
  5
C0C9
330
1F
100
AcDbEntity
  8
AM_VIS
100
AcDbLine
 10
1839.264384158776
 20
606.8893362548428
 30
0.0
 11
1840.04570391324
 21
606.623432236986
 31
0.0
  0
LINE
  5
C0CA
330
1F
100
AcDbEntity
  8
AM_VIS
100
AcDbLine
 10
1839.264384158776
 20
608.1733415561825
 30
0.0
 11
1839.264384158776
 21
606.8893362548428
 31
0.0
  0
LINE
  5
C0CB
330
1F
100
AcDbEntity
  8
AM_VIS
100
AcDbLine
 10
1840.04570391324
 20
608.4391409423428
 30
0.0
 11
1839.264384158776
 21
608.1733415561825
 31
0.0
  0
SPLINE
  5
C0CC
330
1F
100
AcDbEntity
  8
AM_VIS
100
AcDbSpline
210
0.0
220
0.0
230
1.0
 70
     8
 71
     3
 72
     8
 73
     4
 74
     0
 42
0.0000000001
 43
0.0000000001
 40
0.0
 40
0.0
 40
0.0
 40
0.0
 40
80.0
 40
80.0
 40
80.0
 40
80.0
 10
1814.410854114116
 20
654.816287706551
 30
0.0
 10
1814.814090943541
 20
654.816287706551
 30
0.0
 10
1815.053008503993
 20
655.0326522974933
 30
0.0
 10
1815.127606762034
 20
655.4653814793778
 30
0.0
  0
SPLINE
  5
C0CD
330
1F
100
AcDbEntity
  8
AM_VIS
100
AcDbSpline
210
0.0
220
0.0
230
1.0
 70
     8
 71
     3
 72
     8
 73
     4
 74
     0
 42
0.0000000001
 43
0.0000000001
 40
0.0
 40
0.0
 40
0.0
 40
0.0
 40
80.0
 40
80.0
 40
80.0
 40
80.0
 10
1813.809696791253
 20
655.1323943537386
 30
0.0
 10
1813.935883777916
 20
654.9216566112386
 30
0.0
 10
1814.136269541058
 20
654.816287706551
 30
0.0
 10
1814.410854114116
 20
654.816287706551
 30
0.0
  0
SPLINE
  5
C0CE
330
1F
100
AcDbEntity
  8
AM_VIS
100
AcDbSpline
210
0.0
220
0.0
230
1.0
 70
     8
 71
     3
 72
     8
 73
     4
 74
     0
 42
0.0000000001
 43
0.0000000001
 40
0.0
 40
0.0
 40
0.0
 40
0.0
 40
80.0
 40
80.0
 40
80.0
 40
80.0
 10
1813.69194432595
 20
655.5351974947175
 30
0.0
 10
1813.69194432595
 20
655.3979622865368
 30
0.0
 10
1813.731195136572
 20
655.2636945840227
 30
0.0
 10
1813.809696791253
 20
655.1323943537386
 30
0.0
  0
LINE
  5
C0CF
330
1F
100
AcDbEntity
  8
AM_VIS
100
AcDbLine
 10
1813.69194432595
 20
656.2476358621393
 30
0.0
 11
1813.69194432595
 21
655.5351974947175
 31
0.0
  0
LINE
  5
C0D0
330
1F
100
AcDbEntity
  8
AM_VIS
100
AcDbLine
 10
1815.127606762034
 20
656.2476358621393
 30
0.0
 11
1813.69194432595
 21
656.2476358621393
 31
0.0
  0
LINE
  5
C0D1
330
1F
100
AcDbEntity
  8
AM_VIS
100
AcDbLine
 10
1815.127606762034
 20
655.4653814793778
 30
0.0
 11
1815.127606762034
 21
656.2476358621393
 31
0.0
  0
SPLINE
  5
C0D2
330
1F
100
AcDbEntity
  8
AM_VIS
100
AcDbSpline
210
0.0
220
0.0
230
1.0
 70
     8
 71
     3
 72
     8
 73
     4
 74
     0
 42
0.0000000001
 43
0.0000000001
 40
0.0
 40
0.0
 40
0.0
 40
0.0
 40
80.0
 40
80.0
 40
80.0
 40
80.0
 10
1815.835354205424
 20
654.9559539775523
 30
0.0
 10
1816.055975998515
 20
654.9559540109899
 30
0.0
 10
1816.212214585074
 20
655.0333827799754
 30
0.0
 10
1816.304069965102
 20
655.1882403179465
 30
0.0
  0
SPLINE
  5
C0D3
330
1F
100
AcDbEntity
  8
AM_VIS
100
AcDbSpline
210
0.0
220
0.0
230
1.0
 70
     8
 71
     3
 72
     8
 73
     4
 74
     0
 42
0.0000000001
 43
0.0000000001
 40
0.0
 40
0.0
 40
0.0
 40
0.0
 40
80.0
 40
80.0
 40
80.0
 40
80.0
 10
1815.400056999434
 20
655.1110283931834
 30
0.0
 10
1815.503029048186
 20
655.0076454605755
 30
0.0
 10
1815.648128094558
 20
654.9559540109899
 30
0.0
 10
1815.835354205424
 20
654.9559539775523
 30
0.0
  0
SPLINE
  5
C0D4
330
1F
100
AcDbEntity
  8
AM_VIS
100
AcDbSpline
210
0.0
220
0.0
230
1.0
 70
     8
 71
     3
 72
     8
 73
     4
 74
     0
 42
0.0000000001
 43
0.0000000001
 40
0.0
 40
0.0
 40
0.0
 40
0.0
 40
80.0
 40
80.0
 40
80.0
 40
80.0
 10
1815.277579369777
 20
655.4556914684212
 30
0.0
 10
1815.277579336339
 20
655.380842125835
 30
0.0
 10
1815.318405235184
 20
655.2659544452358
 30
0.0
 10
1815.400056999434
 20
655.1110283931834
 30
0.0
  0
LINE
  5
C0D5
330
1F
100
AcDbEntity
  8
AM_VIS
100
AcDbLine
 10
1815.277579369777
 20
656.2476358621393
 30
0.0
 11
1815.277579369777
 21
655.4556914684212
 31
0.0
  0
LINE
  5
C0D6
330
1F
100
AcDbEntity
  8
AM_VIS
100
AcDbLine
 10
1816.393129041071
 20
656.2476358621393
 30
0.0
 11
1815.277579369777
 21
656.2476358621393
 31
0.0
  0
LINE
  5
C0D7
330
1F
100
AcDbEntity
  8
AM_VIS
100
AcDbLine
 10
1816.393129041071
 20
655.5351974947175
 30
0.0
 11
1816.393129041071
 21
656.2476358621393
 31
0.0
  0
SPLINE
  5
C0D8
330
1F
100
AcDbEntity
  8
AM_VIS
100
AcDbSpline
210
0.0
220
0.0
230
1.0
 70
     8
 71
     3
 72
     8
 73
     4
 74
     0
 42
0.0000000001
 43
0.0000000001
 40
0.0
 40
0.0
 40
0.0
 40
0.0
 40
80.0
 40
80.0
 40
80.0
 40
80.0
 10
1816.304069965102
 20
655.1882403179465
 30
0.0
 10
1816.363442682414
 20
655.2880850951565
 30
0.0
 10
1816.393129041071
 20
655.4037374985596
 30
0.0
 10
1816.393129041071
 20
655.5351974947175
 30
0.0
  0
SPLINE
  5
C0D9
330
1F
100
AcDbEntity
  8
AM_VIS
100
AcDbSpline
210
0.0
220
0.0
230
1.0
 70
     8
 71
     3
 72
     8
 73
     4
 74
     0
 42
0.0000000001
 43
0.0000000001
 40
0.0
 40
0.0
 40
0.0
 40
0.0
 40
80.0
 40
80.0
 40
80.0
 40
80.0
 10
1814.410580191545
 20
654.6641237182389
 30
0.0
 10
1814.077307707602
 20
654.6641237516764
 30
0.0
 10
1813.834543828858
 20
654.794259777595
 30
0.0
 10
1813.682288555314
 20
655.0545318628697
 30
0.0
  0
SPLINE
  5
C0DA
330
1F
100
AcDbEntity
  8
AM_VIS
100
AcDbSpline
210
0.0
220
0.0
230
1.0
 70
     8
 71
     3
 72
     8
 73
     4
 74
     0
 42
0.0000000001
 43
0.0000000001
 40
0.0
 40
0.0
 40
0.0
 40
0.0
 40
80.0
 40
80.0
 40
80.0
 40
80.0
 10
1815.213618449398
 20
655.2635690250322
 30
0.0
 10
1815.129022017506
 20
654.8639388316492
 30
0.0
 10
1814.861342587077
 20
654.6641237516764
 30
0.0
 10
1814.410580191545
 20
654.6641237182389
 30
0.0
  0
SPLINE
  5
C0DB
330
1F
100
AcDbEntity
  8
AM_VIS
100
AcDbSpline
210
0.0
220
0.0
230
1.0
 70
     8
 71
     3
 72
     8
 73
     4
 74
     0
 42
0.0000000001
 43
0.0000000001
 40
0.0
 40
0.0
 40
0.0
 40
0.0
 40
80.0
 40
80.0
 40
80.0
 40
80.0
 10
1815.835593887674
 20
654.8016328489907
 30
0.0
 10
1815.510493438251
 20
654.8016328489907
 30
0.0
 10
1815.30316829216
 20
654.9556115743375
 30
0.0
 10
1815.213618449398
 20
655.2635690250322
 30
0.0
  0
SPLINE
  5
C0DC
330
1F
100
AcDbEntity
  8
AM_VIS
100
AcDbSpline
210
0.0
220
0.0
230
1.0
 70
     8
 71
     3
 72
     8
 73
     4
 74
     0
 42
0.0000000001
 43
0.0000000001
 40
0.0
 40
0.0
 40
0.0
 40
0.0
 40
80.0
 40
80.0
 40
80.0
 40
80.0
 10
1816.436374567002
 20
655.10825492715
 30
0.0
 10
1816.315551875067
 20
654.9038402083774
 30
0.0
 10
1816.115291637478
 20
654.8016328489907
 30
0.0
 10
1815.835593887674
 20
654.8016328489907
 30
0.0
  0
SPLINE
  5
C0DD
330
1F
100
AcDbEntity
  8
AM_VIS
100
AcDbSpline
210
0.0
220
0.0
230
1.0
 70
     8
 71
     3
 72
     8
 73
     4
 74
     0
 42
0.0000000001
 43
0.0000000001
 40
0.0
 40
0.0
 40
0.0
 40
0.0
 40
80.0
 40
80.0
 40
80.0
 40
80.0
 10
1816.54570391324
 20
655.5351974947175
 30
0.0
 10
1816.54570391324
 20
655.373537535082
 30
0.0
 10
1816.509260775536
 20
655.2312233570387
 30
0.0
 10
1816.436374567002
 20
655.10825492715
 30
0.0
  0
LINE
  5
C0DE
330
1F
100
AcDbEntity
  8
AM_VIS
100
AcDbLine
 10
1816.54570391324
 20
656.401922750379
 30
0.0
 11
1816.54570391324
 21
655.5351974947175
 31
0.0
  0
LINE
  5
C0DF
330
1F
100
AcDbEntity
  8
AM_VIS
100
AcDbLine
 10
1813.54570391324
 20
656.401922750379
 30
0.0
 11
1816.54570391324
 21
656.401922750379
 31
0.0
  0
LINE
  5
C0E0
330
1F
100
AcDbEntity
  8
AM_VIS
100
AcDbLine
 10
1813.54570391324
 20
655.5351974947175
 30
0.0
 11
1813.54570391324
 21
656.401922750379
 31
0.0
  0
SPLINE
  5
C0E1
330
1F
100
AcDbEntity
  8
AM_VIS
100
AcDbSpline
210
0.0
220
0.0
230
1.0
 70
     8
 71
     3
 72
     8
 73
     4
 74
     0
 42
0.0000000001
 43
0.0000000001
 40
0.0
 40
0.0
 40
0.0
 40
0.0
 40
80.0
 40
80.0
 40
80.0
 40
80.0
 10
1813.682288555314
 20
655.0545318628697
 30
0.0
 10
1813.591232104973
 20
655.2082481013781
 30
0.0
 10
1813.54570391324
 20
655.3684699675145
 30
0.0
 10
1813.54570391324
 20
655.5351974947175
 30
0.0
  0
LINE
  5
C0E2
330
1F
100
AcDbEntity
  8
AM_VIS
100
AcDbLine
 10
1840.29570391324
 20
604.5319227503791
 30
0.0
 11
1836.79570391324
 21
604.5319227503791
 31
0.0
  0
LINE
  5
C0E3
330
1F
100
AcDbEntity
  8
AM_VIS
100
AcDbLine
 10
1840.29570391324
 20
610.5319227503791
 30
0.0
 11
1840.29570391324
 21
604.5319227503791
 31
0.0
  0
LINE
  5
C0E4
330
1F
100
AcDbEntity
  8
AM_VIS
100
AcDbLine
 10
1836.79570391324
 20
610.5319227503791
 30
0.0
 11
1840.29570391324
 21
610.5319227503791
 31
0.0
  0
LINE
  5
C0E5
330
1F
100
AcDbEntity
  8
AM_VIS
100
AcDbLine
 10
1813.29570391324
 20
658.5319227503791
 30
0.0
 11
1816.79570391324
 21
658.5319227503791
 31
0.0
  0
LINE
  5
C0E6
330
1F
100
AcDbEntity
  8
AM_VIS
100
AcDbLine
 10
1813.29570391324
 20
652.5319227503792
 30
0.0
 11
1813.29570391324
 21
658.5319227503791
 31
0.0
  0
LINE
  5
C0E7
330
1F
100
AcDbEntity
  8
AM_VIS
100
AcDbLine
 10
1816.79570391324
 20
652.5319227503792
 30
0.0
 11
1813.29570391324
 21
652.5319227503792
 31
0.0
  0
LINE
  5
C0E8
330
1F
100
AcDbEntity
  8
AM_VIS
100
AcDbLine
 10
1816.79570391324
 20
658.5319227503791
 30
0.0
 11
1816.79570391324
 21
652.5319227503792
 31
0.0
  0
LINE
  5
C0E9
330
1F
100
AcDbEntity
  8
AM_VIS
100
AcDbLine
 10
1836.79570391324
 20
610.5319227503791
 30
0.0
 11
1836.79570391324
 21
604.5319227503791
 31
0.0
  0
ENDSEC
  0
SECTION
  2
OBJECTS
  0
DICTIONARY
  5
C
330
0
100
AcDbDictionary
281
     1
  3
ACAD_COLOR
350
BE
  3
ACAD_GROUP
350
D
  3
ACAD_LAYOUT
350
1A
  3
ACAD_MATERIAL
350
BD
  3
ACAD_MLINESTYLE
350
17
  3
ACAD_PLOTSETTINGS
350
19
  3
ACAD_PLOTSTYLENAME
350
E
  3
ACAD_TABLESTYLE
350
11A
  3
ACDBHEADERROUNDTRIPXREC
350
C0F7
  3
AcDbVariableDictionary
350
94
  3
AcmDictionary
350
5B
  3
AMG
350
41
  3
AMGSNAPSETTINGS
350
1B8
  3
DWGPROPS
350
C0F6
  0
DICTIONARY
  5
3F9
330
2
100
AcDbDictionary
280
     1
281
     1
  3
ACAD_LAYERFILTERS
360
98B1
  3
ACAD_LAYERSTATES
360
A94
  3
ACLYDICTIONARY
360
98B0
  3
AMLAYER_GROUPCOLORS
360
948F
  0
DICTIONARY
  5
8F
330
1F
100
AcDbDictionary
280
     1
281
     1
  3
ACAD_SORTENTS
360
8A9B
  0
DICTIONARY
  5
BE
102
{ACAD_REACTORS
330
C
102
}
330
C
100
AcDbDictionary
281
     1
  0
DICTIONARY
  5
D
102
{ACAD_REACTORS
330
C
102
}
330
C
100
AcDbDictionary
281
     1
  0
DICTIONARY
  5
1A
102
{ACAD_REACTORS
330
C
102
}
330
C
100
AcDbDictionary
281
     1
  3
Model
350
22
  3
配置1
350
1E
  3
配置2
350
26
  0
DICTIONARY
  5
BD
102
{ACAD_REACTORS
330
C
102
}
330
C
100
AcDbDictionary
281
     1
  0
DICTIONARY
  5
17
102
{ACAD_REACTORS
330
C
102
}
330
C
100
AcDbDictionary
281
     1
  3
Standard
350
18
  0
DICTIONARY
  5
19
102
{ACAD_REACTORS
330
C
102
}
330
C
100
AcDbDictionary
281
     1
  0
ACDBDICTIONARYWDFLT
  5
E
102
{ACAD_REACTORS
330
C
102
}
330
C
100
AcDbDictionary
281
     1
  3
Normal
350
F
100
AcDbDictionaryWithDefault
340
F
  0
DICTIONARY
  5
11A
102
{ACAD_REACTORS
330
C
102
}
330
C
100
AcDbDictionary
281
     1
  3
Standard
350
11B
  0
DICTIONARY
  5
C0F7
102
{ACAD_REACTORS
330
C
102
}
330
C
100
AcDbDictionary
281
     1
  0
DICTIONARY
  5
94
102
{ACAD_REACTORS
330
C
102
}
330
C
100
AcDbDictionary
281
     1
  3
CTABLESTYLE
350
138
  3
DIMASSOC
350
96
  3
INDEXCTL
350
95
  3
PROJECTNAME
350
BE08
  0
DICTIONARY
  5
5B
102
{ACAD_REACTORS
330
C
102
}
330
C
100
AcDbDictionary
281
     1
  3
AcmBOM
350
1B5
  3
AcmStdDictionary
350
61
  3
AMDTSECTSYM_ARROWCOLOR
350
123
  0
DICTIONARY
  5
41
102
{ACAD_REACTORS
330
C
102
}
330
C
100
AcDbDictionary
281
     1
  0
DICTIONARY
  5
1B8
102
{ACAD_REACTORS
330
C
102
}
330
C
100
AcDbDictionary
281
     1
  0
XRECORD
  5
C0F6
102
{ACAD_REACTORS
330
C
102
}
330
C
100
AcDbXrecord
280
     1
  1
DWGPROPS COOKIE
  2

  3

  4

  6

  7

  8

  9

300
AmdtFileType=84
301
=
302
=
303
=
304
=
305
=
306
=
307
=
308
=
309
=
 40
0.5967535648148149
 41
2454098.708838426
 42
2454789.581803762
  1

 90
        1
  0
DICTIONARY
  5
98B1
102
{ACAD_REACTORS
330
3F9
102
}
330
3F9
100
AcDbDictionary
281
     1
  0
DICTIONARY
  5
A94
102
{ACAD_REACTORS
330
3F9
102
}
330
3F9
100
AcDbDictionary
281
     1
  0
DICTIONARY
  5
98B0
102
{ACAD_REACTORS
330
3F9
102
}
330
3F9
100
AcDbDictionary
281
     1
1001
ACAD
1000
<All
  0
DICTIONARY
  5
948F
102
{ACAD_REACTORS
330
3F9
102
}
330
3F9
100
AcDbDictionary
280
     1
281
     1
  0
SORTENTSTABLE
  5
8A9B
102
{ACAD_REACTORS
330
8F
102
}
330
8F
100
AcDbSortentsTable
330
1F
  0
LAYOUT
  5
22
102
{ACAD_XDICTIONARY
360
C0FA
102
}
102
{ACAD_REACTORS
330
1A
102
}
330
1A
100
AcDbPlotSettings
  1

  2
\\RD\EPSON Stylus C63 Series單色
  4
A4
  6

 40
3.757083177566528
 41
3.757076978683471
 42
3.757080078125
 43
3.757080078125
 44
209.9733276367187
 45
296.9683227539062
 46
0.0
 47
0.0
 48
0.0
 49
0.0
140
0.0
141
0.0
142
1.0
143
0.3405120737814363
 70
 11952
 72
     1
 73
     0
 74
     0
  7
彩色出圖.ctb
 75
     0
147
2.936753428137963
148
-2047.07469463503
149
-1261.649717473083
100
AcDbLayout
  1
Model
 70
     1
 71
     0
 10
0.0
 20
0.0
 11
12.0
 21
9.0
 12
0.0
 22
0.0
 32
0.0
 14
0.0
 24
0.0
 34
0.0
 15
0.0
 25
0.0
 35
0.0
146
0.0
 13
0.0
 23
0.0
 33
0.0
 16
1.0
 26
0.0
 36
0.0
 17
0.0
 27
1.0
 37
0.0
 76
     0
330
1F
1001
ACAD_PSEXT
1000
\\RD\EPSON Stylus C63 Series單色
1000
EPSON Stylus C63 Series
1000
\\RD
1000

1070
     0
  0
LAYOUT
  5
1E
102
{ACAD_XDICTIONARY
360
C0F8
102
}
102
{ACAD_REACTORS
330
1A
102
}
330
1A
100
AcDbPlotSettings
  1

  2

  4

  6

 40
0.0
 41
0.0
 42
0.0
 43
0.0
 44
0.0
 45
0.0
 46
0.0
 47
0.0
 48
0.0
 49
0.0
140
0.0
141
0.0
142
1.0
143
1.0
 70
   688
 72
     0
 73
     0
 74
     5
  7
彩色出圖.ctb
 75
    16
147
1.0
148
0.0
149
0.0
100
AcDbLayout
  1
配置1
 70
     1
 71
     1
 10
0.0
 20
0.0
 11
420.0
 21
297.0
 12
0.0
 22
0.0
 32
0.0
 14
1.000000000000000E+20
 24
1.000000000000000E+20
 34
1.000000000000000E+20
 15
-1.000000000000000E+20
 25
-1.000000000000000E+20
 35
-1.000000000000000E+20
146
0.0
 13
0.0
 23
0.0
 33
0.0
 16
1.0
 26
0.0
 36
0.0
 17
0.0
 27
1.0
 37
0.0
 76
     0
330
1B
  0
LAYOUT
  5
26
102
{ACAD_XDICTIONARY
360
C0FC
102
}
102
{ACAD_REACTORS
330
1A
102
}
330
1A
100
AcDbPlotSettings
  1

  2

  4

  6

 40
0.0
 41
0.0
 42
0.0
 43
0.0
 44
0.0
 45
0.0
 46
0.0
 47
0.0
 48
0.0
 49
0.0
140
0.0
141
0.0
142
1.0
143
1.0
 70
   688
 72
     0
 73
     0
 74
     5
  7
彩色出圖.ctb
 75
    16
147
1.0
148
0.0
149
0.0
100
AcDbLayout
  1
配置2
 70
     1
 71
     2
 10
0.0
 20
0.0
 11
12.0
 21
9.0
 12
0.0
 22
0.0
 32
0.0
 14
0.0
 24
0.0
 34
0.0
 15
0.0
 25
0.0
 35
0.0
146
0.0
 13
0.0
 23
0.0
 33
0.0
 16
1.0
 26
0.0
 36
0.0
 17
0.0
 27
1.0
 37
0.0
 76
     0
330
23
  0
MLINESTYLE
  5
18
102
{ACAD_REACTORS
330
17
102
}
330
17
100
AcDbMlineStyle
  2
STANDARD
 70
     0
  3

 62
   256
 51
90.0
 52
90.0
 71
     2
 49
0.5
 62
   256
  6
BYLAYER
 49
-0.5
 62
   256
  6
BYLAYER
  0
ACDBPLACEHOLDER
  5
F
102
{ACAD_REACTORS
330
E
102
}
330
E
  0
TABLESTYLE
  5
11B
102
{ACAD_REACTORS
330
11A
102
}
330
11A
100
AcDbTableStyle
  3
Standard
 70
     0
 71
     0
 40
1.5
 41
1.5
280
     0
281
     0
  7
STANDARD
140
4.5
170
     2
 62
     0
 63
     7
283
     0
274
    -2
284
     1
 64
     0
275
    -2
285
     1
 65
     0
276
    -2
286
     1
 66
     0
277
    -2
287
     1
 67
     0
278
    -2
288
     1
 68
     0
279
    -2
289
     1
 69
     0
  7
STANDARD
140
6.0
170
     5
 62
     0
 63
     7
283
     0
274
    -2
284
     1
 64
     0
275
    -2
285
     1
 65
     0
276
    -2
286
     1
 66
     0
277
    -2
287
     1
 67
     0
278
    -2
288
     1
 68
     0
279
    -2
289
     1
 69
     0
  7
STANDARD
140
4.5
170
     5
 62
     0
 63
     7
283
     0
274
    -2
284
     1
 64
     0
275
    -2
285
     1
 65
     0
276
    -2
286
     1
 66
     0
277
    -2
287
     1
 67
     0
278
    -2
288
     1
 68
     0
279
    -2
289
     1
 69
     0
  0
DICTIONARYVAR
  5
138
102
{ACAD_REACTORS
330
94
102
}
330
94
100
DictionaryVariables
280
     0
  1
STANDARD
  0
DICTIONARYVAR
  5
96
102
{ACAD_REACTORS
330
94
102
}
330
94
100
DictionaryVariables
280
     0
  1
2
  0
DICTIONARYVAR
  5
95
102
{ACAD_REACTORS
330
94
102
}
330
94
100
DictionaryVariables
280
     0
  1
0
  0
DICTIONARYVAR
  5
BE08
102
{ACAD_REACTORS
330
94
102
}
330
94
100
DictionaryVariables
280
     0
  1

  0
DICTIONARY
  5
1B5
102
{ACAD_REACTORS
330
5B
102
}
330
5B
100
AcDbDictionary
281
     1
  0
DICTIONARY
  5
61
102
{ACAD_REACTORS
330
5B
102
}
330
5B
100
AcDbDictionary
281
     1
  0
XRECORD
  5
123
102
{ACAD_REACTORS
330
5B
102
}
330
5B
100
AcDbXrecord
280
     1
 90
-1023410169
  0
DICTIONARY
  5
C0FA
330
22
100
AcDbDictionary
280
     1
281
     1
  3
ACAD_XREC_ROUNDTRIP
360
C0FB
  0
DICTIONARY
  5
C0F8
330
1E
100
AcDbDictionary
280
     1
281
     1
  3
ACAD_XREC_ROUNDTRIP
360
C0F9
  0
DICTIONARY
  5
C0FC
330
26
100
AcDbDictionary
280
     1
281
     1
  3
ACAD_XREC_ROUNDTRIP
360
C0FD
  0
XRECORD
  5
C0FB
102
{ACAD_REACTORS
330
C0FA
102
}
330
C0FA
100
AcDbXrecord
280
     1
102
SHADEPLOT
 70
     0
102
SHADEPLOTRESLEVEL
 70
     2
102
SHADEPLOTCUSTOMDPI
 70
   300
  0
XRECORD
  5
C0F9
102
{ACAD_REACTORS
330
C0F8
102
}
330
C0F8
100
AcDbXrecord
280
     1
102
SHADEPLOT
 70
     0
102
SHADEPLOTRESLEVEL
 70
     2
102
SHADEPLOTCUSTOMDPI
 70
   300
  0
XRECORD
  5
C0FD
102
{ACAD_REACTORS
330
C0FC
102
}
330
C0FC
100
AcDbXrecord
280
     1
102
SHADEPLOT
 70
     0
102
SHADEPLOTRESLEVEL
 70
     2
102
SHADEPLOTCUSTOMDPI
 70
   300
  0
ENDSEC
  0
EOF
