  0
SECTION
  2
HEADER
  9
$ACADVER
  1
AC1015
  9
$ACADMAINTVER
 70
    20
  9
$DWGCODEPAGE
  3
ANSI_950
  9
$INSBASE
 10
0.0
 20
0.0
 30
0.0
  9
$EXTMIN
 10
1281.877009625941
 20
528.5070349172019
 30
-0.0055980169192367
  9
$EXTMAX
 10
1551.623819401976
 20
746.9677188496166
 30
157.2720718644015
  9
$LIMMIN
 10
0.0
 20
0.0
  9
$LIMMAX
 10
420.0
 20
297.0
  9
$ORTHOMODE
 70
     1
  9
$REGENMODE
 70
     1
  9
$FILLMODE
 70
     1
  9
$QTEXTMODE
 70
     0
  9
$MIRRTEXT
 70
     1
  9
$LTSCALE
 40
1.0
  9
$ATTMODE
 70
     1
  9
$TEXTSIZE
 40
3.0
  9
$TRACEWID
 40
1.0
  9
$TEXTSTYLE
  7
STANDARD
  9
$CLAYER
  8
0
  9
$CELTYPE
  6
ByLayer
  9
$CECOLOR
 62
   256
  9
$CELTSCALE
 40
1.0
  9
$DISPSILH
 70
     0
  9
$DIMSCALE
 40
1.0
  9
$DIMASZ
 40
3.0
  9
$DIMEXO
 40
1.0
  9
$DIMDLI
 40
10.0
  9
$DIMRND
 40
0.0
  9
$DIMDLE
 40
0.0
  9
$DIMEXE
 40
1.5
  9
$DIMTP
 40
0.1
  9
$DIMTM
 40
0.1
  9
$DIMTXT
 40
3.5
  9
$DIMCEN
 40
0.0
  9
$DIMTSZ
 40
0.0
  9
$DIMTOL
 70
     0
  9
$DIMLIM
 70
     0
  9
$DIMTIH
 70
     0
  9
$DIMTOH
 70
     0
  9
$DIMSE1
 70
     0
  9
$DIMSE2
 70
     0
  9
$DIMTAD
 70
     1
  9
$DIMZIN
 70
     8
  9
$DIMBLK
  1

  9
$DIMASO
 70
     1
  9
$DIMSHO
 70
     1
  9
$DIMPOST
  1

  9
$DIMAPOST
  1
"
  9
$DIMALT
 70
     0
  9
$DIMALTD
 70
     2
  9
$DIMALTF
 40
0.0393701
  9
$DIMLFAC
 40
1.0
  9
$DIMTOFL
 70
     1
  9
$DIMTVP
 40
0.0
  9
$DIMTIX
 70
     0
  9
$DIMSOXD
 70
     0
  9
$DIMSAH
 70
     0
  9
$DIMBLK1
  1

  9
$DIMBLK2
  1

  9
$DIMSTYLE
  2
AM_ISO
  9
$DIMCLRD
 70
   256
  9
$DIMCLRE
 70
   256
  9
$DIMCLRT
 70
   256
  9
$DIMTFAC
 40
0.6
  9
$DIMGAP
 40
0.7
  9
$DIMJUST
 70
     0
  9
$DIMSD1
 70
     0
  9
$DIMSD2
 70
     0
  9
$DIMTOLJ
 70
     0
  9
$DIMTZIN
 70
     8
  9
$DIMALTZ
 70
     0
  9
$DIMALTTZ
 70
     0
  9
$DIMUPT
 70
     0
  9
$DIMDEC
 70
     2
  9
$DIMTDEC
 70
     8
  9
$DIMALTU
 70
     2
  9
$DIMALTTD
 70
     2
  9
$DIMTXSTY
  7
STANDARD
  9
$DIMAUNIT
 70
     0
  9
$DIMADEC
 70
     0
  9
$DIMALTRND
 40
0.0
  9
$DIMAZIN
 70
     2
  9
$DIMDSEP
 70
    46
  9
$DIMATFIT
 70
     3
  9
$DIMFRAC
 70
     0
  9
$DIMLDRBLK
  1

  9
$DIMLUNIT
 70
     2
  9
$DIMLWD
 70
    -1
  9
$DIMLWE
 70
    -1
  9
$DIMTMOVE
 70
     0
  9
$LUNITS
 70
     2
  9
$LUPREC
 70
     2
  9
$SKETCHINC
 40
1.0
  9
$FILLETRAD
 40
1.0
  9
$AUNITS
 70
     0
  9
$AUPREC
 70
     0
  9
$MENU
  1
.
  9
$ELEVATION
 40
0.0
  9
$PELEVATION
 40
0.0
  9
$THICKNESS
 40
0.0
  9
$LIMCHECK
 70
     0
  9
$CHAMFERA
 40
2.5
  9
$CHAMFERB
 40
2.5
  9
$CHAMFERC
 40
20.0
  9
$CHAMFERD
 40
0.0
  9
$SKPOLY
 70
     0
  9
$TDCREATE
 40
2454098.708838426
  9
$TDUCREATE
 40
2454098.375505093
  9
$TDUPDATE
 40
2454789.573353241
  9
$TDUUPDATE
 40
2454789.240019907
  9
$TDINDWG
 40
0.5790595023
  9
$TDUSRTIMER
 40
0.5790595023
  9
$USRTIMER
 70
     1
  9
$ANGBASE
 50
0.0
  9
$ANGDIR
 70
     0
  9
$PDMODE
 70
     0
  9
$PDSIZE
 40
0.0
  9
$PLINEWID
 40
0.0
  9
$SPLFRAME
 70
     0
  9
$SPLINETYPE
 70
     6
  9
$SPLINESEGS
 70
     8
  9
$HANDSEED
  5
B1EB
  9
$SURFTAB1
 70
     6
  9
$SURFTAB2
 70
     6
  9
$SURFTYPE
 70
     6
  9
$SURFU
 70
     6
  9
$SURFV
 70
     6
  9
$UCSBASE
  2

  9
$UCSNAME
  2

  9
$UCSORG
 10
0.0
 20
0.0
 30
0.0
  9
$UCSXDIR
 10
1.0
 20
0.0
 30
0.0
  9
$UCSYDIR
 10
0.0
 20
1.0
 30
0.0
  9
$UCSORTHOREF
  2

  9
$UCSORTHOVIEW
 70
     0
  9
$UCSORGTOP
 10
0.0
 20
0.0
 30
0.0
  9
$UCSORGBOTTOM
 10
0.0
 20
0.0
 30
0.0
  9
$UCSORGLEFT
 10
0.0
 20
0.0
 30
0.0
  9
$UCSORGRIGHT
 10
0.0
 20
0.0
 30
0.0
  9
$UCSORGFRONT
 10
0.0
 20
0.0
 30
0.0
  9
$UCSORGBACK
 10
0.0
 20
0.0
 30
0.0
  9
$PUCSBASE
  2

  9
$PUCSNAME
  2

  9
$PUCSORG
 10
0.0
 20
0.0
 30
0.0
  9
$PUCSXDIR
 10
1.0
 20
0.0
 30
0.0
  9
$PUCSYDIR
 10
0.0
 20
1.0
 30
0.0
  9
$PUCSORTHOREF
  2

  9
$PUCSORTHOVIEW
 70
     0
  9
$PUCSORGTOP
 10
0.0
 20
0.0
 30
0.0
  9
$PUCSORGBOTTOM
 10
0.0
 20
0.0
 30
0.0
  9
$PUCSORGLEFT
 10
0.0
 20
0.0
 30
0.0
  9
$PUCSORGRIGHT
 10
0.0
 20
0.0
 30
0.0
  9
$PUCSORGFRONT
 10
0.0
 20
0.0
 30
0.0
  9
$PUCSORGBACK
 10
0.0
 20
0.0
 30
0.0
  9
$USERI1
 70
     0
  9
$USERI2
 70
     0
  9
$USERI3
 70
     0
  9
$USERI4
 70
     0
  9
$USERI5
 70
     0
  9
$USERR1
 40
0.0
  9
$USERR2
 40
0.0
  9
$USERR3
 40
0.0
  9
$USERR4
 40
0.0
  9
$USERR5
 40
0.0
  9
$WORLDVIEW
 70
     1
  9
$SHADEDGE
 70
     3
  9
$SHADEDIF
 70
    70
  9
$TILEMODE
 70
     1
  9
$MAXACTVP
 70
    64
  9
$PINSBASE
 10
0.0
 20
0.0
 30
0.0
  9
$PLIMCHECK
 70
     0
  9
$PEXTMIN
 10
1.000000000000000E+20
 20
1.000000000000000E+20
 30
1.000000000000000E+20
  9
$PEXTMAX
 10
-1.000000000000000E+20
 20
-1.000000000000000E+20
 30
-1.000000000000000E+20
  9
$PLIMMIN
 10
0.0
 20
0.0
  9
$PLIMMAX
 10
420.0
 20
297.0
  9
$UNITMODE
 70
     0
  9
$VISRETAIN
 70
     1
  9
$PLINEGEN
 70
     0
  9
$PSLTSCALE
 70
     1
  9
$TREEDEPTH
 70
  3020
  9
$CMLSTYLE
  2
Standard
  9
$CMLJUST
 70
     0
  9
$CMLSCALE
 40
20.0
  9
$PROXYGRAPHICS
 70
     1
  9
$MEASUREMENT
 70
     1
  9
$CELWEIGHT
370
    -1
  9
$ENDCAPS
280
     0
  9
$JOINSTYLE
280
     0
  9
$LWDISPLAY
290
     0
  9
$INSUNITS
 70
     4
  9
$HYPERLINKBASE
  1

  9
$STYLESHEET
  1
acad.ctb
  9
$XEDIT
290
     1
  9
$CEPSNTYPE
380
     0
  9
$PSTYLEMODE
290
     1
  9
$FINGERPRINTGUID
  2
{7A381171-16FB-4E44-972A-3DD660A2669C}
  9
$VERSIONGUID
  2
{76200097-63CF-4891-852B-B7AB2AAD60B2}
  9
$EXTNAMES
290
     1
  9
$PSVPSCALE
 40
0.0
  9
$OLESTARTUP
290
     0
  0
ENDSEC
  0
SECTION
  2
CLASSES
  0
CLASS
  1
ACDBDICTIONARYWDFLT
  2
AcDbDictionaryWithDefault
  3
ObjectDBX Classes
 90
        0
280
     0
281
     0
  0
CLASS
  1
ACDBPLACEHOLDER
  2
AcDbPlaceHolder
  3
ObjectDBX Classes
 90
        0
280
     0
281
     0
  0
CLASS
  1
LAYOUT
  2
AcDbLayout
  3
ObjectDBX Classes
 90
        0
280
     0
281
     0
  0
CLASS
  1
ACME_DOCUMENT
  2
AcMeDbDoc
  3
AcMeServices
 90
        0
280
     0
281
     0
  0
CLASS
  1
AMGSETTINGSOBJ
  2
AmgSettingsObj
  3
"AcadM|Product Description: AutoCAD Mechanical 2000|Company: Autodesk"
 90
        0
280
     0
281
     0
  0
CLASS
  1
ACMESCOPE
  2
AcMeScope
  3
AcMeServices
 90
        0
280
     0
281
     0
  0
CLASS
  1
ACMECOMMANDHISTORY
  2
AcMeCommandHistory
  3
AcMeServices
 90
        0
280
     0
281
     0
  0
CLASS
  1
ACIMSYSVARMAN
  2
AcImSysVarManager
  3
AcMeServices
 90
        0
280
     0
281
     0
  0
CLASS
  1
ACIMREALSYSVAR
  2
AcImRealSysVar
  3
AcMeServices
 90
        0
280
     0
281
     0
  0
CLASS
  1
ACIMINTSYSVAR
  2
AcImIntSysVar
  3
AcMeServices
 90
        0
280
     0
281
     0
  0
CLASS
  1
ACMEDRAWINGMAN
  2
AcMeDrawingMan
  3
AcMeServices
 90
        0
280
     0
281
     0
  0
CLASS
  1
ACMEVIEW
  2
AcMeView
  3
AcMeServices
 90
        0
280
     0
281
     0
  0
CLASS
  1
ACDBENTITYCACHE
  2
AcMeEntityCache
  3
AcMeServices
 90
        0
280
     0
281
     0
  0
CLASS
  1
GSMANAGER
  2
AcMeGSManager
  3
AcMeServices
 90
        0
280
     0
281
     0
  0
CLASS
  1
AMDTINTERNALREACTOR
  2
AmdtInternalReactor
  3
AcMeServices
 90
        0
280
     0
281
     0
  0
CLASS
  1
ACMESTATEMGR
  2
AcMeStateMgr
  3
AcMeServices
 90
        0
280
     0
281
     0
  0
CLASS
  1
ACGREFMASTER
  2
AcGrefMaster
  3
AcAttribServices
 90
        0
280
     0
281
     0
  0
CLASS
  1
ACME_DATABASE
  2
AcMeDbDatabase
  3
AcMeServices
 90
        0
280
     0
281
     0
  0
CLASS
  1
ACRFINSADJUSTERMGR
  2
AcRfInsAdjusterMgr
  3
AcMeServices
 90
        0
280
     0
281
     0
  0
CLASS
  1
ACGREFACADMASTER
  2
AcGrefacadMaster
  3
AcGrefServices
 90
        0
280
     0
281
     0
  0
CLASS
  1
AMIMASTER
  2
AmiMaster
  3
AmiServices
 90
        0
280
     0
281
     0
  0
CLASS
  1
ACMDATADICTIONARY
  2
AcmDataDictionary
  3
"AcmSymBB|Product Description: AutoCAD Mechanical 2004 DX|Company: Autodesk"
 90
        0
280
     0
281
     0
  0
CLASS
  1
ACMDATAENTRYBLOCK
  2
AcmDataEntryBlock
  3
"AcmSymBB|Product Description: AutoCAD Mechanical 2004 DX|Company: Autodesk"
 90
    32768
280
     0
281
     0
  0
CLASS
  1
ACIMSTRSYSVAR
  2
AcImStrSysVar
  3
AcMeServices
 90
        0
280
     0
281
     0
  0
CLASS
  1
ACMSTANDARDISO
  2
AcmStandardISO
  3
"Amdt_StdImp|Product Description: AutoCAD Mechanical 2004 DX|Company: Autodesk"
 90
        0
280
     0
281
     0
  0
CLASS
  1
AMGOBJPROPCFG
  2
AmgObjPropCfg
  3
"AmgLay|Product Description: AutoCAD Mechanical 2000|Company: Autodesk"
 90
        1
280
     0
281
     0
  0
CLASS
  1
AMDTEDGESTANDARDISO
  2
AmdtEdgeStdISO
  3
"Amdt_StdImp|Product Description: AutoCAD Mechanical 2004 DX|Company: Autodesk"
 90
    32768
280
     0
281
     0
  0
CLASS
  1
ACMSURFSTANDARDISO
  2
AcmSurfTextStdISO
  3
"Amdt_StdImp|Product Description: AutoCAD Mechanical 2004 DX|Company: Autodesk"
 90
        0
280
     0
281
     0
  0
CLASS
  1
ACMFCFSTANDARDISO
  2
AcmFCFStdISO
  3
"Amdt_StdImp|Product Description: AutoCAD Mechanical 2004 DX|Company: Autodesk"
 90
        0
280
     0
281
     0
  0
CLASS
  1
ACMWELDSTANDARDISO
  2
AcmWeldingStdISO
  3
"Amdt_StdImp|Product Description: AutoCAD Mechanical 2004 DX|Company: Autodesk"
 90
        0
280
     0
281
     0
  0
CLASS
  1
ACMIDSTANDARDISO
  2
AcmIdStdISO
  3
"Amdt_StdImp|Product Description: AutoCAD Mechanical 2004 DX|Company: Autodesk"
 90
        0
280
     0
281
     0
  0
CLASS
  1
ACMDATUMSTANDARDISO
  2
AcmDatumStdISO
  3
"Amdt_StdImp|Product Description: AutoCAD Mechanical 2004 DX|Company: Autodesk"
 90
        0
280
     0
281
     0
  0
CLASS
  1
ACMBOMSTANDARDISO
  2
AcmBOMStdISO
  3
"Amdt_StdImp|Product Description: AutoCAD Mechanical 2004 DX|Company: Autodesk"
 90
        0
280
     0
281
     0
  0
CLASS
  1
ACMDETAILSTANDARDISO
  2
AmdtDetailSymStdISO
  3
"Amdt_StdImp|Product Description: AutoCAD Mechanical 2004 DX|Company: Autodesk"
 90
        0
280
     0
281
     0
  0
CLASS
  1
ACMSECTIONSTANDARDISO
  2
AmdtSectionSymStdISO
  3
"Amdt_StdImp|Product Description: AutoCAD Mechanical 2004 DX|Company: Autodesk"
 90
        0
280
     0
281
     0
  0
CLASS
  1
ACMCENTERLINESTANDARDISO
  2
AmdtCenterLineStdISO
  3
"Amdt_StdImp|Product Description: AutoCAD Mechanical 2004 DX|Company: Autodesk"
 90
        0
280
     0
281
     0
  0
CLASS
  1
ACMNOTESTANDARDISO
  2
AmdtNoteStdISO
  3
"Amdt_StdImp|Product Description: AutoCAD Mechanical 2004 DX|Company: Autodesk"
 90
        0
280
     0
281
     0
  0
CLASS
  1
ACAMGLAYSTD
  2
AcAmgLayStd
  3
"AcAmgLayStd|Product Description: AutoCAD Mechanical 2000|Company: Autodesk"
 90
        0
280
     0
281
     0
  0
CLASS
  1
ACAMGDIMSTD
  2
AcAmgDimStd
  3
"AcAmgDimStd|Product Description: AutoCAD Mechanical 2000|Company: Autodesk"
 90
        0
280
     0
281
     0
  0
CLASS
  1
ACAMGHOLECHARTSTDISO
  2
AcAmgHoleChartStdISO
  3
ACMSYMBB_MODULE_NAME
 90
        0
280
     0
281
     0
  0
CLASS
  1
ACAMGTITLESTD
  2
AcAmgTitleStd
  3
"TITLEAPP"
 90
        0
280
     0
281
     0
  0
CLASS
  1
LAYER_INDEX
  2
AcDbLayerIndex
  3
ObjectDBX Classes
 90
    32768
280
     0
281
     0
  0
CLASS
  1
IDBUFFER
  2
AcDbIdBuffer
  3
ObjectDBX Classes
 90
    32768
280
     0
281
     0
  0
CLASS
  1
DICTIONARYVAR
  2
AcDbDictionaryVar
  3
ObjectDBX Classes
 90
        0
280
     0
281
     0
  0
CLASS
  1
AM_DRAWING_MGR
  2
AcDmDwgMgr
  3
AcMechDwgViewMgmt
 90
        0
280
     0
281
     0
  0
CLASS
  1
AM_DWG_DOCUMENT
  2
AcDmDwgDocument
  3
AcMechDwgViewMgmt
 90
        0
280
     0
281
     0
  0
CLASS
  1
AM_DWG_SHEET
  2
AcDmSheet
  3
AcMechDwgViewMgmt
 90
        0
280
     0
281
     0
  0
CLASS
  1
AM_VIEWDIMPARMAP
  2
AcDmViewDimParMap
  3
AcMechDwgViewMgmt
 90
        0
280
     0
281
     0
  0
CLASS
  1
AM_DWGMGR_NAME
  2
AcDmDwgMgrName
  3
AcMechDwgViewMgmt
 90
        0
280
     0
281
     0
  0
CLASS
  1
AMDTMENUSTATEMGR
  2
AmdtMenuStateMgr
  3
McadcomServices
 90
        0
280
     0
281
     0
  0
CLASS
  1
AMDTMCOMMENUSTATE
  2
AmdtMcomMenuState
  3
McadcomServices
 90
        0
280
     0
281
     0
  0
CLASS
  1
MAPIAMMOUDLE
  2
MApiAmModule
  3
MApiAmServices
 90
        0
280
     0
281
     0
  0
CLASS
  1
AMDTADMENUSTATE
  2
AmdtAdMenuState
  3
DesignerServices
 90
        0
280
     0
281
     0
  0
CLASS
  1
ADAPPL
  2
AcAdAppl
  3
DesignerServices
 90
        0
280
     0
281
     0
  0
CLASS
  1
DEPMGR
  2
AcAdDepMgr
  3
DesignerServices
 90
        0
280
     0
281
     0
  0
CLASS
  1
PARAMMGR
  2
AcAdParamMgr
  3
DesignerServices
 90
        0
280
     0
281
     0
  0
CLASS
  1
PARAMSCOPE
  2
AcAdParamScope
  3
DesignerServices
 90
        0
280
     0
281
     0
  0
CLASS
  1
NAMEDAPPL
  2
AcAdNamedAppl
  3
DesignerServices
 90
        0
280
     0
281
     0
  0
CLASS
  1
AMDTDMMENUSTATE
  2
AmdtDmMenuState
  3
AcMechDwgViewMgmt
 90
        0
280
     0
281
     0
  0
CLASS
  1
AMDTAMMENUSTATE
  2
AmdtAmMenuState
  3
DesignerAssemblies
 90
        0
280
     0
281
     0
  0
CLASS
  1
ACAMPROJECT
  2
AcAmProject
  3
DesignerAssemblies
 90
        0
280
     0
281
     0
  0
CLASS
  1
ACAMGRCOMPDEF
  2
AcAmGrCompDef
  3
DesignerAssemblies
 90
        0
280
     0
281
     0
  0
CLASS
  1
ACCMCONTEXT
  2
AcCmContext
  3
DesignerAssemblies
 90
        0
280
     0
281
     0
  0
CLASS
  1
ACAMCOMPDEF
  2
AcAmCompDef
  3
DesignerAssemblies
 90
        0
280
     0
281
     0
  0
CLASS
  1
ACAMCOMPDEFMGR
  2
AcAmCompDefMgr
  3
DesignerAssemblies
 90
        0
280
     0
281
     0
  0
CLASS
  1
AMCONTEXTMGR
  2
AcAmContextMgr
  3
DesignerAssemblies
 90
        0
280
     0
281
     0
  0
CLASS
  1
ACAMCONTEXTMODELER
  2
AcAmContextModeler
  3
DesignerAssemblies
 90
        0
280
     0
281
     0
  0
CLASS
  1
ACMTHREADLINESTANDARDISO
  2
AmdtThreadLineStdISO
  3
"Amdt_StdImp|Product Description: AutoCAD Mechanical 2004 DX|Company: Autodesk"
 90
        0
280
     0
281
     0
  0
CLASS
  1
CATALOGSTATE
  2
AcAmCatalogState
  3
DesignerAssemblies
 90
        0
280
     0
281
     0
  0
CLASS
  1
ACAMGRCOMPDEFSET
  2
AcAmGrCompDefSet
  3
DesignerAssemblies
 90
        0
280
     0
281
     0
  0
CLASS
  1
AMDTBROWSERDBTAB
  2
AmdtBrowserDbTab
  3
McadcomServices
 90
        0
280
     0
281
     0
  0
CLASS
  1
CBROWSERAPPOBJECT
  2
CBrowserAppObject
  3
McadcomServices
 90
        0
280
     0
281
     0
  0
CLASS
  1
DM_PLACEHOLDER
  2
AcDmSelsetPlaceholder
  3
AcMechDwgViewMgmt
 90
        0
280
     0
281
     0
  0
CLASS
  1
TABLESTYLE
  2
AcDbTableStyle
  3
ObjectDBX Classes
 90
     2047
280
     0
281
     0
  0
CLASS
  1
VAACXREFPANELOBJECT
  2
VaAcXREFPanelObject
  3
VAAC_ADDIN
 90
    32768
280
     0
281
     0
  0
CLASS
  1
VAACIMAGEINVENTORY
  2
VaAcImageInventory
  3
VAAC_ADDIN
 90
    32768
280
     0
281
     0
  0
CLASS
  1
AMDTNOTETEMPLATEDB
  2
AmdtNoteTemplateDB
  3
AMDT_STDIMP_MODULE_NAME
 90
        0
280
     0
281
     0
  0
CLASS
  1
ACMBOM
  2
AcmBom
  3
"AcmSymBB|Product Description: AutoCAD Mechanical 2004 DX|Company: Autodesk"
 90
    32768
280
     0
281
     0
  0
CLASS
  1
AMDTFORMULAUPDATEDISPATCHER
  2
AmdtFormulaUpdateDispatcher
  3
AcMeServices
 90
    32768
280
     0
281
     0
  0
CLASS
  1
ACMPARTLIST
  2
AcmPartList
  3
"AcmSymBB|Product Description: AutoCAD Mechanical 2004 DX|Company: Autodesk"
 90
    33791
280
     0
281
     1
  0
CLASS
  1
ACAMGFILTERDAT
  2
AcAmgFilterDat
  3
"AcadM|Product Description: AutoCAD Mechanical 2000|Company: Autodesk"
 90
    32768
280
     0
281
     0
  0
CLASS
  1
DIMASSOC
  2
AcDbDimAssoc
  3
"AcDbDimAssoc|Product Desc:     AcDim ARX App For Dimension|Company:          Autodesk, Inc.|WEB Address:      www.autodesk.com"
 90
        0
280
     0
281
     0
  0
CLASS
  1
SORTENTSTABLE
  2
AcDbSortentsTable
  3
ObjectDBX Classes
 90
        0
280
     0
281
     0
  0
CLASS
  1
AMDTNOTE
  2
AmdtNote
  3
"AcmSymBB|Product Description: AutoCAD Mechanical 2004 DX|Company: Autodesk"
 90
    33791
280
     0
281
     1
  0
CLASS
  1
ACMSTANDARDANSI
  2
AcmStandardANSI
  3
"Amdt_StdImp|Product Description: AutoCAD Mechanical 2004 DX|Company: Autodesk"
 90
    32768
280
     0
281
     0
  0
CLASS
  1
ACMSURFSTANDARDANSI
  2
AcmSurfTextStdANSI
  3
"Amdt_StdImp|Product Description: AutoCAD Mechanical 2004 DX|Company: Autodesk"
 90
    32768
280
     0
281
     0
  0
CLASS
  1
ACMFCFSTANDARDANSI
  2
AcmFCFStdANSI
  3
"Amdt_StdImp|Product Description: AutoCAD Mechanical 2004 DX|Company: Autodesk"
 90
    32768
280
     0
281
     0
  0
CLASS
  1
ACMWELDSTANDARDANSI
  2
AcmWeldingStdANSI
  3
"Amdt_StdImp|Product Description: AutoCAD Mechanical 2004 DX|Company: Autodesk"
 90
    32768
280
     0
281
     0
  0
CLASS
  1
ACMIDSTANDARDANSI
  2
AcmIdStdANSI
  3
"Amdt_StdImp|Product Description: AutoCAD Mechanical 2004 DX|Company: Autodesk"
 90
    32768
280
     0
281
     0
  0
CLASS
  1
ACMDATUMSTANDARDANSI
  2
AcmDatumStdANSI
  3
"Amdt_StdImp|Product Description: AutoCAD Mechanical 2004 DX|Company: Autodesk"
 90
    32768
280
     0
281
     0
  0
CLASS
  1
ACMBOMSTANDARDANSI
  2
AcmBOMStdANSI
  3
"Amdt_StdImp|Product Description: AutoCAD Mechanical 2004 DX|Company: Autodesk"
 90
    32768
280
     0
281
     0
  0
CLASS
  1
ACMDETAILSTANDARDANSI
  2
AmdtDetailSymStdANSI
  3
"Amdt_StdImp|Product Description: AutoCAD Mechanical 2004 DX|Company: Autodesk"
 90
    32768
280
     0
281
     0
  0
CLASS
  1
ACMSECTIONSTANDARDANSI
  2
AmdtSectionSymStdANSI
  3
"Amdt_StdImp|Product Description: AutoCAD Mechanical 2004 DX|Company: Autodesk"
 90
    32768
280
     0
281
     0
  0
CLASS
  1
ACMCENTERLINESTANDARDANSI
  2
AmdtCenterLineStdANSI
  3
"Amdt_StdImp|Product Description: AutoCAD Mechanical 2004 DX|Company: Autodesk"
 90
    32768
280
     0
281
     0
  0
CLASS
  1
ACMNOTESTANDARDANSI
  2
AmdtNoteStdANSI
  3
"Amdt_StdImp|Product Description: AutoCAD Mechanical 2004 DX|Company: Autodesk"
 90
    32768
280
     0
281
     0
  0
CLASS
  1
ACAMGHOLECHARTSTDANSI
  2
AcAmgHoleChartStdANSI
  3
ACMSYMBB_MODULE_NAME
 90
    32768
280
     0
281
     0
  0
CLASS
  1
ACMTHREADLINESTANDARDANSI
  2
AmdtThreadLineStdANSI
  3
"Amdt_StdImp|Product Description: AutoCAD Mechanical 2004 DX|Company: Autodesk"
 90
    32768
280
     0
281
     0
  0
CLASS
  1
ACRFATTGENMGR
  2
AcRfAttGeneralMgr
  3
AcAttribServices
 90
        0
280
     0
281
     0
  0
CLASS
  1
AMDTEDGESTANDARDISO13715
  2
AmdtEdgeStdISO13715
  3
"Amdt_StdImp|Product Description: AutoCAD Mechanical 2004 DX|Company: Autodesk"
 90
        0
280
     0
281
     0
  0
ENDSEC
  0
SECTION
  2
TABLES
  0
TABLE
  2
VPORT
  5
8
330
0
100
AcDbSymbolTable
 70
     4
  0
VPORT
  5
B1E2
330
8
100
AcDbSymbolTableRecord
100
AcDbViewportTableRecord
  2
*Active
 70
     0
 10
0.0
 20
0.0
 11
1.0
 21
1.0
 12
1416.750414513959
 22
637.7373768834092
 13
0.0
 23
0.0
 14
2.5
 24
2.5
 15
10.0
 25
10.0
 16
0.0
 26
0.0
 36
1.0
 17
0.0
 27
0.0
 37
0.0
 40
220.1808467980243
 41
1.283837056504599
 42
50.0
 43
0.0
 44
0.0
 50
0.0
 51
0.0
 71
     0
 72
   100
 73
     1
 74
     3
 75
     0
 76
     0
 77
     0
 78
     0
281
     0
 65
     1
110
0.0
120
0.0
130
0.0
111
1.0
121
0.0
131
0.0
112
0.0
122
1.0
132
0.0
 79
     0
146
0.0
  0
ENDTAB
  0
TABLE
  2
LTYPE
  5
5
330
0
100
AcDbSymbolTable
 70
    16
  0
LTYPE
  5
14
330
5
100
AcDbSymbolTableRecord
100
AcDbLinetypeTableRecord
  2
ByBlock
 70
     0
  3

 72
    65
 73
     0
 40
0.0
  0
LTYPE
  5
15
330
5
100
AcDbSymbolTableRecord
100
AcDbLinetypeTableRecord
  2
ByLayer
 70
     0
  3

 72
    65
 73
     0
 40
0.0
  0
LTYPE
  5
16
330
5
100
AcDbSymbolTableRecord
100
AcDbLinetypeTableRecord
  2
Continuous
 70
     0
  3
Solid line
 72
    65
 73
     0
 40
0.0
  0
LTYPE
  5
64
330
5
100
AcDbSymbolTableRecord
100
AcDbLinetypeTableRecord
  2
AM_ISO02W050
 70
     0
  3
__ __ __ __ __ __ __ __ __ __ __ __ __ __ __
 72
    65
 73
     2
 40
7.5
 49
6.0
 74
     0
 49
-1.5
 74
     0
  0
LTYPE
  5
65
330
5
100
AcDbSymbolTableRecord
100
AcDbLinetypeTableRecord
  2
AM_ISO08W050
 70
     0
  3
____ . ____ . ____ . ____ . ____ . ____ . ____
 72
    65
 73
     4
 40
18.0
 49
12.0
 74
     0
 49
-1.5
 74
     0
 49
3.0
 74
     0
 49
-1.5
 74
     0
  0
LTYPE
  5
66
330
5
100
AcDbSymbolTableRecord
100
AcDbLinetypeTableRecord
  2
AM_ISO09W050
 70
     0
  3
_____ . . _____ . . _____ . . ____ .. ____
 72
    65
 73
     6
 40
22.5
 49
12.0
 74
     0
 49
-1.5
 74
     0
 49
3.0
 74
     0
 49
-1.5
 74
     0
 49
3.0
 74
     0
 49
-1.5
 74
     0
  0
LTYPE
  5
67
330
5
100
AcDbSymbolTableRecord
100
AcDbLinetypeTableRecord
  2
Amconstr
 70
     0
  3
_______________________
 72
    65
 73
     2
 40
9999.0
 49
9999.0
 74
     0
 49
0.0
 74
     0
  0
LTYPE
  5
68
330
5
100
AcDbSymbolTableRecord
100
AcDbLinetypeTableRecord
  2
AM_ISO08W050x2
 70
     0
  3
__ . __ . __ . __ . __ . __
 72
    65
 73
     4
 40
9.0
 49
6.0
 74
     0
 49
-0.75
 74
     0
 49
1.5
 74
     0
 49
-0.75
 74
     0
  0
LTYPE
  5
69
330
5
100
AcDbSymbolTableRecord
100
AcDbLinetypeTableRecord
  2
AM_ISO02W050x2
 70
     0
  3
 _ _ _ _ _ _ _ _ _ _ _ _
 72
    65
 73
     2
 40
3.75
 49
3.0
 74
     0
 49
-0.75
 74
     0
  0
LTYPE
  5
6C
330
5
100
AcDbSymbolTableRecord
100
AcDbLinetypeTableRecord
  2
Amzigzag
 70
     0
  3
/\/-/\/-/\/-/\/-/\/-/\/
 72
    65
 73
     2
 40
11.0001
 49
0.0001
 74
     4
 75
   135
340
6B
 46
0.04
 50
0.0
 44
0.0
 45
0.0
 49
-11.0
 74
     0
  0
LTYPE
  5
7A
330
5
100
AcDbSymbolTableRecord
100
AcDbLinetypeTableRecord
  2
ACISOWELD
 70
     0
  3
_ _ _ _ _
 72
    65
 73
     2
 40
2.0
 49
2.0
 74
     0
 49
-1.0
 74
     0
  0
LTYPE
  5
7B
330
5
100
AcDbSymbolTableRecord
100
AcDbLinetypeTableRecord
  2
ACISOTGB
 70
     0
  3
__ . . __ . .
 72
    65
 73
     6
 40
9.0
 49
4.0
 74
     0
 49
-1.0
 74
     0
 49
1.0
 74
     0
 49
-1.0
 74
     0
 49
1.0
 74
     0
 49
-1.0
 74
     0
  0
LTYPE
  5
7C
330
5
100
AcDbSymbolTableRecord
100
AcDbLinetypeTableRecord
  2
ACISOTGL
 70
     0
  3
_ _ _ _ _
 72
    65
 73
     2
 40
3.0
 49
2.0
 74
     0
 49
-1.0
 74
     0
  0
LTYPE
  5
7E
330
5
100
AcDbSymbolTableRecord
100
AcDbLinetypeTableRecord
  2
CENTER
 70
     0
  3
__ . __
 72
    65
 73
     4
 40
7.0
 49
4.0
 74
     0
 49
-1.0
 74
     0
 49
1.0
 74
     0
 49
-1.0
 74
     0
  0
LTYPE
  5
D8
330
5
100
AcDbSymbolTableRecord
100
AcDbLinetypeTableRecord
  2
HIDDEN
 70
     0
  3
Hidden __ __ __ __ __ __ __ __ __ __ __ __ __ _
 72
    65
 73
     2
 40
9.524999999999998
 49
6.349999999999999
 74
     0
 49
-3.174999999999999
 74
     0
  0
LTYPE
  5
D9
330
5
100
AcDbSymbolTableRecord
100
AcDbLinetypeTableRecord
  2
PHANTOM2
 70
     0
  3
Phantom (.5x) ___ _ _ ___ _ _ ___ _ _ ___ _ _
 72
    65
 73
     6
 40
31.75
 49
15.875
 74
     0
 49
-3.174999999999999
 74
     0
 49
3.174999999999999
 74
     0
 49
-3.174999999999999
 74
     0
 49
3.174999999999999
 74
     0
 49
-3.174999999999999
 74
     0
  0
ENDTAB
  0
TABLE
  2
LAYER
  5
2
102
{ACAD_XDICTIONARY
360
3F9
102
}
330
0
100
AcDbSymbolTable
 70
     8
  0
LAYER
  5
10
330
2
100
AcDbSymbolTableRecord
100
AcDbLayerTableRecord
  2
0
 70
     0
 62
     7
  6
Continuous
370
    -3
390
F
  0
LAYER
  5
A8E
330
2
100
AcDbSymbolTableRecord
100
AcDbLayerTableRecord
  2
AM_VIS
 70
     0
 62
     7
  6
Continuous
370
    -3
390
F
  0
LAYER
  5
A8F
330
2
100
AcDbSymbolTableRecord
100
AcDbLayerTableRecord
  2
AM_7
 70
     0
 62
     1
  6
CENTER
370
    -3
390
F
  0
LAYER
  5
33A3
330
2
100
AcDbSymbolTableRecord
100
AcDbLayerTableRecord
  2
AM_5
 70
     0
 62
     5
  6
Continuous
370
    -3
390
F
  0
LAYER
  5
33B7
330
2
100
AcDbSymbolTableRecord
100
AcDbLayerTableRecord
  2
Defpoints
 70
     0
 62
     7
  6
Continuous
290
     0
370
    -3
390
F
  0
LAYER
  5
98E9
330
2
100
AcDbSymbolTableRecord
100
AcDbLayerTableRecord
  2
LOGO
 70
     0
 62
     7
  6
Continuous
370
    -3
390
F
  0
LAYER
  5
B06B
330
2
100
AcDbSymbolTableRecord
100
AcDbLayerTableRecord
  2
AM_HID
 70
     0
 62
     7
  6
AM_ISO02W050
370
    -3
390
F
  0
ENDTAB
  0
TABLE
  2
STYLE
  5
3
330
0
100
AcDbSymbolTable
 70
    10
  0
STYLE
  5
11
330
3
100
AcDbSymbolTableRecord
100
AcDbTextStyleTableRecord
  2
STANDARD
 70
     0
 40
0.0
 41
1.0
 50
0.0
 71
     0
 42
3.0
  3
ISOCP.SHX
  4
CHINESET.SHX
  0
STYLE
  5
6B
330
3
100
AcDbSymbolTableRecord
100
AcDbTextStyleTableRecord
  2

 70
     1
 40
0.0
 41
1.0
 50
0.0
 71
     0
 42
2.5
  3
ltypeshp.shx
  4

  0
STYLE
  5
6D
330
3
100
AcDbSymbolTableRecord
100
AcDbTextStyleTableRecord
  2
ACISOTS
 70
     0
 40
1.0
 41
1.0
 50
0.0
 71
     0
 42
1.0
  3
isocp.shx
  4
chineset.shx
  0
STYLE
  5
79
330
3
100
AcDbSymbolTableRecord
100
AcDbTextStyleTableRecord
  2
ACISOGDT
 70
     0
 40
0.0
 41
1.0
 50
0.0
 71
     0
 42
2.5
  3
amgdt.shx
  4
chineset.shx
  0
STYLE
  5
98EA
330
3
100
AcDbSymbolTableRecord
100
AcDbTextStyleTableRecord
  2
CHINESET
 70
     0
 40
0.0
 41
1.0
 50
0.0
 71
     0
 42
3.0
  3
simplex.shx
  4
CHINESET.SHX
  0
ENDTAB
  0
TABLE
  2
VIEW
  5
6
330
0
100
AcDbSymbolTable
 70
     0
  0
ENDTAB
  0
TABLE
  2
UCS
  5
7
330
0
100
AcDbSymbolTable
 70
     0
  0
ENDTAB
  0
TABLE
  2
APPID
  5
9
330
0
100
AcDbSymbolTable
 70
    23
  0
APPID
  5
12
330
9
100
AcDbSymbolTableRecord
100
AcDbRegAppTableRecord
  2
ACAD
 70
     0
  0
APPID
  5
46
330
9
100
AcDbSymbolTableRecord
100
AcDbRegAppTableRecord
  2
MCAD_NO_VIS
 70
     0
  0
APPID
  5
47
330
9
100
AcDbSymbolTableRecord
100
AcDbRegAppTableRecord
  2
ACAD_TEMP_GRAPHIC
 70
     0
  0
APPID
  5
58
330
9
100
AcDbSymbolTableRecord
100
AcDbRegAppTableRecord
  2
ACATTRIBSERVICES
 70
     0
  0
APPID
  5
EE
330
9
100
AcDbSymbolTableRecord
100
AcDbRegAppTableRecord
  2
AD_DRAW
 70
     0
  0
APPID
  5
10C
330
9
100
AcDbSymbolTableRecord
100
AcDbRegAppTableRecord
  2
DESIGNERASSEMBLIES
 70
     0
  0
APPID
  5
111
330
9
100
AcDbSymbolTableRecord
100
AcDbRegAppTableRecord
  2
ACADM_DIM_EDIT
 70
     0
  0
APPID
  5
112
330
9
100
AcDbSymbolTableRecord
100
AcDbRegAppTableRecord
  2
AMDT_DM_ADJ
 70
     0
  0
APPID
  5
22C
330
9
100
AcDbSymbolTableRecord
100
AcDbRegAppTableRecord
  2
ACAD_DSTYLE_DIMTEXT_FILL
 70
     0
  0
APPID
  5
452
330
9
100
AcDbSymbolTableRecord
100
AcDbRegAppTableRecord
  2
GENIUS_GENOENT_13
 70
     0
  0
APPID
  5
453
330
9
100
AcDbSymbolTableRecord
100
AcDbRegAppTableRecord
  2
GENIUS_GENOBJ-N-CRS_13
 70
     0
  0
APPID
  5
454
330
9
100
AcDbSymbolTableRecord
100
AcDbRegAppTableRecord
  2
GENIUS_GENOLIS_13
 70
     0
  0
APPID
  5
455
330
9
100
AcDbSymbolTableRecord
100
AcDbRegAppTableRecord
  2
GENIUS_GENODEF_13
 70
     0
  0
APPID
  5
456
330
9
100
AcDbSymbolTableRecord
100
AcDbRegAppTableRecord
  2
GENIUS_GENOREF_13
 70
     0
  0
APPID
  5
6F3
330
9
100
AcDbSymbolTableRecord
100
AcDbRegAppTableRecord
  2
ACAD_PSEXT
 70
     0
  0
APPID
  5
808
330
9
100
AcDbSymbolTableRecord
100
AcDbRegAppTableRecord
  2
GENIUS_GENDTOL_13
 70
     0
  0
APPID
  5
17FF
330
9
100
AcDbSymbolTableRecord
100
AcDbRegAppTableRecord
  2
GENIUS_GENOBJ-N-CEN_13
 70
     0
  0
APPID
  5
1800
330
9
100
AcDbSymbolTableRecord
100
AcDbRegAppTableRecord
  2
GENIUS_GENCEN_19
 70
     0
  0
APPID
  5
34E6
330
9
100
AcDbSymbolTableRecord
100
AcDbRegAppTableRecord
  2
GENIUS_GENOBJ-N-HTC_13
 70
     0
  0
APPID
  5
34E7
330
9
100
AcDbSymbolTableRecord
100
AcDbRegAppTableRecord
  2
GENIUS_GENHATCH_13
 70
     0
  0
APPID
  5
98AD
330
9
100
AcDbSymbolTableRecord
100
AcDbRegAppTableRecord
  2
AcAecLayerStandard
 70
     0
  0
APPID
  5
98EB
330
9
100
AcDbSymbolTableRecord
100
AcDbRegAppTableRecord
  2
GENIUS_GENREC_14
 70
     0
  0
APPID
  5
98EC
330
9
100
AcDbSymbolTableRecord
100
AcDbRegAppTableRecord
  2
GENIUS_GENOBJ-N-REC_13
 70
     0
  0
ENDTAB
  0
TABLE
  2
DIMSTYLE
  5
A
330
0
100
AcDbSymbolTable
 70
    16
100
AcDbDimStyleTable
 71
     3
340
81
340
8B
340
86
  0
DIMSTYLE
105
81
330
A
100
AcDbSymbolTableRecord
100
AcDbDimStyleTableRecord
  2
AM_ISO
 70
     0
  4
"
 41
3.0
 42
1.0
 43
10.0
 44
1.5
 47
0.1
 48
0.1
 73
     0
 74
     0
 77
     1
 78
     8
 79
     2
140
3.5
141
0.0
143
0.0393701
146
0.6
147
0.7
172
     1
176
   256
177
   256
178
   256
271
     2
272
     2
283
     0
284
     8
340
11
371
    -1
372
    -1
  0
DIMSTYLE
105
82
330
A
100
AcDbSymbolTableRecord
100
AcDbDimStyleTableRecord
  2
AM_ISO$3
 70
     0
  4
"
 41
3.0
 42
1.0
 43
10.0
 44
1.5
 47
0.1
 48
0.1
 73
     0
 77
     1
 78
     8
 79
     2
140
3.5
141
0.0
143
0.0393701
146
0.6
147
0.7
176
   256
177
   256
178
   256
271
     2
272
     2
283
     0
284
     8
288
     1
289
     0
340
11
371
    -1
372
    -1
  0
DIMSTYLE
105
83
102
{ACAD_REACTORS
330
AE80
102
}
330
A
100
AcDbSymbolTableRecord
100
AcDbDimStyleTableRecord
  2
AM_ISO$4
 70
     0
  4
"
 41
3.0
 42
1.0
 43
10.0
 44
1.5
 47
0.1
 48
0.1
 73
     0
 77
     1
 78
     8
 79
     2
140
3.5
141
0.0
143
0.0393701
146
0.6
147
0.7
176
   256
177
   256
178
   256
271
     2
272
     2
283
     0
284
     8
288
     1
289
     0
340
11
371
    -1
372
    -1
  0
DIMSTYLE
105
84
330
A
100
AcDbSymbolTableRecord
100
AcDbDimStyleTableRecord
  2
AM_ISO$6
 70
     0
  4
"
 41
3.0
 42
1.0
 43
10.0
 44
1.5
 47
0.1
 48
0.1
 73
     0
 74
     0
 78
     8
 79
     2
140
3.5
141
0.0
143
0.0393701
146
0.6
147
0.7
172
     1
176
   256
177
   256
178
   256
271
     2
272
     2
283
     0
284
     8
340
11
371
    -1
372
    -1
  0
DIMSTYLE
105
85
330
A
100
AcDbSymbolTableRecord
100
AcDbDimStyleTableRecord
  2
AM_ISO$7
 70
     0
  4
"
 41
3.0
 42
1.0
 43
10.0
 44
1.5
 47
0.1
 48
0.1
 73
     0
 74
     0
 77
     1
 78
     8
 79
     2
140
5.0
141
0.0
143
0.0393701
146
0.6
147
0.7
172
     1
176
   256
177
   256
178
   256
271
     2
272
     2
283
     0
284
     8
340
11
371
    -1
372
    -1
  0
DIMSTYLE
105
86
330
A
100
AcDbSymbolTableRecord
100
AcDbDimStyleTableRecord
  2
AM_ISO$SF
 70
     0
  4
"
 41
2.5
 42
1.0
 43
10.0
 44
1.0
 47
0.1
 48
0.1
 73
     0
 74
     0
 75
     1
 76
     1
 77
     1
 78
     8
 79
     2
140
3.5
141
0.0
143
0.0393701
146
0.71
147
1.5
172
     1
176
   256
177
   256
178
     2
271
     2
272
     3
274
     4
283
     0
284
     8
340
11
371
    -1
372
    -1
  0
DIMSTYLE
105
8B
330
A
100
AcDbSymbolTableRecord
100
AcDbDimStyleTableRecord
  2
AM_ISO$SH
 70
     0
  4
"
 41
2.5
 42
1.0
 43
10.0
 44
1.0
 47
0.1
 48
0.1
 73
     0
 74
     0
 75
     1
 76
     1
 77
     1
 78
     8
 79
     2
140
3.5
141
0.0
143
0.0393701
144
2.0
146
0.71
147
1.5
172
     1
173
     1
176
   256
177
   256
178
     2
271
     2
272
     3
274
     4
283
     0
284
     8
340
11
343
87
371
    -1
372
    -1
  0
DIMSTYLE
105
40B
102
{ACAD_REACTORS
330
A471
330
A472
330
A473
330
A474
330
A475
330
A476
330
A505
330
A508
330
A50B
330
A50E
330
A511
330
A516
330
A51D
330
A5D7
330
A5D8
330
A5D9
330
A51A
330
AEC8
102
}
330
A
100
AcDbSymbolTableRecord
100
AcDbDimStyleTableRecord
  2
AM_ISO$0
 70
     0
  4
"
 41
3.0
 42
1.0
 43
10.0
 44
1.5
 47
0.1
 48
0.1
 73
     0
 74
     0
 77
     1
 78
     8
 79
     2
140
3.5
141
0.0
143
0.0393701
146
0.6
147
0.7
172
     1
176
   256
177
   256
178
   256
271
     2
272
     2
283
     0
284
     8
340
11
371
    -1
372
    -1
  0
ENDTAB
  0
TABLE
  2
BLOCK_RECORD
  5
1
330
0
100
AcDbSymbolTable
 70
    30
  0
BLOCK_RECORD
  5
1F
102
{ACAD_XDICTIONARY
360
8F
102
}
330
1
100
AcDbSymbolTableRecord
100
AcDbBlockTableRecord
  2
*Model_Space
340
22
  0
BLOCK_RECORD
  5
1B
330
1
100
AcDbSymbolTableRecord
100
AcDbBlockTableRecord
  2
*Paper_Space
340
1E
  0
BLOCK_RECORD
  5
23
330
1
100
AcDbSymbolTableRecord
100
AcDbBlockTableRecord
  2
*Paper_Space0
340
26
  0
BLOCK_RECORD
  5
87
330
1
100
AcDbSymbolTableRecord
100
AcDbBlockTableRecord
  2
GENAXEH
340
0
  0
BLOCK_RECORD
  5
A47F
330
1
100
AcDbSymbolTableRecord
100
AcDbBlockTableRecord
  2
*D2
340
0
  0
BLOCK_RECORD
  5
A48B
330
1
100
AcDbSymbolTableRecord
100
AcDbBlockTableRecord
  2
*D3
340
0
  0
BLOCK_RECORD
  5
A497
330
1
100
AcDbSymbolTableRecord
100
AcDbBlockTableRecord
  2
*D4
340
0
  0
BLOCK_RECORD
  5
A4A3
330
1
100
AcDbSymbolTableRecord
100
AcDbBlockTableRecord
  2
*D5
340
0
  0
BLOCK_RECORD
  5
A4AF
330
1
100
AcDbSymbolTableRecord
100
AcDbBlockTableRecord
  2
*D6
340
0
  0
BLOCK_RECORD
  5
A4BB
330
1
100
AcDbSymbolTableRecord
100
AcDbBlockTableRecord
  2
*D7
340
0
  0
BLOCK_RECORD
  5
A52A
330
1
100
AcDbSymbolTableRecord
100
AcDbBlockTableRecord
  2
*D8
340
0
  0
BLOCK_RECORD
  5
A538
330
1
100
AcDbSymbolTableRecord
100
AcDbBlockTableRecord
  2
*D9
340
0
  0
BLOCK_RECORD
  5
A544
330
1
100
AcDbSymbolTableRecord
100
AcDbBlockTableRecord
  2
*D10
340
0
  0
BLOCK_RECORD
  5
A550
330
1
100
AcDbSymbolTableRecord
100
AcDbBlockTableRecord
  2
*D11
340
0
  0
BLOCK_RECORD
  5
A55C
330
1
100
AcDbSymbolTableRecord
100
AcDbBlockTableRecord
  2
*D12
340
0
  0
BLOCK_RECORD
  5
A56A
330
1
100
AcDbSymbolTableRecord
100
AcDbBlockTableRecord
  2
*D13
340
0
  0
BLOCK_RECORD
  5
A576
330
1
100
AcDbSymbolTableRecord
100
AcDbBlockTableRecord
  2
*D14
340
0
  0
BLOCK_RECORD
  5
A589
330
1
100
AcDbSymbolTableRecord
100
AcDbBlockTableRecord
  2
*D15
340
0
  0
BLOCK_RECORD
  5
A5E1
330
1
100
AcDbSymbolTableRecord
100
AcDbBlockTableRecord
  2
*D16
340
0
  0
BLOCK_RECORD
  5
A5ED
330
1
100
AcDbSymbolTableRecord
100
AcDbBlockTableRecord
  2
*D17
340
0
  0
BLOCK_RECORD
  5
A5F9
330
1
100
AcDbSymbolTableRecord
100
AcDbBlockTableRecord
  2
*D18
340
0
  0
BLOCK_RECORD
  5
AE81
330
1
100
AcDbSymbolTableRecord
100
AcDbBlockTableRecord
  2
*D19
340
0
  0
BLOCK_RECORD
  5
AEC9
330
1
100
AcDbSymbolTableRecord
100
AcDbBlockTableRecord
  2
*D20
340
0
  0
BLOCK_RECORD
  5
AF31
330
1
100
AcDbSymbolTableRecord
100
AcDbBlockTableRecord
  2
*S21
340
0
102
{BLKREFS
331
A478
102
}
  0
BLOCK_RECORD
  5
AF39
330
1
100
AcDbSymbolTableRecord
100
AcDbBlockTableRecord
  2
*S22
340
0
102
{BLKREFS
331
A47A
102
}
  0
BLOCK_RECORD
  5
AF41
330
1
100
AcDbSymbolTableRecord
100
AcDbBlockTableRecord
  2
*S23
340
0
102
{BLKREFS
331
A515
102
}
  0
BLOCK_RECORD
  5
AF49
330
1
100
AcDbSymbolTableRecord
100
AcDbBlockTableRecord
  2
*S24
340
0
102
{BLKREFS
331
A5DB
102
}
  0
BLOCK_RECORD
  5
AF51
330
1
100
AcDbSymbolTableRecord
100
AcDbBlockTableRecord
  2
*S25
340
0
102
{BLKREFS
331
A5DD
102
}
  0
ENDTAB
  0
ENDSEC
  0
SECTION
  2
BLOCKS
  0
BLOCK
  5
20
330
1F
100
AcDbEntity
  8
0
100
AcDbBlockBegin
  2
*Model_Space
 70
     0
 10
0.0
 20
0.0
 30
0.0
  3
*Model_Space
  1

  0
ENDBLK
  5
21
330
1F
100
AcDbEntity
  8
0
100
AcDbBlockEnd
  0
BLOCK
  5
1C
330
1B
100
AcDbEntity
 67
     1
  8
0
100
AcDbBlockBegin
  2
*Paper_Space
 70
     0
 10
0.0
 20
0.0
 30
0.0
  3
*Paper_Space
  1

  0
ENDBLK
  5
1D
330
1B
100
AcDbEntity
 67
     1
  8
0
100
AcDbBlockEnd
  0
BLOCK
  5
24
330
23
100
AcDbEntity
  8
0
100
AcDbBlockBegin
  2
*Paper_Space0
 70
     0
 10
0.0
 20
0.0
 30
0.0
  3
*Paper_Space0
  1

  0
ENDBLK
  5
25
330
23
100
AcDbEntity
  8
0
100
AcDbBlockEnd
  0
BLOCK
  5
89
330
87
100
AcDbEntity
  8
0
100
AcDbBlockBegin
  2
GENAXEH
 70
     0
 10
0.0
 20
0.0
 30
0.0
  3
GENAXEH
  1

  0
LINE
  5
88
330
87
100
AcDbEntity
  8
0
100
AcDbLine
 10
-1.0
 20
0.0
 30
0.0
 11
1.0
 21
0.0
 31
0.0
  0
ENDBLK
  5
8A
330
87
100
AcDbEntity
  8
0
100
AcDbBlockEnd
  0
BLOCK
  5
A489
330
A47F
100
AcDbEntity
  8
0
100
AcDbBlockBegin
  2
*D2
 70
     1
 10
0.0
 20
0.0
 30
0.0
  3
*D2
  1

  0
LINE
  5
A644
330
A47F
100
AcDbEntity
  8
AM_5
100
AcDbLine
 10
1480.025088670535
 20
600.6046868233042
 30
0.0
 11
1480.025088670535
 21
567.0046868233047
 31
0.0
  0
LINE
  5
A645
330
A47F
100
AcDbEntity
  8
AM_5
100
AcDbLine
 10
1499.025088670535
 20
610.6046868233041
 30
0.0
 11
1499.025088670535
 21
567.0046868233047
 31
0.0
  0
LINE
  5
A646
330
A47F
100
AcDbEntity
  8
AM_5
100
AcDbLine
 10
1483.625088670535
 20
568.8046868233047
 30
0.0
 11
1495.425088670535
 21
568.8046868233047
 31
0.0
  0
SOLID
  5
A647
330
A47F
100
AcDbEntity
  8
AM_5
100
AcDbTrace
 10
1483.625088670535
 20
569.4046868233047
 30
0.0
 11
1483.625088670535
 21
568.2046868233046
 31
0.0
 12
1480.025088670535
 22
568.8046868233047
 32
0.0
 13
1480.025088670535
 23
568.8046868233047
 33
0.0
  0
SOLID
  5
A648
330
A47F
100
AcDbEntity
  8
AM_5
100
AcDbTrace
 10
1495.425088670535
 20
569.4046868233047
 30
0.0
 11
1495.425088670535
 21
568.2046868233046
 31
0.0
 12
1499.025088670535
 22
568.8046868233047
 32
0.0
 13
1499.025088670535
 23
568.8046868233047
 33
0.0
  0
MTEXT
  5
A649
330
A47F
100
AcDbEntity
  8
AM_5
100
AcDbMText
 10
1489.525088670535
 20
571.7446868233047
 30
0.0
 40
4.2
 41
0.0
 71
     5
 72
     1
  1
19
 73
     1
 44
1.0
1001
ACAD
1000
MTEXTBEGIN
1070
    73
1070
     1
1070
    44
1040
1.0
1070
    74
1070
     0
1000
MTEXTEND
  0
POINT
  5
A64A
330
A47F
100
AcDbEntity
  8
Defpoints
 62
     0
100
AcDbPoint
 10
1480.025088670535
 20
601.8046868233042
 30
0.0
  0
POINT
  5
A64B
330
A47F
100
AcDbEntity
  8
Defpoints
 62
     0
100
AcDbPoint
 10
1499.025088670535
 20
611.8046868233042
 30
0.0
  0
POINT
  5
A64C
330
A47F
100
AcDbEntity
  8
Defpoints
 62
     0
100
AcDbPoint
 10
1499.025088670535
 20
568.8046868233047
 30
0.0
  0
ENDBLK
  5
A48A
330
A47F
100
AcDbEntity
  8
0
100
AcDbBlockEnd
  0
BLOCK
  5
A495
330
A48B
100
AcDbEntity
  8
0
100
AcDbBlockBegin
  2
*D3
 70
     1
 10
0.0
 20
0.0
 30
0.0
  3
*D3
  1

  0
LINE
  5
A64D
330
A48B
100
AcDbEntity
  8
AM_5
100
AcDbLine
 10
1476.325088670534
 20
580.6046868233046
 30
0.0
 11
1476.325088670534
 21
557.0046868233047
 31
0.0
  0
LINE
  5
A64E
330
A48B
100
AcDbEntity
  8
AM_5
100
AcDbLine
 10
1502.725088670534
 20
580.6046868233046
 30
0.0
 11
1502.725088670534
 21
557.0046868233047
 31
0.0
  0
LINE
  5
A64F
330
A48B
100
AcDbEntity
  8
AM_5
100
AcDbLine
 10
1479.925088670534
 20
558.8046868233046
 30
0.0
 11
1499.125088670534
 21
558.8046868233046
 31
0.0
  0
SOLID
  5
A650
330
A48B
100
AcDbEntity
  8
AM_5
100
AcDbTrace
 10
1479.925088670534
 20
559.4046868233046
 30
0.0
 11
1479.925088670534
 21
558.2046868233046
 31
0.0
 12
1476.325088670534
 22
558.8046868233046
 32
0.0
 13
1476.325088670534
 23
558.8046868233046
 33
0.0
  0
SOLID
  5
A651
330
A48B
100
AcDbEntity
  8
AM_5
100
AcDbTrace
 10
1499.125088670534
 20
559.4046868233046
 30
0.0
 11
1499.125088670534
 21
558.2046868233046
 31
0.0
 12
1502.725088670534
 22
558.8046868233046
 32
0.0
 13
1502.725088670534
 23
558.8046868233046
 33
0.0
  0
MTEXT
  5
A652
330
A48B
100
AcDbEntity
  8
AM_5
100
AcDbMText
 10
1489.525088670534
 20
561.7451002091314
 30
0.0
 40
4.2
 41
0.0
 71
     5
 72
     1
  1
26.4
 73
     1
 44
1.0
1001
ACAD
1000
MTEXTBEGIN
1070
    73
1070
     1
1070
    44
1040
1.0
1070
    74
1070
     0
1000
MTEXTEND
  0
POINT
  5
A653
330
A48B
100
AcDbEntity
  8
Defpoints
 62
     0
100
AcDbPoint
 10
1476.325088670534
 20
581.8046868233047
 30
0.0
  0
POINT
  5
A654
330
A48B
100
AcDbEntity
  8
Defpoints
 62
     0
100
AcDbPoint
 10
1502.725088670534
 20
581.8046868233047
 30
0.0
  0
POINT
  5
A655
330
A48B
100
AcDbEntity
  8
Defpoints
 62
     0
100
AcDbPoint
 10
1502.725088670534
 20
558.8046868233046
 30
0.0
  0
ENDBLK
  5
A496
330
A48B
100
AcDbEntity
  8
0
100
AcDbBlockEnd
  0
BLOCK
  5
A4A1
330
A497
100
AcDbEntity
  8
0
100
AcDbBlockBegin
  2
*D4
 70
     1
 10
0.0
 20
0.0
 30
0.0
  3
*D4
  1

  0
LINE
  5
A656
330
A497
100
AcDbEntity
  8
AM_5
100
AcDbLine
 10
1502.925088670534
 20
580.8046868233047
 30
0.0
 11
1516.525088670534
 21
580.8046868233047
 31
0.0
  0
LINE
  5
A657
330
A497
100
AcDbEntity
  8
AM_5
100
AcDbLine
 10
1498.925088670534
 20
600.8046868233042
 30
0.0
 11
1516.525088670534
 21
600.8046868233042
 31
0.0
  0
LINE
  5
A658
330
A497
100
AcDbEntity
  8
AM_5
100
AcDbLine
 10
1514.725088670535
 20
584.4046868233046
 30
0.0
 11
1514.725088670535
 21
597.2046868233042
 31
0.0
  0
SOLID
  5
A659
330
A497
100
AcDbEntity
  8
AM_5
100
AcDbTrace
 10
1514.125088670535
 20
584.4046868233046
 30
0.0
 11
1515.325088670534
 21
584.4046868233046
 31
0.0
 12
1514.725088670535
 22
580.8046868233047
 32
0.0
 13
1514.725088670535
 23
580.8046868233047
 33
0.0
  0
SOLID
  5
A65A
330
A497
100
AcDbEntity
  8
AM_5
100
AcDbTrace
 10
1514.125088670535
 20
597.2046868233042
 30
0.0
 11
1515.325088670534
 21
597.2046868233042
 31
0.0
 12
1514.725088670535
 22
600.8046868233042
 32
0.0
 13
1514.725088670535
 23
600.8046868233042
 33
0.0
  0
MTEXT
  5
A65B
330
A497
100
AcDbEntity
  8
AM_5
100
AcDbMText
 10
1511.784675284707
 20
590.8046868233046
 30
0.0
 40
4.2
 41
0.0
 71
     5
 72
     1
  1
20
 11
0.0000000000000001
 21
1.0
 31
0.0
 73
     1
 44
1.0
1001
ACAD
1000
MTEXTBEGIN
1070
    73
1070
     1
1070
    44
1040
1.0
1070
    74
1070
     0
1000
MTEXTEND
  0
POINT
  5
A65C
330
A497
100
AcDbEntity
  8
Defpoints
 62
     0
100
AcDbPoint
 10
1501.725088670534
 20
580.8046868233047
 30
0.0
  0
POINT
  5
A65D
330
A497
100
AcDbEntity
  8
Defpoints
 62
     0
100
AcDbPoint
 10
1497.725088670535
 20
600.8046868233042
 30
0.0
  0
POINT
  5
A65E
330
A497
100
AcDbEntity
  8
Defpoints
 62
     0
100
AcDbPoint
 10
1514.725088670535
 20
600.8046868233042
 30
0.0
  0
ENDBLK
  5
A4A2
330
A497
100
AcDbEntity
  8
0
100
AcDbBlockEnd
  0
BLOCK
  5
A4AD
330
A4A3
100
AcDbEntity
  8
0
100
AcDbBlockBegin
  2
*D5
 70
     1
 10
0.0
 20
0.0
 30
0.0
  3
*D5
  1

  0
LINE
  5
A65F
330
A4A3
100
AcDbEntity
  8
AM_5
100
AcDbLine
 10
1498.925088670534
 20
600.8046868233042
 30
0.0
 11
1516.525088670534
 21
600.8046868233042
 31
0.0
  0
LINE
  5
A660
330
A4A3
100
AcDbEntity
  8
AM_5
100
AcDbLine
 10
1498.925088670534
 20
623.8046868233042
 30
0.0
 11
1516.525088670534
 21
623.8046868233042
 31
0.0
  0
LINE
  5
A661
330
A4A3
100
AcDbEntity
  8
AM_5
100
AcDbLine
 10
1514.725088670535
 20
604.4046868233042
 30
0.0
 11
1514.725088670535
 21
620.2046868233042
 31
0.0
  0
SOLID
  5
A662
330
A4A3
100
AcDbEntity
  8
AM_5
100
AcDbTrace
 10
1514.125088670535
 20
604.4046868233042
 30
0.0
 11
1515.325088670534
 21
604.4046868233042
 31
0.0
 12
1514.725088670535
 22
600.8046868233042
 32
0.0
 13
1514.725088670535
 23
600.8046868233042
 33
0.0
  0
SOLID
  5
A663
330
A4A3
100
AcDbEntity
  8
AM_5
100
AcDbTrace
 10
1514.125088670535
 20
620.2046868233042
 30
0.0
 11
1515.325088670534
 21
620.2046868233042
 31
0.0
 12
1514.725088670535
 22
623.8046868233042
 32
0.0
 13
1514.725088670535
 23
623.8046868233042
 33
0.0
  0
MTEXT
  5
A664
330
A4A3
100
AcDbEntity
  8
AM_5
100
AcDbMText
 10
1511.784675284707
 20
612.3046868233045
 30
0.0
 40
4.2
 41
0.0
 71
     5
 72
     1
  1
23
 11
0.0000000000000001
 21
1.0
 31
0.0
 73
     1
 44
1.0
1001
ACAD
1000
MTEXTBEGIN
1070
    73
1070
     1
1070
    44
1040
1.0
1070
    74
1070
     0
1000
MTEXTEND
  0
POINT
  5
A665
330
A4A3
100
AcDbEntity
  8
Defpoints
 62
     0
100
AcDbPoint
 10
1497.725088670535
 20
600.8046868233042
 30
0.0
  0
POINT
  5
A666
330
A4A3
100
AcDbEntity
  8
Defpoints
 62
     0
100
AcDbPoint
 10
1497.725088670535
 20
623.8046868233042
 30
0.0
  0
POINT
  5
A667
330
A4A3
100
AcDbEntity
  8
Defpoints
 62
     0
100
AcDbPoint
 10
1514.725088670535
 20
623.8046868233042
 30
0.0
  0
ENDBLK
  5
A4AE
330
A4A3
100
AcDbEntity
  8
0
100
AcDbBlockEnd
  0
BLOCK
  5
A4B9
330
A4AF
100
AcDbEntity
  8
0
100
AcDbBlockBegin
  2
*D6
 70
     1
 10
0.0
 20
0.0
 30
0.0
  3
*D6
  1

  0
LINE
  5
A668
330
A4AF
100
AcDbEntity
  8
AM_5
100
AcDbLine
 10
1473.325088670535
 20
607.3046868233042
 30
0.0
 11
1462.125088670535
 21
607.3046868233042
 31
0.0
  0
LINE
  5
A669
330
A4AF
100
AcDbEntity
  8
AM_5
100
AcDbLine
 10
1492.325088670535
 20
617.3046868233042
 30
0.0
 11
1462.125088670535
 21
617.3046868233042
 31
0.0
  0
LINE
  5
A66A
330
A4AF
100
AcDbEntity
  8
AM_5
100
AcDbLine
 10
1463.925088670535
 20
610.9046868233042
 30
0.0
 11
1463.925088670535
 21
613.7046868233042
 31
0.0
  0
SOLID
  5
A66B
330
A4AF
100
AcDbEntity
  8
AM_5
100
AcDbTrace
 10
1463.325088670535
 20
610.9046868233042
 30
0.0
 11
1464.525088670534
 21
610.9046868233042
 31
0.0
 12
1463.925088670535
 22
607.3046868233042
 32
0.0
 13
1463.925088670535
 23
607.3046868233042
 33
0.0
  0
SOLID
  5
A66C
330
A4AF
100
AcDbEntity
  8
AM_5
100
AcDbTrace
 10
1463.325088670535
 20
613.7046868233042
 30
0.0
 11
1464.525088670534
 21
613.7046868233042
 31
0.0
 12
1463.925088670535
 22
617.3046868233042
 32
0.0
 13
1463.925088670535
 23
617.3046868233042
 33
0.0
  0
MTEXT
  5
A66D
330
A4AF
100
AcDbEntity
  8
AM_5
100
AcDbMText
 10
1460.985088670534
 20
612.3046868233045
 30
0.0
 40
4.2
 41
0.0
 71
     5
 72
     1
  1
10
 11
0.0000000000000001
 21
1.0
 31
0.0
 73
     1
 44
1.0
1001
ACAD
1000
MTEXTBEGIN
1070
    73
1070
     1
1070
    44
1040
1.0
1070
    74
1070
     0
1000
MTEXTEND
  0
POINT
  5
A66E
330
A4AF
100
AcDbEntity
  8
Defpoints
 62
     0
100
AcDbPoint
 10
1474.525088670535
 20
607.3046868233042
 30
0.0
  0
POINT
  5
A66F
330
A4AF
100
AcDbEntity
  8
Defpoints
 62
     0
100
AcDbPoint
 10
1493.525088670535
 20
617.3046868233042
 30
0.0
  0
POINT
  5
A670
330
A4AF
100
AcDbEntity
  8
Defpoints
 62
     0
100
AcDbPoint
 10
1463.925088670535
 20
617.3046868233042
 30
0.0
  0
ENDBLK
  5
A4BA
330
A4AF
100
AcDbEntity
  8
0
100
AcDbBlockEnd
  0
BLOCK
  5
A4C5
330
A4BB
100
AcDbEntity
  8
0
100
AcDbBlockBegin
  2
*D7
 70
     1
 10
0.0
 20
0.0
 30
0.0
  3
*D7
  1

  0
LINE
  5
A671
330
A4BB
100
AcDbEntity
  8
AM_5
100
AcDbLine
 10
1476.125088670534
 20
580.8046868233047
 30
0.0
 11
1462.125088670535
 21
580.8046868233047
 31
0.0
  0
LINE
  5
A672
330
A4BB
100
AcDbEntity
  8
AM_5
100
AcDbLine
 10
1473.325088670534
 20
607.3046868233042
 30
0.0
 11
1462.125088670535
 21
607.3046868233042
 31
0.0
  0
LINE
  5
A673
330
A4BB
100
AcDbEntity
  8
AM_5
100
AcDbLine
 10
1463.925088670535
 20
584.4046868233046
 30
0.0
 11
1463.925088670535
 21
603.7046868233042
 31
0.0
  0
SOLID
  5
A674
330
A4BB
100
AcDbEntity
  8
AM_5
100
AcDbTrace
 10
1463.325088670535
 20
584.4046868233046
 30
0.0
 11
1464.525088670534
 21
584.4046868233046
 31
0.0
 12
1463.925088670535
 22
580.8046868233047
 32
0.0
 13
1463.925088670535
 23
580.8046868233047
 33
0.0
  0
SOLID
  5
A675
330
A4BB
100
AcDbEntity
  8
AM_5
100
AcDbTrace
 10
1463.325088670535
 20
603.7046868233042
 30
0.0
 11
1464.525088670534
 21
603.7046868233042
 31
0.0
 12
1463.925088670535
 22
607.3046868233042
 32
0.0
 13
1463.925088670535
 23
607.3046868233042
 33
0.0
  0
MTEXT
  5
A676
330
A4BB
100
AcDbEntity
  8
AM_5
100
AcDbMText
 10
1460.984675284707
 20
594.0546868233046
 30
0.0
 40
4.2
 41
0.0
 71
     5
 72
     1
  1
26.5
 11
0.0000000000000001
 21
1.0
 31
0.0
 73
     1
 44
1.0
1001
ACAD
1000
MTEXTBEGIN
1070
    73
1070
     1
1070
    44
1040
1.0
1070
    74
1070
     0
1000
MTEXTEND
  0
POINT
  5
A677
330
A4BB
100
AcDbEntity
  8
Defpoints
 62
     0
100
AcDbPoint
 10
1477.325088670534
 20
580.8046868233047
 30
0.0
  0
POINT
  5
A678
330
A4BB
100
AcDbEntity
  8
Defpoints
 62
     0
100
AcDbPoint
 10
1474.525088670534
 20
607.3046868233042
 30
0.0
  0
POINT
  5
A679
330
A4BB
100
AcDbEntity
  8
Defpoints
 62
     0
100
AcDbPoint
 10
1463.925088670535
 20
607.3046868233042
 30
0.0
  0
ENDBLK
  5
A4C6
330
A4BB
100
AcDbEntity
  8
0
100
AcDbBlockEnd
  0
BLOCK
  5
A536
330
A52A
100
AcDbEntity
  8
0
100
AcDbBlockBegin
  2
*D8
 70
     1
 10
0.0
 20
0.0
 30
0.0
  3
*D8
  1

  0
LINE
  5
A595
330
A52A
100
AcDbEntity
  8
AM_5
100
AcDbLine
 10
1439.677822767281
 20
580.6046868233043
 30
0.0
 11
1439.677822767281
 21
567.0046868233044
 31
0.0
  0
LINE
  5
A596
330
A52A
100
AcDbEntity
  8
AM_5
100
AcDbLine
 10
1435.677822767281
 20
602.1046868233041
 30
0.0
 11
1435.677822767281
 21
567.0046868233044
 31
0.0
  0
LINE
  5
A597
330
A52A
100
AcDbEntity
  8
AM_5
100
AcDbLine
 10
1432.077822767281
 20
568.8046868233044
 30
0.0
 11
1428.477822767281
 21
568.8046868233044
 31
0.0
  0
LINE
  5
A598
330
A52A
100
AcDbEntity
  8
AM_5
100
AcDbLine
 10
1443.277822767281
 20
568.8046868233044
 30
0.0
 11
1450.657822767281
 21
568.8046868233044
 31
0.0
  0
LINE
  5
A599
330
A52A
100
AcDbEntity
  8
AM_5
100
AcDbLine
 10
1435.677822767281
 20
568.8046868233044
 30
0.0
 11
1439.677822767281
 21
568.8046868233044
 31
0.0
  0
SOLID
  5
A59A
330
A52A
100
AcDbEntity
  8
AM_5
100
AcDbTrace
 10
1432.077822767281
 20
569.4046868233044
 30
0.0
 11
1432.077822767281
 21
568.2046868233044
 31
0.0
 12
1435.677822767281
 22
568.8046868233044
 32
0.0
 13
1435.677822767281
 23
568.8046868233044
 33
0.0
  0
SOLID
  5
A59B
330
A52A
100
AcDbEntity
  8
AM_5
100
AcDbTrace
 10
1443.277822767281
 20
569.4046868233044
 30
0.0
 11
1443.277822767281
 21
568.2046868233044
 31
0.0
 12
1439.677822767281
 22
568.8046868233044
 32
0.0
 13
1439.677822767281
 23
568.8046868233044
 33
0.0
  0
MTEXT
  5
A59C
330
A52A
100
AcDbEntity
  8
AM_5
100
AcDbMText
 10
1448.767822767281
 20
571.7446868233045
 30
0.0
 40
4.2
 41
0.0
 71
     5
 72
     1
  1
4
 73
     1
 44
1.0
1001
ACAD
1000
MTEXTBEGIN
1070
    73
1070
     1
1070
    44
1040
1.0
1070
    74
1070
     0
1000
MTEXTEND
  0
POINT
  5
A59D
330
A52A
100
AcDbEntity
  8
Defpoints
 62
     0
100
AcDbPoint
 10
1439.677822767281
 20
581.8046868233044
 30
0.0
  0
POINT
  5
A59E
330
A52A
100
AcDbEntity
  8
Defpoints
 62
     0
100
AcDbPoint
 10
1435.677822767281
 20
603.3046868233041
 30
0.0
  0
POINT
  5
A59F
330
A52A
100
AcDbEntity
  8
Defpoints
 62
     0
100
AcDbPoint
 10
1435.677822767281
 20
568.8046868233044
 30
0.0
  0
ENDBLK
  5
A537
330
A52A
100
AcDbEntity
  8
0
100
AcDbBlockEnd
  0
BLOCK
  5
A542
330
A538
100
AcDbEntity
  8
0
100
AcDbBlockBegin
  2
*D9
 70
     1
 10
0.0
 20
0.0
 30
0.0
  3
*D9
  1

  0
LINE
  5
A539
330
A538
100
AcDbEntity
  8
AM_5
100
AcDbLine
 10
1404.177822767281
 20
580.8046868233044
 30
0.0
 11
1390.577822767281
 21
580.8046868233044
 31
0.0
  0
LINE
  5
A53A
330
A538
100
AcDbEntity
  8
AM_5
100
AcDbLine
 10
1403.577822767281
 20
601.8046868233043
 30
0.0
 11
1390.577822767281
 21
601.8046868233043
 31
0.0
  0
LINE
  5
A53B
330
A538
100
AcDbEntity
  8
AM_5
100
AcDbLine
 10
1392.377822767281
 20
584.4046868233045
 30
0.0
 11
1392.377822767281
 21
598.2046868233043
 31
0.0
  0
SOLID
  5
A53C
330
A538
100
AcDbEntity
  8
AM_5
100
AcDbTrace
 10
1391.777822767281
 20
584.4046868233045
 30
0.0
 11
1392.977822767281
 21
584.4046868233045
 31
0.0
 12
1392.377822767281
 22
580.8046868233044
 32
0.0
 13
1392.377822767281
 23
580.8046868233044
 33
0.0
  0
SOLID
  5
A53D
330
A538
100
AcDbEntity
  8
AM_5
100
AcDbTrace
 10
1391.777822767281
 20
598.2046868233043
 30
0.0
 11
1392.977822767281
 21
598.2046868233043
 31
0.0
 12
1392.377822767281
 22
601.8046868233043
 32
0.0
 13
1392.377822767281
 23
601.8046868233043
 33
0.0
  0
MTEXT
  5
A53E
330
A538
100
AcDbEntity
  8
AM_5
100
AcDbMText
 10
1389.437409381454
 20
591.3046868233046
 30
0.0
 40
4.2
 41
0.0
 71
     5
 72
     1
  1
21
 11
0.0000000000000001
 21
1.0
 31
0.0
 73
     1
 44
1.0
1001
ACAD
1000
MTEXTBEGIN
1070
    73
1070
     1
1070
    44
1040
1.0
1070
    74
1070
     0
1000
MTEXTEND
  0
POINT
  5
A53F
330
A538
100
AcDbEntity
  8
Defpoints
 62
     0
100
AcDbPoint
 10
1405.377822767281
 20
580.8046868233044
 30
0.0
  0
POINT
  5
A540
330
A538
100
AcDbEntity
  8
Defpoints
 62
     0
100
AcDbPoint
 10
1404.777822767281
 20
601.8046868233043
 30
0.0
  0
POINT
  5
A541
330
A538
100
AcDbEntity
  8
Defpoints
 62
     0
100
AcDbPoint
 10
1392.377822767281
 20
601.8046868233043
 30
0.0
  0
ENDBLK
  5
A543
330
A538
100
AcDbEntity
  8
0
100
AcDbBlockEnd
  0
BLOCK
  5
A54E
330
A544
100
AcDbEntity
  8
0
100
AcDbBlockBegin
  2
*D10
 70
     1
 10
0.0
 20
0.0
 30
0.0
  3
*D10
  1

  0
LINE
  5
A545
330
A544
100
AcDbEntity
  8
AM_5
100
AcDbLine
 10
1403.577822767281
 20
601.8046868233043
 30
0.0
 11
1390.577822767281
 21
601.8046868233043
 31
0.0
  0
LINE
  5
A546
330
A544
100
AcDbEntity
  8
AM_5
100
AcDbLine
 10
1403.577822767281
 20
622.8046868233043
 30
0.0
 11
1390.577822767281
 21
622.8046868233043
 31
0.0
  0
LINE
  5
A547
330
A544
100
AcDbEntity
  8
AM_5
100
AcDbLine
 10
1392.377822767281
 20
605.4046868233044
 30
0.0
 11
1392.377822767281
 21
619.2046868233043
 31
0.0
  0
SOLID
  5
A548
330
A544
100
AcDbEntity
  8
AM_5
100
AcDbTrace
 10
1391.777822767281
 20
605.4046868233044
 30
0.0
 11
1392.977822767281
 21
605.4046868233044
 31
0.0
 12
1392.377822767281
 22
601.8046868233043
 32
0.0
 13
1392.377822767281
 23
601.8046868233043
 33
0.0
  0
SOLID
  5
A549
330
A544
100
AcDbEntity
  8
AM_5
100
AcDbTrace
 10
1391.777822767281
 20
619.2046868233043
 30
0.0
 11
1392.977822767281
 21
619.2046868233043
 31
0.0
 12
1392.377822767281
 22
622.8046868233043
 32
0.0
 13
1392.377822767281
 23
622.8046868233043
 33
0.0
  0
MTEXT
  5
A54A
330
A544
100
AcDbEntity
  8
AM_5
100
AcDbMText
 10
1389.437409381454
 20
612.3046868233045
 30
0.0
 40
4.2
 41
0.0
 71
     5
 72
     1
  1
21
 11
0.0000000000000001
 21
1.0
 31
0.0
 73
     1
 44
1.0
1001
ACAD
1000
MTEXTBEGIN
1070
    73
1070
     1
1070
    44
1040
1.0
1070
    74
1070
     0
1000
MTEXTEND
  0
POINT
  5
A54B
330
A544
100
AcDbEntity
  8
Defpoints
 62
     0
100
AcDbPoint
 10
1404.777822767281
 20
601.8046868233043
 30
0.0
  0
POINT
  5
A54C
330
A544
100
AcDbEntity
  8
Defpoints
 62
     0
100
AcDbPoint
 10
1404.777822767281
 20
622.8046868233043
 30
0.0
  0
POINT
  5
A54D
330
A544
100
AcDbEntity
  8
Defpoints
 62
     0
100
AcDbPoint
 10
1392.377822767281
 20
622.8046868233043
 30
0.0
  0
ENDBLK
  5
A54F
330
A544
100
AcDbEntity
  8
0
100
AcDbBlockEnd
  0
BLOCK
  5
A55A
330
A550
100
AcDbEntity
  8
0
100
AcDbBlockBegin
  2
*D11
 70
     1
 10
0.0
 20
0.0
 30
0.0
  3
*D11
  1

  0
LINE
  5
A5A0
330
A550
100
AcDbEntity
  8
AM_5
100
AcDbLine
 10
1404.377822767281
 20
580.6046868233043
 30
0.0
 11
1404.377822767281
 21
557.0046868233045
 31
0.0
  0
LINE
  5
A5A1
330
A550
100
AcDbEntity
  8
AM_5
100
AcDbLine
 10
1439.677822767281
 20
580.6046868233043
 30
0.0
 11
1439.677822767281
 21
557.0046868233045
 31
0.0
  0
LINE
  5
A5A2
330
A550
100
AcDbEntity
  8
AM_5
100
AcDbLine
 10
1407.977822767281
 20
558.8046868233044
 30
0.0
 11
1436.077822767281
 21
558.8046868233044
 31
0.0
  0
SOLID
  5
A5A3
330
A550
100
AcDbEntity
  8
AM_5
100
AcDbTrace
 10
1407.977822767281
 20
559.4046868233045
 30
0.0
 11
1407.977822767281
 21
558.2046868233044
 31
0.0
 12
1404.377822767281
 22
558.8046868233044
 32
0.0
 13
1404.377822767281
 23
558.8046868233044
 33
0.0
  0
SOLID
  5
A5A4
330
A550
100
AcDbEntity
  8
AM_5
100
AcDbTrace
 10
1436.077822767281
 20
559.4046868233045
 30
0.0
 11
1436.077822767281
 21
558.2046868233044
 31
0.0
 12
1439.677822767281
 22
558.8046868233044
 32
0.0
 13
1439.677822767281
 23
558.8046868233044
 33
0.0
  0
MTEXT
  5
A5A5
330
A550
100
AcDbEntity
  8
AM_5
100
AcDbMText
 10
1422.027822767281
 20
561.7446868233044
 30
0.0
 40
4.2
 41
0.0
 71
     5
 72
     1
  1
35.3
 73
     1
 44
1.0
1001
ACAD
1000
MTEXTBEGIN
1070
    73
1070
     1
1070
    44
1040
1.0
1070
    74
1070
     0
1000
MTEXTEND
  0
POINT
  5
A5A6
330
A550
100
AcDbEntity
  8
Defpoints
 62
     0
100
AcDbPoint
 10
1404.377822767281
 20
581.8046868233044
 30
0.0
  0
POINT
  5
A5A7
330
A550
100
AcDbEntity
  8
Defpoints
 62
     0
100
AcDbPoint
 10
1439.677822767281
 20
581.8046868233044
 30
0.0
  0
POINT
  5
A5A8
330
A550
100
AcDbEntity
  8
Defpoints
 62
     0
100
AcDbPoint
 10
1439.677822767281
 20
558.8046868233044
 30
0.0
  0
ENDBLK
  5
A55B
330
A550
100
AcDbEntity
  8
0
100
AcDbBlockEnd
  0
BLOCK
  5
A568
330
A55C
100
AcDbEntity
  8
0
100
AcDbBlockBegin
  2
*D12
 70
     1
 10
0.0
 20
0.0
 30
0.0
  3
*D12
  1

  0
LINE
  5
A55D
330
A55C
100
AcDbEntity
  8
AM_5
100
AcDbLine
 10
1404.377822767281
 20
580.6046868233043
 30
0.0
 11
1404.377822767281
 21
567.0046868233044
 31
0.0
  0
LINE
  5
A55E
330
A55C
100
AcDbEntity
  8
AM_5
100
AcDbLine
 10
1408.527822767281
 20
596.8546868233042
 30
0.0
 11
1408.527822767281
 21
567.0046868233044
 31
0.0
  0
LINE
  5
A55F
330
A55C
100
AcDbEntity
  8
AM_5
100
AcDbLine
 10
1400.777822767281
 20
568.8046868233044
 30
0.0
 11
1397.177822767281
 21
568.8046868233044
 31
0.0
  0
LINE
  5
A560
330
A55C
100
AcDbEntity
  8
AM_5
100
AcDbLine
 10
1412.127822767281
 20
568.8046868233044
 30
0.0
 11
1423.960070798777
 21
568.8046868233044
 31
0.0
  0
LINE
  5
A561
330
A55C
100
AcDbEntity
  8
AM_5
100
AcDbLine
 10
1404.377822767281
 20
568.8046868233044
 30
0.0
 11
1408.527822767281
 21
568.8046868233044
 31
0.0
  0
SOLID
  5
A562
330
A55C
100
AcDbEntity
  8
AM_5
100
AcDbTrace
 10
1400.777822767281
 20
569.4046868233044
 30
0.0
 11
1400.777822767281
 21
568.2046868233044
 31
0.0
 12
1404.377822767281
 22
568.8046868233044
 32
0.0
 13
1404.377822767281
 23
568.8046868233044
 33
0.0
  0
SOLID
  5
A563
330
A55C
100
AcDbEntity
  8
AM_5
100
AcDbTrace
 10
1412.127822767281
 20
569.4046868233044
 30
0.0
 11
1412.127822767281
 21
568.2046868233044
 31
0.0
 12
1408.527822767281
 22
568.8046868233044
 32
0.0
 13
1408.527822767281
 23
568.8046868233044
 33
0.0
  0
MTEXT
  5
A564
330
A55C
100
AcDbEntity
  8
AM_5
100
AcDbMText
 10
1419.843946783029
 20
571.7451002091312
 30
0.0
 40
4.2
 41
0.0
 71
     5
 72
     1
  1
4.2
 73
     1
 44
1.0
1001
ACAD
1000
MTEXTBEGIN
1070
    73
1070
     1
1070
    44
1040
1.0
1070
    74
1070
     0
1000
MTEXTEND
  0
POINT
  5
A565
330
A55C
100
AcDbEntity
  8
Defpoints
 62
     0
100
AcDbPoint
 10
1404.377822767281
 20
581.8046868233044
 30
0.0
  0
POINT
  5
A566
330
A55C
100
AcDbEntity
  8
Defpoints
 62
     0
100
AcDbPoint
 10
1408.527822767281
 20
598.0546868233043
 30
0.0
  0
POINT
  5
A567
330
A55C
100
AcDbEntity
  8
Defpoints
 62
     0
100
AcDbPoint
 10
1408.527822767281
 20
568.8046868233044
 30
0.0
  0
ENDBLK
  5
A569
330
A55C
100
AcDbEntity
  8
0
100
AcDbBlockEnd
  0
BLOCK
  5
A574
330
A56A
100
AcDbEntity
  8
0
100
AcDbBlockBegin
  2
*D13
 70
     1
 10
0.0
 20
0.0
 30
0.0
  3
*D13
  1

  0
LINE
  5
ADCD
330
A56A
100
AcDbEntity
  8
AM_5
100
AcDbLine
 10
1404.177822767281
 20
580.8046868233044
 30
0.0
 11
1370.577822767282
 21
580.8046868233044
 31
0.0
  0
LINE
  5
ADCE
330
A56A
100
AcDbEntity
  8
AM_5
100
AcDbLine
 10
1390.826194128415
 20
676.2898793870345
 30
0.0
 11
1370.577822767282
 21
676.2898793870345
 31
0.0
  0
LINE
  5
ADCF
330
A56A
100
AcDbEntity
  8
AM_5
100
AcDbLine
 10
1372.377822767281
 20
584.4046868233045
 30
0.0
 11
1372.377822767281
 21
672.6898793870344
 31
0.0
  0
SOLID
  5
ADD0
330
A56A
100
AcDbEntity
  8
AM_5
100
AcDbTrace
 10
1371.777822767281
 20
584.4046868233045
 30
0.0
 11
1372.977822767281
 21
584.4046868233045
 31
0.0
 12
1372.377822767281
 22
580.8046868233044
 32
0.0
 13
1372.377822767281
 23
580.8046868233044
 33
0.0
  0
SOLID
  5
ADD1
330
A56A
100
AcDbEntity
  8
AM_5
100
AcDbTrace
 10
1371.777822767281
 20
672.6898793870344
 30
0.0
 11
1372.977822767281
 21
672.6898793870344
 31
0.0
 12
1372.377822767281
 22
676.2898793870345
 32
0.0
 13
1372.377822767281
 23
676.2898793870345
 33
0.0
  0
MTEXT
  5
ADD2
330
A56A
100
AcDbEntity
  8
AM_5
100
AcDbMText
 10
1369.437822767281
 20
628.5472831051696
 30
0.0
 40
4.2
 41
0.0
 71
     5
 72
     1
  1
95.5
 11
0.0000000000000001
 21
1.0
 31
0.0
 73
     1
 44
1.0
1001
ACAD
1000
MTEXTBEGIN
1070
    73
1070
     1
1070
    44
1040
1.0
1070
    74
1070
     0
1000
MTEXTEND
  0
POINT
  5
ADD3
330
A56A
100
AcDbEntity
  8
Defpoints
 62
     0
100
AcDbPoint
 10
1405.377822767281
 20
580.8046868233044
 30
0.0
  0
POINT
  5
ADD4
330
A56A
100
AcDbEntity
  8
Defpoints
 62
     0
100
AcDbPoint
 10
1392.026194128415
 20
676.2898793870345
 30
0.0
  0
POINT
  5
ADD5
330
A56A
100
AcDbEntity
  8
Defpoints
 62
     0
100
AcDbPoint
 10
1372.377822767281
 20
676.2898793870345
 30
0.0
  0
ENDBLK
  5
A575
330
A56A
100
AcDbEntity
  8
0
100
AcDbBlockEnd
  0
BLOCK
  5
A580
330
A576
100
AcDbEntity
  8
0
100
AcDbBlockBegin
  2
*D14
 70
     1
 10
0.0
 20
0.0
 30
0.0
  3
*D14
  1

  0
LINE
  5
AEB0
330
A576
100
AcDbEntity
  8
AM_5
100
AcDbLine
 10
1402.026194128415
 20
687.4898793870345
 30
0.0
 11
1402.026194128415
 21
695.2719523535135
 31
0.0
  0
LINE
  5
AEB1
330
A576
100
AcDbEntity
  8
AM_5
100
AcDbLine
 10
1447.027822767281
 20
664.5046868233045
 30
0.0
 11
1447.027822767281
 21
695.2719523535135
 31
0.0
  0
LINE
  5
AEB2
330
A576
100
AcDbEntity
  8
AM_5
100
AcDbLine
 10
1405.626194128415
 20
693.4719523535135
 30
0.0
 11
1443.427822767281
 21
693.4719523535135
 31
0.0
  0
SOLID
  5
AEB3
330
A576
100
AcDbEntity
  8
AM_5
100
AcDbTrace
 10
1405.626194128415
 20
694.0719523535135
 30
0.0
 11
1405.626194128415
 21
692.8719523535135
 31
0.0
 12
1402.026194128415
 22
693.4719523535135
 32
0.0
 13
1402.026194128415
 23
693.4719523535135
 33
0.0
  0
SOLID
  5
AEB4
330
A576
100
AcDbEntity
  8
AM_5
100
AcDbTrace
 10
1443.427822767281
 20
694.0719523535135
 30
0.0
 11
1443.427822767281
 21
692.8719523535135
 31
0.0
 12
1447.027822767281
 22
693.4719523535135
 32
0.0
 13
1447.027822767281
 23
693.4719523535135
 33
0.0
  0
MTEXT
  5
AEB5
330
A576
100
AcDbEntity
  8
AM_5
100
AcDbMText
 10
1424.527008447848
 20
696.4119523535136
 30
0.0
 40
4.2
 41
0.0
 71
     5
 72
     1
  1
45
 73
     1
 44
1.0
1001
ACAD
1000
MTEXTBEGIN
1070
    73
1070
     1
1070
    44
1040
1.0
1070
    74
1070
     0
1000
MTEXTEND
  0
POINT
  5
AEB6
330
A576
100
AcDbEntity
  8
Defpoints
 62
     0
100
AcDbPoint
 10
1402.026194128415
 20
686.2898793870344
 30
0.0
  0
POINT
  5
AEB7
330
A576
100
AcDbEntity
  8
Defpoints
 62
     0
100
AcDbPoint
 10
1447.027822767281
 20
663.3046868233044
 30
0.0
  0
POINT
  5
AEB8
330
A576
100
AcDbEntity
  8
Defpoints
 62
     0
100
AcDbPoint
 10
1447.027822767281
 20
693.4719523535135
 30
0.0
  0
ENDBLK
  5
A581
330
A576
100
AcDbEntity
  8
0
100
AcDbBlockEnd
  0
BLOCK
  5
A593
330
A589
100
AcDbEntity
  8
0
100
AcDbBlockBegin
  2
*D15
 70
     1
 10
0.0
 20
0.0
 30
0.0
  3
*D15
  1

  0
LINE
  5
AE20
330
A589
100
AcDbEntity
  8
AM_5
100
AcDbLine
 10
1404.177822767281
 20
580.8046868233044
 30
0.0
 11
1380.577822767281
 21
580.8046868233044
 31
0.0
  0
LINE
  5
AE21
330
A589
100
AcDbEntity
  8
AM_5
100
AcDbLine
 10
1388.01661904381
 20
667.2855831497279
 30
0.0
 11
1380.577822767281
 21
667.2855831497279
 31
0.0
  0
LINE
  5
AE22
330
A589
100
AcDbEntity
  8
AM_5
100
AcDbLine
 10
1382.377822767281
 20
584.4046868233045
 30
0.0
 11
1382.377822767281
 21
663.6855831497278
 31
0.0
  0
SOLID
  5
AE23
330
A589
100
AcDbEntity
  8
AM_5
100
AcDbTrace
 10
1381.777822767281
 20
584.4046868233045
 30
0.0
 11
1382.977822767281
 21
584.4046868233045
 31
0.0
 12
1382.377822767281
 22
580.8046868233044
 32
0.0
 13
1382.377822767281
 23
580.8046868233044
 33
0.0
  0
SOLID
  5
AE24
330
A589
100
AcDbEntity
  8
AM_5
100
AcDbTrace
 10
1381.777822767281
 20
663.6855831497278
 30
0.0
 11
1382.977822767281
 21
663.6855831497278
 31
0.0
 12
1382.377822767281
 22
667.2855831497279
 32
0.0
 13
1382.377822767281
 23
667.2855831497279
 33
0.0
  0
MTEXT
  5
AE25
330
A589
100
AcDbEntity
  8
AM_5
100
AcDbMText
 10
1379.437822767281
 20
624.0451349865164
 30
0.0
 40
4.2
 41
0.0
 71
     5
 72
     1
  1
86.5
 11
0.0000000000000001
 21
1.0
 31
0.0
 73
     1
 44
1.0
1001
ACAD
1000
MTEXTBEGIN
1070
    73
1070
     1
1070
    44
1040
1.0
1070
    74
1070
     0
1000
MTEXTEND
  0
POINT
  5
AE26
330
A589
100
AcDbEntity
  8
Defpoints
 62
     0
100
AcDbPoint
 10
1405.377822767281
 20
580.8046868233044
 30
0.0
  0
POINT
  5
AE27
330
A589
100
AcDbEntity
  8
Defpoints
 62
     0
100
AcDbPoint
 10
1389.21661904381
 20
667.2855831497279
 30
0.0
  0
POINT
  5
AE28
330
A589
100
AcDbEntity
  8
Defpoints
 62
     0
100
AcDbPoint
 10
1382.377822767281
 20
667.2855831497279
 30
0.0
  0
ENDBLK
  5
A594
330
A589
100
AcDbEntity
  8
0
100
AcDbBlockEnd
  0
BLOCK
  5
A5EB
330
A5E1
100
AcDbEntity
  8
0
100
AcDbBlockBegin
  2
*D16
 70
     1
 10
0.0
 20
0.0
 30
0.0
  3
*D16
  1

  0
LINE
  5
A605
330
A5E1
100
AcDbEntity
  8
AM_5
100
AcDbLine
 10
1324.354042088311
 20
580.8046868233044
 30
0.0
 11
1310.754042088311
 21
580.8046868233044
 31
0.0
  0
LINE
  5
A606
330
A5E1
100
AcDbEntity
  8
AM_5
100
AcDbLine
 10
1330.054042088311
 20
593.8046868233044
 30
0.0
 11
1310.754042088311
 21
593.8046868233044
 31
0.0
  0
LINE
  5
A607
330
A5E1
100
AcDbEntity
  8
AM_5
100
AcDbLine
 10
1312.554042088311
 20
584.4046868233045
 30
0.0
 11
1312.554042088311
 21
590.2046868233044
 31
0.0
  0
SOLID
  5
A608
330
A5E1
100
AcDbEntity
  8
AM_5
100
AcDbTrace
 10
1311.954042088311
 20
584.4046868233045
 30
0.0
 11
1313.154042088311
 21
584.4046868233045
 31
0.0
 12
1312.554042088311
 22
580.8046868233044
 32
0.0
 13
1312.554042088311
 23
580.8046868233044
 33
0.0
  0
SOLID
  5
A609
330
A5E1
100
AcDbEntity
  8
AM_5
100
AcDbTrace
 10
1311.954042088311
 20
590.2046868233044
 30
0.0
 11
1313.154042088311
 21
590.2046868233044
 31
0.0
 12
1312.554042088311
 22
593.8046868233044
 32
0.0
 13
1312.554042088311
 23
593.8046868233044
 33
0.0
  0
MTEXT
  5
A60A
330
A5E1
100
AcDbEntity
  8
AM_5
100
AcDbMText
 10
1309.614042088311
 20
587.3046868233046
 30
0.0
 40
4.2
 41
0.0
 71
     5
 72
     1
  1
13
 11
0.0000000000000001
 21
1.0
 31
0.0
 73
     1
 44
1.0
1001
ACAD
1000
MTEXTBEGIN
1070
    73
1070
     1
1070
    44
1040
1.0
1070
    74
1070
     0
1000
MTEXTEND
  0
POINT
  5
A60B
330
A5E1
100
AcDbEntity
  8
Defpoints
 62
     0
100
AcDbPoint
 10
1325.554042088311
 20
580.8046868233044
 30
0.0
  0
POINT
  5
A60C
330
A5E1
100
AcDbEntity
  8
Defpoints
 62
     0
100
AcDbPoint
 10
1331.254042088311
 20
593.8046868233044
 30
0.0
  0
POINT
  5
A60D
330
A5E1
100
AcDbEntity
  8
Defpoints
 62
     0
100
AcDbPoint
 10
1312.554042088311
 20
593.8046868233044
 30
0.0
  0
ENDBLK
  5
A5EC
330
A5E1
100
AcDbEntity
  8
0
100
AcDbBlockEnd
  0
BLOCK
  5
A5F7
330
A5ED
100
AcDbEntity
  8
0
100
AcDbBlockBegin
  2
*D17
 70
     1
 10
0.0
 20
0.0
 30
0.0
  3
*D17
  1

  0
LINE
  5
A60E
330
A5ED
100
AcDbEntity
  8
AM_5
100
AcDbLine
 10
1328.554042088311
 20
593.8046868233044
 30
0.0
 11
1310.754042088311
 21
593.8046868233044
 31
0.0
  0
LINE
  5
A60F
330
A5ED
100
AcDbEntity
  8
AM_5
100
AcDbLine
 10
1328.354042088311
 20
612.3046868233045
 30
0.0
 11
1310.754042088311
 21
612.3046868233045
 31
0.0
  0
LINE
  5
A610
330
A5ED
100
AcDbEntity
  8
AM_5
100
AcDbLine
 10
1312.554042088311
 20
597.4046868233044
 30
0.0
 11
1312.554042088311
 21
608.7046868233044
 31
0.0
  0
SOLID
  5
A611
330
A5ED
100
AcDbEntity
  8
AM_5
100
AcDbTrace
 10
1311.954042088311
 20
597.4046868233044
 30
0.0
 11
1313.154042088311
 21
597.4046868233044
 31
0.0
 12
1312.554042088311
 22
593.8046868233044
 32
0.0
 13
1312.554042088311
 23
593.8046868233044
 33
0.0
  0
SOLID
  5
A612
330
A5ED
100
AcDbEntity
  8
AM_5
100
AcDbTrace
 10
1311.954042088311
 20
608.7046868233044
 30
0.0
 11
1313.154042088311
 21
608.7046868233044
 31
0.0
 12
1312.554042088311
 22
612.3046868233045
 32
0.0
 13
1312.554042088311
 23
612.3046868233045
 33
0.0
  0
MTEXT
  5
A613
330
A5ED
100
AcDbEntity
  8
AM_5
100
AcDbMText
 10
1309.614042088311
 20
603.0546868233046
 30
0.0
 40
4.2
 41
0.0
 71
     5
 72
     1
  1
18.5
 11
0.0000000000000001
 21
1.0
 31
0.0
 73
     1
 44
1.0
1001
ACAD
1000
MTEXTBEGIN
1070
    73
1070
     1
1070
    44
1040
1.0
1070
    74
1070
     0
1000
MTEXTEND
  0
POINT
  5
A614
330
A5ED
100
AcDbEntity
  8
Defpoints
 62
     0
100
AcDbPoint
 10
1329.754042088311
 20
593.8046868233044
 30
0.0
  0
POINT
  5
A615
330
A5ED
100
AcDbEntity
  8
Defpoints
 62
     0
100
AcDbPoint
 10
1329.554042088311
 20
612.3046868233045
 30
0.0
  0
POINT
  5
A616
330
A5ED
100
AcDbEntity
  8
Defpoints
 62
     0
100
AcDbPoint
 10
1312.554042088311
 20
612.3046868233045
 30
0.0
  0
ENDBLK
  5
A5F8
330
A5ED
100
AcDbEntity
  8
0
100
AcDbBlockEnd
  0
BLOCK
  5
A603
330
A5F9
100
AcDbEntity
  8
0
100
AcDbBlockBegin
  2
*D18
 70
     1
 10
0.0
 20
0.0
 30
0.0
  3
*D18
  1

  0
LINE
  5
A617
330
A5F9
100
AcDbEntity
  8
AM_5
100
AcDbLine
 10
1326.854042088311
 20
612.3046868233045
 30
0.0
 11
1310.754042088311
 21
612.3046868233045
 31
0.0
  0
LINE
  5
A618
330
A5F9
100
AcDbEntity
  8
AM_5
100
AcDbLine
 10
1330.054042088311
 20
630.8046868233044
 30
0.0
 11
1310.754042088311
 21
630.8046868233044
 31
0.0
  0
LINE
  5
A619
330
A5F9
100
AcDbEntity
  8
AM_5
100
AcDbLine
 10
1312.554042088311
 20
615.9046868233044
 30
0.0
 11
1312.554042088311
 21
627.2046868233044
 31
0.0
  0
SOLID
  5
A61A
330
A5F9
100
AcDbEntity
  8
AM_5
100
AcDbTrace
 10
1311.954042088311
 20
615.9046868233044
 30
0.0
 11
1313.154042088311
 21
615.9046868233044
 31
0.0
 12
1312.554042088311
 22
612.3046868233045
 32
0.0
 13
1312.554042088311
 23
612.3046868233045
 33
0.0
  0
SOLID
  5
A61B
330
A5F9
100
AcDbEntity
  8
AM_5
100
AcDbTrace
 10
1311.954042088311
 20
627.2046868233044
 30
0.0
 11
1313.154042088311
 21
627.2046868233044
 31
0.0
 12
1312.554042088311
 22
630.8046868233044
 32
0.0
 13
1312.554042088311
 23
630.8046868233044
 33
0.0
  0
MTEXT
  5
A61C
330
A5F9
100
AcDbEntity
  8
AM_5
100
AcDbMText
 10
1309.614042088311
 20
621.5546868233047
 30
0.0
 40
4.2
 41
0.0
 71
     5
 72
     1
  1
18.5
 11
0.0000000000000001
 21
1.0
 31
0.0
 73
     1
 44
1.0
1001
ACAD
1000
MTEXTBEGIN
1070
    73
1070
     1
1070
    44
1040
1.0
1070
    74
1070
     0
1000
MTEXTEND
  0
POINT
  5
A61D
330
A5F9
100
AcDbEntity
  8
Defpoints
 62
     0
100
AcDbPoint
 10
1328.054042088311
 20
612.3046868233045
 30
0.0
  0
POINT
  5
A61E
330
A5F9
100
AcDbEntity
  8
Defpoints
 62
     0
100
AcDbPoint
 10
1331.254042088311
 20
630.8046868233044
 30
0.0
  0
POINT
  5
A61F
330
A5F9
100
AcDbEntity
  8
Defpoints
 62
     0
100
AcDbPoint
 10
1312.554042088311
 20
630.8046868233044
 30
0.0
  0
ENDBLK
  5
A604
330
A5F9
100
AcDbEntity
  8
0
100
AcDbBlockEnd
  0
BLOCK
  5
AE87
330
AE81
100
AcDbEntity
  8
0
100
AcDbBlockBegin
  2
*D19
 70
     1
 10
0.0
 20
0.0
 30
0.0
  3
*D19
  1

  0
LINE
  5
AEA9
330
AE81
100
AcDbEntity
  8
AM_5
100
AcDbLine
 10
1394.406935557458
 20
685.6897144296783
 30
0.0
 11
1390.543798988591
 21
690.4556435757211
 31
0.0
  0
LINE
  5
AEAA
330
AE81
100
AcDbEntity
  8
AM_5
100
AcDbLine
 10
1390.543798988591
 20
690.4556435757211
 30
0.0
 11
1380.289829292394
 21
690.4556435757211
 31
0.0
  0
LINE
  5
AEAB
330
AE81
100
AcDbEntity
  8
AM_5
100
AcDbLine
 10
1402.026194128415
 20
676.2898793870346
 30
0.0
 11
1396.673822405015
 21
682.8930692930241
 31
0.0
  0
SOLID
  5
AEAC
330
AE81
100
AcDbEntity
  8
AM_5
100
AcDbTrace
 10
1394.873043080234
 20
686.0675289042712
 30
0.0
 11
1393.940828034682
 21
685.3118999550855
 31
0.0
 12
1396.673822405015
 22
682.8930692930241
 32
0.0
 13
1396.673822405015
 23
682.8930692930241
 33
0.0
  0
MTEXT
  5
AEAD
330
AE81
100
AcDbEntity
  8
AM_5
100
AcDbMText
 10
1384.996814140493
 20
693.3956435757209
 30
0.0
 40
4.2
 41
0.0
 71
     5
 72
     1
  1
R8.5
 73
     1
 44
1.0
1001
ACAD
1000
MTEXTBEGIN
1070
    73
1070
     1
1070
    44
1040
1.0
1070
    74
1070
     0
1000
MTEXTEND
  0
POINT
  5
AEAE
330
AE81
100
AcDbEntity
  8
Defpoints
 62
     0
100
AcDbPoint
 10
1396.673822405015
 20
682.8930692930241
 30
0.0
  0
POINT
  5
AEAF
330
AE81
100
AcDbEntity
  8
Defpoints
 62
     0
100
AcDbPoint
 10
1402.026194128415
 20
676.2898793870346
 30
0.0
  0
ENDBLK
  5
AE88
330
AE81
100
AcDbEntity
  8
0
100
AcDbBlockEnd
  0
BLOCK
  5
AED3
330
AEC9
100
AcDbEntity
  8
0
100
AcDbBlockBegin
  2
*D20
 70
     1
 10
0.0
 20
0.0
 30
0.0
  3
*D20
  1

  0
LINE
  5
AF04
330
AEC9
100
AcDbEntity
  8
AM_5
100
AcDbLine
 10
1333.954042088312
 20
685.4898793870345
 30
0.0
 11
1333.954042088312
 21
695.2719523535135
 31
0.0
  0
LINE
  5
AF05
330
AEC9
100
AcDbEntity
  8
AM_5
100
AcDbLine
 10
1341.754042088312
 20
685.4898793870345
 30
0.0
 11
1341.754042088312
 21
695.2719523535135
 31
0.0
  0
LINE
  5
AF06
330
AEC9
100
AcDbEntity
  8
AM_5
100
AcDbLine
 10
1330.354042088312
 20
693.4719523535135
 30
0.0
 11
1326.754042088311
 21
693.4719523535135
 31
0.0
  0
LINE
  5
AF07
330
AEC9
100
AcDbEntity
  8
AM_5
100
AcDbLine
 10
1345.354042088312
 20
693.4719523535135
 30
0.0
 11
1348.954042088312
 21
693.4719523535135
 31
0.0
  0
LINE
  5
AF08
330
AEC9
100
AcDbEntity
  8
AM_5
100
AcDbLine
 10
1333.954042088312
 20
693.4719523535135
 30
0.0
 11
1341.754042088312
 21
693.4719523535135
 31
0.0
  0
SOLID
  5
AF09
330
AEC9
100
AcDbEntity
  8
AM_5
100
AcDbTrace
 10
1330.354042088312
 20
694.0719523535135
 30
0.0
 11
1330.354042088312
 21
692.8719523535135
 31
0.0
 12
1333.954042088312
 22
693.4719523535135
 32
0.0
 13
1333.954042088312
 23
693.4719523535135
 33
0.0
  0
SOLID
  5
AF0A
330
AEC9
100
AcDbEntity
  8
AM_5
100
AcDbTrace
 10
1345.354042088312
 20
694.0719523535135
 30
0.0
 11
1345.354042088312
 21
692.8719523535135
 31
0.0
 12
1341.754042088312
 22
693.4719523535135
 32
0.0
 13
1341.754042088312
 23
693.4719523535135
 33
0.0
  0
MTEXT
  5
AF0B
330
AEC9
100
AcDbEntity
  8
AM_5
100
AcDbMText
 10
1337.854042088312
 20
696.4119523535136
 30
0.0
 40
4.2
 41
0.0
 71
     5
 72
     1
  1
8
 73
     1
 44
1.0
1001
ACAD
1000
MTEXTBEGIN
1070
    73
1070
     1
1070
    44
1040
1.0
1070
    74
1070
     0
1000
MTEXTEND
  0
POINT
  5
AF0C
330
AEC9
100
AcDbEntity
  8
Defpoints
 62
     0
100
AcDbPoint
 10
1333.954042088312
 20
684.2898793870345
 30
0.0
  0
POINT
  5
AF0D
330
AEC9
100
AcDbEntity
  8
Defpoints
 62
     0
100
AcDbPoint
 10
1341.754042088312
 20
684.2898793870345
 30
0.0
  0
POINT
  5
AF0E
330
AEC9
100
AcDbEntity
  8
Defpoints
 62
     0
100
AcDbPoint
 10
1341.754042088312
 20
693.4719523535135
 30
0.0
  0
ENDBLK
  5
AED4
330
AEC9
100
AcDbEntity
  8
0
100
AcDbBlockEnd
  0
BLOCK
  5
AF36
330
AF31
100
AcDbEntity
  8
0
100
AcDbBlockBegin
  2
*S21
 70
     1
 10
0.0
 20
0.0
 30
0.0
  3
*S21
  1

  0
LINE
  5
AF32
330
AF31
100
AcDbEntity
  8
AM_5
 62
     5
100
AcDbLine
 10
1539.64504810554
 20
634.141122966898
 30
0.0
 11
1510.883141071161
 21
634.141122966898
 31
0.0
  0
LINE
  5
AF33
330
AF31
100
AcDbEntity
  8
AM_5
 62
     5
100
AcDbLine
 10
1510.883141071161
 20
634.141122966898
 30
0.0
 11
1502.911199656373
 21
622.3325198626594
 31
0.0
  0
TRACE
  5
AF34
330
AF31
100
AcDbEntity
  8
AM_5
 62
     5
370
    35
100
AcDbTrace
 10
1502.452916081419
 20
622.6419052978916
 30
0.0
 11
1503.369483231327
 21
622.023134427427
 31
0.0
 12
1500.561183953805
 22
618.8515104978796
 32
0.0
 13
1500.561183953805
 23
618.8515104978796
 33
0.0
  0
MTEXT
  5
AF35
330
AF31
100
AcDbEntity
  8
AM_5
 62
     5
100
AcDbMText
 10
1539.64504810554
 20
640.9281293432022
 30
0.0
 40
4.2
 41
0.0
 71
     7
 72
     5
  1

  7
ACISOTS
 73
     1
 44
1.0
1001
ACAD
1000
MTEXTBEGIN
1070
    73
1070
     1
1070
    44
1040
1.0
1070
    74
1070
     0
1000
MTEXTEND
  0
ENDBLK
  5
AF37
330
AF31
100
AcDbEntity
  8
0
100
AcDbBlockEnd
  0
BLOCK
  5
AF3E
330
AF39
100
AcDbEntity
  8
0
100
AcDbBlockBegin
  2
*S22
 70
     1
 10
0.0
 20
0.0
 30
0.0
  3
*S22
  1

  0
LINE
  5
AF3A
330
AF39
100
AcDbEntity
  8
AM_VIS
 62
     5
100
AcDbLine
 10
1534.369663254653
 20
644.190861502925
 30
0.0
 11
1510.895443254765
 21
644.190861502925
 31
0.0
  0
LINE
  5
AF3B
330
AF39
100
AcDbEntity
  8
AM_VIS
 62
     5
100
AcDbLine
 10
1510.895443254765
 20
644.190861502925
 30
0.0
 11
1497.695146844124
 21
630.9645807859404
 31
0.0
  0
TRACE
  5
AF3C
330
AF39
100
AcDbEntity
  8
AM_VIS
 62
     5
100
AcDbTrace
 10
1497.303774620623
 20
631.3551841208955
 30
0.0
 11
1498.086519067625
 21
630.5739774509854
 31
0.0
 12
1494.728219942957
 22
627.9918135964123
 32
0.0
 13
1494.728219942957
 23
627.9918135964123
 33
0.0
  0
MTEXT
  5
AF3D
330
AF39
100
AcDbEntity
  8
AM_VIS
 62
     5
100
AcDbMText
 10
1534.369663254653
 20
651.3157621108066
 30
0.0
 40
4.2
 41
0.0
 71
     7
 72
     5
  1

  7
ACISOTS
 73
     1
 44
1.0
1001
ACAD
1000
MTEXTBEGIN
1070
    73
1070
     1
1070
    44
1040
1.0
1070
    74
1070
     0
1000
MTEXTEND
  0
ENDBLK
  5
AF3F
330
AF39
100
AcDbEntity
  8
0
100
AcDbBlockEnd
  0
BLOCK
  5
AF46
330
AF41
100
AcDbEntity
  8
0
100
AcDbBlockBegin
  2
*S23
 70
     1
 10
0.0
 20
0.0
 30
0.0
  3
*S23
  1

  0
LINE
  5
AF42
330
AF41
100
AcDbEntity
  8
AM_5
 62
     5
100
AcDbLine
 10
1363.512956440614
 20
569.14635157948
 30
0.0
 11
1392.274863474993
 21
569.14635157948
 31
0.0
  0
LINE
  5
AF43
330
AF41
100
AcDbEntity
  8
AM_5
 62
     5
100
AcDbLine
 10
1392.274863474993
 20
569.14635157948
 30
0.0
 11
1404.997211057392
 21
596.6095896286
 31
0.0
  0
TRACE
  5
AF44
330
AF41
100
AcDbEntity
  8
AM_5
 62
     5
370
    35
100
AcDbTrace
 10
1405.498931315053
 20
596.3771676725407
 30
0.0
 11
1404.49549079973
 21
596.8420115846591
 31
0.0
 12
1406.762631093893
 22
600.4205333561717
 32
0.0
 13
1406.762631093893
 23
600.4205333561717
 33
0.0
  0
MTEXT
  5
AF45
330
AF41
100
AcDbEntity
  8
AM_5
 62
     5
100
AcDbMText
 10
1363.512956440614
 20
575.9333579557842
 30
0.0
 40
4.2
 41
0.0
 71
     7
 72
     5
  1

  7
ACISOTS
210
0.0
220
0.0
230
-1.0
 11
-1.0
 21
0.0
 31
0.0
 73
     1
 44
1.0
1001
ACAD
1000
MTEXTBEGIN
1070
    73
1070
     1
1070
    44
1040
1.0
1070
    74
1070
     0
1000
MTEXTEND
  0
ENDBLK
  5
AF47
330
AF41
100
AcDbEntity
  8
0
100
AcDbBlockEnd
  0
BLOCK
  5
AF4E
330
AF49
100
AcDbEntity
  8
0
100
AcDbBlockBegin
  2
*S24
 70
     1
 10
0.0
 20
0.0
 30
0.0
  3
*S24
  1

  0
LINE
  5
AF4A
330
AF49
100
AcDbEntity
  8
AM_VIS
 62
     5
100
AcDbLine
 10
1295.660634667586
 20
566.6585083182122
 30
0.0
 11
1319.134854667473
 21
566.6585083182122
 31
0.0
  0
LINE
  5
AF4B
330
AF49
100
AcDbEntity
  8
AM_VIS
 62
     5
100
AcDbLine
 10
1319.134854667473
 20
566.6585083182122
 30
0.0
 11
1331.590570234366
 21
587.363441972055
 31
0.0
  0
TRACE
  5
AF4C
330
AF49
100
AcDbEntity
  8
AM_VIS
 62
     5
100
AcDbTrace
 10
1332.064381776015
 20
587.0784054733271
 30
0.0
 11
1331.116758692718
 21
587.6484784707828
 31
0.0
 12
1333.755637401515
 22
590.9623979542443
 32
0.0
 13
1333.755637401515
 23
590.9623979542443
 33
0.0
  0
MTEXT
  5
AF4D
330
AF49
100
AcDbEntity
  8
AM_VIS
 62
     5
100
AcDbMText
 10
1295.660634667586
 20
573.7834089260939
 30
0.0
 40
4.2
 41
0.0
 71
     7
 72
     5
  1

  7
ACISOTS
210
0.0
220
0.0
230
-1.0
 11
-1.0
 21
0.0
 31
0.0
 73
     1
 44
1.0
1001
ACAD
1000
MTEXTBEGIN
1070
    73
1070
     1
1070
    44
1040
1.0
1070
    74
1070
     0
1000
MTEXTEND
  0
ENDBLK
  5
AF4F
330
AF49
100
AcDbEntity
  8
0
100
AcDbBlockEnd
  0
BLOCK
  5
AF56
330
AF51
100
AcDbEntity
  8
0
100
AcDbBlockBegin
  2
*S25
 70
     1
 10
0.0
 20
0.0
 30
0.0
  3
*S25
  1

  0
LINE
  5
AF52
330
AF51
100
AcDbEntity
  8
AM_VIS
 62
     5
100
AcDbLine
 10
1301.680765143127
 20
639.5396911190618
 30
0.0
 11
1318.851223073673
 21
639.5396911190618
 31
0.0
  0
LINE
  5
AF53
330
AF51
100
AcDbEntity
  8
AM_VIS
 62
     5
100
AcDbLine
 10
1318.851223073673
 20
639.5396911190618
 30
0.0
 11
1331.83038533518
 21
621.5019683089494
 31
0.0
  0
TRACE
  5
AF54
330
AF51
100
AcDbEntity
  8
AM_VIS
 62
     5
100
AcDbTrace
 10
1331.381560790579
 20
621.1790136514984
 30
0.0
 11
1332.279209879782
 21
621.8249229664002
 31
0.0
 12
1334.283469513681
 22
618.0928074131879
 32
0.0
 13
1334.283469513681
 23
618.0928074131879
 33
0.0
  0
MTEXT
  5
AF55
330
AF51
100
AcDbEntity
  8
AM_VIS
 62
     5
100
AcDbMText
 10
1301.680765143127
 20
646.6645917269436
 30
0.0
 40
4.2
 41
0.0
 71
     7
 72
     5
  1

  7
ACISOTS
210
0.0
220
0.0
230
-1.0
 11
-1.0
 21
0.0
 31
0.0
 73
     1
 44
1.0
1001
ACAD
1000
MTEXTBEGIN
1070
    73
1070
     1
1070
    44
1040
1.0
1070
    74
1070
     0
1000
MTEXTEND
  0
ENDBLK
  5
AF57
330
AF51
100
AcDbEntity
  8
0
100
AcDbBlockEnd
  0
ENDSEC
  0
SECTION
  2
ENTITIES
  0
LINE
  5
99E7
330
1F
100
AcDbEntity
  8
LOGO
 62
     4
100
AcDbLine
 10
1379.174202266188
 20
539.3321295289872
 30
0.0
 11
1379.174202266188
 21
530.5334037371315
 31
0.0
  0
LINE
  5
99E8
330
1F
100
AcDbEntity
  8
LOGO
 62
     4
100
AcDbLine
 10
1367.794347302916
 20
539.3321295289872
 30
0.0
 11
1367.794347302916
 21
530.5334037371315
 31
0.0
  0
LINE
  5
99E9
330
1F
100
AcDbEntity
  8
LOGO
 62
     4
100
AcDbLine
 10
1379.174202266188
 20
530.5334037371315
 30
0.0
 11
1367.794347302916
 21
530.5334037371315
 31
0.0
  0
LINE
  5
99EA
330
1F
100
AcDbEntity
  8
LOGO
 62
     4
100
AcDbLine
 10
1386.83306617739
 20
550.1305657280818
 30
0.0
 11
1367.794347302916
 21
550.1305657280818
 31
0.0
  0
LINE
  5
99EB
330
1F
100
AcDbEntity
  8
LOGO
 62
     4
100
AcDbLine
 10
1386.83306617739
 20
542.9316082620186
 30
0.0
 11
1367.794347302916
 21
542.9316082620186
 31
0.0
  0
LINE
  5
99EC
330
1F
100
AcDbEntity
  8
LOGO
 62
     4
100
AcDbLine
 10
1367.794347302916
 20
550.1305657280818
 30
0.0
 11
1367.794347302916
 21
542.9316082620186
 31
0.0
  0
LINE
  5
99ED
330
1F
100
AcDbEntity
  8
LOGO
 62
     4
100
AcDbLine
 10
1386.83306617739
 20
550.1305657280818
 30
0.0
 11
1386.83306617739
 21
542.9316082620186
 31
0.0
  0
LINE
  5
99EE
330
1F
100
AcDbEntity
  8
LOGO
 62
     4
100
AcDbLine
 10
1376.627866185759
 20
542.9316082620186
 30
0.0
 11
1376.627866185759
 21
539.3321295289872
 31
0.0
  0
TEXT
  5
99EF
330
1F
100
AcDbEntity
  8
LOGO
  6
Continuous
 62
     7
100
AcDbText
 10
1369.073489298852
 20
544.4343801081845
 30
0.0
 40
4.2
  1
MVMA
  7
CHINESET
100
AcDbText
  0
LINE
  5
99F0
330
1F
100
AcDbEntity
  8
LOGO
 62
     4
100
AcDbLine
 10
1379.174202266188
 20
539.3321295289872
 30
0.0
 11
1367.794347302916
 21
539.3321295289872
 31
0.0
  0
TEXT
  5
99F1
330
1F
100
AcDbEntity
  8
LOGO
  6
Continuous
100
AcDbText
 10
1371.035285871054
 20
531.7753252245204
 30
157.2692709120597
 40
1.799999999999999
  1
Model
 41
0.8
  7
CHINESET
100
AcDbText
  0
TEXT
  5
99F2
330
1F
100
AcDbEntity
  8
LOGO
100
AcDbText
 10
1370.556184385455
 20
535.1121372968333
 30
157.2692709120597
 40
3.0
  1
型號
  7
CHINESET
100
AcDbText
  0
LINE
  5
99F3
330
1F
100
AcDbEntity
  8
LOGO
  6
Continuous
 62
     7
100
AcDbLine
 10
1387.598374854597
 20
546.5055871500013
 30
0.0
 11
1390.777171793324
 21
546.5055871500013
 31
0.0
  0
LINE
  5
99F4
330
1F
100
AcDbEntity
  8
LOGO
 62
     4
100
AcDbLine
 10
1395.624879673301
 20
539.3321295289872
 30
0.0
 11
1395.624879673301
 21
530.5334037371315
 31
0.0
  0
LINE
  5
99F5
330
1F
100
AcDbEntity
  8
LOGO
 62
     4
100
AcDbLine
 10
1381.048903199377
 20
539.3321295289872
 30
0.0
 11
1381.048903199377
 21
530.5334037371315
 31
0.0
  0
LINE
  5
99F6
330
1F
100
AcDbEntity
  8
LOGO
 62
     4
100
AcDbLine
 10
1395.624879673301
 20
530.5334037371315
 30
0.0
 11
1381.048903199377
 21
530.5334037371315
 31
0.0
  0
LINE
  5
99F7
330
1F
100
AcDbEntity
  8
LOGO
 62
     4
100
AcDbLine
 10
1404.504514685637
 20
550.1305657280818
 30
0.0
 11
1391.779914663106
 21
550.1305657280818
 31
0.0
  0
LINE
  5
99F8
330
1F
100
AcDbEntity
  8
LOGO
 62
     4
100
AcDbLine
 10
1404.504514685637
 20
542.9316082620186
 30
0.0
 11
1391.779914663106
 21
542.9316082620186
 31
0.0
  0
LINE
  5
99F9
330
1F
100
AcDbEntity
  8
LOGO
 62
     4
100
AcDbLine
 10
1391.779914663106
 20
550.1305657280818
 30
0.0
 11
1391.779914663106
 21
542.9316082620186
 31
0.0
  0
LINE
  5
99FA
330
1F
100
AcDbEntity
  8
LOGO
 62
     4
100
AcDbLine
 10
1404.504514685637
 20
550.1305657280818
 30
0.0
 11
1404.504514685637
 21
542.9316082620186
 31
0.0
  0
LINE
  5
99FB
330
1F
100
AcDbEntity
  8
LOGO
 62
     4
100
AcDbLine
 10
1396.09748479085
 20
542.9316082620186
 30
0.0
 11
1396.09748479085
 21
541.1318688955028
 31
0.0
  0
TEXT
  5
99FC
330
1F
100
AcDbEntity
  8
LOGO
  6
Continuous
 62
     7
100
AcDbText
 10
1392.950154302246
 20
544.4343801081845
 30
0.0
 40
4.2
  1
260
  7
CHINESET
100
AcDbText
  0
LINE
  5
99FD
330
1F
100
AcDbEntity
  8
LOGO
 62
     4
100
AcDbLine
 10
1395.624879673301
 20
539.3321295289872
 30
0.0
 11
1381.048903199377
 21
539.3321295289872
 31
0.0
  0
LINE
  5
99FE
330
1F
100
AcDbEntity
  8
LOGO
  6
Continuous
 62
     7
100
AcDbLine
 10
1405.282866901934
 20
546.5055871500013
 30
0.0
 11
1408.461663840661
 21
546.5055871500013
 31
0.0
  0
LINE
  5
99FF
330
1F
100
AcDbEntity
  8
LOGO
 62
     4
100
AcDbLine
 10
1409.593910359987
 20
539.3321295289872
 30
0.0
 11
1409.593910359987
 21
530.5334037371315
 31
0.0
  0
LINE
  5
9A00
330
1F
100
AcDbEntity
  8
LOGO
 62
     4
100
AcDbLine
 10
1397.576855663229
 20
539.3321295289872
 30
0.0
 11
1397.576855663229
 21
530.5334037371315
 31
0.0
  0
LINE
  5
9A01
330
1F
100
AcDbEntity
  8
LOGO
 62
     4
100
AcDbLine
 10
1409.593910359987
 20
530.5334037371315
 30
0.0
 11
1397.576855663229
 21
530.5334037371315
 31
0.0
  0
LINE
  5
9A02
330
1F
100
AcDbEntity
  8
LOGO
 62
     4
100
AcDbLine
 10
1414.574825642248
 20
550.1305657280818
 30
0.0
 11
1409.464406710443
 21
550.1305657280818
 31
0.0
  0
LINE
  5
9A03
330
1F
100
AcDbEntity
  8
LOGO
 62
     4
100
AcDbLine
 10
1414.574825642248
 20
542.9316082620186
 30
0.0
 11
1409.464406710443
 21
542.9316082620186
 31
0.0
  0
LINE
  5
9A04
330
1F
100
AcDbEntity
  8
LOGO
 62
     4
100
AcDbLine
 10
1409.464406710443
 20
550.1305657280818
 30
0.0
 11
1409.464406710443
 21
542.9316082620186
 31
0.0
  0
LINE
  5
9A05
330
1F
100
AcDbEntity
  8
LOGO
 62
     4
100
AcDbLine
 10
1414.574825642248
 20
550.1305657280818
 30
0.0
 11
1414.574825642248
 21
542.9316082620186
 31
0.0
  0
LINE
  5
9A06
330
1F
100
AcDbEntity
  8
LOGO
 62
     4
100
AcDbLine
 10
1412.019616176346
 20
542.9316082620186
 30
0.0
 11
1412.019616176346
 21
541.1318688955028
 31
0.0
  0
TEXT
  5
9A07
330
1F
100
AcDbEntity
  8
LOGO
  6
Continuous
 62
     7
100
AcDbText
 10
1410.422568699177
 20
544.4343801081845
 30
0.0
 40
4.2
  1
4
  7
CHINESET
100
AcDbText
  0
LINE
  5
9A08
330
1F
100
AcDbEntity
  8
LOGO
 62
     4
100
AcDbLine
 10
1409.593910359987
 20
539.3321295289872
 30
0.0
 11
1397.576855663229
 21
539.3321295289872
 31
0.0
  0
LINE
  5
9A09
330
1F
100
AcDbEntity
  8
LOGO
 62
     4
100
AcDbLine
 10
1432.428594653935
 20
539.3321295289872
 30
0.0
 11
1432.428594653935
 21
530.5334037371315
 31
0.0
  0
LINE
  5
9A0A
330
1F
100
AcDbEntity
  8
LOGO
 62
     4
100
AcDbLine
 10
1412.031015487559
 20
539.3321295289872
 30
0.0
 11
1412.031015487559
 21
530.5334037371315
 31
0.0
  0
LINE
  5
9A0B
330
1F
100
AcDbEntity
  8
LOGO
 62
     4
100
AcDbLine
 10
1432.428594653935
 20
530.5334037371315
 30
0.0
 11
1412.031015487559
 21
530.5334037371315
 31
0.0
  0
LINE
  5
9A0C
330
1F
100
AcDbEntity
  8
LOGO
 62
     4
100
AcDbLine
 10
1425.48190348705
 20
550.1305657280818
 30
0.0
 11
1415.984008485237
 21
550.1305657280818
 31
0.0
  0
LINE
  5
9A0D
330
1F
100
AcDbEntity
  8
LOGO
 62
     4
100
AcDbLine
 10
1425.48190348705
 20
542.9316082620186
 30
0.0
 11
1415.984008485237
 21
542.9316082620186
 31
0.0
  0
LINE
  5
9A0E
330
1F
100
AcDbEntity
  8
LOGO
 62
     4
100
AcDbLine
 10
1415.984008485237
 20
550.1305657280818
 30
0.0
 11
1415.984008485237
 21
542.9316082620186
 31
0.0
  0
LINE
  5
9A0F
330
1F
100
AcDbEntity
  8
LOGO
 62
     4
100
AcDbLine
 10
1425.48190348705
 20
550.1305657280818
 30
0.0
 11
1425.48190348705
 21
542.9316082620186
 31
0.0
  0
LINE
  5
9A10
330
1F
100
AcDbEntity
  8
LOGO
 62
     4
100
AcDbLine
 10
1420.732955986143
 20
542.9316082620186
 30
0.0
 11
1420.732955986143
 21
539.3321295289872
 31
0.0
  0
TEXT
  5
9A11
330
1F
100
AcDbEntity
  8
LOGO
  6
Continuous
 62
     7
100
AcDbText
 10
1417.683187932279
 20
544.4343801081845
 30
0.0
 40
4.2
  1
R1
  7
CHINESET
100
AcDbText
  0
LINE
  5
9A12
330
1F
100
AcDbEntity
  8
LOGO
 62
     4
100
AcDbLine
 10
1432.428594653935
 20
539.3321295289872
 30
0.0
 11
1412.031015487559
 21
539.3321295289872
 31
0.0
  0
TEXT
  5
9A13
330
1F
100
AcDbEntity
  8
LOGO
  6
Continuous
100
AcDbText
 10
1382.19256121727
 20
531.7753252245204
 30
157.2692709120597
 40
1.799999999999999
  1
Body width
 41
0.8
  7
CHINESET
100
AcDbText
  0
TEXT
  5
9A14
330
1F
100
AcDbEntity
  8
LOGO
100
AcDbText
 10
1382.175604593843
 20
535.1121372968333
 30
157.2692709120597
 40
3.0
  1
本體寬度
  7
CHINESET
100
AcDbText
  0
TEXT
  5
9A15
330
1F
100
AcDbEntity
  8
LOGO
  6
Continuous
100
AcDbText
 10
1400.92771646306
 20
531.7753252245204
 30
157.2692709120597
 40
1.799999999999999
  1
4 Way
 41
0.8
  7
CHINESET
100
AcDbText
  0
TEXT
  5
9A16
330
1F
100
AcDbEntity
  8
LOGO
100
AcDbText
 10
1399.172064623209
 20
535.1121372968333
 30
157.2692709120597
 40
3.0
  1
4方向
  7
CHINESET
100
AcDbText
  0
TEXT
  5
9A17
330
1F
100
AcDbEntity
  8
LOGO
  6
Continuous
100
AcDbText
 10
1416.243297760988
 20
531.7753252245204
 30
157.2692709120597
 40
1.799999999999999
  1
Roller lever
 41
0.8
  7
CHINESET
100
AcDbText
  0
TEXT
  5
9A18
330
1F
100
AcDbEntity
  8
LOGO
100
AcDbText
 10
1413.14827362416
 20
535.1121372968333
 30
157.2692709120597
 40
3.0
  1
滾輪式操縱桿
  7
CHINESET
100
AcDbText
  0
LINE
  5
9A37
330
1F
100
AcDbEntity
  8
LOGO
 62
     4
100
AcDbLine
 10
1396.09748479085
 20
541.1318688955028
 30
0.0
 11
1388.336891436339
 21
541.1318688955028
 31
0.0
  0
LINE
  5
9A38
330
1F
100
AcDbEntity
  8
LOGO
 62
     4
100
AcDbLine
 10
1388.336891436339
 20
539.3321295289872
 30
0.0
 11
1388.336891436339
 21
541.1318688955028
 31
0.0
  0
LINE
  5
9A39
330
1F
100
AcDbEntity
  8
LOGO
 62
     4
100
AcDbLine
 10
1412.019616176346
 20
541.1318688955028
 30
0.0
 11
1403.585383011608
 21
541.1318688955028
 31
0.0
  0
LINE
  5
9A3A
330
1F
100
AcDbEntity
  8
LOGO
 62
     4
100
AcDbLine
 10
1403.585383011608
 20
539.3321295289872
 30
0.0
 11
1403.585383011608
 21
541.1318688955028
 31
0.0
  0
LINE
  5
9AFB
330
1F
100
AcDbEntity
  8
LOGO
 62
     4
100
AcDbLine
 10
1551.606426283587
 20
552.5302182167697
 30
0.0
 11
1281.995837589724
 21
552.5302182167697
 31
0.0
  0
LWPOLYLINE
  5
9AFC
330
1F
100
AcDbEntity
  8
LOGO
 62
     4
100
AcDbPolyline
 90
        4
 70
     1
 43
0.0
 10
1281.995837589724
 20
552.5302182167697
 10
1551.606426283587
 20
552.5302182167697
 10
1551.606426283587
 20
746.933345818579
 10
1281.995837589724
 20
746.933345818579
1001
GENIUS_GENREC_14
1002
{
1000
PYDIR
1011
1281.995837589724
1021
746.933345818579
1031
0.0
1002
}
1002
{
1000
PXDIR
1011
1551.606426283587
1021
552.5302182167697
1031
0.0
1002
}
1002
{
1000
PORI
1011
1281.995837589724
1021
552.5302182167697
1031
0.0
1002
}
1002
{
1000
PINS
1011
1281.995837589724
1021
552.5302182167697
1031
0.0
1002
}
1002
{
1000
PINS2
1011
1551.606426283587
1021
746.933345818579
1031
0.0
1002
}
1002
{
1000
C
1070
     1
1002
}
1001
GENIUS_GENODEF_13
1002
{
1000
HIER
1070
     0
1002
}
1002
{
1000
MANEDIT
1070
     0
1002
}
1002
{
1000
NOSEL
1070
     0
1002
}
1002
{
1000
BEHIND
1070
     0
1002
}
1002
{
1000
OTHER
1070
     0
1002
}
1002
{
1000
REACTOR
1002
}
1001
GENIUS_GENOBJ-N-REC_13
1002
{
1000
OWNER
1000
GEN
1002
}
  0
LWPOLYLINE
  5
9AFD
330
1F
100
AcDbEntity
  8
LOGO
 62
     4
100
AcDbPolyline
 90
        4
 70
     1
 43
0.0
 10
1281.995837589724
 20
552.5302182167697
 10
1551.606426283587
 20
552.5302182167697
 10
1551.606426283587
 20
528.5336933298915
 10
1281.995837589724
 20
528.5336933298915
1001
GENIUS_GENREC_14
1002
{
1000
PYDIR
1011
1281.995837589724
1021
528.5336933298915
1031
0.0
1002
}
1002
{
1000
PXDIR
1011
1551.606426283587
1021
552.5302182167697
1031
0.0
1002
}
1002
{
1000
PORI
1011
1281.995837589724
1021
552.5302182167697
1031
0.0
1002
}
1002
{
1000
PINS
1011
1281.995837589724
1021
552.5302182167697
1031
0.0
1002
}
1002
{
1000
PINS2
1011
1551.606426283587
1021
528.5336933298915
1031
0.0
1002
}
1002
{
1000
C
1070
     1
1002
}
1001
GENIUS_GENOBJ-N-REC_13
1002
{
1000
OWNER
1000
GEN
1002
}
1001
GENIUS_GENODEF_13
1002
{
1000
HIER
1070
     0
1002
}
1002
{
1000
MANEDIT
1070
     0
1002
}
1002
{
1000
NOSEL
1070
     0
1002
}
1002
{
1000
BEHIND
1070
     0
1002
}
1002
{
1000
OTHER
1070
     0
1002
}
1002
{
1000
REACTOR
1002
}
  0
TEXT
  5
9AFE
330
1F
100
AcDbEntity
  8
LOGO
 62
     7
100
AcDbText
 10
1336.178401868173
 20
542.0177489995917
 30
0.0
 40
3.19953665158371
  1
Order example:
 41
0.8
  7
CHINESET
100
AcDbText
  0
TEXT
  5
9AFF
330
1F
100
AcDbEntity
  8
LOGO
 62
     7
100
AcDbText
 10
1336.752425202559
 20
546.5220341325048
 30
0.0
 40
4.799304977375564
  1
訂購代號：
  7
CHINESET
100
AcDbText
  0
LINE
  5
9B00
330
1F
100
AcDbEntity
  8
LOGO
 62
     4
100
AcDbLine
 10
1334.788192340856
 20
528.5336933298918
 30
0.0
 11
1334.788192340856
 21
552.5302182167697
 31
0.0
  0
TEXT
  5
9B01
330
1F
100
AcDbEntity
  8
LOGO
  6
Continuous
100
AcDbText
 10
1290.615497195557
 20
533.2477744300054
 30
0.0
 40
3.599478733031674
  1
金器工業股份有限公司
  7
CHINESET
100
AcDbText
  0
TEXT
  5
9B02
330
1F
100
AcDbEntity
  8
LOGO
  6
Continuous
100
AcDbText
 10
1284.003966884727
 20
529.6475904813521
 30
0.0
 40
2.399652488687782
  1
MINDMAN INDUSTRIAL CO., LTD.
 41
0.85
  7
CHINESET
100
AcDbText
  0
LINE
  5
9B03
330
1F
100
AcDbEntity
  8
LOGO
 62
     4
100
AcDbLine
 10
1334.788192340856
 20
547.7309132393941
 30
0.0
 11
1299.593289173435
 21
547.7309132393941
 31
0.0
  0
LINE
  5
9B04
330
1F
100
AcDbEntity
  8
LOGO
 62
     4
100
AcDbLine
 10
1334.788192340856
 20
542.9316082620186
 30
0.0
 11
1299.593289173435
 21
542.9316082620186
 31
0.0
  0
LINE
  5
9B05
330
1F
100
AcDbEntity
  8
LOGO
 62
     4
100
AcDbLine
 10
1334.788192340856
 20
538.1323032846433
 30
0.0
 11
1281.995837589724
 21
538.1323032846433
 31
0.0
  0
LINE
  5
9B06
330
1F
100
AcDbEntity
  8
LOGO
 62
     4
100
AcDbLine
 10
1299.593289173435
 20
538.1323032846433
 30
0.0
 11
1299.593289173435
 21
552.5302182167697
 31
0.0
  0
TEXT
  5
9B07
330
1F
100
AcDbEntity
  8
LOGO
100
AcDbText
 10
1323.64734431424
 20
539.3321295289868
 30
0.0
 40
2.399652488687782
  1
mm
  7
CHINESET
 72
     1
 11
1326.618342633568
 21
540.5319557733306
 31
0.0
100
AcDbText
 73
     2
  0
TEXT
  5
9B08
330
1F
100
AcDbEntity
  8
LOGO
100
AcDbText
 10
1322.390383486832
 20
548.9307394837379
 30
0.0
 40
2.399652488687782
  1
1 : 1
  7
CHINESET
 72
     1
 11
1326.618342633568
 21
550.1305657280818
 31
0.0
100
AcDbText
 73
     2
  0
LINE
  5
9B09
330
1F
100
AcDbEntity
  8
LOGO
 62
     4
100
AcDbLine
 10
1318.790509082937
 20
538.1323032846433
 30
0.0
 11
1318.790509082937
 21
552.5302182167697
 31
0.0
  0
TEXT
  5
9B0A
330
1F
100
AcDbEntity
  8
LOGO
100
AcDbText
 10
1301.571931203169
 20
548.9319204150807
 30
157.2692709120597
 40
2.399652488687782
  1
比例 Scale:
 41
0.9
  7
CHINESET
 72
     4
 11
1309.191899128186
 21
550.1305657280818
 31
157.2692709120597
100
AcDbText
  0
TEXT
  5
9B0B
330
1F
100
AcDbEntity
  8
LOGO
100
AcDbText
 10
1301.433736930383
 20
544.1651894605789
 30
157.2692709120597
 40
2.399652488687782
  1
投影  View:
 41
0.9
  7
CHINESET
 72
     4
 11
1309.191899128186
 21
545.3312607507061
 31
157.2692709120597
100
AcDbText
  0
TEXT
  5
9B0C
330
1F
100
AcDbEntity
  8
LOGO
100
AcDbText
 10
1301.66834581209
 20
539.3321295289868
 30
157.2692709120597
 40
2.399652488687782
  1
單位  Unit:
 41
0.9
  7
CHINESET
 72
     4
 11
1309.191899128186
 21
540.5319557733306
 31
157.2692709120597
100
AcDbText
  0
SOLID
  5
9B0D
330
1F
100
AcDbEntity
  8
LOGO
 62
     5
100
AcDbTrace
 10
1284.485515558231
 20
542.1213839834513
 30
0.0
 11
1285.523062327458
 21
542.1213839834511
 31
0.0
 12
1289.852136778372
 22
551.9601895537103
 32
0.0
 13
1290.8896835476
 23
551.9601895537098
 33
0.0
  0
SOLID
  5
9B0E
330
1F
100
AcDbEntity
  8
LOGO
 62
     5
100
AcDbTrace
 10
1285.952392025071
 20
542.1213839834513
 30
0.0
 11
1286.989938794298
 21
542.1213839834513
 31
0.0
 12
1290.8896835476
 22
551.1730851080892
 32
0.0
 13
1289.852136778372
 23
547.3687469542558
 33
0.0
  0
SOLID
  5
9B0F
330
1F
100
AcDbEntity
  8
LOGO
 62
     2
100
AcDbTrace
 10
1285.523062327458
 20
542.1213839834511
 30
0.0
 11
1285.952392025071
 21
542.1213839834513
 31
0.0
 12
1290.8896835476
 22
551.9601895537098
 32
0.0
 13
1291.319013245211
 23
551.9601895537098
 33
0.0
  0
SOLID
  5
9B10
330
1F
100
AcDbEntity
  8
LOGO
 62
     5
100
AcDbTrace
 10
1282.822073649525
 20
538.5436365033574
 30
0.0
 11
1283.179848397535
 21
538.5436365033574
 31
0.0
 12
1284.18736993489
 22
540.3325102434043
 32
0.0
 13
1284.545144682899
 23
540.3325102434043
 33
0.0
  0
SOLID
  5
9B11
330
1F
100
AcDbEntity
  8
LOGO
 62
     5
100
AcDbTrace
 10
1284.18736993489
 20
540.3325102434043
 30
0.0
 11
1284.545144682899
 21
540.3325102434043
 31
0.0
 12
1284.18736993489
 22
538.5436365033574
 32
0.0
 13
1284.545144682899
 23
538.5436365033574
 33
0.0
  0
SOLID
  5
9B12
330
1F
100
AcDbEntity
  8
LOGO
 62
     5
100
AcDbTrace
 10
1284.18736993489
 20
538.5436365033574
 30
0.0
 11
1284.545144682899
 21
538.5436365033574
 31
0.0
 12
1285.552666220256
 22
540.3325102434043
 32
0.0
 13
1285.910440968265
 23
540.3325102434043
 33
0.0
  0
SOLID
  5
9B13
330
1F
100
AcDbEntity
  8
LOGO
 62
     5
100
AcDbTrace
 10
1285.552666220256
 20
540.3325102434043
 30
0.0
 11
1285.910440968265
 21
540.3325102434043
 31
0.0
 12
1285.552666220256
 22
538.5436365033574
 32
0.0
 13
1285.910440968265
 23
538.5436365033574
 33
0.0
  0
POLYLINE
  5
9B14
330
1F
100
AcDbEntity
  8
LOGO
 62
     5
100
AcDb2dPolyline
 66
     1
 10
0.0
 20
0.0
 30
0.0
 40
0.3583481049773755
 41
0.3583481049773755
  0
VERTEX
  5
9B15
330
9B14
100
AcDbEntity
  8
LOGO
 62
     5
100
AcDbVertex
100
AcDb2dVertex
 10
1297.545153896027
 20
539.6169607473855
 30
0.0
 42
1.0
  0
VERTEX
  5
9B16
330
9B14
100
AcDbEntity
  8
LOGO
 62
     5
100
AcDbVertex
100
AcDb2dVertex
 10
1296.470109581095
 20
539.6169607473855
 30
0.0
 42
1.0
  0
SEQEND
  5
9B17
330
9B14
100
AcDbEntity
  8
LOGO
 62
     5
  0
POLYLINE
  5
9B18
330
1F
100
AcDbEntity
  8
LOGO
 62
     5
100
AcDb2dPolyline
 66
     1
 10
0.0
 20
0.0
 30
0.0
 70
     1
  0
VERTEX
  5
9B19
330
9B18
100
AcDbEntity
  8
LOGO
 62
     5
100
AcDbVertex
100
AcDb2dVertex
 10
1294.443603229476
 20
539.4380733733806
 30
0.0
 42
1.000000057330635
  0
VERTEX
  5
9B1A
330
9B18
100
AcDbEntity
  8
LOGO
 62
     5
100
AcDbVertex
100
AcDb2dVertex
 10
1295.516927473505
 20
539.4380733733806
 30
0.0
 42
1.000000057330635
  0
SEQEND
  5
9B1B
330
9B18
100
AcDbEntity
  8
LOGO
 62
     5
  0
CIRCLE
  5
9B1C
330
1F
100
AcDbEntity
  8
LOGO
 62
     5
100
AcDbCircle
 10
1294.980265351491
 20
539.4380733733806
 30
0.0
 40
0.5366621220141177
  0
POLYLINE
  5
9B1D
330
1F
100
AcDbEntity
  8
LOGO
 62
     5
100
AcDb2dPolyline
 66
     1
 10
0.0
 20
0.0
 30
0.0
 70
     1
 40
0.3583481049773755
 41
0.3583481049773755
  0
VERTEX
  5
9B1E
330
9B1D
100
AcDbEntity
  8
LOGO
 62
     5
100
AcDbVertex
100
AcDb2dVertex
 10
1294.263569141536
 20
539.4380733733806
 30
0.0
 42
1.0
  0
VERTEX
  5
9B1F
330
9B1D
100
AcDbEntity
  8
LOGO
 62
     5
100
AcDbVertex
100
AcDb2dVertex
 10
1295.696961561445
 20
539.4380733733806
 30
0.0
 42
1.0
  0
SEQEND
  5
9B20
330
9B1D
100
AcDbEntity
  8
LOGO
 62
     5
  0
LINE
  5
9B21
330
1F
100
AcDbEntity
  8
LOGO
100
AcDbLine
 10
1297.723181234579
 20
538.5436365033574
 30
0.0
 11
1297.723181234579
 21
539.6169607473855
 31
0.0
  0
SOLID
  5
9B22
330
1F
100
AcDbEntity
  8
LOGO
 62
     5
100
AcDbTrace
 10
1295.516891696031
 20
540.3325102434043
 30
0.0
 11
1295.87466644404
 21
540.3325102434043
 31
0.0
 12
1295.516891696031
 22
538.5436365033574
 32
0.0
 13
1295.87466644404
 23
538.5436365033574
 33
0.0
  0
SOLID
  5
9B23
330
1F
100
AcDbEntity
  8
LOGO
 62
     5
100
AcDbTrace
 10
1296.292082242542
 20
538.5436365033574
 30
0.0
 11
1296.649856990552
 21
538.5436365033574
 31
0.0
 12
1296.292082242542
 22
540.3325102434043
 32
0.0
 13
1296.649856990552
 23
540.3325102434043
 33
0.0
  0
SOLID
  5
9B24
330
1F
100
AcDbEntity
  8
LOGO
 62
     5
100
AcDbTrace
 10
1297.36540648657
 20
539.6169607473855
 30
0.0
 11
1297.723181234579
 21
539.6169607473855
 31
0.0
 12
1297.36540648657
 22
538.5436365033574
 32
0.0
 13
1297.723181234579
 23
538.5436365033574
 33
0.0
  0
SOLID
  5
9B25
330
1F
100
AcDbEntity
  8
LOGO
 62
     5
100
AcDbTrace
 10
1296.256304767741
 20
551.1730851080892
 30
0.0
 11
1295.218757998514
 21
547.3687469542558
 31
0.0
 12
1296.256304767741
 22
542.1213839834511
 32
0.0
 13
1295.218757998514
 23
542.1213839834511
 33
0.0
  0
SOLID
  5
9B26
330
1F
100
AcDbEntity
  8
LOGO
 62
     5
100
AcDbTrace
 10
1296.685634465353
 20
542.1213839834511
 30
0.0
 11
1297.723181234579
 21
542.1213839834511
 31
0.0
 12
1296.685634465353
 22
551.9601895537098
 32
0.0
 13
1297.723181234579
 23
551.9601895537103
 33
0.0
  0
SOLID
  5
9B27
330
1F
100
AcDbEntity
  8
LOGO
 62
     2
100
AcDbTrace
 10
1296.256304767741
 20
551.9601895537103
 30
0.0
 11
1296.685634465353
 21
551.9601895537098
 31
0.0
 12
1296.256304767741
 22
542.1213839834511
 32
0.0
 13
1296.685634465353
 23
542.1213839834511
 33
0.0
  0
POLYLINE
  5
9B28
330
1F
100
AcDbEntity
  8
LOGO
 62
     5
100
AcDb2dPolyline
 66
     1
 10
0.0
 20
0.0
 30
0.0
 40
0.3583481049773755
 41
0.3583481049773755
  0
VERTEX
  5
9B29
330
9B28
100
AcDbEntity
  8
LOGO
 62
     5
100
AcDbVertex
100
AcDb2dVertex
 10
1292.417025322909
 20
539.6169607473855
 30
0.0
 42
1.0
  0
VERTEX
  5
9B2A
330
9B28
100
AcDbEntity
  8
LOGO
 62
     5
100
AcDbVertex
100
AcDb2dVertex
 10
1291.341981007977
 20
539.6169607473855
 30
0.0
 42
1.0
  0
SEQEND
  5
9B2B
330
9B28
100
AcDbEntity
  8
LOGO
 62
     5
  0
POLYLINE
  5
9B2C
330
1F
100
AcDbEntity
  8
LOGO
 62
     5
100
AcDb2dPolyline
 66
     1
 10
0.0
 20
0.0
 30
0.0
 40
0.3583481049773755
 41
0.3583481049773755
  0
VERTEX
  5
9B2D
330
9B2C
100
AcDbEntity
  8
LOGO
 62
     5
100
AcDbVertex
100
AcDb2dVertex
 10
1293.490349566936
 20
539.6169607473855
 30
0.0
 42
1.0
  0
VERTEX
  5
9B2E
330
9B2C
100
AcDbEntity
  8
LOGO
 62
     5
100
AcDbVertex
100
AcDb2dVertex
 10
1292.415305252005
 20
539.6169607473855
 30
0.0
 42
1.0
  0
SEQEND
  5
9B2F
330
9B2C
100
AcDbEntity
  8
LOGO
 62
     5
  0
POLYLINE
  5
9B30
330
1F
100
AcDbEntity
  8
LOGO
 62
     5
100
AcDb2dPolyline
 66
     1
 10
0.0
 20
0.0
 30
0.0
 40
0.3583481049773755
 41
0.3583481049773755
  0
VERTEX
  5
9B31
330
9B30
100
AcDbEntity
  8
LOGO
 62
     5
100
AcDbVertex
100
AcDb2dVertex
 10
1288.362220993819
 20
539.6169607473855
 30
0.0
 42
1.0
  0
VERTEX
  5
9B32
330
9B30
100
AcDbEntity
  8
LOGO
 62
     5
100
AcDbVertex
100
AcDb2dVertex
 10
1287.287176678887
 20
539.6169607473855
 30
0.0
 42
1.0
  0
SEQEND
  5
9B33
330
9B30
100
AcDbEntity
  8
LOGO
 62
     5
  0
SOLID
  5
9B34
330
1F
100
AcDbEntity
  8
LOGO
 62
     5
100
AcDbTrace
 10
1287.109149340334
 20
540.3325102434043
 30
0.0
 11
1287.466924088343
 21
540.3325102434043
 31
0.0
 12
1287.109149340334
 22
538.5436365033574
 32
0.0
 13
1287.466924088343
 23
538.5436365033574
 33
0.0
  0
SOLID
  5
9B35
330
1F
100
AcDbEntity
  8
LOGO
 62
     5
100
AcDbTrace
 10
1288.182473584362
 20
539.6169607473855
 30
0.0
 11
1288.540248332372
 21
539.6169607473855
 31
0.0
 12
1288.182473584362
 22
538.5436365033574
 32
0.0
 13
1288.540248332372
 23
538.5436365033574
 33
0.0
  0
POLYLINE
  5
9B36
330
1F
100
AcDbEntity
  8
LOGO
 62
     5
100
AcDb2dPolyline
 66
     1
 10
0.0
 20
0.0
 30
0.0
 70
     1
 40
0.3583481049773755
 41
0.3583481049773755
  0
VERTEX
  5
9B37
330
9B36
100
AcDbEntity
  8
LOGO
 62
     5
100
AcDbVertex
100
AcDb2dVertex
 10
1289.135440568417
 20
539.4380733733806
 30
0.0
 42
1.0
  0
VERTEX
  5
9B38
330
9B36
100
AcDbEntity
  8
LOGO
 62
     5
100
AcDbVertex
100
AcDb2dVertex
 10
1290.568832988327
 20
539.4380733733806
 30
0.0
 42
1.0
  0
SEQEND
  5
9B39
330
9B36
100
AcDbEntity
  8
LOGO
 62
     5
  0
SOLID
  5
9B3A
330
1F
100
AcDbEntity
  8
LOGO
 62
     5
100
AcDbTrace
 10
1290.388763122912
 20
540.8691723654186
 30
0.0
 11
1290.746537870921
 21
540.8691723654186
 31
0.0
 12
1290.388763122912
 22
538.5436365033574
 32
0.0
 13
1290.746537870921
 23
538.5436365033574
 33
0.0
  0
SOLID
  5
9B3B
330
1F
100
AcDbEntity
  8
LOGO
 62
     5
100
AcDbTrace
 10
1291.163953669425
 20
540.3325102434043
 30
0.0
 11
1291.521728417434
 21
540.3325102434043
 31
0.0
 12
1291.163953669425
 22
538.5436365033574
 32
0.0
 13
1291.521728417434
 23
538.5436365033574
 33
0.0
  0
SOLID
  5
9B3C
330
1F
100
AcDbEntity
  8
LOGO
 62
     5
100
AcDbTrace
 10
1292.237277913452
 20
539.6169607473855
 30
0.0
 11
1292.595052661462
 21
539.6169607473855
 31
0.0
 12
1292.237277913452
 22
538.5436365033574
 32
0.0
 13
1292.595052661462
 23
538.5436365033574
 33
0.0
  0
SOLID
  5
9B3D
330
1F
100
AcDbEntity
  8
LOGO
 62
     5
100
AcDbTrace
 10
1293.31060215748
 20
539.6169607473855
 30
0.0
 11
1293.668376905489
 21
539.6169607473855
 31
0.0
 12
1293.31060215748
 22
538.5436365033569
 32
0.0
 13
1293.668376905489
 23
538.5436365033569
 33
0.0
  0
SOLID
  5
9B3E
330
1F
100
AcDbEntity
  8
LOGO
 62
     5
100
AcDbTrace
 10
1286.333958793822
 20
540.5829525670108
 30
0.0
 11
1286.691733541832
 21
540.5829525670108
 31
0.0
 12
1286.333958793822
 22
540.8691723654186
 32
0.0
 13
1286.691733541832
 23
540.8691723654186
 33
0.0
  0
SOLID
  5
9B3F
330
1F
100
AcDbEntity
  8
LOGO
 62
     5
100
AcDbTrace
 10
1286.333958793822
 20
540.3325102434043
 30
0.0
 11
1286.691733541832
 21
540.3325102434043
 31
0.0
 12
1286.333958793822
 22
538.5436365033569
 32
0.0
 13
1286.691733541832
 23
538.5436365033574
 33
0.0
  0
SOLID
  5
9B40
330
1F
100
AcDbEntity
  8
LOGO
 62
     5
100
AcDbTrace
 10
1289.852136778372
 20
542.1213839834513
 30
0.0
 11
1290.8896835476
 21
542.1213839834513
 31
0.0
 12
1289.852136778372
 22
547.3687469542558
 32
0.0
 13
1290.8896835476
 23
551.1730851080892
 33
0.0
  0
SOLID
  5
9B41
330
1F
100
AcDbEntity
  8
LOGO
 62
     5
100
AcDbTrace
 10
1291.319013245211
 20
551.9601895537098
 30
0.0
 11
1292.356560014438
 21
551.9601895537103
 31
0.0
 12
1291.319013245211
 22
542.9084884290719
 32
0.0
 13
1292.356560014438
 23
546.7128265829053
 33
0.0
  0
SOLID
  5
9B42
330
1F
100
AcDbEntity
  8
LOGO
 62
     2
100
AcDbTrace
 10
1290.8896835476
 20
551.9601895537098
 30
0.0
 11
1291.319013245211
 21
551.9601895537098
 31
0.0
 12
1290.8896835476
 22
542.1213839834513
 32
0.0
 13
1291.319013245211
 23
542.1213839834513
 33
0.0
  0
SOLID
  5
9B43
330
1F
100
AcDbEntity
  8
LOGO
 62
     5
100
AcDbTrace
 10
1291.319013245211
 20
542.9084884290719
 30
0.0
 11
1292.356560014438
 21
546.7128265829053
 31
0.0
 12
1296.256304767741
 22
551.9601895537103
 32
0.0
 13
1295.218757998514
 23
551.9601895537103
 33
0.0
  0
SOLID
  5
9B44
330
1F
100
AcDbEntity
  8
LOGO
 62
     5
100
AcDbTrace
 10
1291.319013245211
 20
542.1213839834513
 30
0.0
 11
1292.356560014438
 21
542.1213839834513
 31
0.0
 12
1296.256304767741
 22
551.1730851080892
 32
0.0
 13
1295.218757998514
 23
547.3687469542558
 33
0.0
  0
SOLID
  5
9B45
330
1F
100
AcDbEntity
  8
LOGO
 62
     2
100
AcDbTrace
 10
1290.8896835476
 20
542.1213839834513
 30
0.0
 11
1291.319013245211
 21
542.1213839834513
 31
0.0
 12
1296.256304767741
 22
551.9601895537103
 32
0.0
 13
1296.685634465353
 23
551.9601895537098
 33
0.0
  0
TEXT
  5
9B84
330
1F
100
AcDbEntity
  8
LOGO
100
AcDbText
 10
1336.060035050341
 20
529.8102989825974
 30
0.0
 40
2.399999999999999
  1
20811193
 41
0.7
  7
CHINESET
 72
     1
 11
1341.740035050341
 21
529.8102989825974
 31
0.0
100
AcDbText
  0
LINE
  5
9B85
330
1F
100
AcDbEntity
  8
LOGO
 62
     4
100
AcDbLine
 10
1349.188192340854
 20
533.3329983072679
 30
0.0
 11
1349.188192340856
 21
528.5336933298919
 31
0.0
  0
LINE
  5
9B86
330
1F
100
AcDbEntity
  8
LOGO
 62
     4
100
AcDbLine
 10
1349.188192340854
 20
533.3329983072679
 30
0.0
 11
1334.788192340856
 21
533.3329983072679
 31
0.0
  0
CIRCLE
  5
9B87
330
1F
100
AcDbEntity
  8
LOGO
  6
Continuous
100
AcDbCircle
 10
1323.233765809531
 20
545.33639362494
 30
0.0
 40
1.393294716384757
  0
CIRCLE
  5
9B88
330
1F
100
AcDbEntity
  8
LOGO
  6
Continuous
100
AcDbCircle
 10
1323.233765809531
 20
545.33639362494
 30
0.0
 40
0.8163473623987165
  0
LINE
  5
9B89
330
1F
100
AcDbEntity
  8
LOGO
100
AcDbLine
 10
1331.989391478375
 20
543.9430989085549
 30
0.0
 11
1331.989391478375
 21
546.7296883413249
 31
0.0
  0
LINE
  5
9B8A
330
1F
100
AcDbEntity
  8
LOGO
100
AcDbLine
 10
1327.621492521442
 20
544.5200462625414
 30
0.0
 11
1327.621492521442
 21
546.1527409873387
 31
0.0
  0
LINE
  5
9B8B
330
1F
100
AcDbEntity
  8
LOGO
  6
Continuous
100
AcDbLine
 10
1327.621492521442
 20
546.1527409873387
 30
0.0
 11
1331.989391478375
 21
546.7296883413249
 31
0.0
  0
LINE
  5
9B8C
330
1F
100
AcDbEntity
  8
LOGO
  6
Continuous
100
AcDbLine
 10
1327.621492521442
 20
544.5200462625414
 30
0.0
 11
1331.989391478375
 21
543.9430989085549
 31
0.0
  0
LINE
  5
9B8D
330
1F
100
AcDbEntity
  8
LOGO
  6
AM_ISO08W050x2
 48
0.3
100
AcDbLine
 10
1321.313088180049
 20
545.33639362494
 30
0.0
 11
1325.154443439013
 21
545.33639362494
 31
0.0
1001
GENIUS_GENOREF_13
1005
9BA4
  0
LINE
  5
9B8E
330
1F
100
AcDbEntity
  8
LOGO
  6
AM_ISO08W050x2
 48
0.3
100
AcDbLine
 10
1323.233765809531
 20
543.4157159954581
 30
0.0
 11
1323.233765809531
 21
547.2570712544218
 31
0.0
1001
GENIUS_GENOREF_13
1005
9BA3
  0
LINE
  5
9B8F
330
1F
100
AcDbEntity
  8
LOGO
  6
CENTER
 48
0.5
100
AcDbLine
 10
1327.272182010071
 20
545.33639362494
 30
0.0
 11
1332.42922476372
 21
545.33639362494
 31
0.0
1001
GENIUS_GENOREF_13
1005
9BA2
  0
POINT
  5
9BA2
330
1F
100
AcDbEntity
  8
0
 60
     1
100
AcDbPoint
 10
-1109.691215426562
 20
-378.1221793033367
 30
0.0
1001
GENIUS_GENOBJ-N-CRS_13
1002
{
1000
OWNER
1000
GEN
1002
}
1001
GENIUS_GENOLIS_13
1002
{
1000
ENT
1005
0
1005
0
1005
0
1005
9B8F
1002
}
1001
GENIUS_GENOENT_13
1002
{
1000
MYREF
1005
9BA2
1002
}
1002
{
1000
GRP
1005
0
1002
}
1001
GENIUS_GENODEF_13
1002
{
1000
HIER
1070
    10
1002
}
1002
{
1000
MANEDIT
1070
     1
1002
}
1002
{
1000
NOSEL
1070
     0
1002
}
1002
{
1000
BEHIND
1070
     0
1002
}
1002
{
1000
OTHER
1070
     0
1002
}
1002
{
1000
REACTOR
1002
}
  0
POINT
  5
9BA3
330
1F
100
AcDbEntity
  8
0
 60
     1
100
AcDbPoint
 10
-1121.015800649417
 20
-369.2465928247004
 30
0.0
1001
GENIUS_GENOBJ-N-CRS_13
1002
{
1000
OWNER
1000
GEN
1002
}
1001
GENIUS_GENOLIS_13
1002
{
1000
ENT
1005
0
1005
0
1005
0
1005
9B8E
1002
}
1001
GENIUS_GENOENT_13
1002
{
1000
MYREF
1005
9BA3
1002
}
1002
{
1000
GRP
1005
0
1002
}
1001
GENIUS_GENODEF_13
1002
{
1000
HIER
1070
    10
1002
}
1002
{
1000
MANEDIT
1070
     1
1002
}
1002
{
1000
NOSEL
1070
     0
1002
}
1002
{
1000
BEHIND
1070
     0
1002
}
1002
{
1000
OTHER
1070
     0
1002
}
1002
{
1000
REACTOR
1002
}
  0
POINT
  5
9BA4
330
1F
100
AcDbEntity
  8
0
 60
     1
100
AcDbPoint
 10
-1114.65712695158
 20
-378.1221793033367
 30
0.0
1001
GENIUS_GENOBJ-N-CRS_13
1002
{
1000
OWNER
1000
GEN
1002
}
1001
GENIUS_GENOLIS_13
1002
{
1000
ENT
1005
0
1005
0
1005
0
1005
9B8D
1002
}
1001
GENIUS_GENOENT_13
1002
{
1000
MYREF
1005
9BA4
1002
}
1002
{
1000
GRP
1005
0
1002
}
1001
GENIUS_GENODEF_13
1002
{
1000
HIER
1070
    10
1002
}
1002
{
1000
MANEDIT
1070
     1
1002
}
1002
{
1000
NOSEL
1070
     0
1002
}
1002
{
1000
BEHIND
1070
     0
1002
}
1002
{
1000
OTHER
1070
     0
1002
}
1002
{
1000
REACTOR
1002
}
  0
ARC
  5
A06F
330
1F
100
AcDbEntity
  8
AM_VIS
100
AcDbCircle
 10
1402.026194128415
 20
676.2898793870345
 30
0.0
 40
8.5
100
AcDbArc
 50
348.9176166212876
 51
316.4003770850916
  0
CIRCLE
  5
A071
330
1F
100
AcDbEntity
  8
AM_VIS
100
AcDbCircle
 10
1440.627822767282
 20
659.3046868233043
 30
0.0
 40
1.449999999999999
  0
LINE
  5
A073
330
1F
100
AcDbEntity
  8
AM_VIS
100
AcDbLine
 10
1428.453613980762
 20
662.3003713474705
 30
0.0
 11
1403.14214409744
 21
672.4487004447524
 31
0.0
  0
LINE
  5
A074
330
1F
100
AcDbEntity
  8
AM_VIS
100
AcDbLine
 10
1413.259520075722
 20
674.7488121718999
 30
0.0
 11
1439.576078182733
 21
664.1975050526849
 31
0.0
  0
LINE
  5
A075
330
1F
100
AcDbEntity
  8
AM_VIS
100
AcDbLine
 10
1444.760721664815
 20
662.118784672131
 30
0.0
 11
1445.745686494829
 21
661.7238748826045
 31
0.0
  0
LINE
  5
A076
330
1F
100
AcDbEntity
  8
AM_VIS
100
AcDbLine
 10
1445.745686494829
 20
661.7238748826045
 30
0.0
 11
1445.388512730277
 21
660.8330294145574
 31
0.0
  0
LINE
  5
A077
330
1F
100
AcDbEntity
  8
AM_VIS
100
AcDbLine
 10
1408.303407493168
 20
677.1668585050076
 30
0.0
 11
1410.389013545003
 21
674.6300641214816
 31
0.0
  0
LINE
  5
A078
330
1F
100
AcDbEntity
  8
AM_VIS
100
AcDbLine
 10
1405.486632809513
 20
678.2962104001916
 30
0.0
 11
1408.303407493168
 21
677.1668585050076
 31
0.0
  0
ARC
  5
A079
330
1F
100
AcDbEntity
  8
AM_VIS
100
AcDbCircle
 10
1402.026194128415
 20
676.2898793870345
 30
0.0
 40
4.0
100
AcDbArc
 50
30.10476947706405
 51
286.1997843843056
  0
ARC
  5
A07A
330
1F
100
AcDbEntity
  8
AM_VIS
100
AcDbCircle
 10
1411.779433910968
 20
675.7731875644704
 30
0.0
 40
1.8
100
AcDbArc
 50
219.4250710612507
 51
325.3126885237805
  0
CIRCLE
  5
A07B
330
1F
100
AcDbEntity
  8
AM_VIS
100
AcDbCircle
 10
1402.026194128415
 20
676.2898793870345
 30
0.0
 40
1.649999999999999
  0
LINE
  5
A07C
330
1F
100
AcDbEntity
  8
AM_VIS
100
AcDbLine
 10
1424.49477079023
 20
661.6251203676486
 30
0.0
 11
1421.420505753291
 21
662.8577099197742
 31
0.0
  0
LINE
  5
A07D
330
1F
100
AcDbEntity
  8
AM_VIS
100
AcDbLine
 10
1420.308435517302
 20
665.4583444173972
 30
0.0
 11
1420.345649623843
 21
665.5511620357375
 31
0.0
  0
LINE
  5
A07E
330
1F
100
AcDbEntity
  8
AM_VIS
100
AcDbLine
 10
1421.645096280607
 20
665.0301645441657
 30
0.0
 11
1421.570668067525
 21
664.8445293074851
 31
0.0
  0
LINE
  5
A07F
330
1F
100
AcDbEntity
  8
AM_VIS
100
AcDbLine
 10
1421.848685626522
 20
664.1943706830793
 30
0.0
 11
1427.133999583918
 21
662.0752876875299
 31
0.0
  0
LINE
  5
A080
330
1F
100
AcDbEntity
  8
AM_VIS
100
AcDbLine
 10
1428.297060287824
 20
662.2736683361453
 30
0.0
 11
1428.327964801109
 21
662.3507488732249
 31
0.0
  0
ARC
  5
A081
330
1F
100
AcDbEntity
  8
AM_VIS
100
AcDbCircle
 10
1422.164787884108
 20
664.7140622865804
 30
0.0
 40
1.999999999999999
100
AcDbArc
 50
158.1522769306862
 51
248.1522769306838
  0
ARC
  5
A082
330
1F
100
AcDbEntity
  8
AM_VIS
100
AcDbCircle
 10
1422.034756159226
 20
664.6584587747809
 30
0.0
 40
0.5
100
AcDbArc
 50
158.1522769306862
 51
248.1522769306838
  0
LINE
  5
A083
330
1F
100
AcDbEntity
  8
AM_VIS
100
AcDbLine
 10
1442.587414561508
 20
653.3046868233043
 30
0.0
 11
1439.677822767282
 21
653.3046868233043
 31
0.0
  0
LINE
  5
A084
330
1F
100
AcDbEntity
  8
AM_VIS
100
AcDbLine
 10
1413.002429666083
 20
653.3046868233046
 30
0.0
 11
1410.120053397689
 21
653.3046868233046
 31
0.0
  0
LINE
  5
A085
330
1F
100
AcDbEntity
  8
AM_VIS
100
AcDbLine
 10
1409.339322767282
 20
653.3046868233046
 30
0.0
 11
1408.716322767282
 21
653.3046868233046
 31
0.0
  0
LINE
  5
A086
330
1F
100
AcDbEntity
  8
AM_VIS
100
AcDbLine
 10
1407.935592136874
 20
653.3046868233046
 30
0.0
 11
1405.027822767282
 21
653.3046868233046
 31
0.0
  0
LINE
  5
A087
330
1F
100
AcDbEntity
  8
AM_VIS
100
AcDbLine
 10
1405.027822767282
 20
653.3046868233046
 30
0.0
 11
1405.027822767282
 21
655.773062913779
 31
0.0
  0
LINE
  5
A088
330
1F
100
AcDbEntity
  8
AM_VIS
100
AcDbLine
 10
1442.587414561508
 20
654.7046868233043
 30
0.0
 11
1442.587414561508
 21
653.3046868233043
 31
0.0
  0
LINE
  5
A089
330
1F
100
AcDbEntity
  8
AM_VIS
100
AcDbLine
 10
1447.027822767282
 20
653.3046868233043
 30
0.0
 11
1442.587414561508
 21
653.3046868233043
 31
0.0
  0
LINE
  5
A08A
330
1F
100
AcDbEntity
  8
AM_VIS
100
AcDbLine
 10
1445.627822767282
 20
663.3046868233043
 30
0.0
 11
1447.027822767282
 21
663.3046868233043
 31
0.0
  0
LINE
  5
A08B
330
1F
100
AcDbEntity
  8
AM_VIS
100
AcDbLine
 10
1447.027822767282
 20
663.3046868233043
 30
0.0
 11
1447.027822767282
 21
653.3046868233043
 31
0.0
  0
LINE
  5
A08C
330
1F
100
AcDbEntity
  8
AM_VIS
100
AcDbLine
 10
1445.627822767282
 20
654.7076985133043
 30
0.0
 11
1445.627822767282
 21
661.429904893896
 31
0.0
  0
LINE
  5
A08D
330
1F
100
AcDbEntity
  8
AM_VIS
100
AcDbLine
 10
1445.627822767282
 20
661.7711309250742
 30
0.0
 11
1445.627822767282
 21
663.3046868233043
 31
0.0
  0
LINE
  5
A08E
330
1F
100
AcDbEntity
  8
AM_VIS
100
AcDbLine
 10
1407.523404517947
 20
658.7303525901106
 30
0.0
 11
1439.787125685057
 21
664.2335029505237
 31
0.0
  0
LINE
  5
A08F
330
1F
100
AcDbEntity
  8
AM_VIS
100
AcDbLine
 10
1445.627822767282
 20
654.7076985133043
 30
0.0
 11
1442.594469272814
 21
654.7076985133043
 31
0.0
  0
ARC
  5
A090
330
1F
100
AcDbEntity
  8
AM_VIS
100
AcDbCircle
 10
1408.027822767282
 20
655.773062913779
 30
0.0
 40
3.0
100
AcDbArc
 50
99.67965838367335
 51
180.0
  0
ARC
  5
A091
330
1F
100
AcDbEntity
  8
AM_VIS
100
AcDbCircle
 10
1440.627822767282
 20
659.3046868233043
 30
0.0
 40
5.0
100
AcDbArc
 50
293.0739180656293
 51
99.67965838367335
  0
CIRCLE
  5
A092
330
1F
100
AcDbEntity
  8
AM_VIS
100
AcDbCircle
 10
1440.627822767282
 20
659.3046868233043
 30
0.0
 40
1.649999999999999
  0
ARC
  5
A093
330
1F
100
AcDbEntity
  8
AM_VIS
100
AcDbCircle
 10
1422.027822767282
 20
658.3046868233044
 30
0.0
 40
4.0
100
AcDbArc
 50
55.28947302060874
 51
144.0698437467325
  0
LINE
  5
A094
330
1F
100
AcDbEntity
  8
AM_VIS
100
AcDbLine
 10
1405.120467794976
 20
651.3636243354325
 30
0.0
 11
1405.027822767282
 21
650.3046868233045
 31
0.0
  0
LINE
  5
A095
330
1F
100
AcDbEntity
  8
AM_VIS
100
AcDbLine
 10
1412.935177739588
 20
651.3636243354324
 30
0.0
 11
1413.027822767282
 21
650.3046868233045
 31
0.0
  0
LINE
  5
A096
330
1F
100
AcDbEntity
  8
AM_VIS
100
AcDbLine
 10
1413.027822767282
 20
650.3046868233045
 30
0.0
 11
1405.027822767282
 21
650.3046868233045
 31
0.0
  0
LINE
  5
A097
330
1F
100
AcDbEntity
  8
AM_VIS
100
AcDbLine
 10
1408.716322767282
 20
653.3897416033354
 30
0.0
 11
1408.716322767282
 21
652.978367846571
 31
0.0
  0
ELLIPSE
  5
A098
330
1F
100
AcDbEntity
  8
AM_VIS
100
AcDbEllipse
 10
1409.027822767282
 20
648.7968066340049
 30
0.0
 11
5.924134808644344
 21
-0.0000000000000423
 31
0.0
210
0.0
220
0.0
230
1.0
 40
0.7068296022936146
 41
1.518190549077107
 42
1.623402104512687
  0
LINE
  5
A099
330
1F
100
AcDbEntity
  8
AM_VIS
100
AcDbLine
 10
1409.339322767282
 20
652.978367846571
 30
0.0
 11
1409.339322767282
 21
653.3897416033354
 31
0.0
  0
LINE
  5
A09A
330
1F
100
AcDbEntity
  8
AM_VIS
100
AcDbLine
 10
1406.727822767282
 20
652.9841604847328
 30
0.0
 11
1406.733619947648
 21
652.9783678465711
 31
0.0
  0
ARC
  5
A09B
330
1F
100
AcDbEntity
  8
AM_VIS
100
AcDbCircle
 10
1409.027822767282
 20
646.9046868233045
 30
0.0
 40
6.492531690334765
100
AcDbArc
 50
69.30701681442089
 51
87.24999575800255
  0
ARC
  5
A09C
330
1F
100
AcDbEntity
  8
AM_VIS
100
AcDbCircle
 10
1409.027822767282
 20
646.9046868233045
 30
0.0
 40
6.492531690334765
100
AcDbArc
 50
92.75000424199744
 51
110.6929831855791
  0
LINE
  5
A09D
330
1F
100
AcDbEntity
  8
AM_VIS
100
AcDbLine
 10
1411.322025586915
 20
652.978367846571
 30
0.0
 11
1411.327822767282
 21
652.9841604847328
 31
0.0
  0
ARC
  5
A09E
330
1F
100
AcDbEntity
  8
AM_VIS
100
AcDbCircle
 10
1406.714379311922
 20
651.2241751470362
 30
0.0
 40
1.6
100
AcDbArc
 50
118.1727341318709
 51
175.0000000000005
  0
ARC
  5
A09F
330
1F
100
AcDbEntity
  8
AM_VIS
100
AcDbCircle
 10
1411.341266222642
 20
651.2241751470361
 30
0.0
 40
1.6
100
AcDbArc
 50
4.999999999999459
 51
61.82726586812909
  0
ARC
  5
A0A0
330
1F
100
AcDbEntity
  8
AM_VIS
100
AcDbCircle
 10
1409.027822767282
 20
646.9046868233045
 30
0.0
 40
6.5
100
AcDbArc
 50
61.82726586812909
 51
69.2772556184067
  0
ARC
  5
A0A1
330
1F
100
AcDbEntity
  8
AM_VIS
100
AcDbCircle
 10
1409.027822767282
 20
646.9046868233045
 30
0.0
 40
6.5
100
AcDbArc
 50
110.7227443815933
 51
118.1727341318709
  0
ELLIPSE
  5
A0A2
330
1F
100
AcDbEntity
  8
AM_VIS
100
AcDbEllipse
 10
1409.027822767282
 20
649.8541823071954
 30
0.0
 11
-0.0000000000000734
 21
-10.44041419392712
 31
-0.0000000000000001
210
0.0
220
0.0
230
1.0
 40
0.363970234266219
 41
4.712388980384689
 42
4.765044888646255
  0
LINE
  5
A0A3
330
1F
100
AcDbEntity
  8
AM_VIS
100
AcDbLine
 10
1405.227822767282
 20
650.3046868233045
 30
0.0
 11
1405.227822767282
 21
649.8541823071954
 31
0.0
  0
LINE
  5
A0A4
330
1F
100
AcDbEntity
  8
AM_VIS
100
AcDbLine
 10
1412.827822767282
 20
650.3046868233045
 30
0.0
 11
1412.827822767282
 21
649.3046868233045
 31
0.0
  0
LINE
  5
A0A5
330
1F
100
AcDbEntity
  8
AM_VIS
100
AcDbLine
 10
1413.027822767282
 20
653.3046868233046
 30
0.0
 11
1413.027822767282
 21
649.3046868233045
 31
0.0
  0
LINE
  5
A0A6
330
1F
100
AcDbEntity
  8
AM_VIS
100
AcDbLine
 10
1413.027822767282
 20
649.3046868233045
 30
0.0
 11
1405.377822767282
 21
649.3046868233045
 31
0.0
  0
LINE
  5
A0A7
330
1F
100
AcDbEntity
  8
AM_VIS
100
AcDbLine
 10
1404.377822767282
 20
649.3046868233045
 30
0.0
 11
1404.377822767282
 21
653.3046868233046
 31
0.0
  0
LINE
  5
A0A8
330
1F
100
AcDbEntity
  8
AM_VIS
100
AcDbLine
 10
1404.377822767282
 20
649.3046868233045
 30
0.0
 11
1404.377822767282
 21
637.3046868233045
 31
0.0
  0
LINE
  5
A0A9
330
1F
100
AcDbEntity
  8
AM_VIS
100
AcDbLine
 10
1439.677822767282
 20
637.3046868233043
 30
0.0
 11
1439.677822767282
 21
653.3046868233043
 31
0.0
  0
LINE
  5
A0AA
330
1F
100
AcDbEntity
  8
AM_VIS
100
AcDbLine
 10
1438.677822767282
 20
653.3046868233043
 30
0.0
 11
1413.027822767282
 21
653.3046868233046
 31
0.0
  0
LINE
  5
A0AB
330
1F
100
AcDbEntity
  8
AM_VIS
100
AcDbLine
 10
1404.377822767282
 20
653.3046868233046
 30
0.0
 11
1405.027822767282
 21
653.3046868233046
 31
0.0
  0
LINE
  5
A0AC
330
1F
100
AcDbEntity
  8
AM_VIS
100
AcDbLine
 10
1404.377822767282
 20
649.3046868233045
 30
0.0
 11
1405.377822767282
 21
649.3046868233045
 31
0.0
  0
LINE
  5
A0AD
330
1F
100
AcDbEntity
  8
AM_VIS
100
AcDbLine
 10
1438.677822767282
 20
653.3046868233043
 30
0.0
 11
1439.677822767282
 21
653.3046868233043
 31
0.0
  0
LINE
  5
A0AE
330
1F
100
AcDbEntity
  8
AM_VIS
100
AcDbLine
 10
1413.002429666083
 20
653.3046868233046
 30
0.0
 11
1413.027822767282
 21
653.3046868233046
 31
0.0
  0
LINE
  5
A0AF
330
1F
100
AcDbEntity
  8
AM_VIS
100
AcDbLine
 10
1435.935177739588
 20
582.7457493111766
 30
0.0
 11
1436.027822767282
 21
583.8046868233044
 31
0.0
  0
LINE
  5
A0B0
330
1F
100
AcDbEntity
  8
AM_VIS
100
AcDbLine
 10
1428.120467794975
 20
582.7457493111766
 30
0.0
 11
1428.027822767282
 21
583.8046868233044
 31
0.0
  0
LINE
  5
A0B1
330
1F
100
AcDbEntity
  8
AM_VIS
100
AcDbLine
 10
1428.027822767282
 20
583.8046868233044
 30
0.0
 11
1436.027822767282
 21
583.8046868233044
 31
0.0
  0
LINE
  5
A0B2
330
1F
100
AcDbEntity
  8
AM_VIS
100
AcDbLine
 10
1432.339322767282
 20
580.7196320432735
 30
0.0
 11
1432.339322767282
 21
581.131005800038
 31
0.0
  0
ELLIPSE
  5
A0B3
330
1F
100
AcDbEntity
  8
AM_VIS
100
AcDbEllipse
 10
1432.027822767281
 20
585.312567012604
 30
0.0
 11
5.924134808644344
 21
-0.0000000000000423
 31
0.0
210
0.0
220
0.0
230
1.0
 40
0.706829602293615
 41
4.659783202666919
 42
4.764994758102498
  0
LINE
  5
A0B4
330
1F
100
AcDbEntity
  8
AM_VIS
100
AcDbLine
 10
1431.716322767282
 20
581.131005800038
 30
0.0
 11
1431.716322767282
 21
580.7196320432735
 31
0.0
  0
LINE
  5
A0B5
330
1F
100
AcDbEntity
  8
AM_VIS
100
AcDbLine
 10
1434.327822767281
 20
581.1252131618762
 30
0.0
 11
1434.322025586915
 21
581.1310058000379
 31
0.0
  0
ARC
  5
A0B6
330
1F
100
AcDbEntity
  8
AM_VIS
100
AcDbCircle
 10
1432.027822767281
 20
587.2046868233044
 30
0.0
 40
6.492531690334765
100
AcDbArc
 50
249.3070168144209
 51
267.2499957580025
  0
ARC
  5
A0B7
330
1F
100
AcDbEntity
  8
AM_VIS
100
AcDbCircle
 10
1432.027822767281
 20
587.2046868233044
 30
0.0
 40
6.492531690334765
100
AcDbArc
 50
272.7500042419975
 51
290.6929831855791
  0
LINE
  5
A0B8
330
1F
100
AcDbEntity
  8
AM_VIS
100
AcDbLine
 10
1429.733619947648
 20
581.1310058000379
 30
0.0
 11
1429.727822767281
 21
581.1252131618762
 31
0.0
  0
ARC
  5
A0B9
330
1F
100
AcDbEntity
  8
AM_VIS
100
AcDbCircle
 10
1434.341266222641
 20
582.8851984995728
 30
0.0
 40
1.6
100
AcDbArc
 50
298.1727341318709
 51
355.0000000000006
  0
ARC
  5
A0BA
330
1F
100
AcDbEntity
  8
AM_VIS
100
AcDbCircle
 10
1429.714379311922
 20
582.8851984995728
 30
0.0
 40
1.6
100
AcDbArc
 50
184.9999999999994
 51
241.8272658681291
  0
ARC
  5
A0BB
330
1F
100
AcDbEntity
  8
AM_VIS
100
AcDbCircle
 10
1432.027822767281
 20
587.2046868233044
 30
0.0
 40
6.5
100
AcDbArc
 50
241.8272658681291
 51
249.2772556184067
  0
ARC
  5
A0BC
330
1F
100
AcDbEntity
  8
AM_VIS
100
AcDbCircle
 10
1432.027822767281
 20
587.2046868233044
 30
0.0
 40
6.5
100
AcDbArc
 50
290.7227443815933
 51
298.1727341318709
  0
ELLIPSE
  5
A0BD
330
1F
100
AcDbEntity
  8
AM_VIS
100
AcDbEllipse
 10
1432.027822767281
 20
584.3541823071952
 30
0.0
 11
0.0000000000000008
 21
-10.44041419392712
 31
-0.0000000000000001
210
0.0
220
0.0
230
1.0
 40
0.363970234266219
 41
4.71238898038469
 42
4.765044888646256
  0
LINE
  5
A0BE
330
1F
100
AcDbEntity
  8
AM_VIS
100
AcDbLine
 10
1428.227822767281
 20
584.7046868233044
 30
0.0
 11
1428.227822767281
 21
584.3541823071952
 31
0.0
  0
LINE
  5
A0BF
330
1F
100
AcDbEntity
  8
AM_VIS
100
AcDbLine
 10
1435.827822767281
 20
584.7046868233044
 30
0.0
 11
1435.827822767281
 21
583.8046868233044
 31
0.0
  0
LINE
  5
A0C0
330
1F
100
AcDbEntity
  8
AM_VIS
100
AcDbLine
 10
1431.161797363497
 20
584.8046868233044
 30
0.0
 11
1432.893848171066
 21
584.8046868233044
 31
0.0
  0
LINE
  5
A0C1
330
1F
100
AcDbEntity
  8
AM_VIS
100
AcDbLine
 10
1409.339322767281
 20
580.7196320432735
 30
0.0
 11
1409.339322767281
 21
580.8046868233044
 31
0.0
  0
LINE
  5
A0C2
330
1F
100
AcDbEntity
  8
AM_VIS
100
AcDbLine
 10
1408.716322767281
 20
580.8046868233044
 30
0.0
 11
1408.716322767281
 21
580.7196320432735
 31
0.0
  0
ARC
  5
A0C3
330
1F
100
AcDbEntity
  8
AM_VIS
100
AcDbCircle
 10
1409.027822767281
 20
587.2046868233044
 30
0.0
 40
6.492531690334765
100
AcDbArc
 50
260.3151479664598
 51
267.2499957580025
  0
ARC
  5
A0C4
330
1F
100
AcDbEntity
  8
AM_VIS
100
AcDbCircle
 10
1409.027822767281
 20
587.2046868233044
 30
0.0
 40
6.492531690334765
100
AcDbArc
 50
272.7500042419975
 51
279.6848520335402
  0
LINE
  5
A0C5
330
1F
100
AcDbEntity
  8
AM_VIS
100
AcDbLine
 10
1438.677822767282
 20
587.3046868233045
 30
0.0
 11
1405.377822767281
 21
587.3046868233045
 31
0.0
  0
LINE
  5
A0C6
330
1F
100
AcDbEntity
  8
AM_VIS
100
AcDbLine
 10
1404.377822767281
 20
587.3046868233045
 30
0.0
 11
1404.377822767281
 21
581.8046868233044
 31
0.0
  0
LINE
  5
A0C7
330
1F
100
AcDbEntity
  8
AM_VIS
100
AcDbLine
 10
1436.527822767281
 20
580.8046868233044
 30
0.0
 11
1438.677822767282
 21
580.8046868233044
 31
0.0
  0
LINE
  5
A0C8
330
1F
100
AcDbEntity
  8
AM_VIS
100
AcDbLine
 10
1436.027822767282
 20
584.3046868233044
 30
0.0
 11
1436.027822767282
 21
581.3046868233044
 31
0.0
  0
LINE
  5
A0C9
330
1F
100
AcDbEntity
  8
AM_VIS
100
AcDbLine
 10
1428.527822767281
 20
584.8046868233044
 30
0.0
 11
1431.161797363497
 21
584.8046868233044
 31
0.0
  0
LINE
  5
A0CA
330
1F
100
AcDbEntity
  8
AM_VIS
100
AcDbLine
 10
1432.893848171066
 20
584.8046868233044
 30
0.0
 11
1435.527822767281
 21
584.8046868233044
 31
0.0
  0
LINE
  5
A0CB
330
1F
100
AcDbEntity
  8
AM_VIS
100
AcDbLine
 10
1428.027822767282
 20
581.3046868233044
 30
0.0
 11
1428.027822767282
 21
584.3046868233044
 31
0.0
  0
LINE
  5
A0CC
330
1F
100
AcDbEntity
  8
AM_VIS
100
AcDbLine
 10
1405.377822767281
 20
580.8046868233044
 30
0.0
 11
1427.527822767281
 21
580.8046868233044
 31
0.0
  0
LINE
  5
A0CD
330
1F
100
AcDbEntity
  8
AM_VIS
100
AcDbLine
 10
1439.677822767281
 20
581.8046868233044
 30
0.0
 11
1439.677822767281
 21
587.3046868233045
 31
0.0
  0
LINE
  5
A0CE
330
1F
100
AcDbEntity
  8
AM_VIS
100
AcDbLine
 10
1427.527822767281
 20
580.8046868233044
 30
0.0
 11
1430.935592136874
 21
580.8046868233044
 31
0.0
  0
LINE
  5
A0CF
330
1F
100
AcDbEntity
  8
AM_VIS
100
AcDbLine
 10
1431.716322767282
 20
580.8046868233044
 30
0.0
 11
1432.339322767282
 21
580.8046868233044
 31
0.0
  0
LINE
  5
A0D0
330
1F
100
AcDbEntity
  8
AM_VIS
100
AcDbLine
 10
1433.120053397689
 20
580.8046868233044
 30
0.0
 11
1436.527822767281
 21
580.8046868233044
 31
0.0
  0
ARC
  5
A0D1
330
1F
100
AcDbEntity
  8
AM_VIS
100
AcDbCircle
 10
1435.527822767281
 20
584.3046868233044
 30
0.0
 40
0.5
100
AcDbArc
 50
0.0
 51
90.0
  0
ARC
  5
A0D2
330
1F
100
AcDbEntity
  8
AM_VIS
100
AcDbCircle
 10
1428.527822767281
 20
584.3046868233044
 30
0.0
 40
0.5
100
AcDbArc
 50
90.0
 51
180.0
  0
ARC
  5
A0D3
330
1F
100
AcDbEntity
  8
AM_VIS
100
AcDbCircle
 10
1405.377822767281
 20
581.8046868233044
 30
0.0
 40
1.0
100
AcDbArc
 50
180.0
 51
270.0
  0
ARC
  5
A0D4
330
1F
100
AcDbEntity
  8
AM_VIS
100
AcDbCircle
 10
1427.527822767281
 20
581.3046868233044
 30
0.0
 40
0.5
100
AcDbArc
 50
270.0
 51
0.0
  0
ARC
  5
A0D5
330
1F
100
AcDbEntity
  8
AM_VIS
100
AcDbCircle
 10
1436.527822767281
 20
581.3046868233044
 30
0.0
 40
0.5
100
AcDbArc
 50
180.0
 51
270.0
  0
ARC
  5
A0D6
330
1F
100
AcDbEntity
  8
AM_VIS
100
AcDbCircle
 10
1438.677822767282
 20
581.8046868233044
 30
0.0
 40
1.0
100
AcDbArc
 50
270.0
 51
0.0
  0
LINE
  5
A0D7
330
1F
100
AcDbEntity
  8
AM_VIS
100
AcDbLine
 10
1412.029934815188
 20
599.8720173730601
 30
0.0
 11
1414.098181565095
 21
599.8720173730601
 31
0.0
  0
ARC
  5
A0D8
330
1F
100
AcDbEntity
  8
AM_VIS
100
AcDbCircle
 10
1408.037516707341
 20
595.0093270271399
 30
0.0
 40
7.770290594200403
100
AcDbArc
 50
326.0882296793757
 51
38.74133115093687
  0
LINE
  5
A0D9
330
1F
100
AcDbEntity
  8
AM_VIS
100
AcDbLine
 10
1414.098142498925
 20
599.8720226112632
 30
0.0
 11
1414.424327998745
 21
602.3046924020164
 31
0.0
  0
LINE
  5
A0DA
330
1F
100
AcDbEntity
  8
AM_VIS
100
AcDbLine
 10
1414.424369604409
 20
604.7012336604316
 30
0.0
 11
1411.286451845228
 21
604.7012336604316
 31
0.0
  0
LINE
  5
A0DB
330
1F
100
AcDbEntity
  8
AM_VIS
100
AcDbLine
 10
1412.027822767282
 20
633.8046868233044
 30
0.0
 11
1412.027822767282
 21
624.9841362950747
 31
0.0
  0
LINE
  5
A0DC
330
1F
100
AcDbEntity
  8
AM_VIS
100
AcDbLine
 10
1411.286448588289
 20
619.9081399861772
 30
0.0
 11
1414.424369604409
 21
619.9081399861771
 31
0.0
  0
ARC
  5
A0DD
330
1F
100
AcDbEntity
  8
AM_VIS
100
AcDbCircle
 10
1413.45428936297
 20
623.7270654680612
 30
0.0
 40
1.012143341616059
100
AcDbArc
 50
96.39734576961915
 51
191.2167369613695
  0
LINE
  5
A0DE
330
1F
100
AcDbEntity
  8
AM_VIS
100
AcDbLine
 10
1414.212506975618
 20
623.8841865790049
 30
0.0
 11
1414.424351862875
 21
622.3046844437867
 31
0.0
  0
LINE
  5
A0E0
330
1F
100
AcDbEntity
  8
AM_VIS
100
AcDbLine
 10
1414.424369604409
 20
602.3046868233044
 30
0.0
 11
1414.424369604409
 21
604.7012336604316
 31
0.0
  0
LINE
  5
A0E1
330
1F
100
AcDbEntity
  8
AM_VIS
100
AcDbLine
 10
1422.027822767281
 20
612.3046868233043
 30
0.0
 11
1414.424369604409
 21
604.7012336604316
 31
0.0
  0
LINE
  5
A0E2
330
1F
100
AcDbEntity
  8
AM_VIS
100
AcDbLine
 10
1414.424369604409
 20
619.9081399861771
 30
0.0
 11
1422.027822767281
 21
612.3046868233043
 31
0.0
  0
LINE
  5
A0E3
330
1F
100
AcDbEntity
  8
AM_VIS
100
AcDbLine
 10
1414.424369604409
 20
619.9081399861771
 30
0.0
 11
1414.424369604409
 21
622.3046868233044
 31
0.0
  0
ARC
  5
A0E4
330
1F
100
AcDbEntity
  8
AM_VIS
100
AcDbCircle
 10
1423.125891783254
 20
616.8313967379514
 30
0.0
 40
4.165450493891019
100
AcDbArc
 50
4.617476015800016
 51
40.82724154021001
  0
LINE
  5
A0E5
330
1F
100
AcDbEntity
  8
AM_VIS
100
AcDbLine
 10
1426.277822767282
 20
619.5546868233043
 30
0.0
 11
1423.71631827367
 21
622.1161913169155
 31
0.0
  0
LINE
  5
A0E6
330
1F
100
AcDbEntity
  8
AM_VIS
100
AcDbLine
 10
1413.341813146959
 20
624.7328322699295
 30
0.0
 11
1413.388180141296
 21
624.9206195298348
 31
0.0
  0
ARC
  5
A0E7
330
1F
100
AcDbEntity
  8
AM_VIS
100
AcDbCircle
 10
1413.249226546228
 20
623.7668919458903
 30
0.0
 40
0.970412568545267
100
AcDbArc
 50
6.942502721990861
 51
84.54288662379225
  0
SPLINE
  5
A0E8
330
1F
100
AcDbEntity
  8
AM_VIS
100
AcDbSpline
210
0.0
220
0.0
230
1.0
 70
     8
 71
     3
 72
    12
 73
     8
 74
     0
 42
0.0000000001
 43
0.0000000001
 40
0.0
 40
0.0
 40
0.0
 40
0.0
 40
0.2748199054943872
 40
0.2748199054943872
 40
0.3746710026632178
 40
0.3746710026632178
 40
0.4537963231468366
 40
0.4537963231468366
 40
0.4537963231468366
 40
0.4537963231468366
 10
1423.71631827367
 20
622.1161913169156
 30
0.0
 10
1423.652334817418
 20
622.1801747731679
 30
0.0
 10
1423.595447483507
 20
622.2316174021805
 30
0.0
 10
1423.52521143997
 20
622.276490098759
 30
0.0
 10
1423.504764851342
 20
622.2875515823901
 30
0.0
 10
1423.46719012575
 20
622.3008852323905
 30
0.0
 10
1423.449770320646
 20
622.3046868233043
 30
0.0
 10
1423.432144297308
 20
622.3046868233043
 30
0.0
  0
LINE
  5
A0E9
330
1F
100
AcDbEntity
  8
AM_VIS
100
AcDbLine
 10
1435.027822767281
 20
590.3046868233042
 30
0.0
 11
1435.027822767281
 21
598.8046868233042
 31
0.0
  0
LINE
  5
A0EA
330
1F
100
AcDbEntity
  8
AM_VIS
100
AcDbLine
 10
1434.877822767282
 20
616.0344827204176
 30
0.0
 11
1434.877822767282
 21
633.8248909261909
 31
0.0
  0
LINE
  5
A0EB
330
1F
100
AcDbEntity
  8
AM_VIS
100
AcDbLine
 10
1427.277822767282
 20
633.8046868233043
 30
0.0
 11
1427.277822767282
 21
612.3046868233043
 31
0.0
  0
LINE
  5
A0EC
330
1F
100
AcDbEntity
  8
AM_VIS
100
AcDbLine
 10
1439.677822767282
 20
637.3046868233045
 30
0.0
 11
1439.677822767281
 21
611.3046868233042
 31
0.0
  0
LINE
  5
A0ED
330
1F
100
AcDbEntity
  8
AM_VIS
100
AcDbLine
 10
1435.677822767282
 20
611.3046868233042
 30
0.0
 11
1439.677822767281
 21
611.3046868233042
 31
0.0
  0
LINE
  5
A0EE
330
1F
100
AcDbEntity
  8
AM_VIS
100
AcDbLine
 10
1435.677822767282
 20
603.3046868233042
 30
0.0
 11
1435.677822767282
 21
611.3046868233042
 31
0.0
  0
LINE
  5
A0EF
330
1F
100
AcDbEntity
  8
AM_VIS
100
AcDbLine
 10
1439.677822767281
 20
603.3046868233042
 30
0.0
 11
1435.677822767282
 21
603.3046868233042
 31
0.0
  0
LINE
  5
A0F0
330
1F
100
AcDbEntity
  8
AM_VIS
100
AcDbLine
 10
1439.677822767281
 20
603.3046868233042
 30
0.0
 11
1439.677822767281
 21
587.3046868233045
 31
0.0
  0
LINE
  5
A0F1
330
1F
100
AcDbEntity
  8
AM_VIS
100
AcDbLine
 10
1404.377822767281
 20
587.3046868233045
 30
0.0
 11
1439.677822767281
 21
587.3046868233045
 31
0.0
  0
LINE
  5
A0F2
330
1F
100
AcDbEntity
  8
AM_VIS
100
AcDbLine
 10
1404.377822767281
 20
587.3046868233045
 30
0.0
 11
1404.377822767282
 21
637.3046868233045
 31
0.0
  0
LINE
  5
A0F3
330
1F
100
AcDbEntity
  8
AM_VIS
100
AcDbLine
 10
1439.677822767282
 20
637.3046868233045
 30
0.0
 11
1404.377822767282
 21
637.3046868233045
 31
0.0
  0
LINE
  5
A0F4
330
1F
100
AcDbEntity
  8
AM_VIS
100
AcDbLine
 10
1430.027822767281
 20
615.0546868233043
 30
0.0
 11
1435.677822767282
 21
615.0546868233043
 31
0.0
  0
LINE
  5
A0F5
330
1F
100
AcDbEntity
  8
AM_VIS
100
AcDbLine
 10
1436.677822767282
 20
616.0546868233043
 30
0.0
 11
1436.677822767282
 21
633.8046868233042
 31
0.0
  0
LINE
  5
A0F6
330
1F
100
AcDbEntity
  8
AM_VIS
100
AcDbLine
 10
1435.677822767282
 20
634.8046868233041
 30
0.0
 11
1408.377822767282
 21
634.8046868233044
 31
0.0
  0
LINE
  5
A0F7
330
1F
100
AcDbEntity
  8
AM_VIS
100
AcDbLine
 10
1407.377822767282
 20
633.8046868233044
 30
0.0
 11
1407.377822767282
 21
627.8046868233044
 31
0.0
  0
LINE
  5
A0F8
330
1F
100
AcDbEntity
  8
AM_VIS
100
AcDbLine
 10
1408.377822767282
 20
626.8046868233044
 30
0.0
 11
1408.527822767282
 21
626.8046868233044
 31
0.0
  0
LINE
  5
A0F9
330
1F
100
AcDbEntity
  8
AM_VIS
100
AcDbLine
 10
1408.527822767282
 20
618.8046868233044
 30
0.0
 11
1408.377822767282
 21
618.8046868233044
 31
0.0
  0
LINE
  5
A0FA
330
1F
100
AcDbEntity
  8
AM_VIS
100
AcDbLine
 10
1407.377822767282
 20
617.8046868233044
 30
0.0
 11
1407.377822767282
 21
612.3046868233045
 31
0.0
  0
LINE
  5
A0FB
330
1F
100
AcDbEntity
  8
AM_VIS
100
AcDbLine
 10
1408.377822767282
 20
611.3046868233044
 30
0.0
 11
1409.977822767282
 21
611.3046868233044
 31
0.0
  0
LINE
  5
A0FC
330
1F
100
AcDbEntity
  8
AM_VIS
100
AcDbLine
 10
1410.977822767281
 20
605.4237336591439
 30
0.0
 11
1410.977822767281
 21
610.3046868233044
 31
0.0
  0
LINE
  5
A0FD
330
1F
100
AcDbEntity
  8
AM_VIS
100
AcDbLine
 10
1408.527822767281
 20
597.8046868233044
 30
0.0
 11
1408.377822767282
 21
597.8046868233044
 31
0.0
  0
LINE
  5
A0FE
330
1F
100
AcDbEntity
  8
AM_VIS
100
AcDbLine
 10
1407.377822767282
 20
596.8046868233044
 30
0.0
 11
1407.377822767281
 21
590.8046868233044
 31
0.0
  0
LINE
  5
A0FF
330
1F
100
AcDbEntity
  8
AM_VIS
100
AcDbLine
 10
1408.377822767281
 20
589.8046868233044
 30
0.0
 11
1435.677822767282
 21
589.8046868233042
 31
0.0
  0
LINE
  5
A100
330
1F
100
AcDbEntity
  8
AM_VIS
100
AcDbLine
 10
1436.677822767282
 20
590.8046868233042
 30
0.0
 11
1436.677822767282
 21
600.3046868233042
 31
0.0
  0
LINE
  5
A101
330
1F
100
AcDbEntity
  8
AM_VIS
100
AcDbLine
 10
1435.677822767282
 20
601.3046868233042
 30
0.0
 11
1433.177822767282
 21
601.3046868233042
 31
0.0
  0
LINE
  5
A102
330
1F
100
AcDbEntity
  8
AM_VIS
100
AcDbLine
 10
1430.728333024498
 20
603.3046868233043
 30
0.0
 11
1430.177822767281
 21
603.3046868233043
 31
0.0
  0
LINE
  5
A103
330
1F
100
AcDbEntity
  8
AM_VIS
100
AcDbLine
 10
1429.177822767282
 20
609.6893474571799
 30
0.0
 11
1429.177822767282
 21
604.3046868233043
 31
0.0
  0
SPLINE
  5
A104
330
1F
100
AcDbEntity
  8
AM_VIS
100
AcDbSpline
210
0.0
220
0.0
230
1.0
 70
     8
 71
     3
 72
    27
 73
    23
 74
     0
 42
0.0000000001
 43
0.0000000001
 40
-0.5651783189885731
 40
-0.5651783189885731
 40
-0.5651783189885731
 40
-0.5651783189885731
 40
-0.4365291324555045
 40
-0.4365291324555045
 40
0.0
 40
0.0
 40
0.0
 40
0.5487163911899838
 40
0.5487163911899838
 40
1.097432782379967
 40
1.097432782379967
 40
1.646149173569951
 40
1.646149173569951
 40
2.194865564759934
 40
2.194865564759934
 40
3.292298347139902
 40
3.292298347139902
 40
4.389731129519869
 40
4.389731129519869
 40
6.584596694279804
 40
6.584596694279804
 40
8.424541138260385
 40
8.424541138260385
 40
8.424541138260385
 40
8.424541138260385
 10
1423.527822767282
 20
602.3046868233043
 30
0.0
 10
1423.516638963941
 20
602.2697150809927
 30
0.0
 10
1423.506383803534
 20
602.234158226719
 30
0.0
 10
1423.466160658094
 20
602.074871930704
 30
0.0
 10
1423.447375349375
 20
601.9439059762957
 30
0.0
 10
1423.450833037951
 20
601.7996411212248
 30
0.0
 10
1423.455179346722
 20
601.6183004390924
 30
0.0
 10
1423.492922007728
 20
601.4591020359961
 30
0.0
 10
1423.596729754003
 20
601.1627093011754
 30
0.0
 10
1423.663282249175
 20
601.0256755819625
 30
0.0
 10
1423.811941171412
 20
600.7599788830468
 30
0.0
 10
1423.894065426727
 20
600.6320639733506
 30
0.0
 10
1424.068661244456
 20
600.3794865406482
 30
0.0
 10
1424.161238241888
 20
600.2548977099524
 30
0.0
 10
1424.452377095007
 20
599.8801247483559
 30
0.0
 10
1424.661635623629
 20
599.6320293497752
 30
0.0
 10
1425.098865916349
 20
599.1318992654696
 30
0.0
 10
1425.327070730314
 20
598.8800749868554
 30
0.0
 10
1426.032054528678
 20
598.116534860847
 30
0.0
 10
1426.522508208178
 20
597.6036459292396
 30
0.0
 10
1427.404792889454
 20
596.6907863281908
 30
0.0
 10
1427.80004341495
 20
596.2861581715246
 30
0.0
 10
1428.173273752628
 20
595.9057890415957
 30
0.0
  0
LINE
  5
A105
330
1F
100
AcDbEntity
  8
AM_VIS
100
AcDbLine
 10
1423.527822767282
 20
602.3046868233043
 30
0.0
 11
1428.177822767281
 21
606.9546868233043
 31
0.0
  0
ARC
  5
A106
330
1F
100
AcDbEntity
  8
AM_VIS
100
AcDbCircle
 10
1425.571945377632
 20
609.4893747142838
 30
0.0
 40
3.635277111110701
100
AcDbArc
 50
315.7934141237281
 51
352.708219234623
  0
LINE
  5
A107
330
1F
100
AcDbEntity
  8
AM_VIS
100
AcDbLine
 10
1429.027822767281
 20
590.3046868233043
 30
0.0
 11
1429.027822767281
 21
598.8046868233043
 31
0.0
  0
ARC
  5
A108
330
1F
100
AcDbEntity
  8
AM_VIS
100
AcDbCircle
 10
1428.52479798059
 20
596.2545203764086
 30
0.0
 40
0.4951593952701702
100
AcDbArc
 50
224.771483226887
 51
270.3500056565435
  0
SPLINE
  5
A109
330
1F
100
AcDbEntity
  8
AM_VIS
100
AcDbSpline
210
0.0
220
0.0
230
1.0
 70
     8
 71
     3
 72
    18
 73
    14
 74
     0
 42
0.0000000001
 43
0.0000000001
 40
-0.8275124663520639
 40
-0.8275124663520639
 40
-0.8275124663520639
 40
-0.8275124663520639
 40
-0.8262187309491054
 40
-0.8262187309491054
 40
-0.6973982939651977
 40
-0.6973982939651977
 40
-0.5694999623742957
 40
-0.5694999623742957
 40
-0.3634974095537754
 40
-0.3634974095537754
 40
-0.1772059343456631
 40
-0.1772059343456631
 40
0.0
 40
0.0
 40
0.0
 40
0.0
 10
1429.027822767281
 20
595.6204067873618
 30
0.0
 10
1429.027822767281
 20
595.6205126234189
 30
0.0
 10
1429.02782230431
 20
595.6206184662362
 30
0.0
 10
1429.02772918209
 20
595.6312639967675
 30
0.0
 10
1429.023047099326
 20
595.6418582514291
 30
0.0
 10
1429.004671577137
 20
595.6626357101403
 30
0.0
 10
1428.991063368665
 20
595.6727976420959
 30
0.0
 10
1428.944224501985
 20
595.6982103763569
 30
0.0
 10
1428.904305680469
 20
595.7126599527177
 30
0.0
 10
1428.809635640842
 20
595.7357414908126
 30
0.0
 10
1428.757389384901
 20
595.7446112549426
 30
0.0
 10
1428.645082223867
 20
595.7563653762115
 30
0.0
 10
1428.586891412063
 20
595.7593702200017
 30
0.0
 10
1428.527822767281
 20
595.7593702200017
 30
0.0
  0
ARC
  5
A10A
330
1F
100
AcDbEntity
  8
AM_VIS
100
AcDbCircle
 10
1412.860921129322
 20
591.7539638862668
 30
0.0
 40
1.95116911227014
100
AcDbArc
 50
272.523431383634
 51
326.3984925673117
  0
LINE
  5
A10B
330
1F
100
AcDbEntity
  8
AM_VIS
100
AcDbLine
 10
1427.704546275443
 20
610.8333122436687
 30
0.0
 11
1427.712033766143
 21
610.8046840829214
 31
0.0
  0
ARC
  5
A10C
330
1F
100
AcDbEntity
  8
AM_VIS
100
AcDbCircle
 10
1430.027822767281
 20
598.8046868233043
 30
0.0
 40
1.0
100
AcDbArc
 50
90.0
 51
180.0
  0
LINE
  5
A10D
330
1F
100
AcDbEntity
  8
AM_VIS
100
AcDbLine
 10
1430.027822767281
 20
599.8046868233043
 30
0.0
 11
1434.027822767281
 21
599.8046868233042
 31
0.0
  0
ARC
  5
A10E
330
1F
100
AcDbEntity
  8
AM_VIS
100
AcDbCircle
 10
1434.027822767281
 20
598.8046868233042
 30
0.0
 40
1.0
100
AcDbArc
 50
0.0
 51
90.0
  0
ARC
  5
A10F
330
1F
100
AcDbEntity
  8
AM_VIS
100
AcDbCircle
 10
1413.027822767282
 20
633.8046868233044
 30
0.0
 40
1.0
100
AcDbArc
 50
90.0
 51
180.0
  0
ARC
  5
A110
330
1F
100
AcDbEntity
  8
AM_VIS
100
AcDbCircle
 10
1413.027822767282
 20
624.9841362950747
 30
0.0
 40
0.9999999999999996
100
AcDbArc
 50
180.0
 51
205.8419327631661
  0
LINE
  5
A111
330
1F
100
AcDbEntity
  8
AM_VIS
100
AcDbLine
 10
1423.527822767282
 20
602.3046868233043
 30
0.0
 11
1414.424369604409
 21
602.3046868233044
 31
0.0
  0
LINE
  5
A112
330
1F
100
AcDbEntity
  8
AM_VIS
100
AcDbLine
 10
1423.432144297307
 20
622.3046868233043
 30
0.0
 11
1414.424369604409
 21
622.3046868233044
 31
0.0
  0
ARC
  5
A113
330
1F
100
AcDbEntity
  8
AM_VIS
100
AcDbCircle
 10
1435.527822767281
 20
590.3046868233042
 30
0.0
 40
0.5
100
AcDbArc
 50
180.0
 51
270.0
  0
ARC
  5
A114
330
1F
100
AcDbEntity
  8
AM_VIS
100
AcDbCircle
 10
1435.877822767281
 20
616.0344827204176
 30
0.0
 40
1.0
100
AcDbArc
 50
180.0
 51
258.4630409671819
  0
ARC
  5
A115
330
1F
100
AcDbEntity
  8
AM_VIS
100
AcDbCircle
 10
1435.877822767282
 20
633.8248909261909
 30
0.0
 40
0.9999999999999998
100
AcDbArc
 50
101.5369590328181
 51
180.0
  0
ARC
  5
A116
330
1F
100
AcDbEntity
  8
AM_VIS
100
AcDbCircle
 10
1426.277822767282
 20
633.8046868233043
 30
0.0
 40
1.0
100
AcDbArc
 50
0.0
 51
90.0
  0
LINE
  5
A117
330
1F
100
AcDbEntity
  8
AM_VIS
100
AcDbLine
 10
1439.677822767281
 20
611.3046868233042
 30
0.0
 11
1439.677822767281
 21
603.3046868233042
 31
0.0
  0
LINE
  5
A118
330
1F
100
AcDbEntity
  8
AM_VIS
100
AcDbLine
 10
1427.712044243901
 20
610.8046868233043
 30
0.0
 11
1427.72293665268
 21
610.8046868233043
 31
0.0
  0
ARC
  5
A119
330
1F
100
AcDbEntity
  8
AM_VIS
100
AcDbCircle
 10
1430.027822767281
 20
612.3046868233043
 30
0.0
 40
2.75
100
AcDbArc
 50
90.0
 51
251.9955469999207
  0
ARC
  5
A11A
330
1F
100
AcDbEntity
  8
AM_VIS
100
AcDbCircle
 10
1435.677822767282
 20
616.0546868233043
 30
0.0
 40
1.0
100
AcDbArc
 50
270.0
 51
0.0
  0
ARC
  5
A11B
330
1F
100
AcDbEntity
  8
AM_VIS
100
AcDbCircle
 10
1435.677822767282
 20
633.8046868233042
 30
0.0
 40
0.9999999999999998
100
AcDbArc
 50
0.0
 51
90.0
  0
ARC
  5
A11C
330
1F
100
AcDbEntity
  8
AM_VIS
100
AcDbCircle
 10
1408.377822767282
 20
633.8046868233044
 30
0.0
 40
0.9999999999999998
100
AcDbArc
 50
90.0
 51
180.0
  0
ARC
  5
A11D
330
1F
100
AcDbEntity
  8
AM_VIS
100
AcDbCircle
 10
1408.377822767282
 20
627.8046868233044
 30
0.0
 40
0.9999999999999998
100
AcDbArc
 50
180.0
 51
270.0
  0
ARC
  5
A11E
330
1F
100
AcDbEntity
  8
AM_VIS
100
AcDbCircle
 10
1408.527822767282
 20
622.8046868233044
 30
0.0
 40
4.0
100
AcDbArc
 50
270.0
 51
90.0
  0
ARC
  5
A11F
330
1F
100
AcDbEntity
  8
AM_VIS
100
AcDbCircle
 10
1408.377822767282
 20
617.8046868233044
 30
0.0
 40
1.0
100
AcDbArc
 50
90.0
 51
180.0
  0
ARC
  5
A120
330
1F
100
AcDbEntity
  8
AM_VIS
100
AcDbCircle
 10
1408.377822767282
 20
612.3046868233045
 30
0.0
 40
0.9999999999999998
100
AcDbArc
 50
180.0
 51
270.0
  0
ARC
  5
A121
330
1F
100
AcDbEntity
  8
AM_VIS
100
AcDbCircle
 10
1409.977822767281
 20
610.3046868233044
 30
0.0
 40
0.9999999999999998
100
AcDbArc
 50
0.0
 51
90.0
  0
ARC
  5
A122
330
1F
100
AcDbEntity
  8
AM_VIS
100
AcDbCircle
 10
1411.977822767281
 20
605.4237336591439
 30
0.0
 40
0.9999999999999998
100
AcDbArc
 50
180.0
 51
226.3698911321417
  0
ARC
  5
A123
330
1F
100
AcDbEntity
  8
AM_VIS
100
AcDbCircle
 10
1408.527822767281
 20
601.8046868233044
 30
0.0
 40
4.0
100
AcDbArc
 50
270.0
 51
46.36989113214172
  0
ARC
  5
A124
330
1F
100
AcDbEntity
  8
AM_VIS
100
AcDbCircle
 10
1408.377822767282
 20
596.8046868233044
 30
0.0
 40
0.9999999999999998
100
AcDbArc
 50
90.0
 51
180.0
  0
ARC
  5
A125
330
1F
100
AcDbEntity
  8
AM_VIS
100
AcDbCircle
 10
1408.377822767281
 20
590.8046868233044
 30
0.0
 40
0.9999999999999998
100
AcDbArc
 50
180.0
 51
270.0
  0
ARC
  5
A126
330
1F
100
AcDbEntity
  8
AM_VIS
100
AcDbCircle
 10
1435.677822767282
 20
590.8046868233042
 30
0.0
 40
0.9999999999999998
100
AcDbArc
 50
270.0
 51
0.0
  0
ARC
  5
A127
330
1F
100
AcDbEntity
  8
AM_VIS
100
AcDbCircle
 10
1435.677822767282
 20
600.3046868233042
 30
0.0
 40
1.0
100
AcDbArc
 50
0.0
 51
90.0
  0
CIRCLE
  5
A128
330
1F
100
AcDbEntity
  8
AM_VIS
100
AcDbCircle
 10
1408.527822767282
 20
622.8046868233044
 30
0.0
 40
2.25
  0
CIRCLE
  5
A129
330
1F
100
AcDbEntity
  8
AM_VIS
100
AcDbCircle
 10
1408.527822767281
 20
601.8046868233044
 30
0.0
 40
2.25
  0
ARC
  5
A12A
330
1F
100
AcDbEntity
  8
AM_VIS
100
AcDbCircle
 10
1430.177822767281
 20
604.3046868233043
 30
0.0
 40
0.9999999999999998
100
AcDbArc
 50
180.0
 51
270.0
  0
ARC
  5
A12B
330
1F
100
AcDbEntity
  8
AM_VIS
100
AcDbCircle
 10
1433.177822767282
 20
602.8046868233042
 30
0.0
 40
1.5
100
AcDbArc
 50
191.5369590328181
 51
270.0
  0
ARC
  5
A12C
330
1F
100
AcDbEntity
  8
AM_VIS
100
AcDbCircle
 10
1430.728333024498
 20
602.3046868233043
 30
0.0
 40
0.9999999999999998
100
AcDbArc
 50
11.53695903281813
 51
90.0
  0
ARC
  5
A12D
330
1F
100
AcDbEntity
  8
AM_VIS
100
AcDbCircle
 10
1428.527822767281
 20
590.3046868233043
 30
0.0
 40
0.5
100
AcDbArc
 50
270.0
 51
0.0
  0
LINE
  5
A12E
330
1F
100
AcDbEntity
  8
AM_VIS
100
AcDbLine
 10
1333.454042088312
 20
673.7898793870344
 30
0.0
 11
1333.954042088312
 21
673.2898793870345
 31
0.0
  0
LINE
  5
A12F
330
1F
100
AcDbEntity
  8
AM_VIS
100
AcDbLine
 10
1333.454042088312
 20
678.7898793870344
 30
0.0
 11
1333.954042088312
 21
679.2898793870344
 31
0.0
  0
LINE
  5
A130
330
1F
100
AcDbEntity
  8
AM_VIS
100
AcDbLine
 10
1342.254042088312
 20
678.7898793870344
 30
0.0
 11
1341.754042088312
 21
679.2898793870344
 31
0.0
  0
LINE
  5
A131
330
1F
100
AcDbEntity
  8
AM_VIS
100
AcDbLine
 10
1342.254042088312
 20
673.7898793870344
 30
0.0
 11
1341.754042088312
 21
673.2898793870345
 31
0.0
  0
LINE
  5
A132
330
1F
100
AcDbEntity
  8
AM_VIS
100
AcDbLine
 10
1341.254042088312
 20
684.7898793870345
 30
0.0
 11
1334.454042088312
 21
684.7898793870345
 31
0.0
  0
LINE
  5
A133
330
1F
100
AcDbEntity
  8
AM_VIS
100
AcDbLine
 10
1341.254042088312
 20
667.7898793870345
 30
0.0
 11
1334.454042088312
 21
667.7898793870345
 31
0.0
  0
LINE
  5
A134
330
1F
100
AcDbEntity
  8
AM_VIS
100
AcDbLine
 10
1333.954042088312
 20
668.2898793870345
 30
0.0
 11
1333.954042088312
 21
684.2898793870345
 31
0.0
  0
LINE
  5
A135
330
1F
100
AcDbEntity
  8
AM_VIS
100
AcDbLine
 10
1341.754042088312
 20
684.2898793870345
 30
0.0
 11
1341.754042088312
 21
668.2898793870345
 31
0.0
  0
LINE
  5
A136
330
1F
100
AcDbEntity
  8
AM_VIS
100
AcDbLine
 10
1333.454042088312
 20
673.7898793870344
 30
0.0
 11
1333.454042088312
 21
678.7898793870344
 31
0.0
  0
LINE
  5
A137
330
1F
100
AcDbEntity
  8
AM_VIS
100
AcDbLine
 10
1342.254042088312
 20
678.7898793870344
 30
0.0
 11
1342.254042088312
 21
673.7898793870344
 31
0.0
  0
ARC
  5
A138
330
1F
100
AcDbEntity
  8
AM_VIS
100
AcDbCircle
 10
1334.454042088312
 20
668.2898793870345
 30
0.0
 40
0.5
100
AcDbArc
 50
180.0
 51
270.0
  0
ARC
  5
A139
102
{ACAD_REACTORS
330
AED6
102
}
330
1F
100
AcDbEntity
  8
AM_VIS
100
AcDbCircle
 10
1334.454042088312
 20
684.2898793870345
 30
0.0
 40
0.5
100
AcDbArc
 50
90.0
 51
180.0
  0
ARC
  5
A13A
330
1F
100
AcDbEntity
  8
AM_VIS
100
AcDbCircle
 10
1341.254042088312
 20
668.2898793870345
 30
0.0
 40
0.5
100
AcDbArc
 50
270.0
 51
0.0
  0
ARC
  5
A13B
102
{ACAD_REACTORS
330
AED6
102
}
330
1F
100
AcDbEntity
  8
AM_VIS
100
AcDbCircle
 10
1341.254042088312
 20
684.2898793870345
 30
0.0
 40
0.5
100
AcDbArc
 50
0.0
 51
90.0
  0
LINE
  5
A13C
330
1F
100
AcDbEntity
  8
AM_VIS
100
AcDbLine
 10
1328.704042088311
 20
656.5046868233042
 30
0.0
 11
1328.904042088312
 21
656.3046868233043
 31
0.0
  0
LINE
  5
A13D
330
1F
100
AcDbEntity
  8
AM_VIS
100
AcDbLine
 10
1328.704042088311
 20
662.1046868233043
 30
0.0
 11
1328.904042088312
 21
662.3046868233043
 31
0.0
  0
LINE
  5
A13E
330
1F
100
AcDbEntity
  8
AM_VIS
100
AcDbLine
 10
1328.904042088312
 20
656.3046868233043
 30
0.0
 11
1329.504042088311
 21
656.3046868233043
 31
0.0
  0
LINE
  5
A13F
330
1F
100
AcDbEntity
  8
AM_VIS
100
AcDbLine
 10
1328.904042088312
 20
662.3046868233043
 30
0.0
 11
1329.504042088311
 21
662.3046868233043
 31
0.0
  0
LINE
  5
A140
330
1F
100
AcDbEntity
  8
AM_VIS
100
AcDbLine
 10
1329.704042088311
 20
662.1046868233043
 30
0.0
 11
1329.504042088311
 21
662.3046868233043
 31
0.0
  0
LINE
  5
A141
330
1F
100
AcDbEntity
  8
AM_VIS
100
AcDbLine
 10
1329.704042088311
 20
656.5046868233044
 30
0.0
 11
1329.504042088311
 21
656.3046868233043
 31
0.0
  0
LINE
  5
A142
330
1F
100
AcDbEntity
  8
AM_VIS
100
AcDbLine
 10
1331.104042088312
 20
657.8546868233043
 30
0.0
 11
1331.304042088311
 21
657.8546868233043
 31
0.0
  0
LINE
  5
A143
330
1F
100
AcDbEntity
  8
AM_VIS
100
AcDbLine
 10
1332.704042088311
 20
657.8546868233043
 30
0.0
 11
1333.754042088312
 21
657.8546868233043
 31
0.0
  0
LINE
  5
A144
330
1F
100
AcDbEntity
  8
AM_VIS
100
AcDbLine
 10
1341.754042088312
 20
657.8546868233043
 30
0.0
 11
1342.804042088312
 21
657.8546868233043
 31
0.0
  0
LINE
  5
A145
330
1F
100
AcDbEntity
  8
AM_VIS
100
AcDbLine
 10
1344.204042088311
 20
657.8546868233043
 30
0.0
 11
1344.404042088311
 21
657.8546868233043
 31
0.0
  0
LINE
  5
A146
330
1F
100
AcDbEntity
  8
AM_VIS
100
AcDbLine
 10
1345.804042088311
 20
657.8546868233043
 30
0.0
 11
1347.204042088312
 21
657.8546868233043
 31
0.0
  0
LINE
  5
A147
330
1F
100
AcDbEntity
  8
AM_VIS
100
AcDbLine
 10
1331.104042088312
 20
660.7546868233043
 30
0.0
 11
1331.304042088311
 21
660.7546868233043
 31
0.0
  0
LINE
  5
A148
330
1F
100
AcDbEntity
  8
AM_VIS
100
AcDbLine
 10
1332.704042088311
 20
660.7546868233043
 30
0.0
 11
1333.254042088312
 21
660.7546868233043
 31
0.0
  0
LINE
  5
A149
330
1F
100
AcDbEntity
  8
AM_VIS
100
AcDbLine
 10
1342.254042088312
 20
660.7546868233043
 30
0.0
 11
1342.804042088312
 21
660.7546868233043
 31
0.0
  0
LINE
  5
A14A
330
1F
100
AcDbEntity
  8
AM_VIS
100
AcDbLine
 10
1344.204042088311
 20
660.7546868233043
 30
0.0
 11
1344.404042088311
 21
660.7546868233043
 31
0.0
  0
LINE
  5
A14B
330
1F
100
AcDbEntity
  8
AM_VIS
100
AcDbLine
 10
1345.804042088311
 20
660.7546868233043
 30
0.0
 11
1347.204042088312
 21
660.7546868233043
 31
0.0
  0
LINE
  5
A14C
330
1F
100
AcDbEntity
  8
AM_VIS
100
AcDbLine
 10
1328.704042088311
 20
656.5046868233044
 30
0.0
 11
1328.704042088311
 21
662.1046868233043
 31
0.0
  0
LINE
  5
A14D
330
1F
100
AcDbEntity
  8
AM_VIS
100
AcDbLine
 10
1328.904042088312
 20
662.3046868233043
 30
0.0
 11
1328.904042088312
 21
656.3046868233043
 31
0.0
  0
LINE
  5
A14E
330
1F
100
AcDbEntity
  8
AM_VIS
100
AcDbLine
 10
1329.504042088311
 20
656.3046868233043
 30
0.0
 11
1329.504042088311
 21
662.3046868233043
 31
0.0
  0
LINE
  5
A14F
330
1F
100
AcDbEntity
  8
AM_VIS
100
AcDbLine
 10
1347.204042088312
 20
660.7546868233043
 30
0.0
 11
1347.204042088312
 21
657.8546868233043
 31
0.0
  0
LINE
  5
A150
330
1F
100
AcDbEntity
  8
AM_VIS
100
AcDbLine
 10
1330.304042088312
 20
673.489879387035
 30
0.0
 11
1330.504042088312
 21
673.2898793870349
 31
0.0
  0
LINE
  5
A151
330
1F
100
AcDbEntity
  8
AM_VIS
100
AcDbLine
 10
1330.304042088312
 20
679.0898793870349
 30
0.0
 11
1330.504042088312
 21
679.289879387035
 31
0.0
  0
LINE
  5
A152
330
1F
100
AcDbEntity
  8
AM_VIS
100
AcDbLine
 10
1330.504042088312
 20
673.2898793870349
 30
0.0
 11
1331.104042088312
 21
673.2898793870349
 31
0.0
  0
LINE
  5
A153
330
1F
100
AcDbEntity
  8
AM_VIS
100
AcDbLine
 10
1330.504042088312
 20
679.289879387035
 30
0.0
 11
1331.104042088312
 21
679.289879387035
 31
0.0
  0
LINE
  5
A154
330
1F
100
AcDbEntity
  8
AM_VIS
100
AcDbLine
 10
1331.304042088311
 20
679.089879387035
 30
0.0
 11
1331.104042088312
 21
679.289879387035
 31
0.0
  0
LINE
  5
A155
330
1F
100
AcDbEntity
  8
AM_VIS
100
AcDbLine
 10
1331.304042088311
 20
673.489879387035
 30
0.0
 11
1331.104042088312
 21
673.2898793870349
 31
0.0
  0
LINE
  5
A156
330
1F
100
AcDbEntity
  8
AM_VIS
100
AcDbLine
 10
1332.704042088311
 20
674.8398793870348
 30
0.0
 11
1333.454042088312
 21
674.8398793870348
 31
0.0
  0
LINE
  5
A157
330
1F
100
AcDbEntity
  8
AM_VIS
100
AcDbLine
 10
1342.254042088312
 20
674.839879387035
 30
0.0
 11
1342.804042088312
 21
674.839879387035
 31
0.0
  0
LINE
  5
A158
330
1F
100
AcDbEntity
  8
AM_VIS
100
AcDbLine
 10
1344.204042088311
 20
674.839879387035
 30
0.0
 11
1344.804042088312
 21
674.839879387035
 31
0.0
  0
LINE
  5
A159
330
1F
100
AcDbEntity
  8
AM_VIS
100
AcDbLine
 10
1332.704042088312
 20
677.7398793870349
 30
0.0
 11
1333.454042088312
 21
677.7398793870349
 31
0.0
  0
LINE
  5
A15A
330
1F
100
AcDbEntity
  8
AM_VIS
100
AcDbLine
 10
1342.254042088312
 20
677.7398793870349
 30
0.0
 11
1342.804042088312
 21
677.7398793870349
 31
0.0
  0
LINE
  5
A15B
330
1F
100
AcDbEntity
  8
AM_VIS
100
AcDbLine
 10
1344.204042088312
 20
677.7398793870349
 30
0.0
 11
1344.804042088312
 21
677.7398793870349
 31
0.0
  0
LINE
  5
A15C
330
1F
100
AcDbEntity
  8
AM_VIS
100
AcDbLine
 10
1330.304042088312
 20
673.489879387035
 30
0.0
 11
1330.304042088312
 21
679.089879387035
 31
0.0
  0
LINE
  5
A15D
330
1F
100
AcDbEntity
  8
AM_VIS
100
AcDbLine
 10
1330.504042088312
 20
679.289879387035
 30
0.0
 11
1330.504042088312
 21
673.2898793870349
 31
0.0
  0
LINE
  5
A15E
330
1F
100
AcDbEntity
  8
AM_VIS
100
AcDbLine
 10
1331.104042088312
 20
673.2898793870349
 30
0.0
 11
1331.104042088312
 21
679.289879387035
 31
0.0
  0
LINE
  5
A15F
330
1F
100
AcDbEntity
  8
AM_VIS
100
AcDbLine
 10
1344.804042088312
 20
677.7398793870349
 30
0.0
 11
1344.804042088312
 21
674.839879387035
 31
0.0
  0
LINE
  5
A160
330
1F
100
AcDbEntity
  8
AM_VIS
100
AcDbLine
 10
1338.063266377079
 20
657.786242448348
 30
0.0
 11
1338.063266377079
 21
657.7949309622685
 31
0.0
  0
LINE
  5
A161
330
1F
100
AcDbEntity
  8
AM_VIS
100
AcDbLine
 10
1337.444817799545
 20
657.5768373650303
 30
0.0
 11
1337.444817799545
 21
657.7949309622685
 31
0.0
  0
LINE
  5
A162
330
1F
100
AcDbEntity
  8
AM_VIS
100
AcDbLine
 10
1337.575456424732
 20
657.7949309622685
 30
0.0
 11
1337.575456424732
 21
657.5734763408962
 31
0.0
  0
LINE
  5
A163
330
1F
100
AcDbEntity
  8
AM_VIS
100
AcDbLine
 10
1335.040495533611
 20
656.3958659148336
 30
0.0
 11
1334.954042088311
 21
655.4076985133045
 31
0.0
  0
LINE
  5
A164
330
1F
100
AcDbEntity
  8
AM_VIS
100
AcDbLine
 10
1340.467588643012
 20
656.3958659148336
 30
0.0
 11
1340.554042088311
 21
655.4076985133045
 31
0.0
  0
ELLIPSE
  5
A165
330
1F
100
AcDbEntity
  8
AM_VIS
100
AcDbEllipse
 10
1337.510137112138
 20
652.8076985133045
 30
0.0
 11
0.0000000000000008
 21
4.993620304949141
 31
0.0
210
0.0
220
0.0
230
1.0
 40
0.2586903469053612
 41
6.093235129718854
 42
6.232599218133652
  0
ELLIPSE
  5
A166
330
1F
100
AcDbEntity
  8
AM_VIS
100
AcDbEllipse
 10
1337.510137112138
 20
652.8076985133045
 30
0.0
 11
0.0000000000000008
 21
4.993620304949141
 31
0.0
210
0.0
220
0.0
230
1.0
 40
0.2586903469053612
 41
0.0505860890451355
 42
0.3042046292062623
  0
ELLIPSE
  5
A167
330
1F
100
AcDbEntity
  8
AM_VIS
100
AcDbEllipse
 10
1338.115924150815
 20
653.914960305696
 30
0.0
 11
-4.439769485413724
 21
1.451032582774249
 31
-0.0000000000000002
210
0.0
220
0.0
230
1.0
 40
0.7574101331135392
 41
5.065671537577294
 42
5.173841114053303
  0
ELLIPSE
  5
A168
330
1F
100
AcDbEntity
  8
AM_VIS
100
AcDbEllipse
 10
1337.997947064485
 20
652.8076985133045
 30
0.0
 11
0.0000000000000008
 21
4.993620304949141
 31
0.0
210
0.0
220
0.0
230
1.0
 40
0.2586903469053612
 41
0.0505860890451355
 42
0.304204629206263
  0
ELLIPSE
  5
A169
330
1F
100
AcDbEntity
  8
AM_VIS
100
AcDbEllipse
 10
1337.819361400906
 20
652.8076985133045
 30
0.0
 11
-0.0000000000000002
 21
4.993620304949041
 31
0.0
210
0.0
220
0.0
230
1.0
 40
0.9659603016780678
 41
5.978980677973471
 42
6.232599218134053
  0
ELLIPSE
  5
A16A
330
1F
100
AcDbEntity
  8
AM_VIS
100
AcDbEllipse
 10
1337.688722775718
 20
652.8076985133045
 30
0.0
 11
-0.0000000000000002
 21
4.99362030494924
 31
0.0
210
0.0
220
0.0
230
1.0
 40
0.9659603016780678
 41
5.978980677973455
 42
6.232599218134056
  0
ELLIPSE
  5
A16B
330
1F
100
AcDbEntity
  8
AM_VIS
100
AcDbEllipse
 10
1337.688722775718
 20
652.8076985133045
 30
0.0
 11
-0.0000000000000002
 21
4.99362030494924
 31
0.0
210
0.0
220
0.0
230
1.0
 40
0.9659603016780678
 41
0.0505860890455352
 42
0.1899501774592316
  0
ELLIPSE
  5
A16C
330
1F
100
AcDbEntity
  8
AM_VIS
100
AcDbEllipse
 10
1336.402759713652
 20
653.9149603056962
 30
0.0
 11
2.960442065633109
 21
3.612870246204781
 31
-0.0000000000000001
210
0.0
220
0.0
230
1.0
 40
0.2028392779127767
 41
0.1106191999431698
 42
0.2187887764191823
  0
ELLIPSE
  5
A16D
330
1F
100
AcDbEntity
  8
AM_VIS
100
AcDbEllipse
 10
1337.819361400906
 20
652.8076985133045
 30
0.0
 11
-0.0000000000000002
 21
4.993620304949041
 31
0.0
210
0.0
220
0.0
230
1.0
 40
0.9659603016780678
 41
0.050586089045537
 42
0.0777257565224658
  0
ARC
  5
A16E
330
1F
100
AcDbEntity
  8
AM_VIS
100
AcDbCircle
 10
1336.235929171321
 20
656.2912790235364
 30
0.0
 40
1.199999999999999
100
AcDbArc
 50
113.5471372370786
 51
175.0000000000005
  0
ARC
  5
A16F
330
1F
100
AcDbEntity
  8
AM_VIS
100
AcDbCircle
 10
1339.272155005302
 20
656.2912790235364
 30
0.0
 40
1.199999999999999
100
AcDbArc
 50
4.999999999999459
 51
66.45286276292137
  0
ARC
  5
A170
330
1F
100
AcDbEntity
  8
AM_VIS
100
AcDbCircle
 10
1337.754042088312
 20
652.8076985133045
 30
0.0
 40
5.000000000000034
100
AcDbArc
 50
66.45286276292137
 51
78.74276974732864
  0
ARC
  5
A171
330
1F
100
AcDbEntity
  8
AM_VIS
100
AcDbCircle
 10
1337.754042088312
 20
652.8076985133045
 30
0.0
 40
5.000000000000036
100
AcDbArc
 50
101.2572302524976
 51
113.5471372370786
  0
LINE
  5
A172
330
1F
100
AcDbEntity
  8
AM_VIS
100
AcDbLine
 10
1340.704042088311
 20
654.7076985133045
 30
0.0
 11
1340.704042088311
 21
655.4076985133044
 31
0.0
  0
LINE
  5
A173
330
1F
100
AcDbEntity
  8
AM_VIS
100
AcDbLine
 10
1334.804042088312
 20
654.7076985133045
 30
0.0
 11
1334.804042088312
 21
655.4076985133044
 31
0.0
  0
LINE
  5
A174
330
1F
100
AcDbEntity
  8
AM_VIS
100
AcDbLine
 10
1340.704042088311
 20
655.4076985133044
 30
0.0
 11
1334.804042088312
 21
655.4076985133044
 31
0.0
  0
LINE
  5
A175
330
1F
100
AcDbEntity
  8
AM_VIS
100
AcDbLine
 10
1344.204042088311
 20
658.8689017541812
 30
0.0
 11
1344.204042088312
 21
672.2898793870345
 31
0.0
  0
LINE
  5
A176
330
1F
100
AcDbEntity
  8
AM_VIS
100
AcDbLine
 10
1344.204042088311
 20
658.8689017541812
 30
0.0
 11
1342.804042088312
 21
658.8689017541812
 31
0.0
  0
LINE
  5
A177
330
1F
100
AcDbEntity
  8
AM_VIS
100
AcDbLine
 10
1331.304042088311
 20
672.2898793870345
 30
0.0
 11
1331.304042088311
 21
658.8689017541812
 31
0.0
  0
LINE
  5
A178
330
1F
100
AcDbEntity
  8
AM_VIS
100
AcDbLine
 10
1332.704042088311
 20
658.8689017541812
 30
0.0
 11
1331.304042088311
 21
658.8689017541812
 31
0.0
  0
LINE
  5
A179
330
1F
100
AcDbEntity
  8
AM_VIS
100
AcDbLine
 10
1342.804042088312
 20
672.2898793870345
 30
0.0
 11
1342.804042088312
 21
658.8689017541812
 31
0.0
  0
LINE
  5
A17A
330
1F
100
AcDbEntity
  8
AM_VIS
100
AcDbLine
 10
1332.704042088311
 20
658.8689017541812
 30
0.0
 11
1332.704042088312
 21
672.2898793870345
 31
0.0
  0
LINE
  5
A17B
330
1F
100
AcDbEntity
  8
AM_VIS
100
AcDbLine
 10
1342.804042088312
 20
673.4493655151356
 30
0.0
 11
1341.913528216413
 21
673.4493655151356
 31
0.0
  0
LINE
  5
A17C
330
1F
100
AcDbEntity
  8
AM_VIS
100
AcDbLine
 10
1333.79455596021
 20
673.4493655151356
 30
0.0
 11
1332.704042088311
 21
673.4493655151356
 31
0.0
  0
LINE
  5
A17D
330
1F
100
AcDbEntity
  8
AM_VIS
100
AcDbLine
 10
1342.804042088312
 20
674.7488121718999
 30
0.0
 11
1342.254042088312
 21
674.7488121718999
 31
0.0
  0
LINE
  5
A17E
330
1F
100
AcDbEntity
  8
AM_VIS
100
AcDbLine
 10
1333.454042088312
 20
674.7488121718999
 30
0.0
 11
1332.704042088311
 21
674.7488121719001
 31
0.0
  0
LINE
  5
A17F
330
1F
100
AcDbEntity
  8
AM_VIS
100
AcDbLine
 10
1344.204042088311
 20
655.8259572966655
 30
0.0
 11
1342.804042088312
 21
655.8259572966655
 31
0.0
  0
LINE
  5
A180
330
1F
100
AcDbEntity
  8
AM_VIS
100
AcDbLine
 10
1332.704042088312
 20
680.2898793870345
 30
0.0
 11
1331.304042088311
 21
680.2898793870345
 31
0.0
  0
LINE
  5
A181
330
1F
100
AcDbEntity
  8
AM_VIS
100
AcDbLine
 10
1332.704042088312
 20
672.2898793870345
 30
0.0
 11
1331.304042088311
 21
672.2898793870345
 31
0.0
  0
LINE
  5
A182
330
1F
100
AcDbEntity
  8
AM_VIS
100
AcDbLine
 10
1332.704042088311
 20
655.8259572966655
 30
0.0
 11
1331.304042088311
 21
655.8259572966655
 31
0.0
  0
LINE
  5
A183
330
1F
100
AcDbEntity
  8
AM_VIS
100
AcDbLine
 10
1344.204042088312
 20
680.2898793870345
 30
0.0
 11
1342.804042088312
 21
680.2898793870345
 31
0.0
  0
LINE
  5
A184
330
1F
100
AcDbEntity
  8
AM_VIS
100
AcDbLine
 10
1344.204042088312
 20
672.2898793870345
 30
0.0
 11
1342.804042088312
 21
672.2898793870345
 31
0.0
  0
LINE
  5
A185
330
1F
100
AcDbEntity
  8
AM_VIS
100
AcDbLine
 10
1344.204042088311
 20
658.8689017541812
 30
0.0
 11
1344.204042088311
 21
655.8259572966655
 31
0.0
  0
LINE
  5
A186
330
1F
100
AcDbEntity
  8
AM_VIS
100
AcDbLine
 10
1331.304042088311
 20
672.2898793870345
 30
0.0
 11
1331.304042088311
 21
680.2898793870345
 31
0.0
  0
LINE
  5
A187
330
1F
100
AcDbEntity
  8
AM_VIS
100
AcDbLine
 10
1331.304042088311
 20
655.8259572966655
 30
0.0
 11
1331.304042088311
 21
658.8689017541812
 31
0.0
  0
LINE
  5
A188
330
1F
100
AcDbEntity
  8
AM_VIS
100
AcDbLine
 10
1342.804042088312
 20
655.8259572966655
 30
0.0
 11
1342.804042088312
 21
658.8689017541812
 31
0.0
  0
LINE
  5
A189
330
1F
100
AcDbEntity
  8
AM_VIS
100
AcDbLine
 10
1344.204042088312
 20
680.2898793870345
 30
0.0
 11
1344.204042088312
 21
672.2898793870345
 31
0.0
  0
LINE
  5
A18A
330
1F
100
AcDbEntity
  8
AM_VIS
100
AcDbLine
 10
1342.804042088312
 20
672.2898793870345
 30
0.0
 11
1342.804042088312
 21
680.2898793870345
 31
0.0
  0
LINE
  5
A18B
330
1F
100
AcDbEntity
  8
AM_VIS
100
AcDbLine
 10
1332.704042088311
 20
658.8689017541812
 30
0.0
 11
1332.704042088311
 21
655.8259572966655
 31
0.0
  0
LINE
  5
A18C
330
1F
100
AcDbEntity
  8
AM_VIS
100
AcDbLine
 10
1332.704042088312
 20
680.2898793870345
 30
0.0
 11
1332.704042088312
 21
672.2898793870345
 31
0.0
  0
LINE
  5
A18D
330
1F
100
AcDbEntity
  8
AM_VIS
100
AcDbLine
 10
1333.254042088312
 20
671.5886601880935
 30
0.0
 11
1333.254042088312
 21
670.2892135313293
 31
0.0
  0
LINE
  5
A18E
330
1F
100
AcDbEntity
  8
AM_VIS
100
AcDbLine
 10
1342.254042088312
 20
671.5886601880935
 30
0.0
 11
1341.754042088312
 21
671.5886601880935
 31
0.0
  0
LINE
  5
A18F
330
1F
100
AcDbEntity
  8
AM_VIS
100
AcDbLine
 10
1333.954042088312
 20
671.5886601880935
 30
0.0
 11
1333.254042088312
 21
671.5886601880935
 31
0.0
  0
LINE
  5
A190
330
1F
100
AcDbEntity
  8
AM_VIS
100
AcDbLine
 10
1333.254042088312
 20
667.9644201125854
 30
0.0
 11
1333.254042088312
 21
665.4583444173972
 31
0.0
  0
LINE
  5
A191
330
1F
100
AcDbEntity
  8
AM_VIS
100
AcDbLine
 10
1333.254042088312
 20
662.8577099197742
 30
0.0
 11
1333.254042088312
 21
660.6248635273235
 31
0.0
  0
LINE
  5
A192
330
1F
100
AcDbEntity
  8
AM_VIS
100
AcDbLine
 10
1342.254042088312
 20
660.6248635273235
 30
0.0
 11
1342.254042088312
 21
662.8577099197742
 31
0.0
  0
LINE
  5
A193
330
1F
100
AcDbEntity
  8
AM_VIS
100
AcDbLine
 10
1342.254042088312
 20
665.4583444173972
 30
0.0
 11
1342.254042088312
 21
667.9644201125854
 31
0.0
  0
LINE
  5
A194
330
1F
100
AcDbEntity
  8
AM_VIS
100
AcDbLine
 10
1342.254042088312
 20
670.2892135313293
 30
0.0
 11
1342.254042088312
 21
671.5886601880935
 31
0.0
  0
LINE
  5
A195
330
1F
100
AcDbEntity
  8
AM_VIS
100
AcDbLine
 10
1333.254042088312
 20
670.2892135313293
 30
0.0
 11
1333.254042088312
 21
668.6145787369912
 31
0.0
  0
LINE
  5
A196
330
1F
100
AcDbEntity
  8
AM_VIS
100
AcDbLine
 10
1342.254042088312
 20
670.2892135313293
 30
0.0
 11
1341.754042088312
 21
670.2892135313293
 31
0.0
  0
LINE
  5
A197
330
1F
100
AcDbEntity
  8
AM_VIS
100
AcDbLine
 10
1333.954042088312
 20
670.2892135313293
 30
0.0
 11
1333.254042088312
 21
670.2892135313293
 31
0.0
  0
LINE
  5
A198
330
1F
100
AcDbEntity
  8
AM_VIS
100
AcDbLine
 10
1342.254042088312
 20
668.6145787369912
 30
0.0
 11
1342.254042088312
 21
670.2892135313293
 31
0.0
  0
LINE
  5
A199
330
1F
100
AcDbEntity
  8
AM_VIS
100
AcDbLine
 10
1342.254042088312
 20
660.4812158941297
 30
0.0
 11
1341.110039883879
 21
660.4812158941297
 31
0.0
  0
LINE
  5
A19A
330
1F
100
AcDbEntity
  8
AM_VIS
100
AcDbLine
 10
1334.398044292744
 20
660.4812158941297
 30
0.0
 11
1333.254042088312
 21
660.4812158941297
 31
0.0
  0
LINE
  5
A19B
330
1F
100
AcDbEntity
  8
AM_VIS
100
AcDbLine
 10
1333.254042088312
 20
662.8577099197742
 30
0.0
 11
1333.254042088312
 21
665.4583444173972
 31
0.0
  0
LINE
  5
A19C
330
1F
100
AcDbEntity
  8
AM_VIS
100
AcDbLine
 10
1333.254042088312
 20
660.4812158941297
 30
0.0
 11
1333.254042088312
 21
660.6248635273235
 31
0.0
  0
LINE
  5
A19D
330
1F
100
AcDbEntity
  8
AM_VIS
100
AcDbLine
 10
1342.254042088312
 20
660.6248635273235
 30
0.0
 11
1342.254042088312
 21
660.4812158941297
 31
0.0
  0
LINE
  5
A19E
330
1F
100
AcDbEntity
  8
AM_VIS
100
AcDbLine
 10
1342.254042088312
 20
665.4583444173972
 30
0.0
 11
1342.254042088312
 21
662.8577099197742
 31
0.0
  0
LINE
  5
A19F
330
1F
100
AcDbEntity
  8
AM_VIS
100
AcDbLine
 10
1333.254042088312
 20
668.6145787369912
 30
0.0
 11
1333.254042088312
 21
667.9644201125854
 31
0.0
  0
LINE
  5
A1A0
330
1F
100
AcDbEntity
  8
AM_VIS
100
AcDbLine
 10
1342.254042088312
 20
667.9644201125854
 30
0.0
 11
1342.254042088312
 21
668.6145787369912
 31
0.0
  0
LINE
  5
A1A1
330
1F
100
AcDbEntity
  8
AM_VIS
100
AcDbLine
 10
1329.704042088311
 20
664.2335029505236
 30
0.0
 11
1329.704042088311
 21
658.7303525901106
 31
0.0
  0
LINE
  5
A1A2
330
1F
100
AcDbEntity
  8
AM_VIS
100
AcDbLine
 10
1345.804042088311
 20
653.3046868233046
 30
0.0
 11
1342.254042088312
 21
653.3046868233046
 31
0.0
  0
LINE
  5
A1A3
330
1F
100
AcDbEntity
  8
AM_VIS
100
AcDbLine
 10
1329.704042088311
 20
655.7730629137788
 30
0.0
 11
1329.704042088311
 21
653.3046868233046
 31
0.0
  0
LINE
  5
A1A4
330
1F
100
AcDbEntity
  8
AM_VIS
100
AcDbLine
 10
1345.804042088311
 20
653.3046868233046
 30
0.0
 11
1345.804042088311
 21
655.773062913779
 31
0.0
  0
LINE
  5
A1A5
330
1F
100
AcDbEntity
  8
AM_VIS
100
AcDbLine
 10
1343.754042088312
 20
654.7076985133043
 30
0.0
 11
1343.754042088312
 21
655.8259572966655
 31
0.0
  0
LINE
  5
A1A6
330
1F
100
AcDbEntity
  8
AM_VIS
100
AcDbLine
 10
1345.804042088311
 20
658.7303525901106
 30
0.0
 11
1345.804042088311
 21
664.2335029505237
 31
0.0
  0
LINE
  5
A1A7
330
1F
100
AcDbEntity
  8
AM_VIS
100
AcDbLine
 10
1331.754042088312
 20
654.7076985133043
 30
0.0
 11
1331.754042088312
 21
655.8259572966655
 31
0.0
  0
LINE
  5
A1A8
330
1F
100
AcDbEntity
  8
AM_VIS
100
AcDbLine
 10
1331.104042088312
 20
654.7076985133045
 30
0.0
 11
1331.104042088312
 21
655.773062913779
 31
0.0
  0
LINE
  5
A1A9
330
1F
100
AcDbEntity
  8
AM_VIS
100
AcDbLine
 10
1331.104042088312
 20
658.7303525901106
 30
0.0
 11
1331.104042088312
 21
664.2335029505236
 31
0.0
  0
LINE
  5
A1AA
330
1F
100
AcDbEntity
  8
AM_VIS
100
AcDbLine
 10
1344.404042088311
 20
654.7076985133045
 30
0.0
 11
1331.104042088312
 21
654.7076985133045
 31
0.0
  0
LINE
  5
A1AB
330
1F
100
AcDbEntity
  8
AM_VIS
100
AcDbLine
 10
1344.404042088311
 20
664.2335029505237
 30
0.0
 11
1344.404042088311
 21
658.7303525901106
 31
0.0
  0
LINE
  5
A1AC
330
1F
100
AcDbEntity
  8
AM_VIS
100
AcDbLine
 10
1344.404042088311
 20
655.773062913779
 30
0.0
 11
1344.404042088311
 21
654.7076985133046
 31
0.0
  0
LINE
  5
A1AD
330
1F
100
AcDbEntity
  8
AM_VIS
100
AcDbLine
 10
1331.104042088312
 20
664.3046868233043
 30
0.0
 11
1329.704042088311
 21
664.3046868233043
 31
0.0
  0
LINE
  5
A1AE
330
1F
100
AcDbEntity
  8
AM_VIS
100
AcDbLine
 10
1345.804042088311
 20
664.3046868233043
 30
0.0
 11
1344.404042088311
 21
664.3046868233043
 31
0.0
  0
LINE
  5
A1AF
330
1F
100
AcDbEntity
  8
AM_VIS
100
AcDbLine
 10
1329.704042088311
 20
664.2335029505236
 30
0.0
 11
1329.704042088311
 21
664.3046868233043
 31
0.0
  0
LINE
  5
A1B0
330
1F
100
AcDbEntity
  8
AM_VIS
100
AcDbLine
 10
1329.704042088311
 20
655.773062913779
 30
0.0
 11
1329.704042088311
 21
658.7303525901106
 31
0.0
  0
LINE
  5
A1B1
330
1F
100
AcDbEntity
  8
AM_VIS
100
AcDbLine
 10
1345.804042088311
 20
658.7303525901106
 30
0.0
 11
1345.804042088311
 21
655.773062913779
 31
0.0
  0
LINE
  5
A1B2
330
1F
100
AcDbEntity
  8
AM_VIS
100
AcDbLine
 10
1345.804042088311
 20
664.3046868233043
 30
0.0
 11
1345.804042088311
 21
664.2335029505237
 31
0.0
  0
LINE
  5
A1B3
330
1F
100
AcDbEntity
  8
AM_VIS
100
AcDbLine
 10
1331.104042088312
 20
658.7303525901106
 30
0.0
 11
1331.104042088312
 21
655.773062913779
 31
0.0
  0
LINE
  5
A1B4
330
1F
100
AcDbEntity
  8
AM_VIS
100
AcDbLine
 10
1331.104042088312
 20
664.3046868233043
 30
0.0
 11
1331.104042088312
 21
664.2335029505237
 31
0.0
  0
LINE
  5
A1B5
330
1F
100
AcDbEntity
  8
AM_VIS
100
AcDbLine
 10
1344.404042088311
 20
655.773062913779
 30
0.0
 11
1344.404042088311
 21
658.7303525901106
 31
0.0
  0
LINE
  5
A1B6
330
1F
100
AcDbEntity
  8
AM_VIS
100
AcDbLine
 10
1344.404042088311
 20
664.2335029505237
 30
0.0
 11
1344.404042088311
 21
664.3046868233043
 31
0.0
  0
LINE
  5
A1B7
330
1F
100
AcDbEntity
  8
AM_VIS
100
AcDbLine
 10
1341.754042088312
 20
654.7076985133045
 30
0.0
 11
1341.754042088312
 21
658.3046868233044
 31
0.0
  0
LINE
  5
A1B8
330
1F
100
AcDbEntity
  8
AM_VIS
100
AcDbLine
 10
1333.754042088312
 20
654.7076985133045
 30
0.0
 11
1333.754042088312
 21
658.3046868233044
 31
0.0
  0
ARC
  5
A1B9
330
1F
100
AcDbEntity
  8
AM_VIS
100
AcDbCircle
 10
1337.754042088312
 20
658.3046868233044
 30
0.0
 40
4.0
100
AcDbArc
 50
0.0
 51
180.0
  0
ARC
  5
A1BA
330
1F
100
AcDbEntity
  8
AM_VIS
100
AcDbCircle
 10
1329.254042088312
 20
646.9046868233043
 30
0.0
 40
6.492531690334672
100
AcDbArc
 50
92.75000424201047
 51
99.68485203351454
  0
ARC
  5
A1BB
330
1F
100
AcDbEntity
  8
AM_VIS
100
AcDbCircle
 10
1329.254042088312
 20
646.9046868233043
 30
0.0
 40
6.492531690334672
100
AcDbArc
 50
86.02561987465261
 51
87.24999575802858
  0
LINE
  5
A1BC
330
1F
100
AcDbEntity
  8
AM_VIS
100
AcDbLine
 10
1329.56554208831
 20
653.3046868233046
 30
0.0
 11
1329.56554208831
 21
653.3897416033352
 31
0.0
  0
LINE
  5
A1BD
330
1F
100
AcDbEntity
  8
AM_VIS
100
AcDbLine
 10
1328.94254208831
 20
653.3897416033351
 30
0.0
 11
1328.94254208831
 21
653.3046868233046
 31
0.0
  0
LINE
  5
A1BE
330
1F
100
AcDbEntity
  8
AM_VIS
100
AcDbLine
 10
1342.346687116005
 20
651.3636243354324
 30
0.0
 11
1342.254042088312
 21
650.3046868233045
 31
0.0
  0
LINE
  5
A1BF
330
1F
100
AcDbEntity
  8
AM_VIS
100
AcDbLine
 10
1350.161397060618
 20
651.3636243354324
 30
0.0
 11
1350.254042088312
 21
650.3046868233045
 31
0.0
  0
LINE
  5
A1C0
330
1F
100
AcDbEntity
  8
AM_VIS
100
AcDbLine
 10
1350.254042088312
 20
650.3046868233045
 30
0.0
 11
1342.254042088311
 21
650.3046868233045
 31
0.0
  0
LINE
  5
A1C1
330
1F
100
AcDbEntity
  8
AM_VIS
100
AcDbLine
 10
1346.44333590387
 20
649.3341018233045
 30
0.0
 11
1346.043335903871
 21
649.3341018233045
 31
0.0
  0
LINE
  5
A1C2
330
1F
100
AcDbEntity
  8
AM_VIS
100
AcDbLine
 10
1343.954042088311
 20
652.9841604847328
 30
0.0
 11
1343.959839268678
 21
652.978367846571
 31
0.0
  0
ARC
  5
A1C3
330
1F
100
AcDbEntity
  8
AM_VIS
100
AcDbCircle
 10
1346.254042088312
 20
646.9046868233045
 30
0.0
 40
6.492531690334672
100
AcDbArc
 50
92.75000424201047
 51
93.9743801253474
  0
ARC
  5
A1C4
330
1F
100
AcDbEntity
  8
AM_VIS
100
AcDbCircle
 10
1346.254042088312
 20
646.9046868233045
 30
0.0
 40
6.492531690334672
100
AcDbArc
 50
99.68485203352736
 51
110.6929831855791
  0
ARC
  5
A1C5
330
1F
100
AcDbEntity
  8
AM_VIS
100
AcDbCircle
 10
1346.254042088312
 20
646.9046868233045
 30
0.0
 40
6.492531690334672
100
AcDbArc
 50
69.30701681442089
 51
87.24999575802858
  0
LINE
  5
A1C6
330
1F
100
AcDbEntity
  8
AM_VIS
100
AcDbLine
 10
1348.548244907945
 20
652.978367846571
 30
0.0
 11
1348.554042088311
 21
652.9841604847328
 31
0.0
  0
ELLIPSE
  5
A1C7
330
1F
100
AcDbEntity
  8
AM_VIS
100
AcDbEllipse
 10
1346.254042088312
 20
648.7968066340049
 30
0.0
 11
5.924134808644345
 21
-0.0000000000000013
 31
0.0
210
0.0
220
0.0
230
1.0
 40
0.7068296022936213
 41
1.518190549077444
 42
1.623402104513021
  0
LINE
  5
A1C8
330
1F
100
AcDbEntity
  8
AM_VIS
100
AcDbLine
 10
1346.56554208831
 20
652.9783678465711
 30
0.0
 11
1346.56554208831
 21
653.3897416033354
 31
0.0
  0
LINE
  5
A1C9
330
1F
100
AcDbEntity
  8
AM_VIS
100
AcDbLine
 10
1345.942542088309
 20
653.3897416033352
 30
0.0
 11
1345.942542088309
 21
652.9783678465709
 31
0.0
  0
ARC
  5
A1CA
330
1F
100
AcDbEntity
  8
AM_VIS
100
AcDbCircle
 10
1343.940598632952
 20
651.2241751470361
 30
0.0
 40
1.6
100
AcDbArc
 50
118.1727341318709
 51
175.0000000000005
  0
ARC
  5
A1CB
330
1F
100
AcDbEntity
  8
AM_VIS
100
AcDbCircle
 10
1348.567485543671
 20
651.2241751470361
 30
0.0
 40
1.6
100
AcDbArc
 50
4.999999999999459
 51
61.82726586812909
  0
ARC
  5
A1CC
330
1F
100
AcDbEntity
  8
AM_VIS
100
AcDbCircle
 10
1346.254042088312
 20
646.9046868233045
 30
0.0
 40
6.5
100
AcDbArc
 50
61.82726586812909
 51
69.2772556184067
  0
ARC
  5
A1CD
330
1F
100
AcDbEntity
  8
AM_VIS
100
AcDbCircle
 10
1346.254042088312
 20
646.9046868233045
 30
0.0
 40
6.5
100
AcDbArc
 50
110.7227443815933
 51
118.1727341318709
  0
LINE
  5
A1CE
330
1F
100
AcDbEntity
  8
AM_VIS
100
AcDbLine
 10
1346.454042088311
 20
649.3046868233045
 30
0.0
 11
1346.090071854045
 21
650.3046868233045
 31
0.0
  0
LINE
  5
A1CF
330
1F
100
AcDbEntity
  8
AM_VIS
100
AcDbLine
 10
1345.690071854045
 20
650.3046868233045
 30
0.0
 11
1346.054042088312
 21
649.3046868233045
 31
0.0
  0
LINE
  5
A1D0
330
1F
100
AcDbEntity
  8
AM_VIS
100
AcDbLine
 10
1342.454042088311
 20
650.3046868233045
 30
0.0
 11
1342.454042088311
 21
649.3046868233045
 31
0.0
  0
LINE
  5
A1D1
330
1F
100
AcDbEntity
  8
AM_VIS
100
AcDbLine
 10
1350.054042088312
 20
650.3046868233045
 30
0.0
 11
1350.054042088312
 21
649.3046868233045
 31
0.0
  0
LINE
  5
A1D2
330
1F
100
AcDbEntity
  8
AM_VIS
100
AcDbLine
 10
1350.904042088311
 20
653.3046868233046
 30
0.0
 11
1350.904042088311
 21
649.3046868233045
 31
0.0
  0
LINE
  5
A1D3
330
1F
100
AcDbEntity
  8
AM_VIS
100
AcDbLine
 10
1342.254042088312
 20
649.3046868233045
 30
0.0
 11
1342.254042088312
 21
653.3046868233046
 31
0.0
  0
LINE
  5
A1D4
330
1F
100
AcDbEntity
  8
AM_VIS
100
AcDbLine
 10
1349.904042088311
 20
649.3046868233045
 30
0.0
 11
1342.254042088312
 21
649.3046868233045
 31
0.0
  0
LINE
  5
A1D5
330
1F
100
AcDbEntity
  8
AM_VIS
100
AcDbLine
 10
1350.904042088311
 20
637.3046868233045
 30
0.0
 11
1350.904042088311
 21
649.3046868233045
 31
0.0
  0
LINE
  5
A1D6
330
1F
100
AcDbEntity
  8
AM_VIS
100
AcDbLine
 10
1324.604042088312
 20
653.3046868233046
 30
0.0
 11
1324.604042088312
 21
637.3046868233045
 31
0.0
  0
LINE
  5
A1D7
330
1F
100
AcDbEntity
  8
AM_VIS
100
AcDbLine
 10
1325.604042088311
 20
637.3046868233045
 30
0.0
 11
1349.904042088311
 21
637.3046868233045
 31
0.0
  0
LINE
  5
A1D8
330
1F
100
AcDbEntity
  8
AM_VIS
100
AcDbLine
 10
1346.254042088312
 20
653.3046868233046
 30
0.0
 11
1346.56554208831
 21
653.3046868233046
 31
0.0
  0
LINE
  5
A1D9
330
1F
100
AcDbEntity
  8
AM_VIS
100
AcDbLine
 10
1347.346272718719
 20
653.3046868233046
 30
0.0
 11
1350.904042088311
 21
653.3046868233046
 31
0.0
  0
LINE
  5
A1DA
330
1F
100
AcDbEntity
  8
AM_VIS
100
AcDbLine
 10
1342.254042088312
 20
653.3046868233046
 30
0.0
 11
1325.604042088311
 21
653.3046868233046
 31
0.0
  0
LINE
  5
A1DB
330
1F
100
AcDbEntity
  8
AM_VIS
100
AcDbLine
 10
1349.904042088311
 20
649.3046868233045
 30
0.0
 11
1350.904042088311
 21
649.3046868233045
 31
0.0
  0
LINE
  5
A1DC
330
1F
100
AcDbEntity
  8
AM_VIS
100
AcDbLine
 10
1345.942542088309
 20
653.3046868233046
 30
0.0
 11
1346.254042088312
 21
653.3046868233046
 31
0.0
  0
LINE
  5
A1DD
330
1F
100
AcDbEntity
  8
AM_VIS
100
AcDbLine
 10
1324.604042088312
 20
653.3046868233046
 30
0.0
 11
1325.604042088311
 21
653.3046868233046
 31
0.0
  0
ARC
  5
A1DE
330
1F
100
AcDbEntity
  8
AM_VIS
100
AcDbCircle
 10
1346.254042088312
 20
587.2046868233044
 30
0.0
 40
6.492531690334672
100
AcDbArc
 50
260.3151479664727
 51
267.2499957579895
  0
ARC
  5
A1DF
330
1F
100
AcDbEntity
  8
AM_VIS
100
AcDbCircle
 10
1346.254042088312
 20
587.2046868233044
 30
0.0
 40
6.492531690334672
100
AcDbArc
 50
272.7500042419714
 51
279.6848520335274
  0
LINE
  5
A1E0
330
1F
100
AcDbEntity
  8
AM_VIS
100
AcDbLine
 10
1345.942542088309
 20
580.8046868233044
 30
0.0
 11
1345.942542088309
 21
580.7196320432738
 31
0.0
  0
LINE
  5
A1E1
330
1F
100
AcDbEntity
  8
AM_VIS
100
AcDbLine
 10
1346.56554208831
 20
580.7196320432735
 30
0.0
 11
1346.56554208831
 21
580.8046868233044
 31
0.0
  0
LINE
  5
A1E2
330
1F
100
AcDbEntity
  8
AM_VIS
100
AcDbLine
 10
1333.161397060618
 20
582.7457493111764
 30
0.0
 11
1333.254042088312
 21
583.8046868233044
 31
0.0
  0
LINE
  5
A1E3
330
1F
100
AcDbEntity
  8
AM_VIS
100
AcDbLine
 10
1325.346687116005
 20
582.7457493111766
 30
0.0
 11
1325.254042088311
 21
583.8046868233044
 31
0.0
  0
LINE
  5
A1E4
330
1F
100
AcDbEntity
  8
AM_VIS
100
AcDbLine
 10
1325.254042088311
 20
583.8046868233044
 30
0.0
 11
1333.254042088312
 21
583.8046868233044
 31
0.0
  0
LINE
  5
A1E5
330
1F
100
AcDbEntity
  8
AM_VIS
100
AcDbLine
 10
1328.700778038486
 20
584.7752718233045
 30
0.0
 11
1329.100778038486
 21
584.7752718233045
 31
0.0
  0
ARC
  5
A1E6
330
1F
100
AcDbEntity
  8
AM_VIS
100
AcDbCircle
 10
1329.254042088312
 20
587.2046868233044
 30
0.0
 40
6.492531690334672
100
AcDbArc
 50
249.3070168144209
 51
267.2499957579895
  0
LINE
  5
A1E7
330
1F
100
AcDbEntity
  8
AM_VIS
100
AcDbLine
 10
1326.959839268678
 20
581.131005800038
 30
0.0
 11
1326.954042088311
 21
581.1252131618762
 31
0.0
  0
LINE
  5
A1E8
330
1F
100
AcDbEntity
  8
AM_VIS
100
AcDbLine
 10
1331.554042088312
 20
581.1252131618762
 30
0.0
 11
1331.548244907945
 21
581.131005800038
 31
0.0
  0
ARC
  5
A1E9
330
1F
100
AcDbEntity
  8
AM_VIS
100
AcDbCircle
 10
1329.254042088312
 20
587.2046868233044
 30
0.0
 40
6.492531690334672
100
AcDbArc
 50
272.7500042419714
 51
290.6929831855791
  0
LINE
  5
A1EA
330
1F
100
AcDbEntity
  8
AM_VIS
100
AcDbLine
 10
1328.94254208831
 20
581.1310058000381
 30
0.0
 11
1328.94254208831
 21
580.7196320432738
 31
0.0
  0
LINE
  5
A1EB
330
1F
100
AcDbEntity
  8
AM_VIS
100
AcDbLine
 10
1329.56554208831
 20
580.7196320432735
 30
0.0
 11
1329.56554208831
 21
581.1310058000379
 31
0.0
  0
ELLIPSE
  5
A1EC
330
1F
100
AcDbEntity
  8
AM_VIS
100
AcDbEllipse
 10
1329.254042088312
 20
585.312567012604
 30
0.0
 11
5.924134808644347
 21
-0.0000000000000013
 31
0.0
210
0.0
220
0.0
230
1.0
 40
0.7068296022936166
 41
4.659783202666564
 42
4.764994758102141
  0
ARC
  5
A1ED
330
1F
100
AcDbEntity
  8
AM_VIS
100
AcDbCircle
 10
1331.567485543671
 20
582.8851984995728
 30
0.0
 40
1.6
100
AcDbArc
 50
298.1727341318709
 51
355.0000000000006
  0
ARC
  5
A1EE
330
1F
100
AcDbEntity
  8
AM_VIS
100
AcDbCircle
 10
1326.940598632952
 20
582.8851984995728
 30
0.0
 40
1.6
100
AcDbArc
 50
184.9999999999994
 51
241.8272658681291
  0
ARC
  5
A1EF
330
1F
100
AcDbEntity
  8
AM_VIS
100
AcDbCircle
 10
1329.254042088312
 20
587.2046868233044
 30
0.0
 40
6.5
100
AcDbArc
 50
290.7227443815933
 51
298.1727341318709
  0
ARC
  5
A1F0
330
1F
100
AcDbEntity
  8
AM_VIS
100
AcDbCircle
 10
1329.254042088312
 20
587.2046868233044
 30
0.0
 40
6.5
100
AcDbArc
 50
241.8272658681291
 51
249.2772556184067
  0
LINE
  5
A1F1
330
1F
100
AcDbEntity
  8
AM_VIS
100
AcDbLine
 10
1329.454042088311
 20
583.8046868233044
 30
0.0
 11
1329.090071854045
 21
584.8046868233044
 31
0.0
  0
LINE
  5
A1F2
330
1F
100
AcDbEntity
  8
AM_VIS
100
AcDbLine
 10
1328.690071854045
 20
584.8046868233044
 30
0.0
 11
1329.054042088311
 21
583.8046868233044
 31
0.0
  0
LINE
  5
A1F3
330
1F
100
AcDbEntity
  8
AM_VIS
100
AcDbLine
 10
1325.454042088311
 20
584.8046868233044
 30
0.0
 11
1325.454042088311
 21
583.8046868233044
 31
0.0
  0
LINE
  5
A1F4
330
1F
100
AcDbEntity
  8
AM_VIS
100
AcDbLine
 10
1333.054042088312
 20
584.7046868233044
 30
0.0
 11
1333.054042088312
 21
583.8046868233044
 31
0.0
  0
LINE
  5
A1F5
330
1F
100
AcDbEntity
  8
AM_VIS
100
AcDbLine
 10
1328.196923362718
 20
584.8046868233044
 30
0.0
 11
1328.690071854045
 21
584.8046868233044
 31
0.0
  0
LINE
  5
A1F6
330
1F
100
AcDbEntity
  8
AM_VIS
100
AcDbLine
 10
1325.454042088311
 20
584.8046868233044
 30
0.0
 11
1325.554042088312
 21
584.8046868233044
 31
0.0
  0
LINE
  5
A1F7
330
1F
100
AcDbEntity
  8
AM_VIS
100
AcDbLine
 10
1329.090071854045
 20
584.8046868233044
 30
0.0
 11
1330.311160813905
 21
584.8046868233044
 31
0.0
  0
LINE
  5
A1F8
330
1F
100
AcDbEntity
  8
AM_VIS
100
AcDbLine
 10
1325.554042088312
 20
580.8046868233044
 30
0.0
 11
1328.161811457904
 21
580.8046868233044
 31
0.0
  0
LINE
  5
A1F9
330
1F
100
AcDbEntity
  8
AM_VIS
100
AcDbLine
 10
1328.94254208831
 20
580.8046868233044
 30
0.0
 11
1329.254042088312
 21
580.8046868233044
 31
0.0
  0
LINE
  5
A1FA
330
1F
100
AcDbEntity
  8
AM_VIS
100
AcDbLine
 10
1350.954042088311
 20
581.8046868233044
 30
0.0
 11
1350.954042088311
 21
587.3046868233045
 31
0.0
  0
LINE
  5
A1FB
330
1F
100
AcDbEntity
  8
AM_VIS
100
AcDbLine
 10
1349.954042088312
 20
587.3046868233045
 30
0.0
 11
1325.554042088312
 21
587.3046868233045
 31
0.0
  0
LINE
  5
A1FC
330
1F
100
AcDbEntity
  8
AM_VIS
100
AcDbLine
 10
1324.554042088311
 20
587.3046868233045
 30
0.0
 11
1324.554042088311
 21
585.8046868233044
 31
0.0
  0
LINE
  5
A1FD
330
1F
100
AcDbEntity
  8
AM_VIS
100
AcDbLine
 10
1333.754042088312
 20
580.8046868233044
 30
0.0
 11
1349.954042088312
 21
580.8046868233044
 31
0.0
  0
LINE
  5
A1FE
330
1F
100
AcDbEntity
  8
AM_VIS
100
AcDbLine
 10
1325.554042088312
 20
584.8046868233044
 30
0.0
 11
1328.196923362718
 21
584.8046868233044
 31
0.0
  0
LINE
  5
A1FF
330
1F
100
AcDbEntity
  8
AM_VIS
100
AcDbLine
 10
1328.690071854045
 20
584.8046868233044
 30
0.0
 11
1329.090071854045
 21
584.8046868233044
 31
0.0
  0
LINE
  5
A200
330
1F
100
AcDbEntity
  8
AM_VIS
100
AcDbLine
 10
1330.311160813905
 20
584.8046868233044
 30
0.0
 11
1332.754042088312
 21
584.8046868233044
 31
0.0
  0
LINE
  5
A201
330
1F
100
AcDbEntity
  8
AM_VIS
100
AcDbLine
 10
1333.254042088312
 20
584.3046868233044
 30
0.0
 11
1333.254042088312
 21
581.3046868233044
 31
0.0
  0
LINE
  5
A202
330
1F
100
AcDbEntity
  8
AM_VIS
100
AcDbLine
 10
1324.554042088311
 20
584.3046868233044
 30
0.0
 11
1324.554042088311
 21
581.8046868233044
 31
0.0
  0
ARC
  5
A203
330
1F
100
AcDbEntity
  8
AM_VIS
100
AcDbCircle
 10
1325.554042088312
 20
581.8046868233044
 30
0.0
 40
1.0
100
AcDbArc
 50
180.0
 51
270.0
  0
LINE
  5
A204
330
1F
100
AcDbEntity
  8
AM_VIS
100
AcDbLine
 10
1329.254042088312
 20
580.8046868233044
 30
0.0
 11
1329.56554208831
 21
580.8046868233044
 31
0.0
  0
LINE
  5
A205
330
1F
100
AcDbEntity
  8
AM_VIS
100
AcDbLine
 10
1330.346272718719
 20
580.8046868233044
 30
0.0
 11
1333.754042088312
 21
580.8046868233044
 31
0.0
  0
ARC
  5
A206
330
1F
100
AcDbEntity
  8
AM_VIS
100
AcDbCircle
 10
1349.954042088312
 20
581.8046868233044
 30
0.0
 40
1.0
100
AcDbArc
 50
270.0
 51
0.0
  0
ARC
  5
A207
330
1F
100
AcDbEntity
  8
AM_VIS
100
AcDbCircle
 10
1332.754042088312
 20
584.3046868233044
 30
0.0
 40
0.5
100
AcDbArc
 50
0.0
 51
90.0
  0
ARC
  5
A208
330
1F
100
AcDbEntity
  8
AM_VIS
100
AcDbCircle
 10
1333.754042088312
 20
581.3046868233044
 30
0.0
 40
0.5
100
AcDbArc
 50
180.0
 51
270.0
  0
LINE
  5
A209
330
1F
100
AcDbEntity
  8
AM_VIS
100
AcDbLine
 10
1324.554042088311
 20
585.8046868233044
 30
0.0
 11
1324.554042088311
 21
584.3046868233044
 31
0.0
  0
ARC
  5
A20A
330
1F
100
AcDbEntity
  8
AM_VIS
100
AcDbCircle
 10
1325.554042088312
 20
585.8046868233044
 30
0.0
 40
1.0
100
AcDbArc
 50
180.0
 51
270.0
  0
ARC
  5
A2A0
330
1F
100
AcDbEntity
  8
AM_VIS
100
AcDbCircle
 10
1347.254042088311
 20
607.3046868233043
 30
0.0
 40
2.249999999999962
100
AcDbArc
 50
141.0575587310225
 51
218.9424412689827
  0
LINE
  5
A2A1
330
1F
100
AcDbEntity
  8
AM_VIS
100
AcDbLine
 10
1345.954042088311
 20
633.8046868233044
 30
0.0
 11
1349.454042088311
 21
633.8046868233044
 31
0.0
  0
LINE
  5
A2A2
330
1F
100
AcDbEntity
  8
AM_VIS
100
AcDbLine
 10
1345.954042088311
 20
627.8046868233044
 30
0.0
 11
1345.954042088311
 21
633.8046868233044
 31
0.0
  0
LINE
  5
A2A3
330
1F
100
AcDbEntity
  8
AM_VIS
100
AcDbLine
 10
1349.454042088311
 20
627.8046868233044
 30
0.0
 11
1345.954042088311
 21
627.8046868233044
 31
0.0
  0
LINE
  5
A2A4
330
1F
100
AcDbEntity
  8
AM_VIS
100
AcDbLine
 10
1349.454042088311
 20
633.8046868233044
 30
0.0
 11
1349.454042088311
 21
627.8046868233044
 31
0.0
  0
LINE
  5
A2A5
330
1F
100
AcDbEntity
  8
AM_VIS
100
AcDbLine
 10
1345.954042088311
 20
596.8046868233044
 30
0.0
 11
1349.454042088311
 21
596.8046868233044
 31
0.0
  0
LINE
  5
A2A6
330
1F
100
AcDbEntity
  8
AM_VIS
100
AcDbLine
 10
1345.954042088311
 20
590.8046868233044
 30
0.0
 11
1345.954042088311
 21
596.8046868233044
 31
0.0
  0
LINE
  5
A2A7
330
1F
100
AcDbEntity
  8
AM_VIS
100
AcDbLine
 10
1349.454042088311
 20
590.8046868233044
 30
0.0
 11
1345.954042088311
 21
590.8046868233044
 31
0.0
  0
LINE
  5
A2A8
330
1F
100
AcDbEntity
  8
AM_VIS
100
AcDbLine
 10
1349.454042088311
 20
596.8046868233044
 30
0.0
 11
1349.454042088311
 21
590.8046868233044
 31
0.0
  0
LINE
  5
A2A9
330
1F
100
AcDbEntity
  8
AM_VIS
100
AcDbLine
 10
1326.054042088312
 20
610.3046868233044
 30
0.0
 11
1329.554042088312
 21
610.3046868233044
 31
0.0
  0
LINE
  5
A2AA
330
1F
100
AcDbEntity
  8
AM_VIS
100
AcDbLine
 10
1326.054042088312
 20
604.3046868233044
 30
0.0
 11
1326.054042088312
 21
610.3046868233044
 31
0.0
  0
LINE
  5
A2AB
330
1F
100
AcDbEntity
  8
AM_VIS
100
AcDbLine
 10
1329.554042088312
 20
604.3046868233044
 30
0.0
 11
1326.054042088312
 21
604.3046868233044
 31
0.0
  0
LINE
  5
A2AC
330
1F
100
AcDbEntity
  8
AM_VIS
100
AcDbLine
 10
1329.554042088312
 20
610.3046868233044
 30
0.0
 11
1329.554042088312
 21
604.3046868233044
 31
0.0
  0
LINE
  5
A2AF
330
1F
100
AcDbEntity
  8
AM_VIS
100
AcDbLine
 10
1324.554042088311
 20
587.3046868233045
 30
0.0
 11
1350.954042088311
 21
587.3046868233045
 31
0.0
  0
LINE
  5
A2B0
330
1F
100
AcDbEntity
  8
AM_VIS
100
AcDbLine
 10
1350.954042088311
 20
637.3046868233045
 30
0.0
 11
1324.554042088311
 21
637.3046868233045
 31
0.0
  0
LINE
  5
A2B1
330
1F
100
AcDbEntity
  8
AM_VIS
100
AcDbLine
 10
1324.554042088311
 20
637.3046868233045
 30
0.0
 11
1324.554042088311
 21
587.3046868233045
 31
0.0
  0
LINE
  5
A2B2
330
1F
100
AcDbEntity
  8
AM_VIS
100
AcDbLine
 10
1350.954042088311
 20
587.3046868233045
 30
0.0
 11
1350.954042088311
 21
637.3046868233045
 31
0.0
  0
CIRCLE
  5
A2B3
330
1F
100
AcDbEntity
  8
AM_VIS
100
AcDbCircle
 10
1337.754042088312
 20
612.3046868233045
 30
0.0
 40
5.699999999999999
  0
CIRCLE
  5
A2B6
330
1F
100
AcDbEntity
  8
AM_VIS
100
AcDbCircle
 10
1337.754042088312
 20
593.8046868233044
 30
0.0
 40
4.250000000000003
  0
CIRCLE
  5
A2B7
330
1F
100
AcDbEntity
  8
AM_VIS
100
AcDbCircle
 10
1337.754042088312
 20
630.8046868233044
 30
0.0
 40
4.250000000000003
  0
CIRCLE
  5
A2B8
330
1F
100
AcDbEntity
  8
AM_VIS
100
AcDbCircle
 10
1337.754042088312
 20
630.8046868233044
 30
0.0
 40
5.0
  0
CIRCLE
  5
A2B9
330
1F
100
AcDbEntity
  8
AM_VIS
100
AcDbCircle
 10
1337.754042088312
 20
593.8046868233045
 30
0.0
 40
5.000000000000001
  0
CIRCLE
  5
A2BA
330
1F
100
AcDbEntity
  8
AM_VIS
100
AcDbCircle
 10
1337.754042088312
 20
612.3046868233045
 30
0.0
 40
6.700000000000002
  0
CIRCLE
  5
A2BB
330
1F
100
AcDbEntity
  8
AM_VIS
100
AcDbCircle
 10
1347.254042088312
 20
607.3046868233044
 30
0.0
 40
2.25
  0
CIRCLE
  5
A2BC
330
1F
100
AcDbEntity
  8
AM_VIS
100
AcDbCircle
 10
1328.254042088311
 20
617.3046868233044
 30
0.0
 40
2.25
  0
LINE
  5
A2C3
330
1F
100
AcDbEntity
  8
AM_VIS
100
AcDbLine
 10
1493.825088670534
 20
678.7898793870344
 30
0.0
 11
1493.325088670534
 21
679.2898793870344
 31
0.0
  0
LINE
  5
A2C4
330
1F
100
AcDbEntity
  8
AM_VIS
100
AcDbLine
 10
1485.025088670534
 20
678.7898793870344
 30
0.0
 11
1485.525088670534
 21
679.2898793870344
 31
0.0
  0
LINE
  5
A2C5
330
1F
100
AcDbEntity
  8
AM_VIS
100
AcDbLine
 10
1486.025088670534
 20
684.7898793870345
 30
0.0
 11
1492.825088670534
 21
684.7898793870345
 31
0.0
  0
LINE
  5
A2C6
330
1F
100
AcDbEntity
  8
AM_VIS
100
AcDbLine
 10
1493.325088670534
 20
684.2898793870345
 30
0.0
 11
1493.325088670534
 21
674.7488121718999
 31
0.0
  0
LINE
  5
A2C7
330
1F
100
AcDbEntity
  8
AM_VIS
100
AcDbLine
 10
1485.525088670534
 20
674.7488121718999
 30
0.0
 11
1485.525088670534
 21
684.2898793870345
 31
0.0
  0
LINE
  5
A2C8
330
1F
100
AcDbEntity
  8
AM_VIS
100
AcDbLine
 10
1493.825088670534
 20
678.7898793870344
 30
0.0
 11
1493.825088670534
 21
674.7488121718999
 31
0.0
  0
LINE
  5
A2C9
330
1F
100
AcDbEntity
  8
AM_VIS
100
AcDbLine
 10
1485.025088670534
 20
674.7488121718999
 30
0.0
 11
1485.025088670534
 21
678.7898793870344
 31
0.0
  0
ARC
  5
A2CA
330
1F
100
AcDbEntity
  8
AM_VIS
100
AcDbCircle
 10
1492.825088670534
 20
684.2898793870345
 30
0.0
 40
0.5
100
AcDbArc
 50
0.0
 51
90.0
  0
ARC
  5
A2CB
330
1F
100
AcDbEntity
  8
AM_VIS
100
AcDbCircle
 10
1486.025088670534
 20
684.2898793870345
 30
0.0
 40
0.5
100
AcDbArc
 50
90.0
 51
180.0
  0
LINE
  5
A2CC
330
1F
100
AcDbEntity
  8
AM_VIS
100
AcDbLine
 10
1498.575088670534
 20
662.1046868233043
 30
0.0
 11
1498.375088670534
 21
662.3046868233043
 31
0.0
  0
LINE
  5
A2CD
330
1F
100
AcDbEntity
  8
AM_VIS
100
AcDbLine
 10
1498.575088670534
 20
656.5046868233042
 30
0.0
 11
1498.375088670534
 21
656.3046868233043
 31
0.0
  0
LINE
  5
A2CE
330
1F
100
AcDbEntity
  8
AM_VIS
100
AcDbLine
 10
1498.375088670534
 20
662.3046868233043
 30
0.0
 11
1497.775088670534
 21
662.3046868233043
 31
0.0
  0
LINE
  5
A2CF
330
1F
100
AcDbEntity
  8
AM_VIS
100
AcDbLine
 10
1498.375088670534
 20
656.3046868233043
 30
0.0
 11
1497.775088670534
 21
656.3046868233043
 31
0.0
  0
LINE
  5
A2D0
330
1F
100
AcDbEntity
  8
AM_VIS
100
AcDbLine
 10
1497.575088670534
 20
656.5046868233044
 30
0.0
 11
1497.775088670534
 21
656.3046868233043
 31
0.0
  0
LINE
  5
A2D1
330
1F
100
AcDbEntity
  8
AM_VIS
100
AcDbLine
 10
1497.575088670534
 20
662.1046868233043
 30
0.0
 11
1497.775088670534
 21
662.3046868233043
 31
0.0
  0
LINE
  5
A2D2
330
1F
100
AcDbEntity
  8
AM_VIS
100
AcDbLine
 10
1496.175088670534
 20
660.7546868233043
 30
0.0
 11
1495.975088670534
 21
660.7546868233043
 31
0.0
  0
LINE
  5
A2D3
330
1F
100
AcDbEntity
  8
AM_VIS
100
AcDbLine
 10
1483.075088670534
 20
660.7546868233043
 30
0.0
 11
1482.875088670534
 21
660.7546868233043
 31
0.0
  0
LINE
  5
A2D4
330
1F
100
AcDbEntity
  8
AM_VIS
100
AcDbLine
 10
1481.475088670534
 20
660.7546868233043
 30
0.0
 11
1480.075088670534
 21
660.7546868233043
 31
0.0
  0
LINE
  5
A2D5
330
1F
100
AcDbEntity
  8
AM_VIS
100
AcDbLine
 10
1496.175088670534
 20
657.8546868233043
 30
0.0
 11
1495.975088670534
 21
657.8546868233043
 31
0.0
  0
LINE
  5
A2D6
330
1F
100
AcDbEntity
  8
AM_VIS
100
AcDbLine
 10
1483.075088670534
 20
657.8546868233043
 30
0.0
 11
1482.875088670534
 21
657.8546868233043
 31
0.0
  0
LINE
  5
A2D7
330
1F
100
AcDbEntity
  8
AM_VIS
100
AcDbLine
 10
1481.475088670534
 20
657.8546868233043
 30
0.0
 11
1480.075088670534
 21
657.8546868233043
 31
0.0
  0
LINE
  5
A2D8
330
1F
100
AcDbEntity
  8
AM_VIS
100
AcDbLine
 10
1498.575088670534
 20
662.1046868233043
 30
0.0
 11
1498.575088670534
 21
656.5046868233044
 31
0.0
  0
LINE
  5
A2D9
330
1F
100
AcDbEntity
  8
AM_VIS
100
AcDbLine
 10
1498.375088670534
 20
656.3046868233043
 30
0.0
 11
1498.375088670534
 21
662.3046868233043
 31
0.0
  0
LINE
  5
A2DA
330
1F
100
AcDbEntity
  8
AM_VIS
100
AcDbLine
 10
1497.775088670534
 20
662.3046868233043
 30
0.0
 11
1497.775088670534
 21
656.3046868233043
 31
0.0
  0
LINE
  5
A2DB
330
1F
100
AcDbEntity
  8
AM_VIS
100
AcDbLine
 10
1480.075088670534
 20
657.8546868233043
 30
0.0
 11
1480.075088670534
 21
660.7546868233043
 31
0.0
  0
LINE
  5
A2DC
330
1F
100
AcDbEntity
  8
AM_VIS
100
AcDbLine
 10
1496.975088670534
 20
679.0898793870349
 30
0.0
 11
1496.775088670534
 21
679.289879387035
 31
0.0
  0
LINE
  5
A2DD
330
1F
100
AcDbEntity
  8
AM_VIS
100
AcDbLine
 10
1496.975088670534
 20
673.489879387035
 30
0.0
 11
1496.775088670534
 21
673.2898793870349
 31
0.0
  0
LINE
  5
A2DE
330
1F
100
AcDbEntity
  8
AM_VIS
100
AcDbLine
 10
1496.775088670534
 20
679.289879387035
 30
0.0
 11
1496.175088670534
 21
679.289879387035
 31
0.0
  0
LINE
  5
A2DF
330
1F
100
AcDbEntity
  8
AM_VIS
100
AcDbLine
 10
1496.775088670534
 20
673.2898793870349
 30
0.0
 11
1496.175088670534
 21
673.2898793870349
 31
0.0
  0
LINE
  5
A2E0
330
1F
100
AcDbEntity
  8
AM_VIS
100
AcDbLine
 10
1495.975088670534
 20
673.489879387035
 30
0.0
 11
1496.175088670534
 21
673.2898793870349
 31
0.0
  0
LINE
  5
A2E1
330
1F
100
AcDbEntity
  8
AM_VIS
100
AcDbLine
 10
1495.975088670534
 20
679.089879387035
 30
0.0
 11
1496.175088670534
 21
679.289879387035
 31
0.0
  0
LINE
  5
A2E2
330
1F
100
AcDbEntity
  8
AM_VIS
100
AcDbLine
 10
1494.575088670534
 20
677.7398793870349
 30
0.0
 11
1493.825088670534
 21
677.7398793870349
 31
0.0
  0
LINE
  5
A2E3
330
1F
100
AcDbEntity
  8
AM_VIS
100
AcDbLine
 10
1485.025088670534
 20
677.7398793870349
 30
0.0
 11
1484.475088670534
 21
677.7398793870349
 31
0.0
  0
LINE
  5
A2E4
330
1F
100
AcDbEntity
  8
AM_VIS
100
AcDbLine
 10
1483.075088670534
 20
677.7398793870349
 30
0.0
 11
1482.475088670534
 21
677.7398793870349
 31
0.0
  0
LINE
  5
A2E5
330
1F
100
AcDbEntity
  8
AM_VIS
100
AcDbLine
 10
1494.575088670534
 20
674.8398793870348
 30
0.0
 11
1493.825088670534
 21
674.8398793870348
 31
0.0
  0
LINE
  5
A2E6
330
1F
100
AcDbEntity
  8
AM_VIS
100
AcDbLine
 10
1485.025088670534
 20
674.839879387035
 30
0.0
 11
1484.475088670534
 21
674.839879387035
 31
0.0
  0
LINE
  5
A2E7
330
1F
100
AcDbEntity
  8
AM_VIS
100
AcDbLine
 10
1483.075088670534
 20
674.839879387035
 30
0.0
 11
1482.475088670534
 21
674.839879387035
 31
0.0
  0
LINE
  5
A2E8
330
1F
100
AcDbEntity
  8
AM_VIS
100
AcDbLine
 10
1496.975088670534
 20
679.0898793870349
 30
0.0
 11
1496.975088670534
 21
673.489879387035
 31
0.0
  0
LINE
  5
A2E9
330
1F
100
AcDbEntity
  8
AM_VIS
100
AcDbLine
 10
1496.775088670534
 20
673.2898793870349
 30
0.0
 11
1496.775088670534
 21
679.289879387035
 31
0.0
  0
LINE
  5
A2EA
330
1F
100
AcDbEntity
  8
AM_VIS
100
AcDbLine
 10
1496.175088670534
 20
679.289879387035
 30
0.0
 11
1496.175088670534
 21
673.2898793870349
 31
0.0
  0
LINE
  5
A2EB
330
1F
100
AcDbEntity
  8
AM_VIS
100
AcDbLine
 10
1482.475088670534
 20
674.839879387035
 30
0.0
 11
1482.475088670534
 21
677.7398793870349
 31
0.0
  0
LINE
  5
A2EC
330
1F
100
AcDbEntity
  8
AM_VIS
100
AcDbLine
 10
1495.975088670534
 20
677.1668585050076
 30
0.0
 11
1495.975088670534
 21
678.2962104001916
 31
0.0
  0
LINE
  5
A2ED
330
1F
100
AcDbEntity
  8
AM_VIS
100
AcDbLine
 10
1494.575088670534
 20
677.1668585050076
 30
0.0
 11
1495.975088670534
 21
677.1668585050076
 31
0.0
  0
LINE
  5
A2EE
330
1F
100
AcDbEntity
  8
AM_VIS
100
AcDbLine
 10
1495.975088670534
 20
674.7488121718999
 30
0.0
 11
1495.975088670534
 21
677.1668585050076
 31
0.0
  0
LINE
  5
A2EF
330
1F
100
AcDbEntity
  8
AM_VIS
100
AcDbLine
 10
1483.075088670534
 20
674.7488121718999
 30
0.0
 11
1483.075088670534
 21
661.7238748826045
 31
0.0
  0
LINE
  5
A2F0
330
1F
100
AcDbEntity
  8
AM_VIS
100
AcDbLine
 10
1495.975088670534
 20
661.7238748826045
 30
0.0
 11
1495.975088670534
 21
674.7488121718999
 31
0.0
  0
LINE
  5
A2F1
330
1F
100
AcDbEntity
  8
AM_VIS
100
AcDbLine
 10
1494.575088670534
 20
678.2962104001916
 30
0.0
 11
1495.975088670534
 21
678.2962104001916
 31
0.0
  0
LINE
  5
A2F2
330
1F
100
AcDbEntity
  8
AM_VIS
100
AcDbLine
 10
1483.075088670534
 20
661.7238748826045
 30
0.0
 11
1483.075088670534
 21
658.2432141948429
 31
0.0
  0
LINE
  5
A2F3
330
1F
100
AcDbEntity
  8
AM_VIS
100
AcDbLine
 10
1483.075088670534
 20
661.7238748826045
 30
0.0
 11
1483.525088670534
 21
661.7238748826045
 31
0.0
  0
LINE
  5
A2F4
330
1F
100
AcDbEntity
  8
AM_VIS
100
AcDbLine
 10
1495.525088670534
 20
661.7238748826045
 30
0.0
 11
1495.975088670534
 21
661.7238748826045
 31
0.0
  0
LINE
  5
A2F5
330
1F
100
AcDbEntity
  8
AM_VIS
100
AcDbLine
 10
1495.975088670534
 20
658.2432141948429
 30
0.0
 11
1495.975088670534
 21
661.7238748826045
 31
0.0
  0
LINE
  5
A2F6
330
1F
100
AcDbEntity
  8
AM_VIS
100
AcDbLine
 10
1494.575088670534
 20
678.2962104001916
 30
0.0
 11
1494.575088670534
 21
677.1668585050076
 31
0.0
  0
LINE
  5
A2F7
330
1F
100
AcDbEntity
  8
AM_VIS
100
AcDbLine
 10
1494.575088670534
 20
677.1668585050076
 30
0.0
 11
1494.575088670534
 21
674.7488121718999
 31
0.0
  0
LINE
  5
A2F8
330
1F
100
AcDbEntity
  8
AM_VIS
100
AcDbLine
 10
1494.575088670534
 20
674.7488121718999
 30
0.0
 11
1495.975088670534
 21
674.7488121718999
 31
0.0
  0
LINE
  5
A2F9
330
1F
100
AcDbEntity
  8
AM_VIS
100
AcDbLine
 10
1483.075088670534
 20
674.7488121718999
 30
0.0
 11
1484.475088670534
 21
674.7488121718999
 31
0.0
  0
LINE
  5
A2FA
330
1F
100
AcDbEntity
  8
AM_VIS
100
AcDbLine
 10
1483.075088670534
 20
677.1668585050076
 30
0.0
 11
1483.075088670534
 21
674.7488121718999
 31
0.0
  0
LINE
  5
A2FB
330
1F
100
AcDbEntity
  8
AM_VIS
100
AcDbLine
 10
1484.475088670534
 20
674.7488121718999
 30
0.0
 11
1484.475088670534
 21
677.1668585050076
 31
0.0
  0
LINE
  5
A2FC
330
1F
100
AcDbEntity
  8
AM_VIS
100
AcDbLine
 10
1483.075088670534
 20
677.1668585050076
 30
0.0
 11
1484.475088670534
 21
677.1668585050076
 31
0.0
  0
LINE
  5
A2FD
330
1F
100
AcDbEntity
  8
AM_VIS
100
AcDbLine
 10
1483.075088670534
 20
678.2962104001916
 30
0.0
 11
1483.075088670534
 21
677.1668585050076
 31
0.0
  0
LINE
  5
A2FE
330
1F
100
AcDbEntity
  8
AM_VIS
100
AcDbLine
 10
1483.075088670534
 20
678.2962104001916
 30
0.0
 11
1484.475088670534
 21
678.2962104001916
 31
0.0
  0
LINE
  5
A2FF
330
1F
100
AcDbEntity
  8
AM_VIS
100
AcDbLine
 10
1484.475088670534
 20
677.1668585050076
 30
0.0
 11
1484.475088670534
 21
678.2962104001916
 31
0.0
  0
LINE
  5
A300
330
1F
100
AcDbEntity
  8
AM_VIS
100
AcDbLine
 10
1484.475088670534
 20
674.7488121718999
 30
0.0
 11
1494.575088670534
 21
674.7488121719001
 31
0.0
  0
LINE
  5
A301
330
1F
100
AcDbEntity
  8
AM_VIS
100
AcDbLine
 10
1483.075088670534
 20
655.8259572966655
 30
0.0
 11
1483.525088670534
 21
655.8259572966655
 31
0.0
  0
LINE
  5
A302
330
1F
100
AcDbEntity
  8
AM_VIS
100
AcDbLine
 10
1494.575088670534
 20
680.2898793870345
 30
0.0
 11
1495.975088670534
 21
680.2898793870345
 31
0.0
  0
LINE
  5
A303
330
1F
100
AcDbEntity
  8
AM_VIS
100
AcDbLine
 10
1495.525088670534
 20
655.8259572966655
 30
0.0
 11
1495.975088670534
 21
655.8259572966655
 31
0.0
  0
LINE
  5
A304
330
1F
100
AcDbEntity
  8
AM_VIS
100
AcDbLine
 10
1483.075088670534
 20
680.2898793870345
 30
0.0
 11
1484.475088670534
 21
680.2898793870345
 31
0.0
  0
LINE
  5
A305
330
1F
100
AcDbEntity
  8
AM_VIS
100
AcDbLine
 10
1483.075088670534
 20
655.8259572966655
 30
0.0
 11
1483.075088670534
 21
658.2432141948429
 31
0.0
  0
LINE
  5
A306
330
1F
100
AcDbEntity
  8
AM_VIS
100
AcDbLine
 10
1495.975088670534
 20
680.2898793870345
 30
0.0
 11
1495.975088670534
 21
678.2962104001916
 31
0.0
  0
LINE
  5
A307
330
1F
100
AcDbEntity
  8
AM_VIS
100
AcDbLine
 10
1495.975088670534
 20
658.243214194843
 30
0.0
 11
1495.975088670534
 21
655.8259572966655
 31
0.0
  0
LINE
  5
A308
330
1F
100
AcDbEntity
  8
AM_VIS
100
AcDbLine
 10
1483.075088670534
 20
678.2962104001916
 30
0.0
 11
1483.075088670534
 21
680.2898793870345
 31
0.0
  0
LINE
  5
A309
330
1F
100
AcDbEntity
  8
AM_VIS
100
AcDbLine
 10
1484.475088670534
 20
680.2898793870345
 30
0.0
 11
1484.475088670534
 21
678.2962104001916
 31
0.0
  0
LINE
  5
A30A
330
1F
100
AcDbEntity
  8
AM_VIS
100
AcDbLine
 10
1494.575088670534
 20
678.2962104001916
 30
0.0
 11
1494.575088670534
 21
680.2898793870345
 31
0.0
  0
LINE
  5
A30B
330
1F
100
AcDbEntity
  8
AM_VIS
100
AcDbLine
 10
1497.575088670534
 20
653.3046868233043
 30
0.0
 11
1497.575088670534
 21
654.7046868233043
 31
0.0
  0
LINE
  5
A30C
330
1F
100
AcDbEntity
  8
AM_VIS
100
AcDbLine
 10
1495.525088670534
 20
653.3046868233043
 30
0.0
 11
1497.575088670534
 21
653.3046868233043
 31
0.0
  0
LINE
  5
A30D
330
1F
100
AcDbEntity
  8
AM_VIS
100
AcDbLine
 10
1495.525088670534
 20
654.7046868233043
 30
0.0
 11
1497.575088670534
 21
654.7046868233043
 31
0.0
  0
LINE
  5
A30E
330
1F
100
AcDbEntity
  8
AM_VIS
100
AcDbLine
 10
1481.475088670534
 20
653.3046868233043
 30
0.0
 11
1483.525088670534
 21
653.3046868233043
 31
0.0
  0
LINE
  5
A30F
330
1F
100
AcDbEntity
  8
AM_VIS
100
AcDbLine
 10
1481.475088670534
 20
654.7046868233043
 30
0.0
 11
1481.475088670534
 21
653.3046868233043
 31
0.0
  0
LINE
  5
A310
330
1F
100
AcDbEntity
  8
AM_VIS
100
AcDbLine
 10
1483.525088670534
 20
663.3046868233043
 30
0.0
 11
1495.525088670534
 21
663.3046868233043
 31
0.0
  0
LINE
  5
A311
330
1F
100
AcDbEntity
  8
AM_VIS
100
AcDbLine
 10
1495.525088670534
 20
653.3046868233043
 30
0.0
 11
1483.525088670534
 21
653.3046868233043
 31
0.0
  0
LINE
  5
A312
330
1F
100
AcDbEntity
  8
AM_VIS
100
AcDbLine
 10
1483.525088670534
 20
663.3046868233043
 30
0.0
 11
1483.525088670534
 21
653.3046868233043
 31
0.0
  0
LINE
  5
A313
330
1F
100
AcDbEntity
  8
AM_VIS
100
AcDbLine
 10
1481.475088670534
 20
654.7046868233043
 30
0.0
 11
1483.525088670534
 21
654.7046868233043
 31
0.0
  0
LINE
  5
A314
330
1F
100
AcDbEntity
  8
AM_VIS
100
AcDbLine
 10
1495.525088670534
 20
653.3046868233042
 30
0.0
 11
1495.525088670534
 21
663.3046868233042
 31
0.0
  0
LINE
  5
A315
330
1F
100
AcDbEntity
  8
AM_VIS
100
AcDbLine
 10
1483.525088670534
 20
654.7076985133043
 30
0.0
 11
1482.875088670534
 21
654.7076985133043
 31
0.0
  0
LINE
  5
A316
330
1F
100
AcDbEntity
  8
AM_VIS
100
AcDbLine
 10
1496.175088670534
 20
654.7076985133043
 30
0.0
 11
1495.525088670534
 21
654.7076985133043
 31
0.0
  0
LINE
  5
A317
330
1F
100
AcDbEntity
  8
AM_VIS
100
AcDbLine
 10
1496.175088670534
 20
664.3046868233043
 30
0.0
 11
1497.575088670534
 21
664.3046868233043
 31
0.0
  0
LINE
  5
A318
330
1F
100
AcDbEntity
  8
AM_VIS
100
AcDbLine
 10
1481.475088670534
 20
664.3046868233043
 30
0.0
 11
1482.875088670534
 21
664.3046868233043
 31
0.0
  0
LINE
  5
A319
330
1F
100
AcDbEntity
  8
AM_VIS
100
AcDbLine
 10
1497.575088670534
 20
664.3046868233043
 30
0.0
 11
1497.575088670534
 21
654.7046868233043
 31
0.0
  0
LINE
  5
A31A
330
1F
100
AcDbEntity
  8
AM_VIS
100
AcDbLine
 10
1481.475088670534
 20
654.7046868233043
 30
0.0
 11
1481.475088670534
 21
664.3046868233043
 31
0.0
  0
LINE
  5
A31B
330
1F
100
AcDbEntity
  8
AM_VIS
100
AcDbLine
 10
1496.175088670534
 20
654.7076985133043
 30
0.0
 11
1496.175088670534
 21
664.3046868233043
 31
0.0
  0
LINE
  5
A31C
330
1F
100
AcDbEntity
  8
AM_VIS
100
AcDbLine
 10
1482.875088670534
 20
664.3046868233043
 30
0.0
 11
1482.875088670534
 21
654.7076985133043
 31
0.0
  0
ARC
  5
A31D
330
1F
100
AcDbEntity
  8
AM_VIS
100
AcDbCircle
 10
1498.025088670534
 20
646.9046868233043
 30
0.0
 40
6.492531690334672
100
AcDbArc
 50
80.31514796647263
 51
87.24999575798953
  0
ARC
  5
A31E
330
1F
100
AcDbEntity
  8
AM_VIS
100
AcDbCircle
 10
1498.025088670534
 20
646.9046868233043
 30
0.0
 40
6.492531690334672
100
AcDbArc
 50
92.75000424197143
 51
93.9743801253474
  0
LINE
  5
A31F
330
1F
100
AcDbEntity
  8
AM_VIS
100
AcDbLine
 10
1498.336588670536
 20
653.3046868233043
 30
0.0
 11
1498.336588670536
 21
653.3897416033351
 31
0.0
  0
LINE
  5
A320
330
1F
100
AcDbEntity
  8
AM_VIS
100
AcDbLine
 10
1497.713588670536
 20
653.3897416033352
 30
0.0
 11
1497.713588670536
 21
653.3046868233043
 31
0.0
  0
ARC
  5
A321
330
1F
100
AcDbEntity
  8
AM_VIS
100
AcDbCircle
 10
1481.025088670534
 20
646.9046868233045
 30
0.0
 40
6.492531690334672
100
AcDbArc
 50
86.02561987465261
 51
87.24999575798953
  0
ARC
  5
A322
330
1F
100
AcDbEntity
  8
AM_VIS
100
AcDbCircle
 10
1481.025088670534
 20
646.9046868233045
 30
0.0
 40
6.492531690334672
100
AcDbArc
 50
92.75000424197143
 51
99.6848520335402
  0
LINE
  5
A323
330
1F
100
AcDbEntity
  8
AM_VIS
100
AcDbLine
 10
1481.336588670536
 20
653.3046868233043
 30
0.0
 11
1481.336588670536
 21
653.3897416033352
 31
0.0
  0
LINE
  5
A324
330
1F
100
AcDbEntity
  8
AM_VIS
100
AcDbLine
 10
1480.713588670536
 20
653.3897416033354
 30
0.0
 11
1480.713588670536
 21
653.3046868233043
 31
0.0
  0
LINE
  5
A325
330
1F
100
AcDbEntity
  8
AM_VIS
100
AcDbLine
 10
1476.375088670534
 20
653.3046868233043
 30
0.0
 11
1476.375088670534
 21
637.3046868233043
 31
0.0
  0
LINE
  5
A326
330
1F
100
AcDbEntity
  8
AM_VIS
100
AcDbLine
 10
1502.675088670534
 20
637.3046868233043
 30
0.0
 11
1502.675088670534
 21
653.3046868233043
 31
0.0
  0
LINE
  5
A327
330
1F
100
AcDbEntity
  8
AM_VIS
100
AcDbLine
 10
1477.375088670534
 20
637.3046868233043
 30
0.0
 11
1501.675088670534
 21
637.3046868233043
 31
0.0
  0
LINE
  5
A328
330
1F
100
AcDbEntity
  8
AM_VIS
100
AcDbLine
 10
1501.675088670534
 20
653.3046868233043
 30
0.0
 11
1497.575088670534
 21
653.3046868233043
 31
0.0
  0
LINE
  5
A329
330
1F
100
AcDbEntity
  8
AM_VIS
100
AcDbLine
 10
1481.475088670534
 20
653.3046868233043
 30
0.0
 11
1477.375088670534
 21
653.3046868233043
 31
0.0
  0
LINE
  5
A32A
330
1F
100
AcDbEntity
  8
AM_VIS
100
AcDbLine
 10
1476.375088670534
 20
653.3046868233043
 30
0.0
 11
1477.375088670534
 21
653.3046868233043
 31
0.0
  0
LINE
  5
A32B
330
1F
100
AcDbEntity
  8
AM_VIS
100
AcDbLine
 10
1501.675088670534
 20
653.3046868233043
 30
0.0
 11
1502.675088670534
 21
653.3046868233043
 31
0.0
  0
ARC
  5
A32C
330
1F
100
AcDbEntity
  8
AM_VIS
100
AcDbCircle
 10
1481.025088670534
 20
587.2046868233044
 30
0.0
 40
6.492531690334672
100
AcDbArc
 50
272.7500042420105
 51
279.6848520335274
  0
ARC
  5
A32D
330
1F
100
AcDbEntity
  8
AM_VIS
100
AcDbCircle
 10
1481.025088670534
 20
587.2046868233044
 30
0.0
 40
6.492531690334672
100
AcDbArc
 50
260.3151479664727
 51
267.2499957580286
  0
LINE
  5
A32E
330
1F
100
AcDbEntity
  8
AM_VIS
100
AcDbLine
 10
1480.713588670536
 20
580.8046868233044
 30
0.0
 11
1480.713588670536
 21
580.7196320432735
 31
0.0
  0
LINE
  5
A32F
330
1F
100
AcDbEntity
  8
AM_VIS
100
AcDbLine
 10
1481.336588670536
 20
580.7196320432738
 30
0.0
 11
1481.336588670536
 21
580.8046868233044
 31
0.0
  0
ARC
  5
A330
330
1F
100
AcDbEntity
  8
AM_VIS
100
AcDbCircle
 10
1498.025088670534
 20
587.2046868233044
 30
0.0
 40
6.492531690334672
100
AcDbArc
 50
272.7500042420105
 51
279.6848520335274
  0
ARC
  5
A331
330
1F
100
AcDbEntity
  8
AM_VIS
100
AcDbCircle
 10
1498.025088670534
 20
587.2046868233044
 30
0.0
 40
6.492531690334672
100
AcDbArc
 50
260.3151479664727
 51
267.2499957580286
  0
LINE
  5
A332
330
1F
100
AcDbEntity
  8
AM_VIS
100
AcDbLine
 10
1497.713588670536
 20
580.8046868233044
 30
0.0
 11
1497.713588670536
 21
580.7196320432735
 31
0.0
  0
LINE
  5
A333
330
1F
100
AcDbEntity
  8
AM_VIS
100
AcDbLine
 10
1498.336588670536
 20
580.7196320432738
 30
0.0
 11
1498.336588670536
 21
580.8046868233044
 31
0.0
  0
LINE
  5
A334
330
1F
100
AcDbEntity
  8
AM_VIS
100
AcDbLine
 10
1476.325088670534
 20
587.3046868233045
 30
0.0
 11
1476.325088670534
 21
581.8046868233044
 31
0.0
  0
LINE
  5
A335
330
1F
100
AcDbEntity
  8
AM_VIS
100
AcDbLine
 10
1502.725088670534
 20
581.8046868233044
 30
0.0
 11
1502.725088670534
 21
587.3046868233045
 31
0.0
  0
LINE
  5
A336
330
1F
100
AcDbEntity
  8
AM_VIS
100
AcDbLine
 10
1477.325088670534
 20
580.8046868233044
 30
0.0
 11
1501.725088670534
 21
580.8046868233044
 31
0.0
  0
LINE
  5
A337
330
1F
100
AcDbEntity
  8
AM_VIS
100
AcDbLine
 10
1501.725088670534
 20
587.3046868233045
 30
0.0
 11
1477.325088670534
 21
587.3046868233045
 31
0.0
  0
ARC
  5
A33F
330
1F
100
AcDbEntity
  8
AM_VIS
100
AcDbCircle
 10
1477.325088670534
 20
581.8046868233044
 30
0.0
 40
1.0
100
AcDbArc
 50
180.0
 51
270.0
  0
ARC
  5
A340
330
1F
100
AcDbEntity
  8
AM_VIS
100
AcDbCircle
 10
1501.725088670534
 20
581.8046868233044
 30
0.0
 40
1.0
100
AcDbArc
 50
270.0
 51
0.0
  0
CIRCLE
  5
A341
330
1F
100
AcDbEntity
  8
AM_VIS
100
AcDbCircle
 10
1489.525088670534
 20
583.8046868233044
 30
0.0
 40
1.7
  0
CIRCLE
  5
A342
330
1F
100
AcDbEntity
  8
AM_VIS
100
AcDbCircle
 10
1489.525088670534
 20
583.8046868233044
 30
0.0
 40
1.394764278068814
  0
LINE
  5
A386
330
1F
100
AcDbEntity
  8
AM_VIS
100
AcDbLine
 10
1499.025088670534
 20
621.3046868233042
 30
0.0
 11
1502.725088670534
 21
621.3046868233042
 31
0.0
  0
LINE
  5
A387
330
1F
100
AcDbEntity
  8
AM_VIS
100
AcDbLine
 10
1502.725088670534
 20
613.3046868233042
 30
0.0
 11
1499.025088670534
 21
613.3046868233042
 31
0.0
  0
LINE
  5
A388
330
1F
100
AcDbEntity
  8
AM_VIS
100
AcDbLine
 10
1480.025088670534
 20
603.3046868233042
 30
0.0
 11
1476.325088670534
 21
603.3046868233042
 31
0.0
  0
LINE
  5
A389
330
1F
100
AcDbEntity
  8
AM_VIS
100
AcDbLine
 10
1476.325088670534
 20
611.3046868233042
 30
0.0
 11
1480.025088670534
 21
611.3046868233042
 31
0.0
  0
LINE
  5
A38A
330
1F
100
AcDbEntity
  8
AM_VIS
100
AcDbLine
 10
1477.825088670534
 20
634.3046868233042
 30
0.0
 11
1481.325088670534
 21
634.3046868233042
 31
0.0
  0
LINE
  5
A38B
330
1F
100
AcDbEntity
  8
AM_VIS
100
AcDbLine
 10
1477.825088670534
 20
628.3046868233042
 30
0.0
 11
1477.825088670534
 21
634.3046868233042
 31
0.0
  0
LINE
  5
A38C
330
1F
100
AcDbEntity
  8
AM_VIS
100
AcDbLine
 10
1481.325088670534
 20
628.3046868233042
 30
0.0
 11
1477.825088670534
 21
628.3046868233042
 31
0.0
  0
LINE
  5
A38D
330
1F
100
AcDbEntity
  8
AM_VIS
100
AcDbLine
 10
1481.325088670534
 20
634.3046868233042
 30
0.0
 11
1481.325088670534
 21
628.3046868233042
 31
0.0
  0
LINE
  5
A38E
330
1F
100
AcDbEntity
  8
AM_VIS
100
AcDbLine
 10
1501.225088670534
 20
590.3046868233042
 30
0.0
 11
1497.725088670534
 21
590.3046868233042
 31
0.0
  0
LINE
  5
A38F
330
1F
100
AcDbEntity
  8
AM_VIS
100
AcDbLine
 10
1501.225088670534
 20
596.3046868233042
 30
0.0
 11
1501.225088670534
 21
590.3046868233042
 31
0.0
  0
LINE
  5
A390
330
1F
100
AcDbEntity
  8
AM_VIS
100
AcDbLine
 10
1497.725088670534
 20
596.3046868233042
 30
0.0
 11
1501.225088670534
 21
596.3046868233042
 31
0.0
  0
LINE
  5
A391
330
1F
100
AcDbEntity
  8
AM_VIS
100
AcDbLine
 10
1497.725088670534
 20
590.3046868233042
 30
0.0
 11
1497.725088670534
 21
596.3046868233042
 31
0.0
  0
LINE
  5
A393
330
1F
100
AcDbEntity
  8
AM_VIS
100
AcDbLine
 10
1476.325088670534
 20
587.3046868233045
 30
0.0
 11
1502.725088670534
 21
587.3046868233045
 31
0.0
  0
LINE
  5
A395
330
1F
100
AcDbEntity
  8
AM_VIS
100
AcDbLine
 10
1502.725088670534
 20
637.3046868233045
 30
0.0
 11
1476.325088670534
 21
637.3046868233045
 31
0.0
  0
LINE
  5
A396
330
1F
100
AcDbEntity
  8
AM_VIS
100
AcDbLine
 10
1502.725088670534
 20
587.3046868233045
 30
0.0
 11
1502.725088670534
 21
613.3046868233042
 31
0.0
  0
LINE
  5
A397
330
1F
100
AcDbEntity
  8
AM_VIS
100
AcDbLine
 10
1502.725088670534
 20
621.3046868233042
 30
0.0
 11
1502.725088670534
 21
613.3046868233042
 31
0.0
  0
LINE
  5
A398
330
1F
100
AcDbEntity
  8
AM_VIS
100
AcDbLine
 10
1502.725088670534
 20
621.3046868233042
 30
0.0
 11
1502.725088670534
 21
637.3046868233045
 31
0.0
  0
LINE
  5
A399
330
1F
100
AcDbEntity
  8
AM_VIS
100
AcDbLine
 10
1476.325088670534
 20
637.3046868233045
 30
0.0
 11
1476.325088670534
 21
611.3046868233042
 31
0.0
  0
LINE
  5
A39A
330
1F
100
AcDbEntity
  8
AM_VIS
100
AcDbLine
 10
1476.325088670534
 20
603.3046868233042
 30
0.0
 11
1476.325088670534
 21
611.3046868233042
 31
0.0
  0
LINE
  5
A39B
330
1F
100
AcDbEntity
  8
AM_VIS
100
AcDbLine
 10
1476.325088670534
 20
603.3046868233042
 30
0.0
 11
1476.325088670534
 21
587.3046868233045
 31
0.0
  0
CIRCLE
  5
A39C
330
1F
100
AcDbEntity
  8
AM_VIS
100
AcDbCircle
 10
1489.525088670534
 20
623.8046868233042
 30
0.0
 40
5.699999999999999
  0
CIRCLE
  5
A39D
330
1F
100
AcDbEntity
  8
AM_VIS
100
AcDbCircle
 10
1489.525088670534
 20
600.8046868233042
 30
0.0
 40
5.699999999999999
  0
CIRCLE
  5
A3A4
330
1F
100
AcDbEntity
  8
AM_VIS
100
AcDbCircle
 10
1499.025088670534
 20
617.3046868233042
 30
0.0
 40
2.25
  0
CIRCLE
  5
A3A5
330
1F
100
AcDbEntity
  8
AM_VIS
100
AcDbCircle
 10
1480.025088670534
 20
607.3046868233042
 30
0.0
 40
2.25
  0
ARC
  5
A3A6
330
1F
100
AcDbEntity
  8
AM_VIS
100
AcDbCircle
 10
1499.025088670534
 20
617.3046868233042
 30
0.0
 40
4.0
100
AcDbArc
 50
90.0
 51
270.0
  0
ARC
  5
A3A7
330
1F
100
AcDbEntity
  8
AM_VIS
100
AcDbCircle
 10
1480.025088670534
 20
607.3046868233042
 30
0.0
 40
4.0
100
AcDbArc
 50
270.0
 51
90.0
  0
CIRCLE
  5
A3A8
330
1F
100
AcDbEntity
  8
AM_VIS
100
AcDbCircle
 10
1489.525088670534
 20
600.8046868233042
 30
0.0
 40
6.700000000000005
  0
CIRCLE
  5
A3A9
330
1F
100
AcDbEntity
  8
AM_VIS
100
AcDbCircle
 10
1489.525088670534
 20
623.8046868233042
 30
0.0
 40
6.700000000000011
  0
LINE
  5
A3AC
330
1F
100
AcDbEntity
  8
AM_VIS
100
AcDbLine
 10
1399.526194128415
 20
726.3694655800557
 30
0.0
 11
1399.026194128415
 21
725.8694655800557
 31
0.0
  0
LINE
  5
A3AD
330
1F
100
AcDbEntity
  8
AM_VIS
100
AcDbLine
 10
1404.526194128415
 20
726.3694655800557
 30
0.0
 11
1405.026194128415
 21
725.8694655800557
 31
0.0
  0
LINE
  5
A3AE
330
1F
100
AcDbEntity
  8
AM_VIS
100
AcDbLine
 10
1404.526194128415
 20
717.5694655800556
 30
0.0
 11
1405.026194128415
 21
718.0694655800556
 31
0.0
  0
LINE
  5
A3AF
330
1F
100
AcDbEntity
  8
AM_VIS
100
AcDbLine
 10
1399.526194128415
 20
717.5694655800556
 30
0.0
 11
1399.026194128415
 21
718.0694655800556
 31
0.0
  0
LINE
  5
A3B0
330
1F
100
AcDbEntity
  8
AM_VIS
100
AcDbLine
 10
1410.526194128415
 20
718.5694655800557
 30
0.0
 11
1410.526194128415
 21
725.3694655800557
 31
0.0
  0
LINE
  5
A3B1
330
1F
100
AcDbEntity
  8
AM_VIS
100
AcDbLine
 10
1393.526194128415
 20
718.5694655800556
 30
0.0
 11
1393.526194128415
 21
725.3694655800557
 31
0.0
  0
LINE
  5
A3B2
330
1F
100
AcDbEntity
  8
AM_VIS
100
AcDbLine
 10
1394.026194128415
 20
725.8694655800557
 30
0.0
 11
1410.026194128415
 21
725.8694655800557
 31
0.0
  0
LINE
  5
A3B3
330
1F
100
AcDbEntity
  8
AM_VIS
100
AcDbLine
 10
1410.026194128415
 20
718.0694655800556
 30
0.0
 11
1394.026194128415
 21
718.0694655800556
 31
0.0
  0
LINE
  5
A3B4
330
1F
100
AcDbEntity
  8
AM_VIS
100
AcDbLine
 10
1399.526194128415
 20
726.3694655800557
 30
0.0
 11
1404.526194128415
 21
726.3694655800557
 31
0.0
  0
LINE
  5
A3B5
330
1F
100
AcDbEntity
  8
AM_VIS
100
AcDbLine
 10
1404.526194128415
 20
717.5694655800556
 30
0.0
 11
1399.526194128415
 21
717.5694655800556
 31
0.0
  0
ARC
  5
A3B6
330
1F
100
AcDbEntity
  8
AM_VIS
100
AcDbCircle
 10
1394.026194128415
 20
725.3694655800557
 30
0.0
 40
0.5
100
AcDbArc
 50
90.0
 51
180.0
  0
ARC
  5
A3B7
330
1F
100
AcDbEntity
  8
AM_VIS
100
AcDbCircle
 10
1410.026194128415
 20
725.3694655800557
 30
0.0
 40
0.5
100
AcDbArc
 50
0.0
 51
90.0
  0
ARC
  5
A3B8
330
1F
100
AcDbEntity
  8
AM_VIS
100
AcDbCircle
 10
1394.026194128415
 20
718.5694655800556
 30
0.0
 40
0.5
100
AcDbArc
 50
180.0
 51
270.0
  0
ARC
  5
A3B9
330
1F
100
AcDbEntity
  8
AM_VIS
100
AcDbCircle
 10
1410.026194128415
 20
718.5694655800556
 30
0.0
 40
0.5
100
AcDbArc
 50
270.0
 51
0.0
  0
LINE
  5
A3BA
330
1F
100
AcDbEntity
  8
AM_VIS
100
AcDbLine
 10
1437.827822767282
 20
731.1194655800558
 30
0.0
 11
1437.627822767282
 21
730.9194655800557
 31
0.0
  0
LINE
  5
A3BB
330
1F
100
AcDbEntity
  8
AM_VIS
100
AcDbLine
 10
1443.427822767282
 20
731.1194655800558
 30
0.0
 11
1443.627822767282
 21
730.9194655800557
 31
0.0
  0
LINE
  5
A3BC
330
1F
100
AcDbEntity
  8
AM_VIS
100
AcDbLine
 10
1437.627822767282
 20
730.9194655800557
 30
0.0
 11
1437.627822767282
 21
730.3194655800557
 31
0.0
  0
LINE
  5
A3BD
330
1F
100
AcDbEntity
  8
AM_VIS
100
AcDbLine
 10
1443.627822767282
 20
730.9194655800557
 30
0.0
 11
1443.627822767282
 21
730.3194655800557
 31
0.0
  0
LINE
  5
A3BE
330
1F
100
AcDbEntity
  8
AM_VIS
100
AcDbLine
 10
1443.427822767282
 20
730.1194655800558
 30
0.0
 11
1443.627822767282
 21
730.3194655800557
 31
0.0
  0
LINE
  5
A3BF
330
1F
100
AcDbEntity
  8
AM_VIS
100
AcDbLine
 10
1437.827822767282
 20
730.1194655800558
 30
0.0
 11
1437.627822767282
 21
730.3194655800557
 31
0.0
  0
LINE
  5
A3C0
330
1F
100
AcDbEntity
  8
AM_VIS
100
AcDbLine
 10
1439.177822767282
 20
728.7194655800557
 30
0.0
 11
1439.177822767282
 21
728.5194655800558
 31
0.0
  0
LINE
  5
A3C1
330
1F
100
AcDbEntity
  8
AM_VIS
100
AcDbLine
 10
1439.177822767282
 20
715.6194655800558
 30
0.0
 11
1439.177822767282
 21
715.4194655800558
 31
0.0
  0
LINE
  5
A3C2
330
1F
100
AcDbEntity
  8
AM_VIS
100
AcDbLine
 10
1439.177822767282
 20
714.0194655800558
 30
0.0
 11
1439.177822767282
 21
712.6194655800558
 31
0.0
  0
LINE
  5
A3C3
330
1F
100
AcDbEntity
  8
AM_VIS
100
AcDbLine
 10
1442.077822767282
 20
728.7194655800557
 30
0.0
 11
1442.077822767282
 21
728.5194655800558
 31
0.0
  0
LINE
  5
A3C4
330
1F
100
AcDbEntity
  8
AM_VIS
100
AcDbLine
 10
1442.077822767282
 20
715.6194655800558
 30
0.0
 11
1442.077822767282
 21
715.4194655800558
 31
0.0
  0
LINE
  5
A3C5
330
1F
100
AcDbEntity
  8
AM_VIS
100
AcDbLine
 10
1442.077822767282
 20
714.0194655800558
 30
0.0
 11
1442.077822767282
 21
712.6194655800558
 31
0.0
  0
LINE
  5
A3C6
330
1F
100
AcDbEntity
  8
AM_VIS
100
AcDbLine
 10
1437.827822767282
 20
731.1194655800558
 30
0.0
 11
1443.427822767282
 21
731.1194655800558
 31
0.0
  0
LINE
  5
A3C7
330
1F
100
AcDbEntity
  8
AM_VIS
100
AcDbLine
 10
1443.627822767282
 20
730.9194655800557
 30
0.0
 11
1437.627822767282
 21
730.9194655800557
 31
0.0
  0
LINE
  5
A3C8
330
1F
100
AcDbEntity
  8
AM_VIS
100
AcDbLine
 10
1437.627822767282
 20
730.3194655800557
 30
0.0
 11
1443.627822767282
 21
730.3194655800557
 31
0.0
  0
LINE
  5
A3C9
330
1F
100
AcDbEntity
  8
AM_VIS
100
AcDbLine
 10
1442.077822767282
 20
712.6194655800558
 30
0.0
 11
1439.177822767282
 21
712.6194655800558
 31
0.0
  0
LINE
  5
A3CA
330
1F
100
AcDbEntity
  8
AM_VIS
100
AcDbLine
 10
1399.226194128415
 20
729.5194655800557
 30
0.0
 11
1399.026194128415
 21
729.3194655800557
 31
0.0
  0
LINE
  5
A3CB
330
1F
100
AcDbEntity
  8
AM_VIS
100
AcDbLine
 10
1404.826194128415
 20
729.5194655800557
 30
0.0
 11
1405.026194128415
 21
729.3194655800557
 31
0.0
  0
LINE
  5
A3CC
330
1F
100
AcDbEntity
  8
AM_VIS
100
AcDbLine
 10
1399.026194128415
 20
729.3194655800557
 30
0.0
 11
1399.026194128415
 21
728.7194655800557
 31
0.0
  0
LINE
  5
A3CD
330
1F
100
AcDbEntity
  8
AM_VIS
100
AcDbLine
 10
1405.026194128415
 20
729.3194655800557
 30
0.0
 11
1405.026194128415
 21
728.7194655800557
 31
0.0
  0
LINE
  5
A3CE
330
1F
100
AcDbEntity
  8
AM_VIS
100
AcDbLine
 10
1404.826194128415
 20
728.5194655800556
 30
0.0
 11
1405.026194128415
 21
728.7194655800557
 31
0.0
  0
LINE
  5
A3CF
330
1F
100
AcDbEntity
  8
AM_VIS
100
AcDbLine
 10
1399.226194128415
 20
728.5194655800556
 30
0.0
 11
1399.026194128415
 21
728.7194655800557
 31
0.0
  0
LINE
  5
A3D0
330
1F
100
AcDbEntity
  8
AM_VIS
100
AcDbLine
 10
1400.576194128415
 20
727.1194655800557
 30
0.0
 11
1400.576194128415
 21
726.3694655800557
 31
0.0
  0
LINE
  5
A3D1
330
1F
100
AcDbEntity
  8
AM_VIS
100
AcDbLine
 10
1400.576194128415
 20
717.5694655800556
 30
0.0
 11
1400.576194128415
 21
717.0194655800557
 31
0.0
  0
LINE
  5
A3D2
330
1F
100
AcDbEntity
  8
AM_VIS
100
AcDbLine
 10
1400.576194128415
 20
715.6194655800557
 30
0.0
 11
1400.576194128415
 21
715.0194655800556
 31
0.0
  0
LINE
  5
A3D3
330
1F
100
AcDbEntity
  8
AM_VIS
100
AcDbLine
 10
1403.476194128415
 20
727.1194655800557
 30
0.0
 11
1403.476194128415
 21
726.3694655800557
 31
0.0
  0
LINE
  5
A3D4
330
1F
100
AcDbEntity
  8
AM_VIS
100
AcDbLine
 10
1403.476194128415
 20
717.5694655800556
 30
0.0
 11
1403.476194128415
 21
717.0194655800557
 31
0.0
  0
LINE
  5
A3D5
330
1F
100
AcDbEntity
  8
AM_VIS
100
AcDbLine
 10
1403.476194128415
 20
715.6194655800557
 30
0.0
 11
1403.476194128415
 21
715.0194655800556
 31
0.0
  0
LINE
  5
A3D6
330
1F
100
AcDbEntity
  8
AM_VIS
100
AcDbLine
 10
1399.226194128415
 20
729.5194655800557
 30
0.0
 11
1404.826194128415
 21
729.5194655800557
 31
0.0
  0
LINE
  5
A3D7
330
1F
100
AcDbEntity
  8
AM_VIS
100
AcDbLine
 10
1405.026194128415
 20
729.3194655800557
 30
0.0
 11
1399.026194128415
 21
729.3194655800557
 31
0.0
  0
LINE
  5
A3D8
330
1F
100
AcDbEntity
  8
AM_VIS
100
AcDbLine
 10
1399.026194128415
 20
728.7194655800557
 30
0.0
 11
1405.026194128415
 21
728.7194655800557
 31
0.0
  0
LINE
  5
A3D9
330
1F
100
AcDbEntity
  8
AM_VIS
100
AcDbLine
 10
1403.476194128415
 20
715.0194655800556
 30
0.0
 11
1400.576194128415
 21
715.0194655800556
 31
0.0
  0
ARC
  5
A3DA
330
1F
100
AcDbEntity
  8
AM_VIS
100
AcDbCircle
 10
1408.527822767282
 20
722.0694655800557
 30
0.0
 40
2.800000000000039
100
AcDbArc
 50
315.537092407371
 51
44.462907592629
  0
ARC
  5
A3DB
330
1F
100
AcDbEntity
  8
AM_VIS
100
AcDbCircle
 10
1408.527822767282
 20
722.0694655800557
 30
0.0
 40
2.949999999999988
100
AcDbArc
 50
312.6418945061492
 51
47.35810549385083
  0
LINE
  5
A3DC
330
1F
100
AcDbEntity
  8
AM_VIS
100
AcDbLine
 10
1408.303407493168
 20
728.5194655800556
 30
0.0
 11
1405.486632809513
 21
728.5194655800556
 31
0.0
  0
LINE
  5
A3DD
330
1F
100
AcDbEntity
  8
AM_VIS
100
AcDbLine
 10
1408.303407493168
 20
727.1194655800557
 30
0.0
 11
1408.303407493168
 21
728.5194655800556
 31
0.0
  0
LINE
  5
A3DE
330
1F
100
AcDbEntity
  8
AM_VIS
100
AcDbLine
 10
1410.389013545003
 20
728.5194655800556
 30
0.0
 11
1408.303407493168
 21
728.5194655800556
 31
0.0
  0
LINE
  5
A3DF
330
1F
100
AcDbEntity
  8
AM_VIS
100
AcDbLine
 10
1413.259520075722
 20
715.6194655800557
 30
0.0
 11
1445.745686494829
 21
715.6194655800558
 31
0.0
  0
LINE
  5
A3E0
330
1F
100
AcDbEntity
  8
AM_VIS
100
AcDbLine
 10
1445.745686494829
 20
728.5194655800558
 30
0.0
 11
1413.259520075722
 21
728.5194655800556
 31
0.0
  0
LINE
  5
A3E1
330
1F
100
AcDbEntity
  8
AM_VIS
100
AcDbLine
 10
1405.486632809513
 20
727.1194655800557
 30
0.0
 11
1405.486632809513
 21
728.5194655800556
 31
0.0
  0
LINE
  5
A3E2
330
1F
100
AcDbEntity
  8
AM_VIS
100
AcDbLine
 10
1445.745686494829
 20
715.6194655800558
 30
0.0
 11
1445.745686494829
 21
716.0694655800559
 31
0.0
  0
LINE
  5
A3E3
330
1F
100
AcDbEntity
  8
AM_VIS
100
AcDbLine
 10
1445.745686494829
 20
728.0694655800557
 30
0.0
 11
1445.745686494829
 21
728.5194655800558
 31
0.0
  0
LINE
  5
A3E4
330
1F
100
AcDbEntity
  8
AM_VIS
100
AcDbLine
 10
1405.486632809513
 20
727.1194655800557
 30
0.0
 11
1408.303407493168
 21
727.1194655800557
 31
0.0
  0
LINE
  5
A3E5
330
1F
100
AcDbEntity
  8
AM_VIS
100
AcDbLine
 10
1408.303407493168
 20
727.1194655800557
 30
0.0
 11
1410.389013545003
 21
727.1194655800557
 31
0.0
  0
LINE
  5
A3E6
330
1F
100
AcDbEntity
  8
AM_VIS
100
AcDbLine
 10
1413.259520075722
 20
727.1194655800557
 30
0.0
 11
1413.259520075722
 21
728.5194655800556
 31
0.0
  0
LINE
  5
A3E7
330
1F
100
AcDbEntity
  8
AM_VIS
100
AcDbLine
 10
1413.259520075722
 20
715.6194655800557
 30
0.0
 11
1413.259520075722
 21
717.0194655800557
 31
0.0
  0
LINE
  5
A3E8
330
1F
100
AcDbEntity
  8
AM_VIS
100
AcDbLine
 10
1408.303407493168
 20
715.6194655800557
 30
0.0
 11
1410.389013545003
 21
715.6194655800557
 31
0.0
  0
LINE
  5
A3E9
330
1F
100
AcDbEntity
  8
AM_VIS
100
AcDbLine
 10
1410.389013545003
 20
717.0194655800557
 30
0.0
 11
1408.303407493168
 21
717.0194655800557
 31
0.0
  0
LINE
  5
A3EA
330
1F
100
AcDbEntity
  8
AM_VIS
100
AcDbLine
 10
1408.303407493168
 20
715.6194655800557
 30
0.0
 11
1408.303407493168
 21
717.0194655800557
 31
0.0
  0
LINE
  5
A3EB
330
1F
100
AcDbEntity
  8
AM_VIS
100
AcDbLine
 10
1405.486632809513
 20
715.6194655800557
 30
0.0
 11
1408.303407493168
 21
715.6194655800557
 31
0.0
  0
LINE
  5
A3EC
330
1F
100
AcDbEntity
  8
AM_VIS
100
AcDbLine
 10
1405.486632809514
 20
715.6194655800557
 30
0.0
 11
1405.486632809514
 21
717.0194655800557
 31
0.0
  0
LINE
  5
A3ED
330
1F
100
AcDbEntity
  8
AM_VIS
100
AcDbLine
 10
1408.303407493168
 20
717.0194655800557
 30
0.0
 11
1405.486632809513
 21
717.0194655800557
 31
0.0
  0
LINE
  5
A3EE
330
1F
100
AcDbEntity
  8
AM_VIS
100
AcDbLine
 10
1412.73852258415
 20
717.0194655800557
 30
0.0
 11
1412.73852258415
 21
727.1194655800558
 31
0.0
  0
LINE
  5
A3EF
330
1F
100
AcDbEntity
  8
AM_VIS
100
AcDbLine
 10
1413.259520075722
 20
717.0194655800557
 30
0.0
 11
1413.259520075722
 21
727.1194655800557
 31
0.0
  0
LINE
  5
A3F0
330
1F
100
AcDbEntity
  8
AM_VIS
100
AcDbLine
 10
1398.026194128415
 20
727.1194655800557
 30
0.0
 11
1398.026194128415
 21
728.5194655800556
 31
0.0
  0
LINE
  5
A3F1
330
1F
100
AcDbEntity
  8
AM_VIS
100
AcDbLine
 10
1398.026194128415
 20
715.6194655800557
 30
0.0
 11
1398.026194128415
 21
717.0194655800557
 31
0.0
  0
LINE
  5
A3F2
330
1F
100
AcDbEntity
  8
AM_VIS
100
AcDbLine
 10
1398.026194128415
 20
728.5194655800556
 30
0.0
 11
1405.486632809513
 21
728.5194655800556
 31
0.0
  0
LINE
  5
A3F3
330
1F
100
AcDbEntity
  8
AM_VIS
100
AcDbLine
 10
1405.486632809514
 20
715.6194655800557
 30
0.0
 11
1398.026194128415
 21
715.6194655800557
 31
0.0
  0
LINE
  5
A3F4
330
1F
100
AcDbEntity
  8
AM_VIS
100
AcDbLine
 10
1398.026194128415
 20
717.0194655800557
 30
0.0
 11
1405.486632809514
 21
717.0194655800557
 31
0.0
  0
LINE
  5
A3F5
330
1F
100
AcDbEntity
  8
AM_VIS
100
AcDbLine
 10
1405.486632809513
 20
727.1194655800557
 30
0.0
 11
1398.026194128415
 21
727.1194655800557
 31
0.0
  0
LINE
  5
A3F6
330
1F
100
AcDbEntity
  8
AM_VIS
100
AcDbLine
 10
1413.259520075722
 20
728.5194655800556
 30
0.0
 11
1410.389013545003
 21
728.5194655800556
 31
0.0
  0
LINE
  5
A3F7
330
1F
100
AcDbEntity
  8
AM_VIS
100
AcDbLine
 10
1410.389013545003
 20
727.1194655800557
 30
0.0
 11
1413.259520075722
 21
727.1194655800557
 31
0.0
  0
LINE
  5
A3F8
330
1F
100
AcDbEntity
  8
AM_VIS
100
AcDbLine
 10
1410.389013545003
 20
715.6194655800557
 30
0.0
 11
1413.259520075722
 21
715.6194655800557
 31
0.0
  0
LINE
  5
A3F9
330
1F
100
AcDbEntity
  8
AM_VIS
100
AcDbLine
 10
1413.259520075722
 20
717.0194655800557
 30
0.0
 11
1410.389013545003
 21
717.0194655800557
 31
0.0
  0
LINE
  5
A3FA
330
1F
100
AcDbEntity
  8
AM_VIS
100
AcDbLine
 10
1439.787125685057
 20
730.1194655800558
 30
0.0
 11
1407.523404517947
 21
730.1194655800558
 31
0.0
  0
LINE
  5
A3FB
330
1F
100
AcDbEntity
  8
AM_VIS
100
AcDbLine
 10
1405.027822767282
 20
730.1194655800558
 30
0.0
 11
1405.027822767282
 21
728.7194655800558
 31
0.0
  0
LINE
  5
A3FC
330
1F
100
AcDbEntity
  8
AM_VIS
100
AcDbLine
 10
1445.627822767282
 20
716.0694655800557
 30
0.0
 11
1447.027822767282
 21
716.0694655800557
 31
0.0
  0
LINE
  5
A3FD
330
1F
100
AcDbEntity
  8
AM_VIS
100
AcDbLine
 10
1447.027822767282
 20
716.0694655800557
 30
0.0
 11
1447.027822767282
 21
728.0694655800557
 31
0.0
  0
LINE
  5
A3FE
330
1F
100
AcDbEntity
  8
AM_VIS
100
AcDbLine
 10
1445.627822767282
 20
728.0694655800557
 30
0.0
 11
1445.627822767282
 21
716.0694655800557
 31
0.0
  0
LINE
  5
A3FF
330
1F
100
AcDbEntity
  8
AM_VIS
100
AcDbLine
 10
1405.027822767282
 20
715.4194655800558
 30
0.0
 11
1405.027822767282
 21
714.0194655800558
 31
0.0
  0
LINE
  5
A400
330
1F
100
AcDbEntity
  8
AM_VIS
100
AcDbLine
 10
1407.523404517947
 20
714.0194655800558
 30
0.0
 11
1439.787125685057
 21
714.0194655800558
 31
0.0
  0
LINE
  5
A401
330
1F
100
AcDbEntity
  8
AM_VIS
100
AcDbLine
 10
1447.027822767282
 20
728.0694655800557
 30
0.0
 11
1445.627822767282
 21
728.0694655800557
 31
0.0
  0
LINE
  5
A402
330
1F
100
AcDbEntity
  8
AM_VIS
100
AcDbLine
 10
1407.523404517947
 20
728.7194655800557
 30
0.0
 11
1439.787125685057
 21
728.7194655800557
 31
0.0
  0
LINE
  5
A403
330
1F
100
AcDbEntity
  8
AM_VIS
100
AcDbLine
 10
1442.594469272814
 20
715.6194655800558
 30
0.0
 11
1442.594469272814
 21
715.4194655800558
 31
0.0
  0
LINE
  5
A404
330
1F
100
AcDbEntity
  8
AM_VIS
100
AcDbLine
 10
1405.027822767282
 20
715.4194655800558
 30
0.0
 11
1405.027822767282
 21
715.6194655800557
 31
0.0
  0
LINE
  5
A405
330
1F
100
AcDbEntity
  8
AM_VIS
100
AcDbLine
 10
1405.027822767282
 20
717.0194655800557
 30
0.0
 11
1405.027822767282
 21
718.0694655800557
 31
0.0
  0
LINE
  5
A406
330
1F
100
AcDbEntity
  8
AM_VIS
100
AcDbLine
 10
1405.027822767282
 20
725.8694655800557
 30
0.0
 11
1405.027822767282
 21
727.1194655800557
 31
0.0
  0
LINE
  5
A407
330
1F
100
AcDbEntity
  8
AM_VIS
100
AcDbLine
 10
1405.027822767282
 20
728.5194655800556
 30
0.0
 11
1405.027822767282
 21
728.7194655800558
 31
0.0
  0
LINE
  5
A408
330
1F
100
AcDbEntity
  8
AM_VIS
100
AcDbLine
 10
1442.594469272814
 20
728.7194655800557
 30
0.0
 11
1442.594469272814
 21
728.5194655800558
 31
0.0
  0
LINE
  5
A409
330
1F
100
AcDbEntity
  8
AM_VIS
100
AcDbLine
 10
1439.787125685057
 20
715.4194655800558
 30
0.0
 11
1407.523404517947
 21
715.4194655800558
 31
0.0
  0
LINE
  5
A40A
330
1F
100
AcDbEntity
  8
AM_VIS
100
AcDbLine
 10
1445.627822767282
 20
728.7194655800557
 30
0.0
 11
1445.627822767282
 21
730.1194655800558
 31
0.0
  0
LINE
  5
A40B
330
1F
100
AcDbEntity
  8
AM_VIS
100
AcDbLine
 10
1445.627822767282
 20
714.0194655800557
 30
0.0
 11
1445.627822767282
 21
715.4194655800558
 31
0.0
  0
LINE
  5
A40C
330
1F
100
AcDbEntity
  8
AM_VIS
100
AcDbLine
 10
1439.787125685057
 20
730.1194655800558
 30
0.0
 11
1445.627822767282
 21
730.1194655800558
 31
0.0
  0
LINE
  5
A40D
330
1F
100
AcDbEntity
  8
AM_VIS
100
AcDbLine
 10
1405.027822767282
 20
730.1194655800558
 30
0.0
 11
1407.523404517947
 21
730.1194655800558
 31
0.0
  0
LINE
  5
A40E
330
1F
100
AcDbEntity
  8
AM_VIS
100
AcDbLine
 10
1407.523404517947
 20
714.0194655800558
 30
0.0
 11
1405.027822767282
 21
714.0194655800558
 31
0.0
  0
LINE
  5
A40F
330
1F
100
AcDbEntity
  8
AM_VIS
100
AcDbLine
 10
1445.627822767282
 20
714.0194655800558
 30
0.0
 11
1439.787125685057
 21
714.0194655800558
 31
0.0
  0
LINE
  5
A410
330
1F
100
AcDbEntity
  8
AM_VIS
100
AcDbLine
 10
1407.523404517947
 20
728.7194655800557
 30
0.0
 11
1405.027822767282
 21
728.7194655800557
 31
0.0
  0
LINE
  5
A411
330
1F
100
AcDbEntity
  8
AM_VIS
100
AcDbLine
 10
1445.627822767282
 20
728.7194655800557
 30
0.0
 11
1439.787125685057
 21
728.7194655800557
 31
0.0
  0
LINE
  5
A412
330
1F
100
AcDbEntity
  8
AM_VIS
100
AcDbLine
 10
1405.027822767282
 20
715.4194655800558
 30
0.0
 11
1407.523404517947
 21
715.4194655800558
 31
0.0
  0
LINE
  5
A413
330
1F
100
AcDbEntity
  8
AM_VIS
100
AcDbLine
 10
1439.787125685057
 20
715.4194655800558
 30
0.0
 11
1445.627822767282
 21
715.4194655800558
 31
0.0
  0
LINE
  5
A414
330
1F
100
AcDbEntity
  8
AM_VIS
100
AcDbLine
 10
1431.716322767282
 20
730.5694655800557
 30
0.0
 11
1432.027822767282
 21
730.5694655800557
 31
0.0
  0
LINE
  5
A415
330
1F
100
AcDbEntity
  8
AM_VIS
100
AcDbLine
 10
1432.027822767282
 20
730.5694655800557
 30
0.0
 11
1432.339322767282
 21
730.5694655800557
 31
0.0
  0
LINE
  5
A416
330
1F
100
AcDbEntity
  8
AM_VIS
100
AcDbLine
 10
1432.027822767282
 20
730.5694655800557
 30
0.0
 11
1431.716322767281
 21
730.8809655800563
 31
0.0
  0
LINE
  5
A417
330
1F
100
AcDbEntity
  8
AM_VIS
100
AcDbLine
 10
1431.716322767283
 20
730.2579655800565
 30
0.0
 11
1432.027822767282
 21
730.5694655800558
 31
0.0
  0
LINE
  5
A418
330
1F
100
AcDbEntity
  8
AM_VIS
100
AcDbLine
 10
1431.716322767282
 20
730.8809655800577
 30
0.0
 11
1431.716322767282
 21
730.2579655800577
 31
0.0
  0
LINE
  5
A419
330
1F
100
AcDbEntity
  8
AM_VIS
100
AcDbLine
 10
1432.339322767282
 20
730.2579655800577
 30
0.0
 11
1431.716322767282
 21
730.2579655800577
 31
0.0
  0
LINE
  5
A41A
330
1F
100
AcDbEntity
  8
AM_VIS
100
AcDbLine
 10
1432.027822767282
 20
730.8809655800577
 30
0.0
 11
1432.027822767282
 21
730.5694655800557
 31
0.0
  0
LINE
  5
A41B
330
1F
100
AcDbEntity
  8
AM_VIS
100
AcDbLine
 10
1432.339322767283
 20
730.8809655800565
 30
0.0
 11
1432.027822767282
 21
730.5694655800558
 31
0.0
  0
LINE
  5
A41C
330
1F
100
AcDbEntity
  8
AM_VIS
100
AcDbLine
 10
1432.339322767282
 20
730.2579655800577
 30
0.0
 11
1432.339322767282
 21
730.8809655800577
 31
0.0
  0
LINE
  5
A41D
330
1F
100
AcDbEntity
  8
AM_VIS
100
AcDbLine
 10
1432.027822767282
 20
730.5694655800557
 30
0.0
 11
1432.027822767282
 21
730.2579655800577
 31
0.0
  0
LINE
  5
A41E
330
1F
100
AcDbEntity
  8
AM_VIS
100
AcDbLine
 10
1432.027822767282
 20
730.5694655800557
 30
0.0
 11
1432.339322767281
 21
730.2579655800565
 31
0.0
  0
LINE
  5
A41F
330
1F
100
AcDbEntity
  8
AM_VIS
100
AcDbLine
 10
1431.716322767282
 20
730.8809655800577
 30
0.0
 11
1432.339322767282
 21
730.8809655800577
 31
0.0
  0
ARC
  5
A420
330
1F
100
AcDbEntity
  8
AM_VIS
100
AcDbCircle
 10
1432.027822767282
 20
730.5694655800557
 30
0.0
 40
4.000000000000028
100
AcDbArc
 50
0.0
 51
180.0
  0
LINE
  5
A421
330
1F
100
AcDbEntity
  8
AM_VIS
100
AcDbLine
 10
1432.339322767282
 20
730.8809655800577
 30
0.0
 11
1432.339322767282
 21
732.863668399689
 31
0.0
  0
ELLIPSE
  5
A422
330
1F
100
AcDbEntity
  8
AM_VIS
100
AcDbEllipse
 10
1432.027822767282
 20
728.6788282824856
 30
0.0
 11
-5.924134808644344
 21
-0.0000000000000019
 31
0.0
210
0.0
220
0.0
230
1.0
 40
0.7073838514706496
 41
4.659783202666909
 42
4.764994758102488
  0
LINE
  5
A423
330
1F
100
AcDbEntity
  8
AM_VIS
100
AcDbLine
 10
1431.716322767282
 20
732.863668399689
 30
0.0
 11
1431.716322767282
 21
730.8809655800577
 31
0.0
  0
LINE
  5
A424
330
1F
100
AcDbEntity
  8
AM_VIS
100
AcDbLine
 10
1431.716322767282
 20
730.2579655800577
 30
0.0
 11
1431.716322767282
 21
730.1194655800558
 31
0.0
  0
LINE
  5
A425
330
1F
100
AcDbEntity
  8
AM_VIS
100
AcDbLine
 10
1432.339322767282
 20
730.1194655800558
 30
0.0
 11
1432.339322767282
 21
730.2579655800577
 31
0.0
  0
LINE
  5
A426
330
1F
100
AcDbEntity
  8
AM_VIS
100
AcDbLine
 10
1434.322025586915
 20
730.8809655800577
 30
0.0
 11
1432.339322767282
 21
730.8809655800577
 31
0.0
  0
ELLIPSE
  5
A427
330
1F
100
AcDbEntity
  8
AM_VIS
100
AcDbEllipse
 10
1433.918460064852
 20
730.5694655800557
 30
0.0
 11
0.0000000000000006
 21
-5.924134808644345
 31
0.0
210
0.0
220
0.0
230
1.0
 40
0.7073838514706435
 41
4.659783202666565
 42
4.764994758102142
  0
LINE
  5
A428
330
1F
100
AcDbEntity
  8
AM_VIS
100
AcDbLine
 10
1432.339322767282
 20
730.2579655800577
 30
0.0
 11
1434.322025586915
 21
730.2579655800577
 31
0.0
  0
LINE
  5
A429
330
1F
100
AcDbEntity
  8
AM_VIS
100
AcDbLine
 10
1429.733619947649
 20
730.2579655800577
 30
0.0
 11
1431.716322767282
 21
730.2579655800577
 31
0.0
  0
ELLIPSE
  5
A42A
330
1F
100
AcDbEntity
  8
AM_VIS
100
AcDbEllipse
 10
1430.137185469711
 20
730.5694655800557
 30
0.0
 11
-0.0000000000000032
 21
5.924134808644347
 31
0.0
210
0.0
220
0.0
230
1.0
 40
0.7073838514706531
 41
4.659783202667237
 42
4.764994758102814
  0
LINE
  5
A42B
330
1F
100
AcDbEntity
  8
AM_VIS
100
AcDbLine
 10
1431.716322767282
 20
730.8809655800577
 30
0.0
 11
1429.733619947649
 21
730.8809655800577
 31
0.0
  0
LINE
  5
A42C
330
1F
100
AcDbEntity
  8
AM_VIS
100
AcDbLine
 10
1408.716322767282
 20
713.5694655800557
 30
0.0
 11
1409.027822767282
 21
713.5694655800557
 31
0.0
  0
LINE
  5
A42D
330
1F
100
AcDbEntity
  8
AM_VIS
100
AcDbLine
 10
1409.027822767282
 20
713.5694655800557
 30
0.0
 11
1409.339322767282
 21
713.5694655800557
 31
0.0
  0
LINE
  5
A42E
330
1F
100
AcDbEntity
  8
AM_VIS
100
AcDbLine
 10
1409.027822767282
 20
713.5694655800557
 30
0.0
 11
1408.716322767281
 21
713.8809655800563
 31
0.0
  0
LINE
  5
A42F
330
1F
100
AcDbEntity
  8
AM_VIS
100
AcDbLine
 10
1408.716322767283
 20
713.2579655800563
 30
0.0
 11
1409.027822767282
 21
713.5694655800557
 31
0.0
  0
LINE
  5
A430
330
1F
100
AcDbEntity
  8
AM_VIS
100
AcDbLine
 10
1408.716322767282
 20
713.8809655800577
 30
0.0
 11
1408.716322767282
 21
713.2579655800578
 31
0.0
  0
LINE
  5
A431
330
1F
100
AcDbEntity
  8
AM_VIS
100
AcDbLine
 10
1409.339322767282
 20
713.2579655800576
 30
0.0
 11
1408.716322767282
 21
713.2579655800576
 31
0.0
  0
LINE
  5
A432
330
1F
100
AcDbEntity
  8
AM_VIS
100
AcDbLine
 10
1409.027822767282
 20
713.8809655800577
 30
0.0
 11
1409.027822767282
 21
713.5694655800557
 31
0.0
  0
LINE
  5
A433
330
1F
100
AcDbEntity
  8
AM_VIS
100
AcDbLine
 10
1409.339322767283
 20
713.8809655800564
 30
0.0
 11
1409.027822767282
 21
713.5694655800557
 31
0.0
  0
LINE
  5
A434
330
1F
100
AcDbEntity
  8
AM_VIS
100
AcDbLine
 10
1409.339322767282
 20
713.2579655800578
 30
0.0
 11
1409.339322767282
 21
713.8809655800577
 31
0.0
  0
LINE
  5
A435
330
1F
100
AcDbEntity
  8
AM_VIS
100
AcDbLine
 10
1409.027822767282
 20
713.5694655800557
 30
0.0
 11
1409.027822767282
 21
713.2579655800576
 31
0.0
  0
LINE
  5
A436
330
1F
100
AcDbEntity
  8
AM_VIS
100
AcDbLine
 10
1409.027822767282
 20
713.5694655800557
 30
0.0
 11
1409.339322767281
 21
713.2579655800563
 31
0.0
  0
LINE
  5
A437
330
1F
100
AcDbEntity
  8
AM_VIS
100
AcDbLine
 10
1408.716322767282
 20
713.8809655800577
 30
0.0
 11
1409.339322767282
 21
713.8809655800577
 31
0.0
  0
ARC
  5
A438
330
1F
100
AcDbEntity
  8
AM_VIS
100
AcDbCircle
 10
1409.027822767282
 20
713.5694655800557
 30
0.0
 40
4.000000000000028
100
AcDbArc
 50
173.5405502226476
 51
0.0
  0
LINE
  5
A439
330
1F
100
AcDbEntity
  8
AM_VIS
100
AcDbLine
 10
1409.339322767282
 20
713.8809655800577
 30
0.0
 11
1409.339322767282
 21
714.0194655800558
 31
0.0
  0
LINE
  5
A43A
330
1F
100
AcDbEntity
  8
AM_VIS
100
AcDbLine
 10
1408.716322767282
 20
714.0194655800558
 30
0.0
 11
1408.716322767282
 21
713.8809655800577
 31
0.0
  0
LINE
  5
A43B
330
1F
100
AcDbEntity
  8
AM_VIS
100
AcDbLine
 10
1408.716322767282
 20
713.2579655800576
 30
0.0
 11
1408.716322767282
 21
711.2752627604225
 31
0.0
  0
ELLIPSE
  5
A43C
330
1F
100
AcDbEntity
  8
AM_VIS
100
AcDbEllipse
 10
1409.027822767282
 20
715.4601028776259
 30
0.0
 11
5.924134808644344
 21
0.0000000000000019
 31
0.0
210
0.0
220
0.0
230
1.0
 40
0.7073838514706502
 41
4.65978320266689
 42
4.764994758102469
  0
LINE
  5
A43D
330
1F
100
AcDbEntity
  8
AM_VIS
100
AcDbLine
 10
1409.339322767282
 20
711.2752627604225
 30
0.0
 11
1409.339322767282
 21
713.2579655800576
 31
0.0
  0
LINE
  5
A43E
330
1F
100
AcDbEntity
  8
AM_VIS
100
AcDbLine
 10
1411.322025586915
 20
713.8809655800577
 30
0.0
 11
1409.339322767282
 21
713.8809655800577
 31
0.0
  0
ELLIPSE
  5
A43F
330
1F
100
AcDbEntity
  8
AM_VIS
100
AcDbEllipse
 10
1410.918460064852
 20
713.5694655800557
 30
0.0
 11
0.0000000000000006
 21
-5.924134808644345
 31
0.0
210
0.0
220
0.0
230
1.0
 40
0.7073838514706435
 41
4.659783202666565
 42
4.764994758102142
  0
LINE
  5
A440
330
1F
100
AcDbEntity
  8
AM_VIS
100
AcDbLine
 10
1409.339322767282
 20
713.2579655800576
 30
0.0
 11
1411.322025586915
 21
713.2579655800576
 31
0.0
  0
LINE
  5
A441
330
1F
100
AcDbEntity
  8
AM_VIS
100
AcDbLine
 10
1406.733619947648
 20
713.2579655800576
 30
0.0
 11
1408.716322767282
 21
713.2579655800576
 31
0.0
  0
ELLIPSE
  5
A442
330
1F
100
AcDbEntity
  8
AM_VIS
100
AcDbEllipse
 10
1407.137185469712
 20
713.5694655800557
 30
0.0
 11
-0.0000000000000032
 21
5.924134808644347
 31
0.0
210
0.0
220
0.0
230
1.0
 40
0.7073838514706531
 41
4.659783202667237
 42
4.764994758102814
  0
LINE
  5
A443
330
1F
100
AcDbEntity
  8
AM_VIS
100
AcDbLine
 10
1408.716322767282
 20
713.8809655800577
 30
0.0
 11
1406.733619947649
 21
713.8809655800577
 31
0.0
  0
LINE
  5
A444
330
1F
100
AcDbEntity
  8
AM_VIS
100
AcDbLine
 10
1413.027822767282
 20
708.9194655800557
 30
0.0
 11
1405.377822767282
 21
708.9194655800557
 31
0.0
  0
LINE
  5
A445
330
1F
100
AcDbEntity
  8
AM_VIS
100
AcDbLine
 10
1404.377822767282
 20
709.9194655800557
 30
0.0
 11
1404.377822767282
 21
715.6194655800557
 31
0.0
  0
LINE
  5
A446
330
1F
100
AcDbEntity
  8
AM_VIS
100
AcDbLine
 10
1404.377822767282
 20
717.0194655800557
 30
0.0
 11
1404.377822767282
 21
717.5694655800557
 31
0.0
  0
LINE
  5
A447
330
1F
100
AcDbEntity
  8
AM_VIS
100
AcDbLine
 10
1428.027822767282
 20
735.2194655800557
 30
0.0
 11
1436.027822767282
 21
735.2194655800557
 31
0.0
  0
LINE
  5
A448
330
1F
100
AcDbEntity
  8
AM_VIS
100
AcDbLine
 10
1439.677822767282
 20
734.2194655800557
 30
0.0
 11
1439.677822767282
 21
731.1194655800558
 31
0.0
  0
LINE
  5
A449
330
1F
100
AcDbEntity
  8
AM_VIS
100
AcDbLine
 10
1439.677822767282
 20
712.6194655800558
 30
0.0
 11
1439.677822767282
 21
709.9194655800557
 31
0.0
  0
LINE
  5
A44A
330
1F
100
AcDbEntity
  8
AM_VIS
100
AcDbLine
 10
1438.677822767282
 20
708.9194655800557
 30
0.0
 11
1413.027822767282
 21
708.9194655800557
 31
0.0
  0
LINE
  5
A44B
330
1F
100
AcDbEntity
  8
AM_VIS
100
AcDbLine
 10
1413.027822767282
 20
713.5694655800558
 30
0.0
 11
1413.027822767282
 21
708.9194655800557
 31
0.0
  0
LINE
  5
A44C
330
1F
100
AcDbEntity
  8
AM_VIS
100
AcDbLine
 10
1404.526194128415
 20
717.5694655800557
 30
0.0
 11
1405.027822767282
 21
717.5694655800557
 31
0.0
  0
LINE
  5
A44D
330
1F
100
AcDbEntity
  8
AM_VIS
100
AcDbLine
 10
1404.377822767282
 20
726.3694655800557
 30
0.0
 11
1404.377822767282
 21
727.1194655800557
 31
0.0
  0
LINE
  5
A44E
330
1F
100
AcDbEntity
  8
AM_VIS
100
AcDbLine
 10
1404.377822767282
 20
729.5194655800557
 30
0.0
 11
1404.377822767282
 21
734.2194655800557
 31
0.0
  0
LINE
  5
A44F
330
1F
100
AcDbEntity
  8
AM_VIS
100
AcDbLine
 10
1405.377822767282
 20
735.2194655800557
 30
0.0
 11
1428.027822767282
 21
735.2194655800557
 31
0.0
  0
LINE
  5
A450
330
1F
100
AcDbEntity
  8
AM_VIS
100
AcDbLine
 10
1428.027822767282
 20
730.5694655800557
 30
0.0
 11
1428.027822767282
 21
735.2194655800557
 31
0.0
  0
LINE
  5
A451
330
1F
100
AcDbEntity
  8
AM_VIS
100
AcDbLine
 10
1436.027822767282
 20
735.2194655800557
 30
0.0
 11
1436.027822767282
 21
730.5694655800557
 31
0.0
  0
LINE
  5
A452
330
1F
100
AcDbEntity
  8
AM_VIS
100
AcDbLine
 10
1436.027822767282
 20
735.2194655800557
 30
0.0
 11
1438.677822767282
 21
735.2194655800557
 31
0.0
  0
ARC
  5
A453
330
1F
100
AcDbEntity
  8
AM_VIS
100
AcDbCircle
 10
1405.377822767282
 20
709.9194655800557
 30
0.0
 40
0.9999999999999998
100
AcDbArc
 50
180.0
 51
270.0
  0
ARC
  5
A454
330
1F
100
AcDbEntity
  8
AM_VIS
100
AcDbCircle
 10
1438.677822767282
 20
709.9194655800557
 30
0.0
 40
0.9999999999999998
100
AcDbArc
 50
270.0
 51
0.0
  0
ARC
  5
A455
330
1F
100
AcDbEntity
  8
AM_VIS
100
AcDbCircle
 10
1409.027822767282
 20
713.5694655800557
 30
0.0
 40
4.0
100
AcDbArc
 50
0.0
 51
6.459449777352326
  0
ARC
  5
A456
330
1F
100
AcDbEntity
  8
AM_VIS
100
AcDbCircle
 10
1405.377822767282
 20
734.2194655800557
 30
0.0
 40
0.9999999999999998
100
AcDbArc
 50
90.0
 51
180.0
  0
ARC
  5
A457
330
1F
100
AcDbEntity
  8
AM_VIS
100
AcDbCircle
 10
1432.027822767282
 20
730.5694655800557
 30
0.0
 40
4.0
100
AcDbArc
 50
353.5405502226477
 51
0.0
  0
ARC
  5
A458
330
1F
100
AcDbEntity
  8
AM_VIS
100
AcDbCircle
 10
1432.027822767282
 20
730.5694655800557
 30
0.0
 40
4.0
100
AcDbArc
 50
180.0
 51
186.4594497773523
  0
ARC
  5
A459
330
1F
100
AcDbEntity
  8
AM_VIS
100
AcDbCircle
 10
1438.677822767282
 20
734.2194655800557
 30
0.0
 40
0.9999999999999998
100
AcDbArc
 50
0.0
 51
90.0
  0
LINE
  5
A45A
330
1F
100
AcDbEntity
  8
AM_VIS
100
AcDbLine
 10
1404.377822767282
 20
708.8694655800558
 30
0.0
 11
1404.377822767282
 21
709.9194655800557
 31
0.0
  0
LINE
  5
A45B
330
1F
100
AcDbEntity
  8
AM_VIS
100
AcDbLine
 10
1404.377822767282
 20
734.2194655800557
 30
0.0
 11
1404.377822767282
 21
735.2694655800558
 31
0.0
  0
LINE
  5
A45C
330
1F
100
AcDbEntity
  8
AM_VIS
100
AcDbLine
 10
1439.677822767282
 20
735.2694655800558
 30
0.0
 11
1439.677822767282
 21
734.2194655800557
 31
0.0
  0
LINE
  5
A45D
330
1F
100
AcDbEntity
  8
AM_VIS
100
AcDbLine
 10
1439.677822767282
 20
709.9194655800557
 30
0.0
 11
1439.677822767282
 21
708.8694655800558
 31
0.0
  0
LINE
  5
A45E
330
1F
100
AcDbEntity
  8
AM_VIS
100
AcDbLine
 10
1404.377822767282
 20
735.2694655800558
 30
0.0
 11
1439.677822767282
 21
735.2694655800558
 31
0.0
  0
LINE
  5
A45F
330
1F
100
AcDbEntity
  8
AM_VIS
100
AcDbLine
 10
1439.677822767282
 20
708.8694655800558
 30
0.0
 11
1404.377822767282
 21
708.8694655800558
 31
0.0
  0
LINE
  5
A460
330
1F
100
AcDbEntity
  8
AM_7
100
AcDbLine
 10
1489.525088670535
 20
623.8046868233042
 30
0.0
 11
1489.525088670535
 21
632.0046868233042
 31
0.0
1001
GENIUS_GENOREF_13
1005
A47E
  0
LINE
  5
A461
330
1F
100
AcDbEntity
  8
AM_7
100
AcDbLine
 10
1489.525088670535
 20
623.8046868233042
 30
0.0
 11
1481.325088670534
 21
623.8046868233042
 31
0.0
1001
GENIUS_GENOREF_13
1005
A47E
  0
LINE
  5
A462
330
1F
100
AcDbEntity
  8
AM_7
100
AcDbLine
 10
1489.525088670535
 20
623.8046868233042
 30
0.0
 11
1489.525088670535
 21
615.6046868233044
 31
0.0
1001
GENIUS_GENOREF_13
1005
A47E
  0
LINE
  5
A463
330
1F
100
AcDbEntity
  8
AM_7
100
AcDbLine
 10
1489.525088670535
 20
623.8046868233042
 30
0.0
 11
1497.725088670535
 21
623.8046868233042
 31
0.0
1001
GENIUS_GENOREF_13
1005
A47E
  0
LINE
  5
A464
330
1F
100
AcDbEntity
  8
AM_7
100
AcDbLine
 10
1489.525088670535
 20
600.8046868233042
 30
0.0
 11
1489.525088670535
 21
609.0046868233042
 31
0.0
1001
GENIUS_GENOREF_13
1005
A47D
  0
LINE
  5
A465
330
1F
100
AcDbEntity
  8
AM_7
100
AcDbLine
 10
1489.525088670535
 20
600.8046868233042
 30
0.0
 11
1481.325088670534
 21
600.8046868233042
 31
0.0
1001
GENIUS_GENOREF_13
1005
A47D
  0
LINE
  5
A466
330
1F
100
AcDbEntity
  8
AM_7
100
AcDbLine
 10
1489.525088670535
 20
600.8046868233042
 30
0.0
 11
1489.525088670535
 21
592.6046868233044
 31
0.0
1001
GENIUS_GENOREF_13
1005
A47D
  0
LINE
  5
A467
330
1F
100
AcDbEntity
  8
AM_7
100
AcDbLine
 10
1489.525088670535
 20
600.8046868233042
 30
0.0
 11
1497.725088670535
 21
600.8046868233042
 31
0.0
1001
GENIUS_GENOREF_13
1005
A47D
  0
LINE
  5
A468
330
1F
100
AcDbEntity
  8
AM_7
  6
AM_ISO08W050x2
100
AcDbLine
 10
1480.025088670535
 20
607.3046868233042
 30
0.0
 11
1480.025088670535
 21
612.8046868233042
 31
0.0
1001
GENIUS_GENOREF_13
1005
A47C
  0
LINE
  5
A469
330
1F
100
AcDbEntity
  8
AM_7
  6
AM_ISO08W050x2
100
AcDbLine
 10
1480.025088670535
 20
607.3046868233042
 30
0.0
 11
1474.525088670535
 21
607.3046868233042
 31
0.0
1001
GENIUS_GENOREF_13
1005
A47C
  0
LINE
  5
A46A
330
1F
100
AcDbEntity
  8
AM_7
  6
AM_ISO08W050x2
100
AcDbLine
 10
1480.025088670535
 20
607.3046868233042
 30
0.0
 11
1480.025088670535
 21
601.8046868233042
 31
0.0
1001
GENIUS_GENOREF_13
1005
A47C
  0
LINE
  5
A46B
330
1F
100
AcDbEntity
  8
AM_7
  6
AM_ISO08W050x2
100
AcDbLine
 10
1480.025088670535
 20
607.3046868233042
 30
0.0
 11
1485.525088670535
 21
607.3046868233042
 31
0.0
1001
GENIUS_GENOREF_13
1005
A47C
  0
LINE
  5
A46C
330
1F
100
AcDbEntity
  8
AM_7
  6
AM_ISO08W050x2
100
AcDbLine
 10
1499.025088670535
 20
617.3046868233042
 30
0.0
 11
1499.025088670535
 21
622.8046868233042
 31
0.0
1001
GENIUS_GENOREF_13
1005
A47B
  0
LINE
  5
A46D
330
1F
100
AcDbEntity
  8
AM_7
  6
AM_ISO08W050x2
100
AcDbLine
 10
1499.025088670535
 20
617.3046868233042
 30
0.0
 11
1493.525088670535
 21
617.3046868233042
 31
0.0
1001
GENIUS_GENOREF_13
1005
A47B
  0
LINE
  5
A46E
330
1F
100
AcDbEntity
  8
AM_7
  6
AM_ISO08W050x2
100
AcDbLine
 10
1499.025088670535
 20
617.3046868233042
 30
0.0
 11
1499.025088670535
 21
611.8046868233042
 31
0.0
1001
GENIUS_GENOREF_13
1005
A47B
  0
LINE
  5
A46F
330
1F
100
AcDbEntity
  8
AM_7
  6
AM_ISO08W050x2
100
AcDbLine
 10
1499.025088670535
 20
617.3046868233042
 30
0.0
 11
1504.525088670535
 21
617.3046868233042
 31
0.0
1001
GENIUS_GENOREF_13
1005
A47B
  0
LINE
  5
A470
330
1F
100
AcDbEntity
  8
AM_7
100
AcDbLine
 10
1489.525088670534
 20
688.5454084734821
 30
0.0
 11
1489.525088670534
 21
578.0830235428348
 31
0.0
1001
GENIUS_GENOBJ-N-CEN_13
1002
{
1000
OWNER
1000
GEN
1002
}
1001
GENIUS_GENODEF_13
1002
{
1000
HIER
1070
     0
1002
}
1002
{
1000
MANEDIT
1070
     0
1002
}
1002
{
1000
NOSEL
1070
     0
1002
}
1002
{
1000
BEHIND
1070
     0
1002
}
1002
{
1000
OTHER
1070
     0
1002
}
1002
{
1000
REACTOR
1002
}
1001
GENIUS_GENCEN_19
1002
{
1040
1.5
1002
}
  0
DIMENSION
  5
A471
330
1F
100
AcDbEntity
  8
AM_5
100
AcDbDimension
  2
*D2
 10
1499.025088670535
 20
568.8046868233047
 30
0.0
 11
1489.525088670535
 21
571.7446868233047
 31
0.0
 70
    32
 71
     5
 42
19.0
  3
AM_ISO$0
100
AcDbAlignedDimension
 13
1480.025088670535
 23
601.8046868233042
 33
0.0
 14
1499.025088670535
 24
611.8046868233042
 34
0.0
 50
180.0
100
AcDbRotatedDimension
1001
ACAD
1000
DSTYLE
1002
{
1070
    40
1040
1.199999999999999
1070
   272
1070
     8
1002
}
  0
DIMENSION
  5
A472
330
1F
100
AcDbEntity
  8
AM_5
100
AcDbDimension
  2
*D3
 10
1502.725088670534
 20
558.8046868233046
 30
0.0
 11
1489.525088670534
 21
561.7451002091314
 31
0.0
 70
    32
 71
     5
 42
26.39999999999964
  3
AM_ISO$0
100
AcDbAlignedDimension
 13
1476.325088670534
 23
581.8046868233047
 33
0.0
 14
1502.725088670534
 24
581.8046868233047
 34
0.0
 50
180.0
100
AcDbRotatedDimension
1001
ACAD
1000
DSTYLE
1002
{
1070
    40
1040
1.199999999999999
1070
   272
1070
     8
1002
}
  0
DIMENSION
  5
A473
330
1F
100
AcDbEntity
  8
AM_5
100
AcDbDimension
  2
*D4
 10
1514.725088670535
 20
600.8046868233042
 30
0.0
 11
1511.784675284707
 21
590.8046868233046
 31
0.0
 70
    32
 71
     5
 42
19.99999999999954
  3
AM_ISO$0
100
AcDbAlignedDimension
 13
1501.725088670534
 23
580.8046868233047
 33
0.0
 14
1497.725088670535
 24
600.8046868233042
 34
0.0
 50
90.0
100
AcDbRotatedDimension
1001
ACAD
1000
DSTYLE
1002
{
1070
    40
1040
1.199999999999999
1070
   272
1070
     8
1002
}
  0
DIMENSION
  5
A474
330
1F
100
AcDbEntity
  8
AM_5
100
AcDbDimension
  2
*D5
 10
1514.725088670535
 20
623.8046868233042
 30
0.0
 11
1511.784675284707
 21
612.3046868233045
 31
0.0
 70
    32
 71
     5
 42
23.0
  3
AM_ISO$0
100
AcDbAlignedDimension
 13
1497.725088670535
 23
600.8046868233042
 33
0.0
 14
1497.725088670535
 24
623.8046868233042
 34
0.0
 50
90.0
100
AcDbRotatedDimension
1001
ACAD
1000
DSTYLE
1002
{
1070
    40
1040
1.199999999999999
1070
   272
1070
     8
1002
}
  0
DIMENSION
  5
A475
330
1F
100
AcDbEntity
  8
AM_5
100
AcDbDimension
  2
*D6
 10
1463.925088670535
 20
617.3046868233042
 30
0.0
 11
1460.985088670534
 21
612.3046868233045
 31
0.0
 70
    32
 71
     5
 42
10.0
  3
AM_ISO$0
100
AcDbAlignedDimension
 13
1474.525088670535
 23
607.3046868233042
 33
0.0
 14
1493.525088670535
 24
617.3046868233042
 34
0.0
 50
90.0
100
AcDbRotatedDimension
1001
ACAD
1000
DSTYLE
1002
{
1070
    40
1040
1.199999999999999
1070
   272
1070
     8
1002
}
  0
DIMENSION
  5
A476
330
1F
100
AcDbEntity
  8
AM_5
100
AcDbDimension
  2
*D7
 10
1463.925088670535
 20
607.3046868233042
 30
0.0
 11
1460.984675284707
 21
594.0546868233046
 31
0.0
 70
    32
 71
     5
 42
26.49999999999955
  3
AM_ISO$0
100
AcDbAlignedDimension
 13
1477.325088670534
 23
580.8046868233047
 33
0.0
 14
1474.525088670534
 24
607.3046868233042
 34
0.0
 50
90.0
100
AcDbRotatedDimension
1001
ACAD
1000
DSTYLE
1002
{
1070
    40
1040
1.199999999999999
1070
   272
1070
     8
1002
}
  0
TEXT
  5
A477
330
1F
100
AcDbEntity
  8
AM_5
100
AcDbText
 10
1511.9747285304
 20
635.286481426
 30
0.0
 40
4.199999999999999
  1
2-%%c4.5thru
100
AcDbText
  0
INSERT
  5
A478
330
1F
100
AcDbEntity
  8
AM_5
100
AcDbBlockReference
  2
*S21
 10
0.0
 20
0.0
 30
0.0
  0
TEXT
  5
A479
330
1F
100
AcDbEntity
  8
AM_5
100
AcDbText
 10
1511.987030714004
 20
645.3362199620269
 30
0.0
 40
4.199999999999999
  1
2-PT1/4
100
AcDbText
  0
INSERT
  5
A47A
330
1F
100
AcDbEntity
  8
AM_VIS
100
AcDbBlockReference
  2
*S22
 10
0.0
 20
0.0
 30
0.0
  0
POINT
  5
A47B
330
1F
100
AcDbEntity
  8
0
 60
     1
100
AcDbPoint
 10
527.467550965798
 20
-102.2719967597873
 30
0.0
1001
GENIUS_GENOBJ-N-CRS_13
1002
{
1000
OWNER
1000
GEN
1002
}
1001
GENIUS_GENOLIS_13
1002
{
1000
ENT
1005
A46F
1005
A46E
1005
A46D
1005
A46C
1002
}
1001
GENIUS_GENOENT_13
1002
{
1000
MYREF
1005
A47B
1002
}
1002
{
1000
GRP
1005
0
1002
}
1001
GENIUS_GENODEF_13
1002
{
1000
HIER
1070
    10
1002
}
1002
{
1000
MANEDIT
1070
     0
1002
}
1002
{
1000
NOSEL
1070
     0
1002
}
1002
{
1000
BEHIND
1070
     0
1002
}
1002
{
1000
OTHER
1070
     0
1002
}
1002
{
1000
REACTOR
1002
}
  0
POINT
  5
A47C
330
1F
100
AcDbEntity
  8
0
 60
     1
100
AcDbPoint
 10
527.467550965798
 20
-102.2719967597873
 30
0.0
1001
GENIUS_GENODEF_13
1002
{
1000
HIER
1070
    10
1002
}
1002
{
1000
MANEDIT
1070
     0
1002
}
1002
{
1000
NOSEL
1070
     0
1002
}
1002
{
1000
BEHIND
1070
     0
1002
}
1002
{
1000
OTHER
1070
     0
1002
}
1002
{
1000
REACTOR
1002
}
1001
GENIUS_GENOBJ-N-CRS_13
1002
{
1000
OWNER
1000
GEN
1002
}
1001
GENIUS_GENOLIS_13
1002
{
1000
ENT
1005
A46B
1005
A46A
1005
A469
1005
A468
1002
}
1001
GENIUS_GENOENT_13
1002
{
1000
MYREF
1005
A47C
1002
}
1002
{
1000
GRP
1005
0
1002
}
  0
POINT
  5
A47D
330
1F
100
AcDbEntity
  8
0
 60
     1
100
AcDbPoint
 10
527.467550965798
 20
-102.2719967597873
 30
0.0
1001
GENIUS_GENOLIS_13
1002
{
1000
ENT
1005
A467
1005
A466
1005
A465
1005
A464
1002
}
1001
GENIUS_GENOENT_13
1002
{
1000
MYREF
1005
A47D
1002
}
1002
{
1000
GRP
1005
0
1002
}
1001
GENIUS_GENOBJ-N-CRS_13
1002
{
1000
OWNER
1000
GEN
1002
}
1001
GENIUS_GENODEF_13
1002
{
1000
HIER
1070
    10
1002
}
1002
{
1000
MANEDIT
1070
     0
1002
}
1002
{
1000
NOSEL
1070
     0
1002
}
1002
{
1000
BEHIND
1070
     0
1002
}
1002
{
1000
OTHER
1070
     0
1002
}
1002
{
1000
REACTOR
1002
}
  0
POINT
  5
A47E
330
1F
100
AcDbEntity
  8
0
 60
     1
100
AcDbPoint
 10
527.467550965798
 20
-102.2719967597873
 30
0.0
1001
GENIUS_GENODEF_13
1002
{
1000
HIER
1070
    10
1002
}
1002
{
1000
MANEDIT
1070
     0
1002
}
1002
{
1000
NOSEL
1070
     0
1002
}
1002
{
1000
BEHIND
1070
     0
1002
}
1002
{
1000
OTHER
1070
     0
1002
}
1002
{
1000
REACTOR
1002
}
1001
GENIUS_GENOENT_13
1002
{
1000
MYREF
1005
A47E
1002
}
1002
{
1000
GRP
1005
0
1002
}
1001
GENIUS_GENOLIS_13
1002
{
1000
ENT
1005
A463
1005
A462
1005
A461
1005
A460
1002
}
1001
GENIUS_GENOBJ-N-CRS_13
1002
{
1000
OWNER
1000
GEN
1002
}
  0
LINE
  5
A4FD
330
1F
100
AcDbEntity
  8
AM_7
  6
AM_ISO08W050x2
100
AcDbLine
 10
1408.527822767281
 20
622.8046868233043
 30
0.0
 11
1412.277822767281
 21
622.8046868233043
 31
0.0
1001
GENIUS_GENOREF_13
1005
A51F
  0
LINE
  5
A4FE
330
1F
100
AcDbEntity
  8
AM_7
  6
AM_ISO08W050x2
100
AcDbLine
 10
1408.527822767281
 20
622.8046868233043
 30
0.0
 11
1408.527822767281
 21
626.5546868233043
 31
0.0
1001
GENIUS_GENOREF_13
1005
A51F
  0
LINE
  5
A4FF
102
{ACAD_REACTORS
330
A50A
102
}
330
1F
100
AcDbEntity
  8
AM_7
  6
AM_ISO08W050x2
100
AcDbLine
 10
1408.527822767281
 20
622.8046868233043
 30
0.0
 11
1404.777822767281
 21
622.8046868233043
 31
0.0
1001
GENIUS_GENOREF_13
1005
A51F
  0
LINE
  5
A500
330
1F
100
AcDbEntity
  8
AM_7
  6
AM_ISO08W050x2
100
AcDbLine
 10
1408.527822767281
 20
622.8046868233043
 30
0.0
 11
1408.527822767281
 21
619.0546868233043
 31
0.0
1001
GENIUS_GENOREF_13
1005
A51F
  0
LINE
  5
A501
330
1F
100
AcDbEntity
  8
AM_7
  6
AM_ISO08W050x2
100
AcDbLine
 10
1408.527822767281
 20
601.8046868233043
 30
0.0
 11
1412.277822767281
 21
601.8046868233043
 31
0.0
1001
GENIUS_GENOREF_13
1005
A51E
  0
LINE
  5
A502
330
1F
100
AcDbEntity
  8
AM_7
  6
AM_ISO08W050x2
100
AcDbLine
 10
1408.527822767281
 20
601.8046868233043
 30
0.0
 11
1408.527822767281
 21
605.5546868233043
 31
0.0
1001
GENIUS_GENOREF_13
1005
A51E
  0
LINE
  5
A503
102
{ACAD_REACTORS
330
A507
330
A50A
102
}
330
1F
100
AcDbEntity
  8
AM_7
  6
AM_ISO08W050x2
100
AcDbLine
 10
1408.527822767281
 20
601.8046868233043
 30
0.0
 11
1404.777822767281
 21
601.8046868233043
 31
0.0
1001
GENIUS_GENOREF_13
1005
A51E
  0
LINE
  5
A504
102
{ACAD_REACTORS
330
A510
102
}
330
1F
100
AcDbEntity
  8
AM_7
  6
AM_ISO08W050x2
100
AcDbLine
 10
1408.527822767281
 20
601.8046868233043
 30
0.0
 11
1408.527822767281
 21
598.0546868233043
 31
0.0
1001
GENIUS_GENOREF_13
1005
A51E
  0
DIMENSION
  5
A505
102
{ACAD_XDICTIONARY
360
A506
102
}
102
{ACAD_REACTORS
330
A507
102
}
330
1F
100
AcDbEntity
  8
AM_5
100
AcDbDimension
  2
*D9
 10
1392.377822767281
 20
601.8046868233043
 30
0.0
 11
1389.437409381454
 21
591.3046868233046
 31
0.0
 70
    32
 71
     5
 42
20.99999999999988
  3
AM_ISO$0
100
AcDbAlignedDimension
 13
1405.377822767281
 23
580.8046868233044
 33
0.0
 14
1404.777822767281
 24
601.8046868233043
 34
0.0
 50
90.0
100
AcDbRotatedDimension
1001
ACAD
1000
DSTYLE
1002
{
1070
    40
1040
1.199999999999999
1070
   272
1070
     8
1002
}
  0
DIMENSION
  5
A508
102
{ACAD_XDICTIONARY
360
A509
102
}
102
{ACAD_REACTORS
330
A50A
102
}
330
1F
100
AcDbEntity
  8
AM_5
100
AcDbDimension
  2
*D10
 10
1392.377822767281
 20
622.8046868233043
 30
0.0
 11
1389.437409381454
 21
612.3046868233045
 31
0.0
 70
    32
 71
     5
 42
21.0
  3
AM_ISO$0
100
AcDbAlignedDimension
 13
1404.777822767281
 23
601.8046868233043
 33
0.0
 14
1404.777822767281
 24
622.8046868233043
 34
0.0
 50
90.0
100
AcDbRotatedDimension
1001
ACAD
1000
DSTYLE
1002
{
1070
    40
1040
1.199999999999999
1070
   272
1070
     8
1002
}
  0
DIMENSION
  5
A50B
330
1F
100
AcDbEntity
  8
AM_5
100
AcDbDimension
  2
*D11
 10
1439.677822767281
 20
558.8046868233044
 30
0.0
 11
1422.027822767281
 21
561.7446868233044
 31
0.0
 70
    32
 71
     5
 42
35.29999999999996
  3
AM_ISO$0
100
AcDbAlignedDimension
 13
1404.377822767281
 23
581.8046868233044
 33
0.0
 14
1439.677822767281
 24
581.8046868233044
 34
0.0
100
AcDbRotatedDimension
1001
ACAD
1000
DSTYLE
1002
{
1070
    40
1040
1.199999999999999
1070
   272
1070
     8
1002
}
  0
DIMENSION
  5
A50E
102
{ACAD_XDICTIONARY
360
A50F
102
}
102
{ACAD_REACTORS
330
A510
102
}
330
1F
100
AcDbEntity
  8
AM_5
100
AcDbDimension
  2
*D12
 10
1408.527822767281
 20
568.8046868233044
 30
0.0
 11
1419.843946783029
 21
571.7451002091312
 31
0.0
 70
    32
  1
4.2
 71
     5
 42
4.149999999999863
  3
AM_ISO$0
100
AcDbAlignedDimension
 13
1404.377822767281
 23
581.8046868233044
 33
0.0
 14
1408.527822767281
 24
598.0546868233043
 34
0.0
100
AcDbRotatedDimension
1001
ACAD
1000
DSTYLE
1002
{
1070
    40
1040
1.199999999999999
1070
   272
1070
     8
1002
}
  0
DIMENSION
  5
A511
330
1F
100
AcDbEntity
  8
AM_5
100
AcDbDimension
  2
*D13
 10
1372.377822767281
 20
676.2898793870345
 30
0.0
 11
1369.437822767281
 21
628.5472831051696
 31
0.0
 70
    32
 71
     5
 42
95.48519256373003
  3
AM_ISO$0
100
AcDbAlignedDimension
 13
1405.377822767281
 23
580.8046868233044
 33
0.0
 14
1392.026194128415
 24
676.2898793870345
 34
0.0
 50
90.0
100
AcDbRotatedDimension
1001
ACAD
1000
DSTYLE
1002
{
1070
    40
1040
1.199999999999999
1070
   271
1070
     1
1070
   272
1070
     8
1002
}
  0
TEXT
  5
A514
330
1F
100
AcDbEntity
  8
AM_5
100
AcDbText
 10
1362.908699880988
 20
570.2917100385819
 30
0.0
 40
4.199999999999999
  1
2-%%c4.5thru
100
AcDbText
  0
INSERT
  5
A515
330
1F
100
AcDbEntity
  8
AM_5
100
AcDbBlockReference
  2
*S23
 10
0.0
 20
0.0
 30
0.0
  0
DIMENSION
  5
A516
330
1F
100
AcDbEntity
  8
AM_5
100
AcDbDimension
  2
*D14
 10
1447.027822767281
 20
693.4719523535135
 30
0.0
 11
1424.527008447848
 21
696.4119523535136
 31
0.0
 70
    32
 71
     5
 42
45.00162863886657
  3
AM_ISO$0
100
AcDbAlignedDimension
 13
1402.026194128415
 23
686.2898793870344
 33
0.0
 14
1447.027822767281
 24
663.3046868233044
 34
0.0
100
AcDbRotatedDimension
1001
ACAD
1000
DSTYLE
1002
{
1070
    40
1040
1.199999999999999
1070
   271
1070
     1
1070
   272
1070
     8
1002
}
  0
DIMENSION
  5
A51A
330
1F
100
AcDbEntity
  8
AM_5
100
AcDbDimension
  2
*D15
 10
1382.377822767281
 20
667.2855831497279
 30
0.0
 11
1379.437822767281
 21
624.0451349865164
 31
0.0
 70
    32
 71
     5
 42
86.48089632642347
  3
AM_ISO$0
100
AcDbAlignedDimension
 13
1405.377822767281
 23
580.8046868233044
 33
0.0
 14
1389.21661904381
 24
667.2855831497279
 34
0.0
 50
90.0
100
AcDbRotatedDimension
1001
ACAD
1000
DSTYLE
1002
{
1070
    40
1040
1.199999999999999
1070
   271
1070
     1
1070
   272
1070
     8
1002
}
  0
DIMENSION
  5
A51D
330
1F
100
AcDbEntity
  8
AM_5
100
AcDbDimension
  2
*D8
 10
1435.677822767281
 20
568.8046868233044
 30
0.0
 11
1448.767822767281
 21
568.8046868233044
 31
0.0
 70
   160
 71
     5
 42
4.000000000000227
  3
AM_ISO$0
100
AcDbAlignedDimension
 13
1439.677822767281
 23
581.8046868233044
 33
0.0
 14
1435.677822767281
 24
603.3046868233041
 34
0.0
100
AcDbRotatedDimension
1001
ACAD
1000
DSTYLE
1002
{
1070
    40
1040
1.199999999999999
1070
   272
1070
     8
1002
}
  0
POINT
  5
A51E
330
1F
100
AcDbEntity
  8
0
 60
     1
100
AcDbPoint
 10
280.8326445232037
 20
-14.67779621910677
 30
0.0
1001
GENIUS_GENOENT_13
1002
{
1000
MYREF
1005
A51E
1002
}
1002
{
1000
GRP
1005
0
1002
}
1001
GENIUS_GENOBJ-N-CRS_13
1002
{
1000
OWNER
1000
GEN
1002
}
1001
GENIUS_GENOLIS_13
1002
{
1000
ENT
1005
A504
1005
A503
1005
A502
1005
A501
1002
}
1001
GENIUS_GENODEF_13
1002
{
1000
HIER
1070
    10
1002
}
1002
{
1000
MANEDIT
1070
     0
1002
}
1002
{
1000
NOSEL
1070
     0
1002
}
1002
{
1000
BEHIND
1070
     0
1002
}
1002
{
1000
OTHER
1070
     0
1002
}
1002
{
1000
REACTOR
1002
}
  0
POINT
  5
A51F
330
1F
100
AcDbEntity
  8
0
 60
     1
100
AcDbPoint
 10
280.8326445232037
 20
-14.67779621910677
 30
0.0
1001
GENIUS_GENOLIS_13
1002
{
1000
ENT
1005
A500
1005
A4FF
1005
A4FE
1005
A4FD
1002
}
1001
GENIUS_GENOENT_13
1002
{
1000
MYREF
1005
A51F
1002
}
1002
{
1000
GRP
1005
0
1002
}
1001
GENIUS_GENOBJ-N-CRS_13
1002
{
1000
OWNER
1000
GEN
1002
}
1001
GENIUS_GENODEF_13
1002
{
1000
HIER
1070
    10
1002
}
1002
{
1000
MANEDIT
1070
     0
1002
}
1002
{
1000
NOSEL
1070
     0
1002
}
1002
{
1000
BEHIND
1070
     0
1002
}
1002
{
1000
OTHER
1070
     0
1002
}
1002
{
1000
REACTOR
1002
}
  0
LINE
  5
A5C4
330
1F
100
AcDbEntity
  8
AM_7
100
AcDbLine
 10
1337.754042088311
 20
630.8046868233044
 30
0.0
 11
1331.254042088311
 21
630.8046868233044
 31
0.0
  0
LINE
  5
A5C5
330
1F
100
AcDbEntity
  8
AM_7
100
AcDbLine
 10
1337.754042088311
 20
630.8046868233044
 30
0.0
 11
1337.754042088311
 21
624.3046868233044
 31
0.0
  0
LINE
  5
A5C6
330
1F
100
AcDbEntity
  8
AM_7
100
AcDbLine
 10
1337.754042088311
 20
630.8046868233044
 30
0.0
 11
1344.254042088311
 21
630.8046868233044
 31
0.0
  0
LINE
  5
A5C7
330
1F
100
AcDbEntity
  8
AM_7
100
AcDbLine
 10
1337.754042088311
 20
612.3046868233045
 30
0.0
 11
1337.754042088311
 21
620.5046868233043
 31
0.0
1001
GENIUS_GENOREF_13
1005
A5E0
  0
LINE
  5
A5C8
330
1F
100
AcDbEntity
  8
AM_7
100
AcDbLine
 10
1337.754042088311
 20
612.3046868233045
 30
0.0
 11
1329.554042088311
 21
612.3046868233045
 31
0.0
1001
GENIUS_GENOREF_13
1005
A5E0
  0
LINE
  5
A5C9
330
1F
100
AcDbEntity
  8
AM_7
100
AcDbLine
 10
1337.754042088311
 20
612.3046868233045
 30
0.0
 11
1337.754042088311
 21
604.1046868233044
 31
0.0
1001
GENIUS_GENOREF_13
1005
A5E0
  0
LINE
  5
A5CA
330
1F
100
AcDbEntity
  8
AM_7
100
AcDbLine
 10
1337.754042088311
 20
612.3046868233045
 30
0.0
 11
1345.954042088311
 21
612.3046868233045
 31
0.0
1001
GENIUS_GENOREF_13
1005
A5E0
  0
LINE
  5
A5CB
330
1F
100
AcDbEntity
  8
AM_7
100
AcDbLine
 10
1337.754042088311
 20
593.8046868233044
 30
0.0
 11
1337.754042088311
 21
600.3046868233044
 31
0.0
  0
LINE
  5
A5CC
330
1F
100
AcDbEntity
  8
AM_7
100
AcDbLine
 10
1337.754042088311
 20
593.8046868233044
 30
0.0
 11
1331.254042088311
 21
593.8046868233044
 31
0.0
  0
LINE
  5
A5CD
330
1F
100
AcDbEntity
  8
AM_7
100
AcDbLine
 10
1337.754042088311
 20
593.8046868233044
 30
0.0
 11
1344.254042088311
 21
593.8046868233044
 31
0.0
  0
LINE
  5
A5CE
330
1F
100
AcDbEntity
  8
AM_7
  6
AM_ISO08W050x2
100
AcDbLine
 10
1347.254042088311
 20
607.3046868233044
 30
0.0
 11
1347.254042088311
 21
611.0546868233044
 31
0.0
1001
GENIUS_GENOREF_13
1005
A5DF
  0
LINE
  5
A5CF
330
1F
100
AcDbEntity
  8
AM_7
  6
AM_ISO08W050x2
100
AcDbLine
 10
1347.254042088311
 20
607.3046868233044
 30
0.0
 11
1343.504042088311
 21
607.3046868233044
 31
0.0
1001
GENIUS_GENOREF_13
1005
A5DF
  0
LINE
  5
A5D0
330
1F
100
AcDbEntity
  8
AM_7
  6
AM_ISO08W050x2
100
AcDbLine
 10
1347.254042088311
 20
607.3046868233044
 30
0.0
 11
1347.254042088311
 21
603.5546868233044
 31
0.0
1001
GENIUS_GENOREF_13
1005
A5DF
  0
LINE
  5
A5D1
330
1F
100
AcDbEntity
  8
AM_7
  6
AM_ISO08W050x2
100
AcDbLine
 10
1347.254042088311
 20
607.3046868233044
 30
0.0
 11
1351.004042088311
 21
607.3046868233044
 31
0.0
1001
GENIUS_GENOREF_13
1005
A5DF
  0
LINE
  5
A5D2
330
1F
100
AcDbEntity
  8
AM_7
  6
AM_ISO08W050x2
100
AcDbLine
 10
1328.254042088311
 20
617.3046868233044
 30
0.0
 11
1328.254042088311
 21
621.0546868233044
 31
0.0
1001
GENIUS_GENOREF_13
1005
A5DE
  0
LINE
  5
A5D3
330
1F
100
AcDbEntity
  8
AM_7
  6
AM_ISO08W050x2
100
AcDbLine
 10
1328.254042088311
 20
617.3046868233044
 30
0.0
 11
1324.504042088311
 21
617.3046868233044
 31
0.0
1001
GENIUS_GENOREF_13
1005
A5DE
  0
LINE
  5
A5D4
330
1F
100
AcDbEntity
  8
AM_7
  6
AM_ISO08W050x2
100
AcDbLine
 10
1328.254042088311
 20
617.3046868233044
 30
0.0
 11
1328.254042088311
 21
613.5546868233044
 31
0.0
1001
GENIUS_GENOREF_13
1005
A5DE
  0
LINE
  5
A5D5
330
1F
100
AcDbEntity
  8
AM_7
  6
AM_ISO08W050x2
100
AcDbLine
 10
1328.254042088311
 20
617.3046868233044
 30
0.0
 11
1332.004042088311
 21
617.3046868233044
 31
0.0
1001
GENIUS_GENOREF_13
1005
A5DE
  0
LINE
  5
A5D6
330
1F
100
AcDbEntity
  8
AM_7
100
AcDbLine
 10
1337.754042088311
 20
688.9216643042369
 30
0.0
 11
1337.754042088311
 21
579.2957795378491
 31
0.0
1001
GENIUS_GENODEF_13
1002
{
1000
HIER
1070
     0
1002
}
1002
{
1000
MANEDIT
1070
     0
1002
}
1002
{
1000
NOSEL
1070
     0
1002
}
1002
{
1000
BEHIND
1070
     0
1002
}
1002
{
1000
OTHER
1070
     0
1002
}
1002
{
1000
REACTOR
1002
}
1001
GENIUS_GENOBJ-N-CEN_13
1002
{
1000
OWNER
1000
GEN
1002
}
1001
GENIUS_GENCEN_19
1002
{
1040
1.5
1002
}
  0
DIMENSION
  5
A5D7
330
1F
100
AcDbEntity
  8
AM_5
100
AcDbDimension
  2
*D16
 10
1312.554042088311
 20
593.8046868233044
 30
0.0
 11
1309.614042088311
 21
587.3046868233046
 31
0.0
 70
    32
 71
     5
 42
13.0
  3
AM_ISO$0
100
AcDbAlignedDimension
 13
1325.554042088311
 23
580.8046868233044
 33
0.0
 14
1331.254042088311
 24
593.8046868233044
 34
0.0
 50
90.0
100
AcDbRotatedDimension
1001
ACAD
1000
DSTYLE
1002
{
1070
    40
1040
1.199999999999999
1070
   272
1070
     8
1002
}
  0
DIMENSION
  5
A5D8
330
1F
100
AcDbEntity
  8
AM_5
100
AcDbDimension
  2
*D17
 10
1312.554042088311
 20
612.3046868233045
 30
0.0
 11
1309.614042088311
 21
603.0546868233046
 31
0.0
 70
    32
 71
     5
 42
18.5
  3
AM_ISO$0
100
AcDbAlignedDimension
 13
1329.754042088311
 23
593.8046868233044
 33
0.0
 14
1329.554042088311
 24
612.3046868233045
 34
0.0
 50
90.0
100
AcDbRotatedDimension
1001
ACAD
1000
DSTYLE
1002
{
1070
    40
1040
1.199999999999999
1070
   272
1070
     8
1002
}
  0
DIMENSION
  5
A5D9
330
1F
100
AcDbEntity
  8
AM_5
100
AcDbDimension
  2
*D18
 10
1312.554042088311
 20
630.8046868233044
 30
0.0
 11
1309.614042088311
 21
621.5546868233047
 31
0.0
 70
    32
 71
     5
 42
18.5
  3
AM_ISO$0
100
AcDbAlignedDimension
 13
1328.054042088311
 23
612.3046868233045
 33
0.0
 14
1331.254042088311
 24
630.8046868233044
 34
0.0
 50
90.0
100
AcDbRotatedDimension
1001
ACAD
1000
DSTYLE
1002
{
1070
    40
1040
1.199999999999999
1070
   272
1070
     8
1002
}
  0
TEXT
  5
A5DA
330
1F
100
AcDbEntity
  8
AM_5
100
AcDbText
 10
1296.752222126825
 20
567.8038667773141
 30
0.0
 40
4.199999999999999
  1
2-PT1/8
100
AcDbText
  0
INSERT
  5
A5DB
330
1F
100
AcDbEntity
  8
AM_VIS
100
AcDbBlockReference
  2
*S24
 10
0.0
 20
0.0
 30
0.0
  0
TEXT
  5
A5DC
330
1F
100
AcDbEntity
  8
AM_5
100
AcDbText
 10
1302.023058371272
 20
640.6850495781639
 30
0.0
 40
4.199999999999999
  1
PT1/4
100
AcDbText
  0
INSERT
  5
A5DD
330
1F
100
AcDbEntity
  8
AM_VIS
100
AcDbBlockReference
  2
*S25
 10
0.0
 20
0.0
 30
0.0
  0
POINT
  5
A5DE
330
1F
100
AcDbEntity
  8
0
 60
     1
100
AcDbPoint
 10
541.2752831360919
 20
-102.2719967597876
 30
0.0
1001
GENIUS_GENODEF_13
1002
{
1000
HIER
1070
    10
1002
}
1002
{
1000
MANEDIT
1070
     0
1002
}
1002
{
1000
NOSEL
1070
     0
1002
}
1002
{
1000
BEHIND
1070
     0
1002
}
1002
{
1000
OTHER
1070
     0
1002
}
1002
{
1000
REACTOR
1002
}
1001
GENIUS_GENOLIS_13
1002
{
1000
ENT
1005
A5D5
1005
A5D4
1005
A5D3
1005
A5D2
1002
}
1001
GENIUS_GENOENT_13
1002
{
1000
MYREF
1005
A5DE
1002
}
1002
{
1000
GRP
1005
0
1002
}
1001
GENIUS_GENOBJ-N-CRS_13
1002
{
1000
OWNER
1000
GEN
1002
}
  0
POINT
  5
A5DF
330
1F
100
AcDbEntity
  8
0
 60
     1
100
AcDbPoint
 10
541.2752831360919
 20
-102.2719967597876
 30
0.0
1001
GENIUS_GENOENT_13
1002
{
1000
MYREF
1005
A5DF
1002
}
1002
{
1000
GRP
1005
0
1002
}
1001
GENIUS_GENOBJ-N-CRS_13
1002
{
1000
OWNER
1000
GEN
1002
}
1001
GENIUS_GENODEF_13
1002
{
1000
HIER
1070
    10
1002
}
1002
{
1000
MANEDIT
1070
     0
1002
}
1002
{
1000
NOSEL
1070
     0
1002
}
1002
{
1000
BEHIND
1070
     0
1002
}
1002
{
1000
OTHER
1070
     0
1002
}
1002
{
1000
REACTOR
1002
}
1001
GENIUS_GENOLIS_13
1002
{
1000
ENT
1005
A5D1
1005
A5D0
1005
A5CF
1005
A5CE
1002
}
  0
POINT
  5
A5E0
330
1F
100
AcDbEntity
  8
0
 60
     1
100
AcDbPoint
 10
541.2752831360919
 20
-102.2719967597876
 30
0.0
1001
GENIUS_GENODEF_13
1002
{
1000
HIER
1070
    10
1002
}
1002
{
1000
MANEDIT
1070
     0
1002
}
1002
{
1000
NOSEL
1070
     0
1002
}
1002
{
1000
BEHIND
1070
     0
1002
}
1002
{
1000
OTHER
1070
     0
1002
}
1002
{
1000
REACTOR
1002
}
1001
GENIUS_GENOLIS_13
1002
{
1000
ENT
1005
A5CA
1005
A5C9
1005
A5C8
1005
A5C7
1002
}
1001
GENIUS_GENOENT_13
1002
{
1000
MYREF
1005
A5E0
1002
}
1002
{
1000
GRP
1005
0
1002
}
1001
GENIUS_GENOBJ-N-CRS_13
1002
{
1000
OWNER
1000
GEN
1002
}
  0
LINE
  5
A62D
330
1F
100
AcDbEntity
  8
AM_7
100
AcDbLine
 10
1402.026194128415
 20
676.2898793870345
 30
0.0
 11
1412.026194128415
 21
676.2898793870345
 31
0.0
1001
GENIUS_GENOREF_13
1005
A631
  0
LINE
  5
A62E
330
1F
100
AcDbEntity
  8
AM_7
100
AcDbLine
 10
1402.026194128415
 20
676.2898793870345
 30
0.0
 11
1402.026194128415
 21
686.2898793870344
 31
0.0
1001
GENIUS_GENOREF_13
1005
A631
  0
LINE
  5
A62F
330
1F
100
AcDbEntity
  8
AM_7
100
AcDbLine
 10
1402.026194128415
 20
676.2898793870345
 30
0.0
 11
1392.026194128415
 21
676.2898793870345
 31
0.0
1001
GENIUS_GENOREF_13
1005
A631
  0
LINE
  5
A630
330
1F
100
AcDbEntity
  8
AM_7
100
AcDbLine
 10
1402.026194128415
 20
676.2898793870345
 30
0.0
 11
1402.026194128415
 21
666.2898793870344
 31
0.0
1001
GENIUS_GENOREF_13
1005
A631
  0
POINT
  5
A631
330
1F
100
AcDbEntity
  8
0
 60
     1
100
AcDbPoint
 10
0.0
 20
0.0
 30
0.0
1001
GENIUS_GENODEF_13
1002
{
1000
HIER
1070
    10
1002
}
1002
{
1000
MANEDIT
1070
     0
1002
}
1002
{
1000
NOSEL
1070
     0
1002
}
1002
{
1000
BEHIND
1070
     0
1002
}
1002
{
1000
OTHER
1070
     0
1002
}
1002
{
1000
REACTOR
1002
}
1001
GENIUS_GENOBJ-N-CRS_13
1002
{
1000
OWNER
1000
GEN
1002
}
1001
GENIUS_GENOLIS_13
1002
{
1000
ENT
1005
A630
1005
A62F
1005
A62E
1005
A62D
1002
}
1001
GENIUS_GENOENT_13
1002
{
1000
MYREF
1005
A631
1002
}
1002
{
1000
GRP
1005
0
1002
}
  0
LINE
  5
A63F
330
1F
100
AcDbEntity
  8
AM_7
  6
AM_ISO08W050x2
100
AcDbLine
 10
1440.627822767282
 20
659.3046868233043
 30
0.0
 11
1443.777822767282
 21
659.3046868233043
 31
0.0
1001
GENIUS_GENOREF_13
1005
A643
  0
LINE
  5
A640
330
1F
100
AcDbEntity
  8
AM_7
  6
AM_ISO08W050x2
100
AcDbLine
 10
1440.627822767282
 20
659.3046868233043
 30
0.0
 11
1440.627822767282
 21
662.4546868233044
 31
0.0
1001
GENIUS_GENOREF_13
1005
A643
  0
LINE
  5
A641
330
1F
100
AcDbEntity
  8
AM_7
  6
AM_ISO08W050x2
100
AcDbLine
 10
1440.627822767282
 20
659.3046868233043
 30
0.0
 11
1437.477822767282
 21
659.3046868233043
 31
0.0
1001
GENIUS_GENOREF_13
1005
A643
  0
LINE
  5
A642
330
1F
100
AcDbEntity
  8
AM_7
  6
AM_ISO08W050x2
100
AcDbLine
 10
1440.627822767282
 20
659.3046868233043
 30
0.0
 11
1440.627822767282
 21
656.1546868233042
 31
0.0
1001
GENIUS_GENOREF_13
1005
A643
  0
POINT
  5
A643
330
1F
100
AcDbEntity
  8
0
 60
     1
100
AcDbPoint
 10
0.0
 20
0.0
 30
0.0
1001
GENIUS_GENOENT_13
1002
{
1000
MYREF
1005
A643
1002
}
1002
{
1000
GRP
1005
0
1002
}
1001
GENIUS_GENOBJ-N-CRS_13
1002
{
1000
OWNER
1000
GEN
1002
}
1001
GENIUS_GENODEF_13
1002
{
1000
HIER
1070
    10
1002
}
1002
{
1000
MANEDIT
1070
     0
1002
}
1002
{
1000
NOSEL
1070
     0
1002
}
1002
{
1000
BEHIND
1070
     0
1002
}
1002
{
1000
OTHER
1070
     0
1002
}
1002
{
1000
REACTOR
1002
}
1001
GENIUS_GENOLIS_13
1002
{
1000
ENT
1005
A642
1005
A641
1005
A640
1005
A63F
1002
}
  0
CIRCLE
  5
AE01
330
1F
100
AcDbEntity
  8
0
  6
ACISOTGB
 62
     4
100
AcDbCircle
 10
1399.21661904381
 20
667.2855831497279
 30
0.0
 40
1.649999999999999
  0
CIRCLE
  5
AE02
330
1F
100
AcDbEntity
  8
0
  6
ACISOTGB
 62
     4
100
AcDbCircle
 10
1399.21661904381
 20
667.2855831497279
 30
0.0
 40
8.5
  0
LINE
  5
AE10
330
1F
100
AcDbEntity
  8
AM_7
100
AcDbLine
 10
1399.21661904381
 20
667.2855831497279
 30
0.0
 11
1409.21661904381
 21
667.2855831497279
 31
0.0
1001
GENIUS_GENOREF_13
1005
AE14
  0
LINE
  5
AE11
330
1F
100
AcDbEntity
  8
AM_7
100
AcDbLine
 10
1399.21661904381
 20
667.2855831497279
 30
0.0
 11
1399.21661904381
 21
677.2855831497279
 31
0.0
1001
GENIUS_GENOREF_13
1005
AE14
  0
LINE
  5
AE12
330
1F
100
AcDbEntity
  8
AM_7
100
AcDbLine
 10
1399.21661904381
 20
667.2855831497279
 30
0.0
 11
1389.21661904381
 21
667.2855831497279
 31
0.0
1001
GENIUS_GENOREF_13
1005
AE14
  0
LINE
  5
AE13
330
1F
100
AcDbEntity
  8
AM_7
100
AcDbLine
 10
1399.21661904381
 20
667.2855831497279
 30
0.0
 11
1399.21661904381
 21
657.2855831497279
 31
0.0
1001
GENIUS_GENOREF_13
1005
AE14
  0
POINT
  5
AE14
330
1F
100
AcDbEntity
  8
0
 60
     1
100
AcDbPoint
 10
0.0
 20
0.0
 30
0.0
1001
GENIUS_GENOENT_13
1002
{
1000
MYREF
1005
AE14
1002
}
1002
{
1000
GRP
1005
0
1002
}
1001
GENIUS_GENOLIS_13
1002
{
1000
ENT
1005
AE13
1005
AE12
1005
AE11
1005
AE10
1002
}
1001
GENIUS_GENODEF_13
1002
{
1000
HIER
1070
    10
1002
}
1002
{
1000
MANEDIT
1070
     0
1002
}
1002
{
1000
NOSEL
1070
     0
1002
}
1002
{
1000
BEHIND
1070
     0
1002
}
1002
{
1000
OTHER
1070
     0
1002
}
1002
{
1000
REACTOR
1002
}
1001
GENIUS_GENOBJ-N-CRS_13
1002
{
1000
OWNER
1000
GEN
1002
}
  0
ARC
  5
AE15
330
1F
100
AcDbEntity
  8
0
  6
ACISOTGB
 62
     3
100
AcDbCircle
 10
1440.627822767282
 20
659.3046868233043
 30
0.0
 40
42.17324388756438
100
AcDbArc
 50
139.7253419630777
 51
183.6472135435926
  0
LINE
  5
AE40
330
1F
100
AcDbEntity
  8
AM_7
100
AcDbLine
 10
1328.804042088312
 20
676.2898793870349
 30
0.0
 11
1346.304042088312
 21
676.2898793870349
 31
0.0
1001
GENIUS_GENOBJ-N-CEN_13
1002
{
1000
OWNER
1000
GEN
1002
}
1001
GENIUS_GENODEF_13
1002
{
1000
HIER
1070
     0
1002
}
1002
{
1000
MANEDIT
1070
     0
1002
}
1002
{
1000
NOSEL
1070
     0
1002
}
1002
{
1000
BEHIND
1070
     0
1002
}
1002
{
1000
OTHER
1070
     0
1002
}
1002
{
1000
REACTOR
1002
}
1001
GENIUS_GENCEN_19
1002
{
1040
1.5
1002
}
  0
LINE
  5
AE4D
330
1F
100
AcDbEntity
  8
AM_7
100
AcDbLine
 10
1498.475088670534
 20
676.2898793870349
 30
0.0
 11
1480.646837158322
 21
676.2898793870349
 31
0.0
1001
GENIUS_GENODEF_13
1002
{
1000
HIER
1070
     0
1002
}
1002
{
1000
MANEDIT
1070
     0
1002
}
1002
{
1000
NOSEL
1070
     0
1002
}
1002
{
1000
BEHIND
1070
     0
1002
}
1002
{
1000
OTHER
1070
     0
1002
}
1002
{
1000
REACTOR
1002
}
1001
GENIUS_GENOBJ-N-CEN_13
1002
{
1000
OWNER
1000
GEN
1002
}
1001
GENIUS_GENCEN_19
1002
{
1040
1.5
1002
}
  0
LINE
  5
AE5A
330
1F
100
AcDbEntity
  8
AM_7
  6
AM_ISO08W050x2
100
AcDbLine
 10
1422.027822767282
 20
663.8046868233044
 30
0.0
 11
1422.027822767282
 21
658.7941936327464
 31
0.0
1001
GENIUS_GENODEF_13
1002
{
1000
HIER
1070
     0
1002
}
1002
{
1000
MANEDIT
1070
     0
1002
}
1002
{
1000
NOSEL
1070
     0
1002
}
1002
{
1000
BEHIND
1070
     0
1002
}
1002
{
1000
OTHER
1070
     0
1002
}
1002
{
1000
REACTOR
1002
}
1001
GENIUS_GENOBJ-N-CEN_13
1002
{
1000
OWNER
1000
GEN
1002
}
1001
GENIUS_GENCEN_19
1002
{
1040
1.5
1002
}
  0
LINE
  5
AE68
330
1F
100
AcDbEntity
  8
AM_7
100
AcDbLine
 10
1392.026194128415
 20
721.9694655800556
 30
0.0
 11
1450.163582212678
 21
721.9694655800556
 31
0.0
1001
GENIUS_GENODEF_13
1002
{
1000
HIER
1070
     0
1002
}
1002
{
1000
MANEDIT
1070
     0
1002
}
1002
{
1000
NOSEL
1070
     0
1002
}
1002
{
1000
BEHIND
1070
     0
1002
}
1002
{
1000
OTHER
1070
     0
1002
}
1002
{
1000
REACTOR
1002
}
1001
GENIUS_GENOBJ-N-CEN_13
1002
{
1000
OWNER
1000
GEN
1002
}
1001
GENIUS_GENCEN_19
1002
{
1040
1.5
1002
}
  0
DIMENSION
  5
AE80
330
1F
100
AcDbEntity
  8
AM_5
100
AcDbDimension
  2
*D19
 10
1402.026194128415
 20
676.2898793870346
 30
0.0
 11
1384.996814140493
 21
690.4556435757208
 31
0.0
 70
   164
 71
     5
 42
8.500000000000113
  3
AM_ISO$4
100
AcDbRadialDimension
 15
1396.673822405015
 25
682.8930692930241
 35
0.0
 40
0.0
1001
ACAD
1000
DSTYLE
1002
{
1070
    40
1040
1.199999999999999
1070
   172
1070
     1
1002
}
  0
DIMENSION
  5
AEC8
102
{ACAD_XDICTIONARY
360
AED5
102
}
102
{ACAD_REACTORS
330
AED6
102
}
330
1F
100
AcDbEntity
  8
AM_5
100
AcDbDimension
  2
*D20
 10
1341.754042088312
 20
693.4719523535135
 30
0.0
 11
1337.854042088312
 21
696.4119523535136
 31
0.0
 70
    32
 71
     5
 42
7.799999999999954
  3
AM_ISO$0
100
AcDbAlignedDimension
 13
1333.954042088312
 23
684.2898793870345
 33
0.0
 14
1341.754042088312
 24
684.2898793870345
 34
0.0
100
AcDbRotatedDimension
1001
ACAD
1000
DSTYLE
1002
{
1070
    40
1040
1.199999999999999
1070
   271
1070
     0
1070
   272
1070
     8
1002
}
  0
LINE
  5
AF0F
330
1F
100
AcDbEntity
  8
0
  6
ACISOTGB
 62
     4
100
AcDbLine
 10
1419.829115735547
 20
660.8293100777333
 30
0.0
 11
1401.158384422608
 21
663.7885061969427
 31
0.0
  0
LINE
  5
AF10
330
1F
100
AcDbEntity
  8
0
  6
ACISOTGB
 62
     4
100
AcDbLine
 10
1410.511491742106
 20
668.2797414516616
 30
0.0
 11
1437.982693087876
 21
663.9257249404771
 31
0.0
  0
LINE
  5
AF11
330
1F
100
AcDbEntity
  8
0
  6
ACISOTGB
 62
     4
100
AcDbLine
 10
1405.141913683776
 20
669.5357794588516
 30
0.0
 11
1407.739174253258
 21
667.5259745225581
 31
0.0
  0
LINE
  5
AF12
330
1F
100
AcDbEntity
  8
0
  6
ACISOTGB
 62
     4
100
AcDbLine
 10
1402.14458568016
 20
670.0108375188513
 30
0.0
 11
1405.141913683776
 21
669.5357794588516
 31
0.0
  0
ARC
  5
AF13
330
1F
100
AcDbEntity
  8
0
  6
ACISOTGB
 62
     4
100
AcDbCircle
 10
1399.21661904381
 20
667.285583149728
 30
0.0
 40
4.0
100
AcDbArc
 50
42.94637725034109
 51
299.0413921575752
  0
ARC
  5
AF14
330
1F
100
AcDbEntity
  8
0
  6
ACISOTGB
 62
     4
100
AcDbCircle
 10
1408.84075100429
 20
668.9495364852373
 30
0.0
 40
1.8
100
AcDbArc
 50
232.2666788345268
 51
338.1542962970479
  0
LINE
  5
AF16
330
1F
100
AcDbEntity
  8
0
  6
ACISOTGB
 62
     4
100
AcDbLine
 10
1444.031898687842
 20
662.9669630454188
 30
0.0
 11
1445.079999086042
 21
662.8008455763753
 31
0.0
  0
LINE
  5
AF17
330
1F
100
AcDbEntity
  8
0
  6
ACISOTGB
 62
     4
100
AcDbLine
 10
1445.079999086042
 20
662.8008455763753
 30
0.0
 11
1444.92975514844
 21
661.8528975265128
 31
0.0
  0
LINE
  5
AF26
330
1F
100
AcDbEntity
  8
AM_7
100
AcDbLine
 10
1402.026194128415
 20
731.0194655800557
 30
0.0
 11
1402.026194128415
 21
713.5194655800557
 31
0.0
1001
GENIUS_GENODEF_13
1002
{
1000
HIER
1070
     0
1002
}
1002
{
1000
MANEDIT
1070
     0
1002
}
1002
{
1000
NOSEL
1070
     0
1002
}
1002
{
1000
BEHIND
1070
     0
1002
}
1002
{
1000
OTHER
1070
     0
1002
}
1002
{
1000
REACTOR
1002
}
1001
GENIUS_GENOBJ-N-CEN_13
1002
{
1000
OWNER
1000
GEN
1002
}
1001
GENIUS_GENCEN_19
1002
{
1040
1.5
1002
}
  0
LINE
  5
B11E
330
1F
100
AcDbEntity
  8
AM_VIS
100
AcDbLine
 10
1499.52681775205
 20
593.78194583008
 30
0.0
 11
1498.301851129887
 21
593.3613850824164
 31
0.0
  0
LINE
  5
B11F
330
1F
100
AcDbEntity
  8
AM_VIS
100
AcDbLine
 10
1499.52681775205
 20
592.9207976324831
 30
0.0
 11
1499.52681775205
 21
593.78194583008
 31
0.0
  0
LINE
  5
B120
330
1F
100
AcDbEntity
  8
AM_VIS
100
AcDbLine
 10
1498.301851129887
 20
593.3613850824164
 30
0.0
 11
1499.52681775205
 21
592.9207976324831
 31
0.0
  0
LINE
  5
B121
330
1F
100
AcDbEntity
  8
AM_VIS
100
AcDbLine
 10
1500.454721623879
 20
594.5262715977702
 30
0.0
 11
1500.454721623879
 21
593.7352168581175
 31
0.0
  0
LINE
  5
B122
330
1F
100
AcDbEntity
  8
AM_VIS
100
AcDbLine
 10
1500.387965949647
 20
594.5262715977702
 30
0.0
 11
1500.454721623879
 21
594.5262715977702
 31
0.0
  0
SPLINE
  5
B123
330
1F
100
AcDbEntity
  8
AM_VIS
100
AcDbSpline
210
0.0
220
0.0
230
1.0
 70
     8
 71
     3
 72
     8
 73
     4
 74
     0
 42
0.0000000001
 43
0.0000000001
 40
0.0
 40
0.0
 40
0.0
 40
0.0
 40
80.0
 40
80.0
 40
80.0
 40
80.0
 10
1500.33122362655
 20
594.3527068447662
 30
0.0
 10
1500.357925896242
 20
594.3860846818823
 30
0.0
 10
1500.376839969988
 20
594.4439395825735
 30
0.0
 10
1500.387965949647
 20
594.5262715977702
 30
0.0
  0
SPLINE
  5
B124
330
1F
100
AcDbEntity
  8
AM_VIS
100
AcDbSpline
210
0.0
220
0.0
230
1.0
 70
     8
 71
     3
 72
     8
 73
     4
 74
     0
 42
0.0000000001
 43
0.0000000001
 40
0.0
 40
0.0
 40
0.0
 40
0.0
 40
80.0
 40
80.0
 40
80.0
 40
80.0
 10
1500.060863145908
 20
594.1924932266086
 30
0.0
 10
1500.194374494373
 20
594.2414473537586
 30
0.0
 10
1500.284494654587
 20
594.2948518931444
 30
0.0
 10
1500.33122362655
 20
594.3527068447662
 30
0.0
  0
LINE
  5
B125
330
1F
100
AcDbEntity
  8
AM_VIS
100
AcDbLine
 10
1497.954721623879
 20
593.4014384869559
 30
0.0
 11
1500.060863145908
 21
594.1924932266086
 31
0.0
  0
LINE
  5
B126
330
1F
100
AcDbEntity
  8
AM_VIS
100
AcDbLine
 10
1497.954721623879
 20
593.3880873521094
 30
0.0
 11
1497.954721623879
 21
593.4014384869559
 31
0.0
  0
LINE
  5
B127
330
1F
100
AcDbEntity
  8
AM_VIS
100
AcDbLine
 10
1499.787164881556
 20
592.7138550423629
 30
0.0
 11
1497.954721623879
 21
593.3880873521094
 31
0.0
  0
SPLINE
  5
B128
330
1F
100
AcDbEntity
  8
AM_VIS
100
AcDbSpline
210
0.0
220
0.0
230
1.0
 70
     8
 71
     3
 72
     8
 73
     4
 74
     0
 42
0.0000000001
 43
0.0000000001
 40
0.0
 40
0.0
 40
0.0
 40
0.0
 40
80.0
 40
80.0
 40
80.0
 40
80.0
 10
1500.314534707992
 20
592.4701968314151
 30
0.0
 10
1500.234427949843
 20
592.5325020934116
 30
0.0
 10
1500.058637990721
 20
592.6137215310147
 30
0.0
 10
1499.787164881556
 20
592.7138550423629
 30
0.0
  0
SPLINE
  5
B129
330
1F
100
AcDbEntity
  8
AM_VIS
100
AcDbSpline
210
0.0
220
0.0
230
1.0
 70
     8
 71
     3
 72
     8
 73
     4
 74
     0
 42
0.0000000001
 43
0.0000000001
 40
0.0
 40
0.0
 40
0.0
 40
0.0
 40
80.0
 40
80.0
 40
80.0
 40
80.0
 10
1500.371277031089
 20
592.3934278060479
 30
0.0
 10
1500.364601463665
 20
592.4201300248104
 30
0.0
 10
1500.345687338989
 20
592.4457197169096
 30
0.0
 10
1500.314534707992
 20
592.4701968314151
 30
0.0
  0
LINE
  5
B12A
330
1F
100
AcDbEntity
  8
AM_VIS
100
AcDbLine
 10
1500.38850696413
 20
592.306749530128
 30
0.0
 11
1500.371808867589
 21
592.3935301406269
 31
0.0
  0
LINE
  5
B12B
330
1F
100
AcDbEntity
  8
AM_VIS
100
AcDbLine
 10
1500.454721623879
 20
592.3066454295459
 30
0.0
 11
1500.387965949647
 21
592.3066454295459
 31
0.0
  0
LINE
  5
B12C
330
1F
100
AcDbEntity
  8
AM_VIS
100
AcDbLine
 10
1500.454721623879
 20
592.9174598487715
 30
0.0
 11
1500.454721623879
 21
592.3066454295459
 31
0.0
  0
LINE
  5
B12D
330
1F
100
AcDbEntity
  8
AM_VIS
100
AcDbLine
 10
1500.387965949647
 20
592.9174598487715
 30
0.0
 11
1500.454721623879
 21
592.9174598487715
 31
0.0
  0
SPLINE
  5
B12E
330
1F
100
AcDbEntity
  8
AM_VIS
100
AcDbSpline
210
0.0
220
0.0
230
1.0
 70
     8
 71
     3
 72
     8
 73
     4
 74
     0
 42
0.0000000001
 43
0.0000000001
 40
0.0
 40
0.0
 40
0.0
 40
0.0
 40
80.0
 40
80.0
 40
80.0
 40
80.0
 10
1500.361263679954
 20
592.7772729328839
 30
0.0
 10
1500.3746148148
 20
592.8017499964588
 30
0.0
 10
1500.383515537411
 20
592.8484789684213
 30
0.0
 10
1500.387965949647
 20
592.9174598487715
 30
0.0
  0
SPLINE
  5
B12F
330
1F
100
AcDbEntity
  8
AM_VIS
100
AcDbSpline
210
0.0
220
0.0
230
1.0
 70
     8
 71
     3
 72
     8
 73
     4
 74
     0
 42
0.0000000001
 43
0.0000000001
 40
0.0
 40
0.0
 40
0.0
 40
0.0
 40
80.0
 40
80.0
 40
80.0
 40
80.0
 10
1500.221076764066
 20
592.697166123805
 30
0.0
 10
1500.292282799604
 20
592.697166123805
 30
0.0
 10
1500.339011771567
 20
592.7238683934977
 30
0.0
 10
1500.361263679954
 20
592.7772729328839
 30
0.0
  0
SPLINE
  5
B130
330
1F
100
AcDbEntity
  8
AM_VIS
100
AcDbSpline
210
0.0
220
0.0
230
1.0
 70
     8
 71
     3
 72
     8
 73
     4
 74
     0
 42
0.0000000001
 43
0.0000000001
 40
0.0
 40
0.0
 40
0.0
 40
0.0
 40
80.0
 40
80.0
 40
80.0
 40
80.0
 10
1500.074214280755
 20
592.7238683934977
 30
0.0
 10
1500.11871809753
 20
592.7060668464156
 30
0.0
 10
1500.16767222468
 20
592.697166123805
 30
0.0
 10
1500.221076764066
 20
592.697166123805
 30
0.0
  0
LINE
  5
B131
330
1F
100
AcDbEntity
  8
AM_VIS
100
AcDbLine
 10
1499.65031574938
 20
592.8907575790787
 30
0.0
 11
1500.074214280755
 21
592.7238683934977
 31
0.0
  0
LINE
  5
B132
330
1F
100
AcDbEntity
  8
AM_VIS
100
AcDbLine
 10
1499.65031574938
 20
593.825337018331
 30
0.0
 11
1499.65031574938
 21
592.8907575790787
 31
0.0
  0
LINE
  5
B133
330
1F
100
AcDbEntity
  8
AM_VIS
100
AcDbLine
 10
1499.98075633683
 20
593.9454972319492
 30
0.0
 11
1499.65031574938
 21
593.825337018331
 31
0.0
  0
SPLINE
  5
B134
330
1F
100
AcDbEntity
  8
AM_VIS
100
AcDbSpline
210
0.0
220
0.0
230
1.0
 70
     8
 71
     3
 72
     8
 73
     4
 74
     0
 42
0.0000000001
 43
0.0000000001
 40
0.0
 40
0.0
 40
0.0
 40
0.0
 40
80.0
 40
80.0
 40
80.0
 40
80.0
 10
1500.221076764066
 20
594.0022395550466
 30
0.0
 10
1500.165447069493
 20
594.0022395550466
 30
0.0
 10
1500.085340260414
 20
593.9833254303706
 30
0.0
 10
1499.98075633683
 20
593.9454972319492
 30
0.0
  0
SPLINE
  5
B135
330
1F
100
AcDbEntity
  8
AM_VIS
100
AcDbSpline
210
0.0
220
0.0
230
1.0
 70
     8
 71
     3
 72
     8
 73
     4
 74
     0
 42
0.0000000001
 43
0.0000000001
 40
0.0
 40
0.0
 40
0.0
 40
0.0
 40
80.0
 40
80.0
 40
80.0
 40
80.0
 10
1500.361263679954
 20
593.9187949622563
 30
0.0
 10
1500.336786565448
 20
593.9744246568294
 30
0.0
 10
1500.290057593486
 20
594.0022395550466
 30
0.0
 10
1500.221076764066
 20
594.0022395550466
 30
0.0
  0
SPLINE
  5
B136
330
1F
100
AcDbEntity
  8
AM_VIS
100
AcDbSpline
210
0.0
220
0.0
230
1.0
 70
     8
 71
     3
 72
     8
 73
     4
 74
     0
 42
0.0000000001
 43
0.0000000001
 40
0.0
 40
0.0
 40
0.0
 40
0.0
 40
80.0
 40
80.0
 40
80.0
 40
80.0
 10
1500.387965949647
 20
593.7352168581175
 30
0.0
 10
1500.383515537411
 20
593.8219992346192
 30
0.0
 10
1500.3746148148
 20
593.8831919190221
 30
0.0
 10
1500.361263679954
 20
593.9187949622563
 30
0.0
  0
LINE
  5
B137
330
1F
100
AcDbEntity
  8
AM_VIS
100
AcDbLine
 10
1500.454721623879
 20
593.7352168581175
 30
0.0
 11
1500.387965949647
 21
593.7352168581175
 31
0.0
  0
SPLINE
  5
B138
330
1F
100
AcDbEntity
  8
AM_VIS
100
AcDbSpline
210
0.0
220
0.0
230
1.0
 70
     8
 71
     3
 72
     8
 73
     4
 74
     0
 42
0.0000000001
 43
0.0000000001
 40
0.0
 40
0.0
 40
0.0
 40
0.0
 40
80.0
 40
80.0
 40
80.0
 40
80.0
 10
1478.727275971706
 20
630.7378205108237
 30
0.0
 10
1478.992221572049
 20
630.7378205626538
 30
0.0
 10
1479.173381026892
 20
630.880483606132
 30
0.0
 10
1479.270754232575
 20
631.1658096412585
 30
0.0
  0
SPLINE
  5
B139
330
1F
100
AcDbEntity
  8
AM_VIS
100
AcDbSpline
210
0.0
220
0.0
230
1.0
 70
     8
 71
     3
 72
     8
 73
     4
 74
     0
 42
0.0000000001
 43
0.0000000001
 40
0.0
 40
0.0
 40
0.0
 40
0.0
 40
80.0
 40
80.0
 40
80.0
 40
80.0
 10
1478.166814015184
 20
631.4613259456063
 30
0.0
 10
1478.166814067014
 20
630.9789890409145
 30
0.0
 10
1478.353634667358
 20
630.7378205626538
 30
0.0
 10
1478.727275971706
 20
630.7378205108237
 30
0.0
  0
SPLINE
  5
B13A
330
1F
100
AcDbEntity
  8
AM_VIS
100
AcDbSpline
210
0.0
220
0.0
230
1.0
 70
     8
 71
     3
 72
     8
 73
     4
 74
     0
 42
0.0000000001
 43
0.0000000001
 40
0.0
 40
0.0
 40
0.0
 40
0.0
 40
80.0
 40
80.0
 40
80.0
 40
80.0
 10
1478.187194449966
 20
631.6753205108238
 30
0.0
 10
1478.173607545274
 20
631.6322951830583
 30
0.0
 10
1478.166814067014
 20
631.560963661319
 30
0.0
 10
1478.166814015184
 20
631.4613259456063
 30
0.0
  0
SPLINE
  5
B13B
330
1F
100
AcDbEntity
  8
AM_VIS
100
AcDbSpline
210
0.0
220
0.0
230
1.0
 70
     8
 71
     3
 72
     8
 73
     4
 74
     0
 42
0.0000000001
 43
0.0000000001
 40
0.0
 40
0.0
 40
0.0
 40
0.0
 40
80.0
 40
80.0
 40
80.0
 40
80.0
 10
1478.346841189097
 20
631.7840161629975
 30
0.0
 10
1478.267583908167
 20
631.7840162148278
 30
0.0
 10
1478.214368363009
 20
631.747784313493
 30
0.0
 10
1478.187194449966
 20
631.6753205108238
 30
0.0
  0
LINE
  5
B13C
330
1F
100
AcDbEntity
  8
AM_VIS
100
AcDbLine
 10
1479.325102058662
 20
631.7840161629975
 30
0.0
 11
1478.346841189097
 21
631.7840161629975
 31
0.0
  0
SPLINE
  5
B13D
330
1F
100
AcDbEntity
  8
AM_VIS
100
AcDbSpline
210
0.0
220
0.0
230
1.0
 70
     8
 71
     3
 72
     8
 73
     4
 74
     0
 42
0.0000000001
 43
0.0000000001
 40
0.0
 40
0.0
 40
0.0
 40
0.0
 40
80.0
 40
80.0
 40
80.0
 40
80.0
 10
1479.270754232575
 20
631.1658096412585
 30
0.0
 10
1479.30698608208
 20
631.272240835232
 30
0.0
 10
1479.325102058662
 20
631.4783096412585
 30
0.0
 10
1479.325102058662
 20
631.7840161629975
 30
0.0
  0
SPLINE
  5
B13E
330
1F
100
AcDbEntity
  8
AM_VIS
100
AcDbSpline
210
0.0
220
0.0
230
1.0
 70
     8
 71
     3
 72
     8
 73
     4
 74
     0
 42
0.0000000001
 43
0.0000000001
 40
0.0
 40
0.0
 40
0.0
 40
0.0
 40
80.0
 40
80.0
 40
80.0
 40
80.0
 10
1479.902547710836
 20
630.8057552934323
 30
0.0
 10
1480.262602058662
 20
630.8057552934323
 30
0.0
 10
1480.442629232575
 20
631.0503205108237
 30
0.0
 10
1480.442629232575
 20
631.5394509456062
 30
0.0
  0
SPLINE
  5
B13F
330
1F
100
AcDbEntity
  8
AM_VIS
100
AcDbSpline
210
0.0
220
0.0
230
1.0
 70
     8
 71
     3
 72
     8
 73
     4
 74
     0
 42
0.0000000001
 43
0.0000000001
 40
0.0
 40
0.0
 40
0.0
 40
0.0
 40
80.0
 40
80.0
 40
80.0
 40
80.0
 10
1479.505129232575
 20
631.0639074673455
 30
0.0
 10
1479.568534995123
 20
630.8918060526235
 30
0.0
 10
1479.70100782121
 20
630.8057552934323
 30
0.0
 10
1479.902547710836
 20
630.8057552934323
 30
0.0
  0
SPLINE
  5
B140
330
1F
100
AcDbEntity
  8
AM_VIS
100
AcDbSpline
210
0.0
220
0.0
230
1.0
 70
     8
 71
     3
 72
     8
 73
     4
 74
     0
 42
0.0000000001
 43
0.0000000001
 40
0.0
 40
0.0
 40
0.0
 40
0.0
 40
80.0
 40
80.0
 40
80.0
 40
80.0
 10
1479.46776510214
 20
631.4001846412585
 30
0.0
 10
1479.470029560341
 20
631.2461991512888
 30
0.0
 10
1479.482484287762
 20
631.1341067599845
 30
0.0
 10
1479.505129232575
 20
631.0639074673455
 30
0.0
  0
LINE
  5
B141
330
1F
100
AcDbEntity
  8
AM_VIS
100
AcDbLine
 10
1479.464368363009
 20
631.7840161629975
 30
0.0
 11
1479.46776510214
 21
631.4001846412585
 31
0.0
  0
LINE
  5
B142
330
1F
100
AcDbEntity
  8
AM_VIS
100
AcDbLine
 10
1480.344123797792
 20
631.7840161629975
 30
0.0
 11
1479.464368363009
 21
631.7840161629975
 31
0.0
  0
SPLINE
  5
B143
330
1F
100
AcDbEntity
  8
AM_VIS
100
AcDbSpline
210
0.0
220
0.0
230
1.0
 70
     8
 71
     3
 72
     8
 73
     4
 74
     0
 42
0.0000000001
 43
0.0000000001
 40
0.0
 40
0.0
 40
0.0
 40
0.0
 40
80.0
 40
80.0
 40
80.0
 40
80.0
 10
1480.415455319532
 20
631.7704292064758
 30
0.0
 10
1480.40413282121
 20
631.779487194767
 30
0.0
 10
1480.380355647297
 20
631.7840162148278
 30
0.0
 10
1480.344123797792
 20
631.7840161629975
 30
0.0
  0
SPLINE
  5
B144
330
1F
100
AcDbEntity
  8
AM_VIS
100
AcDbSpline
210
0.0
220
0.0
230
1.0
 70
     8
 71
     3
 72
     8
 73
     4
 74
     0
 42
0.0000000001
 43
0.0000000001
 40
0.0
 40
0.0
 40
0.0
 40
0.0
 40
80.0
 40
80.0
 40
80.0
 40
80.0
 10
1480.439232493445
 20
631.6957009456062
 30
0.0
 10
1480.434703473384
 20
631.7364618151715
 30
0.0
 10
1480.426777766023
 20
631.7613712700148
 30
0.0
 10
1480.415455319532
 20
631.7704292064758
 30
0.0
  0
SPLINE
  5
B145
330
1F
100
AcDbEntity
  8
AM_VIS
100
AcDbSpline
210
0.0
220
0.0
230
1.0
 70
     8
 71
     3
 72
     8
 73
     4
 74
     0
 42
0.0000000001
 43
0.0000000001
 40
0.0
 40
0.0
 40
0.0
 40
0.0
 40
80.0
 40
80.0
 40
80.0
 40
80.0
 10
1480.442629232575
 20
631.5394509456062
 30
0.0
 10
1480.442629232575
 20
631.6345596930886
 30
0.0
 10
1480.441496951645
 20
631.6866430091453
 30
0.0
 10
1480.439232493445
 20
631.6957009456062
 30
0.0
  0
SPLINE
  5
B146
330
1F
100
AcDbEntity
  8
AM_VIS
100
AcDbSpline
210
0.0
220
0.0
230
1.0
 70
     8
 71
     3
 72
     8
 73
     4
 74
     0
 42
0.0000000001
 43
0.0000000001
 40
0.0
 40
0.0
 40
0.0
 40
0.0
 40
80.0
 40
80.0
 40
80.0
 40
80.0
 10
1478.713689015183
 20
630.4762715977802
 30
0.0
 10
1478.568761461675
 20
630.4762715977802
 30
0.0
 10
1478.440817603819
 20
630.5170324673455
 30
0.0
 10
1478.329857493444
 20
630.5985542064758
 30
0.0
  0
SPLINE
  5
B147
330
1F
100
AcDbEntity
  8
AM_VIS
100
AcDbSpline
210
0.0
220
0.0
230
1.0
 70
     8
 71
     3
 72
     8
 73
     4
 74
     0
 42
0.0000000001
 43
0.0000000001
 40
0.0
 40
0.0
 40
0.0
 40
0.0
 40
80.0
 40
80.0
 40
80.0
 40
80.0
 10
1479.359069449966
 20
631.0197498586497
 30
0.0
 10
1479.273018690775
 20
630.6574310526236
 30
0.0
 10
1479.057891896458
 20
630.4762715977802
 30
0.0
 10
1478.713689015183
 20
630.4762715977802
 30
0.0
  0
LINE
  5
B148
330
1F
100
AcDbEntity
  8
AM_VIS
100
AcDbLine
 10
1479.372656406488
 20
631.0774944238673
 30
0.0
 11
1479.359069449966
 21
631.0197498586497
 31
0.0
  0
SPLINE
  5
B149
330
1F
100
AcDbEntity
  8
AM_VIS
100
AcDbSpline
210
0.0
220
0.0
230
1.0
 70
     8
 71
     3
 72
     8
 73
     4
 74
     0
 42
0.0000000001
 43
0.0000000001
 40
0.0
 40
0.0
 40
0.0
 40
0.0
 40
80.0
 40
80.0
 40
80.0
 40
80.0
 10
1479.929721623879
 20
630.584967249954
 30
0.0
 10
1479.648924505153
 20
630.584967249954
 30
0.0
 10
1479.46323608208
 20
630.7491430091452
 30
0.0
 10
1479.372656406488
 20
631.0774944238673
 30
0.0
  0
SPLINE
  5
B14A
330
1F
100
AcDbEntity
  8
AM_VIS
100
AcDbSpline
210
0.0
220
0.0
230
1.0
 70
     8
 71
     3
 72
     8
 73
     4
 74
     0
 42
0.0000000001
 43
0.0000000001
 40
0.0
 40
0.0
 40
0.0
 40
0.0
 40
80.0
 40
80.0
 40
80.0
 40
80.0
 10
1480.554721623879
 20
631.444342249954
 30
0.0
 10
1480.554721623879
 20
630.8714256178408
 30
0.0
 10
1480.346388255992
 20
630.584967249954
 30
0.0
 10
1479.929721623879
 20
630.584967249954
 30
0.0
  0
LINE
  5
B14B
330
1F
100
AcDbEntity
  8
AM_VIS
100
AcDbLine
 10
1480.554721623879
 20
632.358065076041
 30
0.0
 11
1480.554721623879
 21
631.444342249954
 31
0.0
  0
LINE
  5
B14C
330
1F
100
AcDbEntity
  8
AM_VIS
100
AcDbLine
 10
1480.486786841271
 20
632.358065076041
 30
0.0
 11
1480.554721623879
 21
632.358065076041
 31
0.0
  0
SPLINE
  5
B14D
330
1F
100
AcDbEntity
  8
AM_VIS
100
AcDbSpline
210
0.0
220
0.0
230
1.0
 70
     8
 71
     3
 72
     8
 73
     4
 74
     0
 42
0.0000000001
 43
0.0000000001
 40
0.0
 40
0.0
 40
0.0
 40
0.0
 40
80.0
 40
80.0
 40
80.0
 40
80.0
 10
1480.425645536923
 20
632.0727389890845
 30
0.0
 10
1480.457348418197
 20
632.1157643686801
 30
0.0
 10
1480.477728852979
 20
632.2108730643322
 30
0.0
 10
1480.486786841271
 20
632.358065076041
 30
0.0
  0
SPLINE
  5
B14E
330
1F
100
AcDbEntity
  8
AM_VIS
100
AcDbSpline
210
0.0
220
0.0
230
1.0
 70
     8
 71
     3
 72
     8
 73
     4
 74
     0
 42
0.0000000001
 43
0.0000000001
 40
0.0
 40
0.0
 40
0.0
 40
0.0
 40
80.0
 40
80.0
 40
80.0
 40
80.0
 10
1480.160699884749
 20
631.9946139890845
 30
0.0
 10
1480.296569449966
 20
631.9946139890845
 30
0.0
 10
1480.384884667358
 20
632.020655673028
 30
0.0
 10
1480.425645536923
 20
632.0727389890845
 30
0.0
  0
LINE
  5
B14F
330
1F
100
AcDbEntity
  8
AM_VIS
100
AcDbLine
 10
1478.503091189097
 20
631.9946139890845
 30
0.0
 11
1480.160699884749
 21
631.9946139890845
 31
0.0
  0
SPLINE
  5
B150
330
1F
100
AcDbEntity
  8
AM_VIS
100
AcDbSpline
210
0.0
220
0.0
230
1.0
 70
     8
 71
     3
 72
     8
 73
     4
 74
     0
 42
0.0000000001
 43
0.0000000001
 40
0.0
 40
0.0
 40
0.0
 40
0.0
 40
80.0
 40
80.0
 40
80.0
 40
80.0
 10
1478.214368363009
 20
632.069342249954
 30
0.0
 10
1478.266451679066
 20
632.0195234439278
 30
0.0
 10
1478.362692603818
 20
631.9946139890845
 30
0.0
 10
1478.503091189097
 20
631.9946139890845
 30
0.0
  0
SPLINE
  5
B151
330
1F
100
AcDbEntity
  8
AM_VIS
100
AcDbSpline
210
0.0
220
0.0
230
1.0
 70
     8
 71
     3
 72
     8
 73
     4
 74
     0
 42
0.0000000001
 43
0.0000000001
 40
0.0
 40
0.0
 40
0.0
 40
0.0
 40
80.0
 40
80.0
 40
80.0
 40
80.0
 10
1478.122656406488
 20
632.358065076041
 30
0.0
 10
1478.131714394779
 20
632.2176665425931
 30
0.0
 10
1478.162285046953
 20
632.1214256178408
 30
0.0
 10
1478.214368363009
 20
632.069342249954
 30
0.0
  0
LINE
  5
B152
330
1F
100
AcDbEntity
  8
AM_VIS
100
AcDbLine
 10
1478.054721623879
 20
632.358065076041
 30
0.0
 11
1478.122656406488
 21
632.358065076041
 31
0.0
  0
LINE
  5
B153
330
1F
100
AcDbEntity
  8
AM_VIS
100
AcDbLine
 10
1478.054721623879
 20
631.2609183369105
 30
0.0
 11
1478.054721623879
 21
632.358065076041
 31
0.0
  0
SPLINE
  5
B154
330
1F
100
AcDbEntity
  8
AM_VIS
100
AcDbSpline
210
0.0
220
0.0
230
1.0
 70
     8
 71
     3
 72
     8
 73
     4
 74
     0
 42
0.0000000001
 43
0.0000000001
 40
0.0
 40
0.0
 40
0.0
 40
0.0
 40
80.0
 40
80.0
 40
80.0
 40
80.0
 10
1478.329857493444
 20
630.5985542064758
 30
0.0
 10
1478.146433580401
 20
630.732159313493
 30
0.0
 10
1478.054721623879
 20
630.9529473569713
 30
0.0
 10
1478.054721623879
 20
631.2609183369105
 30
0.0
  0
LINE
  5
B155
330
1F
100
AcDbEntity
  8
AM_HID
100
AcDbLine
 10
1478.054721623879
 20
631.2965046203918
 30
0.0
 11
1478.071366097914
 21
631.2965046203918
 31
0.0
  0
SPLINE
  5
B156
330
1F
100
AcDbEntity
  8
AM_VIS
100
AcDbSpline
210
0.0
220
0.0
230
1.0
 70
     8
 71
     3
 72
     8
 73
     4
 74
     0
 42
0.0000000001
 43
0.0000000001
 40
0.0
 40
0.0
 40
0.0
 40
0.0
 40
80.0
 40
80.0
 40
80.0
 40
80.0
 10
1327.065547251855
 20
608.0995596060991
 30
0.0
 10
1326.689641489308
 20
608.0995595542688
 30
0.0
 10
1326.501688556203
 20
607.8380106412253
 30
0.0
 10
1326.501688556203
 20
607.3149128669686
 30
0.0
  0
SPLINE
  5
B157
330
1F
100
AcDbEntity
  8
AM_VIS
100
AcDbSpline
210
0.0
220
0.0
230
1.0
 70
     8
 71
     3
 72
     8
 73
     4
 74
     0
 42
0.0000000001
 43
0.0000000001
 40
0.0
 40
0.0
 40
0.0
 40
0.0
 40
80.0
 40
80.0
 40
80.0
 40
80.0
 10
1327.659976599682
 20
607.4236085191423
 30
0.0
 10
1327.659976599682
 20
607.87424254256
 30
0.0
 10
1327.461833501016
 20
608.0995595542688
 30
0.0
 10
1327.065547251855
 20
608.0995596060991
 30
0.0
  0
SPLINE
  5
B158
330
1F
100
AcDbEntity
  8
AM_VIS
100
AcDbSpline
210
0.0
220
0.0
230
1.0
 70
     8
 71
     3
 72
     8
 73
     4
 74
     0
 42
0.0000000001
 43
0.0000000001
 40
0.0
 40
0.0
 40
0.0
 40
0.0
 40
80.0
 40
80.0
 40
80.0
 40
80.0
 10
1327.64638964316
 20
607.1552661278381
 30
0.0
 10
1327.655447631451
 20
607.2299943368776
 30
0.0
 10
1327.659976599682
 20
607.3194418351991
 30
0.0
 10
1327.659976599682
 20
607.4236085191423
 30
0.0
  0
LINE
  5
B159
330
1F
100
AcDbEntity
  8
AM_VIS
100
AcDbLine
 10
1326.657938556203
 20
607.1552661278381
 30
0.0
 11
1327.64638964316
 21
607.1552661278381
 31
0.0
  0
SPLINE
  5
B15A
330
1F
100
AcDbEntity
  8
AM_VIS
100
AcDbSpline
210
0.0
220
0.0
230
1.0
 70
     8
 71
     3
 72
     8
 73
     4
 74
     0
 42
0.0000000001
 43
0.0000000001
 40
0.0
 40
0.0
 40
0.0
 40
0.0
 40
80.0
 40
80.0
 40
80.0
 40
80.0
 10
1326.522068990986
 20
607.1892335191424
 30
0.0
 10
1326.544713935799
 20
607.1665885743295
 30
0.0
 10
1326.590003773595
 20
607.1552661278381
 30
0.0
 10
1326.657938556203
 20
607.1552661278381
 30
0.0
  0
SPLINE
  5
B15B
330
1F
100
AcDbEntity
  8
AM_VIS
100
AcDbSpline
210
0.0
220
0.0
230
1.0
 70
     8
 71
     3
 72
     8
 73
     4
 74
     0
 42
0.0000000001
 43
0.0000000001
 40
0.0
 40
0.0
 40
0.0
 40
0.0
 40
80.0
 40
80.0
 40
80.0
 40
80.0
 10
1326.501688556203
 20
607.3149128669686
 30
0.0
 10
1326.501688556203
 20
607.24924254256
 30
0.0
 10
1326.508482034464
 20
607.2073494438948
 30
0.0
 10
1326.522068990986
 20
607.1892335191424
 30
0.0
  0
SPLINE
  5
B15C
330
1F
100
AcDbEntity
  8
AM_VIS
100
AcDbSpline
210
0.0
220
0.0
230
1.0
 70
     8
 71
     3
 72
     8
 73
     4
 74
     0
 42
0.0000000001
 43
0.0000000001
 40
0.0
 40
0.0
 40
0.0
 40
0.0
 40
80.0
 40
80.0
 40
80.0
 40
80.0
 10
1327.058753773595
 20
608.3373313452293
 30
0.0
 10
1327.26029366322
 20
608.3373313452293
 30
0.0
 10
1327.426733880612
 20
608.2739255308513
 30
0.0
 10
1327.558074425768
 20
608.147113953925
 30
0.0
  0
SPLINE
  5
B15D
330
1F
100
AcDbEntity
  8
AM_VIS
100
AcDbSpline
210
0.0
220
0.0
230
1.0
 70
     8
 71
     3
 72
     8
 73
     4
 74
     0
 42
0.0000000001
 43
0.0000000001
 40
0.0
 40
0.0
 40
0.0
 40
0.0
 40
80.0
 40
80.0
 40
80.0
 40
80.0
 10
1326.542449425768
 20
608.0791791713163
 30
0.0
 10
1326.662467576264
 20
608.2512805860383
 30
0.0
 10
1326.834568990986
 20
608.3373313452293
 30
0.0
 10
1327.058753773595
 20
608.3373313452293
 30
0.0
  0
SPLINE
  5
B15E
330
1F
100
AcDbEntity
  8
AM_VIS
100
AcDbSpline
210
0.0
220
0.0
230
1.0
 70
     8
 71
     3
 72
     8
 73
     4
 74
     0
 42
0.0000000001
 43
0.0000000001
 40
0.0
 40
0.0
 40
0.0
 40
0.0
 40
80.0
 40
80.0
 40
80.0
 40
80.0
 10
1326.386199425768
 20
607.4813530843599
 30
0.0
 10
1326.386199425768
 20
607.7281827599513
 30
0.0
 10
1326.438282793655
 20
607.9274581395468
 30
0.0
 10
1326.542449425768
 20
608.0791791713163
 30
0.0
  0
LINE
  5
B15F
330
1F
100
AcDbEntity
  8
AM_VIS
100
AcDbLine
 10
1326.386199425768
 20
606.6185813452293
 30
0.0
 11
1326.386199425768
 21
607.4813530843599
 31
0.0
  0
LINE
  5
B160
330
1F
100
AcDbEntity
  8
AM_VIS
100
AcDbLine
 10
1326.454134208377
 20
606.6185813452293
 30
0.0
 11
1326.386199425768
 21
606.6185813452293
 31
0.0
  0
SPLINE
  5
B161
330
1F
100
AcDbEntity
  8
AM_VIS
100
AcDbSpline
210
0.0
220
0.0
230
1.0
 70
     8
 71
     3
 72
     8
 73
     4
 74
     0
 42
0.0000000001
 43
0.0000000001
 40
0.0
 40
0.0
 40
0.0
 40
0.0
 40
80.0
 40
80.0
 40
80.0
 40
80.0
 10
1326.539052686638
 20
606.8767335191424
 30
0.0
 10
1326.498291817073
 20
606.8359726495773
 30
0.0
 10
1326.469985674929
 20
606.7499218903861
 30
0.0
 10
1326.454134208377
 20
606.6185813452293
 30
0.0
  0
SPLINE
  5
B162
330
1F
100
AcDbEntity
  8
AM_VIS
100
AcDbSpline
210
0.0
220
0.0
230
1.0
 70
     8
 71
     3
 72
     8
 73
     4
 74
     0
 42
0.0000000001
 43
0.0000000001
 40
0.0
 40
0.0
 40
0.0
 40
0.0
 40
80.0
 40
80.0
 40
80.0
 40
80.0
 10
1326.807395077942
 20
606.9412715626206
 30
0.0
 10
1326.671525512725
 20
606.9412715626206
 30
0.0
 10
1326.582078066233
 20
606.9197588469078
 30
0.0
 10
1326.539052686638
 20
606.8767335191424
 30
0.0
  0
LINE
  5
B163
330
1F
100
AcDbEntity
  8
AM_VIS
100
AcDbLine
 10
1328.393672251855
 20
606.9412715626206
 30
0.0
 11
1326.807395077942
 21
606.9412715626206
 31
0.0
  0
SPLINE
  5
B164
330
1F
100
AcDbEntity
  8
AM_VIS
100
AcDbSpline
210
0.0
220
0.0
230
1.0
 70
     8
 71
     3
 72
     8
 73
     4
 74
     0
 42
0.0000000001
 43
0.0000000001
 40
0.0
 40
0.0
 40
0.0
 40
0.0
 40
80.0
 40
80.0
 40
80.0
 40
80.0
 10
1328.702775512725
 20
606.8835269974033
 30
0.0
 10
1328.648427686638
 20
606.9220233569383
 30
0.0
 10
1328.545393283625
 20
606.9412715626206
 30
0.0
 10
1328.393672251855
 20
606.9412715626206
 30
0.0
  0
SPLINE
  5
B165
330
1F
100
AcDbEntity
  8
AM_VIS
100
AcDbSpline
210
0.0
220
0.0
230
1.0
 70
     8
 71
     3
 72
     8
 73
     4
 74
     0
 42
0.0000000001
 43
0.0000000001
 40
0.0
 40
0.0
 40
0.0
 40
0.0
 40
80.0
 40
80.0
 40
80.0
 40
80.0
 10
1328.81826464316
 20
606.6185813452293
 30
0.0
 10
1328.804677686638
 20
606.7521864004166
 30
0.0
 10
1328.766181275273
 20
606.8405016178078
 30
0.0
 10
1328.702775512725
 20
606.8835269974033
 30
0.0
  0
LINE
  5
B166
330
1F
100
AcDbEntity
  8
AM_VIS
100
AcDbLine
 10
1328.886199425769
 20
606.6185813452293
 30
0.0
 11
1328.81826464316
 21
606.6185813452293
 31
0.0
  0
LINE
  5
B167
330
1F
100
AcDbEntity
  8
AM_VIS
100
AcDbLine
 10
1328.886199425769
 20
607.5119237365338
 30
0.0
 11
1328.886199425769
 21
606.6185813452293
 31
0.0
  0
LINE
  5
B168
330
1F
100
AcDbEntity
  8
AM_VIS
100
AcDbLine
 10
1328.81826464316
 20
607.5119237365338
 30
0.0
 11
1328.886199425769
 21
607.5119237365338
 31
0.0
  0
SPLINE
  5
B169
330
1F
100
AcDbEntity
  8
AM_VIS
100
AcDbSpline
210
0.0
220
0.0
230
1.0
 70
     8
 71
     3
 72
     8
 73
     4
 74
     0
 42
0.0000000001
 43
0.0000000001
 40
0.0
 40
0.0
 40
0.0
 40
0.0
 40
80.0
 40
80.0
 40
80.0
 40
80.0
 10
1328.733346164899
 20
607.2401846060991
 30
0.0
 10
1328.780900460895
 20
607.287738953925
 30
0.0
 10
1328.809206654868
 20
607.3783186295165
 30
0.0
 10
1328.81826464316
 20
607.5119237365338
 30
0.0
  0
SPLINE
  5
B16A
330
1F
100
AcDbEntity
  8
AM_VIS
100
AcDbSpline
210
0.0
220
0.0
230
1.0
 70
     8
 71
     3
 72
     8
 73
     4
 74
     0
 42
0.0000000001
 43
0.0000000001
 40
0.0
 40
0.0
 40
0.0
 40
0.0
 40
80.0
 40
80.0
 40
80.0
 40
80.0
 10
1328.441226599682
 20
607.1552661278381
 30
0.0
 10
1328.579360674929
 20
607.1552661278381
 30
0.0
 10
1328.676733880612
 20
607.1835722699816
 30
0.0
 10
1328.733346164899
 20
607.2401846060991
 30
0.0
  0
LINE
  5
B16B
330
1F
100
AcDbEntity
  8
AM_VIS
100
AcDbLine
 10
1327.768672251856
 20
607.1552661278381
 30
0.0
 11
1328.441226599682
 21
607.1552661278381
 31
0.0
  0
LINE
  5
B16C
330
1F
100
AcDbEntity
  8
AM_VIS
100
AcDbLine
 10
1327.770673004002
 20
607.1552272910191
 30
0.0
 11
1327.776343791891
 21
607.4473686489023
 31
0.0
  0
SPLINE
  5
B16D
330
1F
100
AcDbEntity
  8
AM_VIS
100
AcDbSpline
210
0.0
220
0.0
230
1.0
 70
     8
 71
     3
 72
     8
 73
     4
 74
     0
 42
0.0000000001
 43
0.0000000001
 40
0.0
 40
0.0
 40
0.0
 40
0.0
 40
80.0
 40
80.0
 40
80.0
 40
80.0
 10
1327.558074425768
 20
608.147113953925
 30
0.0
 10
1327.703001979277
 20
608.0067153686471
 30
0.0
 10
1327.775465730116
 20
607.773472597747
 30
0.0
 10
1327.775465730116
 20
607.4473856930556
 30
0.0
  0
LINE
  5
B16E
330
1F
100
AcDbEntity
  8
AM_VIS
100
AcDbLine
 10
1348.786199425768
 20
595.6573313452447
 30
0.0
 11
1348.786199425768
 21
594.7783206500576
 31
0.0
  0
LINE
  5
B16F
330
1F
100
AcDbEntity
  8
AM_VIS
100
AcDbLine
 10
1348.719354505982
 20
595.6573313452447
 30
0.0
 11
1348.786199425768
 21
595.6573313452447
 31
0.0
  0
SPLINE
  5
B170
330
1F
100
AcDbEntity
  8
AM_VIS
100
AcDbSpline
210
0.0
220
0.0
230
1.0
 70
     8
 71
     3
 72
     8
 73
     4
 74
     0
 42
0.0000000001
 43
0.0000000001
 40
0.0
 40
0.0
 40
0.0
 40
0.0
 40
80.0
 40
80.0
 40
80.0
 40
80.0
 10
1348.665878570153
 20
595.3899516661003
 30
0.0
 10
1348.70152916004
 20
595.4434276019291
 30
0.0
 10
1348.719354505982
 20
595.5325541276449
 30
0.0
 10
1348.719354505982
 20
595.6573313452447
 30
0.0
  0
SPLINE
  5
B171
330
1F
100
AcDbEntity
  8
AM_VIS
100
AcDbSpline
210
0.0
220
0.0
230
1.0
 70
     8
 71
     3
 72
     8
 73
     4
 74
     0
 42
0.0000000001
 43
0.0000000001
 40
0.0
 40
0.0
 40
0.0
 40
0.0
 40
80.0
 40
80.0
 40
80.0
 40
80.0
 10
1348.462001564806
 20
595.3097377623569
 30
0.0
 10
1348.557812633499
 20
595.3097377623569
 30
0.0
 10
1348.625771567283
 20
595.3364757302715
 30
0.0
 10
1348.665878570153
 20
595.3899516661003
 30
0.0
  0
LINE
  5
B172
330
1F
100
AcDbEntity
  8
AM_VIS
100
AcDbLine
 10
1346.286199425768
 20
595.3097377623569
 30
0.0
 11
1348.462001564806
 21
595.3097377623569
 31
0.0
  0
LINE
  5
B173
330
1F
100
AcDbEntity
  8
AM_VIS
100
AcDbLine
 10
1346.556921350902
 20
594.7448981901645
 30
0.0
 11
1346.286199425768
 21
595.3097377623569
 31
0.0
  0
LINE
  5
B174
330
1F
100
AcDbEntity
  8
AM_VIS
100
AcDbLine
 10
1346.610397286731
 20
594.7448981901645
 30
0.0
 11
1346.556921350902
 21
594.7448981901645
 31
0.0
  0
SPLINE
  5
B175
330
1F
100
AcDbEntity
  8
AM_VIS
100
AcDbSpline
210
0.0
220
0.0
230
1.0
 70
     8
 71
     3
 72
     8
 73
     4
 74
     0
 42
0.0000000001
 43
0.0000000001
 40
0.0
 40
0.0
 40
0.0
 40
0.0
 40
80.0
 40
80.0
 40
80.0
 40
80.0
 10
1346.550236858924
 20
594.9855399013945
 30
0.0
 10
1346.550236858924
 20
594.9276076035808
 30
0.0
 10
1346.570290334859
 20
594.8473936998375
 30
0.0
 10
1346.610397286731
 20
594.7448981901645
 30
0.0
  0
SPLINE
  5
B176
330
1F
100
AcDbEntity
  8
AM_VIS
100
AcDbSpline
210
0.0
220
0.0
230
1.0
 70
     8
 71
     3
 72
     8
 73
     4
 74
     0
 42
0.0000000001
 43
0.0000000001
 40
0.0
 40
0.0
 40
0.0
 40
0.0
 40
80.0
 40
80.0
 40
80.0
 40
80.0
 10
1346.740744880314
 20
595.122571986956
 30
0.0
 10
1346.61373953272
 20
595.122571986956
 30
0.0
 10
1346.550236858924
 20
595.0768946081025
 30
0.0
 10
1346.550236858924
 20
594.9855399013945
 30
0.0
  0
LINE
  5
B177
330
1F
100
AcDbEntity
  8
AM_VIS
100
AcDbLine
 10
1348.398498891009
 20
595.122571986956
 30
0.0
 11
1346.740744880314
 21
595.122571986956
 31
0.0
  0
SPLINE
  5
B178
330
1F
100
AcDbEntity
  8
AM_VIS
100
AcDbSpline
210
0.0
220
0.0
230
1.0
 70
     8
 71
     3
 72
     8
 73
     4
 74
     0
 42
0.0000000001
 43
0.0000000001
 40
0.0
 40
0.0
 40
0.0
 40
0.0
 40
80.0
 40
80.0
 40
80.0
 40
80.0
 10
1348.665878570153
 20
595.0223046072767
 30
0.0
 10
1348.619087075304
 20
595.089149527063
 30
0.0
 10
1348.529960600587
 20
595.122571986956
 30
0.0
 10
1348.398498891009
 20
595.122571986956
 30
0.0
  0
SPLINE
  5
B179
330
1F
100
AcDbEntity
  8
AM_VIS
100
AcDbSpline
210
0.0
220
0.0
230
1.0
 70
     8
 71
     3
 72
     8
 73
     4
 74
     0
 42
0.0000000001
 43
0.0000000001
 40
0.0
 40
0.0
 40
0.0
 40
0.0
 40
80.0
 40
80.0
 40
80.0
 40
80.0
 10
1348.719354505982
 20
594.7783206500576
 30
0.0
 10
1348.714898143998
 20
594.8964133246802
 30
0.0
 10
1348.697072849054
 20
594.9777412934204
 30
0.0
 10
1348.665878570153
 20
595.0223046072767
 30
0.0
  0
LINE
  5
B17A
330
1F
100
AcDbEntity
  8
AM_VIS
100
AcDbLine
 10
1348.786199425768
 20
594.7783206500576
 30
0.0
 11
1348.719354505982
 21
594.7783206500576
 31
0.0
  0
SPLINE
  5
B17B
330
1F
100
AcDbEntity
  8
AM_VIS
100
AcDbSpline
210
0.0
220
0.0
230
1.0
 70
     8
 71
     3
 72
     8
 73
     4
 74
     0
 42
0.0000000001
 43
0.0000000001
 40
0.0
 40
0.0
 40
0.0
 40
0.0
 40
80.0
 40
80.0
 40
80.0
 40
80.0
 10
1346.964675361597
 20
593.7639489923035
 30
0.0
 10
1346.732946323339
 20
593.763948941305
 30
0.0
 10
1346.578088942833
 20
593.661453431632
 30
0.0
 10
1346.500103169084
 20
593.4564623612875
 30
0.0
  0
SPLINE
  5
B17C
330
1F
100
AcDbEntity
  8
AM_VIS
100
AcDbSpline
210
0.0
220
0.0
230
1.0
 70
     8
 71
     3
 72
     8
 73
     4
 74
     0
 42
0.0000000001
 43
0.0000000001
 40
0.0
 40
0.0
 40
0.0
 40
0.0
 40
80.0
 40
80.0
 40
80.0
 40
80.0
 10
1347.445958784057
 20
593.4130131634264
 30
0.0
 10
1347.36351675032
 20
593.6469703316793
 30
0.0
 10
1347.203088942833
 20
593.763948941305
 30
0.0
 10
1346.964675361597
 20
593.7639489923035
 30
0.0
  0
SPLINE
  5
B17D
330
1F
100
AcDbEntity
  8
AM_VIS
100
AcDbSpline
210
0.0
220
0.0
230
1.0
 70
     8
 71
     3
 72
     8
 73
     4
 74
     0
 42
0.0000000001
 43
0.0000000001
 40
0.0
 40
0.0
 40
0.0
 40
0.0
 40
80.0
 40
80.0
 40
80.0
 40
80.0
 10
1347.516145949833
 20
592.8314623612875
 30
0.0
 10
1347.513917819839
 20
593.0966138594394
 30
0.0
 10
1347.490522097914
 20
593.2904641268192
 30
0.0
 10
1347.445958784057
 20
593.4130131634264
 30
0.0
  0
LINE
  5
B17E
330
1F
100
AcDbEntity
  8
AM_VIS
100
AcDbLine
 10
1346.600370548763
 20
592.8314623612875
 30
0.0
 11
1347.516145949833
 21
592.8314623612875
 31
0.0
  0
SPLINE
  5
B17F
330
1F
100
AcDbEntity
  8
AM_VIS
100
AcDbSpline
210
0.0
220
0.0
230
1.0
 70
     8
 71
     3
 72
     8
 73
     4
 74
     0
 42
0.0000000001
 43
0.0000000001
 40
0.0
 40
0.0
 40
0.0
 40
0.0
 40
80.0
 40
80.0
 40
80.0
 40
80.0
 10
1346.463338463202
 20
592.8849382971163
 30
0.0
 10
1346.48562012013
 20
592.8492876562309
 30
0.0
 10
1346.531297498983
 20
592.8314623612875
 30
0.0
 10
1346.600370548763
 20
592.8314623612875
 30
0.0
  0
SPLINE
  5
B180
330
1F
100
AcDbEntity
  8
AM_VIS
100
AcDbSpline
210
0.0
220
0.0
230
1.0
 70
     8
 71
     3
 72
     8
 73
     4
 74
     0
 42
0.0000000001
 43
0.0000000001
 40
0.0
 40
0.0
 40
0.0
 40
0.0
 40
80.0
 40
80.0
 40
80.0
 40
80.0
 10
1346.439942741276
 20
593.0520505965817
 30
0.0
 10
1346.444399103261
 20
592.9629240198671
 30
0.0
 10
1346.452197660237
 20
592.9072199030458
 30
0.0
 10
1346.463338463202
 20
592.8849382971163
 30
0.0
  0
SPLINE
  5
B181
330
1F
100
AcDbEntity
  8
AM_VIS
100
AcDbSpline
210
0.0
220
0.0
230
1.0
 70
     8
 71
     3
 72
     8
 73
     4
 74
     0
 42
0.0000000001
 43
0.0000000001
 40
0.0
 40
0.0
 40
0.0
 40
0.0
 40
80.0
 40
80.0
 40
80.0
 40
80.0
 10
1346.500103169084
 20
593.4564623612875
 30
0.0
 10
1346.45108359524
 20
593.3405978166588
 30
0.0
 10
1346.431030119304
 20
593.2057939120896
 30
0.0
 10
1346.439942741276
 20
593.0520505965817
 30
0.0
  0
LINE
  5
B182
330
1F
100
AcDbEntity
  8
AM_VIS
100
AcDbLine
 10
1348.786199425768
 20
594.3655532703782
 30
0.0
 11
1348.786199425768
 21
593.9043233238544
 31
0.0
  0
LINE
  5
B183
330
1F
100
AcDbEntity
  8
AM_VIS
100
AcDbLine
 10
1348.719354505982
 20
594.3655532703782
 30
0.0
 11
1348.786199425768
 21
594.3655532703782
 31
0.0
  0
SPLINE
  5
B184
330
1F
100
AcDbEntity
  8
AM_VIS
100
AcDbSpline
210
0.0
220
0.0
230
1.0
 70
     8
 71
     3
 72
     8
 73
     4
 74
     0
 42
0.0000000001
 43
0.0000000001
 40
0.0
 40
0.0
 40
0.0
 40
0.0
 40
80.0
 40
80.0
 40
80.0
 40
80.0
 10
1348.58566466641
 20
594.0513821473837
 30
0.0
 10
1348.65473771619
 20
594.0959454102417
 30
0.0
 10
1348.699301030047
 20
594.2006691009068
 30
0.0
 10
1348.719354505982
 20
594.3655532703782
 30
0.0
  0
LINE
  5
B185
330
1F
100
AcDbEntity
  8
AM_VIS
100
AcDbLine
 10
1347.582990869619
 20
593.3762484575443
 30
0.0
 11
1348.58566466641
 21
594.0513821473837
 31
0.0
  0
SPLINE
  5
B186
330
1F
100
AcDbEntity
  8
AM_VIS
100
AcDbSpline
210
0.0
220
0.0
230
1.0
 70
     8
 71
     3
 72
     8
 73
     4
 74
     0
 42
0.0000000001
 43
0.0000000001
 40
0.0
 40
0.0
 40
0.0
 40
0.0
 40
80.0
 40
80.0
 40
80.0
 40
80.0
 10
1347.445958784057
 20
593.7606067463141
 30
0.0
 10
1347.506119211865
 20
593.6714801695997
 30
0.0
 10
1347.551796590718
 20
593.5433607570094
 30
0.0
 10
1347.582990869619
 20
593.3762484575443
 30
0.0
  0
SPLINE
  5
B187
330
1F
100
AcDbEntity
  8
AM_VIS
100
AcDbSpline
210
0.0
220
0.0
230
1.0
 70
     8
 71
     3
 72
     8
 73
     4
 74
     0
 42
0.0000000001
 43
0.0000000001
 40
0.0
 40
0.0
 40
0.0
 40
0.0
 40
80.0
 40
80.0
 40
80.0
 40
80.0
 10
1346.971359853576
 20
593.9979062115549
 30
0.0
 10
1347.183035466898
 20
593.9979062115549
 30
0.0
 10
1347.341235093392
 20
593.9188063728083
 30
0.0
 10
1347.445958784057
 20
593.7606067463141
 30
0.0
  0
SPLINE
  5
B188
330
1F
100
AcDbEntity
  8
AM_VIS
100
AcDbSpline
210
0.0
220
0.0
230
1.0
 70
     8
 71
     3
 72
     8
 73
     4
 74
     0
 42
0.0000000001
 43
0.0000000001
 40
0.0
 40
0.0
 40
0.0
 40
0.0
 40
80.0
 40
80.0
 40
80.0
 40
80.0
 10
1346.433258249298
 20
593.7004463185067
 30
0.0
 10
1346.540210120956
 20
593.8987528968725
 30
0.0
 10
1346.719577339381
 20
593.9979062115549
 30
0.0
 10
1346.971359853576
 20
593.9979062115549
 30
0.0
  0
SPLINE
  5
B189
330
1F
100
AcDbEntity
  8
AM_VIS
100
AcDbSpline
210
0.0
220
0.0
230
1.0
 70
     8
 71
     3
 72
     8
 73
     4
 74
     0
 42
0.0000000001
 43
0.0000000001
 40
0.0
 40
0.0
 40
0.0
 40
0.0
 40
80.0
 40
80.0
 40
80.0
 40
80.0
 10
1346.32630637764
 20
593.1890826821431
 30
0.0
 10
1346.32630637764
 20
593.3963019334801
 30
0.0
 10
1346.361957018526
 20
593.5667564789346
 30
0.0
 10
1346.433258249298
 20
593.7004463185067
 30
0.0
  0
LINE
  5
B18A
330
1F
100
AcDbEntity
  8
AM_VIS
100
AcDbLine
 10
1346.32630637764
 20
592.300045248988
 30
0.0
 11
1346.32630637764
 21
593.1890826821431
 31
0.0
  0
LINE
  5
B18B
330
1F
100
AcDbEntity
  8
AM_VIS
100
AcDbLine
 10
1346.393151297426
 20
592.300045248988
 30
0.0
 11
1346.32630637764
 21
592.300045248988
 31
0.0
  0
SPLINE
  5
B18C
330
1F
100
AcDbEntity
  8
AM_VIS
100
AcDbSpline
210
0.0
220
0.0
230
1.0
 70
     8
 71
     3
 72
     8
 73
     4
 74
     0
 42
0.0000000001
 43
0.0000000001
 40
0.0
 40
0.0
 40
0.0
 40
0.0
 40
80.0
 40
80.0
 40
80.0
 40
80.0
 10
1346.480049693148
 20
592.5473714521965
 30
0.0
 10
1346.43548643029
 20
592.5072645003249
 30
0.0
 10
1346.406520281383
 20
592.4248224155892
 30
0.0
 10
1346.393151297426
 20
592.300045248988
 30
0.0
  0
SPLINE
  5
B18D
330
1F
100
AcDbEntity
  8
AM_VIS
100
AcDbSpline
210
0.0
220
0.0
230
1.0
 70
     8
 71
     3
 72
     8
 73
     4
 74
     0
 42
0.0000000001
 43
0.0000000001
 40
0.0
 40
0.0
 40
0.0
 40
0.0
 40
80.0
 40
80.0
 40
80.0
 40
80.0
 10
1346.770825094218
 20
592.6209008639611
 30
0.0
 10
1346.630450762667
 20
592.6209008129626
 30
0.0
 10
1346.533525628977
 20
592.5963910260406
 30
0.0
 10
1346.480049693148
 20
592.5473714521965
 30
0.0
  0
LINE
  5
B18E
330
1F
100
AcDbEntity
  8
AM_VIS
100
AcDbLine
 10
1348.301573757319
 20
592.6209008639611
 30
0.0
 11
1346.770825094218
 21
592.6209008639611
 31
0.0
  0
SPLINE
  5
B18F
330
1F
100
AcDbEntity
  8
AM_VIS
100
AcDbSpline
210
0.0
220
0.0
230
1.0
 70
     8
 71
     3
 72
     8
 73
     4
 74
     0
 42
0.0000000001
 43
0.0000000001
 40
0.0
 40
0.0
 40
0.0
 40
0.0
 40
80.0
 40
80.0
 40
80.0
 40
80.0
 10
1348.612402634325
 20
592.5573981901646
 30
0.0
 10
1348.556698568502
 20
592.5997332720299
 30
0.0
 10
1348.453088942833
 20
592.6209008129626
 30
0.0
 10
1348.301573757319
 20
592.6209008639611
 30
0.0
  0
SPLINE
  5
B190
330
1F
100
AcDbEntity
  8
AM_VIS
100
AcDbSpline
210
0.0
220
0.0
230
1.0
 70
     8
 71
     3
 72
     8
 73
     4
 74
     0
 42
0.0000000001
 43
0.0000000001
 40
0.0
 40
0.0
 40
0.0
 40
0.0
 40
80.0
 40
80.0
 40
80.0
 40
80.0
 10
1348.719354505982
 20
592.300045248988
 30
0.0
 10
1348.705985522025
 20
592.4292787265754
 30
0.0
 10
1348.67033488114
 20
592.5150630573004
 30
0.0
 10
1348.612402634325
 20
592.5573981901646
 30
0.0
  0
LINE
  5
B191
330
1F
100
AcDbEntity
  8
AM_VIS
100
AcDbLine
 10
1348.786199425768
 20
592.300045248988
 30
0.0
 11
1348.719354505982
 21
592.300045248988
 31
0.0
  0
LINE
  5
B192
330
1F
100
AcDbEntity
  8
AM_VIS
100
AcDbLine
 10
1348.786199425768
 20
593.1690292062073
 30
0.0
 11
1348.786199425768
 21
592.300045248988
 31
0.0
  0
LINE
  5
B193
330
1F
100
AcDbEntity
  8
AM_VIS
100
AcDbLine
 10
1348.719354505982
 20
593.1690292062073
 30
0.0
 11
1348.786199425768
 21
593.1690292062073
 31
0.0
  0
SPLINE
  5
B194
330
1F
100
AcDbEntity
  8
AM_VIS
100
AcDbSpline
210
0.0
220
0.0
230
1.0
 70
     8
 71
     3
 72
     8
 73
     4
 74
     0
 42
0.0000000001
 43
0.0000000001
 40
0.0
 40
0.0
 40
0.0
 40
0.0
 40
80.0
 40
80.0
 40
80.0
 40
80.0
 10
1348.625771618282
 20
592.9049917730521
 30
0.0
 10
1348.677019373118
 20
592.9517831659039
 30
0.0
 10
1348.708213652019
 20
593.0397956776212
 30
0.0
 10
1348.719354505982
 20
593.1690292062073
 30
0.0
  0
SPLINE
  5
B195
330
1F
100
AcDbEntity
  8
AM_VIS
100
AcDbSpline
210
0.0
220
0.0
230
1.0
 70
     8
 71
     3
 72
     8
 73
     4
 74
     0
 42
0.0000000001
 43
0.0000000001
 40
0.0
 40
0.0
 40
0.0
 40
0.0
 40
80.0
 40
80.0
 40
80.0
 40
80.0
 10
1348.34836520117
 20
592.8314623612875
 30
0.0
 10
1348.479826910748
 20
592.8314623612875
 30
0.0
 10
1348.572295682453
 20
592.8559721482095
 30
0.0
 10
1348.625771618282
 20
592.9049917730521
 30
0.0
  0
LINE
  5
B196
330
1F
100
AcDbEntity
  8
AM_VIS
100
AcDbLine
 10
1347.633124559459
 20
592.8314623612875
 30
0.0
 11
1348.34836520117
 21
592.8314623612875
 31
0.0
  0
LINE
  5
B197
330
1F
100
AcDbEntity
  8
AM_VIS
100
AcDbLine
 10
1347.619755575501
 20
593.1122110243891
 30
0.0
 11
1347.633124559459
 21
592.8314623612875
 31
0.0
  0
LINE
  5
B198
330
1F
100
AcDbEntity
  8
AM_VIS
100
AcDbLine
 10
1348.786199425768
 20
593.9043233238544
 30
0.0
 11
1347.619755575501
 21
593.1122110243891
 31
0.0
  0
LINE
  5
B199
330
1F
100
AcDbEntity
  8
AM_VIS
100
AcDbLine
 10
1348.300180783958
 20
632.782331345194
 30
0.0
 11
1348.786199425769
 21
632.609228815234
 31
0.0
  0
LINE
  5
B19A
330
1F
100
AcDbEntity
  8
AM_VIS
100
AcDbLine
 10
1348.300180783958
 20
632.7157534490554
 30
0.0
 11
1348.300180783958
 21
632.782331345194
 31
0.0
  0
SPLINE
  5
B19B
330
1F
100
AcDbEntity
  8
AM_VIS
100
AcDbSpline
210
0.0
220
0.0
230
1.0
 70
     8
 71
     3
 72
     8
 73
     4
 74
     0
 42
0.0000000001
 43
0.0000000001
 40
0.0
 40
0.0
 40
0.0
 40
0.0
 40
80.0
 40
80.0
 40
80.0
 40
80.0
 10
1348.539861210056
 20
632.562624287937
 30
0.0
 10
1348.506572312782
 20
632.6003517454839
 30
0.0
 10
1348.426678786621
 20
632.6513947822584
 30
0.0
 10
1348.300180783958
 20
632.7157534490554
 30
0.0
  0
SPLINE
  5
B19C
330
1F
100
AcDbEntity
  8
AM_VIS
100
AcDbSpline
210
0.0
220
0.0
230
1.0
 70
     8
 71
     3
 72
     8
 73
     4
 74
     0
 42
0.0000000001
 43
0.0000000001
 40
0.0
 40
0.0
 40
0.0
 40
0.0
 40
80.0
 40
80.0
 40
80.0
 40
80.0
 10
1348.603110211388
 20
632.3928506527838
 30
0.0
 10
1348.603110211388
 20
632.4660863385363
 30
0.0
 10
1348.582027227875
 20
632.522677550254
 30
0.0
 10
1348.539861210056
 20
632.562624287937
 30
0.0
  0
LINE
  5
B19D
330
1F
100
AcDbEntity
  8
AM_VIS
100
AcDbLine
 10
1348.603110211388
 20
631.6471782160329
 30
0.0
 11
1348.603110211388
 21
632.3928506527838
 31
0.0
  0
LINE
  5
B19E
330
1F
100
AcDbEntity
  8
AM_VIS
100
AcDbLine
 10
1347.844122195409
 20
632.2696815449278
 30
0.0
 11
1348.603110211388
 21
631.6471782160329
 31
0.0
  0
SPLINE
  5
B19F
330
1F
100
AcDbEntity
  8
AM_VIS
100
AcDbSpline
210
0.0
220
0.0
230
1.0
 70
     8
 71
     3
 72
     8
 73
     4
 74
     0
 42
0.0000000001
 43
0.0000000001
 40
0.0
 40
0.0
 40
0.0
 40
0.0
 40
80.0
 40
80.0
 40
80.0
 40
80.0
 10
1346.945320597539
 20
632.6192154996547
 30
0.0
 10
1347.262675269663
 20
632.6192154996547
 30
0.0
 10
1347.562275802286
 20
632.5027041814124
 30
0.0
 10
1347.844122195409
 20
632.2696815449278
 30
0.0
  0
SPLINE
  5
B1A0
330
1F
100
AcDbEntity
  8
AM_VIS
100
AcDbSpline
210
0.0
220
0.0
230
1.0
 70
     8
 71
     3
 72
     8
 73
     4
 74
     0
 42
0.0000000001
 43
0.0000000001
 40
0.0
 40
0.0
 40
0.0
 40
0.0
 40
80.0
 40
80.0
 40
80.0
 40
80.0
 10
1346.459301955729
 20
632.4394551800808
 30
0.0
 10
1346.588019238528
 20
632.55929539313
 30
0.0
 10
1346.750025469396
 20
632.6192154996547
 30
0.0
 10
1346.945320597539
 20
632.6192154996547
 30
0.0
  0
SPLINE
  5
B1A1
330
1F
100
AcDbEntity
  8
AM_VIS
100
AcDbSpline
210
0.0
220
0.0
230
1.0
 70
     8
 71
     3
 72
     8
 73
     4
 74
     0
 42
0.0000000001
 43
0.0000000001
 40
0.0
 40
0.0
 40
0.0
 40
0.0
 40
80.0
 40
80.0
 40
80.0
 40
80.0
 10
1346.286199425769
 20
632.036658908443
 30
0.0
 10
1346.286199425769
 20
632.1942265790392
 30
0.0
 10
1346.343900302952
 20
632.3284919859868
 30
0.0
 10
1346.459301955729
 20
632.4394551800808
 30
0.0
  0
SPLINE
  5
B1A2
330
1F
100
AcDbEntity
  8
AM_VIS
100
AcDbSpline
210
0.0
220
0.0
230
1.0
 70
     8
 71
     3
 72
     8
 73
     4
 74
     0
 42
0.0000000001
 43
0.0000000001
 40
0.0
 40
0.0
 40
0.0
 40
0.0
 40
80.0
 40
80.0
 40
80.0
 40
80.0
 10
1346.439328586887
 20
631.6371915316121
 30
0.0
 10
1346.337242513338
 20
631.7503739550475
 30
0.0
 10
1346.286199425769
 20
631.8835297473245
 30
0.0
 10
1346.286199425769
 20
632.036658908443
 30
0.0
  0
SPLINE
  5
B1A3
330
1F
100
AcDbEntity
  8
AM_VIS
100
AcDbSpline
210
0.0
220
0.0
230
1.0
 70
     8
 71
     3
 72
     8
 73
     4
 74
     0
 42
0.0000000001
 43
0.0000000001
 40
0.0
 40
0.0
 40
0.0
 40
0.0
 40
80.0
 40
80.0
 40
80.0
 40
80.0
 10
1347.001911809257
 20
631.3675510522512
 30
0.0
 10
1346.748915803931
 20
631.4119362994119
 30
0.0
 10
1346.561388080073
 20
631.5018164591988
 30
0.0
 10
1346.439328586887
 20
631.6371915316121
 30
0.0
  0
LINE
  5
B1A4
330
1F
100
AcDbEntity
  8
AM_VIS
100
AcDbLine
 10
1347.011898493678
 20
631.4341289483897
 30
0.0
 11
1347.001911809257
 21
631.3675510522512
 31
0.0
  0
SPLINE
  5
B1A5
330
1F
100
AcDbEntity
  8
AM_VIS
100
AcDbSpline
210
0.0
220
0.0
230
1.0
 70
     8
 71
     3
 72
     8
 73
     4
 74
     0
 42
0.0000000001
 43
0.0000000001
 40
0.0
 40
0.0
 40
0.0
 40
0.0
 40
80.0
 40
80.0
 40
80.0
 40
80.0
 10
1346.659035644144
 20
631.5806003198945
 30
0.0
 10
1346.7034209421
 20
631.5539691614389
 30
0.0
 10
1346.821041875013
 20
631.5051453540059
 30
0.0
 10
1347.011898493678
 20
631.4341289483897
 30
0.0
  0
SPLINE
  5
B1A6
330
1F
100
AcDbEntity
  8
AM_VIS
100
AcDbSpline
210
0.0
220
0.0
230
1.0
 70
     8
 71
     3
 72
     8
 73
     4
 74
     0
 42
0.0000000001
 43
0.0000000001
 40
0.0
 40
0.0
 40
0.0
 40
0.0
 40
80.0
 40
80.0
 40
80.0
 40
80.0
 10
1346.462630850535
 20
631.8935164317451
 30
0.0
 10
1346.462630850535
 20
631.7647991489459
 30
0.0
 10
1346.528099132003
 20
631.6604937952607
 30
0.0
 10
1346.659035644144
 20
631.5806003198945
 30
0.0
  0
SPLINE
  5
B1A7
330
1F
100
AcDbEntity
  8
AM_VIS
100
AcDbSpline
210
0.0
220
0.0
230
1.0
 70
     8
 71
     3
 72
     8
 73
     4
 74
     0
 42
0.0000000001
 43
0.0000000001
 40
0.0
 40
0.0
 40
0.0
 40
0.0
 40
80.0
 40
80.0
 40
80.0
 40
80.0
 10
1346.685666802599
 20
632.3129571774177
 30
0.0
 10
1346.536976201753
 20
632.2153095625512
 30
0.0
 10
1346.462630850535
 20
632.0754959806604
 30
0.0
 10
1346.462630850535
 20
631.8935164317451
 30
0.0
  0
SPLINE
  5
B1A8
330
1F
100
AcDbEntity
  8
AM_VIS
100
AcDbSpline
210
0.0
220
0.0
230
1.0
 70
     8
 71
     3
 72
     8
 73
     4
 74
     0
 42
0.0000000001
 43
0.0000000001
 40
0.0
 40
0.0
 40
0.0
 40
0.0
 40
80.0
 40
80.0
 40
80.0
 40
80.0
 10
1347.075147495009
 20
632.4228107060462
 30
0.0
 10
1346.935333913118
 20
632.4316877250014
 30
0.0
 10
1346.805507015649
 20
632.3950698821252
 30
0.0
 10
1346.685666802599
 20
632.3129571774177
 30
0.0
  0
SPLINE
  5
B1A9
330
1F
100
AcDbEntity
  8
AM_VIS
100
AcDbSpline
210
0.0
220
0.0
230
1.0
 70
     8
 71
     3
 72
     8
 73
     4
 74
     0
 42
0.0000000001
 43
0.0000000001
 40
0.0
 40
0.0
 40
0.0
 40
0.0
 40
80.0
 40
80.0
 40
80.0
 40
80.0
 10
1348.063829252666
 20
631.9367920642353
 30
0.0
 10
1347.688773804949
 20
632.2430503864723
 30
0.0
 10
1347.359213219064
 20
632.4050565665459
 30
0.0
 10
1347.075147495009
 20
632.4228107060462
 30
0.0
  0
LINE
  5
B1AA
330
1F
100
AcDbEntity
  8
AM_VIS
100
AcDbLine
 10
1348.769554951734
 20
631.3575643678305
 30
0.0
 11
1348.063829252666
 21
631.9367920642353
 31
0.0
  0
LINE
  5
B1AB
330
1F
100
AcDbEntity
  8
AM_VIS
100
AcDbLine
 10
1348.786199425769
 20
631.3575643678305
 30
0.0
 11
1348.769554951734
 21
631.3575643678305
 31
0.0
  0
LINE
  5
B1AC
330
1F
100
AcDbEntity
  8
AM_VIS
100
AcDbLine
 10
1348.786199425769
 20
632.609228815234
 30
0.0
 11
1348.786199425769
 21
631.3575643678305
 31
0.0
  0
SPLINE
  5
B1AD
330
1F
100
AcDbEntity
  8
AM_VIS
100
AcDbSpline
210
0.0
220
0.0
230
1.0
 70
     8
 71
     3
 72
     8
 73
     4
 74
     0
 42
0.0000000001
 43
0.0000000001
 40
0.0
 40
0.0
 40
0.0
 40
0.0
 40
80.0
 40
80.0
 40
80.0
 40
80.0
 10
1346.971951755995
 20
630.6335297473244
 30
0.0
 10
1346.741148399646
 20
630.6335296965296
 30
0.0
 10
1346.586909623857
 20
630.5314436229805
 30
0.0
 10
1346.509235377832
 20
630.3272714250875
 30
0.0
  0
SPLINE
  5
B1AE
330
1F
100
AcDbEntity
  8
AM_VIS
100
AcDbSpline
210
0.0
220
0.0
230
1.0
 70
     8
 71
     3
 72
     8
 73
     4
 74
     0
 42
0.0000000001
 43
0.0000000001
 40
0.0
 40
0.0
 40
0.0
 40
0.0
 40
80.0
 40
80.0
 40
80.0
 40
80.0
 10
1347.451312608192
 20
630.2839957925975
 30
0.0
 10
1347.369199903484
 20
630.5170183782872
 30
0.0
 10
1347.209412952752
 20
630.6335296965296
 30
0.0
 10
1346.971951755995
 20
630.6335297473244
 30
0.0
  0
SPLINE
  5
B1AF
330
1F
100
AcDbEntity
  8
AM_VIS
100
AcDbSpline
210
0.0
220
0.0
230
1.0
 70
     8
 71
     3
 72
     8
 73
     4
 74
     0
 42
0.0000000001
 43
0.0000000001
 40
0.0
 40
0.0
 40
0.0
 40
0.0
 40
80.0
 40
80.0
 40
80.0
 40
80.0
 10
1347.521219399137
 20
629.7047680961927
 30
0.0
 10
1347.519000169796
 20
629.9688604006103
 30
0.0
 10
1347.495697906148
 20
630.1619362994119
 30
0.0
 10
1347.451312608192
 20
630.2839957925975
 30
0.0
  0
LINE
  5
B1B0
330
1F
100
AcDbEntity
  8
AM_VIS
100
AcDbLine
 10
1346.60910222204
 20
629.7047680961927
 30
0.0
 11
1347.521219399137
 21
629.7047680961927
 31
0.0
  0
SPLINE
  5
B1B1
330
1F
100
AcDbEntity
  8
AM_VIS
100
AcDbSpline
210
0.0
220
0.0
230
1.0
 70
     8
 71
     3
 72
     8
 73
     4
 74
     0
 42
0.0000000001
 43
0.0000000001
 40
0.0
 40
0.0
 40
0.0
 40
0.0
 40
80.0
 40
80.0
 40
80.0
 40
80.0
 10
1346.472617534956
 20
629.7580304131035
 30
0.0
 10
1346.494810183934
 20
629.722522184898
 30
0.0
 10
1346.54030509656
 20
629.7047680961927
 30
0.0
 10
1346.60910222204
 20
629.7047680961927
 30
0.0
  0
SPLINE
  5
B1B2
330
1F
100
AcDbEntity
  8
AM_VIS
100
AcDbSpline
210
0.0
220
0.0
230
1.0
 70
     8
 71
     3
 72
     8
 73
     4
 74
     0
 42
0.0000000001
 43
0.0000000001
 40
0.0
 40
0.0
 40
0.0
 40
0.0
 40
80.0
 40
80.0
 40
80.0
 40
80.0
 10
1346.449315271308
 20
629.9244751534497
 30
0.0
 10
1346.45375383158
 20
629.8357046083333
 30
0.0
 10
1346.461521235865
 20
629.7802230112863
 30
0.0
 10
1346.472617534956
 20
629.7580304131035
 30
0.0
  0
SPLINE
  5
B1B3
330
1F
100
AcDbEntity
  8
AM_VIS
100
AcDbSpline
210
0.0
220
0.0
230
1.0
 70
     8
 71
     3
 72
     8
 73
     4
 74
     0
 42
0.0000000001
 43
0.0000000001
 40
0.0
 40
0.0
 40
0.0
 40
0.0
 40
80.0
 40
80.0
 40
80.0
 40
80.0
 10
1346.509235377832
 20
630.3272714250875
 30
0.0
 10
1346.460411621194
 20
630.2118697215157
 30
0.0
 10
1346.440438252353
 20
630.0776043145681
 30
0.0
 10
1346.449315271308
 20
629.9244751534497
 30
0.0
  0
LINE
  5
B1B4
330
1F
100
AcDbEntity
  8
AM_VIS
100
AcDbLine
 10
1348.786199425769
 20
631.2327308125709
 30
0.0
 11
1348.786199425769
 21
630.7733433292153
 31
0.0
  0
LINE
  5
B1B5
330
1F
100
AcDbEntity
  8
AM_VIS
100
AcDbLine
 10
1348.71962152963
 20
631.2327308125709
 30
0.0
 11
1348.786199425769
 21
631.2327308125709
 31
0.0
  0
SPLINE
  5
B1B6
330
1F
100
AcDbEntity
  8
AM_VIS
100
AcDbSpline
210
0.0
220
0.0
230
1.0
 70
     8
 71
     3
 72
     8
 73
     4
 74
     0
 42
0.0000000001
 43
0.0000000001
 40
0.0
 40
0.0
 40
0.0
 40
0.0
 40
80.0
 40
80.0
 40
80.0
 40
80.0
 10
1348.586465737353
 20
630.91981470072
 30
0.0
 10
1348.655262862833
 20
630.9641999478806
 30
0.0
 10
1348.699648160789
 20
631.0685053015661
 30
0.0
 10
1348.71962152963
 20
631.2327308125709
 30
0.0
  0
LINE
  5
B1B7
330
1F
100
AcDbEntity
  8
AM_VIS
100
AcDbLine
 10
1347.587797295276
 20
630.2473779497213
 30
0.0
 11
1348.586465737353
 21
630.91981470072
 31
0.0
  0
SPLINE
  5
B1B8
330
1F
100
AcDbEntity
  8
AM_VIS
100
AcDbSpline
210
0.0
220
0.0
230
1.0
 70
     8
 71
     3
 72
     8
 73
     4
 74
     0
 42
0.0000000001
 43
0.0000000001
 40
0.0
 40
0.0
 40
0.0
 40
0.0
 40
80.0
 40
80.0
 40
80.0
 40
80.0
 10
1347.451312608192
 20
630.6302008525176
 30
0.0
 10
1347.511232714716
 20
630.5414303074012
 30
0.0
 10
1347.556727627343
 20
630.4138226900675
 30
0.0
 10
1347.587797295276
 20
630.2473779497213
 30
0.0
  0
SPLINE
  5
B1B9
330
1F
100
AcDbEntity
  8
AM_VIS
100
AcDbSpline
210
0.0
220
0.0
230
1.0
 70
     8
 71
     3
 72
     8
 73
     4
 74
     0
 42
0.0000000001
 43
0.0000000001
 40
0.0
 40
0.0
 40
0.0
 40
0.0
 40
80.0
 40
80.0
 40
80.0
 40
80.0
 10
1346.978609545609
 20
630.8665523838092
 30
0.0
 10
1347.189439583911
 20
630.8665523838092
 30
0.0
 10
1347.347007254507
 20
630.7877685231138
 30
0.0
 10
1347.451312608192
 20
630.6302008525176
 30
0.0
  0
SPLINE
  5
B1BA
330
1F
100
AcDbEntity
  8
AM_VIS
100
AcDbSpline
210
0.0
220
0.0
230
1.0
 70
     8
 71
     3
 72
     8
 73
     4
 74
     0
 42
0.0000000001
 43
0.0000000001
 40
0.0
 40
0.0
 40
0.0
 40
0.0
 40
80.0
 40
80.0
 40
80.0
 40
80.0
 10
1346.442657481694
 20
630.5702807459929
 30
0.0
 10
1346.549182115516
 20
630.7677951542721
 30
0.0
 10
1346.727832820419
 20
630.8665523838092
 30
0.0
 10
1346.978609545609
 20
630.8665523838092
 30
0.0
  0
SPLINE
  5
B1BB
330
1F
100
AcDbEntity
  8
AM_VIS
100
AcDbSpline
210
0.0
220
0.0
230
1.0
 70
     8
 71
     3
 72
     8
 73
     4
 74
     0
 42
0.0000000001
 43
0.0000000001
 40
0.0
 40
0.0
 40
0.0
 40
0.0
 40
80.0
 40
80.0
 40
80.0
 40
80.0
 10
1346.336132847872
 20
630.0609598405335
 30
0.0
 10
1346.336132847872
 20
630.267351318563
 30
0.0
 10
1346.371641076078
 20
630.4371249537159
 30
0.0
 10
1346.442657481694
 20
630.5702807459929
 30
0.0
  0
LINE
  5
B1BC
330
1F
100
AcDbEntity
  8
AM_VIS
100
AcDbLine
 10
1346.336132847872
 20
629.1754738218917
 30
0.0
 11
1346.336132847872
 21
630.0609598405335
 31
0.0
  0
LINE
  5
B1BD
330
1F
100
AcDbEntity
  8
AM_VIS
100
AcDbLine
 10
1346.402710744011
 20
629.1754738218917
 30
0.0
 11
1346.336132847872
 21
629.1754738218917
 31
0.0
  0
SPLINE
  5
B1BE
330
1F
100
AcDbEntity
  8
AM_VIS
100
AcDbSpline
210
0.0
220
0.0
230
1.0
 70
     8
 71
     3
 72
     8
 73
     4
 74
     0
 42
0.0000000001
 43
0.0000000001
 40
0.0
 40
0.0
 40
0.0
 40
0.0
 40
80.0
 40
80.0
 40
80.0
 40
80.0
 10
1346.489262008991
 20
629.4218120376042
 30
0.0
 10
1346.44487676183
 20
629.3818652999209
 30
0.0
 10
1346.416026323238
 20
629.2997525444186
 30
0.0
 10
1346.402710744011
 20
629.1754738218917
 30
0.0
  0
SPLINE
  5
B1BF
330
1F
100
AcDbEntity
  8
AM_VIS
100
AcDbSpline
210
0.0
220
0.0
230
1.0
 70
     8
 71
     3
 72
     8
 73
     4
 74
     0
 42
0.0000000001
 43
0.0000000001
 40
0.0
 40
0.0
 40
0.0
 40
0.0
 40
80.0
 40
80.0
 40
80.0
 40
80.0
 10
1346.778875857193
 20
629.4950477233564
 30
0.0
 10
1346.639062275303
 20
629.4950476725617
 30
0.0
 10
1346.542524325902
 20
629.4706357942425
 30
0.0
 10
1346.489262008991
 20
629.4218120376042
 30
0.0
  0
LINE
  5
B1C0
330
1F
100
AcDbEntity
  8
AM_VIS
100
AcDbLine
 10
1348.303509678764
 20
629.4950477233564
 30
0.0
 11
1346.778875857193
 21
629.4950477233564
 31
0.0
  0
SPLINE
  5
B1C1
330
1F
100
AcDbEntity
  8
AM_VIS
100
AcDbSpline
210
0.0
220
0.0
230
1.0
 70
     8
 71
     3
 72
     8
 73
     4
 74
     0
 42
0.0000000001
 43
0.0000000001
 40
0.0
 40
0.0
 40
0.0
 40
0.0
 40
80.0
 40
80.0
 40
80.0
 40
80.0
 10
1348.613096895808
 20
629.4317987220249
 30
0.0
 10
1348.557615349556
 20
629.4739646890493
 30
0.0
 10
1348.454419610542
 20
629.4950476725617
 30
0.0
 10
1348.303509678764
 20
629.4950477233564
 30
0.0
  0
SPLINE
  5
B1C2
330
1F
100
AcDbEntity
  8
AM_VIS
100
AcDbSpline
210
0.0
220
0.0
230
1.0
 70
     8
 71
     3
 72
     8
 73
     4
 74
     0
 42
0.0000000001
 43
0.0000000001
 40
0.0
 40
0.0
 40
0.0
 40
0.0
 40
80.0
 40
80.0
 40
80.0
 40
80.0
 10
1348.71962152963
 20
629.1754738218917
 30
0.0
 10
1348.706305950402
 20
629.3041910538961
 30
0.0
 10
1348.670797722197
 20
629.3896327042054
 30
0.0
 10
1348.613096895808
 20
629.4317987220249
 30
0.0
  0
LINE
  5
B1C3
330
1F
100
AcDbEntity
  8
AM_VIS
100
AcDbLine
 10
1348.786199425769
 20
629.1754738218917
 30
0.0
 11
1348.71962152963
 21
629.1754738218917
 31
0.0
  0
LINE
  5
B1C4
330
1F
100
AcDbEntity
  8
AM_VIS
100
AcDbLine
 10
1348.786199425769
 20
630.0409864716921
 30
0.0
 11
1348.786199425769
 21
629.1754738218917
 31
0.0
  0
LINE
  5
B1C5
330
1F
100
AcDbEntity
  8
AM_VIS
100
AcDbLine
 10
1348.71962152963
 20
630.0409864716921
 30
0.0
 11
1348.786199425769
 21
630.0409864716921
 31
0.0
  0
SPLINE
  5
B1C6
330
1F
100
AcDbEntity
  8
AM_VIS
100
AcDbSpline
210
0.0
220
0.0
230
1.0
 70
     8
 71
     3
 72
     8
 73
     4
 74
     0
 42
0.0000000001
 43
0.0000000001
 40
0.0
 40
0.0
 40
0.0
 40
0.0
 40
80.0
 40
80.0
 40
80.0
 40
80.0
 10
1348.626412475036
 20
629.778003781945
 30
0.0
 10
1348.677455511811
 20
629.8246082584471
 30
0.0
 10
1348.708525179743
 20
629.9122691888926
 30
0.0
 10
1348.71962152963
 20
630.0409864716921
 30
0.0
  0
SPLINE
  5
B1C7
330
1F
100
AcDbEntity
  8
AM_VIS
100
AcDbSpline
210
0.0
220
0.0
230
1.0
 70
     8
 71
     3
 72
     8
 73
     4
 74
     0
 42
0.0000000001
 43
0.0000000001
 40
0.0
 40
0.0
 40
0.0
 40
0.0
 40
80.0
 40
80.0
 40
80.0
 40
80.0
 10
1348.350114206061
 20
629.7047680961927
 30
0.0
 10
1348.481050768997
 20
629.7047680961927
 30
0.0
 10
1348.573150158125
 20
629.7291799745119
 30
0.0
 10
1348.626412475036
 20
629.778003781945
 30
0.0
  0
LINE
  5
B1C8
330
1F
100
AcDbEntity
  8
AM_VIS
100
AcDbLine
 10
1347.63773071738
 20
629.7047680961927
 30
0.0
 11
1348.350114206061
 21
629.7047680961927
 31
0.0
  0
LINE
  5
B1C9
330
1F
100
AcDbEntity
  8
AM_VIS
100
AcDbLine
 10
1347.624415138152
 20
629.9843952599742
 30
0.0
 11
1347.63773071738
 21
629.7047680961927
 31
0.0
  0
LINE
  5
B1CA
330
1F
100
AcDbEntity
  8
AM_VIS
100
AcDbLine
 10
1348.786199425769
 20
630.7733433292153
 30
0.0
 11
1347.624415138152
 21
629.9843952599742
 31
0.0
  0
ENDSEC
  0
SECTION
  2
OBJECTS
  0
DICTIONARY
  5
C
330
0
100
AcDbDictionary
281
     1
  3
ACAD_COLOR
350
BE
  3
ACAD_GROUP
350
D
  3
ACAD_LAYOUT
350
1A
  3
ACAD_MATERIAL
350
BD
  3
ACAD_MLINESTYLE
350
17
  3
ACAD_PLOTSETTINGS
350
19
  3
ACAD_PLOTSTYLENAME
350
E
  3
ACAD_TABLESTYLE
350
11A
  3
ACDBHEADERROUNDTRIPXREC
350
B1E4
  3
AcDbVariableDictionary
350
94
  3
AcmDictionary
350
5B
  3
AMG
350
41
  3
AMGSNAPSETTINGS
350
1B8
  3
DWGPROPS
350
B1E3
  0
DICTIONARY
  5
3F9
330
2
100
AcDbDictionary
280
     1
281
     1
  3
ACAD_LAYERFILTERS
360
B1D8
  3
ACAD_LAYERSTATES
360
A94
  3
ACLYDICTIONARY
360
B1D7
  3
AMLAYER_GROUPCOLORS
360
948F
  0
DICTIONARY
  5
8F
330
1F
100
AcDbDictionary
280
     1
281
     1
  3
ACAD_SORTENTS
360
8A9B
  0
DICTIONARY
  5
A506
330
A505
100
AcDbDictionary
280
     1
281
     1
  3
ACAD_DIMASSOC
360
A507
  0
DICTIONARY
  5
A509
330
A508
100
AcDbDictionary
280
     1
281
     1
  3
ACAD_DIMASSOC
360
A50A
  0
DICTIONARY
  5
A50F
330
A50E
100
AcDbDictionary
280
     1
281
     1
  3
ACAD_DIMASSOC
360
A510
  0
DICTIONARY
  5
AED5
330
AEC8
100
AcDbDictionary
280
     1
281
     1
  3
ACAD_DIMASSOC
360
AED6
  0
DICTIONARY
  5
BE
102
{ACAD_REACTORS
330
C
102
}
330
C
100
AcDbDictionary
281
     1
  0
DICTIONARY
  5
D
102
{ACAD_REACTORS
330
C
102
}
330
C
100
AcDbDictionary
281
     1
  0
DICTIONARY
  5
1A
102
{ACAD_REACTORS
330
C
102
}
330
C
100
AcDbDictionary
281
     1
  3
Model
350
22
  3
配置1
350
1E
  3
配置2
350
26
  0
DICTIONARY
  5
BD
102
{ACAD_REACTORS
330
C
102
}
330
C
100
AcDbDictionary
281
     1
  0
DICTIONARY
  5
17
102
{ACAD_REACTORS
330
C
102
}
330
C
100
AcDbDictionary
281
     1
  3
Standard
350
18
  0
DICTIONARY
  5
19
102
{ACAD_REACTORS
330
C
102
}
330
C
100
AcDbDictionary
281
     1
  0
ACDBDICTIONARYWDFLT
  5
E
102
{ACAD_REACTORS
330
C
102
}
330
C
100
AcDbDictionary
281
     1
  3
Normal
350
F
100
AcDbDictionaryWithDefault
340
F
  0
DICTIONARY
  5
11A
102
{ACAD_REACTORS
330
C
102
}
330
C
100
AcDbDictionary
281
     1
  3
Standard
350
11B
  0
DICTIONARY
  5
B1E4
102
{ACAD_REACTORS
330
C
102
}
330
C
100
AcDbDictionary
281
     1
  0
DICTIONARY
  5
94
102
{ACAD_REACTORS
330
C
102
}
330
C
100
AcDbDictionary
281
     1
  3
CTABLESTYLE
350
138
  3
DIMASSOC
350
96
  3
INDEXCTL
350
95
  3
PROJECTNAME
350
AF63
  0
DICTIONARY
  5
5B
102
{ACAD_REACTORS
330
C
102
}
330
C
100
AcDbDictionary
281
     1
  3
AcmBOM
350
1B5
  3
AcmStdDictionary
350
61
  3
AMDTSECTSYM_ARROWCOLOR
350
123
  0
DICTIONARY
  5
41
102
{ACAD_REACTORS
330
C
102
}
330
C
100
AcDbDictionary
281
     1
  0
DICTIONARY
  5
1B8
102
{ACAD_REACTORS
330
C
102
}
330
C
100
AcDbDictionary
281
     1
  0
XRECORD
  5
B1E3
102
{ACAD_REACTORS
330
C
102
}
330
C
100
AcDbXrecord
280
     1
  1
DWGPROPS COOKIE
  2

  3

  4

  6

  7

  8

  9

300
AmdtFileType=84
301
=
302
=
303
=
304
=
305
=
306
=
307
=
308
=
309
=
 40
0.5790589583333334
 41
2454098.708838426
 42
2454789.573353241
  1

 90
        1
  0
DICTIONARY
  5
B1D8
102
{ACAD_REACTORS
330
3F9
102
}
330
3F9
100
AcDbDictionary
281
     1
  0
DICTIONARY
  5
A94
102
{ACAD_REACTORS
330
3F9
102
}
330
3F9
100
AcDbDictionary
281
     1
  0
DICTIONARY
  5
B1D7
102
{ACAD_REACTORS
330
3F9
102
}
330
3F9
100
AcDbDictionary
281
     1
1001
ACAD
1000
<All
  0
DICTIONARY
  5
948F
102
{ACAD_REACTORS
330
3F9
102
}
330
3F9
100
AcDbDictionary
280
     1
281
     1
  0
SORTENTSTABLE
  5
8A9B
102
{ACAD_REACTORS
330
8F
102
}
330
8F
100
AcDbSortentsTable
330
1F
  0
DIMASSOC
  5
A507
102
{ACAD_REACTORS
330
A506
102
}
330
A506
100
AcDbDimAssoc
330
A505
 90
        2
 70
     0
 71
     0
  1
AcDbOsnapPointRef
 72
     1
331
A503
 73
     0
 91
        0
 40
0.0
 10
0.0
 20
0.0
 30
2.000000000000000E+50
 75
     0
  0
DIMASSOC
  5
A50A
102
{ACAD_REACTORS
330
A509
102
}
330
A509
100
AcDbDimAssoc
330
A508
 90
        3
 70
     0
 71
     0
  1
AcDbOsnapPointRef
 72
     1
331
A503
 73
     0
 91
        0
 40
0.0
 10
0.0
 20
0.0
 30
2.000000000000000E+50
 75
     0
  1
AcDbOsnapPointRef
 72
     1
331
A4FF
 73
     0
 91
        0
 40
0.0
 10
0.0
 20
0.0
 30
2.000000000000000E+50
 75
     0
  0
DIMASSOC
  5
A510
102
{ACAD_REACTORS
330
A50F
102
}
330
A50F
100
AcDbDimAssoc
330
A50E
 90
        2
 70
     0
 71
     0
  1
AcDbOsnapPointRef
 72
     1
331
A504
 73
     0
 91
        0
 40
0.0
 10
0.0
 20
0.0
 30
2.000000000000000E+50
 75
     0
  0
DIMASSOC
  5
AED6
102
{ACAD_REACTORS
330
AED5
102
}
330
AED5
100
AcDbDimAssoc
330
AEC8
 90
        3
 70
     0
 71
     0
  1
AcDbOsnapPointRef
 72
     1
331
A139
 73
     0
 91
        0
 40
0.0
 10
0.0
 20
0.0
 30
2.000000000000000E+50
 75
     0
  1
AcDbOsnapPointRef
 72
    13
331
A13B
 73
     0
 91
        0
 40
0.0
 10
0.0
 20
0.0
 30
2.000000000000000E+50
 75
     0
  0
LAYOUT
  5
22
102
{ACAD_XDICTIONARY
360
B1E7
102
}
102
{ACAD_REACTORS
330
1A
102
}
330
1A
100
AcDbPlotSettings
  1

  2
\\RD\EPSON Stylus C63 Series單色
  4
A4
  6

 40
3.757083177566528
 41
3.757076978683471
 42
3.757080078125
 43
3.757080078125
 44
209.9733276367187
 45
296.9683227539062
 46
0.0
 47
0.0
 48
0.0
 49
0.0
140
0.0
141
0.0
142
1.0
143
0.3405120737814363
 70
 11952
 72
     1
 73
     0
 74
     0
  7
acad.ctb
 75
     0
147
2.936753428137963
148
-2047.07469463503
149
-1261.649717473083
100
AcDbLayout
  1
Model
 70
     1
 71
     0
 10
0.0
 20
0.0
 11
12.0
 21
9.0
 12
0.0
 22
0.0
 32
0.0
 14
0.0
 24
0.0
 34
0.0
 15
0.0
 25
0.0
 35
0.0
146
0.0
 13
0.0
 23
0.0
 33
0.0
 16
1.0
 26
0.0
 36
0.0
 17
0.0
 27
1.0
 37
0.0
 76
     0
330
1F
1001
ACAD_PSEXT
1000
\\RD\EPSON Stylus C63 Series單色
1000
EPSON Stylus C63 Series
1000
\\RD
1000

1070
     0
  0
LAYOUT
  5
1E
102
{ACAD_XDICTIONARY
360
B1E5
102
}
102
{ACAD_REACTORS
330
1A
102
}
330
1A
100
AcDbPlotSettings
  1

  2

  4

  6

 40
0.0
 41
0.0
 42
0.0
 43
0.0
 44
0.0
 45
0.0
 46
0.0
 47
0.0
 48
0.0
 49
0.0
140
0.0
141
0.0
142
1.0
143
1.0
 70
   688
 72
     0
 73
     0
 74
     5
  7
acad.ctb
 75
    16
147
1.0
148
0.0
149
0.0
100
AcDbLayout
  1
配置1
 70
     1
 71
     1
 10
0.0
 20
0.0
 11
420.0
 21
297.0
 12
0.0
 22
0.0
 32
0.0
 14
1.000000000000000E+20
 24
1.000000000000000E+20
 34
1.000000000000000E+20
 15
-1.000000000000000E+20
 25
-1.000000000000000E+20
 35
-1.000000000000000E+20
146
0.0
 13
0.0
 23
0.0
 33
0.0
 16
1.0
 26
0.0
 36
0.0
 17
0.0
 27
1.0
 37
0.0
 76
     0
330
1B
  0
LAYOUT
  5
26
102
{ACAD_XDICTIONARY
360
B1E9
102
}
102
{ACAD_REACTORS
330
1A
102
}
330
1A
100
AcDbPlotSettings
  1

  2

  4

  6

 40
0.0
 41
0.0
 42
0.0
 43
0.0
 44
0.0
 45
0.0
 46
0.0
 47
0.0
 48
0.0
 49
0.0
140
0.0
141
0.0
142
1.0
143
1.0
 70
   688
 72
     0
 73
     0
 74
     5
  7
acad.ctb
 75
    16
147
1.0
148
0.0
149
0.0
100
AcDbLayout
  1
配置2
 70
     1
 71
     2
 10
0.0
 20
0.0
 11
12.0
 21
9.0
 12
0.0
 22
0.0
 32
0.0
 14
0.0
 24
0.0
 34
0.0
 15
0.0
 25
0.0
 35
0.0
146
0.0
 13
0.0
 23
0.0
 33
0.0
 16
1.0
 26
0.0
 36
0.0
 17
0.0
 27
1.0
 37
0.0
 76
     0
330
23
  0
MLINESTYLE
  5
18
102
{ACAD_REACTORS
330
17
102
}
330
17
100
AcDbMlineStyle
  2
STANDARD
 70
     0
  3

 62
   256
 51
90.0
 52
90.0
 71
     2
 49
0.5
 62
   256
  6
BYLAYER
 49
-0.5
 62
   256
  6
BYLAYER
  0
ACDBPLACEHOLDER
  5
F
102
{ACAD_REACTORS
330
E
102
}
330
E
  0
TABLESTYLE
  5
11B
102
{ACAD_REACTORS
330
11A
102
}
330
11A
100
AcDbTableStyle
  3
Standard
 70
     0
 71
     0
 40
1.5
 41
1.5
280
     0
281
     0
  7
STANDARD
140
4.5
170
     2
 62
     0
 63
     7
283
     0
274
    -2
284
     1
 64
     0
275
    -2
285
     1
 65
     0
276
    -2
286
     1
 66
     0
277
    -2
287
     1
 67
     0
278
    -2
288
     1
 68
     0
279
    -2
289
     1
 69
     0
  7
STANDARD
140
6.0
170
     5
 62
     0
 63
     7
283
     0
274
    -2
284
     1
 64
     0
275
    -2
285
     1
 65
     0
276
    -2
286
     1
 66
     0
277
    -2
287
     1
 67
     0
278
    -2
288
     1
 68
     0
279
    -2
289
     1
 69
     0
  7
STANDARD
140
4.5
170
     5
 62
     0
 63
     7
283
     0
274
    -2
284
     1
 64
     0
275
    -2
285
     1
 65
     0
276
    -2
286
     1
 66
     0
277
    -2
287
     1
 67
     0
278
    -2
288
     1
 68
     0
279
    -2
289
     1
 69
     0
  0
DICTIONARYVAR
  5
138
102
{ACAD_REACTORS
330
94
102
}
330
94
100
DictionaryVariables
280
     0
  1
STANDARD
  0
DICTIONARYVAR
  5
96
102
{ACAD_REACTORS
330
94
102
}
330
94
100
DictionaryVariables
280
     0
  1
2
  0
DICTIONARYVAR
  5
95
102
{ACAD_REACTORS
330
94
102
}
330
94
100
DictionaryVariables
280
     0
  1
0
  0
DICTIONARYVAR
  5
AF63
102
{ACAD_REACTORS
330
94
102
}
330
94
100
DictionaryVariables
280
     0
  1

  0
DICTIONARY
  5
1B5
102
{ACAD_REACTORS
330
5B
102
}
330
5B
100
AcDbDictionary
281
     1
  0
DICTIONARY
  5
61
102
{ACAD_REACTORS
330
5B
102
}
330
5B
100
AcDbDictionary
281
     1
  0
XRECORD
  5
123
102
{ACAD_REACTORS
330
5B
102
}
330
5B
100
AcDbXrecord
280
     1
 90
-1023410169
  0
DICTIONARY
  5
B1E7
330
22
100
AcDbDictionary
280
     1
281
     1
  3
ACAD_XREC_ROUNDTRIP
360
B1E8
  0
DICTIONARY
  5
B1E5
330
1E
100
AcDbDictionary
280
     1
281
     1
  3
ACAD_XREC_ROUNDTRIP
360
B1E6
  0
DICTIONARY
  5
B1E9
330
26
100
AcDbDictionary
280
     1
281
     1
  3
ACAD_XREC_ROUNDTRIP
360
B1EA
  0
XRECORD
  5
B1E8
102
{ACAD_REACTORS
330
B1E7
102
}
330
B1E7
100
AcDbXrecord
280
     1
102
SHADEPLOT
 70
     0
102
SHADEPLOTRESLEVEL
 70
     2
102
SHADEPLOTCUSTOMDPI
 70
   300
  0
XRECORD
  5
B1E6
102
{ACAD_REACTORS
330
B1E5
102
}
330
B1E5
100
AcDbXrecord
280
     1
102
SHADEPLOT
 70
     0
102
SHADEPLOTRESLEVEL
 70
     2
102
SHADEPLOTCUSTOMDPI
 70
   300
  0
XRECORD
  5
B1EA
102
{ACAD_REACTORS
330
B1E9
102
}
330
B1E9
100
AcDbXrecord
280
     1
102
SHADEPLOT
 70
     0
102
SHADEPLOTRESLEVEL
 70
     2
102
SHADEPLOTCUSTOMDPI
 70
   300
  0
ENDSEC
  0
EOF
