  0
SECTION
  2
HEADER
  9
$ACADVER
  1
AC1009
  9
$INSBASE
 10
0.0
 20
0.0
 30
0.0
  9
$EXTMIN
 10
-212.88867120082551
 20
188.7789010018796
 30
-0.0015258207003583
  9
$EXTMAX
 10
-125.6352535915038
 20
266.71820131190827
 30
0.0000000349246037
  9
$LIMMIN
 10
0.0
 20
0.0
  9
$LIMMAX
 10
396.0
 20
273.0
  9
$ORTHOMODE
 70
     0
  9
$REGENMODE
 70
     1
  9
$FILLMODE
 70
     1
  9
$QTEXTMODE
 70
     0
  9
$MIRRTEXT
 70
     1
  9
$DRAGMODE
 70
     2
  9
$LTSCALE
 40
6.0
  9
$OSMODE
 70
    39
  9
$ATTMODE
 70
     1
  9
$TEXTSIZE
 40
5.0
  9
$TRACEWID
 40
0.05
  9
$TEXTSTYLE
  7
CHINESET
  9
$CLAYER
  8
0
  9
$CELTYPE
  6
BYLAYER
  9
$CECOLOR
 62
   256
  9
$DIMSCALE
 40
1.0
  9
$DIMASZ
 40
3.0
  9
$DIMEXO
 40
2.0
  9
$DIMDLI
 40
8.0
  9
$DIMRND
 40
0.0
  9
$DIMDLE
 40
0.0
  9
$DIMEXE
 40
2.0
  9
$DIMTP
 40
0.0
  9
$DIMTM
 40
0.0
  9
$DIMTXT
 40
3.0
  9
$DIMCEN
 40
-3.0
  9
$DIMTSZ
 40
0.0
  9
$DIMTOL
 70
     0
  9
$DIMLIM
 70
     0
  9
$DIMTIH
 70
     0
  9
$DIMTOH
 70
     0
  9
$DIMSE1
 70
     0
  9
$DIMSE2
 70
     0
  9
$DIMTAD
 70
     1
  9
$DIMZIN
 70
     8
  9
$DIMBLK
  1

  9
$DIMASO
 70
     1
  9
$DIMSHO
 70
     1
  9
$DIMPOST
  1

  9
$DIMAPOST
  1

  9
$DIMALT
 70
     0
  9
$DIMALTD
 70
     2
  9
$DIMALTF
 40
25.399999999999999
  9
$DIMLFAC
 40
1.0
  9
$DIMTOFL
 70
     0
  9
$DIMTVP
 40
0.0
  9
$DIMTIX
 70
     0
  9
$DIMSOXD
 70
     0
  9
$DIMSAH
 70
     0
  9
$DIMBLK1
  1

  9
$DIMBLK2
  1

  9
$DIMSTYLE
  2
STANDARD
  9
$DIMCLRD
 70
     0
  9
$DIMCLRE
 70
     0
  9
$DIMCLRT
 70
     0
  9
$DIMTFAC
 40
0.5
  9
$DIMGAP
 40
1.5
  9
$LUNITS
 70
     2
  9
$LUPREC
 70
     2
  9
$SKETCHINC
 40
0.1
  9
$FILLETRAD
 40
12.0
  9
$AUNITS
 70
     0
  9
$AUPREC
 70
     0
  9
$MENU
  1
ACAD
  9
$ELEVATION
 40
0.0
  9
$PELEVATION
 40
0.0
  9
$THICKNESS
 40
0.0
  9
$LIMCHECK
 70
     0
  9
$BLIPMODE
 70
     0
  9
$CHAMFERA
 40
2.0
  9
$CHAMFERB
 40
2.0
  9
$SKPOLY
 70
     0
  9
$TDCREATE
 40
2450436.7992719901
  9
$TDUPDATE
 40
2451946.5847647921
  9
$TDINDWG
 40
0.8701688426000001
  9
$TDUSRTIMER
 40
0.8701688426000001
  9
$USRTIMER
 70
     1
  9
$ANGBASE
 50
0.0
  9
$ANGDIR
 70
     0
  9
$PDMODE
 70
    65
  9
$PDSIZE
 40
8.3000000000000007
  9
$PLINEWID
 40
0.0
  9
$COORDS
 70
     2
  9
$SPLFRAME
 70
     0
  9
$SPLINETYPE
 70
     6
  9
$SPLINESEGS
 70
     8
  9
$ATTDIA
 70
     0
  9
$ATTREQ
 70
     1
  9
$HANDLING
 70
 12289
  9
$HANDSEED
  5
4D8
  9
$SURFTAB1
 70
     6
  9
$SURFTAB2
 70
     6
  9
$SURFTYPE
 70
     6
  9
$SURFU
 70
     6
  9
$SURFV
 70
     6
  9
$UCSNAME
  2

  9
$UCSORG
 10
0.0
 20
0.0
 30
0.0
  9
$UCSXDIR
 10
1.0
 20
0.0
 30
0.0
  9
$UCSYDIR
 10
0.0
 20
1.0
 30
0.0
  9
$PUCSNAME
  2

  9
$PUCSORG
 10
0.0
 20
0.0
 30
0.0
  9
$PUCSXDIR
 10
1.0
 20
0.0
 30
0.0
  9
$PUCSYDIR
 10
0.0
 20
1.0
 30
0.0
  9
$USERI1
 70
     0
  9
$USERI2
 70
     0
  9
$USERI3
 70
     0
  9
$USERI4
 70
     0
  9
$USERI5
 70
     0
  9
$USERR1
 40
0.0
  9
$USERR2
 40
0.0
  9
$USERR3
 40
0.0
  9
$USERR4
 40
0.0
  9
$USERR5
 40
0.0
  9
$WORLDVIEW
 70
     1
  9
$SHADEDGE
 70
     3
  9
$SHADEDIF
 70
    70
  9
$TILEMODE
 70
     1
  9
$MAXACTVP
 70
    16
  9
$PLIMCHECK
 70
     0
  9
$PEXTMIN
 10
-273.3129965794289
 20
1.3881161795999331
 30
-0.0000000349181948
  9
$PEXTMAX
 10
-79.891524143177662
 20
269.15478465906631
 30
0.0000000814935746
  9
$PLIMMIN
 10
-278.28200264445832
 20
-3.5808939846616781
  9
$PLIMMAX
 10
114.4797607998254
 20
274.12379072409561
  9
$UNITMODE
 70
     0
  9
$VISRETAIN
 70
     0
  9
$PLINEGEN
 70
     0
  9
$PSLTSCALE
 70
     0
  0
ENDSEC
  0
SECTION
  2
TABLES
  0
TABLE
  2
VPORT
 70
     2
  0
VPORT
  2
*ACTIVE
 70
     0
 10
0.0
 20
0.0
 11
1.0
 21
1.0
 12
-169.26196239616471
 22
227.748551156894
 13
0.0
 23
0.0
 14
1.0
 24
1.0
 15
0.0
 25
0.0
 16
0.0
 26
0.0
 36
1.0
 17
0.0
 27
0.0
 37
0.0
 40
78.798924945801133
 41
1.7274401473296499
 42
50.0
 43
0.0
 44
0.0
 50
0.0
 51
0.0
 71
     0
 72
   100
 73
     1
 74
     1
 75
     0
 76
     0
 77
     0
 78
     0
  0
ENDTAB
  0
TABLE
  2
LTYPE
 70
     3
  0
LTYPE
  2
CONTINUOUS
 70
     0
  3
Solid line
 72
    65
 73
     0
 40
0.0
  0
LTYPE
  2
CENTER
 70
     0
  3
Center ____ _ ____ _ ____ _ ____ _ ____ _ ____
 72
    65
 73
     4
 40
2.0
 49
1.25
 49
-0.25
 49
0.25
 49
-0.25
  0
ENDTAB
  0
TABLE
  2
LAYER
 70
     6
  0
LAYER
  2
0
 70
     0
 62
     7
  6
CONTINUOUS
  0
LAYER
  2
LOGO
 70
     0
 62
     7
  6
CONTINUOUS
  0
LAYER
  2
DEFPOINTS
 70
     0
 62
     7
  6
CONTINUOUS
  0
LAYER
  2
CENTER
 70
     0
 62
     1
  6
CENTER
  0
LAYER
  2
DIM
 70
     0
 62
     5
  6
CONTINUOUS
  0
ENDTAB
  0
TABLE
  2
STYLE
 70
     4
  0
STYLE
  2
STANDARD
 70
     0
 40
0.0
 41
1.0
 50
0.0
 71
     0
 42
0.2
  3
txt
  4

  0
STYLE
  2
CHINESET
 70
     0
 40
0.0
 41
1.0
 50
0.0
 71
     0
 42
5.0
  3
C:\r13\com\fonts\simplex.shx
  4
C:\r13\com\fonts\chineset.shx
  0
STYLE
  2
LOGO
 70
     0
 40
0.0
 41
1.0
 50
0.0
 71
     0
 42
5.0
  3
txt
  4

  0
ENDTAB
  0
TABLE
  2
VIEW
 70
     0
  0
ENDTAB
  0
TABLE
  2
UCS
 70
     0
  0
ENDTAB
  0
TABLE
  2
APPID
 70
     1
  0
APPID
  2
ACAD
 70
     0
  0
ENDTAB
  0
TABLE
  2
DIMSTYLE
 70
     1
  0
DIMSTYLE
  2
STANDARD
 70
     0
  3

  4

  5

  6

  7

 40
1.0
 41
3.0
 42
2.0
 43
8.0
 44
2.0
 45
0.0
 46
0.0
 47
0.0
 48
0.0
140
3.0
141
-3.0
142
0.0
143
25.399999999999999
144
1.0
145
0.0
146
0.5
147
1.5
 71
     0
 72
     0
 73
     0
 74
     0
 75
     0
 76
     0
 77
     1
 78
     8
170
     0
171
     2
172
     0
173
     0
174
     0
175
     0
176
     0
177
     0
178
     0
  0
ENDTAB
  0
ENDSEC
  0
SECTION
  2
BLOCKS
  0
BLOCK
  8
0
  2
$MODEL_SPACE
 70
     0
 10
0.0
 20
0.0
 30
0.0
  3
$MODEL_SPACE
  1

  0
ENDBLK
  5
A
  8
0
  0
BLOCK
 67
     1
  8
0
  2
$PAPER_SPACE
 70
     0
 10
0.0
 20
0.0
 30
0.0
  3
$PAPER_SPACE
  1

  0
ENDBLK
  5
F
 67
     1
  8
0
  0
BLOCK
  8
0
  2
*D0
 70
     1
 10
0.0
 20
0.0
 30
0.0
  3
*D0
  1

  0
LINE
  5
13D
  8
DIM
 62
     0
 10
-185.04588341728601
 20
258.20287024174007
 30
0.0
 11
-185.04588341728601
 21
262.86857630924561
 31
0.0
  0
LINE
  5
13E
  8
DIM
 62
     0
 10
-153.04588341728601
 20
258.20287024174007
 30
0.0
 11
-153.04588341728601
 21
262.86857630924561
 31
0.0
  0
LINE
  5
13F
  8
DIM
 62
     0
 10
-182.04588341728601
 20
260.86857630924561
 30
0.0
 11
-156.04588341728601
 21
260.86857630924561
 31
0.0
  0
SOLID
  5
140
  8
DIM
 62
     0
 10
-182.04588341728601
 20
261.36857630924561
 30
0.0
 11
-182.04588341728601
 21
260.36857630924561
 31
0.0
 12
-185.04588341728601
 22
260.86857630924561
 32
0.0
 13
-185.04588341728601
 23
260.86857630924561
 33
0.0
  0
SOLID
  5
141
  8
DIM
 62
     0
 10
-156.04588341728601
 20
261.36857630924561
 30
0.0
 11
-156.04588341728601
 21
260.36857630924561
 31
0.0
 12
-153.04588341728601
 22
260.86857630924561
 32
0.0
 13
-153.04588341728601
 23
260.86857630924561
 33
0.0
  0
TEXT
  5
142
  8
0
 62
     0
 10
-171.47445484585739
 20
262.36857630924561
 30
0.0
 40
3.0
  1
32
  7
CHINESET
  0
POINT
  5
143
  8
DEFPOINTS
 62
     0
 10
-185.04588341728601
 20
256.20287024174007
 30
0.0
  0
POINT
  5
144
  8
DEFPOINTS
 62
     0
 10
-153.04588341728601
 20
256.20287024174007
 30
0.0
  0
POINT
  5
145
  8
DEFPOINTS
 62
     0
 10
-153.04588341728601
 20
260.86857630924561
 30
0.0
  0
ENDBLK
  5
107
  8
0
  0
BLOCK
  8
0
  2
*D1
 70
     1
 10
0.0
 20
0.0
 30
0.0
  3
*D1
  1

  0
LINE
  5
146
  8
DIM
 62
     0
 10
-151.54588341728601
 20
256.70287024174007
 30
0.0
 11
-126.5395573302014
 21
256.70287024174002
 31
0.0
  0
LINE
  5
147
  8
DIM
 62
     0
 10
-151.54588341728601
 20
231.2028702417401
 30
0.0
 11
-126.5395573302014
 21
231.2028702417401
 31
0.0
  0
LINE
  5
148
  8
DIM
 62
     0
 10
-128.5395573302014
 20
253.70287024173999
 30
0.0
 11
-128.5395573302014
 21
234.2028702417401
 31
0.0
  0
SOLID
  5
149
  8
DIM
 62
     0
 10
-129.0395573302014
 20
253.70287024173999
 30
0.0
 11
-128.0395573302014
 21
253.70287024173999
 31
0.0
 12
-128.5395573302014
 22
256.70287024174007
 32
0.0
 13
-128.5395573302014
 23
256.70287024174007
 33
0.0
  0
SOLID
  5
14A
  8
DIM
 62
     0
 10
-129.0395573302014
 20
234.2028702417401
 30
0.0
 11
-128.0395573302014
 21
234.2028702417401
 31
0.0
 12
-128.5395573302014
 22
231.2028702417401
 32
0.0
 13
-128.5395573302014
 23
231.2028702417401
 33
0.0
  0
TEXT
  5
14B
  8
0
 62
     0
 10
-130.0395573302014
 20
239.38144167031149
 30
0.0
 40
3.0
  1
25.5
 50
90.0
  7
CHINESET
  0
POINT
  5
14C
  8
DEFPOINTS
 62
     0
 10
-153.54588341728601
 20
256.70287024174007
 30
0.0
  0
POINT
  5
14D
  8
DEFPOINTS
 62
     0
 10
-153.54588341728601
 20
231.2028702417401
 30
0.0
  0
POINT
  5
14E
  8
DEFPOINTS
 62
     0
 10
-128.5395573302014
 20
231.2028702417401
 30
0.0
  0
ENDBLK
  5
114
  8
0
  0
BLOCK
  8
0
  2
*D2
 70
     1
 10
0.0
 20
0.0
 30
0.0
  3
*D2
  1

  0
LINE
  5
134
  8
DIM
 62
     0
 10
-140.04588341728601
 20
233.4528702417401
 30
0.0
 11
-140.04588341728601
 21
209.94697064538431
 31
0.0
  0
LINE
  5
135
  8
DIM
 62
     0
 10
-198.04588341728601
 20
237.21472945743199
 30
0.0
 11
-198.04588341728601
 21
209.94697064538431
 31
0.0
  0
LINE
  5
136
  8
DIM
 62
     0
 10
-143.04588341728601
 20
211.94697064538431
 30
0.0
 11
-195.04588341728601
 21
211.94697064538431
 31
0.0
  0
SOLID
  5
137
  8
DIM
 62
     0
 10
-143.04588341728601
 20
212.44697064538431
 30
0.0
 11
-143.04588341728601
 21
211.44697064538431
 31
0.0
 12
-140.04588341728601
 22
211.94697064538431
 32
0.0
 13
-140.04588341728601
 23
211.94697064538431
 33
0.0
  0
SOLID
  5
138
  8
DIM
 62
     0
 10
-195.04588341728601
 20
212.44697064538431
 30
0.0
 11
-195.04588341728601
 21
211.44697064538431
 31
0.0
 12
-198.04588341728601
 22
211.94697064538431
 32
0.0
 13
-198.04588341728601
 23
211.94697064538431
 33
0.0
  0
TEXT
  5
139
  8
0
 62
     0
 10
-171.47445484585739
 20
213.44697064538431
 30
0.0
 40
3.0
  1
58
  7
CHINESET
  0
POINT
  5
13A
  8
DEFPOINTS
 62
     0
 10
-140.04588341728601
 20
235.4528702417401
 30
0.0
  0
POINT
  5
13B
  8
DEFPOINTS
 62
     0
 10
-198.04588341728601
 20
239.21472945743199
 30
0.0
  0
POINT
  5
13C
  8
DEFPOINTS
 62
     0
 10
-198.04588341728601
 20
211.94697064538431
 30
0.0
  0
ENDBLK
  5
126
  8
0
  0
ENDSEC
  0
SECTION
  2
ENTITIES
  0
LINE
  5
26
  8
CENTER
  6
CENTER
 10
-200.18024216903129
 20
243.9528702417401
 30
0.0
 11
-137.55192570256889
 21
243.9528702417401
 31
0.0
  0
LINE
  5
2C
  8
0
 10
-163.04588341728601
 20
255.9528702417401
 30
0.0
 11
-163.04588341728601
 21
231.9528702417401
 31
0.0
  0
LINE
  5
2E
  8
0
 10
-175.04588341728601
 20
255.9528702417401
 30
0.0
 11
-175.04588341728601
 21
231.9528702417401
 31
0.0
  0
LINE
  5
2F
  8
0
 10
-175.79588341728601
 20
256.70287024174007
 30
0.0
 11
-175.79588341728601
 21
231.2028702417401
 31
0.0
  0
LINE
  5
30
  8
0
 10
-184.54588341728601
 20
256.70287024174007
 30
0.0
 11
-184.54588341728601
 21
234.52612619479879
 31
0.0
  0
LINE
  5
31
  8
0
 10
-184.54588341728601
 20
234.52612619479891
 30
0.0
 11
-184.54588341728601
 21
231.2028702417401
 31
0.0
  0
LINE
  5
32
  8
0
 10
-185.04588341728601
 20
231.7028702417401
 30
0.0
 11
-185.04588341728601
 21
234.8958024319339
 31
0.0
  0
LINE
  5
33
  8
0
 10
-185.04588341728601
 20
234.89580243193379
 30
0.0
 11
-185.04588341728601
 21
256.20287024174007
 31
0.0
  0
LINE
  5
34
  8
0
 10
-162.29588341728601
 20
231.2028702417401
 30
0.0
 11
-162.29588341728601
 21
256.70287024174007
 31
0.0
  0
LINE
  5
35
  8
0
 10
-153.54588341728601
 20
231.2028702417401
 30
0.0
 11
-153.54588341728601
 21
234.52612619479871
 31
0.0
  0
LINE
  5
36
  8
0
 10
-153.54588341728601
 20
234.52612619479859
 30
0.0
 11
-153.54588341728601
 21
256.70287024174007
 31
0.0
  0
LINE
  5
37
  8
0
 10
-153.04588341728601
 20
256.20287024174007
 30
0.0
 11
-153.04588341728601
 21
234.8958024319335
 31
0.0
  0
LINE
  5
38
  8
0
 10
-153.04588341728601
 20
234.89580243193359
 30
0.0
 11
-153.04588341728601
 21
231.7028702417401
 31
0.0
  0
LINE
  5
39
  8
0
 10
-142.04588341728601
 20
252.3994832018995
 30
0.0
 11
-142.04588341728601
 21
233.10287024174011
 31
0.0
  0
LINE
  5
3A
  8
0
 10
-143.245883417286
 20
233.10287024174011
 30
0.0
 11
-143.245883417286
 21
252.3994832018995
 31
0.0
  0
LINE
  5
3B
  8
0
 10
-143.245883417286
 20
254.8628702417401
 30
0.0
 11
-143.245883417286
 21
256.00287024174008
 31
0.0
  0
LINE
  5
3C
  8
0
 10
-142.04588341728601
 20
256.00287024174008
 30
0.0
 11
-143.245883417286
 21
256.00287024174008
 31
0.0
  0
LINE
  5
3D
  8
0
 10
-142.04588341728601
 20
256.00287024174008
 30
0.0
 11
-142.04588341728601
 21
254.86287024174021
 31
0.0
  0
LINE
  5
3E
  8
0
 10
-143.245883417286
 20
254.8628702417401
 30
0.0
 11
-143.245883417286
 21
253.41616347391721
 31
0.0
  0
LINE
  5
3F
  8
0
 10
-143.245883417286
 20
254.8628702417401
 30
0.0
 11
-142.04588341728601
 21
254.8628702417401
 31
0.0
  0
LINE
  5
40
  8
0
 10
-142.04588341728601
 20
253.41616347391721
 30
0.0
 11
-142.04588341728601
 21
254.8628702417401
 31
0.0
  0
LINE
  5
41
  8
0
 10
-143.245883417286
 20
252.3994832018995
 30
0.0
 11
-143.245883417286
 21
253.41616347391721
 31
0.0
  0
LINE
  5
42
  8
0
 10
-142.04588341728601
 20
253.41616347391721
 30
0.0
 11
-143.245883417286
 21
253.41616347391721
 31
0.0
  0
LINE
  5
43
  8
0
 10
-142.04588341728601
 20
253.41616347391721
 30
0.0
 11
-142.04588341728601
 21
252.3994832018995
 31
0.0
  0
LINE
  5
44
  8
0
 10
-143.245883417286
 20
252.3994832018995
 30
0.0
 11
-142.04588341728601
 21
252.3994832018995
 31
0.0
  0
LINE
  5
45
  8
0
 10
-185.04588341728601
 20
238.46804268443859
 30
0.0
 11
-186.04588341728601
 21
238.46804268443859
 31
0.0
  0
LINE
  5
46
  8
0
 10
-185.04588341728601
 20
232.98321512713721
 30
0.0
 11
-186.04588341728601
 21
232.98321512713721
 31
0.0
  0
LINE
  5
47
  8
0
 10
-185.04588341728601
 20
249.43769779904159
 30
0.0
 11
-186.04588341728601
 21
249.43769779904159
 31
0.0
  0
LINE
  5
48
  8
0
 10
-185.04588341728601
 20
254.92252535634299
 30
0.0
 11
-186.04588341728601
 21
254.92252535634299
 31
0.0
  0
LINE
  5
49
  8
0
 10
-188.04588341728601
 20
252.9528702417401
 30
0.0
 11
-188.04588341728601
 21
234.9528702417401
 31
0.0
  0
POLYLINE
  8
0
  5
16D
  66
     1
 10
0.000000
 20
0.000000
 30
0.000000
  70
     8
  0
VERTEX
  8
0
  5
16E
 10
-186.046
 20
238.468
 30
0.000000
  70
    32
  0
VERTEX
  8
0
  5
16F
 10
-186.063
 20
238.450
 30
0.000000
  70
    32
  0
VERTEX
  8
0
  5
170
 10
-186.080
 20
238.432
 30
0.000000
  70
    32
  0
VERTEX
  8
0
  5
171
 10
-186.098
 20
238.414
 30
0.000000
  70
    32
  0
VERTEX
  8
0
  5
172
 10
-186.115
 20
238.396
 30
0.000000
  70
    32
  0
VERTEX
  8
0
  5
173
 10
-186.132
 20
238.378
 30
0.000000
  70
    32
  0
VERTEX
  8
0
  5
174
 10
-186.149
 20
238.360
 30
0.000000
  70
    32
  0
VERTEX
  8
0
  5
175
 10
-186.166
 20
238.342
 30
0.000000
  70
    32
  0
VERTEX
  8
0
  5
176
 10
-186.184
 20
238.324
 30
0.000000
  70
    32
  0
VERTEX
  8
0
  5
177
 10
-186.201
 20
238.306
 30
0.000000
  70
    32
  0
VERTEX
  8
0
  5
178
 10
-186.218
 20
238.288
 30
0.000000
  70
    32
  0
VERTEX
  8
0
  5
179
 10
-186.235
 20
238.270
 30
0.000000
  70
    32
  0
VERTEX
  8
0
  5
17A
 10
-186.252
 20
238.252
 30
0.000000
  70
    32
  0
VERTEX
  8
0
  5
17B
 10
-186.269
 20
238.234
 30
0.000000
  70
    32
  0
VERTEX
  8
0
  5
17C
 10
-186.286
 20
238.215
 30
0.000000
  70
    32
  0
VERTEX
  8
0
  5
17D
 10
-186.303
 20
238.197
 30
0.000000
  70
    32
  0
VERTEX
  8
0
  5
17E
 10
-186.320
 20
238.179
 30
0.000000
  70
    32
  0
VERTEX
  8
0
  5
17F
 10
-186.337
 20
238.161
 30
0.000000
  70
    32
  0
VERTEX
  8
0
  5
180
 10
-186.353
 20
238.143
 30
0.000000
  70
    32
  0
VERTEX
  8
0
  5
181
 10
-186.370
 20
238.125
 30
0.000000
  70
    32
  0
VERTEX
  8
0
  5
182
 10
-186.387
 20
238.107
 30
0.000000
  70
    32
  0
VERTEX
  8
0
  5
183
 10
-186.403
 20
238.089
 30
0.000000
  70
    32
  0
VERTEX
  8
0
  5
184
 10
-186.420
 20
238.070
 30
0.000000
  70
    32
  0
VERTEX
  8
0
  5
185
 10
-186.437
 20
238.052
 30
0.000000
  70
    32
  0
VERTEX
  8
0
  5
186
 10
-186.453
 20
238.034
 30
0.000000
  70
    32
  0
VERTEX
  8
0
  5
187
 10
-186.469
 20
238.016
 30
0.000000
  70
    32
  0
VERTEX
  8
0
  5
188
 10
-186.486
 20
237.998
 30
0.000000
  70
    32
  0
VERTEX
  8
0
  5
189
 10
-186.502
 20
237.979
 30
0.000000
  70
    32
  0
VERTEX
  8
0
  5
18A
 10
-186.518
 20
237.961
 30
0.000000
  70
    32
  0
VERTEX
  8
0
  5
18B
 10
-186.534
 20
237.943
 30
0.000000
  70
    32
  0
VERTEX
  8
0
  5
18C
 10
-186.550
 20
237.925
 30
0.000000
  70
    32
  0
VERTEX
  8
0
  5
18D
 10
-186.566
 20
237.906
 30
0.000000
  70
    32
  0
VERTEX
  8
0
  5
18E
 10
-186.582
 20
237.888
 30
0.000000
  70
    32
  0
VERTEX
  8
0
  5
18F
 10
-186.597
 20
237.870
 30
0.000000
  70
    32
  0
VERTEX
  8
0
  5
190
 10
-186.613
 20
237.851
 30
0.000000
  70
    32
  0
VERTEX
  8
0
  5
191
 10
-186.629
 20
237.833
 30
0.000000
  70
    32
  0
VERTEX
  8
0
  5
192
 10
-186.644
 20
237.814
 30
0.000000
  70
    32
  0
VERTEX
  8
0
  5
193
 10
-186.659
 20
237.796
 30
0.000000
  70
    32
  0
VERTEX
  8
0
  5
194
 10
-186.675
 20
237.778
 30
0.000000
  70
    32
  0
VERTEX
  8
0
  5
195
 10
-186.690
 20
237.759
 30
0.000000
  70
    32
  0
VERTEX
  8
0
  5
196
 10
-186.705
 20
237.741
 30
0.000000
  70
    32
  0
VERTEX
  8
0
  5
197
 10
-186.720
 20
237.722
 30
0.000000
  70
    32
  0
VERTEX
  8
0
  5
198
 10
-186.734
 20
237.704
 30
0.000000
  70
    32
  0
VERTEX
  8
0
  5
199
 10
-186.749
 20
237.685
 30
0.000000
  70
    32
  0
VERTEX
  8
0
  5
19A
 10
-186.764
 20
237.666
 30
0.000000
  70
    32
  0
VERTEX
  8
0
  5
19B
 10
-186.778
 20
237.648
 30
0.000000
  70
    32
  0
VERTEX
  8
0
  5
19C
 10
-186.792
 20
237.629
 30
0.000000
  70
    32
  0
VERTEX
  8
0
  5
19D
 10
-186.806
 20
237.611
 30
0.000000
  70
    32
  0
VERTEX
  8
0
  5
19E
 10
-186.820
 20
237.592
 30
0.000000
  70
    32
  0
VERTEX
  8
0
  5
19F
 10
-186.834
 20
237.573
 30
0.000000
  70
    32
  0
VERTEX
  8
0
  5
1A0
 10
-186.848
 20
237.554
 30
0.000000
  70
    32
  0
VERTEX
  8
0
  5
1A1
 10
-186.862
 20
237.536
 30
0.000000
  70
    32
  0
VERTEX
  8
0
  5
1A2
 10
-186.876
 20
237.517
 30
0.000000
  70
    32
  0
VERTEX
  8
0
  5
1A3
 10
-186.889
 20
237.498
 30
0.000000
  70
    32
  0
VERTEX
  8
0
  5
1A4
 10
-186.902
 20
237.479
 30
0.000000
  70
    32
  0
VERTEX
  8
0
  5
1A5
 10
-186.916
 20
237.460
 30
0.000000
  70
    32
  0
VERTEX
  8
0
  5
1A6
 10
-186.929
 20
237.442
 30
0.000000
  70
    32
  0
VERTEX
  8
0
  5
1A7
 10
-186.942
 20
237.423
 30
0.000000
  70
    32
  0
VERTEX
  8
0
  5
1A8
 10
-186.954
 20
237.404
 30
0.000000
  70
    32
  0
VERTEX
  8
0
  5
1A9
 10
-186.967
 20
237.385
 30
0.000000
  70
    32
  0
VERTEX
  8
0
  5
1AA
 10
-186.980
 20
237.366
 30
0.000000
  70
    32
  0
VERTEX
  8
0
  5
1AB
 10
-186.992
 20
237.347
 30
0.000000
  70
    32
  0
VERTEX
  8
0
  5
1AC
 10
-187.005
 20
237.328
 30
0.000000
  70
    32
  0
VERTEX
  8
0
  5
1AD
 10
-187.017
 20
237.309
 30
0.000000
  70
    32
  0
VERTEX
  8
0
  5
1AE
 10
-187.029
 20
237.290
 30
0.000000
  70
    32
  0
VERTEX
  8
0
  5
1AF
 10
-187.041
 20
237.271
 30
0.000000
  70
    32
  0
VERTEX
  8
0
  5
1B0
 10
-187.053
 20
237.252
 30
0.000000
  70
    32
  0
VERTEX
  8
0
  5
1B1
 10
-187.064
 20
237.233
 30
0.000000
  70
    32
  0
VERTEX
  8
0
  5
1B2
 10
-187.076
 20
237.214
 30
0.000000
  70
    32
  0
VERTEX
  8
0
  5
1B3
 10
-187.087
 20
237.194
 30
0.000000
  70
    32
  0
VERTEX
  8
0
  5
1B4
 10
-187.099
 20
237.175
 30
0.000000
  70
    32
  0
VERTEX
  8
0
  5
1B5
 10
-187.110
 20
237.156
 30
0.000000
  70
    32
  0
VERTEX
  8
0
  5
1B6
 10
-187.121
 20
237.137
 30
0.000000
  70
    32
  0
VERTEX
  8
0
  5
1B7
 10
-187.132
 20
237.118
 30
0.000000
  70
    32
  0
VERTEX
  8
0
  5
1B8
 10
-187.143
 20
237.098
 30
0.000000
  70
    32
  0
VERTEX
  8
0
  5
1B9
 10
-187.154
 20
237.079
 30
0.000000
  70
    32
  0
VERTEX
  8
0
  5
1BA
 10
-187.164
 20
237.060
 30
0.000000
  70
    32
  0
VERTEX
  8
0
  5
1BB
 10
-187.174
 20
237.041
 30
0.000000
  70
    32
  0
VERTEX
  8
0
  5
1BC
 10
-187.185
 20
237.021
 30
0.000000
  70
    32
  0
VERTEX
  8
0
  5
1BD
 10
-187.195
 20
237.002
 30
0.000000
  70
    32
  0
VERTEX
  8
0
  5
1BE
 10
-187.205
 20
236.982
 30
0.000000
  70
    32
  0
VERTEX
  8
0
  5
1BF
 10
-187.215
 20
236.963
 30
0.000000
  70
    32
  0
VERTEX
  8
0
  5
1C0
 10
-187.225
 20
236.944
 30
0.000000
  70
    32
  0
VERTEX
  8
0
  5
1C1
 10
-187.234
 20
236.924
 30
0.000000
  70
    32
  0
VERTEX
  8
0
  5
1C2
 10
-187.244
 20
236.905
 30
0.000000
  70
    32
  0
VERTEX
  8
0
  5
1C3
 10
-187.253
 20
236.885
 30
0.000000
  70
    32
  0
VERTEX
  8
0
  5
1C4
 10
-187.262
 20
236.866
 30
0.000000
  70
    32
  0
VERTEX
  8
0
  5
1C5
 10
-187.271
 20
236.846
 30
0.000000
  70
    32
  0
VERTEX
  8
0
  5
1C6
 10
-187.280
 20
236.827
 30
0.000000
  70
    32
  0
VERTEX
  8
0
  5
1C7
 10
-187.289
 20
236.807
 30
0.000000
  70
    32
  0
VERTEX
  8
0
  5
1C8
 10
-187.298
 20
236.788
 30
0.000000
  70
    32
  0
VERTEX
  8
0
  5
1C9
 10
-187.306
 20
236.768
 30
0.000000
  70
    32
  0
VERTEX
  8
0
  5
1CA
 10
-187.315
 20
236.749
 30
0.000000
  70
    32
  0
VERTEX
  8
0
  5
1CB
 10
-187.323
 20
236.729
 30
0.000000
  70
    32
  0
VERTEX
  8
0
  5
1CC
 10
-187.331
 20
236.709
 30
0.000000
  70
    32
  0
VERTEX
  8
0
  5
1CD
 10
-187.339
 20
236.690
 30
0.000000
  70
    32
  0
VERTEX
  8
0
  5
1CE
 10
-187.347
 20
236.670
 30
0.000000
  70
    32
  0
VERTEX
  8
0
  5
1CF
 10
-187.354
 20
236.650
 30
0.000000
  70
    32
  0
VERTEX
  8
0
  5
1D0
 10
-187.362
 20
236.631
 30
0.000000
  70
    32
  0
VERTEX
  8
0
  5
1D1
 10
-187.369
 20
236.611
 30
0.000000
  70
    32
  0
VERTEX
  8
0
  5
1D2
 10
-187.377
 20
236.591
 30
0.000000
  70
    32
  0
VERTEX
  8
0
  5
1D3
 10
-187.384
 20
236.572
 30
0.000000
  70
    32
  0
VERTEX
  8
0
  5
1D4
 10
-187.391
 20
236.552
 30
0.000000
  70
    32
  0
VERTEX
  8
0
  5
1D5
 10
-187.397
 20
236.532
 30
0.000000
  70
    32
  0
VERTEX
  8
0
  5
1D6
 10
-187.404
 20
236.512
 30
0.000000
  70
    32
  0
VERTEX
  8
0
  5
1D7
 10
-187.410
 20
236.493
 30
0.000000
  70
    32
  0
VERTEX
  8
0
  5
1D8
 10
-187.417
 20
236.473
 30
0.000000
  70
    32
  0
VERTEX
  8
0
  5
1D9
 10
-187.423
 20
236.453
 30
0.000000
  70
    32
  0
VERTEX
  8
0
  5
1DA
 10
-187.429
 20
236.433
 30
0.000000
  70
    32
  0
VERTEX
  8
0
  5
1DB
 10
-187.435
 20
236.413
 30
0.000000
  70
    32
  0
VERTEX
  8
0
  5
1DC
 10
-187.441
 20
236.394
 30
0.000000
  70
    32
  0
VERTEX
  8
0
  5
1DD
 10
-187.446
 20
236.374
 30
0.000000
  70
    32
  0
VERTEX
  8
0
  5
1DE
 10
-187.451
 20
236.354
 30
0.000000
  70
    32
  0
VERTEX
  8
0
  5
1DF
 10
-187.457
 20
236.334
 30
0.000000
  70
    32
  0
VERTEX
  8
0
  5
1E0
 10
-187.462
 20
236.314
 30
0.000000
  70
    32
  0
VERTEX
  8
0
  5
1E1
 10
-187.467
 20
236.294
 30
0.000000
  70
    32
  0
VERTEX
  8
0
  5
1E2
 10
-187.471
 20
236.275
 30
0.000000
  70
    32
  0
VERTEX
  8
0
  5
1E3
 10
-187.476
 20
236.255
 30
0.000000
  70
    32
  0
VERTEX
  8
0
  5
1E4
 10
-187.481
 20
236.235
 30
0.000000
  70
    32
  0
VERTEX
  8
0
  5
1E5
 10
-187.485
 20
236.215
 30
0.000000
  70
    32
  0
VERTEX
  8
0
  5
1E6
 10
-187.489
 20
236.195
 30
0.000000
  70
    32
  0
VERTEX
  8
0
  5
1E7
 10
-187.493
 20
236.175
 30
0.000000
  70
    32
  0
VERTEX
  8
0
  5
1E8
 10
-187.497
 20
236.155
 30
0.000000
  70
    32
  0
VERTEX
  8
0
  5
1E9
 10
-187.500
 20
236.135
 30
0.000000
  70
    32
  0
VERTEX
  8
0
  5
1EA
 10
-187.504
 20
236.115
 30
0.000000
  70
    32
  0
VERTEX
  8
0
  5
1EB
 10
-187.507
 20
236.095
 30
0.000000
  70
    32
  0
VERTEX
  8
0
  5
1EC
 10
-187.510
 20
236.075
 30
0.000000
  70
    32
  0
VERTEX
  8
0
  5
1ED
 10
-187.513
 20
236.055
 30
0.000000
  70
    32
  0
VERTEX
  8
0
  5
1EE
 10
-187.516
 20
236.035
 30
0.000000
  70
    32
  0
VERTEX
  8
0
  5
1EF
 10
-187.519
 20
236.015
 30
0.000000
  70
    32
  0
VERTEX
  8
0
  5
1F0
 10
-187.521
 20
235.995
 30
0.000000
  70
    32
  0
VERTEX
  8
0
  5
1F1
 10
-187.523
 20
235.976
 30
0.000000
  70
    32
  0
VERTEX
  8
0
  5
1F2
 10
-187.525
 20
235.956
 30
0.000000
  70
    32
  0
VERTEX
  8
0
  5
1F3
 10
-187.527
 20
235.936
 30
0.000000
  70
    32
  0
VERTEX
  8
0
  5
1F4
 10
-187.529
 20
235.916
 30
0.000000
  70
    32
  0
VERTEX
  8
0
  5
1F5
 10
-187.531
 20
235.896
 30
0.000000
  70
    32
  0
VERTEX
  8
0
  5
1F6
 10
-187.532
 20
235.876
 30
0.000000
  70
    32
  0
VERTEX
  8
0
  5
1F7
 10
-187.533
 20
235.856
 30
0.000000
  70
    32
  0
VERTEX
  8
0
  5
1F8
 10
-187.534
 20
235.836
 30
0.000000
  70
    32
  0
VERTEX
  8
0
  5
1F9
 10
-187.535
 20
235.816
 30
0.000000
  70
    32
  0
VERTEX
  8
0
  5
1FA
 10
-187.536
 20
235.796
 30
0.000000
  70
    32
  0
VERTEX
  8
0
  5
1FB
 10
-187.537
 20
235.776
 30
0.000000
  70
    32
  0
VERTEX
  8
0
  5
1FC
 10
-187.537
 20
235.756
 30
0.000000
  70
    32
  0
VERTEX
  8
0
  5
1FD
 10
-187.537
 20
235.736
 30
0.000000
  70
    32
  0
VERTEX
  8
0
  5
1FE
 10
-187.537
 20
235.716
 30
0.000000
  70
    32
  0
VERTEX
  8
0
  5
1FF
 10
-187.537
 20
235.696
 30
0.000000
  70
    32
  0
VERTEX
  8
0
  5
200
 10
-187.537
 20
235.676
 30
0.000000
  70
    32
  0
VERTEX
  8
0
  5
201
 10
-187.536
 20
235.656
 30
0.000000
  70
    32
  0
VERTEX
  8
0
  5
202
 10
-187.535
 20
235.636
 30
0.000000
  70
    32
  0
VERTEX
  8
0
  5
203
 10
-187.534
 20
235.616
 30
0.000000
  70
    32
  0
VERTEX
  8
0
  5
204
 10
-187.533
 20
235.596
 30
0.000000
  70
    32
  0
VERTEX
  8
0
  5
205
 10
-187.532
 20
235.576
 30
0.000000
  70
    32
  0
VERTEX
  8
0
  5
206
 10
-187.531
 20
235.556
 30
0.000000
  70
    32
  0
VERTEX
  8
0
  5
207
 10
-187.529
 20
235.536
 30
0.000000
  70
    32
  0
VERTEX
  8
0
  5
208
 10
-187.527
 20
235.516
 30
0.000000
  70
    32
  0
VERTEX
  8
0
  5
209
 10
-187.525
 20
235.496
 30
0.000000
  70
    32
  0
VERTEX
  8
0
  5
20A
 10
-187.523
 20
235.476
 30
0.000000
  70
    32
  0
VERTEX
  8
0
  5
20B
 10
-187.521
 20
235.456
 30
0.000000
  70
    32
  0
VERTEX
  8
0
  5
20C
 10
-187.519
 20
235.436
 30
0.000000
  70
    32
  0
VERTEX
  8
0
  5
20D
 10
-187.516
 20
235.416
 30
0.000000
  70
    32
  0
VERTEX
  8
0
  5
20E
 10
-187.513
 20
235.396
 30
0.000000
  70
    32
  0
VERTEX
  8
0
  5
20F
 10
-187.510
 20
235.376
 30
0.000000
  70
    32
  0
VERTEX
  8
0
  5
210
 10
-187.507
 20
235.356
 30
0.000000
  70
    32
  0
VERTEX
  8
0
  5
211
 10
-187.504
 20
235.336
 30
0.000000
  70
    32
  0
VERTEX
  8
0
  5
212
 10
-187.500
 20
235.316
 30
0.000000
  70
    32
  0
VERTEX
  8
0
  5
213
 10
-187.497
 20
235.296
 30
0.000000
  70
    32
  0
VERTEX
  8
0
  5
214
 10
-187.493
 20
235.276
 30
0.000000
  70
    32
  0
VERTEX
  8
0
  5
215
 10
-187.489
 20
235.256
 30
0.000000
  70
    32
  0
VERTEX
  8
0
  5
216
 10
-187.485
 20
235.236
 30
0.000000
  70
    32
  0
VERTEX
  8
0
  5
217
 10
-187.481
 20
235.217
 30
0.000000
  70
    32
  0
VERTEX
  8
0
  5
218
 10
-187.476
 20
235.197
 30
0.000000
  70
    32
  0
VERTEX
  8
0
  5
219
 10
-187.471
 20
235.177
 30
0.000000
  70
    32
  0
VERTEX
  8
0
  5
21A
 10
-187.467
 20
235.157
 30
0.000000
  70
    32
  0
VERTEX
  8
0
  5
21B
 10
-187.462
 20
235.137
 30
0.000000
  70
    32
  0
VERTEX
  8
0
  5
21C
 10
-187.457
 20
235.117
 30
0.000000
  70
    32
  0
VERTEX
  8
0
  5
21D
 10
-187.451
 20
235.097
 30
0.000000
  70
    32
  0
VERTEX
  8
0
  5
21E
 10
-187.446
 20
235.077
 30
0.000000
  70
    32
  0
VERTEX
  8
0
  5
21F
 10
-187.441
 20
235.058
 30
0.000000
  70
    32
  0
VERTEX
  8
0
  5
220
 10
-187.435
 20
235.038
 30
0.000000
  70
    32
  0
VERTEX
  8
0
  5
221
 10
-187.429
 20
235.018
 30
0.000000
  70
    32
  0
VERTEX
  8
0
  5
222
 10
-187.423
 20
234.998
 30
0.000000
  70
    32
  0
VERTEX
  8
0
  5
223
 10
-187.417
 20
234.978
 30
0.000000
  70
    32
  0
VERTEX
  8
0
  5
224
 10
-187.410
 20
234.959
 30
0.000000
  70
    32
  0
VERTEX
  8
0
  5
225
 10
-187.404
 20
234.939
 30
0.000000
  70
    32
  0
VERTEX
  8
0
  5
226
 10
-187.397
 20
234.919
 30
0.000000
  70
    32
  0
VERTEX
  8
0
  5
227
 10
-187.391
 20
234.899
 30
0.000000
  70
    32
  0
VERTEX
  8
0
  5
228
 10
-187.384
 20
234.880
 30
0.000000
  70
    32
  0
VERTEX
  8
0
  5
229
 10
-187.377
 20
234.860
 30
0.000000
  70
    32
  0
VERTEX
  8
0
  5
22A
 10
-187.369
 20
234.840
 30
0.000000
  70
    32
  0
VERTEX
  8
0
  5
22B
 10
-187.362
 20
234.821
 30
0.000000
  70
    32
  0
VERTEX
  8
0
  5
22C
 10
-187.354
 20
234.801
 30
0.000000
  70
    32
  0
VERTEX
  8
0
  5
22D
 10
-187.347
 20
234.781
 30
0.000000
  70
    32
  0
VERTEX
  8
0
  5
22E
 10
-187.339
 20
234.762
 30
0.000000
  70
    32
  0
VERTEX
  8
0
  5
22F
 10
-187.331
 20
234.742
 30
0.000000
  70
    32
  0
VERTEX
  8
0
  5
230
 10
-187.323
 20
234.722
 30
0.000000
  70
    32
  0
VERTEX
  8
0
  5
231
 10
-187.315
 20
234.703
 30
0.000000
  70
    32
  0
VERTEX
  8
0
  5
232
 10
-187.306
 20
234.683
 30
0.000000
  70
    32
  0
VERTEX
  8
0
  5
233
 10
-187.298
 20
234.664
 30
0.000000
  70
    32
  0
VERTEX
  8
0
  5
234
 10
-187.289
 20
234.644
 30
0.000000
  70
    32
  0
VERTEX
  8
0
  5
235
 10
-187.280
 20
234.624
 30
0.000000
  70
    32
  0
VERTEX
  8
0
  5
236
 10
-187.271
 20
234.605
 30
0.000000
  70
    32
  0
VERTEX
  8
0
  5
237
 10
-187.262
 20
234.585
 30
0.000000
  70
    32
  0
VERTEX
  8
0
  5
238
 10
-187.253
 20
234.566
 30
0.000000
  70
    32
  0
VERTEX
  8
0
  5
239
 10
-187.244
 20
234.546
 30
0.000000
  70
    32
  0
VERTEX
  8
0
  5
23A
 10
-187.234
 20
234.527
 30
0.000000
  70
    32
  0
VERTEX
  8
0
  5
23B
 10
-187.225
 20
234.508
 30
0.000000
  70
    32
  0
VERTEX
  8
0
  5
23C
 10
-187.215
 20
234.488
 30
0.000000
  70
    32
  0
VERTEX
  8
0
  5
23D
 10
-187.205
 20
234.469
 30
0.000000
  70
    32
  0
VERTEX
  8
0
  5
23E
 10
-187.195
 20
234.449
 30
0.000000
  70
    32
  0
VERTEX
  8
0
  5
23F
 10
-187.185
 20
234.430
 30
0.000000
  70
    32
  0
VERTEX
  8
0
  5
240
 10
-187.174
 20
234.411
 30
0.000000
  70
    32
  0
VERTEX
  8
0
  5
241
 10
-187.164
 20
234.391
 30
0.000000
  70
    32
  0
VERTEX
  8
0
  5
242
 10
-187.154
 20
234.372
 30
0.000000
  70
    32
  0
VERTEX
  8
0
  5
243
 10
-187.143
 20
234.353
 30
0.000000
  70
    32
  0
VERTEX
  8
0
  5
244
 10
-187.132
 20
234.334
 30
0.000000
  70
    32
  0
VERTEX
  8
0
  5
245
 10
-187.121
 20
234.314
 30
0.000000
  70
    32
  0
VERTEX
  8
0
  5
246
 10
-187.110
 20
234.295
 30
0.000000
  70
    32
  0
VERTEX
  8
0
  5
247
 10
-187.099
 20
234.276
 30
0.000000
  70
    32
  0
VERTEX
  8
0
  5
248
 10
-187.087
 20
234.257
 30
0.000000
  70
    32
  0
VERTEX
  8
0
  5
249
 10
-187.076
 20
234.238
 30
0.000000
  70
    32
  0
VERTEX
  8
0
  5
24A
 10
-187.064
 20
234.219
 30
0.000000
  70
    32
  0
VERTEX
  8
0
  5
24B
 10
-187.053
 20
234.199
 30
0.000000
  70
    32
  0
VERTEX
  8
0
  5
24C
 10
-187.041
 20
234.180
 30
0.000000
  70
    32
  0
VERTEX
  8
0
  5
24D
 10
-187.029
 20
234.161
 30
0.000000
  70
    32
  0
VERTEX
  8
0
  5
24E
 10
-187.017
 20
234.142
 30
0.000000
  70
    32
  0
VERTEX
  8
0
  5
24F
 10
-187.005
 20
234.123
 30
0.000000
  70
    32
  0
VERTEX
  8
0
  5
250
 10
-186.992
 20
234.104
 30
0.000000
  70
    32
  0
VERTEX
  8
0
  5
251
 10
-186.980
 20
234.085
 30
0.000000
  70
    32
  0
VERTEX
  8
0
  5
252
 10
-186.967
 20
234.066
 30
0.000000
  70
    32
  0
VERTEX
  8
0
  5
253
 10
-186.954
 20
234.047
 30
0.000000
  70
    32
  0
VERTEX
  8
0
  5
254
 10
-186.942
 20
234.029
 30
0.000000
  70
    32
  0
VERTEX
  8
0
  5
255
 10
-186.929
 20
234.010
 30
0.000000
  70
    32
  0
VERTEX
  8
0
  5
256
 10
-186.916
 20
233.991
 30
0.000000
  70
    32
  0
VERTEX
  8
0
  5
257
 10
-186.902
 20
233.972
 30
0.000000
  70
    32
  0
VERTEX
  8
0
  5
258
 10
-186.889
 20
233.953
 30
0.000000
  70
    32
  0
VERTEX
  8
0
  5
259
 10
-186.876
 20
233.934
 30
0.000000
  70
    32
  0
VERTEX
  8
0
  5
25A
 10
-186.862
 20
233.916
 30
0.000000
  70
    32
  0
VERTEX
  8
0
  5
25B
 10
-186.848
 20
233.897
 30
0.000000
  70
    32
  0
VERTEX
  8
0
  5
25C
 10
-186.834
 20
233.878
 30
0.000000
  70
    32
  0
VERTEX
  8
0
  5
25D
 10
-186.820
 20
233.859
 30
0.000000
  70
    32
  0
VERTEX
  8
0
  5
25E
 10
-186.806
 20
233.841
 30
0.000000
  70
    32
  0
VERTEX
  8
0
  5
25F
 10
-186.792
 20
233.822
 30
0.000000
  70
    32
  0
VERTEX
  8
0
  5
260
 10
-186.778
 20
233.803
 30
0.000000
  70
    32
  0
VERTEX
  8
0
  5
261
 10
-186.764
 20
233.785
 30
0.000000
  70
    32
  0
VERTEX
  8
0
  5
262
 10
-186.749
 20
233.766
 30
0.000000
  70
    32
  0
VERTEX
  8
0
  5
263
 10
-186.734
 20
233.748
 30
0.000000
  70
    32
  0
VERTEX
  8
0
  5
264
 10
-186.720
 20
233.729
 30
0.000000
  70
    32
  0
VERTEX
  8
0
  5
265
 10
-186.705
 20
233.711
 30
0.000000
  70
    32
  0
VERTEX
  8
0
  5
266
 10
-186.690
 20
233.692
 30
0.000000
  70
    32
  0
VERTEX
  8
0
  5
267
 10
-186.675
 20
233.674
 30
0.000000
  70
    32
  0
VERTEX
  8
0
  5
268
 10
-186.659
 20
233.655
 30
0.000000
  70
    32
  0
VERTEX
  8
0
  5
269
 10
-186.644
 20
233.637
 30
0.000000
  70
    32
  0
VERTEX
  8
0
  5
26A
 10
-186.629
 20
233.618
 30
0.000000
  70
    32
  0
VERTEX
  8
0
  5
26B
 10
-186.613
 20
233.600
 30
0.000000
  70
    32
  0
VERTEX
  8
0
  5
26C
 10
-186.597
 20
233.582
 30
0.000000
  70
    32
  0
VERTEX
  8
0
  5
26D
 10
-186.582
 20
233.563
 30
0.000000
  70
    32
  0
VERTEX
  8
0
  5
26E
 10
-186.566
 20
233.545
 30
0.000000
  70
    32
  0
VERTEX
  8
0
  5
26F
 10
-186.550
 20
233.527
 30
0.000000
  70
    32
  0
VERTEX
  8
0
  5
270
 10
-186.534
 20
233.508
 30
0.000000
  70
    32
  0
VERTEX
  8
0
  5
271
 10
-186.518
 20
233.490
 30
0.000000
  70
    32
  0
VERTEX
  8
0
  5
272
 10
-186.502
 20
233.472
 30
0.000000
  70
    32
  0
VERTEX
  8
0
  5
273
 10
-186.486
 20
233.454
 30
0.000000
  70
    32
  0
VERTEX
  8
0
  5
274
 10
-186.469
 20
233.435
 30
0.000000
  70
    32
  0
VERTEX
  8
0
  5
275
 10
-186.453
 20
233.417
 30
0.000000
  70
    32
  0
VERTEX
  8
0
  5
276
 10
-186.437
 20
233.399
 30
0.000000
  70
    32
  0
VERTEX
  8
0
  5
277
 10
-186.420
 20
233.381
 30
0.000000
  70
    32
  0
VERTEX
  8
0
  5
278
 10
-186.403
 20
233.363
 30
0.000000
  70
    32
  0
VERTEX
  8
0
  5
279
 10
-186.387
 20
233.345
 30
0.000000
  70
    32
  0
VERTEX
  8
0
  5
27A
 10
-186.370
 20
233.326
 30
0.000000
  70
    32
  0
VERTEX
  8
0
  5
27B
 10
-186.353
 20
233.308
 30
0.000000
  70
    32
  0
VERTEX
  8
0
  5
27C
 10
-186.337
 20
233.290
 30
0.000000
  70
    32
  0
VERTEX
  8
0
  5
27D
 10
-186.320
 20
233.272
 30
0.000000
  70
    32
  0
VERTEX
  8
0
  5
27E
 10
-186.303
 20
233.254
 30
0.000000
  70
    32
  0
VERTEX
  8
0
  5
27F
 10
-186.286
 20
233.236
 30
0.000000
  70
    32
  0
VERTEX
  8
0
  5
280
 10
-186.269
 20
233.218
 30
0.000000
  70
    32
  0
VERTEX
  8
0
  5
281
 10
-186.252
 20
233.200
 30
0.000000
  70
    32
  0
VERTEX
  8
0
  5
282
 10
-186.235
 20
233.182
 30
0.000000
  70
    32
  0
VERTEX
  8
0
  5
283
 10
-186.218
 20
233.164
 30
0.000000
  70
    32
  0
VERTEX
  8
0
  5
284
 10
-186.201
 20
233.146
 30
0.000000
  70
    32
  0
VERTEX
  8
0
  5
285
 10
-186.184
 20
233.127
 30
0.000000
  70
    32
  0
VERTEX
  8
0
  5
286
 10
-186.166
 20
233.109
 30
0.000000
  70
    32
  0
VERTEX
  8
0
  5
287
 10
-186.149
 20
233.091
 30
0.000000
  70
    32
  0
VERTEX
  8
0
  5
288
 10
-186.132
 20
233.073
 30
0.000000
  70
    32
  0
VERTEX
  8
0
  5
289
 10
-186.115
 20
233.055
 30
0.000000
  70
    32
  0
VERTEX
  8
0
  5
28A
 10
-186.098
 20
233.037
 30
0.000000
  70
    32
  0
VERTEX
  8
0
  5
28B
 10
-186.080
 20
233.019
 30
0.000000
  70
    32
  0
VERTEX
  8
0
  5
28C
 10
-186.063
 20
233.001
 30
0.000000
  70
    32
  0
VERTEX
  8
0
  5
28D
 10
-186.046
 20
232.983
 30
0.000000
  70
    32
  0
SEQEND
  8
0
  5
28E
  0
POLYLINE
  8
0
  5
28F
  66
     1
 10
0.000000
 20
0.000000
 30
0.000000
  70
     8
  0
VERTEX
  8
0
  5
290
 10
-186.046
 20
254.923
 30
0.000000
  70
    32
  0
VERTEX
  8
0
  5
291
 10
-186.063
 20
254.905
 30
0.000000
  70
    32
  0
VERTEX
  8
0
  5
292
 10
-186.080
 20
254.886
 30
0.000000
  70
    32
  0
VERTEX
  8
0
  5
293
 10
-186.098
 20
254.868
 30
0.000000
  70
    32
  0
VERTEX
  8
0
  5
294
 10
-186.115
 20
254.850
 30
0.000000
  70
    32
  0
VERTEX
  8
0
  5
295
 10
-186.132
 20
254.832
 30
0.000000
  70
    32
  0
VERTEX
  8
0
  5
296
 10
-186.149
 20
254.814
 30
0.000000
  70
    32
  0
VERTEX
  8
0
  5
297
 10
-186.166
 20
254.796
 30
0.000000
  70
    32
  0
VERTEX
  8
0
  5
298
 10
-186.184
 20
254.778
 30
0.000000
  70
    32
  0
VERTEX
  8
0
  5
299
 10
-186.201
 20
254.760
 30
0.000000
  70
    32
  0
VERTEX
  8
0
  5
29A
 10
-186.218
 20
254.742
 30
0.000000
  70
    32
  0
VERTEX
  8
0
  5
29B
 10
-186.235
 20
254.724
 30
0.000000
  70
    32
  0
VERTEX
  8
0
  5
29C
 10
-186.252
 20
254.706
 30
0.000000
  70
    32
  0
VERTEX
  8
0
  5
29D
 10
-186.269
 20
254.688
 30
0.000000
  70
    32
  0
VERTEX
  8
0
  5
29E
 10
-186.286
 20
254.670
 30
0.000000
  70
    32
  0
VERTEX
  8
0
  5
29F
 10
-186.303
 20
254.652
 30
0.000000
  70
    32
  0
VERTEX
  8
0
  5
2A0
 10
-186.320
 20
254.634
 30
0.000000
  70
    32
  0
VERTEX
  8
0
  5
2A1
 10
-186.337
 20
254.616
 30
0.000000
  70
    32
  0
VERTEX
  8
0
  5
2A2
 10
-186.353
 20
254.597
 30
0.000000
  70
    32
  0
VERTEX
  8
0
  5
2A3
 10
-186.370
 20
254.579
 30
0.000000
  70
    32
  0
VERTEX
  8
0
  5
2A4
 10
-186.387
 20
254.561
 30
0.000000
  70
    32
  0
VERTEX
  8
0
  5
2A5
 10
-186.403
 20
254.543
 30
0.000000
  70
    32
  0
VERTEX
  8
0
  5
2A6
 10
-186.420
 20
254.525
 30
0.000000
  70
    32
  0
VERTEX
  8
0
  5
2A7
 10
-186.437
 20
254.507
 30
0.000000
  70
    32
  0
VERTEX
  8
0
  5
2A8
 10
-186.453
 20
254.489
 30
0.000000
  70
    32
  0
VERTEX
  8
0
  5
2A9
 10
-186.469
 20
254.470
 30
0.000000
  70
    32
  0
VERTEX
  8
0
  5
2AA
 10
-186.486
 20
254.452
 30
0.000000
  70
    32
  0
VERTEX
  8
0
  5
2AB
 10
-186.502
 20
254.434
 30
0.000000
  70
    32
  0
VERTEX
  8
0
  5
2AC
 10
-186.518
 20
254.416
 30
0.000000
  70
    32
  0
VERTEX
  8
0
  5
2AD
 10
-186.534
 20
254.397
 30
0.000000
  70
    32
  0
VERTEX
  8
0
  5
2AE
 10
-186.550
 20
254.379
 30
0.000000
  70
    32
  0
VERTEX
  8
0
  5
2AF
 10
-186.566
 20
254.361
 30
0.000000
  70
    32
  0
VERTEX
  8
0
  5
2B0
 10
-186.582
 20
254.342
 30
0.000000
  70
    32
  0
VERTEX
  8
0
  5
2B1
 10
-186.597
 20
254.324
 30
0.000000
  70
    32
  0
VERTEX
  8
0
  5
2B2
 10
-186.613
 20
254.306
 30
0.000000
  70
    32
  0
VERTEX
  8
0
  5
2B3
 10
-186.629
 20
254.287
 30
0.000000
  70
    32
  0
VERTEX
  8
0
  5
2B4
 10
-186.644
 20
254.269
 30
0.000000
  70
    32
  0
VERTEX
  8
0
  5
2B5
 10
-186.659
 20
254.251
 30
0.000000
  70
    32
  0
VERTEX
  8
0
  5
2B6
 10
-186.675
 20
254.232
 30
0.000000
  70
    32
  0
VERTEX
  8
0
  5
2B7
 10
-186.690
 20
254.214
 30
0.000000
  70
    32
  0
VERTEX
  8
0
  5
2B8
 10
-186.705
 20
254.195
 30
0.000000
  70
    32
  0
VERTEX
  8
0
  5
2B9
 10
-186.720
 20
254.177
 30
0.000000
  70
    32
  0
VERTEX
  8
0
  5
2BA
 10
-186.734
 20
254.158
 30
0.000000
  70
    32
  0
VERTEX
  8
0
  5
2BB
 10
-186.749
 20
254.140
 30
0.000000
  70
    32
  0
VERTEX
  8
0
  5
2BC
 10
-186.764
 20
254.121
 30
0.000000
  70
    32
  0
VERTEX
  8
0
  5
2BD
 10
-186.778
 20
254.102
 30
0.000000
  70
    32
  0
VERTEX
  8
0
  5
2BE
 10
-186.792
 20
254.084
 30
0.000000
  70
    32
  0
VERTEX
  8
0
  5
2BF
 10
-186.806
 20
254.065
 30
0.000000
  70
    32
  0
VERTEX
  8
0
  5
2C0
 10
-186.820
 20
254.046
 30
0.000000
  70
    32
  0
VERTEX
  8
0
  5
2C1
 10
-186.834
 20
254.028
 30
0.000000
  70
    32
  0
VERTEX
  8
0
  5
2C2
 10
-186.848
 20
254.009
 30
0.000000
  70
    32
  0
VERTEX
  8
0
  5
2C3
 10
-186.862
 20
253.990
 30
0.000000
  70
    32
  0
VERTEX
  8
0
  5
2C4
 10
-186.876
 20
253.971
 30
0.000000
  70
    32
  0
VERTEX
  8
0
  5
2C5
 10
-186.889
 20
253.953
 30
0.000000
  70
    32
  0
VERTEX
  8
0
  5
2C6
 10
-186.902
 20
253.934
 30
0.000000
  70
    32
  0
VERTEX
  8
0
  5
2C7
 10
-186.916
 20
253.915
 30
0.000000
  70
    32
  0
VERTEX
  8
0
  5
2C8
 10
-186.929
 20
253.896
 30
0.000000
  70
    32
  0
VERTEX
  8
0
  5
2C9
 10
-186.942
 20
253.877
 30
0.000000
  70
    32
  0
VERTEX
  8
0
  5
2CA
 10
-186.954
 20
253.858
 30
0.000000
  70
    32
  0
VERTEX
  8
0
  5
2CB
 10
-186.967
 20
253.839
 30
0.000000
  70
    32
  0
VERTEX
  8
0
  5
2CC
 10
-186.980
 20
253.820
 30
0.000000
  70
    32
  0
VERTEX
  8
0
  5
2CD
 10
-186.992
 20
253.801
 30
0.000000
  70
    32
  0
VERTEX
  8
0
  5
2CE
 10
-187.005
 20
253.782
 30
0.000000
  70
    32
  0
VERTEX
  8
0
  5
2CF
 10
-187.017
 20
253.763
 30
0.000000
  70
    32
  0
VERTEX
  8
0
  5
2D0
 10
-187.029
 20
253.744
 30
0.000000
  70
    32
  0
VERTEX
  8
0
  5
2D1
 10
-187.041
 20
253.725
 30
0.000000
  70
    32
  0
VERTEX
  8
0
  5
2D2
 10
-187.053
 20
253.706
 30
0.000000
  70
    32
  0
VERTEX
  8
0
  5
2D3
 10
-187.064
 20
253.687
 30
0.000000
  70
    32
  0
VERTEX
  8
0
  5
2D4
 10
-187.076
 20
253.668
 30
0.000000
  70
    32
  0
VERTEX
  8
0
  5
2D5
 10
-187.087
 20
253.649
 30
0.000000
  70
    32
  0
VERTEX
  8
0
  5
2D6
 10
-187.099
 20
253.630
 30
0.000000
  70
    32
  0
VERTEX
  8
0
  5
2D7
 10
-187.110
 20
253.611
 30
0.000000
  70
    32
  0
VERTEX
  8
0
  5
2D8
 10
-187.121
 20
253.591
 30
0.000000
  70
    32
  0
VERTEX
  8
0
  5
2D9
 10
-187.132
 20
253.572
 30
0.000000
  70
    32
  0
VERTEX
  8
0
  5
2DA
 10
-187.143
 20
253.553
 30
0.000000
  70
    32
  0
VERTEX
  8
0
  5
2DB
 10
-187.154
 20
253.534
 30
0.000000
  70
    32
  0
VERTEX
  8
0
  5
2DC
 10
-187.164
 20
253.514
 30
0.000000
  70
    32
  0
VERTEX
  8
0
  5
2DD
 10
-187.174
 20
253.495
 30
0.000000
  70
    32
  0
VERTEX
  8
0
  5
2DE
 10
-187.185
 20
253.476
 30
0.000000
  70
    32
  0
VERTEX
  8
0
  5
2DF
 10
-187.195
 20
253.456
 30
0.000000
  70
    32
  0
VERTEX
  8
0
  5
2E0
 10
-187.205
 20
253.437
 30
0.000000
  70
    32
  0
VERTEX
  8
0
  5
2E1
 10
-187.215
 20
253.418
 30
0.000000
  70
    32
  0
VERTEX
  8
0
  5
2E2
 10
-187.225
 20
253.398
 30
0.000000
  70
    32
  0
VERTEX
  8
0
  5
2E3
 10
-187.234
 20
253.379
 30
0.000000
  70
    32
  0
VERTEX
  8
0
  5
2E4
 10
-187.244
 20
253.359
 30
0.000000
  70
    32
  0
VERTEX
  8
0
  5
2E5
 10
-187.253
 20
253.340
 30
0.000000
  70
    32
  0
VERTEX
  8
0
  5
2E6
 10
-187.262
 20
253.320
 30
0.000000
  70
    32
  0
VERTEX
  8
0
  5
2E7
 10
-187.271
 20
253.301
 30
0.000000
  70
    32
  0
VERTEX
  8
0
  5
2E8
 10
-187.280
 20
253.281
 30
0.000000
  70
    32
  0
VERTEX
  8
0
  5
2E9
 10
-187.289
 20
253.262
 30
0.000000
  70
    32
  0
VERTEX
  8
0
  5
2EA
 10
-187.298
 20
253.242
 30
0.000000
  70
    32
  0
VERTEX
  8
0
  5
2EB
 10
-187.306
 20
253.223
 30
0.000000
  70
    32
  0
VERTEX
  8
0
  5
2EC
 10
-187.315
 20
253.203
 30
0.000000
  70
    32
  0
VERTEX
  8
0
  5
2ED
 10
-187.323
 20
253.183
 30
0.000000
  70
    32
  0
VERTEX
  8
0
  5
2EE
 10
-187.331
 20
253.164
 30
0.000000
  70
    32
  0
VERTEX
  8
0
  5
2EF
 10
-187.339
 20
253.144
 30
0.000000
  70
    32
  0
VERTEX
  8
0
  5
2F0
 10
-187.347
 20
253.125
 30
0.000000
  70
    32
  0
VERTEX
  8
0
  5
2F1
 10
-187.354
 20
253.105
 30
0.000000
  70
    32
  0
VERTEX
  8
0
  5
2F2
 10
-187.362
 20
253.085
 30
0.000000
  70
    32
  0
VERTEX
  8
0
  5
2F3
 10
-187.369
 20
253.066
 30
0.000000
  70
    32
  0
VERTEX
  8
0
  5
2F4
 10
-187.377
 20
253.046
 30
0.000000
  70
    32
  0
VERTEX
  8
0
  5
2F5
 10
-187.384
 20
253.026
 30
0.000000
  70
    32
  0
VERTEX
  8
0
  5
2F6
 10
-187.391
 20
253.006
 30
0.000000
  70
    32
  0
VERTEX
  8
0
  5
2F7
 10
-187.397
 20
252.987
 30
0.000000
  70
    32
  0
VERTEX
  8
0
  5
2F8
 10
-187.404
 20
252.967
 30
0.000000
  70
    32
  0
VERTEX
  8
0
  5
2F9
 10
-187.410
 20
252.947
 30
0.000000
  70
    32
  0
VERTEX
  8
0
  5
2FA
 10
-187.417
 20
252.927
 30
0.000000
  70
    32
  0
VERTEX
  8
0
  5
2FB
 10
-187.423
 20
252.908
 30
0.000000
  70
    32
  0
VERTEX
  8
0
  5
2FC
 10
-187.429
 20
252.888
 30
0.000000
  70
    32
  0
VERTEX
  8
0
  5
2FD
 10
-187.435
 20
252.868
 30
0.000000
  70
    32
  0
VERTEX
  8
0
  5
2FE
 10
-187.441
 20
252.848
 30
0.000000
  70
    32
  0
VERTEX
  8
0
  5
2FF
 10
-187.446
 20
252.828
 30
0.000000
  70
    32
  0
VERTEX
  8
0
  5
300
 10
-187.451
 20
252.808
 30
0.000000
  70
    32
  0
VERTEX
  8
0
  5
301
 10
-187.457
 20
252.789
 30
0.000000
  70
    32
  0
VERTEX
  8
0
  5
302
 10
-187.462
 20
252.769
 30
0.000000
  70
    32
  0
VERTEX
  8
0
  5
303
 10
-187.467
 20
252.749
 30
0.000000
  70
    32
  0
VERTEX
  8
0
  5
304
 10
-187.471
 20
252.729
 30
0.000000
  70
    32
  0
VERTEX
  8
0
  5
305
 10
-187.476
 20
252.709
 30
0.000000
  70
    32
  0
VERTEX
  8
0
  5
306
 10
-187.481
 20
252.689
 30
0.000000
  70
    32
  0
VERTEX
  8
0
  5
307
 10
-187.485
 20
252.669
 30
0.000000
  70
    32
  0
VERTEX
  8
0
  5
308
 10
-187.489
 20
252.649
 30
0.000000
  70
    32
  0
VERTEX
  8
0
  5
309
 10
-187.493
 20
252.629
 30
0.000000
  70
    32
  0
VERTEX
  8
0
  5
30A
 10
-187.497
 20
252.610
 30
0.000000
  70
    32
  0
VERTEX
  8
0
  5
30B
 10
-187.500
 20
252.590
 30
0.000000
  70
    32
  0
VERTEX
  8
0
  5
30C
 10
-187.504
 20
252.570
 30
0.000000
  70
    32
  0
VERTEX
  8
0
  5
30D
 10
-187.507
 20
252.550
 30
0.000000
  70
    32
  0
VERTEX
  8
0
  5
30E
 10
-187.510
 20
252.530
 30
0.000000
  70
    32
  0
VERTEX
  8
0
  5
30F
 10
-187.513
 20
252.510
 30
0.000000
  70
    32
  0
VERTEX
  8
0
  5
310
 10
-187.516
 20
252.490
 30
0.000000
  70
    32
  0
VERTEX
  8
0
  5
311
 10
-187.519
 20
252.470
 30
0.000000
  70
    32
  0
VERTEX
  8
0
  5
312
 10
-187.521
 20
252.450
 30
0.000000
  70
    32
  0
VERTEX
  8
0
  5
313
 10
-187.523
 20
252.430
 30
0.000000
  70
    32
  0
VERTEX
  8
0
  5
314
 10
-187.525
 20
252.410
 30
0.000000
  70
    32
  0
VERTEX
  8
0
  5
315
 10
-187.527
 20
252.390
 30
0.000000
  70
    32
  0
VERTEX
  8
0
  5
316
 10
-187.529
 20
252.370
 30
0.000000
  70
    32
  0
VERTEX
  8
0
  5
317
 10
-187.531
 20
252.350
 30
0.000000
  70
    32
  0
VERTEX
  8
0
  5
318
 10
-187.532
 20
252.330
 30
0.000000
  70
    32
  0
VERTEX
  8
0
  5
319
 10
-187.533
 20
252.310
 30
0.000000
  70
    32
  0
VERTEX
  8
0
  5
31A
 10
-187.534
 20
252.290
 30
0.000000
  70
    32
  0
VERTEX
  8
0
  5
31B
 10
-187.535
 20
252.270
 30
0.000000
  70
    32
  0
VERTEX
  8
0
  5
31C
 10
-187.536
 20
252.250
 30
0.000000
  70
    32
  0
VERTEX
  8
0
  5
31D
 10
-187.537
 20
252.230
 30
0.000000
  70
    32
  0
VERTEX
  8
0
  5
31E
 10
-187.537
 20
252.210
 30
0.000000
  70
    32
  0
VERTEX
  8
0
  5
31F
 10
-187.537
 20
252.190
 30
0.000000
  70
    32
  0
VERTEX
  8
0
  5
320
 10
-187.537
 20
252.170
 30
0.000000
  70
    32
  0
VERTEX
  8
0
  5
321
 10
-187.537
 20
252.150
 30
0.000000
  70
    32
  0
VERTEX
  8
0
  5
322
 10
-187.537
 20
252.130
 30
0.000000
  70
    32
  0
VERTEX
  8
0
  5
323
 10
-187.536
 20
252.110
 30
0.000000
  70
    32
  0
VERTEX
  8
0
  5
324
 10
-187.535
 20
252.090
 30
0.000000
  70
    32
  0
VERTEX
  8
0
  5
325
 10
-187.534
 20
252.070
 30
0.000000
  70
    32
  0
VERTEX
  8
0
  5
326
 10
-187.533
 20
252.050
 30
0.000000
  70
    32
  0
VERTEX
  8
0
  5
327
 10
-187.532
 20
252.030
 30
0.000000
  70
    32
  0
VERTEX
  8
0
  5
328
 10
-187.531
 20
252.010
 30
0.000000
  70
    32
  0
VERTEX
  8
0
  5
329
 10
-187.529
 20
251.990
 30
0.000000
  70
    32
  0
VERTEX
  8
0
  5
32A
 10
-187.527
 20
251.970
 30
0.000000
  70
    32
  0
VERTEX
  8
0
  5
32B
 10
-187.525
 20
251.950
 30
0.000000
  70
    32
  0
VERTEX
  8
0
  5
32C
 10
-187.523
 20
251.930
 30
0.000000
  70
    32
  0
VERTEX
  8
0
  5
32D
 10
-187.521
 20
251.910
 30
0.000000
  70
    32
  0
VERTEX
  8
0
  5
32E
 10
-187.519
 20
251.890
 30
0.000000
  70
    32
  0
VERTEX
  8
0
  5
32F
 10
-187.516
 20
251.870
 30
0.000000
  70
    32
  0
VERTEX
  8
0
  5
330
 10
-187.513
 20
251.850
 30
0.000000
  70
    32
  0
VERTEX
  8
0
  5
331
 10
-187.510
 20
251.830
 30
0.000000
  70
    32
  0
VERTEX
  8
0
  5
332
 10
-187.507
 20
251.810
 30
0.000000
  70
    32
  0
VERTEX
  8
0
  5
333
 10
-187.504
 20
251.791
 30
0.000000
  70
    32
  0
VERTEX
  8
0
  5
334
 10
-187.500
 20
251.771
 30
0.000000
  70
    32
  0
VERTEX
  8
0
  5
335
 10
-187.497
 20
251.751
 30
0.000000
  70
    32
  0
VERTEX
  8
0
  5
336
 10
-187.493
 20
251.731
 30
0.000000
  70
    32
  0
VERTEX
  8
0
  5
337
 10
-187.489
 20
251.711
 30
0.000000
  70
    32
  0
VERTEX
  8
0
  5
338
 10
-187.485
 20
251.691
 30
0.000000
  70
    32
  0
VERTEX
  8
0
  5
339
 10
-187.481
 20
251.671
 30
0.000000
  70
    32
  0
VERTEX
  8
0
  5
33A
 10
-187.476
 20
251.651
 30
0.000000
  70
    32
  0
VERTEX
  8
0
  5
33B
 10
-187.471
 20
251.631
 30
0.000000
  70
    32
  0
VERTEX
  8
0
  5
33C
 10
-187.467
 20
251.611
 30
0.000000
  70
    32
  0
VERTEX
  8
0
  5
33D
 10
-187.462
 20
251.591
 30
0.000000
  70
    32
  0
VERTEX
  8
0
  5
33E
 10
-187.457
 20
251.572
 30
0.000000
  70
    32
  0
VERTEX
  8
0
  5
33F
 10
-187.451
 20
251.552
 30
0.000000
  70
    32
  0
VERTEX
  8
0
  5
340
 10
-187.446
 20
251.532
 30
0.000000
  70
    32
  0
VERTEX
  8
0
  5
341
 10
-187.441
 20
251.512
 30
0.000000
  70
    32
  0
VERTEX
  8
0
  5
342
 10
-187.435
 20
251.492
 30
0.000000
  70
    32
  0
VERTEX
  8
0
  5
343
 10
-187.429
 20
251.472
 30
0.000000
  70
    32
  0
VERTEX
  8
0
  5
344
 10
-187.423
 20
251.453
 30
0.000000
  70
    32
  0
VERTEX
  8
0
  5
345
 10
-187.417
 20
251.433
 30
0.000000
  70
    32
  0
VERTEX
  8
0
  5
346
 10
-187.410
 20
251.413
 30
0.000000
  70
    32
  0
VERTEX
  8
0
  5
347
 10
-187.404
 20
251.393
 30
0.000000
  70
    32
  0
VERTEX
  8
0
  5
348
 10
-187.397
 20
251.374
 30
0.000000
  70
    32
  0
VERTEX
  8
0
  5
349
 10
-187.391
 20
251.354
 30
0.000000
  70
    32
  0
VERTEX
  8
0
  5
34A
 10
-187.384
 20
251.334
 30
0.000000
  70
    32
  0
VERTEX
  8
0
  5
34B
 10
-187.377
 20
251.314
 30
0.000000
  70
    32
  0
VERTEX
  8
0
  5
34C
 10
-187.369
 20
251.295
 30
0.000000
  70
    32
  0
VERTEX
  8
0
  5
34D
 10
-187.362
 20
251.275
 30
0.000000
  70
    32
  0
VERTEX
  8
0
  5
34E
 10
-187.354
 20
251.255
 30
0.000000
  70
    32
  0
VERTEX
  8
0
  5
34F
 10
-187.347
 20
251.236
 30
0.000000
  70
    32
  0
VERTEX
  8
0
  5
350
 10
-187.339
 20
251.216
 30
0.000000
  70
    32
  0
VERTEX
  8
0
  5
351
 10
-187.331
 20
251.196
 30
0.000000
  70
    32
  0
VERTEX
  8
0
  5
352
 10
-187.323
 20
251.177
 30
0.000000
  70
    32
  0
VERTEX
  8
0
  5
353
 10
-187.315
 20
251.157
 30
0.000000
  70
    32
  0
VERTEX
  8
0
  5
354
 10
-187.306
 20
251.138
 30
0.000000
  70
    32
  0
VERTEX
  8
0
  5
355
 10
-187.298
 20
251.118
 30
0.000000
  70
    32
  0
VERTEX
  8
0
  5
356
 10
-187.289
 20
251.098
 30
0.000000
  70
    32
  0
VERTEX
  8
0
  5
357
 10
-187.280
 20
251.079
 30
0.000000
  70
    32
  0
VERTEX
  8
0
  5
358
 10
-187.271
 20
251.059
 30
0.000000
  70
    32
  0
VERTEX
  8
0
  5
359
 10
-187.262
 20
251.040
 30
0.000000
  70
    32
  0
VERTEX
  8
0
  5
35A
 10
-187.253
 20
251.020
 30
0.000000
  70
    32
  0
VERTEX
  8
0
  5
35B
 10
-187.244
 20
251.001
 30
0.000000
  70
    32
  0
VERTEX
  8
0
  5
35C
 10
-187.234
 20
250.982
 30
0.000000
  70
    32
  0
VERTEX
  8
0
  5
35D
 10
-187.225
 20
250.962
 30
0.000000
  70
    32
  0
VERTEX
  8
0
  5
35E
 10
-187.215
 20
250.943
 30
0.000000
  70
    32
  0
VERTEX
  8
0
  5
35F
 10
-187.205
 20
250.923
 30
0.000000
  70
    32
  0
VERTEX
  8
0
  5
360
 10
-187.195
 20
250.904
 30
0.000000
  70
    32
  0
VERTEX
  8
0
  5
361
 10
-187.185
 20
250.885
 30
0.000000
  70
    32
  0
VERTEX
  8
0
  5
362
 10
-187.174
 20
250.865
 30
0.000000
  70
    32
  0
VERTEX
  8
0
  5
363
 10
-187.164
 20
250.846
 30
0.000000
  70
    32
  0
VERTEX
  8
0
  5
364
 10
-187.154
 20
250.827
 30
0.000000
  70
    32
  0
VERTEX
  8
0
  5
365
 10
-187.143
 20
250.807
 30
0.000000
  70
    32
  0
VERTEX
  8
0
  5
366
 10
-187.132
 20
250.788
 30
0.000000
  70
    32
  0
VERTEX
  8
0
  5
367
 10
-187.121
 20
250.769
 30
0.000000
  70
    32
  0
VERTEX
  8
0
  5
368
 10
-187.110
 20
250.750
 30
0.000000
  70
    32
  0
VERTEX
  8
0
  5
369
 10
-187.099
 20
250.730
 30
0.000000
  70
    32
  0
VERTEX
  8
0
  5
36A
 10
-187.087
 20
250.711
 30
0.000000
  70
    32
  0
VERTEX
  8
0
  5
36B
 10
-187.076
 20
250.692
 30
0.000000
  70
    32
  0
VERTEX
  8
0
  5
36C
 10
-187.064
 20
250.673
 30
0.000000
  70
    32
  0
VERTEX
  8
0
  5
36D
 10
-187.053
 20
250.654
 30
0.000000
  70
    32
  0
VERTEX
  8
0
  5
36E
 10
-187.041
 20
250.635
 30
0.000000
  70
    32
  0
VERTEX
  8
0
  5
36F
 10
-187.029
 20
250.616
 30
0.000000
  70
    32
  0
VERTEX
  8
0
  5
370
 10
-187.017
 20
250.597
 30
0.000000
  70
    32
  0
VERTEX
  8
0
  5
371
 10
-187.005
 20
250.578
 30
0.000000
  70
    32
  0
VERTEX
  8
0
  5
372
 10
-186.992
 20
250.559
 30
0.000000
  70
    32
  0
VERTEX
  8
0
  5
373
 10
-186.980
 20
250.540
 30
0.000000
  70
    32
  0
VERTEX
  8
0
  5
374
 10
-186.967
 20
250.521
 30
0.000000
  70
    32
  0
VERTEX
  8
0
  5
375
 10
-186.954
 20
250.502
 30
0.000000
  70
    32
  0
VERTEX
  8
0
  5
376
 10
-186.942
 20
250.483
 30
0.000000
  70
    32
  0
VERTEX
  8
0
  5
377
 10
-186.929
 20
250.464
 30
0.000000
  70
    32
  0
VERTEX
  8
0
  5
378
 10
-186.916
 20
250.445
 30
0.000000
  70
    32
  0
VERTEX
  8
0
  5
379
 10
-186.902
 20
250.426
 30
0.000000
  70
    32
  0
VERTEX
  8
0
  5
37A
 10
-186.889
 20
250.408
 30
0.000000
  70
    32
  0
VERTEX
  8
0
  5
37B
 10
-186.876
 20
250.389
 30
0.000000
  70
    32
  0
VERTEX
  8
0
  5
37C
 10
-186.862
 20
250.370
 30
0.000000
  70
    32
  0
VERTEX
  8
0
  5
37D
 10
-186.848
 20
250.351
 30
0.000000
  70
    32
  0
VERTEX
  8
0
  5
37E
 10
-186.834
 20
250.333
 30
0.000000
  70
    32
  0
VERTEX
  8
0
  5
37F
 10
-186.820
 20
250.314
 30
0.000000
  70
    32
  0
VERTEX
  8
0
  5
380
 10
-186.806
 20
250.295
 30
0.000000
  70
    32
  0
VERTEX
  8
0
  5
381
 10
-186.792
 20
250.277
 30
0.000000
  70
    32
  0
VERTEX
  8
0
  5
382
 10
-186.778
 20
250.258
 30
0.000000
  70
    32
  0
VERTEX
  8
0
  5
383
 10
-186.764
 20
250.239
 30
0.000000
  70
    32
  0
VERTEX
  8
0
  5
384
 10
-186.749
 20
250.221
 30
0.000000
  70
    32
  0
VERTEX
  8
0
  5
385
 10
-186.734
 20
250.202
 30
0.000000
  70
    32
  0
VERTEX
  8
0
  5
386
 10
-186.720
 20
250.184
 30
0.000000
  70
    32
  0
VERTEX
  8
0
  5
387
 10
-186.705
 20
250.165
 30
0.000000
  70
    32
  0
VERTEX
  8
0
  5
388
 10
-186.690
 20
250.147
 30
0.000000
  70
    32
  0
VERTEX
  8
0
  5
389
 10
-186.675
 20
250.128
 30
0.000000
  70
    32
  0
VERTEX
  8
0
  5
38A
 10
-186.659
 20
250.110
 30
0.000000
  70
    32
  0
VERTEX
  8
0
  5
38B
 10
-186.644
 20
250.091
 30
0.000000
  70
    32
  0
VERTEX
  8
0
  5
38C
 10
-186.629
 20
250.073
 30
0.000000
  70
    32
  0
VERTEX
  8
0
  5
38D
 10
-186.613
 20
250.054
 30
0.000000
  70
    32
  0
VERTEX
  8
0
  5
38E
 10
-186.597
 20
250.036
 30
0.000000
  70
    32
  0
VERTEX
  8
0
  5
38F
 10
-186.582
 20
250.018
 30
0.000000
  70
    32
  0
VERTEX
  8
0
  5
390
 10
-186.566
 20
249.999
 30
0.000000
  70
    32
  0
VERTEX
  8
0
  5
391
 10
-186.550
 20
249.981
 30
0.000000
  70
    32
  0
VERTEX
  8
0
  5
392
 10
-186.534
 20
249.963
 30
0.000000
  70
    32
  0
VERTEX
  8
0
  5
393
 10
-186.518
 20
249.945
 30
0.000000
  70
    32
  0
VERTEX
  8
0
  5
394
 10
-186.502
 20
249.926
 30
0.000000
  70
    32
  0
VERTEX
  8
0
  5
395
 10
-186.486
 20
249.908
 30
0.000000
  70
    32
  0
VERTEX
  8
0
  5
396
 10
-186.469
 20
249.890
 30
0.000000
  70
    32
  0
VERTEX
  8
0
  5
397
 10
-186.453
 20
249.872
 30
0.000000
  70
    32
  0
VERTEX
  8
0
  5
398
 10
-186.437
 20
249.854
 30
0.000000
  70
    32
  0
VERTEX
  8
0
  5
399
 10
-186.420
 20
249.835
 30
0.000000
  70
    32
  0
VERTEX
  8
0
  5
39A
 10
-186.403
 20
249.817
 30
0.000000
  70
    32
  0
VERTEX
  8
0
  5
39B
 10
-186.387
 20
249.799
 30
0.000000
  70
    32
  0
VERTEX
  8
0
  5
39C
 10
-186.370
 20
249.781
 30
0.000000
  70
    32
  0
VERTEX
  8
0
  5
39D
 10
-186.353
 20
249.763
 30
0.000000
  70
    32
  0
VERTEX
  8
0
  5
39E
 10
-186.337
 20
249.745
 30
0.000000
  70
    32
  0
VERTEX
  8
0
  5
39F
 10
-186.320
 20
249.727
 30
0.000000
  70
    32
  0
VERTEX
  8
0
  5
3A0
 10
-186.303
 20
249.708
 30
0.000000
  70
    32
  0
VERTEX
  8
0
  5
3A1
 10
-186.286
 20
249.690
 30
0.000000
  70
    32
  0
VERTEX
  8
0
  5
3A2
 10
-186.269
 20
249.672
 30
0.000000
  70
    32
  0
VERTEX
  8
0
  5
3A3
 10
-186.252
 20
249.654
 30
0.000000
  70
    32
  0
VERTEX
  8
0
  5
3A4
 10
-186.235
 20
249.636
 30
0.000000
  70
    32
  0
VERTEX
  8
0
  5
3A5
 10
-186.218
 20
249.618
 30
0.000000
  70
    32
  0
VERTEX
  8
0
  5
3A6
 10
-186.201
 20
249.600
 30
0.000000
  70
    32
  0
VERTEX
  8
0
  5
3A7
 10
-186.184
 20
249.582
 30
0.000000
  70
    32
  0
VERTEX
  8
0
  5
3A8
 10
-186.166
 20
249.564
 30
0.000000
  70
    32
  0
VERTEX
  8
0
  5
3A9
 10
-186.149
 20
249.546
 30
0.000000
  70
    32
  0
VERTEX
  8
0
  5
3AA
 10
-186.132
 20
249.528
 30
0.000000
  70
    32
  0
VERTEX
  8
0
  5
3AB
 10
-186.115
 20
249.510
 30
0.000000
  70
    32
  0
VERTEX
  8
0
  5
3AC
 10
-186.098
 20
249.492
 30
0.000000
  70
    32
  0
VERTEX
  8
0
  5
3AD
 10
-186.080
 20
249.474
 30
0.000000
  70
    32
  0
VERTEX
  8
0
  5
3AE
 10
-186.063
 20
249.456
 30
0.000000
  70
    32
  0
VERTEX
  8
0
  5
3AF
 10
-186.046
 20
249.438
 30
0.000000
  70
    32
  0
SEQEND
  8
0
  5
3B0
  0
POLYLINE
  8
0
  5
3B1
  66
     1
 10
0.000000
 20
0.000000
 30
0.000000
  70
     8
  0
VERTEX
  8
0
  5
3B2
 10
-186.046
 20
249.438
 30
0.000000
  70
    32
  0
VERTEX
  8
0
  5
3B3
 10
-186.063
 20
249.402
 30
0.000000
  70
    32
  0
VERTEX
  8
0
  5
3B4
 10
-186.080
 20
249.366
 30
0.000000
  70
    32
  0
VERTEX
  8
0
  5
3B5
 10
-186.098
 20
249.330
 30
0.000000
  70
    32
  0
VERTEX
  8
0
  5
3B6
 10
-186.115
 20
249.294
 30
0.000000
  70
    32
  0
VERTEX
  8
0
  5
3B7
 10
-186.132
 20
249.257
 30
0.000000
  70
    32
  0
VERTEX
  8
0
  5
3B8
 10
-186.149
 20
249.221
 30
0.000000
  70
    32
  0
VERTEX
  8
0
  5
3B9
 10
-186.166
 20
249.185
 30
0.000000
  70
    32
  0
VERTEX
  8
0
  5
3BA
 10
-186.184
 20
249.149
 30
0.000000
  70
    32
  0
VERTEX
  8
0
  5
3BB
 10
-186.201
 20
249.113
 30
0.000000
  70
    32
  0
VERTEX
  8
0
  5
3BC
 10
-186.218
 20
249.077
 30
0.000000
  70
    32
  0
VERTEX
  8
0
  5
3BD
 10
-186.235
 20
249.041
 30
0.000000
  70
    32
  0
VERTEX
  8
0
  5
3BE
 10
-186.252
 20
249.005
 30
0.000000
  70
    32
  0
VERTEX
  8
0
  5
3BF
 10
-186.269
 20
248.969
 30
0.000000
  70
    32
  0
VERTEX
  8
0
  5
3C0
 10
-186.286
 20
248.932
 30
0.000000
  70
    32
  0
VERTEX
  8
0
  5
3C1
 10
-186.303
 20
248.896
 30
0.000000
  70
    32
  0
VERTEX
  8
0
  5
3C2
 10
-186.320
 20
248.860
 30
0.000000
  70
    32
  0
VERTEX
  8
0
  5
3C3
 10
-186.337
 20
248.824
 30
0.000000
  70
    32
  0
VERTEX
  8
0
  5
3C4
 10
-186.353
 20
248.788
 30
0.000000
  70
    32
  0
VERTEX
  8
0
  5
3C5
 10
-186.370
 20
248.751
 30
0.000000
  70
    32
  0
VERTEX
  8
0
  5
3C6
 10
-186.387
 20
248.715
 30
0.000000
  70
    32
  0
VERTEX
  8
0
  5
3C7
 10
-186.403
 20
248.679
 30
0.000000
  70
    32
  0
VERTEX
  8
0
  5
3C8
 10
-186.420
 20
248.642
 30
0.000000
  70
    32
  0
VERTEX
  8
0
  5
3C9
 10
-186.437
 20
248.606
 30
0.000000
  70
    32
  0
VERTEX
  8
0
  5
3CA
 10
-186.453
 20
248.570
 30
0.000000
  70
    32
  0
VERTEX
  8
0
  5
3CB
 10
-186.469
 20
248.533
 30
0.000000
  70
    32
  0
VERTEX
  8
0
  5
3CC
 10
-186.486
 20
248.497
 30
0.000000
  70
    32
  0
VERTEX
  8
0
  5
3CD
 10
-186.502
 20
248.460
 30
0.000000
  70
    32
  0
VERTEX
  8
0
  5
3CE
 10
-186.518
 20
248.424
 30
0.000000
  70
    32
  0
VERTEX
  8
0
  5
3CF
 10
-186.534
 20
248.387
 30
0.000000
  70
    32
  0
VERTEX
  8
0
  5
3D0
 10
-186.550
 20
248.351
 30
0.000000
  70
    32
  0
VERTEX
  8
0
  5
3D1
 10
-186.566
 20
248.314
 30
0.000000
  70
    32
  0
VERTEX
  8
0
  5
3D2
 10
-186.582
 20
248.278
 30
0.000000
  70
    32
  0
VERTEX
  8
0
  5
3D3
 10
-186.597
 20
248.241
 30
0.000000
  70
    32
  0
VERTEX
  8
0
  5
3D4
 10
-186.613
 20
248.204
 30
0.000000
  70
    32
  0
VERTEX
  8
0
  5
3D5
 10
-186.629
 20
248.167
 30
0.000000
  70
    32
  0
VERTEX
  8
0
  5
3D6
 10
-186.644
 20
248.131
 30
0.000000
  70
    32
  0
VERTEX
  8
0
  5
3D7
 10
-186.659
 20
248.094
 30
0.000000
  70
    32
  0
VERTEX
  8
0
  5
3D8
 10
-186.675
 20
248.057
 30
0.000000
  70
    32
  0
VERTEX
  8
0
  5
3D9
 10
-186.690
 20
248.020
 30
0.000000
  70
    32
  0
VERTEX
  8
0
  5
3DA
 10
-186.705
 20
247.983
 30
0.000000
  70
    32
  0
VERTEX
  8
0
  5
3DB
 10
-186.720
 20
247.946
 30
0.000000
  70
    32
  0
VERTEX
  8
0
  5
3DC
 10
-186.734
 20
247.909
 30
0.000000
  70
    32
  0
VERTEX
  8
0
  5
3DD
 10
-186.749
 20
247.872
 30
0.000000
  70
    32
  0
VERTEX
  8
0
  5
3DE
 10
-186.764
 20
247.835
 30
0.000000
  70
    32
  0
VERTEX
  8
0
  5
3DF
 10
-186.778
 20
247.797
 30
0.000000
  70
    32
  0
VERTEX
  8
0
  5
3E0
 10
-186.792
 20
247.760
 30
0.000000
  70
    32
  0
VERTEX
  8
0
  5
3E1
 10
-186.806
 20
247.723
 30
0.000000
  70
    32
  0
VERTEX
  8
0
  5
3E2
 10
-186.820
 20
247.685
 30
0.000000
  70
    32
  0
VERTEX
  8
0
  5
3E3
 10
-186.834
 20
247.648
 30
0.000000
  70
    32
  0
VERTEX
  8
0
  5
3E4
 10
-186.848
 20
247.611
 30
0.000000
  70
    32
  0
VERTEX
  8
0
  5
3E5
 10
-186.862
 20
247.573
 30
0.000000
  70
    32
  0
VERTEX
  8
0
  5
3E6
 10
-186.876
 20
247.536
 30
0.000000
  70
    32
  0
VERTEX
  8
0
  5
3E7
 10
-186.889
 20
247.498
 30
0.000000
  70
    32
  0
VERTEX
  8
0
  5
3E8
 10
-186.902
 20
247.460
 30
0.000000
  70
    32
  0
VERTEX
  8
0
  5
3E9
 10
-186.916
 20
247.423
 30
0.000000
  70
    32
  0
VERTEX
  8
0
  5
3EA
 10
-186.929
 20
247.385
 30
0.000000
  70
    32
  0
VERTEX
  8
0
  5
3EB
 10
-186.942
 20
247.347
 30
0.000000
  70
    32
  0
VERTEX
  8
0
  5
3EC
 10
-186.954
 20
247.309
 30
0.000000
  70
    32
  0
VERTEX
  8
0
  5
3ED
 10
-186.967
 20
247.271
 30
0.000000
  70
    32
  0
VERTEX
  8
0
  5
3EE
 10
-186.980
 20
247.234
 30
0.000000
  70
    32
  0
VERTEX
  8
0
  5
3EF
 10
-186.992
 20
247.196
 30
0.000000
  70
    32
  0
VERTEX
  8
0
  5
3F0
 10
-187.005
 20
247.158
 30
0.000000
  70
    32
  0
VERTEX
  8
0
  5
3F1
 10
-187.017
 20
247.120
 30
0.000000
  70
    32
  0
VERTEX
  8
0
  5
3F2
 10
-187.029
 20
247.081
 30
0.000000
  70
    32
  0
VERTEX
  8
0
  5
3F3
 10
-187.041
 20
247.043
 30
0.000000
  70
    32
  0
VERTEX
  8
0
  5
3F4
 10
-187.053
 20
247.005
 30
0.000000
  70
    32
  0
VERTEX
  8
0
  5
3F5
 10
-187.064
 20
246.967
 30
0.000000
  70
    32
  0
VERTEX
  8
0
  5
3F6
 10
-187.076
 20
246.929
 30
0.000000
  70
    32
  0
VERTEX
  8
0
  5
3F7
 10
-187.087
 20
246.890
 30
0.000000
  70
    32
  0
VERTEX
  8
0
  5
3F8
 10
-187.099
 20
246.852
 30
0.000000
  70
    32
  0
VERTEX
  8
0
  5
3F9
 10
-187.110
 20
246.814
 30
0.000000
  70
    32
  0
VERTEX
  8
0
  5
3FA
 10
-187.121
 20
246.775
 30
0.000000
  70
    32
  0
VERTEX
  8
0
  5
3FB
 10
-187.132
 20
246.737
 30
0.000000
  70
    32
  0
VERTEX
  8
0
  5
3FC
 10
-187.143
 20
246.698
 30
0.000000
  70
    32
  0
VERTEX
  8
0
  5
3FD
 10
-187.154
 20
246.660
 30
0.000000
  70
    32
  0
VERTEX
  8
0
  5
3FE
 10
-187.164
 20
246.621
 30
0.000000
  70
    32
  0
VERTEX
  8
0
  5
3FF
 10
-187.174
 20
246.583
 30
0.000000
  70
    32
  0
VERTEX
  8
0
  5
400
 10
-187.185
 20
246.544
 30
0.000000
  70
    32
  0
VERTEX
  8
0
  5
401
 10
-187.195
 20
246.505
 30
0.000000
  70
    32
  0
VERTEX
  8
0
  5
402
 10
-187.205
 20
246.467
 30
0.000000
  70
    32
  0
VERTEX
  8
0
  5
403
 10
-187.215
 20
246.428
 30
0.000000
  70
    32
  0
VERTEX
  8
0
  5
404
 10
-187.225
 20
246.389
 30
0.000000
  70
    32
  0
VERTEX
  8
0
  5
405
 10
-187.234
 20
246.350
 30
0.000000
  70
    32
  0
VERTEX
  8
0
  5
406
 10
-187.244
 20
246.311
 30
0.000000
  70
    32
  0
VERTEX
  8
0
  5
407
 10
-187.253
 20
246.272
 30
0.000000
  70
    32
  0
VERTEX
  8
0
  5
408
 10
-187.262
 20
246.233
 30
0.000000
  70
    32
  0
VERTEX
  8
0
  5
409
 10
-187.271
 20
246.194
 30
0.000000
  70
    32
  0
VERTEX
  8
0
  5
40A
 10
-187.280
 20
246.155
 30
0.000000
  70
    32
  0
VERTEX
  8
0
  5
40B
 10
-187.289
 20
246.116
 30
0.000000
  70
    32
  0
VERTEX
  8
0
  5
40C
 10
-187.298
 20
246.077
 30
0.000000
  70
    32
  0
VERTEX
  8
0
  5
40D
 10
-187.306
 20
246.038
 30
0.000000
  70
    32
  0
VERTEX
  8
0
  5
40E
 10
-187.315
 20
245.999
 30
0.000000
  70
    32
  0
VERTEX
  8
0
  5
40F
 10
-187.323
 20
245.960
 30
0.000000
  70
    32
  0
VERTEX
  8
0
  5
410
 10
-187.331
 20
245.920
 30
0.000000
  70
    32
  0
VERTEX
  8
0
  5
411
 10
-187.339
 20
245.881
 30
0.000000
  70
    32
  0
VERTEX
  8
0
  5
412
 10
-187.347
 20
245.842
 30
0.000000
  70
    32
  0
VERTEX
  8
0
  5
413
 10
-187.354
 20
245.802
 30
0.000000
  70
    32
  0
VERTEX
  8
0
  5
414
 10
-187.362
 20
245.763
 30
0.000000
  70
    32
  0
VERTEX
  8
0
  5
415
 10
-187.369
 20
245.724
 30
0.000000
  70
    32
  0
VERTEX
  8
0
  5
416
 10
-187.377
 20
245.684
 30
0.000000
  70
    32
  0
VERTEX
  8
0
  5
417
 10
-187.384
 20
245.645
 30
0.000000
  70
    32
  0
VERTEX
  8
0
  5
418
 10
-187.391
 20
245.605
 30
0.000000
  70
    32
  0
VERTEX
  8
0
  5
419
 10
-187.397
 20
245.566
 30
0.000000
  70
    32
  0
VERTEX
  8
0
  5
41A
 10
-187.404
 20
245.526
 30
0.000000
  70
    32
  0
VERTEX
  8
0
  5
41B
 10
-187.410
 20
245.487
 30
0.000000
  70
    32
  0
VERTEX
  8
0
  5
41C
 10
-187.417
 20
245.447
 30
0.000000
  70
    32
  0
VERTEX
  8
0
  5
41D
 10
-187.423
 20
245.408
 30
0.000000
  70
    32
  0
VERTEX
  8
0
  5
41E
 10
-187.429
 20
245.368
 30
0.000000
  70
    32
  0
VERTEX
  8
0
  5
41F
 10
-187.435
 20
245.329
 30
0.000000
  70
    32
  0
VERTEX
  8
0
  5
420
 10
-187.441
 20
245.289
 30
0.000000
  70
    32
  0
VERTEX
  8
0
  5
421
 10
-187.446
 20
245.249
 30
0.000000
  70
    32
  0
VERTEX
  8
0
  5
422
 10
-187.451
 20
245.210
 30
0.000000
  70
    32
  0
VERTEX
  8
0
  5
423
 10
-187.457
 20
245.170
 30
0.000000
  70
    32
  0
VERTEX
  8
0
  5
424
 10
-187.462
 20
245.130
 30
0.000000
  70
    32
  0
VERTEX
  8
0
  5
425
 10
-187.467
 20
245.090
 30
0.000000
  70
    32
  0
VERTEX
  8
0
  5
426
 10
-187.471
 20
245.051
 30
0.000000
  70
    32
  0
VERTEX
  8
0
  5
427
 10
-187.476
 20
245.011
 30
0.000000
  70
    32
  0
VERTEX
  8
0
  5
428
 10
-187.481
 20
244.971
 30
0.000000
  70
    32
  0
VERTEX
  8
0
  5
429
 10
-187.485
 20
244.931
 30
0.000000
  70
    32
  0
VERTEX
  8
0
  5
42A
 10
-187.489
 20
244.891
 30
0.000000
  70
    32
  0
VERTEX
  8
0
  5
42B
 10
-187.493
 20
244.852
 30
0.000000
  70
    32
  0
VERTEX
  8
0
  5
42C
 10
-187.497
 20
244.812
 30
0.000000
  70
    32
  0
VERTEX
  8
0
  5
42D
 10
-187.500
 20
244.772
 30
0.000000
  70
    32
  0
VERTEX
  8
0
  5
42E
 10
-187.504
 20
244.732
 30
0.000000
  70
    32
  0
VERTEX
  8
0
  5
42F
 10
-187.507
 20
244.692
 30
0.000000
  70
    32
  0
VERTEX
  8
0
  5
430
 10
-187.510
 20
244.652
 30
0.000000
  70
    32
  0
VERTEX
  8
0
  5
431
 10
-187.513
 20
244.612
 30
0.000000
  70
    32
  0
VERTEX
  8
0
  5
432
 10
-187.516
 20
244.572
 30
0.000000
  70
    32
  0
VERTEX
  8
0
  5
433
 10
-187.519
 20
244.533
 30
0.000000
  70
    32
  0
VERTEX
  8
0
  5
434
 10
-187.521
 20
244.493
 30
0.000000
  70
    32
  0
VERTEX
  8
0
  5
435
 10
-187.523
 20
244.453
 30
0.000000
  70
    32
  0
VERTEX
  8
0
  5
436
 10
-187.525
 20
244.413
 30
0.000000
  70
    32
  0
VERTEX
  8
0
  5
437
 10
-187.527
 20
244.373
 30
0.000000
  70
    32
  0
VERTEX
  8
0
  5
438
 10
-187.529
 20
244.333
 30
0.000000
  70
    32
  0
VERTEX
  8
0
  5
439
 10
-187.531
 20
244.293
 30
0.000000
  70
    32
  0
VERTEX
  8
0
  5
43A
 10
-187.532
 20
244.253
 30
0.000000
  70
    32
  0
VERTEX
  8
0
  5
43B
 10
-187.533
 20
244.213
 30
0.000000
  70
    32
  0
VERTEX
  8
0
  5
43C
 10
-187.534
 20
244.173
 30
0.000000
  70
    32
  0
VERTEX
  8
0
  5
43D
 10
-187.535
 20
244.133
 30
0.000000
  70
    32
  0
VERTEX
  8
0
  5
43E
 10
-187.536
 20
244.093
 30
0.000000
  70
    32
  0
VERTEX
  8
0
  5
43F
 10
-187.537
 20
244.053
 30
0.000000
  70
    32
  0
VERTEX
  8
0
  5
440
 10
-187.537
 20
244.013
 30
0.000000
  70
    32
  0
VERTEX
  8
0
  5
441
 10
-187.537
 20
243.973
 30
0.000000
  70
    32
  0
VERTEX
  8
0
  5
442
 10
-187.537
 20
243.933
 30
0.000000
  70
    32
  0
VERTEX
  8
0
  5
443
 10
-187.537
 20
243.893
 30
0.000000
  70
    32
  0
VERTEX
  8
0
  5
444
 10
-187.537
 20
243.853
 30
0.000000
  70
    32
  0
VERTEX
  8
0
  5
445
 10
-187.536
 20
243.813
 30
0.000000
  70
    32
  0
VERTEX
  8
0
  5
446
 10
-187.535
 20
243.773
 30
0.000000
  70
    32
  0
VERTEX
  8
0
  5
447
 10
-187.534
 20
243.733
 30
0.000000
  70
    32
  0
VERTEX
  8
0
  5
448
 10
-187.533
 20
243.693
 30
0.000000
  70
    32
  0
VERTEX
  8
0
  5
449
 10
-187.532
 20
243.653
 30
0.000000
  70
    32
  0
VERTEX
  8
0
  5
44A
 10
-187.531
 20
243.613
 30
0.000000
  70
    32
  0
VERTEX
  8
0
  5
44B
 10
-187.529
 20
243.573
 30
0.000000
  70
    32
  0
VERTEX
  8
0
  5
44C
 10
-187.527
 20
243.533
 30
0.000000
  70
    32
  0
VERTEX
  8
0
  5
44D
 10
-187.525
 20
243.493
 30
0.000000
  70
    32
  0
VERTEX
  8
0
  5
44E
 10
-187.523
 20
243.453
 30
0.000000
  70
    32
  0
VERTEX
  8
0
  5
44F
 10
-187.521
 20
243.413
 30
0.000000
  70
    32
  0
VERTEX
  8
0
  5
450
 10
-187.519
 20
243.373
 30
0.000000
  70
    32
  0
VERTEX
  8
0
  5
451
 10
-187.516
 20
243.333
 30
0.000000
  70
    32
  0
VERTEX
  8
0
  5
452
 10
-187.513
 20
243.293
 30
0.000000
  70
    32
  0
VERTEX
  8
0
  5
453
 10
-187.510
 20
243.253
 30
0.000000
  70
    32
  0
VERTEX
  8
0
  5
454
 10
-187.507
 20
243.214
 30
0.000000
  70
    32
  0
VERTEX
  8
0
  5
455
 10
-187.504
 20
243.174
 30
0.000000
  70
    32
  0
VERTEX
  8
0
  5
456
 10
-187.500
 20
243.134
 30
0.000000
  70
    32
  0
VERTEX
  8
0
  5
457
 10
-187.497
 20
243.094
 30
0.000000
  70
    32
  0
VERTEX
  8
0
  5
458
 10
-187.493
 20
243.054
 30
0.000000
  70
    32
  0
VERTEX
  8
0
  5
459
 10
-187.489
 20
243.014
 30
0.000000
  70
    32
  0
VERTEX
  8
0
  5
45A
 10
-187.485
 20
242.974
 30
0.000000
  70
    32
  0
VERTEX
  8
0
  5
45B
 10
-187.481
 20
242.935
 30
0.000000
  70
    32
  0
VERTEX
  8
0
  5
45C
 10
-187.476
 20
242.895
 30
0.000000
  70
    32
  0
VERTEX
  8
0
  5
45D
 10
-187.471
 20
242.855
 30
0.000000
  70
    32
  0
VERTEX
  8
0
  5
45E
 10
-187.467
 20
242.815
 30
0.000000
  70
    32
  0
VERTEX
  8
0
  5
45F
 10
-187.462
 20
242.776
 30
0.000000
  70
    32
  0
VERTEX
  8
0
  5
460
 10
-187.457
 20
242.736
 30
0.000000
  70
    32
  0
VERTEX
  8
0
  5
461
 10
-187.451
 20
242.696
 30
0.000000
  70
    32
  0
VERTEX
  8
0
  5
462
 10
-187.446
 20
242.656
 30
0.000000
  70
    32
  0
VERTEX
  8
0
  5
463
 10
-187.441
 20
242.617
 30
0.000000
  70
    32
  0
VERTEX
  8
0
  5
464
 10
-187.435
 20
242.577
 30
0.000000
  70
    32
  0
VERTEX
  8
0
  5
465
 10
-187.429
 20
242.538
 30
0.000000
  70
    32
  0
VERTEX
  8
0
  5
466
 10
-187.423
 20
242.498
 30
0.000000
  70
    32
  0
VERTEX
  8
0
  5
467
 10
-187.417
 20
242.458
 30
0.000000
  70
    32
  0
VERTEX
  8
0
  5
468
 10
-187.410
 20
242.419
 30
0.000000
  70
    32
  0
VERTEX
  8
0
  5
469
 10
-187.404
 20
242.379
 30
0.000000
  70
    32
  0
VERTEX
  8
0
  5
46A
 10
-187.397
 20
242.340
 30
0.000000
  70
    32
  0
VERTEX
  8
0
  5
46B
 10
-187.391
 20
242.300
 30
0.000000
  70
    32
  0
VERTEX
  8
0
  5
46C
 10
-187.384
 20
242.261
 30
0.000000
  70
    32
  0
VERTEX
  8
0
  5
46D
 10
-187.377
 20
242.221
 30
0.000000
  70
    32
  0
VERTEX
  8
0
  5
46E
 10
-187.369
 20
242.182
 30
0.000000
  70
    32
  0
VERTEX
  8
0
  5
46F
 10
-187.362
 20
242.143
 30
0.000000
  70
    32
  0
VERTEX
  8
0
  5
470
 10
-187.354
 20
242.103
 30
0.000000
  70
    32
  0
VERTEX
  8
0
  5
471
 10
-187.347
 20
242.064
 30
0.000000
  70
    32
  0
VERTEX
  8
0
  5
472
 10
-187.339
 20
242.025
 30
0.000000
  70
    32
  0
VERTEX
  8
0
  5
473
 10
-187.331
 20
241.985
 30
0.000000
  70
    32
  0
VERTEX
  8
0
  5
474
 10
-187.323
 20
241.946
 30
0.000000
  70
    32
  0
VERTEX
  8
0
  5
475
 10
-187.315
 20
241.907
 30
0.000000
  70
    32
  0
VERTEX
  8
0
  5
476
 10
-187.306
 20
241.868
 30
0.000000
  70
    32
  0
VERTEX
  8
0
  5
477
 10
-187.298
 20
241.829
 30
0.000000
  70
    32
  0
VERTEX
  8
0
  5
478
 10
-187.289
 20
241.790
 30
0.000000
  70
    32
  0
VERTEX
  8
0
  5
479
 10
-187.280
 20
241.751
 30
0.000000
  70
    32
  0
VERTEX
  8
0
  5
47A
 10
-187.271
 20
241.711
 30
0.000000
  70
    32
  0
VERTEX
  8
0
  5
47B
 10
-187.262
 20
241.672
 30
0.000000
  70
    32
  0
VERTEX
  8
0
  5
47C
 10
-187.253
 20
241.634
 30
0.000000
  70
    32
  0
VERTEX
  8
0
  5
47D
 10
-187.244
 20
241.595
 30
0.000000
  70
    32
  0
VERTEX
  8
0
  5
47E
 10
-187.234
 20
241.556
 30
0.000000
  70
    32
  0
VERTEX
  8
0
  5
47F
 10
-187.225
 20
241.517
 30
0.000000
  70
    32
  0
VERTEX
  8
0
  5
480
 10
-187.215
 20
241.478
 30
0.000000
  70
    32
  0
VERTEX
  8
0
  5
481
 10
-187.205
 20
241.439
 30
0.000000
  70
    32
  0
VERTEX
  8
0
  5
482
 10
-187.195
 20
241.400
 30
0.000000
  70
    32
  0
VERTEX
  8
0
  5
483
 10
-187.185
 20
241.362
 30
0.000000
  70
    32
  0
VERTEX
  8
0
  5
484
 10
-187.174
 20
241.323
 30
0.000000
  70
    32
  0
VERTEX
  8
0
  5
485
 10
-187.164
 20
241.284
 30
0.000000
  70
    32
  0
VERTEX
  8
0
  5
486
 10
-187.154
 20
241.246
 30
0.000000
  70
    32
  0
VERTEX
  8
0
  5
487
 10
-187.143
 20
241.207
 30
0.000000
  70
    32
  0
VERTEX
  8
0
  5
488
 10
-187.132
 20
241.169
 30
0.000000
  70
    32
  0
VERTEX
  8
0
  5
489
 10
-187.121
 20
241.130
 30
0.000000
  70
    32
  0
VERTEX
  8
0
  5
48A
 10
-187.110
 20
241.092
 30
0.000000
  70
    32
  0
VERTEX
  8
0
  5
48B
 10
-187.099
 20
241.054
 30
0.000000
  70
    32
  0
VERTEX
  8
0
  5
48C
 10
-187.087
 20
241.015
 30
0.000000
  70
    32
  0
VERTEX
  8
0
  5
48D
 10
-187.076
 20
240.977
 30
0.000000
  70
    32
  0
VERTEX
  8
0
  5
48E
 10
-187.064
 20
240.939
 30
0.000000
  70
    32
  0
VERTEX
  8
0
  5
48F
 10
-187.053
 20
240.901
 30
0.000000
  70
    32
  0
VERTEX
  8
0
  5
490
 10
-187.041
 20
240.862
 30
0.000000
  70
    32
  0
VERTEX
  8
0
  5
491
 10
-187.029
 20
240.824
 30
0.000000
  70
    32
  0
VERTEX
  8
0
  5
492
 10
-187.017
 20
240.786
 30
0.000000
  70
    32
  0
VERTEX
  8
0
  5
493
 10
-187.005
 20
240.748
 30
0.000000
  70
    32
  0
VERTEX
  8
0
  5
494
 10
-186.992
 20
240.710
 30
0.000000
  70
    32
  0
VERTEX
  8
0
  5
495
 10
-186.980
 20
240.672
 30
0.000000
  70
    32
  0
VERTEX
  8
0
  5
496
 10
-186.967
 20
240.634
 30
0.000000
  70
    32
  0
VERTEX
  8
0
  5
497
 10
-186.954
 20
240.596
 30
0.000000
  70
    32
  0
VERTEX
  8
0
  5
498
 10
-186.942
 20
240.559
 30
0.000000
  70
    32
  0
VERTEX
  8
0
  5
499
 10
-186.929
 20
240.521
 30
0.000000
  70
    32
  0
VERTEX
  8
0
  5
49A
 10
-186.916
 20
240.483
 30
0.000000
  70
    32
  0
VERTEX
  8
0
  5
49B
 10
-186.902
 20
240.445
 30
0.000000
  70
    32
  0
VERTEX
  8
0
  5
49C
 10
-186.889
 20
240.408
 30
0.000000
  70
    32
  0
VERTEX
  8
0
  5
49D
 10
-186.876
 20
240.370
 30
0.000000
  70
    32
  0
VERTEX
  8
0
  5
49E
 10
-186.862
 20
240.333
 30
0.000000
  70
    32
  0
VERTEX
  8
0
  5
49F
 10
-186.848
 20
240.295
 30
0.000000
  70
    32
  0
VERTEX
  8
0
  5
4A0
 10
-186.834
 20
240.258
 30
0.000000
  70
    32
  0
VERTEX
  8
0
  5
4A1
 10
-186.820
 20
240.220
 30
0.000000
  70
    32
  0
VERTEX
  8
0
  5
4A2
 10
-186.806
 20
240.183
 30
0.000000
  70
    32
  0
VERTEX
  8
0
  5
4A3
 10
-186.792
 20
240.146
 30
0.000000
  70
    32
  0
VERTEX
  8
0
  5
4A4
 10
-186.778
 20
240.108
 30
0.000000
  70
    32
  0
VERTEX
  8
0
  5
4A5
 10
-186.764
 20
240.071
 30
0.000000
  70
    32
  0
VERTEX
  8
0
  5
4A6
 10
-186.749
 20
240.034
 30
0.000000
  70
    32
  0
VERTEX
  8
0
  5
4A7
 10
-186.734
 20
239.997
 30
0.000000
  70
    32
  0
VERTEX
  8
0
  5
4A8
 10
-186.720
 20
239.960
 30
0.000000
  70
    32
  0
VERTEX
  8
0
  5
4A9
 10
-186.705
 20
239.923
 30
0.000000
  70
    32
  0
VERTEX
  8
0
  5
4AA
 10
-186.690
 20
239.886
 30
0.000000
  70
    32
  0
VERTEX
  8
0
  5
4AB
 10
-186.675
 20
239.849
 30
0.000000
  70
    32
  0
VERTEX
  8
0
  5
4AC
 10
-186.659
 20
239.812
 30
0.000000
  70
    32
  0
VERTEX
  8
0
  5
4AD
 10
-186.644
 20
239.775
 30
0.000000
  70
    32
  0
VERTEX
  8
0
  5
4AE
 10
-186.629
 20
239.738
 30
0.000000
  70
    32
  0
VERTEX
  8
0
  5
4AF
 10
-186.613
 20
239.702
 30
0.000000
  70
    32
  0
VERTEX
  8
0
  5
4B0
 10
-186.597
 20
239.665
 30
0.000000
  70
    32
  0
VERTEX
  8
0
  5
4B1
 10
-186.582
 20
239.628
 30
0.000000
  70
    32
  0
VERTEX
  8
0
  5
4B2
 10
-186.566
 20
239.592
 30
0.000000
  70
    32
  0
VERTEX
  8
0
  5
4B3
 10
-186.550
 20
239.555
 30
0.000000
  70
    32
  0
VERTEX
  8
0
  5
4B4
 10
-186.534
 20
239.518
 30
0.000000
  70
    32
  0
VERTEX
  8
0
  5
4B5
 10
-186.518
 20
239.482
 30
0.000000
  70
    32
  0
VERTEX
  8
0
  5
4B6
 10
-186.502
 20
239.445
 30
0.000000
  70
    32
  0
VERTEX
  8
0
  5
4B7
 10
-186.486
 20
239.409
 30
0.000000
  70
    32
  0
VERTEX
  8
0
  5
4B8
 10
-186.469
 20
239.372
 30
0.000000
  70
    32
  0
VERTEX
  8
0
  5
4B9
 10
-186.453
 20
239.336
 30
0.000000
  70
    32
  0
VERTEX
  8
0
  5
4BA
 10
-186.437
 20
239.300
 30
0.000000
  70
    32
  0
VERTEX
  8
0
  5
4BB
 10
-186.420
 20
239.263
 30
0.000000
  70
    32
  0
VERTEX
  8
0
  5
4BC
 10
-186.403
 20
239.227
 30
0.000000
  70
    32
  0
VERTEX
  8
0
  5
4BD
 10
-186.387
 20
239.191
 30
0.000000
  70
    32
  0
VERTEX
  8
0
  5
4BE
 10
-186.370
 20
239.154
 30
0.000000
  70
    32
  0
VERTEX
  8
0
  5
4BF
 10
-186.353
 20
239.118
 30
0.000000
  70
    32
  0
VERTEX
  8
0
  5
4C0
 10
-186.337
 20
239.082
 30
0.000000
  70
    32
  0
VERTEX
  8
0
  5
4C1
 10
-186.320
 20
239.046
 30
0.000000
  70
    32
  0
VERTEX
  8
0
  5
4C2
 10
-186.303
 20
239.009
 30
0.000000
  70
    32
  0
VERTEX
  8
0
  5
4C3
 10
-186.286
 20
238.973
 30
0.000000
  70
    32
  0
VERTEX
  8
0
  5
4C4
 10
-186.269
 20
238.937
 30
0.000000
  70
    32
  0
VERTEX
  8
0
  5
4C5
 10
-186.252
 20
238.901
 30
0.000000
  70
    32
  0
VERTEX
  8
0
  5
4C6
 10
-186.235
 20
238.865
 30
0.000000
  70
    32
  0
VERTEX
  8
0
  5
4C7
 10
-186.218
 20
238.829
 30
0.000000
  70
    32
  0
VERTEX
  8
0
  5
4C8
 10
-186.201
 20
238.793
 30
0.000000
  70
    32
  0
VERTEX
  8
0
  5
4C9
 10
-186.184
 20
238.757
 30
0.000000
  70
    32
  0
VERTEX
  8
0
  5
4CA
 10
-186.166
 20
238.720
 30
0.000000
  70
    32
  0
VERTEX
  8
0
  5
4CB
 10
-186.149
 20
238.684
 30
0.000000
  70
    32
  0
VERTEX
  8
0
  5
4CC
 10
-186.132
 20
238.648
 30
0.000000
  70
    32
  0
VERTEX
  8
0
  5
4CD
 10
-186.115
 20
238.612
 30
0.000000
  70
    32
  0
VERTEX
  8
0
  5
4CE
 10
-186.098
 20
238.576
 30
0.000000
  70
    32
  0
VERTEX
  8
0
  5
4CF
 10
-186.080
 20
238.540
 30
0.000000
  70
    32
  0
VERTEX
  8
0
  5
4D0
 10
-186.063
 20
238.504
 30
0.000000
  70
    32
  0
VERTEX
  8
0
  5
4D1
 10
-186.046
 20
238.468
 30
0.000000
  70
    32
  0
SEQEND
  8
0
  5
4D2
  0
LINE
  5
4D
  8
0
 10
-196.54639742982269
 20
250.23027644851001
 30
0.0
 11
-196.54639742982269
 21
237.6754640349701
 31
0.0
  0
LINE
  5
4E
  8
0
 10
-140.54588341728601
 20
234.9528702417401
 30
0.0
 11
-140.54588341728601
 21
252.9528702417401
 31
0.0
  0
LINE
  5
4F
  8
0
 10
-140.04588341728601
 20
252.4528702417401
 30
0.0
 11
-140.04588341728601
 21
235.4528702417401
 31
0.0
  0
LINE
  5
50
  8
0
 10
-198.04588341728601
 20
239.21472945743199
 30
0.0
 11
-198.04588341728601
 21
248.69101102604819
 31
0.0
  0
LINE
  5
51
  8
0
 10
-143.895883417286
 20
252.9528702417401
 30
0.0
 11
-143.895883417286
 21
234.9528702417401
 31
0.0
  0
LINE
  5
52
  8
0
 10
-143.395883417286
 20
252.4528702417401
 30
0.0
 11
-143.395883417286
 21
235.4528702417401
 31
0.0
  0
LINE
  5
53
  8
0
 10
-143.395883417286
 20
252.4528702417401
 30
0.0
 11
-143.895883417286
 21
252.9528702417401
 31
0.0
  0
LINE
  5
54
  8
0
 10
-143.895883417286
 20
234.9528702417401
 30
0.0
 11
-143.395883417286
 21
235.4528702417401
 31
0.0
  0
LINE
  5
55
  8
0
 10
-140.04588341728601
 20
252.4528702417401
 30
0.0
 11
-140.54588341728601
 21
252.9528702417401
 31
0.0
  0
LINE
  5
56
  8
0
 10
-140.54588341728601
 20
234.9528702417401
 30
0.0
 11
-140.04588341728601
 21
235.4528702417401
 31
0.0
  0
LINE
  5
57
  8
0
 10
-142.04588341728601
 20
234.9528702417401
 30
0.0
 11
-140.54588341728601
 21
234.9528702417401
 31
0.0
  0
LINE
  5
58
  8
0
 10
-140.54588341728601
 20
252.9528702417401
 30
0.0
 11
-142.04588341728601
 21
252.9528702417401
 31
0.0
  0
LINE
  5
59
  8
0
 10
-198.04588341728601
 20
239.21472945743199
 30
0.0
 11
-196.54639742982269
 21
237.6754640349701
 31
0.0
  0
LINE
  5
5A
  8
0
 10
-196.54639742982269
 20
250.23027644851001
 30
0.0
 11
-198.04588341728601
 21
248.69101102604819
 31
0.0
  0
LINE
  5
5B
  8
0
 10
-188.04588341728601
 20
250.4528702417401
 30
0.0
 11
-196.54639742982269
 21
250.23027644851001
 31
0.0
  0
LINE
  5
5C
  8
0
 10
-196.54639742982269
 20
237.6754640349701
 30
0.0
 11
-188.04588341728601
 21
237.4528702417401
 31
0.0
  0
LINE
  5
5D
  8
0
 10
-143.245883417286
 20
252.4528702417401
 30
0.0
 11
-143.395883417286
 21
252.4528702417401
 31
0.0
  0
LINE
  5
5E
  8
0
 10
-143.395883417286
 20
235.4528702417401
 30
0.0
 11
-143.245883417286
 21
235.4528702417401
 31
0.0
  0
LINE
  5
5F
  8
0
 10
-186.04588341728601
 20
254.92252535634299
 30
0.0
 11
-188.04588341728601
 21
252.9528702417401
 31
0.0
  0
LINE
  5
60
  8
0
 10
-188.04588341728601
 20
234.9528702417401
 30
0.0
 11
-186.04588341728601
 21
232.98321512713721
 31
0.0
  0
LINE
  5
61
  8
0
 10
-153.04588341728601
 20
234.9528702417401
 30
0.0
 11
-143.895883417286
 21
234.9528702417401
 31
0.0
  0
LINE
  5
62
  8
0
 10
-143.895883417286
 20
252.9528702417401
 30
0.0
 11
-153.04588341728601
 21
252.9528702417401
 31
0.0
  0
LINE
  5
63
  8
0
 10
-143.245883417286
 20
233.10287024174011
 30
0.0
 11
-142.04588341728601
 21
233.10287024174011
 31
0.0
  0
LINE
  5
64
  8
0
 10
-153.04588341728601
 20
256.20287024174007
 30
0.0
 11
-153.54588341728601
 21
256.70287024174007
 31
0.0
  0
LINE
  5
65
  8
0
 10
-153.54588341728601
 20
231.2028702417401
 30
0.0
 11
-153.04588341728601
 21
231.7028702417401
 31
0.0
  0
LINE
  5
66
  8
0
 10
-162.29588341728601
 20
231.2028702417401
 30
0.0
 11
-153.54588341728601
 21
231.2028702417401
 31
0.0
  0
LINE
  5
67
  8
0
 10
-153.54588341728601
 20
256.70287024174007
 30
0.0
 11
-162.29588341728601
 21
256.70287024174007
 31
0.0
  0
ARC
  5
68
  8
0
 10
-184.54588341728601
 20
256.20287024174007
 30
0.0
 40
0.5
 50
90.0
 51
180.0
  0
ARC
  5
69
  8
0
 10
-184.54588341728601
 20
231.7028702417401
 30
0.0
 40
0.5
 50
180.0
 51
270.0
  0
LINE
  5
6A
  8
0
 10
-184.54588341728601
 20
231.2028702417401
 30
0.0
 11
-175.79588341728601
 21
231.2028702417401
 31
0.0
  0
LINE
  5
6B
  8
0
 10
-175.79588341728601
 20
256.70287024174007
 30
0.0
 11
-184.54588341728601
 21
256.70287024174007
 31
0.0
  0
LINE
  5
6C
  8
0
 10
-175.04588341728601
 20
255.9528702417401
 30
0.0
 11
-175.79588341728601
 21
256.70287024174007
 31
0.0
  0
LINE
  5
6D
  8
0
 10
-175.79588341728601
 20
231.2028702417401
 30
0.0
 11
-175.04588341728601
 21
231.9528702417401
 31
0.0
  0
LINE
  5
6E
  8
0
 10
-162.29588341728601
 20
256.70287024174007
 30
0.0
 11
-163.04588341728601
 21
255.9528702417401
 31
0.0
  0
LINE
  5
6F
  8
0
 10
-163.04588341728601
 20
231.9528702417401
 30
0.0
 11
-162.29588341728601
 21
231.2028702417401
 31
0.0
  0
LINE
  5
70
  8
0
 10
-163.04588341728601
 20
255.9528702417401
 30
0.0
 11
-175.04588341728601
 21
255.9528702417401
 31
0.0
  0
LINE
  5
71
  8
0
 10
-175.04588341728601
 20
231.9528702417401
 30
0.0
 11
-163.04588341728601
 21
231.9528702417401
 31
0.0
  0
POLYLINE
  5
91
  8
0
 62
     4
 66
     1
 10
0.0
 20
0.0
 30
0.0
 70
     1
  0
VERTEX
  5
153
  8
0
 62
     4
 10
-212.87753521322651
 20
266.7004246118675
 30
0.0
  0
VERTEX
  5
154
  8
0
 62
     4
 10
-125.65231627915929
 20
266.7004246118675
 30
0.0
  0
VERTEX
  5
155
  8
0
 62
     4
 10
-125.65231627915929
 20
205.50906769620971
 30
0.0
  0
VERTEX
  5
156
  8
0
 62
     4
 10
-212.87753521322651
 20
205.50906769620971
 30
0.0
  0
SEQEND
  5
157
  8
0
 62
     4
  0
LINE
  5
92
  8
0
 10
-197.54622609231041
 20
238.7018168661541
 30
0.0
 11
-188.0327949431321
 21
238.45269890422779
 31
0.0
  0
LINE
  5
93
  8
0
 10
-188.0197064689782
 20
249.4532129167645
 30
0.0
 11
-197.54639742982269
 21
249.20374773444991
 31
0.0
  0
LINE
  5
9D
  8
LOGO
 62
     1
 10
-125.65231627915929
 20
205.50906769620971
 30
0.0
 11
-212.87753521322651
 21
205.50906769620971
 31
0.0
  0
LINE
  5
9E
  8
LOGO
 62
     1
 10
-125.65231627915929
 20
188.79061582519529
 30
0.0
 11
-212.87753521322651
 21
188.79061582519529
 31
0.0
  0
LINE
  5
9F
  8
LOGO
  6
CONTINUOUS
 62
     6
 10
-181.0900026577709
 20
201.06585991419291
 30
0.0
 11
-178.0468741700756
 21
201.46782089042571
 31
0.0
  0
LINE
  5
A0
  8
LOGO
  6
CONTINUOUS
 62
     6
 10
-181.0900026577709
 20
199.92835653379669
 30
0.0
 11
-178.0468741700756
 21
199.52639555756389
 31
0.0
  0
LINE
  5
A1
  8
LOGO
 62
     1
 10
-176.09694109699481
 20
202.1653773220068
 30
0.0
 11
-200.6173371744826
 21
202.1653773220068
 31
0.0
  0
LINE
  5
A2
  8
LOGO
 62
     1
 10
-176.09694109699481
 20
198.8216869478039
 30
0.0
 11
-200.6173371744826
 21
198.8216869478039
 31
0.0
  0
TEXT
  5
A3
  8
LOGO
 62
     6
 10
-184.73453223192431
 20
203.0012999155575
 30
0.0
 40
1.671845187101441
  1
1 : 1
  7
CHINESET
 72
     1
 11
-181.78890023560271
 21
203.83722250910819
 31
0.0
 73
     2
  0
TEXT
  5
A4
  8
LOGO
 62
     6
 10
-184.73453223192431
 20
196.31391916715179
 30
0.0
 40
1.671845187101441
  1
m/m
  7
CHINESET
 72
     1
 11
-181.78890023560271
 21
197.14984176070249
 31
0.0
 73
     2
  0
LINE
  5
A5
  8
LOGO
 62
     1
 10
-176.09694109699481
 20
195.47799657360099
 30
0.0
 11
-212.87753521322659
 21
195.47799657360099
 31
0.0
  0
TEXT
  5
A6
  8
LOGO
  6
CONTINUOUS
 62
     5
 10
-212.33031205587659
 20
192.07493046491231
 30
0.0
 40
2.507767780652161
  1
金器工業股份有限公司
 41
0.8
  7
LOGO
  0
TEXT
  5
A7
  8
LOGO
  6
CONTINUOUS
 62
     5
 10
-211.61223861762861
 20
189.56667135839169
 30
0.0
 40
1.671845187101441
  1
MINDMAN INDUSTRIAL CO.,LTD
 41
0.85
  7
CHINESET
  0
SOLID
  5
A8
  8
LOGO
 62
     5
 10
-211.14296900053409
 20
198.25720122873381
 30
0.0
 11
-210.42010701084919
 21
198.25720122873349
 31
0.0
 12
-207.40402767457729
 22
205.1119269929878
 32
0.0
 13
-206.68116568489239
 23
205.11192699298729
 33
0.0
  0
SOLID
  5
A9
  8
LOGO
 62
     5
 10
-210.12099170477219
 20
198.25720122873381
 30
0.0
 11
-209.39812971508741
 21
198.25720122873381
 31
0.0
 12
-206.68116568489239
 22
204.56354893184721
 32
0.0
 13
-207.40402767457729
 23
201.91305496966891
 33
0.0
  0
SOLID
  5
AA
  8
LOGO
 62
     2
 10
-210.42010701084919
 20
198.25720122873349
 30
0.0
 11
-210.12099170477219
 21
198.25720122873381
 31
0.0
 12
-206.68116568489239
 22
205.11192699298729
 32
0.0
 13
-206.38205037881571
 23
205.11192699298729
 33
0.0
  0
SOLID
  5
AB
  8
LOGO
 62
     5
 10
-210.39948188870099
 20
197.01088745341491
 30
0.0
 11
-210.15021913363751
 21
197.01088745341491
 31
0.0
 12
-210.39948188870099
 22
195.7645736780961
 32
0.0
 13
-210.15021913363751
 23
195.7645736780961
 33
0.0
  0
SOLID
  5
AC
  8
LOGO
 62
     5
 10
-212.30189403747301
 20
195.7645736780961
 30
0.0
 11
-212.0526312824089
 21
195.7645736780961
 31
0.0
 12
-211.3506879630871
 22
197.01088745341491
 32
0.0
 13
-211.1014252080235
 23
197.01088745341491
 33
0.0
  0
SOLID
  5
AD
  8
LOGO
 62
     5
 10
-211.3506879630871
 20
197.01088745341491
 30
0.0
 11
-211.1014252080235
 21
197.01088745341491
 31
0.0
 12
-211.3506879630871
 22
195.7645736780961
 32
0.0
 13
-211.1014252080235
 23
195.7645736780961
 33
0.0
  0
SOLID
  5
AE
  8
LOGO
 62
     5
 10
-211.3506879630871
 20
195.7645736780961
 30
0.0
 11
-211.1014252080235
 21
195.7645736780961
 31
0.0
 12
-210.39948188870099
 22
197.01088745341491
 32
0.0
 13
-210.15021913363751
 23
197.01088745341491
 33
0.0
  0
LINE
  5
AF
  8
LOGO
 62
     1
 10
-212.87753521322651
 20
188.79061582519529
 30
0.0
 11
-212.87753521322651
 21
205.50906769620971
 31
0.0
  0
TEXT
  5
B0
  8
LOGO
 62
     6
 10
-199.23881125458249
 20
203.00212267401571
 30
0.0
 40
1.671845187101441
  1
比例 Scale:
 41
0.9
  7
CHINESET
 72
     4
 11
-193.9299564260769
 21
203.83722250910819
 31
0.0
  0
TEXT
  5
B1
  8
LOGO
 62
     6
 10
-198.65441179855549
 20
199.68112672061881
 30
0.0
 40
1.671845187101441
  1
投影 View:
 41
0.9
  7
CHINESET
 72
     4
 11
-193.9299564260769
 21
200.49353213490539
 31
0.0
  0
TEXT
  5
B2
  8
LOGO
 62
     6
 10
-198.490959077138
 20
196.31391916715179
 30
0.0
 40
1.671845187101441
  1
單位 Unit:
 41
0.9
  7
CHINESET
 72
     4
 11
-193.9299564260769
 21
197.14984176070249
 31
0.0
  0
POLYLINE
  5
B3
  8
LOGO
 62
     5
 66
     1
 10
0.0
 20
0.0
 30
0.0
 70
     1
 40
0.2496622146071486
 41
0.2496622146071486
  0
VERTEX
  5
158
  8
LOGO
 62
     5
 10
-204.33056933036059
 20
196.38773056575539
 30
0.0
 42
1.0
  0
VERTEX
  5
159
  8
LOGO
 62
     5
 10
-203.33192047193199
 20
196.38773056575539
 30
0.0
 42
1.0
  0
SEQEND
  5
15A
  8
LOGO
 62
     5
  0
LINE
  5
B4
  8
LOGO
 62
     5
 10
-201.92024706317429
 20
195.7645736780961
 30
0.0
 11
-201.92024706317429
 21
196.51236194328729
 31
0.0
  0
SOLID
  5
B5
  8
LOGO
 62
     5
 10
-203.4573756948256
 20
197.01088745341491
 30
0.0
 11
-203.208112939762
 21
197.01088745341491
 31
0.0
 12
-203.4573756948256
 22
195.7645736780961
 32
0.0
 13
-203.208112939762
 23
195.7645736780961
 33
0.0
  0
SOLID
  5
B6
  8
LOGO
 62
     5
 10
-202.91729808342939
 20
195.7645736780961
 30
0.0
 11
-202.66803532836539
 21
195.7645736780961
 31
0.0
 12
-202.91729808342939
 22
197.01088745341491
 32
0.0
 13
-202.66803532836539
 23
197.01088745341491
 33
0.0
  0
SOLID
  5
B7
  8
LOGO
 62
     5
 10
-202.1695098182378
 20
196.51236194328729
 30
0.0
 11
-201.92024706317429
 21
196.5123619432872
 31
0.0
 12
-202.1695098182378
 22
195.7645736780961
 32
0.0
 13
-201.92024706317429
 23
195.7645736780961
 33
0.0
  0
SOLID
  5
B8
  8
LOGO
 62
     5
 10
-207.03015846825701
 20
197.3847815860106
 30
0.0
 11
-206.78089571319339
 21
197.3847815860106
 31
0.0
 12
-207.03015846825701
 22
195.7645736780961
 32
0.0
 13
-206.78089571319339
 23
195.7645736780961
 33
0.0
  0
SOLID
  5
B9
  8
LOGO
 62
     5
 10
-206.49008085686009
 20
197.01088745341491
 30
0.0
 11
-206.24081810179649
 21
197.01088745341491
 31
0.0
 12
-206.49008085686009
 22
195.7645736780961
 32
0.0
 13
-206.24081810179649
 23
195.7645736780961
 33
0.0
  0
SOLID
  5
BA
  8
LOGO
 62
     5
 10
-205.74229259166901
 20
196.51236194328729
 30
0.0
 11
-205.49302983660539
 21
196.51236194328729
 31
0.0
 12
-205.74229259166901
 22
195.7645736780961
 32
0.0
 13
-205.49302983660539
 23
195.7645736780961
 33
0.0
  0
SOLID
  5
BB
  8
LOGO
 62
     5
 10
-204.9945043264778
 20
196.51236194328729
 30
0.0
 11
-204.74524157141431
 21
196.51236194328729
 31
0.0
 12
-204.9945043264778
 22
195.7645736780957
 32
0.0
 13
-204.74524157141431
 23
195.7645736780957
 33
0.0
  0
LINE
  5
BC
  8
LOGO
 62
     1
 10
-200.6173371744826
 20
195.47799657360099
 30
0.0
 11
-200.6173371744826
 21
205.50906769620971
 31
0.0
  0
SOLID
  5
BD
  8
LOGO
 62
     5
 10
-209.31507536510011
 20
197.01088745341491
 30
0.0
 11
-209.0658126100366
 21
197.01088745341491
 31
0.0
 12
-209.31507536510011
 22
195.7645736780961
 32
0.0
 13
-209.0658126100366
 23
195.7645736780961
 33
0.0
  0
SOLID
  5
BE
  8
LOGO
 62
     5
 10
-208.56728709990901
 20
196.51236194328729
 30
0.0
 11
-208.31802434484501
 21
196.51236194328729
 31
0.0
 12
-208.56728709990901
 22
195.7645736780961
 32
0.0
 13
-208.31802434484501
 23
195.7645736780961
 33
0.0
  0
SOLID
  5
BF
  8
LOGO
 62
     5
 10
-209.8551529764971
 20
197.01088745341491
 30
0.0
 11
-209.60589022143279
 21
197.01088745341491
 31
0.0
 12
-209.8551529764971
 22
195.7645736780957
 32
0.0
 13
-209.60589022143279
 23
195.7645736780961
 33
0.0
  0
POLYLINE
  5
C0
  8
LOGO
 62
     5
 66
     1
 10
0.0
 20
0.0
 30
0.0
 70
     1
 40
0.2496622146071486
 41
0.2496622146071486
  0
VERTEX
  5
15B
  8
LOGO
 62
     5
 10
-207.9033521037918
 20
196.38773056575539
 30
0.0
 42
1.0
  0
VERTEX
  5
15C
  8
LOGO
 62
     5
 10
-206.90470324536321
 20
196.38773056575539
 30
0.0
 42
1.0
  0
SEQEND
  5
15D
  8
LOGO
 62
     5
  0
POLYLINE
  5
C1
  8
LOGO
 62
     5
 66
     1
 10
0.0
 20
0.0
 30
0.0
 40
0.2496622146071486
 41
0.2496622146071486
  0
VERTEX
  5
15E
  8
LOGO
 62
     5
 10
-202.04427925139089
 20
196.51236194328729
 30
0.0
 42
1.0
  0
VERTEX
  5
15F
  8
LOGO
 62
     5
 10
-202.7932658952123
 20
196.51236194328729
 30
0.0
 42
1.0
  0
SEQEND
  5
160
  8
LOGO
 62
     5
  0
SOLID
  5
C2
  8
LOGO
 62
     5
 10
-202.6431090528591
 20
198.25720122873349
 30
0.0
 11
-201.92024706317429
 21
198.25720122873349
 31
0.0
 12
-202.6431090528591
 22
205.11192699298729
 32
0.0
 13
-201.92024706317429
 23
205.1119269929878
 33
0.0
  0
SOLID
  5
C3
  8
LOGO
 62
     5
 10
-206.38205037881571
 20
205.11192699298729
 30
0.0
 11
-205.65918838913089
 21
205.1119269929878
 31
0.0
 12
-206.38205037881571
 22
198.80557928987389
 32
0.0
 13
-205.65918838913089
 23
201.45607325205219
 33
0.0
  0
SOLID
  5
C4
  8
LOGO
 62
     5
 10
-206.38205037881571
 20
198.80557928987389
 30
0.0
 11
-205.65918838913089
 21
201.45607325205219
 31
0.0
 12
-202.9422243589359
 22
205.1119269929878
 32
0.0
 13
-203.6650863486208
 23
205.1119269929878
 33
0.0
  0
SOLID
  5
C5
  8
LOGO
 62
     5
 10
-202.9422243589359
 20
204.56354893184721
 30
0.0
 11
-203.6650863486208
 21
201.91305496966891
 31
0.0
 12
-202.9422243589359
 22
198.25720122873349
 32
0.0
 13
-203.6650863486208
 23
198.25720122873349
 33
0.0
  0
SOLID
  5
C6
  8
LOGO
 62
     2
 10
-202.9422243589359
 20
205.1119269929878
 30
0.0
 11
-202.6431090528591
 21
205.11192699298729
 31
0.0
 12
-202.9422243589359
 22
198.25720122873349
 32
0.0
 13
-202.6431090528591
 23
198.25720122873349
 33
0.0
  0
SOLID
  5
C7
  8
LOGO
 62
     5
 10
-207.40402767457729
 20
198.25720122873381
 30
0.0
 11
-206.68116568489239
 21
198.25720122873381
 31
0.0
 12
-207.40402767457729
 22
201.91305496966891
 32
0.0
 13
-206.68116568489239
 23
204.56354893184721
 33
0.0
  0
SOLID
  5
C8
  8
LOGO
 62
     2
 10
-206.68116568489239
 20
205.11192699298729
 30
0.0
 11
-206.38205037881571
 21
205.11192699298729
 31
0.0
 12
-206.68116568489239
 22
198.25720122873381
 32
0.0
 13
-206.38205037881571
 23
198.25720122873381
 33
0.0
  0
SOLID
  5
C9
  8
LOGO
 62
     5
 10
-206.38205037881571
 20
198.25720122873381
 30
0.0
 11
-205.65918838913089
 21
198.25720122873381
 31
0.0
 12
-202.9422243589359
 22
204.56354893184721
 32
0.0
 13
-203.6650863486208
 23
201.91305496966891
 33
0.0
  0
SOLID
  5
CA
  8
LOGO
 62
     2
 10
-206.68116568489239
 20
198.25720122873381
 30
0.0
 11
-206.38205037881571
 21
198.25720122873381
 31
0.0
 12
-202.9422243589359
 22
205.1119269929878
 32
0.0
 13
-202.6431090528591
 23
205.11192699298729
 33
0.0
  0
POLYLINE
  5
CB
  8
LOGO
 62
     5
 66
     1
 10
0.0
 20
0.0
 30
0.0
 40
0.2496622146071486
 41
0.2496622146071486
  0
VERTEX
  5
161
  8
LOGO
 62
     5
 10
-205.61706202482199
 20
196.51236194328729
 30
0.0
 42
1.0
  0
VERTEX
  5
162
  8
LOGO
 62
     5
 10
-206.36604866864349
 20
196.51236194328729
 30
0.0
 42
1.0
  0
SEQEND
  5
163
  8
LOGO
 62
     5
  0
POLYLINE
  5
CC
  8
LOGO
 62
     5
 66
     1
 10
0.0
 20
0.0
 30
0.0
 40
0.2496622146071486
 41
0.2496622146071486
  0
VERTEX
  5
164
  8
LOGO
 62
     5
 10
-208.44205653306199
 20
196.51236194328729
 30
0.0
 42
1.0
  0
VERTEX
  5
165
  8
LOGO
 62
     5
 10
-209.19104317688351
 20
196.51236194328729
 30
0.0
 42
1.0
  0
SEQEND
  5
166
  8
LOGO
 62
     5
  0
SOLID
  5
CD
  8
LOGO
 62
     5
 10
-209.8551529764971
 20
197.18537138195941
 30
0.0
 11
-209.60589022143279
 21
197.18537138195941
 31
0.0
 12
-209.8551529764971
 22
197.3847815860106
 32
0.0
 13
-209.60589022143279
 23
197.3847815860106
 33
0.0
  0
POLYLINE
  5
CE
  8
LOGO
 62
     5
 66
     1
 10
0.0
 20
0.0
 30
0.0
 70
     1
  0
VERTEX
  5
167
  8
LOGO
 62
     5
 10
-204.20513903374189
 20
196.3877305657555
 30
0.0
 42
1.0000000573306349
  0
VERTEX
  5
168
  8
LOGO
 62
     5
 10
-203.4573507685505
 20
196.3877305657555
 30
0.0
 42
1.0000000573306349
  0
SEQEND
  5
169
  8
LOGO
 62
     5
  0
CIRCLE
  5
CF
  8
LOGO
 62
     5
 10
-203.83124490114619
 20
196.3877305657555
 30
0.0
 40
0.3738941325956659
  0
POLYLINE
  5
D0
  8
LOGO
 62
     5
 66
     1
 10
0.0
 20
0.0
 30
0.0
 40
0.2496622146071486
 41
0.2496622146071486
  0
VERTEX
  5
16A
  8
LOGO
 62
     5
 10
-204.86927375963089
 20
196.51236194328729
 30
0.0
 42
1.0
  0
VERTEX
  5
16B
  8
LOGO
 62
     5
 10
-205.61826040345241
 20
196.51236194328729
 30
0.0
 42
1.0
  0
SEQEND
  5
16C
  8
LOGO
 62
     5
  0
LINE
  5
D1
  8
LOGO
 62
     1
 10
-187.24257567767111
 20
195.47799657360099
 30
0.0
 11
-187.24257567767111
 21
205.50906769620971
 31
0.0
  0
CIRCLE
  5
D2
  8
LOGO
  6
CONTINUOUS
 62
     6
 10
-184.14694520266229
 20
200.49710822399479
 30
0.0
 40
0.970712666430926
  0
CIRCLE
  5
D3
  8
LOGO
  6
CONTINUOUS
 62
     6
 10
-184.14694520266229
 20
200.49710822399479
 30
0.0
 40
0.5687516901980989
  0
LINE
  5
D4
  8
LOGO
 62
     6
 10
-181.0900026577709
 20
199.92835653379669
 30
0.0
 11
-181.0900026577709
 21
201.065859914193
 31
0.0
  0
TEXT
  5
D5
  8
LOGO
  6
CONTINUOUS
 62
     6
 10
-149.0677943217791
 20
190.88042230907209
 30
0.0
 40
1.3932043225845341
  1
Model
  7
CHINESET
 72
     4
 11
-146.4140718025705
 21
191.57702447036439
 31
0.0
  0
TEXT
  5
D6
  8
LOGO
  6
CONTINUOUS
 62
     7
 10
-151.72151684098779
 20
199.93625040587159
 30
0.0
 40
2.7864086451690691
  1
MVHS
  7
CHINESET
 72
     1
 11
-146.4140718025705
 21
201.32945472845611
 31
0.0
 73
     2
  0
LINE
  5
D7
  8
LOGO
 62
     6
 10
-139.72669105416469
 20
203.83722250910819
 30
0.0
 11
-153.10145255097621
 21
203.83722250910819
 31
0.0
  0
LINE
  5
D8
  8
LOGO
 62
     6
 10
-139.72669105416469
 20
198.8216869478039
 30
0.0
 11
-153.10145255097621
 21
198.8216869478039
 31
0.0
  0
LINE
  5
D9
  8
LOGO
 62
     6
 10
-140.8412545122323
 20
196.31391916715179
 30
0.0
 11
-151.9868890929086
 21
196.31391916715179
 31
0.0
  0
LINE
  5
DA
  8
LOGO
 62
     6
 10
-140.8412545122323
 20
190.18382014777981
 30
0.0
 11
-151.9868890929086
 21
190.18382014777981
 31
0.0
  0
TEXT
  5
DB
  8
LOGO
 62
     7
 10
-174.7284540882859
 20
201.32314757158761
 30
0.0
 40
3.3436903742028821
  1
訂購代號:
  7
CHINESET
  0
TEXT
  5
DC
  8
LOGO
 62
     7
 10
-175.1283778911702
 20
198.18499842028649
 30
0.0
 40
2.2291269161352552
  1
Order example:
 41
0.8
  7
CHINESET
  0
LINE
  5
DD
  8
LOGO
 62
     1
 10
-176.09694109699481
 20
188.79061582519529
 30
0.0
 11
-176.09694109699481
 21
205.50906769620971
 31
0.0
  0
LINE
  5
DE
  8
LOGO
 62
     6
 10
-178.0468741700756
 20
199.52639555756389
 30
0.0
 11
-178.0468741700756
 21
201.46782089042571
 31
0.0
  0
LINE
  5
DF
  8
LOGO
 62
     6
 10
-151.9868890929086
 20
196.31391916715179
 30
0.0
 11
-151.9868890929086
 21
190.18382014777981
 31
0.0
  0
LINE
  5
E0
  8
LOGO
 62
     6
 10
-153.10145255097621
 20
203.83722250910819
 30
0.0
 11
-153.10145255097621
 21
198.8216869478039
 31
0.0
  0
TEXT
  5
E1
  8
LOGO
  6
CONTINUOUS
 62
     7
 10
-133.35910462542199
 20
199.90465235625601
 30
0.0
 40
2.7864086451690691
  1
8A
  7
CHINESET
 72
     1
 11
-130.9707543581342
 21
201.2978566788405
 31
0.0
 73
     2
  0
LINE
  5
E2
  8
LOGO
 62
     6
 10
-126.757127581288
 20
190.1838201477799
 30
0.0
 11
-135.7045108922907
 21
190.18382014777981
 31
0.0
  0
LINE
  5
E3
  8
LOGO
 62
     6
 10
-126.757127581288
 20
198.82168694780401
 30
0.0
 11
-135.7045108922907
 21
198.82168694780401
 31
0.0
  0
LINE
  5
E4
  8
LOGO
 62
     6
 10
-126.757127581288
 20
196.31391916715179
 30
0.0
 11
-135.7045108922907
 21
196.31391916715179
 31
0.0
  0
LINE
  5
E5
  8
LOGO
 62
     6
 10
-126.757127581288
 20
203.8372225091083
 30
0.0
 11
-135.7045108922907
 21
203.8372225091083
 31
0.0
  0
LINE
  5
E6
  8
LOGO
 62
     6
 10
-135.7045108922907
 20
196.31391916715179
 30
0.0
 11
-135.7045108922907
 21
190.1838201477799
 31
0.0
  0
LINE
  5
E7
  8
LOGO
 62
     6
 10
-140.8412545122323
 20
196.31391916715179
 30
0.0
 11
-140.8412545122323
 21
190.18382014777981
 31
0.0
  0
TEXT
  5
E8
  8
LOGO
 62
     6
 10
-148.64319871870569
 20
193.30591424390229
 30
0.0
 40
2.2291269161352552
  1
型式
  7
CHINESET
 72
     4
 11
-146.4140718025705
 21
194.36343311553341
 31
0.0
  0
LINE
  5
E9
  8
LOGO
 62
     6
 10
-146.4140718025705
 20
198.8216869478039
 30
0.0
 11
-146.4140718025705
 21
196.31391916715179
 31
0.0
  0
LINE
  5
EA
  8
LOGO
 62
     6
 10
-135.7045108922907
 20
203.8372225091083
 30
0.0
 11
-135.7045108922907
 21
198.82168694780401
 31
0.0
  0
LINE
  5
EB
  8
LOGO
 62
     6
 10
-139.72669105416469
 20
203.83722250910819
 30
0.0
 11
-139.72669105416469
 21
198.8216869478039
 31
0.0
  0
LINE
  5
EC
  8
LOGO
  6
CONTINUOUS
 62
     7
 10
-138.78654780035029
 20
201.31168890885601
 30
0.0
 11
-136.571870305239
 21
201.31168890885601
 31
0.0
  0
LINE
  5
EE
  8
LOGO
 62
     6
 10
-126.757127581288
 20
196.31391916715179
 30
0.0
 11
-126.757127581288
 21
190.1838201477799
 31
0.0
  0
TEXT
  5
EF
  8
LOGO
  6
CONTINUOUS
 62
     6
 10
-134.94603076368151
 20
190.88042230907209
 30
0.0
 40
1.3932043225845341
  1
Port size
 41
0.8
  7
CHINESET
 72
     4
 11
-131.23081923678939
 21
191.57702447036439
 31
0.0
  0
TEXT
  5
F0
  8
LOGO
 62
     6
 10
-135.26414575067159
 20
193.2488696574658
 30
0.0
 40
2.2291269161352552
  1
配管口徑
 41
0.9
  7
CHINESET
 72
     4
 11
-131.23081923678939
 21
194.3634331155335
 31
0.0
  0
LINE
  5
F2
  8
LOGO
 62
     6
 10
-126.757127581288
 20
203.8372225091083
 30
0.0
 11
-126.757127581288
 21
198.82168694780401
 31
0.0
  0
LINE
  5
F3
  8
LOGO
 62
     6
 10
-131.2308193652899
 20
198.82168694780401
 30
0.0
 11
-131.2308193652899
 21
196.31391916715179
 31
0.0
  0
LINE
  5
F8
  8
LOGO
 62
     1
 10
-125.65231627915929
 20
188.79061582519529
 30
0.0
 11
-125.65231627915929
 21
205.50906769620971
 31
0.0
  0
DIMENSION
  5
FA
  8
DIM
  2
*D0
 10
-153.04588341728601
 20
260.86857630924561
 30
0.0
 11
-169.04588341728601
 21
263.86857630924561
 31
0.0
 70
     0
 13
-185.04588341728601
 23
256.20287024174007
 33
0.0
 14
-153.04588341728601
 24
256.20287024174007
 34
0.0
  0
DIMENSION
  5
108
  8
DIM
  2
*D1
 10
-128.5395573302014
 20
231.2028702417401
 30
0.0
 11
-131.5395573302014
 21
243.95287024173999
 31
0.0
 70
     0
 13
-153.54588341728601
 23
256.70287024174007
 33
0.0
 14
-153.54588341728601
 24
231.2028702417401
 34
0.0
 50
90.0
  0
DIMENSION
  5
11A
  8
DIM
  2
*D2
 10
-198.04588341728601
 20
211.94697064538431
 30
0.0
 11
-169.04588341728601
 21
214.94697064538431
 31
0.0
 70
     0
 13
-140.04588341728601
 23
235.4528702417401
 33
0.0
 14
-198.04588341728601
 24
239.21472945743199
 34
0.0
  0
POLYLINE
  8
0
  5
4D3
  66
     1
 10
0.000000
 20
0.000000
 30
0.000000
  70
     8
  0
VERTEX
  8
0
  5
4D4
 10
-192.296
 20
237.564
 30
0.000000
  70
    32
  0
VERTEX
  8
0
  5
4D5
 10
-188.296
 20
224.954
 30
0.000000
  70
    32
  0
VERTEX
  8
0
  5
4D6
 10
-185.296
 20
224.954
 30
0.000000
  70
    32
  0
SEQEND
  8
0
  5
4D7
  0
TEXT
  5
133
  8
0
 10
-183.79578297028951
 20
223.1681540310048
 30
0.0
 40
3.0
  1
PT 1/4
  7
CHINESET
  0
ENDSEC
  0
EOF
