  0
SECTION
  2
HEADER
  9
$ACADVER
  1
AC1009
  9
$INSBASE
 10
0.0
 20
0.0
 30
0.0
  9
$EXTMIN
 10
-212.88867120082551
 20
172.05381858494809
 30
-0.0015258207003583
  9
$EXTMAX
 10
-38.412047923556543
 20
327.9115912757249
 30
0.0000000349246037
  9
$LIMMIN
 10
0.0
 20
0.0
  9
$LIMMAX
 10
396.0
 20
273.0
  9
$ORTHOMODE
 70
     0
  9
$REGENMODE
 70
     1
  9
$FILLMODE
 70
     1
  9
$QTEXTMODE
 70
     0
  9
$MIRRTEXT
 70
     1
  9
$DRAGMODE
 70
     2
  9
$LTSCALE
 40
6.0
  9
$OSMODE
 70
    39
  9
$ATTMODE
 70
     1
  9
$TEXTSIZE
 40
5.0
  9
$TRACEWID
 40
0.05
  9
$TEXTSTYLE
  7
CHINESET
  9
$CLAYER
  8
0
  9
$CELTYPE
  6
BYLAYER
  9
$CECOLOR
 62
   256
  9
$DIMSCALE
 40
1.0
  9
$DIMASZ
 40
3.0
  9
$DIMEXO
 40
2.0
  9
$DIMDLI
 40
8.0
  9
$DIMRND
 40
0.0
  9
$DIMDLE
 40
0.0
  9
$DIMEXE
 40
2.0
  9
$DIMTP
 40
0.0
  9
$DIMTM
 40
0.0
  9
$DIMTXT
 40
3.0
  9
$DIMCEN
 40
-3.0
  9
$DIMTSZ
 40
0.0
  9
$DIMTOL
 70
     0
  9
$DIMLIM
 70
     0
  9
$DIMTIH
 70
     0
  9
$DIMTOH
 70
     0
  9
$DIMSE1
 70
     0
  9
$DIMSE2
 70
     0
  9
$DIMTAD
 70
     1
  9
$DIMZIN
 70
     8
  9
$DIMBLK
  1

  9
$DIMASO
 70
     1
  9
$DIMSHO
 70
     1
  9
$DIMPOST
  1

  9
$DIMAPOST
  1

  9
$DIMALT
 70
     0
  9
$DIMALTD
 70
     2
  9
$DIMALTF
 40
25.399999999999999
  9
$DIMLFAC
 40
1.0
  9
$DIMTOFL
 70
     0
  9
$DIMTVP
 40
0.0
  9
$DIMTIX
 70
     0
  9
$DIMSOXD
 70
     0
  9
$DIMSAH
 70
     0
  9
$DIMBLK1
  1

  9
$DIMBLK2
  1

  9
$DIMSTYLE
  2
STANDARD
  9
$DIMCLRD
 70
     0
  9
$DIMCLRE
 70
     0
  9
$DIMCLRT
 70
     0
  9
$DIMTFAC
 40
0.5
  9
$DIMGAP
 40
1.5
  9
$LUNITS
 70
     2
  9
$LUPREC
 70
     2
  9
$SKETCHINC
 40
0.1
  9
$FILLETRAD
 40
12.0
  9
$AUNITS
 70
     0
  9
$AUPREC
 70
     0
  9
$MENU
  1
ACAD
  9
$ELEVATION
 40
0.0
  9
$PELEVATION
 40
0.0
  9
$THICKNESS
 40
0.0
  9
$LIMCHECK
 70
     0
  9
$BLIPMODE
 70
     0
  9
$CHAMFERA
 40
2.0
  9
$CHAMFERB
 40
2.0
  9
$SKPOLY
 70
     0
  9
$TDCREATE
 40
2450436.7992719901
  9
$TDUPDATE
 40
2451946.5897069671
  9
$TDINDWG
 40
0.8751103241
  9
$TDUSRTIMER
 40
0.8751103241
  9
$USRTIMER
 70
     1
  9
$ANGBASE
 50
0.0
  9
$ANGDIR
 70
     0
  9
$PDMODE
 70
    65
  9
$PDSIZE
 40
8.3000000000000007
  9
$PLINEWID
 40
0.0
  9
$COORDS
 70
     2
  9
$SPLFRAME
 70
     0
  9
$SPLINETYPE
 70
     6
  9
$SPLINESEGS
 70
     8
  9
$ATTDIA
 70
     0
  9
$ATTREQ
 70
     1
  9
$HANDLING
 70
 12289
  9
$HANDSEED
  5
3E6
  9
$SURFTAB1
 70
     6
  9
$SURFTAB2
 70
     6
  9
$SURFTYPE
 70
     6
  9
$SURFU
 70
     6
  9
$SURFV
 70
     6
  9
$UCSNAME
  2

  9
$UCSORG
 10
0.0
 20
0.0
 30
0.0
  9
$UCSXDIR
 10
1.0
 20
0.0
 30
0.0
  9
$UCSYDIR
 10
0.0
 20
1.0
 30
0.0
  9
$PUCSNAME
  2

  9
$PUCSORG
 10
0.0
 20
0.0
 30
0.0
  9
$PUCSXDIR
 10
1.0
 20
0.0
 30
0.0
  9
$PUCSYDIR
 10
0.0
 20
1.0
 30
0.0
  9
$USERI1
 70
     0
  9
$USERI2
 70
     0
  9
$USERI3
 70
     0
  9
$USERI4
 70
     0
  9
$USERI5
 70
     0
  9
$USERR1
 40
0.0
  9
$USERR2
 40
0.0
  9
$USERR3
 40
0.0
  9
$USERR4
 40
0.0
  9
$USERR5
 40
0.0
  9
$WORLDVIEW
 70
     1
  9
$SHADEDGE
 70
     3
  9
$SHADEDIF
 70
    70
  9
$TILEMODE
 70
     1
  9
$MAXACTVP
 70
    16
  9
$PLIMCHECK
 70
     0
  9
$PEXTMIN
 10
-273.3129965794289
 20
1.3881161795999331
 30
-0.0000000349181948
  9
$PEXTMAX
 10
-79.891524143177662
 20
269.15478465906631
 30
0.0000000814935746
  9
$PLIMMIN
 10
-278.28200264445832
 20
-3.5808939846616781
  9
$PLIMMAX
 10
114.4797607998254
 20
274.12379072409561
  9
$UNITMODE
 70
     0
  9
$VISRETAIN
 70
     0
  9
$PLINEGEN
 70
     0
  9
$PSLTSCALE
 70
     0
  0
ENDSEC
  0
SECTION
  2
TABLES
  0
TABLE
  2
VPORT
 70
     4
  0
VPORT
  2
*ACTIVE
 70
     0
 10
0.0
 20
0.0
 11
1.0
 21
1.0
 12
-125.650359562191
 22
249.9827049303365
 13
0.0
 23
0.0
 14
1.0
 24
1.0
 15
0.0
 25
0.0
 16
0.0
 26
0.0
 36
1.0
 17
0.0
 27
0.0
 37
0.0
 40
157.57679224251331
 41
1.7274401473296499
 42
50.0
 43
0.0
 44
0.0
 50
0.0
 51
0.0
 71
     0
 72
   100
 73
     1
 74
     1
 75
     0
 76
     0
 77
     0
 78
     0
  0
ENDTAB
  0
TABLE
  2
LTYPE
 70
    10
  0
LTYPE
  2
CONTINUOUS
 70
     0
  3
Solid line
 72
    65
 73
     0
 40
0.0
  0
LTYPE
  2
CENTER
 70
     0
  3
Center ____ _ ____ _ ____ _ ____ _ ____ _ ____
 72
    65
 73
     4
 40
2.0
 49
1.25
 49
-0.25
 49
0.25
 49
-0.25
  0
ENDTAB
  0
TABLE
  2
LAYER
 70
     7
  0
LAYER
  2
0
 70
     0
 62
     7
  6
CONTINUOUS
  0
LAYER
  2
LOGO
 70
     0
 62
     7
  6
CONTINUOUS
  0
LAYER
  2
DEFPOINTS
 70
     0
 62
     7
  6
CONTINUOUS
  0
LAYER
  2
CENTER
 70
     0
 62
     1
  6
CENTER
  0
LAYER
  2
DIM
 70
     0
 62
     5
  6
CONTINUOUS
  0
ENDTAB
  0
TABLE
  2
STYLE
 70
     6
  0
STYLE
  2
STANDARD
 70
     0
 40
0.0
 41
1.0
 50
0.0
 71
     0
 42
0.2
  3
txt
  4

  0
STYLE
  2
CHINESET
 70
     0
 40
0.0
 41
1.0
 50
0.0
 71
     0
 42
5.0
  3
C:\r13\com\fonts\simplex.shx
  4
C:\r13\com\fonts\chineset.shx
  0
STYLE
  2
LOGO
 70
     0
 40
0.0
 41
1.0
 50
0.0
 71
     0
 42
5.0
  3
txt
  4

  0
STYLE
  2
標楷體
 70
     0
 40
0.0
 41
1.0
 50
0.0
 71
     0
 42
10.0
  3
txt
  4

  0
ENDTAB
  0
TABLE
  2
VIEW
 70
     0
  0
ENDTAB
  0
TABLE
  2
UCS
 70
     0
  0
ENDTAB
  0
TABLE
  2
APPID
 70
     1
  0
APPID
  2
ACAD
 70
     0
  0
ENDTAB
  0
TABLE
  2
DIMSTYLE
 70
     1
  0
DIMSTYLE
  2
STANDARD
 70
     0
  3

  4

  5

  6

  7

 40
1.0
 41
3.0
 42
2.0
 43
8.0
 44
2.0
 45
0.0
 46
0.0
 47
0.0
 48
0.0
140
3.0
141
-3.0
142
0.0
143
25.399999999999999
144
1.0
145
0.0
146
0.5
147
1.5
 71
     0
 72
     0
 73
     0
 74
     0
 75
     0
 76
     0
 77
     1
 78
     8
170
     0
171
     2
172
     0
173
     0
174
     0
175
     0
176
     0
177
     0
178
     0
  0
ENDTAB
  0
ENDSEC
  0
SECTION
  2
BLOCKS
  0
BLOCK
  8
0
  2
$MODEL_SPACE
 70
     0
 10
0.0
 20
0.0
 30
0.0
  3
$MODEL_SPACE
  1

  0
ENDBLK
  5
A
  8
0
  0
BLOCK
 67
     1
  8
0
  2
$PAPER_SPACE
 70
     0
 10
0.0
 20
0.0
 30
0.0
  3
$PAPER_SPACE
  1

  0
ENDBLK
  5
F
 67
     1
  8
0
  0
BLOCK
  8
0
  2
*D4
 70
     1
 10
0.0
 20
0.0
 30
0.0
  3
*D4
  1

  0
LINE
  5
2C7
  8
DIM
 62
     0
 10
-165.6968973442016
 20
262.25150335733758
 30
0.0
 11
-165.6968973442016
 21
234.17882999789961
 31
0.0
  0
LINE
  5
2C8
  8
DIM
 62
     0
 10
-74.696897344201659
 20
259.03010936668733
 30
0.0
 11
-74.696897344201659
 21
234.17882999789961
 31
0.0
  0
LINE
  5
2C9
  8
DIM
 62
     0
 10
-162.6968973442016
 20
236.17882999789961
 30
0.0
 11
-77.696897344201659
 21
236.17882999789961
 31
0.0
  0
SOLID
  5
2CA
  8
DIM
 62
     0
 10
-162.6968973442016
 20
236.67882999789961
 30
0.0
 11
-162.6968973442016
 21
235.6788299978997
 31
0.0
 12
-165.6968973442016
 22
236.17882999789961
 32
0.0
 13
-165.6968973442016
 23
236.17882999789961
 33
0.0
  0
SOLID
  5
2CB
  8
DIM
 62
     0
 10
-77.696897344201659
 20
236.67882999789961
 30
0.0
 11
-77.696897344201659
 21
235.6788299978997
 31
0.0
 12
-74.696897344201659
 22
236.17882999789961
 32
0.0
 13
-74.696897344201659
 23
236.17882999789961
 33
0.0
  0
TEXT
  5
2CC
  8
0
 62
     0
 10
-121.98261162991589
 20
237.6788299978997
 30
0.0
 40
3.0
  1
91
  7
CHINESET
  0
POINT
  5
2CD
  8
DEFPOINTS
 62
     0
 10
-165.6968973442016
 20
264.25150335733758
 30
0.0
  0
POINT
  5
2CE
  8
DEFPOINTS
 62
     0
 10
-74.696897344201659
 20
261.03010936668733
 30
0.0
  0
POINT
  5
2CF
  8
DEFPOINTS
 62
     0
 10
-74.696897344201659
 20
236.17882999789961
 30
0.0
  0
ENDBLK
  5
27D
  8
0
  0
BLOCK
  8
0
  2
*D5
 70
     1
 10
0.0
 20
0.0
 30
0.0
  3
*D5
  1

  0
LINE
  5
2D0
  8
DIM
 62
     0
 10
-92.696897344201403
 20
254.5301093666873
 30
0.0
 11
-60.172634204053352
 21
254.5301093666873
 31
0.0
  0
LINE
  5
2D1
  8
DIM
 62
     0
 10
-92.696897344200977
 20
296.53010936668733
 30
0.0
 11
-60.172634204053338
 21
296.53010936668733
 31
0.0
  0
LINE
  5
2D2
  8
DIM
 62
     0
 10
-62.172634204053338
 20
257.53010936668721
 30
0.0
 11
-62.172634204053338
 21
293.53010936668733
 31
0.0
  0
SOLID
  5
2D3
  8
DIM
 62
     0
 10
-62.672634204053352
 20
257.53010936668721
 30
0.0
 11
-61.672634204053338
 21
257.53010936668721
 31
0.0
 12
-62.172634204053338
 22
254.5301093666873
 32
0.0
 13
-62.172634204053338
 23
254.5301093666873
 33
0.0
  0
SOLID
  5
2D4
  8
DIM
 62
     0
 10
-62.672634204053338
 20
293.53010936668733
 30
0.0
 11
-61.672634204053331
 21
293.53010936668733
 31
0.0
 12
-62.172634204053338
 22
296.53010936668733
 32
0.0
 13
-62.172634204053338
 23
296.53010936668733
 33
0.0
  0
INSERT
  5
2D5
  8
0
  2
*U11
 10
0.0
 20
0.0
 30
0.0
  0
POINT
  5
2D6
  8
DEFPOINTS
 62
     0
 10
-94.696897344201403
 20
254.5301093666873
 30
0.0
  0
POINT
  5
2D7
  8
DEFPOINTS
 62
     0
 10
-94.696897344200977
 20
296.53010936668733
 30
0.0
  0
POINT
  5
2D8
  8
DEFPOINTS
 62
     0
 10
-62.172634204053338
 20
296.53010936668733
 30
0.0
  0
ENDBLK
  5
28A
  8
0
  0
BLOCK
  8
0
  2
*D6
 70
     1
 10
0.0
 20
0.0
 30
0.0
  3
*D6
  1

  0
LINE
  5
2D9
  8
DIM
 62
     0
 10
-142.6968973442016
 20
297.53010936668699
 30
0.0
 11
-142.6968973442016
 21
308.93713765337009
 31
0.0
  0
LINE
  5
2DA
  8
DIM
 62
     0
 10
-93.696897344200977
 20
297.53010936668733
 30
0.0
 11
-93.696897344200977
 21
308.93713765337009
 31
0.0
  0
LINE
  5
2DB
  8
DIM
 62
     0
 10
-139.6968973442016
 20
306.9371376533702
 30
0.0
 11
-96.696897344200977
 21
306.9371376533702
 31
0.0
  0
SOLID
  5
2DC
  8
DIM
 62
     0
 10
-139.6968973442016
 20
307.4371376533702
 30
0.0
 11
-139.6968973442016
 21
306.43713765337009
 31
0.0
 12
-142.6968973442016
 22
306.9371376533702
 32
0.0
 13
-142.6968973442016
 23
306.9371376533702
 33
0.0
  0
SOLID
  5
2DD
  8
DIM
 62
     0
 10
-96.696897344200977
 20
307.4371376533702
 30
0.0
 11
-96.696897344200977
 21
306.43713765337009
 31
0.0
 12
-93.696897344200977
 22
306.9371376533702
 32
0.0
 13
-93.696897344200977
 23
306.9371376533702
 33
0.0
  0
TEXT
  5
2DE
  8
0
 62
     0
 10
-120.55404020134409
 20
308.43713765337009
 30
0.0
 40
3.0
  1
49
  7
CHINESET
  0
POINT
  5
2DF
  8
DEFPOINTS
 62
     0
 10
-142.6968973442016
 20
295.53010936668699
 30
0.0
  0
POINT
  5
2E0
  8
DEFPOINTS
 62
     0
 10
-93.696897344200977
 20
295.53010936668733
 30
0.0
  0
POINT
  5
2E1
  8
DEFPOINTS
 62
     0
 10
-93.696897344200977
 20
306.9371376533702
 30
0.0
  0
ENDBLK
  5
2A0
  8
0
  0
BLOCK
  8
0
  2
*U7
 70
     1
 10
0.0
 20
0.0
 30
0.0
  3
*U7
  1

  0
SOLID
  5
301
  8
0
  6
CONTINUOUS
 62
     5
 10
36.663906766200988
 20
13.276535649229769
 30
0.0
 11
28.163906766201048
 21
12.42653564922977
 31
0.0
 12
32.413906766201031
 22
12.42653564922974
 32
0.0
 13
32.413906766201031
 23
12.42653564922974
 33
0.0
210
0.0
220
0.0
230
1.0
  0
SOLID
  5
302
  8
0
  6
CONTINUOUS
 62
     5
 10
36.663906766200988
 20
13.276535649229769
 30
0.0
 11
32.413906766201031
 21
12.42653564922974
 31
0.0
 12
32.413906766201059
 22
11.1515356492298
 32
0.0
 13
32.413906766201059
 23
11.1515356492298
 33
0.0
210
0.0
220
0.0
230
1.0
  0
SOLID
  5
303
  8
0
  6
CONTINUOUS
 62
     5
 10
32.413906766201023
 20
14.12653564922973
 30
0.0
 11
28.163906766201048
 21
12.42653564922977
 31
0.0
 12
36.663906766200988
 22
13.276535649229769
 32
0.0
 13
36.663906766200988
 23
13.276535649229769
 33
0.0
210
0.0
220
0.0
230
1.0
  0
SOLID
  5
304
  8
0
  6
CONTINUOUS
 62
     5
 10
28.163906766201048
 20
14.12653564922976
 30
0.0
 11
28.163906766201048
 21
12.42653564922977
 31
0.0
 12
32.413906766201023
 22
14.12653564922973
 32
0.0
 13
32.413906766201023
 23
14.12653564922973
 33
0.0
  0
SOLID
  5
305
  8
0
  6
CONTINUOUS
 62
     5
 10
32.413906766201052
 20
15.401535649229819
 30
0.0
 11
32.413906766201023
 21
14.12653564922973
 31
0.0
 12
36.663906766200988
 22
13.276535649229769
 32
0.0
 13
36.663906766200988
 23
13.276535649229769
 33
0.0
210
0.0
220
0.0
230
1.0
  0
ENDBLK
  5
307
  8
0
  0
BLOCK
  8
0
  2
*X8
 70
     1
 10
0.0
 20
0.0
 30
0.0
  3
*X8
  1

  0
LINE
  5
309
  8
0
 62
     0
 10
53.024556042244669
 20
40.95196780591457
 30
0.0
 11
51.976523664603477
 21
42.000000183555777
 31
0.0
  0
LINE
  5
30A
  8
0
 62
     0
 10
51.57240093912867
 20
39.710046072709837
 30
0.0
 11
49.28244682828273
 21
42.000000183555798
 31
0.0
  0
LINE
  5
30B
  8
0
 62
     0
 10
50.120245836012671
 20
38.468124339505053
 30
0.0
 11
46.588369991961962
 21
42.000000183555763
 31
0.0
  0
LINE
  5
30C
  8
0
 62
     0
 10
48.668090732896701
 20
37.226202606300298
 30
0.0
 11
43.894293155641229
 21
42.000000183555763
 31
0.0
  0
LINE
  5
30D
  8
0
 62
     0
 10
47.215935629780709
 20
35.98428087309555
 30
0.0
 11
41.200216319320489
 21
42.000000183555777
 31
0.0
  0
LINE
  5
30E
  8
0
 62
     0
 10
45.763780526664732
 20
34.742359139890809
 30
0.0
 11
38.506139482999757
 21
42.000000183555777
 31
0.0
  0
LINE
  5
30F
  8
0
 62
     0
 10
44.311625423548747
 20
33.500437406686061
 30
0.0
 11
38.500000065593298
 21
39.31206276464151
 31
0.0
  0
LINE
  5
310
  8
0
 62
     0
 10
42.859470320432727
 20
32.258515673481277
 30
0.0
 11
38.500000065593262
 21
36.617985928320749
 31
0.0
  0
LINE
  5
311
  8
0
 62
     0
 10
41.407315217316729
 20
31.01659394027655
 30
0.0
 11
38.500000065593277
 21
33.923909092000002
 31
0.0
  0
LINE
  5
312
  8
0
 62
     0
 10
39.955160114200758
 20
29.774672207071792
 30
0.0
 11
38.500000065593277
 21
31.22983225567927
 31
0.0
  0
LINE
  5
313
  8
0
 62
     0
 10
38.503005011084788
 20
28.532750473867019
 30
0.0
 11
38.500000065593298
 21
28.535755419358519
 31
0.0
  0
LINE
  5
314
  8
0
 62
     0
 10
22.875644219254841
 20
41.466034429376187
 30
0.0
 11
22.341678465075258
 21
42.000000183555763
 31
0.0
  0
LINE
  5
315
  8
0
 62
     0
 10
21.42348911613886
 20
40.224112696171431
 30
0.0
 11
19.647601628754519
 21
42.000000183555763
 31
0.0
  0
LINE
  5
316
  8
0
 62
     0
 10
19.971334013022879
 20
38.982190962966683
 30
0.0
 11
16.953524792433779
 21
42.000000183555777
 31
0.0
  0
LINE
  5
317
  8
0
 62
     0
 10
18.519178909906891
 20
37.740269229761928
 30
0.0
 11
14.25944795611305
 21
42.000000183555777
 31
0.0
  0
LINE
  5
318
  8
0
 62
     0
 10
17.067023806790889
 20
36.498347496557173
 30
0.0
 11
11.565371119792269
 21
42.000000183555798
 31
0.0
  0
LINE
  5
319
  8
0
 62
     0
 10
15.614868703674899
 20
35.256425763352411
 30
0.0
 11
8.871294283471542
 21
42.000000183555763
 31
0.0
  0
LINE
  5
31A
  8
0
 62
     0
 10
14.162713600558931
 20
34.014504030147648
 30
0.0
 11
7.2500000655928574
 21
40.927217565113722
 31
0.0
  0
LINE
  5
31B
  8
0
 62
     0
 10
12.71055849744296
 20
32.772582296942879
 30
0.0
 11
7.2500000655928849
 21
38.233140728792961
 31
0.0
  0
LINE
  5
31C
  8
0
 62
     0
 10
11.25840339432694
 20
31.530660563738131
 30
0.0
 11
7.2500000655929142
 21
35.539063892472178
 31
0.0
  0
LINE
  5
31D
  8
0
 62
     0
 10
9.8062482912109346
 20
30.28873883053339
 30
0.0
 11
7.2500000655929284
 21
32.844987056151389
 31
0.0
  0
LINE
  5
31E
  8
0
 62
     0
 10
8.3540931880949927
 20
29.046817097328599
 30
0.0
 11
7.2500000655929853
 21
30.1509102198306
 31
0.0
  0
LINE
  5
31F
  8
0
 62
     0
 10
51.947941367040997
 20
40.031218251990509
 30
0.0
 11
53.9167232986063
 21
42.000000183555812
 31
0.0
  0
LINE
  5
320
  8
0
 62
     0
 10
38.500000065593312
 20
29.277353786863578
 30
0.0
 11
51.222646462285539
 21
42.000000183555777
 31
0.0
  0
LINE
  5
321
  8
0
 62
     0
 10
38.500000065593319
 20
31.971430623184339
 30
0.0
 11
48.528569625964792
 21
42.000000183555777
 31
0.0
  0
LINE
  5
322
  8
0
 62
     0
 10
38.500000065593348
 20
34.665507459505079
 30
0.0
 11
45.834492789644059
 21
42.000000183555777
 31
0.0
  0
LINE
  5
323
  8
0
 62
     0
 10
38.500000065593348
 20
37.35958429582584
 30
0.0
 11
43.140415953323327
 21
42.000000183555812
 31
0.0
  0
LINE
  5
324
  8
0
 62
     0
 10
38.500000065593348
 20
40.053661132146573
 30
0.0
 11
40.446339117002559
 21
42.000000183555777
 31
0.0
  0
LINE
  5
325
  8
0
 62
     0
 10
10.291776980538
 20
30.70397590133647
 30
0.0
 11
21.587801262757349
 21
42.000000183555798
 31
0.0
  0
LINE
  5
326
  8
0
 62
     0
 10
7.2500000655930421
 20
30.356275822712231
 30
0.0
 11
18.893724426436592
 21
42.000000183555777
 31
0.0
  0
LINE
  5
327
  8
0
 62
     0
 10
7.2500000655929853
 20
33.050352659032939
 30
0.0
 11
16.19964759011588
 21
42.000000183555812
 31
0.0
  0
LINE
  5
328
  8
0
 62
     0
 10
7.2500000655929284
 20
35.744429495353629
 30
0.0
 11
13.505570753795091
 21
42.000000183555798
 31
0.0
  0
LINE
  5
329
  8
0
 62
     0
 10
7.2500000655929284
 20
38.438506331674361
 30
0.0
 11
10.81149391747436
 21
42.000000183555798
 31
0.0
  0
LINE
  5
32A
  8
0
 62
     0
 10
7.2500000655929
 20
41.132583167995108
 30
0.0
 11
8.1174170811536044
 21
42.000000183555777
 31
0.0
  0
ENDBLK
  5
32C
  8
0
  0
BLOCK
  8
0
  2
*U9
 70
     1
 10
0.0
 20
0.0
 30
0.0
  3
*U9
  1

  0
SOLID
  5
32E
  8
0
  6
CONTINUOUS
 62
     5
 10
-124.1108040448091
 20
267.80664483236131
 30
0.0
 11
-119.8608040448091
 21
266.95664483236129
 31
0.0
 12
-115.6108040448091
 22
266.95664483236129
 32
0.0
 13
-115.6108040448091
 23
266.95664483236129
 33
0.0
210
0.0
220
0.0
230
1.0
  0
SOLID
  5
32F
  8
0
  6
CONTINUOUS
 62
     5
 10
-124.1108040448091
 20
267.80664483236131
 30
0.0
 11
-119.8608040448091
 21
265.68164483236131
 31
0.0
 12
-119.8608040448091
 22
266.95664483236129
 32
0.0
 13
-119.8608040448091
 23
266.95664483236129
 33
0.0
210
0.0
220
0.0
230
1.0
  0
SOLID
  5
330
  8
0
  6
CONTINUOUS
 62
     5
 10
-119.8608040448091
 20
268.65664483236122
 30
0.0
 11
-124.1108040448091
 21
267.80664483236131
 31
0.0
 12
-115.6108040448091
 22
266.95664483236129
 32
0.0
 13
-115.6108040448091
 23
266.95664483236129
 33
0.0
210
0.0
220
0.0
230
1.0
  0
SOLID
  5
331
  8
0
  6
CONTINUOUS
 62
     5
 10
-115.6108040448091
 20
268.65664483236128
 30
0.0
 11
-119.8608040448091
 21
268.65664483236122
 31
0.0
 12
-115.6108040448091
 22
266.95664483236129
 32
0.0
 13
-115.6108040448091
 23
266.95664483236129
 33
0.0
210
0.0
220
0.0
230
1.0
  0
SOLID
  5
332
  8
0
  6
CONTINUOUS
 62
     5
 10
-119.8608040448091
 20
269.93164483236131
 30
0.0
 11
-124.1108040448091
 21
267.80664483236131
 31
0.0
 12
-119.8608040448091
 22
268.65664483236122
 32
0.0
 13
-119.8608040448091
 23
268.65664483236122
 33
0.0
210
0.0
220
0.0
230
1.0
  0
ENDBLK
  5
334
  8
0
  0
BLOCK
  8
0
  2
*X10
 70
     1
 10
0.0
 20
0.0
 30
0.0
  3
*X10
  1

  0
LINE
  5
336
  8
0
 62
     0
 10
-95.80099046670307
 20
283.5769262804601
 30
0.0
 11
-94.696897344201091
 21
284.68101940296208
 31
0.0
  0
LINE
  5
337
  8
0
 62
     0
 10
-97.253145569819054
 20
284.81884801366482
 30
0.0
 11
-94.696897344201048
 21
287.37509623928281
 31
0.0
  0
LINE
  5
338
  8
0
 62
     0
 10
-98.705300672935039
 20
286.0607697468696
 30
0.0
 11
-94.696897344201034
 21
290.0691730756036
 31
0.0
  0
LINE
  5
339
  8
0
 62
     0
 10
-100.15745577605099
 20
287.30269148007437
 30
0.0
 11
-94.696897344201034
 21
292.76324991192439
 31
0.0
  0
LINE
  5
33A
  8
0
 62
     0
 10
-101.60961087916699
 20
288.54461321327909
 30
0.0
 11
-94.696897344200977
 21
295.45732674824518
 31
0.0
  0
LINE
  5
33B
  8
0
 62
     0
 10
-103.06176598228301
 20
289.78653494648393
 30
0.0
 11
-96.318191562079619
 21
296.53010936668733
 31
0.0
  0
LINE
  5
33C
  8
0
 62
     0
 10
-104.51392108539891
 20
291.0284566796887
 30
0.0
 11
-99.012268398400366
 21
296.53010936668733
 31
0.0
  0
LINE
  5
33D
  8
0
 62
     0
 10
-105.966076188515
 20
292.27037841289342
 30
0.0
 11
-101.7063452347211
 21
296.53010936668733
 31
0.0
  0
LINE
  5
33E
  8
0
 62
     0
 10
-107.4182312916309
 20
293.51230014609808
 30
0.0
 11
-104.4004220710418
 21
296.53010936668733
 31
0.0
  0
LINE
  5
33F
  8
0
 62
     0
 10
-108.8703863947469
 20
294.75422187930292
 30
0.0
 11
-107.09449890736261
 21
296.53010936668733
 31
0.0
  0
LINE
  5
340
  8
0
 62
     0
 10
-110.3225414978629
 20
295.99614361250758
 30
0.0
 11
-109.7885757436833
 21
296.53010936668733
 31
0.0
  0
LINE
  5
341
  8
0
 62
     0
 10
-125.9499022896928
 20
283.06285965699851
 30
0.0
 11
-125.9468973442014
 21
283.06586460249002
 31
0.0
  0
LINE
  5
342
  8
0
 62
     0
 10
-127.4020573928088
 20
284.30478139020317
 30
0.0
 11
-125.9468973442014
 21
285.7599414388107
 31
0.0
  0
LINE
  5
343
  8
0
 62
     0
 10
-128.8542124959248
 20
285.54670312340801
 30
0.0
 11
-125.9468973442014
 21
288.45401827513138
 31
0.0
  0
LINE
  5
344
  8
0
 62
     0
 10
-130.30636759904081
 20
286.78862485661278
 30
0.0
 11
-125.9468973442014
 21
291.14809511145222
 31
0.0
  0
LINE
  5
345
  8
0
 62
     0
 10
-131.7585227021568
 20
288.0305465898175
 30
0.0
 11
-125.9468973442014
 21
293.8421719477729
 31
0.0
  0
LINE
  5
346
  8
0
 62
     0
 10
-133.21067780527281
 20
289.27246832302228
 30
0.0
 11
-125.95303676160781
 21
296.53010936668733
 31
0.0
  0
LINE
  5
347
  8
0
 62
     0
 10
-134.66283290838871
 20
290.514390056227
 30
0.0
 11
-128.6471135979285
 21
296.53010936668733
 31
0.0
  0
LINE
  5
348
  8
0
 62
     0
 10
-136.11498801150481
 20
291.75631178943178
 30
0.0
 11
-131.34119043424931
 21
296.53010936668733
 31
0.0
  0
LINE
  5
349
  8
0
 62
     0
 10
-137.56714311462071
 20
292.9982335226365
 30
0.0
 11
-134.03526727056999
 21
296.53010936668721
 31
0.0
  0
LINE
  5
34A
  8
0
 62
     0
 10
-139.01929821773669
 20
294.24015525584127
 30
0.0
 11
-136.72934410689081
 21
296.53010936668733
 31
0.0
  0
LINE
  5
34B
  8
0
 62
     0
 10
-140.47145332085279
 20
295.48207698904599
 30
0.0
 11
-139.42342094321151
 21
296.53010936668733
 31
0.0
  0
LINE
  5
34C
  8
0
 62
     0
 10
-94.696897344200977
 20
295.66269235112662
 30
0.0
 11
-95.564314359761653
 21
296.53010936668721
 31
0.0
  0
LINE
  5
34D
  8
0
 62
     0
 10
-94.69689734420102
 20
292.96861551480589
 30
0.0
 11
-98.258391196082385
 21
296.53010936668721
 31
0.0
  0
LINE
  5
34E
  8
0
 62
     0
 10
-94.696897344201048
 20
290.27453867848521
 30
0.0
 11
-100.9524680324031
 21
296.53010936668733
 31
0.0
  0
LINE
  5
34F
  8
0
 62
     0
 10
-94.696897344201048
 20
287.58046184216448
 30
0.0
 11
-103.64654486872389
 21
296.53010936668721
 31
0.0
  0
LINE
  5
350
  8
0
 62
     0
 10
-94.696897344201091
 20
284.88638500584369
 30
0.0
 11
-106.3406217050446
 21
296.53010936668721
 31
0.0
  0
LINE
  5
351
  8
0
 62
     0
 10
-97.738674259145981
 20
285.23408508446789
 30
0.0
 11
-109.0346985413653
 21
296.53010936668721
 31
0.0
  0
LINE
  5
352
  8
0
 62
     0
 10
-125.9468973442014
 20
294.58377031527812
 30
0.0
 11
-127.8932363956106
 21
296.53010936668733
 31
0.0
  0
LINE
  5
353
  8
0
 62
     0
 10
-125.9468973442014
 20
291.88969347895733
 30
0.0
 11
-130.58731323193129
 21
296.53010936668733
 31
0.0
  0
LINE
  5
354
  8
0
 62
     0
 10
-125.9468973442014
 20
289.19561664263659
 30
0.0
 11
-133.28139006825211
 21
296.53010936668733
 31
0.0
  0
LINE
  5
355
  8
0
 62
     0
 10
-125.9468973442014
 20
286.5015398063158
 30
0.0
 11
-135.97546690457281
 21
296.53010936668733
 31
0.0
  0
LINE
  5
356
  8
0
 62
     0
 10
-125.9468973442014
 20
283.80746296999507
 30
0.0
 11
-138.66954374089349
 21
296.53010936668733
 31
0.0
  0
LINE
  5
357
  8
0
 62
     0
 10
-139.39483864564889
 20
294.56132743512188
 30
0.0
 11
-141.36362057721431
 21
296.53010936668733
 31
0.0
  0
ENDBLK
  5
359
  8
0
  0
BLOCK
  8
0
  2
*U11
 70
     1
 10
0.0
 20
0.0
 30
0.0
  3
*U11
  1

  0
TEXT
  5
35B
  8
0
 62
     0
 10
-63.672634204053402
 20
271.74439508097288
 30
0.0
 40
3.0
  1
\U+2205
 50
90.0
  7
CHINESET
  0
TEXT
  5
35C
  8
0
 62
     0
 10
-63.672634204053402
 20
274.45868079525872
 30
0.0
 40
3.0
  1
42
 50
90.0
  7
CHINESET
  0
ENDBLK
  5
35E
  8
0
  0
ENDSEC
  0
SECTION
  2
ENTITIES
  0
POLYLINE
  5
91
  8
0
 62
     4
 66
     1
 10
0.0
 20
0.0
 30
0.0
 70
     1
  0
VERTEX
  5
2E6
  8
0
 62
     4
 10
-212.87753521322651
 20
327.89178152752532
 30
0.0
  0
VERTEX
  5
2E7
  8
0
 62
     4
 10
-38.427097345092079
 20
327.89178152752532
 30
0.0
  0
VERTEX
  5
2E8
  8
0
 62
     4
 10
-38.427097345092079
 20
205.50906769620971
 30
0.0
  0
VERTEX
  5
2E9
  8
0
 62
     4
 10
-212.87753521322651
 20
205.50906769620971
 30
0.0
  0
SEQEND
  5
2EA
  8
0
 62
     4
  0
LINE
  5
9D
  8
LOGO
 62
     1
 10
-38.427097345092079
 20
205.50906769620971
 30
0.0
 11
-212.87753521322651
 21
205.50906769620971
 31
0.0
  0
LINE
  5
9E
  8
LOGO
 62
     1
 10
-38.427097345092079
 20
172.07216395418089
 30
0.0
 11
-212.87753521322651
 21
172.07216395418089
 31
0.0
  0
LINE
  5
9F
  8
LOGO
  6
CONTINUOUS
 62
     6
 10
-149.3024701023152
 20
196.62265213217611
 30
0.0
 11
-143.2162131269248
 21
197.4265740846418
 31
0.0
  0
LINE
  5
A0
  8
LOGO
  6
CONTINUOUS
 62
     6
 10
-149.3024701023152
 20
194.34764537138381
 30
0.0
 11
-143.2162131269248
 21
193.54372341891809
 31
0.0
  0
LINE
  5
A1
  8
LOGO
 62
     1
 10
-139.31634698076309
 20
198.8216869478039
 30
0.0
 11
-188.35713913573869
 21
198.8216869478039
 31
0.0
  0
LINE
  5
A2
  8
LOGO
 62
     1
 10
-139.31634698076309
 20
192.1343061993982
 30
0.0
 11
-188.35713913573869
 21
192.1343061993982
 31
0.0
  0
TEXT
  5
A3
  8
LOGO
 62
     6
 10
-156.59152925062199
 20
200.49353213490539
 30
0.0
 40
3.3436903742028821
  1
1 : 1
  7
CHINESET
 72
     1
 11
-150.7002652579788
 21
202.1653773220068
 31
0.0
 73
     2
  0
TEXT
  5
A4
  8
LOGO
 62
     6
 10
-156.59152925062199
 20
187.11877063809379
 30
0.0
 40
3.3436903742028821
  1
m/m
  7
CHINESET
 72
     1
 11
-150.7002652579788
 21
188.79061582519529
 31
0.0
 73
     2
  0
LINE
  5
A5
  8
LOGO
 62
     1
 10
-139.31634698076309
 20
185.44692545099241
 30
0.0
 11
-212.87753521322659
 21
185.44692545099241
 31
0.0
  0
TEXT
  5
A6
  8
LOGO
  6
CONTINUOUS
 62
     5
 10
-211.78308889852659
 20
178.64079323361489
 30
0.0
 40
5.0155355613043229
  1
金器工業股份有限公司
 41
0.8
  7
LOGO
  0
TEXT
  5
A7
  8
LOGO
  6
CONTINUOUS
 62
     5
 10
-210.34694202203079
 20
173.6242750205738
 30
0.0
 40
3.3436903742028821
  1
MINDMAN INDUSTRIAL CO.,LTD
 41
0.85
  7
CHINESET
  0
SOLID
  5
A8
  8
LOGO
 62
     5
 10
-209.40840278784179
 20
191.0053347612579
 30
0.0
 11
-207.96267880847199
 21
191.00533476125739
 31
0.0
 12
-201.93052013592811
 22
204.7147862897659
 32
0.0
 13
-200.48479615655839
 23
204.7147862897649
 33
0.0
  0
SOLID
  5
A9
  8
LOGO
 62
     5
 10
-207.36444819631799
 20
191.0053347612579
 30
0.0
 11
-205.91872421694831
 21
191.0053347612579
 31
0.0
 12
-200.48479615655839
 22
203.61803016748479
 32
0.0
 13
-201.93052013592811
 23
198.3170422431281
 33
0.0
  0
SOLID
  5
AA
  8
LOGO
 62
     2
 10
-207.96267880847199
 20
191.00533476125739
 30
0.0
 11
-207.36444819631799
 21
191.0053347612579
 31
0.0
 12
-200.48479615655839
 22
204.7147862897649
 32
0.0
 13
-199.8865655444049
 23
204.7147862897649
 33
0.0
  0
SOLID
  5
AB
  8
LOGO
 62
     5
 10
-207.92142856417539
 20
188.51270721061999
 30
0.0
 11
-207.42290305404839
 21
188.51270721061999
 31
0.0
 12
-207.92142856417539
 22
186.0200796599826
 32
0.0
 13
-207.42290305404839
 23
186.0200796599826
 33
0.0
  0
SOLID
  5
AC
  8
LOGO
 62
     5
 10
-211.7262528617195
 20
186.0200796599826
 30
0.0
 11
-211.2277273515914
 21
186.0200796599826
 31
0.0
 12
-209.82384071294771
 22
188.51270721061999
 32
0.0
 13
-209.3253152028206
 23
188.51270721061999
 33
0.0
  0
SOLID
  5
AD
  8
LOGO
 62
     5
 10
-209.82384071294771
 20
188.51270721061999
 30
0.0
 11
-209.3253152028206
 21
188.51270721061999
 31
0.0
 12
-209.82384071294771
 22
186.0200796599826
 32
0.0
 13
-209.3253152028206
 23
186.0200796599826
 33
0.0
  0
SOLID
  5
AE
  8
LOGO
 62
     5
 10
-209.82384071294771
 20
186.0200796599826
 30
0.0
 11
-209.3253152028206
 21
186.0200796599826
 31
0.0
 12
-207.92142856417539
 22
188.51270721061999
 32
0.0
 13
-207.42290305404839
 23
188.51270721061999
 33
0.0
  0
LINE
  5
AF
  8
LOGO
 62
     1
 10
-212.87753521322651
 20
172.07216395418089
 30
0.0
 11
-212.87753521322651
 21
205.50906769620971
 31
0.0
  0
TEXT
  5
B0
  8
LOGO
 62
     6
 10
-185.60008729593841
 20
200.49517765182179
 30
0.0
 40
3.3436903742028821
  1
比例 Scale:
 41
0.9
  7
CHINESET
 72
     4
 11
-174.9823776389272
 21
202.1653773220068
 31
0.0
  0
TEXT
  5
B1
  8
LOGO
 62
     6
 10
-184.43128838388441
 20
193.85318574502779
 30
0.0
 40
3.3436903742028821
  1
投影 View:
 41
0.9
  7
CHINESET
 72
     4
 11
-174.9823776389272
 21
195.47799657360099
 31
0.0
  0
TEXT
  5
B2
  8
LOGO
 62
     6
 10
-184.10438294104941
 20
187.11877063809379
 30
0.0
 40
3.3436903742028821
  1
單位 Unit:
 41
0.9
  7
CHINESET
 72
     4
 11
-174.9823776389272
 21
188.79061582519529
 31
0.0
  0
POLYLINE
  5
B3
  8
LOGO
 62
     5
 66
     1
 10
0.0
 20
0.0
 30
0.0
 70
     1
 40
0.4993244292142972
 41
0.4993244292142972
  0
VERTEX
  5
2EB
  8
LOGO
 62
     5
 10
-195.7836034474947
 20
187.26639343530101
 30
0.0
 42
1.0
  0
VERTEX
  5
2EC
  8
LOGO
 62
     5
 10
-193.78630573063751
 20
187.26639343530101
 30
0.0
 42
1.0
  0
SEQEND
  5
2ED
  8
LOGO
 62
     5
  0
LINE
  5
B4
  8
LOGO
 62
     5
 10
-190.96295891312209
 20
186.0200796599826
 30
0.0
 11
-190.96295891312209
 21
187.51565619036489
 31
0.0
  0
SOLID
  5
B5
  8
LOGO
 62
     5
 10
-194.03721617642469
 20
188.51270721061999
 30
0.0
 11
-193.53869066629761
 21
188.51270721061999
 31
0.0
 12
-194.03721617642469
 22
186.0200796599826
 32
0.0
 13
-193.53869066629761
 23
186.0200796599826
 33
0.0
  0
SOLID
  5
B6
  8
LOGO
 62
     5
 10
-192.95706095363229
 20
186.0200796599826
 30
0.0
 11
-192.4585354435043
 21
186.0200796599826
 31
0.0
 12
-192.95706095363229
 22
188.51270721061999
 32
0.0
 13
-192.4585354435043
 23
188.51270721061999
 33
0.0
  0
SOLID
  5
B7
  8
LOGO
 62
     5
 10
-191.46148442324909
 20
187.51565619036489
 30
0.0
 11
-190.96295891312209
 21
187.51565619036481
 31
0.0
 12
-191.46148442324909
 22
186.0200796599826
 32
0.0
 13
-190.96295891312209
 23
186.0200796599826
 33
0.0
  0
SOLID
  5
B8
  8
LOGO
 62
     5
 10
-201.18278172328749
 20
189.26049547581161
 30
0.0
 11
-200.68425621316041
 21
189.26049547581161
 31
0.0
 12
-201.18278172328749
 22
186.0200796599826
 32
0.0
 13
-200.68425621316041
 23
186.0200796599826
 33
0.0
  0
SOLID
  5
B9
  8
LOGO
 62
     5
 10
-200.1026265004937
 20
188.51270721061999
 30
0.0
 11
-199.60410099036659
 21
188.51270721061999
 31
0.0
 12
-200.1026265004937
 22
186.0200796599826
 32
0.0
 13
-199.60410099036659
 23
186.0200796599826
 33
0.0
  0
SOLID
  5
BA
  8
LOGO
 62
     5
 10
-198.6070499701114
 20
187.51565619036489
 30
0.0
 11
-198.1085244599843
 21
187.51565619036489
 31
0.0
 12
-198.6070499701114
 22
186.0200796599826
 32
0.0
 13
-198.1085244599843
 23
186.0200796599826
 33
0.0
  0
SOLID
  5
BB
  8
LOGO
 62
     5
 10
-197.11147343972911
 20
187.51565619036489
 30
0.0
 11
-196.61294792960209
 21
187.51565619036489
 31
0.0
 12
-197.11147343972911
 22
186.02007965998169
 32
0.0
 13
-196.61294792960209
 23
186.02007965998169
 33
0.0
  0
LINE
  5
BC
  8
LOGO
 62
     1
 10
-188.35713913573869
 20
185.44692545099241
 30
0.0
 11
-188.35713913573869
 21
205.50906769620971
 31
0.0
  0
SOLID
  5
BD
  8
LOGO
 62
     5
 10
-205.75261551697369
 20
188.51270721061999
 30
0.0
 11
-205.25409000684661
 21
188.51270721061999
 31
0.0
 12
-205.75261551697369
 22
186.0200796599826
 32
0.0
 13
-205.25409000684661
 23
186.0200796599826
 33
0.0
  0
SOLID
  5
BE
  8
LOGO
 62
     5
 10
-204.2570389865916
 20
187.51565619036489
 30
0.0
 11
-203.75851347646349
 21
187.51565619036489
 31
0.0
 12
-204.2570389865916
 22
186.0200796599826
 32
0.0
 13
-203.75851347646349
 23
186.0200796599826
 33
0.0
  0
SOLID
  5
BF
  8
LOGO
 62
     5
 10
-206.8327707397676
 20
188.51270721061999
 30
0.0
 11
-206.33424522963909
 21
188.51270721061999
 31
0.0
 12
-206.8327707397676
 22
186.02007965998169
 32
0.0
 13
-206.33424522963909
 23
186.0200796599826
 33
0.0
  0
POLYLINE
  5
C0
  8
LOGO
 62
     5
 66
     1
 10
0.0
 20
0.0
 30
0.0
 70
     1
 40
0.4993244292142972
 41
0.4993244292142972
  0
VERTEX
  5
2EE
  8
LOGO
 62
     5
 10
-202.92916899435701
 20
187.26639343530101
 30
0.0
 42
1.0
  0
VERTEX
  5
2EF
  8
LOGO
 62
     5
 10
-200.93187127749979
 20
187.26639343530101
 30
0.0
 42
1.0
  0
SEQEND
  5
2F0
  8
LOGO
 62
     5
  0
POLYLINE
  5
C1
  8
LOGO
 62
     5
 66
     1
 10
0.0
 20
0.0
 30
0.0
 40
0.4993244292142972
 41
0.4993244292142972
  0
VERTEX
  5
2F1
  8
LOGO
 62
     5
 10
-191.21102328955519
 20
187.51565619036489
 30
0.0
 42
1.0
  0
VERTEX
  5
2F2
  8
LOGO
 62
     5
 10
-192.70899657719821
 20
187.51565619036489
 30
0.0
 42
1.0
  0
SEQEND
  5
2F3
  8
LOGO
 62
     5
  0
SOLID
  5
C2
  8
LOGO
 62
     5
 10
-192.40868289249181
 20
191.00533476125739
 30
0.0
 11
-190.96295891312209
 21
191.00533476125739
 31
0.0
 12
-192.40868289249181
 22
204.7147862897649
 32
0.0
 13
-190.96295891312209
 23
204.7147862897659
 33
0.0
  0
SOLID
  5
C3
  8
LOGO
 62
     5
 10
-199.8865655444049
 20
204.7147862897649
 30
0.0
 11
-198.44084156503521
 21
204.7147862897659
 31
0.0
 12
-199.8865655444049
 22
192.10209088353801
 32
0.0
 13
-198.44084156503521
 23
197.4030788078947
 33
0.0
  0
SOLID
  5
C4
  8
LOGO
 62
     5
 10
-199.8865655444049
 20
192.10209088353801
 30
0.0
 11
-198.44084156503521
 21
197.4030788078947
 31
0.0
 12
-193.0069135046453
 22
204.7147862897659
 32
0.0
 13
-194.4526374840151
 23
204.7147862897659
 33
0.0
  0
SOLID
  5
C5
  8
LOGO
 62
     5
 10
-193.0069135046453
 20
203.61803016748479
 30
0.0
 11
-194.4526374840151
 21
198.3170422431281
 31
0.0
 12
-193.0069135046453
 22
191.00533476125739
 32
0.0
 13
-194.4526374840151
 23
191.00533476125739
 33
0.0
  0
SOLID
  5
C6
  8
LOGO
 62
     2
 10
-193.0069135046453
 20
204.7147862897659
 30
0.0
 11
-192.40868289249181
 21
204.7147862897649
 31
0.0
 12
-193.0069135046453
 22
191.00533476125739
 32
0.0
 13
-192.40868289249181
 23
191.00533476125739
 33
0.0
  0
SOLID
  5
C7
  8
LOGO
 62
     5
 10
-201.93052013592811
 20
191.0053347612579
 30
0.0
 11
-200.48479615655839
 21
191.0053347612579
 31
0.0
 12
-201.93052013592811
 22
198.3170422431281
 32
0.0
 13
-200.48479615655839
 23
203.61803016748479
 33
0.0
  0
SOLID
  5
C8
  8
LOGO
 62
     2
 10
-200.48479615655839
 20
204.7147862897649
 30
0.0
 11
-199.8865655444049
 21
204.7147862897649
 31
0.0
 12
-200.48479615655839
 22
191.0053347612579
 32
0.0
 13
-199.8865655444049
 23
191.0053347612579
 33
0.0
  0
SOLID
  5
C9
  8
LOGO
 62
     5
 10
-199.8865655444049
 20
191.0053347612579
 30
0.0
 11
-198.44084156503521
 21
191.0053347612579
 31
0.0
 12
-193.0069135046453
 22
203.61803016748479
 32
0.0
 13
-194.4526374840151
 23
198.3170422431281
 33
0.0
  0
SOLID
  5
CA
  8
LOGO
 62
     2
 10
-200.48479615655839
 20
191.0053347612579
 30
0.0
 11
-199.8865655444049
 21
191.0053347612579
 31
0.0
 12
-193.0069135046453
 22
204.7147862897659
 32
0.0
 13
-192.40868289249181
 23
204.7147862897649
 33
0.0
  0
POLYLINE
  5
CB
  8
LOGO
 62
     5
 66
     1
 10
0.0
 20
0.0
 30
0.0
 40
0.4993244292142972
 41
0.4993244292142972
  0
VERTEX
  5
2F4
  8
LOGO
 62
     5
 10
-198.3565888364175
 20
187.51565619036489
 30
0.0
 42
1.0
  0
VERTEX
  5
2F5
  8
LOGO
 62
     5
 10
-199.85456212406049
 20
187.51565619036489
 30
0.0
 42
1.0
  0
SEQEND
  5
2F6
  8
LOGO
 62
     5
  0
POLYLINE
  5
CC
  8
LOGO
 62
     5
 66
     1
 10
0.0
 20
0.0
 30
0.0
 40
0.4993244292142972
 41
0.4993244292142972
  0
VERTEX
  5
2F7
  8
LOGO
 62
     5
 10
-204.00657785289749
 20
187.51565619036489
 30
0.0
 42
1.0
  0
VERTEX
  5
2F8
  8
LOGO
 62
     5
 10
-205.50455114054051
 20
187.51565619036489
 30
0.0
 42
1.0
  0
SEQEND
  5
2F9
  8
LOGO
 62
     5
  0
SOLID
  5
CD
  8
LOGO
 62
     5
 10
-206.8327707397676
 20
188.86167506770909
 30
0.0
 11
-206.33424522963909
 21
188.86167506770909
 31
0.0
 12
-206.8327707397676
 22
189.26049547581161
 32
0.0
 13
-206.33424522963909
 23
189.26049547581161
 33
0.0
  0
POLYLINE
  5
CE
  8
LOGO
 62
     5
 66
     1
 10
0.0
 20
0.0
 30
0.0
 70
     1
  0
VERTEX
  5
2FA
  8
LOGO
 62
     5
 10
-195.53274285425729
 20
187.2663934353013
 30
0.0
 42
1.0000000573306349
  0
VERTEX
  5
2FB
  8
LOGO
 62
     5
 10
-194.0371663238744
 20
187.2663934353013
 30
0.0
 42
1.0000000573306349
  0
SEQEND
  5
2FC
  8
LOGO
 62
     5
  0
CIRCLE
  5
CF
  8
LOGO
 62
     5
 10
-194.78495458906579
 20
187.2663934353013
 30
0.0
 40
0.7477882651913318
  0
POLYLINE
  5
D0
  8
LOGO
 62
     5
 66
     1
 10
0.0
 20
0.0
 30
0.0
 40
0.4993244292142972
 41
0.4993244292142972
  0
VERTEX
  5
2FD
  8
LOGO
 62
     5
 10
-196.86101230603521
 20
187.51565619036489
 30
0.0
 42
1.0
  0
VERTEX
  5
2FE
  8
LOGO
 62
     5
 10
-198.3589855936782
 20
187.51565619036489
 30
0.0
 42
1.0
  0
SEQEND
  5
2FF
  8
LOGO
 62
     5
  0
LINE
  5
D1
  8
LOGO
 62
     1
 10
-161.60761614211569
 20
185.44692545099241
 30
0.0
 11
-161.60761614211569
 21
205.50906769620971
 31
0.0
  0
CIRCLE
  5
D2
  8
LOGO
  6
CONTINUOUS
 62
     6
 10
-155.41635519209811
 20
195.48514875178
 30
0.0
 40
1.941425332861852
  0
CIRCLE
  5
D3
  8
LOGO
  6
CONTINUOUS
 62
     6
 10
-155.41635519209811
 20
195.48514875178
 30
0.0
 40
1.1375033803961969
  0
LINE
  5
D4
  8
LOGO
 62
     6
 10
-149.3024701023152
 20
194.34764537138381
 30
0.0
 11
-149.3024701023152
 21
196.6226521321762
 31
0.0
  0
TEXT
  5
D5
  8
LOGO
  6
CONTINUOUS
 62
     6
 10
-85.258053430331771
 20
176.25177692193449
 30
0.0
 40
2.7864086451690691
  1
Model
  7
CHINESET
 72
     4
 11
-79.9506083919145
 21
177.64498124451899
 31
0.0
  0
TEXT
  5
D6
  8
LOGO
  6
CONTINUOUS
 62
     7
 10
-90.565498468749041
 20
194.36343311553341
 30
0.0
 40
5.5728172903381381
  1
MVHS
  7
CHINESET
 72
     1
 11
-79.9506083919145
 21
197.14984176070249
 31
0.0
 73
     2
  0
LINE
  5
D7
  8
LOGO
 62
     6
 10
-66.575846895102927
 20
202.1653773220068
 30
0.0
 11
-93.325369888725945
 21
202.1653773220068
 31
0.0
  0
LINE
  5
D8
  8
LOGO
 62
     6
 10
-66.575846895102927
 20
192.1343061993982
 30
0.0
 11
-93.325369888725945
 21
192.1343061993982
 31
0.0
  0
LINE
  5
D9
  8
LOGO
 62
     6
 10
-68.804973811238199
 20
187.11877063809379
 30
0.0
 11
-91.096242972590744
 21
187.11877063809379
 31
0.0
  0
LINE
  5
DA
  8
LOGO
 62
     6
 10
-68.804973811238199
 20
174.85857259935
 30
0.0
 11
-91.096242972590744
 21
174.85857259934991
 31
0.0
  0
TEXT
  5
DB
  8
LOGO
 62
     7
 10
-136.57937296334529
 20
197.13722744696551
 30
0.0
 40
6.687380748405765
  1
訂購代號:
  7
CHINESET
  0
TEXT
  5
DC
  8
LOGO
 62
     7
 10
-137.37922056911381
 20
190.86092914436321
 30
0.0
 40
4.4582538322705103
  1
Order example:
 41
0.8
  7
CHINESET
  0
LINE
  5
DD
  8
LOGO
 62
     1
 10
-139.31634698076309
 20
172.07216395418089
 30
0.0
 11
-139.31634698076309
 21
205.50906769620971
 31
0.0
  0
LINE
  5
DE
  8
LOGO
 62
     6
 10
-143.2162131269248
 20
193.54372341891809
 30
0.0
 11
-143.2162131269248
 21
197.4265740846418
 31
0.0
  0
LINE
  5
DF
  8
LOGO
 62
     6
 10
-91.096242972590744
 20
187.11877063809379
 30
0.0
 11
-91.096242972590744
 21
174.85857259934991
 31
0.0
  0
LINE
  5
E0
  8
LOGO
 62
     6
 10
-93.325369888725945
 20
202.1653773220068
 30
0.0
 11
-93.325369888725945
 21
192.1343061993982
 31
0.0
  0
TEXT
  5
E1
  8
LOGO
  6
CONTINUOUS
 62
     7
 10
-56.494396556826132
 20
194.3002370163023
 30
0.0
 40
5.5728172903381381
  1
20A
  7
CHINESET
 72
     1
 11
-49.06397350304195
 21
197.08664566147141
 31
0.0
 73
     2
  0
LINE
  5
E2
  8
LOGO
 62
     6
 10
-40.636719949349562
 20
174.85857259935
 30
0.0
 11
-58.531486571355003
 21
174.85857259935
 31
0.0
  0
LINE
  5
E3
  8
LOGO
 62
     6
 10
-40.636719949349562
 20
192.1343061993982
 30
0.0
 11
-58.531486571355003
 21
192.1343061993982
 31
0.0
  0
LINE
  5
E4
  8
LOGO
 62
     6
 10
-40.636719949349562
 20
187.11877063809391
 30
0.0
 11
-58.531486571355003
 21
187.11877063809391
 31
0.0
  0
LINE
  5
E5
  8
LOGO
 62
     6
 10
-40.636719949349562
 20
202.16537732200689
 30
0.0
 11
-58.531486571355003
 21
202.16537732200689
 31
0.0
  0
LINE
  5
E6
  8
LOGO
 62
     6
 10
-58.531486571355003
 20
187.11877063809391
 30
0.0
 11
-58.531486571355003
 21
174.85857259935
 31
0.0
  0
LINE
  5
E7
  8
LOGO
 62
     6
 10
-68.804973811238199
 20
187.11877063809379
 30
0.0
 11
-68.804973811238199
 21
174.85857259935
 31
0.0
  0
TEXT
  5
E8
  8
LOGO
 62
     6
 10
-84.408862224185015
 20
181.10276079159499
 30
0.0
 40
4.4582538322705103
  1
型式
  7
CHINESET
 72
     4
 11
-79.9506083919145
 21
183.2177985348572
 31
0.0
  0
LINE
  5
E9
  8
LOGO
 62
     6
 10
-79.9506083919145
 20
192.1343061993982
 30
0.0
 11
-79.9506083919145
 21
187.11877063809379
 31
0.0
  0
LINE
  5
EA
  8
LOGO
 62
     6
 10
-58.531486571355003
 20
202.16537732200689
 30
0.0
 11
-58.531486571355003
 21
192.1343061993982
 31
0.0
  0
LINE
  5
EB
  8
LOGO
 62
     6
 10
-66.575846895102927
 20
202.1653773220068
 30
0.0
 11
-66.575846895102927
 21
192.1343061993982
 31
0.0
  0
LINE
  5
EC
  8
LOGO
  6
CONTINUOUS
 62
     7
 10
-64.695560387474188
 20
197.11431012150231
 30
0.0
 11
-60.266205397251497
 21
197.11431012150231
 31
0.0
  0
LINE
  5
EE
  8
LOGO
 62
     6
 10
-40.636719949349562
 20
187.11877063809391
 30
0.0
 11
-40.636719949349562
 21
174.85857259935
 31
0.0
  0
TEXT
  5
EF
  8
LOGO
  6
CONTINUOUS
 62
     6
 10
-57.014526314136504
 20
176.25177692193449
 30
0.0
 40
2.7864086451690691
  1
Port size
 41
0.8
  7
CHINESET
 72
     4
 11
-49.584103260352322
 21
177.6449812445191
 31
0.0
  0
TEXT
  5
F0
  8
LOGO
 62
     6
 10
-57.650756288116781
 20
180.98867161872201
 30
0.0
 40
4.4582538322705103
  1
配管口徑
 41
0.9
  7
CHINESET
 72
     4
 11
-49.584103260352322
 21
183.2177985348572
 31
0.0
  0
LINE
  5
F2
  8
LOGO
 62
     6
 10
-40.636719949349562
 20
202.16537732200689
 30
0.0
 11
-40.636719949349562
 21
192.1343061993982
 31
0.0
  0
LINE
  5
F3
  8
LOGO
 62
     6
 10
-49.584103517353348
 20
192.1343061993982
 30
0.0
 11
-49.584103517353348
 21
187.11877063809391
 31
0.0
  0
LINE
  5
F8
  8
LOGO
 62
     1
 10
-38.427097345092079
 20
172.07216395418089
 30
0.0
 11
-38.427097345092079
 21
205.50906769620971
 31
0.0
  0
POLYLINE
  5
21C
  8
0
 10
-122.89863000237641
 20
255.78010936668829
 30
0.0
 66
     1
 70
     8
  0
VERTEX
  8
0
  5
35F
 10
-122.899
 20
255.780
 30
0.000000
  70
    32
  0
VERTEX
  8
0
  5
360
 10
-122.898
 20
255.906
 30
0.000000
  70
    32
  0
VERTEX
  8
0
  5
361
 10
-122.894
 20
256.031
 30
0.000000
  70
    32
  0
VERTEX
  8
0
  5
362
 10
-122.889
 20
256.157
 30
0.000000
  70
    32
  0
VERTEX
  8
0
  5
363
 10
-122.882
 20
256.282
 30
0.000000
  70
    32
  0
VERTEX
  8
0
  5
364
 10
-122.873
 20
256.406
 30
0.000000
  70
    32
  0
VERTEX
  8
0
  5
365
 10
-122.861
 20
256.531
 30
0.000000
  70
    32
  0
VERTEX
  8
0
  5
366
 10
-122.848
 20
256.655
 30
0.000000
  70
    32
  0
VERTEX
  8
0
  5
367
 10
-122.832
 20
256.778
 30
0.000000
  70
    32
  0
VERTEX
  8
0
  5
368
 10
-122.815
 20
256.901
 30
0.000000
  70
    32
  0
VERTEX
  8
0
  5
369
 10
-122.795
 20
257.023
 30
0.000000
  70
    32
  0
VERTEX
  8
0
  5
36A
 10
-122.774
 20
257.145
 30
0.000000
  70
    32
  0
VERTEX
  8
0
  5
36B
 10
-122.750
 20
257.265
 30
0.000000
  70
    32
  0
VERTEX
  8
0
  5
36C
 10
-122.725
 20
257.385
 30
0.000000
  70
    32
  0
VERTEX
  8
0
  5
36D
 10
-122.697
 20
257.504
 30
0.000000
  70
    32
  0
VERTEX
  8
0
  5
36E
 10
-122.668
 20
257.622
 30
0.000000
  70
    32
  0
VERTEX
  8
0
  5
36F
 10
-122.636
 20
257.738
 30
0.000000
  70
    32
  0
VERTEX
  8
0
  5
370
 10
-122.603
 20
257.854
 30
0.000000
  70
    32
  0
VERTEX
  8
0
  5
371
 10
-122.568
 20
257.968
 30
0.000000
  70
    32
  0
VERTEX
  8
0
  5
372
 10
-122.531
 20
258.081
 30
0.000000
  70
    32
  0
VERTEX
  8
0
  5
373
 10
-122.492
 20
258.192
 30
0.000000
  70
    32
  0
VERTEX
  8
0
  5
374
 10
-122.451
 20
258.302
 30
0.000000
  70
    32
  0
VERTEX
  8
0
  5
375
 10
-122.409
 20
258.411
 30
0.000000
  70
    32
  0
VERTEX
  8
0
  5
376
 10
-122.364
 20
258.518
 30
0.000000
  70
    32
  0
VERTEX
  8
0
  5
377
 10
-122.318
 20
258.623
 30
0.000000
  70
    32
  0
VERTEX
  8
0
  5
378
 10
-122.270
 20
258.726
 30
0.000000
  70
    32
  0
VERTEX
  8
0
  5
379
 10
-122.221
 20
258.828
 30
0.000000
  70
    32
  0
VERTEX
  8
0
  5
37A
 10
-122.169
 20
258.928
 30
0.000000
  70
    32
  0
VERTEX
  8
0
  5
37B
 10
-122.117
 20
259.026
 30
0.000000
  70
    32
  0
VERTEX
  8
0
  5
37C
 10
-122.062
 20
259.122
 30
0.000000
  70
    32
  0
VERTEX
  8
0
  5
37D
 10
-122.006
 20
259.216
 30
0.000000
  70
    32
  0
VERTEX
  8
0
  5
37E
 10
-121.949
 20
259.308
 30
0.000000
  70
    32
  0
VERTEX
  8
0
  5
37F
 10
-121.890
 20
259.398
 30
0.000000
  70
    32
  0
VERTEX
  8
0
  5
380
 10
-121.829
 20
259.486
 30
0.000000
  70
    32
  0
VERTEX
  8
0
  5
381
 10
-121.767
 20
259.571
 30
0.000000
  70
    32
  0
VERTEX
  8
0
  5
382
 10
-121.704
 20
259.655
 30
0.000000
  70
    32
  0
VERTEX
  8
0
  5
383
 10
-121.639
 20
259.735
 30
0.000000
  70
    32
  0
VERTEX
  8
0
  5
384
 10
-121.573
 20
259.814
 30
0.000000
  70
    32
  0
VERTEX
  8
0
  5
385
 10
-121.506
 20
259.890
 30
0.000000
  70
    32
  0
VERTEX
  8
0
  5
386
 10
-121.437
 20
259.964
 30
0.000000
  70
    32
  0
VERTEX
  8
0
  5
387
 10
-121.368
 20
260.035
 30
0.000000
  70
    32
  0
VERTEX
  8
0
  5
388
 10
-121.297
 20
260.103
 30
0.000000
  70
    32
  0
VERTEX
  8
0
  5
389
 10
-121.225
 20
260.169
 30
0.000000
  70
    32
  0
VERTEX
  8
0
  5
38A
 10
-121.152
 20
260.232
 30
0.000000
  70
    32
  0
VERTEX
  8
0
  5
38B
 10
-121.078
 20
260.293
 30
0.000000
  70
    32
  0
VERTEX
  8
0
  5
38C
 10
-121.003
 20
260.351
 30
0.000000
  70
    32
  0
VERTEX
  8
0
  5
38D
 10
-120.927
 20
260.406
 30
0.000000
  70
    32
  0
VERTEX
  8
0
  5
38E
 10
-120.850
 20
260.458
 30
0.000000
  70
    32
  0
VERTEX
  8
0
  5
38F
 10
-120.772
 20
260.507
 30
0.000000
  70
    32
  0
VERTEX
  8
0
  5
390
 10
-120.693
 20
260.554
 30
0.000000
  70
    32
  0
VERTEX
  8
0
  5
391
 10
-120.614
 20
260.598
 30
0.000000
  70
    32
  0
VERTEX
  8
0
  5
392
 10
-120.534
 20
260.639
 30
0.000000
  70
    32
  0
VERTEX
  8
0
  5
393
 10
-120.454
 20
260.677
 30
0.000000
  70
    32
  0
VERTEX
  8
0
  5
394
 10
-120.372
 20
260.712
 30
0.000000
  70
    32
  0
VERTEX
  8
0
  5
395
 10
-120.291
 20
260.744
 30
0.000000
  70
    32
  0
VERTEX
  8
0
  5
396
 10
-120.208
 20
260.773
 30
0.000000
  70
    32
  0
VERTEX
  8
0
  5
397
 10
-120.126
 20
260.799
 30
0.000000
  70
    32
  0
VERTEX
  8
0
  5
398
 10
-120.043
 20
260.822
 30
0.000000
  70
    32
  0
VERTEX
  8
0
  5
399
 10
-119.959
 20
260.842
 30
0.000000
  70
    32
  0
VERTEX
  8
0
  5
39A
 10
-119.875
 20
260.858
 30
0.000000
  70
    32
  0
VERTEX
  8
0
  5
39B
 10
-119.791
 20
260.872
 30
0.000000
  70
    32
  0
VERTEX
  8
0
  5
39C
 10
-119.707
 20
260.883
 30
0.000000
  70
    32
  0
VERTEX
  8
0
  5
39D
 10
-119.623
 20
260.891
 30
0.000000
  70
    32
  0
VERTEX
  8
0
  5
39E
 10
-119.538
 20
260.895
 30
0.000000
  70
    32
  0
VERTEX
  8
0
  5
39F
 10
-119.454
 20
260.897
 30
0.000000
  70
    32
  0
VERTEX
  8
0
  5
3A0
 10
-119.369
 20
260.895
 30
0.000000
  70
    32
  0
VERTEX
  8
0
  5
3A1
 10
-119.285
 20
260.891
 30
0.000000
  70
    32
  0
VERTEX
  8
0
  5
3A2
 10
-119.200
 20
260.883
 30
0.000000
  70
    32
  0
VERTEX
  8
0
  5
3A3
 10
-119.116
 20
260.872
 30
0.000000
  70
    32
  0
VERTEX
  8
0
  5
3A4
 10
-119.032
 20
260.858
 30
0.000000
  70
    32
  0
VERTEX
  8
0
  5
3A5
 10
-118.948
 20
260.842
 30
0.000000
  70
    32
  0
VERTEX
  8
0
  5
3A6
 10
-118.865
 20
260.822
 30
0.000000
  70
    32
  0
VERTEX
  8
0
  5
3A7
 10
-118.782
 20
260.799
 30
0.000000
  70
    32
  0
VERTEX
  8
0
  5
3A8
 10
-118.699
 20
260.773
 30
0.000000
  70
    32
  0
VERTEX
  8
0
  5
3A9
 10
-118.617
 20
260.744
 30
0.000000
  70
    32
  0
VERTEX
  8
0
  5
3AA
 10
-118.535
 20
260.712
 30
0.000000
  70
    32
  0
VERTEX
  8
0
  5
3AB
 10
-118.454
 20
260.677
 30
0.000000
  70
    32
  0
VERTEX
  8
0
  5
3AC
 10
-118.373
 20
260.639
 30
0.000000
  70
    32
  0
VERTEX
  8
0
  5
3AD
 10
-118.293
 20
260.598
 30
0.000000
  70
    32
  0
VERTEX
  8
0
  5
3AE
 10
-118.214
 20
260.554
 30
0.000000
  70
    32
  0
VERTEX
  8
0
  5
3AF
 10
-118.135
 20
260.507
 30
0.000000
  70
    32
  0
VERTEX
  8
0
  5
3B0
 10
-118.058
 20
260.458
 30
0.000000
  70
    32
  0
VERTEX
  8
0
  5
3B1
 10
-117.981
 20
260.406
 30
0.000000
  70
    32
  0
VERTEX
  8
0
  5
3B2
 10
-117.905
 20
260.351
 30
0.000000
  70
    32
  0
VERTEX
  8
0
  5
3B3
 10
-117.830
 20
260.293
 30
0.000000
  70
    32
  0
VERTEX
  8
0
  5
3B4
 10
-117.756
 20
260.232
 30
0.000000
  70
    32
  0
VERTEX
  8
0
  5
3B5
 10
-117.683
 20
260.169
 30
0.000000
  70
    32
  0
VERTEX
  8
0
  5
3B6
 10
-117.611
 20
260.103
 30
0.000000
  70
    32
  0
VERTEX
  8
0
  5
3B7
 10
-117.540
 20
260.035
 30
0.000000
  70
    32
  0
VERTEX
  8
0
  5
3B8
 10
-117.470
 20
259.964
 30
0.000000
  70
    32
  0
VERTEX
  8
0
  5
3B9
 10
-117.401
 20
259.890
 30
0.000000
  70
    32
  0
VERTEX
  8
0
  5
3BA
 10
-117.334
 20
259.814
 30
0.000000
  70
    32
  0
VERTEX
  8
0
  5
3BB
 10
-117.268
 20
259.735
 30
0.000000
  70
    32
  0
VERTEX
  8
0
  5
3BC
 10
-117.203
 20
259.655
 30
0.000000
  70
    32
  0
VERTEX
  8
0
  5
3BD
 10
-117.140
 20
259.571
 30
0.000000
  70
    32
  0
VERTEX
  8
0
  5
3BE
 10
-117.078
 20
259.486
 30
0.000000
  70
    32
  0
VERTEX
  8
0
  5
3BF
 10
-117.018
 20
259.398
 30
0.000000
  70
    32
  0
VERTEX
  8
0
  5
3C0
 10
-116.959
 20
259.308
 30
0.000000
  70
    32
  0
VERTEX
  8
0
  5
3C1
 10
-116.901
 20
259.216
 30
0.000000
  70
    32
  0
VERTEX
  8
0
  5
3C2
 10
-116.845
 20
259.122
 30
0.000000
  70
    32
  0
VERTEX
  8
0
  5
3C3
 10
-116.791
 20
259.026
 30
0.000000
  70
    32
  0
VERTEX
  8
0
  5
3C4
 10
-116.738
 20
258.928
 30
0.000000
  70
    32
  0
VERTEX
  8
0
  5
3C5
 10
-116.687
 20
258.828
 30
0.000000
  70
    32
  0
VERTEX
  8
0
  5
3C6
 10
-116.637
 20
258.726
 30
0.000000
  70
    32
  0
VERTEX
  8
0
  5
3C7
 10
-116.589
 20
258.623
 30
0.000000
  70
    32
  0
VERTEX
  8
0
  5
3C8
 10
-116.543
 20
258.518
 30
0.000000
  70
    32
  0
VERTEX
  8
0
  5
3C9
 10
-116.499
 20
258.411
 30
0.000000
  70
    32
  0
VERTEX
  8
0
  5
3CA
 10
-116.456
 20
258.302
 30
0.000000
  70
    32
  0
VERTEX
  8
0
  5
3CB
 10
-116.415
 20
258.192
 30
0.000000
  70
    32
  0
VERTEX
  8
0
  5
3CC
 10
-116.376
 20
258.081
 30
0.000000
  70
    32
  0
VERTEX
  8
0
  5
3CD
 10
-116.339
 20
257.968
 30
0.000000
  70
    32
  0
VERTEX
  8
0
  5
3CE
 10
-116.304
 20
257.854
 30
0.000000
  70
    32
  0
VERTEX
  8
0
  5
3CF
 10
-116.271
 20
257.738
 30
0.000000
  70
    32
  0
VERTEX
  8
0
  5
3D0
 10
-116.239
 20
257.622
 30
0.000000
  70
    32
  0
VERTEX
  8
0
  5
3D1
 10
-116.210
 20
257.504
 30
0.000000
  70
    32
  0
VERTEX
  8
0
  5
3D2
 10
-116.182
 20
257.385
 30
0.000000
  70
    32
  0
VERTEX
  8
0
  5
3D3
 10
-116.157
 20
257.265
 30
0.000000
  70
    32
  0
VERTEX
  8
0
  5
3D4
 10
-116.133
 20
257.145
 30
0.000000
  70
    32
  0
VERTEX
  8
0
  5
3D5
 10
-116.112
 20
257.023
 30
0.000000
  70
    32
  0
VERTEX
  8
0
  5
3D6
 10
-116.092
 20
256.901
 30
0.000000
  70
    32
  0
VERTEX
  8
0
  5
3D7
 10
-116.075
 20
256.778
 30
0.000000
  70
    32
  0
VERTEX
  8
0
  5
3D8
 10
-116.059
 20
256.655
 30
0.000000
  70
    32
  0
VERTEX
  8
0
  5
3D9
 10
-116.046
 20
256.531
 30
0.000000
  70
    32
  0
VERTEX
  8
0
  5
3DA
 10
-116.034
 20
256.406
 30
0.000000
  70
    32
  0
VERTEX
  8
0
  5
3DB
 10
-116.025
 20
256.282
 30
0.000000
  70
    32
  0
VERTEX
  8
0
  5
3DC
 10
-116.018
 20
256.157
 30
0.000000
  70
    32
  0
VERTEX
  8
0
  5
3DD
 10
-116.013
 20
256.031
 30
0.000000
  70
    32
  0
VERTEX
  8
0
  5
3DE
 10
-116.010
 20
255.906
 30
0.000000
  70
    32
  0
VERTEX
  8
0
  5
3DF
 10
-116.009
 20
255.780
 30
0.000000
  70
    32
  0
SEQEND
  8
0
  5
3E0
  0
INSERT
  5
21D
  8
0
  6
CONTINUOUS
 62
     5
  2
*U9
 10
0.0
 20
0.0
 30
0.0
1001
ACAD
1002
{
1000
R14_HATCH_DATA
1000
21D
1011
1.0
1021
2.1408419913927925E+096
1031
1.7537777328675080E+100
1021
0.0
1031
0.0
1011
0.0
1021
2.1408419913927925E+096
1031
1.7537777328675080E+100
1021
1.0
1031
0.0
1011
0.0
1021
2.1408419913927925E+096
1031
1.7537777328675080E+100
1021
0.0
1031
1.0
1040
0.0
1010
0.0
1020
0.0
1030
1.0
1000
SOLID
1070
     1
1070
     1
1071
        1
1071
        7
1070
     0
1070
     1
1071
        7
1040
-119.8608040448091
1040
266.95664483236129
1040
-115.6108040448091
1040
266.95664483236129
1040
-115.6108040448091
1040
268.65664483236128
1040
-119.8608040448091
1040
268.65664483236122
1040
-119.8608040448091
1040
269.93164483236131
1040
-124.1108040448091
1040
267.80664483236131
1040
-119.8608040448091
1040
265.68164483236131
1071
        7
1005
21F
1005
23A
1005
239
1005
236
1005
237
1005
238
1005
21E
1070
     0
1070
     1
1040
0.111394429856817
1071
        1
1040
-120.7598147887074
1040
267.6124604781362
1040
0.0
1002
}
  0
LINE
  5
21E
  8
0
 62
     5
 10
-124.1108040448091
 20
267.80664483236131
 30
0.0
 11
-119.8608040448091
 21
265.68164483236131
 31
0.0
  0
LINE
  5
21F
  8
0
 62
     5
 10
-119.8608040448091
 20
269.93164483236131
 30
0.0
 11
-124.1108040448091
 21
267.80664483236131
 31
0.0
  0
TEXT
  5
220
  8
0
 62
     5
 10
-116.969610209764
 20
272.63831165872131
 30
0.0
 40
6.0
  1
20A
 50
90.0
 41
1.7
  7
標楷體
  0
TEXT
  5
221
  8
0
 10
-117.3421413472328
 20
259.33962201071648
 30
0.0
 40
4.0
  1
O
 50
90.0
  7
CHINESET
 71
     2
  0
INSERT
  5
222
  8
0
  6
CONTINUOUS
  2
*X10
 10
0.0
 20
0.0
 30
0.0
1001
ACAD
1000
HATCH
1002
{
1070
    19
1000
NET
1040
0.6
1040
0.7853981633974483
1000
R14_HATCH_DATA
1000
222
1011
1.0
1021
2.1408419913927925E+096
1031
1.7537777328675080E+100
1021
0.0
1031
0.0
1011
0.0
1021
2.1408419913927925E+096
1031
1.7537777328675080E+100
1021
1.0
1031
0.0
1011
0.0
1021
2.1408419913927925E+096
1031
1.7537777328675080E+100
1021
0.0
1031
1.0
1040
0.0
1010
0.0
1020
0.0
1030
1.0
1000
NET
1070
     0
1070
     0
1071
        2
1071
        1
1071
        3
1070
     1
1040
-141.69689734420129
1040
296.53010936668733
1040
-125.9468973442014
1040
283.06028974755498
1070
     1
1040
-125.9468973442014
1040
283.06028974755498
1040
-125.9468973442014
1040
296.53010936668733
1070
     1
1040
-125.9468973442014
1040
296.53010936668733
1040
-141.69689734420129
1040
296.53010936668733
1071
        0
1071
        1
1071
        3
1070
     1
1040
-94.696897344200977
1040
296.53010936668733
1040
-110.9468973442013
1040
296.53010936668733
1070
     1
1040
-110.9468973442013
1040
296.53010936668733
1040
-94.696897344201119
1040
282.6326764263124
1070
     1
1040
-94.696897344201119
1040
282.6326764263124
1040
-94.696897344200977
1040
296.53010936668733
1071
        0
1070
     0
1070
     1
1040
0.7853981633974483
1040
0.6
1070
     0
1070
     2
1040
2.3561944901923439
1040
-42.059716234505743
1040
38.275671681054689
1040
1.3470384181603721
1040
1.3470384181603721
1070
     0
1040
0.7853981633974484
1040
-42.059716234505743
1040
38.275671681054689
1040
1.3470384181603721
1040
-1.3470384181603721
1070
     0
1071
        1
1040
-42.059716234505743
1040
38.275671681054689
1040
0.0
1002
}
  0
LINE
  5
223
  8
0
 10
-112.1968973442013
 20
255.7801093666873
 30
0.0
 11
-124.6968973442014
 21
255.7801093666873
 31
0.0
  0
LINE
  5
224
  8
0
 10
-112.1968973442013
 20
295.28010936668733
 30
0.0
 11
-124.6968973442014
 21
295.28010936668733
 31
0.0
  0
LINE
  5
225
  8
CENTER
 10
-168.6968973442016
 20
275.53010936668738
 30
0.0
 11
-71.696897344201659
 21
275.53010936668738
 31
0.0
  0
LINE
  5
226
  8
0
 10
-114.6968973442014
 20
295.28010936668733
 30
0.0
 11
-114.6968973442014
 21
255.7801093666873
 31
0.0
  0
LINE
  5
227
  8
0
 10
-94.696897344201119
 20
282.6326764263124
 30
0.0
 11
-94.696897344201403
 21
254.5301093666873
 31
0.0
  0
LINE
  5
228
  8
0
 10
-75.196897344201034
 20
290.53010936668733
 30
0.0
 11
-75.196897344201659
 21
260.53010936668721
 31
0.0
  0
LINE
  5
229
  8
0
 10
-110.9468973442013
 20
296.53010936668733
 30
0.0
 11
-110.9468973442013
 21
254.5301093666873
 31
0.0
  0
LINE
  5
22A
  8
0
 10
-112.1968973442013
 20
295.28010936668733
 30
0.0
 11
-112.1968973442013
 21
255.7801093666873
 31
0.0
  0
LINE
  5
22B
  8
0
 10
-93.696897344200977
 20
295.53010936668733
 30
0.0
 11
-93.696897344201375
 21
255.5301093666873
 31
0.0
  0
LINE
  5
22C
  8
0
 10
-76.196897344200977
 20
257.73010936668732
 30
0.0
 11
-76.196897344201716
 21
293.33010936668728
 31
0.0
  0
LINE
  5
22D
  8
0
 10
-74.696897344201659
 20
261.03010936668733
 30
0.0
 11
-74.696897344201062
 21
290.03010936668738
 31
0.0
  0
LINE
  5
22E
  8
0
 10
-94.696897344201403
 20
254.5301093666873
 30
0.0
 11
-110.9468973442013
 21
254.5301093666873
 31
0.0
  0
LINE
  5
22F
  8
0
 10
-93.696897344201375
 20
255.5301093666873
 30
0.0
 11
-94.696897344201403
 21
254.5301093666873
 31
0.0
  0
LINE
  5
230
  8
0
 10
-77.946897344201602
 20
257.73010936668732
 30
0.0
 11
-76.196897344201602
 21
257.73010936668732
 31
0.0
  0
LINE
  5
231
  8
0
 10
-74.696897344201659
 20
261.03010936668733
 30
0.0
 11
-75.196897344201659
 21
260.53010936668721
 31
0.0
  0
LINE
  5
232
  8
0
 10
-76.196897344201659
 20
260.53010936668733
 30
0.0
 11
-75.196897344201659
 21
260.53010936668721
 31
0.0
  0
LINE
  5
233
  8
0
 10
-110.9468973442013
 20
254.5301093666873
 30
0.0
 11
-112.1968973442013
 21
255.7801093666873
 31
0.0
  0
LINE
  5
234
  8
0
 10
-112.1968973442013
 20
255.7801093666873
 30
0.0
 11
-112.1968973442013
 21
255.7801093666873
 31
0.0
  0
LINE
  5
235
  8
0
 10
-94.696897344200977
 20
296.53010936668733
 30
0.0
 11
-94.696897344201119
 21
282.6326764263124
 31
0.0
  0
LINE
  5
236
  8
0
 62
     5
 10
-115.6108040448091
 20
268.65664483236128
 30
0.0
 11
-115.6108040448091
 21
266.95664483236129
 31
0.0
  0
LINE
  5
237
  8
0
 62
     5
 10
-115.6108040448091
 20
266.95664483236129
 30
0.0
 11
-119.8608040448091
 21
266.95664483236129
 31
0.0
  0
LINE
  5
238
  8
0
 62
     5
 10
-119.8608040448091
 20
265.6816448323612
 30
0.0
 11
-119.8608040448091
 21
266.95664483236129
 31
0.0
  0
LINE
  5
239
  8
0
 62
     5
 10
-115.6108040448091
 20
268.65664483236128
 30
0.0
 11
-119.8608040448091
 21
268.65664483236122
 31
0.0
  0
LINE
  5
23A
  8
0
 62
     5
 10
-119.8608040448091
 20
268.65664483236122
 30
0.0
 11
-119.8608040448091
 21
269.93164483236131
 31
0.0
  0
LINE
  5
23B
  8
0
 10
-94.696897344200977
 20
296.53010936668733
 30
0.0
 11
-110.9468973442013
 21
296.53010936668733
 31
0.0
  0
LINE
  5
23C
  8
0
 10
-77.946897344201716
 20
293.33010936668728
 30
0.0
 11
-76.196897344201716
 21
293.33010936668728
 31
0.0
  0
LINE
  5
23D
  8
0
 10
-75.196897344201034
 20
290.53010936668733
 30
0.0
 11
-74.696897344201062
 21
290.03010936668738
 31
0.0
  0
LINE
  5
23E
  8
0
 10
-76.196897344201659
 20
290.53010936668733
 30
0.0
 11
-75.196897344201034
 21
290.53010936668733
 31
0.0
  0
LINE
  5
23F
  8
0
 10
-93.696897344200977
 20
295.53010936668733
 30
0.0
 11
-94.696897344200977
 21
296.53010936668733
 31
0.0
  0
LINE
  5
240
  8
0
 10
-110.9468973442013
 20
296.53010936668733
 30
0.0
 11
-112.1968973442013
 21
295.28010936668733
 31
0.0
  0
ARC
  5
241
  8
0
 10
-143.3166890108684
 20
260.3746648004597
 30
0.0
 40
7.3802083333332442
 50
136.8030394067184
 51
223.1969605932816
  0
LINE
  5
242
  8
0
 10
-141.69689734420129
 20
296.53010936668733
 30
0.0
 11
-141.69689734420189
 21
254.5301093666873
 31
0.0
  0
LINE
  5
244
  8
0
 10
-142.6968973442016
 20
290.53010936668733
 30
0.0
 11
-142.6968973442016
 21
260.53010936668733
 31
0.0
  0
LINE
  5
245
  8
0
 10
-124.6968973442014
 20
295.28010936668733
 30
0.0
 11
-124.6968973442014
 21
255.7801093666873
 31
0.0
  0
LINE
  5
246
  8
0
 10
-125.9468973442014
 20
283.06028974755498
 30
0.0
 11
-125.9468973442014
 21
254.5301093666873
 31
0.0
  0
LINE
  5
247
  8
0
 10
-142.69689734420129
 20
295.53010936668733
 30
0.0
 11
-142.69689734420189
 21
255.5301093666873
 31
0.0
  0
LINE
  5
248
  8
0
 10
-150.6968973442016
 20
258.03010936668733
 30
0.0
 11
-150.6968973442016
 21
262.28010936668733
 31
0.0
  0
LINE
  5
249
  8
0
 10
-142.69689734420169
 20
255.32284994505039
 30
0.0
 11
-142.6968973442016
 21
295.7373687883242
 31
0.0
  0
LINE
  5
24A
  8
0
 10
-93.696897344201204
 20
260.53010936668733
 30
0.0
 11
-77.946897344201616
 21
260.53010936668733
 31
0.0
  0
LINE
  5
24B
  8
0
 10
-125.9468973442014
 20
254.5301093666873
 30
0.0
 11
-141.69689734420189
 21
254.5301093666873
 31
0.0
  0
LINE
  5
24C
  8
0
 10
-124.6968973442014
 20
255.7801093666873
 30
0.0
 11
-125.9468973442014
 21
254.5301093666873
 31
0.0
  0
LINE
  5
24D
  8
0
 10
-124.6968973442014
 20
255.7801093666873
 30
0.0
 11
-124.6968973442014
 21
255.7801093666873
 31
0.0
  0
LINE
  5
24E
  8
0
 10
-141.69689734420189
 20
254.5301093666873
 30
0.0
 11
-142.69689734420189
 21
255.5301093666873
 31
0.0
  0
LINE
  5
24F
  8
0
 10
-148.6968973442016
 20
255.32284994505039
 30
0.0
 11
-142.6968973442016
 21
255.32284994505039
 31
0.0
  0
LINE
  5
252
  8
0
 10
-148.6968973442016
 20
255.32284994505039
 30
0.0
 11
-150.6968973442016
 21
258.03010936668733
 31
0.0
  0
LINE
  5
253
  8
0
 10
-93.696897344201176
 20
290.53010936668733
 30
0.0
 11
-77.946897344201716
 21
290.53010936668733
 31
0.0
  0
LINE
  5
254
  8
0
 10
-125.9468973442014
 20
296.53010936668733
 30
0.0
 11
-125.9468973442014
 21
283.06028974755498
 31
0.0
  0
LINE
  5
255
  8
0
 10
-125.9468973442014
 20
296.53010936668733
 30
0.0
 11
-141.69689734420129
 21
296.53010936668733
 31
0.0
  0
LINE
  5
256
  8
0
 10
-124.6968973442014
 20
295.28010936668733
 30
0.0
 11
-125.9468973442014
 21
296.53010936668733
 31
0.0
  0
LINE
  5
257
  8
0
 10
-124.6968973442014
 20
295.28010936668733
 30
0.0
 11
-124.6968973442014
 21
295.28010936668733
 31
0.0
  0
LINE
  5
258
  8
0
 10
-142.69689734420129
 20
295.53010936668733
 30
0.0
 11
-141.69689734420129
 21
296.53010936668733
 31
0.0
  0
ARC
  5
259
  8
0
 10
-124.1760640108682
 20
275.53010936668738
 30
0.0
 40
26.520833333333361
 50
157.606248786713
 51
202.393751213287
  0
LINE
  5
25A
  8
0
 10
-151.84632988862219
 20
287.59398699374748
 30
0.0
 11
-151.84632988862219
 21
263.46623173962718
 31
0.0
  0
LINE
  5
25B
  8
0
 10
-164.197637503653
 20
288.3558315146542
 30
0.0
 11
-164.197637503653
 21
262.7043872187204
 31
0.0
  0
LINE
  5
25C
  8
0
 10
-150.6968973442016
 20
288.78010936668733
 30
0.0
 11
-150.6968973442016
 21
262.28010936668733
 31
0.0
  0
LINE
  5
25D
  8
0
 10
-165.6968973442016
 20
266.03010936668733
 30
0.0
 11
-165.6968973442016
 21
285.03010936668733
 31
0.0
  0
LINE
  5
25E
  8
0
 10
-150.6968973442016
 20
262.28010936668733
 30
0.0
 11
-164.197637503653
 21
262.7043872187204
 31
0.0
  0
LINE
  5
25F
  8
0
 10
-151.84632988862219
 20
263.46623173962718
 30
0.0
 11
-165.34707004807359
 21
263.89050959166019
 31
0.0
  0
LINE
  5
260
  8
0
 10
-148.6968973442016
 20
265.42647965586877
 30
0.0
 11
-142.6968973442016
 21
265.42647965586889
 31
0.0
  0
LINE
  5
261
  8
0
 10
-150.6968973442016
 20
262.28010936668733
 30
0.0
 11
-151.84632988862219
 21
263.46623173962718
 31
0.0
  0
LINE
  5
262
  8
0
 10
-165.6968973442016
 20
264.25150335733758
 30
0.0
 11
-165.6968973442016
 21
266.03010936668733
 31
0.0
  0
LINE
  5
263
  8
0
 10
-165.6968973442016
 20
264.25150335733758
 30
0.0
 11
-164.197637503653
 21
262.7043872187204
 31
0.0
  0
LINE
  5
264
  8
0
 10
-150.6968973442016
 20
288.78010936668733
 30
0.0
 11
-164.197637503653
 21
288.3558315146542
 31
0.0
  0
LINE
  5
265
  8
0
 10
-151.84632988862219
 20
287.59398699374748
 30
0.0
 11
-165.3470700480735
 21
287.16970914171441
 31
0.0
  0
ARC
  5
266
  8
0
 10
-143.3166890108682
 20
290.68555393291501
 30
0.0
 40
7.3802083333334076
 50
136.8030394067184
 51
223.1969605932816
  0
LINE
  5
267
  8
0
 10
-148.6968973442016
 20
295.7373687883242
 30
0.0
 11
-150.6968973442016
 21
293.03010936668733
 31
0.0
  0
LINE
  5
268
  8
0
 10
-142.6968973442016
 20
290.53010936668733
 30
0.0
 11
-142.6968973442016
 21
295.7373687883242
 31
0.0
  0
LINE
  5
269
  8
0
 10
-148.6968973442016
 20
285.63373907750571
 30
0.0
 11
-142.6968973442016
 21
285.63373907750571
 31
0.0
  0
LINE
  5
26B
  8
0
 10
-150.6968973442016
 20
288.78010936668733
 30
0.0
 11
-151.84632988862219
 21
287.59398699374748
 31
0.0
  0
LINE
  5
26C
  8
0
 10
-150.6968973442016
 20
288.78010936668733
 30
0.0
 11
-150.6968973442016
 21
293.03010936668733
 31
0.0
  0
LINE
  5
26D
  8
0
 10
-148.69689734420169
 20
295.7373687883242
 30
0.0
 11
-142.6968973442016
 21
295.7373687883242
 31
0.0
  0
LINE
  5
26E
  8
0
 10
-165.6968973442016
 20
286.80871537603701
 30
0.0
 11
-164.197637503653
 21
288.3558315146542
 31
0.0
  0
LINE
  5
26F
  8
0
 10
-165.6968973442016
 20
285.03010936668733
 30
0.0
 11
-165.6968973442016
 21
286.80871537603701
 31
0.0
  0
LINE
  5
270
  8
0
 10
-77.946897344201716
 20
293.33010936668728
 30
0.0
 11
-77.946897344201602
 21
257.73010936668732
 31
0.0
  0
DIMENSION
  5
271
  8
DIM
  2
*D4
 10
-74.696897344201659
 20
236.17882999789961
 30
0.0
 11
-120.1968973442016
 21
239.1788299978997
 31
0.0
 70
     0
 13
-165.6968973442016
 23
264.25150335733758
 33
0.0
 14
-74.696897344201659
 24
261.03010936668733
 34
0.0
  0
DIMENSION
  5
27E
  8
DIM
  2
*D5
 10
-62.172634204053338
 20
296.53010936668733
 30
0.0
 11
-65.172634204053395
 21
275.53010936668721
 31
0.0
 70
     0
  1
%%c<>
 13
-94.696897344201403
 23
254.5301093666873
 33
0.0
 14
-94.696897344200977
 24
296.53010936668733
 34
0.0
 50
90.0
  0
DIMENSION
  5
294
  8
DIM
  2
*D6
 10
-93.696897344200977
 20
306.9371376533702
 30
0.0
 11
-118.1968973442013
 21
309.9371376533702
 31
0.0
 70
     0
 13
-142.6968973442016
 23
295.53010936668699
 33
0.0
 14
-93.696897344200977
 24
295.53010936668733
 34
0.0
  0
POLYLINE
  8
0
  5
3E1
  66
     1
 10
0.000000
 20
0.000000
 30
0.000000
  70
     8
  0
VERTEX
  8
0
  5
3E2
 10
-159.495
 20
288.504
 30
0.000000
  70
    32
  0
VERTEX
  8
0
  5
3E3
 10
-167.296
 20
301.553
 30
0.000000
  70
    32
  0
VERTEX
  8
0
  5
3E4
 10
-170.296
 20
301.553
 30
0.000000
  70
    32
  0
SEQEND
  8
0
  5
3E5
  0
TEXT
  5
2C6
  8
0
 10
-188.22410674553589
 20
301.33892771458528
 30
0.0
 40
3.0
  1
PT 3/4
  7
CHINESET
  0
ENDSEC
  0
EOF
