  0
SECTION
  2
HEADER
  9
$ACADVER
  1
AC1009
  9
$INSBASE
 10
0.0
 20
0.0
 30
0.0
  9
$EXTMIN
 10
-221.06558173883749
 20
176.61958286309681
 30
-0.0015258207003583
  9
$EXTMAX
 10
-62.152356895158363
 20
311.24773244646639
 30
0.0000000349246037
  9
$LIMMIN
 10
0.0
 20
0.0
  9
$LIMMAX
 10
396.0
 20
273.0
  9
$ORTHOMODE
 70
     1
  9
$REGENMODE
 70
     1
  9
$FILLMODE
 70
     1
  9
$QTEXTMODE
 70
     0
  9
$MIRRTEXT
 70
     1
  9
$DRAGMODE
 70
     2
  9
$LTSCALE
 40
6.0
  9
$OSMODE
 70
    39
  9
$ATTMODE
 70
     1
  9
$TEXTSIZE
 40
5.0
  9
$TRACEWID
 40
0.05
  9
$TEXTSTYLE
  7
CHINESET
  9
$CLAYER
  8
0
  9
$CELTYPE
  6
BYLAYER
  9
$CECOLOR
 62
   256
  9
$DIMSCALE
 40
1.0
  9
$DIMASZ
 40
3.0
  9
$DIMEXO
 40
2.0
  9
$DIMDLI
 40
8.0
  9
$DIMRND
 40
0.0
  9
$DIMDLE
 40
0.0
  9
$DIMEXE
 40
2.0
  9
$DIMTP
 40
0.0
  9
$DIMTM
 40
0.0
  9
$DIMTXT
 40
3.0
  9
$DIMCEN
 40
-3.0
  9
$DIMTSZ
 40
0.0
  9
$DIMTOL
 70
     0
  9
$DIMLIM
 70
     0
  9
$DIMTIH
 70
     0
  9
$DIMTOH
 70
     0
  9
$DIMSE1
 70
     0
  9
$DIMSE2
 70
     0
  9
$DIMTAD
 70
     1
  9
$DIMZIN
 70
     8
  9
$DIMBLK
  1

  9
$DIMASO
 70
     1
  9
$DIMSHO
 70
     1
  9
$DIMPOST
  1

  9
$DIMAPOST
  1

  9
$DIMALT
 70
     0
  9
$DIMALTD
 70
     2
  9
$DIMALTF
 40
25.399999999999999
  9
$DIMLFAC
 40
1.0
  9
$DIMTOFL
 70
     0
  9
$DIMTVP
 40
0.0
  9
$DIMTIX
 70
     0
  9
$DIMSOXD
 70
     0
  9
$DIMSAH
 70
     0
  9
$DIMBLK1
  1

  9
$DIMBLK2
  1

  9
$DIMSTYLE
  2
STANDARD
  9
$DIMCLRD
 70
     0
  9
$DIMCLRE
 70
     0
  9
$DIMCLRT
 70
     0
  9
$DIMTFAC
 40
0.5
  9
$DIMGAP
 40
1.5
  9
$LUNITS
 70
     2
  9
$LUPREC
 70
     2
  9
$SKETCHINC
 40
0.1
  9
$FILLETRAD
 40
12.0
  9
$AUNITS
 70
     0
  9
$AUPREC
 70
     0
  9
$MENU
  1
ACAD
  9
$ELEVATION
 40
0.0
  9
$PELEVATION
 40
0.0
  9
$THICKNESS
 40
0.0
  9
$LIMCHECK
 70
     0
  9
$BLIPMODE
 70
     0
  9
$CHAMFERA
 40
2.0
  9
$CHAMFERB
 40
2.0
  9
$SKPOLY
 70
     0
  9
$TDCREATE
 40
2450436.7992719901
  9
$TDUPDATE
 40
2451946.5959951738
  9
$TDINDWG
 40
0.8813982986
  9
$TDUSRTIMER
 40
0.8813982986
  9
$USRTIMER
 70
     1
  9
$ANGBASE
 50
0.0
  9
$ANGDIR
 70
     0
  9
$PDMODE
 70
    65
  9
$PDSIZE
 40
8.3000000000000007
  9
$PLINEWID
 40
0.0
  9
$COORDS
 70
     2
  9
$SPLFRAME
 70
     0
  9
$SPLINETYPE
 70
     6
  9
$SPLINESEGS
 70
     8
  9
$ATTDIA
 70
     0
  9
$ATTREQ
 70
     1
  9
$HANDLING
 70
 12289
  9
$HANDSEED
  5
94E
  9
$SURFTAB1
 70
     6
  9
$SURFTAB2
 70
     6
  9
$SURFTYPE
 70
     6
  9
$SURFU
 70
     6
  9
$SURFV
 70
     6
  9
$UCSNAME
  2

  9
$UCSORG
 10
0.0
 20
0.0
 30
0.0
  9
$UCSXDIR
 10
1.0
 20
0.0
 30
0.0
  9
$UCSYDIR
 10
0.0
 20
1.0
 30
0.0
  9
$PUCSNAME
  2

  9
$PUCSORG
 10
0.0
 20
0.0
 30
0.0
  9
$PUCSXDIR
 10
1.0
 20
0.0
 30
0.0
  9
$PUCSYDIR
 10
0.0
 20
1.0
 30
0.0
  9
$USERI1
 70
     0
  9
$USERI2
 70
     0
  9
$USERI3
 70
     0
  9
$USERI4
 70
     0
  9
$USERI5
 70
     0
  9
$USERR1
 40
0.0
  9
$USERR2
 40
0.0
  9
$USERR3
 40
0.0
  9
$USERR4
 40
0.0
  9
$USERR5
 40
0.0
  9
$WORLDVIEW
 70
     1
  9
$SHADEDGE
 70
     3
  9
$SHADEDIF
 70
    70
  9
$TILEMODE
 70
     1
  9
$MAXACTVP
 70
    16
  9
$PLIMCHECK
 70
     0
  9
$PEXTMIN
 10
-273.3129965794289
 20
1.3881161795999331
 30
-0.0000000349181948
  9
$PEXTMAX
 10
-79.891524143177662
 20
269.15478465906631
 30
0.0000000814935746
  9
$PLIMMIN
 10
-278.28200264445832
 20
-3.5808939846616781
  9
$PLIMMAX
 10
114.4797607998254
 20
274.12379072409561
  9
$UNITMODE
 70
     0
  9
$VISRETAIN
 70
     0
  9
$PLINEGEN
 70
     0
  9
$PSLTSCALE
 70
     0
  0
ENDSEC
  0
SECTION
  2
TABLES
  0
TABLE
  2
VPORT
 70
     8
  0
VPORT
  2
*ACTIVE
 70
     0
 10
0.0
 20
0.0
 11
1.0
 21
1.0
 12
-139.18621136653039
 22
245.4064359813147
 13
0.0
 23
0.0
 14
1.0
 24
1.0
 15
0.0
 25
0.0
 16
0.0
 26
0.0
 36
1.0
 17
0.0
 27
0.0
 37
0.0
 40
138.12240081581101
 41
1.7274401473296499
 42
50.0
 43
0.0
 44
0.0
 50
0.0
 51
0.0
 71
     0
 72
   100
 73
     1
 74
     1
 75
     0
 76
     0
 77
     0
 78
     0
  0
ENDTAB
  0
TABLE
  2
LTYPE
 70
    12
  0
LTYPE
  2
CONTINUOUS
 70
     0
  3
Solid line
 72
    65
 73
     0
 40
0.0
  0
LTYPE
  2
CENTER
 70
     0
  3
Center ____ _ ____ _ ____ _ ____ _ ____ _ ____
 72
    65
 73
     4
 40
2.0
 49
1.25
 49
-0.25
 49
0.25
 49
-0.25
  0
ENDTAB
  0
TABLE
  2
LAYER
 70
    10
  0
LAYER
  2
0
 70
     0
 62
     7
  6
CONTINUOUS
  0
LAYER
  2
LOGO
 70
     0
 62
     7
  6
CONTINUOUS
  0
LAYER
  2
DEFPOINTS
 70
     0
 62
     7
  6
CONTINUOUS
  0
LAYER
  2
CENTER
 70
     0
 62
     1
  6
CENTER
  0
LAYER
  2
DIM
 70
     0
 62
     5
  6
CONTINUOUS
  0
ENDTAB
  0
TABLE
  2
STYLE
 70
     6
  0
STYLE
  2
STANDARD
 70
     0
 40
0.0
 41
1.0
 50
0.0
 71
     0
 42
0.2
  3
txt
  4

  0
STYLE
  2
CHINESET
 70
     0
 40
0.0
 41
1.0
 50
0.0
 71
     0
 42
5.0
  3
C:\r13\com\fonts\simplex.shx
  4
C:\r13\com\fonts\chineset.shx
  0
STYLE
  2
LOGO
 70
     0
 40
0.0
 41
1.0
 50
0.0
 71
     0
 42
5.0
  3
txt
  4

  0
ENDTAB
  0
TABLE
  2
VIEW
 70
     0
  0
ENDTAB
  0
TABLE
  2
UCS
 70
     0
  0
ENDTAB
  0
TABLE
  2
APPID
 70
     1
  0
APPID
  2
ACAD
 70
     0
  0
ENDTAB
  0
TABLE
  2
DIMSTYLE
 70
     1
  0
DIMSTYLE
  2
STANDARD
 70
     0
  3

  4

  5

  6

  7

 40
1.0
 41
3.0
 42
2.0
 43
8.0
 44
2.0
 45
0.0
 46
0.0
 47
0.0
 48
0.0
140
3.0
141
-3.0
142
0.0
143
25.399999999999999
144
1.0
145
0.0
146
0.5
147
1.5
 71
     0
 72
     0
 73
     0
 74
     0
 75
     0
 76
     0
 77
     1
 78
     8
170
     0
171
     2
172
     0
173
     0
174
     0
175
     0
176
     0
177
     0
178
     0
  0
ENDTAB
  0
ENDSEC
  0
SECTION
  2
BLOCKS
  0
BLOCK
  8
0
  2
$MODEL_SPACE
 70
     0
 10
0.0
 20
0.0
 30
0.0
  3
$MODEL_SPACE
  1

  0
ENDBLK
  5
A
  8
0
  0
BLOCK
 67
     1
  8
0
  2
$PAPER_SPACE
 70
     0
 10
0.0
 20
0.0
 30
0.0
  3
$PAPER_SPACE
  1

  0
ENDBLK
  5
F
 67
     1
  8
0
  0
BLOCK
  8
0
  2
*D10
 70
     1
 10
0.0
 20
0.0
 30
0.0
  3
*D10
  1

  0
LINE
  5
640
  8
DIM
 62
     0
 10
-187.77927903993691
 20
240.5179698000459
 30
0.0
 11
-187.77927903993691
 21
214.08081513719
 31
0.0
  0
LINE
  5
641
  8
DIM
 62
     0
 10
-96.279279039936924
 20
237.13827393729269
 30
0.0
 11
-96.279279039936924
 21
214.08081513719
 31
0.0
  0
LINE
  5
642
  8
DIM
 62
     0
 10
-184.77927903993691
 20
216.08081513719
 30
0.0
 11
-99.279279039936895
 21
216.08081513719
 31
0.0
  0
SOLID
  5
643
  8
DIM
 62
     0
 10
-184.77927903993691
 20
216.58081513719
 30
0.0
 11
-184.77927903993691
 21
215.58081513719
 31
0.0
 12
-187.77927903993691
 22
216.08081513719
 32
0.0
 13
-187.77927903993691
 23
216.08081513719
 33
0.0
  0
SOLID
  5
644
  8
DIM
 62
     0
 10
-99.279279039936895
 20
216.58081513719
 30
0.0
 11
-99.279279039936895
 21
215.58081513719
 31
0.0
 12
-96.279279039936924
 22
216.08081513719
 32
0.0
 13
-96.279279039936924
 23
216.08081513719
 33
0.0
  0
TEXT
  5
645
  8
0
 62
     0
 10
-146.3149933256511
 20
217.58081513719
 30
0.0
 40
3.0
  1
91.5
  7
CHINESET
  0
POINT
  5
646
  8
DEFPOINTS
 62
     0
 10
-187.77927903993691
 20
242.5179698000459
 30
0.0
  0
POINT
  5
647
  8
DEFPOINTS
 62
     0
 10
-96.279279039936924
 20
239.13827393729269
 30
0.0
  0
POINT
  5
648
  8
DEFPOINTS
 62
     0
 10
-96.279279039936924
 20
216.08081513719
 30
0.0
  0
ENDBLK
  5
5ED
  8
0
  0
BLOCK
  8
0
  2
*D11
 70
     1
 10
0.0
 20
0.0
 30
0.0
  3
*D11
  1

  0
LINE
  5
62E
  8
DIM
 62
     0
 10
-166.27927903993691
 20
271.88827393729269
 30
0.0
 11
-166.27927903993691
 21
284.4945825247213
 31
0.0
  0
LINE
  5
62F
  8
DIM
 62
     0
 10
-116.7792790399369
 20
271.88827393729269
 30
0.0
 11
-116.7792790399369
 21
284.4945825247213
 31
0.0
  0
LINE
  5
630
  8
DIM
 62
     0
 10
-163.27927903993691
 20
282.4945825247213
 30
0.0
 11
-119.7792790399369
 21
282.4945825247213
 31
0.0
  0
SOLID
  5
631
  8
DIM
 62
     0
 10
-163.27927903993691
 20
282.9945825247213
 30
0.0
 11
-163.27927903993691
 21
281.9945825247213
 31
0.0
 12
-166.27927903993691
 22
282.4945825247213
 32
0.0
 13
-166.27927903993691
 23
282.4945825247213
 33
0.0
  0
SOLID
  5
632
  8
DIM
 62
     0
 10
-119.7792790399369
 20
282.9945825247213
 30
0.0
 11
-119.7792790399369
 21
281.9945825247213
 31
0.0
 12
-116.7792790399369
 22
282.4945825247213
 32
0.0
 13
-116.7792790399369
 23
282.4945825247213
 33
0.0
  0
TEXT
  5
633
  8
0
 62
     0
 10
-146.10070761136541
 20
283.9945825247213
 30
0.0
 40
3.0
  1
49.5
  7
CHINESET
  0
POINT
  5
634
  8
DEFPOINTS
 62
     0
 10
-166.27927903993691
 20
269.88827393729269
 30
0.0
  0
POINT
  5
635
  8
DEFPOINTS
 62
     0
 10
-116.7792790399369
 20
269.88827393729269
 30
0.0
  0
POINT
  5
636
  8
DEFPOINTS
 62
     0
 10
-116.7792790399369
 20
282.4945825247213
 30
0.0
  0
ENDBLK
  5
5FA
  8
0
  0
BLOCK
  8
0
  2
*D12
 70
     1
 10
0.0
 20
0.0
 30
0.0
  3
*D12
  1

  0
LINE
  5
637
  8
DIM
 62
     0
 10
-115.2792790399369
 20
270.38827393729269
 30
0.0
 11
-77.473141195371227
 21
270.38827393729269
 31
0.0
  0
LINE
  5
638
  8
DIM
 62
     0
 10
-115.2792790399369
 20
231.88827393729269
 30
0.0
 11
-77.473141195371227
 21
231.88827393729269
 31
0.0
  0
LINE
  5
639
  8
DIM
 62
     0
 10
-79.473141195371227
 20
267.38827393729269
 30
0.0
 11
-79.473141195371227
 21
234.88827393729269
 31
0.0
  0
SOLID
  5
63A
  8
DIM
 62
     0
 10
-79.973141195371227
 20
267.38827393729269
 30
0.0
 11
-78.973141195371227
 21
267.38827393729269
 31
0.0
 12
-79.473141195371227
 22
270.38827393729269
 32
0.0
 13
-79.473141195371227
 23
270.38827393729269
 33
0.0
  0
SOLID
  5
63B
  8
DIM
 62
     0
 10
-79.973141195371227
 20
234.88827393729269
 30
0.0
 11
-78.973141195371227
 21
234.88827393729269
 31
0.0
 12
-79.473141195371227
 22
231.88827393729269
 32
0.0
 13
-79.473141195371227
 23
231.88827393729269
 33
0.0
  0
INSERT
  5
63C
  8
0
  2
*U17
 10
0.0
 20
0.0
 30
0.0
  0
POINT
  5
63D
  8
DEFPOINTS
 62
     0
 10
-117.2792790399369
 20
270.38827393729269
 30
0.0
  0
POINT
  5
63E
  8
DEFPOINTS
 62
     0
 10
-117.2792790399369
 20
231.88827393729269
 30
0.0
  0
POINT
  5
63F
  8
DEFPOINTS
 62
     0
 10
-79.473141195371227
 20
231.88827393729269
 30
0.0
  0
ENDBLK
  5
607
  8
0
  0
BLOCK
  8
0
  2
*U13
 70
     1
 10
0.0
 20
0.0
 30
0.0
  3
*U13
  1

  0
SOLID
  5
668
  8
0
  6
CONTINUOUS
 62
     5
 10
36.663906766200988
 20
13.276535649229769
 30
0.0
 11
28.163906766201048
 21
12.42653564922977
 31
0.0
 12
32.413906766201031
 22
12.42653564922974
 32
0.0
 13
32.413906766201031
 23
12.42653564922974
 33
0.0
210
0.0
220
0.0
230
1.0
  0
SOLID
  5
669
  8
0
  6
CONTINUOUS
 62
     5
 10
36.663906766200988
 20
13.276535649229769
 30
0.0
 11
32.413906766201031
 21
12.42653564922974
 31
0.0
 12
32.413906766201059
 22
11.1515356492298
 32
0.0
 13
32.413906766201059
 23
11.1515356492298
 33
0.0
210
0.0
220
0.0
230
1.0
  0
SOLID
  5
66A
  8
0
  6
CONTINUOUS
 62
     5
 10
32.413906766201023
 20
14.12653564922973
 30
0.0
 11
28.163906766201048
 21
12.42653564922977
 31
0.0
 12
36.663906766200988
 22
13.276535649229769
 32
0.0
 13
36.663906766200988
 23
13.276535649229769
 33
0.0
210
0.0
220
0.0
230
1.0
  0
SOLID
  5
66B
  8
0
  6
CONTINUOUS
 62
     5
 10
28.163906766201048
 20
14.12653564922976
 30
0.0
 11
28.163906766201048
 21
12.42653564922977
 31
0.0
 12
32.413906766201023
 22
14.12653564922973
 32
0.0
 13
32.413906766201023
 23
14.12653564922973
 33
0.0
  0
SOLID
  5
66C
  8
0
  6
CONTINUOUS
 62
     5
 10
32.413906766201052
 20
15.401535649229819
 30
0.0
 11
32.413906766201023
 21
14.12653564922973
 31
0.0
 12
36.663906766200988
 22
13.276535649229769
 32
0.0
 13
36.663906766200988
 23
13.276535649229769
 33
0.0
210
0.0
220
0.0
230
1.0
  0
ENDBLK
  5
66E
  8
0
  0
BLOCK
  8
0
  2
*X14
 70
     1
 10
0.0
 20
0.0
 30
0.0
  3
*X14
  1

  0
LINE
  5
670
  8
0
 62
     0
 10
53.024556042244669
 20
40.95196780591457
 30
0.0
 11
51.976523664603477
 21
42.000000183555777
 31
0.0
  0
LINE
  5
671
  8
0
 62
     0
 10
51.57240093912867
 20
39.710046072709837
 30
0.0
 11
49.28244682828273
 21
42.000000183555798
 31
0.0
  0
LINE
  5
672
  8
0
 62
     0
 10
50.120245836012671
 20
38.468124339505053
 30
0.0
 11
46.588369991961962
 21
42.000000183555763
 31
0.0
  0
LINE
  5
673
  8
0
 62
     0
 10
48.668090732896701
 20
37.226202606300298
 30
0.0
 11
43.894293155641229
 21
42.000000183555763
 31
0.0
  0
LINE
  5
674
  8
0
 62
     0
 10
47.215935629780709
 20
35.98428087309555
 30
0.0
 11
41.200216319320489
 21
42.000000183555777
 31
0.0
  0
LINE
  5
675
  8
0
 62
     0
 10
45.763780526664732
 20
34.742359139890809
 30
0.0
 11
38.506139482999757
 21
42.000000183555777
 31
0.0
  0
LINE
  5
676
  8
0
 62
     0
 10
44.311625423548747
 20
33.500437406686061
 30
0.0
 11
38.500000065593298
 21
39.31206276464151
 31
0.0
  0
LINE
  5
677
  8
0
 62
     0
 10
42.859470320432727
 20
32.258515673481277
 30
0.0
 11
38.500000065593262
 21
36.617985928320749
 31
0.0
  0
LINE
  5
678
  8
0
 62
     0
 10
41.407315217316729
 20
31.01659394027655
 30
0.0
 11
38.500000065593277
 21
33.923909092000002
 31
0.0
  0
LINE
  5
679
  8
0
 62
     0
 10
39.955160114200758
 20
29.774672207071792
 30
0.0
 11
38.500000065593277
 21
31.22983225567927
 31
0.0
  0
LINE
  5
67A
  8
0
 62
     0
 10
38.503005011084788
 20
28.532750473867019
 30
0.0
 11
38.500000065593298
 21
28.535755419358519
 31
0.0
  0
LINE
  5
67B
  8
0
 62
     0
 10
22.875644219254841
 20
41.466034429376187
 30
0.0
 11
22.341678465075258
 21
42.000000183555763
 31
0.0
  0
LINE
  5
67C
  8
0
 62
     0
 10
21.42348911613886
 20
40.224112696171431
 30
0.0
 11
19.647601628754519
 21
42.000000183555763
 31
0.0
  0
LINE
  5
67D
  8
0
 62
     0
 10
19.971334013022879
 20
38.982190962966683
 30
0.0
 11
16.953524792433779
 21
42.000000183555777
 31
0.0
  0
LINE
  5
67E
  8
0
 62
     0
 10
18.519178909906891
 20
37.740269229761928
 30
0.0
 11
14.25944795611305
 21
42.000000183555777
 31
0.0
  0
LINE
  5
67F
  8
0
 62
     0
 10
17.067023806790889
 20
36.498347496557173
 30
0.0
 11
11.565371119792269
 21
42.000000183555798
 31
0.0
  0
LINE
  5
680
  8
0
 62
     0
 10
15.614868703674899
 20
35.256425763352411
 30
0.0
 11
8.871294283471542
 21
42.000000183555763
 31
0.0
  0
LINE
  5
681
  8
0
 62
     0
 10
14.162713600558931
 20
34.014504030147648
 30
0.0
 11
7.2500000655928574
 21
40.927217565113722
 31
0.0
  0
LINE
  5
682
  8
0
 62
     0
 10
12.71055849744296
 20
32.772582296942879
 30
0.0
 11
7.2500000655928849
 21
38.233140728792961
 31
0.0
  0
LINE
  5
683
  8
0
 62
     0
 10
11.25840339432694
 20
31.530660563738131
 30
0.0
 11
7.2500000655929142
 21
35.539063892472178
 31
0.0
  0
LINE
  5
684
  8
0
 62
     0
 10
9.8062482912109346
 20
30.28873883053339
 30
0.0
 11
7.2500000655929284
 21
32.844987056151389
 31
0.0
  0
LINE
  5
685
  8
0
 62
     0
 10
8.3540931880949927
 20
29.046817097328599
 30
0.0
 11
7.2500000655929853
 21
30.1509102198306
 31
0.0
  0
LINE
  5
686
  8
0
 62
     0
 10
51.947941367040997
 20
40.031218251990509
 30
0.0
 11
53.9167232986063
 21
42.000000183555812
 31
0.0
  0
LINE
  5
687
  8
0
 62
     0
 10
38.500000065593312
 20
29.277353786863578
 30
0.0
 11
51.222646462285539
 21
42.000000183555777
 31
0.0
  0
LINE
  5
688
  8
0
 62
     0
 10
38.500000065593319
 20
31.971430623184339
 30
0.0
 11
48.528569625964792
 21
42.000000183555777
 31
0.0
  0
LINE
  5
689
  8
0
 62
     0
 10
38.500000065593348
 20
34.665507459505079
 30
0.0
 11
45.834492789644059
 21
42.000000183555777
 31
0.0
  0
LINE
  5
68A
  8
0
 62
     0
 10
38.500000065593348
 20
37.35958429582584
 30
0.0
 11
43.140415953323327
 21
42.000000183555812
 31
0.0
  0
LINE
  5
68B
  8
0
 62
     0
 10
38.500000065593348
 20
40.053661132146573
 30
0.0
 11
40.446339117002559
 21
42.000000183555777
 31
0.0
  0
LINE
  5
68C
  8
0
 62
     0
 10
10.291776980538
 20
30.70397590133647
 30
0.0
 11
21.587801262757349
 21
42.000000183555798
 31
0.0
  0
LINE
  5
68D
  8
0
 62
     0
 10
7.2500000655930421
 20
30.356275822712231
 30
0.0
 11
18.893724426436592
 21
42.000000183555777
 31
0.0
  0
LINE
  5
68E
  8
0
 62
     0
 10
7.2500000655929853
 20
33.050352659032939
 30
0.0
 11
16.19964759011588
 21
42.000000183555812
 31
0.0
  0
LINE
  5
68F
  8
0
 62
     0
 10
7.2500000655929284
 20
35.744429495353629
 30
0.0
 11
13.505570753795091
 21
42.000000183555798
 31
0.0
  0
LINE
  5
690
  8
0
 62
     0
 10
7.2500000655929284
 20
38.438506331674361
 30
0.0
 11
10.81149391747436
 21
42.000000183555798
 31
0.0
  0
LINE
  5
691
  8
0
 62
     0
 10
7.2500000655929
 20
41.132583167995108
 30
0.0
 11
8.1174170811536044
 21
42.000000183555777
 31
0.0
  0
ENDBLK
  5
693
  8
0
  0
BLOCK
  8
0
  2
*U15
 70
     1
 10
0.0
 20
0.0
 30
0.0
  3
*U15
  1

  0
TEXT
  5
695
  8
0
 62
     0
 10
-63.672634204053402
 20
271.74439508097288
 30
0.0
 40
3.0
  1
\U+2205
 50
90.0
  7
CHINESET
  0
TEXT
  5
696
  8
0
 62
     0
 10
-63.672634204053402
 20
274.45868079525872
 30
0.0
 40
3.0
  1
42
 50
90.0
  7
CHINESET
  0
ENDBLK
  5
698
  8
0
  0
BLOCK
  8
0
  2
*U16
 70
     1
 10
0.0
 20
0.0
 30
0.0
  3
*U16
  1

  0
TEXT
  5
69A
  8
0
 62
     0
 10
-114.5847545885169
 20
238.3019924729098
 30
0.0
 40
3.0
  1
\U+2205
 50
90.0
  7
CHINESET
  0
TEXT
  5
69B
  8
0
 62
     0
 10
-114.5847545885169
 20
241.0162781871955
 30
0.0
 40
3.0
  1
31.5
 50
90.0
  7
CHINESET
  0
ENDBLK
  5
69D
  8
0
  0
BLOCK
  8
0
  2
*U17
 70
     1
 10
0.0
 20
0.0
 30
0.0
  3
*U17
  1

  0
TEXT
  5
69F
  8
0
 62
     0
 10
-80.973141195371269
 20
245.20970250872131
 30
0.0
 40
3.0
  1
\U+2205
 50
90.0
  7
CHINESET
  0
TEXT
  5
6A0
  8
0
 62
     0
 10
-80.973141195371269
 20
247.923988223007
 30
0.0
 40
3.0
  1
38.5
 50
90.0
  7
CHINESET
  0
ENDBLK
  5
6A2
  8
0
  0
ENDSEC
  0
SECTION
  2
ENTITIES
  0
POLYLINE
  5
91
  8
0
 62
     4
 66
     1
 10
0.0
 20
0.0
 30
0.0
 70
     1
  0
VERTEX
  5
64D
  8
0
 62
     4
 10
-212.87753521322651
 20
295.55197670521409
 30
0.0
  0
VERTEX
  5
64E
  8
0
 62
     4
 10
-62.152356895158363
 20
295.55197670521409
 30
0.0
  0
VERTEX
  5
64F
  8
0
 62
     4
 10
-62.152356895158363
 20
205.50906769620971
 30
0.0
  0
VERTEX
  5
650
  8
0
 62
     4
 10
-212.87753521322651
 20
205.50906769620971
 30
0.0
  0
SEQEND
  5
651
  8
0
 62
     4
  0
LINE
  5
9D
  8
LOGO
 62
     1
 10
-62.152356895158391
 20
205.50906769620971
 30
0.0
 11
-212.87753521322651
 21
205.50906769620971
 31
0.0
  0
LINE
  5
9E
  8
LOGO
 62
     1
 10
-62.152356895158391
 20
176.61958286309681
 30
0.0
 11
-212.87753521322651
 21
176.61958286309681
 31
0.0
  0
LINE
  5
9F
  8
LOGO
  6
CONTINUOUS
 62
     6
 10
-157.94867895739921
 20
197.83120464888469
 30
0.0
 11
-152.69015293066181
 21
198.52579321581501
 31
0.0
  0
LINE
  5
A0
  8
LOGO
  6
CONTINUOUS
 62
     6
 10
-157.94867895739921
 20
195.8655988075601
 30
0.0
 11
-152.69015293066181
 21
195.17101024062981
 31
0.0
  0
LINE
  5
A1
  8
LOGO
 62
     1
 10
-149.3206685803782
 20
199.73117072958709
 30
0.0
 11
-191.69191300227709
 21
199.73117072958709
 31
0.0
  0
LINE
  5
A2
  8
LOGO
 62
     1
 10
-149.3206685803782
 20
193.9532737629645
 30
0.0
 11
-191.69191300227709
 21
193.9532737629645
 31
0.0
  0
TEXT
  5
A3
  8
LOGO
 62
     6
 10
-164.2464260615362
 20
201.1756449712428
 30
0.0
 40
2.8889484833112902
  1
1 : 1
  7
CHINESET
 72
     1
 11
-159.15637397189249
 21
202.6201192128984
 31
0.0
 73
     2
  0
TEXT
  5
A4
  8
LOGO
 62
     6
 10
-164.2464260615362
 20
189.61985103799759
 30
0.0
 40
2.8889484833112902
  1
m/m
  7
CHINESET
 72
     1
 11
-159.15637397189249
 21
191.0643252796533
 31
0.0
 73
     2
  0
LINE
  5
A5
  8
LOGO
 62
     1
 10
-149.3206685803782
 20
188.17537679634199
 30
0.0
 11
-212.87753521322659
 21
188.17537679634199
 31
0.0
  0
TEXT
  5
A6
  8
LOGO
  6
CONTINUOUS
 62
     5
 10
-211.93193359732581
 20
182.29487856052779
 30
0.0
 40
4.333422724966935
  1
金器工業股份有限公司
 41
0.8
  7
LOGO
  0
TEXT
  5
A7
  8
LOGO
  6
CONTINUOUS
 62
     5
 10
-210.6911026960334
 20
177.9606068244602
 30
0.0
 40
2.8889484833112902
  1
MINDMAN INDUSTRIAL CO.,LTD
 41
0.85
  7
CHINESET
  0
SOLID
  5
A8
  8
LOGO
 62
     5
 10
-209.88020479769409
 20
192.97784244041139
 30
0.0
 11
-208.63109927951859
 21
192.97784244041091
 31
0.0
 12
-203.41931418644069
 22
204.82280856104219
 32
0.0
 13
-202.1702086682653
 23
204.8228085610414
 33
0.0
  0
SOLID
  5
A9
  8
LOGO
 62
     5
 10
-208.11422803061751
 20
192.97784244041139
 30
0.0
 11
-206.8651225124421
 21
192.97784244041139
 31
0.0
 12
-202.1702086682653
 22
203.87521127139141
 32
0.0
 13
-203.41931418644069
 23
199.2951577047472
 33
0.0
  0
SOLID
  5
AA
  8
LOGO
 62
     2
 10
-208.63109927951859
 20
192.97784244041091
 30
0.0
 11
-208.11422803061751
 21
192.97784244041139
 31
0.0
 12
-202.1702086682653
 22
204.8228085610414
 32
0.0
 13
-201.6533374193647
 23
204.8228085610414
 33
0.0
  0
SOLID
  5
AB
  8
LOGO
 62
     5
 10
-208.59545906844639
 20
190.8242122366602
 30
0.0
 11
-208.1647330276966
 21
190.8242122366602
 31
0.0
 12
-208.59545906844639
 22
188.67058203290949
 32
0.0
 13
-208.1647330276966
 23
188.67058203290949
 33
0.0
  0
SOLID
  5
AC
  8
LOGO
 62
     5
 10
-211.8828272615244
 20
188.67058203290949
 30
0.0
 11
-211.4521012207737
 21
188.67058203290949
 31
0.0
 12
-210.23914316498571
 22
190.8242122366602
 32
0.0
 13
-209.8084171242358
 23
190.8242122366602
 33
0.0
  0
SOLID
  5
AD
  8
LOGO
 62
     5
 10
-210.23914316498571
 20
190.8242122366602
 30
0.0
 11
-209.8084171242358
 21
190.8242122366602
 31
0.0
 12
-210.23914316498571
 22
188.67058203290949
 32
0.0
 13
-209.8084171242358
 23
188.67058203290949
 33
0.0
  0
SOLID
  5
AE
  8
LOGO
 62
     5
 10
-210.23914316498571
 20
188.67058203290949
 30
0.0
 11
-209.8084171242358
 21
188.67058203290949
 31
0.0
 12
-208.59545906844639
 22
190.8242122366602
 32
0.0
 13
-208.1647330276966
 23
190.8242122366602
 33
0.0
  0
LINE
  5
AF
  8
LOGO
 62
     1
 10
-212.87753521322651
 20
176.61958286309681
 30
0.0
 11
-212.87753521322651
 21
205.50906769620971
 31
0.0
  0
TEXT
  5
B0
  8
LOGO
 62
     6
 10
-189.3098202126896
 20
201.17706669785849
 30
0.0
 40
2.8889484833112902
  1
比例 Scale:
 41
0.9
  7
CHINESET
 72
     4
 11
-180.13611906903191
 21
202.6201192128984
 31
0.0
  0
TEXT
  5
B1
  8
LOGO
 62
     6
 10
-188.29997795267491
 20
195.4383856903886
 30
0.0
 40
2.8889484833112902
  1
投影 View:
 41
0.9
  7
CHINESET
 72
     4
 11
-180.13611906903191
 21
196.84222224627581
 31
0.0
  0
TEXT
  5
B2
  8
LOGO
 62
     6
 10
-188.01753165006551
 20
189.61985103799759
 30
0.0
 40
2.8889484833112902
  1
單位 Unit:
 41
0.9
  7
CHINESET
 72
     4
 11
-180.13611906903191
 21
191.0643252796533
 31
0.0
  0
POLYLINE
  5
B3
  8
LOGO
 62
     5
 66
     1
 10
0.0
 20
0.0
 30
0.0
 70
     1
 40
0.4314163068411527
 41
0.4314163068411527
  0
VERTEX
  5
652
  8
LOGO
 62
     5
 10
-198.10837816763421
 20
189.74739713478471
 30
0.0
 42
1.0
  0
VERTEX
  5
653
  8
LOGO
 62
     5
 10
-196.38271294026961
 20
189.74739713478471
 30
0.0
 42
1.0
  0
SEQEND
  5
654
  8
LOGO
 62
     5
  0
LINE
  5
B4
  8
LOGO
 62
     5
 10
-193.94334128993631
 20
188.67058203290949
 30
0.0
 11
-193.94334128993631
 21
189.96276015515971
 31
0.0
  0
SOLID
  5
B5
  8
LOGO
 62
     5
 10
-196.59949956542971
 20
190.8242122366602
 30
0.0
 11
-196.16877352467989
 21
190.8242122366602
 31
0.0
 12
-196.59949956542971
 22
188.67058203290949
 32
0.0
 13
-196.16877352467989
 23
188.67058203290949
 33
0.0
  0
SOLID
  5
B6
  8
LOGO
 62
     5
 10
-195.6662454529372
 20
188.67058203290949
 30
0.0
 11
-195.23551941218651
 21
188.67058203290949
 31
0.0
 12
-195.6662454529372
 22
190.8242122366602
 32
0.0
 13
-195.23551941218651
 23
190.8242122366602
 33
0.0
  0
SOLID
  5
B7
  8
LOGO
 62
     5
 10
-194.37406733068599
 20
189.96276015515971
 30
0.0
 11
-193.94334128993631
 21
189.96276015515971
 31
0.0
 12
-194.37406733068599
 22
188.67058203290949
 32
0.0
 13
-193.94334128993631
 23
188.67058203290949
 33
0.0
  0
SOLID
  5
B8
  8
LOGO
 62
     5
 10
-202.77326819791921
 20
191.47030129778571
 30
0.0
 11
-202.34254215716939
 21
191.47030129778571
 31
0.0
 12
-202.77326819791921
 22
188.67058203290949
 32
0.0
 13
-202.34254215716939
 23
188.67058203290949
 33
0.0
  0
SOLID
  5
B9
  8
LOGO
 62
     5
 10
-201.84001408542539
 20
190.8242122366602
 30
0.0
 11
-201.40928804467549
 21
190.8242122366602
 31
0.0
 12
-201.84001408542539
 22
188.67058203290949
 32
0.0
 13
-201.40928804467549
 23
188.67058203290949
 33
0.0
  0
SOLID
  5
BA
  8
LOGO
 62
     5
 10
-200.54783596317509
 20
189.96276015515971
 30
0.0
 11
-200.1171099224253
 21
189.96276015515971
 31
0.0
 12
-200.54783596317509
 22
188.67058203290949
 32
0.0
 13
-200.1171099224253
 23
188.67058203290949
 33
0.0
  0
SOLID
  5
BB
  8
LOGO
 62
     5
 10
-199.25565784092481
 20
189.96276015515971
 30
0.0
 11
-198.82493180017499
 21
189.96276015515971
 31
0.0
 12
-199.25565784092481
 22
188.6705820329087
 32
0.0
 13
-198.82493180017499
 23
188.6705820329087
 33
0.0
  0
LINE
  5
BC
  8
LOGO
 62
     1
 10
-191.69191300227709
 20
188.17537679634199
 30
0.0
 11
-191.69191300227709
 21
205.50906769620971
 31
0.0
  0
SOLID
  5
BD
  8
LOGO
 62
     5
 10
-206.7216045956641
 20
190.8242122366602
 30
0.0
 11
-206.29087855491429
 21
190.8242122366602
 31
0.0
 12
-206.7216045956641
 22
188.67058203290949
 32
0.0
 13
-206.29087855491429
 23
188.67058203290949
 33
0.0
  0
SOLID
  5
BE
  8
LOGO
 62
     5
 10
-205.42942647341391
 20
189.96276015515971
 30
0.0
 11
-204.9987004326633
 21
189.96276015515971
 31
0.0
 12
-205.42942647341391
 22
188.67058203290949
 32
0.0
 13
-204.9987004326633
 23
188.67058203290949
 33
0.0
  0
SOLID
  5
BF
  8
LOGO
 62
     5
 10
-207.654858708158
 20
190.8242122366602
 30
0.0
 11
-207.22413266740699
 21
190.8242122366602
 31
0.0
 12
-207.654858708158
 22
188.6705820329087
 32
0.0
 13
-207.22413266740699
 23
188.67058203290949
 33
0.0
  0
POLYLINE
  5
C0
  8
LOGO
 62
     5
 66
     1
 10
0.0
 20
0.0
 30
0.0
 70
     1
 40
0.4314163068411527
 41
0.4314163068411527
  0
VERTEX
  5
655
  8
LOGO
 62
     5
 10
-204.2821468001232
 20
189.74739713478471
 30
0.0
 42
1.0
  0
VERTEX
  5
656
  8
LOGO
 62
     5
 10
-202.5564815727586
 20
189.74739713478471
 30
0.0
 42
1.0
  0
SEQEND
  5
657
  8
LOGO
 62
     5
  0
POLYLINE
  5
C1
  8
LOGO
 62
     5
 66
     1
 10
0.0
 20
0.0
 30
0.0
 40
0.4314163068411527
 41
0.4314163068411527
  0
VERTEX
  5
658
  8
LOGO
 62
     5
 10
-194.15766891117451
 20
189.96276015515971
 30
0.0
 42
1.0
  0
VERTEX
  5
659
  8
LOGO
 62
     5
 10
-195.45191783169801
 20
189.96276015515971
 30
0.0
 42
1.0
  0
SEQEND
  5
65A
  8
LOGO
 62
     5
  0
SOLID
  5
C2
  8
LOGO
 62
     5
 10
-195.1924468081117
 20
192.97784244041091
 30
0.0
 11
-193.94334128993631
 21
192.97784244041091
 31
0.0
 12
-195.1924468081117
 22
204.8228085610414
 32
0.0
 13
-193.94334128993631
 23
204.82280856104219
 33
0.0
  0
SOLID
  5
C3
  8
LOGO
 62
     5
 10
-201.6533374193647
 20
204.8228085610414
 30
0.0
 11
-200.40423190118929
 21
204.82280856104219
 31
0.0
 12
-201.6533374193647
 22
193.92543973006141
 32
0.0
 13
-200.40423190118929
 23
198.50549329670551
 33
0.0
  0
SOLID
  5
C4
  8
LOGO
 62
     5
 10
-201.6533374193647
 20
193.92543973006141
 30
0.0
 11
-200.40423190118929
 21
198.50549329670551
 31
0.0
 12
-195.70931805701241
 22
204.82280856104219
 32
0.0
 13
-196.95842357518791
 23
204.82280856104219
 33
0.0
  0
SOLID
  5
C5
  8
LOGO
 62
     5
 10
-195.70931805701241
 20
203.87521127139141
 30
0.0
 11
-196.95842357518791
 21
199.2951577047472
 31
0.0
 12
-195.70931805701241
 22
192.97784244041091
 32
0.0
 13
-196.95842357518791
 23
192.97784244041091
 33
0.0
  0
SOLID
  5
C6
  8
LOGO
 62
     2
 10
-195.70931805701241
 20
204.82280856104219
 30
0.0
 11
-195.1924468081117
 21
204.8228085610414
 31
0.0
 12
-195.70931805701241
 22
192.97784244041091
 32
0.0
 13
-195.1924468081117
 23
192.97784244041091
 33
0.0
  0
SOLID
  5
C7
  8
LOGO
 62
     5
 10
-203.41931418644069
 20
192.97784244041139
 30
0.0
 11
-202.1702086682653
 21
192.97784244041139
 31
0.0
 12
-203.41931418644069
 22
199.2951577047472
 32
0.0
 13
-202.1702086682653
 23
203.87521127139141
 33
0.0
  0
SOLID
  5
C8
  8
LOGO
 62
     2
 10
-202.1702086682653
 20
204.8228085610414
 30
0.0
 11
-201.6533374193647
 21
204.8228085610414
 31
0.0
 12
-202.1702086682653
 22
192.97784244041139
 32
0.0
 13
-201.6533374193647
 23
192.97784244041139
 33
0.0
  0
SOLID
  5
C9
  8
LOGO
 62
     5
 10
-201.6533374193647
 20
192.97784244041139
 30
0.0
 11
-200.40423190118929
 21
192.97784244041139
 31
0.0
 12
-195.70931805701241
 22
203.87521127139141
 32
0.0
 13
-196.95842357518791
 23
199.2951577047472
 33
0.0
  0
SOLID
  5
CA
  8
LOGO
 62
     2
 10
-202.1702086682653
 20
192.97784244041139
 30
0.0
 11
-201.6533374193647
 21
192.97784244041139
 31
0.0
 12
-195.70931805701241
 22
204.82280856104219
 32
0.0
 13
-195.1924468081117
 23
204.8228085610414
 33
0.0
  0
POLYLINE
  5
CB
  8
LOGO
 62
     5
 66
     1
 10
0.0
 20
0.0
 30
0.0
 40
0.4314163068411527
 41
0.4314163068411527
  0
VERTEX
  5
65B
  8
LOGO
 62
     5
 10
-200.33143754366361
 20
189.96276015515971
 30
0.0
 42
1.0
  0
VERTEX
  5
65C
  8
LOGO
 62
     5
 10
-201.625686464187
 20
189.96276015515971
 30
0.0
 42
1.0
  0
SEQEND
  5
65D
  8
LOGO
 62
     5
  0
POLYLINE
  5
CC
  8
LOGO
 62
     5
 66
     1
 10
0.0
 20
0.0
 30
0.0
 40
0.4314163068411527
 41
0.4314163068411527
  0
VERTEX
  5
65E
  8
LOGO
 62
     5
 10
-205.21302805390221
 20
189.96276015515971
 30
0.0
 42
1.0
  0
VERTEX
  5
65F
  8
LOGO
 62
     5
 10
-206.50727697442571
 20
189.96276015515971
 30
0.0
 42
1.0
  0
SEQEND
  5
660
  8
LOGO
 62
     5
  0
SOLID
  5
CD
  8
LOGO
 62
     5
 10
-207.654858708158
 20
191.12572046518511
 30
0.0
 11
-207.22413266740699
 21
191.12572046518511
 31
0.0
 12
-207.654858708158
 22
191.47030129778571
 32
0.0
 13
-207.22413266740699
 23
191.47030129778571
 33
0.0
  0
POLYLINE
  5
CE
  8
LOGO
 62
     5
 66
     1
 10
0.0
 20
0.0
 30
0.0
 70
     1
  0
VERTEX
  5
661
  8
LOGO
 62
     5
 10
-197.89163461507709
 20
189.74739713478479
 30
0.0
 42
1.0000000573306349
  0
VERTEX
  5
662
  8
LOGO
 62
     5
 10
-196.59945649282619
 20
189.74739713478479
 30
0.0
 42
1.0000000573306349
  0
SEQEND
  5
663
  8
LOGO
 62
     5
  0
CIRCLE
  5
CF
  8
LOGO
 62
     5
 10
-197.2455455539517
 20
189.74739713478479
 30
0.0
 40
0.6460890611253105
  0
POLYLINE
  5
D0
  8
LOGO
 62
     5
 66
     1
 10
0.0
 20
0.0
 30
0.0
 40
0.4314163068411527
 41
0.4314163068411527
  0
VERTEX
  5
664
  8
LOGO
 62
     5
 10
-199.03925942141319
 20
189.96276015515971
 30
0.0
 42
1.0
  0
VERTEX
  5
665
  8
LOGO
 62
     5
 10
-200.33350834193681
 20
189.96276015515971
 30
0.0
 42
1.0
  0
SEQEND
  5
666
  8
LOGO
 62
     5
  0
LINE
  5
D1
  8
LOGO
 62
     1
 10
-168.58032513578669
 20
188.17537679634199
 30
0.0
 11
-168.58032513578669
 21
205.50906769620971
 31
0.0
  0
CIRCLE
  5
D2
  8
LOGO
  6
CONTINUOUS
 62
     6
 10
-163.23107567497161
 20
196.8484017282224
 30
0.0
 40
1.6773914875926399
  0
CIRCLE
  5
D3
  8
LOGO
  6
CONTINUOUS
 62
     6
 10
-163.23107567497161
 20
196.8484017282224
 30
0.0
 40
0.9828029206623146
  0
LINE
  5
D4
  8
LOGO
 62
     6
 10
-157.9486789573991
 20
195.8655988075601
 30
0.0
 11
-157.94867895739921
 21
197.83120464888481
 31
0.0
  0
TEXT
  5
D5
  8
LOGO
  6
CONTINUOUS
 62
     6
 10
-102.6143029528054
 20
180.23076846723589
 30
0.0
 40
2.4074570694260751
  1
Model
  7
CHINESET
 72
     4
 11
-98.028670439612924
 21
181.4344970019489
 31
0.0
  0
TEXT
  5
D6
  8
LOGO
  6
CONTINUOUS
 62
     7
 10
-107.1999354659979
 20
195.87923941850539
 30
0.0
 40
4.814914138852151
  1
MVHS
  7
CHINESET
 72
     1
 11
-98.028670439612924
 21
198.28669648793149
 31
0.0
 73
     2
  0
LINE
  5
D7
  8
LOGO
 62
     6
 10
-86.472876506367754
 20
202.6201192128984
 30
0.0
 11
-109.58446437285799
 21
202.6201192128984
 31
0.0
  0
LINE
  5
D8
  8
LOGO
 62
     6
 10
-86.472876506367754
 20
193.9532737629645
 30
0.0
 11
-109.58446437285799
 21
193.9532737629645
 31
0.0
  0
LINE
  5
D9
  8
LOGO
 62
     6
 10
-88.398842161908618
 20
189.61985103799759
 30
0.0
 11
-107.6584987173172
 21
189.61985103799759
 31
0.0
  0
LINE
  5
DA
  8
LOGO
 62
     6
 10
-88.398842161908618
 20
179.02703993252291
 30
0.0
 11
-107.6584987173172
 21
179.0270399325228
 31
0.0
  0
TEXT
  5
DB
  8
LOGO
 62
     7
 10
-146.95592302932911
 20
198.2757977208627
 30
0.0
 40
5.7778969666225812
  1
訂購代號:
  7
CHINESET
  0
TEXT
  5
DC
  8
LOGO
 62
     7
 10
-147.64699136071309
 20
192.85307598741429
 30
0.0
 40
3.8519313110817199
  1
Order example:
 41
0.8
  7
CHINESET
  0
LINE
  5
DD
  8
LOGO
 62
     1
 10
-149.3206685803782
 20
176.61958286309681
 30
0.0
 11
-149.3206685803782
 21
205.50906769620971
 31
0.0
  0
LINE
  5
DE
  8
LOGO
 62
     6
 10
-152.69015293066181
 20
195.17101024062981
 30
0.0
 11
-152.69015293066181
 21
198.52579321581501
 31
0.0
  0
LINE
  5
DF
  8
LOGO
 62
     6
 10
-107.6584987173172
 20
189.61985103799759
 30
0.0
 11
-107.6584987173172
 21
179.0270399325228
 31
0.0
  0
LINE
  5
E0
  8
LOGO
 62
     6
 10
-109.58446437285799
 20
202.6201192128984
 30
0.0
 11
-109.58446437285799
 21
193.9532737629645
 31
0.0
  0
TEXT
  5
E1
  8
LOGO
  6
CONTINUOUS
 62
     7
 10
-77.303940162777366
 20
195.82463798876969
 30
0.0
 40
4.814914138852151
  1
15A
  7
CHINESET
 72
     1
 11
-71.342617895627086
 21
198.2320950581958
 31
0.0
 73
     2
  0
LINE
  5
E2
  8
LOGO
 62
     6
 10
-64.061470825236853
 20
179.02703993252291
 30
0.0
 11
-79.522549186649542
 21
179.02703993252291
 31
0.0
  0
LINE
  5
E3
  8
LOGO
 62
     6
 10
-64.061470825236853
 20
193.95327376296461
 30
0.0
 11
-79.522549186649542
 21
193.95327376296461
 31
0.0
  0
LINE
  5
E4
  8
LOGO
 62
     6
 10
-64.061470825236853
 20
189.61985103799759
 30
0.0
 11
-79.522549186649542
 21
189.61985103799759
 31
0.0
  0
LINE
  5
E5
  8
LOGO
 62
     6
 10
-64.061470825236853
 20
202.62011921289849
 30
0.0
 11
-79.522549186649542
 21
202.62011921289849
 31
0.0
  0
LINE
  5
E6
  8
LOGO
 62
     6
 10
-79.522549186649542
 20
189.61985103799759
 30
0.0
 11
-79.522549186649542
 21
179.02703993252291
 31
0.0
  0
LINE
  5
E7
  8
LOGO
 62
     6
 10
-88.398842161908618
 20
189.61985103799759
 30
0.0
 11
-88.398842161908618
 21
179.02703993252291
 31
0.0
  0
TEXT
  5
E8
  8
LOGO
 62
     6
 10
-101.88060175069459
 20
184.42201853062261
 30
0.0
 40
3.8519313110817199
  1
型式
  7
CHINESET
 72
     4
 11
-98.028670439612924
 21
186.2494111408011
 31
0.0
  0
LINE
  5
E9
  8
LOGO
 62
     6
 10
-98.028670439612924
 20
193.9532737629645
 30
0.0
 11
-98.028670439612924
 21
189.61985103799759
 31
0.0
  0
LINE
  5
EA
  8
LOGO
 62
     6
 10
-79.522549186649542
 20
202.62011921289849
 30
0.0
 11
-79.522549186649542
 21
193.95327376296461
 31
0.0
  0
LINE
  5
EB
  8
LOGO
 62
     6
 10
-86.472876506367754
 20
202.6201192128984
 30
0.0
 11
-86.472876506367754
 21
193.9532737629645
 31
0.0
  0
LINE
  5
EC
  8
LOGO
  6
CONTINUOUS
 62
     7
 10
-84.848308963776532
 20
198.25599715166251
 30
0.0
 11
-81.021346252224134
 21
198.25599715166251
 31
0.0
  0
LINE
  5
EE
  8
LOGO
 62
     6
 10
-64.061470825236853
 20
189.61985103799759
 30
0.0
 11
-64.061470825236853
 21
179.02703993252291
 31
0.0
  0
TEXT
  5
EF
  8
LOGO
  6
CONTINUOUS
 62
     6
 10
-78.211895524412768
 20
180.23076846723589
 30
0.0
 40
2.4074570694260751
  1
Port size
 41
0.8
  7
CHINESET
 72
     4
 11
-71.79201000594324
 21
181.43449700194901
 31
0.0
  0
TEXT
  5
F0
  8
LOGO
 62
     6
 10
-78.761598221931735
 20
184.32344548526029
 30
0.0
 40
3.8519313110817199
  1
配管口徑
 41
0.9
  7
CHINESET
 72
     4
 11
-71.79201000594324
 21
186.2494111408011
 31
0.0
  0
LINE
  5
F2
  8
LOGO
 62
     6
 10
-64.061470825236853
 20
202.62011921289849
 30
0.0
 11
-64.061470825236853
 21
193.95327376296461
 31
0.0
  0
LINE
  5
F3
  8
LOGO
 62
     6
 10
-71.792010227992137
 20
193.95327376296461
 30
0.0
 11
-71.792010227992137
 21
189.61985103799759
 31
0.0
  0
LINE
  5
F8
  8
LOGO
 62
     1
 10
-62.152356895158391
 20
176.61958286309681
 30
0.0
 11
-62.152356895158391
 21
205.50906769620971
 31
0.0
  0
LINE
  5
593
  8
0
 10
-187.02953604620529
 20
260.52821078577028
 30
0.0
 11
-175.3631562698898
 21
260.52821078577028
 31
0.0
  0
LINE
  5
594
  8
0
 10
-174.2792790399368
 20
261.61208801572332
 30
0.0
 11
-175.3631562698898
 21
260.52821078577028
 31
0.0
  0
LINE
  5
595
  8
0
 10
-187.02953604620529
 20
241.74833708881459
 30
0.0
 11
-175.3631562698898
 21
241.74833708881459
 31
0.0
  0
LINE
  5
596
  8
0
 10
-174.2792790399368
 20
240.66445985886159
 30
0.0
 11
-175.3631562698898
 21
241.74833708881459
 31
0.0
  0
LINE
  5
597
  8
CENTER
  6
CENTER
 10
-190.8442028790129
 20
251.13827393729269
 30
0.0
 11
-90.069202879012934
 21
251.13827393729269
 31
0.0
  0
LINE
  5
59C
  8
0
 10
-98.27927903993691
 20
265.8382739372928
 30
0.0
 11
-98.27927903993691
 21
239.04161822911641
 31
0.0
  0
LINE
  5
59D
  8
0
 10
-98.27927903993691
 20
236.52827393729271
 30
0.0
 11
-98.27927903993691
 21
235.23827393729269
 31
0.0
  0
LINE
  5
59E
  8
0
 10
-99.479279039936927
 20
235.23827393729269
 30
0.0
 11
-98.27927903993691
 21
235.23827393729269
 31
0.0
  0
LINE
  5
59F
  8
0
 10
-98.27927903993691
 20
237.8491991365816
 30
0.0
 11
-98.27927903993691
 21
236.52827393729271
 31
0.0
  0
LINE
  5
5A0
  8
0
 10
-98.27927903993691
 20
236.52827393729271
 30
0.0
 11
-99.479279039936927
 21
236.52827393729271
 31
0.0
  0
LINE
  5
5A1
  8
0
 10
-98.27927903993691
 20
239.04161822911641
 30
0.0
 11
-98.27927903993691
 21
237.8491991365816
 31
0.0
  0
LINE
  5
5A2
  8
0
 10
-99.479279039936927
 20
237.8491991365816
 30
0.0
 11
-98.27927903993691
 21
237.8491991365816
 31
0.0
  0
LINE
  5
5A3
  8
0
 10
-98.27927903993691
 20
239.04161822911641
 30
0.0
 11
-99.479279039936927
 21
239.04161822911641
 31
0.0
  0
LINE
  5
5A4
  8
0
 10
-99.479279039936927
 20
239.0416182291163
 30
0.0
 11
-99.479279039936927
 21
265.8382739372928
 31
0.0
  0
LINE
  5
5A5
  8
0
 10
-99.479279039936927
 20
237.8491991365816
 30
0.0
 11
-99.479279039936927
 21
239.04161822911641
 31
0.0
  0
LINE
  5
5A6
  8
0
 10
-99.479279039936927
 20
237.8491991365816
 30
0.0
 11
-99.479279039936927
 21
236.52827393729271
 31
0.0
  0
LINE
  5
5A7
  8
0
 10
-99.479279039936927
 20
235.23827393729269
 30
0.0
 11
-99.479279039936927
 21
236.52827393729271
 31
0.0
  0
LINE
  5
5A8
  8
0
 10
-135.27927903993691
 20
268.63827393729269
 30
0.0
 11
-135.27927903993691
 21
233.63827393729269
 31
0.0
  0
LINE
  5
5A9
  8
0
 10
-147.77927903993691
 20
268.63827393729269
 30
0.0
 11
-147.77927903993691
 21
233.63827393729269
 31
0.0
  0
LINE
  5
5AA
  8
0
 10
-149.52927903993691
 20
270.38827393729269
 30
0.0
 11
-149.52927903993691
 21
231.88827393729269
 31
0.0
  0
LINE
  5
5AB
  8
0
 10
-165.77927903993691
 20
270.38827393729269
 30
0.0
 11
-165.77927903993691
 21
236.90573880759709
 31
0.0
  0
LINE
  5
5AC
  8
0
 10
-165.77927903993691
 20
236.90573880759729
 30
0.0
 11
-165.77927903993691
 21
231.88827393729269
 31
0.0
  0
LINE
  5
5AD
  8
0
 10
-166.27927903993691
 20
232.38827393729269
 30
0.0
 11
-166.27927903993691
 21
237.2754150447322
 31
0.0
  0
LINE
  5
5AE
  8
0
 10
-166.27927903993691
 20
237.27541504473211
 30
0.0
 11
-166.27927903993691
 21
269.88827393729269
 31
0.0
  0
LINE
  5
5AF
  8
0
 10
-133.52927903993691
 20
231.88827393729269
 30
0.0
 11
-133.52927903993691
 21
270.38827393729269
 31
0.0
  0
LINE
  5
5B0
  8
0
 10
-117.2792790399369
 20
231.88827393729269
 30
0.0
 11
-117.2792790399369
 21
236.90573880759689
 31
0.0
  0
LINE
  5
5B1
  8
0
 10
-117.2792790399369
 20
236.90573880759669
 30
0.0
 11
-117.2792790399369
 21
270.38827393729269
 31
0.0
  0
LINE
  5
5B2
  8
0
 10
-116.7792790399369
 20
269.88827393729269
 30
0.0
 11
-116.7792790399369
 21
237.27541504473169
 31
0.0
  0
LINE
  5
5B3
  8
0
 10
-116.7792790399369
 20
237.27541504473189
 30
0.0
 11
-116.7792790399369
 21
232.38827393729269
 31
0.0
  0
LINE
  5
5B4
  8
0
 10
-166.27927903993691
 20
243.05537016863801
 30
0.0
 11
-172.27927903993691
 21
243.05537016863801
 31
0.0
  0
LINE
  5
5B5
  8
0
 10
-166.27927903993691
 20
234.9724663999832
 30
0.0
 11
-172.27927903993691
 21
234.9724663999832
 31
0.0
  0
LINE
  5
5B6
  8
0
 10
-166.27927903993691
 20
259.22117770594753
 30
0.0
 11
-172.27927903993691
 21
259.22117770594753
 31
0.0
  0
LINE
  5
5B7
  8
0
 10
-166.27927903993691
 20
267.30408147460219
 30
0.0
 11
-172.27927903993691
 21
267.30408147460219
 31
0.0
  0
LINE
  5
5B8
  8
0
 10
-174.27927903993691
 20
264.63827393729269
 30
0.0
 11
-174.27927903993691
 21
237.63827393729269
 31
0.0
  0
POLYLINE
  8
0
  5
6A3
  66
     1
 10
0.000000
 20
0.000000
 30
0.000000
  70
     8
  0
VERTEX
  8
0
  5
6A4
 10
-172.279
 20
243.055
 30
0.000000
  70
    32
  0
VERTEX
  8
0
  5
6A5
 10
-172.303
 20
243.020
 30
0.000000
  70
    32
  0
VERTEX
  8
0
  5
6A6
 10
-172.327
 20
242.985
 30
0.000000
  70
    32
  0
VERTEX
  8
0
  5
6A7
 10
-172.350
 20
242.949
 30
0.000000
  70
    32
  0
VERTEX
  8
0
  5
6A8
 10
-172.374
 20
242.914
 30
0.000000
  70
    32
  0
VERTEX
  8
0
  5
6A9
 10
-172.398
 20
242.879
 30
0.000000
  70
    32
  0
VERTEX
  8
0
  5
6AA
 10
-172.421
 20
242.844
 30
0.000000
  70
    32
  0
VERTEX
  8
0
  5
6AB
 10
-172.445
 20
242.808
 30
0.000000
  70
    32
  0
VERTEX
  8
0
  5
6AC
 10
-172.468
 20
242.773
 30
0.000000
  70
    32
  0
VERTEX
  8
0
  5
6AD
 10
-172.492
 20
242.738
 30
0.000000
  70
    32
  0
VERTEX
  8
0
  5
6AE
 10
-172.515
 20
242.702
 30
0.000000
  70
    32
  0
VERTEX
  8
0
  5
6AF
 10
-172.538
 20
242.667
 30
0.000000
  70
    32
  0
VERTEX
  8
0
  5
6B0
 10
-172.562
 20
242.632
 30
0.000000
  70
    32
  0
VERTEX
  8
0
  5
6B1
 10
-172.585
 20
242.596
 30
0.000000
  70
    32
  0
VERTEX
  8
0
  5
6B2
 10
-172.608
 20
242.561
 30
0.000000
  70
    32
  0
VERTEX
  8
0
  5
6B3
 10
-172.631
 20
242.526
 30
0.000000
  70
    32
  0
VERTEX
  8
0
  5
6B4
 10
-172.654
 20
242.490
 30
0.000000
  70
    32
  0
VERTEX
  8
0
  5
6B5
 10
-172.677
 20
242.455
 30
0.000000
  70
    32
  0
VERTEX
  8
0
  5
6B6
 10
-172.700
 20
242.419
 30
0.000000
  70
    32
  0
VERTEX
  8
0
  5
6B7
 10
-172.723
 20
242.384
 30
0.000000
  70
    32
  0
VERTEX
  8
0
  5
6B8
 10
-172.746
 20
242.349
 30
0.000000
  70
    32
  0
VERTEX
  8
0
  5
6B9
 10
-172.769
 20
242.313
 30
0.000000
  70
    32
  0
VERTEX
  8
0
  5
6BA
 10
-172.791
 20
242.278
 30
0.000000
  70
    32
  0
VERTEX
  8
0
  5
6BB
 10
-172.813
 20
242.242
 30
0.000000
  70
    32
  0
VERTEX
  8
0
  5
6BC
 10
-172.836
 20
242.207
 30
0.000000
  70
    32
  0
VERTEX
  8
0
  5
6BD
 10
-172.858
 20
242.171
 30
0.000000
  70
    32
  0
VERTEX
  8
0
  5
6BE
 10
-172.880
 20
242.136
 30
0.000000
  70
    32
  0
VERTEX
  8
0
  5
6BF
 10
-172.902
 20
242.100
 30
0.000000
  70
    32
  0
VERTEX
  8
0
  5
6C0
 10
-172.924
 20
242.065
 30
0.000000
  70
    32
  0
VERTEX
  8
0
  5
6C1
 10
-172.945
 20
242.029
 30
0.000000
  70
    32
  0
VERTEX
  8
0
  5
6C2
 10
-172.967
 20
241.994
 30
0.000000
  70
    32
  0
VERTEX
  8
0
  5
6C3
 10
-172.988
 20
241.958
 30
0.000000
  70
    32
  0
VERTEX
  8
0
  5
6C4
 10
-173.009
 20
241.923
 30
0.000000
  70
    32
  0
VERTEX
  8
0
  5
6C5
 10
-173.031
 20
241.887
 30
0.000000
  70
    32
  0
VERTEX
  8
0
  5
6C6
 10
-173.051
 20
241.851
 30
0.000000
  70
    32
  0
VERTEX
  8
0
  5
6C7
 10
-173.072
 20
241.816
 30
0.000000
  70
    32
  0
VERTEX
  8
0
  5
6C8
 10
-173.093
 20
241.780
 30
0.000000
  70
    32
  0
VERTEX
  8
0
  5
6C9
 10
-173.113
 20
241.744
 30
0.000000
  70
    32
  0
VERTEX
  8
0
  5
6CA
 10
-173.133
 20
241.709
 30
0.000000
  70
    32
  0
VERTEX
  8
0
  5
6CB
 10
-173.153
 20
241.673
 30
0.000000
  70
    32
  0
VERTEX
  8
0
  5
6CC
 10
-173.173
 20
241.637
 30
0.000000
  70
    32
  0
VERTEX
  8
0
  5
6CD
 10
-173.193
 20
241.601
 30
0.000000
  70
    32
  0
VERTEX
  8
0
  5
6CE
 10
-173.212
 20
241.566
 30
0.000000
  70
    32
  0
VERTEX
  8
0
  5
6CF
 10
-173.231
 20
241.530
 30
0.000000
  70
    32
  0
VERTEX
  8
0
  5
6D0
 10
-173.251
 20
241.494
 30
0.000000
  70
    32
  0
VERTEX
  8
0
  5
6D1
 10
-173.269
 20
241.458
 30
0.000000
  70
    32
  0
VERTEX
  8
0
  5
6D2
 10
-173.288
 20
241.422
 30
0.000000
  70
    32
  0
VERTEX
  8
0
  5
6D3
 10
-173.306
 20
241.386
 30
0.000000
  70
    32
  0
VERTEX
  8
0
  5
6D4
 10
-173.324
 20
241.350
 30
0.000000
  70
    32
  0
VERTEX
  8
0
  5
6D5
 10
-173.342
 20
241.314
 30
0.000000
  70
    32
  0
VERTEX
  8
0
  5
6D6
 10
-173.360
 20
241.278
 30
0.000000
  70
    32
  0
VERTEX
  8
0
  5
6D7
 10
-173.377
 20
241.242
 30
0.000000
  70
    32
  0
VERTEX
  8
0
  5
6D8
 10
-173.394
 20
241.206
 30
0.000000
  70
    32
  0
VERTEX
  8
0
  5
6D9
 10
-173.411
 20
241.170
 30
0.000000
  70
    32
  0
VERTEX
  8
0
  5
6DA
 10
-173.428
 20
241.134
 30
0.000000
  70
    32
  0
VERTEX
  8
0
  5
6DB
 10
-173.444
 20
241.098
 30
0.000000
  70
    32
  0
VERTEX
  8
0
  5
6DC
 10
-173.461
 20
241.061
 30
0.000000
  70
    32
  0
VERTEX
  8
0
  5
6DD
 10
-173.476
 20
241.025
 30
0.000000
  70
    32
  0
VERTEX
  8
0
  5
6DE
 10
-173.492
 20
240.989
 30
0.000000
  70
    32
  0
VERTEX
  8
0
  5
6DF
 10
-173.507
 20
240.953
 30
0.000000
  70
    32
  0
VERTEX
  8
0
  5
6E0
 10
-173.522
 20
240.916
 30
0.000000
  70
    32
  0
VERTEX
  8
0
  5
6E1
 10
-173.537
 20
240.880
 30
0.000000
  70
    32
  0
VERTEX
  8
0
  5
6E2
 10
-173.551
 20
240.844
 30
0.000000
  70
    32
  0
VERTEX
  8
0
  5
6E3
 10
-173.565
 20
240.807
 30
0.000000
  70
    32
  0
VERTEX
  8
0
  5
6E4
 10
-173.579
 20
240.771
 30
0.000000
  70
    32
  0
VERTEX
  8
0
  5
6E5
 10
-173.593
 20
240.734
 30
0.000000
  70
    32
  0
VERTEX
  8
0
  5
6E6
 10
-173.606
 20
240.698
 30
0.000000
  70
    32
  0
VERTEX
  8
0
  5
6E7
 10
-173.619
 20
240.661
 30
0.000000
  70
    32
  0
VERTEX
  8
0
  5
6E8
 10
-173.632
 20
240.625
 30
0.000000
  70
    32
  0
VERTEX
  8
0
  5
6E9
 10
-173.644
 20
240.588
 30
0.000000
  70
    32
  0
VERTEX
  8
0
  5
6EA
 10
-173.656
 20
240.551
 30
0.000000
  70
    32
  0
VERTEX
  8
0
  5
6EB
 10
-173.668
 20
240.515
 30
0.000000
  70
    32
  0
VERTEX
  8
0
  5
6EC
 10
-173.679
 20
240.478
 30
0.000000
  70
    32
  0
VERTEX
  8
0
  5
6ED
 10
-173.691
 20
240.441
 30
0.000000
  70
    32
  0
VERTEX
  8
0
  5
6EE
 10
-173.702
 20
240.404
 30
0.000000
  70
    32
  0
VERTEX
  8
0
  5
6EF
 10
-173.712
 20
240.368
 30
0.000000
  70
    32
  0
VERTEX
  8
0
  5
6F0
 10
-173.723
 20
240.331
 30
0.000000
  70
    32
  0
VERTEX
  8
0
  5
6F1
 10
-173.733
 20
240.294
 30
0.000000
  70
    32
  0
VERTEX
  8
0
  5
6F2
 10
-173.742
 20
240.257
 30
0.000000
  70
    32
  0
VERTEX
  8
0
  5
6F3
 10
-173.752
 20
240.220
 30
0.000000
  70
    32
  0
VERTEX
  8
0
  5
6F4
 10
-173.761
 20
240.183
 30
0.000000
  70
    32
  0
VERTEX
  8
0
  5
6F5
 10
-173.770
 20
240.146
 30
0.000000
  70
    32
  0
VERTEX
  8
0
  5
6F6
 10
-173.779
 20
240.110
 30
0.000000
  70
    32
  0
VERTEX
  8
0
  5
6F7
 10
-173.787
 20
240.073
 30
0.000000
  70
    32
  0
VERTEX
  8
0
  5
6F8
 10
-173.795
 20
240.036
 30
0.000000
  70
    32
  0
VERTEX
  8
0
  5
6F9
 10
-173.803
 20
239.999
 30
0.000000
  70
    32
  0
VERTEX
  8
0
  5
6FA
 10
-173.810
 20
239.962
 30
0.000000
  70
    32
  0
VERTEX
  8
0
  5
6FB
 10
-173.817
 20
239.925
 30
0.000000
  70
    32
  0
VERTEX
  8
0
  5
6FC
 10
-173.824
 20
239.888
 30
0.000000
  70
    32
  0
VERTEX
  8
0
  5
6FD
 10
-173.831
 20
239.850
 30
0.000000
  70
    32
  0
VERTEX
  8
0
  5
6FE
 10
-173.837
 20
239.813
 30
0.000000
  70
    32
  0
VERTEX
  8
0
  5
6FF
 10
-173.843
 20
239.776
 30
0.000000
  70
    32
  0
VERTEX
  8
0
  5
700
 10
-173.849
 20
239.739
 30
0.000000
  70
    32
  0
VERTEX
  8
0
  5
701
 10
-173.854
 20
239.702
 30
0.000000
  70
    32
  0
VERTEX
  8
0
  5
702
 10
-173.859
 20
239.665
 30
0.000000
  70
    32
  0
VERTEX
  8
0
  5
703
 10
-173.864
 20
239.628
 30
0.000000
  70
    32
  0
VERTEX
  8
0
  5
704
 10
-173.869
 20
239.591
 30
0.000000
  70
    32
  0
VERTEX
  8
0
  5
705
 10
-173.873
 20
239.554
 30
0.000000
  70
    32
  0
VERTEX
  8
0
  5
706
 10
-173.877
 20
239.516
 30
0.000000
  70
    32
  0
VERTEX
  8
0
  5
707
 10
-173.881
 20
239.479
 30
0.000000
  70
    32
  0
VERTEX
  8
0
  5
708
 10
-173.884
 20
239.442
 30
0.000000
  70
    32
  0
VERTEX
  8
0
  5
709
 10
-173.887
 20
239.405
 30
0.000000
  70
    32
  0
VERTEX
  8
0
  5
70A
 10
-173.890
 20
239.368
 30
0.000000
  70
    32
  0
VERTEX
  8
0
  5
70B
 10
-173.893
 20
239.330
 30
0.000000
  70
    32
  0
VERTEX
  8
0
  5
70C
 10
-173.895
 20
239.293
 30
0.000000
  70
    32
  0
VERTEX
  8
0
  5
70D
 10
-173.897
 20
239.256
 30
0.000000
  70
    32
  0
VERTEX
  8
0
  5
70E
 10
-173.899
 20
239.219
 30
0.000000
  70
    32
  0
VERTEX
  8
0
  5
70F
 10
-173.900
 20
239.181
 30
0.000000
  70
    32
  0
VERTEX
  8
0
  5
710
 10
-173.901
 20
239.144
 30
0.000000
  70
    32
  0
VERTEX
  8
0
  5
711
 10
-173.902
 20
239.107
 30
0.000000
  70
    32
  0
VERTEX
  8
0
  5
712
 10
-173.903
 20
239.070
 30
0.000000
  70
    32
  0
VERTEX
  8
0
  5
713
 10
-173.903
 20
239.033
 30
0.000000
  70
    32
  0
VERTEX
  8
0
  5
714
 10
-173.903
 20
238.995
 30
0.000000
  70
    32
  0
VERTEX
  8
0
  5
715
 10
-173.903
 20
238.958
 30
0.000000
  70
    32
  0
VERTEX
  8
0
  5
716
 10
-173.902
 20
238.921
 30
0.000000
  70
    32
  0
VERTEX
  8
0
  5
717
 10
-173.901
 20
238.884
 30
0.000000
  70
    32
  0
VERTEX
  8
0
  5
718
 10
-173.900
 20
238.846
 30
0.000000
  70
    32
  0
VERTEX
  8
0
  5
719
 10
-173.899
 20
238.809
 30
0.000000
  70
    32
  0
VERTEX
  8
0
  5
71A
 10
-173.897
 20
238.772
 30
0.000000
  70
    32
  0
VERTEX
  8
0
  5
71B
 10
-173.895
 20
238.735
 30
0.000000
  70
    32
  0
VERTEX
  8
0
  5
71C
 10
-173.893
 20
238.697
 30
0.000000
  70
    32
  0
VERTEX
  8
0
  5
71D
 10
-173.890
 20
238.660
 30
0.000000
  70
    32
  0
VERTEX
  8
0
  5
71E
 10
-173.887
 20
238.623
 30
0.000000
  70
    32
  0
VERTEX
  8
0
  5
71F
 10
-173.884
 20
238.586
 30
0.000000
  70
    32
  0
VERTEX
  8
0
  5
720
 10
-173.881
 20
238.549
 30
0.000000
  70
    32
  0
VERTEX
  8
0
  5
721
 10
-173.877
 20
238.511
 30
0.000000
  70
    32
  0
VERTEX
  8
0
  5
722
 10
-173.873
 20
238.474
 30
0.000000
  70
    32
  0
VERTEX
  8
0
  5
723
 10
-173.869
 20
238.437
 30
0.000000
  70
    32
  0
VERTEX
  8
0
  5
724
 10
-173.864
 20
238.400
 30
0.000000
  70
    32
  0
VERTEX
  8
0
  5
725
 10
-173.859
 20
238.363
 30
0.000000
  70
    32
  0
VERTEX
  8
0
  5
726
 10
-173.854
 20
238.326
 30
0.000000
  70
    32
  0
VERTEX
  8
0
  5
727
 10
-173.849
 20
238.289
 30
0.000000
  70
    32
  0
VERTEX
  8
0
  5
728
 10
-173.843
 20
238.252
 30
0.000000
  70
    32
  0
VERTEX
  8
0
  5
729
 10
-173.837
 20
238.214
 30
0.000000
  70
    32
  0
VERTEX
  8
0
  5
72A
 10
-173.831
 20
238.177
 30
0.000000
  70
    32
  0
VERTEX
  8
0
  5
72B
 10
-173.824
 20
238.140
 30
0.000000
  70
    32
  0
VERTEX
  8
0
  5
72C
 10
-173.817
 20
238.103
 30
0.000000
  70
    32
  0
VERTEX
  8
0
  5
72D
 10
-173.810
 20
238.066
 30
0.000000
  70
    32
  0
VERTEX
  8
0
  5
72E
 10
-173.803
 20
238.029
 30
0.000000
  70
    32
  0
VERTEX
  8
0
  5
72F
 10
-173.795
 20
237.992
 30
0.000000
  70
    32
  0
VERTEX
  8
0
  5
730
 10
-173.787
 20
237.955
 30
0.000000
  70
    32
  0
VERTEX
  8
0
  5
731
 10
-173.779
 20
237.918
 30
0.000000
  70
    32
  0
VERTEX
  8
0
  5
732
 10
-173.770
 20
237.881
 30
0.000000
  70
    32
  0
VERTEX
  8
0
  5
733
 10
-173.761
 20
237.844
 30
0.000000
  70
    32
  0
VERTEX
  8
0
  5
734
 10
-173.752
 20
237.808
 30
0.000000
  70
    32
  0
VERTEX
  8
0
  5
735
 10
-173.742
 20
237.771
 30
0.000000
  70
    32
  0
VERTEX
  8
0
  5
736
 10
-173.733
 20
237.734
 30
0.000000
  70
    32
  0
VERTEX
  8
0
  5
737
 10
-173.723
 20
237.697
 30
0.000000
  70
    32
  0
VERTEX
  8
0
  5
738
 10
-173.712
 20
237.660
 30
0.000000
  70
    32
  0
VERTEX
  8
0
  5
739
 10
-173.702
 20
237.623
 30
0.000000
  70
    32
  0
VERTEX
  8
0
  5
73A
 10
-173.691
 20
237.587
 30
0.000000
  70
    32
  0
VERTEX
  8
0
  5
73B
 10
-173.679
 20
237.550
 30
0.000000
  70
    32
  0
VERTEX
  8
0
  5
73C
 10
-173.668
 20
237.513
 30
0.000000
  70
    32
  0
VERTEX
  8
0
  5
73D
 10
-173.656
 20
237.477
 30
0.000000
  70
    32
  0
VERTEX
  8
0
  5
73E
 10
-173.644
 20
237.440
 30
0.000000
  70
    32
  0
VERTEX
  8
0
  5
73F
 10
-173.632
 20
237.403
 30
0.000000
  70
    32
  0
VERTEX
  8
0
  5
740
 10
-173.619
 20
237.367
 30
0.000000
  70
    32
  0
VERTEX
  8
0
  5
741
 10
-173.606
 20
237.330
 30
0.000000
  70
    32
  0
VERTEX
  8
0
  5
742
 10
-173.593
 20
237.294
 30
0.000000
  70
    32
  0
VERTEX
  8
0
  5
743
 10
-173.579
 20
237.257
 30
0.000000
  70
    32
  0
VERTEX
  8
0
  5
744
 10
-173.565
 20
237.221
 30
0.000000
  70
    32
  0
VERTEX
  8
0
  5
745
 10
-173.551
 20
237.184
 30
0.000000
  70
    32
  0
VERTEX
  8
0
  5
746
 10
-173.537
 20
237.148
 30
0.000000
  70
    32
  0
VERTEX
  8
0
  5
747
 10
-173.522
 20
237.111
 30
0.000000
  70
    32
  0
VERTEX
  8
0
  5
748
 10
-173.507
 20
237.075
 30
0.000000
  70
    32
  0
VERTEX
  8
0
  5
749
 10
-173.492
 20
237.039
 30
0.000000
  70
    32
  0
VERTEX
  8
0
  5
74A
 10
-173.476
 20
237.003
 30
0.000000
  70
    32
  0
VERTEX
  8
0
  5
74B
 10
-173.461
 20
236.966
 30
0.000000
  70
    32
  0
VERTEX
  8
0
  5
74C
 10
-173.444
 20
236.930
 30
0.000000
  70
    32
  0
VERTEX
  8
0
  5
74D
 10
-173.428
 20
236.894
 30
0.000000
  70
    32
  0
VERTEX
  8
0
  5
74E
 10
-173.411
 20
236.858
 30
0.000000
  70
    32
  0
VERTEX
  8
0
  5
74F
 10
-173.394
 20
236.822
 30
0.000000
  70
    32
  0
VERTEX
  8
0
  5
750
 10
-173.377
 20
236.786
 30
0.000000
  70
    32
  0
VERTEX
  8
0
  5
751
 10
-173.360
 20
236.750
 30
0.000000
  70
    32
  0
VERTEX
  8
0
  5
752
 10
-173.342
 20
236.714
 30
0.000000
  70
    32
  0
VERTEX
  8
0
  5
753
 10
-173.324
 20
236.678
 30
0.000000
  70
    32
  0
VERTEX
  8
0
  5
754
 10
-173.306
 20
236.642
 30
0.000000
  70
    32
  0
VERTEX
  8
0
  5
755
 10
-173.288
 20
236.606
 30
0.000000
  70
    32
  0
VERTEX
  8
0
  5
756
 10
-173.269
 20
236.570
 30
0.000000
  70
    32
  0
VERTEX
  8
0
  5
757
 10
-173.251
 20
236.534
 30
0.000000
  70
    32
  0
VERTEX
  8
0
  5
758
 10
-173.231
 20
236.498
 30
0.000000
  70
    32
  0
VERTEX
  8
0
  5
759
 10
-173.212
 20
236.462
 30
0.000000
  70
    32
  0
VERTEX
  8
0
  5
75A
 10
-173.193
 20
236.426
 30
0.000000
  70
    32
  0
VERTEX
  8
0
  5
75B
 10
-173.173
 20
236.391
 30
0.000000
  70
    32
  0
VERTEX
  8
0
  5
75C
 10
-173.153
 20
236.355
 30
0.000000
  70
    32
  0
VERTEX
  8
0
  5
75D
 10
-173.133
 20
236.319
 30
0.000000
  70
    32
  0
VERTEX
  8
0
  5
75E
 10
-173.113
 20
236.283
 30
0.000000
  70
    32
  0
VERTEX
  8
0
  5
75F
 10
-173.093
 20
236.248
 30
0.000000
  70
    32
  0
VERTEX
  8
0
  5
760
 10
-173.072
 20
236.212
 30
0.000000
  70
    32
  0
VERTEX
  8
0
  5
761
 10
-173.051
 20
236.176
 30
0.000000
  70
    32
  0
VERTEX
  8
0
  5
762
 10
-173.031
 20
236.141
 30
0.000000
  70
    32
  0
VERTEX
  8
0
  5
763
 10
-173.009
 20
236.105
 30
0.000000
  70
    32
  0
VERTEX
  8
0
  5
764
 10
-172.988
 20
236.070
 30
0.000000
  70
    32
  0
VERTEX
  8
0
  5
765
 10
-172.967
 20
236.034
 30
0.000000
  70
    32
  0
VERTEX
  8
0
  5
766
 10
-172.945
 20
235.999
 30
0.000000
  70
    32
  0
VERTEX
  8
0
  5
767
 10
-172.924
 20
235.963
 30
0.000000
  70
    32
  0
VERTEX
  8
0
  5
768
 10
-172.902
 20
235.927
 30
0.000000
  70
    32
  0
VERTEX
  8
0
  5
769
 10
-172.880
 20
235.892
 30
0.000000
  70
    32
  0
VERTEX
  8
0
  5
76A
 10
-172.858
 20
235.856
 30
0.000000
  70
    32
  0
VERTEX
  8
0
  5
76B
 10
-172.836
 20
235.821
 30
0.000000
  70
    32
  0
VERTEX
  8
0
  5
76C
 10
-172.813
 20
235.786
 30
0.000000
  70
    32
  0
VERTEX
  8
0
  5
76D
 10
-172.791
 20
235.750
 30
0.000000
  70
    32
  0
VERTEX
  8
0
  5
76E
 10
-172.769
 20
235.715
 30
0.000000
  70
    32
  0
VERTEX
  8
0
  5
76F
 10
-172.746
 20
235.679
 30
0.000000
  70
    32
  0
VERTEX
  8
0
  5
770
 10
-172.723
 20
235.644
 30
0.000000
  70
    32
  0
VERTEX
  8
0
  5
771
 10
-172.700
 20
235.608
 30
0.000000
  70
    32
  0
VERTEX
  8
0
  5
772
 10
-172.677
 20
235.573
 30
0.000000
  70
    32
  0
VERTEX
  8
0
  5
773
 10
-172.654
 20
235.538
 30
0.000000
  70
    32
  0
VERTEX
  8
0
  5
774
 10
-172.631
 20
235.502
 30
0.000000
  70
    32
  0
VERTEX
  8
0
  5
775
 10
-172.608
 20
235.467
 30
0.000000
  70
    32
  0
VERTEX
  8
0
  5
776
 10
-172.585
 20
235.432
 30
0.000000
  70
    32
  0
VERTEX
  8
0
  5
777
 10
-172.562
 20
235.396
 30
0.000000
  70
    32
  0
VERTEX
  8
0
  5
778
 10
-172.538
 20
235.361
 30
0.000000
  70
    32
  0
VERTEX
  8
0
  5
779
 10
-172.515
 20
235.326
 30
0.000000
  70
    32
  0
VERTEX
  8
0
  5
77A
 10
-172.492
 20
235.290
 30
0.000000
  70
    32
  0
VERTEX
  8
0
  5
77B
 10
-172.468
 20
235.255
 30
0.000000
  70
    32
  0
VERTEX
  8
0
  5
77C
 10
-172.445
 20
235.220
 30
0.000000
  70
    32
  0
VERTEX
  8
0
  5
77D
 10
-172.421
 20
235.184
 30
0.000000
  70
    32
  0
VERTEX
  8
0
  5
77E
 10
-172.398
 20
235.149
 30
0.000000
  70
    32
  0
VERTEX
  8
0
  5
77F
 10
-172.374
 20
235.114
 30
0.000000
  70
    32
  0
VERTEX
  8
0
  5
780
 10
-172.350
 20
235.078
 30
0.000000
  70
    32
  0
VERTEX
  8
0
  5
781
 10
-172.327
 20
235.043
 30
0.000000
  70
    32
  0
VERTEX
  8
0
  5
782
 10
-172.303
 20
235.008
 30
0.000000
  70
    32
  0
VERTEX
  8
0
  5
783
 10
-172.279
 20
234.972
 30
0.000000
  70
    32
  0
SEQEND
  8
0
  5
784
  0
POLYLINE
  8
0
  5
785
  66
     1
 10
0.000000
 20
0.000000
 30
0.000000
  70
     8
  0
VERTEX
  8
0
  5
786
 10
-172.279
 20
267.304
 30
0.000000
  70
    32
  0
VERTEX
  8
0
  5
787
 10
-172.303
 20
267.269
 30
0.000000
  70
    32
  0
VERTEX
  8
0
  5
788
 10
-172.327
 20
267.233
 30
0.000000
  70
    32
  0
VERTEX
  8
0
  5
789
 10
-172.350
 20
267.198
 30
0.000000
  70
    32
  0
VERTEX
  8
0
  5
78A
 10
-172.374
 20
267.163
 30
0.000000
  70
    32
  0
VERTEX
  8
0
  5
78B
 10
-172.398
 20
267.128
 30
0.000000
  70
    32
  0
VERTEX
  8
0
  5
78C
 10
-172.421
 20
267.092
 30
0.000000
  70
    32
  0
VERTEX
  8
0
  5
78D
 10
-172.445
 20
267.057
 30
0.000000
  70
    32
  0
VERTEX
  8
0
  5
78E
 10
-172.468
 20
267.022
 30
0.000000
  70
    32
  0
VERTEX
  8
0
  5
78F
 10
-172.492
 20
266.986
 30
0.000000
  70
    32
  0
VERTEX
  8
0
  5
790
 10
-172.515
 20
266.951
 30
0.000000
  70
    32
  0
VERTEX
  8
0
  5
791
 10
-172.538
 20
266.916
 30
0.000000
  70
    32
  0
VERTEX
  8
0
  5
792
 10
-172.562
 20
266.880
 30
0.000000
  70
    32
  0
VERTEX
  8
0
  5
793
 10
-172.585
 20
266.845
 30
0.000000
  70
    32
  0
VERTEX
  8
0
  5
794
 10
-172.608
 20
266.810
 30
0.000000
  70
    32
  0
VERTEX
  8
0
  5
795
 10
-172.631
 20
266.774
 30
0.000000
  70
    32
  0
VERTEX
  8
0
  5
796
 10
-172.654
 20
266.739
 30
0.000000
  70
    32
  0
VERTEX
  8
0
  5
797
 10
-172.677
 20
266.704
 30
0.000000
  70
    32
  0
VERTEX
  8
0
  5
798
 10
-172.700
 20
266.668
 30
0.000000
  70
    32
  0
VERTEX
  8
0
  5
799
 10
-172.723
 20
266.633
 30
0.000000
  70
    32
  0
VERTEX
  8
0
  5
79A
 10
-172.746
 20
266.597
 30
0.000000
  70
    32
  0
VERTEX
  8
0
  5
79B
 10
-172.769
 20
266.562
 30
0.000000
  70
    32
  0
VERTEX
  8
0
  5
79C
 10
-172.791
 20
266.526
 30
0.000000
  70
    32
  0
VERTEX
  8
0
  5
79D
 10
-172.813
 20
266.491
 30
0.000000
  70
    32
  0
VERTEX
  8
0
  5
79E
 10
-172.836
 20
266.456
 30
0.000000
  70
    32
  0
VERTEX
  8
0
  5
79F
 10
-172.858
 20
266.420
 30
0.000000
  70
    32
  0
VERTEX
  8
0
  5
7A0
 10
-172.880
 20
266.385
 30
0.000000
  70
    32
  0
VERTEX
  8
0
  5
7A1
 10
-172.902
 20
266.349
 30
0.000000
  70
    32
  0
VERTEX
  8
0
  5
7A2
 10
-172.924
 20
266.314
 30
0.000000
  70
    32
  0
VERTEX
  8
0
  5
7A3
 10
-172.945
 20
266.278
 30
0.000000
  70
    32
  0
VERTEX
  8
0
  5
7A4
 10
-172.967
 20
266.242
 30
0.000000
  70
    32
  0
VERTEX
  8
0
  5
7A5
 10
-172.988
 20
266.207
 30
0.000000
  70
    32
  0
VERTEX
  8
0
  5
7A6
 10
-173.009
 20
266.171
 30
0.000000
  70
    32
  0
VERTEX
  8
0
  5
7A7
 10
-173.031
 20
266.136
 30
0.000000
  70
    32
  0
VERTEX
  8
0
  5
7A8
 10
-173.051
 20
266.100
 30
0.000000
  70
    32
  0
VERTEX
  8
0
  5
7A9
 10
-173.072
 20
266.064
 30
0.000000
  70
    32
  0
VERTEX
  8
0
  5
7AA
 10
-173.093
 20
266.029
 30
0.000000
  70
    32
  0
VERTEX
  8
0
  5
7AB
 10
-173.113
 20
265.993
 30
0.000000
  70
    32
  0
VERTEX
  8
0
  5
7AC
 10
-173.133
 20
265.957
 30
0.000000
  70
    32
  0
VERTEX
  8
0
  5
7AD
 10
-173.153
 20
265.922
 30
0.000000
  70
    32
  0
VERTEX
  8
0
  5
7AE
 10
-173.173
 20
265.886
 30
0.000000
  70
    32
  0
VERTEX
  8
0
  5
7AF
 10
-173.193
 20
265.850
 30
0.000000
  70
    32
  0
VERTEX
  8
0
  5
7B0
 10
-173.212
 20
265.814
 30
0.000000
  70
    32
  0
VERTEX
  8
0
  5
7B1
 10
-173.231
 20
265.778
 30
0.000000
  70
    32
  0
VERTEX
  8
0
  5
7B2
 10
-173.251
 20
265.743
 30
0.000000
  70
    32
  0
VERTEX
  8
0
  5
7B3
 10
-173.269
 20
265.707
 30
0.000000
  70
    32
  0
VERTEX
  8
0
  5
7B4
 10
-173.288
 20
265.671
 30
0.000000
  70
    32
  0
VERTEX
  8
0
  5
7B5
 10
-173.306
 20
265.635
 30
0.000000
  70
    32
  0
VERTEX
  8
0
  5
7B6
 10
-173.324
 20
265.599
 30
0.000000
  70
    32
  0
VERTEX
  8
0
  5
7B7
 10
-173.342
 20
265.563
 30
0.000000
  70
    32
  0
VERTEX
  8
0
  5
7B8
 10
-173.360
 20
265.527
 30
0.000000
  70
    32
  0
VERTEX
  8
0
  5
7B9
 10
-173.377
 20
265.491
 30
0.000000
  70
    32
  0
VERTEX
  8
0
  5
7BA
 10
-173.394
 20
265.455
 30
0.000000
  70
    32
  0
VERTEX
  8
0
  5
7BB
 10
-173.411
 20
265.419
 30
0.000000
  70
    32
  0
VERTEX
  8
0
  5
7BC
 10
-173.428
 20
265.383
 30
0.000000
  70
    32
  0
VERTEX
  8
0
  5
7BD
 10
-173.444
 20
265.346
 30
0.000000
  70
    32
  0
VERTEX
  8
0
  5
7BE
 10
-173.461
 20
265.310
 30
0.000000
  70
    32
  0
VERTEX
  8
0
  5
7BF
 10
-173.476
 20
265.274
 30
0.000000
  70
    32
  0
VERTEX
  8
0
  5
7C0
 10
-173.492
 20
265.238
 30
0.000000
  70
    32
  0
VERTEX
  8
0
  5
7C1
 10
-173.507
 20
265.201
 30
0.000000
  70
    32
  0
VERTEX
  8
0
  5
7C2
 10
-173.522
 20
265.165
 30
0.000000
  70
    32
  0
VERTEX
  8
0
  5
7C3
 10
-173.537
 20
265.129
 30
0.000000
  70
    32
  0
VERTEX
  8
0
  5
7C4
 10
-173.551
 20
265.092
 30
0.000000
  70
    32
  0
VERTEX
  8
0
  5
7C5
 10
-173.565
 20
265.056
 30
0.000000
  70
    32
  0
VERTEX
  8
0
  5
7C6
 10
-173.579
 20
265.019
 30
0.000000
  70
    32
  0
VERTEX
  8
0
  5
7C7
 10
-173.593
 20
264.983
 30
0.000000
  70
    32
  0
VERTEX
  8
0
  5
7C8
 10
-173.606
 20
264.946
 30
0.000000
  70
    32
  0
VERTEX
  8
0
  5
7C9
 10
-173.619
 20
264.910
 30
0.000000
  70
    32
  0
VERTEX
  8
0
  5
7CA
 10
-173.632
 20
264.873
 30
0.000000
  70
    32
  0
VERTEX
  8
0
  5
7CB
 10
-173.644
 20
264.837
 30
0.000000
  70
    32
  0
VERTEX
  8
0
  5
7CC
 10
-173.656
 20
264.800
 30
0.000000
  70
    32
  0
VERTEX
  8
0
  5
7CD
 10
-173.668
 20
264.763
 30
0.000000
  70
    32
  0
VERTEX
  8
0
  5
7CE
 10
-173.679
 20
264.727
 30
0.000000
  70
    32
  0
VERTEX
  8
0
  5
7CF
 10
-173.691
 20
264.690
 30
0.000000
  70
    32
  0
VERTEX
  8
0
  5
7D0
 10
-173.702
 20
264.653
 30
0.000000
  70
    32
  0
VERTEX
  8
0
  5
7D1
 10
-173.712
 20
264.616
 30
0.000000
  70
    32
  0
VERTEX
  8
0
  5
7D2
 10
-173.723
 20
264.580
 30
0.000000
  70
    32
  0
VERTEX
  8
0
  5
7D3
 10
-173.733
 20
264.543
 30
0.000000
  70
    32
  0
VERTEX
  8
0
  5
7D4
 10
-173.742
 20
264.506
 30
0.000000
  70
    32
  0
VERTEX
  8
0
  5
7D5
 10
-173.752
 20
264.469
 30
0.000000
  70
    32
  0
VERTEX
  8
0
  5
7D6
 10
-173.761
 20
264.432
 30
0.000000
  70
    32
  0
VERTEX
  8
0
  5
7D7
 10
-173.770
 20
264.395
 30
0.000000
  70
    32
  0
VERTEX
  8
0
  5
7D8
 10
-173.779
 20
264.358
 30
0.000000
  70
    32
  0
VERTEX
  8
0
  5
7D9
 10
-173.787
 20
264.321
 30
0.000000
  70
    32
  0
VERTEX
  8
0
  5
7DA
 10
-173.795
 20
264.284
 30
0.000000
  70
    32
  0
VERTEX
  8
0
  5
7DB
 10
-173.803
 20
264.247
 30
0.000000
  70
    32
  0
VERTEX
  8
0
  5
7DC
 10
-173.810
 20
264.210
 30
0.000000
  70
    32
  0
VERTEX
  8
0
  5
7DD
 10
-173.817
 20
264.173
 30
0.000000
  70
    32
  0
VERTEX
  8
0
  5
7DE
 10
-173.824
 20
264.136
 30
0.000000
  70
    32
  0
VERTEX
  8
0
  5
7DF
 10
-173.831
 20
264.099
 30
0.000000
  70
    32
  0
VERTEX
  8
0
  5
7E0
 10
-173.837
 20
264.062
 30
0.000000
  70
    32
  0
VERTEX
  8
0
  5
7E1
 10
-173.843
 20
264.025
 30
0.000000
  70
    32
  0
VERTEX
  8
0
  5
7E2
 10
-173.849
 20
263.988
 30
0.000000
  70
    32
  0
VERTEX
  8
0
  5
7E3
 10
-173.854
 20
263.951
 30
0.000000
  70
    32
  0
VERTEX
  8
0
  5
7E4
 10
-173.859
 20
263.914
 30
0.000000
  70
    32
  0
VERTEX
  8
0
  5
7E5
 10
-173.864
 20
263.877
 30
0.000000
  70
    32
  0
VERTEX
  8
0
  5
7E6
 10
-173.869
 20
263.839
 30
0.000000
  70
    32
  0
VERTEX
  8
0
  5
7E7
 10
-173.873
 20
263.802
 30
0.000000
  70
    32
  0
VERTEX
  8
0
  5
7E8
 10
-173.877
 20
263.765
 30
0.000000
  70
    32
  0
VERTEX
  8
0
  5
7E9
 10
-173.881
 20
263.728
 30
0.000000
  70
    32
  0
VERTEX
  8
0
  5
7EA
 10
-173.884
 20
263.691
 30
0.000000
  70
    32
  0
VERTEX
  8
0
  5
7EB
 10
-173.887
 20
263.653
 30
0.000000
  70
    32
  0
VERTEX
  8
0
  5
7EC
 10
-173.890
 20
263.616
 30
0.000000
  70
    32
  0
VERTEX
  8
0
  5
7ED
 10
-173.893
 20
263.579
 30
0.000000
  70
    32
  0
VERTEX
  8
0
  5
7EE
 10
-173.895
 20
263.542
 30
0.000000
  70
    32
  0
VERTEX
  8
0
  5
7EF
 10
-173.897
 20
263.505
 30
0.000000
  70
    32
  0
VERTEX
  8
0
  5
7F0
 10
-173.899
 20
263.467
 30
0.000000
  70
    32
  0
VERTEX
  8
0
  5
7F1
 10
-173.900
 20
263.430
 30
0.000000
  70
    32
  0
VERTEX
  8
0
  5
7F2
 10
-173.901
 20
263.393
 30
0.000000
  70
    32
  0
VERTEX
  8
0
  5
7F3
 10
-173.902
 20
263.356
 30
0.000000
  70
    32
  0
VERTEX
  8
0
  5
7F4
 10
-173.903
 20
263.318
 30
0.000000
  70
    32
  0
VERTEX
  8
0
  5
7F5
 10
-173.903
 20
263.281
 30
0.000000
  70
    32
  0
VERTEX
  8
0
  5
7F6
 10
-173.903
 20
263.244
 30
0.000000
  70
    32
  0
VERTEX
  8
0
  5
7F7
 10
-173.903
 20
263.207
 30
0.000000
  70
    32
  0
VERTEX
  8
0
  5
7F8
 10
-173.902
 20
263.170
 30
0.000000
  70
    32
  0
VERTEX
  8
0
  5
7F9
 10
-173.901
 20
263.132
 30
0.000000
  70
    32
  0
VERTEX
  8
0
  5
7FA
 10
-173.900
 20
263.095
 30
0.000000
  70
    32
  0
VERTEX
  8
0
  5
7FB
 10
-173.899
 20
263.058
 30
0.000000
  70
    32
  0
VERTEX
  8
0
  5
7FC
 10
-173.897
 20
263.021
 30
0.000000
  70
    32
  0
VERTEX
  8
0
  5
7FD
 10
-173.895
 20
262.983
 30
0.000000
  70
    32
  0
VERTEX
  8
0
  5
7FE
 10
-173.893
 20
262.946
 30
0.000000
  70
    32
  0
VERTEX
  8
0
  5
7FF
 10
-173.890
 20
262.909
 30
0.000000
  70
    32
  0
VERTEX
  8
0
  5
800
 10
-173.887
 20
262.872
 30
0.000000
  70
    32
  0
VERTEX
  8
0
  5
801
 10
-173.884
 20
262.835
 30
0.000000
  70
    32
  0
VERTEX
  8
0
  5
802
 10
-173.881
 20
262.797
 30
0.000000
  70
    32
  0
VERTEX
  8
0
  5
803
 10
-173.877
 20
262.760
 30
0.000000
  70
    32
  0
VERTEX
  8
0
  5
804
 10
-173.873
 20
262.723
 30
0.000000
  70
    32
  0
VERTEX
  8
0
  5
805
 10
-173.869
 20
262.686
 30
0.000000
  70
    32
  0
VERTEX
  8
0
  5
806
 10
-173.864
 20
262.649
 30
0.000000
  70
    32
  0
VERTEX
  8
0
  5
807
 10
-173.859
 20
262.612
 30
0.000000
  70
    32
  0
VERTEX
  8
0
  5
808
 10
-173.854
 20
262.574
 30
0.000000
  70
    32
  0
VERTEX
  8
0
  5
809
 10
-173.849
 20
262.537
 30
0.000000
  70
    32
  0
VERTEX
  8
0
  5
80A
 10
-173.843
 20
262.500
 30
0.000000
  70
    32
  0
VERTEX
  8
0
  5
80B
 10
-173.837
 20
262.463
 30
0.000000
  70
    32
  0
VERTEX
  8
0
  5
80C
 10
-173.831
 20
262.426
 30
0.000000
  70
    32
  0
VERTEX
  8
0
  5
80D
 10
-173.824
 20
262.389
 30
0.000000
  70
    32
  0
VERTEX
  8
0
  5
80E
 10
-173.817
 20
262.352
 30
0.000000
  70
    32
  0
VERTEX
  8
0
  5
80F
 10
-173.810
 20
262.315
 30
0.000000
  70
    32
  0
VERTEX
  8
0
  5
810
 10
-173.803
 20
262.278
 30
0.000000
  70
    32
  0
VERTEX
  8
0
  5
811
 10
-173.795
 20
262.241
 30
0.000000
  70
    32
  0
VERTEX
  8
0
  5
812
 10
-173.787
 20
262.204
 30
0.000000
  70
    32
  0
VERTEX
  8
0
  5
813
 10
-173.779
 20
262.167
 30
0.000000
  70
    32
  0
VERTEX
  8
0
  5
814
 10
-173.770
 20
262.130
 30
0.000000
  70
    32
  0
VERTEX
  8
0
  5
815
 10
-173.761
 20
262.093
 30
0.000000
  70
    32
  0
VERTEX
  8
0
  5
816
 10
-173.752
 20
262.056
 30
0.000000
  70
    32
  0
VERTEX
  8
0
  5
817
 10
-173.742
 20
262.019
 30
0.000000
  70
    32
  0
VERTEX
  8
0
  5
818
 10
-173.733
 20
261.983
 30
0.000000
  70
    32
  0
VERTEX
  8
0
  5
819
 10
-173.723
 20
261.946
 30
0.000000
  70
    32
  0
VERTEX
  8
0
  5
81A
 10
-173.712
 20
261.909
 30
0.000000
  70
    32
  0
VERTEX
  8
0
  5
81B
 10
-173.702
 20
261.872
 30
0.000000
  70
    32
  0
VERTEX
  8
0
  5
81C
 10
-173.691
 20
261.835
 30
0.000000
  70
    32
  0
VERTEX
  8
0
  5
81D
 10
-173.679
 20
261.799
 30
0.000000
  70
    32
  0
VERTEX
  8
0
  5
81E
 10
-173.668
 20
261.762
 30
0.000000
  70
    32
  0
VERTEX
  8
0
  5
81F
 10
-173.656
 20
261.725
 30
0.000000
  70
    32
  0
VERTEX
  8
0
  5
820
 10
-173.644
 20
261.689
 30
0.000000
  70
    32
  0
VERTEX
  8
0
  5
821
 10
-173.632
 20
261.652
 30
0.000000
  70
    32
  0
VERTEX
  8
0
  5
822
 10
-173.619
 20
261.615
 30
0.000000
  70
    32
  0
VERTEX
  8
0
  5
823
 10
-173.606
 20
261.579
 30
0.000000
  70
    32
  0
VERTEX
  8
0
  5
824
 10
-173.593
 20
261.542
 30
0.000000
  70
    32
  0
VERTEX
  8
0
  5
825
 10
-173.579
 20
261.506
 30
0.000000
  70
    32
  0
VERTEX
  8
0
  5
826
 10
-173.565
 20
261.469
 30
0.000000
  70
    32
  0
VERTEX
  8
0
  5
827
 10
-173.551
 20
261.433
 30
0.000000
  70
    32
  0
VERTEX
  8
0
  5
828
 10
-173.537
 20
261.397
 30
0.000000
  70
    32
  0
VERTEX
  8
0
  5
829
 10
-173.522
 20
261.360
 30
0.000000
  70
    32
  0
VERTEX
  8
0
  5
82A
 10
-173.507
 20
261.324
 30
0.000000
  70
    32
  0
VERTEX
  8
0
  5
82B
 10
-173.492
 20
261.288
 30
0.000000
  70
    32
  0
VERTEX
  8
0
  5
82C
 10
-173.476
 20
261.251
 30
0.000000
  70
    32
  0
VERTEX
  8
0
  5
82D
 10
-173.461
 20
261.215
 30
0.000000
  70
    32
  0
VERTEX
  8
0
  5
82E
 10
-173.444
 20
261.179
 30
0.000000
  70
    32
  0
VERTEX
  8
0
  5
82F
 10
-173.428
 20
261.143
 30
0.000000
  70
    32
  0
VERTEX
  8
0
  5
830
 10
-173.411
 20
261.107
 30
0.000000
  70
    32
  0
VERTEX
  8
0
  5
831
 10
-173.394
 20
261.070
 30
0.000000
  70
    32
  0
VERTEX
  8
0
  5
832
 10
-173.377
 20
261.034
 30
0.000000
  70
    32
  0
VERTEX
  8
0
  5
833
 10
-173.360
 20
260.998
 30
0.000000
  70
    32
  0
VERTEX
  8
0
  5
834
 10
-173.342
 20
260.962
 30
0.000000
  70
    32
  0
VERTEX
  8
0
  5
835
 10
-173.324
 20
260.926
 30
0.000000
  70
    32
  0
VERTEX
  8
0
  5
836
 10
-173.306
 20
260.890
 30
0.000000
  70
    32
  0
VERTEX
  8
0
  5
837
 10
-173.288
 20
260.854
 30
0.000000
  70
    32
  0
VERTEX
  8
0
  5
838
 10
-173.269
 20
260.819
 30
0.000000
  70
    32
  0
VERTEX
  8
0
  5
839
 10
-173.251
 20
260.783
 30
0.000000
  70
    32
  0
VERTEX
  8
0
  5
83A
 10
-173.231
 20
260.747
 30
0.000000
  70
    32
  0
VERTEX
  8
0
  5
83B
 10
-173.212
 20
260.711
 30
0.000000
  70
    32
  0
VERTEX
  8
0
  5
83C
 10
-173.193
 20
260.675
 30
0.000000
  70
    32
  0
VERTEX
  8
0
  5
83D
 10
-173.173
 20
260.639
 30
0.000000
  70
    32
  0
VERTEX
  8
0
  5
83E
 10
-173.153
 20
260.604
 30
0.000000
  70
    32
  0
VERTEX
  8
0
  5
83F
 10
-173.133
 20
260.568
 30
0.000000
  70
    32
  0
VERTEX
  8
0
  5
840
 10
-173.113
 20
260.532
 30
0.000000
  70
    32
  0
VERTEX
  8
0
  5
841
 10
-173.093
 20
260.497
 30
0.000000
  70
    32
  0
VERTEX
  8
0
  5
842
 10
-173.072
 20
260.461
 30
0.000000
  70
    32
  0
VERTEX
  8
0
  5
843
 10
-173.051
 20
260.425
 30
0.000000
  70
    32
  0
VERTEX
  8
0
  5
844
 10
-173.031
 20
260.390
 30
0.000000
  70
    32
  0
VERTEX
  8
0
  5
845
 10
-173.009
 20
260.354
 30
0.000000
  70
    32
  0
VERTEX
  8
0
  5
846
 10
-172.988
 20
260.318
 30
0.000000
  70
    32
  0
VERTEX
  8
0
  5
847
 10
-172.967
 20
260.283
 30
0.000000
  70
    32
  0
VERTEX
  8
0
  5
848
 10
-172.945
 20
260.247
 30
0.000000
  70
    32
  0
VERTEX
  8
0
  5
849
 10
-172.924
 20
260.212
 30
0.000000
  70
    32
  0
VERTEX
  8
0
  5
84A
 10
-172.902
 20
260.176
 30
0.000000
  70
    32
  0
VERTEX
  8
0
  5
84B
 10
-172.880
 20
260.141
 30
0.000000
  70
    32
  0
VERTEX
  8
0
  5
84C
 10
-172.858
 20
260.105
 30
0.000000
  70
    32
  0
VERTEX
  8
0
  5
84D
 10
-172.836
 20
260.070
 30
0.000000
  70
    32
  0
VERTEX
  8
0
  5
84E
 10
-172.813
 20
260.034
 30
0.000000
  70
    32
  0
VERTEX
  8
0
  5
84F
 10
-172.791
 20
259.999
 30
0.000000
  70
    32
  0
VERTEX
  8
0
  5
850
 10
-172.769
 20
259.963
 30
0.000000
  70
    32
  0
VERTEX
  8
0
  5
851
 10
-172.746
 20
259.928
 30
0.000000
  70
    32
  0
VERTEX
  8
0
  5
852
 10
-172.723
 20
259.893
 30
0.000000
  70
    32
  0
VERTEX
  8
0
  5
853
 10
-172.700
 20
259.857
 30
0.000000
  70
    32
  0
VERTEX
  8
0
  5
854
 10
-172.677
 20
259.822
 30
0.000000
  70
    32
  0
VERTEX
  8
0
  5
855
 10
-172.654
 20
259.786
 30
0.000000
  70
    32
  0
VERTEX
  8
0
  5
856
 10
-172.631
 20
259.751
 30
0.000000
  70
    32
  0
VERTEX
  8
0
  5
857
 10
-172.608
 20
259.716
 30
0.000000
  70
    32
  0
VERTEX
  8
0
  5
858
 10
-172.585
 20
259.680
 30
0.000000
  70
    32
  0
VERTEX
  8
0
  5
859
 10
-172.562
 20
259.645
 30
0.000000
  70
    32
  0
VERTEX
  8
0
  5
85A
 10
-172.538
 20
259.610
 30
0.000000
  70
    32
  0
VERTEX
  8
0
  5
85B
 10
-172.515
 20
259.574
 30
0.000000
  70
    32
  0
VERTEX
  8
0
  5
85C
 10
-172.492
 20
259.539
 30
0.000000
  70
    32
  0
VERTEX
  8
0
  5
85D
 10
-172.468
 20
259.504
 30
0.000000
  70
    32
  0
VERTEX
  8
0
  5
85E
 10
-172.445
 20
259.468
 30
0.000000
  70
    32
  0
VERTEX
  8
0
  5
85F
 10
-172.421
 20
259.433
 30
0.000000
  70
    32
  0
VERTEX
  8
0
  5
860
 10
-172.398
 20
259.398
 30
0.000000
  70
    32
  0
VERTEX
  8
0
  5
861
 10
-172.374
 20
259.362
 30
0.000000
  70
    32
  0
VERTEX
  8
0
  5
862
 10
-172.350
 20
259.327
 30
0.000000
  70
    32
  0
VERTEX
  8
0
  5
863
 10
-172.327
 20
259.292
 30
0.000000
  70
    32
  0
VERTEX
  8
0
  5
864
 10
-172.303
 20
259.256
 30
0.000000
  70
    32
  0
VERTEX
  8
0
  5
865
 10
-172.279
 20
259.221
 30
0.000000
  70
    32
  0
SEQEND
  8
0
  5
866
  0
POLYLINE
  8
0
  5
867
  66
     1
 10
0.000000
 20
0.000000
 30
0.000000
  70
     8
  0
VERTEX
  8
0
  5
868
 10
-172.279
 20
259.221
 30
0.000000
  70
    32
  0
VERTEX
  8
0
  5
869
 10
-172.303
 20
259.151
 30
0.000000
  70
    32
  0
VERTEX
  8
0
  5
86A
 10
-172.327
 20
259.080
 30
0.000000
  70
    32
  0
VERTEX
  8
0
  5
86B
 10
-172.350
 20
259.009
 30
0.000000
  70
    32
  0
VERTEX
  8
0
  5
86C
 10
-172.374
 20
258.939
 30
0.000000
  70
    32
  0
VERTEX
  8
0
  5
86D
 10
-172.398
 20
258.868
 30
0.000000
  70
    32
  0
VERTEX
  8
0
  5
86E
 10
-172.421
 20
258.798
 30
0.000000
  70
    32
  0
VERTEX
  8
0
  5
86F
 10
-172.445
 20
258.727
 30
0.000000
  70
    32
  0
VERTEX
  8
0
  5
870
 10
-172.468
 20
258.656
 30
0.000000
  70
    32
  0
VERTEX
  8
0
  5
871
 10
-172.492
 20
258.586
 30
0.000000
  70
    32
  0
VERTEX
  8
0
  5
872
 10
-172.515
 20
258.515
 30
0.000000
  70
    32
  0
VERTEX
  8
0
  5
873
 10
-172.538
 20
258.444
 30
0.000000
  70
    32
  0
VERTEX
  8
0
  5
874
 10
-172.562
 20
258.374
 30
0.000000
  70
    32
  0
VERTEX
  8
0
  5
875
 10
-172.585
 20
258.303
 30
0.000000
  70
    32
  0
VERTEX
  8
0
  5
876
 10
-172.608
 20
258.232
 30
0.000000
  70
    32
  0
VERTEX
  8
0
  5
877
 10
-172.631
 20
258.162
 30
0.000000
  70
    32
  0
VERTEX
  8
0
  5
878
 10
-172.654
 20
258.091
 30
0.000000
  70
    32
  0
VERTEX
  8
0
  5
879
 10
-172.677
 20
258.020
 30
0.000000
  70
    32
  0
VERTEX
  8
0
  5
87A
 10
-172.700
 20
257.949
 30
0.000000
  70
    32
  0
VERTEX
  8
0
  5
87B
 10
-172.723
 20
257.878
 30
0.000000
  70
    32
  0
VERTEX
  8
0
  5
87C
 10
-172.746
 20
257.808
 30
0.000000
  70
    32
  0
VERTEX
  8
0
  5
87D
 10
-172.769
 20
257.737
 30
0.000000
  70
    32
  0
VERTEX
  8
0
  5
87E
 10
-172.791
 20
257.666
 30
0.000000
  70
    32
  0
VERTEX
  8
0
  5
87F
 10
-172.813
 20
257.595
 30
0.000000
  70
    32
  0
VERTEX
  8
0
  5
880
 10
-172.836
 20
257.524
 30
0.000000
  70
    32
  0
VERTEX
  8
0
  5
881
 10
-172.858
 20
257.453
 30
0.000000
  70
    32
  0
VERTEX
  8
0
  5
882
 10
-172.880
 20
257.382
 30
0.000000
  70
    32
  0
VERTEX
  8
0
  5
883
 10
-172.902
 20
257.311
 30
0.000000
  70
    32
  0
VERTEX
  8
0
  5
884
 10
-172.924
 20
257.240
 30
0.000000
  70
    32
  0
VERTEX
  8
0
  5
885
 10
-172.945
 20
257.169
 30
0.000000
  70
    32
  0
VERTEX
  8
0
  5
886
 10
-172.967
 20
257.098
 30
0.000000
  70
    32
  0
VERTEX
  8
0
  5
887
 10
-172.988
 20
257.027
 30
0.000000
  70
    32
  0
VERTEX
  8
0
  5
888
 10
-173.009
 20
256.956
 30
0.000000
  70
    32
  0
VERTEX
  8
0
  5
889
 10
-173.031
 20
256.884
 30
0.000000
  70
    32
  0
VERTEX
  8
0
  5
88A
 10
-173.051
 20
256.813
 30
0.000000
  70
    32
  0
VERTEX
  8
0
  5
88B
 10
-173.072
 20
256.742
 30
0.000000
  70
    32
  0
VERTEX
  8
0
  5
88C
 10
-173.093
 20
256.670
 30
0.000000
  70
    32
  0
VERTEX
  8
0
  5
88D
 10
-173.113
 20
256.599
 30
0.000000
  70
    32
  0
VERTEX
  8
0
  5
88E
 10
-173.133
 20
256.528
 30
0.000000
  70
    32
  0
VERTEX
  8
0
  5
88F
 10
-173.153
 20
256.456
 30
0.000000
  70
    32
  0
VERTEX
  8
0
  5
890
 10
-173.173
 20
256.385
 30
0.000000
  70
    32
  0
VERTEX
  8
0
  5
891
 10
-173.193
 20
256.313
 30
0.000000
  70
    32
  0
VERTEX
  8
0
  5
892
 10
-173.212
 20
256.242
 30
0.000000
  70
    32
  0
VERTEX
  8
0
  5
893
 10
-173.231
 20
256.170
 30
0.000000
  70
    32
  0
VERTEX
  8
0
  5
894
 10
-173.251
 20
256.098
 30
0.000000
  70
    32
  0
VERTEX
  8
0
  5
895
 10
-173.269
 20
256.026
 30
0.000000
  70
    32
  0
VERTEX
  8
0
  5
896
 10
-173.288
 20
255.955
 30
0.000000
  70
    32
  0
VERTEX
  8
0
  5
897
 10
-173.306
 20
255.883
 30
0.000000
  70
    32
  0
VERTEX
  8
0
  5
898
 10
-173.324
 20
255.811
 30
0.000000
  70
    32
  0
VERTEX
  8
0
  5
899
 10
-173.342
 20
255.739
 30
0.000000
  70
    32
  0
VERTEX
  8
0
  5
89A
 10
-173.360
 20
255.667
 30
0.000000
  70
    32
  0
VERTEX
  8
0
  5
89B
 10
-173.377
 20
255.595
 30
0.000000
  70
    32
  0
VERTEX
  8
0
  5
89C
 10
-173.394
 20
255.523
 30
0.000000
  70
    32
  0
VERTEX
  8
0
  5
89D
 10
-173.411
 20
255.450
 30
0.000000
  70
    32
  0
VERTEX
  8
0
  5
89E
 10
-173.428
 20
255.378
 30
0.000000
  70
    32
  0
VERTEX
  8
0
  5
89F
 10
-173.444
 20
255.306
 30
0.000000
  70
    32
  0
VERTEX
  8
0
  5
8A0
 10
-173.461
 20
255.233
 30
0.000000
  70
    32
  0
VERTEX
  8
0
  5
8A1
 10
-173.476
 20
255.161
 30
0.000000
  70
    32
  0
VERTEX
  8
0
  5
8A2
 10
-173.492
 20
255.088
 30
0.000000
  70
    32
  0
VERTEX
  8
0
  5
8A3
 10
-173.507
 20
255.016
 30
0.000000
  70
    32
  0
VERTEX
  8
0
  5
8A4
 10
-173.522
 20
254.943
 30
0.000000
  70
    32
  0
VERTEX
  8
0
  5
8A5
 10
-173.537
 20
254.870
 30
0.000000
  70
    32
  0
VERTEX
  8
0
  5
8A6
 10
-173.551
 20
254.798
 30
0.000000
  70
    32
  0
VERTEX
  8
0
  5
8A7
 10
-173.565
 20
254.725
 30
0.000000
  70
    32
  0
VERTEX
  8
0
  5
8A8
 10
-173.579
 20
254.652
 30
0.000000
  70
    32
  0
VERTEX
  8
0
  5
8A9
 10
-173.593
 20
254.579
 30
0.000000
  70
    32
  0
VERTEX
  8
0
  5
8AA
 10
-173.606
 20
254.506
 30
0.000000
  70
    32
  0
VERTEX
  8
0
  5
8AB
 10
-173.619
 20
254.433
 30
0.000000
  70
    32
  0
VERTEX
  8
0
  5
8AC
 10
-173.632
 20
254.360
 30
0.000000
  70
    32
  0
VERTEX
  8
0
  5
8AD
 10
-173.644
 20
254.286
 30
0.000000
  70
    32
  0
VERTEX
  8
0
  5
8AE
 10
-173.656
 20
254.213
 30
0.000000
  70
    32
  0
VERTEX
  8
0
  5
8AF
 10
-173.668
 20
254.140
 30
0.000000
  70
    32
  0
VERTEX
  8
0
  5
8B0
 10
-173.679
 20
254.066
 30
0.000000
  70
    32
  0
VERTEX
  8
0
  5
8B1
 10
-173.691
 20
253.993
 30
0.000000
  70
    32
  0
VERTEX
  8
0
  5
8B2
 10
-173.702
 20
253.919
 30
0.000000
  70
    32
  0
VERTEX
  8
0
  5
8B3
 10
-173.712
 20
253.846
 30
0.000000
  70
    32
  0
VERTEX
  8
0
  5
8B4
 10
-173.723
 20
253.772
 30
0.000000
  70
    32
  0
VERTEX
  8
0
  5
8B5
 10
-173.733
 20
253.698
 30
0.000000
  70
    32
  0
VERTEX
  8
0
  5
8B6
 10
-173.742
 20
253.625
 30
0.000000
  70
    32
  0
VERTEX
  8
0
  5
8B7
 10
-173.752
 20
253.551
 30
0.000000
  70
    32
  0
VERTEX
  8
0
  5
8B8
 10
-173.761
 20
253.477
 30
0.000000
  70
    32
  0
VERTEX
  8
0
  5
8B9
 10
-173.770
 20
253.403
 30
0.000000
  70
    32
  0
VERTEX
  8
0
  5
8BA
 10
-173.779
 20
253.330
 30
0.000000
  70
    32
  0
VERTEX
  8
0
  5
8BB
 10
-173.787
 20
253.256
 30
0.000000
  70
    32
  0
VERTEX
  8
0
  5
8BC
 10
-173.795
 20
253.182
 30
0.000000
  70
    32
  0
VERTEX
  8
0
  5
8BD
 10
-173.803
 20
253.108
 30
0.000000
  70
    32
  0
VERTEX
  8
0
  5
8BE
 10
-173.810
 20
253.034
 30
0.000000
  70
    32
  0
VERTEX
  8
0
  5
8BF
 10
-173.817
 20
252.960
 30
0.000000
  70
    32
  0
VERTEX
  8
0
  5
8C0
 10
-173.824
 20
252.886
 30
0.000000
  70
    32
  0
VERTEX
  8
0
  5
8C1
 10
-173.831
 20
252.811
 30
0.000000
  70
    32
  0
VERTEX
  8
0
  5
8C2
 10
-173.837
 20
252.737
 30
0.000000
  70
    32
  0
VERTEX
  8
0
  5
8C3
 10
-173.843
 20
252.663
 30
0.000000
  70
    32
  0
VERTEX
  8
0
  5
8C4
 10
-173.849
 20
252.589
 30
0.000000
  70
    32
  0
VERTEX
  8
0
  5
8C5
 10
-173.854
 20
252.515
 30
0.000000
  70
    32
  0
VERTEX
  8
0
  5
8C6
 10
-173.859
 20
252.440
 30
0.000000
  70
    32
  0
VERTEX
  8
0
  5
8C7
 10
-173.864
 20
252.366
 30
0.000000
  70
    32
  0
VERTEX
  8
0
  5
8C8
 10
-173.869
 20
252.292
 30
0.000000
  70
    32
  0
VERTEX
  8
0
  5
8C9
 10
-173.873
 20
252.217
 30
0.000000
  70
    32
  0
VERTEX
  8
0
  5
8CA
 10
-173.877
 20
252.143
 30
0.000000
  70
    32
  0
VERTEX
  8
0
  5
8CB
 10
-173.881
 20
252.069
 30
0.000000
  70
    32
  0
VERTEX
  8
0
  5
8CC
 10
-173.884
 20
251.994
 30
0.000000
  70
    32
  0
VERTEX
  8
0
  5
8CD
 10
-173.887
 20
251.920
 30
0.000000
  70
    32
  0
VERTEX
  8
0
  5
8CE
 10
-173.890
 20
251.846
 30
0.000000
  70
    32
  0
VERTEX
  8
0
  5
8CF
 10
-173.893
 20
251.771
 30
0.000000
  70
    32
  0
VERTEX
  8
0
  5
8D0
 10
-173.895
 20
251.697
 30
0.000000
  70
    32
  0
VERTEX
  8
0
  5
8D1
 10
-173.897
 20
251.622
 30
0.000000
  70
    32
  0
VERTEX
  8
0
  5
8D2
 10
-173.899
 20
251.548
 30
0.000000
  70
    32
  0
VERTEX
  8
0
  5
8D3
 10
-173.900
 20
251.473
 30
0.000000
  70
    32
  0
VERTEX
  8
0
  5
8D4
 10
-173.901
 20
251.399
 30
0.000000
  70
    32
  0
VERTEX
  8
0
  5
8D5
 10
-173.902
 20
251.324
 30
0.000000
  70
    32
  0
VERTEX
  8
0
  5
8D6
 10
-173.903
 20
251.250
 30
0.000000
  70
    32
  0
VERTEX
  8
0
  5
8D7
 10
-173.903
 20
251.176
 30
0.000000
  70
    32
  0
VERTEX
  8
0
  5
8D8
 10
-173.903
 20
251.101
 30
0.000000
  70
    32
  0
VERTEX
  8
0
  5
8D9
 10
-173.903
 20
251.027
 30
0.000000
  70
    32
  0
VERTEX
  8
0
  5
8DA
 10
-173.902
 20
250.952
 30
0.000000
  70
    32
  0
VERTEX
  8
0
  5
8DB
 10
-173.901
 20
250.878
 30
0.000000
  70
    32
  0
VERTEX
  8
0
  5
8DC
 10
-173.900
 20
250.803
 30
0.000000
  70
    32
  0
VERTEX
  8
0
  5
8DD
 10
-173.899
 20
250.729
 30
0.000000
  70
    32
  0
VERTEX
  8
0
  5
8DE
 10
-173.897
 20
250.654
 30
0.000000
  70
    32
  0
VERTEX
  8
0
  5
8DF
 10
-173.895
 20
250.580
 30
0.000000
  70
    32
  0
VERTEX
  8
0
  5
8E0
 10
-173.893
 20
250.505
 30
0.000000
  70
    32
  0
VERTEX
  8
0
  5
8E1
 10
-173.890
 20
250.431
 30
0.000000
  70
    32
  0
VERTEX
  8
0
  5
8E2
 10
-173.887
 20
250.357
 30
0.000000
  70
    32
  0
VERTEX
  8
0
  5
8E3
 10
-173.884
 20
250.282
 30
0.000000
  70
    32
  0
VERTEX
  8
0
  5
8E4
 10
-173.881
 20
250.208
 30
0.000000
  70
    32
  0
VERTEX
  8
0
  5
8E5
 10
-173.877
 20
250.133
 30
0.000000
  70
    32
  0
VERTEX
  8
0
  5
8E6
 10
-173.873
 20
250.059
 30
0.000000
  70
    32
  0
VERTEX
  8
0
  5
8E7
 10
-173.869
 20
249.985
 30
0.000000
  70
    32
  0
VERTEX
  8
0
  5
8E8
 10
-173.864
 20
249.910
 30
0.000000
  70
    32
  0
VERTEX
  8
0
  5
8E9
 10
-173.859
 20
249.836
 30
0.000000
  70
    32
  0
VERTEX
  8
0
  5
8EA
 10
-173.854
 20
249.762
 30
0.000000
  70
    32
  0
VERTEX
  8
0
  5
8EB
 10
-173.849
 20
249.688
 30
0.000000
  70
    32
  0
VERTEX
  8
0
  5
8EC
 10
-173.843
 20
249.613
 30
0.000000
  70
    32
  0
VERTEX
  8
0
  5
8ED
 10
-173.837
 20
249.539
 30
0.000000
  70
    32
  0
VERTEX
  8
0
  5
8EE
 10
-173.831
 20
249.465
 30
0.000000
  70
    32
  0
VERTEX
  8
0
  5
8EF
 10
-173.824
 20
249.391
 30
0.000000
  70
    32
  0
VERTEX
  8
0
  5
8F0
 10
-173.817
 20
249.317
 30
0.000000
  70
    32
  0
VERTEX
  8
0
  5
8F1
 10
-173.810
 20
249.243
 30
0.000000
  70
    32
  0
VERTEX
  8
0
  5
8F2
 10
-173.803
 20
249.169
 30
0.000000
  70
    32
  0
VERTEX
  8
0
  5
8F3
 10
-173.795
 20
249.095
 30
0.000000
  70
    32
  0
VERTEX
  8
0
  5
8F4
 10
-173.787
 20
249.021
 30
0.000000
  70
    32
  0
VERTEX
  8
0
  5
8F5
 10
-173.779
 20
248.947
 30
0.000000
  70
    32
  0
VERTEX
  8
0
  5
8F6
 10
-173.770
 20
248.873
 30
0.000000
  70
    32
  0
VERTEX
  8
0
  5
8F7
 10
-173.761
 20
248.799
 30
0.000000
  70
    32
  0
VERTEX
  8
0
  5
8F8
 10
-173.752
 20
248.726
 30
0.000000
  70
    32
  0
VERTEX
  8
0
  5
8F9
 10
-173.742
 20
248.652
 30
0.000000
  70
    32
  0
VERTEX
  8
0
  5
8FA
 10
-173.733
 20
248.578
 30
0.000000
  70
    32
  0
VERTEX
  8
0
  5
8FB
 10
-173.723
 20
248.504
 30
0.000000
  70
    32
  0
VERTEX
  8
0
  5
8FC
 10
-173.712
 20
248.431
 30
0.000000
  70
    32
  0
VERTEX
  8
0
  5
8FD
 10
-173.702
 20
248.357
 30
0.000000
  70
    32
  0
VERTEX
  8
0
  5
8FE
 10
-173.691
 20
248.284
 30
0.000000
  70
    32
  0
VERTEX
  8
0
  5
8FF
 10
-173.679
 20
248.210
 30
0.000000
  70
    32
  0
VERTEX
  8
0
  5
900
 10
-173.668
 20
248.137
 30
0.000000
  70
    32
  0
VERTEX
  8
0
  5
901
 10
-173.656
 20
248.064
 30
0.000000
  70
    32
  0
VERTEX
  8
0
  5
902
 10
-173.644
 20
247.990
 30
0.000000
  70
    32
  0
VERTEX
  8
0
  5
903
 10
-173.632
 20
247.917
 30
0.000000
  70
    32
  0
VERTEX
  8
0
  5
904
 10
-173.619
 20
247.844
 30
0.000000
  70
    32
  0
VERTEX
  8
0
  5
905
 10
-173.606
 20
247.771
 30
0.000000
  70
    32
  0
VERTEX
  8
0
  5
906
 10
-173.593
 20
247.698
 30
0.000000
  70
    32
  0
VERTEX
  8
0
  5
907
 10
-173.579
 20
247.625
 30
0.000000
  70
    32
  0
VERTEX
  8
0
  5
908
 10
-173.565
 20
247.552
 30
0.000000
  70
    32
  0
VERTEX
  8
0
  5
909
 10
-173.551
 20
247.479
 30
0.000000
  70
    32
  0
VERTEX
  8
0
  5
90A
 10
-173.537
 20
247.406
 30
0.000000
  70
    32
  0
VERTEX
  8
0
  5
90B
 10
-173.522
 20
247.333
 30
0.000000
  70
    32
  0
VERTEX
  8
0
  5
90C
 10
-173.507
 20
247.261
 30
0.000000
  70
    32
  0
VERTEX
  8
0
  5
90D
 10
-173.492
 20
247.188
 30
0.000000
  70
    32
  0
VERTEX
  8
0
  5
90E
 10
-173.476
 20
247.116
 30
0.000000
  70
    32
  0
VERTEX
  8
0
  5
90F
 10
-173.461
 20
247.043
 30
0.000000
  70
    32
  0
VERTEX
  8
0
  5
910
 10
-173.444
 20
246.971
 30
0.000000
  70
    32
  0
VERTEX
  8
0
  5
911
 10
-173.428
 20
246.898
 30
0.000000
  70
    32
  0
VERTEX
  8
0
  5
912
 10
-173.411
 20
246.826
 30
0.000000
  70
    32
  0
VERTEX
  8
0
  5
913
 10
-173.394
 20
246.754
 30
0.000000
  70
    32
  0
VERTEX
  8
0
  5
914
 10
-173.377
 20
246.682
 30
0.000000
  70
    32
  0
VERTEX
  8
0
  5
915
 10
-173.360
 20
246.610
 30
0.000000
  70
    32
  0
VERTEX
  8
0
  5
916
 10
-173.342
 20
246.538
 30
0.000000
  70
    32
  0
VERTEX
  8
0
  5
917
 10
-173.324
 20
246.466
 30
0.000000
  70
    32
  0
VERTEX
  8
0
  5
918
 10
-173.306
 20
246.394
 30
0.000000
  70
    32
  0
VERTEX
  8
0
  5
919
 10
-173.288
 20
246.322
 30
0.000000
  70
    32
  0
VERTEX
  8
0
  5
91A
 10
-173.269
 20
246.250
 30
0.000000
  70
    32
  0
VERTEX
  8
0
  5
91B
 10
-173.251
 20
246.178
 30
0.000000
  70
    32
  0
VERTEX
  8
0
  5
91C
 10
-173.231
 20
246.107
 30
0.000000
  70
    32
  0
VERTEX
  8
0
  5
91D
 10
-173.212
 20
246.035
 30
0.000000
  70
    32
  0
VERTEX
  8
0
  5
91E
 10
-173.193
 20
245.963
 30
0.000000
  70
    32
  0
VERTEX
  8
0
  5
91F
 10
-173.173
 20
245.892
 30
0.000000
  70
    32
  0
VERTEX
  8
0
  5
920
 10
-173.153
 20
245.820
 30
0.000000
  70
    32
  0
VERTEX
  8
0
  5
921
 10
-173.133
 20
245.749
 30
0.000000
  70
    32
  0
VERTEX
  8
0
  5
922
 10
-173.113
 20
245.677
 30
0.000000
  70
    32
  0
VERTEX
  8
0
  5
923
 10
-173.093
 20
245.606
 30
0.000000
  70
    32
  0
VERTEX
  8
0
  5
924
 10
-173.072
 20
245.535
 30
0.000000
  70
    32
  0
VERTEX
  8
0
  5
925
 10
-173.051
 20
245.463
 30
0.000000
  70
    32
  0
VERTEX
  8
0
  5
926
 10
-173.031
 20
245.392
 30
0.000000
  70
    32
  0
VERTEX
  8
0
  5
927
 10
-173.009
 20
245.321
 30
0.000000
  70
    32
  0
VERTEX
  8
0
  5
928
 10
-172.988
 20
245.250
 30
0.000000
  70
    32
  0
VERTEX
  8
0
  5
929
 10
-172.967
 20
245.179
 30
0.000000
  70
    32
  0
VERTEX
  8
0
  5
92A
 10
-172.945
 20
245.108
 30
0.000000
  70
    32
  0
VERTEX
  8
0
  5
92B
 10
-172.924
 20
245.036
 30
0.000000
  70
    32
  0
VERTEX
  8
0
  5
92C
 10
-172.902
 20
244.965
 30
0.000000
  70
    32
  0
VERTEX
  8
0
  5
92D
 10
-172.880
 20
244.894
 30
0.000000
  70
    32
  0
VERTEX
  8
0
  5
92E
 10
-172.858
 20
244.823
 30
0.000000
  70
    32
  0
VERTEX
  8
0
  5
92F
 10
-172.836
 20
244.752
 30
0.000000
  70
    32
  0
VERTEX
  8
0
  5
930
 10
-172.813
 20
244.682
 30
0.000000
  70
    32
  0
VERTEX
  8
0
  5
931
 10
-172.791
 20
244.611
 30
0.000000
  70
    32
  0
VERTEX
  8
0
  5
932
 10
-172.769
 20
244.540
 30
0.000000
  70
    32
  0
VERTEX
  8
0
  5
933
 10
-172.746
 20
244.469
 30
0.000000
  70
    32
  0
VERTEX
  8
0
  5
934
 10
-172.723
 20
244.398
 30
0.000000
  70
    32
  0
VERTEX
  8
0
  5
935
 10
-172.700
 20
244.327
 30
0.000000
  70
    32
  0
VERTEX
  8
0
  5
936
 10
-172.677
 20
244.257
 30
0.000000
  70
    32
  0
VERTEX
  8
0
  5
937
 10
-172.654
 20
244.186
 30
0.000000
  70
    32
  0
VERTEX
  8
0
  5
938
 10
-172.631
 20
244.115
 30
0.000000
  70
    32
  0
VERTEX
  8
0
  5
939
 10
-172.608
 20
244.044
 30
0.000000
  70
    32
  0
VERTEX
  8
0
  5
93A
 10
-172.585
 20
243.974
 30
0.000000
  70
    32
  0
VERTEX
  8
0
  5
93B
 10
-172.562
 20
243.903
 30
0.000000
  70
    32
  0
VERTEX
  8
0
  5
93C
 10
-172.538
 20
243.832
 30
0.000000
  70
    32
  0
VERTEX
  8
0
  5
93D
 10
-172.515
 20
243.762
 30
0.000000
  70
    32
  0
VERTEX
  8
0
  5
93E
 10
-172.492
 20
243.691
 30
0.000000
  70
    32
  0
VERTEX
  8
0
  5
93F
 10
-172.468
 20
243.620
 30
0.000000
  70
    32
  0
VERTEX
  8
0
  5
940
 10
-172.445
 20
243.550
 30
0.000000
  70
    32
  0
VERTEX
  8
0
  5
941
 10
-172.421
 20
243.479
 30
0.000000
  70
    32
  0
VERTEX
  8
0
  5
942
 10
-172.398
 20
243.408
 30
0.000000
  70
    32
  0
VERTEX
  8
0
  5
943
 10
-172.374
 20
243.338
 30
0.000000
  70
    32
  0
VERTEX
  8
0
  5
944
 10
-172.350
 20
243.267
 30
0.000000
  70
    32
  0
VERTEX
  8
0
  5
945
 10
-172.327
 20
243.197
 30
0.000000
  70
    32
  0
VERTEX
  8
0
  5
946
 10
-172.303
 20
243.126
 30
0.000000
  70
    32
  0
VERTEX
  8
0
  5
947
 10
-172.279
 20
243.055
 30
0.000000
  70
    32
  0
SEQEND
  8
0
  5
948
  0
LINE
  5
5BC
  8
0
 10
-186.27979305247351
 20
261.29784349700128
 30
0.0
 11
-186.27979305247351
 21
240.97870437758411
 31
0.0
  0
LINE
  5
5BD
  8
0
 10
-96.779279039936895
 20
238.63827393729269
 30
0.0
 11
-96.779279039936895
 21
263.63827393729269
 31
0.0
  0
LINE
  5
5BE
  8
0
 10
-96.279279039936924
 20
263.13827393729269
 30
0.0
 11
-96.279279039936924
 21
239.13827393729269
 31
0.0
  0
LINE
  5
5BF
  8
0
 10
-187.77927903993691
 20
242.5179698000459
 30
0.0
 11
-187.77927903993691
 21
259.75857807453951
 31
0.0
  0
LINE
  5
5C0
  8
0
 10
-100.1292790399369
 20
263.63827393729269
 30
0.0
 11
-100.1292790399369
 21
238.63827393729269
 31
0.0
  0
LINE
  5
5C1
  8
0
 10
-99.629279039936904
 20
263.13827393729269
 30
0.0
 11
-99.629279039936904
 21
239.13827393729269
 31
0.0
  0
LINE
  5
5C2
  8
0
 10
-99.629279039936904
 20
263.13827393729269
 30
0.0
 11
-100.1292790399369
 21
263.63827393729269
 31
0.0
  0
LINE
  5
5C3
  8
0
 10
-100.1292790399369
 20
238.63827393729269
 30
0.0
 11
-99.629279039936904
 21
239.13827393729269
 31
0.0
  0
LINE
  5
5C4
  8
0
 10
-96.279279039936924
 20
263.13827393729269
 30
0.0
 11
-96.779279039936895
 21
263.63827393729269
 31
0.0
  0
LINE
  5
5C5
  8
0
 10
-96.779279039936895
 20
238.63827393729269
 30
0.0
 11
-96.279279039936924
 21
239.13827393729269
 31
0.0
  0
LINE
  5
5C6
  8
0
 10
-98.27927903993691
 20
238.63827393729269
 30
0.0
 11
-96.779279039936895
 21
238.63827393729269
 31
0.0
  0
LINE
  5
5C7
  8
0
 10
-96.779279039936895
 20
263.63827393729269
 30
0.0
 11
-98.27927903993691
 21
263.63827393729269
 31
0.0
  0
LINE
  5
5C8
  8
0
 10
-187.77927903993691
 20
242.5179698000459
 30
0.0
 11
-186.27979305247351
 21
240.97870437758411
 31
0.0
  0
LINE
  5
5C9
  8
0
 10
-186.27979305247351
 20
261.29784349700128
 30
0.0
 11
-187.77927903993691
 21
259.75857807453951
 31
0.0
  0
LINE
  5
5CA
  8
0
 10
-174.27927903993691
 20
261.61208801572349
 30
0.0
 11
-186.27979305247351
 21
261.29784349700128
 31
0.0
  0
LINE
  5
5CB
  8
0
 10
-186.27979305247351
 20
240.97870437758411
 30
0.0
 11
-174.27927903993691
 21
240.6644598588619
 31
0.0
  0
LINE
  5
5CC
  8
0
 10
-99.479279039936927
 20
263.13827393729269
 30
0.0
 11
-99.629279039936904
 21
263.13827393729269
 31
0.0
  0
LINE
  5
5CD
  8
0
 10
-99.629279039936904
 20
239.13827393729269
 30
0.0
 11
-99.479279039936927
 21
239.13827393729269
 31
0.0
  0
LINE
  5
5CE
  8
0
 10
-172.27927903993691
 20
267.30408147460219
 30
0.0
 11
-174.27927903993691
 21
264.63827393729269
 31
0.0
  0
LINE
  5
5CF
  8
0
 10
-174.27927903993691
 20
237.63827393729269
 30
0.0
 11
-172.27927903993691
 21
234.9724663999832
 31
0.0
  0
LINE
  5
5D0
  8
0
 10
-116.7792790399369
 20
238.63827393729269
 30
0.0
 11
-100.1292790399369
 21
238.63827393729269
 31
0.0
  0
LINE
  5
5D1
  8
0
 10
-100.1292790399369
 20
263.63827393729269
 30
0.0
 11
-116.7792790399369
 21
263.63827393729269
 31
0.0
  0
LINE
  5
5D2
  8
0
 10
-116.7792790399369
 20
269.88827393729269
 30
0.0
 11
-117.2792790399369
 21
270.38827393729269
 31
0.0
  0
LINE
  5
5D3
  8
0
 10
-117.2792790399369
 20
231.88827393729269
 30
0.0
 11
-116.7792790399369
 21
232.38827393729269
 31
0.0
  0
LINE
  5
5D4
  8
0
 10
-133.52927903993691
 20
231.88827393729269
 30
0.0
 11
-117.2792790399369
 21
231.88827393729269
 31
0.0
  0
LINE
  5
5D5
  8
0
 10
-117.2792790399369
 20
270.38827393729269
 30
0.0
 11
-133.52927903993691
 21
270.38827393729269
 31
0.0
  0
ARC
  5
5D6
  8
0
 10
-165.77927903993691
 20
269.88827393729269
 30
0.0
 40
0.5
 50
90.0
 51
180.0
  0
ARC
  5
5D7
  8
0
 10
-165.77927903993691
 20
232.38827393729269
 30
0.0
 40
0.5
 50
180.0
 51
270.0
  0
LINE
  5
5D8
  8
0
 10
-165.77927903993691
 20
231.88827393729269
 30
0.0
 11
-149.52927903993691
 21
231.88827393729269
 31
0.0
  0
LINE
  5
5D9
  8
0
 10
-149.52927903993691
 20
270.38827393729269
 30
0.0
 11
-165.77927903993691
 21
270.38827393729269
 31
0.0
  0
LINE
  5
5DA
  8
0
 10
-147.77927903993691
 20
268.63827393729269
 30
0.0
 11
-149.52927903993691
 21
270.38827393729269
 31
0.0
  0
LINE
  5
5DB
  8
0
 10
-149.52927903993691
 20
231.88827393729269
 30
0.0
 11
-147.77927903993691
 21
233.63827393729269
 31
0.0
  0
LINE
  5
5DC
  8
0
 10
-133.52927903993691
 20
270.38827393729269
 30
0.0
 11
-135.27927903993691
 21
268.63827393729269
 31
0.0
  0
LINE
  5
5DD
  8
0
 10
-135.27927903993691
 20
233.63827393729269
 30
0.0
 11
-133.52927903993691
 21
231.88827393729269
 31
0.0
  0
LINE
  5
5DE
  8
0
 10
-135.27927903993691
 20
268.63827393729269
 30
0.0
 11
-147.77927903993691
 21
268.63827393729269
 31
0.0
  0
LINE
  5
5DF
  8
0
 10
-147.77927903993691
 20
233.63827393729269
 30
0.0
 11
-135.27927903993691
 21
233.63827393729269
 31
0.0
  0
LINE
  5
5E0
  8
0
 10
-98.27927903993691
 20
265.8382739372928
 30
0.0
 11
-99.479279039936927
 21
265.8382739372928
 31
0.0
  0
DIMENSION
  5
5E1
  8
DIM
  2
*D10
 10
-96.279279039936924
 20
216.08081513719
 30
0.0
 11
-142.02927903993691
 21
219.08081513719
 31
0.0
 70
     0
 13
-187.77927903993691
 23
242.5179698000459
 33
0.0
 14
-96.279279039936924
 24
239.13827393729269
 34
0.0
  0
DIMENSION
  5
5EE
  8
DIM
  2
*D11
 10
-116.7792790399369
 20
282.4945825247213
 30
0.0
 11
-141.52927903993691
 21
285.4945825247213
 31
0.0
 70
     0
 13
-166.27927903993691
 23
269.88827393729269
 33
0.0
 14
-116.7792790399369
 24
269.88827393729269
 34
0.0
  0
DIMENSION
  5
5FB
  8
DIM
  2
*D12
 10
-79.473141195371227
 20
231.88827393729269
 30
0.0
 11
-82.473141195371284
 21
251.13827393729269
 31
0.0
 70
     0
  1
%%c<>
 13
-117.2792790399369
 23
270.38827393729269
 33
0.0
 14
-117.2792790399369
 24
231.88827393729269
 34
0.0
 50
90.0
  0
POLYLINE
  8
0
  5
949
  66
     1
 10
0.000000
 20
0.000000
 30
0.000000
  70
     8
  0
VERTEX
  8
0
  5
94A
 10
-180.280
 20
261.455
 30
0.000000
  70
    32
  0
VERTEX
  8
0
  5
94B
 10
-183.448
 20
271.685
 30
0.000000
  70
    32
  0
VERTEX
  8
0
  5
94C
 10
-186.448
 20
271.685
 30
0.000000
  70
    32
  0
SEQEND
  8
0
  5
94D
  0
TEXT
  5
612
  8
0
 10
-203.66275661275051
 20
271.47095235746127
 30
0.0
 40
3.0
  1
PT 1/2
  7
CHINESET
  0
ENDSEC
  0
EOF
