  0
SECTION
  2
HEADER
  9
$ACADVER
  1
AC1009
  9
$INSBASE
 10
0.0
 20
0.0
 30
0.0
  9
$EXTMIN
 10
-212.88867120082551
 20
185.44638146675001
 30
-0.0015258207003583
  9
$EXTMAX
 10
-108.20269741886599
 20
278.94438235641491
 30
0.0000000349246037
  9
$LIMMIN
 10
0.0
 20
0.0
  9
$LIMMAX
 10
396.0
 20
273.0
  9
$ORTHOMODE
 70
     0
  9
$REGENMODE
 70
     1
  9
$FILLMODE
 70
     1
  9
$QTEXTMODE
 70
     0
  9
$MIRRTEXT
 70
     1
  9
$DRAGMODE
 70
     2
  9
$LTSCALE
 40
6.0
  9
$OSMODE
 70
    39
  9
$ATTMODE
 70
     1
  9
$TEXTSIZE
 40
5.0
  9
$TRACEWID
 40
0.05
  9
$TEXTSTYLE
  7
CHINESET
  9
$CLAYER
  8
0
  9
$CELTYPE
  6
BYLAYER
  9
$CECOLOR
 62
   256
  9
$DIMSCALE
 40
1.0
  9
$DIMASZ
 40
3.0
  9
$DIMEXO
 40
2.0
  9
$DIMDLI
 40
8.0
  9
$DIMRND
 40
0.0
  9
$DIMDLE
 40
0.0
  9
$DIMEXE
 40
2.0
  9
$DIMTP
 40
0.0
  9
$DIMTM
 40
0.0
  9
$DIMTXT
 40
3.0
  9
$DIMCEN
 40
-3.0
  9
$DIMTSZ
 40
0.0
  9
$DIMTOL
 70
     0
  9
$DIMLIM
 70
     0
  9
$DIMTIH
 70
     0
  9
$DIMTOH
 70
     0
  9
$DIMSE1
 70
     0
  9
$DIMSE2
 70
     0
  9
$DIMTAD
 70
     1
  9
$DIMZIN
 70
     8
  9
$DIMBLK
  1

  9
$DIMASO
 70
     1
  9
$DIMSHO
 70
     1
  9
$DIMPOST
  1

  9
$DIMAPOST
  1

  9
$DIMALT
 70
     0
  9
$DIMALTD
 70
     2
  9
$DIMALTF
 40
25.399999999999999
  9
$DIMLFAC
 40
1.0
  9
$DIMTOFL
 70
     0
  9
$DIMTVP
 40
0.0
  9
$DIMTIX
 70
     0
  9
$DIMSOXD
 70
     0
  9
$DIMSAH
 70
     0
  9
$DIMBLK1
  1

  9
$DIMBLK2
  1

  9
$DIMSTYLE
  2
STANDARD
  9
$DIMCLRD
 70
     0
  9
$DIMCLRE
 70
     0
  9
$DIMCLRT
 70
     0
  9
$DIMTFAC
 40
0.5
  9
$DIMGAP
 40
1.5
  9
$LUNITS
 70
     2
  9
$LUPREC
 70
     2
  9
$SKETCHINC
 40
0.1
  9
$FILLETRAD
 40
12.0
  9
$AUNITS
 70
     0
  9
$AUPREC
 70
     0
  9
$MENU
  1
ACAD
  9
$ELEVATION
 40
0.0
  9
$PELEVATION
 40
0.0
  9
$THICKNESS
 40
0.0
  9
$LIMCHECK
 70
     0
  9
$BLIPMODE
 70
     0
  9
$CHAMFERA
 40
2.0
  9
$CHAMFERB
 40
2.0
  9
$SKPOLY
 70
     0
  9
$TDCREATE
 40
2450436.7992719901
  9
$TDUPDATE
 40
2451946.5927047911
  9
$TDINDWG
 40
0.8781078009
  9
$TDUSRTIMER
 40
0.8781078009
  9
$USRTIMER
 70
     1
  9
$ANGBASE
 50
0.0
  9
$ANGDIR
 70
     0
  9
$PDMODE
 70
    65
  9
$PDSIZE
 40
8.3000000000000007
  9
$PLINEWID
 40
0.0
  9
$COORDS
 70
     2
  9
$SPLFRAME
 70
     0
  9
$SPLINETYPE
 70
     6
  9
$SPLINESEGS
 70
     8
  9
$ATTDIA
 70
     0
  9
$ATTREQ
 70
     1
  9
$HANDLING
 70
 12289
  9
$HANDSEED
  5
7C3
  9
$SURFTAB1
 70
     6
  9
$SURFTAB2
 70
     6
  9
$SURFTYPE
 70
     6
  9
$SURFU
 70
     6
  9
$SURFV
 70
     6
  9
$UCSNAME
  2

  9
$UCSORG
 10
0.0
 20
0.0
 30
0.0
  9
$UCSXDIR
 10
1.0
 20
0.0
 30
0.0
  9
$UCSYDIR
 10
0.0
 20
1.0
 30
0.0
  9
$PUCSNAME
  2

  9
$PUCSORG
 10
0.0
 20
0.0
 30
0.0
  9
$PUCSXDIR
 10
1.0
 20
0.0
 30
0.0
  9
$PUCSYDIR
 10
0.0
 20
1.0
 30
0.0
  9
$USERI1
 70
     0
  9
$USERI2
 70
     0
  9
$USERI3
 70
     0
  9
$USERI4
 70
     0
  9
$USERI5
 70
     0
  9
$USERR1
 40
0.0
  9
$USERR2
 40
0.0
  9
$USERR3
 40
0.0
  9
$USERR4
 40
0.0
  9
$USERR5
 40
0.0
  9
$WORLDVIEW
 70
     1
  9
$SHADEDGE
 70
     3
  9
$SHADEDIF
 70
    70
  9
$TILEMODE
 70
     1
  9
$MAXACTVP
 70
    16
  9
$PLIMCHECK
 70
     0
  9
$PEXTMIN
 10
-273.3129965794289
 20
1.3881161795999331
 30
-0.0000000349181948
  9
$PEXTMAX
 10
-79.891524143177662
 20
269.15478465906631
 30
0.0000000814935746
  9
$PLIMMIN
 10
-278.28200264445832
 20
-3.5808939846616781
  9
$PLIMMAX
 10
114.4797607998254
 20
274.12379072409561
  9
$UNITMODE
 70
     0
  9
$VISRETAIN
 70
     0
  9
$PLINEGEN
 70
     0
  9
$PSLTSCALE
 70
     0
  0
ENDSEC
  0
SECTION
  2
TABLES
  0
TABLE
  2
VPORT
 70
     6
  0
VPORT
  2
*ACTIVE
 70
     0
 10
0.0
 20
0.0
 11
1.0
 21
1.0
 12
-160.54568430984571
 22
232.1953819115825
 13
0.0
 23
0.0
 14
1.0
 24
1.0
 15
0.0
 25
0.0
 16
0.0
 26
0.0
 36
1.0
 17
0.0
 27
0.0
 37
0.0
 40
94.5292288406539
 41
1.7274401473296499
 42
50.0
 43
0.0
 44
0.0
 50
0.0
 51
0.0
 71
     0
 72
   100
 73
     1
 74
     1
 75
     0
 76
     0
 77
     0
 78
     0
  0
ENDTAB
  0
TABLE
  2
LTYPE
 70
    11
  0
LTYPE
  2
CONTINUOUS
 70
     0
  3
Solid line
 72
    65
 73
     0
 40
0.0
  0
LTYPE
  2
CENTER
 70
     0
  3
Center ____ _ ____ _ ____ _ ____ _ ____ _ ____
 72
    65
 73
     4
 40
2.0
 49
1.25
 49
-0.25
 49
0.25
 49
-0.25
  0
ENDTAB
  0
TABLE
  2
LAYER
 70
     8
  0
LAYER
  2
0
 70
     0
 62
     7
  6
CONTINUOUS
  0
LAYER
  2
LOGO
 70
     0
 62
     7
  6
CONTINUOUS
  0
LAYER
  2
DEFPOINTS
 70
     0
 62
     7
  6
CONTINUOUS
  0
LAYER
  2
CENTER
 70
     0
 62
     1
  6
CENTER
  0
LAYER
  2
DIM
 70
     0
 62
     5
  6
CONTINUOUS
  0
ENDTAB
  0
TABLE
  2
STYLE
 70
     6
  0
STYLE
  2
STANDARD
 70
     0
 40
0.0
 41
1.0
 50
0.0
 71
     0
 42
0.2
  3
txt
  4

  0
STYLE
  2
CHINESET
 70
     0
 40
0.0
 41
1.0
 50
0.0
 71
     0
 42
5.0
  3
C:\r13\com\fonts\simplex.shx
  4
C:\r13\com\fonts\chineset.shx
  0
STYLE
  2
LOGO
 70
     0
 40
0.0
 41
1.0
 50
0.0
 71
     0
 42
5.0
  3
txt
  4

  0
ENDTAB
  0
TABLE
  2
VIEW
 70
     0
  0
ENDTAB
  0
TABLE
  2
UCS
 70
     0
  0
ENDTAB
  0
TABLE
  2
APPID
 70
     1
  0
APPID
  2
ACAD
 70
     0
  0
ENDTAB
  0
TABLE
  2
DIMSTYLE
 70
     1
  0
DIMSTYLE
  2
STANDARD
 70
     0
  3

  4

  5

  6

  7

 40
1.0
 41
3.0
 42
2.0
 43
8.0
 44
2.0
 45
0.0
 46
0.0
 47
0.0
 48
0.0
140
3.0
141
-3.0
142
0.0
143
25.399999999999999
144
1.0
145
0.0
146
0.5
147
1.5
 71
     0
 72
     0
 73
     0
 74
     0
 75
     0
 76
     0
 77
     1
 78
     8
170
     0
171
     2
172
     0
173
     0
174
     0
175
     0
176
     0
177
     0
178
     0
  0
ENDTAB
  0
ENDSEC
  0
SECTION
  2
BLOCKS
  0
BLOCK
  8
0
  2
$MODEL_SPACE
 70
     0
 10
0.0
 20
0.0
 30
0.0
  3
$MODEL_SPACE
  1

  0
ENDBLK
  5
A
  8
0
  0
BLOCK
 67
     1
  8
0
  2
$PAPER_SPACE
 70
     0
 10
0.0
 20
0.0
 30
0.0
  3
$PAPER_SPACE
  1

  0
ENDBLK
  5
F
 67
     1
  8
0
  0
BLOCK
  8
0
  2
*D7
 70
     1
 10
0.0
 20
0.0
 30
0.0
  3
*D7
  1

  0
LINE
  5
4A8
  8
DIM
 62
     0
 10
-186.4234114133917
 20
235.4567088314588
 30
0.0
 11
-186.4234114133917
 21
214.23019827523751
 31
0.0
  0
LINE
  5
4A9
  8
DIM
 62
     0
 10
-129.4234114133917
 20
231.944849615767
 30
0.0
 11
-129.4234114133917
 21
214.23019827523751
 31
0.0
  0
LINE
  5
4AA
  8
DIM
 62
     0
 10
-183.4234114133917
 20
216.23019827523751
 30
0.0
 11
-132.4234114133917
 21
216.23019827523751
 31
0.0
  0
SOLID
  5
4AB
  8
DIM
 62
     0
 10
-183.4234114133917
 20
216.73019827523751
 30
0.0
 11
-183.4234114133917
 21
215.73019827523751
 31
0.0
 12
-186.4234114133917
 22
216.23019827523751
 32
0.0
 13
-186.4234114133917
 23
216.23019827523751
 33
0.0
  0
SOLID
  5
4AC
  8
DIM
 62
     0
 10
-132.4234114133917
 20
216.73019827523751
 30
0.0
 11
-132.4234114133917
 21
215.73019827523751
 31
0.0
 12
-129.4234114133917
 22
216.23019827523751
 32
0.0
 13
-129.4234114133917
 23
216.23019827523751
 33
0.0
  0
TEXT
  5
4AD
  8
0
 62
     0
 10
-160.35198284196309
 20
217.7301982752374
 30
0.0
 40
3.0
  1
57
  7
CHINESET
  0
POINT
  5
4AE
  8
DEFPOINTS
 62
     0
 10
-186.4234114133917
 20
237.4567088314588
 30
0.0
  0
POINT
  5
4AF
  8
DEFPOINTS
 62
     0
 10
-129.4234114133917
 20
233.944849615767
 30
0.0
  0
POINT
  5
4B0
  8
DEFPOINTS
 62
     0
 10
-129.4234114133917
 20
216.23019827523751
 30
0.0
  0
ENDBLK
  5
45E
  8
0
  0
BLOCK
  8
0
  2
*D8
 70
     1
 10
0.0
 20
0.0
 30
0.0
  3
*D8
  1

  0
LINE
  5
4BA
  8
DIM
 62
     0
 10
-141.9234114133917
 20
261.19484961576688
 30
0.0
 11
-141.9234114133917
 21
272.78192698177799
 31
0.0
  0
LINE
  5
4BB
  8
DIM
 62
     0
 10
-173.9234114133917
 20
261.19484961576688
 30
0.0
 11
-173.9234114133917
 21
272.78192698177799
 31
0.0
  0
LINE
  5
4BC
  8
DIM
 62
     0
 10
-144.9234114133917
 20
270.78192698177799
 30
0.0
 11
-170.9234114133917
 21
270.78192698177799
 31
0.0
  0
SOLID
  5
4BD
  8
DIM
 62
     0
 10
-144.9234114133917
 20
271.28192698177799
 30
0.0
 11
-144.9234114133917
 21
270.28192698177799
 31
0.0
 12
-141.9234114133917
 22
270.78192698177799
 32
0.0
 13
-141.9234114133917
 23
270.78192698177799
 33
0.0
  0
SOLID
  5
4BE
  8
DIM
 62
     0
 10
-170.9234114133917
 20
271.28192698177799
 30
0.0
 11
-170.9234114133917
 21
270.28192698177799
 31
0.0
 12
-173.9234114133917
 22
270.78192698177799
 32
0.0
 13
-173.9234114133917
 23
270.78192698177799
 33
0.0
  0
TEXT
  5
4BF
  8
0
 62
     0
 10
-160.35198284196309
 20
272.28192698177799
 30
0.0
 40
3.0
  1
32
  7
CHINESET
  0
POINT
  5
4C0
  8
DEFPOINTS
 62
     0
 10
-141.9234114133917
 20
259.19484961576688
 30
0.0
  0
POINT
  5
4C1
  8
DEFPOINTS
 62
     0
 10
-173.9234114133917
 20
259.19484961576688
 30
0.0
  0
POINT
  5
4C2
  8
DEFPOINTS
 62
     0
 10
-173.9234114133917
 20
270.78192698177799
 30
0.0
  0
ENDBLK
  5
46B
  8
0
  0
BLOCK
  8
0
  2
*D9
 70
     1
 10
0.0
 20
0.0
 30
0.0
  3
*D9
  1

  0
LINE
  5
4B1
  8
DIM
 62
     0
 10
-140.4234114133917
 20
228.19484961576691
 30
0.0
 11
-111.0847545885169
 21
228.19484961576691
 31
0.0
  0
LINE
  5
4B2
  8
DIM
 62
     0
 10
-140.4234114133917
 20
259.69484961576688
 30
0.0
 11
-111.0847545885169
 21
259.69484961576688
 31
0.0
  0
LINE
  5
4B3
  8
DIM
 62
     0
 10
-113.0847545885169
 20
231.194849615767
 30
0.0
 11
-113.0847545885169
 21
256.69484961576688
 31
0.0
  0
SOLID
  5
4B4
  8
DIM
 62
     0
 10
-113.5847545885169
 20
231.194849615767
 30
0.0
 11
-112.5847545885169
 21
231.194849615767
 31
0.0
 12
-113.0847545885169
 22
228.19484961576691
 32
0.0
 13
-113.0847545885169
 23
228.19484961576691
 33
0.0
  0
SOLID
  5
4B5
  8
DIM
 62
     0
 10
-113.5847545885169
 20
256.69484961576688
 30
0.0
 11
-112.5847545885169
 21
256.69484961576688
 31
0.0
 12
-113.0847545885169
 22
259.69484961576688
 32
0.0
 13
-113.0847545885169
 23
259.69484961576688
 33
0.0
  0
INSERT
  5
4B6
  8
0
  2
*U13
 10
0.0
 20
0.0
 30
0.0
  0
POINT
  5
4B7
  8
DEFPOINTS
 62
     0
 10
-142.42341141339159
 20
228.19484961576691
 30
0.0
  0
POINT
  5
4B8
  8
DEFPOINTS
 62
     0
 10
-142.42341141339159
 20
259.69484961576688
 30
0.0
  0
POINT
  5
4B9
  8
DEFPOINTS
 62
     0
 10
-113.0847545885169
 20
259.69484961576688
 30
0.0
  0
ENDBLK
  5
478
  8
0
  0
BLOCK
  8
0
  2
*U10
 70
     1
 10
0.0
 20
0.0
 30
0.0
  3
*U10
  1

  0
SOLID
  5
4E2
  8
0
  6
CONTINUOUS
 62
     5
 10
36.663906766200988
 20
13.276535649229769
 30
0.0
 11
28.163906766201048
 21
12.42653564922977
 31
0.0
 12
32.413906766201031
 22
12.42653564922974
 32
0.0
 13
32.413906766201031
 23
12.42653564922974
 33
0.0
210
0.0
220
0.0
230
1.0
  0
SOLID
  5
4E3
  8
0
  6
CONTINUOUS
 62
     5
 10
36.663906766200988
 20
13.276535649229769
 30
0.0
 11
32.413906766201031
 21
12.42653564922974
 31
0.0
 12
32.413906766201059
 22
11.1515356492298
 32
0.0
 13
32.413906766201059
 23
11.1515356492298
 33
0.0
210
0.0
220
0.0
230
1.0
  0
SOLID
  5
4E4
  8
0
  6
CONTINUOUS
 62
     5
 10
32.413906766201023
 20
14.12653564922973
 30
0.0
 11
28.163906766201048
 21
12.42653564922977
 31
0.0
 12
36.663906766200988
 22
13.276535649229769
 32
0.0
 13
36.663906766200988
 23
13.276535649229769
 33
0.0
210
0.0
220
0.0
230
1.0
  0
SOLID
  5
4E5
  8
0
  6
CONTINUOUS
 62
     5
 10
28.163906766201048
 20
14.12653564922976
 30
0.0
 11
28.163906766201048
 21
12.42653564922977
 31
0.0
 12
32.413906766201023
 22
14.12653564922973
 32
0.0
 13
32.413906766201023
 23
14.12653564922973
 33
0.0
  0
SOLID
  5
4E6
  8
0
  6
CONTINUOUS
 62
     5
 10
32.413906766201052
 20
15.401535649229819
 30
0.0
 11
32.413906766201023
 21
14.12653564922973
 31
0.0
 12
36.663906766200988
 22
13.276535649229769
 32
0.0
 13
36.663906766200988
 23
13.276535649229769
 33
0.0
210
0.0
220
0.0
230
1.0
  0
ENDBLK
  5
4E8
  8
0
  0
BLOCK
  8
0
  2
*X11
 70
     1
 10
0.0
 20
0.0
 30
0.0
  3
*X11
  1

  0
LINE
  5
4EA
  8
0
 62
     0
 10
53.024556042244669
 20
40.95196780591457
 30
0.0
 11
51.976523664603477
 21
42.000000183555777
 31
0.0
  0
LINE
  5
4EB
  8
0
 62
     0
 10
51.57240093912867
 20
39.710046072709837
 30
0.0
 11
49.28244682828273
 21
42.000000183555798
 31
0.0
  0
LINE
  5
4EC
  8
0
 62
     0
 10
50.120245836012671
 20
38.468124339505053
 30
0.0
 11
46.588369991961962
 21
42.000000183555763
 31
0.0
  0
LINE
  5
4ED
  8
0
 62
     0
 10
48.668090732896701
 20
37.226202606300298
 30
0.0
 11
43.894293155641229
 21
42.000000183555763
 31
0.0
  0
LINE
  5
4EE
  8
0
 62
     0
 10
47.215935629780709
 20
35.98428087309555
 30
0.0
 11
41.200216319320489
 21
42.000000183555777
 31
0.0
  0
LINE
  5
4EF
  8
0
 62
     0
 10
45.763780526664732
 20
34.742359139890809
 30
0.0
 11
38.506139482999757
 21
42.000000183555777
 31
0.0
  0
LINE
  5
4F0
  8
0
 62
     0
 10
44.311625423548747
 20
33.500437406686061
 30
0.0
 11
38.500000065593298
 21
39.31206276464151
 31
0.0
  0
LINE
  5
4F1
  8
0
 62
     0
 10
42.859470320432727
 20
32.258515673481277
 30
0.0
 11
38.500000065593262
 21
36.617985928320749
 31
0.0
  0
LINE
  5
4F2
  8
0
 62
     0
 10
41.407315217316729
 20
31.01659394027655
 30
0.0
 11
38.500000065593277
 21
33.923909092000002
 31
0.0
  0
LINE
  5
4F3
  8
0
 62
     0
 10
39.955160114200758
 20
29.774672207071792
 30
0.0
 11
38.500000065593277
 21
31.22983225567927
 31
0.0
  0
LINE
  5
4F4
  8
0
 62
     0
 10
38.503005011084788
 20
28.532750473867019
 30
0.0
 11
38.500000065593298
 21
28.535755419358519
 31
0.0
  0
LINE
  5
4F5
  8
0
 62
     0
 10
22.875644219254841
 20
41.466034429376187
 30
0.0
 11
22.341678465075258
 21
42.000000183555763
 31
0.0
  0
LINE
  5
4F6
  8
0
 62
     0
 10
21.42348911613886
 20
40.224112696171431
 30
0.0
 11
19.647601628754519
 21
42.000000183555763
 31
0.0
  0
LINE
  5
4F7
  8
0
 62
     0
 10
19.971334013022879
 20
38.982190962966683
 30
0.0
 11
16.953524792433779
 21
42.000000183555777
 31
0.0
  0
LINE
  5
4F8
  8
0
 62
     0
 10
18.519178909906891
 20
37.740269229761928
 30
0.0
 11
14.25944795611305
 21
42.000000183555777
 31
0.0
  0
LINE
  5
4F9
  8
0
 62
     0
 10
17.067023806790889
 20
36.498347496557173
 30
0.0
 11
11.565371119792269
 21
42.000000183555798
 31
0.0
  0
LINE
  5
4FA
  8
0
 62
     0
 10
15.614868703674899
 20
35.256425763352411
 30
0.0
 11
8.871294283471542
 21
42.000000183555763
 31
0.0
  0
LINE
  5
4FB
  8
0
 62
     0
 10
14.162713600558931
 20
34.014504030147648
 30
0.0
 11
7.2500000655928574
 21
40.927217565113722
 31
0.0
  0
LINE
  5
4FC
  8
0
 62
     0
 10
12.71055849744296
 20
32.772582296942879
 30
0.0
 11
7.2500000655928849
 21
38.233140728792961
 31
0.0
  0
LINE
  5
4FD
  8
0
 62
     0
 10
11.25840339432694
 20
31.530660563738131
 30
0.0
 11
7.2500000655929142
 21
35.539063892472178
 31
0.0
  0
LINE
  5
4FE
  8
0
 62
     0
 10
9.8062482912109346
 20
30.28873883053339
 30
0.0
 11
7.2500000655929284
 21
32.844987056151389
 31
0.0
  0
LINE
  5
4FF
  8
0
 62
     0
 10
8.3540931880949927
 20
29.046817097328599
 30
0.0
 11
7.2500000655929853
 21
30.1509102198306
 31
0.0
  0
LINE
  5
500
  8
0
 62
     0
 10
51.947941367040997
 20
40.031218251990509
 30
0.0
 11
53.9167232986063
 21
42.000000183555812
 31
0.0
  0
LINE
  5
501
  8
0
 62
     0
 10
38.500000065593312
 20
29.277353786863578
 30
0.0
 11
51.222646462285539
 21
42.000000183555777
 31
0.0
  0
LINE
  5
502
  8
0
 62
     0
 10
38.500000065593319
 20
31.971430623184339
 30
0.0
 11
48.528569625964792
 21
42.000000183555777
 31
0.0
  0
LINE
  5
503
  8
0
 62
     0
 10
38.500000065593348
 20
34.665507459505079
 30
0.0
 11
45.834492789644059
 21
42.000000183555777
 31
0.0
  0
LINE
  5
504
  8
0
 62
     0
 10
38.500000065593348
 20
37.35958429582584
 30
0.0
 11
43.140415953323327
 21
42.000000183555812
 31
0.0
  0
LINE
  5
505
  8
0
 62
     0
 10
38.500000065593348
 20
40.053661132146573
 30
0.0
 11
40.446339117002559
 21
42.000000183555777
 31
0.0
  0
LINE
  5
506
  8
0
 62
     0
 10
10.291776980538
 20
30.70397590133647
 30
0.0
 11
21.587801262757349
 21
42.000000183555798
 31
0.0
  0
LINE
  5
507
  8
0
 62
     0
 10
7.2500000655930421
 20
30.356275822712231
 30
0.0
 11
18.893724426436592
 21
42.000000183555777
 31
0.0
  0
LINE
  5
508
  8
0
 62
     0
 10
7.2500000655929853
 20
33.050352659032939
 30
0.0
 11
16.19964759011588
 21
42.000000183555812
 31
0.0
  0
LINE
  5
509
  8
0
 62
     0
 10
7.2500000655929284
 20
35.744429495353629
 30
0.0
 11
13.505570753795091
 21
42.000000183555798
 31
0.0
  0
LINE
  5
50A
  8
0
 62
     0
 10
7.2500000655929284
 20
38.438506331674361
 30
0.0
 11
10.81149391747436
 21
42.000000183555798
 31
0.0
  0
LINE
  5
50B
  8
0
 62
     0
 10
7.2500000655929
 20
41.132583167995108
 30
0.0
 11
8.1174170811536044
 21
42.000000183555777
 31
0.0
  0
ENDBLK
  5
50D
  8
0
  0
BLOCK
  8
0
  2
*U12
 70
     1
 10
0.0
 20
0.0
 30
0.0
  3
*U12
  1

  0
TEXT
  5
50F
  8
0
 62
     0
 10
-63.672634204053402
 20
271.74439508097288
 30
0.0
 40
3.0
  1
\U+2205
 50
90.0
  7
CHINESET
  0
TEXT
  5
510
  8
0
 62
     0
 10
-63.672634204053402
 20
274.45868079525872
 30
0.0
 40
3.0
  1
42
 50
90.0
  7
CHINESET
  0
ENDBLK
  5
512
  8
0
  0
BLOCK
  8
0
  2
*U13
 70
     1
 10
0.0
 20
0.0
 30
0.0
  3
*U13
  1

  0
TEXT
  5
514
  8
0
 62
     0
 10
-114.5847545885169
 20
238.3019924729098
 30
0.0
 40
3.0
  1
\U+2205
 50
90.0
  7
CHINESET
  0
TEXT
  5
515
  8
0
 62
     0
 10
-114.5847545885169
 20
241.0162781871955
 30
0.0
 40
3.0
  1
31.5
 50
90.0
  7
CHINESET
  0
ENDBLK
  5
517
  8
0
  0
ENDSEC
  0
SECTION
  2
ENTITIES
  0
POLYLINE
  5
91
  8
0
 62
     4
 66
     1
 10
0.0
 20
0.0
 30
0.0
 70
     1
  0
VERTEX
  5
4C7
  8
0
 62
     4
 10
-212.87753521322651
 20
278.93869599499908
 30
0.0
  0
VERTEX
  5
4C8
  8
0
 62
     4
 10
-108.20727249234579
 20
278.93869599499908
 30
0.0
  0
VERTEX
  5
4C9
  8
0
 62
     4
 10
-108.20727249234579
 20
205.50906769620971
 30
0.0
  0
VERTEX
  5
4CA
  8
0
 62
     4
 10
-212.87753521322651
 20
205.50906769620971
 30
0.0
  0
SEQEND
  5
4CB
  8
0
 62
     4
  0
LINE
  5
9D
  8
LOGO
 62
     1
 10
-108.20727249234579
 20
205.50906769620971
 30
0.0
 11
-212.87753521322651
 21
205.50906769620971
 31
0.0
  0
LINE
  5
9E
  8
LOGO
 62
     1
 10
-108.20727249234579
 20
185.44692545099241
 30
0.0
 11
-212.87753521322651
 21
185.44692545099241
 31
0.0
  0
LINE
  5
9F
  8
LOGO
  6
CONTINUOUS
 62
     6
 10
-174.73249614667981
 20
200.1772183577896
 30
0.0
 11
-171.08074196144551
 21
200.65957152926899
 31
0.0
  0
LINE
  5
A0
  8
LOGO
  6
CONTINUOUS
 62
     6
 10
-174.73249614667981
 20
198.8122143013141
 30
0.0
 11
-171.08074196144551
 21
198.3298611298348
 31
0.0
  0
LINE
  5
A1
  8
LOGO
 62
     1
 10
-168.74082227374851
 20
201.4966392471662
 30
0.0
 11
-198.16529756673381
 21
201.4966392471662
 31
0.0
  0
LINE
  5
A2
  8
LOGO
 62
     1
 10
-168.74082227374851
 20
197.4842107981228
 30
0.0
 11
-198.16529756673381
 21
197.4842107981228
 31
0.0
  0
TEXT
  5
A3
  8
LOGO
 62
     6
 10
-179.10593163566381
 20
202.49974635942709
 30
0.0
 40
2.0062142245217292
  1
1 : 1
  7
CHINESET
 72
     1
 11
-175.57117324007791
 21
203.50285347168801
 31
0.0
 73
     2
  0
TEXT
  5
A4
  8
LOGO
 62
     6
 10
-179.10593163566381
 20
194.47488946134021
 30
0.0
 40
2.0062142245217292
  1
m/m
  7
CHINESET
 72
     1
 11
-175.57117324007791
 21
195.47799657360099
 31
0.0
 73
     2
  0
LINE
  5
A5
  8
LOGO
 62
     1
 10
-168.74082227374851
 20
193.47178234907929
 30
0.0
 11
-212.87753521322659
 21
193.47178234907929
 31
0.0
  0
TEXT
  5
A6
  8
LOGO
  6
CONTINUOUS
 62
     5
 10
-212.22086742440661
 20
189.3881030186528
 30
0.0
 40
3.0093213367825942
  1
金器工業股份有限公司
 41
0.8
  7
LOGO
  0
TEXT
  5
A7
  8
LOGO
  6
CONTINUOUS
 62
     5
 10
-211.35917929850899
 20
186.37819209082809
 30
0.0
 40
2.0062142245217292
  1
MINDMAN INDUSTRIAL CO.,LTD
 41
0.85
  7
CHINESET
  0
SOLID
  5
A8
  8
LOGO
 62
     5
 10
-210.7960557579957
 20
196.8068279352386
 30
0.0
 11
-209.9286213703738
 21
196.80682793523829
 31
0.0
 12
-206.30932616684751
 22
205.03249885234339
 32
0.0
 13
-205.44189177922561
 23
205.0324988523428
 33
0.0
  0
SOLID
  5
A9
  8
LOGO
 62
     5
 10
-209.56968300308139
 20
196.8068279352386
 30
0.0
 11
-208.70224861545961
 21
196.8068279352386
 31
0.0
 12
-205.44189177922561
 22
204.37444517897481
 32
0.0
 13
-206.30932616684751
 23
201.19385242436081
 33
0.0
  0
SOLID
  5
AA
  8
LOGO
 62
     2
 10
-209.9286213703738
 20
196.80682793523829
 30
0.0
 11
-209.56968300308139
 21
196.8068279352386
 31
0.0
 12
-205.44189177922561
 22
205.0324988523428
 32
0.0
 13
-205.0829534119336
 23
205.0324988523428
 33
0.0
  0
SOLID
  5
AB
  8
LOGO
 62
     5
 10
-209.9038712237959
 20
195.31125140485591
 30
0.0
 11
-209.60475591771959
 21
195.31125140485591
 31
0.0
 12
-209.9038712237959
 22
193.81567487447339
 32
0.0
 13
-209.60475591771959
 23
193.81567487447339
 33
0.0
  0
SOLID
  5
AC
  8
LOGO
 62
     5
 10
-212.1867658023223
 20
193.81567487447339
 30
0.0
 11
-211.88765049624541
 21
193.81567487447339
 31
0.0
 12
-211.0453185130593
 22
195.31125140485591
 32
0.0
 13
-210.7462032069829
 23
195.31125140485591
 33
0.0
  0
SOLID
  5
AD
  8
LOGO
 62
     5
 10
-211.0453185130593
 20
195.31125140485591
 30
0.0
 11
-210.7462032069829
 21
195.31125140485591
 31
0.0
 12
-211.0453185130593
 22
193.81567487447339
 32
0.0
 13
-210.7462032069829
 23
193.81567487447339
 33
0.0
  0
SOLID
  5
AE
  8
LOGO
 62
     5
 10
-211.0453185130593
 20
193.81567487447339
 30
0.0
 11
-210.7462032069829
 21
193.81567487447339
 31
0.0
 12
-209.9038712237959
 22
195.31125140485591
 32
0.0
 13
-209.60475591771959
 23
195.31125140485591
 33
0.0
  0
LINE
  5
AF
  8
LOGO
 62
     1
 10
-212.87753521322651
 20
185.44692545099241
 30
0.0
 11
-212.87753521322651
 21
205.50906769620971
 31
0.0
  0
TEXT
  5
B0
  8
LOGO
 62
     6
 10
-196.51106646285359
 20
202.50073366957699
 30
0.0
 40
2.0062142245217292
  1
比例 Scale:
 41
0.9
  7
CHINESET
 72
     4
 11
-190.1404406686469
 21
203.50285347168801
 31
0.0
  0
TEXT
  5
B1
  8
LOGO
 62
     6
 10
-195.8097871156213
 20
198.5155385255006
 30
0.0
 40
2.0062142245217292
  1
投影 View:
 41
0.9
  7
CHINESET
 72
     4
 11
-190.1404406686469
 21
199.4904250226445
 31
0.0
  0
TEXT
  5
B2
  8
LOGO
 62
     6
 10
-195.61364384992029
 20
194.47488946134021
 30
0.0
 40
2.0062142245217292
  1
單位 Unit:
 41
0.9
  7
CHINESET
 72
     4
 11
-190.1404406686469
 21
195.47799657360099
 31
0.0
  0
POLYLINE
  5
B3
  8
LOGO
 62
     5
 66
     1
 10
0.0
 20
0.0
 30
0.0
 70
     1
 40
0.2995946575285783
 41
0.2995946575285783
  0
VERTEX
  5
4CC
  8
LOGO
 62
     5
 10
-202.62117615378739
 20
194.56346313966449
 30
0.0
 42
1.0
  0
VERTEX
  5
4CD
  8
LOGO
 62
     5
 10
-201.4227975236731
 20
194.56346313966449
 30
0.0
 42
1.0
  0
SEQEND
  5
4CE
  8
LOGO
 62
     5
  0
LINE
  5
B4
  8
LOGO
 62
     5
 10
-199.72878943316391
 20
193.81567487447339
 30
0.0
 11
-199.72878943316391
 21
194.71302079270279
 31
0.0
  0
SOLID
  5
B5
  8
LOGO
 62
     5
 10
-201.57334379114539
 20
195.31125140485591
 30
0.0
 11
-201.2742284850691
 21
195.31125140485591
 31
0.0
 12
-201.57334379114539
 22
193.81567487447339
 32
0.0
 13
-201.2742284850691
 23
193.81567487447339
 33
0.0
  0
SOLID
  5
B6
  8
LOGO
 62
     5
 10
-200.92525065747
 20
193.81567487447339
 30
0.0
 11
-200.6261353513932
 21
193.81567487447339
 31
0.0
 12
-200.92525065747
 22
195.31125140485591
 32
0.0
 13
-200.6261353513932
 23
195.31125140485591
 33
0.0
  0
SOLID
  5
B7
  8
LOGO
 62
     5
 10
-200.02790473924011
 20
194.71302079270279
 30
0.0
 11
-199.72878943316391
 21
194.71302079270279
 31
0.0
 12
-200.02790473924011
 22
193.81567487447339
 32
0.0
 13
-199.72878943316391
 23
193.81567487447339
 33
0.0
  0
SOLID
  5
B8
  8
LOGO
 62
     5
 10
-205.86068311926309
 20
195.75992436397081
 30
0.0
 11
-205.5615678131868
 21
195.75992436397081
 31
0.0
 12
-205.86068311926309
 22
193.81567487447339
 32
0.0
 13
-205.5615678131868
 23
193.81567487447339
 33
0.0
  0
SOLID
  5
B9
  8
LOGO
 62
     5
 10
-205.2125899855869
 20
195.31125140485591
 30
0.0
 11
-204.91347467951061
 21
195.31125140485591
 31
0.0
 12
-205.2125899855869
 22
193.81567487447339
 32
0.0
 13
-204.91347467951061
 23
193.81567487447339
 33
0.0
  0
SOLID
  5
BA
  8
LOGO
 62
     5
 10
-204.3152440673575
 20
194.71302079270279
 30
0.0
 11
-204.01612876128121
 21
194.71302079270279
 31
0.0
 12
-204.3152440673575
 22
193.81567487447339
 32
0.0
 13
-204.01612876128121
 23
193.81567487447339
 33
0.0
  0
SOLID
  5
BB
  8
LOGO
 62
     5
 10
-203.41789814912809
 20
194.71302079270279
 30
0.0
 11
-203.1187828430518
 21
194.71302079270279
 31
0.0
 12
-203.41789814912809
 22
193.8156748744729
 32
0.0
 13
-203.1187828430518
 23
193.8156748744729
 33
0.0
  0
LINE
  5
BC
  8
LOGO
 62
     1
 10
-198.16529756673381
 20
193.47178234907929
 30
0.0
 11
-198.16529756673381
 21
205.50906769620971
 31
0.0
  0
SOLID
  5
BD
  8
LOGO
 62
     5
 10
-208.60258339547491
 20
195.31125140485591
 30
0.0
 11
-208.30346808939859
 21
195.31125140485591
 31
0.0
 12
-208.60258339547491
 22
193.81567487447339
 32
0.0
 13
-208.30346808939859
 23
193.81567487447339
 33
0.0
  0
SOLID
  5
BE
  8
LOGO
 62
     5
 10
-207.7052374772455
 20
194.71302079270279
 30
0.0
 11
-207.4061221711687
 21
194.71302079270279
 31
0.0
 12
-207.7052374772455
 22
193.81567487447339
 32
0.0
 13
-207.4061221711687
 23
193.81567487447339
 33
0.0
  0
SOLID
  5
BF
  8
LOGO
 62
     5
 10
-209.25067652915121
 20
195.31125140485591
 30
0.0
 11
-208.95156122307401
 21
195.31125140485591
 31
0.0
 12
-209.25067652915121
 22
193.8156748744729
 32
0.0
 13
-208.95156122307401
 23
193.81567487447339
 33
0.0
  0
POLYLINE
  5
C0
  8
LOGO
 62
     5
 66
     1
 10
0.0
 20
0.0
 30
0.0
 70
     1
 40
0.2995946575285783
 41
0.2995946575285783
  0
VERTEX
  5
4CF
  8
LOGO
 62
     5
 10
-206.9085154819048
 20
194.56346313966449
 30
0.0
 42
1.0
  0
VERTEX
  5
4D0
  8
LOGO
 62
     5
 10
-205.71013685179051
 20
194.56346313966449
 30
0.0
 42
1.0
  0
SEQEND
  5
4D1
  8
LOGO
 62
     5
  0
POLYLINE
  5
C1
  8
LOGO
 62
     5
 66
     1
 10
0.0
 20
0.0
 30
0.0
 40
0.2995946575285783
 41
0.2995946575285783
  0
VERTEX
  5
4D2
  8
LOGO
 62
     5
 10
-199.87762805902369
 20
194.71302079270279
 30
0.0
 42
1.0
  0
VERTEX
  5
4D3
  8
LOGO
 62
     5
 10
-200.77641203160951
 20
194.71302079270279
 30
0.0
 42
1.0
  0
SEQEND
  5
4D4
  8
LOGO
 62
     5
  0
SOLID
  5
C2
  8
LOGO
 62
     5
 10
-200.5962238207857
 20
196.80682793523829
 30
0.0
 11
-199.72878943316391
 21
196.80682793523829
 31
0.0
 12
-200.5962238207857
 22
205.0324988523428
 32
0.0
 13
-199.72878943316391
 23
205.03249885234339
 33
0.0
  0
SOLID
  5
C3
  8
LOGO
 62
     5
 10
-205.0829534119336
 20
205.0324988523428
 30
0.0
 11
-204.2155190243117
 21
205.03249885234339
 31
0.0
 12
-205.0829534119336
 22
197.4648816086067
 32
0.0
 13
-204.2155190243117
 23
200.6454743632207
 33
0.0
  0
SOLID
  5
C4
  8
LOGO
 62
     5
 10
-205.0829534119336
 20
197.4648816086067
 30
0.0
 11
-204.2155190243117
 21
200.6454743632207
 31
0.0
 12
-200.95516218807779
 22
205.03249885234339
 32
0.0
 13
-201.82259657569969
 23
205.03249885234339
 33
0.0
  0
SOLID
  5
C5
  8
LOGO
 62
     5
 10
-200.95516218807779
 20
204.37444517897481
 30
0.0
 11
-201.82259657569969
 21
201.19385242436081
 31
0.0
 12
-200.95516218807779
 22
196.80682793523829
 32
0.0
 13
-201.82259657569969
 23
196.80682793523829
 33
0.0
  0
SOLID
  5
C6
  8
LOGO
 62
     2
 10
-200.95516218807779
 20
205.03249885234339
 30
0.0
 11
-200.5962238207857
 21
205.0324988523428
 31
0.0
 12
-200.95516218807779
 22
196.80682793523829
 32
0.0
 13
-200.5962238207857
 23
196.80682793523829
 33
0.0
  0
SOLID
  5
C7
  8
LOGO
 62
     5
 10
-206.30932616684751
 20
196.8068279352386
 30
0.0
 11
-205.44189177922561
 21
196.8068279352386
 31
0.0
 12
-206.30932616684751
 22
201.19385242436081
 32
0.0
 13
-205.44189177922561
 23
204.37444517897481
 33
0.0
  0
SOLID
  5
C8
  8
LOGO
 62
     2
 10
-205.44189177922561
 20
205.0324988523428
 30
0.0
 11
-205.0829534119336
 21
205.0324988523428
 31
0.0
 12
-205.44189177922561
 22
196.8068279352386
 32
0.0
 13
-205.0829534119336
 23
196.8068279352386
 33
0.0
  0
SOLID
  5
C9
  8
LOGO
 62
     5
 10
-205.0829534119336
 20
196.8068279352386
 30
0.0
 11
-204.2155190243117
 21
196.8068279352386
 31
0.0
 12
-200.95516218807779
 22
204.37444517897481
 32
0.0
 13
-201.82259657569969
 23
201.19385242436081
 33
0.0
  0
SOLID
  5
CA
  8
LOGO
 62
     2
 10
-205.44189177922561
 20
196.8068279352386
 30
0.0
 11
-205.0829534119336
 21
196.8068279352386
 31
0.0
 12
-200.95516218807779
 22
205.03249885234339
 32
0.0
 13
-200.5962238207857
 23
205.0324988523428
 33
0.0
  0
POLYLINE
  5
CB
  8
LOGO
 62
     5
 66
     1
 10
0.0
 20
0.0
 30
0.0
 40
0.2995946575285783
 41
0.2995946575285783
  0
VERTEX
  5
4D5
  8
LOGO
 62
     5
 10
-204.16496738714119
 20
194.71302079270279
 30
0.0
 42
1.0
  0
VERTEX
  5
4D6
  8
LOGO
 62
     5
 10
-205.06375135972689
 20
194.71302079270279
 30
0.0
 42
1.0
  0
SEQEND
  5
4D7
  8
LOGO
 62
     5
  0
POLYLINE
  5
CC
  8
LOGO
 62
     5
 66
     1
 10
0.0
 20
0.0
 30
0.0
 40
0.2995946575285783
 41
0.2995946575285783
  0
VERTEX
  5
4D8
  8
LOGO
 62
     5
 10
-207.55496079702911
 20
194.71302079270279
 30
0.0
 42
1.0
  0
VERTEX
  5
4D9
  8
LOGO
 62
     5
 10
-208.4537447696149
 20
194.71302079270279
 30
0.0
 42
1.0
  0
SEQEND
  5
4DA
  8
LOGO
 62
     5
  0
SOLID
  5
CD
  8
LOGO
 62
     5
 10
-209.25067652915121
 20
195.52063211910931
 30
0.0
 11
-208.95156122307401
 21
195.52063211910931
 31
0.0
 12
-209.25067652915121
 22
195.75992436397081
 32
0.0
 13
-208.95156122307401
 23
195.75992436397081
 33
0.0
  0
POLYLINE
  5
CE
  8
LOGO
 62
     5
 66
     1
 10
0.0
 20
0.0
 30
0.0
 70
     1
  0
VERTEX
  5
4DB
  8
LOGO
 62
     5
 10
-202.470659797845
 20
194.56346313966469
 30
0.0
 42
1.0000000573306349
  0
VERTEX
  5
4DC
  8
LOGO
 62
     5
 10
-201.5733138796152
 20
194.56346313966469
 30
0.0
 42
1.0000000573306349
  0
SEQEND
  5
4DD
  8
LOGO
 62
     5
  0
CIRCLE
  5
CF
  8
LOGO
 62
     5
 10
-202.0219868387301
 20
194.56346313966469
 30
0.0
 40
0.448672959114799
  0
POLYLINE
  5
D0
  8
LOGO
 62
     5
 66
     1
 10
0.0
 20
0.0
 30
0.0
 40
0.2995946575285783
 41
0.2995946575285783
  0
VERTEX
  5
4DE
  8
LOGO
 62
     5
 10
-203.2676214689117
 20
194.71302079270279
 30
0.0
 42
1.0
  0
VERTEX
  5
4DF
  8
LOGO
 62
     5
 10
-204.16640544149749
 20
194.71302079270279
 30
0.0
 42
1.0
  0
SEQEND
  5
4E0
  8
LOGO
 62
     5
  0
LINE
  5
D1
  8
LOGO
 62
     1
 10
-182.11558377055999
 20
193.47178234907929
 30
0.0
 11
-182.11558377055999
 21
205.50906769620971
 31
0.0
  0
CIRCLE
  5
D2
  8
LOGO
  6
CONTINUOUS
 62
     6
 10
-178.40082720054949
 20
199.49471632955181
 30
0.0
 40
1.164855199717111
  0
CIRCLE
  5
D3
  8
LOGO
  6
CONTINUOUS
 62
     6
 10
-178.40082720054949
 20
199.49471632955181
 30
0.0
 40
0.6825020282377186
  0
LINE
  5
D4
  8
LOGO
 62
     6
 10
-174.73249614667969
 20
198.8122143013141
 30
0.0
 11
-174.73249614667981
 21
200.1772183577896
 31
0.0
  0
TEXT
  5
D5
  8
LOGO
  6
CONTINUOUS
 62
     6
 10
-136.30584614348959
 20
187.95469323164451
 30
0.0
 40
1.671845187101441
  1
Model
  7
CHINESET
 72
     4
 11
-133.12137912043929
 21
188.79061582519529
 31
0.0
  0
TEXT
  5
D6
  8
LOGO
  6
CONTINUOUS
 62
     7
 10
-139.49031316654001
 20
198.8216869478039
 30
0.0
 40
3.3436903742028821
  1
MVHS
  7
CHINESET
 72
     1
 11
-133.12137912043929
 21
200.49353213490539
 31
0.0
 73
     2
  0
LINE
  5
D7
  8
LOGO
 62
     6
 10
-125.09652222235231
 20
203.50285347168801
 30
0.0
 11
-141.1462360185262
 21
203.50285347168801
 31
0.0
  0
LINE
  5
D8
  8
LOGO
 62
     6
 10
-125.09652222235231
 20
197.4842107981228
 30
0.0
 11
-141.1462360185262
 21
197.4842107981228
 31
0.0
  0
LINE
  5
D9
  8
LOGO
 62
     6
 10
-126.4339983720335
 20
194.47488946134021
 30
0.0
 11
-139.80875986884499
 21
194.47488946134021
 31
0.0
  0
LINE
  5
DA
  8
LOGO
 62
     6
 10
-126.4339983720335
 20
187.11877063809379
 30
0.0
 11
-139.80875986884499
 21
187.11877063809379
 31
0.0
  0
TEXT
  5
DB
  8
LOGO
 62
     7
 10
-167.0986378632978
 20
200.48596354666321
 30
0.0
 40
4.0124284490434592
  1
訂購代號:
  7
CHINESET
  0
TEXT
  5
DC
  8
LOGO
 62
     7
 10
-167.57854642675889
 20
196.72018456510179
 30
0.0
 40
2.6749522993623058
  1
Order example:
 41
0.8
  7
CHINESET
  0
LINE
  5
DD
  8
LOGO
 62
     1
 10
-168.74082227374851
 20
185.44692545099241
 30
0.0
 11
-168.74082227374851
 21
205.50906769620971
 31
0.0
  0
LINE
  5
DE
  8
LOGO
 62
     6
 10
-171.08074196144551
 20
198.3298611298348
 30
0.0
 11
-171.08074196144551
 21
200.65957152926899
 31
0.0
  0
LINE
  5
DF
  8
LOGO
 62
     6
 10
-139.80875986884499
 20
194.47488946134021
 30
0.0
 11
-139.80875986884499
 21
187.11877063809379
 31
0.0
  0
LINE
  5
E0
  8
LOGO
 62
     6
 10
-141.1462360185262
 20
203.50285347168801
 30
0.0
 11
-141.1462360185262
 21
197.4842107981228
 31
0.0
  0
TEXT
  5
E1
  8
LOGO
  6
CONTINUOUS
 62
     7
 10
-118.7292053170812
 20
198.78376928826529
 30
0.0
 40
3.3436903742028821
  1
10A
  7
CHINESET
 72
     1
 11
-114.58939818711571
 21
200.4556144753667
 31
0.0
 73
     2
  0
LINE
  5
E2
  8
LOGO
 62
     6
 10
-109.5330460549003
 20
187.11877063809391
 30
0.0
 11
-120.26990602810361
 21
187.11877063809379
 31
0.0
  0
LINE
  5
E3
  8
LOGO
 62
     6
 10
-109.5330460549003
 20
197.4842107981228
 30
0.0
 11
-120.26990602810361
 21
197.4842107981228
 31
0.0
  0
LINE
  5
E4
  8
LOGO
 62
     6
 10
-109.5330460549003
 20
194.47488946134021
 30
0.0
 11
-120.26990602810361
 21
194.47488946134021
 31
0.0
  0
LINE
  5
E5
  8
LOGO
 62
     6
 10
-109.5330460549003
 20
203.50285347168801
 30
0.0
 11
-120.26990602810361
 21
203.50285347168801
 31
0.0
  0
LINE
  5
E6
  8
LOGO
 62
     6
 10
-120.26990602810361
 20
194.47488946134021
 30
0.0
 11
-120.26990602810361
 21
187.11877063809391
 31
0.0
  0
LINE
  5
E7
  8
LOGO
 62
     6
 10
-126.4339983720335
 20
194.47488946134021
 30
0.0
 11
-126.4339983720335
 21
187.11877063809379
 31
0.0
  0
TEXT
  5
E8
  8
LOGO
 62
     6
 10
-135.79633141980159
 20
190.86528355344089
 30
0.0
 40
2.6749522993623058
  1
型式
  7
CHINESET
 72
     4
 11
-133.12137912043929
 21
192.1343061993982
 31
0.0
  0
LINE
  5
E9
  8
LOGO
 62
     6
 10
-133.12137912043929
 20
197.4842107981228
 30
0.0
 11
-133.12137912043929
 21
194.47488946134021
 31
0.0
  0
LINE
  5
EA
  8
LOGO
 62
     6
 10
-120.26990602810361
 20
203.50285347168801
 30
0.0
 11
-120.26990602810361
 21
197.4842107981228
 31
0.0
  0
LINE
  5
EB
  8
LOGO
 62
     6
 10
-125.09652222235231
 20
203.50285347168801
 30
0.0
 11
-125.09652222235231
 21
197.4842107981228
 31
0.0
  0
LINE
  5
EC
  8
LOGO
  6
CONTINUOUS
 62
     7
 10
-123.9683503177751
 20
200.4722131513852
 30
0.0
 11
-121.3107373236415
 21
200.4722131513852
 31
0.0
  0
LINE
  5
EE
  8
LOGO
 62
     6
 10
-109.5330460549003
 20
194.47488946134021
 30
0.0
 11
-109.5330460549003
 21
187.11877063809391
 31
0.0
  0
TEXT
  5
EF
  8
LOGO
  6
CONTINUOUS
 62
     6
 10
-119.35972987377249
 20
187.9546932316446
 30
0.0
 40
1.671845187101441
  1
Port size
 41
0.8
  7
CHINESET
 72
     4
 11
-114.90147604150199
 21
188.79061582519529
 31
0.0
  0
TEXT
  5
F0
  8
LOGO
 62
     6
 10
-119.7414678581606
 20
190.79683004971699
 30
0.0
 40
2.6749522993623058
  1
配管口徑
 41
0.9
  7
CHINESET
 72
     4
 11
-114.90147604150199
 21
192.1343061993982
 31
0.0
  0
LINE
  5
F2
  8
LOGO
 62
     6
 10
-109.5330460549003
 20
203.50285347168801
 30
0.0
 11
-109.5330460549003
 21
197.4842107981228
 31
0.0
  0
LINE
  5
F3
  8
LOGO
 62
     6
 10
-114.9014761957026
 20
197.4842107981228
 30
0.0
 11
-114.9014761957026
 21
194.47488946134021
 31
0.0
  0
LINE
  5
F8
  8
LOGO
 62
     1
 10
-108.20727249234579
 20
185.44692545099241
 30
0.0
 11
-108.20727249234579
 21
205.50906769620971
 31
0.0
  0
LINE
  5
406
  8
CENTER
  6
CENTER
 10
-121.87341141339159
 20
243.944849615767
 30
0.0
 11
-193.97341141339169
 21
243.944849615767
 31
0.0
  0
LINE
  5
40B
  8
0
 10
-185.67366841965989
 20
236.6870761202278
 30
0.0
 11
-177.41563791785279
 21
236.6870761202278
 31
0.0
  0
LINE
  5
40C
  8
0
 10
-176.4234114133917
 20
235.6948496157668
 30
0.0
 11
-177.41563791785279
 21
236.6870761202278
 31
0.0
  0
LINE
  5
40D
  8
0
 10
-185.67366841965989
 20
251.2026231113058
 30
0.0
 11
-177.41563791785279
 21
251.2026231113058
 31
0.0
  0
LINE
  5
40E
  8
0
 10
-176.4234114133917
 20
252.1948496157668
 30
0.0
 11
-177.41563791785279
 21
251.2026231113058
 31
0.0
  0
LINE
  5
40F
  8
0
 10
-177.41563791785279
 20
251.2026231113058
 30
0.0
 11
-177.41563791785279
 21
236.6870761202278
 31
0.0
  0
LINE
  5
410
  8
0
 10
-131.4234114133917
 20
231.49484961576701
 30
0.0
 11
-131.4234114133917
 21
253.97662130129339
 31
0.0
  0
LINE
  5
411
  8
0
 10
-131.4234114133917
 20
256.4948496157669
 30
0.0
 11
-131.4234114133917
 21
257.69484961576688
 31
0.0
  0
LINE
  5
412
  8
0
 10
-132.62341141339169
 20
257.69484961576688
 30
0.0
 11
-131.4234114133917
 21
257.69484961576688
 31
0.0
  0
LINE
  5
413
  8
0
 10
-131.4234114133917
 20
255.06775726924511
 30
0.0
 11
-131.4234114133917
 21
256.4948496157669
 31
0.0
  0
LINE
  5
414
  8
0
 10
-131.4234114133917
 20
256.4948496157669
 30
0.0
 11
-132.62341141339161
 21
256.4948496157669
 31
0.0
  0
LINE
  5
415
  8
0
 10
-131.4234114133917
 20
253.97662130129339
 30
0.0
 11
-131.4234114133917
 21
255.06775726924511
 31
0.0
  0
LINE
  5
416
  8
0
 10
-132.62341141339169
 20
255.06775726924511
 30
0.0
 11
-131.4234114133917
 21
255.06775726924511
 31
0.0
  0
LINE
  5
417
  8
0
 10
-131.4234114133917
 20
253.97662130129339
 30
0.0
 11
-132.62341141339161
 21
253.97662130129339
 31
0.0
  0
LINE
  5
418
  8
0
 10
-132.62341141339169
 20
253.97662130129351
 30
0.0
 11
-132.62341141339169
 21
231.49484961576701
 31
0.0
  0
LINE
  5
419
  8
0
 10
-132.62341141339169
 20
255.06775726924511
 30
0.0
 11
-132.62341141339169
 21
253.97662130129339
 31
0.0
  0
LINE
  5
41A
  8
0
 10
-132.62341141339169
 20
255.06775726924511
 30
0.0
 11
-132.62341141339169
 21
256.4948496157669
 31
0.0
  0
LINE
  5
41B
  8
0
 10
-132.62341141339169
 20
257.69484961576688
 30
0.0
 11
-132.62341141339169
 21
256.4948496157669
 31
0.0
  0
LINE
  5
41C
  8
0
 10
-151.9234114133917
 20
229.444849615767
 30
0.0
 11
-151.9234114133917
 21
258.444849615767
 31
0.0
  0
LINE
  5
41D
  8
0
 10
-163.9234114133917
 20
229.444849615767
 30
0.0
 11
-163.9234114133917
 21
258.444849615767
 31
0.0
  0
LINE
  5
41E
  8
0
 10
-165.17341141339159
 20
228.19484961576691
 30
0.0
 11
-165.17341141339159
 21
259.69484961576688
 31
0.0
  0
LINE
  5
41F
  8
0
 10
-173.4234114133917
 20
228.19484961576691
 30
0.0
 11
-173.4234114133917
 21
259.69484961576688
 31
0.0
  0
LINE
  5
420
  8
0
 10
-173.9234114133917
 20
259.19484961576688
 30
0.0
 11
-173.9234114133917
 21
228.69484961576691
 31
0.0
  0
LINE
  5
421
  8
0
 10
-150.6734114133917
 20
259.69484961576688
 30
0.0
 11
-150.6734114133917
 21
228.19484961576691
 31
0.0
  0
LINE
  5
422
  8
0
 10
-142.42341141339159
 20
259.69484961576688
 30
0.0
 11
-142.42341141339159
 21
228.19484961576691
 31
0.0
  0
LINE
  5
423
  8
0
 10
-141.9234114133917
 20
228.69484961576691
 30
0.0
 11
-141.9234114133917
 21
259.19484961576688
 31
0.0
  0
LINE
  5
424
  8
0
 10
-173.9234114133917
 20
231.24314369359519
 30
0.0
 11
-174.4234114133917
 21
231.24314369359519
 31
0.0
  0
LINE
  5
425
  8
0
 10
-173.9234114133917
 20
256.6465555379387
 30
0.0
 11
-174.4234114133917
 21
256.6465555379387
 31
0.0
  0
LINE
  5
426
  8
0
 10
-173.9234114133917
 20
237.59399665468109
 30
0.0
 11
-174.4234114133917
 21
237.59399665468109
 31
0.0
  0
LINE
  5
427
  8
0
 10
-173.9234114133917
 20
250.29570257685279
 30
0.0
 11
-174.4234114133917
 21
250.29570257685279
 31
0.0
  0
LINE
  5
428
  8
0
 10
-176.4234114133917
 20
233.194849615767
 30
0.0
 11
-176.4234114133917
 21
254.694849615767
 31
0.0
  0
POLYLINE
  8
0
  5
518
  66
     1
 10
0.000000
 20
0.000000
 30
0.000000
  70
     8
  0
VERTEX
  8
0
  5
519
 10
-174.423
 20
231.243
 30
0.000000
  70
    32
  0
VERTEX
  8
0
  5
51A
 10
-174.448
 20
231.270
 30
0.000000
  70
    32
  0
VERTEX
  8
0
  5
51B
 10
-174.473
 20
231.297
 30
0.000000
  70
    32
  0
VERTEX
  8
0
  5
51C
 10
-174.498
 20
231.325
 30
0.000000
  70
    32
  0
VERTEX
  8
0
  5
51D
 10
-174.523
 20
231.352
 30
0.000000
  70
    32
  0
VERTEX
  8
0
  5
51E
 10
-174.548
 20
231.379
 30
0.000000
  70
    32
  0
VERTEX
  8
0
  5
51F
 10
-174.573
 20
231.406
 30
0.000000
  70
    32
  0
VERTEX
  8
0
  5
520
 10
-174.598
 20
231.433
 30
0.000000
  70
    32
  0
VERTEX
  8
0
  5
521
 10
-174.623
 20
231.460
 30
0.000000
  70
    32
  0
VERTEX
  8
0
  5
522
 10
-174.648
 20
231.488
 30
0.000000
  70
    32
  0
VERTEX
  8
0
  5
523
 10
-174.673
 20
231.515
 30
0.000000
  70
    32
  0
VERTEX
  8
0
  5
524
 10
-174.697
 20
231.542
 30
0.000000
  70
    32
  0
VERTEX
  8
0
  5
525
 10
-174.722
 20
231.569
 30
0.000000
  70
    32
  0
VERTEX
  8
0
  5
526
 10
-174.747
 20
231.596
 30
0.000000
  70
    32
  0
VERTEX
  8
0
  5
527
 10
-174.771
 20
231.624
 30
0.000000
  70
    32
  0
VERTEX
  8
0
  5
528
 10
-174.796
 20
231.651
 30
0.000000
  70
    32
  0
VERTEX
  8
0
  5
529
 10
-174.820
 20
231.678
 30
0.000000
  70
    32
  0
VERTEX
  8
0
  5
52A
 10
-174.844
 20
231.705
 30
0.000000
  70
    32
  0
VERTEX
  8
0
  5
52B
 10
-174.868
 20
231.733
 30
0.000000
  70
    32
  0
VERTEX
  8
0
  5
52C
 10
-174.893
 20
231.760
 30
0.000000
  70
    32
  0
VERTEX
  8
0
  5
52D
 10
-174.917
 20
231.787
 30
0.000000
  70
    32
  0
VERTEX
  8
0
  5
52E
 10
-174.941
 20
231.815
 30
0.000000
  70
    32
  0
VERTEX
  8
0
  5
52F
 10
-174.964
 20
231.842
 30
0.000000
  70
    32
  0
VERTEX
  8
0
  5
530
 10
-174.988
 20
231.869
 30
0.000000
  70
    32
  0
VERTEX
  8
0
  5
531
 10
-175.012
 20
231.897
 30
0.000000
  70
    32
  0
VERTEX
  8
0
  5
532
 10
-175.035
 20
231.924
 30
0.000000
  70
    32
  0
VERTEX
  8
0
  5
533
 10
-175.059
 20
231.951
 30
0.000000
  70
    32
  0
VERTEX
  8
0
  5
534
 10
-175.082
 20
231.979
 30
0.000000
  70
    32
  0
VERTEX
  8
0
  5
535
 10
-175.105
 20
232.006
 30
0.000000
  70
    32
  0
VERTEX
  8
0
  5
536
 10
-175.128
 20
232.034
 30
0.000000
  70
    32
  0
VERTEX
  8
0
  5
537
 10
-175.151
 20
232.061
 30
0.000000
  70
    32
  0
VERTEX
  8
0
  5
538
 10
-175.174
 20
232.089
 30
0.000000
  70
    32
  0
VERTEX
  8
0
  5
539
 10
-175.196
 20
232.116
 30
0.000000
  70
    32
  0
VERTEX
  8
0
  5
53A
 10
-175.218
 20
232.144
 30
0.000000
  70
    32
  0
VERTEX
  8
0
  5
53B
 10
-175.241
 20
232.172
 30
0.000000
  70
    32
  0
VERTEX
  8
0
  5
53C
 10
-175.263
 20
232.199
 30
0.000000
  70
    32
  0
VERTEX
  8
0
  5
53D
 10
-175.285
 20
232.227
 30
0.000000
  70
    32
  0
VERTEX
  8
0
  5
53E
 10
-175.306
 20
232.254
 30
0.000000
  70
    32
  0
VERTEX
  8
0
  5
53F
 10
-175.328
 20
232.282
 30
0.000000
  70
    32
  0
VERTEX
  8
0
  5
540
 10
-175.349
 20
232.310
 30
0.000000
  70
    32
  0
VERTEX
  8
0
  5
541
 10
-175.370
 20
232.338
 30
0.000000
  70
    32
  0
VERTEX
  8
0
  5
542
 10
-175.391
 20
232.366
 30
0.000000
  70
    32
  0
VERTEX
  8
0
  5
543
 10
-175.412
 20
232.393
 30
0.000000
  70
    32
  0
VERTEX
  8
0
  5
544
 10
-175.432
 20
232.421
 30
0.000000
  70
    32
  0
VERTEX
  8
0
  5
545
 10
-175.453
 20
232.449
 30
0.000000
  70
    32
  0
VERTEX
  8
0
  5
546
 10
-175.473
 20
232.477
 30
0.000000
  70
    32
  0
VERTEX
  8
0
  5
547
 10
-175.493
 20
232.505
 30
0.000000
  70
    32
  0
VERTEX
  8
0
  5
548
 10
-175.512
 20
232.533
 30
0.000000
  70
    32
  0
VERTEX
  8
0
  5
549
 10
-175.532
 20
232.561
 30
0.000000
  70
    32
  0
VERTEX
  8
0
  5
54A
 10
-175.551
 20
232.589
 30
0.000000
  70
    32
  0
VERTEX
  8
0
  5
54B
 10
-175.570
 20
232.618
 30
0.000000
  70
    32
  0
VERTEX
  8
0
  5
54C
 10
-175.589
 20
232.646
 30
0.000000
  70
    32
  0
VERTEX
  8
0
  5
54D
 10
-175.607
 20
232.674
 30
0.000000
  70
    32
  0
VERTEX
  8
0
  5
54E
 10
-175.625
 20
232.702
 30
0.000000
  70
    32
  0
VERTEX
  8
0
  5
54F
 10
-175.643
 20
232.730
 30
0.000000
  70
    32
  0
VERTEX
  8
0
  5
550
 10
-175.661
 20
232.759
 30
0.000000
  70
    32
  0
VERTEX
  8
0
  5
551
 10
-175.678
 20
232.787
 30
0.000000
  70
    32
  0
VERTEX
  8
0
  5
552
 10
-175.695
 20
232.816
 30
0.000000
  70
    32
  0
VERTEX
  8
0
  5
553
 10
-175.712
 20
232.844
 30
0.000000
  70
    32
  0
VERTEX
  8
0
  5
554
 10
-175.729
 20
232.873
 30
0.000000
  70
    32
  0
VERTEX
  8
0
  5
555
 10
-175.745
 20
232.901
 30
0.000000
  70
    32
  0
VERTEX
  8
0
  5
556
 10
-175.761
 20
232.930
 30
0.000000
  70
    32
  0
VERTEX
  8
0
  5
557
 10
-175.776
 20
232.959
 30
0.000000
  70
    32
  0
VERTEX
  8
0
  5
558
 10
-175.792
 20
232.987
 30
0.000000
  70
    32
  0
VERTEX
  8
0
  5
559
 10
-175.807
 20
233.016
 30
0.000000
  70
    32
  0
VERTEX
  8
0
  5
55A
 10
-175.822
 20
233.045
 30
0.000000
  70
    32
  0
VERTEX
  8
0
  5
55B
 10
-175.836
 20
233.074
 30
0.000000
  70
    32
  0
VERTEX
  8
0
  5
55C
 10
-175.850
 20
233.103
 30
0.000000
  70
    32
  0
VERTEX
  8
0
  5
55D
 10
-175.864
 20
233.132
 30
0.000000
  70
    32
  0
VERTEX
  8
0
  5
55E
 10
-175.878
 20
233.161
 30
0.000000
  70
    32
  0
VERTEX
  8
0
  5
55F
 10
-175.891
 20
233.190
 30
0.000000
  70
    32
  0
VERTEX
  8
0
  5
560
 10
-175.904
 20
233.219
 30
0.000000
  70
    32
  0
VERTEX
  8
0
  5
561
 10
-175.917
 20
233.248
 30
0.000000
  70
    32
  0
VERTEX
  8
0
  5
562
 10
-175.929
 20
233.277
 30
0.000000
  70
    32
  0
VERTEX
  8
0
  5
563
 10
-175.941
 20
233.306
 30
0.000000
  70
    32
  0
VERTEX
  8
0
  5
564
 10
-175.953
 20
233.335
 30
0.000000
  70
    32
  0
VERTEX
  8
0
  5
565
 10
-175.964
 20
233.365
 30
0.000000
  70
    32
  0
VERTEX
  8
0
  5
566
 10
-175.975
 20
233.394
 30
0.000000
  70
    32
  0
VERTEX
  8
0
  5
567
 10
-175.986
 20
233.423
 30
0.000000
  70
    32
  0
VERTEX
  8
0
  5
568
 10
-175.996
 20
233.453
 30
0.000000
  70
    32
  0
VERTEX
  8
0
  5
569
 10
-176.007
 20
233.482
 30
0.000000
  70
    32
  0
VERTEX
  8
0
  5
56A
 10
-176.017
 20
233.512
 30
0.000000
  70
    32
  0
VERTEX
  8
0
  5
56B
 10
-176.026
 20
233.541
 30
0.000000
  70
    32
  0
VERTEX
  8
0
  5
56C
 10
-176.035
 20
233.571
 30
0.000000
  70
    32
  0
VERTEX
  8
0
  5
56D
 10
-176.044
 20
233.600
 30
0.000000
  70
    32
  0
VERTEX
  8
0
  5
56E
 10
-176.053
 20
233.630
 30
0.000000
  70
    32
  0
VERTEX
  8
0
  5
56F
 10
-176.061
 20
233.659
 30
0.000000
  70
    32
  0
VERTEX
  8
0
  5
570
 10
-176.069
 20
233.689
 30
0.000000
  70
    32
  0
VERTEX
  8
0
  5
571
 10
-176.077
 20
233.718
 30
0.000000
  70
    32
  0
VERTEX
  8
0
  5
572
 10
-176.084
 20
233.748
 30
0.000000
  70
    32
  0
VERTEX
  8
0
  5
573
 10
-176.091
 20
233.778
 30
0.000000
  70
    32
  0
VERTEX
  8
0
  5
574
 10
-176.098
 20
233.807
 30
0.000000
  70
    32
  0
VERTEX
  8
0
  5
575
 10
-176.105
 20
233.837
 30
0.000000
  70
    32
  0
VERTEX
  8
0
  5
576
 10
-176.111
 20
233.867
 30
0.000000
  70
    32
  0
VERTEX
  8
0
  5
577
 10
-176.117
 20
233.896
 30
0.000000
  70
    32
  0
VERTEX
  8
0
  5
578
 10
-176.122
 20
233.926
 30
0.000000
  70
    32
  0
VERTEX
  8
0
  5
579
 10
-176.127
 20
233.956
 30
0.000000
  70
    32
  0
VERTEX
  8
0
  5
57A
 10
-176.132
 20
233.986
 30
0.000000
  70
    32
  0
VERTEX
  8
0
  5
57B
 10
-176.137
 20
234.015
 30
0.000000
  70
    32
  0
VERTEX
  8
0
  5
57C
 10
-176.141
 20
234.045
 30
0.000000
  70
    32
  0
VERTEX
  8
0
  5
57D
 10
-176.145
 20
234.075
 30
0.000000
  70
    32
  0
VERTEX
  8
0
  5
57E
 10
-176.148
 20
234.105
 30
0.000000
  70
    32
  0
VERTEX
  8
0
  5
57F
 10
-176.152
 20
234.135
 30
0.000000
  70
    32
  0
VERTEX
  8
0
  5
580
 10
-176.154
 20
234.165
 30
0.000000
  70
    32
  0
VERTEX
  8
0
  5
581
 10
-176.157
 20
234.194
 30
0.000000
  70
    32
  0
VERTEX
  8
0
  5
582
 10
-176.159
 20
234.224
 30
0.000000
  70
    32
  0
VERTEX
  8
0
  5
583
 10
-176.161
 20
234.254
 30
0.000000
  70
    32
  0
VERTEX
  8
0
  5
584
 10
-176.163
 20
234.284
 30
0.000000
  70
    32
  0
VERTEX
  8
0
  5
585
 10
-176.164
 20
234.314
 30
0.000000
  70
    32
  0
VERTEX
  8
0
  5
586
 10
-176.165
 20
234.344
 30
0.000000
  70
    32
  0
VERTEX
  8
0
  5
587
 10
-176.166
 20
234.374
 30
0.000000
  70
    32
  0
VERTEX
  8
0
  5
588
 10
-176.166
 20
234.404
 30
0.000000
  70
    32
  0
VERTEX
  8
0
  5
589
 10
-176.166
 20
234.434
 30
0.000000
  70
    32
  0
VERTEX
  8
0
  5
58A
 10
-176.166
 20
234.463
 30
0.000000
  70
    32
  0
VERTEX
  8
0
  5
58B
 10
-176.165
 20
234.493
 30
0.000000
  70
    32
  0
VERTEX
  8
0
  5
58C
 10
-176.164
 20
234.523
 30
0.000000
  70
    32
  0
VERTEX
  8
0
  5
58D
 10
-176.163
 20
234.553
 30
0.000000
  70
    32
  0
VERTEX
  8
0
  5
58E
 10
-176.161
 20
234.583
 30
0.000000
  70
    32
  0
VERTEX
  8
0
  5
58F
 10
-176.159
 20
234.613
 30
0.000000
  70
    32
  0
VERTEX
  8
0
  5
590
 10
-176.157
 20
234.643
 30
0.000000
  70
    32
  0
VERTEX
  8
0
  5
591
 10
-176.154
 20
234.673
 30
0.000000
  70
    32
  0
VERTEX
  8
0
  5
592
 10
-176.152
 20
234.702
 30
0.000000
  70
    32
  0
VERTEX
  8
0
  5
593
 10
-176.148
 20
234.732
 30
0.000000
  70
    32
  0
VERTEX
  8
0
  5
594
 10
-176.145
 20
234.762
 30
0.000000
  70
    32
  0
VERTEX
  8
0
  5
595
 10
-176.141
 20
234.792
 30
0.000000
  70
    32
  0
VERTEX
  8
0
  5
596
 10
-176.137
 20
234.822
 30
0.000000
  70
    32
  0
VERTEX
  8
0
  5
597
 10
-176.132
 20
234.851
 30
0.000000
  70
    32
  0
VERTEX
  8
0
  5
598
 10
-176.127
 20
234.881
 30
0.000000
  70
    32
  0
VERTEX
  8
0
  5
599
 10
-176.122
 20
234.911
 30
0.000000
  70
    32
  0
VERTEX
  8
0
  5
59A
 10
-176.117
 20
234.941
 30
0.000000
  70
    32
  0
VERTEX
  8
0
  5
59B
 10
-176.111
 20
234.970
 30
0.000000
  70
    32
  0
VERTEX
  8
0
  5
59C
 10
-176.105
 20
235.000
 30
0.000000
  70
    32
  0
VERTEX
  8
0
  5
59D
 10
-176.098
 20
235.030
 30
0.000000
  70
    32
  0
VERTEX
  8
0
  5
59E
 10
-176.091
 20
235.060
 30
0.000000
  70
    32
  0
VERTEX
  8
0
  5
59F
 10
-176.084
 20
235.089
 30
0.000000
  70
    32
  0
VERTEX
  8
0
  5
5A0
 10
-176.077
 20
235.119
 30
0.000000
  70
    32
  0
VERTEX
  8
0
  5
5A1
 10
-176.069
 20
235.148
 30
0.000000
  70
    32
  0
VERTEX
  8
0
  5
5A2
 10
-176.061
 20
235.178
 30
0.000000
  70
    32
  0
VERTEX
  8
0
  5
5A3
 10
-176.053
 20
235.208
 30
0.000000
  70
    32
  0
VERTEX
  8
0
  5
5A4
 10
-176.044
 20
235.237
 30
0.000000
  70
    32
  0
VERTEX
  8
0
  5
5A5
 10
-176.035
 20
235.267
 30
0.000000
  70
    32
  0
VERTEX
  8
0
  5
5A6
 10
-176.026
 20
235.296
 30
0.000000
  70
    32
  0
VERTEX
  8
0
  5
5A7
 10
-176.017
 20
235.326
 30
0.000000
  70
    32
  0
VERTEX
  8
0
  5
5A8
 10
-176.007
 20
235.355
 30
0.000000
  70
    32
  0
VERTEX
  8
0
  5
5A9
 10
-175.996
 20
235.384
 30
0.000000
  70
    32
  0
VERTEX
  8
0
  5
5AA
 10
-175.986
 20
235.414
 30
0.000000
  70
    32
  0
VERTEX
  8
0
  5
5AB
 10
-175.975
 20
235.443
 30
0.000000
  70
    32
  0
VERTEX
  8
0
  5
5AC
 10
-175.964
 20
235.472
 30
0.000000
  70
    32
  0
VERTEX
  8
0
  5
5AD
 10
-175.953
 20
235.502
 30
0.000000
  70
    32
  0
VERTEX
  8
0
  5
5AE
 10
-175.941
 20
235.531
 30
0.000000
  70
    32
  0
VERTEX
  8
0
  5
5AF
 10
-175.929
 20
235.560
 30
0.000000
  70
    32
  0
VERTEX
  8
0
  5
5B0
 10
-175.917
 20
235.589
 30
0.000000
  70
    32
  0
VERTEX
  8
0
  5
5B1
 10
-175.904
 20
235.618
 30
0.000000
  70
    32
  0
VERTEX
  8
0
  5
5B2
 10
-175.891
 20
235.647
 30
0.000000
  70
    32
  0
VERTEX
  8
0
  5
5B3
 10
-175.878
 20
235.676
 30
0.000000
  70
    32
  0
VERTEX
  8
0
  5
5B4
 10
-175.864
 20
235.705
 30
0.000000
  70
    32
  0
VERTEX
  8
0
  5
5B5
 10
-175.850
 20
235.734
 30
0.000000
  70
    32
  0
VERTEX
  8
0
  5
5B6
 10
-175.836
 20
235.763
 30
0.000000
  70
    32
  0
VERTEX
  8
0
  5
5B7
 10
-175.822
 20
235.792
 30
0.000000
  70
    32
  0
VERTEX
  8
0
  5
5B8
 10
-175.807
 20
235.821
 30
0.000000
  70
    32
  0
VERTEX
  8
0
  5
5B9
 10
-175.792
 20
235.850
 30
0.000000
  70
    32
  0
VERTEX
  8
0
  5
5BA
 10
-175.776
 20
235.879
 30
0.000000
  70
    32
  0
VERTEX
  8
0
  5
5BB
 10
-175.761
 20
235.907
 30
0.000000
  70
    32
  0
VERTEX
  8
0
  5
5BC
 10
-175.745
 20
235.936
 30
0.000000
  70
    32
  0
VERTEX
  8
0
  5
5BD
 10
-175.729
 20
235.964
 30
0.000000
  70
    32
  0
VERTEX
  8
0
  5
5BE
 10
-175.712
 20
235.993
 30
0.000000
  70
    32
  0
VERTEX
  8
0
  5
5BF
 10
-175.695
 20
236.021
 30
0.000000
  70
    32
  0
VERTEX
  8
0
  5
5C0
 10
-175.678
 20
236.050
 30
0.000000
  70
    32
  0
VERTEX
  8
0
  5
5C1
 10
-175.661
 20
236.078
 30
0.000000
  70
    32
  0
VERTEX
  8
0
  5
5C2
 10
-175.643
 20
236.107
 30
0.000000
  70
    32
  0
VERTEX
  8
0
  5
5C3
 10
-175.625
 20
236.135
 30
0.000000
  70
    32
  0
VERTEX
  8
0
  5
5C4
 10
-175.607
 20
236.163
 30
0.000000
  70
    32
  0
VERTEX
  8
0
  5
5C5
 10
-175.589
 20
236.191
 30
0.000000
  70
    32
  0
VERTEX
  8
0
  5
5C6
 10
-175.570
 20
236.220
 30
0.000000
  70
    32
  0
VERTEX
  8
0
  5
5C7
 10
-175.551
 20
236.248
 30
0.000000
  70
    32
  0
VERTEX
  8
0
  5
5C8
 10
-175.532
 20
236.276
 30
0.000000
  70
    32
  0
VERTEX
  8
0
  5
5C9
 10
-175.512
 20
236.304
 30
0.000000
  70
    32
  0
VERTEX
  8
0
  5
5CA
 10
-175.493
 20
236.332
 30
0.000000
  70
    32
  0
VERTEX
  8
0
  5
5CB
 10
-175.473
 20
236.360
 30
0.000000
  70
    32
  0
VERTEX
  8
0
  5
5CC
 10
-175.453
 20
236.388
 30
0.000000
  70
    32
  0
VERTEX
  8
0
  5
5CD
 10
-175.432
 20
236.416
 30
0.000000
  70
    32
  0
VERTEX
  8
0
  5
5CE
 10
-175.412
 20
236.444
 30
0.000000
  70
    32
  0
VERTEX
  8
0
  5
5CF
 10
-175.391
 20
236.472
 30
0.000000
  70
    32
  0
VERTEX
  8
0
  5
5D0
 10
-175.370
 20
236.499
 30
0.000000
  70
    32
  0
VERTEX
  8
0
  5
5D1
 10
-175.349
 20
236.527
 30
0.000000
  70
    32
  0
VERTEX
  8
0
  5
5D2
 10
-175.328
 20
236.555
 30
0.000000
  70
    32
  0
VERTEX
  8
0
  5
5D3
 10
-175.306
 20
236.583
 30
0.000000
  70
    32
  0
VERTEX
  8
0
  5
5D4
 10
-175.285
 20
236.610
 30
0.000000
  70
    32
  0
VERTEX
  8
0
  5
5D5
 10
-175.263
 20
236.638
 30
0.000000
  70
    32
  0
VERTEX
  8
0
  5
5D6
 10
-175.241
 20
236.666
 30
0.000000
  70
    32
  0
VERTEX
  8
0
  5
5D7
 10
-175.218
 20
236.693
 30
0.000000
  70
    32
  0
VERTEX
  8
0
  5
5D8
 10
-175.196
 20
236.721
 30
0.000000
  70
    32
  0
VERTEX
  8
0
  5
5D9
 10
-175.174
 20
236.748
 30
0.000000
  70
    32
  0
VERTEX
  8
0
  5
5DA
 10
-175.151
 20
236.776
 30
0.000000
  70
    32
  0
VERTEX
  8
0
  5
5DB
 10
-175.128
 20
236.803
 30
0.000000
  70
    32
  0
VERTEX
  8
0
  5
5DC
 10
-175.105
 20
236.831
 30
0.000000
  70
    32
  0
VERTEX
  8
0
  5
5DD
 10
-175.082
 20
236.858
 30
0.000000
  70
    32
  0
VERTEX
  8
0
  5
5DE
 10
-175.059
 20
236.886
 30
0.000000
  70
    32
  0
VERTEX
  8
0
  5
5DF
 10
-175.035
 20
236.913
 30
0.000000
  70
    32
  0
VERTEX
  8
0
  5
5E0
 10
-175.012
 20
236.941
 30
0.000000
  70
    32
  0
VERTEX
  8
0
  5
5E1
 10
-174.988
 20
236.968
 30
0.000000
  70
    32
  0
VERTEX
  8
0
  5
5E2
 10
-174.964
 20
236.995
 30
0.000000
  70
    32
  0
VERTEX
  8
0
  5
5E3
 10
-174.941
 20
237.023
 30
0.000000
  70
    32
  0
VERTEX
  8
0
  5
5E4
 10
-174.917
 20
237.050
 30
0.000000
  70
    32
  0
VERTEX
  8
0
  5
5E5
 10
-174.893
 20
237.077
 30
0.000000
  70
    32
  0
VERTEX
  8
0
  5
5E6
 10
-174.868
 20
237.105
 30
0.000000
  70
    32
  0
VERTEX
  8
0
  5
5E7
 10
-174.844
 20
237.132
 30
0.000000
  70
    32
  0
VERTEX
  8
0
  5
5E8
 10
-174.820
 20
237.159
 30
0.000000
  70
    32
  0
VERTEX
  8
0
  5
5E9
 10
-174.796
 20
237.186
 30
0.000000
  70
    32
  0
VERTEX
  8
0
  5
5EA
 10
-174.771
 20
237.214
 30
0.000000
  70
    32
  0
VERTEX
  8
0
  5
5EB
 10
-174.747
 20
237.241
 30
0.000000
  70
    32
  0
VERTEX
  8
0
  5
5EC
 10
-174.722
 20
237.268
 30
0.000000
  70
    32
  0
VERTEX
  8
0
  5
5ED
 10
-174.697
 20
237.295
 30
0.000000
  70
    32
  0
VERTEX
  8
0
  5
5EE
 10
-174.673
 20
237.322
 30
0.000000
  70
    32
  0
VERTEX
  8
0
  5
5EF
 10
-174.648
 20
237.350
 30
0.000000
  70
    32
  0
VERTEX
  8
0
  5
5F0
 10
-174.623
 20
237.377
 30
0.000000
  70
    32
  0
VERTEX
  8
0
  5
5F1
 10
-174.598
 20
237.404
 30
0.000000
  70
    32
  0
VERTEX
  8
0
  5
5F2
 10
-174.573
 20
237.431
 30
0.000000
  70
    32
  0
VERTEX
  8
0
  5
5F3
 10
-174.548
 20
237.458
 30
0.000000
  70
    32
  0
VERTEX
  8
0
  5
5F4
 10
-174.523
 20
237.485
 30
0.000000
  70
    32
  0
VERTEX
  8
0
  5
5F5
 10
-174.498
 20
237.513
 30
0.000000
  70
    32
  0
VERTEX
  8
0
  5
5F6
 10
-174.473
 20
237.540
 30
0.000000
  70
    32
  0
VERTEX
  8
0
  5
5F7
 10
-174.448
 20
237.567
 30
0.000000
  70
    32
  0
VERTEX
  8
0
  5
5F8
 10
-174.423
 20
237.594
 30
0.000000
  70
    32
  0
SEQEND
  8
0
  5
5F9
  0
POLYLINE
  8
0
  5
5FA
  66
     1
 10
0.000000
 20
0.000000
 30
0.000000
  70
     8
  0
VERTEX
  8
0
  5
5FB
 10
-174.423
 20
237.594
 30
0.000000
  70
    32
  0
VERTEX
  8
0
  5
5FC
 10
-174.448
 20
237.648
 30
0.000000
  70
    32
  0
VERTEX
  8
0
  5
5FD
 10
-174.473
 20
237.703
 30
0.000000
  70
    32
  0
VERTEX
  8
0
  5
5FE
 10
-174.498
 20
237.757
 30
0.000000
  70
    32
  0
VERTEX
  8
0
  5
5FF
 10
-174.523
 20
237.811
 30
0.000000
  70
    32
  0
VERTEX
  8
0
  5
600
 10
-174.548
 20
237.865
 30
0.000000
  70
    32
  0
VERTEX
  8
0
  5
601
 10
-174.573
 20
237.920
 30
0.000000
  70
    32
  0
VERTEX
  8
0
  5
602
 10
-174.598
 20
237.974
 30
0.000000
  70
    32
  0
VERTEX
  8
0
  5
603
 10
-174.623
 20
238.028
 30
0.000000
  70
    32
  0
VERTEX
  8
0
  5
604
 10
-174.648
 20
238.083
 30
0.000000
  70
    32
  0
VERTEX
  8
0
  5
605
 10
-174.673
 20
238.137
 30
0.000000
  70
    32
  0
VERTEX
  8
0
  5
606
 10
-174.697
 20
238.192
 30
0.000000
  70
    32
  0
VERTEX
  8
0
  5
607
 10
-174.722
 20
238.246
 30
0.000000
  70
    32
  0
VERTEX
  8
0
  5
608
 10
-174.747
 20
238.300
 30
0.000000
  70
    32
  0
VERTEX
  8
0
  5
609
 10
-174.771
 20
238.355
 30
0.000000
  70
    32
  0
VERTEX
  8
0
  5
60A
 10
-174.796
 20
238.409
 30
0.000000
  70
    32
  0
VERTEX
  8
0
  5
60B
 10
-174.820
 20
238.464
 30
0.000000
  70
    32
  0
VERTEX
  8
0
  5
60C
 10
-174.844
 20
238.518
 30
0.000000
  70
    32
  0
VERTEX
  8
0
  5
60D
 10
-174.868
 20
238.573
 30
0.000000
  70
    32
  0
VERTEX
  8
0
  5
60E
 10
-174.893
 20
238.627
 30
0.000000
  70
    32
  0
VERTEX
  8
0
  5
60F
 10
-174.917
 20
238.682
 30
0.000000
  70
    32
  0
VERTEX
  8
0
  5
610
 10
-174.941
 20
238.737
 30
0.000000
  70
    32
  0
VERTEX
  8
0
  5
611
 10
-174.964
 20
238.791
 30
0.000000
  70
    32
  0
VERTEX
  8
0
  5
612
 10
-174.988
 20
238.846
 30
0.000000
  70
    32
  0
VERTEX
  8
0
  5
613
 10
-175.012
 20
238.901
 30
0.000000
  70
    32
  0
VERTEX
  8
0
  5
614
 10
-175.035
 20
238.956
 30
0.000000
  70
    32
  0
VERTEX
  8
0
  5
615
 10
-175.059
 20
239.010
 30
0.000000
  70
    32
  0
VERTEX
  8
0
  5
616
 10
-175.082
 20
239.065
 30
0.000000
  70
    32
  0
VERTEX
  8
0
  5
617
 10
-175.105
 20
239.120
 30
0.000000
  70
    32
  0
VERTEX
  8
0
  5
618
 10
-175.128
 20
239.175
 30
0.000000
  70
    32
  0
VERTEX
  8
0
  5
619
 10
-175.151
 20
239.230
 30
0.000000
  70
    32
  0
VERTEX
  8
0
  5
61A
 10
-175.174
 20
239.285
 30
0.000000
  70
    32
  0
VERTEX
  8
0
  5
61B
 10
-175.196
 20
239.340
 30
0.000000
  70
    32
  0
VERTEX
  8
0
  5
61C
 10
-175.218
 20
239.396
 30
0.000000
  70
    32
  0
VERTEX
  8
0
  5
61D
 10
-175.241
 20
239.451
 30
0.000000
  70
    32
  0
VERTEX
  8
0
  5
61E
 10
-175.263
 20
239.506
 30
0.000000
  70
    32
  0
VERTEX
  8
0
  5
61F
 10
-175.285
 20
239.561
 30
0.000000
  70
    32
  0
VERTEX
  8
0
  5
620
 10
-175.306
 20
239.617
 30
0.000000
  70
    32
  0
VERTEX
  8
0
  5
621
 10
-175.328
 20
239.672
 30
0.000000
  70
    32
  0
VERTEX
  8
0
  5
622
 10
-175.349
 20
239.728
 30
0.000000
  70
    32
  0
VERTEX
  8
0
  5
623
 10
-175.370
 20
239.783
 30
0.000000
  70
    32
  0
VERTEX
  8
0
  5
624
 10
-175.391
 20
239.839
 30
0.000000
  70
    32
  0
VERTEX
  8
0
  5
625
 10
-175.412
 20
239.895
 30
0.000000
  70
    32
  0
VERTEX
  8
0
  5
626
 10
-175.432
 20
239.950
 30
0.000000
  70
    32
  0
VERTEX
  8
0
  5
627
 10
-175.453
 20
240.006
 30
0.000000
  70
    32
  0
VERTEX
  8
0
  5
628
 10
-175.473
 20
240.062
 30
0.000000
  70
    32
  0
VERTEX
  8
0
  5
629
 10
-175.493
 20
240.118
 30
0.000000
  70
    32
  0
VERTEX
  8
0
  5
62A
 10
-175.512
 20
240.174
 30
0.000000
  70
    32
  0
VERTEX
  8
0
  5
62B
 10
-175.532
 20
240.230
 30
0.000000
  70
    32
  0
VERTEX
  8
0
  5
62C
 10
-175.551
 20
240.286
 30
0.000000
  70
    32
  0
VERTEX
  8
0
  5
62D
 10
-175.570
 20
240.343
 30
0.000000
  70
    32
  0
VERTEX
  8
0
  5
62E
 10
-175.589
 20
240.399
 30
0.000000
  70
    32
  0
VERTEX
  8
0
  5
62F
 10
-175.607
 20
240.456
 30
0.000000
  70
    32
  0
VERTEX
  8
0
  5
630
 10
-175.625
 20
240.512
 30
0.000000
  70
    32
  0
VERTEX
  8
0
  5
631
 10
-175.643
 20
240.569
 30
0.000000
  70
    32
  0
VERTEX
  8
0
  5
632
 10
-175.661
 20
240.625
 30
0.000000
  70
    32
  0
VERTEX
  8
0
  5
633
 10
-175.678
 20
240.682
 30
0.000000
  70
    32
  0
VERTEX
  8
0
  5
634
 10
-175.695
 20
240.739
 30
0.000000
  70
    32
  0
VERTEX
  8
0
  5
635
 10
-175.712
 20
240.796
 30
0.000000
  70
    32
  0
VERTEX
  8
0
  5
636
 10
-175.729
 20
240.853
 30
0.000000
  70
    32
  0
VERTEX
  8
0
  5
637
 10
-175.745
 20
240.910
 30
0.000000
  70
    32
  0
VERTEX
  8
0
  5
638
 10
-175.761
 20
240.968
 30
0.000000
  70
    32
  0
VERTEX
  8
0
  5
639
 10
-175.776
 20
241.025
 30
0.000000
  70
    32
  0
VERTEX
  8
0
  5
63A
 10
-175.792
 20
241.082
 30
0.000000
  70
    32
  0
VERTEX
  8
0
  5
63B
 10
-175.807
 20
241.140
 30
0.000000
  70
    32
  0
VERTEX
  8
0
  5
63C
 10
-175.822
 20
241.198
 30
0.000000
  70
    32
  0
VERTEX
  8
0
  5
63D
 10
-175.836
 20
241.255
 30
0.000000
  70
    32
  0
VERTEX
  8
0
  5
63E
 10
-175.850
 20
241.313
 30
0.000000
  70
    32
  0
VERTEX
  8
0
  5
63F
 10
-175.864
 20
241.371
 30
0.000000
  70
    32
  0
VERTEX
  8
0
  5
640
 10
-175.878
 20
241.429
 30
0.000000
  70
    32
  0
VERTEX
  8
0
  5
641
 10
-175.891
 20
241.487
 30
0.000000
  70
    32
  0
VERTEX
  8
0
  5
642
 10
-175.904
 20
241.545
 30
0.000000
  70
    32
  0
VERTEX
  8
0
  5
643
 10
-175.917
 20
241.604
 30
0.000000
  70
    32
  0
VERTEX
  8
0
  5
644
 10
-175.929
 20
241.662
 30
0.000000
  70
    32
  0
VERTEX
  8
0
  5
645
 10
-175.941
 20
241.720
 30
0.000000
  70
    32
  0
VERTEX
  8
0
  5
646
 10
-175.953
 20
241.779
 30
0.000000
  70
    32
  0
VERTEX
  8
0
  5
647
 10
-175.964
 20
241.837
 30
0.000000
  70
    32
  0
VERTEX
  8
0
  5
648
 10
-175.975
 20
241.896
 30
0.000000
  70
    32
  0
VERTEX
  8
0
  5
649
 10
-175.986
 20
241.954
 30
0.000000
  70
    32
  0
VERTEX
  8
0
  5
64A
 10
-175.996
 20
242.013
 30
0.000000
  70
    32
  0
VERTEX
  8
0
  5
64B
 10
-176.007
 20
242.072
 30
0.000000
  70
    32
  0
VERTEX
  8
0
  5
64C
 10
-176.017
 20
242.131
 30
0.000000
  70
    32
  0
VERTEX
  8
0
  5
64D
 10
-176.026
 20
242.190
 30
0.000000
  70
    32
  0
VERTEX
  8
0
  5
64E
 10
-176.035
 20
242.249
 30
0.000000
  70
    32
  0
VERTEX
  8
0
  5
64F
 10
-176.044
 20
242.308
 30
0.000000
  70
    32
  0
VERTEX
  8
0
  5
650
 10
-176.053
 20
242.367
 30
0.000000
  70
    32
  0
VERTEX
  8
0
  5
651
 10
-176.061
 20
242.426
 30
0.000000
  70
    32
  0
VERTEX
  8
0
  5
652
 10
-176.069
 20
242.485
 30
0.000000
  70
    32
  0
VERTEX
  8
0
  5
653
 10
-176.077
 20
242.544
 30
0.000000
  70
    32
  0
VERTEX
  8
0
  5
654
 10
-176.084
 20
242.604
 30
0.000000
  70
    32
  0
VERTEX
  8
0
  5
655
 10
-176.091
 20
242.663
 30
0.000000
  70
    32
  0
VERTEX
  8
0
  5
656
 10
-176.098
 20
242.722
 30
0.000000
  70
    32
  0
VERTEX
  8
0
  5
657
 10
-176.105
 20
242.782
 30
0.000000
  70
    32
  0
VERTEX
  8
0
  5
658
 10
-176.111
 20
242.841
 30
0.000000
  70
    32
  0
VERTEX
  8
0
  5
659
 10
-176.117
 20
242.901
 30
0.000000
  70
    32
  0
VERTEX
  8
0
  5
65A
 10
-176.122
 20
242.960
 30
0.000000
  70
    32
  0
VERTEX
  8
0
  5
65B
 10
-176.127
 20
243.020
 30
0.000000
  70
    32
  0
VERTEX
  8
0
  5
65C
 10
-176.132
 20
243.079
 30
0.000000
  70
    32
  0
VERTEX
  8
0
  5
65D
 10
-176.137
 20
243.139
 30
0.000000
  70
    32
  0
VERTEX
  8
0
  5
65E
 10
-176.141
 20
243.198
 30
0.000000
  70
    32
  0
VERTEX
  8
0
  5
65F
 10
-176.145
 20
243.258
 30
0.000000
  70
    32
  0
VERTEX
  8
0
  5
660
 10
-176.148
 20
243.318
 30
0.000000
  70
    32
  0
VERTEX
  8
0
  5
661
 10
-176.152
 20
243.377
 30
0.000000
  70
    32
  0
VERTEX
  8
0
  5
662
 10
-176.154
 20
243.437
 30
0.000000
  70
    32
  0
VERTEX
  8
0
  5
663
 10
-176.157
 20
243.497
 30
0.000000
  70
    32
  0
VERTEX
  8
0
  5
664
 10
-176.159
 20
243.556
 30
0.000000
  70
    32
  0
VERTEX
  8
0
  5
665
 10
-176.161
 20
243.616
 30
0.000000
  70
    32
  0
VERTEX
  8
0
  5
666
 10
-176.163
 20
243.676
 30
0.000000
  70
    32
  0
VERTEX
  8
0
  5
667
 10
-176.164
 20
243.736
 30
0.000000
  70
    32
  0
VERTEX
  8
0
  5
668
 10
-176.165
 20
243.795
 30
0.000000
  70
    32
  0
VERTEX
  8
0
  5
669
 10
-176.166
 20
243.855
 30
0.000000
  70
    32
  0
VERTEX
  8
0
  5
66A
 10
-176.166
 20
243.915
 30
0.000000
  70
    32
  0
VERTEX
  8
0
  5
66B
 10
-176.166
 20
243.975
 30
0.000000
  70
    32
  0
VERTEX
  8
0
  5
66C
 10
-176.166
 20
244.035
 30
0.000000
  70
    32
  0
VERTEX
  8
0
  5
66D
 10
-176.165
 20
244.094
 30
0.000000
  70
    32
  0
VERTEX
  8
0
  5
66E
 10
-176.164
 20
244.154
 30
0.000000
  70
    32
  0
VERTEX
  8
0
  5
66F
 10
-176.163
 20
244.214
 30
0.000000
  70
    32
  0
VERTEX
  8
0
  5
670
 10
-176.161
 20
244.274
 30
0.000000
  70
    32
  0
VERTEX
  8
0
  5
671
 10
-176.159
 20
244.333
 30
0.000000
  70
    32
  0
VERTEX
  8
0
  5
672
 10
-176.157
 20
244.393
 30
0.000000
  70
    32
  0
VERTEX
  8
0
  5
673
 10
-176.154
 20
244.453
 30
0.000000
  70
    32
  0
VERTEX
  8
0
  5
674
 10
-176.152
 20
244.512
 30
0.000000
  70
    32
  0
VERTEX
  8
0
  5
675
 10
-176.148
 20
244.572
 30
0.000000
  70
    32
  0
VERTEX
  8
0
  5
676
 10
-176.145
 20
244.632
 30
0.000000
  70
    32
  0
VERTEX
  8
0
  5
677
 10
-176.141
 20
244.691
 30
0.000000
  70
    32
  0
VERTEX
  8
0
  5
678
 10
-176.137
 20
244.751
 30
0.000000
  70
    32
  0
VERTEX
  8
0
  5
679
 10
-176.132
 20
244.811
 30
0.000000
  70
    32
  0
VERTEX
  8
0
  5
67A
 10
-176.127
 20
244.870
 30
0.000000
  70
    32
  0
VERTEX
  8
0
  5
67B
 10
-176.122
 20
244.930
 30
0.000000
  70
    32
  0
VERTEX
  8
0
  5
67C
 10
-176.117
 20
244.989
 30
0.000000
  70
    32
  0
VERTEX
  8
0
  5
67D
 10
-176.111
 20
245.049
 30
0.000000
  70
    32
  0
VERTEX
  8
0
  5
67E
 10
-176.105
 20
245.108
 30
0.000000
  70
    32
  0
VERTEX
  8
0
  5
67F
 10
-176.098
 20
245.167
 30
0.000000
  70
    32
  0
VERTEX
  8
0
  5
680
 10
-176.091
 20
245.227
 30
0.000000
  70
    32
  0
VERTEX
  8
0
  5
681
 10
-176.084
 20
245.286
 30
0.000000
  70
    32
  0
VERTEX
  8
0
  5
682
 10
-176.077
 20
245.345
 30
0.000000
  70
    32
  0
VERTEX
  8
0
  5
683
 10
-176.069
 20
245.405
 30
0.000000
  70
    32
  0
VERTEX
  8
0
  5
684
 10
-176.061
 20
245.464
 30
0.000000
  70
    32
  0
VERTEX
  8
0
  5
685
 10
-176.053
 20
245.523
 30
0.000000
  70
    32
  0
VERTEX
  8
0
  5
686
 10
-176.044
 20
245.582
 30
0.000000
  70
    32
  0
VERTEX
  8
0
  5
687
 10
-176.035
 20
245.641
 30
0.000000
  70
    32
  0
VERTEX
  8
0
  5
688
 10
-176.026
 20
245.700
 30
0.000000
  70
    32
  0
VERTEX
  8
0
  5
689
 10
-176.017
 20
245.759
 30
0.000000
  70
    32
  0
VERTEX
  8
0
  5
68A
 10
-176.007
 20
245.818
 30
0.000000
  70
    32
  0
VERTEX
  8
0
  5
68B
 10
-175.996
 20
245.876
 30
0.000000
  70
    32
  0
VERTEX
  8
0
  5
68C
 10
-175.986
 20
245.935
 30
0.000000
  70
    32
  0
VERTEX
  8
0
  5
68D
 10
-175.975
 20
245.994
 30
0.000000
  70
    32
  0
VERTEX
  8
0
  5
68E
 10
-175.964
 20
246.052
 30
0.000000
  70
    32
  0
VERTEX
  8
0
  5
68F
 10
-175.953
 20
246.111
 30
0.000000
  70
    32
  0
VERTEX
  8
0
  5
690
 10
-175.941
 20
246.169
 30
0.000000
  70
    32
  0
VERTEX
  8
0
  5
691
 10
-175.929
 20
246.228
 30
0.000000
  70
    32
  0
VERTEX
  8
0
  5
692
 10
-175.917
 20
246.286
 30
0.000000
  70
    32
  0
VERTEX
  8
0
  5
693
 10
-175.904
 20
246.344
 30
0.000000
  70
    32
  0
VERTEX
  8
0
  5
694
 10
-175.891
 20
246.403
 30
0.000000
  70
    32
  0
VERTEX
  8
0
  5
695
 10
-175.878
 20
246.461
 30
0.000000
  70
    32
  0
VERTEX
  8
0
  5
696
 10
-175.864
 20
246.519
 30
0.000000
  70
    32
  0
VERTEX
  8
0
  5
697
 10
-175.850
 20
246.577
 30
0.000000
  70
    32
  0
VERTEX
  8
0
  5
698
 10
-175.836
 20
246.634
 30
0.000000
  70
    32
  0
VERTEX
  8
0
  5
699
 10
-175.822
 20
246.692
 30
0.000000
  70
    32
  0
VERTEX
  8
0
  5
69A
 10
-175.807
 20
246.750
 30
0.000000
  70
    32
  0
VERTEX
  8
0
  5
69B
 10
-175.792
 20
246.807
 30
0.000000
  70
    32
  0
VERTEX
  8
0
  5
69C
 10
-175.776
 20
246.865
 30
0.000000
  70
    32
  0
VERTEX
  8
0
  5
69D
 10
-175.761
 20
246.922
 30
0.000000
  70
    32
  0
VERTEX
  8
0
  5
69E
 10
-175.745
 20
246.979
 30
0.000000
  70
    32
  0
VERTEX
  8
0
  5
69F
 10
-175.729
 20
247.037
 30
0.000000
  70
    32
  0
VERTEX
  8
0
  5
6A0
 10
-175.712
 20
247.094
 30
0.000000
  70
    32
  0
VERTEX
  8
0
  5
6A1
 10
-175.695
 20
247.151
 30
0.000000
  70
    32
  0
VERTEX
  8
0
  5
6A2
 10
-175.678
 20
247.207
 30
0.000000
  70
    32
  0
VERTEX
  8
0
  5
6A3
 10
-175.661
 20
247.264
 30
0.000000
  70
    32
  0
VERTEX
  8
0
  5
6A4
 10
-175.643
 20
247.321
 30
0.000000
  70
    32
  0
VERTEX
  8
0
  5
6A5
 10
-175.625
 20
247.378
 30
0.000000
  70
    32
  0
VERTEX
  8
0
  5
6A6
 10
-175.607
 20
247.434
 30
0.000000
  70
    32
  0
VERTEX
  8
0
  5
6A7
 10
-175.589
 20
247.491
 30
0.000000
  70
    32
  0
VERTEX
  8
0
  5
6A8
 10
-175.570
 20
247.547
 30
0.000000
  70
    32
  0
VERTEX
  8
0
  5
6A9
 10
-175.551
 20
247.603
 30
0.000000
  70
    32
  0
VERTEX
  8
0
  5
6AA
 10
-175.532
 20
247.659
 30
0.000000
  70
    32
  0
VERTEX
  8
0
  5
6AB
 10
-175.512
 20
247.716
 30
0.000000
  70
    32
  0
VERTEX
  8
0
  5
6AC
 10
-175.493
 20
247.772
 30
0.000000
  70
    32
  0
VERTEX
  8
0
  5
6AD
 10
-175.473
 20
247.828
 30
0.000000
  70
    32
  0
VERTEX
  8
0
  5
6AE
 10
-175.453
 20
247.884
 30
0.000000
  70
    32
  0
VERTEX
  8
0
  5
6AF
 10
-175.432
 20
247.939
 30
0.000000
  70
    32
  0
VERTEX
  8
0
  5
6B0
 10
-175.412
 20
247.995
 30
0.000000
  70
    32
  0
VERTEX
  8
0
  5
6B1
 10
-175.391
 20
248.051
 30
0.000000
  70
    32
  0
VERTEX
  8
0
  5
6B2
 10
-175.370
 20
248.106
 30
0.000000
  70
    32
  0
VERTEX
  8
0
  5
6B3
 10
-175.349
 20
248.162
 30
0.000000
  70
    32
  0
VERTEX
  8
0
  5
6B4
 10
-175.328
 20
248.218
 30
0.000000
  70
    32
  0
VERTEX
  8
0
  5
6B5
 10
-175.306
 20
248.273
 30
0.000000
  70
    32
  0
VERTEX
  8
0
  5
6B6
 10
-175.285
 20
248.328
 30
0.000000
  70
    32
  0
VERTEX
  8
0
  5
6B7
 10
-175.263
 20
248.384
 30
0.000000
  70
    32
  0
VERTEX
  8
0
  5
6B8
 10
-175.241
 20
248.439
 30
0.000000
  70
    32
  0
VERTEX
  8
0
  5
6B9
 10
-175.218
 20
248.494
 30
0.000000
  70
    32
  0
VERTEX
  8
0
  5
6BA
 10
-175.196
 20
248.549
 30
0.000000
  70
    32
  0
VERTEX
  8
0
  5
6BB
 10
-175.174
 20
248.604
 30
0.000000
  70
    32
  0
VERTEX
  8
0
  5
6BC
 10
-175.151
 20
248.659
 30
0.000000
  70
    32
  0
VERTEX
  8
0
  5
6BD
 10
-175.128
 20
248.715
 30
0.000000
  70
    32
  0
VERTEX
  8
0
  5
6BE
 10
-175.105
 20
248.769
 30
0.000000
  70
    32
  0
VERTEX
  8
0
  5
6BF
 10
-175.082
 20
248.824
 30
0.000000
  70
    32
  0
VERTEX
  8
0
  5
6C0
 10
-175.059
 20
248.879
 30
0.000000
  70
    32
  0
VERTEX
  8
0
  5
6C1
 10
-175.035
 20
248.934
 30
0.000000
  70
    32
  0
VERTEX
  8
0
  5
6C2
 10
-175.012
 20
248.989
 30
0.000000
  70
    32
  0
VERTEX
  8
0
  5
6C3
 10
-174.988
 20
249.044
 30
0.000000
  70
    32
  0
VERTEX
  8
0
  5
6C4
 10
-174.964
 20
249.098
 30
0.000000
  70
    32
  0
VERTEX
  8
0
  5
6C5
 10
-174.941
 20
249.153
 30
0.000000
  70
    32
  0
VERTEX
  8
0
  5
6C6
 10
-174.917
 20
249.208
 30
0.000000
  70
    32
  0
VERTEX
  8
0
  5
6C7
 10
-174.893
 20
249.262
 30
0.000000
  70
    32
  0
VERTEX
  8
0
  5
6C8
 10
-174.868
 20
249.317
 30
0.000000
  70
    32
  0
VERTEX
  8
0
  5
6C9
 10
-174.844
 20
249.371
 30
0.000000
  70
    32
  0
VERTEX
  8
0
  5
6CA
 10
-174.820
 20
249.426
 30
0.000000
  70
    32
  0
VERTEX
  8
0
  5
6CB
 10
-174.796
 20
249.480
 30
0.000000
  70
    32
  0
VERTEX
  8
0
  5
6CC
 10
-174.771
 20
249.535
 30
0.000000
  70
    32
  0
VERTEX
  8
0
  5
6CD
 10
-174.747
 20
249.589
 30
0.000000
  70
    32
  0
VERTEX
  8
0
  5
6CE
 10
-174.722
 20
249.644
 30
0.000000
  70
    32
  0
VERTEX
  8
0
  5
6CF
 10
-174.697
 20
249.698
 30
0.000000
  70
    32
  0
VERTEX
  8
0
  5
6D0
 10
-174.673
 20
249.752
 30
0.000000
  70
    32
  0
VERTEX
  8
0
  5
6D1
 10
-174.648
 20
249.807
 30
0.000000
  70
    32
  0
VERTEX
  8
0
  5
6D2
 10
-174.623
 20
249.861
 30
0.000000
  70
    32
  0
VERTEX
  8
0
  5
6D3
 10
-174.598
 20
249.916
 30
0.000000
  70
    32
  0
VERTEX
  8
0
  5
6D4
 10
-174.573
 20
249.970
 30
0.000000
  70
    32
  0
VERTEX
  8
0
  5
6D5
 10
-174.548
 20
250.024
 30
0.000000
  70
    32
  0
VERTEX
  8
0
  5
6D6
 10
-174.523
 20
250.079
 30
0.000000
  70
    32
  0
VERTEX
  8
0
  5
6D7
 10
-174.498
 20
250.133
 30
0.000000
  70
    32
  0
VERTEX
  8
0
  5
6D8
 10
-174.473
 20
250.187
 30
0.000000
  70
    32
  0
VERTEX
  8
0
  5
6D9
 10
-174.448
 20
250.241
 30
0.000000
  70
    32
  0
VERTEX
  8
0
  5
6DA
 10
-174.423
 20
250.296
 30
0.000000
  70
    32
  0
SEQEND
  8
0
  5
6DB
  0
POLYLINE
  8
0
  5
6DC
  66
     1
 10
0.000000
 20
0.000000
 30
0.000000
  70
     8
  0
VERTEX
  8
0
  5
6DD
 10
-174.423
 20
250.296
 30
0.000000
  70
    32
  0
VERTEX
  8
0
  5
6DE
 10
-174.448
 20
250.323
 30
0.000000
  70
    32
  0
VERTEX
  8
0
  5
6DF
 10
-174.473
 20
250.350
 30
0.000000
  70
    32
  0
VERTEX
  8
0
  5
6E0
 10
-174.498
 20
250.377
 30
0.000000
  70
    32
  0
VERTEX
  8
0
  5
6E1
 10
-174.523
 20
250.404
 30
0.000000
  70
    32
  0
VERTEX
  8
0
  5
6E2
 10
-174.548
 20
250.431
 30
0.000000
  70
    32
  0
VERTEX
  8
0
  5
6E3
 10
-174.573
 20
250.459
 30
0.000000
  70
    32
  0
VERTEX
  8
0
  5
6E4
 10
-174.598
 20
250.486
 30
0.000000
  70
    32
  0
VERTEX
  8
0
  5
6E5
 10
-174.623
 20
250.513
 30
0.000000
  70
    32
  0
VERTEX
  8
0
  5
6E6
 10
-174.648
 20
250.540
 30
0.000000
  70
    32
  0
VERTEX
  8
0
  5
6E7
 10
-174.673
 20
250.567
 30
0.000000
  70
    32
  0
VERTEX
  8
0
  5
6E8
 10
-174.697
 20
250.594
 30
0.000000
  70
    32
  0
VERTEX
  8
0
  5
6E9
 10
-174.722
 20
250.622
 30
0.000000
  70
    32
  0
VERTEX
  8
0
  5
6EA
 10
-174.747
 20
250.649
 30
0.000000
  70
    32
  0
VERTEX
  8
0
  5
6EB
 10
-174.771
 20
250.676
 30
0.000000
  70
    32
  0
VERTEX
  8
0
  5
6EC
 10
-174.796
 20
250.703
 30
0.000000
  70
    32
  0
VERTEX
  8
0
  5
6ED
 10
-174.820
 20
250.731
 30
0.000000
  70
    32
  0
VERTEX
  8
0
  5
6EE
 10
-174.844
 20
250.758
 30
0.000000
  70
    32
  0
VERTEX
  8
0
  5
6EF
 10
-174.868
 20
250.785
 30
0.000000
  70
    32
  0
VERTEX
  8
0
  5
6F0
 10
-174.893
 20
250.812
 30
0.000000
  70
    32
  0
VERTEX
  8
0
  5
6F1
 10
-174.917
 20
250.840
 30
0.000000
  70
    32
  0
VERTEX
  8
0
  5
6F2
 10
-174.941
 20
250.867
 30
0.000000
  70
    32
  0
VERTEX
  8
0
  5
6F3
 10
-174.964
 20
250.894
 30
0.000000
  70
    32
  0
VERTEX
  8
0
  5
6F4
 10
-174.988
 20
250.922
 30
0.000000
  70
    32
  0
VERTEX
  8
0
  5
6F5
 10
-175.012
 20
250.949
 30
0.000000
  70
    32
  0
VERTEX
  8
0
  5
6F6
 10
-175.035
 20
250.977
 30
0.000000
  70
    32
  0
VERTEX
  8
0
  5
6F7
 10
-175.059
 20
251.004
 30
0.000000
  70
    32
  0
VERTEX
  8
0
  5
6F8
 10
-175.082
 20
251.031
 30
0.000000
  70
    32
  0
VERTEX
  8
0
  5
6F9
 10
-175.105
 20
251.059
 30
0.000000
  70
    32
  0
VERTEX
  8
0
  5
6FA
 10
-175.128
 20
251.086
 30
0.000000
  70
    32
  0
VERTEX
  8
0
  5
6FB
 10
-175.151
 20
251.114
 30
0.000000
  70
    32
  0
VERTEX
  8
0
  5
6FC
 10
-175.174
 20
251.141
 30
0.000000
  70
    32
  0
VERTEX
  8
0
  5
6FD
 10
-175.196
 20
251.169
 30
0.000000
  70
    32
  0
VERTEX
  8
0
  5
6FE
 10
-175.218
 20
251.196
 30
0.000000
  70
    32
  0
VERTEX
  8
0
  5
6FF
 10
-175.241
 20
251.224
 30
0.000000
  70
    32
  0
VERTEX
  8
0
  5
700
 10
-175.263
 20
251.252
 30
0.000000
  70
    32
  0
VERTEX
  8
0
  5
701
 10
-175.285
 20
251.279
 30
0.000000
  70
    32
  0
VERTEX
  8
0
  5
702
 10
-175.306
 20
251.307
 30
0.000000
  70
    32
  0
VERTEX
  8
0
  5
703
 10
-175.328
 20
251.335
 30
0.000000
  70
    32
  0
VERTEX
  8
0
  5
704
 10
-175.349
 20
251.363
 30
0.000000
  70
    32
  0
VERTEX
  8
0
  5
705
 10
-175.370
 20
251.390
 30
0.000000
  70
    32
  0
VERTEX
  8
0
  5
706
 10
-175.391
 20
251.418
 30
0.000000
  70
    32
  0
VERTEX
  8
0
  5
707
 10
-175.412
 20
251.446
 30
0.000000
  70
    32
  0
VERTEX
  8
0
  5
708
 10
-175.432
 20
251.474
 30
0.000000
  70
    32
  0
VERTEX
  8
0
  5
709
 10
-175.453
 20
251.502
 30
0.000000
  70
    32
  0
VERTEX
  8
0
  5
70A
 10
-175.473
 20
251.530
 30
0.000000
  70
    32
  0
VERTEX
  8
0
  5
70B
 10
-175.493
 20
251.558
 30
0.000000
  70
    32
  0
VERTEX
  8
0
  5
70C
 10
-175.512
 20
251.586
 30
0.000000
  70
    32
  0
VERTEX
  8
0
  5
70D
 10
-175.532
 20
251.614
 30
0.000000
  70
    32
  0
VERTEX
  8
0
  5
70E
 10
-175.551
 20
251.642
 30
0.000000
  70
    32
  0
VERTEX
  8
0
  5
70F
 10
-175.570
 20
251.670
 30
0.000000
  70
    32
  0
VERTEX
  8
0
  5
710
 10
-175.589
 20
251.698
 30
0.000000
  70
    32
  0
VERTEX
  8
0
  5
711
 10
-175.607
 20
251.726
 30
0.000000
  70
    32
  0
VERTEX
  8
0
  5
712
 10
-175.625
 20
251.755
 30
0.000000
  70
    32
  0
VERTEX
  8
0
  5
713
 10
-175.643
 20
251.783
 30
0.000000
  70
    32
  0
VERTEX
  8
0
  5
714
 10
-175.661
 20
251.811
 30
0.000000
  70
    32
  0
VERTEX
  8
0
  5
715
 10
-175.678
 20
251.840
 30
0.000000
  70
    32
  0
VERTEX
  8
0
  5
716
 10
-175.695
 20
251.868
 30
0.000000
  70
    32
  0
VERTEX
  8
0
  5
717
 10
-175.712
 20
251.897
 30
0.000000
  70
    32
  0
VERTEX
  8
0
  5
718
 10
-175.729
 20
251.925
 30
0.000000
  70
    32
  0
VERTEX
  8
0
  5
719
 10
-175.745
 20
251.954
 30
0.000000
  70
    32
  0
VERTEX
  8
0
  5
71A
 10
-175.761
 20
251.983
 30
0.000000
  70
    32
  0
VERTEX
  8
0
  5
71B
 10
-175.776
 20
252.011
 30
0.000000
  70
    32
  0
VERTEX
  8
0
  5
71C
 10
-175.792
 20
252.040
 30
0.000000
  70
    32
  0
VERTEX
  8
0
  5
71D
 10
-175.807
 20
252.069
 30
0.000000
  70
    32
  0
VERTEX
  8
0
  5
71E
 10
-175.822
 20
252.098
 30
0.000000
  70
    32
  0
VERTEX
  8
0
  5
71F
 10
-175.836
 20
252.126
 30
0.000000
  70
    32
  0
VERTEX
  8
0
  5
720
 10
-175.850
 20
252.155
 30
0.000000
  70
    32
  0
VERTEX
  8
0
  5
721
 10
-175.864
 20
252.184
 30
0.000000
  70
    32
  0
VERTEX
  8
0
  5
722
 10
-175.878
 20
252.213
 30
0.000000
  70
    32
  0
VERTEX
  8
0
  5
723
 10
-175.891
 20
252.242
 30
0.000000
  70
    32
  0
VERTEX
  8
0
  5
724
 10
-175.904
 20
252.271
 30
0.000000
  70
    32
  0
VERTEX
  8
0
  5
725
 10
-175.917
 20
252.300
 30
0.000000
  70
    32
  0
VERTEX
  8
0
  5
726
 10
-175.929
 20
252.330
 30
0.000000
  70
    32
  0
VERTEX
  8
0
  5
727
 10
-175.941
 20
252.359
 30
0.000000
  70
    32
  0
VERTEX
  8
0
  5
728
 10
-175.953
 20
252.388
 30
0.000000
  70
    32
  0
VERTEX
  8
0
  5
729
 10
-175.964
 20
252.417
 30
0.000000
  70
    32
  0
VERTEX
  8
0
  5
72A
 10
-175.975
 20
252.447
 30
0.000000
  70
    32
  0
VERTEX
  8
0
  5
72B
 10
-175.986
 20
252.476
 30
0.000000
  70
    32
  0
VERTEX
  8
0
  5
72C
 10
-175.996
 20
252.505
 30
0.000000
  70
    32
  0
VERTEX
  8
0
  5
72D
 10
-176.007
 20
252.535
 30
0.000000
  70
    32
  0
VERTEX
  8
0
  5
72E
 10
-176.017
 20
252.564
 30
0.000000
  70
    32
  0
VERTEX
  8
0
  5
72F
 10
-176.026
 20
252.594
 30
0.000000
  70
    32
  0
VERTEX
  8
0
  5
730
 10
-176.035
 20
252.623
 30
0.000000
  70
    32
  0
VERTEX
  8
0
  5
731
 10
-176.044
 20
252.653
 30
0.000000
  70
    32
  0
VERTEX
  8
0
  5
732
 10
-176.053
 20
252.682
 30
0.000000
  70
    32
  0
VERTEX
  8
0
  5
733
 10
-176.061
 20
252.712
 30
0.000000
  70
    32
  0
VERTEX
  8
0
  5
734
 10
-176.069
 20
252.741
 30
0.000000
  70
    32
  0
VERTEX
  8
0
  5
735
 10
-176.077
 20
252.771
 30
0.000000
  70
    32
  0
VERTEX
  8
0
  5
736
 10
-176.084
 20
252.800
 30
0.000000
  70
    32
  0
VERTEX
  8
0
  5
737
 10
-176.091
 20
252.830
 30
0.000000
  70
    32
  0
VERTEX
  8
0
  5
738
 10
-176.098
 20
252.860
 30
0.000000
  70
    32
  0
VERTEX
  8
0
  5
739
 10
-176.105
 20
252.890
 30
0.000000
  70
    32
  0
VERTEX
  8
0
  5
73A
 10
-176.111
 20
252.919
 30
0.000000
  70
    32
  0
VERTEX
  8
0
  5
73B
 10
-176.117
 20
252.949
 30
0.000000
  70
    32
  0
VERTEX
  8
0
  5
73C
 10
-176.122
 20
252.979
 30
0.000000
  70
    32
  0
VERTEX
  8
0
  5
73D
 10
-176.127
 20
253.008
 30
0.000000
  70
    32
  0
VERTEX
  8
0
  5
73E
 10
-176.132
 20
253.038
 30
0.000000
  70
    32
  0
VERTEX
  8
0
  5
73F
 10
-176.137
 20
253.068
 30
0.000000
  70
    32
  0
VERTEX
  8
0
  5
740
 10
-176.141
 20
253.098
 30
0.000000
  70
    32
  0
VERTEX
  8
0
  5
741
 10
-176.145
 20
253.128
 30
0.000000
  70
    32
  0
VERTEX
  8
0
  5
742
 10
-176.148
 20
253.157
 30
0.000000
  70
    32
  0
VERTEX
  8
0
  5
743
 10
-176.152
 20
253.187
 30
0.000000
  70
    32
  0
VERTEX
  8
0
  5
744
 10
-176.154
 20
253.217
 30
0.000000
  70
    32
  0
VERTEX
  8
0
  5
745
 10
-176.157
 20
253.247
 30
0.000000
  70
    32
  0
VERTEX
  8
0
  5
746
 10
-176.159
 20
253.277
 30
0.000000
  70
    32
  0
VERTEX
  8
0
  5
747
 10
-176.161
 20
253.307
 30
0.000000
  70
    32
  0
VERTEX
  8
0
  5
748
 10
-176.163
 20
253.337
 30
0.000000
  70
    32
  0
VERTEX
  8
0
  5
749
 10
-176.164
 20
253.367
 30
0.000000
  70
    32
  0
VERTEX
  8
0
  5
74A
 10
-176.165
 20
253.396
 30
0.000000
  70
    32
  0
VERTEX
  8
0
  5
74B
 10
-176.166
 20
253.426
 30
0.000000
  70
    32
  0
VERTEX
  8
0
  5
74C
 10
-176.166
 20
253.456
 30
0.000000
  70
    32
  0
VERTEX
  8
0
  5
74D
 10
-176.166
 20
253.486
 30
0.000000
  70
    32
  0
VERTEX
  8
0
  5
74E
 10
-176.166
 20
253.516
 30
0.000000
  70
    32
  0
VERTEX
  8
0
  5
74F
 10
-176.165
 20
253.546
 30
0.000000
  70
    32
  0
VERTEX
  8
0
  5
750
 10
-176.164
 20
253.576
 30
0.000000
  70
    32
  0
VERTEX
  8
0
  5
751
 10
-176.163
 20
253.606
 30
0.000000
  70
    32
  0
VERTEX
  8
0
  5
752
 10
-176.161
 20
253.635
 30
0.000000
  70
    32
  0
VERTEX
  8
0
  5
753
 10
-176.159
 20
253.665
 30
0.000000
  70
    32
  0
VERTEX
  8
0
  5
754
 10
-176.157
 20
253.695
 30
0.000000
  70
    32
  0
VERTEX
  8
0
  5
755
 10
-176.154
 20
253.725
 30
0.000000
  70
    32
  0
VERTEX
  8
0
  5
756
 10
-176.152
 20
253.755
 30
0.000000
  70
    32
  0
VERTEX
  8
0
  5
757
 10
-176.148
 20
253.785
 30
0.000000
  70
    32
  0
VERTEX
  8
0
  5
758
 10
-176.145
 20
253.815
 30
0.000000
  70
    32
  0
VERTEX
  8
0
  5
759
 10
-176.141
 20
253.844
 30
0.000000
  70
    32
  0
VERTEX
  8
0
  5
75A
 10
-176.137
 20
253.874
 30
0.000000
  70
    32
  0
VERTEX
  8
0
  5
75B
 10
-176.132
 20
253.904
 30
0.000000
  70
    32
  0
VERTEX
  8
0
  5
75C
 10
-176.127
 20
253.934
 30
0.000000
  70
    32
  0
VERTEX
  8
0
  5
75D
 10
-176.122
 20
253.964
 30
0.000000
  70
    32
  0
VERTEX
  8
0
  5
75E
 10
-176.117
 20
253.993
 30
0.000000
  70
    32
  0
VERTEX
  8
0
  5
75F
 10
-176.111
 20
254.023
 30
0.000000
  70
    32
  0
VERTEX
  8
0
  5
760
 10
-176.105
 20
254.053
 30
0.000000
  70
    32
  0
VERTEX
  8
0
  5
761
 10
-176.098
 20
254.082
 30
0.000000
  70
    32
  0
VERTEX
  8
0
  5
762
 10
-176.091
 20
254.112
 30
0.000000
  70
    32
  0
VERTEX
  8
0
  5
763
 10
-176.084
 20
254.142
 30
0.000000
  70
    32
  0
VERTEX
  8
0
  5
764
 10
-176.077
 20
254.171
 30
0.000000
  70
    32
  0
VERTEX
  8
0
  5
765
 10
-176.069
 20
254.201
 30
0.000000
  70
    32
  0
VERTEX
  8
0
  5
766
 10
-176.061
 20
254.231
 30
0.000000
  70
    32
  0
VERTEX
  8
0
  5
767
 10
-176.053
 20
254.260
 30
0.000000
  70
    32
  0
VERTEX
  8
0
  5
768
 10
-176.044
 20
254.290
 30
0.000000
  70
    32
  0
VERTEX
  8
0
  5
769
 10
-176.035
 20
254.319
 30
0.000000
  70
    32
  0
VERTEX
  8
0
  5
76A
 10
-176.026
 20
254.349
 30
0.000000
  70
    32
  0
VERTEX
  8
0
  5
76B
 10
-176.017
 20
254.378
 30
0.000000
  70
    32
  0
VERTEX
  8
0
  5
76C
 10
-176.007
 20
254.408
 30
0.000000
  70
    32
  0
VERTEX
  8
0
  5
76D
 10
-175.996
 20
254.437
 30
0.000000
  70
    32
  0
VERTEX
  8
0
  5
76E
 10
-175.986
 20
254.466
 30
0.000000
  70
    32
  0
VERTEX
  8
0
  5
76F
 10
-175.975
 20
254.496
 30
0.000000
  70
    32
  0
VERTEX
  8
0
  5
770
 10
-175.964
 20
254.525
 30
0.000000
  70
    32
  0
VERTEX
  8
0
  5
771
 10
-175.953
 20
254.554
 30
0.000000
  70
    32
  0
VERTEX
  8
0
  5
772
 10
-175.941
 20
254.583
 30
0.000000
  70
    32
  0
VERTEX
  8
0
  5
773
 10
-175.929
 20
254.613
 30
0.000000
  70
    32
  0
VERTEX
  8
0
  5
774
 10
-175.917
 20
254.642
 30
0.000000
  70
    32
  0
VERTEX
  8
0
  5
775
 10
-175.904
 20
254.671
 30
0.000000
  70
    32
  0
VERTEX
  8
0
  5
776
 10
-175.891
 20
254.700
 30
0.000000
  70
    32
  0
VERTEX
  8
0
  5
777
 10
-175.878
 20
254.729
 30
0.000000
  70
    32
  0
VERTEX
  8
0
  5
778
 10
-175.864
 20
254.758
 30
0.000000
  70
    32
  0
VERTEX
  8
0
  5
779
 10
-175.850
 20
254.787
 30
0.000000
  70
    32
  0
VERTEX
  8
0
  5
77A
 10
-175.836
 20
254.816
 30
0.000000
  70
    32
  0
VERTEX
  8
0
  5
77B
 10
-175.822
 20
254.845
 30
0.000000
  70
    32
  0
VERTEX
  8
0
  5
77C
 10
-175.807
 20
254.874
 30
0.000000
  70
    32
  0
VERTEX
  8
0
  5
77D
 10
-175.792
 20
254.902
 30
0.000000
  70
    32
  0
VERTEX
  8
0
  5
77E
 10
-175.776
 20
254.931
 30
0.000000
  70
    32
  0
VERTEX
  8
0
  5
77F
 10
-175.761
 20
254.960
 30
0.000000
  70
    32
  0
VERTEX
  8
0
  5
780
 10
-175.745
 20
254.988
 30
0.000000
  70
    32
  0
VERTEX
  8
0
  5
781
 10
-175.729
 20
255.017
 30
0.000000
  70
    32
  0
VERTEX
  8
0
  5
782
 10
-175.712
 20
255.046
 30
0.000000
  70
    32
  0
VERTEX
  8
0
  5
783
 10
-175.695
 20
255.074
 30
0.000000
  70
    32
  0
VERTEX
  8
0
  5
784
 10
-175.678
 20
255.102
 30
0.000000
  70
    32
  0
VERTEX
  8
0
  5
785
 10
-175.661
 20
255.131
 30
0.000000
  70
    32
  0
VERTEX
  8
0
  5
786
 10
-175.643
 20
255.159
 30
0.000000
  70
    32
  0
VERTEX
  8
0
  5
787
 10
-175.625
 20
255.188
 30
0.000000
  70
    32
  0
VERTEX
  8
0
  5
788
 10
-175.607
 20
255.216
 30
0.000000
  70
    32
  0
VERTEX
  8
0
  5
789
 10
-175.589
 20
255.244
 30
0.000000
  70
    32
  0
VERTEX
  8
0
  5
78A
 10
-175.570
 20
255.272
 30
0.000000
  70
    32
  0
VERTEX
  8
0
  5
78B
 10
-175.551
 20
255.300
 30
0.000000
  70
    32
  0
VERTEX
  8
0
  5
78C
 10
-175.532
 20
255.328
 30
0.000000
  70
    32
  0
VERTEX
  8
0
  5
78D
 10
-175.512
 20
255.357
 30
0.000000
  70
    32
  0
VERTEX
  8
0
  5
78E
 10
-175.493
 20
255.385
 30
0.000000
  70
    32
  0
VERTEX
  8
0
  5
78F
 10
-175.473
 20
255.413
 30
0.000000
  70
    32
  0
VERTEX
  8
0
  5
790
 10
-175.453
 20
255.440
 30
0.000000
  70
    32
  0
VERTEX
  8
0
  5
791
 10
-175.432
 20
255.468
 30
0.000000
  70
    32
  0
VERTEX
  8
0
  5
792
 10
-175.412
 20
255.496
 30
0.000000
  70
    32
  0
VERTEX
  8
0
  5
793
 10
-175.391
 20
255.524
 30
0.000000
  70
    32
  0
VERTEX
  8
0
  5
794
 10
-175.370
 20
255.552
 30
0.000000
  70
    32
  0
VERTEX
  8
0
  5
795
 10
-175.349
 20
255.580
 30
0.000000
  70
    32
  0
VERTEX
  8
0
  5
796
 10
-175.328
 20
255.607
 30
0.000000
  70
    32
  0
VERTEX
  8
0
  5
797
 10
-175.306
 20
255.635
 30
0.000000
  70
    32
  0
VERTEX
  8
0
  5
798
 10
-175.285
 20
255.663
 30
0.000000
  70
    32
  0
VERTEX
  8
0
  5
799
 10
-175.263
 20
255.691
 30
0.000000
  70
    32
  0
VERTEX
  8
0
  5
79A
 10
-175.241
 20
255.718
 30
0.000000
  70
    32
  0
VERTEX
  8
0
  5
79B
 10
-175.218
 20
255.746
 30
0.000000
  70
    32
  0
VERTEX
  8
0
  5
79C
 10
-175.196
 20
255.773
 30
0.000000
  70
    32
  0
VERTEX
  8
0
  5
79D
 10
-175.174
 20
255.801
 30
0.000000
  70
    32
  0
VERTEX
  8
0
  5
79E
 10
-175.151
 20
255.828
 30
0.000000
  70
    32
  0
VERTEX
  8
0
  5
79F
 10
-175.128
 20
255.856
 30
0.000000
  70
    32
  0
VERTEX
  8
0
  5
7A0
 10
-175.105
 20
255.883
 30
0.000000
  70
    32
  0
VERTEX
  8
0
  5
7A1
 10
-175.082
 20
255.911
 30
0.000000
  70
    32
  0
VERTEX
  8
0
  5
7A2
 10
-175.059
 20
255.938
 30
0.000000
  70
    32
  0
VERTEX
  8
0
  5
7A3
 10
-175.035
 20
255.966
 30
0.000000
  70
    32
  0
VERTEX
  8
0
  5
7A4
 10
-175.012
 20
255.993
 30
0.000000
  70
    32
  0
VERTEX
  8
0
  5
7A5
 10
-174.988
 20
256.021
 30
0.000000
  70
    32
  0
VERTEX
  8
0
  5
7A6
 10
-174.964
 20
256.048
 30
0.000000
  70
    32
  0
VERTEX
  8
0
  5
7A7
 10
-174.941
 20
256.075
 30
0.000000
  70
    32
  0
VERTEX
  8
0
  5
7A8
 10
-174.917
 20
256.103
 30
0.000000
  70
    32
  0
VERTEX
  8
0
  5
7A9
 10
-174.893
 20
256.130
 30
0.000000
  70
    32
  0
VERTEX
  8
0
  5
7AA
 10
-174.868
 20
256.157
 30
0.000000
  70
    32
  0
VERTEX
  8
0
  5
7AB
 10
-174.844
 20
256.184
 30
0.000000
  70
    32
  0
VERTEX
  8
0
  5
7AC
 10
-174.820
 20
256.212
 30
0.000000
  70
    32
  0
VERTEX
  8
0
  5
7AD
 10
-174.796
 20
256.239
 30
0.000000
  70
    32
  0
VERTEX
  8
0
  5
7AE
 10
-174.771
 20
256.266
 30
0.000000
  70
    32
  0
VERTEX
  8
0
  5
7AF
 10
-174.747
 20
256.293
 30
0.000000
  70
    32
  0
VERTEX
  8
0
  5
7B0
 10
-174.722
 20
256.321
 30
0.000000
  70
    32
  0
VERTEX
  8
0
  5
7B1
 10
-174.697
 20
256.348
 30
0.000000
  70
    32
  0
VERTEX
  8
0
  5
7B2
 10
-174.673
 20
256.375
 30
0.000000
  70
    32
  0
VERTEX
  8
0
  5
7B3
 10
-174.648
 20
256.402
 30
0.000000
  70
    32
  0
VERTEX
  8
0
  5
7B4
 10
-174.623
 20
256.429
 30
0.000000
  70
    32
  0
VERTEX
  8
0
  5
7B5
 10
-174.598
 20
256.456
 30
0.000000
  70
    32
  0
VERTEX
  8
0
  5
7B6
 10
-174.573
 20
256.484
 30
0.000000
  70
    32
  0
VERTEX
  8
0
  5
7B7
 10
-174.548
 20
256.511
 30
0.000000
  70
    32
  0
VERTEX
  8
0
  5
7B8
 10
-174.523
 20
256.538
 30
0.000000
  70
    32
  0
VERTEX
  8
0
  5
7B9
 10
-174.498
 20
256.565
 30
0.000000
  70
    32
  0
VERTEX
  8
0
  5
7BA
 10
-174.473
 20
256.592
 30
0.000000
  70
    32
  0
VERTEX
  8
0
  5
7BB
 10
-174.448
 20
256.619
 30
0.000000
  70
    32
  0
VERTEX
  8
0
  5
7BC
 10
-174.423
 20
256.647
 30
0.000000
  70
    32
  0
SEQEND
  8
0
  5
7BD
  0
LINE
  5
42C
  8
0
 10
-184.9239254259283
 20
235.917443408997
 30
0.0
 11
-184.9239254259283
 21
251.97225582253691
 31
0.0
  0
LINE
  5
42D
  8
0
 10
-129.92341141339159
 20
254.444849615767
 30
0.0
 11
-129.92341141339159
 21
233.444849615767
 31
0.0
  0
LINE
  5
42E
  8
0
 10
-129.4234114133917
 20
233.944849615767
 30
0.0
 11
-129.4234114133917
 21
253.944849615767
 31
0.0
  0
LINE
  5
42F
  8
0
 10
-186.4234114133917
 20
250.43299040007511
 30
0.0
 11
-186.4234114133917
 21
237.4567088314588
 31
0.0
  0
LINE
  5
430
  8
0
 10
-133.2734114133917
 20
233.444849615767
 30
0.0
 11
-133.2734114133917
 21
254.444849615767
 31
0.0
  0
LINE
  5
431
  8
0
 10
-132.7734114133917
 20
233.944849615767
 30
0.0
 11
-132.7734114133917
 21
253.944849615767
 31
0.0
  0
LINE
  5
432
  8
0
 10
-132.7734114133917
 20
233.944849615767
 30
0.0
 11
-133.2734114133917
 21
233.444849615767
 31
0.0
  0
LINE
  5
433
  8
0
 10
-133.2734114133917
 20
254.444849615767
 30
0.0
 11
-132.7734114133917
 21
253.944849615767
 31
0.0
  0
LINE
  5
434
  8
0
 10
-129.4234114133917
 20
233.944849615767
 30
0.0
 11
-129.92341141339159
 21
233.444849615767
 31
0.0
  0
LINE
  5
435
  8
0
 10
-129.92341141339159
 20
254.444849615767
 30
0.0
 11
-129.4234114133917
 21
253.944849615767
 31
0.0
  0
LINE
  5
436
  8
0
 10
-131.4234114133917
 20
254.444849615767
 30
0.0
 11
-129.92341141339159
 21
254.444849615767
 31
0.0
  0
LINE
  5
437
  8
0
 10
-129.92341141339159
 20
233.444849615767
 30
0.0
 11
-131.4234114133917
 21
233.444849615767
 31
0.0
  0
LINE
  5
438
  8
0
 10
-186.4234114133917
 20
250.43299040007511
 30
0.0
 11
-184.9239254259283
 21
251.97225582253691
 31
0.0
  0
LINE
  5
439
  8
0
 10
-184.9239254259283
 20
235.917443408997
 30
0.0
 11
-186.4234114133917
 21
237.4567088314588
 31
0.0
  0
LINE
  5
43A
  8
0
 10
-176.4234114133917
 20
235.694849615767
 30
0.0
 11
-184.9239254259283
 21
235.917443408997
 31
0.0
  0
LINE
  5
43B
  8
0
 10
-184.9239254259283
 20
251.97225582253691
 30
0.0
 11
-176.4234114133917
 21
252.194849615767
 31
0.0
  0
LINE
  5
43C
  8
0
 10
-132.62341141339169
 20
233.944849615767
 30
0.0
 11
-132.7734114133917
 21
233.944849615767
 31
0.0
  0
LINE
  5
43D
  8
0
 10
-132.7734114133917
 20
253.944849615767
 30
0.0
 11
-132.62341141339161
 21
253.944849615767
 31
0.0
  0
LINE
  5
43E
  8
0
 10
-174.4234114133917
 20
231.24314369359519
 30
0.0
 11
-176.4234114133917
 21
233.194849615767
 31
0.0
  0
LINE
  5
43F
  8
0
 10
-176.4234114133917
 20
254.694849615767
 30
0.0
 11
-174.4234114133917
 21
256.6465555379387
 31
0.0
  0
LINE
  5
440
  8
0
 10
-141.9234114133917
 20
254.444849615767
 30
0.0
 11
-133.2734114133917
 21
254.444849615767
 31
0.0
  0
LINE
  5
441
  8
0
 10
-133.2734114133917
 20
233.444849615767
 30
0.0
 11
-141.9234114133917
 21
233.444849615767
 31
0.0
  0
LINE
  5
442
  8
0
 10
-141.9234114133917
 20
228.69484961576691
 30
0.0
 11
-142.42341141339159
 21
228.19484961576691
 31
0.0
  0
LINE
  5
443
  8
0
 10
-142.42341141339159
 20
259.69484961576688
 30
0.0
 11
-141.9234114133917
 21
259.19484961576688
 31
0.0
  0
LINE
  5
444
  8
0
 10
-150.6734114133917
 20
259.69484961576688
 30
0.0
 11
-142.42341141339159
 21
259.69484961576688
 31
0.0
  0
LINE
  5
445
  8
0
 10
-142.42341141339159
 20
228.19484961576691
 30
0.0
 11
-150.6734114133917
 21
228.19484961576691
 31
0.0
  0
ARC
  5
446
  8
0
 10
-173.4234114133917
 20
228.69484961576691
 30
0.0
 40
0.5
 50
180.0
 51
270.0
  0
ARC
  5
447
  8
0
 10
-173.4234114133917
 20
259.19484961576688
 30
0.0
 40
0.5
 50
90.0
 51
180.0
  0
LINE
  5
448
  8
0
 10
-173.4234114133917
 20
259.69484961576688
 30
0.0
 11
-165.17341141339159
 21
259.69484961576688
 31
0.0
  0
LINE
  5
449
  8
0
 10
-165.17341141339159
 20
228.19484961576691
 30
0.0
 11
-173.4234114133917
 21
228.19484961576691
 31
0.0
  0
LINE
  5
44A
  8
0
 10
-163.9234114133917
 20
229.444849615767
 30
0.0
 11
-165.17341141339159
 21
228.19484961576691
 31
0.0
  0
LINE
  5
44B
  8
0
 10
-165.17341141339159
 20
259.69484961576688
 30
0.0
 11
-163.9234114133917
 21
258.444849615767
 31
0.0
  0
LINE
  5
44C
  8
0
 10
-150.6734114133917
 20
228.19484961576691
 30
0.0
 11
-151.9234114133917
 21
229.444849615767
 31
0.0
  0
LINE
  5
44D
  8
0
 10
-151.9234114133917
 20
258.444849615767
 30
0.0
 11
-150.6734114133917
 21
259.69484961576688
 31
0.0
  0
LINE
  5
44E
  8
0
 10
-151.9234114133917
 20
229.444849615767
 30
0.0
 11
-163.9234114133917
 21
229.444849615767
 31
0.0
  0
LINE
  5
44F
  8
0
 10
-163.9234114133917
 20
258.444849615767
 30
0.0
 11
-151.9234114133917
 21
258.444849615767
 31
0.0
  0
LINE
  5
450
  8
0
 10
-131.4234114133917
 20
231.49484961576701
 30
0.0
 11
-132.62341141339161
 21
231.49484961576701
 31
0.0
  0
DIMENSION
  5
452
  8
DIM
  2
*D7
 10
-129.4234114133917
 20
216.23019827523751
 30
0.0
 11
-157.9234114133917
 21
219.23019827523751
 31
0.0
 70
     0
 13
-186.4234114133917
 23
237.4567088314588
 33
0.0
 14
-129.4234114133917
 24
233.944849615767
 34
0.0
  0
DIMENSION
  5
45F
  8
DIM
  2
*D8
 10
-173.9234114133917
 20
270.78192698177799
 30
0.0
 11
-157.9234114133917
 21
273.78192698177799
 31
0.0
 70
     0
 13
-141.9234114133917
 23
259.19484961576688
 33
0.0
 14
-173.9234114133917
 24
259.19484961576688
 34
0.0
  0
DIMENSION
  5
46C
  8
DIM
  2
*D9
 10
-113.0847545885169
 20
259.69484961576688
 30
0.0
 11
-116.0847545885169
 21
243.94484961576691
 31
0.0
 70
     0
  1
%%c<>
 13
-142.42341141339159
 23
228.19484961576691
 33
0.0
 14
-142.42341141339159
 24
259.69484961576688
 34
0.0
 50
90.0
  0
POLYLINE
  8
0
  5
7BE
  66
     1
 10
0.000000
 20
0.000000
 30
0.000000
  70
     8
  0
VERTEX
  8
0
  5
7BF
 10
-180.674
 20
252.084
 30
0.000000
  70
    32
  0
VERTEX
  8
0
  5
7C0
 10
-186.262
 20
263.126
 30
0.000000
  70
    32
  0
VERTEX
  8
0
  5
7C1
 10
-189.262
 20
263.126
 30
0.000000
  70
    32
  0
SEQEND
  8
0
  5
7C2
  0
TEXT
  5
47A
  8
0
 10
-207.04748615105791
 20
262.91125860511329
 30
0.0
 40
3.0
  1
PT 3/8
  7
CHINESET
  0
ENDSEC
  0
EOF
