  0
SECTION
  2
HEADER
  9
$ACADVER
  1
AC1015
  9
$ACADMAINTVER
 70
    20
  9
$DWGCODEPAGE
  3
ANSI_950
  9
$INSBASE
 10
0.0
 20
0.0
 30
0.0
  9
$EXTMIN
 10
46.47600440306542
 20
155.3544584973899
 30
-0.0165202898422194
  9
$EXTMAX
 10
546.5120970214961
 20
842.9246242707385
 30
327.6593149724718
  9
$LIMMIN
 10
0.0
 20
0.0
  9
$LIMMAX
 10
420.0
 20
297.0
  9
$ORTHOMODE
 70
     1
  9
$REGENMODE
 70
     1
  9
$FILLMODE
 70
     1
  9
$QTEXTMODE
 70
     0
  9
$MIRRTEXT
 70
     1
  9
$LTSCALE
 40
1.0
  9
$ATTMODE
 70
     1
  9
$TEXTSIZE
 40
3.0
  9
$TRACEWID
 40
1.0
  9
$TEXTSTYLE
  7
STANDARD
  9
$CLAYER
  8
0
  9
$CELTYPE
  6
ByLayer
  9
$CECOLOR
 62
   256
  9
$CELTSCALE
 40
1.0
  9
$DISPSILH
 70
     0
  9
$DIMSCALE
 40
1.0
  9
$DIMASZ
 40
3.0
  9
$DIMEXO
 40
1.0
  9
$DIMDLI
 40
8.0
  9
$DIMRND
 40
0.0
  9
$DIMDLE
 40
0.0
  9
$DIMEXE
 40
1.5
  9
$DIMTP
 40
0.1
  9
$DIMTM
 40
0.1
  9
$DIMTXT
 40
3.5
  9
$DIMCEN
 40
0.0
  9
$DIMTSZ
 40
0.0
  9
$DIMTOL
 70
     0
  9
$DIMLIM
 70
     0
  9
$DIMTIH
 70
     0
  9
$DIMTOH
 70
     0
  9
$DIMSE1
 70
     0
  9
$DIMSE2
 70
     0
  9
$DIMTAD
 70
     1
  9
$DIMZIN
 70
     8
  9
$DIMBLK
  1

  9
$DIMASO
 70
     1
  9
$DIMSHO
 70
     1
  9
$DIMPOST
  1

  9
$DIMAPOST
  1
"
  9
$DIMALT
 70
     0
  9
$DIMALTD
 70
     2
  9
$DIMALTF
 40
0.0393701
  9
$DIMLFAC
 40
1.0
  9
$DIMTOFL
 70
     1
  9
$DIMTVP
 40
0.0
  9
$DIMTIX
 70
     0
  9
$DIMSOXD
 70
     0
  9
$DIMSAH
 70
     0
  9
$DIMBLK1
  1

  9
$DIMBLK2
  1

  9
$DIMSTYLE
  2
AM_ISO
  9
$DIMCLRD
 70
   256
  9
$DIMCLRE
 70
   256
  9
$DIMCLRT
 70
   256
  9
$DIMTFAC
 40
0.6
  9
$DIMGAP
 40
0.7
  9
$DIMJUST
 70
     0
  9
$DIMSD1
 70
     0
  9
$DIMSD2
 70
     0
  9
$DIMTOLJ
 70
     0
  9
$DIMTZIN
 70
     8
  9
$DIMALTZ
 70
     0
  9
$DIMALTTZ
 70
     0
  9
$DIMUPT
 70
     0
  9
$DIMDEC
 70
     2
  9
$DIMTDEC
 70
     8
  9
$DIMALTU
 70
     2
  9
$DIMALTTD
 70
     2
  9
$DIMTXSTY
  7
STANDARD
  9
$DIMAUNIT
 70
     0
  9
$DIMADEC
 70
     0
  9
$DIMALTRND
 40
0.0
  9
$DIMAZIN
 70
     2
  9
$DIMDSEP
 70
    46
  9
$DIMATFIT
 70
     3
  9
$DIMFRAC
 70
     0
  9
$DIMLDRBLK
  1

  9
$DIMLUNIT
 70
     2
  9
$DIMLWD
 70
    -1
  9
$DIMLWE
 70
    -1
  9
$DIMTMOVE
 70
     0
  9
$LUNITS
 70
     2
  9
$LUPREC
 70
     2
  9
$SKETCHINC
 40
1.0
  9
$FILLETRAD
 40
2.5
  9
$AUNITS
 70
     0
  9
$AUPREC
 70
     0
  9
$MENU
  1
.
  9
$ELEVATION
 40
0.0
  9
$PELEVATION
 40
0.0
  9
$THICKNESS
 40
0.0
  9
$LIMCHECK
 70
     0
  9
$CHAMFERA
 40
2.5
  9
$CHAMFERB
 40
2.5
  9
$CHAMFERC
 40
20.0
  9
$CHAMFERD
 40
0.0
  9
$SKPOLY
 70
     0
  9
$TDCREATE
 40
2454144.463336945
  9
$TDUCREATE
 40
2454144.130003611
  9
$TDUPDATE
 40
2454144.498406574
  9
$TDUUPDATE
 40
2454144.165073241
  9
$TDINDWG
 40
0.0260525231
  9
$TDUSRTIMER
 40
0.0260525231
  9
$USRTIMER
 70
     1
  9
$ANGBASE
 50
0.0
  9
$ANGDIR
 70
     0
  9
$PDMODE
 70
     0
  9
$PDSIZE
 40
0.0
  9
$PLINEWID
 40
0.0
  9
$SPLFRAME
 70
     0
  9
$SPLINETYPE
 70
     6
  9
$SPLINESEGS
 70
     8
  9
$HANDSEED
  5
1BCD
  9
$SURFTAB1
 70
     6
  9
$SURFTAB2
 70
     6
  9
$SURFTYPE
 70
     6
  9
$SURFU
 70
     6
  9
$SURFV
 70
     6
  9
$UCSBASE
  2

  9
$UCSNAME
  2

  9
$UCSORG
 10
0.0
 20
0.0
 30
0.0
  9
$UCSXDIR
 10
1.0
 20
0.0
 30
0.0
  9
$UCSYDIR
 10
0.0
 20
1.0
 30
0.0
  9
$UCSORTHOREF
  2

  9
$UCSORTHOVIEW
 70
     0
  9
$UCSORGTOP
 10
0.0
 20
0.0
 30
0.0
  9
$UCSORGBOTTOM
 10
0.0
 20
0.0
 30
0.0
  9
$UCSORGLEFT
 10
0.0
 20
0.0
 30
0.0
  9
$UCSORGRIGHT
 10
0.0
 20
0.0
 30
0.0
  9
$UCSORGFRONT
 10
0.0
 20
0.0
 30
0.0
  9
$UCSORGBACK
 10
0.0
 20
0.0
 30
0.0
  9
$PUCSBASE
  2

  9
$PUCSNAME
  2

  9
$PUCSORG
 10
0.0
 20
0.0
 30
0.0
  9
$PUCSXDIR
 10
1.0
 20
0.0
 30
0.0
  9
$PUCSYDIR
 10
0.0
 20
1.0
 30
0.0
  9
$PUCSORTHOREF
  2

  9
$PUCSORTHOVIEW
 70
     0
  9
$PUCSORGTOP
 10
0.0
 20
0.0
 30
0.0
  9
$PUCSORGBOTTOM
 10
0.0
 20
0.0
 30
0.0
  9
$PUCSORGLEFT
 10
0.0
 20
0.0
 30
0.0
  9
$PUCSORGRIGHT
 10
0.0
 20
0.0
 30
0.0
  9
$PUCSORGFRONT
 10
0.0
 20
0.0
 30
0.0
  9
$PUCSORGBACK
 10
0.0
 20
0.0
 30
0.0
  9
$USERI1
 70
     0
  9
$USERI2
 70
     0
  9
$USERI3
 70
     0
  9
$USERI4
 70
     0
  9
$USERI5
 70
     0
  9
$USERR1
 40
0.0
  9
$USERR2
 40
0.0
  9
$USERR3
 40
0.0
  9
$USERR4
 40
0.0
  9
$USERR5
 40
0.0
  9
$WORLDVIEW
 70
     1
  9
$SHADEDGE
 70
     3
  9
$SHADEDIF
 70
    70
  9
$TILEMODE
 70
     1
  9
$MAXACTVP
 70
    64
  9
$PINSBASE
 10
0.0
 20
0.0
 30
0.0
  9
$PLIMCHECK
 70
     0
  9
$PEXTMIN
 10
1.000000000000000E+20
 20
1.000000000000000E+20
 30
1.000000000000000E+20
  9
$PEXTMAX
 10
-1.000000000000000E+20
 20
-1.000000000000000E+20
 30
-1.000000000000000E+20
  9
$PLIMMIN
 10
0.0
 20
0.0
  9
$PLIMMAX
 10
420.0
 20
297.0
  9
$UNITMODE
 70
     0
  9
$VISRETAIN
 70
     1
  9
$PLINEGEN
 70
     0
  9
$PSLTSCALE
 70
     1
  9
$TREEDEPTH
 70
  3020
  9
$CMLSTYLE
  2
Standard
  9
$CMLJUST
 70
     0
  9
$CMLSCALE
 40
20.0
  9
$PROXYGRAPHICS
 70
     1
  9
$MEASUREMENT
 70
     1
  9
$CELWEIGHT
370
    -1
  9
$ENDCAPS
280
     0
  9
$JOINSTYLE
280
     0
  9
$LWDISPLAY
290
     0
  9
$INSUNITS
 70
     4
  9
$HYPERLINKBASE
  1

  9
$STYLESHEET
  1
彩色出圖.ctb
  9
$XEDIT
290
     1
  9
$CEPSNTYPE
380
     0
  9
$PSTYLEMODE
290
     1
  9
$FINGERPRINTGUID
  2
{CA904DAA-E0A0-492B-835C-82FF73358F53}
  9
$VERSIONGUID
  2
{E5EA919D-5710-49AD-89A2-5A8239D76F8C}
  9
$EXTNAMES
290
     1
  9
$PSVPSCALE
 40
0.0
  9
$OLESTARTUP
290
     0
  0
ENDSEC
  0
SECTION
  2
CLASSES
  0
CLASS
  1
ACDBDICTIONARYWDFLT
  2
AcDbDictionaryWithDefault
  3
ObjectDBX Classes
 90
        0
280
     0
281
     0
  0
CLASS
  1
ACDBPLACEHOLDER
  2
AcDbPlaceHolder
  3
ObjectDBX Classes
 90
        0
280
     0
281
     0
  0
CLASS
  1
LAYOUT
  2
AcDbLayout
  3
ObjectDBX Classes
 90
        0
280
     0
281
     0
  0
CLASS
  1
ACME_DOCUMENT
  2
AcMeDbDoc
  3
AcMeServices
 90
        0
280
     0
281
     0
  0
CLASS
  1
AMGSETTINGSOBJ
  2
AmgSettingsObj
  3
"AcadM|Product Description: AutoCAD Mechanical 2000|Company: Autodesk"
 90
        0
280
     0
281
     0
  0
CLASS
  1
ACMESCOPE
  2
AcMeScope
  3
AcMeServices
 90
        0
280
     0
281
     0
  0
CLASS
  1
ACMECOMMANDHISTORY
  2
AcMeCommandHistory
  3
AcMeServices
 90
        0
280
     0
281
     0
  0
CLASS
  1
ACIMSYSVARMAN
  2
AcImSysVarManager
  3
AcMeServices
 90
        0
280
     0
281
     0
  0
CLASS
  1
ACIMREALSYSVAR
  2
AcImRealSysVar
  3
AcMeServices
 90
        0
280
     0
281
     0
  0
CLASS
  1
ACIMINTSYSVAR
  2
AcImIntSysVar
  3
AcMeServices
 90
        0
280
     0
281
     0
  0
CLASS
  1
ACMEDRAWINGMAN
  2
AcMeDrawingMan
  3
AcMeServices
 90
        0
280
     0
281
     0
  0
CLASS
  1
ACMEVIEW
  2
AcMeView
  3
AcMeServices
 90
        0
280
     0
281
     0
  0
CLASS
  1
ACDBENTITYCACHE
  2
AcMeEntityCache
  3
AcMeServices
 90
        0
280
     0
281
     0
  0
CLASS
  1
GSMANAGER
  2
AcMeGSManager
  3
AcMeServices
 90
        0
280
     0
281
     0
  0
CLASS
  1
AMDTINTERNALREACTOR
  2
AmdtInternalReactor
  3
AcMeServices
 90
        0
280
     0
281
     0
  0
CLASS
  1
ACMESTATEMGR
  2
AcMeStateMgr
  3
AcMeServices
 90
        0
280
     0
281
     0
  0
CLASS
  1
ACGREFMASTER
  2
AcGrefMaster
  3
AcAttribServices
 90
        0
280
     0
281
     0
  0
CLASS
  1
ACME_DATABASE
  2
AcMeDbDatabase
  3
AcMeServices
 90
        0
280
     0
281
     0
  0
CLASS
  1
ACRFINSADJUSTERMGR
  2
AcRfInsAdjusterMgr
  3
AcMeServices
 90
        0
280
     0
281
     0
  0
CLASS
  1
ACGREFACADMASTER
  2
AcGrefacadMaster
  3
AcGrefServices
 90
        0
280
     0
281
     0
  0
CLASS
  1
AMIMASTER
  2
AmiMaster
  3
AmiServices
 90
        0
280
     0
281
     0
  0
CLASS
  1
ACMDATADICTIONARY
  2
AcmDataDictionary
  3
"AcmSymBB|Product Description: AutoCAD Mechanical 2004 DX|Company: Autodesk"
 90
        0
280
     0
281
     0
  0
CLASS
  1
ACMDATAENTRYBLOCK
  2
AcmDataEntryBlock
  3
"AcmSymBB|Product Description: AutoCAD Mechanical 2004 DX|Company: Autodesk"
 90
        0
280
     0
281
     0
  0
CLASS
  1
ACIMSTRSYSVAR
  2
AcImStrSysVar
  3
AcMeServices
 90
        0
280
     0
281
     0
  0
CLASS
  1
ACMSTANDARDISO
  2
AcmStandardISO
  3
"Amdt_StdImp|Product Description: AutoCAD Mechanical 2004 DX|Company: Autodesk"
 90
        0
280
     0
281
     0
  0
CLASS
  1
AMGOBJPROPCFG
  2
AmgObjPropCfg
  3
"AmgLay|Product Description: AutoCAD Mechanical 2000|Company: Autodesk"
 90
        1
280
     0
281
     0
  0
CLASS
  1
AMDTEDGESTANDARDISO
  2
AmdtEdgeStdISO
  3
"Amdt_StdImp|Product Description: AutoCAD Mechanical 2004 DX|Company: Autodesk"
 90
        0
280
     0
281
     0
  0
CLASS
  1
ACMSURFSTANDARDISO
  2
AcmSurfTextStdISO
  3
"Amdt_StdImp|Product Description: AutoCAD Mechanical 2004 DX|Company: Autodesk"
 90
        0
280
     0
281
     0
  0
CLASS
  1
ACMFCFSTANDARDISO
  2
AcmFCFStdISO
  3
"Amdt_StdImp|Product Description: AutoCAD Mechanical 2004 DX|Company: Autodesk"
 90
        0
280
     0
281
     0
  0
CLASS
  1
ACMWELDSTANDARDISO
  2
AcmWeldingStdISO
  3
"Amdt_StdImp|Product Description: AutoCAD Mechanical 2004 DX|Company: Autodesk"
 90
        0
280
     0
281
     0
  0
CLASS
  1
ACMIDSTANDARDISO
  2
AcmIdStdISO
  3
"Amdt_StdImp|Product Description: AutoCAD Mechanical 2004 DX|Company: Autodesk"
 90
        0
280
     0
281
     0
  0
CLASS
  1
ACMDATUMSTANDARDISO
  2
AcmDatumStdISO
  3
"Amdt_StdImp|Product Description: AutoCAD Mechanical 2004 DX|Company: Autodesk"
 90
        0
280
     0
281
     0
  0
CLASS
  1
ACMBOMSTANDARDISO
  2
AcmBOMStdISO
  3
"Amdt_StdImp|Product Description: AutoCAD Mechanical 2004 DX|Company: Autodesk"
 90
        0
280
     0
281
     0
  0
CLASS
  1
ACMDETAILSTANDARDISO
  2
AmdtDetailSymStdISO
  3
"Amdt_StdImp|Product Description: AutoCAD Mechanical 2004 DX|Company: Autodesk"
 90
        0
280
     0
281
     0
  0
CLASS
  1
ACMSECTIONSTANDARDISO
  2
AmdtSectionSymStdISO
  3
"Amdt_StdImp|Product Description: AutoCAD Mechanical 2004 DX|Company: Autodesk"
 90
        0
280
     0
281
     0
  0
CLASS
  1
ACMCENTERLINESTANDARDISO
  2
AmdtCenterLineStdISO
  3
"Amdt_StdImp|Product Description: AutoCAD Mechanical 2004 DX|Company: Autodesk"
 90
        0
280
     0
281
     0
  0
CLASS
  1
ACMNOTESTANDARDISO
  2
AmdtNoteStdISO
  3
"Amdt_StdImp|Product Description: AutoCAD Mechanical 2004 DX|Company: Autodesk"
 90
        0
280
     0
281
     0
  0
CLASS
  1
ACAMGLAYSTD
  2
AcAmgLayStd
  3
"AcAmgLayStd|Product Description: AutoCAD Mechanical 2000|Company: Autodesk"
 90
        0
280
     0
281
     0
  0
CLASS
  1
ACAMGDIMSTD
  2
AcAmgDimStd
  3
"AcAmgDimStd|Product Description: AutoCAD Mechanical 2000|Company: Autodesk"
 90
        0
280
     0
281
     0
  0
CLASS
  1
ACAMGHOLECHARTSTDISO
  2
AcAmgHoleChartStdISO
  3
ACMSYMBB_MODULE_NAME
 90
        0
280
     0
281
     0
  0
CLASS
  1
ACAMGTITLESTD
  2
AcAmgTitleStd
  3
"TITLEAPP"
 90
        0
280
     0
281
     0
  0
CLASS
  1
LAYER_INDEX
  2
AcDbLayerIndex
  3
ObjectDBX Classes
 90
    32768
280
     0
281
     0
  0
CLASS
  1
IDBUFFER
  2
AcDbIdBuffer
  3
ObjectDBX Classes
 90
    32768
280
     0
281
     0
  0
CLASS
  1
DICTIONARYVAR
  2
AcDbDictionaryVar
  3
ObjectDBX Classes
 90
        0
280
     0
281
     0
  0
CLASS
  1
AM_DRAWING_MGR
  2
AcDmDwgMgr
  3
AcMechDwgViewMgmt
 90
        0
280
     0
281
     0
  0
CLASS
  1
AM_DWG_DOCUMENT
  2
AcDmDwgDocument
  3
AcMechDwgViewMgmt
 90
        0
280
     0
281
     0
  0
CLASS
  1
AM_DWG_SHEET
  2
AcDmSheet
  3
AcMechDwgViewMgmt
 90
        0
280
     0
281
     0
  0
CLASS
  1
AM_VIEWDIMPARMAP
  2
AcDmViewDimParMap
  3
AcMechDwgViewMgmt
 90
        0
280
     0
281
     0
  0
CLASS
  1
AM_DWGMGR_NAME
  2
AcDmDwgMgrName
  3
AcMechDwgViewMgmt
 90
        0
280
     0
281
     0
  0
CLASS
  1
AMDTMENUSTATEMGR
  2
AmdtMenuStateMgr
  3
McadcomServices
 90
        0
280
     0
281
     0
  0
CLASS
  1
AMDTMCOMMENUSTATE
  2
AmdtMcomMenuState
  3
McadcomServices
 90
        0
280
     0
281
     0
  0
CLASS
  1
MAPIAMMOUDLE
  2
MApiAmModule
  3
MApiAmServices
 90
        0
280
     0
281
     0
  0
CLASS
  1
AMDTADMENUSTATE
  2
AmdtAdMenuState
  3
DesignerServices
 90
        0
280
     0
281
     0
  0
CLASS
  1
ADAPPL
  2
AcAdAppl
  3
DesignerServices
 90
        0
280
     0
281
     0
  0
CLASS
  1
DEPMGR
  2
AcAdDepMgr
  3
DesignerServices
 90
        0
280
     0
281
     0
  0
CLASS
  1
PARAMMGR
  2
AcAdParamMgr
  3
DesignerServices
 90
        0
280
     0
281
     0
  0
CLASS
  1
PARAMSCOPE
  2
AcAdParamScope
  3
DesignerServices
 90
        0
280
     0
281
     0
  0
CLASS
  1
NAMEDAPPL
  2
AcAdNamedAppl
  3
DesignerServices
 90
        0
280
     0
281
     0
  0
CLASS
  1
AMDTDMMENUSTATE
  2
AmdtDmMenuState
  3
AcMechDwgViewMgmt
 90
        0
280
     0
281
     0
  0
CLASS
  1
AMDTAMMENUSTATE
  2
AmdtAmMenuState
  3
DesignerAssemblies
 90
        0
280
     0
281
     0
  0
CLASS
  1
ACAMPROJECT
  2
AcAmProject
  3
DesignerAssemblies
 90
        0
280
     0
281
     0
  0
CLASS
  1
ACAMGRCOMPDEF
  2
AcAmGrCompDef
  3
DesignerAssemblies
 90
        0
280
     0
281
     0
  0
CLASS
  1
ACCMCONTEXT
  2
AcCmContext
  3
DesignerAssemblies
 90
        0
280
     0
281
     0
  0
CLASS
  1
ACAMCOMPDEF
  2
AcAmCompDef
  3
DesignerAssemblies
 90
        0
280
     0
281
     0
  0
CLASS
  1
ACAMCOMPDEFMGR
  2
AcAmCompDefMgr
  3
DesignerAssemblies
 90
        0
280
     0
281
     0
  0
CLASS
  1
AMCONTEXTMGR
  2
AcAmContextMgr
  3
DesignerAssemblies
 90
        0
280
     0
281
     0
  0
CLASS
  1
ACAMCONTEXTMODELER
  2
AcAmContextModeler
  3
DesignerAssemblies
 90
        0
280
     0
281
     0
  0
CLASS
  1
ACMTHREADLINESTANDARDISO
  2
AmdtThreadLineStdISO
  3
"Amdt_StdImp|Product Description: AutoCAD Mechanical 2004 DX|Company: Autodesk"
 90
        0
280
     0
281
     0
  0
CLASS
  1
CATALOGSTATE
  2
AcAmCatalogState
  3
DesignerAssemblies
 90
        0
280
     0
281
     0
  0
CLASS
  1
ACAMGRCOMPDEFSET
  2
AcAmGrCompDefSet
  3
DesignerAssemblies
 90
        0
280
     0
281
     0
  0
CLASS
  1
AMDTBROWSERDBTAB
  2
AmdtBrowserDbTab
  3
McadcomServices
 90
        0
280
     0
281
     0
  0
CLASS
  1
CBROWSERAPPOBJECT
  2
CBrowserAppObject
  3
McadcomServices
 90
        0
280
     0
281
     0
  0
CLASS
  1
DM_PLACEHOLDER
  2
AcDmSelsetPlaceholder
  3
AcMechDwgViewMgmt
 90
        0
280
     0
281
     0
  0
CLASS
  1
TABLESTYLE
  2
AcDbTableStyle
  3
ObjectDBX Classes
 90
     2047
280
     0
281
     0
  0
CLASS
  1
VAACXREFPANELOBJECT
  2
VaAcXREFPanelObject
  3
VAAC_ADDIN
 90
    32768
280
     0
281
     0
  0
CLASS
  1
VAACIMAGEINVENTORY
  2
VaAcImageInventory
  3
VAAC_ADDIN
 90
    32768
280
     0
281
     0
  0
CLASS
  1
AMDTNOTETEMPLATEDB
  2
AmdtNoteTemplateDB
  3
AMDT_STDIMP_MODULE_NAME
 90
        0
280
     0
281
     0
  0
CLASS
  1
ACMBOM
  2
AcmBom
  3
"AcmSymBB|Product Description: AutoCAD Mechanical 2004 DX|Company: Autodesk"
 90
    32768
280
     0
281
     0
  0
CLASS
  1
AMDTFORMULAUPDATEDISPATCHER
  2
AmdtFormulaUpdateDispatcher
  3
AcMeServices
 90
    32768
280
     0
281
     0
  0
CLASS
  1
ACMPARTLIST
  2
AcmPartList
  3
"AcmSymBB|Product Description: AutoCAD Mechanical 2004 DX|Company: Autodesk"
 90
    33791
280
     0
281
     1
  0
CLASS
  1
ACAMGFILTERDAT
  2
AcAmgFilterDat
  3
"AcadM|Product Description: AutoCAD Mechanical 2000|Company: Autodesk"
 90
        0
280
     0
281
     0
  0
CLASS
  1
DIMASSOC
  2
AcDbDimAssoc
  3
"AcDbDimAssoc|Product Desc:     AcDim ARX App For Dimension|Company:          Autodesk, Inc.|WEB Address:      www.autodesk.com"
 90
        0
280
     0
281
     0
  0
CLASS
  1
ACMSTANDARDANSI
  2
AcmStandardANSI
  3
"Amdt_StdImp|Product Description: AutoCAD Mechanical 2004 DX|Company: Autodesk"
 90
        0
280
     0
281
     0
  0
CLASS
  1
ACMSURFSTANDARDANSI
  2
AcmSurfTextStdANSI
  3
"Amdt_StdImp|Product Description: AutoCAD Mechanical 2004 DX|Company: Autodesk"
 90
        0
280
     0
281
     0
  0
CLASS
  1
ACMFCFSTANDARDANSI
  2
AcmFCFStdANSI
  3
"Amdt_StdImp|Product Description: AutoCAD Mechanical 2004 DX|Company: Autodesk"
 90
        0
280
     0
281
     0
  0
CLASS
  1
ACMWELDSTANDARDANSI
  2
AcmWeldingStdANSI
  3
"Amdt_StdImp|Product Description: AutoCAD Mechanical 2004 DX|Company: Autodesk"
 90
        0
280
     0
281
     0
  0
CLASS
  1
ACMIDSTANDARDANSI
  2
AcmIdStdANSI
  3
"Amdt_StdImp|Product Description: AutoCAD Mechanical 2004 DX|Company: Autodesk"
 90
        0
280
     0
281
     0
  0
CLASS
  1
ACMDATUMSTANDARDANSI
  2
AcmDatumStdANSI
  3
"Amdt_StdImp|Product Description: AutoCAD Mechanical 2004 DX|Company: Autodesk"
 90
        0
280
     0
281
     0
  0
CLASS
  1
ACMBOMSTANDARDANSI
  2
AcmBOMStdANSI
  3
"Amdt_StdImp|Product Description: AutoCAD Mechanical 2004 DX|Company: Autodesk"
 90
        0
280
     0
281
     0
  0
CLASS
  1
ACMDETAILSTANDARDANSI
  2
AmdtDetailSymStdANSI
  3
"Amdt_StdImp|Product Description: AutoCAD Mechanical 2004 DX|Company: Autodesk"
 90
        0
280
     0
281
     0
  0
CLASS
  1
ACMSECTIONSTANDARDANSI
  2
AmdtSectionSymStdANSI
  3
"Amdt_StdImp|Product Description: AutoCAD Mechanical 2004 DX|Company: Autodesk"
 90
        0
280
     0
281
     0
  0
CLASS
  1
ACMCENTERLINESTANDARDANSI
  2
AmdtCenterLineStdANSI
  3
"Amdt_StdImp|Product Description: AutoCAD Mechanical 2004 DX|Company: Autodesk"
 90
        0
280
     0
281
     0
  0
CLASS
  1
ACMTHREADLINESTANDARDANSI
  2
AmdtThreadLineStdANSI
  3
"Amdt_StdImp|Product Description: AutoCAD Mechanical 2004 DX|Company: Autodesk"
 90
        0
280
     0
281
     0
  0
CLASS
  1
ACMNOTESTANDARDANSI
  2
AmdtNoteStdANSI
  3
"Amdt_StdImp|Product Description: AutoCAD Mechanical 2004 DX|Company: Autodesk"
 90
        0
280
     0
281
     0
  0
CLASS
  1
ACAMGHOLECHARTSTDANSI
  2
AcAmgHoleChartStdANSI
  3
ACMSYMBB_MODULE_NAME
 90
        0
280
     0
281
     0
  0
CLASS
  1
AMDTNOTE
  2
AmdtNote
  3
"AcmSymBB|Product Description: AutoCAD Mechanical 2004 DX|Company: Autodesk"
 90
     1023
280
     0
281
     1
  0
CLASS
  1
SORTENTSTABLE
  2
AcDbSortentsTable
  3
ObjectDBX Classes
 90
    32768
280
     0
281
     0
  0
CLASS
  1
ACRFATTGENMGR
  2
AcRfAttGeneralMgr
  3
AcAttribServices
 90
        0
280
     0
281
     0
  0
ENDSEC
  0
SECTION
  2
TABLES
  0
TABLE
  2
VPORT
  5
8
330
0
100
AcDbSymbolTable
 70
     3
  0
VPORT
  5
1BC4
330
8
100
AcDbSymbolTableRecord
100
AcDbViewportTableRecord
  2
*Active
 70
     0
 10
0.0
 20
0.0
 11
1.0
 21
1.0
 12
296.5058501178449
 22
499.1564636700443
 13
0.0
 23
0.0
 14
2.5
 24
2.5
 15
10.0
 25
10.0
 16
0.0
 26
0.0
 36
1.0
 17
0.0
 27
0.0
 37
0.0
 40
693.0348870248508
 41
1.609210526315789
 42
50.0
 43
0.0
 44
0.0
 50
0.0
 51
0.0
 71
     0
 72
   100
 73
     1
 74
     3
 75
     0
 76
     0
 77
     0
 78
     0
281
     0
 65
     1
110
0.0
120
0.0
130
0.0
111
1.0
121
0.0
131
0.0
112
0.0
122
1.0
132
0.0
 79
     0
146
0.0
  0
ENDTAB
  0
TABLE
  2
LTYPE
  5
5
330
0
100
AcDbSymbolTable
 70
    16
  0
LTYPE
  5
14
330
5
100
AcDbSymbolTableRecord
100
AcDbLinetypeTableRecord
  2
ByBlock
 70
     0
  3

 72
    65
 73
     0
 40
0.0
  0
LTYPE
  5
15
330
5
100
AcDbSymbolTableRecord
100
AcDbLinetypeTableRecord
  2
ByLayer
 70
     0
  3

 72
    65
 73
     0
 40
0.0
  0
LTYPE
  5
16
330
5
100
AcDbSymbolTableRecord
100
AcDbLinetypeTableRecord
  2
Continuous
 70
     0
  3
Solid line
 72
    65
 73
     0
 40
0.0
  0
LTYPE
  5
64
330
5
100
AcDbSymbolTableRecord
100
AcDbLinetypeTableRecord
  2
AM_ISO02W050
 70
     0
  3
__ __ __ __ __ __ __ __ __ __ __ __ __ __ __
 72
    65
 73
     2
 40
7.5
 49
6.0
 74
     0
 49
-1.5
 74
     0
  0
LTYPE
  5
65
330
5
100
AcDbSymbolTableRecord
100
AcDbLinetypeTableRecord
  2
AM_ISO08W050
 70
     0
  3
____ . ____ . ____ . ____ . ____ . ____ . ____
 72
    65
 73
     4
 40
18.0
 49
12.0
 74
     0
 49
-1.5
 74
     0
 49
3.0
 74
     0
 49
-1.5
 74
     0
  0
LTYPE
  5
66
330
5
100
AcDbSymbolTableRecord
100
AcDbLinetypeTableRecord
  2
AM_ISO09W050
 70
     0
  3
_____ . . _____ . . _____ . . ____ .. ____
 72
    65
 73
     6
 40
22.5
 49
12.0
 74
     0
 49
-1.5
 74
     0
 49
3.0
 74
     0
 49
-1.5
 74
     0
 49
3.0
 74
     0
 49
-1.5
 74
     0
  0
LTYPE
  5
67
330
5
100
AcDbSymbolTableRecord
100
AcDbLinetypeTableRecord
  2
Amconstr
 70
     0
  3
_______________________
 72
    65
 73
     2
 40
9999.0
 49
9999.0
 74
     0
 49
0.0
 74
     0
  0
LTYPE
  5
68
330
5
100
AcDbSymbolTableRecord
100
AcDbLinetypeTableRecord
  2
AM_ISO08W050x2
 70
     0
  3
__ . __ . __ . __ . __ . __
 72
    65
 73
     4
 40
9.0
 49
6.0
 74
     0
 49
-0.75
 74
     0
 49
1.5
 74
     0
 49
-0.75
 74
     0
  0
LTYPE
  5
69
330
5
100
AcDbSymbolTableRecord
100
AcDbLinetypeTableRecord
  2
AM_ISO02W050x2
 70
     0
  3
 _ _ _ _ _ _ _ _ _ _ _ _
 72
    65
 73
     2
 40
3.75
 49
3.0
 74
     0
 49
-0.75
 74
     0
  0
LTYPE
  5
6C
330
5
100
AcDbSymbolTableRecord
100
AcDbLinetypeTableRecord
  2
Amzigzag
 70
     0
  3
/\/-/\/-/\/-/\/-/\/-/\/
 72
    65
 73
     2
 40
11.0001
 49
0.0001
 74
     4
 75
   135
340
6B
 46
0.04
 50
0.0
 44
0.0
 45
0.0
 49
-11.0
 74
     0
  0
LTYPE
  5
7A
330
5
100
AcDbSymbolTableRecord
100
AcDbLinetypeTableRecord
  2
ACISOWELD
 70
     0
  3
_ _ _ _ _
 72
    65
 73
     2
 40
2.0
 49
2.0
 74
     0
 49
-1.0
 74
     0
  0
LTYPE
  5
7B
330
5
100
AcDbSymbolTableRecord
100
AcDbLinetypeTableRecord
  2
ACISOTGB
 70
     0
  3
__ . . __ . .
 72
    65
 73
     6
 40
9.0
 49
4.0
 74
     0
 49
-1.0
 74
     0
 49
1.0
 74
     0
 49
-1.0
 74
     0
 49
1.0
 74
     0
 49
-1.0
 74
     0
  0
LTYPE
  5
7C
330
5
100
AcDbSymbolTableRecord
100
AcDbLinetypeTableRecord
  2
ACISOTGL
 70
     0
  3
_ _ _ _ _
 72
    65
 73
     2
 40
3.0
 49
2.0
 74
     0
 49
-1.0
 74
     0
  0
LTYPE
  5
7E
330
5
100
AcDbSymbolTableRecord
100
AcDbLinetypeTableRecord
  2
CENTER
 70
     0
  3
__ . __
 72
    65
 73
     4
 40
7.0
 49
4.0
 74
     0
 49
-1.0
 74
     0
 49
1.0
 74
     0
 49
-1.0
 74
     0
  0
LTYPE
  5
D8
330
5
100
AcDbSymbolTableRecord
100
AcDbLinetypeTableRecord
  2
HIDDEN
 70
     0
  3
Hidden __ __ __ __ __ __ __ __ __ __ __ __ __ _
 72
    65
 73
     2
 40
9.524999999999998
 49
6.349999999999999
 74
     0
 49
-3.174999999999999
 74
     0
  0
LTYPE
  5
D9
330
5
100
AcDbSymbolTableRecord
100
AcDbLinetypeTableRecord
  2
PHANTOM2
 70
     0
  3
Phantom (.5x) ___ _ _ ___ _ _ ___ _ _ ___ _ _
 72
    65
 73
     6
 40
31.75
 49
15.875
 74
     0
 49
-3.174999999999999
 74
     0
 49
3.174999999999999
 74
     0
 49
-3.174999999999999
 74
     0
 49
3.174999999999999
 74
     0
 49
-3.174999999999999
 74
     0
  0
LTYPE
  5
B51
330
5
100
AcDbSymbolTableRecord
100
AcDbLinetypeTableRecord
  2
ACANSTGB
 70
     0
  3
__ . . __ . .
 72
    65
 73
     6
 40
0.35433070866
 49
0.15748031496
 74
     0
 49
-0.03937007874
 74
     0
 49
0.03937007874
 74
     0
 49
-0.03937007874
 74
     0
 49
0.03937007874
 74
     0
 49
-0.03937007874
 74
     0
  0
LTYPE
  5
B52
330
5
100
AcDbSymbolTableRecord
100
AcDbLinetypeTableRecord
  2
ACANSTGL
 70
     0
  3
_ _ _ _ _
 72
    65
 73
     2
 40
0.11811023622
 49
0.07874015748
 74
     0
 49
-0.03937007874
 74
     0
  0
ENDTAB
  0
TABLE
  2
LAYER
  5
2
102
{ACAD_XDICTIONARY
360
3F9
102
}
330
0
100
AcDbSymbolTable
 70
     9
  0
LAYER
  5
10
330
2
100
AcDbSymbolTableRecord
100
AcDbLayerTableRecord
  2
0
 70
     0
 62
     7
  6
Continuous
370
    -3
390
F
  0
LAYER
  5
B53
330
2
100
AcDbSymbolTableRecord
100
AcDbLayerTableRecord
  2
DEFPOINTS
 70
     0
 62
     7
  6
Continuous
290
     0
370
    -3
390
F
  0
LAYER
  5
B54
330
2
100
AcDbSymbolTableRecord
100
AcDbLayerTableRecord
  2
center
 70
     0
 62
     1
  6
CENTER
370
    -3
390
F
  0
LAYER
  5
B55
330
2
100
AcDbSymbolTableRecord
100
AcDbLayerTableRecord
  2
dim
 70
     0
 62
     5
  6
Continuous
370
    -3
390
F
  0
LAYER
  5
FB7
330
2
100
AcDbSymbolTableRecord
100
AcDbLayerTableRecord
  2
AM_5
 70
     0
 62
     5
  6
Continuous
370
    50
390
F
  0
LAYER
  5
1137
330
2
100
AcDbSymbolTableRecord
100
AcDbLayerTableRecord
  2
AM_7
 70
     0
 62
     1
  6
CENTER
370
    25
390
F
  0
LAYER
  5
1138
330
2
100
AcDbSymbolTableRecord
100
AcDbLayerTableRecord
  2
AM_0
 70
     0
 62
     7
  6
Continuous
370
    50
390
F
  0
LAYER
  5
1139
330
2
100
AcDbSymbolTableRecord
100
AcDbLayerTableRecord
  2
AM_4
 70
     0
 62
     3
  6
Continuous
370
    25
390
F
  0
LAYER
  5
157B
330
2
100
AcDbSymbolTableRecord
100
AcDbLayerTableRecord
  2
LOGO
 70
     0
 62
     7
  6
Continuous
370
    -3
390
F
  0
ENDTAB
  0
TABLE
  2
STYLE
  5
3
330
0
100
AcDbSymbolTable
 70
     8
  0
STYLE
  5
11
330
3
100
AcDbSymbolTableRecord
100
AcDbTextStyleTableRecord
  2
STANDARD
 70
     0
 40
0.0
 41
1.0
 50
0.0
 71
     0
 42
3.0
  3
ISOCP.SHX
  4
CHINESET.SHX
  0
STYLE
  5
6B
330
3
100
AcDbSymbolTableRecord
100
AcDbTextStyleTableRecord
  2

 70
     1
 40
0.0
 41
1.0
 50
0.0
 71
     0
 42
2.5
  3
ltypeshp.shx
  4

  0
STYLE
  5
6D
330
3
100
AcDbSymbolTableRecord
100
AcDbTextStyleTableRecord
  2
ACISOTS
 70
     0
 40
1.0
 41
1.0
 50
0.0
 71
     0
 42
1.0
  3
isocp.shx
  4
chineset.shx
  0
STYLE
  5
79
330
3
100
AcDbSymbolTableRecord
100
AcDbTextStyleTableRecord
  2
ACISOGDT
 70
     0
 40
0.0
 41
1.0
 50
0.0
 71
     0
 42
2.5
  3
amgdt.shx
  4
chineset.shx
  0
STYLE
  5
B56
330
3
100
AcDbSymbolTableRecord
100
AcDbTextStyleTableRecord
  2
CHINESET
 70
     0
 40
0.0
 41
1.0
 50
0.0
 71
     0
 42
3.5
  3
C:\r13\com\fonts\simplex.shx
  4
C:\r13\com\fonts\chineset.shx
  0
STYLE
  5
B57
330
3
100
AcDbSymbolTableRecord
100
AcDbTextStyleTableRecord
  2
ACANSTS
 70
     0
 40
1.0
 41
1.0
 50
0.0
 71
     0
 42
3.5
  3
romans.shx
  4
chineset.shx
  0
STYLE
  5
B58
330
3
100
AcDbSymbolTableRecord
100
AcDbTextStyleTableRecord
  2
ACANSGDT
 70
     0
 40
0.0
 41
1.0
 50
0.0
 71
     0
 42
3.5
  3
amgdtans.shx
  4

  0
ENDTAB
  0
TABLE
  2
VIEW
  5
6
330
0
100
AcDbSymbolTable
 70
     0
  0
ENDTAB
  0
TABLE
  2
UCS
  5
7
330
0
100
AcDbSymbolTable
 70
     0
  0
ENDTAB
  0
TABLE
  2
APPID
  5
9
330
0
100
AcDbSymbolTable
 70
    19
  0
APPID
  5
12
330
9
100
AcDbSymbolTableRecord
100
AcDbRegAppTableRecord
  2
ACAD
 70
     0
  0
APPID
  5
46
330
9
100
AcDbSymbolTableRecord
100
AcDbRegAppTableRecord
  2
MCAD_NO_VIS
 70
     0
  0
APPID
  5
47
330
9
100
AcDbSymbolTableRecord
100
AcDbRegAppTableRecord
  2
ACAD_TEMP_GRAPHIC
 70
     0
  0
APPID
  5
58
330
9
100
AcDbSymbolTableRecord
100
AcDbRegAppTableRecord
  2
ACATTRIBSERVICES
 70
     0
  0
APPID
  5
EE
330
9
100
AcDbSymbolTableRecord
100
AcDbRegAppTableRecord
  2
AD_DRAW
 70
     0
  0
APPID
  5
10C
330
9
100
AcDbSymbolTableRecord
100
AcDbRegAppTableRecord
  2
DESIGNERASSEMBLIES
 70
     0
  0
APPID
  5
111
330
9
100
AcDbSymbolTableRecord
100
AcDbRegAppTableRecord
  2
ACADM_DIM_EDIT
 70
     0
  0
APPID
  5
112
330
9
100
AcDbSymbolTableRecord
100
AcDbRegAppTableRecord
  2
AMDT_DM_ADJ
 70
     0
  0
APPID
  5
22C
330
9
100
AcDbSymbolTableRecord
100
AcDbRegAppTableRecord
  2
ACAD_DSTYLE_DIMTEXT_FILL
 70
     0
  0
APPID
  5
452
330
9
100
AcDbSymbolTableRecord
100
AcDbRegAppTableRecord
  2
GENIUS_GENOENT_13
 70
     0
  0
APPID
  5
453
330
9
100
AcDbSymbolTableRecord
100
AcDbRegAppTableRecord
  2
GENIUS_GENOBJ-N-CRS_13
 70
     0
  0
APPID
  5
454
330
9
100
AcDbSymbolTableRecord
100
AcDbRegAppTableRecord
  2
GENIUS_GENOLIS_13
 70
     0
  0
APPID
  5
455
330
9
100
AcDbSymbolTableRecord
100
AcDbRegAppTableRecord
  2
GENIUS_GENODEF_13
 70
     0
  0
APPID
  5
456
330
9
100
AcDbSymbolTableRecord
100
AcDbRegAppTableRecord
  2
GENIUS_GENOREF_13
 70
     0
  0
APPID
  5
6F3
330
9
100
AcDbSymbolTableRecord
100
AcDbRegAppTableRecord
  2
ACAD_PSEXT
 70
     0
  0
APPID
  5
808
330
9
100
AcDbSymbolTableRecord
100
AcDbRegAppTableRecord
  2
GENIUS_GENDTOL_13
 70
     0
  0
APPID
  5
113B
330
9
100
AcDbSymbolTableRecord
100
AcDbRegAppTableRecord
  2
AcAecLayerStandard
 70
     0
  0
APPID
  5
157C
330
9
100
AcDbSymbolTableRecord
100
AcDbRegAppTableRecord
  2
GENIUS_GENREC_14
 70
     0
  0
APPID
  5
157D
330
9
100
AcDbSymbolTableRecord
100
AcDbRegAppTableRecord
  2
GENIUS_GENOBJ-N-REC_13
 70
     0
  0
ENDTAB
  0
TABLE
  2
DIMSTYLE
  5
A
330
0
100
AcDbSymbolTable
 70
    16
100
AcDbDimStyleTable
 71
     4
340
81
340
B59
340
8B
340
86
  0
DIMSTYLE
105
81
330
A
100
AcDbSymbolTableRecord
100
AcDbDimStyleTableRecord
  2
AM_ISO
 70
     0
  4
"
 41
3.0
 42
1.0
 43
8.0
 44
1.5
 47
0.1
 48
0.1
 73
     0
 74
     0
 77
     1
 78
     8
 79
     2
140
3.5
141
0.0
143
0.0393701
146
0.6
147
0.7
172
     1
176
   256
177
   256
178
   256
271
     2
272
     2
283
     0
284
     8
340
11
371
    -1
372
    -1
  0
DIMSTYLE
105
82
102
{ACAD_REACTORS
330
145C
330
1462
102
}
330
A
100
AcDbSymbolTableRecord
100
AcDbDimStyleTableRecord
  2
AM_ISO$3
 70
     0
  4
"
 41
3.0
 42
1.0
 43
8.0
 44
1.5
 47
0.1
 48
0.1
 73
     0
 77
     1
 78
     8
 79
     2
140
3.5
141
0.0
143
0.0393701
146
0.6
147
0.7
176
   256
177
   256
178
   256
271
     2
272
     2
283
     0
284
     8
288
     1
289
     0
340
11
371
    -1
372
    -1
  0
DIMSTYLE
105
83
330
A
100
AcDbSymbolTableRecord
100
AcDbDimStyleTableRecord
  2
AM_ISO$4
 70
     0
  4
"
 41
3.0
 42
1.0
 43
8.0
 44
1.5
 47
0.1
 48
0.1
 73
     0
 77
     1
 78
     8
 79
     2
140
3.5
141
0.0
143
0.0393701
146
0.6
147
0.7
176
   256
177
   256
178
   256
271
     2
272
     2
283
     0
284
     8
288
     1
289
     0
340
11
371
    -1
372
    -1
  0
DIMSTYLE
105
84
330
A
100
AcDbSymbolTableRecord
100
AcDbDimStyleTableRecord
  2
AM_ISO$6
 70
     0
  4
"
 41
3.0
 42
1.0
 43
8.0
 44
1.5
 47
0.1
 48
0.1
 73
     0
 74
     0
 78
     8
 79
     2
140
3.5
141
0.0
143
0.0393701
146
0.6
147
0.7
172
     1
176
   256
177
   256
178
   256
271
     2
272
     2
283
     0
284
     8
340
11
371
    -1
372
    -1
  0
DIMSTYLE
105
85
330
A
100
AcDbSymbolTableRecord
100
AcDbDimStyleTableRecord
  2
AM_ISO$7
 70
     0
  4
"
 41
3.0
 42
1.0
 43
8.0
 44
1.5
 47
0.1
 48
0.1
 73
     0
 74
     0
 77
     1
 78
     8
 79
     2
140
5.0
141
0.0
143
0.0393701
146
0.6
147
0.7
172
     1
176
   256
177
   256
178
   256
271
     2
272
     2
283
     0
284
     8
340
11
371
    -1
372
    -1
  0
DIMSTYLE
105
86
330
A
100
AcDbSymbolTableRecord
100
AcDbDimStyleTableRecord
  2
AM_ISO$SF
 70
     0
  4
"
 41
2.5
 42
1.0
 43
10.0
 44
1.0
 47
0.1
 48
0.1
 73
     0
 74
     0
 75
     1
 76
     1
 77
     1
 78
     8
 79
     2
140
3.5
141
0.0
143
0.0393701
146
0.71
147
1.5
172
     1
176
   256
177
   256
178
     2
271
     2
272
     3
274
     4
283
     0
284
     8
340
11
371
    -1
372
    -1
  0
DIMSTYLE
105
8B
330
A
100
AcDbSymbolTableRecord
100
AcDbDimStyleTableRecord
  2
AM_ISO$SH
 70
     0
  4
"
 41
2.5
 42
1.0
 43
10.0
 44
1.0
 47
0.1
 48
0.1
 73
     0
 74
     0
 75
     1
 76
     1
 77
     1
 78
     8
 79
     2
140
3.5
141
0.0
143
0.0393701
144
2.0
146
0.71
147
1.5
172
     1
173
     1
176
   256
177
   256
178
     2
271
     2
272
     3
274
     4
283
     0
284
     8
340
11
343
87
371
    -1
372
    -1
  0
DIMSTYLE
105
40B
102
{ACAD_REACTORS
330
FF9
330
1305
330
1360
330
1376
330
139F
330
144F
330
1452
330
1465
330
1468
102
}
330
A
100
AcDbSymbolTableRecord
100
AcDbDimStyleTableRecord
  2
AM_ISO$0
 70
     0
  4
"
 41
3.0
 42
1.0
 43
8.0
 44
1.5
 47
0.1
 48
0.1
 73
     0
 74
     0
 77
     1
 78
     8
 79
     2
140
3.5
141
0.0
143
0.0393701
146
0.6
147
0.7
172
     1
176
   256
177
   256
178
   256
271
     2
272
     2
283
     0
284
     8
340
11
371
    -1
372
    -1
  0
DIMSTYLE
105
B59
102
{ACAD_REACTORS
330
DD0
330
E8A
330
EAB
330
EE4
330
FC6
102
}
330
A
100
AcDbSymbolTableRecord
100
AcDbDimStyleTableRecord
  2
STANDARD
 70
     0
 41
3.0
 42
2.0
 43
8.0
 44
2.0
 73
     0
 74
     0
 77
     1
 78
     8
 79
     2
140
3.0
141
-2.0
146
0.5
147
1.0
176
   256
177
   256
178
   256
271
     2
272
     2
279
     2
284
     8
340
B56
371
    -1
372
    -1
  0
DIMSTYLE
105
B5A
330
A
100
AcDbSymbolTableRecord
100
AcDbDimStyleTableRecord
  2
AM_ANSI
 70
     0
  4
mm
 41
0.1
 42
0.05
 43
0.5
 44
0.1
 47
0.1
 48
0.1
 78
     7
 79
     2
140
0.12
141
0.0
146
0.71
147
0.06
176
   256
177
   256
178
     2
274
     4
284
     7
340
11
371
    -1
372
    -1
  0
DIMSTYLE
105
B5B
330
A
100
AcDbSymbolTableRecord
100
AcDbDimStyleTableRecord
  2
AM_ANSI$3
 70
     0
  4
mm
 41
0.1
 42
0.05
 43
0.5
 44
0.1
 47
0.1
 48
0.1
 78
     7
 79
     2
140
0.12
141
0.0
146
0.71
147
0.06
176
   256
177
   256
178
     2
274
     4
284
     7
288
     1
289
     0
340
11
371
    -1
372
    -1
  0
DIMSTYLE
105
B5C
330
A
100
AcDbSymbolTableRecord
100
AcDbDimStyleTableRecord
  2
AM_ANSI$4
 70
     0
  4
mm
 41
0.1
 42
0.05
 43
0.5
 44
0.1
 47
0.1
 48
0.1
 78
     7
 79
     2
140
0.12
141
0.0
146
0.71
147
0.06
176
   256
177
   256
178
     2
274
     4
284
     7
288
     1
289
     0
340
11
371
    -1
372
    -1
  0
DIMSTYLE
105
B5D
330
A
100
AcDbSymbolTableRecord
100
AcDbDimStyleTableRecord
  2
AM_ANSI$7
 70
     0
  4
mm
 41
0.1
 42
0.05
 43
0.5
 44
0.1
 47
0.1
 48
0.1
 78
     7
 79
     2
140
0.24
141
0.0
146
0.71
147
0.06
176
   256
177
   256
178
     2
274
     4
284
     7
340
11
371
    -1
372
    -1
  0
DIMSTYLE
105
B5E
330
A
100
AcDbSymbolTableRecord
100
AcDbDimStyleTableRecord
  2
AM_ANSI$SF
 70
     0
  4
mm
 41
0.1
 42
0.05
 43
0.5
 44
0.1
 47
0.1
 48
0.1
 75
     1
 76
     1
 78
     7
 79
     2
140
0.12
141
0.0
146
0.71
147
0.06
176
   256
177
   256
178
     2
274
     4
284
     7
340
11
371
    -1
372
    -1
  0
DIMSTYLE
105
B5F
330
A
100
AcDbSymbolTableRecord
100
AcDbDimStyleTableRecord
  2
AM_ANSI$SH
 70
     0
  4
mm
 41
0.1
 42
0.05
 43
0.5
 44
0.1
 47
0.1
 48
0.1
 75
     1
 76
     1
 78
     7
 79
     2
140
0.12
141
0.0
146
0.71
147
0.06
173
     1
176
   256
177
   256
178
     2
274
     4
284
     7
340
11
343
87
371
    -1
372
    -1
  0
ENDTAB
  0
TABLE
  2
BLOCK_RECORD
  5
1
330
0
100
AcDbSymbolTable
 70
    25
  0
BLOCK_RECORD
  5
1F
102
{ACAD_XDICTIONARY
360
8F
102
}
330
1
100
AcDbSymbolTableRecord
100
AcDbBlockTableRecord
  2
*Model_Space
340
22
  0
BLOCK_RECORD
  5
1B
330
1
100
AcDbSymbolTableRecord
100
AcDbBlockTableRecord
  2
*Paper_Space
340
1E
  0
BLOCK_RECORD
  5
23
330
1
100
AcDbSymbolTableRecord
100
AcDbBlockTableRecord
  2
*Paper_Space0
340
26
  0
BLOCK_RECORD
  5
87
330
1
100
AcDbSymbolTableRecord
100
AcDbBlockTableRecord
  2
GENAXEH
340
0
  0
BLOCK_RECORD
  5
A7E
330
1
100
AcDbSymbolTableRecord
100
AcDbBlockTableRecord
  2
*X3
340
0
102
{BLKREFS
331
D4D
331
D64
331
DB8
331
DBA
102
}
  0
BLOCK_RECORD
  5
F1B
330
1
100
AcDbSymbolTableRecord
100
AcDbBlockTableRecord
  2
*D4
340
0
  0
BLOCK_RECORD
  5
F40
330
1
100
AcDbSymbolTableRecord
100
AcDbBlockTableRecord
  2
*D5
340
0
  0
BLOCK_RECORD
  5
F4C
330
1
100
AcDbSymbolTableRecord
100
AcDbBlockTableRecord
  2
*D6
340
0
  0
BLOCK_RECORD
  5
F58
330
1
100
AcDbSymbolTableRecord
100
AcDbBlockTableRecord
  2
*D7
340
0
  0
BLOCK_RECORD
  5
FC7
330
1
100
AcDbSymbolTableRecord
100
AcDbBlockTableRecord
  2
*D8
340
0
  0
BLOCK_RECORD
  5
FFA
330
1
100
AcDbSymbolTableRecord
100
AcDbBlockTableRecord
  2
*D9
340
0
  0
BLOCK_RECORD
  5
103B
330
1
100
AcDbSymbolTableRecord
100
AcDbBlockTableRecord
  2
*X10
340
0
102
{BLKREFS
331
144C
331
144D
331
144E
331
1461
102
}
  0
BLOCK_RECORD
  5
1479
330
1
100
AcDbSymbolTableRecord
100
AcDbBlockTableRecord
  2
*D11
340
0
  0
BLOCK_RECORD
  5
1485
330
1
100
AcDbSymbolTableRecord
100
AcDbBlockTableRecord
  2
*D12
340
0
  0
BLOCK_RECORD
  5
1491
330
1
100
AcDbSymbolTableRecord
100
AcDbBlockTableRecord
  2
*D13
340
0
  0
BLOCK_RECORD
  5
149D
330
1
100
AcDbSymbolTableRecord
100
AcDbBlockTableRecord
  2
*D14
340
0
  0
BLOCK_RECORD
  5
14C4
330
1
100
AcDbSymbolTableRecord
100
AcDbBlockTableRecord
  2
*D15
340
0
  0
BLOCK_RECORD
  5
14D0
330
1
100
AcDbSymbolTableRecord
100
AcDbBlockTableRecord
  2
*D16
340
0
  0
BLOCK_RECORD
  5
14DC
330
1
100
AcDbSymbolTableRecord
100
AcDbBlockTableRecord
  2
*D17
340
0
  0
BLOCK_RECORD
  5
14E5
330
1
100
AcDbSymbolTableRecord
100
AcDbBlockTableRecord
  2
*D18
340
0
  0
BLOCK_RECORD
  5
14F0
330
1
100
AcDbSymbolTableRecord
100
AcDbBlockTableRecord
  2
*D19
340
0
  0
BLOCK_RECORD
  5
14FC
330
1
100
AcDbSymbolTableRecord
100
AcDbBlockTableRecord
  2
*D20
340
0
  0
BLOCK_RECORD
  5
1BAA
330
1
100
AcDbSymbolTableRecord
100
AcDbBlockTableRecord
  2
*S22
340
0
  0
BLOCK_RECORD
  5
1BB2
330
1
100
AcDbSymbolTableRecord
100
AcDbBlockTableRecord
  2
*S23
340
0
  0
BLOCK_RECORD
  5
1BBA
330
1
100
AcDbSymbolTableRecord
100
AcDbBlockTableRecord
  2
*S24
340
0
  0
ENDTAB
  0
ENDSEC
  0
SECTION
  2
BLOCKS
  0
BLOCK
  5
20
330
1F
100
AcDbEntity
  8
0
100
AcDbBlockBegin
  2
*Model_Space
 70
     0
 10
0.0
 20
0.0
 30
0.0
  3
*Model_Space
  1

  0
ENDBLK
  5
21
330
1F
100
AcDbEntity
  8
0
100
AcDbBlockEnd
  0
BLOCK
  5
1C
330
1B
100
AcDbEntity
 67
     1
  8
0
100
AcDbBlockBegin
  2
*Paper_Space
 70
     0
 10
0.0
 20
0.0
 30
0.0
  3
*Paper_Space
  1

  0
ENDBLK
  5
1D
330
1B
100
AcDbEntity
 67
     1
  8
0
100
AcDbBlockEnd
  0
BLOCK
  5
24
330
23
100
AcDbEntity
  8
0
100
AcDbBlockBegin
  2
*Paper_Space0
 70
     0
 10
0.0
 20
0.0
 30
0.0
  3
*Paper_Space0
  1

  0
ENDBLK
  5
25
330
23
100
AcDbEntity
  8
0
100
AcDbBlockEnd
  0
BLOCK
  5
89
330
87
100
AcDbEntity
  8
0
100
AcDbBlockBegin
  2
GENAXEH
 70
     0
 10
0.0
 20
0.0
 30
0.0
  3
GENAXEH
  1

  0
LINE
  5
88
330
87
100
AcDbEntity
  8
0
100
AcDbLine
 10
-1.0
 20
0.0
 30
0.0
 11
1.0
 21
0.0
 31
0.0
  0
ENDBLK
  5
8A
330
87
100
AcDbEntity
  8
0
100
AcDbBlockEnd
  0
BLOCK
  5
A7F
330
A7E
100
AcDbEntity
  8
0
100
AcDbBlockBegin
  2
*X3
 70
     1
 10
0.0
 20
0.0
 30
0.0
  3
*X3
  1

  0
LINE
  5
A80
330
A7E
100
AcDbEntity
  8
0
 62
     0
100
AcDbLine
 10
58.12688583385869
 20
234.0196976540124
 30
0.0
 11
62.73904733507619
 21
238.6318591552298
 31
0.0
  0
LINE
  5
A81
330
A7E
100
AcDbEntity
  8
0
 62
     0
100
AcDbLine
 10
57.95010913856206
 20
234.0196976540124
 30
0.0
 11
62.62119620487843
 21
238.6907847203287
 31
0.0
  0
LINE
  5
A82
330
A7E
100
AcDbEntity
  8
0
 62
     0
100
AcDbLine
 10
57.77333244326541
 20
234.0196976540124
 30
0.0
 11
62.50334507468068
 21
238.7497102854276
 31
0.0
  0
LINE
  5
A83
330
A7E
100
AcDbEntity
  8
0
 62
     0
100
AcDbLine
 10
57.59655574796878
 20
234.0196976540124
 30
0.0
 11
62.38549394448291
 21
238.8086358505265
 31
0.0
  0
LINE
  5
A84
330
A7E
100
AcDbEntity
  8
0
 62
     0
100
AcDbLine
 10
57.41977905267214
 20
234.0196976540124
 30
0.0
 11
62.26764281428515
 21
238.8675614156253
 31
0.0
  0
LINE
  5
A85
330
A7E
100
AcDbEntity
  8
0
 62
     0
100
AcDbLine
 10
57.24300235737551
 20
234.0196976540124
 30
0.0
 11
62.14979168408739
 21
238.9264869807242
 31
0.0
  0
LINE
  5
A86
330
A7E
100
AcDbEntity
  8
0
 62
     0
100
AcDbLine
 10
57.06622566207887
 20
234.0196976540124
 30
0.0
 11
62.03194055388962
 21
238.9854125458231
 31
0.0
  0
LINE
  5
A87
330
A7E
100
AcDbEntity
  8
0
 62
     0
100
AcDbLine
 10
56.88944896678223
 20
234.0196976540124
 30
0.0
 11
59.88944896678223
 21
237.0196976540124
 31
0.0
  0
LINE
  5
A88
330
A7E
100
AcDbEntity
  8
0
 62
     0
100
AcDbLine
 10
59.96337033751103
 20
237.0936190247412
 30
0.0
 11
61.91408942369186
 21
239.044338110922
 31
0.0
  0
LINE
  5
A89
330
A7E
100
AcDbEntity
  8
0
 62
     0
100
AcDbLine
 10
56.71267227148559
 20
234.0196976540124
 30
0.0
 11
59.71267227148558
 21
237.0196976540124
 31
0.0
  0
LINE
  5
A8A
330
A7E
100
AcDbEntity
  8
0
 62
     0
100
AcDbLine
 10
59.96337033751103
 20
237.2703957200378
 30
0.0
 11
61.7962382934941
 21
239.1032636760209
 31
0.0
  0
LINE
  5
A8B
330
A7E
100
AcDbEntity
  8
0
 62
     0
100
AcDbLine
 10
56.53589557618896
 20
234.0196976540124
 30
0.0
 11
59.53589557618895
 21
237.0196976540124
 31
0.0
  0
LINE
  5
A8C
330
A7E
100
AcDbEntity
  8
0
 62
     0
100
AcDbLine
 10
59.96337033751103
 20
237.4471724153345
 30
0.0
 11
61.67838716329634
 21
239.1621892411198
 31
0.0
  0
LINE
  5
A8D
330
A7E
100
AcDbEntity
  8
0
 62
     0
100
AcDbLine
 10
56.35911888089232
 20
234.0196976540124
 30
0.0
 11
59.35911888089232
 21
237.0196976540124
 31
0.0
  0
LINE
  5
A8E
330
A7E
100
AcDbEntity
  8
0
 62
     0
100
AcDbLine
 10
59.96337033751103
 20
237.6239491106311
 30
0.0
 11
61.56053603309858
 21
239.2211148062186
 31
0.0
  0
LINE
  5
A8F
330
A7E
100
AcDbEntity
  8
0
 62
     0
100
AcDbLine
 10
56.18234218559568
 20
234.0196976540124
 30
0.0
 11
59.18234218559568
 21
237.0196976540124
 31
0.0
  0
LINE
  5
A90
330
A7E
100
AcDbEntity
  8
0
 62
     0
100
AcDbLine
 10
59.96337033751103
 20
237.8007258059277
 30
0.0
 11
61.44268490290083
 21
239.2800403713175
 31
0.0
  0
LINE
  5
A91
330
A7E
100
AcDbEntity
  8
0
 62
     0
100
AcDbLine
 10
56.00556549029905
 20
234.0196976540124
 30
0.0
 11
59.00556549029904
 21
237.0196976540124
 31
0.0
  0
LINE
  5
A92
330
A7E
100
AcDbEntity
  8
0
 62
     0
100
AcDbLine
 10
59.96337033751103
 20
237.9775025012244
 30
0.0
 11
61.32483377270308
 21
239.3389659364164
 31
0.0
  0
LINE
  5
A93
330
A7E
100
AcDbEntity
  8
0
 62
     0
100
AcDbLine
 10
55.82878879500241
 20
234.0196976540124
 30
0.0
 11
58.8287887950024
 21
237.0196976540124
 31
0.0
  0
LINE
  5
A94
330
A7E
100
AcDbEntity
  8
0
 62
     0
100
AcDbLine
 10
59.96337033751103
 20
238.154279196521
 30
0.0
 11
61.20698264250531
 21
239.3978915015153
 31
0.0
  0
LINE
  5
A95
330
A7E
100
AcDbEntity
  8
0
 62
     0
100
AcDbLine
 10
55.65201209970577
 20
234.0196976540124
 30
0.0
 11
58.65201209970576
 21
237.0196976540124
 31
0.0
  0
LINE
  5
A96
330
A7E
100
AcDbEntity
  8
0
 62
     0
100
AcDbLine
 10
59.96337033751103
 20
238.3310558918176
 30
0.0
 11
61.08913151230756
 21
239.4568170666142
 31
0.0
  0
LINE
  5
A97
330
A7E
100
AcDbEntity
  8
0
 62
     0
100
AcDbLine
 10
55.47523540440914
 20
234.0196976540124
 30
0.0
 11
58.47523540440914
 21
237.0196976540124
 31
0.0
  0
LINE
  5
A98
330
A7E
100
AcDbEntity
  8
0
 62
     0
100
AcDbLine
 10
59.96337033751103
 20
238.5078325871143
 30
0.0
 11
60.9712803821098
 21
239.515742631713
 31
0.0
  0
LINE
  5
A99
330
A7E
100
AcDbEntity
  8
0
 62
     0
100
AcDbLine
 10
55.2984587091125
 20
234.0196976540124
 30
0.0
 11
58.29845870911249
 21
237.0196976540124
 31
0.0
  0
LINE
  5
A9A
330
A7E
100
AcDbEntity
  8
0
 62
     0
100
AcDbLine
 10
59.96337033751103
 20
238.6846092824109
 30
0.0
 11
60.85342925191205
 21
239.5746681968119
 31
0.0
  0
LINE
  5
A9B
330
A7E
100
AcDbEntity
  8
0
 62
     0
100
AcDbLine
 10
55.12168201381586
 20
234.0196976540124
 30
0.0
 11
58.12168201381585
 21
237.0196976540124
 31
0.0
  0
LINE
  5
A9C
330
A7E
100
AcDbEntity
  8
0
 62
     0
100
AcDbLine
 10
59.96337033751103
 20
238.8613859777076
 30
0.0
 11
60.73557812171428
 21
239.6335937619108
 31
0.0
  0
LINE
  5
A9D
330
A7E
100
AcDbEntity
  8
0
 62
     0
100
AcDbLine
 10
54.94490531851923
 20
234.0196976540124
 30
0.0
 11
57.94490531851922
 21
237.0196976540124
 31
0.0
  0
LINE
  5
A9E
330
A7E
100
AcDbEntity
  8
0
 62
     0
100
AcDbLine
 10
59.96337033751103
 20
239.0381626730042
 30
0.0
 11
60.61772699151653
 21
239.6925193270096
 31
0.0
  0
LINE
  5
A9F
330
A7E
100
AcDbEntity
  8
0
 62
     0
100
AcDbLine
 10
54.76812862322258
 20
234.0196976540124
 30
0.0
 11
57.76812862322258
 21
237.0196976540124
 31
0.0
  0
LINE
  5
AA0
330
A7E
100
AcDbEntity
  8
0
 62
     0
100
AcDbLine
 10
59.96337033751103
 20
239.2149393683008
 30
0.0
 11
60.49987586131877
 21
239.7514448921085
 31
0.0
  0
LINE
  5
AA1
330
A7E
100
AcDbEntity
  8
0
 62
     0
100
AcDbLine
 10
54.59135192792595
 20
234.0196976540124
 30
0.0
 11
57.59135192792594
 21
237.0196976540124
 31
0.0
  0
LINE
  5
AA2
330
A7E
100
AcDbEntity
  8
0
 62
     0
100
AcDbLine
 10
59.96337033751103
 20
239.3917160635974
 30
0.0
 11
60.38202473112101
 21
239.8103704572074
 31
0.0
  0
LINE
  5
AA3
330
A7E
100
AcDbEntity
  8
0
 62
     0
100
AcDbLine
 10
54.41457523262932
 20
234.0196976540124
 30
0.0
 11
57.41457523262931
 21
237.0196976540124
 31
0.0
  0
LINE
  5
AA4
330
A7E
100
AcDbEntity
  8
0
 62
     0
100
AcDbLine
 10
59.96337033751103
 20
239.5684927588941
 30
0.0
 11
60.26417360092326
 21
239.8692960223063
 31
0.0
  0
LINE
  5
AA5
330
A7E
100
AcDbEntity
  8
0
 62
     0
100
AcDbLine
 10
54.23779853733268
 20
234.0196976540124
 30
0.0
 11
57.23779853733267
 21
237.0196976540124
 31
0.0
  0
LINE
  5
AA6
330
A7E
100
AcDbEntity
  8
0
 62
     0
100
AcDbLine
 10
59.96337033751103
 20
239.7452694541907
 30
0.0
 11
60.1463224707255
 21
239.9282215874052
 31
0.0
  0
LINE
  5
AA7
330
A7E
100
AcDbEntity
  8
0
 62
     0
100
AcDbLine
 10
54.06102184203604
 20
234.0196976540124
 30
0.0
 11
57.06102184203603
 21
237.0196976540124
 31
0.0
  0
LINE
  5
AA8
330
A7E
100
AcDbEntity
  8
0
 62
     0
100
AcDbLine
 10
59.96337033751103
 20
239.9220461494874
 30
0.0
 11
60.02847134052775
 21
239.9871471525041
 31
0.0
  0
LINE
  5
AA9
330
A7E
100
AcDbEntity
  8
0
 62
     0
100
AcDbLine
 10
53.8842451467394
 20
234.0196976540124
 30
0.0
 11
56.8842451467394
 21
237.0196976540124
 31
0.0
  0
LINE
  5
AAA
330
A7E
100
AcDbEntity
  8
0
 62
     0
100
AcDbLine
 10
53.70746845144277
 20
234.0196976540124
 30
0.0
 11
56.70746845144276
 21
237.0196976540124
 31
0.0
  0
LINE
  5
AAB
330
A7E
100
AcDbEntity
  8
0
 62
     0
100
AcDbLine
 10
53.53069175614614
 20
234.0196976540124
 30
0.0
 11
56.53069175614612
 21
237.0196976540124
 31
0.0
  0
LINE
  5
AAC
330
A7E
100
AcDbEntity
  8
0
 62
     0
100
AcDbLine
 10
53.35391506084949
 20
234.0196976540124
 30
0.0
 11
56.35391506084949
 21
237.0196976540124
 31
0.0
  0
LINE
  5
AAD
330
A7E
100
AcDbEntity
  8
0
 62
     0
100
AcDbLine
 10
53.17713836555285
 20
234.0196976540124
 30
0.0
 11
56.17713836555285
 21
237.0196976540124
 31
0.0
  0
LINE
  5
AAE
330
A7E
100
AcDbEntity
  8
0
 62
     0
100
AcDbLine
 10
53.00036167025622
 20
234.0196976540124
 30
0.0
 11
56.00036167025621
 21
237.0196976540124
 31
0.0
  0
LINE
  5
AAF
330
A7E
100
AcDbEntity
  8
0
 62
     0
100
AcDbLine
 10
52.82358497495959
 20
234.0196976540124
 30
0.0
 11
55.82358497495958
 21
237.0196976540124
 31
0.0
  0
LINE
  5
AB0
330
A7E
100
AcDbEntity
  8
0
 62
     0
100
AcDbLine
 10
52.64680827966294
 20
234.0196976540124
 30
0.0
 11
55.64680827966294
 21
237.0196976540124
 31
0.0
  0
LINE
  5
AB1
330
A7E
100
AcDbEntity
  8
0
 62
     0
100
AcDbLine
 10
52.47003158436631
 20
234.0196976540124
 30
0.0
 11
55.47003158436631
 21
237.0196976540124
 31
0.0
  0
LINE
  5
AB2
330
A7E
100
AcDbEntity
  8
0
 62
     0
100
AcDbLine
 10
52.29325488906967
 20
234.0196976540124
 30
0.0
 11
55.29325488906966
 21
237.0196976540124
 31
0.0
  0
LINE
  5
AB3
330
A7E
100
AcDbEntity
  8
0
 62
     0
100
AcDbLine
 10
52.11647819377303
 20
234.0196976540124
 30
0.0
 11
55.11647819377302
 21
237.0196976540124
 31
0.0
  0
LINE
  5
AB4
330
A7E
100
AcDbEntity
  8
0
 62
     0
100
AcDbLine
 10
51.9397014984764
 20
234.0196976540124
 30
0.0
 11
54.9397014984764
 21
237.0196976540124
 31
0.0
  0
LINE
  5
AB5
330
A7E
100
AcDbEntity
  8
0
 62
     0
100
AcDbLine
 10
51.76292480317976
 20
234.0196976540124
 30
0.0
 11
54.76292480317976
 21
237.0196976540124
 31
0.0
  0
LINE
  5
AB6
330
A7E
100
AcDbEntity
  8
0
 62
     0
100
AcDbLine
 10
51.58614810788312
 20
234.0196976540124
 30
0.0
 11
54.58614810788311
 21
237.0196976540124
 31
0.0
  0
LINE
  5
AB7
330
A7E
100
AcDbEntity
  8
0
 62
     0
100
AcDbLine
 10
51.40937141258646
 20
234.0196976540124
 30
0.0
 11
54.40937141258645
 21
237.0196976540124
 31
0.0
  0
LINE
  5
AB8
330
A7E
100
AcDbEntity
  8
0
 62
     0
100
AcDbLine
 10
51.23259471728985
 20
234.0196976540124
 30
0.0
 11
54.23259471728984
 21
237.0196976540124
 31
0.0
  0
LINE
  5
AB9
330
A7E
100
AcDbEntity
  8
0
 62
     0
100
AcDbLine
 10
51.05581802199322
 20
234.0196976540124
 30
0.0
 11
54.05581802199321
 21
237.0196976540124
 31
0.0
  0
LINE
  5
ABA
330
A7E
100
AcDbEntity
  8
0
 62
     0
100
AcDbLine
 10
50.87904132669658
 20
234.0196976540124
 30
0.0
 11
53.87904132669657
 21
237.0196976540124
 31
0.0
  0
LINE
  5
ABB
330
A7E
100
AcDbEntity
  8
0
 62
     0
100
AcDbLine
 10
50.70226463139994
 20
234.0196976540124
 30
0.0
 11
53.70226463139993
 21
237.0196976540124
 31
0.0
  0
LINE
  5
ABC
330
A7E
100
AcDbEntity
  8
0
 62
     0
100
AcDbLine
 10
50.52548793610331
 20
234.0196976540124
 30
0.0
 11
53.52548793610329
 21
237.0196976540124
 31
0.0
  0
LINE
  5
ABD
330
A7E
100
AcDbEntity
  8
0
 62
     0
100
AcDbLine
 10
50.34871124080666
 20
234.0196976540124
 30
0.0
 11
53.34871124080666
 21
237.0196976540124
 31
0.0
  0
LINE
  5
ABE
330
A7E
100
AcDbEntity
  8
0
 62
     0
100
AcDbLine
 10
50.17193454551003
 20
234.0196976540124
 30
0.0
 11
53.17193454551002
 21
237.0196976540124
 31
0.0
  0
LINE
  5
ABF
330
A7E
100
AcDbEntity
  8
0
 62
     0
100
AcDbLine
 10
49.9951578502134
 20
234.0196976540124
 30
0.0
 11
52.99515785021339
 21
237.0196976540124
 31
0.0
  0
LINE
  5
AC0
330
A7E
100
AcDbEntity
  8
0
 62
     0
100
AcDbLine
 10
49.96337033751103
 20
234.1646868366066
 30
0.0
 11
52.81838115491675
 21
237.0196976540124
 31
0.0
  0
LINE
  5
AC1
330
A7E
100
AcDbEntity
  8
0
 62
     0
100
AcDbLine
 10
49.96337033751103
 20
234.3414635319033
 30
0.0
 11
52.64160445962011
 21
237.0196976540124
 31
0.0
  0
LINE
  5
AC2
330
A7E
100
AcDbEntity
  8
0
 62
     0
100
AcDbLine
 10
49.96337033751103
 20
234.5182402271999
 30
0.0
 11
52.46482776432348
 21
237.0196976540124
 31
0.0
  0
LINE
  5
AC3
330
A7E
100
AcDbEntity
  8
0
 62
     0
100
AcDbLine
 10
49.96337033751103
 20
234.6950169224965
 30
0.0
 11
52.28805106902684
 21
237.0196976540124
 31
0.0
  0
LINE
  5
AC4
330
A7E
100
AcDbEntity
  8
0
 62
     0
100
AcDbLine
 10
49.96337033751103
 20
234.8717936177932
 30
0.0
 11
52.1112743737302
 21
237.0196976540124
 31
0.0
  0
LINE
  5
AC5
330
A7E
100
AcDbEntity
  8
0
 62
     0
100
AcDbLine
 10
49.96337033751103
 20
235.0485703130898
 30
0.0
 11
51.93449767843357
 21
237.0196976540124
 31
0.0
  0
LINE
  5
AC6
330
A7E
100
AcDbEntity
  8
0
 62
     0
100
AcDbLine
 10
49.96337033751103
 20
235.2253470083864
 30
0.0
 11
51.75772098313693
 21
237.0196976540124
 31
0.0
  0
LINE
  5
AC7
330
A7E
100
AcDbEntity
  8
0
 62
     0
100
AcDbLine
 10
49.96337033751103
 20
235.4021237036831
 30
0.0
 11
51.58094428784028
 21
237.0196976540124
 31
0.0
  0
LINE
  5
AC8
330
A7E
100
AcDbEntity
  8
0
 62
     0
100
AcDbLine
 10
49.96337033751103
 20
235.5789003989797
 30
0.0
 11
51.40416759254365
 21
237.0196976540124
 31
0.0
  0
LINE
  5
AC9
330
A7E
100
AcDbEntity
  8
0
 62
     0
100
AcDbLine
 10
49.96337033751103
 20
235.7556770942764
 30
0.0
 11
51.22739089724702
 21
237.0196976540124
 31
0.0
  0
LINE
  5
ACA
330
A7E
100
AcDbEntity
  8
0
 62
     0
100
AcDbLine
 10
49.96337033751103
 20
235.932453789573
 30
0.0
 11
51.05061420195038
 21
237.0196976540124
 31
0.0
  0
LINE
  5
ACB
330
A7E
100
AcDbEntity
  8
0
 62
     0
100
AcDbLine
 10
49.96337033751103
 20
236.1092304848697
 30
0.0
 11
50.87383750665371
 21
237.0196976540124
 31
0.0
  0
LINE
  5
ACC
330
A7E
100
AcDbEntity
  8
0
 62
     0
100
AcDbLine
 10
49.96337033751103
 20
236.2860071801663
 30
0.0
 11
50.6970608113571
 21
237.0196976540124
 31
0.0
  0
LINE
  5
ACD
330
A7E
100
AcDbEntity
  8
0
 62
     0
100
AcDbLine
 10
49.96337033751103
 20
236.4627838754629
 30
0.0
 11
50.52028411606046
 21
237.0196976540124
 31
0.0
  0
LINE
  5
ACE
330
A7E
100
AcDbEntity
  8
0
 62
     0
100
AcDbLine
 10
49.96337033751103
 20
236.6395605707595
 30
0.0
 11
50.34350742076384
 21
237.0196976540124
 31
0.0
  0
LINE
  5
ACF
330
A7E
100
AcDbEntity
  8
0
 62
     0
100
AcDbLine
 10
49.96337033751103
 20
236.8163372660561
 30
0.0
 11
50.16673072546719
 21
237.0196976540124
 31
0.0
  0
LINE
  5
AD0
330
A7E
100
AcDbEntity
  8
0
 62
     0
100
AcDbLine
 10
49.96337033751103
 20
236.9931139613528
 30
0.0
 11
49.98995403017056
 21
237.0196976540124
 31
0.0
  0
LINE
  5
AD1
330
A7E
100
AcDbEntity
  8
0
 62
     0
100
AcDbLine
 10
58.30366252915532
 20
234.0196976540124
 30
0.0
 11
62.85689846527392
 21
238.5729335901309
 31
0.0
  0
LINE
  5
AD2
330
A7E
100
AcDbEntity
  8
0
 62
     0
100
AcDbLine
 10
58.48043922445196
 20
234.0196976540124
 30
0.0
 11
62.97474959547168
 21
238.5140080250321
 31
0.0
  0
LINE
  5
AD3
330
A7E
100
AcDbEntity
  8
0
 62
     0
100
AcDbLine
 10
58.6572159197486
 20
234.0196976540124
 30
0.0
 11
63.09260072566943
 21
238.4550824599332
 31
0.0
  0
LINE
  5
AD4
330
A7E
100
AcDbEntity
  8
0
 62
     0
100
AcDbLine
 10
58.83399261504524
 20
234.0196976540124
 30
0.0
 11
63.21045185586719
 21
238.3961568948343
 31
0.0
  0
LINE
  5
AD5
330
A7E
100
AcDbEntity
  8
0
 62
     0
100
AcDbLine
 10
59.01076931034188
 20
234.0196976540124
 30
0.0
 11
63.32830298606495
 21
238.3372313297355
 31
0.0
  0
LINE
  5
AD6
330
A7E
100
AcDbEntity
  8
0
 62
     0
100
AcDbLine
 10
59.1875460056385
 20
234.0196976540124
 30
0.0
 11
63.4461541162627
 21
238.2783057646366
 31
0.0
  0
LINE
  5
AD7
330
A7E
100
AcDbEntity
  8
0
 62
     0
100
AcDbLine
 10
59.36432270093515
 20
234.0196976540124
 30
0.0
 11
63.56400524646047
 21
238.2193801995377
 31
0.0
  0
LINE
  5
AD8
330
A7E
100
AcDbEntity
  8
0
 62
     0
100
AcDbLine
 10
59.54109939623179
 20
234.0196976540124
 30
0.0
 11
63.68185637665822
 21
238.1604546344388
 31
0.0
  0
LINE
  5
AD9
330
A7E
100
AcDbEntity
  8
0
 62
     0
100
AcDbLine
 10
59.71787609152842
 20
234.0196976540124
 30
0.0
 11
63.79970750685598
 21
238.1015290693399
 31
0.0
  0
LINE
  5
ADA
330
A7E
100
AcDbEntity
  8
0
 62
     0
100
AcDbLine
 10
59.89465278682506
 20
234.0196976540124
 30
0.0
 11
63.91755863705376
 21
238.0426035042411
 31
0.0
  0
LINE
  5
ADB
330
A7E
100
AcDbEntity
  8
0
 62
     0
100
AcDbLine
 10
59.96337033751103
 20
233.9116385094017
 30
0.0
 11
64.03540976725152
 21
237.9836779391422
 31
0.0
  0
LINE
  5
ADC
330
A7E
100
AcDbEntity
  8
0
 62
     0
100
AcDbLine
 10
59.96337033751103
 20
233.734861814105
 30
0.0
 11
64.15326089744927
 21
237.9247523740433
 31
0.0
  0
LINE
  5
ADD
330
A7E
100
AcDbEntity
  8
0
 62
     0
100
AcDbLine
 10
59.96337033751103
 20
233.5580851188084
 30
0.0
 11
64.27111202764703
 21
237.8658268089444
 31
0.0
  0
LINE
  5
ADE
330
A7E
100
AcDbEntity
  8
0
 62
     0
100
AcDbLine
 10
59.96337033751103
 20
233.3813084235118
 30
0.0
 11
64.38896315784479
 21
237.8069012438456
 31
0.0
  0
LINE
  5
ADF
330
A7E
100
AcDbEntity
  8
0
 62
     0
100
AcDbLine
 10
59.96337033751103
 20
233.2045317282151
 30
0.0
 11
64.50681428804255
 21
237.7479756787467
 31
0.0
  0
LINE
  5
AE0
330
A7E
100
AcDbEntity
  8
0
 62
     0
100
AcDbLine
 10
59.96337033751103
 20
233.0277550329185
 30
0.0
 11
64.62466541824031
 21
237.6890501136478
 31
0.0
  0
LINE
  5
AE1
330
A7E
100
AcDbEntity
  8
0
 62
     0
100
AcDbLine
 10
59.96337033751103
 20
232.8509783376219
 30
0.0
 11
64.74251654843806
 21
237.6301245485489
 31
0.0
  0
LINE
  5
AE2
330
A7E
100
AcDbEntity
  8
0
 62
     0
100
AcDbLine
 10
59.96337033751103
 20
232.6742016423252
 30
0.0
 11
64.86036767863582
 21
237.57119898345
 31
0.0
  0
LINE
  5
AE3
330
A7E
100
AcDbEntity
  8
0
 62
     0
100
AcDbLine
 10
59.96337033751103
 20
232.4974249470286
 30
0.0
 11
64.97821880883357
 21
237.5122734183511
 31
0.0
  0
LINE
  5
AE4
330
A7E
100
AcDbEntity
  8
0
 62
     0
100
AcDbLine
 10
59.96337033751103
 20
232.320648251732
 30
0.0
 11
65.09606993903133
 21
237.4533478532523
 31
0.0
  0
LINE
  5
AE5
330
A7E
100
AcDbEntity
  8
0
 62
     0
100
AcDbLine
 10
59.96337033751103
 20
232.1438715564353
 30
0.0
 11
65.21392106922907
 21
237.3944222881534
 31
0.0
  0
LINE
  5
AE6
330
A7E
100
AcDbEntity
  8
0
 62
     0
100
AcDbLine
 10
59.96337033751103
 20
231.9670948611387
 30
0.0
 11
65.33177219942682
 21
237.3354967230545
 31
0.0
  0
LINE
  5
AE7
330
A7E
100
AcDbEntity
  8
0
 62
     0
100
AcDbLine
 10
59.96337033751103
 20
231.7903181658421
 30
0.0
 11
65.44962332962459
 21
237.2765711579556
 31
0.0
  0
LINE
  5
AE8
330
A7E
100
AcDbEntity
  8
0
 62
     0
100
AcDbLine
 10
59.96337033751103
 20
231.6135414705454
 30
0.0
 11
65.56747445982233
 21
237.2176455928567
 31
0.0
  0
LINE
  5
AE9
330
A7E
100
AcDbEntity
  8
0
 62
     0
100
AcDbLine
 10
59.96337033751103
 20
231.4367647752488
 30
0.0
 11
65.6853255900201
 21
237.1587200277579
 31
0.0
  0
LINE
  5
AEA
330
A7E
100
AcDbEntity
  8
0
 62
     0
100
AcDbLine
 10
59.96337033751103
 20
231.2599880799521
 30
0.0
 11
65.80317672021786
 21
237.099794462659
 31
0.0
  0
LINE
  5
AEB
330
A7E
100
AcDbEntity
  8
0
 62
     0
100
AcDbLine
 10
59.96337033751102
 20
231.0832113846555
 30
0.0
 11
65.92102785041561
 21
237.0408688975601
 31
0.0
  0
LINE
  5
AEC
330
A7E
100
AcDbEntity
  8
0
 62
     0
100
AcDbLine
 10
60.18989626681793
 20
231.1329606186657
 30
0.0
 11
66.03887898061337
 21
236.9819433324612
 31
0.0
  0
LINE
  5
AED
330
A7E
100
AcDbEntity
  8
0
 62
     0
100
AcDbLine
 10
60.5434496574112
 20
231.3097373139624
 30
0.0
 11
66.15673011081113
 21
236.9230177673624
 31
0.0
  0
LINE
  5
AEE
330
A7E
100
AcDbEntity
  8
0
 62
     0
100
AcDbLine
 10
60.89700304800448
 20
231.486514009259
 30
0.0
 11
66.27458124100889
 21
236.8640922022635
 31
0.0
  0
LINE
  5
AEF
330
A7E
100
AcDbEntity
  8
0
 62
     0
100
AcDbLine
 10
61.25055643859774
 20
231.6632907045557
 30
0.0
 11
66.39243237120666
 21
236.8051666371646
 31
0.0
  0
LINE
  5
AF0
330
A7E
100
AcDbEntity
  8
0
 62
     0
100
AcDbLine
 10
61.60410982919103
 20
231.8400673998523
 30
0.0
 11
66.51028350140443
 21
236.7462410720657
 31
0.0
  0
LINE
  5
AF1
330
A7E
100
AcDbEntity
  8
0
 62
     0
100
AcDbLine
 10
61.95766321978429
 20
232.016844095149
 30
0.0
 11
66.62813463160218
 21
236.6873155069669
 31
0.0
  0
LINE
  5
AF2
330
A7E
100
AcDbEntity
  8
0
 62
     0
100
AcDbLine
 10
62.31121661037757
 20
232.1936207904456
 30
0.0
 11
66.74598576179994
 21
236.628389941868
 31
0.0
  0
LINE
  5
AF3
330
A7E
100
AcDbEntity
  8
0
 62
     0
100
AcDbLine
 10
62.66477000097084
 20
232.3703974857422
 30
0.0
 11
66.86383689199769
 21
236.5694643767691
 31
0.0
  0
LINE
  5
AF4
330
A7E
100
AcDbEntity
  8
0
 62
     0
100
AcDbLine
 10
63.01832339156412
 20
232.5471741810389
 30
0.0
 11
66.98168802219545
 21
236.5105388116702
 31
0.0
  0
LINE
  5
AF5
330
A7E
100
AcDbEntity
  8
0
 62
     0
100
AcDbLine
 10
63.37187678215738
 20
232.7239508763355
 30
0.0
 11
67.09953915239321
 21
236.4516132465713
 31
0.0
  0
LINE
  5
AF6
330
A7E
100
AcDbEntity
  8
0
 62
     0
100
AcDbLine
 10
63.72543017275067
 20
232.9007275716322
 30
0.0
 11
67.21739028259097
 21
236.3926876814725
 31
0.0
  0
LINE
  5
AF7
330
A7E
100
AcDbEntity
  8
0
 62
     0
100
AcDbLine
 10
64.07898356334394
 20
233.0775042669288
 30
0.0
 11
67.33524141278873
 21
236.3337621163736
 31
0.0
  0
LINE
  5
AF8
330
A7E
100
AcDbEntity
  8
0
 62
     0
100
AcDbLine
 10
64.43253695393721
 20
233.2542809622254
 30
0.0
 11
67.45309254298648
 21
236.2748365512747
 31
0.0
  0
LINE
  5
AF9
330
A7E
100
AcDbEntity
  8
0
 62
     0
100
AcDbLine
 10
64.78609034453048
 20
233.4310576575221
 30
0.0
 11
67.57094367318424
 21
236.2159109861758
 31
0.0
  0
LINE
  5
AFA
330
A7E
100
AcDbEntity
  8
0
 62
     0
100
AcDbLine
 10
65.13964373512376
 20
233.6078343528187
 30
0.0
 11
67.68879480338199
 21
236.1569854210769
 31
0.0
  0
LINE
  5
AFB
330
A7E
100
AcDbEntity
  8
0
 62
     0
100
AcDbLine
 10
65.49319712571703
 20
233.7846110481153
 30
0.0
 11
67.80664593357975
 21
236.098059855978
 31
0.0
  0
LINE
  5
AFC
330
A7E
100
AcDbEntity
  8
0
 62
     0
100
AcDbLine
 10
65.8467505163103
 20
233.9613877434119
 30
0.0
 11
67.92449706377751
 21
236.0391342908792
 31
0.0
  0
LINE
  5
AFD
330
A7E
100
AcDbEntity
  8
0
 62
     0
100
AcDbLine
 10
66.20030390690357
 20
234.1381644387086
 30
0.0
 11
68.04234819397527
 21
235.9802087257803
 31
0.0
  0
LINE
  5
AFE
330
A7E
100
AcDbEntity
  8
0
 62
     0
100
AcDbLine
 10
66.55385729749685
 20
234.3149411340053
 30
0.0
 11
68.16019932417302
 21
235.9212831606814
 31
0.0
  0
LINE
  5
AFF
330
A7E
100
AcDbEntity
  8
0
 62
     0
100
AcDbLine
 10
66.90741068809012
 20
234.4917178293019
 30
0.0
 11
68.27805045437078
 21
235.8623575955825
 31
0.0
  0
LINE
  5
B00
330
A7E
100
AcDbEntity
  8
0
 62
     0
100
AcDbLine
 10
67.2609640786834
 20
234.6684945245985
 30
0.0
 11
68.39590158456855
 21
235.8034320304837
 31
0.0
  0
LINE
  5
B01
330
A7E
100
AcDbEntity
  8
0
 62
     0
100
AcDbLine
 10
67.61451746927666
 20
234.8452712198952
 30
0.0
 11
68.5137527147663
 21
235.7445064653848
 31
0.0
  0
LINE
  5
B02
330
A7E
100
AcDbEntity
  8
0
 62
     0
100
AcDbLine
 10
67.96807085986994
 20
235.0220479151918
 30
0.0
 11
68.63160384496406
 21
235.6855809002859
 31
0.0
  0
LINE
  5
B03
330
A7E
100
AcDbEntity
  8
0
 62
     0
100
AcDbLine
 10
68.32162425046329
 20
235.1988246104884
 30
0.0
 11
68.74945497516181
 21
235.626655335187
 31
0.0
  0
LINE
  5
B04
330
A7E
100
AcDbEntity
  8
0
 62
     0
100
AcDbLine
 10
68.67517764105656
 20
235.3756013057851
 30
0.0
 11
68.86730610535957
 21
235.5677297700881
 31
0.0
  0
ENDBLK
  5
B05
330
A7E
100
AcDbEntity
  8
0
100
AcDbBlockEnd
  0
BLOCK
  5
F25
330
F1B
100
AcDbEntity
  8
0
100
AcDbBlockBegin
  2
*D4
 70
     1
 10
0.0
 20
0.0
 30
0.0
  3
*D4
  1

  0
LINE
  5
1954
330
F1B
100
AcDbEntity
  8
dim
100
AcDbLine
 10
368.4426489753093
 20
569.3874029712494
 30
0.0
 11
457.5126806045571
 21
569.3874029712494
 31
0.0
  0
LINE
  5
1955
330
F1B
100
AcDbEntity
  8
dim
100
AcDbLine
 10
437.221648182145
 20
675.181596328317
 30
0.0
 11
457.5126806045572
 21
675.181596328317
 31
0.0
  0
LINE
  5
1956
330
F1B
100
AcDbEntity
  8
dim
100
AcDbLine
 10
455.5126806045571
 20
572.3874029712495
 30
0.0
 11
455.5126806045572
 21
672.1815963283169
 31
0.0
  0
SOLID
  5
1957
330
F1B
100
AcDbEntity
  8
dim
100
AcDbTrace
 10
455.0126806045571
 20
572.3874029712495
 30
0.0
 11
456.0126806045571
 21
572.3874029712495
 31
0.0
 12
455.5126806045571
 22
569.3874029712494
 32
0.0
 13
455.5126806045571
 23
569.3874029712494
 33
0.0
  0
SOLID
  5
1958
330
F1B
100
AcDbEntity
  8
dim
100
AcDbTrace
 10
455.0126806045572
 20
672.1815963283169
 30
0.0
 11
456.0126806045571
 21
672.1815963283169
 31
0.0
 12
455.5126806045572
 22
675.181596328317
 32
0.0
 13
455.5126806045572
 23
675.181596328317
 33
0.0
  0
MTEXT
  5
1959
330
F1B
100
AcDbEntity
  8
dim
100
AcDbMText
 10
452.2269663188428
 20
622.2844996497833
 30
0.0
 40
3.0
 41
0.0
 71
     5
 72
     1
  1
\A1;{(106)}
  7
CHINESET
 11
0.0000000000000001
 21
1.0
 31
0.0
 73
     1
 44
1.0
1001
ACAD
1000
MTEXTBEGIN
1070
    73
1070
     1
1070
    44
1040
1.0
1070
    74
1070
     0
1000
MTEXTEND
  0
POINT
  5
195A
330
F1B
100
AcDbEntity
  8
DEFPOINTS
 62
     0
100
AcDbPoint
 10
366.4426489753093
 20
569.3874029712494
 30
0.0
  0
POINT
  5
195B
330
F1B
100
AcDbEntity
  8
DEFPOINTS
 62
     0
100
AcDbPoint
 10
435.2216481821449
 20
675.181596328317
 30
0.0
  0
POINT
  5
195C
330
F1B
100
AcDbEntity
  8
DEFPOINTS
 62
     0
100
AcDbPoint
 10
455.5126806045572
 20
675.181596328317
 30
0.0
  0
ENDBLK
  5
F26
330
F1B
100
AcDbEntity
  8
0
100
AcDbBlockEnd
  0
BLOCK
  5
F4A
330
F40
100
AcDbEntity
  8
0
100
AcDbBlockBegin
  2
*D5
 70
     1
 10
0.0
 20
0.0
 30
0.0
  3
*D5
  1

  0
LINE
  5
195D
330
F40
100
AcDbEntity
  8
dim
100
AcDbLine
 10
329.4426489753092
 20
662.0677687132404
 30
0.0
 11
329.4426489753092
 21
686.9933385730229
 31
0.0
  0
LINE
  5
195E
330
F40
100
AcDbEntity
  8
dim
100
AcDbLine
 10
440.4192220037305
 20
658.7548265313321
 30
0.0
 11
440.4192220037305
 21
686.9933385730229
 31
0.0
  0
LINE
  5
195F
330
F40
100
AcDbEntity
  8
dim
100
AcDbLine
 10
332.4426489753092
 20
684.9933385730229
 30
0.0
 11
437.4192220037305
 21
684.9933385730229
 31
0.0
  0
SOLID
  5
1960
330
F40
100
AcDbEntity
  8
dim
100
AcDbTrace
 10
332.4426489753092
 20
685.4933385730229
 30
0.0
 11
332.4426489753092
 21
684.4933385730229
 31
0.0
 12
329.4426489753092
 22
684.9933385730229
 32
0.0
 13
329.4426489753092
 23
684.9933385730229
 33
0.0
  0
SOLID
  5
1961
330
F40
100
AcDbEntity
  8
dim
100
AcDbTrace
 10
437.4192220037305
 20
685.4933385730229
 30
0.0
 11
437.4192220037305
 21
684.4933385730229
 31
0.0
 12
440.4192220037305
 22
684.9933385730229
 32
0.0
 13
440.4192220037305
 23
684.9933385730229
 33
0.0
  0
MTEXT
  5
1962
330
F40
100
AcDbEntity
  8
dim
100
AcDbMText
 10
384.9309354895199
 20
688.2790528587372
 30
0.0
 40
3.0
 41
0.0
 71
     5
 72
     1
  1
\A1;(111)
  7
CHINESET
 73
     1
 44
1.0
1001
ACAD
1000
MTEXTBEGIN
1070
    73
1070
     1
1070
    44
1040
1.0
1070
    74
1070
     0
1000
MTEXTEND
  0
POINT
  5
1963
330
F40
100
AcDbEntity
  8
DEFPOINTS
 62
     0
100
AcDbPoint
 10
329.4426489753092
 20
660.0677687132404
 30
0.0
  0
POINT
  5
1964
330
F40
100
AcDbEntity
  8
DEFPOINTS
 62
     0
100
AcDbPoint
 10
440.4192220037305
 20
656.7548265313321
 30
0.0
  0
POINT
  5
1965
330
F40
100
AcDbEntity
  8
DEFPOINTS
 62
     0
100
AcDbPoint
 10
440.4192220037305
 20
684.9933385730229
 30
0.0
  0
ENDBLK
  5
F4B
330
F40
100
AcDbEntity
  8
0
100
AcDbBlockEnd
  0
BLOCK
  5
F56
330
F4C
100
AcDbEntity
  8
0
100
AcDbBlockBegin
  2
*D6
 70
     1
 10
0.0
 20
0.0
 30
0.0
  3
*D6
  1

  0
LINE
  5
1966
330
F4C
100
AcDbEntity
  8
dim
100
AcDbLine
 10
437.8932750120988
 20
674.5766122550951
 30
0.0
 11
436.3359496474575
 21
684.8701902297197
 31
0.0
  0
LINE
  5
1967
330
F4C
100
AcDbEntity
  8
dim
100
AcDbLine
 10
343.9569815826096
 20
660.3648995951473
 30
0.0
 11
342.3996562179683
 21
670.6584775697718
 31
0.0
  0
LINE
  5
1968
330
F4C
100
AcDbEntity
  8
dim
100
AcDbLine
 10
433.6688820878816
 20
682.4439275414154
 30
0.0
 11
345.6650785300861
 21
669.1297470102804
 31
0.0
  0
SOLID
  5
1969
330
F4C
100
AcDbEntity
  8
dim
100
AcDbTrace
 10
433.5940877438139
 20
682.9383016973898
 30
0.0
 11
433.7436764319494
 21
681.9495533854409
 31
0.0
 12
436.6351270237284
 22
682.8926936058218
 32
0.0
 13
436.6351270237284
 23
682.8926936058218
 33
0.0
  0
SOLID
  5
196A
330
F4C
100
AcDbEntity
  8
dim
100
AcDbTrace
 10
345.5902841860184
 20
669.6241211662549
 30
0.0
 11
345.7398728741538
 21
668.635372854306
 31
0.0
 12
342.6988335942393
 22
668.680980945874
 32
0.0
 13
342.6988335942393
 23
668.680980945874
 33
0.0
  0
MTEXT
  5
196B
330
F4C
100
AcDbEntity
  8
dim
100
AcDbMText
 10
389.1754746193959
 20
679.0355817293945
 30
0.0
 40
3.0
 41
0.0
 71
     5
 72
     1
  1
\A1;(95)
  7
CHINESET
 11
0.9887483119489537
 21
0.149588688135482
 31
0.0
 73
     1
 44
1.0
1001
ACAD
1000
MTEXTBEGIN
1070
    73
1070
     1
1070
    44
1040
1.0
1070
    74
1070
     0
1000
MTEXTEND
  0
POINT
  5
196C
330
F4C
100
AcDbEntity
  8
DEFPOINTS
 62
     0
100
AcDbPoint
 10
438.1924523883697
 20
672.5991156311972
 30
0.0
  0
POINT
  5
196D
330
F4C
100
AcDbEntity
  8
DEFPOINTS
 62
     0
100
AcDbPoint
 10
344.2561589588806
 20
658.3874029712494
 30
0.0
  0
POINT
  5
196E
330
F4C
100
AcDbEntity
  8
DEFPOINTS
 62
     0
100
AcDbPoint
 10
342.6988335942393
 20
668.680980945874
 30
0.0
  0
ENDBLK
  5
F57
330
F4C
100
AcDbEntity
  8
0
100
AcDbBlockEnd
  0
BLOCK
  5
F62
330
F58
100
AcDbEntity
  8
0
100
AcDbBlockBegin
  2
*D7
 70
     1
 10
0.0
 20
0.0
 30
0.0
  3
*D7
  1

  0
LINE
  5
196F
330
F58
100
AcDbEntity
  8
dim
100
AcDbLine
 10
185.4438663809354
 20
630.7996594341831
 30
0.0
 11
185.4438663809354
 21
682.5207485150452
 31
0.0
  0
LINE
  5
1970
330
F58
100
AcDbEntity
  8
dim
100
AcDbLine
 10
236.4438663809354
 20
630.7996594341831
 30
0.0
 11
236.4438663809354
 21
682.5207485150452
 31
0.0
  0
LINE
  5
1971
330
F58
100
AcDbEntity
  8
dim
100
AcDbLine
 10
188.4438663809354
 20
680.5207485150451
 30
0.0
 11
233.4438663809355
 21
680.5207485150451
 31
0.0
  0
SOLID
  5
1972
330
F58
100
AcDbEntity
  8
dim
100
AcDbTrace
 10
188.4438663809354
 20
681.0207485150451
 30
0.0
 11
188.4438663809354
 21
680.0207485150451
 31
0.0
 12
185.4438663809354
 22
680.5207485150451
 32
0.0
 13
185.4438663809354
 23
680.5207485150451
 33
0.0
  0
SOLID
  5
1973
330
F58
100
AcDbEntity
  8
dim
100
AcDbTrace
 10
233.4438663809355
 20
681.0207485150451
 30
0.0
 11
233.4438663809355
 21
680.0207485150451
 31
0.0
 12
236.4438663809354
 22
680.5207485150451
 32
0.0
 13
236.4438663809354
 23
680.5207485150451
 33
0.0
  0
MTEXT
  5
1974
330
F58
100
AcDbEntity
  8
dim
100
AcDbMText
 10
210.9438663809354
 20
683.0207485150451
 30
0.0
 40
3.0
 41
0.0
 71
     5
 72
     1
  1
\A1;51
  7
CHINESET
 73
     1
 44
1.0
1001
ACAD
1000
MTEXTBEGIN
1070
    73
1070
     1
1070
    44
1040
1.0
1070
    74
1070
     0
1000
MTEXTEND
  0
POINT
  5
1975
330
F58
100
AcDbEntity
  8
DEFPOINTS
 62
     0
100
AcDbPoint
 10
185.4438663809354
 20
628.7996594341831
 30
0.0
  0
POINT
  5
1976
330
F58
100
AcDbEntity
  8
DEFPOINTS
 62
     0
100
AcDbPoint
 10
236.4438663809354
 20
628.7996594341831
 30
0.0
  0
POINT
  5
1977
330
F58
100
AcDbEntity
  8
DEFPOINTS
 62
     0
100
AcDbPoint
 10
236.4438663809354
 20
680.5207485150451
 30
0.0
  0
ENDBLK
  5
F63
330
F58
100
AcDbEntity
  8
0
100
AcDbBlockEnd
  0
BLOCK
  5
FD1
330
FC7
100
AcDbEntity
  8
0
100
AcDbBlockBegin
  2
*D8
 70
     1
 10
0.0
 20
0.0
 30
0.0
  3
*D8
  1

  0
LINE
  5
1978
330
FC7
100
AcDbEntity
  8
dim
100
AcDbLine
 10
291.9426489753092
 20
780.7926180877651
 30
0.0
 11
253.2815045640887
 21
780.7926180877652
 31
0.0
  0
LINE
  5
1979
330
FC7
100
AcDbEntity
  8
dim
100
AcDbLine
 10
291.9426489753092
 20
718.7926180877651
 30
0.0
 11
253.2815045640887
 21
718.7926180877653
 31
0.0
  0
LINE
  5
197A
330
FC7
100
AcDbEntity
  8
dim
100
AcDbLine
 10
255.2815045640887
 20
777.7926180877653
 30
0.0
 11
255.2815045640887
 21
721.7926180877652
 31
0.0
  0
SOLID
  5
197B
330
FC7
100
AcDbEntity
  8
dim
100
AcDbTrace
 10
254.7815045640887
 20
777.7926180877653
 30
0.0
 11
255.7815045640887
 21
777.7926180877653
 31
0.0
 12
255.2815045640887
 22
780.7926180877652
 32
0.0
 13
255.2815045640887
 23
780.7926180877652
 33
0.0
  0
SOLID
  5
197C
330
FC7
100
AcDbEntity
  8
dim
100
AcDbTrace
 10
254.7815045640887
 20
721.7926180877652
 30
0.0
 11
255.7815045640887
 21
721.7926180877652
 31
0.0
 12
255.2815045640887
 22
718.7926180877653
 32
0.0
 13
255.2815045640887
 23
718.7926180877653
 33
0.0
  0
MTEXT
  5
197D
330
FC7
100
AcDbEntity
  8
dim
100
AcDbMText
 10
252.7815045640886
 20
749.7926180877652
 30
0.0
 40
3.0
 41
0.0
 71
     5
 72
     1
  1
\A1;{\Famgdt|c136;o}62
  7
CHINESET
 11
0.0000000000000001
 21
1.0
 31
0.0
 73
     1
 44
1.0
1001
ACAD
1000
MTEXTBEGIN
1070
    73
1070
     1
1070
    44
1040
1.0
1070
    74
1070
     0
1000
MTEXTEND
  0
POINT
  5
197E
330
FC7
100
AcDbEntity
  8
DEFPOINTS
 62
     0
100
AcDbPoint
 10
293.9426489753092
 20
780.7926180877651
 30
0.0
  0
POINT
  5
197F
330
FC7
100
AcDbEntity
  8
DEFPOINTS
 62
     0
100
AcDbPoint
 10
293.9426489753092
 20
718.7926180877651
 30
0.0
  0
POINT
  5
1980
330
FC7
100
AcDbEntity
  8
DEFPOINTS
 62
     0
100
AcDbPoint
 10
255.2815045640887
 20
718.7926180877653
 30
0.0
  0
ENDBLK
  5
FD2
330
FC7
100
AcDbEntity
  8
0
100
AcDbBlockEnd
  0
BLOCK
  5
1004
330
FFA
100
AcDbEntity
  8
0
100
AcDbBlockBegin
  2
*D9
 70
     1
 10
0.0
 20
0.0
 30
0.0
  3
*D9
  1

  0
LINE
  5
1981
330
FFA
100
AcDbEntity
  8
AM_5
100
AcDbLine
 10
297.4426489753093
 20
712.7926180877651
 30
0.0
 11
245.7815045640881
 21
712.7926180877651
 31
0.0
  0
LINE
  5
1982
330
FFA
100
AcDbEntity
  8
AM_5
100
AcDbLine
 10
297.4426489753092
 20
786.7926180877652
 30
0.0
 11
245.7815045640881
 21
786.7926180877653
 31
0.0
  0
LINE
  5
1983
330
FFA
100
AcDbEntity
  8
AM_5
100
AcDbLine
 10
247.2815045640881
 20
715.7926180877652
 30
0.0
 11
247.2815045640881
 21
783.7926180877652
 31
0.0
  0
SOLID
  5
1984
330
FFA
100
AcDbEntity
  8
AM_5
100
AcDbTrace
 10
246.7815045640882
 20
715.7926180877652
 30
0.0
 11
247.7815045640881
 21
715.7926180877652
 31
0.0
 12
247.2815045640881
 22
712.7926180877651
 32
0.0
 13
247.2815045640881
 23
712.7926180877651
 33
0.0
  0
SOLID
  5
1985
330
FFA
100
AcDbEntity
  8
AM_5
100
AcDbTrace
 10
246.7815045640882
 20
783.7926180877652
 30
0.0
 11
247.7815045640881
 21
783.7926180877652
 31
0.0
 12
247.2815045640881
 22
786.7926180877653
 32
0.0
 13
247.2815045640881
 23
786.7926180877653
 33
0.0
  0
MTEXT
  5
1986
330
FFA
100
AcDbEntity
  8
AM_5
100
AcDbMText
 10
244.831504564088
 20
749.7926180877652
 30
0.0
 40
3.5
 41
0.0
 71
     5
 72
     1
  1
{\Famgdt|c136;o}74
 11
0.0000000000000001
 21
1.0
 31
0.0
 73
     1
 44
1.0
1001
ACAD
1000
MTEXTBEGIN
1070
    73
1070
     1
1070
    44
1040
1.0
1070
    74
1070
     0
1000
MTEXTEND
  0
POINT
  5
1987
330
FFA
100
AcDbEntity
  8
DEFPOINTS
 62
     0
100
AcDbPoint
 10
298.4426489753094
 20
712.7926180877651
 30
0.0
  0
POINT
  5
1988
330
FFA
100
AcDbEntity
  8
DEFPOINTS
 62
     0
100
AcDbPoint
 10
298.4426489753092
 20
786.7926180877652
 30
0.0
  0
POINT
  5
1989
330
FFA
100
AcDbEntity
  8
DEFPOINTS
 62
     0
100
AcDbPoint
 10
247.2815045640881
 20
786.7926180877653
 30
0.0
  0
ENDBLK
  5
1005
330
FFA
100
AcDbEntity
  8
0
100
AcDbBlockEnd
  0
BLOCK
  5
103C
330
103B
100
AcDbEntity
  8
0
100
AcDbBlockBegin
  2
*X10
 70
     1
 10
0.0
 20
0.0
 30
0.0
  3
*X10
  1

  0
LINE
  5
103D
330
103B
100
AcDbEntity
  8
0
 62
     0
100
AcDbLine
 10
58.12688583385869
 20
234.0196976540124
 30
0.0
 11
62.73904733507619
 21
238.6318591552298
 31
0.0
  0
LINE
  5
103E
330
103B
100
AcDbEntity
  8
0
 62
     0
100
AcDbLine
 10
57.95010913856206
 20
234.0196976540124
 30
0.0
 11
62.62119620487843
 21
238.6907847203287
 31
0.0
  0
LINE
  5
103F
330
103B
100
AcDbEntity
  8
0
 62
     0
100
AcDbLine
 10
57.77333244326541
 20
234.0196976540124
 30
0.0
 11
62.50334507468068
 21
238.7497102854276
 31
0.0
  0
LINE
  5
1040
330
103B
100
AcDbEntity
  8
0
 62
     0
100
AcDbLine
 10
57.59655574796878
 20
234.0196976540124
 30
0.0
 11
62.38549394448291
 21
238.8086358505265
 31
0.0
  0
LINE
  5
1041
330
103B
100
AcDbEntity
  8
0
 62
     0
100
AcDbLine
 10
57.41977905267214
 20
234.0196976540124
 30
0.0
 11
62.26764281428515
 21
238.8675614156253
 31
0.0
  0
LINE
  5
1042
330
103B
100
AcDbEntity
  8
0
 62
     0
100
AcDbLine
 10
57.24300235737551
 20
234.0196976540124
 30
0.0
 11
62.14979168408739
 21
238.9264869807242
 31
0.0
  0
LINE
  5
1043
330
103B
100
AcDbEntity
  8
0
 62
     0
100
AcDbLine
 10
57.06622566207887
 20
234.0196976540124
 30
0.0
 11
62.03194055388962
 21
238.9854125458231
 31
0.0
  0
LINE
  5
1044
330
103B
100
AcDbEntity
  8
0
 62
     0
100
AcDbLine
 10
56.88944896678223
 20
234.0196976540124
 30
0.0
 11
59.88944896678223
 21
237.0196976540124
 31
0.0
  0
LINE
  5
1045
330
103B
100
AcDbEntity
  8
0
 62
     0
100
AcDbLine
 10
59.96337033751103
 20
237.0936190247412
 30
0.0
 11
61.91408942369186
 21
239.044338110922
 31
0.0
  0
LINE
  5
1046
330
103B
100
AcDbEntity
  8
0
 62
     0
100
AcDbLine
 10
56.71267227148559
 20
234.0196976540124
 30
0.0
 11
59.71267227148558
 21
237.0196976540124
 31
0.0
  0
LINE
  5
1047
330
103B
100
AcDbEntity
  8
0
 62
     0
100
AcDbLine
 10
59.96337033751103
 20
237.2703957200378
 30
0.0
 11
61.7962382934941
 21
239.1032636760209
 31
0.0
  0
LINE
  5
1048
330
103B
100
AcDbEntity
  8
0
 62
     0
100
AcDbLine
 10
56.53589557618896
 20
234.0196976540124
 30
0.0
 11
59.53589557618895
 21
237.0196976540124
 31
0.0
  0
LINE
  5
1049
330
103B
100
AcDbEntity
  8
0
 62
     0
100
AcDbLine
 10
59.96337033751103
 20
237.4471724153345
 30
0.0
 11
61.67838716329634
 21
239.1621892411198
 31
0.0
  0
LINE
  5
104A
330
103B
100
AcDbEntity
  8
0
 62
     0
100
AcDbLine
 10
56.35911888089232
 20
234.0196976540124
 30
0.0
 11
59.35911888089232
 21
237.0196976540124
 31
0.0
  0
LINE
  5
104B
330
103B
100
AcDbEntity
  8
0
 62
     0
100
AcDbLine
 10
59.96337033751103
 20
237.6239491106311
 30
0.0
 11
61.56053603309858
 21
239.2211148062186
 31
0.0
  0
LINE
  5
104C
330
103B
100
AcDbEntity
  8
0
 62
     0
100
AcDbLine
 10
56.18234218559568
 20
234.0196976540124
 30
0.0
 11
59.18234218559568
 21
237.0196976540124
 31
0.0
  0
LINE
  5
104D
330
103B
100
AcDbEntity
  8
0
 62
     0
100
AcDbLine
 10
59.96337033751103
 20
237.8007258059277
 30
0.0
 11
61.44268490290083
 21
239.2800403713175
 31
0.0
  0
LINE
  5
104E
330
103B
100
AcDbEntity
  8
0
 62
     0
100
AcDbLine
 10
56.00556549029905
 20
234.0196976540124
 30
0.0
 11
59.00556549029904
 21
237.0196976540124
 31
0.0
  0
LINE
  5
104F
330
103B
100
AcDbEntity
  8
0
 62
     0
100
AcDbLine
 10
59.96337033751103
 20
237.9775025012244
 30
0.0
 11
61.32483377270308
 21
239.3389659364164
 31
0.0
  0
LINE
  5
1050
330
103B
100
AcDbEntity
  8
0
 62
     0
100
AcDbLine
 10
55.82878879500241
 20
234.0196976540124
 30
0.0
 11
58.8287887950024
 21
237.0196976540124
 31
0.0
  0
LINE
  5
1051
330
103B
100
AcDbEntity
  8
0
 62
     0
100
AcDbLine
 10
59.96337033751103
 20
238.154279196521
 30
0.0
 11
61.20698264250531
 21
239.3978915015153
 31
0.0
  0
LINE
  5
1052
330
103B
100
AcDbEntity
  8
0
 62
     0
100
AcDbLine
 10
55.65201209970577
 20
234.0196976540124
 30
0.0
 11
58.65201209970576
 21
237.0196976540124
 31
0.0
  0
LINE
  5
1053
330
103B
100
AcDbEntity
  8
0
 62
     0
100
AcDbLine
 10
59.96337033751103
 20
238.3310558918176
 30
0.0
 11
61.08913151230756
 21
239.4568170666142
 31
0.0
  0
LINE
  5
1054
330
103B
100
AcDbEntity
  8
0
 62
     0
100
AcDbLine
 10
55.47523540440914
 20
234.0196976540124
 30
0.0
 11
58.47523540440914
 21
237.0196976540124
 31
0.0
  0
LINE
  5
1055
330
103B
100
AcDbEntity
  8
0
 62
     0
100
AcDbLine
 10
59.96337033751103
 20
238.5078325871143
 30
0.0
 11
60.9712803821098
 21
239.515742631713
 31
0.0
  0
LINE
  5
1056
330
103B
100
AcDbEntity
  8
0
 62
     0
100
AcDbLine
 10
55.2984587091125
 20
234.0196976540124
 30
0.0
 11
58.29845870911249
 21
237.0196976540124
 31
0.0
  0
LINE
  5
1057
330
103B
100
AcDbEntity
  8
0
 62
     0
100
AcDbLine
 10
59.96337033751103
 20
238.6846092824109
 30
0.0
 11
60.85342925191205
 21
239.5746681968119
 31
0.0
  0
LINE
  5
1058
330
103B
100
AcDbEntity
  8
0
 62
     0
100
AcDbLine
 10
55.12168201381586
 20
234.0196976540124
 30
0.0
 11
58.12168201381585
 21
237.0196976540124
 31
0.0
  0
LINE
  5
1059
330
103B
100
AcDbEntity
  8
0
 62
     0
100
AcDbLine
 10
59.96337033751103
 20
238.8613859777076
 30
0.0
 11
60.73557812171428
 21
239.6335937619108
 31
0.0
  0
LINE
  5
105A
330
103B
100
AcDbEntity
  8
0
 62
     0
100
AcDbLine
 10
54.94490531851923
 20
234.0196976540124
 30
0.0
 11
57.94490531851922
 21
237.0196976540124
 31
0.0
  0
LINE
  5
105B
330
103B
100
AcDbEntity
  8
0
 62
     0
100
AcDbLine
 10
59.96337033751103
 20
239.0381626730042
 30
0.0
 11
60.61772699151653
 21
239.6925193270096
 31
0.0
  0
LINE
  5
105C
330
103B
100
AcDbEntity
  8
0
 62
     0
100
AcDbLine
 10
54.76812862322258
 20
234.0196976540124
 30
0.0
 11
57.76812862322258
 21
237.0196976540124
 31
0.0
  0
LINE
  5
105D
330
103B
100
AcDbEntity
  8
0
 62
     0
100
AcDbLine
 10
59.96337033751103
 20
239.2149393683008
 30
0.0
 11
60.49987586131877
 21
239.7514448921085
 31
0.0
  0
LINE
  5
105E
330
103B
100
AcDbEntity
  8
0
 62
     0
100
AcDbLine
 10
54.59135192792595
 20
234.0196976540124
 30
0.0
 11
57.59135192792594
 21
237.0196976540124
 31
0.0
  0
LINE
  5
105F
330
103B
100
AcDbEntity
  8
0
 62
     0
100
AcDbLine
 10
59.96337033751103
 20
239.3917160635974
 30
0.0
 11
60.38202473112101
 21
239.8103704572074
 31
0.0
  0
LINE
  5
1060
330
103B
100
AcDbEntity
  8
0
 62
     0
100
AcDbLine
 10
54.41457523262932
 20
234.0196976540124
 30
0.0
 11
57.41457523262931
 21
237.0196976540124
 31
0.0
  0
LINE
  5
1061
330
103B
100
AcDbEntity
  8
0
 62
     0
100
AcDbLine
 10
59.96337033751103
 20
239.5684927588941
 30
0.0
 11
60.26417360092326
 21
239.8692960223063
 31
0.0
  0
LINE
  5
1062
330
103B
100
AcDbEntity
  8
0
 62
     0
100
AcDbLine
 10
54.23779853733268
 20
234.0196976540124
 30
0.0
 11
57.23779853733267
 21
237.0196976540124
 31
0.0
  0
LINE
  5
1063
330
103B
100
AcDbEntity
  8
0
 62
     0
100
AcDbLine
 10
59.96337033751103
 20
239.7452694541907
 30
0.0
 11
60.1463224707255
 21
239.9282215874052
 31
0.0
  0
LINE
  5
1064
330
103B
100
AcDbEntity
  8
0
 62
     0
100
AcDbLine
 10
54.06102184203604
 20
234.0196976540124
 30
0.0
 11
57.06102184203603
 21
237.0196976540124
 31
0.0
  0
LINE
  5
1065
330
103B
100
AcDbEntity
  8
0
 62
     0
100
AcDbLine
 10
59.96337033751103
 20
239.9220461494874
 30
0.0
 11
60.02847134052775
 21
239.9871471525041
 31
0.0
  0
LINE
  5
1066
330
103B
100
AcDbEntity
  8
0
 62
     0
100
AcDbLine
 10
53.8842451467394
 20
234.0196976540124
 30
0.0
 11
56.8842451467394
 21
237.0196976540124
 31
0.0
  0
LINE
  5
1067
330
103B
100
AcDbEntity
  8
0
 62
     0
100
AcDbLine
 10
53.70746845144277
 20
234.0196976540124
 30
0.0
 11
56.70746845144276
 21
237.0196976540124
 31
0.0
  0
LINE
  5
1068
330
103B
100
AcDbEntity
  8
0
 62
     0
100
AcDbLine
 10
53.53069175614614
 20
234.0196976540124
 30
0.0
 11
56.53069175614612
 21
237.0196976540124
 31
0.0
  0
LINE
  5
1069
330
103B
100
AcDbEntity
  8
0
 62
     0
100
AcDbLine
 10
53.35391506084949
 20
234.0196976540124
 30
0.0
 11
56.35391506084949
 21
237.0196976540124
 31
0.0
  0
LINE
  5
106A
330
103B
100
AcDbEntity
  8
0
 62
     0
100
AcDbLine
 10
53.17713836555285
 20
234.0196976540124
 30
0.0
 11
56.17713836555285
 21
237.0196976540124
 31
0.0
  0
LINE
  5
106B
330
103B
100
AcDbEntity
  8
0
 62
     0
100
AcDbLine
 10
53.00036167025622
 20
234.0196976540124
 30
0.0
 11
56.00036167025621
 21
237.0196976540124
 31
0.0
  0
LINE
  5
106C
330
103B
100
AcDbEntity
  8
0
 62
     0
100
AcDbLine
 10
52.82358497495959
 20
234.0196976540124
 30
0.0
 11
55.82358497495958
 21
237.0196976540124
 31
0.0
  0
LINE
  5
106D
330
103B
100
AcDbEntity
  8
0
 62
     0
100
AcDbLine
 10
52.64680827966294
 20
234.0196976540124
 30
0.0
 11
55.64680827966294
 21
237.0196976540124
 31
0.0
  0
LINE
  5
106E
330
103B
100
AcDbEntity
  8
0
 62
     0
100
AcDbLine
 10
52.47003158436631
 20
234.0196976540124
 30
0.0
 11
55.47003158436631
 21
237.0196976540124
 31
0.0
  0
LINE
  5
106F
330
103B
100
AcDbEntity
  8
0
 62
     0
100
AcDbLine
 10
52.29325488906967
 20
234.0196976540124
 30
0.0
 11
55.29325488906966
 21
237.0196976540124
 31
0.0
  0
LINE
  5
1070
330
103B
100
AcDbEntity
  8
0
 62
     0
100
AcDbLine
 10
52.11647819377303
 20
234.0196976540124
 30
0.0
 11
55.11647819377302
 21
237.0196976540124
 31
0.0
  0
LINE
  5
1071
330
103B
100
AcDbEntity
  8
0
 62
     0
100
AcDbLine
 10
51.9397014984764
 20
234.0196976540124
 30
0.0
 11
54.9397014984764
 21
237.0196976540124
 31
0.0
  0
LINE
  5
1072
330
103B
100
AcDbEntity
  8
0
 62
     0
100
AcDbLine
 10
51.76292480317976
 20
234.0196976540124
 30
0.0
 11
54.76292480317976
 21
237.0196976540124
 31
0.0
  0
LINE
  5
1073
330
103B
100
AcDbEntity
  8
0
 62
     0
100
AcDbLine
 10
51.58614810788312
 20
234.0196976540124
 30
0.0
 11
54.58614810788311
 21
237.0196976540124
 31
0.0
  0
LINE
  5
1074
330
103B
100
AcDbEntity
  8
0
 62
     0
100
AcDbLine
 10
51.40937141258646
 20
234.0196976540124
 30
0.0
 11
54.40937141258645
 21
237.0196976540124
 31
0.0
  0
LINE
  5
1075
330
103B
100
AcDbEntity
  8
0
 62
     0
100
AcDbLine
 10
51.23259471728985
 20
234.0196976540124
 30
0.0
 11
54.23259471728984
 21
237.0196976540124
 31
0.0
  0
LINE
  5
1076
330
103B
100
AcDbEntity
  8
0
 62
     0
100
AcDbLine
 10
51.05581802199322
 20
234.0196976540124
 30
0.0
 11
54.05581802199321
 21
237.0196976540124
 31
0.0
  0
LINE
  5
1077
330
103B
100
AcDbEntity
  8
0
 62
     0
100
AcDbLine
 10
50.87904132669658
 20
234.0196976540124
 30
0.0
 11
53.87904132669657
 21
237.0196976540124
 31
0.0
  0
LINE
  5
1078
330
103B
100
AcDbEntity
  8
0
 62
     0
100
AcDbLine
 10
50.70226463139994
 20
234.0196976540124
 30
0.0
 11
53.70226463139993
 21
237.0196976540124
 31
0.0
  0
LINE
  5
1079
330
103B
100
AcDbEntity
  8
0
 62
     0
100
AcDbLine
 10
50.52548793610331
 20
234.0196976540124
 30
0.0
 11
53.52548793610329
 21
237.0196976540124
 31
0.0
  0
LINE
  5
107A
330
103B
100
AcDbEntity
  8
0
 62
     0
100
AcDbLine
 10
50.34871124080666
 20
234.0196976540124
 30
0.0
 11
53.34871124080666
 21
237.0196976540124
 31
0.0
  0
LINE
  5
107B
330
103B
100
AcDbEntity
  8
0
 62
     0
100
AcDbLine
 10
50.17193454551003
 20
234.0196976540124
 30
0.0
 11
53.17193454551002
 21
237.0196976540124
 31
0.0
  0
LINE
  5
107C
330
103B
100
AcDbEntity
  8
0
 62
     0
100
AcDbLine
 10
49.9951578502134
 20
234.0196976540124
 30
0.0
 11
52.99515785021339
 21
237.0196976540124
 31
0.0
  0
LINE
  5
107D
330
103B
100
AcDbEntity
  8
0
 62
     0
100
AcDbLine
 10
49.96337033751103
 20
234.1646868366066
 30
0.0
 11
52.81838115491675
 21
237.0196976540124
 31
0.0
  0
LINE
  5
107E
330
103B
100
AcDbEntity
  8
0
 62
     0
100
AcDbLine
 10
49.96337033751103
 20
234.3414635319033
 30
0.0
 11
52.64160445962011
 21
237.0196976540124
 31
0.0
  0
LINE
  5
107F
330
103B
100
AcDbEntity
  8
0
 62
     0
100
AcDbLine
 10
49.96337033751103
 20
234.5182402271999
 30
0.0
 11
52.46482776432348
 21
237.0196976540124
 31
0.0
  0
LINE
  5
1080
330
103B
100
AcDbEntity
  8
0
 62
     0
100
AcDbLine
 10
49.96337033751103
 20
234.6950169224965
 30
0.0
 11
52.28805106902684
 21
237.0196976540124
 31
0.0
  0
LINE
  5
1081
330
103B
100
AcDbEntity
  8
0
 62
     0
100
AcDbLine
 10
49.96337033751103
 20
234.8717936177932
 30
0.0
 11
52.1112743737302
 21
237.0196976540124
 31
0.0
  0
LINE
  5
1082
330
103B
100
AcDbEntity
  8
0
 62
     0
100
AcDbLine
 10
49.96337033751103
 20
235.0485703130898
 30
0.0
 11
51.93449767843357
 21
237.0196976540124
 31
0.0
  0
LINE
  5
1083
330
103B
100
AcDbEntity
  8
0
 62
     0
100
AcDbLine
 10
49.96337033751103
 20
235.2253470083864
 30
0.0
 11
51.75772098313693
 21
237.0196976540124
 31
0.0
  0
LINE
  5
1084
330
103B
100
AcDbEntity
  8
0
 62
     0
100
AcDbLine
 10
49.96337033751103
 20
235.4021237036831
 30
0.0
 11
51.58094428784028
 21
237.0196976540124
 31
0.0
  0
LINE
  5
1085
330
103B
100
AcDbEntity
  8
0
 62
     0
100
AcDbLine
 10
49.96337033751103
 20
235.5789003989797
 30
0.0
 11
51.40416759254365
 21
237.0196976540124
 31
0.0
  0
LINE
  5
1086
330
103B
100
AcDbEntity
  8
0
 62
     0
100
AcDbLine
 10
49.96337033751103
 20
235.7556770942764
 30
0.0
 11
51.22739089724702
 21
237.0196976540124
 31
0.0
  0
LINE
  5
1087
330
103B
100
AcDbEntity
  8
0
 62
     0
100
AcDbLine
 10
49.96337033751103
 20
235.932453789573
 30
0.0
 11
51.05061420195038
 21
237.0196976540124
 31
0.0
  0
LINE
  5
1088
330
103B
100
AcDbEntity
  8
0
 62
     0
100
AcDbLine
 10
49.96337033751103
 20
236.1092304848697
 30
0.0
 11
50.87383750665371
 21
237.0196976540124
 31
0.0
  0
LINE
  5
1089
330
103B
100
AcDbEntity
  8
0
 62
     0
100
AcDbLine
 10
49.96337033751103
 20
236.2860071801663
 30
0.0
 11
50.6970608113571
 21
237.0196976540124
 31
0.0
  0
LINE
  5
108A
330
103B
100
AcDbEntity
  8
0
 62
     0
100
AcDbLine
 10
49.96337033751103
 20
236.4627838754629
 30
0.0
 11
50.52028411606046
 21
237.0196976540124
 31
0.0
  0
LINE
  5
108B
330
103B
100
AcDbEntity
  8
0
 62
     0
100
AcDbLine
 10
49.96337033751103
 20
236.6395605707595
 30
0.0
 11
50.34350742076384
 21
237.0196976540124
 31
0.0
  0
LINE
  5
108C
330
103B
100
AcDbEntity
  8
0
 62
     0
100
AcDbLine
 10
49.96337033751103
 20
236.8163372660561
 30
0.0
 11
50.16673072546719
 21
237.0196976540124
 31
0.0
  0
LINE
  5
108D
330
103B
100
AcDbEntity
  8
0
 62
     0
100
AcDbLine
 10
49.96337033751103
 20
236.9931139613528
 30
0.0
 11
49.98995403017056
 21
237.0196976540124
 31
0.0
  0
LINE
  5
108E
330
103B
100
AcDbEntity
  8
0
 62
     0
100
AcDbLine
 10
58.30366252915532
 20
234.0196976540124
 30
0.0
 11
62.85689846527392
 21
238.5729335901309
 31
0.0
  0
LINE
  5
108F
330
103B
100
AcDbEntity
  8
0
 62
     0
100
AcDbLine
 10
58.48043922445196
 20
234.0196976540124
 30
0.0
 11
62.97474959547168
 21
238.5140080250321
 31
0.0
  0
LINE
  5
1090
330
103B
100
AcDbEntity
  8
0
 62
     0
100
AcDbLine
 10
58.6572159197486
 20
234.0196976540124
 30
0.0
 11
63.09260072566943
 21
238.4550824599332
 31
0.0
  0
LINE
  5
1091
330
103B
100
AcDbEntity
  8
0
 62
     0
100
AcDbLine
 10
58.83399261504524
 20
234.0196976540124
 30
0.0
 11
63.21045185586719
 21
238.3961568948343
 31
0.0
  0
LINE
  5
1092
330
103B
100
AcDbEntity
  8
0
 62
     0
100
AcDbLine
 10
59.01076931034188
 20
234.0196976540124
 30
0.0
 11
63.32830298606495
 21
238.3372313297355
 31
0.0
  0
LINE
  5
1093
330
103B
100
AcDbEntity
  8
0
 62
     0
100
AcDbLine
 10
59.1875460056385
 20
234.0196976540124
 30
0.0
 11
63.4461541162627
 21
238.2783057646366
 31
0.0
  0
LINE
  5
1094
330
103B
100
AcDbEntity
  8
0
 62
     0
100
AcDbLine
 10
59.36432270093515
 20
234.0196976540124
 30
0.0
 11
63.56400524646047
 21
238.2193801995377
 31
0.0
  0
LINE
  5
1095
330
103B
100
AcDbEntity
  8
0
 62
     0
100
AcDbLine
 10
59.54109939623179
 20
234.0196976540124
 30
0.0
 11
63.68185637665822
 21
238.1604546344388
 31
0.0
  0
LINE
  5
1096
330
103B
100
AcDbEntity
  8
0
 62
     0
100
AcDbLine
 10
59.71787609152842
 20
234.0196976540124
 30
0.0
 11
63.79970750685598
 21
238.1015290693399
 31
0.0
  0
LINE
  5
1097
330
103B
100
AcDbEntity
  8
0
 62
     0
100
AcDbLine
 10
59.89465278682506
 20
234.0196976540124
 30
0.0
 11
63.91755863705376
 21
238.0426035042411
 31
0.0
  0
LINE
  5
1098
330
103B
100
AcDbEntity
  8
0
 62
     0
100
AcDbLine
 10
59.96337033751103
 20
233.9116385094017
 30
0.0
 11
64.03540976725152
 21
237.9836779391422
 31
0.0
  0
LINE
  5
1099
330
103B
100
AcDbEntity
  8
0
 62
     0
100
AcDbLine
 10
59.96337033751103
 20
233.734861814105
 30
0.0
 11
64.15326089744927
 21
237.9247523740433
 31
0.0
  0
LINE
  5
109A
330
103B
100
AcDbEntity
  8
0
 62
     0
100
AcDbLine
 10
59.96337033751103
 20
233.5580851188084
 30
0.0
 11
64.27111202764703
 21
237.8658268089444
 31
0.0
  0
LINE
  5
109B
330
103B
100
AcDbEntity
  8
0
 62
     0
100
AcDbLine
 10
59.96337033751103
 20
233.3813084235118
 30
0.0
 11
64.38896315784479
 21
237.8069012438456
 31
0.0
  0
LINE
  5
109C
330
103B
100
AcDbEntity
  8
0
 62
     0
100
AcDbLine
 10
59.96337033751103
 20
233.2045317282151
 30
0.0
 11
64.50681428804255
 21
237.7479756787467
 31
0.0
  0
LINE
  5
109D
330
103B
100
AcDbEntity
  8
0
 62
     0
100
AcDbLine
 10
59.96337033751103
 20
233.0277550329185
 30
0.0
 11
64.62466541824031
 21
237.6890501136478
 31
0.0
  0
LINE
  5
109E
330
103B
100
AcDbEntity
  8
0
 62
     0
100
AcDbLine
 10
59.96337033751103
 20
232.8509783376219
 30
0.0
 11
64.74251654843806
 21
237.6301245485489
 31
0.0
  0
LINE
  5
109F
330
103B
100
AcDbEntity
  8
0
 62
     0
100
AcDbLine
 10
59.96337033751103
 20
232.6742016423252
 30
0.0
 11
64.86036767863582
 21
237.57119898345
 31
0.0
  0
LINE
  5
10A0
330
103B
100
AcDbEntity
  8
0
 62
     0
100
AcDbLine
 10
59.96337033751103
 20
232.4974249470286
 30
0.0
 11
64.97821880883357
 21
237.5122734183511
 31
0.0
  0
LINE
  5
10A1
330
103B
100
AcDbEntity
  8
0
 62
     0
100
AcDbLine
 10
59.96337033751103
 20
232.320648251732
 30
0.0
 11
65.09606993903133
 21
237.4533478532523
 31
0.0
  0
LINE
  5
10A2
330
103B
100
AcDbEntity
  8
0
 62
     0
100
AcDbLine
 10
59.96337033751103
 20
232.1438715564353
 30
0.0
 11
65.21392106922907
 21
237.3944222881534
 31
0.0
  0
LINE
  5
10A3
330
103B
100
AcDbEntity
  8
0
 62
     0
100
AcDbLine
 10
59.96337033751103
 20
231.9670948611387
 30
0.0
 11
65.33177219942682
 21
237.3354967230545
 31
0.0
  0
LINE
  5
10A4
330
103B
100
AcDbEntity
  8
0
 62
     0
100
AcDbLine
 10
59.96337033751103
 20
231.7903181658421
 30
0.0
 11
65.44962332962459
 21
237.2765711579556
 31
0.0
  0
LINE
  5
10A5
330
103B
100
AcDbEntity
  8
0
 62
     0
100
AcDbLine
 10
59.96337033751103
 20
231.6135414705454
 30
0.0
 11
65.56747445982233
 21
237.2176455928567
 31
0.0
  0
LINE
  5
10A6
330
103B
100
AcDbEntity
  8
0
 62
     0
100
AcDbLine
 10
59.96337033751103
 20
231.4367647752488
 30
0.0
 11
65.6853255900201
 21
237.1587200277579
 31
0.0
  0
LINE
  5
10A7
330
103B
100
AcDbEntity
  8
0
 62
     0
100
AcDbLine
 10
59.96337033751103
 20
231.2599880799521
 30
0.0
 11
65.80317672021786
 21
237.099794462659
 31
0.0
  0
LINE
  5
10A8
330
103B
100
AcDbEntity
  8
0
 62
     0
100
AcDbLine
 10
59.96337033751102
 20
231.0832113846555
 30
0.0
 11
65.92102785041561
 21
237.0408688975601
 31
0.0
  0
LINE
  5
10A9
330
103B
100
AcDbEntity
  8
0
 62
     0
100
AcDbLine
 10
60.18989626681793
 20
231.1329606186657
 30
0.0
 11
66.03887898061337
 21
236.9819433324612
 31
0.0
  0
LINE
  5
10AA
330
103B
100
AcDbEntity
  8
0
 62
     0
100
AcDbLine
 10
60.5434496574112
 20
231.3097373139624
 30
0.0
 11
66.15673011081113
 21
236.9230177673624
 31
0.0
  0
LINE
  5
10AB
330
103B
100
AcDbEntity
  8
0
 62
     0
100
AcDbLine
 10
60.89700304800448
 20
231.486514009259
 30
0.0
 11
66.27458124100889
 21
236.8640922022635
 31
0.0
  0
LINE
  5
10AC
330
103B
100
AcDbEntity
  8
0
 62
     0
100
AcDbLine
 10
61.25055643859774
 20
231.6632907045557
 30
0.0
 11
66.39243237120666
 21
236.8051666371646
 31
0.0
  0
LINE
  5
10AD
330
103B
100
AcDbEntity
  8
0
 62
     0
100
AcDbLine
 10
61.60410982919103
 20
231.8400673998523
 30
0.0
 11
66.51028350140443
 21
236.7462410720657
 31
0.0
  0
LINE
  5
10AE
330
103B
100
AcDbEntity
  8
0
 62
     0
100
AcDbLine
 10
61.95766321978429
 20
232.016844095149
 30
0.0
 11
66.62813463160218
 21
236.6873155069669
 31
0.0
  0
LINE
  5
10AF
330
103B
100
AcDbEntity
  8
0
 62
     0
100
AcDbLine
 10
62.31121661037757
 20
232.1936207904456
 30
0.0
 11
66.74598576179994
 21
236.628389941868
 31
0.0
  0
LINE
  5
10B0
330
103B
100
AcDbEntity
  8
0
 62
     0
100
AcDbLine
 10
62.66477000097084
 20
232.3703974857422
 30
0.0
 11
66.86383689199769
 21
236.5694643767691
 31
0.0
  0
LINE
  5
10B1
330
103B
100
AcDbEntity
  8
0
 62
     0
100
AcDbLine
 10
63.01832339156412
 20
232.5471741810389
 30
0.0
 11
66.98168802219545
 21
236.5105388116702
 31
0.0
  0
LINE
  5
10B2
330
103B
100
AcDbEntity
  8
0
 62
     0
100
AcDbLine
 10
63.37187678215738
 20
232.7239508763355
 30
0.0
 11
67.09953915239321
 21
236.4516132465713
 31
0.0
  0
LINE
  5
10B3
330
103B
100
AcDbEntity
  8
0
 62
     0
100
AcDbLine
 10
63.72543017275067
 20
232.9007275716322
 30
0.0
 11
67.21739028259097
 21
236.3926876814725
 31
0.0
  0
LINE
  5
10B4
330
103B
100
AcDbEntity
  8
0
 62
     0
100
AcDbLine
 10
64.07898356334394
 20
233.0775042669288
 30
0.0
 11
67.33524141278873
 21
236.3337621163736
 31
0.0
  0
LINE
  5
10B5
330
103B
100
AcDbEntity
  8
0
 62
     0
100
AcDbLine
 10
64.43253695393721
 20
233.2542809622254
 30
0.0
 11
67.45309254298648
 21
236.2748365512747
 31
0.0
  0
LINE
  5
10B6
330
103B
100
AcDbEntity
  8
0
 62
     0
100
AcDbLine
 10
64.78609034453048
 20
233.4310576575221
 30
0.0
 11
67.57094367318424
 21
236.2159109861758
 31
0.0
  0
LINE
  5
10B7
330
103B
100
AcDbEntity
  8
0
 62
     0
100
AcDbLine
 10
65.13964373512376
 20
233.6078343528187
 30
0.0
 11
67.68879480338199
 21
236.1569854210769
 31
0.0
  0
LINE
  5
10B8
330
103B
100
AcDbEntity
  8
0
 62
     0
100
AcDbLine
 10
65.49319712571703
 20
233.7846110481153
 30
0.0
 11
67.80664593357975
 21
236.098059855978
 31
0.0
  0
LINE
  5
10B9
330
103B
100
AcDbEntity
  8
0
 62
     0
100
AcDbLine
 10
65.8467505163103
 20
233.9613877434119
 30
0.0
 11
67.92449706377751
 21
236.0391342908792
 31
0.0
  0
LINE
  5
10BA
330
103B
100
AcDbEntity
  8
0
 62
     0
100
AcDbLine
 10
66.20030390690357
 20
234.1381644387086
 30
0.0
 11
68.04234819397527
 21
235.9802087257803
 31
0.0
  0
LINE
  5
10BB
330
103B
100
AcDbEntity
  8
0
 62
     0
100
AcDbLine
 10
66.55385729749685
 20
234.3149411340053
 30
0.0
 11
68.16019932417302
 21
235.9212831606814
 31
0.0
  0
LINE
  5
10BC
330
103B
100
AcDbEntity
  8
0
 62
     0
100
AcDbLine
 10
66.90741068809012
 20
234.4917178293019
 30
0.0
 11
68.27805045437078
 21
235.8623575955825
 31
0.0
  0
LINE
  5
10BD
330
103B
100
AcDbEntity
  8
0
 62
     0
100
AcDbLine
 10
67.2609640786834
 20
234.6684945245985
 30
0.0
 11
68.39590158456855
 21
235.8034320304837
 31
0.0
  0
LINE
  5
10BE
330
103B
100
AcDbEntity
  8
0
 62
     0
100
AcDbLine
 10
67.61451746927666
 20
234.8452712198952
 30
0.0
 11
68.5137527147663
 21
235.7445064653848
 31
0.0
  0
LINE
  5
10BF
330
103B
100
AcDbEntity
  8
0
 62
     0
100
AcDbLine
 10
67.96807085986994
 20
235.0220479151918
 30
0.0
 11
68.63160384496406
 21
235.6855809002859
 31
0.0
  0
LINE
  5
10C0
330
103B
100
AcDbEntity
  8
0
 62
     0
100
AcDbLine
 10
68.32162425046329
 20
235.1988246104884
 30
0.0
 11
68.74945497516181
 21
235.626655335187
 31
0.0
  0
LINE
  5
10C1
330
103B
100
AcDbEntity
  8
0
 62
     0
100
AcDbLine
 10
68.67517764105656
 20
235.3756013057851
 30
0.0
 11
68.86730610535957
 21
235.5677297700881
 31
0.0
  0
ENDBLK
  5
10C2
330
103B
100
AcDbEntity
  8
0
100
AcDbBlockEnd
  0
BLOCK
  5
1483
330
1479
100
AcDbEntity
  8
0
100
AcDbBlockBegin
  2
*D11
 70
     1
 10
0.0
 20
0.0
 30
0.0
  3
*D11
  1

  0
LINE
  5
1993
330
1479
100
AcDbEntity
  8
AM_5
100
AcDbLine
 10
329.4426489753092
 20
447.2256163721241
 30
0.0
 11
329.4426489753092
 21
484.6690025075941
 31
0.0
  0
LINE
  5
1994
330
1479
100
AcDbEntity
  8
AM_5
100
AcDbLine
 10
440.4192220037304
 20
441.1227878785568
 30
0.0
 11
440.4192220037304
 21
484.6690025075941
 31
0.0
  0
LINE
  5
1995
330
1479
100
AcDbEntity
  8
AM_5
100
AcDbLine
 10
333.9426489753092
 20
482.4190025075941
 30
0.0
 11
435.9192220037304
 21
482.4190025075941
 31
0.0
  0
SOLID
  5
1996
330
1479
100
AcDbEntity
  8
AM_5
100
AcDbTrace
 10
333.9426489753092
 20
483.1690025075941
 30
0.0
 11
333.9426489753092
 21
481.669002507594
 31
0.0
 12
329.4426489753092
 22
482.4190025075941
 32
0.0
 13
329.4426489753092
 23
482.4190025075941
 33
0.0
  0
SOLID
  5
1997
330
1479
100
AcDbEntity
  8
AM_5
100
AcDbTrace
 10
435.9192220037304
 20
483.1690025075941
 30
0.0
 11
435.9192220037304
 21
481.669002507594
 31
0.0
 12
440.4192220037304
 22
482.4190025075941
 32
0.0
 13
440.4192220037304
 23
482.4190025075941
 33
0.0
  0
MTEXT
  5
1998
330
1479
100
AcDbEntity
  8
AM_5
100
AcDbMText
 10
384.9309354895198
 20
486.356502507594
 30
0.0
 40
5.25
 41
0.0
 71
     5
 72
     1
  1
(111)
 73
     1
 44
1.0
1001
ACAD
1000
MTEXTBEGIN
1070
    73
1070
     1
1070
    44
1040
1.0
1070
    74
1070
     0
1000
MTEXTEND
  0
POINT
  5
1999
330
1479
100
AcDbEntity
  8
DEFPOINTS
 62
     0
100
AcDbPoint
 10
329.4426489753092
 20
445.7256163721242
 30
0.0
  0
POINT
  5
199A
330
1479
100
AcDbEntity
  8
DEFPOINTS
 62
     0
100
AcDbPoint
 10
440.4192220037304
 20
439.6227878785567
 30
0.0
  0
POINT
  5
199B
330
1479
100
AcDbEntity
  8
DEFPOINTS
 62
     0
100
AcDbPoint
 10
440.4192220037304
 20
482.4190025075941
 30
0.0
  0
ENDBLK
  5
1484
330
1479
100
AcDbEntity
  8
0
100
AcDbBlockEnd
  0
BLOCK
  5
148F
330
1485
100
AcDbEntity
  8
0
100
AcDbBlockBegin
  2
*D12
 70
     1
 10
0.0
 20
0.0
 30
0.0
  3
*D12
  1

  0
LINE
  5
199C
330
1485
100
AcDbEntity
  8
AM_5
100
AcDbLine
 10
437.9680693561663
 20
456.9501994463453
 30
0.0
 11
435.5667747978055
 21
472.8222280780904
 31
0.0
  0
LINE
  5
199D
330
1485
100
AcDbEntity
  8
AM_5
100
AcDbLine
 10
344.0317759266771
 20
442.7384867863976
 30
0.0
 11
341.6304813683162
 21
458.6105154181429
 31
0.0
  0
LINE
  5
199E
330
1485
100
AcDbEntity
  8
AM_5
100
AcDbLine
 10
431.45398194234
 20
469.9243952795957
 30
0.0
 11
346.4164233203913
 21
457.0589808128674
 31
0.0
  0
SOLID
  5
199F
330
1485
100
AcDbEntity
  8
AM_5
100
AcDbTrace
 10
431.3417904262384
 20
470.6659565135574
 30
0.0
 11
431.5661734584415
 21
469.1828340456339
 31
0.0
 12
435.9033493461103
 22
470.5975443762054
 32
0.0
 13
435.9033493461103
 23
470.5975443762054
 33
0.0
  0
SOLID
  5
19A0
330
1485
100
AcDbEntity
  8
AM_5
100
AcDbTrace
 10
346.3042318042897
 20
457.8005420468291
 30
0.0
 11
346.5286148364929
 21
456.3174195789056
 31
0.0
 12
341.9670559166211
 22
456.3858317162576
 32
0.0
 13
341.9670559166211
 23
456.3858317162576
 33
0.0
  0
MTEXT
  5
19A1
330
1485
100
AcDbEntity
  8
AM_5
100
AcDbMText
 10
388.3460073710979
 20
467.3861390656194
 30
0.0
 40
5.25
 41
0.0
 71
     5
 72
     1
  1
(95)
 11
0.9887483119489541
 21
0.1495886881354803
 31
0.0
 73
     1
 44
1.0
1001
ACAD
1000
MTEXTBEGIN
1070
    73
1070
     1
1070
    44
1040
1.0
1070
    74
1070
     0
1000
MTEXTEND
  0
POINT
  5
19A2
330
1485
100
AcDbEntity
  8
DEFPOINTS
 62
     0
100
AcDbPoint
 10
438.1924523883696
 20
455.4670769784218
 30
0.0
  0
POINT
  5
19A3
330
1485
100
AcDbEntity
  8
DEFPOINTS
 62
     0
100
AcDbPoint
 10
344.2561589588803
 20
441.2553643184742
 30
0.0
  0
POINT
  5
19A4
330
1485
100
AcDbEntity
  8
DEFPOINTS
 62
     0
100
AcDbPoint
 10
341.9670559166211
 20
456.3858317162576
 30
0.0
  0
ENDBLK
  5
1490
330
1485
100
AcDbEntity
  8
0
100
AcDbBlockEnd
  0
BLOCK
  5
149B
330
1491
100
AcDbEntity
  8
0
100
AcDbBlockBegin
  2
*D13
 70
     1
 10
0.0
 20
0.0
 30
0.0
  3
*D13
  1

  0
LINE
  5
19A5
330
1491
100
AcDbEntity
  8
AM_5
100
AcDbLine
 10
185.4438663809354
 20
413.1676207814079
 30
0.0
 11
185.4438663809354
 21
472.2995576755417
 31
0.0
  0
LINE
  5
19A6
330
1491
100
AcDbEntity
  8
AM_5
100
AcDbLine
 10
236.4438663809354
 20
413.1676207814079
 30
0.0
 11
236.4438663809354
 21
472.2995576755417
 31
0.0
  0
LINE
  5
19A7
330
1491
100
AcDbEntity
  8
AM_5
100
AcDbLine
 10
189.9438663809354
 20
470.0495576755417
 30
0.0
 11
231.9438663809354
 21
470.0495576755417
 31
0.0
  0
SOLID
  5
19A8
330
1491
100
AcDbEntity
  8
AM_5
100
AcDbTrace
 10
189.9438663809354
 20
470.7995576755418
 30
0.0
 11
189.9438663809354
 21
469.2995576755418
 31
0.0
 12
185.4438663809354
 22
470.0495576755417
 32
0.0
 13
185.4438663809354
 23
470.0495576755417
 33
0.0
  0
SOLID
  5
19A9
330
1491
100
AcDbEntity
  8
AM_5
100
AcDbTrace
 10
231.9438663809354
 20
470.7995576755418
 30
0.0
 11
231.9438663809354
 21
469.2995576755418
 31
0.0
 12
236.4438663809354
 22
470.0495576755417
 32
0.0
 13
236.4438663809354
 23
470.0495576755417
 33
0.0
  0
MTEXT
  5
19AA
330
1491
100
AcDbEntity
  8
AM_5
100
AcDbMText
 10
210.9438663809354
 20
473.7245576755418
 30
0.0
 40
5.25
 41
0.0
 71
     5
 72
     1
  1
51
 73
     1
 44
1.0
1001
ACAD
1000
MTEXTBEGIN
1070
    73
1070
     1
1070
    44
1040
1.0
1070
    74
1070
     0
1000
MTEXTEND
  0
POINT
  5
19AB
330
1491
100
AcDbEntity
  8
DEFPOINTS
 62
     0
100
AcDbPoint
 10
185.4438663809354
 20
411.6676207814078
 30
0.0
  0
POINT
  5
19AC
330
1491
100
AcDbEntity
  8
DEFPOINTS
 62
     0
100
AcDbPoint
 10
236.4438663809354
 20
411.6676207814078
 30
0.0
  0
POINT
  5
19AD
330
1491
100
AcDbEntity
  8
DEFPOINTS
 62
     0
100
AcDbPoint
 10
236.4438663809354
 20
470.0495576755417
 30
0.0
  0
ENDBLK
  5
149C
330
1491
100
AcDbEntity
  8
0
100
AcDbBlockEnd
  0
BLOCK
  5
14A7
330
149D
100
AcDbEntity
  8
0
100
AcDbBlockBegin
  2
*D14
 70
     1
 10
0.0
 20
0.0
 30
0.0
  3
*D14
  1

  0
LINE
  5
198A
330
149D
100
AcDbEntity
  8
AM_5
100
AcDbLine
 10
367.9426489753093
 20
352.2553643184742
 30
0.0
 11
454.6692220037304
 21
352.2553643184741
 31
0.0
  0
LINE
  5
198B
330
149D
100
AcDbEntity
  8
AM_5
100
AcDbLine
 10
436.7216481821448
 20
458.0495576755417
 30
0.0
 11
454.6692220037304
 21
458.0495576755417
 31
0.0
  0
LINE
  5
198C
330
149D
100
AcDbEntity
  8
AM_5
100
AcDbLine
 10
452.4192220037304
 20
356.7553643184741
 30
0.0
 11
452.4192220037305
 21
453.5495576755417
 31
0.0
  0
SOLID
  5
198D
330
149D
100
AcDbEntity
  8
AM_5
100
AcDbTrace
 10
451.6692220037303
 20
356.7553643184741
 30
0.0
 11
453.1692220037304
 21
356.7553643184741
 31
0.0
 12
452.4192220037304
 22
352.2553643184741
 32
0.0
 13
452.4192220037304
 23
352.2553643184741
 33
0.0
  0
SOLID
  5
198E
330
149D
100
AcDbEntity
  8
AM_5
100
AcDbTrace
 10
451.6692220037304
 20
453.5495576755417
 30
0.0
 11
453.1692220037304
 21
453.5495576755417
 31
0.0
 12
452.4192220037305
 22
458.0495576755417
 32
0.0
 13
452.4192220037305
 23
458.0495576755417
 33
0.0
  0
MTEXT
  5
198F
330
149D
100
AcDbEntity
  8
AM_5
100
AcDbMText
 10
448.4817220037303
 20
405.152460997008
 30
0.0
 40
5.25
 41
0.0
 71
     5
 72
     1
  1
{(106)}
 11
0.0000000000000001
 21
1.0
 31
0.0
 73
     1
 44
1.0
1001
ACAD
1000
MTEXTBEGIN
1070
    73
1070
     1
1070
    44
1040
1.0
1070
    74
1070
     0
1000
MTEXTEND
  0
POINT
  5
1990
330
149D
100
AcDbEntity
  8
DEFPOINTS
 62
     0
100
AcDbPoint
 10
366.4426489753093
 20
352.2553643184742
 30
0.0
  0
POINT
  5
1991
330
149D
100
AcDbEntity
  8
DEFPOINTS
 62
     0
100
AcDbPoint
 10
435.2216481821448
 20
458.0495576755417
 30
0.0
  0
POINT
  5
1992
330
149D
100
AcDbEntity
  8
DEFPOINTS
 62
     0
100
AcDbPoint
 10
452.4192220037305
 20
458.0495576755417
 30
0.0
  0
ENDBLK
  5
14A8
330
149D
100
AcDbEntity
  8
0
100
AcDbBlockEnd
  0
BLOCK
  5
14CE
330
14C4
100
AcDbEntity
  8
0
100
AcDbBlockBegin
  2
*D15
 70
     1
 10
0.0
 20
0.0
 30
0.0
  3
*D15
  1

  0
LINE
  5
19AE
330
14C4
100
AcDbEntity
  8
AM_5
100
AcDbLine
 10
296.942648975309
 20
243.5672752985488
 30
0.0
 11
247.0446717568827
 21
243.5672752985488
 31
0.0
  0
LINE
  5
19AF
330
14C4
100
AcDbEntity
  8
AM_5
100
AcDbLine
 10
296.9426489753093
 20
317.5672752985488
 30
0.0
 11
247.0446717568827
 21
317.5672752985488
 31
0.0
  0
LINE
  5
19B0
330
14C4
100
AcDbEntity
  8
AM_5
100
AcDbLine
 10
249.2946717568827
 20
248.0672752985487
 30
0.0
 11
249.2946717568827
 21
313.0672752985488
 31
0.0
  0
SOLID
  5
19B1
330
14C4
100
AcDbEntity
  8
AM_5
100
AcDbTrace
 10
248.5446717568827
 20
248.0672752985487
 30
0.0
 11
250.0446717568827
 21
248.0672752985487
 31
0.0
 12
249.2946717568827
 22
243.5672752985488
 32
0.0
 13
249.2946717568827
 23
243.5672752985488
 33
0.0
  0
SOLID
  5
19B2
330
14C4
100
AcDbEntity
  8
AM_5
100
AcDbTrace
 10
248.5446717568827
 20
313.0672752985488
 30
0.0
 11
250.0446717568827
 21
313.0672752985488
 31
0.0
 12
249.2946717568827
 22
317.5672752985488
 32
0.0
 13
249.2946717568827
 23
317.5672752985488
 33
0.0
  0
MTEXT
  5
19B3
330
14C4
100
AcDbEntity
  8
AM_5
100
AcDbMText
 10
245.6196717568826
 20
280.5672752985488
 30
0.0
 40
5.25
 41
0.0
 71
     5
 72
     1
  1
{\Famgdt|c136;o}74
 11
0.0000000000000001
 21
1.0
 31
0.0
 73
     1
 44
1.0
1001
ACAD
1000
MTEXTBEGIN
1070
    73
1070
     1
1070
    44
1040
1.0
1070
    74
1070
     0
1000
MTEXTEND
  0
POINT
  5
19B4
330
14C4
100
AcDbEntity
  8
DEFPOINTS
 62
     0
100
AcDbPoint
 10
298.442648975309
 20
243.5672752985488
 30
0.0
  0
POINT
  5
19B5
330
14C4
100
AcDbEntity
  8
DEFPOINTS
 62
     0
100
AcDbPoint
 10
298.4426489753093
 20
317.5672752985488
 30
0.0
  0
POINT
  5
19B6
330
14C4
100
AcDbEntity
  8
DEFPOINTS
 62
     0
100
AcDbPoint
 10
249.2946717568827
 20
317.5672752985488
 30
0.0
  0
ENDBLK
  5
14CF
330
14C4
100
AcDbEntity
  8
0
100
AcDbBlockEnd
  0
BLOCK
  5
14DA
330
14D0
100
AcDbEntity
  8
0
100
AcDbBlockBegin
  2
*D16
 70
     1
 10
0.0
 20
0.0
 30
0.0
  3
*D16
  1

  0
LINE
  5
19B7
330
14D0
100
AcDbEntity
  8
AM_5
100
AcDbLine
 10
289.9426489753091
 20
249.5672752985488
 30
0.0
 11
259.0446717568827
 21
249.5672752985488
 31
0.0
  0
LINE
  5
19B8
330
14D0
100
AcDbEntity
  8
AM_5
100
AcDbLine
 10
289.9426489753091
 20
311.5672752985487
 30
0.0
 11
259.0446717568827
 21
311.5672752985487
 31
0.0
  0
LINE
  5
19B9
330
14D0
100
AcDbEntity
  8
AM_5
100
AcDbLine
 10
261.2946717568827
 20
254.0672752985488
 30
0.0
 11
261.2946717568827
 21
307.0672752985487
 31
0.0
  0
SOLID
  5
19BA
330
14D0
100
AcDbEntity
  8
AM_5
100
AcDbTrace
 10
260.5446717568827
 20
254.0672752985488
 30
0.0
 11
262.0446717568827
 21
254.0672752985488
 31
0.0
 12
261.2946717568827
 22
249.5672752985488
 32
0.0
 13
261.2946717568827
 23
249.5672752985488
 33
0.0
  0
SOLID
  5
19BB
330
14D0
100
AcDbEntity
  8
AM_5
100
AcDbTrace
 10
260.5446717568827
 20
307.0672752985487
 30
0.0
 11
262.0446717568827
 21
307.0672752985487
 31
0.0
 12
261.2946717568827
 22
311.5672752985487
 32
0.0
 13
261.2946717568827
 23
311.5672752985487
 33
0.0
  0
MTEXT
  5
19BC
330
14D0
100
AcDbEntity
  8
AM_5
100
AcDbMText
 10
257.6191550245992
 20
280.5672752985488
 30
0.0
 40
5.25
 41
0.0
 71
     5
 72
     1
  1
{\Famgdt|c136;o}62
 11
0.0000000000000001
 21
1.0
 31
0.0
 73
     1
 44
1.0
1001
ACAD
1000
MTEXTBEGIN
1070
    73
1070
     1
1070
    44
1040
1.0
1070
    74
1070
     0
1000
MTEXTEND
  0
POINT
  5
19BD
330
14D0
100
AcDbEntity
  8
DEFPOINTS
 62
     0
100
AcDbPoint
 10
291.4426489753091
 20
249.5672752985488
 30
0.0
  0
POINT
  5
19BE
330
14D0
100
AcDbEntity
  8
DEFPOINTS
 62
     0
100
AcDbPoint
 10
291.4426489753091
 20
311.5672752985487
 30
0.0
  0
POINT
  5
19BF
330
14D0
100
AcDbEntity
  8
DEFPOINTS
 62
     0
100
AcDbPoint
 10
261.2946717568827
 20
311.5672752985487
 30
0.0
  0
ENDBLK
  5
14DB
330
14D0
100
AcDbEntity
  8
0
100
AcDbBlockEnd
  0
BLOCK
  5
14E3
330
14DC
100
AcDbEntity
  8
0
100
AcDbBlockBegin
  2
*D17
 70
     1
 10
0.0
 20
0.0
 30
0.0
  3
*D17
  1

  0
LINE
  5
19E0
330
14DC
100
AcDbEntity
  8
AM_5
100
AcDbLine
 10
294.18939244343
 20
242.7915975557669
 30
0.0
 11
285.9226572036145
 21
229.6222216787041
 31
0.0
  0
LINE
  5
19E1
330
14DC
100
AcDbEntity
  8
AM_5
100
AcDbLine
 10
285.9226572036145
 20
229.6222216787041
 30
0.0
 11
259.1039072036145
 21
229.6222216787042
 31
0.0
  0
SOLID
  5
19E2
330
14DC
100
AcDbEntity
  8
AM_5
100
AcDbTrace
 10
293.5541726550442
 20
243.1903403556306
 30
0.0
 11
294.8246122318158
 21
242.3928547559033
 31
0.0
 12
296.5818492426119
 22
246.6029162860817
 32
0.0
 13
296.5818492426119
 23
246.6029162860817
 33
0.0
  0
MTEXT
  5
19E3
330
14DC
100
AcDbEntity
  8
AM_5
100
AcDbMText
 10
271.9882822036146
 20
233.3870039129561
 30
0.0
 40
5.25
 41
0.0
 71
     5
 72
     1
  1
4-\U+22057貫通
 73
     1
 44
1.0
1001
ACAD
1000
MTEXTBEGIN
1070
    73
1070
     1
1070
    44
1040
1.0
1070
    74
1070
     0
1000
MTEXTEND
  0
POINT
  5
19E4
330
14DC
100
AcDbEntity
  8
DEFPOINTS
 62
     0
100
AcDbPoint
 10
296.5818492426119
 20
246.6029162860817
 30
0.0
  0
POINT
  5
19E5
330
14DC
100
AcDbEntity
  8
DEFPOINTS
 62
     0
100
AcDbPoint
 10
300.3034487080061
 20
252.5316343110157
 30
0.0
  0
ENDBLK
  5
14E4
330
14DC
100
AcDbEntity
  8
0
100
AcDbBlockEnd
  0
BLOCK
  5
14EE
330
14E5
100
AcDbEntity
  8
0
100
AcDbBlockBegin
  2
*D18
 70
     1
 10
0.0
 20
0.0
 30
0.0
  3
*D18
  1

  0
LINE
  5
19E6
330
14E5
100
AcDbEntity
  8
AM_5
100
AcDbLine
 10
314.1296468871628
 20
272.09603176242
 30
0.0
 11
344.7556510634561
 21
289.0385188346776
 31
0.0
  0
LINE
  5
19E7
330
14E5
100
AcDbEntity
  8
AM_5
100
AcDbLine
 10
348.6932801718368
 20
291.2168386011108
 30
0.0
 11
374.5759674531934
 21
305.5352946470063
 31
0.0
  0
LINE
  5
19E8
330
14E5
100
AcDbEntity
  8
AM_5
100
AcDbLine
 10
374.5759674531934
 20
305.5352946470063
 30
0.0
 11
397.6759674531934
 21
305.5352946470063
 31
0.0
  0
SOLID
  5
19E9
330
14E5
100
AcDbEntity
  8
AM_5
100
AcDbTrace
 10
313.7665935927573
 20
272.7523032804835
 30
0.0
 11
314.4927001815684
 21
271.4397602443566
 31
0.0
 12
310.1920177787822
 22
269.9177119959869
 32
0.0
 13
310.1920177787822
 23
269.9177119959869
 33
0.0
  0
SOLID
  5
19EA
330
14E5
100
AcDbEntity
  8
AM_5
100
AcDbTrace
 10
344.3925977690506
 20
289.6947903527411
 30
0.0
 11
345.1187043578617
 21
288.3822473166142
 31
0.0
 12
348.6932801718368
 22
291.2168386011108
 32
0.0
 13
348.6932801718368
 23
291.2168386011108
 33
0.0
  0
MTEXT
  5
19EB
330
14E5
100
AcDbEntity
  8
AM_5
100
AcDbMText
 10
386.6509674531934
 20
309.2468050623444
 30
0.0
 40
5.25
 41
0.0
 71
     5
 72
     1
  1
P.C.D44
 73
     1
 44
1.0
1001
ACAD
1000
MTEXTBEGIN
1070
    73
1070
     1
1070
    44
1040
1.0
1070
    74
1070
     0
1000
MTEXTEND
  0
POINT
  5
19EC
330
14E5
100
AcDbEntity
  8
DEFPOINTS
 62
     0
100
AcDbPoint
 10
348.6932801718368
 20
291.2168386011108
 30
0.0
  0
POINT
  5
19ED
330
14E5
100
AcDbEntity
  8
DEFPOINTS
 62
     0
100
AcDbPoint
 10
310.1920177787822
 20
269.9177119959869
 30
0.0
  0
ENDBLK
  5
14EF
330
14E5
100
AcDbEntity
  8
0
100
AcDbBlockEnd
  0
BLOCK
  5
14FA
330
14F0
100
AcDbEntity
  8
0
100
AcDbBlockBegin
  2
*D19
 70
     1
 10
0.0
 20
0.0
 30
0.0
  3
*D19
  1

  0
LINE
  5
19CE
330
14F0
100
AcDbEntity
  8
AM_5
100
AcDbLine
 10
367.9426489753093
 20
352.2553643184128
 30
0.0
 11
389.2491139922285
 21
352.2553643184127
 31
0.0
  0
LINE
  5
19CF
330
14F0
100
AcDbEntity
  8
AM_5
100
AcDbLine
 10
367.4426489753093
 20
379.2553643184742
 30
0.0
 11
389.2491139922285
 21
379.2553643184741
 31
0.0
  0
LINE
  5
19D0
330
14F0
100
AcDbEntity
  8
AM_5
100
AcDbLine
 10
386.9991139922285
 20
356.7553643184127
 30
0.0
 11
386.9991139922285
 21
374.7553643184741
 31
0.0
  0
SOLID
  5
19D1
330
14F0
100
AcDbEntity
  8
AM_5
100
AcDbTrace
 10
386.2491139922285
 20
356.7553643184127
 30
0.0
 11
387.7491139922285
 21
356.7553643184127
 31
0.0
 12
386.9991139922285
 22
352.2553643184127
 32
0.0
 13
386.9991139922285
 23
352.2553643184127
 33
0.0
  0
SOLID
  5
19D2
330
14F0
100
AcDbEntity
  8
AM_5
100
AcDbTrace
 10
386.2491139922285
 20
374.7553643184741
 30
0.0
 11
387.7491139922285
 21
374.7553643184741
 31
0.0
 12
386.9991139922285
 22
379.2553643184741
 32
0.0
 13
386.9991139922285
 23
379.2553643184741
 33
0.0
  0
MTEXT
  5
19D3
330
14F0
100
AcDbEntity
  8
AM_5
100
AcDbMText
 10
383.323597259945
 20
365.7553643184435
 30
0.0
 40
5.25
 41
0.0
 71
     5
 72
     1
  1
27
 11
0.0000000000000001
 21
1.0
 31
0.0
 73
     1
 44
1.0
1001
ACAD
1000
MTEXTBEGIN
1070
    73
1070
     1
1070
    44
1040
1.0
1070
    74
1070
     0
1000
MTEXTEND
  0
POINT
  5
19D4
330
14F0
100
AcDbEntity
  8
DEFPOINTS
 62
     0
100
AcDbPoint
 10
366.4426489753093
 20
352.2553643184128
 30
0.0
  0
POINT
  5
19D5
330
14F0
100
AcDbEntity
  8
DEFPOINTS
 62
     0
100
AcDbPoint
 10
365.9426489753093
 20
379.2553643184742
 30
0.0
  0
POINT
  5
19D6
330
14F0
100
AcDbEntity
  8
DEFPOINTS
 62
     0
100
AcDbPoint
 10
386.9991139922285
 20
379.2553643184741
 30
0.0
  0
ENDBLK
  5
14FB
330
14F0
100
AcDbEntity
  8
0
100
AcDbBlockEnd
  0
BLOCK
  5
1506
330
14FC
100
AcDbEntity
  8
0
100
AcDbBlockBegin
  2
*D20
 70
     1
 10
0.0
 20
0.0
 30
0.0
  3
*D20
  1

  0
LINE
  5
19D7
330
14FC
100
AcDbEntity
  8
AM_5
100
AcDbLine
 10
367.9426489753093
 20
352.2553643184128
 30
0.0
 11
401.2491139922284
 21
352.2553643184127
 31
0.0
  0
LINE
  5
19D8
330
14FC
100
AcDbEntity
  8
AM_5
100
AcDbLine
 10
353.9426489753091
 20
408.2553643184741
 30
0.0
 11
401.2491139922285
 21
408.255364318474
 31
0.0
  0
LINE
  5
19D9
330
14FC
100
AcDbEntity
  8
AM_5
100
AcDbLine
 10
398.9991139922285
 20
356.7553643184127
 30
0.0
 11
398.9991139922285
 21
403.755364318474
 31
0.0
  0
SOLID
  5
19DA
330
14FC
100
AcDbEntity
  8
AM_5
100
AcDbTrace
 10
398.2491139922284
 20
356.7553643184127
 30
0.0
 11
399.7491139922285
 21
356.7553643184127
 31
0.0
 12
398.9991139922285
 22
352.2553643184127
 32
0.0
 13
398.9991139922285
 23
352.2553643184127
 33
0.0
  0
SOLID
  5
19DB
330
14FC
100
AcDbEntity
  8
AM_5
100
AcDbTrace
 10
398.2491139922285
 20
403.755364318474
 30
0.0
 11
399.7491139922285
 21
403.755364318474
 31
0.0
 12
398.9991139922285
 22
408.255364318474
 32
0.0
 13
398.9991139922285
 23
408.255364318474
 33
0.0
  0
MTEXT
  5
19DC
330
14FC
100
AcDbEntity
  8
AM_5
100
AcDbMText
 10
395.3241139922284
 20
380.2553643184435
 30
0.0
 40
5.25
 41
0.0
 71
     5
 72
     1
  1
56
 11
0.0000000000000001
 21
1.0
 31
0.0
 73
     1
 44
1.0
1001
ACAD
1000
MTEXTBEGIN
1070
    73
1070
     1
1070
    44
1040
1.0
1070
    74
1070
     0
1000
MTEXTEND
  0
POINT
  5
19DD
330
14FC
100
AcDbEntity
  8
DEFPOINTS
 62
     0
100
AcDbPoint
 10
366.4426489753093
 20
352.2553643184128
 30
0.0
  0
POINT
  5
19DE
330
14FC
100
AcDbEntity
  8
DEFPOINTS
 62
     0
100
AcDbPoint
 10
352.4426489753091
 20
408.2553643184741
 30
0.0
  0
POINT
  5
19DF
330
14FC
100
AcDbEntity
  8
DEFPOINTS
 62
     0
100
AcDbPoint
 10
398.9991139922285
 20
408.255364318474
 30
0.0
  0
ENDBLK
  5
1507
330
14FC
100
AcDbEntity
  8
0
100
AcDbBlockEnd
  0
BLOCK
  5
1BAF
330
1BAA
100
AcDbEntity
  8
0
100
AcDbBlockBegin
  2
*S22
 70
     1
 10
0.0
 20
0.0
 30
0.0
  3
*S22
  1

  0
LINE
  5
1BAB
330
1BAA
100
AcDbEntity
  8
AM_5
 62
     5
100
AcDbLine
 10
153.8948263013212
 20
421.547398019164
 30
0.0
 11
170.7669689837234
 21
421.547398019164
 31
0.0
  0
LINE
  5
1BAC
330
1BAA
100
AcDbEntity
  8
AM_5
 62
     5
100
AcDbLine
 10
170.7669689837234
 20
421.547398019164
 30
0.0
 11
181.3239158553666
 21
413.2093630380292
 31
0.0
  0
TRACE
  5
1BAD
330
1BAA
100
AcDbEntity
  8
AM_5
 62
     5
370
    35
100
AcDbTrace
 10
180.8955187987024
 20
412.6669612638216
 30
0.0
 11
181.7523129120308
 21
413.7517648122368
 31
0.0
 12
185.4438663809354
 22
409.9553643184742
 32
0.0
 13
185.4438663809354
 23
409.9553643184742
 33
0.0
  0
MTEXT
  5
1BAE
330
1BAA
100
AcDbEntity
  8
AM_5
 62
     5
100
AcDbMText
 10
153.8948263013212
 20
419.0857376875105
 30
0.0
 40
5.25
 41
0.0
 71
     7
 72
     5
  1

  7
ACISOTS
210
0.0
220
0.0
230
-1.0
 11
-1.0
 21
0.0
 31
0.0
 73
     1
 44
1.0
1001
ACAD
1000
MTEXTBEGIN
1070
    73
1070
     1
1070
    44
1040
1.0
1070
    74
1070
     0
1000
MTEXTEND
  0
ENDBLK
  5
1BB0
330
1BAA
100
AcDbEntity
  8
0
100
AcDbBlockEnd
  0
BLOCK
  5
1BB7
330
1BB2
100
AcDbEntity
  8
0
100
AcDbBlockBegin
  2
*S23
 70
     1
 10
0.0
 20
0.0
 30
0.0
  3
*S23
  1

  0
LINE
  5
1BB3
330
1BB2
100
AcDbEntity
  8
AM_5
 62
     5
100
AcDbLine
 10
417.2960071923821
 20
249.5055974047645
 30
0.0
 11
388.0182366565382
 21
249.5055974047645
 31
0.0
  0
LINE
  5
1BB4
330
1BB2
100
AcDbEntity
  8
AM_5
 62
     5
100
AcDbLine
 10
388.0182366565382
 20
249.5055974047645
 30
0.0
 11
361.8104276793082
 21
272.9726544326409
 31
0.0
  0
TRACE
  5
1BB5
330
1BB2
100
AcDbEntity
  8
AM_5
 62
     5
370
    35
100
AcDbTrace
 10
362.2714960191737
 20
273.4875716189881
 30
0.0
 11
361.3493593394426
 21
272.4577372462936
 31
0.0
 12
357.8992433259477
 22
276.4748161870475
 32
0.0
 13
357.8992433259477
 23
276.4748161870475
 33
0.0
  0
MTEXT
  5
1BB6
330
1BB2
100
AcDbEntity
  8
AM_5
 62
     5
100
AcDbMText
 10
417.2960071923821
 20
243.4031385265443
 30
0.0
 40
5.25
 41
0.0
 71
     7
 72
     5
  1

  7
ACISOTS
 73
     1
 44
1.0
1001
ACAD
1000
MTEXTBEGIN
1070
    73
1070
     1
1070
    44
1040
1.0
1070
    74
1070
     0
1000
MTEXTEND
  0
ENDBLK
  5
1BB8
330
1BB2
100
AcDbEntity
  8
0
100
AcDbBlockEnd
  0
BLOCK
  5
1BBF
330
1BBA
100
AcDbEntity
  8
0
100
AcDbBlockBegin
  2
*S24
 70
     1
 10
0.0
 20
0.0
 30
0.0
  3
*S24
  1

  0
LINE
  5
1BBB
330
1BBA
100
AcDbEntity
  8
AM_5
 62
     5
100
AcDbLine
 10
264.4010641986483
 20
431.61796789058
 30
0.0
 11
290.2753826508101
 21
431.61796789058
 31
0.0
  0
LINE
  5
1BBC
330
1BBA
100
AcDbEntity
  8
AM_5
 62
     5
100
AcDbLine
 10
290.2753826508101
 20
431.61796789058
 30
0.0
 11
305.5551849651451
 21
419.3801546174031
 31
0.0
  0
TRACE
  5
1BBD
330
1BBA
100
AcDbEntity
  8
AM_5
 62
     5
370
    35
100
AcDbTrace
 10
305.1231102701611
 20
418.8406778516601
 30
0.0
 11
305.987259660129
 21
419.9196313831462
 31
0.0
 12
309.6529178455408
 22
416.0982214613313
 32
0.0
 13
309.6529178455408
 23
416.0982214613313
 33
0.0
  0
MTEXT
  5
1BBE
330
1BBA
100
AcDbEntity
  8
AM_5
 62
     5
100
AcDbMText
 10
264.4010641986483
 20
426.8055309837072
 30
0.0
 40
5.25
 41
0.0
 71
     7
 72
     5
  1

  7
ACISOTS
210
0.0
220
0.0
230
-1.0
 11
-1.0
 21
0.0
 31
0.0
 73
     1
 44
1.0
1001
ACAD
1000
MTEXTBEGIN
1070
    73
1070
     1
1070
    44
1040
1.0
1070
    74
1070
     0
1000
MTEXTEND
  0
ENDBLK
  5
1BC0
330
1BBA
100
AcDbEntity
  8
0
100
AcDbBlockEnd
  0
ENDSEC
  0
SECTION
  2
ENTITIES
  0
INSERT
  5
D4D
330
1F
100
AcDbEntity
  8
0
 62
     1
100
AcDbBlockReference
  2
*X3
 10
569.7893317762253
 20
758.5449427536751
 30
0.0
 41
-1.0
 50
90.0
1001
ACAD
1000
HATCH
1002
{
1070
    19
1000
ANSI31
1040
1.0
1040
1.570796326794896
1002
}
  0
LINE
  5
D4E
330
1F
100
AcDbEntity
  8
center
  6
CENTER
100
AcDbLine
 10
329.4426489753092
 20
660.0677687132404
 30
0.0
 11
329.4426489753092
 21
567.6732055435549
 31
0.0
  0
LINE
  5
D4F
330
1F
100
AcDbEntity
  8
0
100
AcDbLine
 10
344.2561589588805
 20
658.3874029712496
 30
0.0
 11
314.6291389917379
 21
658.3874029712494
 31
0.0
  0
LINE
  5
D50
330
1F
100
AcDbEntity
  8
0
100
AcDbLine
 10
312.9426489753092
 20
641.3874029712494
 30
0.0
 11
345.9426489753091
 21
641.3874029712494
 31
0.0
  0
LINE
  5
D51
330
1F
100
AcDbEntity
  8
0
100
AcDbLine
 10
312.9426489753092
 20
646.3874029712494
 30
0.0
 11
312.9426489753092
 21
641.3874029712494
 31
0.0
  0
ARC
  5
D52
330
1F
100
AcDbEntity
  8
0
100
AcDbCircle
 10
344.6926489753092
 20
640.3874029712494
 30
0.0
 40
1.0
100
AcDbArc
 50
90.0
 51
180.0
  0
LINE
  5
D53
330
1F
100
AcDbEntity
  8
0
100
AcDbLine
 10
322.9426489753091
 20
641.3874029712494
 30
0.0
 11
322.9426489753091
 21
640.3874029712494
 31
0.0
  0
LINE
  5
D54
330
1F
100
AcDbEntity
  8
center
  6
CENTER
100
AcDbLine
 10
340.9426489753092
 20
643.2433261542938
 30
0.0
 11
340.9426489753092
 21
634.158288428292
 31
0.0
  0
LINE
  5
D55
330
1F
100
AcDbEntity
  8
0
100
AcDbLine
 10
338.1926489753092
 20
640.3874029712494
 30
0.0
 11
326.5406781758542
 21
640.3874029712494
 31
0.0
  0
ARC
  5
D56
330
1F
100
AcDbEntity
  8
0
100
AcDbCircle
 10
337.1926489753091
 20
640.3874029712494
 30
0.0
 40
1.0
100
AcDbArc
 50
0.0
 51
90.0
  0
LINE
  5
D57
330
1F
100
AcDbEntity
  8
0
100
AcDbLine
 10
312.9426489753092
 20
646.3874029712494
 30
0.0
 11
314.6291389917379
 21
658.3874029712494
 31
0.0
  0
LINE
  5
D58
330
1F
100
AcDbEntity
  8
0
100
AcDbLine
 10
312.9426489753092
 20
646.3874029712494
 30
0.0
 11
345.9426489753091
 21
646.3874029712494
 31
0.0
  0
LINE
  5
D59
330
1F
100
AcDbEntity
  8
0
100
AcDbLine
 10
322.9426489753093
 20
640.3874029712494
 30
0.0
 11
312.9426489753094
 21
640.3874029712494
 31
0.0
  0
LINE
  5
D5A
330
1F
100
AcDbEntity
  8
0
100
AcDbLine
 10
345.9426489753091
 20
646.3874029712494
 30
0.0
 11
344.2561589588805
 21
658.3874029712494
 31
0.0
  0
LINE
  5
D5B
330
1F
100
AcDbEntity
  8
0
100
AcDbLine
 10
335.9426489753091
 20
641.3874029712494
 30
0.0
 11
335.9426489753091
 21
640.3874029712494
 31
0.0
  0
LINE
  5
D5C
330
1F
100
AcDbEntity
  8
0
100
AcDbLine
 10
345.9426489753091
 20
646.3874029712494
 30
0.0
 11
345.9426489753091
 21
641.3874029712494
 31
0.0
  0
LINE
  5
D5D
330
1F
100
AcDbEntity
  8
0
100
AcDbLine
 10
175.9438663809354
 20
606.5874029712495
 30
0.0
 11
183.9438663809354
 21
606.5874029712495
 31
0.0
  0
ARC
  5
D5E
330
1F
100
AcDbEntity
  8
0
100
AcDbCircle
 10
175.9438663809354
 20
605.5874029712494
 30
0.0
 40
1.0
100
AcDbArc
 50
90.0
 51
180.0
  0
LINE
  5
D5F
330
1F
100
AcDbEntity
  8
0
100
AcDbLine
 10
174.9438663809354
 20
605.5874029712494
 30
0.0
 11
174.9438663809353
 21
602.5874029712495
 31
0.0
  0
ARC
  5
D60
330
1F
100
AcDbEntity
  8
0
100
AcDbCircle
 10
183.9438663809354
 20
605.5874029712494
 30
0.0
 40
1.0
100
AcDbArc
 50
0.0
 51
90.0
  0
LINE
  5
D61
330
1F
100
AcDbEntity
  8
0
100
AcDbLine
 10
184.9438663809354
 20
605.5874029712494
 30
0.0
 11
184.9438663809354
 21
602.5706189278694
 31
0.0
  0
LINE
  5
D62
330
1F
100
AcDbEntity
  8
center
  6
CENTER
100
AcDbLine
 10
288.3811182935841
 20
749.7926180877652
 30
0.0
 11
441.9884891890568
 21
749.7926180877652
 31
0.0
  0
TEXT
  5
D63
330
1F
100
AcDbEntity
  8
0
100
AcDbText
 10
282.1515255601378
 20
746.2027215330356
 30
0.0
 40
5.0
  1
P
  7
CHINESET
100
AcDbText
  0
INSERT
  5
D64
330
1F
100
AcDbEntity
  8
0
 62
     1
100
AcDbBlockReference
  2
*X3
 10
211.503464381888
 20
513.3353585700811
 30
0.0
1001
ACAD
1000
HATCH
1002
{
1070
    19
1000
ANSI31
1040
1.0
1040
0.0
1002
}
  0
CIRCLE
  5
D65
330
1F
100
AcDbEntity
  8
0
100
AcDbCircle
 10
329.4426489753092
 20
749.7926180877652
 30
0.0
 40
14.81350998357132
  0
ARC
  5
D66
330
1F
100
AcDbEntity
  8
0
100
AcDbCircle
 10
329.4426489753092
 20
749.7926180877652
 30
0.0
 40
16.5
100
AcDbArc
 50
32.5837397892935
 51
327.4162602107065
  0
ARC
  5
D67
330
1F
100
AcDbEntity
  8
0
100
AcDbCircle
 10
329.4426489753093
 20
594.5795960693206
 30
0.0
 40
171.0103178449327
100
AcDbArc
 50
88.32454711809026
 51
91.67545288190973
  0
LINE
  5
D68
330
1F
100
AcDbEntity
  8
0
100
AcDbLine
 10
310.9426489753092
 20
721.2926180877651
 30
0.0
 11
311.9426489753092
 21
721.2926180877651
 31
0.0
  0
LINE
  5
D69
330
1F
100
AcDbEntity
  8
0
100
AcDbLine
 10
310.9426489753092
 20
716.2926180877652
 30
0.0
 11
311.9426489753092
 21
716.2926180877652
 31
0.0
  0
CIRCLE
  5
D6A
330
1F
100
AcDbEntity
  8
0
100
AcDbCircle
 10
311.4426489753092
 20
718.7926180877651
 30
0.0
 40
4.325
  0
LINE
  5
D6C
330
1F
100
AcDbEntity
  8
0
100
AcDbLine
 10
308.9426489753093
 20
718.2926180877651
 30
0.0
 11
308.9426489753092
 21
719.292618087765
 31
0.0
  0
ARC
  5
D6D
330
1F
100
AcDbEntity
  8
0
100
AcDbCircle
 10
310.4426489753091
 20
717.7926180877651
 30
0.0
 40
0.5
100
AcDbArc
 50
0.0000000000016284
 51
90.0
  0
LINE
  5
D6E
330
1F
100
AcDbEntity
  8
0
100
AcDbLine
 10
308.9426489753092
 20
718.2926180877651
 30
0.0
 11
310.4426489753091
 21
718.2926180877651
 31
0.0
  0
LINE
  5
D6F
330
1F
100
AcDbEntity
  8
0
100
AcDbLine
 10
310.9426489753092
 20
716.2926180877652
 30
0.0
 11
310.9426489753092
 21
717.7926180877651
 31
0.0
  0
LINE
  5
D70
330
1F
100
AcDbEntity
  8
0
100
AcDbLine
 10
310.9426489753092
 20
719.792618087765
 30
0.0
 11
310.9426489753092
 21
721.2926180877651
 31
0.0
  0
ARC
  5
D71
330
1F
100
AcDbEntity
  8
0
100
AcDbCircle
 10
310.4426489753091
 20
719.792618087765
 30
0.0
 40
0.5
100
AcDbArc
 50
270.0
 51
359.9999999999984
  0
LINE
  5
D72
330
1F
100
AcDbEntity
  8
0
100
AcDbLine
 10
308.9426489753092
 20
719.292618087765
 30
0.0
 11
310.4426489753091
 21
719.292618087765
 31
0.0
  0
LINE
  5
D73
330
1F
100
AcDbEntity
  8
0
100
AcDbLine
 10
313.9426489753092
 20
718.2926180877651
 30
0.0
 11
313.9426489753092
 21
719.2926180877651
 31
0.0
  0
ARC
  5
D75
330
1F
100
AcDbEntity
  8
0
100
AcDbCircle
 10
312.4426489753092
 20
717.7926180877651
 30
0.0
 40
0.5
100
AcDbArc
 50
90.0
 51
180.0
  0
LINE
  5
D76
330
1F
100
AcDbEntity
  8
0
100
AcDbLine
 10
311.9426489753092
 20
716.2926180877652
 30
0.0
 11
311.9426489753092
 21
717.7926180877651
 31
0.0
  0
LINE
  5
D77
330
1F
100
AcDbEntity
  8
0
100
AcDbLine
 10
312.4426489753092
 20
718.2926180877651
 30
0.0
 11
313.9426489753092
 21
718.2926180877651
 31
0.0
  0
LINE
  5
D78
330
1F
100
AcDbEntity
  8
0
100
AcDbLine
 10
311.9426489753092
 20
719.792618087765
 30
0.0
 11
311.9426489753092
 21
721.2926180877651
 31
0.0
  0
ARC
  5
D79
330
1F
100
AcDbEntity
  8
0
100
AcDbCircle
 10
312.4426489753092
 20
719.792618087765
 30
0.0
 40
0.5
100
AcDbArc
 50
179.9999999999984
 51
270.0
  0
LINE
  5
D7A
330
1F
100
AcDbEntity
  8
0
100
AcDbLine
 10
312.4426489753092
 20
719.292618087765
 30
0.0
 11
313.9426489753092
 21
719.292618087765
 31
0.0
  0
TEXT
  5
D7B
330
1F
100
AcDbEntity
  8
0
100
AcDbText
 10
322.9180397114101
 20
705.2034645456331
 30
0.0
 40
5.0
  1
A
  7
CHINESET
100
AcDbText
  0
LINE
  5
D7C
330
1F
100
AcDbEntity
  8
0
100
AcDbLine
 10
348.4426489753092
 20
719.292618087765
 30
0.0
 11
349.9426489753092
 21
719.292618087765
 31
0.0
  0
LINE
  5
D7D
330
1F
100
AcDbEntity
  8
0
100
AcDbLine
 10
348.4426489753092
 20
718.2926180877651
 30
0.0
 11
349.9426489753092
 21
718.2926180877651
 31
0.0
  0
CIRCLE
  5
D7E
330
1F
100
AcDbEntity
  8
0
100
AcDbCircle
 10
347.4426489753092
 20
718.7926180877651
 30
0.0
 40
4.325
  0
LINE
  5
D80
330
1F
100
AcDbEntity
  8
0
100
AcDbLine
 10
344.9426489753093
 20
718.2926180877651
 30
0.0
 11
344.9426489753092
 21
719.292618087765
 31
0.0
  0
ARC
  5
D82
330
1F
100
AcDbEntity
  8
0
100
AcDbCircle
 10
348.4426489753092
 20
717.7926180877651
 30
0.0
 40
0.5
100
AcDbArc
 50
90.0
 51
180.0
  0
LINE
  5
D83
330
1F
100
AcDbEntity
  8
0
100
AcDbLine
 10
347.9426489753092
 20
716.2926180877652
 30
0.0
 11
347.9426489753092
 21
717.7926180877651
 31
0.0
  0
ARC
  5
D84
330
1F
100
AcDbEntity
  8
0
100
AcDbCircle
 10
346.4426489753091
 20
717.7926180877651
 30
0.0
 40
0.5
100
AcDbArc
 50
0.0000000000016284
 51
90.0
  0
LINE
  5
D85
330
1F
100
AcDbEntity
  8
0
100
AcDbLine
 10
344.9426489753092
 20
718.2926180877651
 30
0.0
 11
346.4426489753091
 21
718.2926180877651
 31
0.0
  0
LINE
  5
D86
330
1F
100
AcDbEntity
  8
0
100
AcDbLine
 10
346.9426489753092
 20
716.2926180877652
 30
0.0
 11
346.9426489753091
 21
717.7926180877651
 31
0.0
  0
LINE
  5
D87
330
1F
100
AcDbEntity
  8
0
100
AcDbLine
 10
346.9426489753092
 20
716.2926180877652
 30
0.0
 11
347.9426489753092
 21
716.2926180877652
 31
0.0
  0
LINE
  5
D88
330
1F
100
AcDbEntity
  8
0
100
AcDbLine
 10
347.9426489753092
 20
719.792618087765
 30
0.0
 11
347.9426489753092
 21
721.2926180877651
 31
0.0
  0
LINE
  5
D89
330
1F
100
AcDbEntity
  8
0
100
AcDbLine
 10
346.9426489753091
 20
719.792618087765
 30
0.0
 11
346.9426489753092
 21
721.2926180877651
 31
0.0
  0
ARC
  5
D8A
330
1F
100
AcDbEntity
  8
0
100
AcDbCircle
 10
348.4426489753092
 20
719.792618087765
 30
0.0
 40
0.5
100
AcDbArc
 50
179.9999999999984
 51
270.0
  0
ARC
  5
D8B
330
1F
100
AcDbEntity
  8
0
100
AcDbCircle
 10
346.4426489753091
 20
719.792618087765
 30
0.0
 40
0.5
100
AcDbArc
 50
270.0
 51
359.9999999999984
  0
LINE
  5
D8C
330
1F
100
AcDbEntity
  8
0
100
AcDbLine
 10
344.9426489753092
 20
719.292618087765
 30
0.0
 11
346.4426489753091
 21
719.292618087765
 31
0.0
  0
LINE
  5
D8D
330
1F
100
AcDbEntity
  8
0
100
AcDbLine
 10
346.9426489753092
 20
721.2926180877651
 30
0.0
 11
347.9426489753092
 21
721.2926180877651
 31
0.0
  0
LINE
  5
D8E
330
1F
100
AcDbEntity
  8
0
100
AcDbLine
 10
349.9426489753092
 20
718.2926180877651
 30
0.0
 11
349.9426489753092
 21
719.2926180877651
 31
0.0
  0
LINE
  5
D8F
330
1F
100
AcDbEntity
  8
0
100
AcDbLine
 10
310.9426489753092
 20
783.2926180877652
 30
0.0
 11
311.9426489753092
 21
783.2926180877652
 31
0.0
  0
LINE
  5
D90
330
1F
100
AcDbEntity
  8
0
100
AcDbLine
 10
310.9426489753092
 20
778.2926180877652
 30
0.0
 11
311.9426489753092
 21
778.2926180877652
 31
0.0
  0
CIRCLE
  5
D91
330
1F
100
AcDbEntity
  8
0
100
AcDbCircle
 10
311.4426489753092
 20
780.7926180877651
 30
0.0
 40
4.325
  0
LINE
  5
D93
330
1F
100
AcDbEntity
  8
0
100
AcDbLine
 10
310.9426489753092
 20
778.2926180877652
 30
0.0
 11
310.9426489753092
 21
779.7926180877651
 31
0.0
  0
LINE
  5
D94
330
1F
100
AcDbEntity
  8
0
100
AcDbLine
 10
308.9426489753093
 20
780.2926180877651
 30
0.0
 11
308.9426489753092
 21
781.292618087765
 31
0.0
  0
LINE
  5
D95
330
1F
100
AcDbEntity
  8
0
100
AcDbLine
 10
308.9426489753092
 20
781.292618087765
 30
0.0
 11
310.4426489753091
 21
781.292618087765
 31
0.0
  0
LINE
  5
D96
330
1F
100
AcDbEntity
  8
0
100
AcDbLine
 10
308.9426489753092
 20
780.2926180877651
 30
0.0
 11
310.4426489753091
 21
780.2926180877651
 31
0.0
  0
ARC
  5
D97
330
1F
100
AcDbEntity
  8
0
100
AcDbCircle
 10
310.4426489753091
 20
781.792618087765
 30
0.0
 40
0.5
100
AcDbArc
 50
270.0
 51
359.9999999999984
  0
ARC
  5
D98
330
1F
100
AcDbEntity
  8
0
100
AcDbCircle
 10
310.4426489753091
 20
779.7926180877651
 30
0.0
 40
0.5
100
AcDbArc
 50
0.0000000000016284
 51
90.0
  0
LINE
  5
D99
330
1F
100
AcDbEntity
  8
0
100
AcDbLine
 10
310.9426489753092
 20
781.792618087765
 30
0.0
 11
310.9426489753092
 21
783.2926180877652
 31
0.0
  0
LINE
  5
D9A
330
1F
100
AcDbEntity
  8
0
100
AcDbLine
 10
311.9426489753092
 20
778.2926180877652
 30
0.0
 11
311.9426489753092
 21
779.7926180877651
 31
0.0
  0
LINE
  5
D9C
330
1F
100
AcDbEntity
  8
0
100
AcDbLine
 10
313.9426489753092
 20
780.2926180877651
 30
0.0
 11
313.9426489753092
 21
781.2926180877651
 31
0.0
  0
LINE
  5
D9D
330
1F
100
AcDbEntity
  8
0
100
AcDbLine
 10
312.4426489753092
 20
781.292618087765
 30
0.0
 11
313.9426489753092
 21
781.292618087765
 31
0.0
  0
ARC
  5
D9E
330
1F
100
AcDbEntity
  8
0
100
AcDbCircle
 10
312.4426489753092
 20
781.792618087765
 30
0.0
 40
0.5
100
AcDbArc
 50
179.9999999999984
 51
270.0
  0
LINE
  5
D9F
330
1F
100
AcDbEntity
  8
0
100
AcDbLine
 10
312.4426489753092
 20
780.2926180877651
 30
0.0
 11
313.9426489753092
 21
780.2926180877651
 31
0.0
  0
ARC
  5
DA0
330
1F
100
AcDbEntity
  8
0
100
AcDbCircle
 10
312.4426489753092
 20
779.7926180877651
 30
0.0
 40
0.5
100
AcDbArc
 50
90.0
 51
180.0
  0
LINE
  5
DA1
330
1F
100
AcDbEntity
  8
0
100
AcDbLine
 10
311.9426489753092
 20
781.792618087765
 30
0.0
 11
311.9426489753092
 21
783.2926180877652
 31
0.0
  0
LINE
  5
DA2
330
1F
100
AcDbEntity
  8
0
100
AcDbLine
 10
322.4426489753092
 20
751.2926180877651
 30
0.0
 11
316.4426489753092
 21
749.7926180877652
 31
0.0
  0
LINE
  5
DA3
330
1F
100
AcDbEntity
  8
0
100
AcDbLine
 10
322.4426489753092
 20
748.2926180877651
 30
0.0
 11
322.4426489753092
 21
751.2926180877651
 31
0.0
  0
LINE
  5
DA4
330
1F
100
AcDbEntity
  8
0
100
AcDbLine
 10
316.4426489753092
 20
749.7926180877652
 30
0.0
 11
322.4426489753092
 21
748.2926180877651
 31
0.0
  0
LINE
  5
DA5
330
1F
100
AcDbEntity
  8
0
100
AcDbLine
 10
348.4426489753092
 20
781.292618087765
 30
0.0
 11
349.9426489753092
 21
781.292618087765
 31
0.0
  0
LINE
  5
DA6
330
1F
100
AcDbEntity
  8
0
100
AcDbLine
 10
348.4426489753092
 20
780.2926180877651
 30
0.0
 11
349.9426489753092
 21
780.2926180877651
 31
0.0
  0
CIRCLE
  5
DA7
330
1F
100
AcDbEntity
  8
0
100
AcDbCircle
 10
347.4426489753092
 20
780.7926180877651
 30
0.0
 40
4.325
  0
LINE
  5
DA9
330
1F
100
AcDbEntity
  8
0
100
AcDbLine
 10
347.9426489753092
 20
778.2926180877652
 30
0.0
 11
347.9426489753092
 21
779.7926180877651
 31
0.0
  0
LINE
  5
DAA
330
1F
100
AcDbEntity
  8
0
100
AcDbLine
 10
346.9426489753092
 20
778.2926180877652
 30
0.0
 11
346.9426489753091
 21
779.7926180877651
 31
0.0
  0
LINE
  5
DAC
330
1F
100
AcDbEntity
  8
0
100
AcDbLine
 10
346.9426489753092
 20
778.2926180877652
 30
0.0
 11
347.9426489753092
 21
778.2926180877652
 31
0.0
  0
LINE
  5
DAD
330
1F
100
AcDbEntity
  8
0
100
AcDbLine
 10
347.9426489753092
 20
781.792618087765
 30
0.0
 11
347.9426489753092
 21
783.2926180877652
 31
0.0
  0
LINE
  5
DAE
330
1F
100
AcDbEntity
  8
0
100
AcDbLine
 10
346.9426489753091
 20
781.792618087765
 30
0.0
 11
346.9426489753092
 21
783.2926180877652
 31
0.0
  0
ARC
  5
DAF
330
1F
100
AcDbEntity
  8
0
100
AcDbCircle
 10
348.4426489753092
 20
781.792618087765
 30
0.0
 40
0.5
100
AcDbArc
 50
179.9999999999984
 51
270.0
  0
ARC
  5
DB0
330
1F
100
AcDbEntity
  8
0
100
AcDbCircle
 10
346.4426489753091
 20
781.792618087765
 30
0.0
 40
0.5
100
AcDbArc
 50
270.0
 51
359.9999999999984
  0
LINE
  5
DB1
330
1F
100
AcDbEntity
  8
0
100
AcDbLine
 10
344.9426489753092
 20
781.292618087765
 30
0.0
 11
346.4426489753091
 21
781.292618087765
 31
0.0
  0
LINE
  5
DB2
330
1F
100
AcDbEntity
  8
0
100
AcDbLine
 10
346.9426489753092
 20
783.2926180877652
 30
0.0
 11
347.9426489753092
 21
783.2926180877652
 31
0.0
  0
ARC
  5
DB3
330
1F
100
AcDbEntity
  8
0
100
AcDbCircle
 10
348.4426489753092
 20
779.7926180877651
 30
0.0
 40
0.5
100
AcDbArc
 50
90.0
 51
180.0
  0
ARC
  5
DB4
330
1F
100
AcDbEntity
  8
0
100
AcDbCircle
 10
346.4426489753091
 20
779.7926180877651
 30
0.0
 40
0.5
100
AcDbArc
 50
0.0000000000016284
 51
90.0
  0
LINE
  5
DB5
330
1F
100
AcDbEntity
  8
0
100
AcDbLine
 10
344.9426489753092
 20
780.2926180877651
 30
0.0
 11
346.4426489753091
 21
780.2926180877651
 31
0.0
  0
LINE
  5
DB6
330
1F
100
AcDbEntity
  8
0
100
AcDbLine
 10
344.9426489753093
 20
780.2926180877651
 30
0.0
 11
344.9426489753092
 21
781.292618087765
 31
0.0
  0
LINE
  5
DB7
330
1F
100
AcDbEntity
  8
0
100
AcDbLine
 10
349.9426489753092
 20
780.2926180877651
 30
0.0
 11
349.9426489753092
 21
781.2926180877651
 31
0.0
  0
INSERT
  5
DB8
330
1F
100
AcDbEntity
  8
0
 62
     1
100
AcDbBlockReference
  2
*X3
 10
331.5603887313051
 20
514.2729204337528
 30
0.0
1001
ACAD
1000
HATCH
1002
{
1070
    19
1000
ANSI31
1040
1.0
1040
0.0
1002
}
  0
TEXT
  5
DB9
330
1F
100
AcDbEntity
  8
0
100
AcDbText
 10
375.6155498943981
 20
746.2027215330356
 30
0.0
 40
5.0
  1
R
  7
CHINESET
100
AcDbText
  0
INSERT
  5
DBA
330
1F
100
AcDbEntity
  8
0
 62
     1
100
AcDbBlockReference
  2
*X3
 10
558.3077614066922
 20
739.7659368287589
 30
0.0
 50
90.0
1001
ACAD
1000
HATCH
1002
{
1070
    19
1000
ANSI31
1040
1.0
1040
1.570796326794896
1002
}
  0
TEXT
  5
DBB
330
1F
100
AcDbEntity
  8
0
100
AcDbText
 10
333.7617446812064
 20
787.9459348787227
 30
0.0
 40
5.0
  1
B
  7
CHINESET
100
AcDbText
  0
LINE
  5
DBC
330
1F
100
AcDbEntity
  8
center
  6
CENTER
100
AcDbLine
 10
210.9438663809355
 20
676.5991442993997
 30
0.0
 11
210.9438663809355
 21
567.6732055435549
 31
0.0
  0
ARC
  5
DBD
330
1F
100
AcDbEntity
  8
0
100
AcDbCircle
 10
237.9438663809354
 20
605.5874029712491
 30
0.0
 40
1.0
100
AcDbArc
 50
90.0
 51
180.0
  0
LINE
  5
DBE
330
1F
100
AcDbEntity
  8
0
100
AcDbLine
 10
236.9438663809354
 20
605.5874029712491
 30
0.0
 11
236.9438663809354
 21
602.5874029712491
 31
0.0
  0
LINE
  5
DBF
330
1F
100
AcDbEntity
  8
0
100
AcDbLine
 10
237.9438663809354
 20
606.5874029712492
 30
0.0
 11
245.9438663809355
 21
606.5874029712492
 31
0.0
  0
ARC
  5
DC0
330
1F
100
AcDbEntity
  8
0
100
AcDbCircle
 10
245.9438663809355
 20
605.5874029712491
 30
0.0
 40
1.0
100
AcDbArc
 50
0.0
 51
90.0
  0
LINE
  5
DC1
330
1F
100
AcDbEntity
  8
0
100
AcDbLine
 10
246.9438663809355
 20
605.5874029712491
 30
0.0
 11
246.9438663809354
 21
602.570618927869
 31
0.0
  0
LINE
  5
DC2
330
1F
100
AcDbEntity
  8
0
100
AcDbLine
 10
227.4438663809355
 20
646.5874029712495
 30
0.0
 11
225.7573763645067
 21
658.5874029712495
 31
0.0
  0
LINE
  5
DC3
330
1F
100
AcDbEntity
  8
0
100
AcDbLine
 10
194.4438663809355
 20
641.5874029712495
 30
0.0
 11
227.4438663809355
 21
641.5874029712495
 31
0.0
  0
LINE
  5
DC4
330
1F
100
AcDbEntity
  8
0
100
AcDbLine
 10
194.4438663809355
 20
646.5874029712495
 30
0.0
 11
227.4438663809355
 21
646.5874029712495
 31
0.0
  0
LINE
  5
DC5
330
1F
100
AcDbEntity
  8
0
100
AcDbLine
 10
197.7438663809354
 20
640.5874029712493
 30
0.0
 11
224.1438663809355
 21
640.5874029712495
 31
0.0
  0
LINE
  5
DC6
330
1F
100
AcDbEntity
  8
0
100
AcDbLine
 10
196.1303563973641
 20
658.5874029712496
 30
0.0
 11
225.7573763645067
 21
658.5874029712495
 31
0.0
  0
LINE
  5
DC7
330
1F
100
AcDbEntity
  8
0
100
AcDbLine
 10
194.4438663809355
 20
651.5874029712494
 30
0.0
 11
194.4438663809355
 21
641.5874029712495
 31
0.0
  0
TEXT
  5
DC8
330
1F
100
AcDbEntity
  8
0
100
AcDbText
 10
204.4300723786169
 20
640.2971010526528
 30
0.0
 40
2.5
  1
B
 50
180.0
  7
CHINESET
100
AcDbText
  0
LINE
  5
DC9
330
1F
100
AcDbEntity
  8
0
100
AcDbLine
 10
204.4438663809354
 20
641.5874029712495
 30
0.0
 11
204.4438663809354
 21
640.5874029712493
 31
0.0
  0
LINE
  5
DCA
330
1F
100
AcDbEntity
  8
0
100
AcDbLine
 10
194.4438663809355
 20
646.5874029712495
 30
0.0
 11
196.1303563973641
 21
658.5874029712495
 31
0.0
  0
LINE
  5
DCB
330
1F
100
AcDbEntity
  8
0
100
AcDbLine
 10
195.1465705544475
 20
651.5874029712494
 30
0.0
 11
194.4438663809355
 21
651.5874029712494
 31
0.0
  0
TEXT
  5
DCC
330
1F
100
AcDbEntity
  8
0
100
AcDbText
 10
211.8255163433204
 20
640.2971010526528
 30
0.0
 40
2.5
  1
N
 50
180.0
  7
CHINESET
100
AcDbText
  0
TEXT
  5
DCD
330
1F
100
AcDbEntity
  8
0
100
AcDbText
 10
220.430072378617
 20
640.2971010526528
 30
0.0
 40
2.5
  1
A
 50
180.0
  7
CHINESET
100
AcDbText
  0
LINE
  5
DCE
330
1F
100
AcDbEntity
  8
0
100
AcDbLine
 10
217.4438663809355
 20
641.5874029712495
 30
0.0
 11
217.4438663809355
 21
640.5874029712495
 31
0.0
  0
LINE
  5
DCF
330
1F
100
AcDbEntity
  8
0
100
AcDbLine
 10
227.4438663809355
 20
646.5874029712495
 30
0.0
 11
227.4438663809355
 21
641.5874029712495
 31
0.0
  0
DIMENSION
  5
DD0
330
1F
100
AcDbEntity
  8
dim
100
AcDbDimension
  2
*D4
 10
455.5126806045572
 20
675.181596328317
 30
0.0
 11
452.2269663188428
 21
622.2844996497833
 31
0.0
 70
    32
  1
{(<>)}
 71
     5
 42
105.7941933570675
  3
STANDARD
100
AcDbAlignedDimension
 13
366.4426489753093
 23
569.3874029712494
 33
0.0
 14
435.2216481821449
 24
675.181596328317
 34
0.0
 50
270.0
100
AcDbRotatedDimension
1001
ACAD
1000
DSTYLE
1002
{
1070
   271
1070
     0
1002
}
  0
LINE
  5
DD1
330
1F
100
AcDbEntity
  8
0
100
AcDbLine
 10
174.4438663809354
 20
596.5874029712495
 30
0.0
 11
247.4438663809355
 21
596.5874029712495
 31
0.0
  0
LINE
  5
DD2
330
1F
100
AcDbEntity
  8
0
100
AcDbLine
 10
175.4438663809354
 20
602.5874029712495
 30
0.0
 11
246.4438663809354
 21
602.587402971249
 31
0.0
  0
LINE
  5
DD3
330
1F
100
AcDbEntity
  8
0
100
AcDbLine
 10
174.4438663809354
 20
596.5874029712495
 30
0.0
 11
174.4438663809354
 21
601.5874029712494
 31
0.0
  0
LINE
  5
DD4
330
1F
100
AcDbEntity
  8
0
100
AcDbLine
 10
247.4438663809355
 20
596.5874029712495
 30
0.0
 11
247.4438663809355
 21
601.5874029712494
 31
0.0
  0
LINE
  5
DD5
330
1F
100
AcDbEntity
  8
0
100
AcDbLine
 10
183.9438663809354
 20
625.5874029712495
 30
0.0
 11
237.9438663809354
 21
625.5874029712495
 31
0.0
  0
LINE
  5
DD6
330
1F
100
AcDbEntity
  8
0
100
AcDbLine
 10
182.9438663809354
 20
604.5874029712495
 30
0.0
 11
182.9438663809354
 21
624.5874029712495
 31
0.0
  0
LINE
  5
DD7
330
1F
100
AcDbEntity
  8
0
100
AcDbLine
 10
238.9438663809354
 20
604.5874029712495
 30
0.0
 11
238.9438663809354
 21
624.5874029712495
 31
0.0
  0
ARC
  5
DD8
330
1F
100
AcDbEntity
  8
0
100
AcDbCircle
 10
237.9438663809354
 20
624.5874029712495
 30
0.0
 40
1.0
100
AcDbArc
 50
0.0
 51
90.0
  0
ARC
  5
DD9
330
1F
100
AcDbEntity
  8
0
100
AcDbCircle
 10
183.9438663809354
 20
624.5874029712495
 30
0.0
 40
1.0
100
AcDbArc
 50
90.0
 51
180.0
  0
LINE
  5
DDA
330
1F
100
AcDbEntity
  8
0
100
AcDbLine
 10
191.9438663809354
 20
625.5874029712495
 30
0.0
 11
191.9438663809354
 21
637.7302601141066
 31
0.0
  0
LINE
  5
DDB
330
1F
100
AcDbEntity
  8
0
100
AcDbLine
 10
229.9438663809354
 20
625.5874029712495
 30
0.0
 11
229.9438663809354
 21
637.7302601141066
 31
0.0
  0
LINE
  5
DDC
330
1F
100
AcDbEntity
  8
0
100
AcDbLine
 10
194.4438663809354
 20
640.5874029712495
 30
0.0
 11
227.4438663809354
 21
640.5874029712495
 31
0.0
  0
LINE
  5
DDD
330
1F
100
AcDbEntity
  8
0
100
AcDbLine
 10
194.4438663809354
 20
640.5874029712495
 30
0.0
 11
191.9438663809354
 21
637.7302601141066
 31
0.0
  0
LINE
  5
DDE
330
1F
100
AcDbEntity
  8
0
100
AcDbLine
 10
227.4438663809354
 20
640.5874029712495
 30
0.0
 11
229.9438663809354
 21
637.7302601141066
 31
0.0
  0
LINE
  5
DDF
330
1F
100
AcDbEntity
  8
0
100
AcDbLine
 10
312.9426489753092
 20
640.3874029712494
 30
0.0
 11
345.9426489753092
 21
640.3874029712494
 31
0.0
  0
LINE
  5
DE0
330
1F
100
AcDbEntity
  8
0
100
AcDbLine
 10
301.4426489753092
 20
604.3874029712494
 30
0.0
 11
301.4426489753092
 21
616.3874029712493
 31
0.0
  0
LINE
  5
DE1
330
1F
100
AcDbEntity
  8
0
100
AcDbLine
 10
309.4426489753092
 20
627.3874029712494
 30
0.0
 11
309.4426489753092
 21
636.3874029712494
 31
0.0
  0
LINE
  5
DE2
330
1F
100
AcDbEntity
  8
0
100
AcDbLine
 10
312.9426489753092
 20
640.3874029712494
 30
0.0
 11
309.4426489753092
 21
636.3874029712494
 31
0.0
  0
LINE
  5
DE3
330
1F
100
AcDbEntity
  8
0
100
AcDbLine
 10
357.4426489753092
 20
604.3874029712494
 30
0.0
 11
357.4426489753092
 21
616.3874029712497
 31
0.0
  0
LINE
  5
DE4
330
1F
100
AcDbEntity
  8
0
100
AcDbLine
 10
349.4426489753092
 20
627.3874029712494
 30
0.0
 11
349.4426489753092
 21
636.3874029712497
 31
0.0
  0
LINE
  5
DE5
330
1F
100
AcDbEntity
  8
0
100
AcDbLine
 10
345.9426489753092
 20
640.3874029712494
 30
0.0
 11
349.4426489753092
 21
636.3874029712495
 31
0.0
  0
LINE
  5
DE6
330
1F
100
AcDbEntity
  8
0
100
AcDbLine
 10
296.4426489753092
 20
596.3874029712494
 30
0.0
 11
296.4426489753092
 21
601.3874029712495
 31
0.0
  0
LINE
  5
DE7
330
1F
100
AcDbEntity
  8
0
100
AcDbLine
 10
362.4426489753092
 20
596.3874029712494
 30
0.0
 11
362.4426489753092
 21
601.3874029712495
 31
0.0
  0
ARC
  5
DE8
330
1F
100
AcDbEntity
  8
0
100
AcDbCircle
 10
297.4426489753092
 20
601.3874029712495
 30
0.0
 40
1.0
100
AcDbArc
 50
90.0
 51
180.0
  0
ARC
  5
DE9
330
1F
100
AcDbEntity
  8
0
100
AcDbCircle
 10
361.4426489753092
 20
601.3874029712495
 30
0.0
 40
1.0
100
AcDbArc
 50
0.0
 51
90.0
  0
LINE
  5
DEA
330
1F
100
AcDbEntity
  8
0
100
AcDbLine
 10
301.4426489753092
 20
616.3874029712494
 30
0.0
 11
306.4426489753092
 21
625.3874029712494
 31
0.0
  0
LINE
  5
DEB
330
1F
100
AcDbEntity
  8
0
100
AcDbLine
 10
352.4426489753092
 20
625.3874029712494
 30
0.0
 11
357.4426489753092
 21
616.3874029712494
 31
0.0
  0
LINE
  5
DEC
330
1F
100
AcDbEntity
  8
0
100
AcDbLine
 10
234.9438663809355
 20
625.5874029712495
 30
0.0
 11
234.9438663809355
 21
627.0874029712494
 31
0.0
  0
LINE
  5
DED
330
1F
100
AcDbEntity
  8
0
100
AcDbLine
 10
237.9438663809354
 20
625.5874029712495
 30
0.0
 11
237.9438663809354
 21
627.0874029712494
 31
0.0
  0
LINE
  5
DEE
330
1F
100
AcDbEntity
  8
0
100
AcDbLine
 10
234.9438663809355
 20
627.0874029712494
 30
0.0
 11
237.9438663809354
 21
627.0874029712494
 31
0.0
  0
LINE
  5
DEF
330
1F
100
AcDbEntity
  8
0
100
AcDbLine
 10
183.9438663809354
 20
625.5874029712495
 30
0.0
 11
183.9438663809354
 21
627.0874029712494
 31
0.0
  0
LINE
  5
DF0
330
1F
100
AcDbEntity
  8
0
100
AcDbLine
 10
186.9438663809354
 20
625.5874029712495
 30
0.0
 11
186.9438663809354
 21
627.0874029712494
 31
0.0
  0
LINE
  5
DF1
330
1F
100
AcDbEntity
  8
0
100
AcDbLine
 10
183.9438663809354
 20
627.0874029712494
 30
0.0
 11
186.9438663809354
 21
627.0874029712494
 31
0.0
  0
ARC
  5
DF2
330
1F
100
AcDbEntity
  8
0
100
AcDbCircle
 10
246.4438663809354
 20
601.5874029712494
 30
0.0
 40
1.0
100
AcDbArc
 50
0.0
 51
90.0
  0
ARC
  5
DF3
330
1F
100
AcDbEntity
  8
0
100
AcDbCircle
 10
175.4438663809354
 20
601.5874029712494
 30
0.0
 40
1.0
100
AcDbArc
 50
90.0
 51
180.0
  0
LINE
  5
DF4
330
1F
100
AcDbEntity
  8
0
100
AcDbLine
 10
305.4426489753092
 20
718.2926180877651
 30
0.0
 11
305.4426489753092
 21
727.1431147819529
 31
0.0
  0
LINE
  5
DF5
330
1F
100
AcDbEntity
  8
0
100
AcDbLine
 10
353.4426489753092
 20
718.2926180877651
 30
0.0
 11
353.4426489753092
 21
727.1431147819529
 31
0.0
  0
LINE
  5
DF6
330
1F
100
AcDbEntity
  8
0
100
AcDbLine
 10
348.4426489753092
 20
713.2926180877651
 30
0.0
 11
310.4426489753092
 21
713.2926180877651
 31
0.0
  0
LINE
  5
DF7
330
1F
100
AcDbEntity
  8
0
100
AcDbLine
 10
348.4426489753092
 20
786.2926180877651
 30
0.0
 11
310.4426489753092
 21
786.2926180877651
 31
0.0
  0
ARC
  5
DF8
330
1F
100
AcDbEntity
  8
0
100
AcDbCircle
 10
329.4426489753092
 20
749.7926180877652
 30
0.0
 40
33.0
100
AcDbArc
 50
316.6582417727777
 51
351.7241333300971
  0
ARC
  5
DF9
330
1F
100
AcDbEntity
  8
0
100
AcDbCircle
 10
329.4426489753092
 20
749.7926180877652
 30
0.0
 40
33.0
100
AcDbArc
 50
136.6582417727777
 51
223.3417582272223
  0
LINE
  5
DFA
330
1F
100
AcDbEntity
  8
0
100
AcDbLine
 10
305.4426489753092
 20
772.4421213935774
 30
0.0
 11
305.4426489753092
 21
781.2926180877651
 31
0.0
  0
LINE
  5
DFB
330
1F
100
AcDbEntity
  8
0
100
AcDbLine
 10
353.4426489753092
 20
772.4421213935774
 30
0.0
 11
353.4426489753092
 21
781.2926180877651
 31
0.0
  0
ARC
  5
DFC
330
1F
100
AcDbEntity
  8
0
100
AcDbCircle
 10
329.4426489753092
 20
749.7926180877652
 30
0.0
 40
28.0
100
AcDbArc
 50
9.767054672423556
 51
350.2329453275764
  0
ARC
  5
DFD
330
1F
100
AcDbEntity
  8
0
100
AcDbCircle
 10
329.4426489753092
 20
749.7926180877652
 30
0.0
 40
23.0
100
AcDbArc
 50
290.3544063982362
 51
348.0814052691345
  0
LINE
  5
DFE
330
1F
100
AcDbEntity
  8
0
100
AcDbLine
 10
321.4426489753092
 20
722.9598023577676
 30
0.0
 11
321.4426489753092
 21
728.2287594349173
 31
0.0
  0
LINE
  5
DFF
330
1F
100
AcDbEntity
  8
0
100
AcDbLine
 10
337.4426489753092
 20
722.9598023577676
 30
0.0
 11
337.4426489753092
 21
728.2287594349173
 31
0.0
  0
LINE
  5
E00
330
1F
100
AcDbEntity
  8
0
100
AcDbLine
 10
321.4426489753092
 20
771.3564767406129
 30
0.0
 11
321.4426489753092
 21
776.6254338177626
 31
0.0
  0
LINE
  5
E01
330
1F
100
AcDbEntity
  8
0
100
AcDbLine
 10
337.4426489753092
 20
771.3564767406129
 30
0.0
 11
337.4426489753092
 21
776.6254338177626
 31
0.0
  0
ARC
  5
E02
330
1F
100
AcDbEntity
  8
0
100
AcDbCircle
 10
329.4426489753092
 20
749.7926180877652
 30
0.0
 40
23.0
100
AcDbArc
 50
110.3544063982376
 51
249.6455936017623
  0
CIRCLE
  5
E03
330
1F
100
AcDbEntity
  8
0
100
AcDbCircle
 10
329.4426489753092
 20
724.2926180877652
 30
0.0
 40
1.5
  0
CIRCLE
  5
E04
330
1F
100
AcDbEntity
  8
0
100
AcDbCircle
 10
329.4426489753092
 20
775.2926180877651
 30
0.0
 40
1.5
  0
ARC
  5
E05
330
1F
100
AcDbEntity
  8
0
100
AcDbCircle
 10
329.4426489753092
 20
749.7926180877652
 30
0.0
 40
20.0
100
AcDbArc
 50
108.1948723387669
 51
251.8051276612331
  0
LINE
  5
E06
330
1F
100
AcDbEntity
  8
0
100
AcDbLine
 10
335.6876469737076
 20
730.7926180877651
 30
0.0
 11
323.1976509769107
 21
730.7926180877651
 31
0.0
  0
LINE
  5
E07
330
1F
100
AcDbEntity
  8
0
100
AcDbLine
 10
335.6876469737076
 20
768.7926180877651
 30
0.0
 11
323.1976509769107
 21
768.7926180877651
 31
0.0
  0
ARC
  5
E08
330
1F
100
AcDbEntity
  8
0
100
AcDbCircle
 10
329.4426489753092
 20
749.7926180877652
 30
0.0
 40
20.0
100
AcDbArc
 50
288.194872338767
 51
346.2609648256295
  0
ARC
  5
E09
330
1F
100
AcDbEntity
  8
0
100
AcDbCircle
 10
348.4426489753092
 20
718.2926180877651
 30
0.0
 40
5.0
100
AcDbArc
 50
270.0
 51
0.0
  0
ARC
  5
E0A
330
1F
100
AcDbEntity
  8
0
100
AcDbCircle
 10
310.4426489753092
 20
718.2926180877651
 30
0.0
 40
5.0
100
AcDbArc
 50
180.0
 51
270.0
  0
ARC
  5
E0B
330
1F
100
AcDbEntity
  8
0
100
AcDbCircle
 10
310.4426489753092
 20
781.2926180877651
 30
0.0
 40
5.0
100
AcDbArc
 50
90.0
 51
180.0
  0
ARC
  5
E0C
330
1F
100
AcDbEntity
  8
0
100
AcDbCircle
 10
348.4426489753092
 20
781.2926180877651
 30
0.0
 40
5.0
100
AcDbArc
 50
0.0
 51
90.0
  0
TEXT
  5
E0D
330
1F
100
AcDbEntity
  8
0
100
AcDbText
 10
318.4182478602246
 20
737.0135814989566
 30
0.0
 40
3.0
  1
A
 50
135.0
  7
CHINESET
100
AcDbText
  0
TEXT
  5
E0E
330
1F
100
AcDbEntity
  8
0
100
AcDbText
 10
312.7401039986247
 20
748.9289539419286
 30
0.0
 40
3.0
  1
N
 50
90.0
  7
CHINESET
100
AcDbText
  0
TEXT
  5
E0F
330
1F
100
AcDbEntity
  8
0
100
AcDbText
 10
317.0331204190575
 20
761.0642437435824
 30
0.0
 40
3.0
  1
B
 50
45.0
  7
CHINESET
100
AcDbText
  0
ARC
  5
E10
330
1F
100
AcDbEntity
  8
0
100
AcDbCircle
 10
329.4426489753092
 20
749.7926180877652
 30
0.0
 40
16.5
100
AcDbArc
 50
16.73100468296897
 51
343.268995317031
  0
LINE
  5
E11
330
1F
100
AcDbEntity
  8
center
  6
CENTER
100
AcDbLine
 10
329.4426489753092
 20
791.2196008196956
 30
0.0
 11
329.4426489753092
 21
708.3656353558346
 31
0.0
  0
LINE
  5
E12
330
1F
100
AcDbEntity
  8
0
100
AcDbLine
 10
297.4426489753092
 20
602.3874029712494
 30
0.0
 11
361.4426489753092
 21
602.3874029712494
 31
0.0
  0
LINE
  5
E13
330
1F
100
AcDbEntity
  8
0
100
AcDbLine
 10
306.4426489753094
 20
625.3874029712497
 30
0.0
 11
352.4426489753092
 21
625.3874029712494
 31
0.0
  0
LINE
  5
E14
330
1F
100
AcDbEntity
  8
center
  6
CENTER
 48
0.4
100
AcDbLine
 10
185.4438663809354
 20
628.7996594341831
 30
0.0
 11
185.4438663809354
 21
623.2101327975863
 31
0.0
  0
LINE
  5
E15
330
1F
100
AcDbEntity
  8
center
  6
CENTER
 48
0.4
100
AcDbLine
 10
236.4438663809354
 20
628.7996594341831
 30
0.0
 11
236.4438663809354
 21
623.2101327975863
 31
0.0
  0
LINE
  5
E16
330
1F
100
AcDbEntity
  8
0
100
AcDbLine
 10
312.2371083240216
 20
640.3403669278302
 30
0.0
 11
310.1456129318901
 21
637.95008647968
 31
0.0
  0
LINE
  5
E17
330
1F
100
AcDbEntity
  8
0
100
AcDbLine
 10
348.6926489753092
 20
627.3874029712494
 30
0.0
 11
348.6926489753092
 21
637.2445458283924
 31
0.0
  0
LINE
  5
E18
330
1F
100
AcDbEntity
  8
0
100
AcDbLine
 10
310.1926489753092
 20
627.3874029712494
 30
0.0
 11
310.1926489753092
 21
637.2445458283923
 31
0.0
  0
LINE
  5
E19
330
1F
100
AcDbEntity
  8
0
100
AcDbLine
 10
310.4426489753092
 20
625.3874029712494
 30
0.0
 11
310.4426489753092
 21
627.3874029712494
 31
0.0
  0
LINE
  5
E1A
330
1F
100
AcDbEntity
  8
0
100
AcDbLine
 10
348.4426489753092
 20
625.3874029712494
 30
0.0
 11
348.4426489753092
 21
627.3874029712494
 31
0.0
  0
LINE
  5
E1B
330
1F
100
AcDbEntity
  8
0
100
AcDbLine
 10
309.4426489753092
 20
627.3874029712494
 30
0.0
 11
349.4426489753092
 21
627.3874029712494
 31
0.0
  0
LINE
  5
E1C
330
1F
100
AcDbEntity
  8
0
100
AcDbLine
 10
309.4426489753092
 20
636.3874029712494
 30
0.0
 11
310.1926489753092
 21
636.3874029712494
 31
0.0
  0
LINE
  5
E1D
330
1F
100
AcDbEntity
  8
0
100
AcDbLine
 10
348.6926489753092
 20
636.3874029712497
 30
0.0
 11
349.4426489753092
 21
636.3874029712497
 31
0.0
  0
LINE
  5
E1E
330
1F
100
AcDbEntity
  8
0
100
AcDbLine
 10
312.613396671375
 20
640.011114623896
 30
0.0
 11
312.2371083240215
 21
640.3403669278303
 31
0.0
  0
LINE
  5
E1F
330
1F
100
AcDbEntity
  8
0
100
AcDbLine
 10
310.5219012792435
 20
637.6208341757457
 30
0.0
 11
310.14561293189
 21
637.95008647968
 31
0.0
  0
LINE
  5
E20
330
1F
100
AcDbEntity
  8
0
  6
Continuous
 62
     5
100
AcDbLine
 10
331.4426489753092
 20
775.2926180877651
 30
0.0
 11
327.4426489753092
 21
775.2926180877651
 31
0.0
  0
LINE
  5
E21
330
1F
100
AcDbEntity
  8
0
  6
Continuous
 62
     5
100
AcDbLine
 10
331.4426489753092
 20
724.2926180877652
 30
0.0
 11
327.4426489753092
 21
724.2926180877652
 31
0.0
  0
ARC
  5
E22
330
1F
100
AcDbEntity
  8
0
100
AcDbCircle
 10
180.9438663809354
 20
604.5874029712495
 30
0.0
 40
2.0
100
AcDbArc
 50
270.0
 51
0.0
  0
ARC
  5
E23
330
1F
100
AcDbEntity
  8
0
100
AcDbCircle
 10
240.9438663809354
 20
604.5874029712495
 30
0.0
 40
2.0
100
AcDbArc
 50
180.0
 51
270.0
  0
ARC
  5
E24
330
1F
100
AcDbEntity
  8
0
100
AcDbCircle
 10
359.4426489753092
 20
604.3874029712494
 30
0.0
 40
2.0
100
AcDbArc
 50
180.0
 51
270.0
  0
ARC
  5
E25
330
1F
100
AcDbEntity
  8
0
100
AcDbCircle
 10
299.4426489753092
 20
604.3874029712494
 30
0.0
 40
2.0
100
AcDbArc
 50
270.0
 51
0.0
  0
LINE
  5
E26
330
1F
100
AcDbEntity
  8
0
100
AcDbLine
 10
184.1110506509378
 20
616.5874029712495
 30
0.0
 11
237.7766821109328
 21
616.5874029712495
 31
0.0
  0
LINE
  5
E27
330
1F
100
AcDbEntity
  8
0
100
AcDbLine
 10
191.9438663809354
 20
627.5874029712495
 30
0.0
 11
229.9438663809354
 21
627.5874029712495
 31
0.0
  0
LINE
  5
E28
330
1F
100
AcDbEntity
  8
0
 62
     3
100
AcDbLine
 10
191.9438663809354
 20
636.5874029712495
 30
0.0
 11
229.9438663809354
 21
637.7302601141066
 31
0.0
  0
LINE
  5
E29
330
1F
100
AcDbEntity
  8
0
100
AcDbLine
 10
184.1110506509379
 20
616.5874029712495
 30
0.0
 11
189.3800077280877
 21
625.5874029712495
 31
0.0
  0
LINE
  5
E2A
330
1F
100
AcDbEntity
  8
0
100
AcDbLine
 10
232.5077250337832
 20
625.5874029712495
 30
0.0
 11
237.7766821109329
 21
616.5874029712495
 31
0.0
  0
LINE
  5
E2B
330
1F
100
AcDbEntity
  8
0
100
AcDbLine
 10
188.2943630751233
 20
602.5874029712493
 30
0.0
 11
188.2943630751233
 21
596.5874029712495
 31
0.0
  0
LINE
  5
E2C
330
1F
100
AcDbEntity
  8
0
100
AcDbLine
 10
233.5933696867477
 20
602.5874029712491
 30
0.0
 11
233.5933696867477
 21
596.5874029712495
 31
0.0
  0
LINE
  5
E2D
330
1F
100
AcDbEntity
  8
center
  6
CENTER
100
AcDbLine
 10
179.9438663809354
 20
608.4203700721693
 30
0.0
 11
179.9438663809354
 21
594.6189464375506
 31
0.0
  0
LINE
  5
E2E
330
1F
100
AcDbEntity
  8
center
  6
CENTER
100
AcDbLine
 10
241.9438663809355
 20
608.8125820464647
 30
0.0
 11
241.9438663809355
 21
595.87374777846
 31
0.0
  0
LINE
  5
E2F
330
1F
100
AcDbEntity
  8
0
100
AcDbLine
 10
191.9438663809354
 20
637.7302601141066
 30
0.0
 11
229.9438663809354
 21
637.7302601141066
 31
0.0
  0
LINE
  5
E30
330
1F
100
AcDbEntity
  8
0
 62
     3
100
AcDbLine
 10
191.9438663809354
 20
635.0874029712494
 30
0.0
 11
229.9438663809354
 21
636.2302601141066
 31
0.0
  0
LINE
  5
E31
330
1F
100
AcDbEntity
  8
0
 62
     3
100
AcDbLine
 10
191.9438663809354
 20
633.5874029712495
 30
0.0
 11
229.9438663809354
 21
634.7302601141066
 31
0.0
  0
LINE
  5
E32
330
1F
100
AcDbEntity
  8
0
 62
     3
100
AcDbLine
 10
191.9438663809354
 20
632.0874029712495
 30
0.0
 11
229.9438663809354
 21
633.2302601141066
 31
0.0
  0
LINE
  5
E33
330
1F
100
AcDbEntity
  8
0
 62
     3
100
AcDbLine
 10
191.9438663809354
 20
630.5874029712494
 30
0.0
 11
229.9438663809354
 21
631.7302601141066
 31
0.0
  0
LINE
  5
E34
330
1F
100
AcDbEntity
  8
0
 62
     3
100
AcDbLine
 10
191.9438663809354
 20
629.0874029712495
 30
0.0
 11
229.9438663809354
 21
630.2302601141065
 31
0.0
  0
LINE
  5
E35
330
1F
100
AcDbEntity
  8
0
 62
     3
100
AcDbLine
 10
191.9889587740832
 20
627.5880808990848
 30
0.0
 11
229.9438663809354
 21
628.729581879742
 31
0.0
  0
LINE
  5
E36
330
1F
100
AcDbEntity
  8
0
100
AcDbLine
 10
360.4426489753092
 20
712.7926180877651
 30
0.0
 11
298.4426489753094
 21
712.7926180877651
 31
0.0
  0
LINE
  5
E37
330
1F
100
AcDbEntity
  8
0
100
AcDbLine
 10
360.4426489753092
 20
786.7926180877652
 30
0.0
 11
298.4426489753092
 21
786.7926180877652
 31
0.0
  0
LINE
  5
E38
330
1F
100
AcDbEntity
  8
0
100
AcDbLine
 10
366.4426489753092
 20
718.7926180877651
 30
0.0
 11
366.4426489753092
 21
745.0426180877651
 31
0.0
  0
LINE
  5
E39
330
1F
100
AcDbEntity
  8
0
100
AcDbLine
 10
292.4426489753093
 20
718.792618087765
 30
0.0
 11
292.4426489753092
 21
780.7926180877651
 31
0.0
  0
LINE
  5
E3A
330
1F
100
AcDbEntity
  8
0
100
AcDbLine
 10
365.9426489753092
 20
719.2926180877651
 30
0.0
 11
365.9426489753092
 21
745.0426180877651
 31
0.0
  0
LINE
  5
E3B
330
1F
100
AcDbEntity
  8
0
100
AcDbLine
 10
292.9426489753093
 20
719.292618087765
 30
0.0
 11
292.9426489753093
 21
780.2926180877651
 31
0.0
  0
LINE
  5
E3C
330
1F
100
AcDbEntity
  8
0
100
AcDbLine
 10
359.9426489753092
 20
713.2926180877651
 30
0.0
 11
298.9426489753093
 21
713.292618087765
 31
0.0
  0
LINE
  5
E3D
330
1F
100
AcDbEntity
  8
0
100
AcDbLine
 10
359.9426489753092
 20
786.2926180877651
 30
0.0
 11
298.9426489753093
 21
786.2926180877651
 31
0.0
  0
LINE
  5
E3E
330
1F
100
AcDbEntity
  8
0
100
AcDbLine
 10
349.4426489753092
 20
712.7926180877651
 30
0.0
 11
349.4426489753092
 21
713.2926180877651
 31
0.0
  0
LINE
  5
E3F
330
1F
100
AcDbEntity
  8
0
100
AcDbLine
 10
309.4426489753092
 20
712.7926180877651
 30
0.0
 11
309.4426489753092
 21
713.2926180877651
 31
0.0
  0
LINE
  5
E40
330
1F
100
AcDbEntity
  8
0
100
AcDbLine
 10
366.4426489753092
 20
729.7926180877651
 30
0.0
 11
365.9426489753092
 21
729.7926180877651
 31
0.0
  0
LINE
  5
E41
330
1F
100
AcDbEntity
  8
0
100
AcDbLine
 10
366.4426489753092
 20
769.7926180877652
 30
0.0
 11
365.9426489753092
 21
769.7926180877652
 31
0.0
  0
LINE
  5
E42
330
1F
100
AcDbEntity
  8
0
100
AcDbLine
 10
309.4426489753093
 20
786.2926180877651
 30
0.0
 11
309.4426489753092
 21
786.7926180877652
 31
0.0
  0
LINE
  5
E43
330
1F
100
AcDbEntity
  8
0
100
AcDbLine
 10
349.4426489753093
 20
786.2926180877651
 30
0.0
 11
349.4426489753092
 21
786.7926180877652
 31
0.0
  0
LINE
  5
E44
330
1F
100
AcDbEntity
  8
0
100
AcDbLine
 10
292.9426489753092
 20
769.7926180877652
 30
0.0
 11
292.4426489753092
 21
769.7926180877652
 31
0.0
  0
LINE
  5
E45
330
1F
100
AcDbEntity
  8
0
100
AcDbLine
 10
292.9426489753094
 20
729.7926180877651
 30
0.0
 11
292.4426489753093
 21
729.7926180877651
 31
0.0
  0
CIRCLE
  5
E46
330
1F
100
AcDbEntity
  8
0
100
AcDbCircle
 10
360.4426489753092
 20
718.7926180877651
 30
0.0
 40
3.5
  0
CIRCLE
  5
E47
330
1F
100
AcDbEntity
  8
0
100
AcDbCircle
 10
298.4426489753092
 20
718.7926180877651
 30
0.0
 40
3.5
  0
CIRCLE
  5
E48
330
1F
100
AcDbEntity
  8
0
100
AcDbCircle
 10
298.4426489753092
 20
780.7926180877651
 30
0.0
 40
3.5
  0
CIRCLE
  5
E49
330
1F
100
AcDbEntity
  8
0
100
AcDbCircle
 10
360.4426489753092
 20
780.7926180877651
 30
0.0
 40
3.5
  0
ARC
  5
E4A
330
1F
100
AcDbEntity
  8
0
100
AcDbCircle
 10
360.4426489753092
 20
718.7926180877651
 30
0.0
 40
6.0
100
AcDbArc
 50
270.0
 51
0.0
  0
ARC
  5
E4B
330
1F
100
AcDbEntity
  8
0
100
AcDbCircle
 10
360.4426489753092
 20
780.7926180877651
 30
0.0
 40
6.0
100
AcDbArc
 50
0.0
 51
90.0
  0
ARC
  5
E4C
102
{ACAD_REACTORS
330
1007
102
}
330
1F
100
AcDbEntity
  8
0
100
AcDbCircle
 10
298.4426489753092
 20
780.7926180877651
 30
0.0
 40
6.0
100
AcDbArc
 50
90.0
 51
180.0
  0
ARC
  5
E4D
102
{ACAD_REACTORS
330
1007
102
}
330
1F
100
AcDbEntity
  8
0
100
AcDbCircle
 10
298.4426489753094
 20
718.792618087765
 30
0.0
 40
6.0
100
AcDbArc
 50
180.0
 51
270.0
  0
ARC
  5
E4E
330
1F
100
AcDbEntity
  8
0
100
AcDbCircle
 10
359.9426489753092
 20
719.2926180877651
 30
0.0
 40
6.0
100
AcDbArc
 50
270.0
 51
0.0
  0
ARC
  5
E4F
330
1F
100
AcDbEntity
  8
0
100
AcDbCircle
 10
359.9426489753092
 20
780.2926180877651
 30
0.0
 40
6.0
100
AcDbArc
 50
0.0
 51
90.0
  0
ARC
  5
E50
330
1F
100
AcDbEntity
  8
0
100
AcDbCircle
 10
298.9426489753093
 20
780.2926180877651
 30
0.0
 40
6.0
100
AcDbArc
 50
90.0
 51
180.0
  0
ARC
  5
E51
330
1F
100
AcDbEntity
  8
0
100
AcDbCircle
 10
298.9426489753093
 20
719.292618087765
 30
0.0
 40
6.0
100
AcDbArc
 50
180.0
 51
270.0
  0
LINE
  5
E52
330
1F
100
AcDbEntity
  8
0
  6
Continuous
 62
     1
100
AcDbLine
 10
299.4426489753092
 20
718.7926180877651
 30
0.0
 11
297.4426489753092
 21
718.7926180877651
 31
0.0
  0
LINE
  5
E53
330
1F
100
AcDbEntity
  8
0
  6
Continuous
 62
     1
100
AcDbLine
 10
298.4426489753092
 20
719.7926180877651
 30
0.0
 11
298.4426489753092
 21
717.7926180877651
 31
0.0
  0
LINE
  5
E54
330
1F
100
AcDbEntity
  8
0
  6
Continuous
 62
     1
100
AcDbLine
 10
300.4426489753092
 20
718.7926180877651
 30
0.0
 11
302.9426489753092
 21
718.7926180877651
 31
0.0
  0
LINE
  5
E55
102
{ACAD_REACTORS
330
FD4
102
}
330
1F
100
AcDbEntity
  8
0
  6
Continuous
 62
     1
100
AcDbLine
 10
296.4426489753092
 20
718.7926180877651
 30
0.0
 11
293.9426489753092
 21
718.7926180877651
 31
0.0
  0
LINE
  5
E56
330
1F
100
AcDbEntity
  8
0
  6
Continuous
 62
     1
100
AcDbLine
 10
298.4426489753092
 20
720.7926180877652
 30
0.0
 11
298.4426489753092
 21
723.2926180877651
 31
0.0
  0
LINE
  5
E57
330
1F
100
AcDbEntity
  8
0
  6
Continuous
 62
     1
100
AcDbLine
 10
298.4426489753092
 20
716.7926180877651
 30
0.0
 11
298.4426489753092
 21
714.2926180877651
 31
0.0
  0
LINE
  5
E58
330
1F
100
AcDbEntity
  8
0
  6
Continuous
 62
     1
100
AcDbLine
 10
361.4426489753092
 20
718.7926180877651
 30
0.0
 11
359.4426489753092
 21
718.7926180877651
 31
0.0
  0
LINE
  5
E59
330
1F
100
AcDbEntity
  8
0
  6
Continuous
 62
     1
100
AcDbLine
 10
360.4426489753092
 20
719.7926180877651
 30
0.0
 11
360.4426489753092
 21
717.7926180877651
 31
0.0
  0
LINE
  5
E5A
330
1F
100
AcDbEntity
  8
0
  6
Continuous
 62
     1
100
AcDbLine
 10
362.4426489753092
 20
718.7926180877651
 30
0.0
 11
364.9426489753092
 21
718.7926180877651
 31
0.0
  0
LINE
  5
E5B
330
1F
100
AcDbEntity
  8
0
  6
Continuous
 62
     1
100
AcDbLine
 10
358.4426489753092
 20
718.7926180877651
 30
0.0
 11
355.9426489753092
 21
718.7926180877651
 31
0.0
  0
LINE
  5
E5C
330
1F
100
AcDbEntity
  8
0
  6
Continuous
 62
     1
100
AcDbLine
 10
360.4426489753092
 20
720.7926180877652
 30
0.0
 11
360.4426489753092
 21
723.2926180877651
 31
0.0
  0
LINE
  5
E5D
330
1F
100
AcDbEntity
  8
0
  6
Continuous
 62
     1
100
AcDbLine
 10
360.4426489753092
 20
716.7926180877651
 30
0.0
 11
360.4426489753092
 21
714.2926180877651
 31
0.0
  0
LINE
  5
E5E
330
1F
100
AcDbEntity
  8
0
  6
Continuous
 62
     1
100
AcDbLine
 10
361.4426489753092
 20
780.7926180877651
 30
0.0
 11
359.4426489753092
 21
780.7926180877651
 31
0.0
  0
LINE
  5
E5F
330
1F
100
AcDbEntity
  8
0
  6
Continuous
 62
     1
100
AcDbLine
 10
360.4426489753092
 20
781.7926180877651
 30
0.0
 11
360.4426489753092
 21
779.7926180877651
 31
0.0
  0
LINE
  5
E60
330
1F
100
AcDbEntity
  8
0
  6
Continuous
 62
     1
100
AcDbLine
 10
362.4426489753092
 20
780.7926180877651
 30
0.0
 11
364.9426489753092
 21
780.7926180877651
 31
0.0
  0
LINE
  5
E61
330
1F
100
AcDbEntity
  8
0
  6
Continuous
 62
     1
100
AcDbLine
 10
358.4426489753092
 20
780.7926180877651
 30
0.0
 11
355.9426489753092
 21
780.7926180877651
 31
0.0
  0
LINE
  5
E62
330
1F
100
AcDbEntity
  8
0
  6
Continuous
 62
     1
100
AcDbLine
 10
360.4426489753092
 20
782.7926180877652
 30
0.0
 11
360.4426489753092
 21
785.2926180877651
 31
0.0
  0
LINE
  5
E63
330
1F
100
AcDbEntity
  8
0
  6
Continuous
 62
     1
100
AcDbLine
 10
360.4426489753092
 20
778.7926180877652
 30
0.0
 11
360.4426489753092
 21
776.2926180877651
 31
0.0
  0
LINE
  5
E64
330
1F
100
AcDbEntity
  8
0
  6
Continuous
 62
     1
100
AcDbLine
 10
299.4426489753092
 20
780.7926180877651
 30
0.0
 11
297.4426489753092
 21
780.7926180877651
 31
0.0
  0
LINE
  5
E65
330
1F
100
AcDbEntity
  8
0
  6
Continuous
 62
     1
100
AcDbLine
 10
298.4426489753092
 20
781.7926180877651
 30
0.0
 11
298.4426489753092
 21
779.7926180877651
 31
0.0
  0
LINE
  5
E66
330
1F
100
AcDbEntity
  8
0
  6
Continuous
 62
     1
100
AcDbLine
 10
300.4426489753092
 20
780.7926180877651
 30
0.0
 11
302.9426489753092
 21
780.7926180877651
 31
0.0
  0
LINE
  5
E67
102
{ACAD_REACTORS
330
FD4
102
}
330
1F
100
AcDbEntity
  8
0
  6
Continuous
 62
     1
100
AcDbLine
 10
296.4426489753092
 20
780.7926180877651
 30
0.0
 11
293.9426489753092
 21
780.7926180877651
 31
0.0
  0
LINE
  5
E68
330
1F
100
AcDbEntity
  8
0
  6
Continuous
 62
     1
100
AcDbLine
 10
298.4426489753092
 20
782.7926180877652
 30
0.0
 11
298.4426489753092
 21
785.2926180877651
 31
0.0
  0
LINE
  5
E69
330
1F
100
AcDbEntity
  8
0
  6
Continuous
 62
     1
100
AcDbLine
 10
298.4426489753092
 20
778.7926180877652
 30
0.0
 11
298.4426489753092
 21
776.2926180877651
 31
0.0
  0
LINE
  5
E6A
330
1F
100
AcDbEntity
  8
0
100
AcDbLine
 10
173.9438663809354
 20
569.5874029712495
 30
0.0
 11
247.9438663809355
 21
569.5874029712495
 31
0.0
  0
LINE
  5
E6B
330
1F
100
AcDbEntity
  8
0
100
AcDbLine
 10
247.9438663809355
 20
595.0874029712495
 30
0.0
 11
247.9438663809355
 21
569.5874029712495
 31
0.0
  0
LINE
  5
E6C
330
1F
100
AcDbEntity
  8
0
100
AcDbLine
 10
173.9438663809354
 20
595.0874029712495
 30
0.0
 11
173.9438663809354
 21
569.5874029712495
 31
0.0
  0
LINE
  5
E6D
330
1F
100
AcDbEntity
  8
0
100
AcDbLine
 10
247.4438663809356
 20
596.5874029712495
 30
0.0
 11
247.9438663809355
 21
569.5874029712495
 31
0.0
  0
LINE
  5
E6E
330
1F
100
AcDbEntity
  8
0
100
AcDbLine
 10
173.9438663809354
 20
569.5874029712495
 30
0.0
 11
174.4438663809354
 21
596.5874029712495
 31
0.0
  0
LINE
  5
E6F
330
1F
100
AcDbEntity
  8
0
100
AcDbLine
 10
173.9438663809354
 20
595.0874029712495
 30
0.0
 11
174.4160886031577
 21
595.0874029712495
 31
0.0
  0
LINE
  5
E70
330
1F
100
AcDbEntity
  8
0
100
AcDbLine
 10
247.4716441587133
 20
595.0874029712495
 30
0.0
 11
247.9438663809355
 21
595.0874029712495
 31
0.0
  0
LINE
  5
E71
330
1F
100
AcDbEntity
  8
0
100
AcDbLine
 10
230.9438663809355
 20
595.0874029712495
 30
0.0
 11
230.9438663809355
 21
569.5874029712495
 31
0.0
  0
LINE
  5
E72
330
1F
100
AcDbEntity
  8
0
100
AcDbLine
 10
190.9438663809354
 20
595.0874029712495
 30
0.0
 11
190.9438663809354
 21
569.5874029712495
 31
0.0
  0
LINE
  5
E73
330
1F
100
AcDbEntity
  8
0
100
AcDbLine
 10
190.9438663809354
 20
595.0874029712495
 30
0.0
 11
230.9438663809355
 21
595.0874029712495
 31
0.0
  0
LINE
  5
E74
330
1F
100
AcDbEntity
  8
center
  6
CENTER
100
AcDbLine
 10
198.9183984337423
 20
583.0874029712495
 30
0.0
 11
222.9693343281287
 21
583.0874029712495
 31
0.0
  0
CIRCLE
  5
E75
330
1F
100
AcDbEntity
  8
0
100
AcDbCircle
 10
210.9438663809354
 20
583.0874029712495
 30
0.0
 40
8.449999999999999
  0
CIRCLE
  5
E76
330
1F
100
AcDbEntity
  8
0
100
AcDbCircle
 10
210.9438663809354
 20
583.0874029712495
 30
0.0
 40
7.45
  0
LINE
  5
E77
330
1F
100
AcDbEntity
  8
0
100
AcDbLine
 10
191.9438663809354
 20
571.3874029712494
 30
0.0
 11
196.9438663809354
 21
571.3874029712496
 31
0.0
  0
LINE
  5
E78
330
1F
100
AcDbEntity
  8
0
100
AcDbLine
 10
191.9438663809354
 20
576.3874029712495
 30
0.0
 11
196.9438663809354
 21
576.3874029712495
 31
0.0
  0
LINE
  5
E79
330
1F
100
AcDbEntity
  8
0
100
AcDbLine
 10
196.9438663809354
 20
576.3874029712495
 30
0.0
 11
196.9438663809354
 21
571.3874029712494
 31
0.0
  0
LINE
  5
E7A
330
1F
100
AcDbEntity
  8
0
100
AcDbLine
 10
191.9438663809354
 20
576.3874029712495
 30
0.0
 11
191.9438663809354
 21
571.3874029712494
 31
0.0
  0
TEXT
  5
E7B
330
1F
100
AcDbEntity
  8
0
100
AcDbText
 10
194.0118732994294
 20
572.5378544369585
 30
0.0
 40
3.0
  1
1
  7
CHINESET
100
AcDbText
  0
TEXT
  5
E7C
330
1F
100
AcDbEntity
  8
0
100
AcDbText
 10
198.0439621271508
 20
572.5378544369585
 30
0.0
 40
3.0
  1
P
  7
CHINESET
100
AcDbText
  0
LINE
  5
E7D
330
1F
100
AcDbEntity
  8
0
100
AcDbLine
 10
292.4426489753104
 20
569.3874029712494
 30
0.0
 11
292.9426489753092
 21
596.3874029712494
 31
0.0
  0
LINE
  5
E7E
330
1F
100
AcDbEntity
  8
0
100
AcDbLine
 10
365.9426489753093
 20
596.3874029712494
 30
0.0
 11
366.4426489753082
 21
569.3874029712494
 31
0.0
  0
LINE
  5
E7F
330
1F
100
AcDbEntity
  8
0
100
AcDbLine
 10
292.4426489753092
 20
594.8874029712494
 30
0.0
 11
292.4426489753092
 21
569.3874029712494
 31
0.0
  0
LINE
  5
E80
330
1F
100
AcDbEntity
  8
0
100
AcDbLine
 10
366.4426489753093
 20
594.8874029712494
 30
0.0
 11
366.4426489753093
 21
569.3874029712494
 31
0.0
  0
LINE
  5
E81
330
1F
100
AcDbEntity
  8
center
  6
CENTER
100
AcDbLine
 10
290.7296792581131
 20
582.8874029712494
 30
0.0
 11
369.6578468007546
 21
582.8874029712494
 31
0.0
  0
LINE
  5
E82
330
1F
100
AcDbEntity
  8
0
100
AcDbLine
 10
292.4426489753092
 20
594.8874029712494
 30
0.0
 11
292.9148711975315
 21
594.8874029712494
 31
0.0
  0
LINE
  5
E83
330
1F
100
AcDbEntity
  8
0
100
AcDbLine
 10
365.970426753087
 20
594.8874029712494
 30
0.0
 11
366.4426489753093
 21
594.8874029712494
 31
0.0
  0
LINE
  5
E84
330
1F
100
AcDbEntity
  8
0
100
AcDbLine
 10
292.4426489753092
 20
569.3874029712494
 30
0.0
 11
366.4426489753093
 21
569.3874029712494
 31
0.0
  0
LINE
  5
E85
330
1F
100
AcDbEntity
  8
0
100
AcDbLine
 10
292.9426489753092
 20
596.3874029712494
 30
0.0
 11
365.9426489753093
 21
596.3874029712494
 31
0.0
  0
LEADER
  5
E88
330
1F
100
AcDbEntity
  8
dim
100
AcDbLeader
  3
STANDARD
 73
     0
 74
     0
 75
     1
 40
4.0
 41
23.42857142857143
 76
     3
 10
363.3746164994839
 20
782.7040485565986
 30
0.0
 10
373.6069680557442
 20
795.9986722159213
 30
0.0
 10
376.6069680557442
 20
795.9986722159213
 30
0.0
1001
ACAD
1000
DSTYLE
1002
{
1070
     5
1000

1002
}
  0
MTEXT
  5
E89
330
1F
100
AcDbEntity
  8
dim
100
AcDbMText
 10
378.1069680557442
 20
797.4986722159213
 30
0.0
 40
3.0
 41
0.0
 71
     7
 72
     5
  1
{4-%%C7 \U+947d\U+901a}
  7
CHINESET
 73
     1
 44
1.0
1001
ACAD
1000
MTEXTBEGIN
1070
    73
1070
     1
1070
    44
1040
1.0
1070
    74
1070
     0
1000
MTEXTEND
  0
DIMENSION
  5
E8A
330
1F
100
AcDbEntity
  8
dim
100
AcDbDimension
  2
*D5
 10
440.4192220037305
 20
684.9933385730229
 30
0.0
 11
384.9309354895199
 21
688.2790528587372
 31
0.0
 70
    32
  1
(<>)
 71
     5
 42
110.9765730284213
  3
STANDARD
100
AcDbAlignedDimension
 13
329.4426489753092
 23
660.0677687132404
 33
0.0
 14
440.4192220037305
 24
656.7548265313321
 34
0.0
100
AcDbRotatedDimension
1001
ACAD
1000
DSTYLE
1002
{
1070
   271
1070
     0
1002
}
  0
LEADER
  5
E8B
330
1F
100
AcDbEntity
  8
dim
100
AcDbLeader
  3
STANDARD
 73
     0
 74
     0
 75
     1
 40
3.0
 41
17.14285714285714
 76
     3
 10
229.9438663809354
 20
633.8044795943625
 30
0.0
 10
237.2800197143305
 20
652.6346111724937
 30
0.0
 10
240.2800197143305
 20
652.6346111724937
 30
0.0
1001
ACAD
1000
DSTYLE
1002
{
1070
     5
1000

1002
}
  0
MTEXT
  5
E8C
330
1F
100
AcDbEntity
  8
dim
100
AcDbMText
 10
238.5299452630055
 20
653.809953194319
 30
0.0
 40
3.0
 41
0.0
 71
     7
 72
     5
  1
M40*1.5
  7
CHINESET
 73
     1
 44
1.0
1001
ACAD
1000
MTEXTBEGIN
1070
    73
1070
     1
1070
    44
1040
1.0
1070
    74
1070
     0
1000
MTEXTEND
  0
ARC
  5
E8D
330
1F
100
AcDbEntity
  8
0
100
AcDbCircle
 10
329.4426489753092
 20
749.7926180877652
 30
0.0
 40
20.0
100
AcDbArc
 50
13.73903517437044
 51
71.80512766123304
  0
ARC
  5
E8E
330
1F
100
AcDbEntity
  8
0
100
AcDbCircle
 10
329.4426489753092
 20
749.7926180877652
 30
0.0
 40
23.0
100
AcDbArc
 50
11.91859473086547
 51
69.64559360176235
  0
ARC
  5
E8F
330
1F
100
AcDbEntity
  8
0
100
AcDbCircle
 10
329.4426489753092
 20
749.7926180877652
 30
0.0
 40
33.0
100
AcDbArc
 50
8.275866669902939
 51
43.34175822722346
  0
LINE
  5
E90
330
1F
100
AcDbEntity
  8
0
100
AcDbLine
 10
365.9426489753092
 20
754.5426180877651
 30
0.0
 11
365.9426489753092
 21
780.2926180877651
 31
0.0
  0
LINE
  5
E91
330
1F
100
AcDbEntity
  8
0
100
AcDbLine
 10
366.4426489753092
 20
754.5426180877651
 30
0.0
 11
366.4426489753092
 21
780.7926180877651
 31
0.0
  0
LINE
  5
E92
330
1F
100
AcDbEntity
  8
0
100
AcDbLine
 10
390.2140334931368
 20
754.5426180877651
 30
0.0
 11
345.0240631650789
 21
754.5426180877651
 31
0.0
  0
LINE
  5
E93
330
1F
100
AcDbEntity
  8
0
100
AcDbLine
 10
390.2140334931366
 20
745.0426180877651
 30
0.0
 11
345.0240631650795
 21
745.0426180877651
 31
0.0
  0
ARC
  5
E94
330
1F
100
AcDbEntity
  8
0
100
AcDbCircle
 10
375.8102126989107
 20
749.792618087767
 30
0.0
 40
31.15043343389357
100
AcDbArc
 50
171.2289878053161
 51
188.7710121946906
  0
LINE
  5
E95
330
1F
100
AcDbEntity
  8
0
100
AcDbLine
 10
345.8914428951612
 20
646.7517531635361
 30
0.0
 11
390.4535059885319
 21
653.014542706739
 31
0.0
  0
LINE
  5
E96
330
1F
100
AcDbEntity
  8
0
100
AcDbLine
 10
344.5692984360406
 20
656.1592998165811
 30
0.0
 11
389.1313615294113
 21
662.4220893597839
 31
0.0
  0
LINE
  5
E97
330
1F
100
AcDbEntity
  8
center
  6
CENTER
100
AcDbLine
 10
335.9426489753091
 20
650.1502223312215
 30
0.0
 11
440.2961052647916
 21
664.8161441822248
 31
0.0
  0
ARC
  5
E98
330
1F
100
AcDbEntity
  8
0
100
AcDbCircle
 10
398.9958844718634
 20
749.792618087765
 30
0.0
 40
9.984157781834333
100
AcDbArc
 50
143.0618869439966
 51
216.938113056002
  0
ELLIPSE
  5
E99
330
1F
100
AcDbEntity
  8
0
100
AcDbEllipse
 10
210.9438663809355
 20
657.44098153249
 30
0.0
 11
-4.75
 21
0.0
 31
0.0
210
0.0
220
0.0
230
1.0
 40
0.9902680687415688
 41
3.387796231797044
 42
6.036981728972332
  0
ELLIPSE
  5
E9A
330
1F
100
AcDbEntity
  8
0
100
AcDbEllipse
 10
210.9438663809355
 20
657.44098153249
 30
0.0
 11
-6.0
 21
0.0
 31
0.0
210
0.0
220
0.0
230
1.0
 40
0.9902680687415758
 41
3.335758370793615
 42
6.089019589975761
  0
ARC
  5
E9B
330
1F
100
AcDbEntity
  8
0
100
AcDbCircle
 10
317.9426489753093
 20
642.3135389996755
 30
0.0
 40
3.0
100
AcDbArc
 50
197.9816273404514
 51
219.9445051898193
  0
ARC
  5
E9C
330
1F
100
AcDbEntity
  8
0
100
AcDbCircle
 10
210.9438663809355
 20
642.5135389996754
 30
0.0
 40
3.0
100
AcDbArc
 50
320.0554948101819
 51
342.0183726595506
  0
ARC
  5
E9D
330
1F
100
AcDbEntity
  8
0
100
AcDbCircle
 10
210.9438663809355
 20
642.5135389996754
 30
0.0
 40
3.0
100
AcDbArc
 50
197.9816273404494
 51
219.944505189818
  0
LINE
  5
E9E
330
1F
100
AcDbEntity
  8
0
100
AcDbLine
 10
440.4192220037305
 20
656.7548265313321
 30
0.0
 11
438.1924523883697
 21
672.5991156311972
 31
0.0
  0
LINE
  5
E9F
330
1F
100
AcDbEntity
  8
0
100
AcDbLine
 10
390.5731408279141
 20
652.1632965928565
 30
0.0
 11
389.0117266900291
 21
663.2733354736663
 31
0.0
  0
LINE
  5
EA0
330
1F
100
AcDbEntity
  8
0
100
AcDbLine
 10
411.1286992443637
 20
649.6088292963054
 30
0.0
 11
408.0668910232422
 21
671.39472680862
 31
0.0
  0
LINE
  5
EA1
330
1F
100
AcDbEntity
  8
0
100
AcDbLine
 10
409.2859667245583
 20
671.5660567252483
 30
0.0
 11
434.8041288792647
 21
675.1524005345418
 31
0.0
  0
LINE
  5
EA2
330
1F
100
AcDbEntity
  8
0
100
AcDbLine
 10
412.3477749456797
 20
649.7801592129339
 30
0.0
 11
437.865937100386
 21
653.3665030222272
 31
0.0
  0
ARC
  5
EA3
330
1F
100
AcDbEntity
  8
0
100
AcDbCircle
 10
435.2216481821449
 20
672.1815963283169
 30
0.0
 40
3.0
100
AcDbArc
 50
7.999999999999034
 51
97.99999999999926
  0
ARC
  5
EA4
330
1F
100
AcDbEntity
  8
0
100
AcDbCircle
 10
437.4484177975058
 20
656.3373072284519
 30
0.0
 40
3.0
100
AcDbArc
 50
277.9999999999993
 51
7.999999999999034
  0
LINE
  5
EA5
330
1F
100
AcDbEntity
  8
0
100
AcDbLine
 10
389.3192642118378
 20
663.806395376643
 30
0.0
 11
406.9257674829177
 21
670.932843087767
 31
0.0
  0
LINE
  5
EA6
330
1F
100
AcDbEntity
  8
0
100
AcDbLine
 10
391.0156960898412
 20
651.7356553558102
 30
0.0
 11
409.9044684872053
 21
649.7382841498232
 31
0.0
  0
ARC
  5
EA7
330
1F
100
AcDbEntity
  8
0
100
AcDbCircle
 10
410.677697734159
 20
661.6633760378326
 30
0.0
 40
10.0
100
AcDbArc
 50
97.99999999999926
 51
112.0362434679264
  0
ARC
  5
EA8
330
1F
100
AcDbEntity
  8
0
100
AcDbCircle
 10
410.9560439360791
 20
659.6828399003495
 30
0.0
 40
10.0
100
AcDbArc
 50
263.9637565320731
 51
277.9999999999993
  0
ARC
  5
EA9
330
1F
100
AcDbEntity
  8
0
100
AcDbCircle
 10
389.5068607243999
 20
663.3429220241464
 30
0.0
 40
0.5
100
AcDbArc
 50
112.0362434679264
 51
187.9999999999993
  0
ARC
  5
EAA
330
1F
100
AcDbEntity
  8
0
100
AcDbCircle
 10
391.0682748622848
 20
652.2328831433366
 30
0.0
 40
0.5
100
AcDbArc
 50
187.9999999999993
 51
263.9637565320731
  0
DIMENSION
  5
EAB
330
1F
100
AcDbEntity
  8
dim
100
AcDbDimension
  2
*D6
 10
342.6988335942393
 20
668.680980945874
 30
0.0
 11
389.1754746193959
 21
679.0355817293945
 31
0.0
 70
    33
  1
(<>)
 71
     5
 42
95.00526301210909
  3
STANDARD
100
AcDbAlignedDimension
 13
438.1924523883697
 23
672.5991156311972
 33
0.0
 14
344.2561589588805
 24
658.3874029712494
 34
0.0
1001
ACAD
1000
DSTYLE
1002
{
1070
   271
1070
     1
1002
}
  0
LINE
  5
EAC
330
1F
100
AcDbEntity
  8
0
100
AcDbLine
 10
408.0668910232422
 20
760.7926180877651
 30
0.0
 11
436.7988906244161
 21
760.7926180877651
 31
0.0
  0
LINE
  5
EAD
330
1F
100
AcDbEntity
  8
0
100
AcDbLine
 10
408.0668910232421
 20
738.7926180877651
 30
0.0
 11
436.7988906244161
 21
738.7926180877651
 31
0.0
  0
LINE
  5
EAE
330
1F
100
AcDbEntity
  8
0
100
AcDbLine
 10
391.0156960898412
 20
755.7926180877651
 30
0.0
 11
408.0668910232422
 21
760.7926180877651
 31
0.0
  0
LINE
  5
EAF
330
1F
100
AcDbEntity
  8
0
100
AcDbLine
 10
391.0156960898412
 20
743.792618087765
 30
0.0
 11
408.0668910232422
 21
738.7926180877651
 31
0.0
  0
ARC
  5
EB0
330
1F
100
AcDbEntity
  8
0
100
AcDbCircle
 10
456.0945984592279
 20
749.7926180877652
 30
0.0
 40
21.29046957996321
100
AcDbArc
 50
148.8913162124169
 51
211.1086837875831
  0
ARC
  5
EB1
330
1F
100
AcDbEntity
  8
0
100
AcDbCircle
 10
493.2911544256582
 20
749.7926180877652
 30
0.0
 40
55.09459570939263
100
AcDbArc
 50
169.619799359983
 51
190.3802006400169
  0
ARC
  5
EB2
330
1F
100
AcDbEntity
  8
0
100
AcDbCircle
 10
385.5237245590338
 20
749.7926180877652
 30
0.0
 40
54.89549744469673
100
AcDbArc
 50
351.1321522625598
 51
8.86784773744019
  0
ARC
  5
EB3
330
1F
100
AcDbEntity
  8
0
100
AcDbCircle
 10
436.7988906244161
 20
757.7926180877652
 30
0.0
 40
3.0
100
AcDbArc
 50
8.86784773744019
 51
90.0
  0
ARC
  5
EB4
330
1F
100
AcDbEntity
  8
0
100
AcDbCircle
 10
436.7988906244161
 20
741.792618087765
 30
0.0
 40
3.0
100
AcDbArc
 50
270.0
 51
351.1321522625598
  0
ARC
  5
EB5
330
1F
100
AcDbEntity
  8
0
100
AcDbCircle
 10
429.3573606032046
 20
749.7926180877652
 30
0.0
 40
21.29046957996228
100
AcDbArc
 50
148.8913162124155
 51
211.1086837875845
  0
LINE
  5
EB6
330
1F
100
AcDbEntity
  8
0
100
AcDbLine
 10
199.9438663809355
 20
664.6769710812646
 30
0.0
 11
199.9438663809355
 21
660.5017780524693
 31
0.0
  0
LINE
  5
EB7
330
1F
100
AcDbEntity
  8
0
100
AcDbLine
 10
221.9438663809355
 20
664.6769710812646
 30
0.0
 11
221.9438663809355
 21
660.5017780524639
 31
0.0
  0
ARC
  5
EB8
330
1F
100
AcDbEntity
  8
0
100
AcDbCircle
 10
210.9438663809355
 20
664.1699159427685
 30
0.0
 40
11.01168038554858
100
AcDbArc
 50
357.3607664878995
 51
182.6392335121004
  0
ARC
  5
EB9
330
1F
100
AcDbEntity
  8
0
100
AcDbCircle
 10
210.9438663809354
 20
660.4030682208811
 30
0.0
 40
11.00044288339572
100
AcDbArc
 50
350.4996383183192
 51
189.5003616816808
  0
LINE
  5
EBA
330
1F
100
AcDbEntity
  8
0
100
AcDbLine
 10
301.4426489753091
 20
616.3874029712493
 30
0.0
 11
321.4426489753092
 21
616.3874029712493
 31
0.0
  0
ARC
  5
EBB
330
1F
100
AcDbEntity
  8
0
100
AcDbCircle
 10
317.9426489753093
 20
642.3135389996755
 30
0.0
 40
3.0
100
AcDbArc
 50
320.0554948101807
 51
342.0183726595486
  0
LINE
  5
EBC
330
1F
100
AcDbEntity
  8
0
 62
     3
100
AcDbLine
 10
310.4426489753091
 20
628.8874029712497
 30
0.0
 11
348.4426489753092
 21
630.0302601141067
 31
0.0
  0
LINE
  5
EBD
330
1F
100
AcDbEntity
  8
0
 62
     3
100
AcDbLine
 10
310.4426489753091
 20
630.3874029712496
 30
0.0
 11
348.4426489753092
 21
631.5302601141068
 31
0.0
  0
LINE
  5
EBE
330
1F
100
AcDbEntity
  8
0
 62
     3
100
AcDbLine
 10
310.4426489753091
 20
631.8874029712496
 30
0.0
 11
348.4426489753092
 21
633.0302601141068
 31
0.0
  0
LINE
  5
EBF
330
1F
100
AcDbEntity
  8
0
 62
     3
100
AcDbLine
 10
310.4426489753091
 20
633.3874029712497
 30
0.0
 11
348.4426489753092
 21
634.5302601141067
 31
0.0
  0
LINE
  5
EC0
330
1F
100
AcDbEntity
  8
0
 62
     3
100
AcDbLine
 10
310.4426489753091
 20
634.8874029712496
 30
0.0
 11
348.4426489753092
 21
636.0302601141068
 31
0.0
  0
LINE
  5
EC1
330
1F
100
AcDbEntity
  8
0
100
AcDbLine
 10
310.4426489753091
 20
637.5302601141068
 30
0.0
 11
348.4426489753092
 21
637.5302601141068
 31
0.0
  0
LINE
  5
EC2
330
1F
100
AcDbEntity
  8
0
 62
     3
100
AcDbLine
 10
310.4426489753091
 20
636.3874029712497
 30
0.0
 11
348.4426489753092
 21
637.5302601141068
 31
0.0
  0
LINE
  5
EC3
330
1F
100
AcDbEntity
  8
0
 62
     3
100
AcDbLine
 10
310.487741368457
 20
627.388080899085
 30
0.0
 11
348.4426489753092
 21
628.5295818797422
 31
0.0
  0
LINE
  5
EC4
330
1F
100
AcDbEntity
  8
0
100
AcDbLine
 10
327.9426489753092
 20
626.8874029712496
 30
0.0
 11
330.9426489753092
 21
626.8874029712496
 31
0.0
  0
LINE
  5
EC5
330
1F
100
AcDbEntity
  8
0
100
AcDbLine
 10
330.9426489753092
 20
625.3874029712497
 30
0.0
 11
330.9426489753092
 21
626.8874029712496
 31
0.0
  0
LINE
  5
EC6
330
1F
100
AcDbEntity
  8
0
100
AcDbLine
 10
327.9426489753092
 20
625.3874029712497
 30
0.0
 11
327.9426489753092
 21
626.8874029712496
 31
0.0
  0
LINE
  5
EC7
330
1F
100
AcDbEntity
  8
0
100
AcDbLine
 10
321.4426489753092
 20
625.3874029712497
 30
0.0
 11
321.4426489753092
 21
616.3874029712493
 31
0.0
  0
LINE
  5
EC8
330
1F
100
AcDbEntity
  8
0
100
AcDbLine
 10
337.4426489753092
 20
625.3874029712496
 30
0.0
 11
337.4426489753092
 21
616.3874029712494
 31
0.0
  0
LINE
  5
EC9
330
1F
100
AcDbEntity
  8
0
100
AcDbLine
 10
337.4426489753092
 20
616.3874029712493
 30
0.0
 11
357.4426489753092
 21
616.3874029712494
 31
0.0
  0
LINE
  5
ECA
330
1F
100
AcDbEntity
  8
0
100
AcDbLine
 10
381.5237590688162
 20
748.2926180877651
 30
0.0
 11
381.5237590688162
 21
751.2926180877651
 31
0.0
  0
ARC
  5
ECB
330
1F
100
AcDbEntity
  8
0
100
AcDbCircle
 10
315.4426489753093
 20
605.3874029712495
 30
0.0
 40
1.0
100
AcDbArc
 50
0.0
 51
90.0
  0
LINE
  5
ECC
330
1F
100
AcDbEntity
  8
center
  6
CENTER
100
AcDbLine
 10
311.4426489753092
 20
608.6125820464651
 30
0.0
 11
311.4426489753092
 21
595.6737477784603
 31
0.0
  0
LINE
  5
ECD
330
1F
100
AcDbEntity
  8
0
100
AcDbLine
 10
307.4426489753092
 20
606.3874029712494
 30
0.0
 11
315.4426489753093
 21
606.3874029712494
 31
0.0
  0
LINE
  5
ECE
330
1F
100
AcDbEntity
  8
0
100
AcDbLine
 10
316.4426489753093
 20
605.3874029712495
 30
0.0
 11
316.4426489753092
 21
602.3706189278693
 31
0.0
  0
LINE
  5
ECF
330
1F
100
AcDbEntity
  8
0
100
AcDbLine
 10
306.4426489753092
 20
605.3874029712495
 30
0.0
 11
306.4426489753092
 21
602.3874029712494
 31
0.0
  0
ARC
  5
ED0
330
1F
100
AcDbEntity
  8
0
100
AcDbCircle
 10
307.4426489753092
 20
605.3874029712495
 30
0.0
 40
1.0
100
AcDbArc
 50
90.0
 51
180.0
  0
LINE
  5
ED1
330
1F
100
AcDbEntity
  8
0
100
AcDbLine
 10
343.4426489753092
 20
606.3874029712494
 30
0.0
 11
351.4426489753093
 21
606.3874029712494
 31
0.0
  0
LINE
  5
ED2
330
1F
100
AcDbEntity
  8
0
100
AcDbLine
 10
342.4426489753092
 20
605.3874029712495
 30
0.0
 11
342.4426489753092
 21
602.3874029712494
 31
0.0
  0
ARC
  5
ED3
330
1F
100
AcDbEntity
  8
0
100
AcDbCircle
 10
343.4426489753092
 20
605.3874029712495
 30
0.0
 40
1.0
100
AcDbArc
 50
90.0
 51
180.0
  0
LINE
  5
ED4
330
1F
100
AcDbEntity
  8
0
100
AcDbLine
 10
352.4426489753093
 20
605.3874029712495
 30
0.0
 11
352.4426489753092
 21
602.3706189278693
 31
0.0
  0
ARC
  5
ED5
330
1F
100
AcDbEntity
  8
0
100
AcDbCircle
 10
351.4426489753093
 20
605.3874029712495
 30
0.0
 40
1.0
100
AcDbArc
 50
0.0
 51
90.0
  0
LINE
  5
ED6
330
1F
100
AcDbEntity
  8
center
  6
CENTER
100
AcDbLine
 10
347.4426489753092
 20
608.6125820464651
 30
0.0
 11
347.4426489753092
 21
595.6737477784603
 31
0.0
  0
CIRCLE
  5
ED7
330
1F
100
AcDbEntity
  8
0
100
AcDbCircle
 10
329.4426489753092
 20
582.8874029712494
 30
0.0
 40
7.45
  0
CIRCLE
  5
ED8
330
1F
100
AcDbEntity
  8
0
100
AcDbCircle
 10
329.4426489753092
 20
582.8874029712494
 30
0.0
 40
8.449999999999999
  0
LINE
  5
ED9
330
1F
100
AcDbEntity
  8
0
100
AcDbLine
 10
309.4426489753092
 20
594.8874029712494
 30
0.0
 11
309.4426489753092
 21
569.3874029712494
 31
0.0
  0
LINE
  5
EDA
330
1F
100
AcDbEntity
  8
0
100
AcDbLine
 10
349.4426489753092
 20
594.8874029712494
 30
0.0
 11
349.4426489753092
 21
569.3874029712494
 31
0.0
  0
LINE
  5
EDB
330
1F
100
AcDbEntity
  8
center
  6
CENTER
100
AcDbLine
 10
317.4171810281161
 20
582.8874029712494
 30
0.0
 11
341.4681169225024
 21
582.8874029712494
 31
0.0
  0
LINE
  5
EDC
330
1F
100
AcDbEntity
  8
0
100
AcDbLine
 10
310.4426489753091
 20
576.1874029712494
 30
0.0
 11
315.4426489753092
 21
576.1874029712494
 31
0.0
  0
LINE
  5
EDD
330
1F
100
AcDbEntity
  8
0
100
AcDbLine
 10
310.4426489753091
 20
571.1874029712494
 30
0.0
 11
315.4426489753092
 21
571.1874029712495
 31
0.0
  0
LINE
  5
EDE
330
1F
100
AcDbEntity
  8
0
100
AcDbLine
 10
310.4426489753091
 20
576.1874029712494
 30
0.0
 11
310.4426489753091
 21
571.1874029712494
 31
0.0
  0
TEXT
  5
EDF
330
1F
100
AcDbEntity
  8
0
100
AcDbText
 10
312.5106558938032
 20
572.3378544369584
 30
0.0
 40
3.0
  1
4
  7
CHINESET
100
AcDbText
  0
LINE
  5
EE0
330
1F
100
AcDbEntity
  8
0
100
AcDbLine
 10
315.4426489753092
 20
576.1874029712494
 30
0.0
 11
315.4426489753092
 21
571.1874029712494
 31
0.0
  0
TEXT
  5
EE1
330
1F
100
AcDbEntity
  8
0
100
AcDbText
 10
316.5427447215246
 20
572.3378544369584
 30
0.0
 40
3.0
  1
A
  7
CHINESET
100
AcDbText
  0
LINE
  5
EE2
330
1F
100
AcDbEntity
  8
0
100
AcDbLine
 10
309.4426489753092
 20
594.8874029712494
 30
0.0
 11
349.4426489753092
 21
594.8874029712494
 31
0.0
  0
DIMENSION
  5
EE4
330
1F
100
AcDbEntity
  8
dim
100
AcDbDimension
  2
*D7
 10
236.4438663809354
 20
680.5207485150451
 30
0.0
 11
210.9438663809354
 21
683.0207485150451
 31
0.0
 70
    32
 71
     5
 42
51.0
  3
STANDARD
100
AcDbAlignedDimension
 13
185.4438663809354
 23
628.7996594341831
 33
0.0
 14
236.4438663809354
 24
628.7996594341831
 34
0.0
100
AcDbRotatedDimension
  0
LEADER
  5
EE5
330
1F
100
AcDbEntity
  8
dim
100
AcDbLeader
  3
STANDARD
 73
     0
 75
     1
 40
3.0
 41
11.28571428571428
 76
     3
 10
185.4438663809354
 20
627.0874029712494
 30
0.0
 10
178.3121035356072
 20
640.9558981386973
 30
0.0
 10
175.3121035356072
 20
640.9558981386973
 30
0.0
340
EE6
213
0.0
223
1.5
233
0.0
1001
ACAD
1000
DSTYLE
1002
{
1070
     5
1000

1070
    77
1070
     0
1070
   147
1040
1.5
1002
}
  0
MTEXT
  5
EE6
102
{ACAD_REACTORS
330
EE5
102
}
330
1F
100
AcDbEntity
  8
dim
100
AcDbMText
 10
173.8121035356072
 20
639.4558981386973
 30
0.0
 40
3.0
 41
0.0
 71
     9
 72
     5
  1
\A1;2-%%C3
  7
CHINESET
 73
     1
 44
1.0
1001
ACAD
1000
MTEXTBEGIN
1070
    73
1070
     1
1070
    44
1040
1.0
1070
    74
1070
     0
1000
MTEXTEND
  0
LEADER
  5
EE7
330
1F
100
AcDbEntity
  8
dim
100
AcDbLeader
  3
STANDARD
 73
     0
 74
     0
 75
     1
 40
15.71428571428571
 41
21.42857142857142
 76
     3
 10
336.0951541529199
 20
588.0976500730539
 30
0.0
 10
380.1472979802035
 20
620.6401848072122
 30
0.0
 10
383.1472979802035
 20
620.6401848072122
 30
0.0
340
EE8
213
0.0
223
-1.5
233
0.0
1001
ACAD
1000
DSTYLE
1002
{
1070
     5
1000

1070
    77
1070
     0
1070
   147
1040
1.5
1002
}
  0
MTEXT
  5
EE8
102
{ACAD_REACTORS
330
EE7
102
}
330
1F
100
AcDbEntity
  8
dim
100
AcDbMText
 10
384.6472979802035
 20
622.1401848072122
 30
0.0
 40
3.0
 41
0.0
 71
     1
 72
     5
  1
\A1;4*PT 1/4\P4*PT 3/8\P4*PT 1/2
  7
CHINESET
 73
     1
 44
1.0
1001
ACAD
1000
MTEXTBEGIN
1070
    73
1070
     1
1070
    44
1040
1.0
1070
    74
1070
     0
1000
MTEXTEND
  0
DIMENSION
  5
FC6
102
{ACAD_XDICTIONARY
360
FD3
102
}
102
{ACAD_REACTORS
330
FD4
102
}
330
1F
100
AcDbEntity
  8
dim
100
AcDbDimension
  2
*D8
 10
255.2815045640887
 20
718.7926180877653
 30
0.0
 11
252.7815045640886
 21
749.7926180877652
 31
0.0
 70
    32
  1
{\Famgdt;o}<>
 71
     5
 42
62.0
  3
STANDARD
100
AcDbAlignedDimension
 13
293.9426489753092
 23
780.7926180877651
 33
0.0
 14
293.9426489753092
 24
718.7926180877651
 34
0.0
 50
90.0
100
AcDbRotatedDimension
  0
DIMENSION
  5
FF9
102
{ACAD_XDICTIONARY
360
1006
102
}
102
{ACAD_REACTORS
330
1007
102
}
330
1F
100
AcDbEntity
  8
AM_5
100
AcDbDimension
  2
*D9
 10
247.2815045640881
 20
786.7926180877653
 30
0.0
 11
244.831504564088
 21
749.7926180877652
 31
0.0
 70
    32
  1
{\Famgdt;o}<>
 71
     5
 42
74.00000000000011
  3
AM_ISO$0
100
AcDbAlignedDimension
 13
298.4426489753094
 23
712.7926180877651
 33
0.0
 14
298.4426489753092
 24
786.7926180877652
 34
0.0
 50
90.00000000000019
100
AcDbRotatedDimension
1001
ACAD
1000
DSTYLE
1002
{
1070
    40
1040
1.0
1070
   144
1040
1.0
1070
   272
1070
     8
1002
}
  0
LINE
  5
12DE
330
1F
100
AcDbEntity
  8
center
  6
CENTER
100
AcDbLine
 10
329.4426489753092
 20
445.7256163721242
 30
0.0
 11
329.4426489753092
 21
350.5411668907797
 31
0.0
  0
LINE
  5
12DF
330
1F
100
AcDbEntity
  8
0
100
AcDbLine
 10
344.2561589588803
 20
441.2553643184742
 30
0.0
 11
314.6291389917379
 21
441.2553643184741
 31
0.0
  0
LINE
  5
12E0
330
1F
100
AcDbEntity
  8
0
100
AcDbLine
 10
312.9426489753092
 20
424.2553643184741
 30
0.0
 11
345.9426489753091
 21
424.2553643184741
 31
0.0
  0
LINE
  5
12E1
330
1F
100
AcDbEntity
  8
0
100
AcDbLine
 10
312.9426489753092
 20
429.2553643184741
 30
0.0
 11
312.9426489753092
 21
424.2553643184741
 31
0.0
  0
ARC
  5
12E2
330
1F
100
AcDbEntity
  8
0
100
AcDbCircle
 10
344.692648975309
 20
423.2553643184742
 30
0.0
 40
1.0
100
AcDbArc
 50
90.0
 51
179.9999999999984
  0
LINE
  5
12E3
330
1F
100
AcDbEntity
  8
0
100
AcDbLine
 10
322.9426489753091
 20
424.2553643184741
 30
0.0
 11
322.9426489753091
 21
423.2553643184742
 31
0.0
  0
LINE
  5
12E4
330
1F
100
AcDbEntity
  8
0
100
AcDbLine
 10
338.1926489753092
 20
423.2553643184742
 30
0.0
 11
326.5406781758542
 21
423.2553643184742
 31
0.0
  0
ARC
  5
12E5
330
1F
100
AcDbEntity
  8
0
100
AcDbCircle
 10
337.1926489753091
 20
423.2553643184742
 30
0.0
 40
1.0
100
AcDbArc
 50
0.0
 51
90.0
  0
LINE
  5
12E6
330
1F
100
AcDbEntity
  8
0
100
AcDbLine
 10
312.9426489753092
 20
429.2553643184741
 30
0.0
 11
314.6291389917379
 21
441.2553643184741
 31
0.0
  0
LINE
  5
12E7
330
1F
100
AcDbEntity
  8
0
100
AcDbLine
 10
312.9426489753092
 20
429.2553643184741
 30
0.0
 11
345.9426489753091
 21
429.2553643184741
 31
0.0
  0
LINE
  5
12E8
330
1F
100
AcDbEntity
  8
0
100
AcDbLine
 10
322.9426489753093
 20
423.2553643184742
 30
0.0
 11
312.9426489753093
 21
423.2553643184742
 31
0.0
  0
LINE
  5
12E9
330
1F
100
AcDbEntity
  8
0
100
AcDbLine
 10
345.9426489753091
 20
429.2553643184741
 30
0.0
 11
344.2561589588803
 21
441.2553643184741
 31
0.0
  0
LINE
  5
12EA
330
1F
100
AcDbEntity
  8
0
100
AcDbLine
 10
335.942648975309
 20
424.2553643184741
 30
0.0
 11
335.942648975309
 21
423.2553643184742
 31
0.0
  0
LINE
  5
12EB
330
1F
100
AcDbEntity
  8
0
100
AcDbLine
 10
345.9426489753091
 20
429.2553643184741
 30
0.0
 11
345.9426489753091
 21
424.2553643184741
 31
0.0
  0
LINE
  5
12EC
330
1F
100
AcDbEntity
  8
0
100
AcDbLine
 10
175.9438663809353
 20
389.4553643184742
 30
0.0
 11
183.9438663809353
 21
389.4553643184742
 31
0.0
  0
ARC
  5
12ED
330
1F
100
AcDbEntity
  8
0
100
AcDbCircle
 10
175.9438663809353
 20
388.4553643184742
 30
0.0
 40
1.0
100
AcDbArc
 50
90.0
 51
180.0
  0
LINE
  5
12EE
330
1F
100
AcDbEntity
  8
0
100
AcDbLine
 10
174.9438663809353
 20
388.4553643184742
 30
0.0
 11
174.9438663809353
 21
385.3213897222586
 31
0.0
  0
ARC
  5
12EF
330
1F
100
AcDbEntity
  8
0
100
AcDbCircle
 10
183.9438663809353
 20
388.4553643184742
 30
0.0
 40
1.0
100
AcDbArc
 50
0.0
 51
90.0
  0
LINE
  5
12F0
330
1F
100
AcDbEntity
  8
0
100
AcDbLine
 10
184.9438663809354
 20
388.4553643184742
 30
0.0
 11
184.9438663809354
 21
385.4385802750941
 31
0.0
  0
LINE
  5
12F1
330
1F
100
AcDbEntity
  8
center
  6
CENTER
100
AcDbLine
 10
210.9438663809355
 20
459.4671056466245
 30
0.0
 11
210.9438663809355
 21
350.5411668907797
 31
0.0
  0
ARC
  5
12F2
330
1F
100
AcDbEntity
  8
0
100
AcDbCircle
 10
237.9438663809354
 20
388.4553643184739
 30
0.0
 40
1.0
100
AcDbArc
 50
90.0
 51
180.0
  0
LINE
  5
12F3
330
1F
100
AcDbEntity
  8
0
100
AcDbLine
 10
236.9438663809354
 20
388.4553643184739
 30
0.0
 11
236.9438663809354
 21
385.4553643184739
 31
0.0
  0
LINE
  5
12F4
330
1F
100
AcDbEntity
  8
0
100
AcDbLine
 10
237.9438663809354
 20
389.4553643184739
 30
0.0
 11
245.9438663809355
 21
389.4553643184739
 31
0.0
  0
ARC
  5
12F5
330
1F
100
AcDbEntity
  8
0
100
AcDbCircle
 10
245.9438663809355
 20
388.4553643184739
 30
0.0
 40
1.0
100
AcDbArc
 50
0.0
 51
90.0
  0
LINE
  5
12F6
330
1F
100
AcDbEntity
  8
0
100
AcDbLine
 10
246.9438663809355
 20
388.4553643184739
 30
0.0
 11
246.9438663809354
 21
385.4385802750938
 31
0.0
  0
LINE
  5
12F7
330
1F
100
AcDbEntity
  8
0
100
AcDbLine
 10
227.4438663809355
 20
429.4553643184742
 30
0.0
 11
225.7573763645067
 21
441.4553643184742
 31
0.0
  0
LINE
  5
12F8
330
1F
100
AcDbEntity
  8
0
100
AcDbLine
 10
194.4438663809355
 20
424.4553643184742
 30
0.0
 11
227.4438663809355
 21
424.4553643184742
 31
0.0
  0
LINE
  5
12F9
330
1F
100
AcDbEntity
  8
0
100
AcDbLine
 10
194.4438663809355
 20
429.4553643184742
 30
0.0
 11
227.4438663809355
 21
429.4553643184742
 31
0.0
  0
LINE
  5
12FA
330
1F
100
AcDbEntity
  8
0
100
AcDbLine
 10
197.7438663809353
 20
423.4553643184741
 30
0.0
 11
224.1438663809354
 21
423.4553643184741
 31
0.0
  0
LINE
  5
12FB
330
1F
100
AcDbEntity
  8
0
100
AcDbLine
 10
196.1303563973641
 20
441.4553643184743
 30
0.0
 11
225.7573763645067
 21
441.4553643184742
 31
0.0
  0
LINE
  5
12FC
330
1F
100
AcDbEntity
  8
0
100
AcDbLine
 10
194.4438663809355
 20
434.4553643184742
 30
0.0
 11
194.4438663809355
 21
424.4553643184742
 31
0.0
  0
TEXT
  5
12FD
330
1F
100
AcDbEntity
  8
0
100
AcDbText
 10
204.4300723786169
 20
423.1650623998776
 30
0.0
 40
2.5
  1
B
 50
180.0
  7
CHINESET
100
AcDbText
  0
LINE
  5
12FE
330
1F
100
AcDbEntity
  8
0
100
AcDbLine
 10
204.4438663809353
 20
424.4553643184742
 30
0.0
 11
204.4438663809353
 21
423.4553643184741
 31
0.0
  0
LINE
  5
12FF
330
1F
100
AcDbEntity
  8
0
100
AcDbLine
 10
194.4438663809355
 20
429.4553643184742
 30
0.0
 11
196.1303563973641
 21
441.4553643184742
 31
0.0
  0
LINE
  5
1300
330
1F
100
AcDbEntity
  8
0
100
AcDbLine
 10
195.1465705544474
 20
434.4553643184742
 30
0.0
 11
194.4438663809355
 21
434.4553643184742
 31
0.0
  0
TEXT
  5
1301
330
1F
100
AcDbEntity
  8
0
100
AcDbText
 10
211.8255163433203
 20
423.1650623998776
 30
0.0
 40
2.5
  1
N
 50
180.0
  7
CHINESET
100
AcDbText
  0
TEXT
  5
1302
330
1F
100
AcDbEntity
  8
0
100
AcDbText
 10
220.4300723786169
 20
423.1650623998776
 30
0.0
 40
2.5
  1
A
 50
180.0
  7
CHINESET
100
AcDbText
  0
LINE
  5
1303
330
1F
100
AcDbEntity
  8
0
100
AcDbLine
 10
217.4438663809355
 20
424.4553643184742
 30
0.0
 11
217.4438663809355
 21
423.4553643184741
 31
0.0
  0
LINE
  5
1304
330
1F
100
AcDbEntity
  8
0
100
AcDbLine
 10
227.4438663809355
 20
429.4553643184742
 30
0.0
 11
227.4438663809355
 21
424.4553643184742
 31
0.0
  0
DIMENSION
  5
1305
102
{ACAD_REACTORS
330
1467
330
146A
102
}
330
1F
100
AcDbEntity
  8
AM_5
100
AcDbDimension
  2
*D14
 10
452.4192220037305
 20
458.0495576755417
 30
0.0
 11
448.4817220037303
 21
405.152460997008
 31
0.0
 70
    32
  1
{(<>)}
 71
     5
 42
105.7941933570677
  3
AM_ISO$0
100
AcDbAlignedDimension
 13
366.4426489753093
 23
352.2553643184742
 33
0.0
 14
435.2216481821448
 24
458.0495576755417
 34
0.0
 50
270.0
100
AcDbRotatedDimension
1001
ACAD
1000
DSTYLE
1002
{
1070
    40
1040
1.5
1070
   271
1070
     0
1002
}
  0
LINE
  5
1306
330
1F
100
AcDbEntity
  8
0
100
AcDbLine
 10
174.4438663809354
 20
379.4553643184742
 30
0.0
 11
247.4438663809354
 21
379.4553643184742
 31
0.0
  0
LINE
  5
1307
330
1F
100
AcDbEntity
  8
0
100
AcDbLine
 10
175.4438663809354
 20
385.4553643184742
 30
0.0
 11
246.4438663809354
 21
385.4553643184738
 31
0.0
  0
LINE
  5
1308
330
1F
100
AcDbEntity
  8
0
100
AcDbLine
 10
174.4438663809354
 20
379.4553643184742
 30
0.0
 11
174.4438663809354
 21
384.4553643184742
 31
0.0
  0
LINE
  5
1309
330
1F
100
AcDbEntity
  8
0
100
AcDbLine
 10
247.4438663809354
 20
379.4553643184742
 30
0.0
 11
247.4438663809354
 21
384.4553643184742
 31
0.0
  0
LINE
  5
130A
330
1F
100
AcDbEntity
  8
0
100
AcDbLine
 10
183.9438663809353
 20
408.4553643184742
 30
0.0
 11
237.9438663809354
 21
408.4553643184742
 31
0.0
  0
LINE
  5
130B
330
1F
100
AcDbEntity
  8
0
100
AcDbLine
 10
182.9438663809354
 20
389.4553643184742
 30
0.0
 11
182.9438663809354
 21
407.4553643184741
 31
0.0
  0
LINE
  5
130C
330
1F
100
AcDbEntity
  8
0
100
AcDbLine
 10
238.9438663809353
 20
389.4553643184739
 30
0.0
 11
238.9438663809354
 21
407.4553643184741
 31
0.0
  0
ARC
  5
130D
330
1F
100
AcDbEntity
  8
0
100
AcDbCircle
 10
237.9438663809354
 20
407.4553643184741
 30
0.0
 40
1.0
100
AcDbArc
 50
0.0
 51
90.0
  0
ARC
  5
130E
330
1F
100
AcDbEntity
  8
0
100
AcDbCircle
 10
183.9438663809353
 20
407.4553643184741
 30
0.0
 40
1.0
100
AcDbArc
 50
90.0
 51
180.0
  0
LINE
  5
130F
330
1F
100
AcDbEntity
  8
0
100
AcDbLine
 10
191.9438663809354
 20
408.4553643184742
 30
0.0
 11
191.9438663809354
 21
420.5982214613313
 31
0.0
  0
LINE
  5
1310
330
1F
100
AcDbEntity
  8
0
100
AcDbLine
 10
229.9438663809354
 20
408.4553643184742
 30
0.0
 11
229.9438663809354
 21
420.5982214613313
 31
0.0
  0
LINE
  5
1311
330
1F
100
AcDbEntity
  8
0
100
AcDbLine
 10
194.4438663809354
 20
423.4553643184741
 30
0.0
 11
227.4438663809354
 21
423.4553643184741
 31
0.0
  0
LINE
  5
1312
330
1F
100
AcDbEntity
  8
0
100
AcDbLine
 10
194.4438663809354
 20
423.4553643184741
 30
0.0
 11
191.9438663809354
 21
420.5982214613313
 31
0.0
  0
LINE
  5
1313
330
1F
100
AcDbEntity
  8
0
100
AcDbLine
 10
227.4438663809354
 20
423.4553643184741
 30
0.0
 11
229.9438663809354
 21
420.5982214613313
 31
0.0
  0
LINE
  5
1314
330
1F
100
AcDbEntity
  8
0
100
AcDbLine
 10
312.9426489753092
 20
423.2553643184742
 30
0.0
 11
345.9426489753091
 21
423.2553643184742
 31
0.0
  0
LINE
  5
1315
330
1F
100
AcDbEntity
  8
0
100
AcDbLine
 10
301.4426489753092
 20
387.2553643184742
 30
0.0
 11
301.4426489753092
 21
399.2553643184741
 31
0.0
  0
LINE
  5
1316
330
1F
100
AcDbEntity
  8
0
100
AcDbLine
 10
309.4426489753092
 20
410.2553643184741
 30
0.0
 11
309.4426489753092
 21
419.2553643184742
 31
0.0
  0
LINE
  5
1317
330
1F
100
AcDbEntity
  8
0
100
AcDbLine
 10
312.9426489753092
 20
423.2553643184742
 30
0.0
 11
309.4426489753092
 21
419.2553643184742
 31
0.0
  0
LINE
  5
1318
330
1F
100
AcDbEntity
  8
0
100
AcDbLine
 10
357.442648975309
 20
387.2553643184742
 30
0.0
 11
357.442648975309
 21
399.2553643184744
 31
0.0
  0
LINE
  5
1319
330
1F
100
AcDbEntity
  8
0
100
AcDbLine
 10
349.4426489753091
 20
410.2553643184741
 30
0.0
 11
349.4426489753091
 21
419.2553643184743
 31
0.0
  0
LINE
  5
131A
330
1F
100
AcDbEntity
  8
0
100
AcDbLine
 10
345.9426489753091
 20
423.2553643184742
 30
0.0
 11
349.4426489753091
 21
419.2553643184742
 31
0.0
  0
LINE
  5
131B
330
1F
100
AcDbEntity
  8
0
100
AcDbLine
 10
296.4426489753092
 20
379.2553643184742
 30
0.0
 11
296.4426489753092
 21
384.2553643184741
 31
0.0
  0
LINE
  5
131C
330
1F
100
AcDbEntity
  8
0
100
AcDbLine
 10
362.4426489753091
 20
379.2553643184742
 30
0.0
 11
362.4426489753091
 21
384.2553643184741
 31
0.0
  0
ARC
  5
131D
330
1F
100
AcDbEntity
  8
0
100
AcDbCircle
 10
297.4426489753092
 20
384.2553643184741
 30
0.0
 40
1.0
100
AcDbArc
 50
90.0
 51
180.0
  0
ARC
  5
131E
330
1F
100
AcDbEntity
  8
0
100
AcDbCircle
 10
361.442648975309
 20
384.2553643184741
 30
0.0
 40
1.0
100
AcDbArc
 50
0.0
 51
90.0
  0
LINE
  5
131F
330
1F
100
AcDbEntity
  8
0
100
AcDbLine
 10
301.4426489753092
 20
399.2553643184742
 30
0.0
 11
306.4426489753092
 21
408.2553643184741
 31
0.0
  0
LINE
  5
1320
330
1F
100
AcDbEntity
  8
0
100
AcDbLine
 10
352.4426489753091
 20
408.2553643184741
 30
0.0
 11
357.442648975309
 21
399.2553643184742
 31
0.0
  0
LINE
  5
1321
330
1F
100
AcDbEntity
  8
0
100
AcDbLine
 10
234.9438663809354
 20
408.4553643184742
 30
0.0
 11
234.9438663809354
 21
409.9553643184742
 31
0.0
  0
LINE
  5
1322
330
1F
100
AcDbEntity
  8
0
100
AcDbLine
 10
237.9438663809354
 20
408.4553643184742
 30
0.0
 11
237.9438663809354
 21
409.9553643184742
 31
0.0
  0
LINE
  5
1323
330
1F
100
AcDbEntity
  8
0
100
AcDbLine
 10
234.9438663809354
 20
409.9553643184742
 30
0.0
 11
237.9438663809354
 21
409.9553643184742
 31
0.0
  0
LINE
  5
1324
330
1F
100
AcDbEntity
  8
0
100
AcDbLine
 10
183.9438663809353
 20
408.4553643184742
 30
0.0
 11
183.9438663809353
 21
409.9553643184742
 31
0.0
  0
LINE
  5
1325
330
1F
100
AcDbEntity
  8
0
100
AcDbLine
 10
186.9438663809354
 20
408.4553643184742
 30
0.0
 11
186.9438663809354
 21
409.9553643184742
 31
0.0
  0
LINE
  5
1326
330
1F
100
AcDbEntity
  8
0
100
AcDbLine
 10
183.9438663809353
 20
409.9553643184742
 30
0.0
 11
186.9438663809354
 21
409.9553643184742
 31
0.0
  0
ARC
  5
1327
330
1F
100
AcDbEntity
  8
0
100
AcDbCircle
 10
246.4438663809354
 20
384.4553643184742
 30
0.0
 40
1.0
100
AcDbArc
 50
0.0
 51
90.0
  0
ARC
  5
1328
330
1F
100
AcDbEntity
  8
0
100
AcDbCircle
 10
175.4438663809354
 20
384.4553643184742
 30
0.0
 40
1.0
100
AcDbArc
 50
90.0
 51
180.0
  0
LINE
  5
1329
330
1F
100
AcDbEntity
  8
0
100
AcDbLine
 10
297.4426489753092
 20
385.2553643184742
 30
0.0
 11
361.442648975309
 21
385.2553643184742
 31
0.0
  0
LINE
  5
132A
102
{ACAD_REACTORS
330
146A
102
}
330
1F
100
AcDbEntity
  8
0
100
AcDbLine
 10
306.4426489753093
 20
408.2553643184745
 30
0.0
 11
352.4426489753091
 21
408.2553643184741
 31
0.0
  0
LINE
  5
132B
330
1F
100
AcDbEntity
  8
center
  6
CENTER
 48
0.4
100
AcDbLine
 10
185.4438663809354
 20
411.6676207814078
 30
0.0
 11
185.4438663809354
 21
406.0780941448109
 31
0.0
  0
LINE
  5
132C
330
1F
100
AcDbEntity
  8
center
  6
CENTER
 48
0.4
100
AcDbLine
 10
236.4438663809354
 20
411.6676207814078
 30
0.0
 11
236.4438663809354
 21
406.0780941448109
 31
0.0
  0
LINE
  5
132D
330
1F
100
AcDbEntity
  8
0
100
AcDbLine
 10
312.2371083240216
 20
423.2083282750549
 30
0.0
 11
310.1456129318901
 21
420.8180478269047
 31
0.0
  0
LINE
  5
132E
330
1F
100
AcDbEntity
  8
0
 62
     3
100
AcDbLine
 10
348.692648975309
 20
410.2553643184741
 30
0.0
 11
348.692648975309
 21
420.1125071756171
 31
0.0
  0
LINE
  5
132F
330
1F
100
AcDbEntity
  8
0
 62
     3
100
AcDbLine
 10
310.1926489753092
 20
410.2553643184741
 30
0.0
 11
310.1926489753092
 21
420.1125071756171
 31
0.0
  0
LINE
  5
1330
330
1F
100
AcDbEntity
  8
0
100
AcDbLine
 10
310.4426489753091
 20
408.2553643184741
 30
0.0
 11
310.4426489753091
 21
410.2553643184741
 31
0.0
  0
LINE
  5
1331
330
1F
100
AcDbEntity
  8
0
100
AcDbLine
 10
348.442648975309
 20
408.2553643184741
 30
0.0
 11
348.442648975309
 21
410.2553643184741
 31
0.0
  0
LINE
  5
1332
330
1F
100
AcDbEntity
  8
0
100
AcDbLine
 10
309.4426489753092
 20
410.2553643184741
 30
0.0
 11
349.4426489753091
 21
410.2553643184741
 31
0.0
  0
LINE
  5
1333
330
1F
100
AcDbEntity
  8
0
100
AcDbLine
 10
309.4426489753092
 20
419.2553643184742
 30
0.0
 11
310.1926489753092
 21
419.2553643184742
 31
0.0
  0
LINE
  5
1334
330
1F
100
AcDbEntity
  8
0
100
AcDbLine
 10
348.692648975309
 20
419.2553643184743
 30
0.0
 11
349.4426489753091
 21
419.2553643184743
 31
0.0
  0
LINE
  5
1335
330
1F
100
AcDbEntity
  8
0
100
AcDbLine
 10
312.6133966713749
 20
422.8790759711206
 30
0.0
 11
312.2371083240214
 21
423.208328275055
 31
0.0
  0
LINE
  5
1336
330
1F
100
AcDbEntity
  8
0
100
AcDbLine
 10
310.5219012792434
 20
420.4887955229705
 30
0.0
 11
310.14561293189
 21
420.8180478269047
 31
0.0
  0
ARC
  5
1337
330
1F
100
AcDbEntity
  8
0
100
AcDbCircle
 10
359.442648975309
 20
387.2553643184742
 30
0.0
 40
2.0
100
AcDbArc
 50
180.0
 51
270.0
  0
ARC
  5
1338
330
1F
100
AcDbEntity
  8
0
100
AcDbCircle
 10
299.4426489753092
 20
387.2553643184742
 30
0.0
 40
2.0
100
AcDbArc
 50
270.0
 51
0.0
  0
LINE
  5
1339
330
1F
100
AcDbEntity
  8
0
100
AcDbLine
 10
184.1110506509378
 20
399.4553643184742
 30
0.0
 11
237.7766821109328
 21
399.4553643184742
 31
0.0
  0
LINE
  5
133A
330
1F
100
AcDbEntity
  8
0
 62
     3
100
AcDbLine
 10
191.9438663809354
 20
410.4553643184742
 30
0.0
 11
229.9438663809354
 21
410.4553643184742
 31
0.0
  0
LINE
  5
133B
330
1F
100
AcDbEntity
  8
0
100
AcDbLine
 10
191.9438663809354
 20
419.4553643184741
 30
0.0
 11
229.9438663809354
 21
420.5982214613313
 31
0.0
  0
LINE
  5
133C
330
1F
100
AcDbEntity
  8
0
100
AcDbLine
 10
184.1110506509379
 20
399.4553643184742
 30
0.0
 11
189.3800077280876
 21
408.4553643184742
 31
0.0
  0
LINE
  5
133D
330
1F
100
AcDbEntity
  8
0
100
AcDbLine
 10
232.5077250337832
 20
408.4553643184742
 30
0.0
 11
237.7766821109329
 21
399.4553643184742
 31
0.0
  0
LINE
  5
133E
330
1F
100
AcDbEntity
  8
0
100
AcDbLine
 10
188.2943630751233
 20
385.4553643184741
 30
0.0
 11
188.2943630751233
 21
379.4553643184742
 31
0.0
  0
LINE
  5
133F
330
1F
100
AcDbEntity
  8
0
100
AcDbLine
 10
233.5933696867476
 20
385.4553643184739
 30
0.0
 11
233.5933696867476
 21
379.4553643184742
 31
0.0
  0
LINE
  5
1340
330
1F
100
AcDbEntity
  8
center
  6
CENTER
100
AcDbLine
 10
241.9438663809354
 20
391.6805433936895
 30
0.0
 11
241.9438663809354
 21
383.499889360929
 31
0.0
  0
LINE
  5
1341
330
1F
100
AcDbEntity
  8
0
100
AcDbLine
 10
191.9438663809354
 20
420.5982214613313
 30
0.0
 11
229.9438663809354
 21
420.5982214613313
 31
0.0
  0
LINE
  5
1342
330
1F
100
AcDbEntity
  8
0
 62
     3
100
AcDbLine
 10
191.9438663809354
 20
417.9553643184742
 30
0.0
 11
229.9438663809354
 21
419.0982214613312
 31
0.0
  0
LINE
  5
1343
330
1F
100
AcDbEntity
  8
0
 62
     3
100
AcDbLine
 10
191.9438663809354
 20
416.4553643184742
 30
0.0
 11
229.9438663809354
 21
417.5982214613313
 31
0.0
  0
LINE
  5
1344
330
1F
100
AcDbEntity
  8
0
 62
     3
100
AcDbLine
 10
191.9438663809354
 20
414.9553643184741
 30
0.0
 11
229.9438663809354
 21
416.0982214613313
 31
0.0
  0
LINE
  5
1345
330
1F
100
AcDbEntity
  8
0
 62
     3
100
AcDbLine
 10
191.9438663809354
 20
413.4553643184742
 30
0.0
 11
229.9438663809354
 21
414.5982214613312
 31
0.0
  0
LINE
  5
1346
330
1F
100
AcDbEntity
  8
0
 62
     3
100
AcDbLine
 10
191.9438663809354
 20
411.9553643184742
 30
0.0
 11
229.9438663809354
 21
413.0982214613313
 31
0.0
  0
LINE
  5
1347
330
1F
100
AcDbEntity
  8
0
 62
     3
100
AcDbLine
 10
191.9889587740832
 20
410.4560422463095
 30
0.0
 11
229.9438663809354
 21
411.5975432269666
 31
0.0
  0
LINE
  5
1348
330
1F
100
AcDbEntity
  8
0
100
AcDbLine
 10
173.9438663809354
 20
352.4553643184742
 30
0.0
 11
247.9438663809355
 21
352.4553643184742
 31
0.0
  0
LINE
  5
1349
330
1F
100
AcDbEntity
  8
0
100
AcDbLine
 10
247.9438663809355
 20
377.9553643184742
 30
0.0
 11
247.9438663809355
 21
352.4553643184742
 31
0.0
  0
LINE
  5
134A
330
1F
100
AcDbEntity
  8
0
100
AcDbLine
 10
173.9438663809354
 20
377.9553643184742
 30
0.0
 11
173.9438663809354
 21
352.4553643184742
 31
0.0
  0
LINE
  5
134B
330
1F
100
AcDbEntity
  8
0
100
AcDbLine
 10
247.4438663809355
 20
379.4553643184742
 30
0.0
 11
247.9438663809355
 21
352.4553643184742
 31
0.0
  0
LINE
  5
134C
330
1F
100
AcDbEntity
  8
0
100
AcDbLine
 10
173.9438663809354
 20
352.4553643184742
 30
0.0
 11
174.4438663809354
 21
379.4553643184742
 31
0.0
  0
LINE
  5
134D
330
1F
100
AcDbEntity
  8
0
100
AcDbLine
 10
173.9438663809354
 20
377.9553643184742
 30
0.0
 11
174.4160886031576
 21
377.9553643184742
 31
0.0
  0
LINE
  5
134E
330
1F
100
AcDbEntity
  8
0
100
AcDbLine
 10
247.4716441587132
 20
377.9553643184742
 30
0.0
 11
247.9438663809355
 21
377.9553643184742
 31
0.0
  0
LINE
  5
134F
330
1F
100
AcDbEntity
  8
0
100
AcDbLine
 10
230.9438663809354
 20
377.9553643184742
 30
0.0
 11
230.9438663809354
 21
352.4553643184742
 31
0.0
  0
LINE
  5
1350
330
1F
100
AcDbEntity
  8
0
100
AcDbLine
 10
190.9438663809354
 20
377.9553643184742
 30
0.0
 11
190.9438663809354
 21
352.4553643184742
 31
0.0
  0
LINE
  5
1351
330
1F
100
AcDbEntity
  8
0
100
AcDbLine
 10
190.9438663809354
 20
377.9553643184742
 30
0.0
 11
230.9438663809354
 21
377.9553643184742
 31
0.0
  0
LINE
  5
1352
330
1F
100
AcDbEntity
  8
0
100
AcDbLine
 10
191.9438663809354
 20
354.2553643184742
 30
0.0
 11
196.9438663809354
 21
354.2553643184743
 31
0.0
  0
LINE
  5
1353
330
1F
100
AcDbEntity
  8
0
100
AcDbLine
 10
191.9438663809354
 20
359.2553643184742
 30
0.0
 11
196.9438663809354
 21
359.2553643184742
 31
0.0
  0
LINE
  5
1354
330
1F
100
AcDbEntity
  8
0
100
AcDbLine
 10
196.9438663809354
 20
359.2553643184742
 30
0.0
 11
196.9438663809354
 21
354.2553643184742
 31
0.0
  0
LINE
  5
1355
330
1F
100
AcDbEntity
  8
0
100
AcDbLine
 10
191.9438663809354
 20
359.2553643184742
 30
0.0
 11
191.9438663809354
 21
354.2553643184742
 31
0.0
  0
TEXT
  5
1356
330
1F
100
AcDbEntity
  8
0
100
AcDbText
 10
194.0118732994294
 20
355.4058157841832
 30
0.0
 40
3.0
  1
1
  7
CHINESET
100
AcDbText
  0
TEXT
  5
1357
330
1F
100
AcDbEntity
  8
0
100
AcDbText
 10
198.0439621271507
 20
355.4058157841832
 30
0.0
 40
3.0
  1
P
  7
CHINESET
100
AcDbText
  0
LINE
  5
1358
330
1F
100
AcDbEntity
  8
0
100
AcDbLine
 10
292.4426489753103
 20
352.2553643184742
 30
0.0
 11
292.9426489753092
 21
379.2553643184742
 31
0.0
  0
LINE
  5
1359
102
{ACAD_REACTORS
330
1467
330
146A
102
}
330
1F
100
AcDbEntity
  8
0
100
AcDbLine
 10
365.9426489753093
 20
379.2553643184742
 30
0.0
 11
366.4426489753081
 21
352.2553643184742
 31
0.0
  0
LINE
  5
135A
330
1F
100
AcDbEntity
  8
0
100
AcDbLine
 10
292.4426489753092
 20
377.7553643184742
 30
0.0
 11
292.4426489753092
 21
352.2553643184742
 31
0.0
  0
LINE
  5
135B
102
{ACAD_REACTORS
330
1467
330
146A
102
}
330
1F
100
AcDbEntity
  8
0
100
AcDbLine
 10
366.4426489753093
 20
377.7553643184742
 30
0.0
 11
366.4426489753093
 21
352.2553643184742
 31
0.0
  0
LINE
  5
135C
330
1F
100
AcDbEntity
  8
0
100
AcDbLine
 10
292.4426489753092
 20
377.7553643184742
 30
0.0
 11
292.9148711975315
 21
377.7553643184742
 31
0.0
  0
LINE
  5
135D
330
1F
100
AcDbEntity
  8
0
100
AcDbLine
 10
365.9704267530869
 20
377.7553643184742
 30
0.0
 11
366.4426489753093
 21
377.7553643184742
 31
0.0
  0
LINE
  5
135E
330
1F
100
AcDbEntity
  8
0
100
AcDbLine
 10
292.4426489753092
 20
352.2553643184742
 30
0.0
 11
366.4426489753093
 21
352.2553643184742
 31
0.0
  0
LINE
  5
135F
102
{ACAD_REACTORS
330
1467
102
}
330
1F
100
AcDbEntity
  8
0
100
AcDbLine
 10
292.9426489753092
 20
379.2553643184742
 30
0.0
 11
365.9426489753093
 21
379.2553643184742
 31
0.0
  0
DIMENSION
  5
1360
330
1F
100
AcDbEntity
  8
AM_5
100
AcDbDimension
  2
*D11
 10
440.4192220037304
 20
482.4190025075941
 30
0.0
 11
384.9309354895198
 21
486.356502507594
 31
0.0
 70
    32
  1
(<>)
 71
     5
 42
110.9765730284212
  3
AM_ISO$0
100
AcDbAlignedDimension
 13
329.4426489753092
 23
445.7256163721242
 33
0.0
 14
440.4192220037304
 24
439.6227878785567
 34
0.0
100
AcDbRotatedDimension
1001
ACAD
1000
DSTYLE
1002
{
1070
    40
1040
1.5
1070
   271
1070
     0
1002
}
  0
LINE
  5
1361
330
1F
100
AcDbEntity
  8
0
100
AcDbLine
 10
345.8914428951611
 20
429.6197145107608
 30
0.0
 11
390.4535059885319
 21
435.8825040539636
 31
0.0
  0
LINE
  5
1362
330
1F
100
AcDbEntity
  8
0
100
AcDbLine
 10
344.5692984360407
 20
439.0272611638057
 30
0.0
 11
389.1313615294113
 21
445.2900507070086
 31
0.0
  0
LINE
  5
1363
330
1F
100
AcDbEntity
  8
center
  6
CENTER
100
AcDbLine
 10
342.159267491299
 20
433.8918724337097
 30
0.0
 11
441.4132623861532
 21
447.8411117237794
 31
0.0
  0
ELLIPSE
  5
1364
330
1F
100
AcDbEntity
  8
0
100
AcDbEllipse
 10
210.9438663809355
 20
440.3089428797146
 30
0.0
 11
-4.75
 21
0.0
 31
0.0
210
0.0
220
0.0
230
1.0
 40
0.9902680687415688
 41
3.387796231797044
 42
6.036981728972332
  0
ELLIPSE
  5
1365
330
1F
100
AcDbEntity
  8
0
100
AcDbEllipse
 10
210.9438663809355
 20
440.3089428797146
 30
0.0
 11
-6.0
 21
0.0
 31
0.0
210
0.0
220
0.0
230
1.0
 40
0.9902680687415758
 41
3.335758370793615
 42
6.089019589975761
  0
ARC
  5
1366
330
1F
100
AcDbEntity
  8
0
100
AcDbCircle
 10
317.9426489753093
 20
425.1815003469002
 30
0.0
 40
3.0
100
AcDbArc
 50
197.9816273404514
 51
219.944505189818
  0
ARC
  5
1367
330
1F
100
AcDbEntity
  8
0
100
AcDbCircle
 10
210.9438663809355
 20
425.3815003469
 30
0.0
 40
3.0
100
AcDbArc
 50
320.0554948101819
 51
342.0183726595501
  0
ARC
  5
1368
330
1F
100
AcDbEntity
  8
0
100
AcDbCircle
 10
210.9438663809355
 20
425.3815003469
 30
0.0
 40
3.0
100
AcDbArc
 50
197.9816273404499
 51
219.944505189817
  0
LINE
  5
1369
330
1F
100
AcDbEntity
  8
0
100
AcDbLine
 10
440.4192220037304
 20
439.6227878785568
 30
0.0
 11
438.1924523883696
 21
455.467076978422
 31
0.0
  0
LINE
  5
136A
330
1F
100
AcDbEntity
  8
0
100
AcDbLine
 10
390.5731408279141
 20
435.0312579400813
 30
0.0
 11
389.011726690029
 21
446.141296820891
 31
0.0
  0
LINE
  5
136B
330
1F
100
AcDbEntity
  8
0
100
AcDbLine
 10
411.1286992443637
 20
432.4767906435301
 30
0.0
 11
408.0668910232422
 21
454.2626881558446
 31
0.0
  0
LINE
  5
136C
330
1F
100
AcDbEntity
  8
0
100
AcDbLine
 10
409.2859667245583
 20
454.434018072473
 30
0.0
 11
434.8041288792646
 21
458.0203618817665
 31
0.0
  0
LINE
  5
136D
330
1F
100
AcDbEntity
  8
0
100
AcDbLine
 10
412.3477749456796
 20
432.6481205601585
 30
0.0
 11
437.8659371003859
 21
436.2344643694519
 31
0.0
  0
ARC
  5
136E
330
1F
100
AcDbEntity
  8
0
100
AcDbCircle
 10
435.2216481821448
 20
455.0495576755418
 30
0.0
 40
3.0
100
AcDbArc
 50
8.000000000000873
 51
98.00000000000089
  0
ARC
  5
136F
330
1F
100
AcDbEntity
  8
0
100
AcDbCircle
 10
437.4484177975059
 20
439.2052685756765
 30
0.0
 40
3.0
100
AcDbArc
 50
278.0000000000009
 51
7.999999999999034
  0
LINE
  5
1370
330
1F
100
AcDbEntity
  8
0
100
AcDbLine
 10
389.3192642118378
 20
446.6743567238678
 30
0.0
 11
406.9257674829176
 21
453.8008044349917
 31
0.0
  0
LINE
  5
1371
330
1F
100
AcDbEntity
  8
0
100
AcDbLine
 10
391.0156960898411
 20
434.603616703035
 30
0.0
 11
409.9044684872053
 21
432.6062454970479
 31
0.0
  0
ARC
  5
1372
330
1F
100
AcDbEntity
  8
0
100
AcDbCircle
 10
410.6776977341591
 20
444.5313373850574
 30
0.0
 40
10.0
100
AcDbArc
 50
98.00000000000089
 51
112.03624346793
  0
ARC
  5
1373
330
1F
100
AcDbEntity
  8
0
100
AcDbCircle
 10
410.956043936079
 20
442.5508012475742
 30
0.0
 40
10.0
100
AcDbArc
 50
263.9637565320698
 51
278.0000000000009
  0
ARC
  5
1374
330
1F
100
AcDbEntity
  8
0
100
AcDbCircle
 10
389.5068607243997
 20
446.2108833713712
 30
0.0
 40
0.5
100
AcDbArc
 50
112.03624346793
 51
188.0000000000009
  0
ARC
  5
1375
330
1F
100
AcDbEntity
  8
0
100
AcDbCircle
 10
391.0682748622848
 20
435.1008444905613
 30
0.0
 40
0.5
100
AcDbArc
 50
188.0000000000009
 51
263.9637565320698
  0
DIMENSION
  5
1376
330
1F
100
AcDbEntity
  8
AM_5
100
AcDbDimension
  2
*D12
 10
341.9670559166211
 20
456.3858317162576
 30
0.0
 11
388.3460073710979
 21
467.3861390656194
 31
0.0
 70
    33
  1
(<>)
 71
     5
 42
95.00526301210909
  3
AM_ISO$0
100
AcDbAlignedDimension
 13
438.1924523883696
 23
455.4670769784219
 33
0.0
 14
344.2561589588803
 24
441.2553643184742
 34
0.0
1001
ACAD
1000
DSTYLE
1002
{
1070
    40
1040
1.5
1070
   271
1070
     0
1002
}
  0
LINE
  5
1377
330
1F
100
AcDbEntity
  8
0
100
AcDbLine
 10
199.9438663809355
 20
447.5449324284894
 30
0.0
 11
199.9438663809355
 21
443.3697393996939
 31
0.0
  0
LINE
  5
1378
330
1F
100
AcDbEntity
  8
0
100
AcDbLine
 10
221.9438663809355
 20
447.5449324284894
 30
0.0
 11
221.9438663809355
 21
443.3697393996886
 31
0.0
  0
ARC
  5
1379
330
1F
100
AcDbEntity
  8
0
100
AcDbCircle
 10
210.9438663809355
 20
447.0378772899932
 30
0.0
 40
11.01168038554858
100
AcDbArc
 50
357.3607664878995
 51
182.6392335121004
  0
ARC
  5
137A
330
1F
100
AcDbEntity
  8
0
100
AcDbCircle
 10
210.9438663809354
 20
443.2710295681059
 30
0.0
 40
11.00044288339572
100
AcDbArc
 50
350.4996383183192
 51
189.5003616816792
  0
LINE
  5
137B
330
1F
100
AcDbEntity
  8
0
100
AcDbLine
 10
301.4426489753091
 20
399.2553643184741
 30
0.0
 11
321.4426489753092
 21
399.2553643184741
 31
0.0
  0
ARC
  5
137C
330
1F
100
AcDbEntity
  8
0
100
AcDbCircle
 10
317.9426489753093
 20
425.1815003469002
 30
0.0
 40
3.0
100
AcDbArc
 50
320.0554948101819
 51
342.0183726595486
  0
LINE
  5
137D
330
1F
100
AcDbEntity
  8
0
 62
     3
100
AcDbLine
 10
309.4426489753094
 20
411.7252891305045
 30
0.0
 11
349.4426489753091
 21
412.9282966493014
 31
0.0
  0
LINE
  5
137E
330
1F
100
AcDbEntity
  8
0
 62
     3
100
AcDbLine
 10
309.4426489753094
 20
413.2252891305045
 30
0.0
 11
349.4426489753091
 21
414.4282966493014
 31
0.0
  0
LINE
  5
137F
330
1F
100
AcDbEntity
  8
0
 62
     3
100
AcDbLine
 10
309.4426489753094
 20
414.7252891305044
 30
0.0
 11
349.4426489753091
 21
415.9282966493014
 31
0.0
  0
LINE
  5
1380
330
1F
100
AcDbEntity
  8
0
 62
     3
100
AcDbLine
 10
309.4426489753094
 20
416.2252891305045
 30
0.0
 11
349.4426489753091
 21
417.4282966493014
 31
0.0
  0
LINE
  5
1381
330
1F
100
AcDbEntity
  8
0
 62
     3
100
AcDbLine
 10
309.4426489753094
 20
417.7252891305045
 30
0.0
 11
349.4426489753091
 21
418.9282966493014
 31
0.0
  0
LINE
  5
1382
330
1F
100
AcDbEntity
  8
0
100
AcDbLine
 10
310.4426489753091
 20
420.3982214613315
 30
0.0
 11
348.442648975309
 21
420.3982214613315
 31
0.0
  0
LINE
  5
1383
330
1F
100
AcDbEntity
  8
0
 62
     3
100
AcDbLine
 10
310.1926489753093
 20
419.2478455214819
 30
0.0
 11
348.442648975309
 21
420.3982214613315
 31
0.0
  0
LINE
  5
1384
330
1F
100
AcDbEntity
  8
0
 62
     3
100
AcDbLine
 10
310.4877413684568
 20
410.2560422463097
 30
0.0
 11
349.4426489753091
 21
411.4276184149368
 31
0.0
  0
LINE
  5
1385
330
1F
100
AcDbEntity
  8
0
100
AcDbLine
 10
327.9426489753092
 20
409.7553643184744
 30
0.0
 11
330.9426489753092
 21
409.7553643184744
 31
0.0
  0
LINE
  5
1386
330
1F
100
AcDbEntity
  8
0
100
AcDbLine
 10
330.9426489753092
 20
408.2553643184743
 30
0.0
 11
330.9426489753092
 21
409.7553643184744
 31
0.0
  0
LINE
  5
1387
330
1F
100
AcDbEntity
  8
0
100
AcDbLine
 10
327.9426489753092
 20
408.2553643184743
 30
0.0
 11
327.9426489753092
 21
409.7553643184744
 31
0.0
  0
LINE
  5
1388
330
1F
100
AcDbEntity
  8
0
100
AcDbLine
 10
321.4426489753092
 20
408.2553643184743
 30
0.0
 11
321.4426489753092
 21
399.2553643184741
 31
0.0
  0
LINE
  5
1389
330
1F
100
AcDbEntity
  8
0
100
AcDbLine
 10
337.4426489753092
 20
408.2553643184742
 30
0.0
 11
337.4426489753092
 21
399.2553643184742
 31
0.0
  0
LINE
  5
138A
330
1F
100
AcDbEntity
  8
0
100
AcDbLine
 10
337.4426489753092
 20
399.2553643184741
 30
0.0
 11
357.442648975309
 21
399.2553643184742
 31
0.0
  0
ARC
  5
138B
330
1F
100
AcDbEntity
  8
0
100
AcDbCircle
 10
315.4426489753093
 20
388.2553643184742
 30
0.0
 40
1.0
100
AcDbArc
 50
0.0
 51
90.0
  0
LINE
  5
138C
330
1F
100
AcDbEntity
  8
center
  6
CENTER
100
AcDbLine
 10
311.4426489753092
 20
391.4805433936899
 30
0.0
 11
311.4426489753092
 21
383.168187983289
 31
0.0
  0
LINE
  5
138D
330
1F
100
AcDbEntity
  8
0
100
AcDbLine
 10
307.4426489753092
 20
389.2553643184742
 30
0.0
 11
315.4426489753093
 21
389.2553643184742
 31
0.0
  0
LINE
  5
138E
330
1F
100
AcDbEntity
  8
0
100
AcDbLine
 10
316.4426489753093
 20
388.2553643184742
 30
0.0
 11
316.4426489753092
 21
385.2385802750941
 31
0.0
  0
LINE
  5
138F
330
1F
100
AcDbEntity
  8
0
100
AcDbLine
 10
306.4426489753092
 20
388.2553643184742
 30
0.0
 11
306.4426489753092
 21
385.2553643184742
 31
0.0
  0
ARC
  5
1390
330
1F
100
AcDbEntity
  8
0
100
AcDbCircle
 10
307.4426489753092
 20
388.2553643184742
 30
0.0
 40
1.0
100
AcDbArc
 50
90.0
 51
180.0
  0
LINE
  5
1391
330
1F
100
AcDbEntity
  8
0
100
AcDbLine
 10
343.4426489753091
 20
389.2553643184742
 30
0.0
 11
351.4426489753093
 21
389.2553643184742
 31
0.0
  0
LINE
  5
1392
330
1F
100
AcDbEntity
  8
0
100
AcDbLine
 10
342.442648975309
 20
388.2553643184742
 30
0.0
 11
342.442648975309
 21
385.2553643184742
 31
0.0
  0
ARC
  5
1393
330
1F
100
AcDbEntity
  8
0
100
AcDbCircle
 10
343.4426489753091
 20
388.2553643184742
 30
0.0
 40
1.0
100
AcDbArc
 50
90.0
 51
180.0
  0
LINE
  5
1394
330
1F
100
AcDbEntity
  8
0
100
AcDbLine
 10
352.4426489753093
 20
388.2553643184742
 30
0.0
 11
352.4426489753091
 21
385.2385802750941
 31
0.0
  0
ARC
  5
1395
330
1F
100
AcDbEntity
  8
0
100
AcDbCircle
 10
351.4426489753093
 20
388.2553643184742
 30
0.0
 40
1.0
100
AcDbArc
 50
0.0
 51
90.0
  0
LINE
  5
1396
330
1F
100
AcDbEntity
  8
0
100
AcDbLine
 10
309.442648975309
 20
377.7553643184742
 30
0.0
 11
309.442648975309
 21
352.2553643184742
 31
0.0
  0
LINE
  5
1397
330
1F
100
AcDbEntity
  8
0
100
AcDbLine
 10
349.4426489753091
 20
377.7553643184742
 30
0.0
 11
349.4426489753091
 21
352.2553643184742
 31
0.0
  0
LINE
  5
1398
330
1F
100
AcDbEntity
  8
0
100
AcDbLine
 10
310.4426489753091
 20
359.0553643184741
 30
0.0
 11
315.442648975309
 21
359.0553643184741
 31
0.0
  0
LINE
  5
1399
330
1F
100
AcDbEntity
  8
0
100
AcDbLine
 10
310.4426489753091
 20
354.0553643184741
 30
0.0
 11
315.442648975309
 21
354.0553643184742
 31
0.0
  0
LINE
  5
139A
330
1F
100
AcDbEntity
  8
0
100
AcDbLine
 10
310.4426489753091
 20
359.0553643184741
 30
0.0
 11
310.4426489753091
 21
354.0553643184741
 31
0.0
  0
TEXT
  5
139B
330
1F
100
AcDbEntity
  8
0
100
AcDbText
 10
312.5106558938032
 20
355.2058157841831
 30
0.0
 40
3.0
  1
4
  7
CHINESET
100
AcDbText
  0
LINE
  5
139C
330
1F
100
AcDbEntity
  8
0
100
AcDbLine
 10
315.442648975309
 20
359.0553643184741
 30
0.0
 11
315.442648975309
 21
354.0553643184741
 31
0.0
  0
TEXT
  5
139D
330
1F
100
AcDbEntity
  8
0
100
AcDbText
 10
316.5427447215245
 20
355.2058157841831
 30
0.0
 40
3.0
  1
A
  7
CHINESET
100
AcDbText
  0
LINE
  5
139E
330
1F
100
AcDbEntity
  8
0
100
AcDbLine
 10
309.442648975309
 20
377.7553643184742
 30
0.0
 11
349.4426489753091
 21
377.7553643184742
 31
0.0
  0
DIMENSION
  5
139F
330
1F
100
AcDbEntity
  8
AM_5
100
AcDbDimension
  2
*D13
 10
236.4438663809354
 20
470.0495576755417
 30
0.0
 11
210.9438663809354
 21
473.7245576755418
 31
0.0
 70
    32
 71
     5
 42
51.0
  3
AM_ISO$0
100
AcDbAlignedDimension
 13
185.4438663809354
 23
411.6676207814078
 33
0.0
 14
236.4438663809354
 24
411.6676207814078
 34
0.0
100
AcDbRotatedDimension
1001
ACAD
1000
DSTYLE
1002
{
1070
    40
1040
1.5
1002
}
  0
LINE
  5
13A0
330
1F
100
AcDbEntity
  8
0
100
AcDbLine
 10
360.4426489753091
 20
317.5672752985487
 30
0.0
 11
298.4426489753093
 21
317.5672752985487
 31
0.0
  0
LINE
  5
13A1
330
1F
100
AcDbEntity
  8
0
100
AcDbLine
 10
360.4426489753091
 20
243.5672752985488
 30
0.0
 11
298.442648975309
 21
243.5672752985488
 31
0.0
  0
LINE
  5
13A2
330
1F
100
AcDbEntity
  8
0
100
AcDbLine
 10
366.4426489753091
 20
311.5672752985487
 30
0.0
 11
366.4426489753091
 21
249.5672752985488
 31
0.0
  0
CIRCLE
  5
13A3
330
1F
100
AcDbEntity
  8
0
100
AcDbCircle
 10
360.4426489753091
 20
249.5672752985488
 30
0.0
 40
3.5
  0
ARC
  5
13A4
330
1F
100
AcDbEntity
  8
0
100
AcDbCircle
 10
360.4426489753091
 20
249.5672752985488
 30
0.0
 40
6.0
100
AcDbArc
 50
270.0
 51
0.0
  0
CIRCLE
  5
13A5
330
1F
100
AcDbEntity
  8
0
100
AcDbCircle
 10
347.4426489753091
 20
249.5672752985488
 30
0.0
 40
2.149999999999999
  0
CIRCLE
  5
13A6
330
1F
100
AcDbEntity
  8
0
100
AcDbCircle
 10
347.4426489753091
 20
249.5672752985488
 30
0.0
 40
2.5
  0
ARC
  5
13A7
330
1F
100
AcDbEntity
  8
0
100
AcDbCircle
 10
360.4426489753091
 20
311.5672752985487
 30
0.0
 40
6.0
100
AcDbArc
 50
0.0
 51
90.0
  0
CIRCLE
  5
13A8
330
1F
100
AcDbEntity
  8
0
100
AcDbCircle
 10
360.4426489753091
 20
311.5672752985487
 30
0.0
 40
3.5
  0
CIRCLE
  5
13A9
330
1F
100
AcDbEntity
  8
0
100
AcDbCircle
 10
347.4426489753091
 20
311.5672752985487
 30
0.0
 40
2.5
  0
CIRCLE
  5
13AA
330
1F
100
AcDbEntity
  8
0
100
AcDbCircle
 10
347.4426489753091
 20
311.5672752985487
 30
0.0
 40
2.149999999999999
  0
LINE
  5
13AB
330
1F
100
AcDbEntity
  8
0
100
AcDbLine
 10
292.4426489753093
 20
311.5672752985487
 30
0.0
 11
292.442648975309
 21
249.5672752985488
 31
0.0
  0
CIRCLE
  5
13AC
102
{ACAD_REACTORS
330
145E
102
}
330
1F
100
AcDbEntity
  8
0
100
AcDbCircle
 10
298.442648975309
 20
249.5672752985488
 30
0.0
 40
3.5
  0
ARC
  5
13AD
102
{ACAD_REACTORS
330
1451
102
}
330
1F
100
AcDbEntity
  8
0
100
AcDbCircle
 10
298.442648975309
 20
249.5672752985488
 30
0.0
 40
6.0
100
AcDbArc
 50
180.0
 51
270.0
  0
CIRCLE
  5
13AE
330
1F
100
AcDbEntity
  8
0
100
AcDbCircle
 10
311.442648975309
 20
249.5672752985488
 30
0.0
 40
2.5
  0
CIRCLE
  5
13AF
330
1F
100
AcDbEntity
  8
0
100
AcDbCircle
 10
311.442648975309
 20
249.5672752985488
 30
0.0
 40
2.149999999999999
  0
ARC
  5
13B0
102
{ACAD_REACTORS
330
1451
102
}
330
1F
100
AcDbEntity
  8
0
100
AcDbCircle
 10
298.4426489753093
 20
311.5672752985487
 30
0.0
 40
6.0
100
AcDbArc
 50
90.0
 51
180.0
  0
CIRCLE
  5
13B1
330
1F
100
AcDbEntity
  8
0
100
AcDbCircle
 10
298.442648975309
 20
311.5672752985487
 30
0.0
 40
3.5
  0
CIRCLE
  5
13B2
330
1F
100
AcDbEntity
  8
0
100
AcDbCircle
 10
311.442648975309
 20
311.5672752985487
 30
0.0
 40
2.149999999999999
  0
CIRCLE
  5
13B3
330
1F
100
AcDbEntity
  8
0
100
AcDbCircle
 10
311.442648975309
 20
311.5672752985487
 30
0.0
 40
2.5
  0
LINE
  5
13B4
330
1F
100
AcDbEntity
  8
0
100
AcDbLine
 10
316.4426489753091
 20
311.2759874510709
 30
0.0
 11
316.4426489753091
 21
294.5672752985487
 31
0.0
  0
LINE
  5
13B5
330
1F
100
AcDbEntity
  8
0
100
AcDbLine
 10
342.442648975309
 20
311.2759874510709
 30
0.0
 11
342.442648975309
 21
294.5672752985487
 31
0.0
  0
LINE
  5
13B6
330
1F
100
AcDbEntity
  8
0
100
AcDbLine
 10
364.4426489753091
 20
293.5672752985487
 30
0.0
 11
343.4426489753091
 21
293.5672752985487
 31
0.0
  0
LINE
  5
13B7
330
1F
100
AcDbEntity
  8
0
100
AcDbLine
 10
364.4426489753091
 20
267.5672752985487
 30
0.0
 11
343.4426489753091
 21
267.5672752985487
 31
0.0
  0
LINE
  5
13B8
330
1F
100
AcDbEntity
  8
0
100
AcDbLine
 10
294.4426489753093
 20
311.5672752985487
 30
0.0
 11
294.4426489753093
 21
305.8585631460267
 31
0.0
  0
LINE
  5
13B9
330
1F
100
AcDbEntity
  8
0
100
AcDbLine
 10
364.4426489753091
 20
311.5672752985487
 30
0.0
 11
364.4426489753091
 21
305.8585631460266
 31
0.0
  0
LINE
  5
13BA
330
1F
100
AcDbEntity
  8
0
100
AcDbLine
 10
357.7968976642446
 20
314.5672752985487
 30
0.0
 11
343.7339368227871
 21
314.5672752985487
 31
0.0
  0
LINE
  5
13BB
330
1F
100
AcDbEntity
  8
0
100
AcDbLine
 10
357.7968976642446
 20
246.5672752985487
 30
0.0
 11
343.7339368227871
 21
246.5672752985487
 31
0.0
  0
ARC
  5
13BC
330
1F
100
AcDbEntity
  8
0
100
AcDbCircle
 10
311.442648975309
 20
311.5672752985487
 30
0.0
 40
4.0
100
AcDbArc
 50
131.4096221092686
 51
7.939918339285984
  0
ARC
  5
13BD
330
1F
100
AcDbEntity
  8
0
100
AcDbCircle
 10
347.4426489753091
 20
311.5672752985487
 30
0.0
 40
4.0
100
AcDbArc
 50
131.4096221092709
 51
151.0700206934445
  0
ARC
  5
13BE
330
1F
100
AcDbEntity
  8
0
100
AcDbCircle
 10
347.4426489753091
 20
249.5672752985488
 30
0.0
 40
4.0
100
AcDbArc
 50
311.4096221092686
 51
187.939918339286
  0
ARC
  5
13BF
330
1F
100
AcDbEntity
  8
0
100
AcDbCircle
 10
311.442648975309
 20
249.5672752985488
 30
0.0
 40
4.0
100
AcDbArc
 50
311.4096221092686
 51
331.0700206934446
  0
ARC
  5
13C0
330
1F
100
AcDbEntity
  8
0
100
AcDbCircle
 10
298.442648975309
 20
311.5672752985487
 30
0.0
 40
5.0
100
AcDbArc
 50
216.8698976458479
 51
36.86989764584565
  0
ARC
  5
13C1
330
1F
100
AcDbEntity
  8
0
100
AcDbCircle
 10
298.442648975309
 20
311.5672752985487
 30
0.0
 40
3.999999999999886
100
AcDbArc
 50
48.59037789073134
 51
179.9999999999984
  0
ARC
  5
13C2
330
1F
100
AcDbEntity
  8
0
100
AcDbCircle
 10
298.442648975309
 20
249.5672752985488
 30
0.0
 40
5.0
100
AcDbArc
 50
323.1301023541544
 51
143.1301023541543
  0
ARC
  5
13C3
330
1F
100
AcDbEntity
  8
0
100
AcDbCircle
 10
298.442648975309
 20
249.5672752985488
 30
0.0
 40
3.999999999999886
100
AcDbArc
 50
179.9999999999984
 51
311.4096221092432
  0
ARC
  5
13C4
330
1F
100
AcDbEntity
  8
0
100
AcDbCircle
 10
360.4426489753091
 20
249.5672752985488
 30
0.0
 40
5.0
100
AcDbArc
 50
36.86989764584794
 51
216.8698976458456
  0
ARC
  5
13C5
330
1F
100
AcDbEntity
  8
0
100
AcDbCircle
 10
360.4426489753091
 20
249.5672752985488
 30
0.0
 40
3.999999999999886
100
AcDbArc
 50
228.5903778907313
 51
359.9999999999984
  0
ARC
  5
13C6
330
1F
100
AcDbEntity
  8
0
100
AcDbCircle
 10
360.4426489753091
 20
311.5672752985487
 30
0.0
 40
5.0
100
AcDbArc
 50
143.1301023541543
 51
323.1301023541544
  0
ARC
  5
13C7
330
1F
100
AcDbEntity
  8
0
100
AcDbCircle
 10
360.4426489753091
 20
311.5672752985487
 30
0.0
 40
3.999999999999886
100
AcDbArc
 50
0.0
 51
131.4096221092686
  0
ARC
  5
13C8
330
1F
100
AcDbEntity
  8
0
100
AcDbCircle
 10
329.4426489753091
 20
302.5672752985487
 30
0.0
 40
13.0
100
AcDbArc
 50
0.0
 51
51.78678929826067
  0
ARC
  5
13C9
330
1F
100
AcDbEntity
  8
0
100
AcDbCircle
 10
329.4426489753091
 20
302.5672752985487
 30
0.0
 40
13.0
100
AcDbArc
 50
128.2132107017393
 51
180.0
  0
ARC
  5
13CA
330
1F
100
AcDbEntity
  8
0
100
AcDbCircle
 10
320.7823949374646
 20
313.5672752985487
 30
0.0
 40
1.0
100
AcDbArc
 50
308.2132107017393
 51
90.0
  0
ARC
  5
13CB
330
1F
100
AcDbEntity
  8
0
100
AcDbCircle
 10
338.1029030131535
 20
313.5672752985487
 30
0.0
 40
1.0
100
AcDbArc
 50
90.0
 51
231.7867892982607
  0
LINE
  5
13CC
330
1F
100
AcDbEntity
  8
0
100
AcDbLine
 10
320.7823949374646
 20
314.5672752985487
 30
0.0
 11
319.733936822787
 21
314.5672752985487
 31
0.0
  0
ARC
  5
13CD
330
1F
100
AcDbEntity
  8
0
100
AcDbCircle
 10
307.442648975309
 20
280.5672752985487
 30
0.0
 40
13.0
100
AcDbArc
 50
211.0027191338737
 51
270.0
  0
ARC
  5
13CE
330
1F
100
AcDbEntity
  8
0
100
AcDbCircle
 10
307.442648975309
 20
280.5672752985487
 30
0.0
 40
13.0
100
AcDbArc
 50
90.0
 51
148.9972808661263
  0
ARC
  5
13CF
330
1F
100
AcDbEntity
  8
0
100
AcDbCircle
 10
329.4426489753091
 20
258.5672752985487
 30
0.0
 40
13.0
100
AcDbArc
 50
308.2132107017393
 51
0.0
  0
ARC
  5
13D0
330
1F
100
AcDbEntity
  8
0
100
AcDbCircle
 10
338.1029030131535
 20
247.5672752985488
 30
0.0
 40
1.0
100
AcDbArc
 50
128.2132107017393
 51
270.0
  0
ARC
  5
13D1
330
1F
100
AcDbEntity
  8
0
100
AcDbCircle
 10
320.7823949374646
 20
247.5672752985488
 30
0.0
 40
1.0
100
AcDbArc
 50
270.0
 51
51.78678929826067
  0
ARC
  5
13D2
330
1F
100
AcDbEntity
  8
0
100
AcDbCircle
 10
329.4426489753091
 20
258.5672752985487
 30
0.0
 40
13.0
100
AcDbArc
 50
180.0
 51
231.7867892982607
  0
ARC
  5
13D3
330
1F
100
AcDbEntity
  8
0
100
AcDbCircle
 10
351.4426489753091
 20
280.5672752985487
 30
0.0
 40
13.0
100
AcDbArc
 50
31.00271913387371
 51
90.0
  0
ARC
  5
13D4
330
1F
100
AcDbEntity
  8
0
100
AcDbCircle
 10
351.4426489753091
 20
280.5672752985487
 30
0.0
 40
13.0
100
AcDbArc
 50
270.0
 51
328.9972808661263
  0
ARC
  5
13D5
330
1F
100
AcDbEntity
  8
0
100
AcDbCircle
 10
363.442648975309
 20
287.7783778494767
 30
0.0
 40
1.0
100
AcDbArc
 50
211.0027191338737
 51
0.0
  0
ARC
  5
13D6
330
1F
100
AcDbEntity
  8
0
100
AcDbCircle
 10
363.442648975309
 20
273.3561727476208
 30
0.0
 40
1.0
100
AcDbArc
 50
0.0
 51
148.9972808661263
  0
ARC
  5
13D7
330
1F
100
AcDbEntity
  8
0
100
AcDbCircle
 10
295.4426489753092
 20
273.3561727476208
 30
0.0
 40
1.0
100
AcDbArc
 50
31.00271913387371
 51
180.0
  0
ARC
  5
13D8
330
1F
100
AcDbEntity
  8
0
100
AcDbCircle
 10
295.4426489753092
 20
287.7783778494769
 30
0.0
 40
1.0
100
AcDbArc
 50
180.0
 51
328.9972808661249
  0
LINE
  5
13D9
330
1F
100
AcDbEntity
  8
0
100
AcDbLine
 10
294.4426489753091
 20
273.3561727476208
 30
0.0
 11
294.4426489753091
 21
259.8585631460266
 31
0.0
  0
LINE
  5
13DA
330
1F
100
AcDbEntity
  8
0
100
AcDbLine
 10
364.4426489753091
 20
273.3561727476208
 30
0.0
 11
364.4426489753091
 21
259.8585631460266
 31
0.0
  0
LINE
  5
13DB
330
1F
100
AcDbEntity
  8
0
100
AcDbLine
 10
320.7823949374646
 20
246.5672752985487
 30
0.0
 11
319.733936822787
 21
246.5672752985487
 31
0.0
  0
LINE
  5
13DC
330
1F
100
AcDbEntity
  8
0
100
AcDbLine
 10
342.442648975309
 20
266.5672752985488
 30
0.0
 11
342.442648975309
 21
249.8585631460267
 31
0.0
  0
LINE
  5
13DD
330
1F
100
AcDbEntity
  8
0
100
AcDbLine
 10
316.4426489753092
 20
266.5672752985488
 30
0.0
 11
316.4426489753091
 21
249.8585631460266
 31
0.0
  0
LINE
  5
13DE
330
1F
100
AcDbEntity
  8
0
100
AcDbLine
 10
315.4426489753092
 20
267.5672752985487
 30
0.0
 11
294.4426489753092
 21
267.5672752985487
 31
0.0
  0
LINE
  5
13DF
330
1F
100
AcDbEntity
  8
0
100
AcDbLine
 10
315.442648975309
 20
293.5672752985487
 30
0.0
 11
294.4426489753092
 21
293.5672752985487
 31
0.0
  0
ARC
  5
13E0
330
1F
100
AcDbEntity
  8
0
100
AcDbCircle
 10
329.4426489753091
 20
280.5672752985487
 30
0.0
 40
33.5
100
AcDbArc
 50
202.8338221194795
 51
234.5010994990337
  0
ARC
  5
13E1
330
1F
100
AcDbEntity
  8
0
100
AcDbCircle
 10
329.4426489753091
 20
280.5672752985487
 30
0.0
 40
33.5
100
AcDbArc
 50
292.8338221194765
 51
294.7838706031795
  0
ARC
  5
13E2
330
1F
100
AcDbEntity
  8
0
100
AcDbCircle
 10
329.4426489753091
 20
280.5672752985487
 30
0.0
 40
33.5
100
AcDbArc
 50
305.4989005009664
 51
337.1661778805199
  0
ARC
  5
13E3
330
1F
100
AcDbEntity
  8
0
100
AcDbCircle
 10
329.4426489753091
 20
280.5672752985487
 30
0.0
 40
33.5
100
AcDbArc
 50
22.83382211947951
 51
54.50109949903591
  0
ARC
  5
13E4
330
1F
100
AcDbEntity
  8
0
100
AcDbCircle
 10
329.4426489753091
 20
280.5672752985487
 30
0.0
 40
33.5
100
AcDbArc
 50
125.4989005009641
 51
157.1661778805205
  0
ARC
  5
13E5
330
1F
100
AcDbEntity
  8
0
100
AcDbCircle
 10
329.4426489753091
 20
280.5672752985487
 30
0.0
 40
33.5
100
AcDbArc
 50
112.8338221194831
 51
114.783870603181
  0
ARC
  5
13E6
330
1F
100
AcDbEntity
  8
0
100
AcDbCircle
 10
329.4426489753091
 20
280.5672752985487
 30
0.0
 40
33.5
100
AcDbArc
 50
65.21612939681901
 51
67.16617788051685
  0
LINE
  5
13E7
330
1F
100
AcDbEntity
  8
0
100
AcDbLine
 10
320.4426489753092
 20
289.5672752985488
 30
0.0
 11
320.4426489753091
 21
271.5672752985487
 31
0.0
  0
LINE
  5
13E8
330
1F
100
AcDbEntity
  8
0
100
AcDbLine
 10
338.4426489753092
 20
289.5672752985488
 30
0.0
 11
338.4426489753092
 21
271.5672752985487
 31
0.0
  0
LINE
  5
13E9
330
1F
100
AcDbEntity
  8
0
100
AcDbLine
 10
338.442648975309
 20
289.5672752985488
 30
0.0
 11
320.4426489753091
 21
289.5672752985488
 31
0.0
  0
LINE
  5
13EA
330
1F
100
AcDbEntity
  8
0
100
AcDbLine
 10
338.442648975309
 20
271.5672752985487
 30
0.0
 11
320.4426489753091
 21
271.5672752985487
 31
0.0
  0
CIRCLE
  5
13EB
330
1F
100
AcDbEntity
  8
0
100
AcDbCircle
 10
329.4426489753091
 20
280.5672752985487
 30
0.0
 40
5.0
  0
ARC
  5
13EC
330
1F
100
AcDbEntity
  8
0
100
AcDbCircle
 10
317.442648975309
 20
313.5672752985487
 30
0.0
 40
2.5
100
AcDbArc
 50
156.4218215217995
 51
23.57817847820053
  0
ARC
  5
13ED
330
1F
100
AcDbEntity
  8
0
100
AcDbCircle
 10
341.4426489753091
 20
313.5672752985487
 30
0.0
 40
2.5
100
AcDbArc
 50
156.4218215217995
 51
23.57817847820053
  0
ARC
  5
13EE
330
1F
100
AcDbEntity
  8
0
100
AcDbCircle
 10
341.4426489753091
 20
247.5672752985488
 30
0.0
 40
2.5
100
AcDbArc
 50
336.421821521798
 51
203.5781784782005
  0
ARC
  5
13EF
330
1F
100
AcDbEntity
  8
0
100
AcDbCircle
 10
317.442648975309
 20
247.5672752985488
 30
0.0
 40
2.5
100
AcDbArc
 50
336.421821521798
 51
203.5781784782005
  0
LINE
  5
13F0
330
1F
100
AcDbEntity
  8
0
100
AcDbLine
 10
315.1513611278312
 20
314.5672752985487
 30
0.0
 11
301.0884002863735
 21
314.5672752985487
 31
0.0
  0
ARC
  5
13F1
330
1F
100
AcDbEntity
  8
0
100
AcDbCircle
 10
311.442648975309
 20
311.5672752985487
 30
0.0
 40
4.0
100
AcDbArc
 50
28.92997930655542
 51
48.59037789073134
  0
LINE
  5
13F2
330
1F
100
AcDbEntity
  8
0
100
AcDbLine
 10
339.1513611278312
 20
314.5672752985487
 30
0.0
 11
338.1029030131535
 21
314.5672752985487
 31
0.0
  0
ARC
  5
13F3
330
1F
100
AcDbEntity
  8
0
100
AcDbCircle
 10
347.4426489753091
 20
311.5672752985487
 30
0.0
 40
4.0
100
AcDbArc
 50
172.060081660714
 51
48.59037789072903
  0
LINE
  5
13F4
330
1F
100
AcDbEntity
  8
0
100
AcDbLine
 10
315.1513611278312
 20
246.5672752985487
 30
0.0
 11
301.0884002863735
 21
246.5672752985487
 31
0.0
  0
ARC
  5
13F5
330
1F
100
AcDbEntity
  8
0
100
AcDbCircle
 10
329.4426489753091
 20
280.5672752985487
 30
0.0
 40
33.5
100
AcDbArc
 50
245.2161293968139
 51
246.8272263200042
  0
ARC
  5
13F6
330
1F
100
AcDbEntity
  8
0
100
AcDbCircle
 10
311.442648975309
 20
249.5672752985488
 30
0.0
 40
4.0
100
AcDbArc
 50
352.0600816607124
 51
228.5903778907313
  0
LINE
  5
13F7
330
1F
100
AcDbEntity
  8
0
100
AcDbLine
 10
339.1513611278312
 20
246.5672752985487
 30
0.0
 11
338.1029030131535
 21
246.5672752985487
 31
0.0
  0
ARC
  5
13F8
330
1F
100
AcDbEntity
  8
0
100
AcDbCircle
 10
347.4426489753091
 20
249.5672752985488
 30
0.0
 40
4.0
100
AcDbArc
 50
208.9299793065555
 51
228.5903778907313
  0
ARC
  5
13F9
330
1F
100
AcDbEntity
  8
0
100
AcDbCircle
 10
295.4426489753091
 20
303.5672752985487
 30
0.0
 40
2.5
100
AcDbArc
 50
246.4218215217994
 51
113.5781784782005
  0
ARC
  5
13FA
330
1F
100
AcDbEntity
  8
0
100
AcDbCircle
 10
295.4426489753091
 20
257.5672752985487
 30
0.0
 40
2.5
100
AcDbArc
 50
246.4218215217994
 51
113.5781784782005
  0
ARC
  5
13FB
330
1F
100
AcDbEntity
  8
0
100
AcDbCircle
 10
363.442648975309
 20
303.5672752985487
 30
0.0
 40
2.5
100
AcDbArc
 50
66.42182152179947
 51
293.5781784782005
  0
ARC
  5
13FC
330
1F
100
AcDbEntity
  8
0
100
AcDbCircle
 10
363.442648975309
 20
257.5672752985487
 30
0.0
 40
2.5
100
AcDbArc
 50
66.42182152179947
 51
293.5781784782005
  0
LINE
  5
13FD
330
1F
100
AcDbEntity
  8
0
100
AcDbLine
 10
364.4426489753091
 20
255.2759874510709
 30
0.0
 11
364.4426489753091
 21
249.5672752985488
 31
0.0
  0
LINE
  5
13FE
330
1F
100
AcDbEntity
  8
0
100
AcDbLine
 10
364.4426489753091
 20
301.2759874510709
 30
0.0
 11
364.4426489753091
 21
287.7783778494767
 31
0.0
  0
LINE
  5
13FF
330
1F
100
AcDbEntity
  8
0
100
AcDbLine
 10
294.4426489753093
 20
301.2759874510708
 30
0.0
 11
294.4426489753092
 21
287.7783778494769
 31
0.0
  0
LINE
  5
1400
330
1F
100
AcDbEntity
  8
0
100
AcDbLine
 10
294.4426489753091
 20
255.2759874510709
 30
0.0
 11
294.4426489753091
 21
249.5672752985488
 31
0.0
  0
TEXT
  5
1401
330
1F
100
AcDbEntity
  8
0
100
AcDbText
 10
293.0867889869668
 20
279.9745725759978
 30
0.0
 40
3.0
  1
P
 50
270.0
  7
CHINESET
100
AcDbText
  0
TEXT
  5
1402
330
1F
100
AcDbEntity
  8
0
100
AcDbText
 10
330.03535169786
 20
244.2114153102065
 30
0.0
 40
3.0
  1
B
  7
CHINESET
100
AcDbText
  0
TEXT
  5
1403
330
1F
100
AcDbEntity
  8
0
100
AcDbText
 10
365.7985089636513
 20
281.1599780210997
 30
0.0
 40
3.0
  1
R
 50
90.0
  7
CHINESET
100
AcDbText
  0
TEXT
  5
1404
330
1F
100
AcDbEntity
  8
0
100
AcDbText
 10
328.8499462527581
 20
316.923135286891
 30
0.0
 40
3.0
  1
A
 50
180.0
  7
CHINESET
100
AcDbText
  0
CIRCLE
  5
1405
330
1F
100
AcDbEntity
  8
0
100
AcDbCircle
 10
329.4426489753091
 20
280.5672752985487
 30
0.0
 40
4.0
  0
ARC
  5
1406
330
1F
100
AcDbEntity
  8
0
100
AcDbCircle
 10
315.442648975309
 20
294.5672752985487
 30
0.0
 40
1.0
100
AcDbArc
 50
270.0
 51
0.0
  0
ARC
  5
1407
330
1F
100
AcDbEntity
  8
0
100
AcDbCircle
 10
343.4426489753091
 20
294.5672752985487
 30
0.0
 40
1.0
100
AcDbArc
 50
180.0
 51
270.0
  0
ARC
  5
1408
330
1F
100
AcDbEntity
  8
0
100
AcDbCircle
 10
315.4426489753092
 20
266.5672752985488
 30
0.0
 40
1.0
100
AcDbArc
 50
359.9999999999984
 51
90.0
  0
ARC
  5
1409
330
1F
100
AcDbEntity
  8
0
100
AcDbCircle
 10
343.4426489753091
 20
266.5672752985488
 30
0.0
 40
1.0
100
AcDbArc
 50
90.0
 51
179.9999999999984
  0
CIRCLE
  5
140A
102
{ACAD_REACTORS
330
1464
102
}
330
1F
100
AcDbEntity
  8
0
  6
ACISOTGB
 62
     2
100
AcDbCircle
 10
329.4426489753091
 20
280.5672752985487
 30
0.0
 40
22.0
  0
LINE
  5
140B
330
1F
100
AcDbEntity
  8
AM_7
100
AcDbLine
 10
329.4426489753091
 20
280.5672752985487
 30
0.0
 11
445.2619297147556
 21
280.5672752985487
 31
0.0
1001
GENIUS_GENOREF_13
1005
1478
  0
LINE
  5
140C
330
1F
100
AcDbEntity
  8
AM_7
100
AcDbLine
 10
329.4426489753091
 20
280.5672752985487
 30
0.0
 11
329.4426489753091
 21
323.0364650114017
 31
0.0
1001
GENIUS_GENOREF_13
1005
1478
  0
LINE
  5
140D
330
1F
100
AcDbEntity
  8
AM_7
100
AcDbLine
 10
329.4426489753091
 20
280.5672752985487
 30
0.0
 11
286.9734592624562
 21
280.5672752985487
 31
0.0
1001
GENIUS_GENOREF_13
1005
1478
  0
LINE
  5
140E
330
1F
100
AcDbEntity
  8
AM_7
100
AcDbLine
 10
329.4426489753091
 20
280.5672752985487
 30
0.0
 11
329.4426489753091
 21
238.0980855856957
 31
0.0
1001
GENIUS_GENOREF_13
1005
1478
  0
ARC
  5
140F
330
1F
100
AcDbEntity
  8
AM_4
100
AcDbCircle
 10
351.4426489753091
 20
280.5672752985487
 30
0.0
 40
8.330999999999999
100
AcDbArc
 50
260.0000000000014
 51
169.9999999999997
  0
LINE
  5
1410
330
1F
100
AcDbEntity
  8
AM_7
  6
AM_ISO08W050x2
100
AcDbLine
 10
351.4426489753091
 20
290.8982752985488
 30
0.0
 11
351.4426489753091
 21
270.2362752985487
 31
0.0
  0
CIRCLE
  5
1411
330
1F
100
AcDbEntity
  8
AM_0
100
AcDbCircle
 10
351.4426489753091
 20
280.5672752985487
 30
0.0
 40
7.474999999999998
  0
LINE
  5
1412
330
1F
100
AcDbEntity
  8
AM_7
  6
AM_ISO08W050x2
100
AcDbLine
 10
341.1116489753092
 20
280.5672752985487
 30
0.0
 11
361.7736489753092
 21
280.5672752985487
 31
0.0
  0
ARC
  5
1413
330
1F
100
AcDbEntity
  8
AM_4
100
AcDbCircle
 10
329.4426489753091
 20
302.5672752985487
 30
0.0
 40
8.330999999999999
100
AcDbArc
 50
260.0000000000014
 51
169.9999999999997
  0
LINE
  5
1414
330
1F
100
AcDbEntity
  8
AM_7
  6
AM_ISO08W050x2
100
AcDbLine
 10
329.4426489753091
 20
312.8982752985487
 30
0.0
 11
329.4426489753091
 21
292.2362752985487
 31
0.0
  0
CIRCLE
  5
1415
330
1F
100
AcDbEntity
  8
AM_0
100
AcDbCircle
 10
329.4426489753091
 20
302.5672752985487
 30
0.0
 40
7.474999999999998
  0
LINE
  5
1416
330
1F
100
AcDbEntity
  8
AM_7
  6
AM_ISO08W050x2
100
AcDbLine
 10
319.1116489753091
 20
302.5672752985487
 30
0.0
 11
339.7736489753092
 21
302.5672752985487
 31
0.0
  0
ARC
  5
1417
330
1F
100
AcDbEntity
  8
AM_4
100
AcDbCircle
 10
307.442648975309
 20
280.5672752985487
 30
0.0
 40
8.330999999999999
100
AcDbArc
 50
260.0000000000014
 51
169.9999999999997
  0
LINE
  5
1418
330
1F
100
AcDbEntity
  8
AM_7
  6
AM_ISO08W050x2
100
AcDbLine
 10
307.442648975309
 20
290.8982752985488
 30
0.0
 11
307.442648975309
 21
270.2362752985487
 31
0.0
  0
CIRCLE
  5
1419
330
1F
100
AcDbEntity
  8
AM_0
100
AcDbCircle
 10
307.442648975309
 20
280.5672752985487
 30
0.0
 40
7.474999999999998
  0
LINE
  5
141A
330
1F
100
AcDbEntity
  8
AM_7
  6
AM_ISO08W050x2
100
AcDbLine
 10
297.1116489753092
 20
280.5672752985487
 30
0.0
 11
317.7736489753092
 21
280.5672752985487
 31
0.0
  0
ARC
  5
141B
330
1F
100
AcDbEntity
  8
AM_4
100
AcDbCircle
 10
329.4426489753091
 20
258.5672752985487
 30
0.0
 40
8.330999999999999
100
AcDbArc
 50
260.0000000000014
 51
169.9999999999997
  0
LINE
  5
141C
330
1F
100
AcDbEntity
  8
AM_7
  6
AM_ISO08W050x2
100
AcDbLine
 10
329.4426489753091
 20
268.8982752985487
 30
0.0
 11
329.4426489753091
 21
248.2362752985487
 31
0.0
  0
CIRCLE
  5
141D
330
1F
100
AcDbEntity
  8
AM_0
100
AcDbCircle
 10
329.4426489753091
 20
258.5672752985487
 30
0.0
 40
7.474999999999998
  0
LINE
  5
141E
330
1F
100
AcDbEntity
  8
AM_7
  6
AM_ISO08W050x2
100
AcDbLine
 10
319.1116489753091
 20
258.5672752985487
 30
0.0
 11
339.7736489753092
 21
258.5672752985487
 31
0.0
  0
LINE
  5
141F
330
1F
100
AcDbEntity
  8
AM_7
  6
AM_ISO08W050x2
100
AcDbLine
 10
298.442648975309
 20
311.5672752985487
 30
0.0
 11
305.4426489753091
 21
311.5672752985487
 31
0.0
1001
GENIUS_GENOREF_13
1005
1477
  0
LINE
  5
1420
330
1F
100
AcDbEntity
  8
AM_7
  6
AM_ISO08W050x2
100
AcDbLine
 10
298.442648975309
 20
311.5672752985487
 30
0.0
 11
298.442648975309
 21
318.5672752985488
 31
0.0
1001
GENIUS_GENOREF_13
1005
1477
  0
LINE
  5
1421
102
{ACAD_REACTORS
330
1454
102
}
330
1F
100
AcDbEntity
  8
AM_7
  6
AM_ISO08W050x2
100
AcDbLine
 10
298.442648975309
 20
311.5672752985487
 30
0.0
 11
291.4426489753091
 21
311.5672752985487
 31
0.0
1001
GENIUS_GENOREF_13
1005
1477
  0
LINE
  5
1422
330
1F
100
AcDbEntity
  8
AM_7
  6
AM_ISO08W050x2
100
AcDbLine
 10
298.442648975309
 20
311.5672752985487
 30
0.0
 11
298.442648975309
 21
304.5672752985487
 31
0.0
1001
GENIUS_GENOREF_13
1005
1477
  0
LINE
  5
1423
330
1F
100
AcDbEntity
  8
AM_7
  6
AM_ISO08W050x2
100
AcDbLine
 10
360.4426489753091
 20
311.5672752985487
 30
0.0
 11
367.442648975309
 21
311.5672752985487
 31
0.0
1001
GENIUS_GENOREF_13
1005
1476
  0
LINE
  5
1424
330
1F
100
AcDbEntity
  8
AM_7
  6
AM_ISO08W050x2
100
AcDbLine
 10
360.4426489753091
 20
311.5672752985487
 30
0.0
 11
360.4426489753091
 21
318.5672752985488
 31
0.0
1001
GENIUS_GENOREF_13
1005
1476
  0
LINE
  5
1425
330
1F
100
AcDbEntity
  8
AM_7
  6
AM_ISO08W050x2
100
AcDbLine
 10
360.4426489753091
 20
311.5672752985487
 30
0.0
 11
353.4426489753091
 21
311.5672752985487
 31
0.0
1001
GENIUS_GENOREF_13
1005
1476
  0
LINE
  5
1426
330
1F
100
AcDbEntity
  8
AM_7
  6
AM_ISO08W050x2
100
AcDbLine
 10
360.4426489753091
 20
311.5672752985487
 30
0.0
 11
360.4426489753091
 21
304.5672752985487
 31
0.0
1001
GENIUS_GENOREF_13
1005
1476
  0
LINE
  5
1427
330
1F
100
AcDbEntity
  8
AM_7
  6
AM_ISO08W050x2
100
AcDbLine
 10
298.442648975309
 20
249.5672752985488
 30
0.0
 11
305.4426489753091
 21
249.5672752985488
 31
0.0
1001
GENIUS_GENOREF_13
1005
1475
  0
LINE
  5
1428
330
1F
100
AcDbEntity
  8
AM_7
  6
AM_ISO08W050x2
100
AcDbLine
 10
298.442648975309
 20
249.5672752985488
 30
0.0
 11
298.442648975309
 21
256.5672752985487
 31
0.0
1001
GENIUS_GENOREF_13
1005
1475
  0
LINE
  5
1429
102
{ACAD_REACTORS
330
1454
102
}
330
1F
100
AcDbEntity
  8
AM_7
  6
AM_ISO08W050x2
100
AcDbLine
 10
298.442648975309
 20
249.5672752985488
 30
0.0
 11
291.4426489753091
 21
249.5672752985488
 31
0.0
1001
GENIUS_GENOREF_13
1005
1475
  0
LINE
  5
142A
330
1F
100
AcDbEntity
  8
AM_7
  6
AM_ISO08W050x2
100
AcDbLine
 10
298.442648975309
 20
249.5672752985488
 30
0.0
 11
298.442648975309
 21
242.5672752985487
 31
0.0
1001
GENIUS_GENOREF_13
1005
1475
  0
LINE
  5
142B
330
1F
100
AcDbEntity
  8
AM_7
  6
AM_ISO08W050x2
100
AcDbLine
 10
360.4426489753091
 20
249.5672752985488
 30
0.0
 11
367.442648975309
 21
249.5672752985488
 31
0.0
1001
GENIUS_GENOREF_13
1005
1474
  0
LINE
  5
142C
330
1F
100
AcDbEntity
  8
AM_7
  6
AM_ISO08W050x2
100
AcDbLine
 10
360.4426489753091
 20
249.5672752985488
 30
0.0
 11
360.4426489753091
 21
256.5672752985487
 31
0.0
1001
GENIUS_GENOREF_13
1005
1474
  0
LINE
  5
142D
330
1F
100
AcDbEntity
  8
AM_7
  6
AM_ISO08W050x2
100
AcDbLine
 10
360.4426489753091
 20
249.5672752985488
 30
0.0
 11
353.4426489753091
 21
249.5672752985488
 31
0.0
1001
GENIUS_GENOREF_13
1005
1474
  0
LINE
  5
142E
330
1F
100
AcDbEntity
  8
AM_7
  6
AM_ISO08W050x2
100
AcDbLine
 10
360.4426489753091
 20
249.5672752985488
 30
0.0
 11
360.4426489753091
 21
242.5672752985487
 31
0.0
1001
GENIUS_GENOREF_13
1005
1474
  0
LINE
  5
142F
330
1F
100
AcDbEntity
  8
AM_7
  6
AM_ISO08W050x2
100
AcDbLine
 10
311.442648975309
 20
311.5672752985487
 30
0.0
 11
315.9426489753091
 21
311.5672752985487
 31
0.0
1001
GENIUS_GENOREF_13
1005
1473
  0
LINE
  5
1430
330
1F
100
AcDbEntity
  8
AM_7
  6
AM_ISO08W050x2
100
AcDbLine
 10
311.442648975309
 20
311.5672752985487
 30
0.0
 11
311.442648975309
 21
316.0672752985487
 31
0.0
1001
GENIUS_GENOREF_13
1005
1473
  0
LINE
  5
1431
330
1F
100
AcDbEntity
  8
AM_7
  6
AM_ISO08W050x2
100
AcDbLine
 10
311.442648975309
 20
311.5672752985487
 30
0.0
 11
306.942648975309
 21
311.5672752985487
 31
0.0
1001
GENIUS_GENOREF_13
1005
1473
  0
LINE
  5
1432
330
1F
100
AcDbEntity
  8
AM_7
  6
AM_ISO08W050x2
100
AcDbLine
 10
311.442648975309
 20
311.5672752985487
 30
0.0
 11
311.442648975309
 21
307.0672752985487
 31
0.0
1001
GENIUS_GENOREF_13
1005
1473
  0
LINE
  5
1433
330
1F
100
AcDbEntity
  8
AM_7
  6
AM_ISO08W050x2
100
AcDbLine
 10
347.4426489753091
 20
311.5672752985487
 30
0.0
 11
351.9426489753091
 21
311.5672752985487
 31
0.0
1001
GENIUS_GENOREF_13
1005
1472
  0
LINE
  5
1434
330
1F
100
AcDbEntity
  8
AM_7
  6
AM_ISO08W050x2
100
AcDbLine
 10
347.4426489753091
 20
311.5672752985487
 30
0.0
 11
347.4426489753091
 21
316.0672752985487
 31
0.0
1001
GENIUS_GENOREF_13
1005
1472
  0
LINE
  5
1435
330
1F
100
AcDbEntity
  8
AM_7
  6
AM_ISO08W050x2
100
AcDbLine
 10
347.4426489753091
 20
311.5672752985487
 30
0.0
 11
342.9426489753091
 21
311.5672752985487
 31
0.0
1001
GENIUS_GENOREF_13
1005
1472
  0
LINE
  5
1436
330
1F
100
AcDbEntity
  8
AM_7
  6
AM_ISO08W050x2
100
AcDbLine
 10
347.4426489753091
 20
311.5672752985487
 30
0.0
 11
347.4426489753091
 21
307.0672752985487
 31
0.0
1001
GENIUS_GENOREF_13
1005
1472
  0
LINE
  5
1437
330
1F
100
AcDbEntity
  8
AM_7
  6
AM_ISO08W050x2
100
AcDbLine
 10
311.442648975309
 20
249.5672752985488
 30
0.0
 11
315.9426489753091
 21
249.5672752985488
 31
0.0
1001
GENIUS_GENOREF_13
1005
1471
  0
LINE
  5
1438
330
1F
100
AcDbEntity
  8
AM_7
  6
AM_ISO08W050x2
100
AcDbLine
 10
311.442648975309
 20
249.5672752985488
 30
0.0
 11
311.442648975309
 21
254.0672752985488
 31
0.0
1001
GENIUS_GENOREF_13
1005
1471
  0
LINE
  5
1439
330
1F
100
AcDbEntity
  8
AM_7
  6
AM_ISO08W050x2
100
AcDbLine
 10
311.442648975309
 20
249.5672752985488
 30
0.0
 11
306.942648975309
 21
249.5672752985488
 31
0.0
1001
GENIUS_GENOREF_13
1005
1471
  0
LINE
  5
143A
330
1F
100
AcDbEntity
  8
AM_7
  6
AM_ISO08W050x2
100
AcDbLine
 10
311.442648975309
 20
249.5672752985488
 30
0.0
 11
311.442648975309
 21
245.0672752985487
 31
0.0
1001
GENIUS_GENOREF_13
1005
1471
  0
LINE
  5
143B
330
1F
100
AcDbEntity
  8
AM_7
  6
AM_ISO08W050x2
100
AcDbLine
 10
347.4426489753091
 20
249.5672752985488
 30
0.0
 11
351.9426489753091
 21
249.5672752985488
 31
0.0
1001
GENIUS_GENOREF_13
1005
1470
  0
LINE
  5
143C
330
1F
100
AcDbEntity
  8
AM_7
  6
AM_ISO08W050x2
100
AcDbLine
 10
347.4426489753091
 20
249.5672752985488
 30
0.0
 11
347.4426489753091
 21
254.0672752985488
 31
0.0
1001
GENIUS_GENOREF_13
1005
1470
  0
LINE
  5
143D
330
1F
100
AcDbEntity
  8
AM_7
  6
AM_ISO08W050x2
100
AcDbLine
 10
347.4426489753091
 20
249.5672752985488
 30
0.0
 11
342.9426489753091
 21
249.5672752985488
 31
0.0
1001
GENIUS_GENOREF_13
1005
1470
  0
LINE
  5
143E
330
1F
100
AcDbEntity
  8
AM_7
  6
AM_ISO08W050x2
100
AcDbLine
 10
347.4426489753091
 20
249.5672752985488
 30
0.0
 11
347.4426489753091
 21
245.0672752985487
 31
0.0
1001
GENIUS_GENOREF_13
1005
1470
  0
LINE
  5
143F
330
1F
100
AcDbEntity
  8
0
100
AcDbLine
 10
391.8173586865454
 20
285.3172752985488
 30
0.0
 11
366.4426489753091
 21
285.3172752985488
 31
0.0
  0
LINE
  5
1440
330
1F
100
AcDbEntity
  8
0
100
AcDbLine
 10
391.8173586865454
 20
275.8172752985487
 30
0.0
 11
366.4426489753091
 21
275.8172752985487
 31
0.0
  0
ARC
  5
1441
330
1F
100
AcDbEntity
  8
0
100
AcDbCircle
 10
398.9958844718632
 20
280.5672752985486
 30
0.0
 40
9.984157781834333
100
AcDbArc
 50
143.0618869439989
 51
151.5915653314884
  0
ARC
  5
1442
330
1F
100
AcDbEntity
  8
0
100
AcDbCircle
 10
398.9958844718632
 20
280.5672752985486
 30
0.0
 40
9.984157781834333
100
AcDbArc
 50
208.4084346685093
 51
216.938113056001
  0
LINE
  5
1443
330
1F
100
AcDbEntity
  8
0
100
AcDbLine
 10
408.066891023242
 20
291.5672752985488
 30
0.0
 11
436.7988906244158
 21
291.5672752985488
 31
0.0
  0
LINE
  5
1444
330
1F
100
AcDbEntity
  8
0
100
AcDbLine
 10
408.066891023242
 20
269.5672752985487
 30
0.0
 11
436.7988906244158
 21
269.5672752985487
 31
0.0
  0
LINE
  5
1445
330
1F
100
AcDbEntity
  8
0
100
AcDbLine
 10
391.0156960898411
 20
286.5672752985487
 30
0.0
 11
408.0668910232422
 21
291.5672752985488
 31
0.0
  0
LINE
  5
1446
330
1F
100
AcDbEntity
  8
0
100
AcDbLine
 10
391.0156960898411
 20
274.5672752985486
 30
0.0
 11
408.0668910232422
 21
269.5672752985487
 31
0.0
  0
ARC
  5
1447
330
1F
100
AcDbEntity
  8
0
100
AcDbCircle
 10
385.5237245590337
 20
280.5672752985487
 30
0.0
 40
54.89549744469673
100
AcDbArc
 50
351.1321522625598
 51
8.86784773744019
  0
ARC
  5
1448
330
1F
100
AcDbEntity
  8
0
100
AcDbCircle
 10
436.7988906244158
 20
288.5672752985487
 30
0.0
 40
3.0
100
AcDbArc
 50
8.86784773744019
 51
90.0
  0
ARC
  5
1449
330
1F
100
AcDbEntity
  8
0
100
AcDbCircle
 10
436.7988906244158
 20
272.5672752985488
 30
0.0
 40
3.0
100
AcDbArc
 50
270.0
 51
351.1321522625598
  0
ARC
  5
144A
330
1F
100
AcDbEntity
  8
0
100
AcDbCircle
 10
383.0355077078188
 20
280.5672752985486
 30
0.0
 40
9.984157781834333
100
AcDbArc
 50
323.0618869439989
 51
36.93811305600106
  0
ARC
  5
144B
330
1F
100
AcDbEntity
  8
0
100
AcDbCircle
 10
389.6655743561168
 20
280.5672752985487
 30
0.0
 40
21.29046957996228
100
AcDbArc
 50
328.8913162124155
 51
31.10868378758446
  0
INSERT
  5
144C
330
1F
100
AcDbEntity
  8
0
 62
     1
100
AcDbBlockReference
  2
*X10
 10
470.683923197519
 20
266.5664290115207
 30
0.0
 41
-0.5999999999999944
 42
0.5999999999999944
 43
0.6
 50
90.0
1001
ACAD
1000
HATCH
1002
{
1070
    19
1000
ANSI31
1040
1.0
1040
1.570796326794896
1002
}
  0
INSERT
  5
144D
330
1F
100
AcDbEntity
  8
0
 62
     1
100
AcDbBlockReference
  2
*X10
 10
243.3166495543761
 20
139.2266374364958
 30
0.0
 41
0.6000000000000228
 42
0.5999999999999944
 43
0.6
1001
ACAD
1000
HATCH
1002
{
1070
    19
1000
ANSI31
1040
1.0
1040
0.0
1002
}
  0
INSERT
  5
144E
330
1F
100
AcDbEntity
  8
0
 62
     1
100
AcDbBlockReference
  2
*X10
 10
342.8288042757888
 20
152.354833981686
 30
0.0
 41
0.6000000000000228
 42
0.5999999999999944
 43
0.6
1001
ACAD
1000
HATCH
1002
{
1070
    19
1000
ANSI31
1040
1.0
1040
0.0
1002
}
  0
DIMENSION
  5
144F
102
{ACAD_XDICTIONARY
360
1450
102
}
102
{ACAD_REACTORS
330
1451
102
}
330
1F
100
AcDbEntity
  8
AM_5
100
AcDbDimension
  2
*D15
 10
249.2946717568827
 20
317.5672752985488
 30
0.0
 11
245.6196717568826
 21
280.5672752985488
 31
0.0
 70
    32
  1
{\Famgdt;o}<>
 71
     5
 42
74.00000000000005
  3
AM_ISO$0
100
AcDbAlignedDimension
 13
298.442648975309
 23
243.5672752985488
 33
0.0
 14
298.4426489753093
 24
317.5672752985488
 34
0.0
 50
90.0
100
AcDbRotatedDimension
1001
ACAD
1000
DSTYLE
1002
{
1070
    40
1040
1.5
1002
}
  0
DIMENSION
  5
1452
102
{ACAD_XDICTIONARY
360
1453
102
}
102
{ACAD_REACTORS
330
1454
102
}
330
1F
100
AcDbEntity
  8
AM_5
100
AcDbDimension
  2
*D16
 10
261.2946717568827
 20
311.5672752985487
 30
0.0
 11
257.6191550245992
 21
280.5672752985488
 31
0.0
 70
    32
  1
{\Famgdt;o}<>
 71
     5
 42
62.0
  3
AM_ISO$0
100
AcDbAlignedDimension
 13
291.4426489753091
 23
249.5672752985488
 33
0.0
 14
291.4426489753091
 24
311.5672752985487
 34
0.0
 50
90.0
100
AcDbRotatedDimension
1001
ACAD
1000
DSTYLE
1002
{
1070
    40
1040
1.5
1002
}
  0
TEXT
  5
1455
330
1F
100
AcDbEntity
  8
AM_5
100
AcDbText
 10
155.2593106253695
 20
422.9790960930408
 30
0.0
 40
5.25
  1
2-%%C3
100
AcDbText
  0
INSERT
  5
1456
330
1F
100
AcDbEntity
  8
AM_5
100
AcDbBlockReference
  2
*S22
 10
0.0
 20
0.0
 30
0.0
  0
TEXT
  5
1457
330
1F
100
AcDbEntity
  8
AM_5
100
AcDbText
 10
266.123639523126
 20
433.2376656755767
 30
0.0
 40
5.25
  1
M40x1.5
100
AcDbText
  0
INSERT
  5
1458
330
1F
100
AcDbEntity
  8
AM_5
100
AcDbBlockReference
  2
*S23
 10
0.0
 20
0.0
 30
0.0
  0
TEXT
  5
1459
330
1F
100
AcDbEntity
  8
AM_5
100
AcDbText
 10
389.7408119810159
 20
251.1252951897613
 30
0.0
 40
5.25
  1
4-PT1/4
100
AcDbText
  0
TEXT
  5
145A
330
1F
100
AcDbEntity
  8
AM_5
100
AcDbText
 10
389.7408119810159
 20
242.3938570758996
 30
0.0
 40
5.25
  1
4-PT3/8
100
AcDbText
  0
TEXT
  5
145B
330
1F
100
AcDbEntity
  8
AM_5
100
AcDbText
 10
389.7408119810159
 20
235.0267012387334
 30
0.0
 40
5.25
  1
4-PT1/2
100
AcDbText
  0
DIMENSION
  5
145C
102
{ACAD_XDICTIONARY
360
145D
102
}
102
{ACAD_REACTORS
330
145E
102
}
330
1F
100
AcDbEntity
  8
AM_5
100
AcDbDimension
  2
*D17
 10
300.3034487080061
 20
252.5316343110157
 30
0.0
 11
271.9882822036146
 21
229.6222216787041
 31
0.0
 70
   163
  1
4-<>貫通
 71
     5
 42
6.999999999999943
  3
AM_ISO$3
100
AcDbDiametricDimension
 15
296.5818492426119
 25
246.6029162860817
 35
0.0
 40
0.0
1001
ACAD
1000
DSTYLE
1002
{
1070
    40
1040
1.5
1070
   144
1040
1.0
1002
}
  0
INSERT
  5
145F
330
1F
100
AcDbEntity
  8
AM_5
100
AcDbBlockReference
  2
*S24
 10
0.0
 20
0.0
 30
0.0
  0
LINE
  5
1460
330
1F
100
AcDbEntity
  8
AM_7
100
AcDbLine
 10
329.4426489753091
 20
280.5672752985487
 30
0.0
 11
329.4426489753091
 21
323.0364650114017
 31
0.0
  0
INSERT
  5
1461
330
1F
100
AcDbEntity
  8
0
 62
     1
100
AcDbBlockReference
  2
*X10
 10
470.6132125194002
 20
295.5745741033646
 30
0.0
 41
0.5999999999999944
 42
0.5999999999999944
 43
0.6
 50
90.0
1001
ACAD
1000
HATCH
1002
{
1070
    19
1000
ANSI31
1040
1.0
1040
1.570796326794896
1002
}
  0
DIMENSION
  5
1462
102
{ACAD_XDICTIONARY
360
1463
102
}
102
{ACAD_REACTORS
330
1464
102
}
330
1F
100
AcDbEntity
  8
AM_5
100
AcDbDimension
  2
*D18
 10
310.1920177787822
 20
269.9177119959869
 30
0.0
 11
386.6509674531934
 21
305.5352946470064
 31
0.0
 70
   163
  1
P.C.D<>
 71
     5
 42
43.9999999999992
  3
AM_ISO$3
100
AcDbDiametricDimension
 15
348.6932801718368
 25
291.2168386011108
 35
0.0
 40
0.0
1001
ACAD
1000
DSTYLE
1002
{
1070
    40
1040
1.5
1070
     3
1000
<>
1070
   172
1070
     1
1070
   272
1070
     8
1070
   289
1070
     2
1002
}
  0
DIMENSION
  5
1465
102
{ACAD_XDICTIONARY
360
1466
102
}
102
{ACAD_REACTORS
330
1467
102
}
330
1F
100
AcDbEntity
  8
AM_5
100
AcDbDimension
  2
*D19
 10
386.9991139922285
 20
379.2553643184741
 30
0.0
 11
383.323597259945
 21
365.7553643184435
 31
0.0
 70
    32
 71
     5
 42
27.00000000006139
  3
AM_ISO$0
100
AcDbAlignedDimension
 13
366.4426489753093
 23
352.2553643184128
 33
0.0
 14
365.9426489753093
 24
379.2553643184742
 34
0.0
 50
90.0
100
AcDbRotatedDimension
1001
ACAD
1000
DSTYLE
1002
{
1070
    40
1040
1.5
1002
}
  0
DIMENSION
  5
1468
102
{ACAD_XDICTIONARY
360
1469
102
}
102
{ACAD_REACTORS
330
146A
102
}
330
1F
100
AcDbEntity
  8
AM_5
100
AcDbDimension
  2
*D20
 10
398.9991139922285
 20
408.255364318474
 30
0.0
 11
395.3241139922284
 21
380.2553643184435
 31
0.0
 70
    32
 71
     5
 42
56.00000000006139
  3
AM_ISO$0
100
AcDbAlignedDimension
 13
366.4426489753093
 23
352.2553643184128
 33
0.0
 14
352.4426489753091
 24
408.2553643184741
 34
0.0
 50
90.0
100
AcDbRotatedDimension
1001
ACAD
1000
DSTYLE
1002
{
1070
    40
1040
1.5
1002
}
  0
LINE
  5
146B
330
1F
100
AcDbEntity
  8
center
  6
CENTER
100
AcDbLine
 10
179.9438663809354
 20
391.6805433936895
 30
0.0
 11
179.9438663809354
 21
383.499889360929
 31
0.0
  0
LINE
  5
146C
330
1F
100
AcDbEntity
  8
center
  6
CENTER
100
AcDbLine
 10
347.4426489753091
 20
391.4805433936899
 30
0.0
 11
347.4426489753091
 21
383.168187983289
 31
0.0
  0
POINT
  5
1470
330
1F
100
AcDbEntity
  8
0
 60
     1
100
AcDbPoint
 10
-671.2432353267096
 20
-88.01611652804746
 30
0.0
1001
GENIUS_GENODEF_13
1002
{
1000
HIER
1070
    10
1002
}
1002
{
1000
MANEDIT
1070
     0
1002
}
1002
{
1000
NOSEL
1070
     0
1002
}
1002
{
1000
BEHIND
1070
     0
1002
}
1002
{
1000
OTHER
1070
     0
1002
}
1002
{
1000
REACTOR
1002
}
1001
GENIUS_GENOENT_13
1002
{
1000
MYREF
1005
1470
1002
}
1002
{
1000
GRP
1005
0
1002
}
1001
GENIUS_GENOBJ-N-CRS_13
1002
{
1000
OWNER
1000
GEN
1002
}
1001
GENIUS_GENOLIS_13
1002
{
1000
ENT
1005
143E
1005
143D
1005
143C
1005
143B
1002
}
  0
POINT
  5
1471
330
1F
100
AcDbEntity
  8
0
 60
     1
100
AcDbPoint
 10
-671.2432353267096
 20
-88.01611652804746
 30
0.0
1001
GENIUS_GENOLIS_13
1002
{
1000
ENT
1005
143A
1005
1439
1005
1438
1005
1437
1002
}
1001
GENIUS_GENOENT_13
1002
{
1000
MYREF
1005
1471
1002
}
1002
{
1000
GRP
1005
0
1002
}
1001
GENIUS_GENOBJ-N-CRS_13
1002
{
1000
OWNER
1000
GEN
1002
}
1001
GENIUS_GENODEF_13
1002
{
1000
HIER
1070
    10
1002
}
1002
{
1000
MANEDIT
1070
     0
1002
}
1002
{
1000
NOSEL
1070
     0
1002
}
1002
{
1000
BEHIND
1070
     0
1002
}
1002
{
1000
OTHER
1070
     0
1002
}
1002
{
1000
REACTOR
1002
}
  0
POINT
  5
1472
330
1F
100
AcDbEntity
  8
0
 60
     1
100
AcDbPoint
 10
-671.2432353267096
 20
-88.01611652804746
 30
0.0
1001
GENIUS_GENOBJ-N-CRS_13
1002
{
1000
OWNER
1000
GEN
1002
}
1001
GENIUS_GENOENT_13
1002
{
1000
MYREF
1005
1472
1002
}
1002
{
1000
GRP
1005
0
1002
}
1001
GENIUS_GENOLIS_13
1002
{
1000
ENT
1005
1436
1005
1435
1005
1434
1005
1433
1002
}
1001
GENIUS_GENODEF_13
1002
{
1000
HIER
1070
    10
1002
}
1002
{
1000
MANEDIT
1070
     0
1002
}
1002
{
1000
NOSEL
1070
     0
1002
}
1002
{
1000
BEHIND
1070
     0
1002
}
1002
{
1000
OTHER
1070
     0
1002
}
1002
{
1000
REACTOR
1002
}
  0
POINT
  5
1473
330
1F
100
AcDbEntity
  8
0
 60
     1
100
AcDbPoint
 10
-671.2432353267096
 20
-88.01611652804746
 30
0.0
1001
GENIUS_GENOLIS_13
1002
{
1000
ENT
1005
1432
1005
1431
1005
1430
1005
142F
1002
}
1001
GENIUS_GENOENT_13
1002
{
1000
MYREF
1005
1473
1002
}
1002
{
1000
GRP
1005
0
1002
}
1001
GENIUS_GENOBJ-N-CRS_13
1002
{
1000
OWNER
1000
GEN
1002
}
1001
GENIUS_GENODEF_13
1002
{
1000
HIER
1070
    10
1002
}
1002
{
1000
MANEDIT
1070
     0
1002
}
1002
{
1000
NOSEL
1070
     0
1002
}
1002
{
1000
BEHIND
1070
     0
1002
}
1002
{
1000
OTHER
1070
     0
1002
}
1002
{
1000
REACTOR
1002
}
  0
POINT
  5
1474
330
1F
100
AcDbEntity
  8
0
 60
     1
100
AcDbPoint
 10
-671.2432353267096
 20
-88.01611652804746
 30
0.0
1001
GENIUS_GENOLIS_13
1002
{
1000
ENT
1005
142E
1005
142D
1005
142C
1005
142B
1002
}
1001
GENIUS_GENOBJ-N-CRS_13
1002
{
1000
OWNER
1000
GEN
1002
}
1001
GENIUS_GENOENT_13
1002
{
1000
MYREF
1005
1474
1002
}
1002
{
1000
GRP
1005
0
1002
}
1001
GENIUS_GENODEF_13
1002
{
1000
HIER
1070
    10
1002
}
1002
{
1000
MANEDIT
1070
     0
1002
}
1002
{
1000
NOSEL
1070
     0
1002
}
1002
{
1000
BEHIND
1070
     0
1002
}
1002
{
1000
OTHER
1070
     0
1002
}
1002
{
1000
REACTOR
1002
}
  0
POINT
  5
1475
330
1F
100
AcDbEntity
  8
0
 60
     1
100
AcDbPoint
 10
-671.2432353267096
 20
-88.01611652804746
 30
0.0
1001
GENIUS_GENOLIS_13
1002
{
1000
ENT
1005
142A
1005
1429
1005
1428
1005
1427
1002
}
1001
GENIUS_GENODEF_13
1002
{
1000
HIER
1070
    10
1002
}
1002
{
1000
MANEDIT
1070
     0
1002
}
1002
{
1000
NOSEL
1070
     0
1002
}
1002
{
1000
BEHIND
1070
     0
1002
}
1002
{
1000
OTHER
1070
     0
1002
}
1002
{
1000
REACTOR
1002
}
1001
GENIUS_GENOENT_13
1002
{
1000
MYREF
1005
1475
1002
}
1002
{
1000
GRP
1005
0
1002
}
1001
GENIUS_GENOBJ-N-CRS_13
1002
{
1000
OWNER
1000
GEN
1002
}
  0
POINT
  5
1476
330
1F
100
AcDbEntity
  8
0
 60
     1
100
AcDbPoint
 10
-671.2432353267096
 20
-88.01611652804746
 30
0.0
1001
GENIUS_GENOLIS_13
1002
{
1000
ENT
1005
1426
1005
1425
1005
1424
1005
1423
1002
}
1001
GENIUS_GENOENT_13
1002
{
1000
MYREF
1005
1476
1002
}
1002
{
1000
GRP
1005
0
1002
}
1001
GENIUS_GENODEF_13
1002
{
1000
HIER
1070
    10
1002
}
1002
{
1000
MANEDIT
1070
     0
1002
}
1002
{
1000
NOSEL
1070
     0
1002
}
1002
{
1000
BEHIND
1070
     0
1002
}
1002
{
1000
OTHER
1070
     0
1002
}
1002
{
1000
REACTOR
1002
}
1001
GENIUS_GENOBJ-N-CRS_13
1002
{
1000
OWNER
1000
GEN
1002
}
  0
POINT
  5
1477
330
1F
100
AcDbEntity
  8
0
 60
     1
100
AcDbPoint
 10
-671.2432353267096
 20
-88.01611652804746
 30
0.0
1001
GENIUS_GENODEF_13
1002
{
1000
HIER
1070
    10
1002
}
1002
{
1000
MANEDIT
1070
     0
1002
}
1002
{
1000
NOSEL
1070
     0
1002
}
1002
{
1000
BEHIND
1070
     0
1002
}
1002
{
1000
OTHER
1070
     0
1002
}
1002
{
1000
REACTOR
1002
}
1001
GENIUS_GENOENT_13
1002
{
1000
MYREF
1005
1477
1002
}
1002
{
1000
GRP
1005
0
1002
}
1001
GENIUS_GENOBJ-N-CRS_13
1002
{
1000
OWNER
1000
GEN
1002
}
1001
GENIUS_GENOLIS_13
1002
{
1000
ENT
1005
1422
1005
1421
1005
1420
1005
141F
1002
}
  0
POINT
  5
1478
330
1F
100
AcDbEntity
  8
0
 60
     1
100
AcDbPoint
 10
-671.2432353267096
 20
-88.01611652804746
 30
0.0
1001
GENIUS_GENOBJ-N-CRS_13
1002
{
1000
OWNER
1000
GEN
1002
}
1001
GENIUS_GENODEF_13
1002
{
1000
HIER
1070
    10
1002
}
1002
{
1000
MANEDIT
1070
     0
1002
}
1002
{
1000
NOSEL
1070
     0
1002
}
1002
{
1000
BEHIND
1070
     0
1002
}
1002
{
1000
OTHER
1070
     0
1002
}
1002
{
1000
REACTOR
1002
}
1001
GENIUS_GENOLIS_13
1002
{
1000
ENT
1005
140E
1005
140D
1005
140C
1005
140B
1002
}
1001
GENIUS_GENOENT_13
1002
{
1000
MYREF
1005
1478
1002
}
1002
{
1000
GRP
1005
0
1002
}
  0
LWPOLYLINE
  5
161B
330
1F
100
AcDbEntity
  8
LOGO
 62
     4
100
AcDbPolyline
 90
        4
 70
     1
 43
0.0
 10
46.49701039558613
 20
205.4055346703593
 10
546.4970103955861
 20
205.4055346703593
 10
546.4970103955861
 20
842.912774489363
 10
46.49701039558613
 20
842.912774489363
1001
GENIUS_GENREC_14
1002
{
1000
PYDIR
1011
46.49701039558613
1021
842.912774489363
1031
0.0
1002
}
1002
{
1000
PXDIR
1011
546.4970103955861
1021
205.4055346703593
1031
0.0
1002
}
1002
{
1000
PORI
1011
46.49701039558613
1021
205.4055346703593
1031
0.0
1002
}
1002
{
1000
PINS
1011
46.49701039558613
1021
205.4055346703593
1031
0.0
1002
}
1002
{
1000
PINS2
1011
546.4970103955861
1021
842.912774489363
1031
0.0
1002
}
1002
{
1000
C
1070
     1
1002
}
1001
GENIUS_GENODEF_13
1002
{
1000
HIER
1070
     0
1002
}
1002
{
1000
MANEDIT
1070
     0
1002
}
1002
{
1000
NOSEL
1070
     0
1002
}
1002
{
1000
BEHIND
1070
     0
1002
}
1002
{
1000
OTHER
1070
     0
1002
}
1002
{
1000
REACTOR
1002
}
1001
GENIUS_GENOBJ-N-REC_13
1002
{
1000
OWNER
1000
GEN
1002
}
  0
LWPOLYLINE
  5
161C
330
1F
100
AcDbEntity
  8
LOGO
 62
     4
100
AcDbPolyline
 90
        4
 70
     1
 43
0.0
 10
46.49701039558613
 20
205.4055346703593
 10
546.4970103955861
 20
205.4055346703593
 10
546.4970103955861
 20
155.4127744893629
 10
46.49701039558613
 20
155.4127744893629
1001
GENIUS_GENREC_14
1002
{
1000
PYDIR
1011
46.49701039558613
1021
155.4127744893629
1031
0.0
1002
}
1002
{
1000
PXDIR
1011
546.4970103955861
1021
205.4055346703593
1031
0.0
1002
}
1002
{
1000
PORI
1011
46.49701039558613
1021
205.4055346703593
1031
0.0
1002
}
1002
{
1000
PINS
1011
46.49701039558613
1021
205.4055346703593
1031
0.0
1002
}
1002
{
1000
PINS2
1011
546.4970103955861
1021
155.4127744893629
1031
0.0
1002
}
1002
{
1000
C
1070
     1
1002
}
1001
GENIUS_GENOBJ-N-REC_13
1002
{
1000
OWNER
1000
GEN
1002
}
1001
GENIUS_GENODEF_13
1002
{
1000
HIER
1070
     0
1002
}
1002
{
1000
MANEDIT
1070
     0
1002
}
1002
{
1000
NOSEL
1070
     0
1002
}
1002
{
1000
BEHIND
1070
     0
1002
}
1002
{
1000
OTHER
1070
     0
1002
}
1002
{
1000
REACTOR
1002
}
  0
TEXT
  5
161D
330
1F
100
AcDbEntity
  8
LOGO
 62
     7
100
AcDbText
 10
159.3773526423545
 20
183.5045571345717
 30
0.0
 40
6.665701357466062
  1
Order example:
 41
0.8
  7
CHINESET
100
AcDbText
  0
TEXT
  5
161E
330
1F
100
AcDbEntity
  8
LOGO
 62
     7
100
AcDbText
 10
160.5732345889917
 20
192.8884844948073
 30
0.0
 40
9.998552036199093
  1
訂購代號：
  7
CHINESET
100
AcDbText
  0
LINE
  5
161F
330
1F
100
AcDbEntity
  8
LOGO
 62
     4
100
AcDbLine
 10
156.4810827937763
 20
155.4127744893635
 30
0.0
 11
156.4810827937763
 21
205.4055346703593
 31
0.0
  0
TEXT
  5
1620
330
1F
100
AcDbEntity
  8
LOGO
  6
Continuous
100
AcDbText
 10
64.45463457440474
 20
165.2337767812669
 30
0.0
 40
7.498914027149321
  1
金器工業股份有限公司
  7
CHINESET
100
AcDbText
  0
TEXT
  5
1621
330
1F
100
AcDbEntity
  8
LOGO
  6
Continuous
100
AcDbText
 10
50.68061309350901
 20
157.7333935549059
 30
0.0
 40
4.999276018099546
  1
MINDMAN INDUSTRIAL CO., LTD.
 41
0.85
  7
CHINESET
100
AcDbText
  0
LINE
  5
1622
330
1F
100
AcDbEntity
  8
LOGO
 62
     4
100
AcDbLine
 10
156.4810827937763
 20
195.4069826341601
 30
0.0
 11
83.15836786164913
 21
195.4069826341601
 31
0.0
  0
LINE
  5
1623
330
1F
100
AcDbEntity
  8
LOGO
 62
     4
100
AcDbLine
 10
156.4810827937763
 20
185.408430597961
 30
0.0
 11
83.15836786164913
 21
185.408430597961
 31
0.0
  0
LINE
  5
1624
330
1F
100
AcDbEntity
  8
LOGO
 62
     4
100
AcDbLine
 10
156.4810827937763
 20
175.4098785617624
 30
0.0
 11
46.49701039558613
 21
175.4098785617624
 31
0.0
  0
LINE
  5
1625
330
1F
100
AcDbEntity
  8
LOGO
 62
     4
100
AcDbLine
 10
83.15836786164913
 20
175.4098785617624
 30
0.0
 11
83.15836786164913
 21
205.4055346703593
 31
0.0
  0
TEXT
  5
1626
330
1F
100
AcDbEntity
  8
LOGO
100
AcDbText
 10
133.2709827383274
 20
177.9095165708113
 30
0.0
 40
4.999276018099546
  1
mm
  7
CHINESET
 72
     1
 11
139.4605625702602
 21
180.4091545798611
 31
0.0
100
AcDbText
 73
     2
  0
TEXT
  5
1627
330
1F
100
AcDbEntity
  8
LOGO
100
AcDbText
 10
130.6523143478943
 20
197.9066206432097
 30
0.0
 40
4.999276018099546
  1
1 : 1
  7
CHINESET
 72
     1
 11
139.4605625702602
 21
200.4062586522595
 31
0.0
100
AcDbText
 73
     2
  0
LINE
  5
1628
330
1F
100
AcDbEntity
  8
LOGO
 62
     4
100
AcDbLine
 10
123.1525760064458
 20
175.4098785617624
 30
0.0
 11
123.1525760064458
 21
205.4055346703593
 31
0.0
  0
CIRCLE
  5
1629
330
1F
100
AcDbEntity
  8
LOGO
  6
Continuous
100
AcDbCircle
 10
132.4093608535165
 20
190.4184001040472
 30
0.0
 40
2.902697325801578
  0
CIRCLE
  5
162A
330
1F
100
AcDbEntity
  8
LOGO
  6
Continuous
100
AcDbCircle
 10
132.4093608535165
 20
190.4184001040472
 30
0.0
 40
1.700723671663992
  0
LINE
  5
162B
330
1F
100
AcDbEntity
  8
LOGO
100
AcDbLine
 10
150.6502476636078
 20
187.5157027782451
 30
0.0
 11
150.6502476636078
 21
193.3210974298494
 31
0.0
  0
LINE
  5
162C
330
1F
100
AcDbEntity
  8
LOGO
100
AcDbLine
 10
141.5504581699972
 20
188.7176764323835
 30
0.0
 11
141.5504581699972
 21
192.1191237757115
 31
0.0
  0
LINE
  5
162D
330
1F
100
AcDbEntity
  8
LOGO
  6
Continuous
100
AcDbLine
 10
141.5504581699972
 20
192.1191237757115
 30
0.0
 11
150.6502476636078
 21
193.3210974298494
 31
0.0
  0
LINE
  5
162E
330
1F
100
AcDbEntity
  8
LOGO
  6
Continuous
100
AcDbLine
 10
141.5504581699972
 20
188.7176764323835
 30
0.0
 11
150.6502476636078
 21
187.5157027782451
 31
0.0
  0
TEXT
  5
162F
330
1F
100
AcDbEntity
  8
LOGO
100
AcDbText
 10
87.28053875693046
 20
197.9090809168406
 30
327.6443144001245
 40
4.999276018099546
  1
比例 Scale:
 41
0.9
  7
CHINESET
 72
     4
 11
103.1554719340474
 21
200.4062586522595
 31
327.6443144001245
100
AcDbText
  0
TEXT
  5
1630
330
1F
100
AcDbEntity
  8
LOGO
100
AcDbText
 10
86.99263402195954
 20
187.9783914282953
 30
327.6443144001245
 40
4.999276018099546
  1
投影  View:
 41
0.9
  7
CHINESET
 72
     4
 11
103.1554719340474
 21
190.4077066160603
 31
327.6443144001245
100
AcDbText
  0
TEXT
  5
1631
330
1F
100
AcDbEntity
  8
LOGO
100
AcDbText
 10
87.48140252551483
 20
177.9095165708113
 30
327.6443144001245
 40
4.999276018099546
  1
單位  Unit:
 41
0.9
  7
CHINESET
 72
     4
 11
103.1554719340474
 21
180.4091545798611
 31
327.6443144001245
100
AcDbText
  0
SOLID
  5
1632
330
1F
100
AcDbEntity
  8
LOGO
 62
     5
100
AcDbTrace
 10
51.68383949664167
 20
183.7204633509459
 30
0.0
 11
53.84539526586514
 21
183.7204633509453
 31
0.0
 12
62.86430037193531
 22
204.2179749556523
 32
0.0
 13
65.02585614115992
 23
204.2179749556511
 33
0.0
  0
SOLID
  5
1633
330
1F
100
AcDbEntity
  8
LOGO
 62
     5
100
AcDbTrace
 10
54.73983213589099
 20
183.7204633509459
 30
0.0
 11
56.90138790511446
 21
183.7204633509459
 31
0.0
 12
65.02585614115992
 22
202.578174027275
 32
0.0
 13
62.86430037193531
 23
194.6524695401218
 33
0.0
  0
SOLID
  5
1634
330
1F
100
AcDbEntity
  8
LOGO
 62
     2
100
AcDbTrace
 10
53.84539526586514
 20
183.7204633509453
 30
0.0
 11
54.73983213589099
 21
183.7204633509459
 31
0.0
 12
65.02585614115992
 22
204.2179749556511
 32
0.0
 13
65.92029301118464
 23
204.2179749556511
 33
0.0
  0
SOLID
  5
1635
330
1F
100
AcDbEntity
  8
LOGO
 62
     5
100
AcDbTrace
 10
48.21833552017074
 20
176.266822767417
 30
0.0
 11
48.96369957852448
 21
176.266822767417
 31
0.0
 12
51.06270278134821
 22
179.9936430591811
 32
0.0
 13
51.80806683969968
 23
179.9936430591811
 33
0.0
  0
SOLID
  5
1636
330
1F
100
AcDbEntity
  8
LOGO
 62
     5
100
AcDbTrace
 10
51.06270278134821
 20
179.9936430591811
 30
0.0
 11
51.80806683969968
 21
179.9936430591811
 31
0.0
 12
51.06270278134821
 22
176.266822767417
 32
0.0
 13
51.80806683969968
 23
176.266822767417
 33
0.0
  0
SOLID
  5
1637
330
1F
100
AcDbEntity
  8
LOGO
 62
     5
100
AcDbTrace
 10
51.06270278134821
 20
176.266822767417
 30
0.0
 11
51.80806683969968
 21
176.266822767417
 31
0.0
 12
53.90707004252681
 22
179.9936430591811
 32
0.0
 13
54.65243410087942
 23
179.9936430591811
 33
0.0
  0
SOLID
  5
1638
330
1F
100
AcDbEntity
  8
LOGO
 62
     5
100
AcDbTrace
 10
53.90707004252681
 20
179.9936430591811
 30
0.0
 11
54.65243410087942
 21
179.9936430591811
 31
0.0
 12
53.90707004252681
 22
176.266822767417
 32
0.0
 13
54.65243410087942
 23
176.266822767417
 33
0.0
  0
POLYLINE
  5
1639
330
1F
100
AcDbEntity
  8
LOGO
 62
     5
100
AcDb2dPolyline
 66
     1
 10
0.0
 20
0.0
 30
0.0
 40
0.7465585520361989
 41
0.7465585520361989
  0
VERTEX
  5
163A
330
1639
100
AcDbEntity
  8
LOGO
 62
     5
100
AcDbVertex
100
AcDb2dVertex
 10
78.8914193670505
 20
178.5029149424754
 30
0.0
 42
1.0
  0
VERTEX
  5
163B
330
1639
100
AcDbEntity
  8
LOGO
 62
     5
100
AcDbVertex
100
AcDb2dVertex
 10
76.65174371094145
 20
178.5029149424754
 30
0.0
 42
1.0
  0
SEQEND
  5
163C
330
1639
100
AcDbEntity
  8
LOGO
 62
     5
  0
POLYLINE
  5
163D
330
1F
100
AcDbEntity
  8
LOGO
 62
     5
100
AcDb2dPolyline
 66
     1
 10
0.0
 20
0.0
 30
0.0
 70
     1
  0
VERTEX
  5
163E
330
163D
100
AcDbEntity
  8
LOGO
 62
     5
100
AcDbVertex
100
AcDb2dVertex
 10
72.42985547840226
 20
178.1302329132985
 30
0.0
 42
1.000000057330635
  0
VERTEX
  5
163F
330
163D
100
AcDbEntity
  8
LOGO
 62
     5
100
AcDbVertex
100
AcDb2dVertex
 10
74.66594765346122
 20
178.1302329132985
 30
0.0
 42
1.000000057330635
  0
SEQEND
  5
1640
330
163D
100
AcDbEntity
  8
LOGO
 62
     5
  0
CIRCLE
  5
1641
330
1F
100
AcDbEntity
  8
LOGO
 62
     5
100
AcDbCircle
 10
73.54790156593344
 20
178.1302329132985
 30
0.0
 40
1.118046087529411
  0
POLYLINE
  5
1642
330
1F
100
AcDbEntity
  8
LOGO
 62
     5
100
AcDb2dPolyline
 66
     1
 10
0.0
 20
0.0
 30
0.0
 70
     1
 40
0.7465585520361989
 41
0.7465585520361989
  0
VERTEX
  5
1643
330
1642
100
AcDbEntity
  8
LOGO
 62
     5
100
AcDbVertex
100
AcDb2dVertex
 10
72.05478446185998
 20
178.1302329132985
 30
0.0
 42
1.0
  0
VERTEX
  5
1644
330
1642
100
AcDbEntity
  8
LOGO
 62
     5
100
AcDbVertex
100
AcDb2dVertex
 10
75.04101867000463
 20
178.1302329132985
 30
0.0
 42
1.0
  0
SEQEND
  5
1645
330
1642
100
AcDbEntity
  8
LOGO
 62
     5
  0
LINE
  5
1646
330
1F
100
AcDbEntity
  8
LOGO
100
AcDbLine
 10
79.26230965570062
 20
176.266822767417
 30
0.0
 11
79.26230965570062
 21
178.5029149424754
 31
0.0
  0
SOLID
  5
1647
330
1F
100
AcDbEntity
  8
LOGO
 62
     5
100
AcDbTrace
 10
74.66587311705871
 20
179.9936430591811
 30
0.0
 11
75.41123717541018
 21
179.9936430591811
 31
0.0
 12
74.66587311705871
 22
176.266822767417
 32
0.0
 13
75.41123717541018
 23
176.266822767417
 33
0.0
  0
SOLID
  5
1648
330
1F
100
AcDbEntity
  8
LOGO
 62
     5
100
AcDbTrace
 10
76.28085342228906
 20
176.266822767417
 30
0.0
 11
77.0262174806428
 21
176.266822767417
 31
0.0
 12
76.28085342228906
 22
179.9936430591811
 32
0.0
 13
77.0262174806428
 23
179.9936430591811
 33
0.0
  0
SOLID
  5
1649
330
1F
100
AcDbEntity
  8
LOGO
 62
     5
100
AcDbTrace
 10
78.51694559734915
 20
178.5029149424754
 30
0.0
 11
79.26230965570062
 21
178.5029149424754
 31
0.0
 12
78.51694559734915
 22
176.266822767417
 32
0.0
 13
79.26230965570062
 23
176.266822767417
 33
0.0
  0
SOLID
  5
164A
330
1F
100
AcDbEntity
  8
LOGO
 62
     5
100
AcDbTrace
 10
76.20631701645357
 20
202.578174027275
 30
0.0
 11
74.04476124723124
 21
194.6524695401218
 31
0.0
 12
76.20631701645357
 22
183.7204633509453
 32
0.0
 13
74.04476124723124
 23
183.7204633509453
 33
0.0
  0
SOLID
  5
164B
330
1F
100
AcDbEntity
  8
LOGO
 62
     5
100
AcDbTrace
 10
77.10075388647829
 20
183.7204633509453
 30
0.0
 11
79.26230965570062
 21
183.7204633509453
 31
0.0
 12
77.10075388647829
 22
204.2179749556511
 32
0.0
 13
79.26230965570062
 23
204.2179749556523
 33
0.0
  0
SOLID
  5
164C
330
1F
100
AcDbEntity
  8
LOGO
 62
     2
100
AcDbTrace
 10
76.20631701645357
 20
204.2179749556523
 30
0.0
 11
77.10075388647829
 21
204.2179749556511
 31
0.0
 12
76.20631701645357
 22
183.7204633509453
 32
0.0
 13
77.10075388647829
 23
183.7204633509453
 33
0.0
  0
POLYLINE
  5
164D
330
1F
100
AcDbEntity
  8
LOGO
 62
     5
100
AcDb2dPolyline
 66
     1
 10
0.0
 20
0.0
 30
0.0
 40
0.7465585520361989
 41
0.7465585520361989
  0
VERTEX
  5
164E
330
164D
100
AcDbEntity
  8
LOGO
 62
     5
100
AcDbVertex
100
AcDb2dVertex
 10
68.20781817305465
 20
178.5029149424754
 30
0.0
 42
1.0
  0
VERTEX
  5
164F
330
164D
100
AcDbEntity
  8
LOGO
 62
     5
100
AcDbVertex
100
AcDb2dVertex
 10
65.96814251694559
 20
178.5029149424754
 30
0.0
 42
1.0
  0
SEQEND
  5
1650
330
164D
100
AcDbEntity
  8
LOGO
 62
     5
  0
POLYLINE
  5
1651
330
1F
100
AcDbEntity
  8
LOGO
 62
     5
100
AcDb2dPolyline
 66
     1
 10
0.0
 20
0.0
 30
0.0
 40
0.7465585520361989
 41
0.7465585520361989
  0
VERTEX
  5
1652
330
1651
100
AcDbEntity
  8
LOGO
 62
     5
100
AcDbVertex
100
AcDb2dVertex
 10
70.44391034811133
 20
178.5029149424754
 30
0.0
 42
1.0
  0
VERTEX
  5
1653
330
1651
100
AcDbEntity
  8
LOGO
 62
     5
100
AcDbVertex
100
AcDb2dVertex
 10
68.20423469200341
 20
178.5029149424754
 30
0.0
 42
1.0
  0
SEQEND
  5
1654
330
1651
100
AcDbEntity
  8
LOGO
 62
     5
  0
POLYLINE
  5
1655
330
1F
100
AcDbEntity
  8
LOGO
 62
     5
100
AcDb2dPolyline
 66
     1
 10
0.0
 20
0.0
 30
0.0
 40
0.7465585520361989
 41
0.7465585520361989
  0
VERTEX
  5
1656
330
1655
100
AcDbEntity
  8
LOGO
 62
     5
100
AcDbVertex
100
AcDb2dVertex
 10
59.76030915411548
 20
178.5029149424754
 30
0.0
 42
1.0
  0
VERTEX
  5
1657
330
1655
100
AcDbEntity
  8
LOGO
 62
     5
100
AcDbVertex
100
AcDb2dVertex
 10
57.52063349800756
 20
178.5029149424754
 30
0.0
 42
1.0
  0
SEQEND
  5
1658
330
1655
100
AcDbEntity
  8
LOGO
 62
     5
  0
SOLID
  5
1659
330
1F
100
AcDbEntity
  8
LOGO
 62
     5
100
AcDbTrace
 10
57.1497432093563
 20
179.9936430591811
 30
0.0
 11
57.89510726770777
 21
179.9936430591811
 31
0.0
 12
57.1497432093563
 22
176.266822767417
 32
0.0
 13
57.89510726770777
 23
176.266822767417
 33
0.0
  0
SOLID
  5
165A
330
1F
100
AcDbEntity
  8
LOGO
 62
     5
100
AcDbTrace
 10
59.38583538441526
 20
178.5029149424754
 30
0.0
 11
60.131199442769
 21
178.5029149424754
 31
0.0
 12
59.38583538441526
 22
176.266822767417
 32
0.0
 13
60.131199442769
 23
176.266822767417
 33
0.0
  0
POLYLINE
  5
165B
330
1F
100
AcDbEntity
  8
LOGO
 62
     5
100
AcDb2dPolyline
 66
     1
 10
0.0
 20
0.0
 30
0.0
 70
     1
 40
0.7465585520361989
 41
0.7465585520361989
  0
VERTEX
  5
165C
330
165B
100
AcDbEntity
  8
LOGO
 62
     5
100
AcDbVertex
100
AcDb2dVertex
 10
61.37118326786299
 20
178.1302329132985
 30
0.0
 42
1.0
  0
VERTEX
  5
165D
330
165B
100
AcDbEntity
  8
LOGO
 62
     5
100
AcDbVertex
100
AcDb2dVertex
 10
64.35741747600878
 20
178.1302329132985
 30
0.0
 42
1.0
  0
SEQEND
  5
165E
330
165B
100
AcDbEntity
  8
LOGO
 62
     5
  0
SOLID
  5
165F
330
1F
100
AcDbEntity
  8
LOGO
 62
     5
100
AcDbTrace
 10
63.98227192306058
 20
181.1116891467112
 30
0.0
 11
64.72763598141319
 21
181.1116891467112
 31
0.0
 12
63.98227192306058
 22
176.266822767417
 32
0.0
 13
64.72763598141319
 23
176.266822767417
 33
0.0
  0
SOLID
  5
1660
330
1F
100
AcDbEntity
  8
LOGO
 62
     5
100
AcDbTrace
 10
65.59725222829547
 20
179.9936430591811
 30
0.0
 11
66.34261628664694
 21
179.9936430591811
 31
0.0
 12
65.59725222829547
 22
176.266822767417
 32
0.0
 13
66.34261628664694
 23
176.266822767417
 33
0.0
  0
SOLID
  5
1661
330
1F
100
AcDbEntity
  8
LOGO
 62
     5
100
AcDbTrace
 10
67.83334440335216
 20
178.5029149424754
 30
0.0
 11
68.5787084617059
 21
178.5029149424754
 31
0.0
 12
67.83334440335216
 22
176.266822767417
 32
0.0
 13
68.5787084617059
 23
176.266822767417
 33
0.0
  0
SOLID
  5
1662
330
1F
100
AcDbEntity
  8
LOGO
 62
     5
100
AcDbTrace
 10
70.06943657841111
 20
178.5029149424754
 30
0.0
 11
70.81480063676372
 21
178.5029149424754
 31
0.0
 12
70.06943657841111
 22
176.2668227674159
 32
0.0
 13
70.81480063676372
 23
176.2668227674159
 33
0.0
  0
SOLID
  5
1663
330
1F
100
AcDbEntity
  8
LOGO
 62
     5
100
AcDbTrace
 10
55.53476290412254
 20
180.5153979000284
 30
0.0
 11
56.28012696247743
 21
180.5153979000284
 31
0.0
 12
55.53476290412254
 22
181.1116891467112
 32
0.0
 13
56.28012696247743
 23
181.1116891467112
 33
0.0
  0
SOLID
  5
1664
330
1F
100
AcDbEntity
  8
LOGO
 62
     5
100
AcDbTrace
 10
55.53476290412254
 20
179.9936430591811
 30
0.0
 11
56.28012696247743
 21
179.9936430591811
 31
0.0
 12
55.53476290412254
 22
176.2668227674159
 32
0.0
 13
56.28012696247743
 23
176.266822767417
 33
0.0
  0
SOLID
  5
1665
330
1F
100
AcDbEntity
  8
LOGO
 62
     5
100
AcDbTrace
 10
62.86430037193531
 20
183.7204633509459
 30
0.0
 11
65.02585614115992
 21
183.7204633509459
 31
0.0
 12
62.86430037193531
 22
194.6524695401218
 32
0.0
 13
65.02585614115992
 23
202.578174027275
 33
0.0
  0
SOLID
  5
1666
330
1F
100
AcDbEntity
  8
LOGO
 62
     5
100
AcDbTrace
 10
65.92029301118464
 20
204.2179749556511
 30
0.0
 11
68.08184878040697
 21
204.2179749556523
 31
0.0
 12
65.92029301118464
 22
185.3602642793221
 32
0.0
 13
68.08184878040697
 23
193.2859687664752
 33
0.0
  0
SOLID
  5
1667
330
1F
100
AcDbEntity
  8
LOGO
 62
     2
100
AcDbTrace
 10
65.02585614115992
 20
204.2179749556511
 30
0.0
 11
65.92029301118464
 21
204.2179749556511
 31
0.0
 12
65.02585614115992
 22
183.7204633509459
 32
0.0
 13
65.92029301118464
 23
183.7204633509459
 33
0.0
  0
SOLID
  5
1668
330
1F
100
AcDbEntity
  8
LOGO
 62
     5
100
AcDbTrace
 10
65.92029301118464
 20
185.3602642793221
 30
0.0
 11
68.08184878040697
 21
193.2859687664752
 31
0.0
 12
76.20631701645357
 22
204.2179749556523
 32
0.0
 13
74.04476124723124
 23
204.2179749556523
 33
0.0
  0
SOLID
  5
1669
330
1F
100
AcDbEntity
  8
LOGO
 62
     5
100
AcDbTrace
 10
65.92029301118464
 20
183.7204633509459
 30
0.0
 11
68.08184878040697
 21
183.7204633509459
 31
0.0
 12
76.20631701645357
 22
202.578174027275
 32
0.0
 13
74.04476124723124
 23
194.6524695401218
 33
0.0
  0
SOLID
  5
166A
330
1F
100
AcDbEntity
  8
LOGO
 62
     2
100
AcDbTrace
 10
65.02585614115992
 20
183.7204633509459
 30
0.0
 11
65.92029301118464
 21
183.7204633509459
 31
0.0
 12
76.20631701645357
 22
204.2179749556523
 32
0.0
 13
77.10075388647829
 23
204.2179749556511
 33
0.0
  0
LINE
  5
166B
330
1F
100
AcDbEntity
  8
LOGO
 62
     4
100
AcDbLine
 10
244.2267321229076
 20
177.9095165708123
 30
0.0
 11
244.2267321229076
 21
159.5788378377797
 31
0.0
  0
LINE
  5
166C
330
1F
100
AcDbEntity
  8
LOGO
 62
     4
100
AcDbLine
 10
225.2439056314015
 20
177.9095165708123
 30
0.0
 11
225.2439056314015
 21
159.5788378377797
 31
0.0
  0
LINE
  5
166D
330
1F
100
AcDbEntity
  8
LOGO
 62
     4
100
AcDbLine
 10
244.2267321229076
 20
159.5788378377797
 30
0.0
 11
225.2439056314015
 21
159.5788378377797
 31
0.0
  0
LINE
  5
166E
330
1F
100
AcDbEntity
  8
LOGO
 62
     4
100
AcDbLine
 10
264.5502343099142
 20
200.4062586522595
 30
0.0
 11
225.2439056314015
 21
200.4062586522595
 31
0.0
  0
LINE
  5
166F
330
1F
100
AcDbEntity
  8
LOGO
 62
     4
100
AcDbLine
 10
264.5502343099142
 20
185.408430597961
 30
0.0
 11
225.2439056314015
 21
185.408430597961
 31
0.0
  0
LINE
  5
1670
330
1F
100
AcDbEntity
  8
LOGO
 62
     4
100
AcDbLine
 10
225.2439056314015
 20
200.4062586522595
 30
0.0
 11
225.2439056314015
 21
185.408430597961
 31
0.0
  0
LINE
  5
1671
330
1F
100
AcDbEntity
  8
LOGO
 62
     4
100
AcDbLine
 10
264.5502343099142
 20
200.4062586522595
 30
0.0
 11
264.5502343099142
 21
185.408430597961
 31
0.0
  0
LINE
  5
1672
330
1F
100
AcDbEntity
  8
LOGO
 62
     4
100
AcDbLine
 10
235.7248770719471
 20
185.408430597961
 30
0.0
 11
235.7248770719471
 21
177.9095165708123
 31
0.0
  0
TEXT
  5
1673
330
1F
100
AcDbEntity
  8
LOGO
  6
Continuous
100
AcDbText
 10
227.9087847896014
 20
188.5392052774734
 30
0.0
 40
8.75
  1
MVHC
  7
CHINESET
100
AcDbText
  0
LINE
  5
1674
330
1F
100
AcDbEntity
  8
LOGO
 62
     4
100
AcDbLine
 10
244.2267321229076
 20
177.9095165708123
 30
0.0
 11
225.2439056314015
 21
177.9095165708123
 31
0.0
  0
TEXT
  5
1675
330
1F
100
AcDbEntity
  8
LOGO
  6
Continuous
100
AcDbText
 10
229.003590748096
 20
162.16617426984
 30
327.6443144001245
 40
3.75
  1
Model
 41
0.8
  7
CHINESET
100
AcDbText
  0
TEXT
  5
1676
330
1F
100
AcDbEntity
  8
LOGO
100
AcDbText
 10
228.0054626530982
 20
169.1178660871584
 30
327.6443144001245
 40
6.25
  1
型號
  7
CHINESET
100
AcDbText
  0
LINE
  5
1677
330
1F
100
AcDbEntity
  8
LOGO
  6
Continuous
100
AcDbLine
 10
266.1446273874285
 20
192.8542199479251
 30
0.0
 11
272.7671210097774
 21
192.8542199479251
 31
0.0
  0
LINE
  5
1678
330
1F
100
AcDbEntity
  8
LOGO
 62
     4
100
AcDbLine
 10
278.2669252334708
 20
177.9095165708123
 30
0.0
 11
278.2669252334708
 21
159.5788378377797
 31
0.0
  0
LINE
  5
1679
330
1F
100
AcDbEntity
  8
LOGO
 62
     4
100
AcDbLine
 10
249.0983462078916
 20
177.9095165708123
 30
0.0
 11
249.0983462078916
 21
159.5788378377797
 31
0.0
  0
LINE
  5
167A
330
1F
100
AcDbEntity
  8
LOGO
 62
     4
100
AcDbLine
 10
278.2669252334708
 20
159.5788378377797
 30
0.0
 11
249.0983462078916
 21
159.5788378377797
 31
0.0
  0
LINE
  5
167B
330
1F
100
AcDbEntity
  8
LOGO
 62
     4
100
AcDbLine
 10
285.9561049087727
 20
200.4062586522595
 30
0.0
 11
274.8561686551566
 21
200.4062586522595
 31
0.0
  0
LINE
  5
167C
330
1F
100
AcDbEntity
  8
LOGO
 62
     4
100
AcDbLine
 10
285.9561049087727
 20
185.408430597961
 30
0.0
 11
274.8561686551566
 21
185.408430597961
 31
0.0
  0
LINE
  5
167D
330
1F
100
AcDbEntity
  8
LOGO
 62
     4
100
AcDbLine
 10
274.8561686551566
 20
200.4062586522595
 30
0.0
 11
274.8561686551566
 21
185.408430597961
 31
0.0
  0
LINE
  5
167E
330
1F
100
AcDbEntity
  8
LOGO
 62
     4
100
AcDbLine
 10
285.9561049087727
 20
200.4062586522595
 30
0.0
 11
285.9561049087727
 21
185.408430597961
 31
0.0
  0
LINE
  5
167F
330
1F
100
AcDbEntity
  8
LOGO
 62
     4
100
AcDbLine
 10
280.4061367819646
 20
185.408430597961
 30
0.0
 11
280.4061367819646
 21
181.6589735843867
 31
0.0
  0
TEXT
  5
1680
330
1F
100
AcDbEntity
  8
LOGO
  6
Continuous
100
AcDbText
 10
277.2941679033634
 20
188.5392052774734
 30
0.0
 40
8.75
  1
3
  7
CHINESET
100
AcDbText
  0
LINE
  5
1681
330
1F
100
AcDbEntity
  8
LOGO
 62
     4
100
AcDbLine
 10
278.2669252334708
 20
177.9095165708123
 30
0.0
 11
249.0983462078916
 21
177.9095165708123
 31
0.0
  0
TEXT
  5
1698
330
1F
100
AcDbEntity
  8
LOGO
  6
Continuous
100
AcDbText
 10
252.1807602324154
 20
162.16617426984
 30
327.6443144001245
 40
3.75
  1
Body size
 41
0.8
  7
CHINESET
100
AcDbText
  0
TEXT
  5
1699
330
1F
100
AcDbEntity
  8
LOGO
100
AcDbText
 10
252.1454339336092
 20
169.1178660871584
 30
327.6443144001245
 40
6.25
  1
本體尺寸
  7
CHINESET
100
AcDbText
  0
TEXT
  5
16AA
330
1F
100
AcDbEntity
  8
LOGO
100
AcDbText
 10
158.7974217718705
 20
158.0723695991669
 30
0.0
 40
5.0
  1
10702120
 41
0.7
  7
CHINESET
 72
     1
 11
170.9640884385371
 21
158.0723695991669
 31
0.0
100
AcDbText
  0
LINE
  5
16AB
330
1F
100
AcDbEntity
  8
LOGO
 62
     4
100
AcDbLine
 10
186.481082793774
 20
165.4113265255638
 30
0.0
 11
186.4810827937763
 21
155.4127744893641
 31
0.0
  0
LINE
  5
16AC
330
1F
100
AcDbEntity
  8
LOGO
 62
     4
100
AcDbLine
 10
186.481082793774
 20
165.4113265255638
 30
0.0
 11
156.4810827937763
 21
165.4113265255638
 31
0.0
  0
LINE
  5
16AD
330
1F
100
AcDbEntity
  8
LOGO
  6
AM_ISO08W050x2
 48
0.3
100
AcDbLine
 10
128.4079491254292
 20
190.4184001040472
 30
0.0
 11
136.4107725816038
 21
190.4184001040472
 31
0.0
1001
GENIUS_GENOREF_13
1005
16B2
  0
LINE
  5
16AE
330
1F
100
AcDbEntity
  8
LOGO
  6
AM_ISO08W050x2
 48
0.3
100
AcDbLine
 10
132.4093608535165
 20
186.4169883759599
 30
0.0
 11
132.4093608535165
 21
194.4198118321345
 31
0.0
1001
GENIUS_GENOREF_13
1005
16B1
  0
LINE
  5
16AF
330
1F
100
AcDbEntity
  8
LOGO
  6
CENTER
 48
0.5
100
AcDbLine
 10
140.8227279379739
 20
190.4184001040472
 30
0.0
 11
151.566567008077
 21
190.4184001040472
 31
0.0
1001
GENIUS_GENOREF_13
1005
16B0
  0
POINT
  5
16B0
330
1F
100
AcDbEntity
  8
0
 60
     1
100
AcDbPoint
 10
-2218.58837700419
 20
-869.6779002908
 30
0.0
1001
GENIUS_GENOBJ-N-CRS_13
1002
{
1000
OWNER
1000
GEN
1002
}
1001
GENIUS_GENOLIS_13
1002
{
1000
ENT
1005
0
1005
0
1005
0
1005
16AF
1002
}
1001
GENIUS_GENOENT_13
1002
{
1000
MYREF
1005
16B0
1002
}
1002
{
1000
GRP
1005
0
1002
}
1001
GENIUS_GENODEF_13
1002
{
1000
HIER
1070
    10
1002
}
1002
{
1000
MANEDIT
1070
     1
1002
}
1002
{
1000
NOSEL
1070
     0
1002
}
1002
{
1000
BEHIND
1070
     0
1002
}
1002
{
1000
OTHER
1070
     0
1002
}
1002
{
1000
REACTOR
1002
}
  0
POINT
  5
16B1
330
1F
100
AcDbEntity
  8
0
 60
     1
100
AcDbPoint
 10
-2229.912962227045
 20
-860.8023138121636
 30
0.0
1001
GENIUS_GENOBJ-N-CRS_13
1002
{
1000
OWNER
1000
GEN
1002
}
1001
GENIUS_GENOLIS_13
1002
{
1000
ENT
1005
0
1005
0
1005
0
1005
16AE
1002
}
1001
GENIUS_GENOENT_13
1002
{
1000
MYREF
1005
16B1
1002
}
1002
{
1000
GRP
1005
0
1002
}
1001
GENIUS_GENODEF_13
1002
{
1000
HIER
1070
    10
1002
}
1002
{
1000
MANEDIT
1070
     1
1002
}
1002
{
1000
NOSEL
1070
     0
1002
}
1002
{
1000
BEHIND
1070
     0
1002
}
1002
{
1000
OTHER
1070
     0
1002
}
1002
{
1000
REACTOR
1002
}
  0
POINT
  5
16B2
330
1F
100
AcDbEntity
  8
0
 60
     1
100
AcDbPoint
 10
-2223.554288529208
 20
-869.6779002908
 30
0.0
1001
GENIUS_GENOBJ-N-CRS_13
1002
{
1000
OWNER
1000
GEN
1002
}
1001
GENIUS_GENOLIS_13
1002
{
1000
ENT
1005
0
1005
0
1005
0
1005
16AD
1002
}
1001
GENIUS_GENOENT_13
1002
{
1000
MYREF
1005
16B2
1002
}
1002
{
1000
GRP
1005
0
1002
}
1001
GENIUS_GENODEF_13
1002
{
1000
HIER
1070
    10
1002
}
1002
{
1000
MANEDIT
1070
     1
1002
}
1002
{
1000
NOSEL
1070
     0
1002
}
1002
{
1000
BEHIND
1070
     0
1002
}
1002
{
1000
OTHER
1070
     0
1002
}
1002
{
1000
REACTOR
1002
}
  0
LINE
  5
18B9
330
1F
100
AcDbEntity
  8
LOGO
 62
     4
100
AcDbLine
 10
46.49701039558613
 20
524.1591545798611
 30
0.0
 11
546.4970103955861
 21
524.1591545798611
 31
0.0
  0
LINE
  5
1A61
330
1F
100
AcDbEntity
  8
LOGO
 62
     4
100
AcDbLine
 10
318.0109617393673
 20
177.9095165708123
 30
0.0
 11
318.0109617393673
 21
159.5788378377797
 31
0.0
  0
LINE
  5
1A62
330
1F
100
AcDbEntity
  8
LOGO
 62
     4
100
AcDbLine
 10
281.8834221265747
 20
177.9095165708123
 30
0.0
 11
281.8834221265747
 21
159.5788378377797
 31
0.0
  0
LINE
  5
1A63
330
1F
100
AcDbEntity
  8
LOGO
 62
     4
100
AcDbLine
 10
318.0109617393673
 20
159.5788378377797
 30
0.0
 11
281.8834221265747
 21
159.5788378377797
 31
0.0
  0
LINE
  5
1A64
330
1F
100
AcDbEntity
  8
LOGO
 62
     4
100
AcDbLine
 10
299.1241410091573
 20
200.4062586522595
 30
0.0
 11
288.0242047555412
 21
200.4062586522595
 31
0.0
  0
LINE
  5
1A65
330
1F
100
AcDbEntity
  8
LOGO
 62
     4
100
AcDbLine
 10
299.1241410091573
 20
185.408430597961
 30
0.0
 11
288.0242047555412
 21
185.408430597961
 31
0.0
  0
LINE
  5
1A66
330
1F
100
AcDbEntity
  8
LOGO
 62
     4
100
AcDbLine
 10
288.0242047555412
 20
200.4062586522595
 30
0.0
 11
288.0242047555412
 21
185.408430597961
 31
0.0
  0
LINE
  5
1A67
330
1F
100
AcDbEntity
  8
LOGO
 62
     4
100
AcDbLine
 10
299.1241410091573
 20
200.4062586522595
 30
0.0
 11
299.1241410091573
 21
185.408430597961
 31
0.0
  0
TEXT
  5
1A69
330
1F
100
AcDbEntity
  8
LOGO
  6
Continuous
100
AcDbText
 10
290.462204003748
 20
188.5392052774734
 30
0.0
 40
8.75
  1
*
  7
CHINESET
100
AcDbText
  0
LINE
  5
1A6A
330
1F
100
AcDbEntity
  8
LOGO
 62
     4
100
AcDbLine
 10
318.0109617393673
 20
177.9095165708123
 30
0.0
 11
281.8834221265747
 21
177.9095165708123
 31
0.0
  0
TEXT
  5
1A6B
330
1F
100
AcDbEntity
  8
LOGO
  6
Continuous
100
AcDbText
 10
284.9658361510985
 20
162.16617426984
 30
327.6443144001245
 40
3.75
  1
port position
 41
0.8
  7
CHINESET
100
AcDbText
  0
TEXT
  5
1A6C
330
1F
100
AcDbEntity
  8
LOGO
100
AcDbText
 10
284.9305098522923
 20
169.1178660871584
 30
327.6443144001245
 40
6.25
  1
配管口位置
  7
CHINESET
100
AcDbText
  0
LINE
  5
1A6F
330
1F
100
AcDbEntity
  8
LOGO
 62
     4
100
AcDbLine
 10
263.6826357206812
 20
177.9095165708123
 30
0.0
 11
263.6826357206813
 21
181.6589735843867
 31
0.0
  0
LINE
  5
1A70
330
1F
100
AcDbEntity
  8
LOGO
 62
     4
100
AcDbLine
 10
280.4061367819646
 20
181.6589735843867
 30
0.0
 11
263.6826357206813
 21
181.6589735843867
 31
0.0
  0
LINE
  5
1A72
330
1F
100
AcDbEntity
  8
LOGO
 62
     4
100
AcDbLine
 10
293.5741728823492
 20
185.408430597961
 30
0.0
 11
293.5741728823492
 21
177.9095165708123
 31
0.0
  0
LINE
  5
1A73
330
1F
100
AcDbEntity
  8
LOGO
 62
     4
100
AcDbLine
 10
353.6413845873703
 20
177.9095165708123
 30
0.0
 11
353.6413845873703
 21
159.5788378377797
 31
0.0
  0
LINE
  5
1A74
330
1F
100
AcDbEntity
  8
LOGO
 62
     4
100
AcDbLine
 10
320.7344577942954
 20
177.9095165708123
 30
0.0
 11
320.7344577942954
 21
159.5788378377797
 31
0.0
  0
LINE
  5
1A75
330
1F
100
AcDbEntity
  8
LOGO
 62
     4
100
AcDbLine
 10
353.6413845873703
 20
159.5788378377797
 30
0.0
 11
320.7344577942954
 21
159.5788378377797
 31
0.0
  0
LINE
  5
1A76
330
1F
100
AcDbEntity
  8
LOGO
 62
     4
100
AcDbLine
 10
312.8167046778929
 20
200.4062586522595
 30
0.0
 11
301.7167684242768
 21
200.4062586522595
 31
0.0
  0
LINE
  5
1A77
330
1F
100
AcDbEntity
  8
LOGO
 62
     4
100
AcDbLine
 10
312.8167046778929
 20
185.408430597961
 30
0.0
 11
301.7167684242768
 21
185.408430597961
 31
0.0
  0
LINE
  5
1A78
330
1F
100
AcDbEntity
  8
LOGO
 62
     4
100
AcDbLine
 10
301.7167684242768
 20
200.4062586522595
 30
0.0
 11
301.7167684242768
 21
185.408430597961
 31
0.0
  0
LINE
  5
1A79
330
1F
100
AcDbEntity
  8
LOGO
 62
     4
100
AcDbLine
 10
312.8167046778929
 20
200.4062586522595
 30
0.0
 11
312.8167046778929
 21
185.408430597961
 31
0.0
  0
TEXT
  5
1A7A
330
1F
100
AcDbEntity
  8
LOGO
  6
Continuous
100
AcDbText
 10
304.1547676724836
 20
188.5392052774734
 30
0.0
 40
8.75
  1
*
  7
CHINESET
100
AcDbText
  0
LINE
  5
1A7B
330
1F
100
AcDbEntity
  8
LOGO
 62
     4
100
AcDbLine
 10
353.6413845873703
 20
177.9095165708123
 30
0.0
 11
320.7344577942954
 21
177.9095165708123
 31
0.0
  0
TEXT
  5
1A7C
330
1F
100
AcDbEntity
  8
LOGO
  6
Continuous
100
AcDbText
 10
323.8168718188192
 20
162.16617426984
 30
327.6443144001245
 40
3.75
  1
Acting type
 41
0.8
  7
CHINESET
100
AcDbText
  0
TEXT
  5
1A7D
330
1F
100
AcDbEntity
  8
LOGO
100
AcDbText
 10
323.781545520013
 20
169.1178660871584
 30
327.6443144001245
 40
6.25
  1
操作型式
  7
CHINESET
100
AcDbText
  0
LINE
  5
1A7F
330
1F
100
AcDbEntity
  8
LOGO
 62
     4
100
AcDbLine
 10
307.2667365510848
 20
185.408430597961
 30
0.0
 11
307.2667365510848
 21
181.6589735843867
 31
0.0
  0
LINE
  5
1A81
330
1F
100
AcDbEntity
  8
LOGO
 62
     4
100
AcDbLine
 10
307.2667365510848
 20
181.6589735843867
 30
0.0
 11
328.1187388765687
 21
181.6589735843867
 31
0.0
  0
LINE
  5
1A82
330
1F
100
AcDbEntity
  8
LOGO
 62
     4
100
AcDbLine
 10
328.1187388765686
 20
177.9095165708123
 30
0.0
 11
328.1187388765687
 21
181.6589735843867
 31
0.0
  0
LINE
  5
1A91
330
1F
100
AcDbEntity
  8
LOGO
  6
Continuous
100
AcDbLine
 10
314.4110977554071
 20
192.8542199479251
 30
0.0
 11
321.033591377756
 21
192.8542199479251
 31
0.0
  0
TEXT
  5
1A97
330
1F
100
AcDbEntity
  8
LOGO
  6
Continuous
100
AcDbText
 10
325.560638271342
 20
188.5392052774734
 30
0.0
 40
8.75
  1
4H
  7
CHINESET
100
AcDbText
  0
LINE
  5
1A99
330
1F
100
AcDbEntity
  8
LOGO
  6
Continuous
100
AcDbLine
 10
345.7172744287646
 20
192.8542199479251
 30
0.0
 11
352.3397680511134
 21
192.8542199479251
 31
0.0
  0
LINE
  5
1A9A
330
1F
100
AcDbEntity
  8
LOGO
 62
     4
100
AcDbLine
 10
375.4290580246077
 20
200.4062586522595
 30
0.0
 11
354.4288156964926
 21
200.4062586522595
 31
0.0
  0
LINE
  5
1A9B
330
1F
100
AcDbEntity
  8
LOGO
 62
     4
100
AcDbLine
 10
375.4290580246077
 20
185.408430597961
 30
0.0
 11
354.4288156964926
 21
185.408430597961
 31
0.0
  0
LINE
  5
1A9C
330
1F
100
AcDbEntity
  8
LOGO
 62
     4
100
AcDbLine
 10
354.4288156964926
 20
200.4062586522595
 30
0.0
 11
354.4288156964926
 21
185.408430597961
 31
0.0
  0
LINE
  5
1A9D
330
1F
100
AcDbEntity
  8
LOGO
 62
     4
100
AcDbLine
 10
375.4290580246077
 20
200.4062586522595
 30
0.0
 11
375.4290580246077
 21
185.408430597961
 31
0.0
  0
TEXT
  5
1A9E
330
1F
100
AcDbEntity
  8
LOGO
  6
Continuous
100
AcDbText
 10
356.8668149446994
 20
188.5392052774734
 30
0.0
 40
8.75
  1
*A
  7
CHINESET
100
AcDbText
  0
LINE
  5
1AA1
330
1F
100
AcDbEntity
  8
LOGO
 62
     4
100
AcDbLine
 10
364.9289368605502
 20
185.408430597961
 30
0.0
 11
364.9289368605502
 21
181.6589735843867
 31
0.0
  0
LINE
  5
1AA2
330
1F
100
AcDbEntity
  8
LOGO
 62
     4
100
AcDbLine
 10
364.9289368605502
 20
181.6589735843867
 30
0.0
 11
406.5815265242962
 21
181.6589735843867
 31
0.0
  0
LINE
  5
1AA3
330
1F
100
AcDbEntity
  8
LOGO
 62
     4
100
AcDbLine
 10
428.0666720024073
 20
177.9095165708123
 30
0.0
 11
428.0666720024073
 21
159.5788378377797
 31
0.0
  0
LINE
  5
1AA4
330
1F
100
AcDbEntity
  8
LOGO
 62
     4
100
AcDbLine
 10
385.0963810461849
 20
177.9095165708123
 30
0.0
 11
385.0963810461849
 21
159.5788378377797
 31
0.0
  0
LINE
  5
1AA5
330
1F
100
AcDbEntity
  8
LOGO
 62
     4
100
AcDbLine
 10
428.0666720024073
 20
159.5788378377797
 30
0.0
 11
385.0963810461849
 21
159.5788378377797
 31
0.0
  0
LINE
  5
1AA6
330
1F
100
AcDbEntity
  8
LOGO
 62
     4
100
AcDbLine
 10
428.0666720024073
 20
177.9095165708123
 30
0.0
 11
385.0963810461849
 21
177.9095165708123
 31
0.0
  0
TEXT
  5
1AA7
330
1F
100
AcDbEntity
  8
LOGO
  6
Continuous
100
AcDbText
 10
394.5057779828069
 20
162.16617426984
 30
327.6443144001245
 40
3.75
  1
Bore size
 41
0.8
  7
CHINESET
100
AcDbText
  0
TEXT
  5
1AA8
330
1F
100
AcDbEntity
  8
LOGO
100
AcDbText
 10
388.1434687719025
 20
169.1178660871584
 30
327.6443144001245
 40
6.25
  1
配管口徑代號
  7
CHINESET
100
AcDbText
  0
LINE
  5
1AAF
330
1F
100
AcDbEntity
  8
LOGO
 62
     4
100
AcDbLine
 10
406.5815265242961
 20
177.9095165708123
 30
0.0
 11
406.5815265242961
 21
181.6589735843867
 31
0.0
  0
LINE
  5
1AB0
330
1F
100
AcDbEntity
  8
LOGO
 62
     4
100
AcDbLine
 10
381.1126603031035
 20
177.9095165708123
 30
0.0
 11
381.1126603031035
 21
159.5788378377797
 31
0.0
  0
LINE
  5
1AB1
330
1F
100
AcDbEntity
  8
LOGO
 62
     4
100
AcDbLine
 10
355.932027055474
 20
177.9095165708123
 30
0.0
 11
355.932027055474
 21
159.5788378377797
 31
0.0
  0
LINE
  5
1AB2
330
1F
100
AcDbEntity
  8
LOGO
 62
     4
100
AcDbLine
 10
381.1126603031035
 20
159.5788378377797
 30
0.0
 11
355.932027055474
 21
159.5788378377797
 31
0.0
  0
LINE
  5
1AB3
330
1F
100
AcDbEntity
  8
LOGO
 62
     4
100
AcDbLine
 10
381.1126603031035
 20
177.9095165708123
 30
0.0
 11
355.932027055474
 21
177.9095165708123
 31
0.0
  0
TEXT
  5
1AB4
330
1F
100
AcDbEntity
  8
LOGO
  6
Continuous
100
AcDbText
 10
359.0144410799978
 20
162.16617426984
 30
327.6443144001245
 40
3.75
  1
4 Way
 41
0.8
  7
CHINESET
100
AcDbText
  0
TEXT
  5
1AB5
330
1F
100
AcDbEntity
  8
LOGO
100
AcDbText
 10
358.9791147811916
 20
169.1178660871584
 30
327.6443144001245
 40
6.25
  1
4方向
  7
CHINESET
100
AcDbText
  0
LINE
  5
1AB9
330
1F
100
AcDbEntity
  8
LOGO
 62
     4
100
AcDbLine
 10
342.2154084776978
 20
200.4062586522595
 30
0.0
 11
323.7657951742885
 21
200.4062586522595
 31
0.0
  0
LINE
  5
1ABA
330
1F
100
AcDbEntity
  8
LOGO
 62
     4
100
AcDbLine
 10
342.2154084776978
 20
185.408430597961
 30
0.0
 11
323.7657951742885
 21
185.408430597961
 31
0.0
  0
LINE
  5
1ABB
330
1F
100
AcDbEntity
  8
LOGO
 62
     4
100
AcDbLine
 10
323.7657951742885
 20
200.4062586522595
 30
0.0
 11
323.7657951742885
 21
185.408430597961
 31
0.0
  0
LINE
  5
1ABC
330
1F
100
AcDbEntity
  8
LOGO
 62
     4
100
AcDbLine
 10
342.2154084776978
 20
200.4062586522595
 30
0.0
 11
342.2154084776978
 21
185.408430597961
 31
0.0
  0
LINE
  5
1ABD
330
1F
100
AcDbEntity
  8
LOGO
 62
     4
100
AcDbLine
 10
332.9906018259932
 20
185.408430597961
 30
0.0
 11
332.9906018259932
 21
181.6589735843867
 31
0.0
  0
LINE
  5
1ABE
330
1F
100
AcDbEntity
  8
LOGO
 62
     4
100
AcDbLine
 10
332.9906018259932
 20
181.6589735843867
 30
0.0
 11
359.6554409999899
 21
181.6589735843867
 31
0.0
  0
LINE
  5
1ABF
330
1F
100
AcDbEntity
  8
LOGO
 62
     4
100
AcDbLine
 10
359.6554409999898
 20
177.9095165708123
 30
0.0
 11
359.6554409999899
 21
181.6589735843867
 31
0.0
  0
TEXT
  5
1AC3
330
1F
100
AcDbEntity
  8
0
100
AcDbText
 10
67.52253765419936
 20
816.7362274592983
 30
0.0
 40
8.0
  1
MVHC-30*
  7
CHINESET
100
AcDbText
  0
TEXT
  5
1AC4
330
1F
100
AcDbEntity
  8
0
100
AcDbText
 10
67.52253765419936
 20
497.9826075497965
 30
0.0
 40
8.0
  1
MVHC-32*
  7
CHINESET
100
AcDbText
  0
LINE
  5
1B22
330
1F
100
AcDbEntity
  8
AM_7
  6
AM_ISO08W050x2
100
AcDbLine
 10
347.4426489753092
 20
780.7926180877651
 30
0.0
 11
353.7676489753092
 21
780.7926180877651
 31
0.0
1001
GENIUS_GENOREF_13
1005
1B26
  0
LINE
  5
1B23
330
1F
100
AcDbEntity
  8
AM_7
  6
AM_ISO08W050x2
100
AcDbLine
 10
347.4426489753092
 20
780.7926180877651
 30
0.0
 11
347.4426489753092
 21
787.117618087765
 31
0.0
1001
GENIUS_GENOREF_13
1005
1B26
  0
LINE
  5
1B24
330
1F
100
AcDbEntity
  8
AM_7
  6
AM_ISO08W050x2
100
AcDbLine
 10
347.4426489753092
 20
780.7926180877651
 30
0.0
 11
341.1176489753092
 21
780.7926180877651
 31
0.0
1001
GENIUS_GENOREF_13
1005
1B26
  0
LINE
  5
1B25
330
1F
100
AcDbEntity
  8
AM_7
  6
AM_ISO08W050x2
100
AcDbLine
 10
347.4426489753092
 20
780.7926180877651
 30
0.0
 11
347.4426489753092
 21
774.4676180877652
 31
0.0
1001
GENIUS_GENOREF_13
1005
1B26
  0
POINT
  5
1B26
330
1F
100
AcDbEntity
  8
0
 60
     1
100
AcDbPoint
 10
0.0
 20
0.0
 30
0.0
1001
GENIUS_GENOLIS_13
1002
{
1000
ENT
1005
1B25
1005
1B24
1005
1B23
1005
1B22
1002
}
1001
GENIUS_GENODEF_13
1002
{
1000
HIER
1070
    10
1002
}
1002
{
1000
MANEDIT
1070
     0
1002
}
1002
{
1000
NOSEL
1070
     0
1002
}
1002
{
1000
BEHIND
1070
     0
1002
}
1002
{
1000
OTHER
1070
     0
1002
}
1002
{
1000
REACTOR
1002
}
1001
GENIUS_GENOENT_13
1002
{
1000
MYREF
1005
1B26
1002
}
1002
{
1000
GRP
1005
0
1002
}
1001
GENIUS_GENOBJ-N-CRS_13
1002
{
1000
OWNER
1000
GEN
1002
}
  0
LINE
  5
1B34
330
1F
100
AcDbEntity
  8
AM_7
  6
AM_ISO08W050x2
100
AcDbLine
 10
311.4426489753092
 20
780.7926180877651
 30
0.0
 11
317.7676489753092
 21
780.7926180877651
 31
0.0
1001
GENIUS_GENOREF_13
1005
1B38
  0
LINE
  5
1B35
330
1F
100
AcDbEntity
  8
AM_7
  6
AM_ISO08W050x2
100
AcDbLine
 10
311.4426489753092
 20
780.7926180877651
 30
0.0
 11
311.4426489753092
 21
787.117618087765
 31
0.0
1001
GENIUS_GENOREF_13
1005
1B38
  0
LINE
  5
1B36
330
1F
100
AcDbEntity
  8
AM_7
  6
AM_ISO08W050x2
100
AcDbLine
 10
311.4426489753092
 20
780.7926180877651
 30
0.0
 11
305.1176489753093
 21
780.7926180877651
 31
0.0
1001
GENIUS_GENOREF_13
1005
1B38
  0
LINE
  5
1B37
330
1F
100
AcDbEntity
  8
AM_7
  6
AM_ISO08W050x2
100
AcDbLine
 10
311.4426489753092
 20
780.7926180877651
 30
0.0
 11
311.4426489753092
 21
774.4676180877652
 31
0.0
1001
GENIUS_GENOREF_13
1005
1B38
  0
POINT
  5
1B38
330
1F
100
AcDbEntity
  8
0
 60
     1
100
AcDbPoint
 10
0.0
 20
0.0
 30
0.0
1001
GENIUS_GENODEF_13
1002
{
1000
HIER
1070
    10
1002
}
1002
{
1000
MANEDIT
1070
     0
1002
}
1002
{
1000
NOSEL
1070
     0
1002
}
1002
{
1000
BEHIND
1070
     0
1002
}
1002
{
1000
OTHER
1070
     0
1002
}
1002
{
1000
REACTOR
1002
}
1001
GENIUS_GENOBJ-N-CRS_13
1002
{
1000
OWNER
1000
GEN
1002
}
1001
GENIUS_GENOLIS_13
1002
{
1000
ENT
1005
1B37
1005
1B36
1005
1B35
1005
1B34
1002
}
1001
GENIUS_GENOENT_13
1002
{
1000
MYREF
1005
1B38
1002
}
1002
{
1000
GRP
1005
0
1002
}
  0
LINE
  5
1B46
330
1F
100
AcDbEntity
  8
AM_7
  6
AM_ISO08W050x2
100
AcDbLine
 10
311.4426489753092
 20
718.7926180877651
 30
0.0
 11
317.7676489753092
 21
718.7926180877651
 31
0.0
1001
GENIUS_GENOREF_13
1005
1B4A
  0
LINE
  5
1B47
330
1F
100
AcDbEntity
  8
AM_7
  6
AM_ISO08W050x2
100
AcDbLine
 10
311.4426489753092
 20
718.7926180877651
 30
0.0
 11
311.4426489753092
 21
725.117618087765
 31
0.0
1001
GENIUS_GENOREF_13
1005
1B4A
  0
LINE
  5
1B48
330
1F
100
AcDbEntity
  8
AM_7
  6
AM_ISO08W050x2
100
AcDbLine
 10
311.4426489753092
 20
718.7926180877651
 30
0.0
 11
305.1176489753093
 21
718.7926180877651
 31
0.0
1001
GENIUS_GENOREF_13
1005
1B4A
  0
LINE
  5
1B49
330
1F
100
AcDbEntity
  8
AM_7
  6
AM_ISO08W050x2
100
AcDbLine
 10
311.4426489753092
 20
718.7926180877651
 30
0.0
 11
311.4426489753092
 21
712.4676180877652
 31
0.0
1001
GENIUS_GENOREF_13
1005
1B4A
  0
POINT
  5
1B4A
330
1F
100
AcDbEntity
  8
0
 60
     1
100
AcDbPoint
 10
0.0
 20
0.0
 30
0.0
1001
GENIUS_GENOBJ-N-CRS_13
1002
{
1000
OWNER
1000
GEN
1002
}
1001
GENIUS_GENOENT_13
1002
{
1000
MYREF
1005
1B4A
1002
}
1002
{
1000
GRP
1005
0
1002
}
1001
GENIUS_GENOLIS_13
1002
{
1000
ENT
1005
1B49
1005
1B48
1005
1B47
1005
1B46
1002
}
1001
GENIUS_GENODEF_13
1002
{
1000
HIER
1070
    10
1002
}
1002
{
1000
MANEDIT
1070
     0
1002
}
1002
{
1000
NOSEL
1070
     0
1002
}
1002
{
1000
BEHIND
1070
     0
1002
}
1002
{
1000
OTHER
1070
     0
1002
}
1002
{
1000
REACTOR
1002
}
  0
LINE
  5
1B58
330
1F
100
AcDbEntity
  8
AM_7
  6
AM_ISO08W050x2
100
AcDbLine
 10
347.4426489753092
 20
718.7926180877651
 30
0.0
 11
353.7676489753092
 21
718.7926180877651
 31
0.0
1001
GENIUS_GENOREF_13
1005
1B5C
  0
LINE
  5
1B59
330
1F
100
AcDbEntity
  8
AM_7
  6
AM_ISO08W050x2
100
AcDbLine
 10
347.4426489753092
 20
718.7926180877651
 30
0.0
 11
347.4426489753092
 21
725.117618087765
 31
0.0
1001
GENIUS_GENOREF_13
1005
1B5C
  0
LINE
  5
1B5A
330
1F
100
AcDbEntity
  8
AM_7
  6
AM_ISO08W050x2
100
AcDbLine
 10
347.4426489753092
 20
718.7926180877651
 30
0.0
 11
341.1176489753092
 21
718.7926180877651
 31
0.0
1001
GENIUS_GENOREF_13
1005
1B5C
  0
LINE
  5
1B5B
330
1F
100
AcDbEntity
  8
AM_7
  6
AM_ISO08W050x2
100
AcDbLine
 10
347.4426489753092
 20
718.7926180877651
 30
0.0
 11
347.4426489753092
 21
712.4676180877652
 31
0.0
1001
GENIUS_GENOREF_13
1005
1B5C
  0
POINT
  5
1B5C
330
1F
100
AcDbEntity
  8
0
 60
     1
100
AcDbPoint
 10
0.0
 20
0.0
 30
0.0
1001
GENIUS_GENOENT_13
1002
{
1000
MYREF
1005
1B5C
1002
}
1002
{
1000
GRP
1005
0
1002
}
1001
GENIUS_GENOLIS_13
1002
{
1000
ENT
1005
1B5B
1005
1B5A
1005
1B59
1005
1B58
1002
}
1001
GENIUS_GENOBJ-N-CRS_13
1002
{
1000
OWNER
1000
GEN
1002
}
1001
GENIUS_GENODEF_13
1002
{
1000
HIER
1070
    10
1002
}
1002
{
1000
MANEDIT
1070
     0
1002
}
1002
{
1000
NOSEL
1070
     0
1002
}
1002
{
1000
BEHIND
1070
     0
1002
}
1002
{
1000
OTHER
1070
     0
1002
}
1002
{
1000
REACTOR
1002
}
  0
ENDSEC
  0
SECTION
  2
OBJECTS
  0
DICTIONARY
  5
C
330
0
100
AcDbDictionary
281
     1
  3
ACAD_COLOR
350
BE
  3
ACAD_GROUP
350
D
  3
ACAD_LAYOUT
350
1A
  3
ACAD_MATERIAL
350
BD
  3
ACAD_MLINESTYLE
350
17
  3
ACAD_PLOTSETTINGS
350
19
  3
ACAD_PLOTSTYLENAME
350
E
  3
ACAD_TABLESTYLE
350
11A
  3
ACDBHEADERROUNDTRIPXREC
350
1BC6
  3
AcDbVariableDictionary
350
94
  3
AcmDictionary
350
5B
  3
AMG
350
41
  3
AMGSNAPSETTINGS
350
1B8
  3
DWGPROPS
350
1BC5
  0
DICTIONARY
  5
3F9
330
2
100
AcDbDictionary
280
     1
281
     1
  3
ACAD_LAYERFILTERS
360
5B7
  3
ACAD_LAYERSTATES
360
113C
  3
ACLYDICTIONARY
360
5B6
  0
DICTIONARY
  5
8F
330
1F
100
AcDbDictionary
280
     1
281
     1
  0
DICTIONARY
  5
FD3
330
FC6
100
AcDbDictionary
280
     1
281
     1
  3
ACAD_DIMASSOC
360
FD4
  0
DICTIONARY
  5
1006
330
FF9
100
AcDbDictionary
280
     1
281
     1
  3
ACAD_DIMASSOC
360
1007
  0
DICTIONARY
  5
1450
330
144F
100
AcDbDictionary
280
     1
281
     1
  3
ACAD_DIMASSOC
360
1451
  0
DICTIONARY
  5
1453
330
1452
100
AcDbDictionary
280
     1
281
     1
  3
ACAD_DIMASSOC
360
1454
  0
DICTIONARY
  5
145D
330
145C
100
AcDbDictionary
280
     1
281
     1
  3
ACAD_DIMASSOC
360
145E
  0
DICTIONARY
  5
1463
330
1462
100
AcDbDictionary
280
     1
281
     1
  3
ACAD_DIMASSOC
360
1464
  0
DICTIONARY
  5
1466
330
1465
100
AcDbDictionary
280
     1
281
     1
  3
ACAD_DIMASSOC
360
1467
  0
DICTIONARY
  5
1469
330
1468
100
AcDbDictionary
280
     1
281
     1
  3
ACAD_DIMASSOC
360
146A
  0
DICTIONARY
  5
BE
102
{ACAD_REACTORS
330
C
102
}
330
C
100
AcDbDictionary
281
     1
  0
DICTIONARY
  5
D
102
{ACAD_REACTORS
330
C
102
}
330
C
100
AcDbDictionary
281
     1
  0
DICTIONARY
  5
1A
102
{ACAD_REACTORS
330
C
102
}
330
C
100
AcDbDictionary
281
     1
  3
Model
350
22
  3
配置1
350
1E
  3
配置2
350
26
  0
DICTIONARY
  5
BD
102
{ACAD_REACTORS
330
C
102
}
330
C
100
AcDbDictionary
281
     1
  0
DICTIONARY
  5
17
102
{ACAD_REACTORS
330
C
102
}
330
C
100
AcDbDictionary
281
     1
  3
Standard
350
18
  0
DICTIONARY
  5
19
102
{ACAD_REACTORS
330
C
102
}
330
C
100
AcDbDictionary
281
     1
  0
ACDBDICTIONARYWDFLT
  5
E
102
{ACAD_REACTORS
330
C
102
}
330
C
100
AcDbDictionary
281
     1
  3
Normal
350
F
100
AcDbDictionaryWithDefault
340
F
  0
DICTIONARY
  5
11A
102
{ACAD_REACTORS
330
C
102
}
330
C
100
AcDbDictionary
281
     1
  3
Standard
350
11B
  0
DICTIONARY
  5
1BC6
102
{ACAD_REACTORS
330
C
102
}
330
C
100
AcDbDictionary
281
     1
  0
DICTIONARY
  5
94
102
{ACAD_REACTORS
330
C
102
}
330
C
100
AcDbDictionary
281
     1
  3
CTABLESTYLE
350
138
  3
DIMASSOC
350
96
  3
INDEXCTL
350
95
  3
PROJECTNAME
350
1BC3
  0
DICTIONARY
  5
5B
102
{ACAD_REACTORS
330
C
102
}
330
C
100
AcDbDictionary
281
     1
  3
AcmBOM
350
1B5
  3
AcmStdDictionary
350
61
  3
AMDTSECTSYM_ARROWCOLOR
350
123
  0
DICTIONARY
  5
41
102
{ACAD_REACTORS
330
C
102
}
330
C
100
AcDbDictionary
281
     1
  0
DICTIONARY
  5
1B8
102
{ACAD_REACTORS
330
C
102
}
330
C
100
AcDbDictionary
281
     1
  0
XRECORD
  5
1BC5
102
{ACAD_REACTORS
330
C
102
}
330
C
100
AcDbXrecord
280
     1
  1
DWGPROPS COOKIE
  2

  3

  4

  6

  7

  8

  9

300
AmdtFileType=84
301
=
302
=
303
=
304
=
305
=
306
=
307
=
308
=
309
=
 40
0.0260521643518519
 41
2454144.463336945
 42
2454144.498406574
  1

 90
        1
  0
DICTIONARY
  5
5B7
102
{ACAD_REACTORS
330
3F9
102
}
330
3F9
100
AcDbDictionary
281
     1
  0
DICTIONARY
  5
113C
102
{ACAD_REACTORS
330
3F9
102
}
330
3F9
100
AcDbDictionary
281
     1
  0
DICTIONARY
  5
5B6
102
{ACAD_REACTORS
330
3F9
102
}
330
3F9
100
AcDbDictionary
281
     1
1001
ACAD
1000
<All
  0
DIMASSOC
  5
FD4
102
{ACAD_REACTORS
330
FD3
102
}
330
FD3
100
AcDbDimAssoc
330
FC6
 90
        3
 70
     0
 71
     0
  1
AcDbOsnapPointRef
 72
     1
331
E67
 73
     0
 91
        0
 40
0.0
 10
0.0
 20
0.0
 30
2.000000000000000E+50
 75
     0
  1
AcDbOsnapPointRef
 72
     1
331
E55
 73
     0
 91
        0
 40
0.0
 10
0.0
 20
0.0
 30
2.000000000000000E+50
 75
     0
  0
DIMASSOC
  5
1007
102
{ACAD_REACTORS
330
1006
102
}
330
1006
100
AcDbDimAssoc
330
FF9
 90
        3
 70
     0
 71
     0
  1
AcDbOsnapPointRef
 72
     1
331
E4D
 73
     0
 91
        0
 40
0.0
 10
0.0
 20
0.0
 30
2.000000000000000E+50
 75
     0
  1
AcDbOsnapPointRef
 72
    13
331
E4C
 73
     0
 91
        0
 40
0.0
 10
0.0
 20
0.0
 30
2.000000000000000E+50
 75
     0
  0
DIMASSOC
  5
1451
102
{ACAD_REACTORS
330
1450
102
}
330
1450
100
AcDbDimAssoc
330
144F
 90
        3
 70
     0
 71
     0
  1
AcDbOsnapPointRef
 72
     1
331
13AD
 73
     0
 91
        0
 40
0.0
 10
0.0
 20
0.0
 30
2.000000000000000E+50
 75
     0
  1
AcDbOsnapPointRef
 72
    13
331
13B0
 73
     0
 91
        0
 40
0.0
 10
0.0
 20
0.0
 30
2.000000000000000E+50
 75
     0
  0
DIMASSOC
  5
1454
102
{ACAD_REACTORS
330
1453
102
}
330
1453
100
AcDbDimAssoc
330
1452
 90
        3
 70
     0
 71
     0
  1
AcDbOsnapPointRef
 72
     1
331
1429
 73
     0
 91
        0
 40
0.0
 10
0.0
 20
0.0
 30
2.000000000000000E+50
 75
     0
  1
AcDbOsnapPointRef
 72
     1
331
1421
 73
     0
 91
        0
 40
0.0
 10
0.0
 20
0.0
 30
2.000000000000000E+50
 75
     0
  0
DIMASSOC
  5
145E
102
{ACAD_REACTORS
330
145D
102
}
330
145D
100
AcDbDimAssoc
330
145C
 90
        2
 70
     0
 71
     0
  1
AcDbOsnapPointRef
 72
     3
331
13AC
 73
     2
 91
        0
 40
0.0
 10
0.0
 20
0.0
 30
0.0
 75
     0
  0
DIMASSOC
  5
1464
102
{ACAD_REACTORS
330
1463
102
}
330
1463
100
AcDbDimAssoc
330
1462
 90
        2
 70
     0
 71
     0
  1
AcDbOsnapPointRef
 72
     3
331
140A
 73
     2
 91
        0
 40
0.0
 10
0.0
 20
0.0
 30
0.0
 75
     0
  0
DIMASSOC
  5
1467
102
{ACAD_REACTORS
330
1466
102
}
330
1466
100
AcDbDimAssoc
330
1465
 90
        3
 70
     0
 71
     0
  1
AcDbOsnapPointRef
 72
     6
331
1305
331
135B
 73
     0
 91
        0
 40
1.0
 10
0.0
 20
0.0
 30
0.0
332
1359
 74
     0
 92
        0
 75
     0
  1
AcDbOsnapPointRef
 72
     1
331
135F
 73
     0
 91
        0
 40
0.0
 10
0.0
 20
0.0
 30
2.000000000000000E+50
 75
     0
  0
DIMASSOC
  5
146A
102
{ACAD_REACTORS
330
1469
102
}
330
1469
100
AcDbDimAssoc
330
1468
 90
        3
 70
     0
 71
     0
  1
AcDbOsnapPointRef
 72
     6
331
1305
331
135B
 73
     0
 91
        0
 40
1.0
 10
0.0
 20
0.0
 30
0.0
332
1359
 74
     0
 92
        0
 75
     0
  1
AcDbOsnapPointRef
 72
     1
331
132A
 73
     0
 91
        0
 40
0.0
 10
0.0
 20
0.0
 30
2.000000000000000E+50
 75
     0
  0
LAYOUT
  5
22
102
{ACAD_XDICTIONARY
360
1BC9
102
}
102
{ACAD_REACTORS
330
1A
102
}
330
1A
100
AcDbPlotSettings
  1

  2
\\RD\EPSON Stylus C63 Series單色
  4
A4
  6

 40
3.757083177566528
 41
3.757076978683471
 42
3.757080078125
 43
3.757080078125
 44
209.9733276367187
 45
296.9683227539062
 46
0.0
 47
0.0
 48
0.0
 49
0.0
140
0.0
141
0.0
142
1.0
143
0.3405120737814363
 70
 11952
 72
     1
 73
     0
 74
     0
  7
單色出圖.ctb
 75
     0
147
2.936753428137963
148
-2047.07469463503
149
-1261.649717473083
100
AcDbLayout
  1
Model
 70
     1
 71
     0
 10
0.0
 20
0.0
 11
12.0
 21
9.0
 12
0.0
 22
0.0
 32
0.0
 14
0.0
 24
0.0
 34
0.0
 15
0.0
 25
0.0
 35
0.0
146
0.0
 13
0.0
 23
0.0
 33
0.0
 16
1.0
 26
0.0
 36
0.0
 17
0.0
 27
1.0
 37
0.0
 76
     0
330
1F
1001
ACAD_PSEXT
1000
\\RD\EPSON Stylus C63 Series單色
1000
EPSON Stylus C63 Series
1000
\\RD
1000

1070
     0
  0
LAYOUT
  5
1E
102
{ACAD_XDICTIONARY
360
1BC7
102
}
102
{ACAD_REACTORS
330
1A
102
}
330
1A
100
AcDbPlotSettings
  1

  2

  4

  6

 40
0.0
 41
0.0
 42
0.0
 43
0.0
 44
0.0
 45
0.0
 46
0.0
 47
0.0
 48
0.0
 49
0.0
140
0.0
141
0.0
142
1.0
143
1.0
 70
   688
 72
     0
 73
     0
 74
     5
  7
單色出圖.ctb
 75
    16
147
1.0
148
0.0
149
0.0
100
AcDbLayout
  1
配置1
 70
     1
 71
     1
 10
0.0
 20
0.0
 11
420.0
 21
297.0
 12
0.0
 22
0.0
 32
0.0
 14
1.000000000000000E+20
 24
1.000000000000000E+20
 34
1.000000000000000E+20
 15
-1.000000000000000E+20
 25
-1.000000000000000E+20
 35
-1.000000000000000E+20
146
0.0
 13
0.0
 23
0.0
 33
0.0
 16
1.0
 26
0.0
 36
0.0
 17
0.0
 27
1.0
 37
0.0
 76
     0
330
1B
  0
LAYOUT
  5
26
102
{ACAD_XDICTIONARY
360
1BCB
102
}
102
{ACAD_REACTORS
330
1A
102
}
330
1A
100
AcDbPlotSettings
  1

  2

  4

  6

 40
0.0
 41
0.0
 42
0.0
 43
0.0
 44
0.0
 45
0.0
 46
0.0
 47
0.0
 48
0.0
 49
0.0
140
0.0
141
0.0
142
1.0
143
1.0
 70
   688
 72
     0
 73
     0
 74
     5
  7
單色出圖.ctb
 75
    16
147
1.0
148
0.0
149
0.0
100
AcDbLayout
  1
配置2
 70
     1
 71
     2
 10
0.0
 20
0.0
 11
12.0
 21
9.0
 12
0.0
 22
0.0
 32
0.0
 14
0.0
 24
0.0
 34
0.0
 15
0.0
 25
0.0
 35
0.0
146
0.0
 13
0.0
 23
0.0
 33
0.0
 16
1.0
 26
0.0
 36
0.0
 17
0.0
 27
1.0
 37
0.0
 76
     0
330
23
  0
MLINESTYLE
  5
18
102
{ACAD_REACTORS
330
17
102
}
330
17
100
AcDbMlineStyle
  2
STANDARD
 70
     0
  3

 62
   256
 51
90.0
 52
90.0
 71
     2
 49
0.5
 62
   256
  6
BYLAYER
 49
-0.5
 62
   256
  6
BYLAYER
  0
ACDBPLACEHOLDER
  5
F
102
{ACAD_REACTORS
330
E
102
}
330
E
  0
TABLESTYLE
  5
11B
102
{ACAD_REACTORS
330
11A
102
}
330
11A
100
AcDbTableStyle
  3
Standard
 70
     0
 71
     0
 40
1.5
 41
1.5
280
     0
281
     0
  7
STANDARD
140
4.5
170
     2
 62
     0
 63
     7
283
     0
274
    -2
284
     1
 64
     0
275
    -2
285
     1
 65
     0
276
    -2
286
     1
 66
     0
277
    -2
287
     1
 67
     0
278
    -2
288
     1
 68
     0
279
    -2
289
     1
 69
     0
  7
STANDARD
140
6.0
170
     5
 62
     0
 63
     7
283
     0
274
    -2
284
     1
 64
     0
275
    -2
285
     1
 65
     0
276
    -2
286
     1
 66
     0
277
    -2
287
     1
 67
     0
278
    -2
288
     1
 68
     0
279
    -2
289
     1
 69
     0
  7
STANDARD
140
4.5
170
     5
 62
     0
 63
     7
283
     0
274
    -2
284
     1
 64
     0
275
    -2
285
     1
 65
     0
276
    -2
286
     1
 66
     0
277
    -2
287
     1
 67
     0
278
    -2
288
     1
 68
     0
279
    -2
289
     1
 69
     0
  0
DICTIONARYVAR
  5
138
102
{ACAD_REACTORS
330
94
102
}
330
94
100
DictionaryVariables
280
     0
  1
STANDARD
  0
DICTIONARYVAR
  5
96
102
{ACAD_REACTORS
330
94
102
}
330
94
100
DictionaryVariables
280
     0
  1
2
  0
DICTIONARYVAR
  5
95
102
{ACAD_REACTORS
330
94
102
}
330
94
100
DictionaryVariables
280
     0
  1
0
  0
DICTIONARYVAR
  5
1BC3
102
{ACAD_REACTORS
330
94
102
}
330
94
100
DictionaryVariables
280
     0
  1

  0
DICTIONARY
  5
1B5
102
{ACAD_REACTORS
330
5B
102
}
330
5B
100
AcDbDictionary
281
     1
  0
DICTIONARY
  5
61
102
{ACAD_REACTORS
330
5B
102
}
330
5B
100
AcDbDictionary
281
     1
  0
XRECORD
  5
123
102
{ACAD_REACTORS
330
5B
102
}
330
5B
100
AcDbXrecord
280
     1
 90
-1023410169
  0
DICTIONARY
  5
1BC9
330
22
100
AcDbDictionary
280
     1
281
     1
  3
ACAD_XREC_ROUNDTRIP
360
1BCA
  0
DICTIONARY
  5
1BC7
330
1E
100
AcDbDictionary
280
     1
281
     1
  3
ACAD_XREC_ROUNDTRIP
360
1BC8
  0
DICTIONARY
  5
1BCB
330
26
100
AcDbDictionary
280
     1
281
     1
  3
ACAD_XREC_ROUNDTRIP
360
1BCC
  0
XRECORD
  5
1BCA
102
{ACAD_REACTORS
330
1BC9
102
}
330
1BC9
100
AcDbXrecord
280
     1
102
SHADEPLOT
 70
     0
102
SHADEPLOTRESLEVEL
 70
     2
102
SHADEPLOTCUSTOMDPI
 70
   300
  0
XRECORD
  5
1BC8
102
{ACAD_REACTORS
330
1BC7
102
}
330
1BC7
100
AcDbXrecord
280
     1
102
SHADEPLOT
 70
     0
102
SHADEPLOTRESLEVEL
 70
     2
102
SHADEPLOTCUSTOMDPI
 70
   300
  0
XRECORD
  5
1BCC
102
{ACAD_REACTORS
330
1BCB
102
}
330
1BCB
100
AcDbXrecord
280
     1
102
SHADEPLOT
 70
     0
102
SHADEPLOTRESLEVEL
 70
     2
102
SHADEPLOTCUSTOMDPI
 70
   300
  0
ENDSEC
  0
EOF
