  0
SECTION
  2
HEADER
  9
$ACADVER
  1
AC1015
  9
$ACADMAINTVER
 70
    20
  9
$DWGCODEPAGE
  3
ANSI_950
  9
$INSBASE
 10
0.0
 20
0.0
 30
0.0
  9
$EXTMIN
 10
624.2659422973491
 20
154.375368902674
 30
0.0
  9
$EXTMAX
 10
924.2659422973492
 20
464.1753443392509
 30
196.5865886400747
  9
$LIMMIN
 10
0.0
 20
0.0
  9
$LIMMAX
 10
420.0
 20
297.0
  9
$ORTHOMODE
 70
     1
  9
$REGENMODE
 70
     1
  9
$FILLMODE
 70
     1
  9
$QTEXTMODE
 70
     0
  9
$MIRRTEXT
 70
     1
  9
$LTSCALE
 40
1.0
  9
$ATTMODE
 70
     1
  9
$TEXTSIZE
 40
3.0
  9
$TRACEWID
 40
1.0
  9
$TEXTSTYLE
  7
STANDARD
  9
$CLAYER
  8
AM_0
  9
$CELTYPE
  6
ByLayer
  9
$CECOLOR
 62
   256
  9
$CELTSCALE
 40
1.0
  9
$DISPSILH
 70
     0
  9
$DIMSCALE
 40
1.0
  9
$DIMASZ
 40
3.0
  9
$DIMEXO
 40
1.0
  9
$DIMDLI
 40
8.0
  9
$DIMRND
 40
0.0
  9
$DIMDLE
 40
0.0
  9
$DIMEXE
 40
1.5
  9
$DIMTP
 40
0.1
  9
$DIMTM
 40
0.1
  9
$DIMTXT
 40
3.5
  9
$DIMCEN
 40
0.0
  9
$DIMTSZ
 40
0.0
  9
$DIMTOL
 70
     0
  9
$DIMLIM
 70
     0
  9
$DIMTIH
 70
     0
  9
$DIMTOH
 70
     0
  9
$DIMSE1
 70
     0
  9
$DIMSE2
 70
     0
  9
$DIMTAD
 70
     1
  9
$DIMZIN
 70
     8
  9
$DIMBLK
  1

  9
$DIMASO
 70
     1
  9
$DIMSHO
 70
     1
  9
$DIMPOST
  1

  9
$DIMAPOST
  1
"
  9
$DIMALT
 70
     0
  9
$DIMALTD
 70
     2
  9
$DIMALTF
 40
0.0393701
  9
$DIMLFAC
 40
1.0
  9
$DIMTOFL
 70
     1
  9
$DIMTVP
 40
0.0
  9
$DIMTIX
 70
     0
  9
$DIMSOXD
 70
     0
  9
$DIMSAH
 70
     0
  9
$DIMBLK1
  1

  9
$DIMBLK2
  1

  9
$DIMSTYLE
  2
AM_ISO
  9
$DIMCLRD
 70
   256
  9
$DIMCLRE
 70
   256
  9
$DIMCLRT
 70
   256
  9
$DIMTFAC
 40
0.6
  9
$DIMGAP
 40
0.7
  9
$DIMJUST
 70
     0
  9
$DIMSD1
 70
     0
  9
$DIMSD2
 70
     0
  9
$DIMTOLJ
 70
     0
  9
$DIMTZIN
 70
     8
  9
$DIMALTZ
 70
     0
  9
$DIMALTTZ
 70
     0
  9
$DIMUPT
 70
     0
  9
$DIMDEC
 70
     2
  9
$DIMTDEC
 70
     8
  9
$DIMALTU
 70
     2
  9
$DIMALTTD
 70
     2
  9
$DIMTXSTY
  7
STANDARD
  9
$DIMAUNIT
 70
     0
  9
$DIMADEC
 70
     0
  9
$DIMALTRND
 40
0.0
  9
$DIMAZIN
 70
     2
  9
$DIMDSEP
 70
    46
  9
$DIMATFIT
 70
     3
  9
$DIMFRAC
 70
     0
  9
$DIMLDRBLK
  1

  9
$DIMLUNIT
 70
     2
  9
$DIMLWD
 70
    -1
  9
$DIMLWE
 70
    -1
  9
$DIMTMOVE
 70
     0
  9
$LUNITS
 70
     2
  9
$LUPREC
 70
     2
  9
$SKETCHINC
 40
1.0
  9
$FILLETRAD
 40
2.5
  9
$AUNITS
 70
     0
  9
$AUPREC
 70
     0
  9
$MENU
  1
.
  9
$ELEVATION
 40
0.0
  9
$PELEVATION
 40
0.0
  9
$THICKNESS
 40
0.0
  9
$LIMCHECK
 70
     0
  9
$CHAMFERA
 40
2.5
  9
$CHAMFERB
 40
2.5
  9
$CHAMFERC
 40
20.0
  9
$CHAMFERD
 40
0.0
  9
$SKPOLY
 70
     0
  9
$TDCREATE
 40
2454144.463336945
  9
$TDUCREATE
 40
2454144.130003611
  9
$TDUPDATE
 40
2454144.497872176
  9
$TDUUPDATE
 40
2454144.164538843
  9
$TDINDWG
 40
0.0302367245
  9
$TDUSRTIMER
 40
0.0302367245
  9
$USRTIMER
 70
     1
  9
$ANGBASE
 50
0.0
  9
$ANGDIR
 70
     0
  9
$PDMODE
 70
     0
  9
$PDSIZE
 40
0.0
  9
$PLINEWID
 40
0.0
  9
$SPLFRAME
 70
     0
  9
$SPLINETYPE
 70
     6
  9
$SPLINESEGS
 70
     8
  9
$HANDSEED
  5
1FAD
  9
$SURFTAB1
 70
     6
  9
$SURFTAB2
 70
     6
  9
$SURFTYPE
 70
     6
  9
$SURFU
 70
     6
  9
$SURFV
 70
     6
  9
$UCSBASE
  2

  9
$UCSNAME
  2

  9
$UCSORG
 10
0.0
 20
0.0
 30
0.0
  9
$UCSXDIR
 10
1.0
 20
0.0
 30
0.0
  9
$UCSYDIR
 10
0.0
 20
1.0
 30
0.0
  9
$UCSORTHOREF
  2

  9
$UCSORTHOVIEW
 70
     0
  9
$UCSORGTOP
 10
0.0
 20
0.0
 30
0.0
  9
$UCSORGBOTTOM
 10
0.0
 20
0.0
 30
0.0
  9
$UCSORGLEFT
 10
0.0
 20
0.0
 30
0.0
  9
$UCSORGRIGHT
 10
0.0
 20
0.0
 30
0.0
  9
$UCSORGFRONT
 10
0.0
 20
0.0
 30
0.0
  9
$UCSORGBACK
 10
0.0
 20
0.0
 30
0.0
  9
$PUCSBASE
  2

  9
$PUCSNAME
  2

  9
$PUCSORG
 10
0.0
 20
0.0
 30
0.0
  9
$PUCSXDIR
 10
1.0
 20
0.0
 30
0.0
  9
$PUCSYDIR
 10
0.0
 20
1.0
 30
0.0
  9
$PUCSORTHOREF
  2

  9
$PUCSORTHOVIEW
 70
     0
  9
$PUCSORGTOP
 10
0.0
 20
0.0
 30
0.0
  9
$PUCSORGBOTTOM
 10
0.0
 20
0.0
 30
0.0
  9
$PUCSORGLEFT
 10
0.0
 20
0.0
 30
0.0
  9
$PUCSORGRIGHT
 10
0.0
 20
0.0
 30
0.0
  9
$PUCSORGFRONT
 10
0.0
 20
0.0
 30
0.0
  9
$PUCSORGBACK
 10
0.0
 20
0.0
 30
0.0
  9
$USERI1
 70
     0
  9
$USERI2
 70
     0
  9
$USERI3
 70
     0
  9
$USERI4
 70
     0
  9
$USERI5
 70
     0
  9
$USERR1
 40
0.0
  9
$USERR2
 40
0.0
  9
$USERR3
 40
0.0
  9
$USERR4
 40
0.0
  9
$USERR5
 40
0.0
  9
$WORLDVIEW
 70
     1
  9
$SHADEDGE
 70
     3
  9
$SHADEDIF
 70
    70
  9
$TILEMODE
 70
     1
  9
$MAXACTVP
 70
    64
  9
$PINSBASE
 10
0.0
 20
0.0
 30
0.0
  9
$PLIMCHECK
 70
     0
  9
$PEXTMIN
 10
1.000000000000000E+20
 20
1.000000000000000E+20
 30
1.000000000000000E+20
  9
$PEXTMAX
 10
-1.000000000000000E+20
 20
-1.000000000000000E+20
 30
-1.000000000000000E+20
  9
$PLIMMIN
 10
0.0
 20
0.0
  9
$PLIMMAX
 10
420.0
 20
297.0
  9
$UNITMODE
 70
     0
  9
$VISRETAIN
 70
     1
  9
$PLINEGEN
 70
     0
  9
$PSLTSCALE
 70
     1
  9
$TREEDEPTH
 70
  3020
  9
$CMLSTYLE
  2
Standard
  9
$CMLJUST
 70
     0
  9
$CMLSCALE
 40
20.0
  9
$PROXYGRAPHICS
 70
     1
  9
$MEASUREMENT
 70
     1
  9
$CELWEIGHT
370
    -1
  9
$ENDCAPS
280
     0
  9
$JOINSTYLE
280
     0
  9
$LWDISPLAY
290
     0
  9
$INSUNITS
 70
     4
  9
$HYPERLINKBASE
  1

  9
$STYLESHEET
  1
彩色出圖.ctb
  9
$XEDIT
290
     1
  9
$CEPSNTYPE
380
     0
  9
$PSTYLEMODE
290
     1
  9
$FINGERPRINTGUID
  2
{CA904DAA-E0A0-492B-835C-82FF73358F53}
  9
$VERSIONGUID
  2
{7723B727-3CF0-4B69-A45F-77E39B8E94AA}
  9
$EXTNAMES
290
     1
  9
$PSVPSCALE
 40
0.0
  9
$OLESTARTUP
290
     0
  0
ENDSEC
  0
SECTION
  2
CLASSES
  0
CLASS
  1
ACDBDICTIONARYWDFLT
  2
AcDbDictionaryWithDefault
  3
ObjectDBX Classes
 90
        0
280
     0
281
     0
  0
CLASS
  1
ACDBPLACEHOLDER
  2
AcDbPlaceHolder
  3
ObjectDBX Classes
 90
        0
280
     0
281
     0
  0
CLASS
  1
LAYOUT
  2
AcDbLayout
  3
ObjectDBX Classes
 90
        0
280
     0
281
     0
  0
CLASS
  1
ACME_DOCUMENT
  2
AcMeDbDoc
  3
AcMeServices
 90
        0
280
     0
281
     0
  0
CLASS
  1
AMGSETTINGSOBJ
  2
AmgSettingsObj
  3
"AcadM|Product Description: AutoCAD Mechanical 2000|Company: Autodesk"
 90
        0
280
     0
281
     0
  0
CLASS
  1
ACMESCOPE
  2
AcMeScope
  3
AcMeServices
 90
        0
280
     0
281
     0
  0
CLASS
  1
ACMECOMMANDHISTORY
  2
AcMeCommandHistory
  3
AcMeServices
 90
        0
280
     0
281
     0
  0
CLASS
  1
ACIMSYSVARMAN
  2
AcImSysVarManager
  3
AcMeServices
 90
        0
280
     0
281
     0
  0
CLASS
  1
ACIMREALSYSVAR
  2
AcImRealSysVar
  3
AcMeServices
 90
        0
280
     0
281
     0
  0
CLASS
  1
ACIMINTSYSVAR
  2
AcImIntSysVar
  3
AcMeServices
 90
        0
280
     0
281
     0
  0
CLASS
  1
ACMEDRAWINGMAN
  2
AcMeDrawingMan
  3
AcMeServices
 90
        0
280
     0
281
     0
  0
CLASS
  1
ACMEVIEW
  2
AcMeView
  3
AcMeServices
 90
        0
280
     0
281
     0
  0
CLASS
  1
ACDBENTITYCACHE
  2
AcMeEntityCache
  3
AcMeServices
 90
        0
280
     0
281
     0
  0
CLASS
  1
GSMANAGER
  2
AcMeGSManager
  3
AcMeServices
 90
        0
280
     0
281
     0
  0
CLASS
  1
AMDTINTERNALREACTOR
  2
AmdtInternalReactor
  3
AcMeServices
 90
        0
280
     0
281
     0
  0
CLASS
  1
ACMESTATEMGR
  2
AcMeStateMgr
  3
AcMeServices
 90
        0
280
     0
281
     0
  0
CLASS
  1
ACGREFMASTER
  2
AcGrefMaster
  3
AcAttribServices
 90
        0
280
     0
281
     0
  0
CLASS
  1
ACME_DATABASE
  2
AcMeDbDatabase
  3
AcMeServices
 90
        0
280
     0
281
     0
  0
CLASS
  1
ACRFINSADJUSTERMGR
  2
AcRfInsAdjusterMgr
  3
AcMeServices
 90
        0
280
     0
281
     0
  0
CLASS
  1
ACGREFACADMASTER
  2
AcGrefacadMaster
  3
AcGrefServices
 90
        0
280
     0
281
     0
  0
CLASS
  1
AMIMASTER
  2
AmiMaster
  3
AmiServices
 90
        0
280
     0
281
     0
  0
CLASS
  1
ACMDATADICTIONARY
  2
AcmDataDictionary
  3
"AcmSymBB|Product Description: AutoCAD Mechanical 2004 DX|Company: Autodesk"
 90
        0
280
     0
281
     0
  0
CLASS
  1
ACMDATAENTRYBLOCK
  2
AcmDataEntryBlock
  3
"AcmSymBB|Product Description: AutoCAD Mechanical 2004 DX|Company: Autodesk"
 90
        0
280
     0
281
     0
  0
CLASS
  1
ACIMSTRSYSVAR
  2
AcImStrSysVar
  3
AcMeServices
 90
        0
280
     0
281
     0
  0
CLASS
  1
ACMSTANDARDISO
  2
AcmStandardISO
  3
"Amdt_StdImp|Product Description: AutoCAD Mechanical 2004 DX|Company: Autodesk"
 90
        0
280
     0
281
     0
  0
CLASS
  1
AMGOBJPROPCFG
  2
AmgObjPropCfg
  3
"AmgLay|Product Description: AutoCAD Mechanical 2000|Company: Autodesk"
 90
        1
280
     0
281
     0
  0
CLASS
  1
AMDTEDGESTANDARDISO
  2
AmdtEdgeStdISO
  3
"Amdt_StdImp|Product Description: AutoCAD Mechanical 2004 DX|Company: Autodesk"
 90
        0
280
     0
281
     0
  0
CLASS
  1
ACMSURFSTANDARDISO
  2
AcmSurfTextStdISO
  3
"Amdt_StdImp|Product Description: AutoCAD Mechanical 2004 DX|Company: Autodesk"
 90
        0
280
     0
281
     0
  0
CLASS
  1
ACMFCFSTANDARDISO
  2
AcmFCFStdISO
  3
"Amdt_StdImp|Product Description: AutoCAD Mechanical 2004 DX|Company: Autodesk"
 90
        0
280
     0
281
     0
  0
CLASS
  1
ACMWELDSTANDARDISO
  2
AcmWeldingStdISO
  3
"Amdt_StdImp|Product Description: AutoCAD Mechanical 2004 DX|Company: Autodesk"
 90
        0
280
     0
281
     0
  0
CLASS
  1
ACMIDSTANDARDISO
  2
AcmIdStdISO
  3
"Amdt_StdImp|Product Description: AutoCAD Mechanical 2004 DX|Company: Autodesk"
 90
        0
280
     0
281
     0
  0
CLASS
  1
ACMDATUMSTANDARDISO
  2
AcmDatumStdISO
  3
"Amdt_StdImp|Product Description: AutoCAD Mechanical 2004 DX|Company: Autodesk"
 90
        0
280
     0
281
     0
  0
CLASS
  1
ACMBOMSTANDARDISO
  2
AcmBOMStdISO
  3
"Amdt_StdImp|Product Description: AutoCAD Mechanical 2004 DX|Company: Autodesk"
 90
        0
280
     0
281
     0
  0
CLASS
  1
ACMDETAILSTANDARDISO
  2
AmdtDetailSymStdISO
  3
"Amdt_StdImp|Product Description: AutoCAD Mechanical 2004 DX|Company: Autodesk"
 90
        0
280
     0
281
     0
  0
CLASS
  1
ACMSECTIONSTANDARDISO
  2
AmdtSectionSymStdISO
  3
"Amdt_StdImp|Product Description: AutoCAD Mechanical 2004 DX|Company: Autodesk"
 90
        0
280
     0
281
     0
  0
CLASS
  1
ACMCENTERLINESTANDARDISO
  2
AmdtCenterLineStdISO
  3
"Amdt_StdImp|Product Description: AutoCAD Mechanical 2004 DX|Company: Autodesk"
 90
        0
280
     0
281
     0
  0
CLASS
  1
ACMNOTESTANDARDISO
  2
AmdtNoteStdISO
  3
"Amdt_StdImp|Product Description: AutoCAD Mechanical 2004 DX|Company: Autodesk"
 90
        0
280
     0
281
     0
  0
CLASS
  1
ACAMGLAYSTD
  2
AcAmgLayStd
  3
"AcAmgLayStd|Product Description: AutoCAD Mechanical 2000|Company: Autodesk"
 90
        0
280
     0
281
     0
  0
CLASS
  1
ACAMGDIMSTD
  2
AcAmgDimStd
  3
"AcAmgDimStd|Product Description: AutoCAD Mechanical 2000|Company: Autodesk"
 90
        0
280
     0
281
     0
  0
CLASS
  1
ACAMGHOLECHARTSTDISO
  2
AcAmgHoleChartStdISO
  3
ACMSYMBB_MODULE_NAME
 90
        0
280
     0
281
     0
  0
CLASS
  1
ACAMGTITLESTD
  2
AcAmgTitleStd
  3
"TITLEAPP"
 90
        0
280
     0
281
     0
  0
CLASS
  1
LAYER_INDEX
  2
AcDbLayerIndex
  3
ObjectDBX Classes
 90
    32768
280
     0
281
     0
  0
CLASS
  1
IDBUFFER
  2
AcDbIdBuffer
  3
ObjectDBX Classes
 90
    32768
280
     0
281
     0
  0
CLASS
  1
DICTIONARYVAR
  2
AcDbDictionaryVar
  3
ObjectDBX Classes
 90
        0
280
     0
281
     0
  0
CLASS
  1
AM_DRAWING_MGR
  2
AcDmDwgMgr
  3
AcMechDwgViewMgmt
 90
        0
280
     0
281
     0
  0
CLASS
  1
AM_DWG_DOCUMENT
  2
AcDmDwgDocument
  3
AcMechDwgViewMgmt
 90
        0
280
     0
281
     0
  0
CLASS
  1
AM_DWG_SHEET
  2
AcDmSheet
  3
AcMechDwgViewMgmt
 90
        0
280
     0
281
     0
  0
CLASS
  1
AM_VIEWDIMPARMAP
  2
AcDmViewDimParMap
  3
AcMechDwgViewMgmt
 90
        0
280
     0
281
     0
  0
CLASS
  1
AM_DWGMGR_NAME
  2
AcDmDwgMgrName
  3
AcMechDwgViewMgmt
 90
        0
280
     0
281
     0
  0
CLASS
  1
AMDTMENUSTATEMGR
  2
AmdtMenuStateMgr
  3
McadcomServices
 90
        0
280
     0
281
     0
  0
CLASS
  1
AMDTMCOMMENUSTATE
  2
AmdtMcomMenuState
  3
McadcomServices
 90
        0
280
     0
281
     0
  0
CLASS
  1
MAPIAMMOUDLE
  2
MApiAmModule
  3
MApiAmServices
 90
        0
280
     0
281
     0
  0
CLASS
  1
AMDTADMENUSTATE
  2
AmdtAdMenuState
  3
DesignerServices
 90
        0
280
     0
281
     0
  0
CLASS
  1
ADAPPL
  2
AcAdAppl
  3
DesignerServices
 90
        0
280
     0
281
     0
  0
CLASS
  1
DEPMGR
  2
AcAdDepMgr
  3
DesignerServices
 90
        0
280
     0
281
     0
  0
CLASS
  1
PARAMMGR
  2
AcAdParamMgr
  3
DesignerServices
 90
        0
280
     0
281
     0
  0
CLASS
  1
PARAMSCOPE
  2
AcAdParamScope
  3
DesignerServices
 90
        0
280
     0
281
     0
  0
CLASS
  1
NAMEDAPPL
  2
AcAdNamedAppl
  3
DesignerServices
 90
        0
280
     0
281
     0
  0
CLASS
  1
AMDTDMMENUSTATE
  2
AmdtDmMenuState
  3
AcMechDwgViewMgmt
 90
        0
280
     0
281
     0
  0
CLASS
  1
AMDTAMMENUSTATE
  2
AmdtAmMenuState
  3
DesignerAssemblies
 90
        0
280
     0
281
     0
  0
CLASS
  1
ACAMPROJECT
  2
AcAmProject
  3
DesignerAssemblies
 90
        0
280
     0
281
     0
  0
CLASS
  1
ACAMGRCOMPDEF
  2
AcAmGrCompDef
  3
DesignerAssemblies
 90
        0
280
     0
281
     0
  0
CLASS
  1
ACCMCONTEXT
  2
AcCmContext
  3
DesignerAssemblies
 90
        0
280
     0
281
     0
  0
CLASS
  1
ACAMCOMPDEF
  2
AcAmCompDef
  3
DesignerAssemblies
 90
        0
280
     0
281
     0
  0
CLASS
  1
ACAMCOMPDEFMGR
  2
AcAmCompDefMgr
  3
DesignerAssemblies
 90
        0
280
     0
281
     0
  0
CLASS
  1
AMCONTEXTMGR
  2
AcAmContextMgr
  3
DesignerAssemblies
 90
        0
280
     0
281
     0
  0
CLASS
  1
ACAMCONTEXTMODELER
  2
AcAmContextModeler
  3
DesignerAssemblies
 90
        0
280
     0
281
     0
  0
CLASS
  1
ACMTHREADLINESTANDARDISO
  2
AmdtThreadLineStdISO
  3
"Amdt_StdImp|Product Description: AutoCAD Mechanical 2004 DX|Company: Autodesk"
 90
        0
280
     0
281
     0
  0
CLASS
  1
CATALOGSTATE
  2
AcAmCatalogState
  3
DesignerAssemblies
 90
        0
280
     0
281
     0
  0
CLASS
  1
ACAMGRCOMPDEFSET
  2
AcAmGrCompDefSet
  3
DesignerAssemblies
 90
        0
280
     0
281
     0
  0
CLASS
  1
AMDTBROWSERDBTAB
  2
AmdtBrowserDbTab
  3
McadcomServices
 90
        0
280
     0
281
     0
  0
CLASS
  1
CBROWSERAPPOBJECT
  2
CBrowserAppObject
  3
McadcomServices
 90
        0
280
     0
281
     0
  0
CLASS
  1
DM_PLACEHOLDER
  2
AcDmSelsetPlaceholder
  3
AcMechDwgViewMgmt
 90
        0
280
     0
281
     0
  0
CLASS
  1
TABLESTYLE
  2
AcDbTableStyle
  3
ObjectDBX Classes
 90
     2047
280
     0
281
     0
  0
CLASS
  1
VAACXREFPANELOBJECT
  2
VaAcXREFPanelObject
  3
VAAC_ADDIN
 90
    32768
280
     0
281
     0
  0
CLASS
  1
VAACIMAGEINVENTORY
  2
VaAcImageInventory
  3
VAAC_ADDIN
 90
    32768
280
     0
281
     0
  0
CLASS
  1
AMDTNOTETEMPLATEDB
  2
AmdtNoteTemplateDB
  3
AMDT_STDIMP_MODULE_NAME
 90
        0
280
     0
281
     0
  0
CLASS
  1
ACMBOM
  2
AcmBom
  3
"AcmSymBB|Product Description: AutoCAD Mechanical 2004 DX|Company: Autodesk"
 90
    32768
280
     0
281
     0
  0
CLASS
  1
AMDTFORMULAUPDATEDISPATCHER
  2
AmdtFormulaUpdateDispatcher
  3
AcMeServices
 90
    32768
280
     0
281
     0
  0
CLASS
  1
ACMPARTLIST
  2
AcmPartList
  3
"AcmSymBB|Product Description: AutoCAD Mechanical 2004 DX|Company: Autodesk"
 90
    33791
280
     0
281
     1
  0
CLASS
  1
ACAMGFILTERDAT
  2
AcAmgFilterDat
  3
"AcadM|Product Description: AutoCAD Mechanical 2000|Company: Autodesk"
 90
        0
280
     0
281
     0
  0
CLASS
  1
DIMASSOC
  2
AcDbDimAssoc
  3
"AcDbDimAssoc|Product Desc:     AcDim ARX App For Dimension|Company:          Autodesk, Inc.|WEB Address:      www.autodesk.com"
 90
    32768
280
     0
281
     0
  0
CLASS
  1
ACMSTANDARDANSI
  2
AcmStandardANSI
  3
"Amdt_StdImp|Product Description: AutoCAD Mechanical 2004 DX|Company: Autodesk"
 90
        0
280
     0
281
     0
  0
CLASS
  1
ACMSURFSTANDARDANSI
  2
AcmSurfTextStdANSI
  3
"Amdt_StdImp|Product Description: AutoCAD Mechanical 2004 DX|Company: Autodesk"
 90
        0
280
     0
281
     0
  0
CLASS
  1
ACMFCFSTANDARDANSI
  2
AcmFCFStdANSI
  3
"Amdt_StdImp|Product Description: AutoCAD Mechanical 2004 DX|Company: Autodesk"
 90
        0
280
     0
281
     0
  0
CLASS
  1
ACMWELDSTANDARDANSI
  2
AcmWeldingStdANSI
  3
"Amdt_StdImp|Product Description: AutoCAD Mechanical 2004 DX|Company: Autodesk"
 90
        0
280
     0
281
     0
  0
CLASS
  1
ACMIDSTANDARDANSI
  2
AcmIdStdANSI
  3
"Amdt_StdImp|Product Description: AutoCAD Mechanical 2004 DX|Company: Autodesk"
 90
        0
280
     0
281
     0
  0
CLASS
  1
ACMDATUMSTANDARDANSI
  2
AcmDatumStdANSI
  3
"Amdt_StdImp|Product Description: AutoCAD Mechanical 2004 DX|Company: Autodesk"
 90
        0
280
     0
281
     0
  0
CLASS
  1
ACMBOMSTANDARDANSI
  2
AcmBOMStdANSI
  3
"Amdt_StdImp|Product Description: AutoCAD Mechanical 2004 DX|Company: Autodesk"
 90
        0
280
     0
281
     0
  0
CLASS
  1
ACMDETAILSTANDARDANSI
  2
AmdtDetailSymStdANSI
  3
"Amdt_StdImp|Product Description: AutoCAD Mechanical 2004 DX|Company: Autodesk"
 90
        0
280
     0
281
     0
  0
CLASS
  1
ACMSECTIONSTANDARDANSI
  2
AmdtSectionSymStdANSI
  3
"Amdt_StdImp|Product Description: AutoCAD Mechanical 2004 DX|Company: Autodesk"
 90
        0
280
     0
281
     0
  0
CLASS
  1
ACMCENTERLINESTANDARDANSI
  2
AmdtCenterLineStdANSI
  3
"Amdt_StdImp|Product Description: AutoCAD Mechanical 2004 DX|Company: Autodesk"
 90
        0
280
     0
281
     0
  0
CLASS
  1
ACMTHREADLINESTANDARDANSI
  2
AmdtThreadLineStdANSI
  3
"Amdt_StdImp|Product Description: AutoCAD Mechanical 2004 DX|Company: Autodesk"
 90
        0
280
     0
281
     0
  0
CLASS
  1
ACMNOTESTANDARDANSI
  2
AmdtNoteStdANSI
  3
"Amdt_StdImp|Product Description: AutoCAD Mechanical 2004 DX|Company: Autodesk"
 90
        0
280
     0
281
     0
  0
CLASS
  1
ACAMGHOLECHARTSTDANSI
  2
AcAmgHoleChartStdANSI
  3
ACMSYMBB_MODULE_NAME
 90
        0
280
     0
281
     0
  0
CLASS
  1
AMDTNOTE
  2
AmdtNote
  3
"AcmSymBB|Product Description: AutoCAD Mechanical 2004 DX|Company: Autodesk"
 90
    33791
280
     0
281
     1
  0
CLASS
  1
SORTENTSTABLE
  2
AcDbSortentsTable
  3
ObjectDBX Classes
 90
    32768
280
     0
281
     0
  0
CLASS
  1
ACRFATTGENMGR
  2
AcRfAttGeneralMgr
  3
AcAttribServices
 90
        0
280
     0
281
     0
  0
ENDSEC
  0
SECTION
  2
TABLES
  0
TABLE
  2
VPORT
  5
8
330
0
100
AcDbSymbolTable
 70
     3
  0
VPORT
  5
1FA4
330
8
100
AcDbSymbolTableRecord
100
AcDbViewportTableRecord
  2
*Active
 70
     0
 10
0.0
 20
0.0
 11
1.0
 21
1.0
 12
774.26878240385
 22
309.2766942872621
 13
0.0
 23
0.0
 14
2.5
 24
2.5
 15
10.0
 25
10.0
 16
0.0
 26
0.0
 36
1.0
 17
0.0
 27
0.0
 37
0.0
 40
312.419834875247
 41
1.609210526315789
 42
50.0
 43
0.0
 44
0.0
 50
0.0
 51
0.0
 71
     0
 72
   100
 73
     1
 74
     3
 75
     0
 76
     0
 77
     0
 78
     0
281
     0
 65
     1
110
0.0
120
0.0
130
0.0
111
1.0
121
0.0
131
0.0
112
0.0
122
1.0
132
0.0
 79
     0
146
0.0
  0
ENDTAB
  0
TABLE
  2
LTYPE
  5
5
330
0
100
AcDbSymbolTable
 70
    16
  0
LTYPE
  5
14
330
5
100
AcDbSymbolTableRecord
100
AcDbLinetypeTableRecord
  2
ByBlock
 70
     0
  3

 72
    65
 73
     0
 40
0.0
  0
LTYPE
  5
15
330
5
100
AcDbSymbolTableRecord
100
AcDbLinetypeTableRecord
  2
ByLayer
 70
     0
  3

 72
    65
 73
     0
 40
0.0
  0
LTYPE
  5
16
330
5
100
AcDbSymbolTableRecord
100
AcDbLinetypeTableRecord
  2
Continuous
 70
     0
  3
Solid line
 72
    65
 73
     0
 40
0.0
  0
LTYPE
  5
64
330
5
100
AcDbSymbolTableRecord
100
AcDbLinetypeTableRecord
  2
AM_ISO02W050
 70
     0
  3
__ __ __ __ __ __ __ __ __ __ __ __ __ __ __
 72
    65
 73
     2
 40
7.5
 49
6.0
 74
     0
 49
-1.5
 74
     0
  0
LTYPE
  5
65
330
5
100
AcDbSymbolTableRecord
100
AcDbLinetypeTableRecord
  2
AM_ISO08W050
 70
     0
  3
____ . ____ . ____ . ____ . ____ . ____ . ____
 72
    65
 73
     4
 40
18.0
 49
12.0
 74
     0
 49
-1.5
 74
     0
 49
3.0
 74
     0
 49
-1.5
 74
     0
  0
LTYPE
  5
66
330
5
100
AcDbSymbolTableRecord
100
AcDbLinetypeTableRecord
  2
AM_ISO09W050
 70
     0
  3
_____ . . _____ . . _____ . . ____ .. ____
 72
    65
 73
     6
 40
22.5
 49
12.0
 74
     0
 49
-1.5
 74
     0
 49
3.0
 74
     0
 49
-1.5
 74
     0
 49
3.0
 74
     0
 49
-1.5
 74
     0
  0
LTYPE
  5
67
330
5
100
AcDbSymbolTableRecord
100
AcDbLinetypeTableRecord
  2
Amconstr
 70
     0
  3
_______________________
 72
    65
 73
     2
 40
9999.0
 49
9999.0
 74
     0
 49
0.0
 74
     0
  0
LTYPE
  5
68
330
5
100
AcDbSymbolTableRecord
100
AcDbLinetypeTableRecord
  2
AM_ISO08W050x2
 70
     0
  3
__ . __ . __ . __ . __ . __
 72
    65
 73
     4
 40
9.0
 49
6.0
 74
     0
 49
-0.75
 74
     0
 49
1.5
 74
     0
 49
-0.75
 74
     0
  0
LTYPE
  5
69
330
5
100
AcDbSymbolTableRecord
100
AcDbLinetypeTableRecord
  2
AM_ISO02W050x2
 70
     0
  3
 _ _ _ _ _ _ _ _ _ _ _ _
 72
    65
 73
     2
 40
3.75
 49
3.0
 74
     0
 49
-0.75
 74
     0
  0
LTYPE
  5
6C
330
5
100
AcDbSymbolTableRecord
100
AcDbLinetypeTableRecord
  2
Amzigzag
 70
     0
  3
/\/-/\/-/\/-/\/-/\/-/\/
 72
    65
 73
     2
 40
11.0001
 49
0.0001
 74
     4
 75
   135
340
6B
 46
0.04
 50
0.0
 44
0.0
 45
0.0
 49
-11.0
 74
     0
  0
LTYPE
  5
7A
330
5
100
AcDbSymbolTableRecord
100
AcDbLinetypeTableRecord
  2
ACISOWELD
 70
     0
  3
_ _ _ _ _
 72
    65
 73
     2
 40
2.0
 49
2.0
 74
     0
 49
-1.0
 74
     0
  0
LTYPE
  5
7B
330
5
100
AcDbSymbolTableRecord
100
AcDbLinetypeTableRecord
  2
ACISOTGB
 70
     0
  3
__ . . __ . .
 72
    65
 73
     6
 40
9.0
 49
4.0
 74
     0
 49
-1.0
 74
     0
 49
1.0
 74
     0
 49
-1.0
 74
     0
 49
1.0
 74
     0
 49
-1.0
 74
     0
  0
LTYPE
  5
7C
330
5
100
AcDbSymbolTableRecord
100
AcDbLinetypeTableRecord
  2
ACISOTGL
 70
     0
  3
_ _ _ _ _
 72
    65
 73
     2
 40
3.0
 49
2.0
 74
     0
 49
-1.0
 74
     0
  0
LTYPE
  5
7E
330
5
100
AcDbSymbolTableRecord
100
AcDbLinetypeTableRecord
  2
CENTER
 70
     0
  3
__ . __
 72
    65
 73
     4
 40
7.0
 49
4.0
 74
     0
 49
-1.0
 74
     0
 49
1.0
 74
     0
 49
-1.0
 74
     0
  0
LTYPE
  5
D8
330
5
100
AcDbSymbolTableRecord
100
AcDbLinetypeTableRecord
  2
HIDDEN
 70
     0
  3
Hidden __ __ __ __ __ __ __ __ __ __ __ __ __ _
 72
    65
 73
     2
 40
9.524999999999998
 49
6.349999999999999
 74
     0
 49
-3.174999999999999
 74
     0
  0
LTYPE
  5
D9
330
5
100
AcDbSymbolTableRecord
100
AcDbLinetypeTableRecord
  2
PHANTOM2
 70
     0
  3
Phantom (.5x) ___ _ _ ___ _ _ ___ _ _ ___ _ _
 72
    65
 73
     6
 40
31.75
 49
15.875
 74
     0
 49
-3.174999999999999
 74
     0
 49
3.174999999999999
 74
     0
 49
-3.174999999999999
 74
     0
 49
3.174999999999999
 74
     0
 49
-3.174999999999999
 74
     0
  0
LTYPE
  5
B51
330
5
100
AcDbSymbolTableRecord
100
AcDbLinetypeTableRecord
  2
ACANSTGB
 70
     0
  3
__ . . __ . .
 72
    65
 73
     6
 40
0.35433070866
 49
0.15748031496
 74
     0
 49
-0.03937007874
 74
     0
 49
0.03937007874
 74
     0
 49
-0.03937007874
 74
     0
 49
0.03937007874
 74
     0
 49
-0.03937007874
 74
     0
  0
LTYPE
  5
B52
330
5
100
AcDbSymbolTableRecord
100
AcDbLinetypeTableRecord
  2
ACANSTGL
 70
     0
  3
_ _ _ _ _
 72
    65
 73
     2
 40
0.11811023622
 49
0.07874015748
 74
     0
 49
-0.03937007874
 74
     0
  0
ENDTAB
  0
TABLE
  2
LAYER
  5
2
102
{ACAD_XDICTIONARY
360
3F9
102
}
330
0
100
AcDbSymbolTable
 70
     8
  0
LAYER
  5
10
330
2
100
AcDbSymbolTableRecord
100
AcDbLayerTableRecord
  2
0
 70
     0
 62
     7
  6
Continuous
370
    -3
390
F
  0
LAYER
  5
B53
330
2
100
AcDbSymbolTableRecord
100
AcDbLayerTableRecord
  2
DEFPOINTS
 70
     0
 62
     7
  6
Continuous
290
     0
370
    -3
390
F
  0
LAYER
  5
B54
330
2
100
AcDbSymbolTableRecord
100
AcDbLayerTableRecord
  2
center
 70
     0
 62
     1
  6
CENTER
370
    -3
390
F
  0
LAYER
  5
B55
330
2
100
AcDbSymbolTableRecord
100
AcDbLayerTableRecord
  2
dim
 70
     0
 62
     5
  6
Continuous
370
    -3
390
F
  0
LAYER
  5
1137
330
2
100
AcDbSymbolTableRecord
100
AcDbLayerTableRecord
  2
AM_7
 70
     0
 62
     1
  6
CENTER
370
    25
390
F
  0
LAYER
  5
157B
330
2
100
AcDbSymbolTableRecord
100
AcDbLayerTableRecord
  2
LOGO
 70
     0
 62
     7
  6
Continuous
370
    -3
390
F
  0
LAYER
  5
1B67
330
2
100
AcDbSymbolTableRecord
100
AcDbLayerTableRecord
  2
hidden
 70
     0
 62
     6
  6
HIDDEN
370
    -3
390
F
  0
LAYER
  5
1F25
330
2
100
AcDbSymbolTableRecord
100
AcDbLayerTableRecord
  2
AM_0
 70
     0
 62
     7
  6
Continuous
370
    50
390
F
  0
ENDTAB
  0
TABLE
  2
STYLE
  5
3
330
0
100
AcDbSymbolTable
 70
     8
  0
STYLE
  5
11
330
3
100
AcDbSymbolTableRecord
100
AcDbTextStyleTableRecord
  2
STANDARD
 70
     0
 40
0.0
 41
1.0
 50
0.0
 71
     0
 42
3.0
  3
ISOCP.SHX
  4
CHINESET.SHX
  0
STYLE
  5
6B
330
3
100
AcDbSymbolTableRecord
100
AcDbTextStyleTableRecord
  2

 70
     1
 40
0.0
 41
1.0
 50
0.0
 71
     0
 42
2.5
  3
ltypeshp.shx
  4

  0
STYLE
  5
6D
330
3
100
AcDbSymbolTableRecord
100
AcDbTextStyleTableRecord
  2
ACISOTS
 70
     0
 40
1.0
 41
1.0
 50
0.0
 71
     0
 42
1.0
  3
isocp.shx
  4
chineset.shx
  0
STYLE
  5
79
330
3
100
AcDbSymbolTableRecord
100
AcDbTextStyleTableRecord
  2
ACISOGDT
 70
     0
 40
0.0
 41
1.0
 50
0.0
 71
     0
 42
2.5
  3
amgdt.shx
  4
chineset.shx
  0
STYLE
  5
B56
330
3
100
AcDbSymbolTableRecord
100
AcDbTextStyleTableRecord
  2
CHINESET
 70
     0
 40
0.0
 41
1.0
 50
0.0
 71
     0
 42
3.5
  3
C:\r13\com\fonts\simplex.shx
  4
C:\r13\com\fonts\chineset.shx
  0
STYLE
  5
B57
330
3
100
AcDbSymbolTableRecord
100
AcDbTextStyleTableRecord
  2
ACANSTS
 70
     0
 40
1.0
 41
1.0
 50
0.0
 71
     0
 42
3.5
  3
romans.shx
  4
chineset.shx
  0
STYLE
  5
B58
330
3
100
AcDbSymbolTableRecord
100
AcDbTextStyleTableRecord
  2
ACANSGDT
 70
     0
 40
0.0
 41
1.0
 50
0.0
 71
     0
 42
3.5
  3
amgdtans.shx
  4

  0
ENDTAB
  0
TABLE
  2
VIEW
  5
6
330
0
100
AcDbSymbolTable
 70
     0
  0
ENDTAB
  0
TABLE
  2
UCS
  5
7
330
0
100
AcDbSymbolTable
 70
     0
  0
ENDTAB
  0
TABLE
  2
APPID
  5
9
330
0
100
AcDbSymbolTable
 70
    21
  0
APPID
  5
12
330
9
100
AcDbSymbolTableRecord
100
AcDbRegAppTableRecord
  2
ACAD
 70
     0
  0
APPID
  5
46
330
9
100
AcDbSymbolTableRecord
100
AcDbRegAppTableRecord
  2
MCAD_NO_VIS
 70
     0
  0
APPID
  5
47
330
9
100
AcDbSymbolTableRecord
100
AcDbRegAppTableRecord
  2
ACAD_TEMP_GRAPHIC
 70
     0
  0
APPID
  5
58
330
9
100
AcDbSymbolTableRecord
100
AcDbRegAppTableRecord
  2
ACATTRIBSERVICES
 70
     0
  0
APPID
  5
EE
330
9
100
AcDbSymbolTableRecord
100
AcDbRegAppTableRecord
  2
AD_DRAW
 70
     0
  0
APPID
  5
10C
330
9
100
AcDbSymbolTableRecord
100
AcDbRegAppTableRecord
  2
DESIGNERASSEMBLIES
 70
     0
  0
APPID
  5
111
330
9
100
AcDbSymbolTableRecord
100
AcDbRegAppTableRecord
  2
ACADM_DIM_EDIT
 70
     0
  0
APPID
  5
112
330
9
100
AcDbSymbolTableRecord
100
AcDbRegAppTableRecord
  2
AMDT_DM_ADJ
 70
     0
  0
APPID
  5
22C
330
9
100
AcDbSymbolTableRecord
100
AcDbRegAppTableRecord
  2
ACAD_DSTYLE_DIMTEXT_FILL
 70
     0
  0
APPID
  5
452
330
9
100
AcDbSymbolTableRecord
100
AcDbRegAppTableRecord
  2
GENIUS_GENOENT_13
 70
     0
  0
APPID
  5
453
330
9
100
AcDbSymbolTableRecord
100
AcDbRegAppTableRecord
  2
GENIUS_GENOBJ-N-CRS_13
 70
     0
  0
APPID
  5
454
330
9
100
AcDbSymbolTableRecord
100
AcDbRegAppTableRecord
  2
GENIUS_GENOLIS_13
 70
     0
  0
APPID
  5
455
330
9
100
AcDbSymbolTableRecord
100
AcDbRegAppTableRecord
  2
GENIUS_GENODEF_13
 70
     0
  0
APPID
  5
456
330
9
100
AcDbSymbolTableRecord
100
AcDbRegAppTableRecord
  2
GENIUS_GENOREF_13
 70
     0
  0
APPID
  5
6F3
330
9
100
AcDbSymbolTableRecord
100
AcDbRegAppTableRecord
  2
ACAD_PSEXT
 70
     0
  0
APPID
  5
808
330
9
100
AcDbSymbolTableRecord
100
AcDbRegAppTableRecord
  2
GENIUS_GENDTOL_13
 70
     0
  0
APPID
  5
113B
330
9
100
AcDbSymbolTableRecord
100
AcDbRegAppTableRecord
  2
AcAecLayerStandard
 70
     0
  0
APPID
  5
157C
330
9
100
AcDbSymbolTableRecord
100
AcDbRegAppTableRecord
  2
GENIUS_GENREC_14
 70
     0
  0
APPID
  5
157D
330
9
100
AcDbSymbolTableRecord
100
AcDbRegAppTableRecord
  2
GENIUS_GENOBJ-N-REC_13
 70
     0
  0
APPID
  5
1F0F
330
9
100
AcDbSymbolTableRecord
100
AcDbRegAppTableRecord
  2
GENIUS_GENOBJ-N-CEN_13
 70
     0
  0
APPID
  5
1F10
330
9
100
AcDbSymbolTableRecord
100
AcDbRegAppTableRecord
  2
GENIUS_GENCEN_19
 70
     0
  0
ENDTAB
  0
TABLE
  2
DIMSTYLE
  5
A
330
0
100
AcDbSymbolTable
 70
    16
100
AcDbDimStyleTable
 71
     4
340
81
340
B59
340
8B
340
86
  0
DIMSTYLE
105
81
330
A
100
AcDbSymbolTableRecord
100
AcDbDimStyleTableRecord
  2
AM_ISO
 70
     0
  4
"
 41
3.0
 42
1.0
 43
8.0
 44
1.5
 47
0.1
 48
0.1
 73
     0
 74
     0
 77
     1
 78
     8
 79
     2
140
3.5
141
0.0
143
0.0393701
146
0.6
147
0.7
172
     1
176
   256
177
   256
178
   256
271
     2
272
     2
283
     0
284
     8
340
11
371
    -1
372
    -1
  0
DIMSTYLE
105
82
330
A
100
AcDbSymbolTableRecord
100
AcDbDimStyleTableRecord
  2
AM_ISO$3
 70
     0
  4
"
 41
3.0
 42
1.0
 43
8.0
 44
1.5
 47
0.1
 48
0.1
 73
     0
 77
     1
 78
     8
 79
     2
140
3.5
141
0.0
143
0.0393701
146
0.6
147
0.7
176
   256
177
   256
178
   256
271
     2
272
     2
283
     0
284
     8
288
     1
289
     0
340
11
371
    -1
372
    -1
  0
DIMSTYLE
105
83
330
A
100
AcDbSymbolTableRecord
100
AcDbDimStyleTableRecord
  2
AM_ISO$4
 70
     0
  4
"
 41
3.0
 42
1.0
 43
8.0
 44
1.5
 47
0.1
 48
0.1
 73
     0
 77
     1
 78
     8
 79
     2
140
3.5
141
0.0
143
0.0393701
146
0.6
147
0.7
176
   256
177
   256
178
   256
271
     2
272
     2
283
     0
284
     8
288
     1
289
     0
340
11
371
    -1
372
    -1
  0
DIMSTYLE
105
84
330
A
100
AcDbSymbolTableRecord
100
AcDbDimStyleTableRecord
  2
AM_ISO$6
 70
     0
  4
"
 41
3.0
 42
1.0
 43
8.0
 44
1.5
 47
0.1
 48
0.1
 73
     0
 74
     0
 78
     8
 79
     2
140
3.5
141
0.0
143
0.0393701
146
0.6
147
0.7
172
     1
176
   256
177
   256
178
   256
271
     2
272
     2
283
     0
284
     8
340
11
371
    -1
372
    -1
  0
DIMSTYLE
105
85
330
A
100
AcDbSymbolTableRecord
100
AcDbDimStyleTableRecord
  2
AM_ISO$7
 70
     0
  4
"
 41
3.0
 42
1.0
 43
8.0
 44
1.5
 47
0.1
 48
0.1
 73
     0
 74
     0
 77
     1
 78
     8
 79
     2
140
5.0
141
0.0
143
0.0393701
146
0.6
147
0.7
172
     1
176
   256
177
   256
178
   256
271
     2
272
     2
283
     0
284
     8
340
11
371
    -1
372
    -1
  0
DIMSTYLE
105
86
330
A
100
AcDbSymbolTableRecord
100
AcDbDimStyleTableRecord
  2
AM_ISO$SF
 70
     0
  4
"
 41
2.5
 42
1.0
 43
10.0
 44
1.0
 47
0.1
 48
0.1
 73
     0
 74
     0
 75
     1
 76
     1
 77
     1
 78
     8
 79
     2
140
3.5
141
0.0
143
0.0393701
146
0.71
147
1.5
172
     1
176
   256
177
   256
178
     2
271
     2
272
     3
274
     4
283
     0
284
     8
340
11
371
    -1
372
    -1
  0
DIMSTYLE
105
8B
330
A
100
AcDbSymbolTableRecord
100
AcDbDimStyleTableRecord
  2
AM_ISO$SH
 70
     0
  4
"
 41
2.5
 42
1.0
 43
10.0
 44
1.0
 47
0.1
 48
0.1
 73
     0
 74
     0
 75
     1
 76
     1
 77
     1
 78
     8
 79
     2
140
3.5
141
0.0
143
0.0393701
144
2.0
146
0.71
147
1.5
172
     1
173
     1
176
   256
177
   256
178
     2
271
     2
272
     3
274
     4
283
     0
284
     8
340
11
343
87
371
    -1
372
    -1
  0
DIMSTYLE
105
40B
330
A
100
AcDbSymbolTableRecord
100
AcDbDimStyleTableRecord
  2
AM_ISO$0
 70
     0
  4
"
 41
3.0
 42
1.0
 43
8.0
 44
1.5
 47
0.1
 48
0.1
 73
     0
 74
     0
 77
     1
 78
     8
 79
     2
140
3.5
141
0.0
143
0.0393701
146
0.6
147
0.7
172
     1
176
   256
177
   256
178
   256
271
     2
272
     2
283
     0
284
     8
340
11
371
    -1
372
    -1
  0
DIMSTYLE
105
B59
102
{ACAD_REACTORS
330
1E32
330
1E33
330
1E34
330
1E35
330
1E36
330
1E37
330
1E38
102
}
330
A
100
AcDbSymbolTableRecord
100
AcDbDimStyleTableRecord
  2
STANDARD
 70
     0
 41
3.0
 42
2.0
 43
8.0
 44
2.0
 73
     0
 74
     0
 77
     1
 78
     8
 79
     2
140
3.0
141
-2.0
146
0.5
147
1.0
176
   256
177
   256
178
   256
271
     2
272
     2
279
     2
284
     8
340
B56
371
    -1
372
    -1
  0
DIMSTYLE
105
B5A
330
A
100
AcDbSymbolTableRecord
100
AcDbDimStyleTableRecord
  2
AM_ANSI
 70
     0
  4
mm
 41
0.1
 42
0.05
 43
0.5
 44
0.1
 47
0.1
 48
0.1
 78
     7
 79
     2
140
0.12
141
0.0
146
0.71
147
0.06
176
   256
177
   256
178
     2
274
     4
284
     7
340
11
371
    -1
372
    -1
  0
DIMSTYLE
105
B5B
330
A
100
AcDbSymbolTableRecord
100
AcDbDimStyleTableRecord
  2
AM_ANSI$3
 70
     0
  4
mm
 41
0.1
 42
0.05
 43
0.5
 44
0.1
 47
0.1
 48
0.1
 78
     7
 79
     2
140
0.12
141
0.0
146
0.71
147
0.06
176
   256
177
   256
178
     2
274
     4
284
     7
288
     1
289
     0
340
11
371
    -1
372
    -1
  0
DIMSTYLE
105
B5C
330
A
100
AcDbSymbolTableRecord
100
AcDbDimStyleTableRecord
  2
AM_ANSI$4
 70
     0
  4
mm
 41
0.1
 42
0.05
 43
0.5
 44
0.1
 47
0.1
 48
0.1
 78
     7
 79
     2
140
0.12
141
0.0
146
0.71
147
0.06
176
   256
177
   256
178
     2
274
     4
284
     7
288
     1
289
     0
340
11
371
    -1
372
    -1
  0
DIMSTYLE
105
B5D
330
A
100
AcDbSymbolTableRecord
100
AcDbDimStyleTableRecord
  2
AM_ANSI$7
 70
     0
  4
mm
 41
0.1
 42
0.05
 43
0.5
 44
0.1
 47
0.1
 48
0.1
 78
     7
 79
     2
140
0.24
141
0.0
146
0.71
147
0.06
176
   256
177
   256
178
     2
274
     4
284
     7
340
11
371
    -1
372
    -1
  0
DIMSTYLE
105
B5E
330
A
100
AcDbSymbolTableRecord
100
AcDbDimStyleTableRecord
  2
AM_ANSI$SF
 70
     0
  4
mm
 41
0.1
 42
0.05
 43
0.5
 44
0.1
 47
0.1
 48
0.1
 75
     1
 76
     1
 78
     7
 79
     2
140
0.12
141
0.0
146
0.71
147
0.06
176
   256
177
   256
178
     2
274
     4
284
     7
340
11
371
    -1
372
    -1
  0
DIMSTYLE
105
B5F
330
A
100
AcDbSymbolTableRecord
100
AcDbDimStyleTableRecord
  2
AM_ANSI$SH
 70
     0
  4
mm
 41
0.1
 42
0.05
 43
0.5
 44
0.1
 47
0.1
 48
0.1
 75
     1
 76
     1
 78
     7
 79
     2
140
0.12
141
0.0
146
0.71
147
0.06
173
     1
176
   256
177
   256
178
     2
274
     4
284
     7
340
11
343
87
371
    -1
372
    -1
  0
ENDTAB
  0
TABLE
  2
BLOCK_RECORD
  5
1
330
0
100
AcDbSymbolTable
 70
    11
  0
BLOCK_RECORD
  5
1F
102
{ACAD_XDICTIONARY
360
8F
102
}
330
1
100
AcDbSymbolTableRecord
100
AcDbBlockTableRecord
  2
*Model_Space
340
22
  0
BLOCK_RECORD
  5
1B
330
1
100
AcDbSymbolTableRecord
100
AcDbBlockTableRecord
  2
*Paper_Space
340
1E
  0
BLOCK_RECORD
  5
23
330
1
100
AcDbSymbolTableRecord
100
AcDbBlockTableRecord
  2
*Paper_Space0
340
26
  0
BLOCK_RECORD
  5
87
330
1
100
AcDbSymbolTableRecord
100
AcDbBlockTableRecord
  2
GENAXEH
340
0
  0
BLOCK_RECORD
  5
1E3F
330
1
100
AcDbSymbolTableRecord
100
AcDbBlockTableRecord
  2
*D3
340
0
  0
BLOCK_RECORD
  5
1E4B
330
1
100
AcDbSymbolTableRecord
100
AcDbBlockTableRecord
  2
*D4
340
0
  0
BLOCK_RECORD
  5
1E57
330
1
100
AcDbSymbolTableRecord
100
AcDbBlockTableRecord
  2
*D5
340
0
  0
BLOCK_RECORD
  5
1E63
330
1
100
AcDbSymbolTableRecord
100
AcDbBlockTableRecord
  2
*D6
340
0
  0
BLOCK_RECORD
  5
1E6F
330
1
100
AcDbSymbolTableRecord
100
AcDbBlockTableRecord
  2
*D7
340
0
  0
BLOCK_RECORD
  5
1E7B
330
1
100
AcDbSymbolTableRecord
100
AcDbBlockTableRecord
  2
*D8
340
0
  0
BLOCK_RECORD
  5
1E87
330
1
100
AcDbSymbolTableRecord
100
AcDbBlockTableRecord
  2
*D9
340
0
  0
ENDTAB
  0
ENDSEC
  0
SECTION
  2
BLOCKS
  0
BLOCK
  5
20
330
1F
100
AcDbEntity
  8
0
100
AcDbBlockBegin
  2
*Model_Space
 70
     0
 10
0.0
 20
0.0
 30
0.0
  3
*Model_Space
  1

  0
ENDBLK
  5
21
330
1F
100
AcDbEntity
  8
0
100
AcDbBlockEnd
  0
BLOCK
  5
1C
330
1B
100
AcDbEntity
 67
     1
  8
0
100
AcDbBlockBegin
  2
*Paper_Space
 70
     0
 10
0.0
 20
0.0
 30
0.0
  3
*Paper_Space
  1

  0
ENDBLK
  5
1D
330
1B
100
AcDbEntity
 67
     1
  8
0
100
AcDbBlockEnd
  0
BLOCK
  5
24
330
23
100
AcDbEntity
  8
0
100
AcDbBlockBegin
  2
*Paper_Space0
 70
     0
 10
0.0
 20
0.0
 30
0.0
  3
*Paper_Space0
  1

  0
ENDBLK
  5
25
330
23
100
AcDbEntity
  8
0
100
AcDbBlockEnd
  0
BLOCK
  5
89
330
87
100
AcDbEntity
  8
0
100
AcDbBlockBegin
  2
GENAXEH
 70
     0
 10
0.0
 20
0.0
 30
0.0
  3
GENAXEH
  1

  0
LINE
  5
88
330
87
100
AcDbEntity
  8
0
100
AcDbLine
 10
-1.0
 20
0.0
 30
0.0
 11
1.0
 21
0.0
 31
0.0
  0
ENDBLK
  5
8A
330
87
100
AcDbEntity
  8
0
100
AcDbBlockEnd
  0
BLOCK
  5
1E49
330
1E3F
100
AcDbEntity
  8
0
100
AcDbBlockBegin
  2
*D3
 70
     1
 10
0.0
 20
0.0
 30
0.0
  3
*D3
  1

  0
LINE
  5
1F2A
330
1E3F
100
AcDbEntity
  8
dim
100
AcDbLine
 10
758.7557739446358
 20
352.9102059139778
 30
0.0
 11
722.2142323366954
 21
352.9102059139778
 31
0.0
  0
LINE
  5
1F2B
330
1E3F
100
AcDbEntity
  8
dim
100
AcDbLine
 10
758.7557739446358
 20
401.9102059139778
 30
0.0
 11
722.2142323366954
 21
401.9102059139778
 31
0.0
  0
LINE
  5
1F2C
330
1E3F
100
AcDbEntity
  8
dim
100
AcDbLine
 10
724.2142323366954
 20
355.9102059139778
 30
0.0
 11
724.2142323366954
 21
398.9102059139779
 31
0.0
  0
SOLID
  5
1F2D
330
1E3F
100
AcDbEntity
  8
dim
100
AcDbTrace
 10
723.7142323366954
 20
355.9102059139778
 30
0.0
 11
724.7142323366954
 21
355.9102059139778
 31
0.0
 12
724.2142323366954
 22
352.9102059139778
 32
0.0
 13
724.2142323366954
 23
352.9102059139778
 33
0.0
  0
SOLID
  5
1F2E
330
1E3F
100
AcDbEntity
  8
dim
100
AcDbTrace
 10
723.7142323366954
 20
398.9102059139779
 30
0.0
 11
724.7142323366954
 21
398.9102059139779
 31
0.0
 12
724.2142323366954
 22
401.9102059139778
 32
0.0
 13
724.2142323366954
 23
401.9102059139778
 33
0.0
  0
MTEXT
  5
1F2F
330
1E3F
100
AcDbEntity
  8
dim
100
AcDbMText
 10
721.7142323366953
 20
377.4102059139779
 30
0.0
 40
3.0
 41
0.0
 71
     5
 72
     1
  1
\A1;{\Famgdt|c136;o}49
  7
CHINESET
 11
0.0000000000000001
 21
1.0
 31
0.0
 73
     1
 44
1.0
1001
ACAD
1000
MTEXTBEGIN
1070
    73
1070
     1
1070
    44
1040
1.0
1070
    74
1070
     0
1000
MTEXTEND
  0
POINT
  5
1F30
330
1E3F
100
AcDbEntity
  8
DEFPOINTS
 62
     0
100
AcDbPoint
 10
760.7557739446358
 20
352.9102059139778
 30
0.0
  0
POINT
  5
1F31
330
1E3F
100
AcDbEntity
  8
DEFPOINTS
 62
     0
100
AcDbPoint
 10
760.7557739446358
 20
401.9102059139778
 30
0.0
  0
POINT
  5
1F32
330
1E3F
100
AcDbEntity
  8
DEFPOINTS
 62
     0
100
AcDbPoint
 10
724.2142323366954
 20
401.9102059139778
 30
0.0
  0
ENDBLK
  5
1E4A
330
1E3F
100
AcDbEntity
  8
0
100
AcDbBlockEnd
  0
BLOCK
  5
1E55
330
1E4B
100
AcDbEntity
  8
0
100
AcDbBlockBegin
  2
*D4
 70
     1
 10
0.0
 20
0.0
 30
0.0
  3
*D4
  1

  0
LINE
  5
1F33
330
1E4B
100
AcDbEntity
  8
dim
100
AcDbLine
 10
761.0057739446367
 20
346.4102059139777
 30
0.0
 11
713.8194128178797
 21
346.4102059139777
 31
0.0
  0
LINE
  5
1F34
330
1E4B
100
AcDbEntity
  8
dim
100
AcDbLine
 10
761.0057739446367
 20
408.4102059139777
 30
0.0
 11
713.8194128178797
 21
408.4102059139777
 31
0.0
  0
LINE
  5
1F35
330
1E4B
100
AcDbEntity
  8
dim
100
AcDbLine
 10
715.8194128178798
 20
349.4102059139777
 30
0.0
 11
715.8194128178798
 21
405.4102059139777
 31
0.0
  0
SOLID
  5
1F36
330
1E4B
100
AcDbEntity
  8
dim
100
AcDbTrace
 10
715.3194128178797
 20
349.4102059139777
 30
0.0
 11
716.3194128178798
 21
349.4102059139777
 31
0.0
 12
715.8194128178798
 22
346.4102059139777
 32
0.0
 13
715.8194128178798
 23
346.4102059139777
 33
0.0
  0
SOLID
  5
1F37
330
1E4B
100
AcDbEntity
  8
dim
100
AcDbTrace
 10
715.3194128178797
 20
405.4102059139777
 30
0.0
 11
716.3194128178798
 21
405.4102059139777
 31
0.0
 12
715.8194128178798
 22
408.4102059139777
 32
0.0
 13
715.8194128178798
 23
408.4102059139777
 33
0.0
  0
MTEXT
  5
1F38
330
1E4B
100
AcDbEntity
  8
dim
100
AcDbMText
 10
713.3194128178796
 20
377.4102059139778
 30
0.0
 40
3.0
 41
0.0
 71
     5
 72
     1
  1
\A1;{\Famgdt|c136;o}62
  7
CHINESET
 11
0.0000000000000001
 21
1.0
 31
0.0
 73
     1
 44
1.0
1001
ACAD
1000
MTEXTBEGIN
1070
    73
1070
     1
1070
    44
1040
1.0
1070
    74
1070
     0
1000
MTEXTEND
  0
POINT
  5
1F39
330
1E4B
100
AcDbEntity
  8
DEFPOINTS
 62
     0
100
AcDbPoint
 10
763.0057739446368
 20
346.4102059139777
 30
0.0
  0
POINT
  5
1F3A
330
1E4B
100
AcDbEntity
  8
DEFPOINTS
 62
     0
100
AcDbPoint
 10
763.0057739446368
 20
408.4102059139777
 30
0.0
  0
POINT
  5
1F3B
330
1E4B
100
AcDbEntity
  8
DEFPOINTS
 62
     0
100
AcDbPoint
 10
715.8194128178798
 20
408.4102059139777
 30
0.0
  0
ENDBLK
  5
1E56
330
1E4B
100
AcDbEntity
  8
0
100
AcDbBlockEnd
  0
BLOCK
  5
1E61
330
1E57
100
AcDbEntity
  8
0
100
AcDbBlockBegin
  2
*D5
 70
     1
 10
0.0
 20
0.0
 30
0.0
  3
*D5
  1

  0
LINE
  5
1F65
330
1E57
100
AcDbEntity
  8
dim
100
AcDbLine
 10
722.2885896823773
 20
259.004577826089
 30
0.0
 11
722.2885896823773
 21
302.5765670983793
 31
0.0
  0
LINE
  5
1F66
330
1E57
100
AcDbEntity
  8
dim
100
AcDbLine
 10
682.2885896823772
 20
259.0045778260896
 30
0.0
 11
682.2885896823772
 21
302.5765670983793
 31
0.0
  0
LINE
  5
1F67
330
1E57
100
AcDbEntity
  8
dim
100
AcDbLine
 10
719.2885896823772
 20
300.5765670983793
 30
0.0
 11
685.2885896823773
 21
300.5765670983793
 31
0.0
  0
SOLID
  5
1F68
330
1E57
100
AcDbEntity
  8
dim
100
AcDbTrace
 10
719.2885896823772
 20
301.0765670983793
 30
0.0
 11
719.2885896823772
 21
300.0765670983792
 31
0.0
 12
722.2885896823773
 22
300.5765670983793
 32
0.0
 13
722.2885896823773
 23
300.5765670983793
 33
0.0
  0
SOLID
  5
1F69
330
1E57
100
AcDbEntity
  8
dim
100
AcDbTrace
 10
685.2885896823773
 20
301.0765670983793
 30
0.0
 11
685.2885896823773
 21
300.0765670983792
 31
0.0
 12
682.2885896823772
 22
300.5765670983793
 32
0.0
 13
682.2885896823772
 23
300.5765670983793
 33
0.0
  0
MTEXT
  5
1F6A
330
1E57
100
AcDbEntity
  8
dim
100
AcDbMText
 10
702.2885896823773
 20
303.0765670983793
 30
0.0
 40
3.0
 41
0.0
 71
     5
 72
     1
  1
\A1;40
  7
CHINESET
 73
     1
 44
1.0
1001
ACAD
1000
MTEXTBEGIN
1070
    73
1070
     1
1070
    44
1040
1.0
1070
    74
1070
     0
1000
MTEXTEND
  0
POINT
  5
1F6B
330
1E57
100
AcDbEntity
  8
DEFPOINTS
 62
     0
100
AcDbPoint
 10
722.2885896823773
 20
257.004577826089
 30
0.0
  0
POINT
  5
1F6C
330
1E57
100
AcDbEntity
  8
DEFPOINTS
 62
     0
100
AcDbPoint
 10
682.2885896823772
 20
257.0045778260896
 30
0.0
  0
POINT
  5
1F6D
330
1E57
100
AcDbEntity
  8
DEFPOINTS
 62
     0
100
AcDbPoint
 10
682.2885896823772
 20
300.5765670983793
 30
0.0
  0
ENDBLK
  5
1E62
330
1E57
100
AcDbEntity
  8
0
100
AcDbBlockEnd
  0
BLOCK
  5
1E6D
330
1E63
100
AcDbEntity
  8
0
100
AcDbBlockBegin
  2
*D6
 70
     1
 10
0.0
 20
0.0
 30
0.0
  3
*D6
  1

  0
LINE
  5
1EAE
330
1E63
100
AcDbEntity
  8
dim
100
AcDbLine
 10
789.0057739446358
 20
289.7275589524996
 30
0.0
 11
789.0057739446358
 21
304.5111180851576
 31
0.0
  0
LINE
  5
1EAF
330
1E63
100
AcDbEntity
  8
dim
100
AcDbLine
 10
892.4673177617354
 20
288.1396048485537
 30
0.0
 11
892.4673177617354
 21
304.5111180851576
 31
0.0
  0
LINE
  5
1EB0
330
1E63
100
AcDbEntity
  8
dim
100
AcDbLine
 10
792.0057739446358
 20
302.5111180851576
 30
0.0
 11
889.4673177617352
 21
302.5111180851576
 31
0.0
  0
SOLID
  5
1EB1
330
1E63
100
AcDbEntity
  8
dim
100
AcDbTrace
 10
792.0057739446358
 20
303.0111180851576
 30
0.0
 11
792.0057739446358
 21
302.0111180851576
 31
0.0
 12
789.0057739446358
 22
302.5111180851576
 32
0.0
 13
789.0057739446358
 23
302.5111180851576
 33
0.0
  0
SOLID
  5
1EB2
330
1E63
100
AcDbEntity
  8
dim
100
AcDbTrace
 10
889.4673177617352
 20
303.0111180851576
 30
0.0
 11
889.4673177617352
 21
302.0111180851576
 31
0.0
 12
892.4673177617354
 22
302.5111180851576
 32
0.0
 13
892.4673177617354
 23
302.5111180851576
 33
0.0
  0
MTEXT
  5
1EB3
330
1E63
100
AcDbEntity
  8
dim
100
AcDbMText
 10
840.7365458531856
 20
305.0111180851576
 30
0.0
 40
3.0
 41
0.0
 71
     5
 72
     1
  1
\A1;103
  7
CHINESET
 73
     1
 44
1.0
1001
ACAD
1000
MTEXTBEGIN
1070
    73
1070
     1
1070
    44
1040
1.0
1070
    74
1070
     0
1000
MTEXTEND
  0
POINT
  5
1EB4
330
1E63
100
AcDbEntity
  8
DEFPOINTS
 62
     0
100
AcDbPoint
 10
789.0057739446358
 20
287.7275589524996
 30
0.0
  0
POINT
  5
1EB5
330
1E63
100
AcDbEntity
  8
DEFPOINTS
 62
     0
100
AcDbPoint
 10
892.4673177617354
 20
286.1396048485537
 30
0.0
  0
POINT
  5
1EB6
330
1E63
100
AcDbEntity
  8
DEFPOINTS
 62
     0
100
AcDbPoint
 10
892.4673177617354
 20
302.5111180851576
 30
0.0
  0
ENDBLK
  5
1E6E
330
1E63
100
AcDbEntity
  8
0
100
AcDbBlockEnd
  0
BLOCK
  5
1E79
330
1E6F
100
AcDbEntity
  8
0
100
AcDbBlockBegin
  2
*D7
 70
     1
 10
0.0
 20
0.0
 30
0.0
  3
*D7
  1

  0
LINE
  5
1EB7
330
1E6F
100
AcDbEntity
  8
dim
100
AcDbLine
 10
886.8556321377651
 20
297.1877830676921
 30
0.0
 11
908.7759538628384
 21
297.1877830676921
 31
0.0
  0
LINE
  5
1EB8
330
1E6F
100
AcDbEntity
  8
dim
100
AcDbLine
 10
822.0057739446344
 20
208.8872652798627
 30
0.0
 11
908.7759538628384
 21
208.8872652798627
 31
0.0
  0
LINE
  5
1EB9
330
1E6F
100
AcDbEntity
  8
dim
100
AcDbLine
 10
906.7759538628385
 20
294.1877830676921
 30
0.0
 11
906.7759538628383
 21
211.8872652798627
 31
0.0
  0
SOLID
  5
1EBA
330
1E6F
100
AcDbEntity
  8
dim
100
AcDbTrace
 10
906.2759538628384
 20
294.1877830676921
 30
0.0
 11
907.2759538628385
 21
294.1877830676921
 31
0.0
 12
906.7759538628385
 22
297.1877830676921
 32
0.0
 13
906.7759538628385
 23
297.1877830676921
 33
0.0
  0
SOLID
  5
1EBB
330
1E6F
100
AcDbEntity
  8
dim
100
AcDbTrace
 10
906.2759538628384
 20
211.8872652798627
 30
0.0
 11
907.2759538628384
 21
211.8872652798627
 31
0.0
 12
906.7759538628383
 22
208.8872652798627
 32
0.0
 13
906.7759538628383
 23
208.8872652798627
 33
0.0
  0
MTEXT
  5
1EBC
330
1E6F
100
AcDbEntity
  8
dim
100
AcDbMText
 10
904.2759538628384
 20
253.0375241737775
 30
0.0
 40
3.0
 41
0.0
 71
     5
 72
     1
  1
\A1;88
  7
CHINESET
 11
0.0000000000000001
 21
1.0
 31
0.0
 73
     1
 44
1.0
1001
ACAD
1000
MTEXTBEGIN
1070
    73
1070
     1
1070
    44
1040
1.0
1070
    74
1070
     0
1000
MTEXTEND
  0
POINT
  5
1EBD
330
1E6F
100
AcDbEntity
  8
DEFPOINTS
 62
     0
100
AcDbPoint
 10
884.855632137765
 20
297.1877830676921
 30
0.0
  0
POINT
  5
1EBE
330
1E6F
100
AcDbEntity
  8
DEFPOINTS
 62
     0
100
AcDbPoint
 10
820.0057739446345
 20
208.8872652798627
 30
0.0
  0
POINT
  5
1EBF
330
1E6F
100
AcDbEntity
  8
DEFPOINTS
 62
     0
100
AcDbPoint
 10
906.7759538628383
 20
208.8872652798627
 30
0.0
  0
ENDBLK
  5
1E7A
330
1E6F
100
AcDbEntity
  8
0
100
AcDbBlockEnd
  0
BLOCK
  5
1E85
330
1E7B
100
AcDbEntity
  8
0
100
AcDbBlockBegin
  2
*D8
 70
     1
 10
0.0
 20
0.0
 30
0.0
  3
*D8
  1

  0
LINE
  5
1EC0
330
1E7B
100
AcDbEntity
  8
dim
100
AcDbLine
 10
822.0057739446344
 20
208.8872652798627
 30
0.0
 11
838.5169929048872
 21
208.8872652798627
 31
0.0
  0
LINE
  5
1EC1
330
1E7B
100
AcDbEntity
  8
dim
100
AcDbLine
 10
806.0057739386355
 20
220.3872652752628
 30
0.0
 11
838.5169929048872
 21
220.3872652752628
 31
0.0
  0
LINE
  5
1EC2
330
1E7B
100
AcDbEntity
  8
dim
100
AcDbLine
 10
836.5169929048873
 20
211.8872652798627
 30
0.0
 11
836.5169929048873
 21
217.3872652752628
 31
0.0
  0
SOLID
  5
1EC3
330
1E7B
100
AcDbEntity
  8
dim
100
AcDbTrace
 10
836.0169929048872
 20
211.8872652798627
 30
0.0
 11
837.0169929048872
 21
211.8872652798627
 31
0.0
 12
836.5169929048873
 22
208.8872652798627
 32
0.0
 13
836.5169929048873
 23
208.8872652798627
 33
0.0
  0
SOLID
  5
1EC4
330
1E7B
100
AcDbEntity
  8
dim
100
AcDbTrace
 10
836.0169929048872
 20
217.3872652752628
 30
0.0
 11
837.0169929048872
 21
217.3872652752628
 31
0.0
 12
836.5169929048873
 22
220.3872652752628
 32
0.0
 13
836.5169929048873
 23
220.3872652752628
 33
0.0
  0
MTEXT
  5
1EC5
330
1E7B
100
AcDbEntity
  8
dim
100
AcDbMText
 10
834.0169929048872
 20
214.6372652775629
 30
0.0
 40
3.0
 41
0.0
 71
     5
 72
     1
  1
\A1;11.5
  7
CHINESET
 11
0.0000000000000001
 21
1.0
 31
0.0
 73
     1
 44
1.0
1001
ACAD
1000
MTEXTBEGIN
1070
    73
1070
     1
1070
    44
1040
1.0
1070
    74
1070
     0
1000
MTEXTEND
  0
POINT
  5
1EC6
330
1E7B
100
AcDbEntity
  8
DEFPOINTS
 62
     0
100
AcDbPoint
 10
820.0057739446345
 20
208.8872652798627
 30
0.0
  0
POINT
  5
1EC7
330
1E7B
100
AcDbEntity
  8
DEFPOINTS
 62
     0
100
AcDbPoint
 10
804.0057739386353
 20
220.3872652752628
 30
0.0
  0
POINT
  5
1EC8
330
1E7B
100
AcDbEntity
  8
DEFPOINTS
 62
     0
100
AcDbPoint
 10
836.5169929048873
 20
220.3872652752628
 30
0.0
  0
ENDBLK
  5
1E86
330
1E7B
100
AcDbEntity
  8
0
100
AcDbBlockEnd
  0
BLOCK
  5
1E91
330
1E87
100
AcDbEntity
  8
0
100
AcDbBlockBegin
  2
*D9
 70
     1
 10
0.0
 20
0.0
 30
0.0
  3
*D9
  1

  0
LINE
  5
1EC9
330
1E87
100
AcDbEntity
  8
dim
100
AcDbLine
 10
822.0057739446344
 20
208.8872652798627
 30
0.0
 11
855.0169929048873
 21
208.8872652798627
 31
0.0
  0
LINE
  5
1ECA
330
1E87
100
AcDbEntity
  8
dim
100
AcDbLine
 10
822.0057739446344
 20
231.8872652798618
 30
0.0
 11
855.0169929048873
 21
231.8872652798618
 31
0.0
  0
LINE
  5
1ECB
330
1E87
100
AcDbEntity
  8
dim
100
AcDbLine
 10
853.0169929048872
 20
211.8872652798627
 30
0.0
 11
853.0169929048872
 21
228.8872652798618
 31
0.0
  0
SOLID
  5
1ECC
330
1E87
100
AcDbEntity
  8
dim
100
AcDbTrace
 10
852.5169929048873
 20
211.8872652798627
 30
0.0
 11
853.5169929048873
 21
211.8872652798627
 31
0.0
 12
853.0169929048872
 22
208.8872652798627
 32
0.0
 13
853.0169929048872
 23
208.8872652798627
 33
0.0
  0
SOLID
  5
1ECD
330
1E87
100
AcDbEntity
  8
dim
100
AcDbTrace
 10
852.5169929048873
 20
228.8872652798618
 30
0.0
 11
853.5169929048873
 21
228.8872652798618
 31
0.0
 12
853.0169929048872
 22
231.8872652798618
 32
0.0
 13
853.0169929048872
 23
231.8872652798618
 33
0.0
  0
MTEXT
  5
1ECE
330
1E87
100
AcDbEntity
  8
dim
100
AcDbMText
 10
850.5169929048872
 20
220.3872652798624
 30
0.0
 40
3.0
 41
0.0
 71
     5
 72
     1
  1
\A1;23
  7
CHINESET
 11
0.0000000000000001
 21
1.0
 31
0.0
 73
     1
 44
1.0
1001
ACAD
1000
MTEXTBEGIN
1070
    73
1070
     1
1070
    44
1040
1.0
1070
    74
1070
     0
1000
MTEXTEND
  0
POINT
  5
1ECF
330
1E87
100
AcDbEntity
  8
DEFPOINTS
 62
     0
100
AcDbPoint
 10
820.0057739446345
 20
208.8872652798627
 30
0.0
  0
POINT
  5
1ED0
330
1E87
100
AcDbEntity
  8
DEFPOINTS
 62
     0
100
AcDbPoint
 10
820.0057739446345
 20
231.8872652798618
 30
0.0
  0
POINT
  5
1ED1
330
1E87
100
AcDbEntity
  8
DEFPOINTS
 62
     0
100
AcDbPoint
 10
853.0169929048872
 20
231.8872652798618
 30
0.0
  0
ENDBLK
  5
1E92
330
1E87
100
AcDbEntity
  8
0
100
AcDbBlockEnd
  0
ENDSEC
  0
SECTION
  2
ENTITIES
  0
LWPOLYLINE
  5
161B
330
1F
100
AcDbEntity
  8
LOGO
 62
     4
100
AcDbPolyline
 90
        4
 70
     1
 43
0.0
 10
624.2659422973491
 20
184.3710250112719
 10
924.2659422973492
 20
184.3710250112719
 10
924.2659422973492
 20
464.1753443392509
 10
624.2659422973491
 20
464.1753443392509
1001
GENIUS_GENREC_14
1002
{
1000
PYDIR
1011
624.2659422973491
1021
464.1753443392509
1031
0.0
1002
}
1002
{
1000
PXDIR
1011
924.2659422973492
1021
184.3710250112719
1031
0.0
1002
}
1002
{
1000
PORI
1011
624.2659422973491
1021
184.3710250112719
1031
0.0
1002
}
1002
{
1000
PINS
1011
624.2659422973491
1021
184.3710250112719
1031
0.0
1002
}
1002
{
1000
PINS2
1011
924.2659422973492
1021
464.1753443392509
1031
0.0
1002
}
1002
{
1000
C
1070
     1
1002
}
1001
GENIUS_GENODEF_13
1002
{
1000
HIER
1070
     0
1002
}
1002
{
1000
MANEDIT
1070
     0
1002
}
1002
{
1000
NOSEL
1070
     0
1002
}
1002
{
1000
BEHIND
1070
     0
1002
}
1002
{
1000
OTHER
1070
     0
1002
}
1002
{
1000
REACTOR
1002
}
1001
GENIUS_GENOBJ-N-REC_13
1002
{
1000
OWNER
1000
GEN
1002
}
  0
LWPOLYLINE
  5
161C
330
1F
100
AcDbEntity
  8
LOGO
 62
     4
100
AcDbPolyline
 90
        4
 70
     1
 43
0.0
 10
624.2659422973491
 20
184.3710250112719
 10
924.2659422973492
 20
184.3710250112719
 10
924.2659422973492
 20
154.375368902674
 10
624.2659422973491
 20
154.375368902674
1001
GENIUS_GENREC_14
1002
{
1000
PYDIR
1011
624.2659422973491
1021
154.375368902674
1031
0.0
1002
}
1002
{
1000
PXDIR
1011
924.2659422973492
1021
184.3710250112719
1031
0.0
1002
}
1002
{
1000
PORI
1011
624.2659422973491
1021
184.3710250112719
1031
0.0
1002
}
1002
{
1000
PINS
1011
624.2659422973491
1021
184.3710250112719
1031
0.0
1002
}
1002
{
1000
PINS2
1011
924.2659422973492
1021
154.375368902674
1031
0.0
1002
}
1002
{
1000
C
1070
     1
1002
}
1001
GENIUS_GENOBJ-N-REC_13
1002
{
1000
OWNER
1000
GEN
1002
}
1001
GENIUS_GENODEF_13
1002
{
1000
HIER
1070
     0
1002
}
1002
{
1000
MANEDIT
1070
     0
1002
}
1002
{
1000
NOSEL
1070
     0
1002
}
1002
{
1000
BEHIND
1070
     0
1002
}
1002
{
1000
OTHER
1070
     0
1002
}
1002
{
1000
REACTOR
1002
}
  0
TEXT
  5
161D
330
1F
100
AcDbEntity
  8
LOGO
 62
     7
100
AcDbText
 10
691.9941476454101
 20
171.2304384897993
 30
0.0
 40
3.999420814479637
  1
Order example:
 41
0.8
  7
CHINESET
100
AcDbText
  0
TEXT
  5
161E
330
1F
100
AcDbEntity
  8
LOGO
 62
     7
100
AcDbText
 10
692.7116768133925
 20
176.8607949059407
 30
0.0
 40
5.999131221719456
  1
訂購代號：
  7
CHINESET
100
AcDbText
  0
LINE
  5
161F
330
1F
100
AcDbEntity
  8
LOGO
 62
     4
100
AcDbLine
 10
690.2563857362633
 20
154.3753689026744
 30
0.0
 11
690.2563857362633
 21
184.3710250112719
 31
0.0
  0
TEXT
  5
1620
330
1F
100
AcDbEntity
  8
LOGO
  6
Continuous
100
AcDbText
 10
635.0405168046403
 20
160.2679702778164
 30
0.0
 40
4.499348416289593
  1
金器工業股份有限公司
  7
CHINESET
100
AcDbText
  0
TEXT
  5
1621
330
1F
100
AcDbEntity
  8
LOGO
  6
Continuous
100
AcDbText
 10
626.7761039161029
 20
155.7677403419998
 30
0.0
 40
2.999565610859728
  1
MINDMAN INDUSTRIAL CO., LTD.
 41
0.85
  7
CHINESET
100
AcDbText
  0
LINE
  5
1622
330
1F
100
AcDbEntity
  8
LOGO
 62
     4
100
AcDbLine
 10
690.2563857362633
 20
178.3718937895524
 30
0.0
 11
646.2627567769869
 21
178.3718937895524
 31
0.0
  0
LINE
  5
1623
330
1F
100
AcDbEntity
  8
LOGO
 62
     4
100
AcDbLine
 10
690.2563857362633
 20
172.3727625678329
 30
0.0
 11
646.2627567769869
 21
172.3727625678329
 31
0.0
  0
LINE
  5
1624
330
1F
100
AcDbEntity
  8
LOGO
 62
     4
100
AcDbLine
 10
690.2563857362633
 20
166.3736313461137
 30
0.0
 11
624.2659422973491
 21
166.3736313461137
 31
0.0
  0
LINE
  5
1625
330
1F
100
AcDbEntity
  8
LOGO
 62
     4
100
AcDbLine
 10
646.2627567769869
 20
166.3736313461137
 30
0.0
 11
646.2627567769869
 21
184.3710250112719
 31
0.0
  0
TEXT
  5
1626
330
1F
100
AcDbEntity
  8
LOGO
100
AcDbText
 10
676.3303257029939
 20
167.8734141515431
 30
0.0
 40
2.999565610859728
  1
mm
  7
CHINESET
 72
     1
 11
680.0440736021536
 21
169.3731969569729
 31
0.0
100
AcDbText
 73
     2
  0
TEXT
  5
1627
330
1F
100
AcDbEntity
  8
LOGO
100
AcDbText
 10
674.7591246687341
 20
179.8716765949821
 30
0.0
 40
2.999565610859728
  1
1 : 1
  7
CHINESET
 72
     1
 11
680.0440736021536
 21
181.3714594004119
 31
0.0
100
AcDbText
 73
     2
  0
LINE
  5
1628
330
1F
100
AcDbEntity
  8
LOGO
 62
     4
100
AcDbLine
 10
670.2592816638649
 20
166.3736313461137
 30
0.0
 11
670.2592816638649
 21
184.3710250112719
 31
0.0
  0
CIRCLE
  5
1629
330
1F
100
AcDbEntity
  8
LOGO
  6
Continuous
100
AcDbCircle
 10
675.8133525721074
 20
175.3787442714846
 30
0.0
 40
1.741618395480946
  0
CIRCLE
  5
162A
330
1F
100
AcDbEntity
  8
LOGO
  6
Continuous
100
AcDbCircle
 10
675.8133525721074
 20
175.3787442714846
 30
0.0
 40
1.020434202998395
  0
LINE
  5
162B
330
1F
100
AcDbEntity
  8
LOGO
100
AcDbLine
 10
686.7578846581622
 20
173.6371258760033
 30
0.0
 11
686.7578846581622
 21
177.1203626669659
 31
0.0
  0
LINE
  5
162C
330
1F
100
AcDbEntity
  8
LOGO
100
AcDbLine
 10
681.2980109619958
 20
174.3583100684864
 30
0.0
 11
681.2980109619958
 21
176.3991784744832
 31
0.0
  0
LINE
  5
162D
330
1F
100
AcDbEntity
  8
LOGO
  6
Continuous
100
AcDbLine
 10
681.2980109619958
 20
176.3991784744832
 30
0.0
 11
686.7578846581622
 21
177.1203626669659
 31
0.0
  0
LINE
  5
162E
330
1F
100
AcDbEntity
  8
LOGO
  6
Continuous
100
AcDbLine
 10
681.2980109619958
 20
174.3583100684864
 30
0.0
 11
686.7578846581622
 21
173.6371258760033
 31
0.0
  0
TEXT
  5
162F
330
1F
100
AcDbEntity
  8
LOGO
100
AcDbText
 10
648.7360593141557
 20
179.8731527591606
 30
196.5865886400747
 40
2.999565610859728
  1
比例 Scale:
 41
0.9
  7
CHINESET
 72
     4
 11
658.2610192204259
 21
181.3714594004119
 31
196.5865886400747
100
AcDbText
  0
TEXT
  5
1630
330
1F
100
AcDbEntity
  8
LOGO
100
AcDbText
 10
648.5633164731732
 20
173.9147390660335
 30
196.5865886400747
 40
2.999565610859728
  1
投影  View:
 41
0.9
  7
CHINESET
 72
     4
 11
658.2610192204259
 21
175.3723281786925
 31
196.5865886400747
100
AcDbText
  0
TEXT
  5
1631
330
1F
100
AcDbEntity
  8
LOGO
100
AcDbText
 10
648.8565775753063
 20
167.8734141515431
 30
196.5865886400747
 40
2.999565610859728
  1
單位  Unit:
 41
0.9
  7
CHINESET
 72
     4
 11
658.2610192204259
 21
169.3731969569729
 31
196.5865886400747
100
AcDbText
  0
SOLID
  5
1632
330
1F
100
AcDbEntity
  8
LOGO
 62
     5
100
AcDbTrace
 10
627.3780397579825
 20
171.3599822196238
 30
0.0
 11
628.6749732195166
 21
171.3599822196235
 31
0.0
 12
634.0863162831587
 22
183.6584891824476
 32
0.0
 13
635.3832497446934
 23
183.658489182447
 33
0.0
  0
SOLID
  5
1633
330
1F
100
AcDbEntity
  8
LOGO
 62
     5
100
AcDbTrace
 10
629.2116353415321
 20
171.3599822196238
 30
0.0
 11
630.5085688030661
 21
171.3599822196238
 31
0.0
 12
635.3832497446934
 22
182.6746086254212
 32
0.0
 13
634.0863162831587
 23
177.9191859331294
 33
0.0
  0
SOLID
  5
1634
330
1F
100
AcDbEntity
  8
LOGO
 62
     2
100
AcDbTrace
 10
628.6749732195166
 20
171.3599822196235
 30
0.0
 11
629.2116353415321
 21
171.3599822196238
 31
0.0
 12
635.3832497446934
 22
183.658489182447
 32
0.0
 13
635.9199118667082
 23
183.658489182447
 33
0.0
  0
SOLID
  5
1635
330
1F
100
AcDbEntity
  8
LOGO
 62
     5
100
AcDbTrace
 10
625.2987373720999
 20
166.8877978695065
 30
0.0
 11
625.7459558071121
 21
166.8877978695065
 31
0.0
 12
627.0053577288064
 22
169.123890044565
 32
0.0
 13
627.4525761638173
 23
169.123890044565
 33
0.0
  0
SOLID
  5
1636
330
1F
100
AcDbEntity
  8
LOGO
 62
     5
100
AcDbTrace
 10
627.0053577288064
 20
169.123890044565
 30
0.0
 11
627.4525761638173
 21
169.123890044565
 31
0.0
 12
627.0053577288064
 22
166.8877978695065
 32
0.0
 13
627.4525761638173
 23
166.8877978695065
 33
0.0
  0
SOLID
  5
1637
330
1F
100
AcDbEntity
  8
LOGO
 62
     5
100
AcDbTrace
 10
627.0053577288064
 20
166.8877978695065
 30
0.0
 11
627.4525761638173
 21
166.8877978695065
 31
0.0
 12
628.7119780855135
 22
169.123890044565
 32
0.0
 13
629.1591965205251
 23
169.123890044565
 33
0.0
  0
SOLID
  5
1638
330
1F
100
AcDbEntity
  8
LOGO
 62
     5
100
AcDbTrace
 10
628.7119780855135
 20
169.123890044565
 30
0.0
 11
629.1591965205251
 21
169.123890044565
 31
0.0
 12
628.7119780855135
 22
166.8877978695065
 32
0.0
 13
629.1591965205251
 23
166.8877978695065
 33
0.0
  0
POLYLINE
  5
1639
330
1F
100
AcDbEntity
  8
LOGO
 62
     5
100
AcDb2dPolyline
 66
     1
 10
0.0
 20
0.0
 30
0.0
 40
0.4479351312217194
 41
0.4479351312217194
  0
VERTEX
  5
163A
330
1639
100
AcDbEntity
  8
LOGO
 62
     5
100
AcDbVertex
100
AcDb2dVertex
 10
643.7025876802278
 20
168.2294531745415
 30
0.0
 42
1.0
  0
VERTEX
  5
163B
330
1639
100
AcDbEntity
  8
LOGO
 62
     5
100
AcDbVertex
100
AcDb2dVertex
 10
642.3587822865624
 20
168.2294531745415
 30
0.0
 42
1.0
  0
SEQEND
  5
163C
330
1639
100
AcDbEntity
  8
LOGO
 62
     5
  0
POLYLINE
  5
163D
330
1F
100
AcDbEntity
  8
LOGO
 62
     5
100
AcDb2dPolyline
 66
     1
 10
0.0
 20
0.0
 30
0.0
 70
     1
  0
VERTEX
  5
163E
330
163D
100
AcDbEntity
  8
LOGO
 62
     5
100
AcDbVertex
100
AcDb2dVertex
 10
639.8256493470388
 20
168.0058439570354
 30
0.0
 42
1.000000057330635
  0
VERTEX
  5
163F
330
163D
100
AcDbEntity
  8
LOGO
 62
     5
100
AcDbVertex
100
AcDb2dVertex
 10
641.1673046520742
 20
168.0058439570354
 30
0.0
 42
1.000000057330635
  0
SEQEND
  5
1640
330
163D
100
AcDbEntity
  8
LOGO
 62
     5
  0
CIRCLE
  5
1641
330
1F
100
AcDbEntity
  8
LOGO
 62
     5
100
AcDbCircle
 10
640.4964769995575
 20
168.0058439570354
 30
0.0
 40
0.6708276525176471
  0
POLYLINE
  5
1642
330
1F
100
AcDbEntity
  8
LOGO
 62
     5
100
AcDb2dPolyline
 66
     1
 10
0.0
 20
0.0
 30
0.0
 70
     1
 40
0.4479351312217194
 41
0.4479351312217194
  0
VERTEX
  5
1643
330
1642
100
AcDbEntity
  8
LOGO
 62
     5
100
AcDbVertex
100
AcDb2dVertex
 10
639.6006067371135
 20
168.0058439570354
 30
0.0
 42
1.0
  0
VERTEX
  5
1644
330
1642
100
AcDbEntity
  8
LOGO
 62
     5
100
AcDbVertex
100
AcDb2dVertex
 10
641.3923472620003
 20
168.0058439570354
 30
0.0
 42
1.0
  0
SEQEND
  5
1645
330
1642
100
AcDbEntity
  8
LOGO
 62
     5
  0
LINE
  5
1646
330
1F
100
AcDbEntity
  8
LOGO
100
AcDbLine
 10
643.9251218534178
 20
166.8877978695065
 30
0.0
 11
643.9251218534178
 21
168.2294531745415
 31
0.0
  0
SOLID
  5
1647
330
1F
100
AcDbEntity
  8
LOGO
 62
     5
100
AcDbTrace
 10
641.1672599302327
 20
169.123890044565
 30
0.0
 11
641.6144783652436
 21
169.123890044565
 31
0.0
 12
641.1672599302327
 22
166.8877978695065
 32
0.0
 13
641.6144783652436
 23
166.8877978695065
 33
0.0
  0
SOLID
  5
1648
330
1F
100
AcDbEntity
  8
LOGO
 62
     5
100
AcDbTrace
 10
642.1362481133709
 20
166.8877978695065
 30
0.0
 11
642.5834665483831
 21
166.8877978695065
 31
0.0
 12
642.1362481133709
 22
169.123890044565
 32
0.0
 13
642.5834665483831
 23
169.123890044565
 33
0.0
  0
SOLID
  5
1649
330
1F
100
AcDbEntity
  8
LOGO
 62
     5
100
AcDbTrace
 10
643.4779034184069
 20
168.2294531745415
 30
0.0
 11
643.9251218534178
 21
168.2294531745415
 31
0.0
 12
643.4779034184069
 22
166.8877978695065
 32
0.0
 13
643.9251218534178
 23
166.8877978695065
 33
0.0
  0
SOLID
  5
164A
330
1F
100
AcDbEntity
  8
LOGO
 62
     5
100
AcDbTrace
 10
642.0915262698696
 20
182.6746086254212
 30
0.0
 11
640.7945928083362
 21
177.9191859331294
 31
0.0
 12
642.0915262698696
 22
171.3599822196235
 32
0.0
 13
640.7945928083362
 23
171.3599822196235
 33
0.0
  0
SOLID
  5
164B
330
1F
100
AcDbEntity
  8
LOGO
 62
     5
100
AcDbTrace
 10
642.6281883918845
 20
171.3599822196235
 30
0.0
 11
643.9251218534178
 21
171.3599822196235
 31
0.0
 12
642.6281883918845
 22
183.658489182447
 32
0.0
 13
643.9251218534178
 23
183.6584891824476
 33
0.0
  0
SOLID
  5
164C
330
1F
100
AcDbEntity
  8
LOGO
 62
     2
100
AcDbTrace
 10
642.0915262698696
 20
183.6584891824476
 30
0.0
 11
642.6281883918845
 21
183.658489182447
 31
0.0
 12
642.0915262698696
 22
171.3599822196235
 32
0.0
 13
642.6281883918845
 23
171.3599822196235
 33
0.0
  0
POLYLINE
  5
164D
330
1F
100
AcDbEntity
  8
LOGO
 62
     5
100
AcDb2dPolyline
 66
     1
 10
0.0
 20
0.0
 30
0.0
 40
0.4479351312217194
 41
0.4479351312217194
  0
VERTEX
  5
164E
330
164D
100
AcDbEntity
  8
LOGO
 62
     5
100
AcDbVertex
100
AcDb2dVertex
 10
637.2924269638303
 20
168.2294531745415
 30
0.0
 42
1.0
  0
VERTEX
  5
164F
330
164D
100
AcDbEntity
  8
LOGO
 62
     5
100
AcDbVertex
100
AcDb2dVertex
 10
635.9486215701648
 20
168.2294531745415
 30
0.0
 42
1.0
  0
SEQEND
  5
1650
330
164D
100
AcDbEntity
  8
LOGO
 62
     5
  0
POLYLINE
  5
1651
330
1F
100
AcDbEntity
  8
LOGO
 62
     5
100
AcDb2dPolyline
 66
     1
 10
0.0
 20
0.0
 30
0.0
 40
0.4479351312217194
 41
0.4479351312217194
  0
VERTEX
  5
1652
330
1651
100
AcDbEntity
  8
LOGO
 62
     5
100
AcDbVertex
100
AcDb2dVertex
 10
638.6340822688643
 20
168.2294531745415
 30
0.0
 42
1.0
  0
VERTEX
  5
1653
330
1651
100
AcDbEntity
  8
LOGO
 62
     5
100
AcDbVertex
100
AcDb2dVertex
 10
637.2902768751995
 20
168.2294531745415
 30
0.0
 42
1.0
  0
SEQEND
  5
1654
330
1651
100
AcDbEntity
  8
LOGO
 62
     5
  0
POLYLINE
  5
1655
330
1F
100
AcDbEntity
  8
LOGO
 62
     5
100
AcDb2dPolyline
 66
     1
 10
0.0
 20
0.0
 30
0.0
 40
0.4479351312217194
 41
0.4479351312217194
  0
VERTEX
  5
1656
330
1655
100
AcDbEntity
  8
LOGO
 62
     5
100
AcDbVertex
100
AcDb2dVertex
 10
632.2239215524668
 20
168.2294531745415
 30
0.0
 42
1.0
  0
VERTEX
  5
1657
330
1655
100
AcDbEntity
  8
LOGO
 62
     5
100
AcDbVertex
100
AcDb2dVertex
 10
630.880116158802
 20
168.2294531745415
 30
0.0
 42
1.0
  0
SEQEND
  5
1658
330
1655
100
AcDbEntity
  8
LOGO
 62
     5
  0
SOLID
  5
1659
330
1F
100
AcDbEntity
  8
LOGO
 62
     5
100
AcDbTrace
 10
630.6575819856113
 20
169.123890044565
 30
0.0
 11
631.1048004206221
 21
169.123890044565
 31
0.0
 12
630.6575819856113
 22
166.8877978695065
 32
0.0
 13
631.1048004206221
 23
166.8877978695065
 33
0.0
  0
SOLID
  5
165A
330
1F
100
AcDbEntity
  8
LOGO
 62
     5
100
AcDbTrace
 10
631.9992372906466
 20
168.2294531745415
 30
0.0
 11
632.4464557256589
 21
168.2294531745415
 31
0.0
 12
631.9992372906466
 22
166.8877978695065
 32
0.0
 13
632.4464557256589
 23
166.8877978695065
 33
0.0
  0
POLYLINE
  5
165B
330
1F
100
AcDbEntity
  8
LOGO
 62
     5
100
AcDb2dPolyline
 66
     1
 10
0.0
 20
0.0
 30
0.0
 70
     1
 40
0.4479351312217194
 41
0.4479351312217194
  0
VERTEX
  5
165C
330
165B
100
AcDbEntity
  8
LOGO
 62
     5
100
AcDbVertex
100
AcDb2dVertex
 10
633.1904460207153
 20
168.0058439570354
 30
0.0
 42
1.0
  0
VERTEX
  5
165D
330
165B
100
AcDbEntity
  8
LOGO
 62
     5
100
AcDbVertex
100
AcDb2dVertex
 10
634.9821865456028
 20
168.0058439570354
 30
0.0
 42
1.0
  0
SEQEND
  5
165E
330
165B
100
AcDbEntity
  8
LOGO
 62
     5
  0
SOLID
  5
165F
330
1F
100
AcDbEntity
  8
LOGO
 62
     5
100
AcDbTrace
 10
634.7570992138338
 20
169.794717697083
 30
0.0
 11
635.2043176488454
 21
169.794717697083
 31
0.0
 12
634.7570992138338
 22
166.8877978695065
 32
0.0
 13
635.2043176488454
 23
166.8877978695065
 33
0.0
  0
SOLID
  5
1660
330
1F
100
AcDbEntity
  8
LOGO
 62
     5
100
AcDbTrace
 10
635.7260873969748
 20
169.123890044565
 30
0.0
 11
636.1733058319856
 21
169.123890044565
 31
0.0
 12
635.7260873969748
 22
166.8877978695065
 32
0.0
 13
636.1733058319856
 23
166.8877978695065
 33
0.0
  0
SOLID
  5
1661
330
1F
100
AcDbEntity
  8
LOGO
 62
     5
100
AcDbTrace
 10
637.0677427020088
 20
168.2294531745415
 30
0.0
 11
637.514961137021
 21
168.2294531745415
 31
0.0
 12
637.0677427020088
 22
166.8877978695065
 32
0.0
 13
637.514961137021
 23
166.8877978695065
 33
0.0
  0
SOLID
  5
1662
330
1F
100
AcDbEntity
  8
LOGO
 62
     5
100
AcDbTrace
 10
638.4093980070441
 20
168.2294531745415
 30
0.0
 11
638.8566164420557
 21
168.2294531745415
 31
0.0
 12
638.4093980070441
 22
166.8877978695058
 32
0.0
 13
638.8566164420557
 23
166.8877978695058
 33
0.0
  0
SOLID
  5
1663
330
1F
100
AcDbEntity
  8
LOGO
 62
     5
100
AcDbTrace
 10
629.6885938024709
 20
169.4369429490733
 30
0.0
 11
630.1358122374839
 21
169.4369429490733
 31
0.0
 12
629.6885938024709
 22
169.794717697083
 32
0.0
 13
630.1358122374839
 23
169.794717697083
 33
0.0
  0
SOLID
  5
1664
330
1F
100
AcDbEntity
  8
LOGO
 62
     5
100
AcDbTrace
 10
629.6885938024709
 20
169.123890044565
 30
0.0
 11
630.1358122374839
 21
169.123890044565
 31
0.0
 12
629.6885938024709
 22
166.8877978695058
 32
0.0
 13
630.1358122374839
 23
166.8877978695065
 33
0.0
  0
SOLID
  5
1665
330
1F
100
AcDbEntity
  8
LOGO
 62
     5
100
AcDbTrace
 10
634.0863162831587
 20
171.3599822196238
 30
0.0
 11
635.3832497446934
 21
171.3599822196238
 31
0.0
 12
634.0863162831587
 22
177.9191859331294
 32
0.0
 13
635.3832497446934
 23
182.6746086254212
 33
0.0
  0
SOLID
  5
1666
330
1F
100
AcDbEntity
  8
LOGO
 62
     5
100
AcDbTrace
 10
635.9199118667082
 20
183.658489182447
 30
0.0
 11
637.2168453282417
 21
183.6584891824476
 31
0.0
 12
635.9199118667082
 22
172.3438627766495
 32
0.0
 13
637.2168453282417
 23
177.0992854689414
 33
0.0
  0
SOLID
  5
1667
330
1F
100
AcDbEntity
  8
LOGO
 62
     2
100
AcDbTrace
 10
635.3832497446934
 20
183.658489182447
 30
0.0
 11
635.9199118667082
 21
183.658489182447
 31
0.0
 12
635.3832497446934
 22
171.3599822196238
 32
0.0
 13
635.9199118667082
 23
171.3599822196238
 33
0.0
  0
SOLID
  5
1668
330
1F
100
AcDbEntity
  8
LOGO
 62
     5
100
AcDbTrace
 10
635.9199118667082
 20
172.3438627766495
 30
0.0
 11
637.2168453282417
 21
177.0992854689414
 31
0.0
 12
642.0915262698696
 22
183.6584891824476
 32
0.0
 13
640.7945928083362
 23
183.6584891824476
 33
0.0
  0
SOLID
  5
1669
330
1F
100
AcDbEntity
  8
LOGO
 62
     5
100
AcDbTrace
 10
635.9199118667082
 20
171.3599822196238
 30
0.0
 11
637.2168453282417
 21
171.3599822196238
 31
0.0
 12
642.0915262698696
 22
182.6746086254212
 32
0.0
 13
640.7945928083362
 23
177.9191859331294
 33
0.0
  0
SOLID
  5
166A
330
1F
100
AcDbEntity
  8
LOGO
 62
     2
100
AcDbTrace
 10
635.3832497446934
 20
171.3599822196238
 30
0.0
 11
635.9199118667082
 21
171.3599822196238
 31
0.0
 12
642.0915262698696
 22
183.6584891824476
 32
0.0
 13
642.6281883918845
 23
183.658489182447
 33
0.0
  0
LINE
  5
166B
330
1F
100
AcDbEntity
  8
LOGO
 62
     4
100
AcDbLine
 10
742.903775333742
 20
167.8734141515437
 30
0.0
 11
742.903775333742
 21
156.8750069117241
 31
0.0
  0
LINE
  5
166C
330
1F
100
AcDbEntity
  8
LOGO
 62
     4
100
AcDbLine
 10
731.5140794388383
 20
167.8734141515437
 30
0.0
 11
731.5140794388383
 21
156.8750069117241
 31
0.0
  0
LINE
  5
166D
330
1F
100
AcDbEntity
  8
LOGO
 62
     4
100
AcDbLine
 10
742.903775333742
 20
156.8750069117241
 30
0.0
 11
731.5140794388383
 21
156.8750069117241
 31
0.0
  0
LINE
  5
166E
330
1F
100
AcDbEntity
  8
LOGO
 62
     4
100
AcDbLine
 10
755.097876645946
 20
181.3714594004119
 30
0.0
 11
731.5140794388383
 21
181.3714594004119
 31
0.0
  0
LINE
  5
166F
330
1F
100
AcDbEntity
  8
LOGO
 62
     4
100
AcDbLine
 10
755.097876645946
 20
172.3727625678329
 30
0.0
 11
731.5140794388383
 21
172.3727625678329
 31
0.0
  0
LINE
  5
1670
330
1F
100
AcDbEntity
  8
LOGO
 62
     4
100
AcDbLine
 10
731.5140794388383
 20
181.3714594004119
 30
0.0
 11
731.5140794388383
 21
172.3727625678329
 31
0.0
  0
LINE
  5
1671
330
1F
100
AcDbEntity
  8
LOGO
 62
     4
100
AcDbLine
 10
755.097876645946
 20
181.3714594004119
 30
0.0
 11
755.097876645946
 21
172.3727625678329
 31
0.0
  0
LINE
  5
1672
330
1F
100
AcDbEntity
  8
LOGO
 62
     4
100
AcDbLine
 10
737.8026623031656
 20
172.3727625678329
 30
0.0
 11
737.8026623031656
 21
167.8734141515437
 31
0.0
  0
TEXT
  5
1673
330
1F
100
AcDbEntity
  8
LOGO
  6
Continuous
100
AcDbText
 10
733.1130069337583
 20
174.2512273755403
 30
0.0
 40
5.25
  1
MVHC
  7
CHINESET
100
AcDbText
  0
LINE
  5
1674
330
1F
100
AcDbEntity
  8
LOGO
 62
     4
100
AcDbLine
 10
742.903775333742
 20
167.8734141515437
 30
0.0
 11
731.5140794388383
 21
167.8734141515437
 31
0.0
  0
TEXT
  5
1675
330
1F
100
AcDbEntity
  8
LOGO
  6
Continuous
100
AcDbText
 10
733.7698905088551
 20
158.4274087709603
 30
196.5865886400747
 40
2.25
  1
Model
 41
0.8
  7
CHINESET
100
AcDbText
  0
TEXT
  5
1676
330
1F
100
AcDbEntity
  8
LOGO
100
AcDbText
 10
733.1710136518564
 20
162.5984238613513
 30
196.5865886400747
 40
3.75
  1
型號
  7
CHINESET
100
AcDbText
  0
LINE
  5
1677
330
1F
100
AcDbEntity
  8
LOGO
  6
Continuous
100
AcDbLine
 10
756.0545124924545
 20
176.8402361778113
 30
0.0
 11
760.0280086658639
 21
176.8402361778113
 31
0.0
  0
LINE
  5
1678
330
1F
100
AcDbEntity
  8
LOGO
 62
     4
100
AcDbLine
 10
763.3278912000799
 20
167.8734141515437
 30
0.0
 11
763.3278912000799
 21
156.8750069117241
 31
0.0
  0
LINE
  5
1679
330
1F
100
AcDbEntity
  8
LOGO
 62
     4
100
AcDbLine
 10
745.8267437847324
 20
167.8734141515437
 30
0.0
 11
745.8267437847324
 21
156.8750069117241
 31
0.0
  0
LINE
  5
167A
330
1F
100
AcDbEntity
  8
LOGO
 62
     4
100
AcDbLine
 10
763.3278912000799
 20
156.8750069117241
 30
0.0
 11
745.8267437847324
 21
156.8750069117241
 31
0.0
  0
LINE
  5
167B
330
1F
100
AcDbEntity
  8
LOGO
 62
     4
100
AcDbLine
 10
767.9413990052609
 20
181.3714594004119
 30
0.0
 11
761.2814372530914
 21
181.3714594004119
 31
0.0
  0
LINE
  5
167C
330
1F
100
AcDbEntity
  8
LOGO
 62
     4
100
AcDbLine
 10
767.9413990052609
 20
172.3727625678329
 30
0.0
 11
761.2814372530914
 21
172.3727625678329
 31
0.0
  0
LINE
  5
167D
330
1F
100
AcDbEntity
  8
LOGO
 62
     4
100
AcDbLine
 10
761.2814372530914
 20
181.3714594004119
 30
0.0
 11
761.2814372530914
 21
172.3727625678329
 31
0.0
  0
LINE
  5
167E
330
1F
100
AcDbEntity
  8
LOGO
 62
     4
100
AcDbLine
 10
767.9413990052609
 20
181.3714594004119
 30
0.0
 11
767.9413990052609
 21
172.3727625678329
 31
0.0
  0
LINE
  5
167F
330
1F
100
AcDbEntity
  8
LOGO
 62
     4
100
AcDbLine
 10
764.6114181291761
 20
172.3727625678329
 30
0.0
 11
764.6114181291761
 21
170.1230883596883
 31
0.0
  0
TEXT
  5
1680
330
1F
100
AcDbEntity
  8
LOGO
  6
Continuous
100
AcDbText
 10
762.7442368020155
 20
174.2512273755403
 30
0.0
 40
5.25
  1
2
  7
CHINESET
100
AcDbText
  0
LINE
  5
1681
330
1F
100
AcDbEntity
  8
LOGO
 62
     4
100
AcDbLine
 10
763.3278912000799
 20
167.8734141515437
 30
0.0
 11
745.8267437847324
 21
167.8734141515437
 31
0.0
  0
TEXT
  5
1698
330
1F
100
AcDbEntity
  8
LOGO
  6
Continuous
100
AcDbText
 10
747.6761921994467
 20
158.4274087709603
 30
196.5865886400747
 40
2.25
  1
Body size
 41
0.8
  7
CHINESET
100
AcDbText
  0
TEXT
  5
1699
330
1F
100
AcDbEntity
  8
LOGO
100
AcDbText
 10
747.6549964201629
 20
162.5984238613513
 30
196.5865886400747
 40
3.75
  1
本體尺寸
  7
CHINESET
100
AcDbText
  0
TEXT
  5
16AA
330
1F
100
AcDbEntity
  8
LOGO
100
AcDbText
 10
691.6961891231197
 20
155.9711259685564
 30
0.0
 40
3.0
  1
10702129
 41
0.7
  7
CHINESET
 72
     1
 11
698.9461891231197
 21
155.9711259685564
 31
0.0
100
AcDbText
  0
LINE
  5
16AB
330
1F
100
AcDbEntity
  8
LOGO
 62
     4
100
AcDbLine
 10
708.2563857362619
 20
160.3745001243946
 30
0.0
 11
708.2563857362632
 21
154.3753689026747
 31
0.0
  0
LINE
  5
16AC
330
1F
100
AcDbEntity
  8
LOGO
 62
     4
100
AcDbLine
 10
708.2563857362619
 20
160.3745001243946
 30
0.0
 11
690.2563857362633
 21
160.3745001243946
 31
0.0
  0
LINE
  5
16AD
330
1F
100
AcDbEntity
  8
LOGO
  6
AM_ISO08W050x2
 48
0.3
100
AcDbLine
 10
673.412505535255
 20
175.3787442714846
 30
0.0
 11
678.2141996089598
 21
175.3787442714846
 31
0.0
1001
GENIUS_GENOREF_13
1005
16B2
  0
LINE
  5
16AE
330
1F
100
AcDbEntity
  8
LOGO
  6
AM_ISO08W050x2
 48
0.3
100
AcDbLine
 10
675.8133525721074
 20
172.9778972346322
 30
0.0
 11
675.8133525721074
 21
177.779591308337
 31
0.0
1001
GENIUS_GENOREF_13
1005
16B1
  0
LINE
  5
16AF
330
1F
100
AcDbEntity
  8
LOGO
  6
CENTER
 48
0.5
100
AcDbLine
 10
680.8613728227818
 20
175.3787442714846
 30
0.0
 11
687.3076762648437
 21
175.3787442714846
 31
0.0
1001
GENIUS_GENOREF_13
1005
16B0
  0
POINT
  5
16B0
330
1F
100
AcDbEntity
  8
0
 60
     1
100
AcDbPoint
 10
-2218.58837700419
 20
-869.6779002908
 30
0.0
1001
GENIUS_GENOBJ-N-CRS_13
1002
{
1000
OWNER
1000
GEN
1002
}
1001
GENIUS_GENOLIS_13
1002
{
1000
ENT
1005
0
1005
0
1005
0
1005
16AF
1002
}
1001
GENIUS_GENOENT_13
1002
{
1000
MYREF
1005
16B0
1002
}
1002
{
1000
GRP
1005
0
1002
}
1001
GENIUS_GENODEF_13
1002
{
1000
HIER
1070
    10
1002
}
1002
{
1000
MANEDIT
1070
     1
1002
}
1002
{
1000
NOSEL
1070
     0
1002
}
1002
{
1000
BEHIND
1070
     0
1002
}
1002
{
1000
OTHER
1070
     0
1002
}
1002
{
1000
REACTOR
1002
}
  0
POINT
  5
16B1
330
1F
100
AcDbEntity
  8
0
 60
     1
100
AcDbPoint
 10
-2229.912962227045
 20
-860.8023138121636
 30
0.0
1001
GENIUS_GENOBJ-N-CRS_13
1002
{
1000
OWNER
1000
GEN
1002
}
1001
GENIUS_GENOLIS_13
1002
{
1000
ENT
1005
0
1005
0
1005
0
1005
16AE
1002
}
1001
GENIUS_GENOENT_13
1002
{
1000
MYREF
1005
16B1
1002
}
1002
{
1000
GRP
1005
0
1002
}
1001
GENIUS_GENODEF_13
1002
{
1000
HIER
1070
    10
1002
}
1002
{
1000
MANEDIT
1070
     1
1002
}
1002
{
1000
NOSEL
1070
     0
1002
}
1002
{
1000
BEHIND
1070
     0
1002
}
1002
{
1000
OTHER
1070
     0
1002
}
1002
{
1000
REACTOR
1002
}
  0
POINT
  5
16B2
330
1F
100
AcDbEntity
  8
0
 60
     1
100
AcDbPoint
 10
-2223.554288529208
 20
-869.6779002908
 30
0.0
1001
GENIUS_GENOBJ-N-CRS_13
1002
{
1000
OWNER
1000
GEN
1002
}
1001
GENIUS_GENOLIS_13
1002
{
1000
ENT
1005
0
1005
0
1005
0
1005
16AD
1002
}
1001
GENIUS_GENOENT_13
1002
{
1000
MYREF
1005
16B2
1002
}
1002
{
1000
GRP
1005
0
1002
}
1001
GENIUS_GENODEF_13
1002
{
1000
HIER
1070
    10
1002
}
1002
{
1000
MANEDIT
1070
     1
1002
}
1002
{
1000
NOSEL
1070
     0
1002
}
1002
{
1000
BEHIND
1070
     0
1002
}
1002
{
1000
OTHER
1070
     0
1002
}
1002
{
1000
REACTOR
1002
}
  0
TEXT
  5
1A69
330
1F
100
AcDbEntity
  8
LOGO
  6
Continuous
100
AcDbText
 10
770.6450584622461
 20
174.2512273755403
 30
0.0
 40
5.25
  1
0
  7
CHINESET
100
AcDbText
  0
LINE
  5
1A6F
330
1F
100
AcDbEntity
  8
LOGO
 62
     4
100
AcDbLine
 10
754.5773174924062
 20
167.8734141515437
 30
0.0
 11
754.5773174924062
 21
170.1230883596883
 31
0.0
  0
LINE
  5
1A70
330
1F
100
AcDbEntity
  8
LOGO
 62
     4
100
AcDbLine
 10
764.6114181291761
 20
170.1230883596883
 30
0.0
 11
754.5773174924062
 21
170.1230883596883
 31
0.0
  0
LINE
  5
1A73
330
1F
100
AcDbEntity
  8
LOGO
 62
     4
100
AcDbLine
 10
785.2479753069173
 20
167.8734141515437
 30
0.0
 11
785.2479753069173
 21
156.8750069117241
 31
0.0
  0
LINE
  5
1A74
330
1F
100
AcDbEntity
  8
LOGO
 62
     4
100
AcDbLine
 10
765.5038192310724
 20
167.8734141515437
 30
0.0
 11
765.5038192310724
 21
156.8750069117241
 31
0.0
  0
LINE
  5
1A75
330
1F
100
AcDbEntity
  8
LOGO
 62
     4
100
AcDbLine
 10
785.2479753069173
 20
156.8750069117241
 30
0.0
 11
765.5038192310724
 21
156.8750069117241
 31
0.0
  0
LINE
  5
1A76
330
1F
100
AcDbEntity
  8
LOGO
 62
     4
100
AcDbLine
 10
784.0577588667331
 20
181.3714594004119
 30
0.0
 11
777.3977971145635
 21
181.3714594004119
 31
0.0
  0
LINE
  5
1A77
330
1F
100
AcDbEntity
  8
LOGO
 62
     4
100
AcDbLine
 10
784.0577588667331
 20
172.3727625678329
 30
0.0
 11
777.3977971145635
 21
172.3727625678329
 31
0.0
  0
LINE
  5
1A78
330
1F
100
AcDbEntity
  8
LOGO
 62
     4
100
AcDbLine
 10
777.3977971145635
 20
181.3714594004119
 30
0.0
 11
777.3977971145635
 21
172.3727625678329
 31
0.0
  0
LINE
  5
1A79
330
1F
100
AcDbEntity
  8
LOGO
 62
     4
100
AcDbLine
 10
784.0577588667331
 20
181.3714594004119
 30
0.0
 11
784.0577588667331
 21
172.3727625678329
 31
0.0
  0
TEXT
  5
1A7A
330
1F
100
AcDbEntity
  8
LOGO
  6
Continuous
100
AcDbText
 10
778.8605966634876
 20
174.2512273755403
 30
0.0
 40
5.25
  1
0
  7
CHINESET
100
AcDbText
  0
LINE
  5
1A7B
330
1F
100
AcDbEntity
  8
LOGO
 62
     4
100
AcDbLine
 10
785.2479753069173
 20
167.8734141515437
 30
0.0
 11
765.5038192310724
 21
167.8734141515437
 31
0.0
  0
TEXT
  5
1A7C
330
1F
100
AcDbEntity
  8
LOGO
  6
Continuous
100
AcDbText
 10
767.3532676457868
 20
158.4274087709603
 30
196.5865886400747
 40
2.25
  1
Acting type
 41
0.8
  7
CHINESET
100
AcDbText
  0
TEXT
  5
1A7D
330
1F
100
AcDbEntity
  8
LOGO
100
AcDbText
 10
767.332071866503
 20
162.5984238613513
 30
196.5865886400747
 40
3.75
  1
操作型式
  7
CHINESET
100
AcDbText
  0
LINE
  5
1A7F
330
1F
100
AcDbEntity
  8
LOGO
 62
     4
100
AcDbLine
 10
780.7277779906483
 20
172.3727625678329
 30
0.0
 11
780.7277779906483
 21
170.1230883596883
 31
0.0
  0
LINE
  5
1A81
330
1F
100
AcDbEntity
  8
LOGO
 62
     4
100
AcDbLine
 10
780.7277779906483
 20
170.1230883596883
 30
0.0
 11
775.375897268995
 21
170.1230883596883
 31
0.0
  0
LINE
  5
1A82
330
1F
100
AcDbEntity
  8
LOGO
 62
     4
100
AcDbLine
 10
775.375897268995
 20
167.8734141515437
 30
0.0
 11
775.375897268995
 21
170.1230883596883
 31
0.0
  0
LINE
  5
1A91
330
1F
100
AcDbEntity
  8
LOGO
  6
Continuous
100
AcDbLine
 10
785.0143947132417
 20
176.8402361778113
 30
0.0
 11
788.987890886651
 21
176.8402361778113
 31
0.0
  0
TEXT
  5
1A97
330
1F
100
AcDbEntity
  8
LOGO
  6
Continuous
100
AcDbText
 10
791.7041190228026
 20
174.2512273755403
 30
0.0
 40
5.25
  1
4H
  7
CHINESET
100
AcDbText
  0
LINE
  5
1A99
330
1F
100
AcDbEntity
  8
LOGO
  6
Continuous
100
AcDbLine
 10
803.7981007172561
 20
176.8402361778113
 30
0.0
 11
807.7715968906655
 21
176.8402361778113
 31
0.0
  0
LINE
  5
1A9A
330
1F
100
AcDbEntity
  8
LOGO
 62
     4
100
AcDbLine
 10
821.625170874762
 20
181.3714594004119
 30
0.0
 11
809.0250254778929
 21
181.3714594004119
 31
0.0
  0
LINE
  5
1A9B
330
1F
100
AcDbEntity
  8
LOGO
 62
     4
100
AcDbLine
 10
821.625170874762
 20
172.3727625678329
 30
0.0
 11
809.0250254778929
 21
172.3727625678329
 31
0.0
  0
LINE
  5
1A9C
330
1F
100
AcDbEntity
  8
LOGO
 62
     4
100
AcDbLine
 10
809.0250254778929
 20
181.3714594004119
 30
0.0
 11
809.0250254778929
 21
172.3727625678329
 31
0.0
  0
LINE
  5
1A9D
330
1F
100
AcDbEntity
  8
LOGO
 62
     4
100
AcDbLine
 10
821.625170874762
 20
181.3714594004119
 30
0.0
 11
821.625170874762
 21
172.3727625678329
 31
0.0
  0
TEXT
  5
1A9E
330
1F
100
AcDbEntity
  8
LOGO
  6
Continuous
100
AcDbText
 10
810.4878250268169
 20
174.2512273755403
 30
0.0
 40
5.25
  1
*A
  7
CHINESET
100
AcDbText
  0
LINE
  5
1AA1
330
1F
100
AcDbEntity
  8
LOGO
 62
     4
100
AcDbLine
 10
815.3250981763275
 20
172.3727625678329
 30
0.0
 11
815.3250981763275
 21
167.8734141515437
 31
0.0
  0
LINE
  5
1AA3
330
1F
100
AcDbEntity
  8
LOGO
 62
     4
100
AcDbLine
 10
829.9031477559397
 20
167.8734141515437
 30
0.0
 11
829.9031477559397
 21
156.8750069117241
 31
0.0
  0
LINE
  5
1AA4
330
1F
100
AcDbEntity
  8
LOGO
 62
     4
100
AcDbLine
 10
804.1209731822061
 20
167.8734141515437
 30
0.0
 11
804.1209731822061
 21
156.8750069117241
 31
0.0
  0
LINE
  5
1AA5
330
1F
100
AcDbEntity
  8
LOGO
 62
     4
100
AcDbLine
 10
829.9031477559397
 20
156.8750069117241
 30
0.0
 11
804.1209731822061
 21
156.8750069117241
 31
0.0
  0
LINE
  5
1AA6
330
1F
100
AcDbEntity
  8
LOGO
 62
     4
100
AcDbLine
 10
829.9031477559397
 20
167.8734141515437
 30
0.0
 11
804.1209731822061
 21
167.8734141515437
 31
0.0
  0
TEXT
  5
1AA7
330
1F
100
AcDbEntity
  8
LOGO
  6
Continuous
100
AcDbText
 10
809.7666113441794
 20
158.4274087709603
 30
196.5865886400747
 40
2.25
  1
Bore size
 41
0.8
  7
CHINESET
100
AcDbText
  0
TEXT
  5
1AA8
330
1F
100
AcDbEntity
  8
LOGO
100
AcDbText
 10
805.9492258176367
 20
162.5984238613513
 30
196.5865886400747
 40
3.75
  1
配管口徑代號
  7
CHINESET
100
AcDbText
  0
LINE
  5
1AB0
330
1F
100
AcDbEntity
  8
LOGO
 62
     4
100
AcDbLine
 10
801.7307407363572
 20
167.8734141515437
 30
0.0
 11
801.7307407363572
 21
156.8750069117241
 31
0.0
  0
LINE
  5
1AB1
330
1F
100
AcDbEntity
  8
LOGO
 62
     4
100
AcDbLine
 10
786.6223607877795
 20
167.8734141515437
 30
0.0
 11
786.6223607877795
 21
156.8750069117241
 31
0.0
  0
LINE
  5
1AB2
330
1F
100
AcDbEntity
  8
LOGO
 62
     4
100
AcDbLine
 10
801.7307407363572
 20
156.8750069117241
 30
0.0
 11
786.6223607877795
 21
156.8750069117241
 31
0.0
  0
LINE
  5
1AB3
330
1F
100
AcDbEntity
  8
LOGO
 62
     4
100
AcDbLine
 10
801.7307407363572
 20
167.8734141515437
 30
0.0
 11
786.6223607877795
 21
167.8734141515437
 31
0.0
  0
TEXT
  5
1AB4
330
1F
100
AcDbEntity
  8
LOGO
  6
Continuous
100
AcDbText
 10
788.4718092024939
 20
158.4274087709603
 30
196.5865886400747
 40
2.25
  1
4 Way
 41
0.8
  7
CHINESET
100
AcDbText
  0
TEXT
  5
1AB5
330
1F
100
AcDbEntity
  8
LOGO
100
AcDbText
 10
788.4506134232101
 20
162.5984238613513
 30
196.5865886400747
 40
3.75
  1
4方向
  7
CHINESET
100
AcDbText
  0
LINE
  5
1AB9
330
1F
100
AcDbEntity
  8
LOGO
 62
     4
100
AcDbLine
 10
801.6969811466161
 20
181.3714594004119
 30
0.0
 11
790.6272131645705
 21
181.3714594004119
 31
0.0
  0
LINE
  5
1ABA
330
1F
100
AcDbEntity
  8
LOGO
 62
     4
100
AcDbLine
 10
801.6969811466161
 20
172.3727625678329
 30
0.0
 11
790.6272131645705
 21
172.3727625678329
 31
0.0
  0
LINE
  5
1ABB
330
1F
100
AcDbEntity
  8
LOGO
 62
     4
100
AcDbLine
 10
790.6272131645705
 20
181.3714594004119
 30
0.0
 11
790.6272131645705
 21
172.3727625678329
 31
0.0
  0
LINE
  5
1ABC
330
1F
100
AcDbEntity
  8
LOGO
 62
     4
100
AcDbLine
 10
801.6969811466161
 20
181.3714594004119
 30
0.0
 11
801.6969811466161
 21
172.3727625678329
 31
0.0
  0
LINE
  5
1ABD
330
1F
100
AcDbEntity
  8
LOGO
 62
     4
100
AcDbLine
 10
796.1620971555933
 20
172.3727625678329
 30
0.0
 11
796.1620971555933
 21
167.8734141515437
 31
0.0
  0
TEXT
  5
1AC3
330
1F
100
AcDbEntity
  8
0
100
AcDbText
 10
645.274492148558
 20
448.8337146913766
 30
0.0
 40
4.0
  1
MVHC-20*
  7
CHINESET
100
AcDbText
  0
LINE
  5
1CD6
330
1F
100
AcDbEntity
  8
center
100
AcDbLine
 10
702.2885896823773
 20
206.5617911159307
 30
0.0
 11
702.2885896823773
 21
297.3308276055443
 31
0.0
  0
LINE
  5
1CD7
330
1F
100
AcDbEntity
  8
center
100
AcDbLine
 10
728.2885896823772
 20
234.3250521950574
 30
0.0
 11
728.2885896823772
 21
243.9126739864582
 31
0.0
  0
LINE
  5
1CD8
330
1F
100
AcDbEntity
  8
0
100
AcDbLine
 10
725.2885896823772
 20
240.3872652706628
 30
0.0
 11
725.2885896823772
 21
252.8872652798615
 31
0.0
  0
LINE
  5
1CD9
330
1F
100
AcDbEntity
  8
0
100
AcDbLine
 10
679.288589682377
 20
240.3872652706628
 30
0.0
 11
679.2885896823772
 21
252.8872652798622
 31
0.0
  0
LINE
  5
1CDA
330
1F
100
AcDbEntity
  8
center
100
AcDbLine
 10
676.2885896823773
 20
234.3250521950574
 30
0.0
 11
676.2885896823773
 21
243.9126739864582
 31
0.0
  0
LINE
  5
1CDB
330
1F
100
AcDbEntity
  8
0
100
AcDbLine
 10
733.2885896699772
 20
231.8872652706628
 30
0.0
 11
702.2885896823773
 21
231.8872652706629
 31
0.0
  0
LINE
  5
1CDC
330
1F
100
AcDbEntity
  8
center
100
AcDbLine
 10
717.2885896763771
 20
220.3872652752628
 30
0.0
 11
687.2885896883772
 21
220.3872652752628
 31
0.0
  0
LINE
  5
1CDD
330
1F
100
AcDbEntity
  8
0
100
AcDbLine
 10
717.2885896763771
 20
230.8872652710628
 30
0.0
 11
687.2885896883772
 21
230.8872652710628
 31
0.0
  0
LINE
  5
1CDE
330
1F
100
AcDbEntity
  8
0
100
AcDbLine
 10
733.2885896699772
 20
208.8872652798627
 30
0.0
 11
671.2885896947771
 21
208.8872652798628
 31
0.0
  0
LINE
  5
1CDF
330
1F
100
AcDbEntity
  8
0
100
AcDbLine
 10
732.5885896823772
 20
236.8872652706628
 30
0.0
 11
672.288589694777
 21
236.8872652706629
 31
0.0
  0
CIRCLE
  5
1CE0
330
1F
100
AcDbEntity
  8
0
100
AcDbCircle
 10
702.2885896823773
 20
220.3872652752628
 30
0.0
 40
6.699999997319999
  0
CIRCLE
  5
1CE1
330
1F
100
AcDbEntity
  8
0
100
AcDbCircle
 10
702.2885896823773
 20
220.3872652752628
 30
0.0
 40
5.699999997719999
  0
LINE
  5
1CE2
330
1F
100
AcDbEntity
  8
0
100
AcDbLine
 10
687.2885896883772
 20
208.8872652798627
 30
0.0
 11
687.2885896883772
 21
230.8872652710628
 31
0.0
  0
LINE
  5
1CE3
330
1F
100
AcDbEntity
  8
0
100
AcDbLine
 10
671.2885896947771
 20
208.8872652798627
 30
0.0
 11
671.2885896947771
 21
235.8872652706629
 31
0.0
  0
TEXT
  5
1CE4
330
1F
100
AcDbEntity
  8
0
100
AcDbText
 10
695.5841279121691
 20
210.1372652793628
 30
0.0
 40
2.999999998799999
  1
P
  7
CHINESET
 72
     4
 11
696.5841279117691
 21
211.6372652787628
 31
0.0
100
AcDbText
  0
LINE
  5
1CE5
330
1F
100
AcDbEntity
  8
0
100
AcDbLine
 10
694.7885896853772
 20
209.3872652796628
 30
0.0
 11
694.7885896853772
 21
213.8872652778627
 31
0.0
  0
LINE
  5
1CE6
330
1F
100
AcDbEntity
  8
0
100
AcDbLine
 10
690.2885896871771
 20
209.3872652796628
 30
0.0
 11
690.2885896871771
 21
213.8872652778627
 31
0.0
  0
TEXT
  5
1CE7
330
1F
100
AcDbEntity
  8
0
100
AcDbText
 10
692.1814468292772
 20
210.1372652793628
 30
0.0
 40
2.999999998799999
  1
1
  7
CHINESET
 72
     4
 11
692.5385896862771
 21
211.6372652787628
 31
0.0
100
AcDbText
  0
LINE
  5
1CE8
330
1F
100
AcDbEntity
  8
0
100
AcDbLine
 10
694.7885896853772
 20
209.3872652796628
 30
0.0
 11
690.2885896871771
 21
209.3872652796628
 31
0.0
  0
LINE
  5
1CE9
330
1F
100
AcDbEntity
  8
0
100
AcDbLine
 10
694.7885896853772
 20
213.8872652778627
 30
0.0
 11
690.2885896871771
 21
213.8872652778627
 31
0.0
  0
LINE
  5
1CEA
330
1F
100
AcDbEntity
  8
0
100
AcDbLine
 10
671.2885896947771
 20
231.8872652706628
 30
0.0
 11
702.2885896823773
 21
231.8872652706628
 31
0.0
  0
LINE
  5
1CEB
330
1F
100
AcDbEntity
  8
0
100
AcDbLine
 10
680.838589694777
 20
231.8872652706628
 30
0.0
 11
680.838589694777
 21
235.8872652706629
 31
0.0
  0
LINE
  5
1CEC
330
1F
100
AcDbEntity
  8
0
100
AcDbLine
 10
672.4885896823771
 20
240.3872652706628
 30
0.0
 11
680.0885896823772
 21
240.3872652706628
 31
0.0
  0
LINE
  5
1CED
330
1F
100
AcDbEntity
  8
0
100
AcDbLine
 10
671.9885896823771
 20
236.8872652706628
 30
0.0
 11
671.9885896823771
 21
239.8872652706628
 31
0.0
  0
ARC
  5
1CEE
330
1F
100
AcDbEntity
  8
0
100
AcDbCircle
 10
672.4885896823771
 20
239.8872652706628
 30
0.0
 40
0.5
100
AcDbArc
 50
90.0
 51
180.0
  0
ARC
  5
1CEF
330
1F
100
AcDbEntity
  8
0
100
AcDbCircle
 10
672.288589694777
 20
235.8872652706629
 30
0.0
 40
1.0
100
AcDbArc
 50
90.0
 51
180.0
  0
LINE
  5
1CF0
330
1F
100
AcDbEntity
  8
0
100
AcDbLine
 10
680.5885896823772
 20
236.8872652706628
 30
0.0
 11
680.5885896823772
 21
239.8872652706628
 31
0.0
  0
ARC
  5
1CF1
330
1F
100
AcDbEntity
  8
0
100
AcDbCircle
 10
680.0885896823772
 20
239.8872652706628
 30
0.0
 40
0.5
100
AcDbArc
 50
0.0
 51
90.0
  0
LINE
  5
1CF2
330
1F
100
AcDbEntity
  8
hidden
  6
HIDDEN
 48
0.6
100
AcDbLine
 10
679.2885896823772
 20
236.8872652798619
 30
0.0
 11
679.2885896823772
 21
240.3872652706628
 31
0.0
  0
ARC
  5
1CF3
330
1F
100
AcDbEntity
  8
0
100
AcDbCircle
 10
681.838589694777
 20
235.8872652706629
 30
0.0
 40
1.0
100
AcDbArc
 50
90.0
 51
180.0
  0
LINE
  5
1CF4
330
1F
100
AcDbEntity
  8
0
100
AcDbLine
 10
733.2885896699772
 20
208.8872652798627
 30
0.0
 11
733.2885896699772
 21
235.8872652706628
 31
0.0
  0
LINE
  5
1CF5
330
1F
100
AcDbEntity
  8
0
100
AcDbLine
 10
717.2885896763771
 20
208.8872652798628
 30
0.0
 11
717.2885896763771
 21
230.8872652710628
 31
0.0
  0
LINE
  5
1CF6
330
1F
100
AcDbEntity
  8
0
100
AcDbLine
 10
723.7385896699772
 20
231.8872652706628
 30
0.0
 11
723.7385896699772
 21
235.8872652706629
 31
0.0
  0
LINE
  5
1CF7
330
1F
100
AcDbEntity
  8
0
100
AcDbLine
 10
732.0885896823772
 20
240.3872652706628
 30
0.0
 11
724.488589682377
 21
240.3872652706628
 31
0.0
  0
LINE
  5
1CF8
330
1F
100
AcDbEntity
  8
hidden
  6
HIDDEN
 48
0.6
100
AcDbLine
 10
725.2885896823772
 20
236.8872652798619
 30
0.0
 11
725.2885896823772
 21
240.3872652706628
 31
0.0
  0
LINE
  5
1CF9
330
1F
100
AcDbEntity
  8
0
100
AcDbLine
 10
723.988589682377
 20
236.8872652706628
 30
0.0
 11
723.988589682377
 21
239.8872652706628
 31
0.0
  0
ARC
  5
1CFA
330
1F
100
AcDbEntity
  8
0
100
AcDbCircle
 10
724.488589682377
 20
239.8872652706628
 30
0.0
 40
0.5
100
AcDbArc
 50
90.0
 51
180.0
  0
ARC
  5
1CFB
330
1F
100
AcDbEntity
  8
0
100
AcDbCircle
 10
722.7385896699773
 20
235.8872652706629
 30
0.0
 40
1.0
100
AcDbArc
 50
0.0
 51
90.0
  0
LINE
  5
1CFC
330
1F
100
AcDbEntity
  8
0
100
AcDbLine
 10
732.5885896823772
 20
236.8872652706628
 30
0.0
 11
732.5885896823772
 21
239.8872652706628
 31
0.0
  0
ARC
  5
1CFD
330
1F
100
AcDbEntity
  8
0
100
AcDbCircle
 10
732.0885896823772
 20
239.8872652706628
 30
0.0
 40
0.5
100
AcDbArc
 50
0.0
 51
90.0
  0
ARC
  5
1CFE
330
1F
100
AcDbEntity
  8
0
100
AcDbCircle
 10
732.2885896699772
 20
235.8872652706628
 30
0.0
 40
1.0
100
AcDbArc
 50
0.0
 51
90.0
  0
LINE
  5
1CFF
330
1F
100
AcDbEntity
  8
0
100
AcDbLine
 10
715.7885896823771
 20
272.3872652752625
 30
0.0
 11
714.3831813353531
 21
282.3872652752624
 31
0.0
  0
LINE
  5
1D00
330
1F
100
AcDbEntity
  8
0
100
AcDbLine
 10
688.7885896823773
 20
267.3872652752626
 30
0.0
 11
715.7885896823771
 21
267.3872652752626
 31
0.0
  0
LINE
  5
1D01
330
1F
100
AcDbEntity
  8
0
100
AcDbLine
 10
688.7885896823773
 20
272.3872652752625
 30
0.0
 11
715.7885896823771
 21
272.3872652752625
 31
0.0
  0
LINE
  5
1D02
330
1F
100
AcDbEntity
  8
0
100
AcDbLine
 10
688.7885896823773
 20
265.8872652798618
 30
0.0
 11
715.7885896823772
 21
265.8872652798618
 31
0.0
1001
ACAD
1000
ASC_BOUNDS
1002
{
1070
    19
1005
0
1005
0
1002
}
  0
LINE
  5
1D03
330
1F
100
AcDbEntity
  8
0
100
AcDbLine
 10
724.2885896823772
 20
253.8872652798616
 30
0.0
 11
680.2885896823773
 21
253.8872652798622
 31
0.0
  0
LINE
  5
1D04
330
1F
100
AcDbEntity
  8
0
 62
     3
100
AcDbLine
 10
717.7885896823773
 20
254.6372652798616
 30
0.0
 11
686.7885896823772
 21
254.6372652798621
 31
0.0
  0
LINE
  5
1D05
330
1F
100
AcDbEntity
  8
0
100
AcDbLine
 10
679.2885896823772
 20
248.8872652798621
 30
0.0
 11
725.2885896823772
 21
248.8872652798619
 31
0.0
  0
LINE
  5
1D06
330
1F
100
AcDbEntity
  8
0
 62
     3
100
AcDbLine
 10
717.7885896823773
 20
256.1372652798616
 30
0.0
 11
686.7885896823772
 21
256.1372652798621
 31
0.0
  0
LINE
  5
1D07
330
1F
100
AcDbEntity
  8
0
 62
     3
100
AcDbLine
 10
717.7885896823773
 20
257.6372652798617
 30
0.0
 11
686.7885896823772
 21
257.6372652798621
 31
0.0
  0
LINE
  5
1D08
330
1F
100
AcDbEntity
  8
0
 62
     3
100
AcDbLine
 10
717.7885896823773
 20
259.1372652798617
 30
0.0
 11
686.7885896823772
 21
259.1372652798621
 31
0.0
  0
LINE
  5
1D09
330
1F
100
AcDbEntity
  8
0
 62
     3
100
AcDbLine
 10
717.7885896823773
 20
260.6372652798616
 30
0.0
 11
686.7885896823772
 21
260.6372652798621
 31
0.0
  0
LINE
  5
1D0A
330
1F
100
AcDbEntity
  8
0
 62
     3
100
AcDbLine
 10
717.7885896823773
 20
262.1372652798616
 30
0.0
 11
686.7885896823772
 21
262.1372652798621
 31
0.0
  0
LINE
  5
1D0B
330
1F
100
AcDbEntity
  8
0
 62
     3
100
AcDbLine
 10
717.7885896823773
 20
263.6372652798617
 30
0.0
 11
686.7885896823772
 21
263.6372652798621
 31
0.0
  0
TEXT
  5
1D0C
330
1F
100
AcDbEntity
  8
0
100
AcDbText
 10
703.3352393147851
 20
265.8872652798618
 30
0.0
 40
2.399999999999999
  1
N
 50
180.0
  7
CHINESET
100
AcDbText
  0
TEXT
  5
1D0D
330
1F
100
AcDbEntity
  8
0
100
AcDbText
 10
710.7926198007221
 20
265.8872652798618
 30
0.0
 40
2.399999999999999
  1
A
 50
180.0
  7
CHINESET
100
AcDbText
  0
TEXT
  5
1D0E
330
1F
100
AcDbEntity
  8
0
100
AcDbText
 10
694.1770537945281
 20
265.8872652798618
 30
0.0
 40
2.399999999999999
  1
B
 50
180.0
  7
CHINESET
100
AcDbText
  0
LINE
  5
1D0F
330
1F
100
AcDbEntity
  8
0
100
AcDbLine
 10
686.7885896823772
 20
253.8872652798621
 30
0.0
 11
686.7885896823772
 21
264.8872652798618
 31
0.0
  0
LINE
  5
1D10
330
1F
100
AcDbEntity
  8
center
100
AcDbLine
 10
682.2885896823772
 20
257.0045778260896
 30
0.0
 11
682.2885896823772
 21
252.0078900674951
 31
0.0
  0
LINE
  5
1D11
330
1F
100
AcDbEntity
  8
0
100
AcDbLine
 10
683.7885896823772
 20
253.8872652798622
 30
0.0
 11
683.7885896823772
 21
255.3872652798621
 31
0.0
  0
LINE
  5
1D12
330
1F
100
AcDbEntity
  8
0
100
AcDbLine
 10
680.7885896823773
 20
253.8872652798622
 30
0.0
 11
680.7885896823773
 21
255.3872652798622
 31
0.0
  0
ARC
  5
1D13
330
1F
100
AcDbEntity
  8
0
100
AcDbCircle
 10
680.2885896823773
 20
252.8872652798622
 30
0.0
 40
1.0
100
AcDbArc
 50
90.0
 51
180.0
  0
LINE
  5
1D14
330
1F
100
AcDbEntity
  8
0
100
AcDbLine
 10
682.7885896823772
 20
253.8872652798618
 30
0.0
 11
679.2885896823772
 21
248.8872652798621
 31
0.0
  0
LINE
  5
1D15
330
1F
100
AcDbEntity
  8
0
100
AcDbLine
 10
683.7885896823772
 20
255.3872652798621
 30
0.0
 11
680.7885896823773
 21
255.3872652798622
 31
0.0
  0
LINE
  5
1D16
330
1F
100
AcDbEntity
  8
0
100
AcDbLine
 10
688.7885896823773
 20
272.3872652752625
 30
0.0
 11
690.1939980294011
 21
282.3872652752625
 31
0.0
  0
LINE
  5
1D17
330
1F
100
AcDbEntity
  8
0
100
AcDbLine
 10
688.7885896823773
 20
267.3872652752625
 30
0.0
 11
688.7885896823773
 21
277.3872652752625
 31
0.0
  0
LINE
  5
1D18
330
1F
100
AcDbEntity
  8
0
100
AcDbLine
 10
686.7885896823772
 20
264.8872652798618
 30
0.0
 11
688.7885896823773
 21
265.8872652798618
 31
0.0
  0
LINE
  5
1D19
330
1F
100
AcDbEntity
  8
0
100
AcDbLine
 10
688.7885896823773
 20
277.3872652752625
 30
0.0
 11
689.4912938558891
 21
277.3872652752625
 31
0.0
  0
LINE
  5
1D1A
330
1F
100
AcDbEntity
  8
0
100
AcDbLine
 10
698.2885896823773
 20
265.8872652798618
 30
0.0
 11
698.2885896823773
 21
267.3872652798621
 31
0.0
  0
ARC
  5
1D1B
330
1F
100
AcDbEntity
  8
0
100
AcDbCircle
 10
702.2885896823773
 20
267.5687824473424
 30
0.0
 40
2.5
100
AcDbArc
 50
184.1637309902301
 51
222.2685842871241
  0
LINE
  5
1D1C
330
1F
100
AcDbEntity
  8
0
100
AcDbLine
 10
706.2885896823773
 20
265.8872652798618
 30
0.0
 11
706.2885896823773
 21
267.3872652798621
 31
0.0
  0
ARC
  5
1D1D
330
1F
100
AcDbEntity
  8
0
100
AcDbCircle
 10
702.2885896823773
 20
267.5687824473424
 30
0.0
 40
2.5
100
AcDbArc
 50
317.7314157128759
 51
355.8362690097699
  0
LINE
  5
1D1E
330
1F
100
AcDbEntity
  8
0
100
AcDbLine
 10
690.1939980294011
 20
282.3872652752625
 30
0.0
 11
714.3831813353531
 21
282.3872652752624
 31
0.0
  0
LINE
  5
1D1F
330
1F
100
AcDbEntity
  8
0
100
AcDbLine
 10
717.7885896823773
 20
253.8872652798616
 30
0.0
 11
717.7885896823773
 21
264.8872652798618
 31
0.0
  0
LINE
  5
1D20
330
1F
100
AcDbEntity
  8
center
100
AcDbLine
 10
722.2885896823773
 20
257.004577826089
 30
0.0
 11
722.2885896823773
 21
252.0078900674945
 31
0.0
  0
LINE
  5
1D21
330
1F
100
AcDbEntity
  8
0
100
AcDbLine
 10
723.7885896823772
 20
253.8872652798616
 30
0.0
 11
723.7885896823772
 21
255.3872652798615
 31
0.0
  0
ARC
  5
1D22
330
1F
100
AcDbEntity
  8
0
100
AcDbCircle
 10
724.2885896823772
 20
252.8872652798615
 30
0.0
 40
1.0
100
AcDbArc
 50
0.0
 51
90.0
  0
LINE
  5
1D23
330
1F
100
AcDbEntity
  8
0
100
AcDbLine
 10
720.7885896823772
 20
253.8872652798616
 30
0.0
 11
720.7885896823772
 21
255.3872652798617
 31
0.0
  0
LINE
  5
1D24
330
1F
100
AcDbEntity
  8
0
100
AcDbLine
 10
721.7885896823773
 20
253.8872652798616
 30
0.0
 11
725.2885896823772
 21
248.8872652798619
 31
0.0
  0
LINE
  5
1D25
330
1F
100
AcDbEntity
  8
0
100
AcDbLine
 10
723.7885896823772
 20
255.3872652798615
 30
0.0
 11
720.7885896823772
 21
255.3872652798617
 31
0.0
  0
LINE
  5
1D26
330
1F
100
AcDbEntity
  8
0
100
AcDbLine
 10
715.7885896823772
 20
265.8872652798618
 30
0.0
 11
717.7885896823773
 21
264.8872652798618
 31
0.0
  0
LINE
  5
1D27
330
1F
100
AcDbEntity
  8
0
100
AcDbLine
 10
715.7885896823771
 20
267.3872652752625
 30
0.0
 11
715.7885896823771
 21
272.3872652752625
 31
0.0
  0
TEXT
  5
1D28
330
1F
100
AcDbEntity
  8
0
100
AcDbText
 10
726.1831785483257
 20
373.8203093592483
 30
0.0
 40
5.0
  1
P
  7
CHINESET
100
AcDbText
  0
LINE
  5
1D29
330
1F
100
AcDbEntity
  8
0
100
AcDbLine
 10
812.0057739446359
 20
236.8872652798618
 30
0.0
 11
812.0057739446359
 21
248.8872652798618
 31
0.0
  0
LINE
  5
1D2A
330
1F
100
AcDbEntity
  8
0
100
AcDbLine
 10
766.0057739446358
 20
236.8872652798618
 30
0.0
 11
766.0057739446358
 21
248.8872652798621
 31
0.0
  0
LINE
  5
1D2B
330
1F
100
AcDbEntity
  8
center
100
AcDbLine
 10
789.0057739446358
 20
206.5617911150005
 30
0.0
 11
789.0057739446358
 21
287.7275589524996
 31
0.0
  0
LINE
  5
1D2C
330
1F
100
AcDbEntity
  8
center
100
AcDbLine
 10
804.0057739386353
 20
220.3872652752628
 30
0.0
 11
774.0057739506357
 21
220.3872652752628
 31
0.0
  0
LINE
  5
1D2D
330
1F
100
AcDbEntity
  8
0
100
AcDbLine
 10
804.0057739386353
 20
230.8872652710628
 30
0.0
 11
774.0057739506357
 21
230.8872652710628
 31
0.0
  0
TEXT
  5
1D2E
330
1F
100
AcDbEntity
  8
0
100
AcDbText
 10
782.1584550316275
 20
210.1372652793628
 30
0.0
 40
2.999999998799999
  1
A
  7
CHINESET
 72
     4
 11
783.3013121740275
 21
211.6372652787628
 31
0.0
100
AcDbText
  0
CIRCLE
  5
1D2F
330
1F
100
AcDbEntity
  8
0
100
AcDbCircle
 10
789.0057739446358
 20
220.3872652752628
 30
0.0
 40
6.699999997319999
  0
LINE
  5
1D30
330
1F
100
AcDbEntity
  8
0
100
AcDbLine
 10
820.0057739446345
 20
231.8872652798618
 30
0.0
 11
758.0057739446367
 21
231.8872652798622
 31
0.0
  0
LINE
  5
1D31
330
1F
100
AcDbEntity
  8
0
100
AcDbLine
 10
762.0057739446358
 20
236.8872652798618
 30
0.0
 11
816.0057739446358
 21
236.8872652798618
 31
0.0
  0
LINE
  5
1D32
330
1F
100
AcDbEntity
  8
0
100
AcDbLine
 10
820.0057739446345
 20
208.8872652798627
 30
0.0
 11
758.0057739446367
 21
208.8872652798628
 31
0.0
  0
LINE
  5
1D33
330
1F
100
AcDbEntity
  8
0
100
AcDbLine
 10
774.0057739506357
 20
208.8872652798627
 30
0.0
 11
774.0057739506357
 21
230.8872652710628
 31
0.0
  0
LINE
  5
1D34
330
1F
100
AcDbEntity
  8
0
100
AcDbLine
 10
758.0057739446367
 20
208.8872652798627
 30
0.0
 11
758.0057739446367
 21
231.8872652798618
 31
0.0
  0
LINE
  5
1D35
330
1F
100
AcDbEntity
  8
0
100
AcDbLine
 10
781.5057739476358
 20
213.8872652778627
 30
0.0
 11
777.0057739494356
 21
213.8872652778627
 31
0.0
  0
LINE
  5
1D36
330
1F
100
AcDbEntity
  8
0
100
AcDbLine
 10
781.5057739476358
 20
209.3872652796628
 30
0.0
 11
777.0057739494356
 21
209.3872652796628
 31
0.0
  0
TEXT
  5
1D37
330
1F
100
AcDbEntity
  8
0
100
AcDbText
 10
778.1843453775358
 20
210.1372652793628
 30
0.0
 40
2.999999998799999
  1
4
  7
CHINESET
 72
     4
 11
779.2557739485357
 21
211.6372652787628
 31
0.0
100
AcDbText
  0
LINE
  5
1D38
330
1F
100
AcDbEntity
  8
0
100
AcDbLine
 10
777.0057739494356
 20
209.3872652796628
 30
0.0
 11
777.0057739494356
 21
213.8872652778627
 31
0.0
  0
LINE
  5
1D39
330
1F
100
AcDbEntity
  8
0
100
AcDbLine
 10
781.5057739476358
 20
209.3872652796628
 30
0.0
 11
781.5057739476358
 21
213.8872652778627
 31
0.0
  0
LINE
  5
1D3A
330
1F
100
AcDbEntity
  8
center
100
AcDbLine
 10
776.0057739446359
 20
234.3250522042565
 30
0.0
 11
776.0057739446359
 21
243.9126739956573
 31
0.0
  0
LINE
  5
1D3B
330
1F
100
AcDbEntity
  8
0
100
AcDbLine
 10
771.0057739446358
 20
236.8872652798618
 30
0.0
 11
771.0057739446358
 21
231.8872652798622
 31
0.0
  0
ARC
  5
1D3C
330
1F
100
AcDbEntity
  8
0
100
AcDbCircle
 10
762.0057739446358
 20
235.8872652798618
 30
0.0
 40
1.0
100
AcDbArc
 50
90.0
 51
180.0
  0
LINE
  5
1D3D
330
1F
100
AcDbEntity
  8
0
100
AcDbLine
 10
761.0057739446358
 20
231.8872652798618
 30
0.0
 11
761.0057739446358
 21
235.8872652798618
 31
0.0
  0
LINE
  5
1D3E
330
1F
100
AcDbEntity
  8
0
100
AcDbLine
 10
771.7057739446357
 20
236.8872652798619
 30
0.0
 11
771.7057739446357
 21
239.8872652798618
 31
0.0
  0
LINE
  5
1D3F
330
1F
100
AcDbEntity
  8
0
100
AcDbLine
 10
780.3057739446355
 20
236.8872652798618
 30
0.0
 11
780.3057739446355
 21
239.8872652798618
 31
0.0
  0
ARC
  5
1D40
330
1F
100
AcDbEntity
  8
0
100
AcDbCircle
 10
779.8057739446355
 20
239.8872652798618
 30
0.0
 40
0.5
100
AcDbArc
 50
0.0
 51
90.0
  0
ARC
  5
1D41
330
1F
100
AcDbEntity
  8
0
100
AcDbCircle
 10
772.2057739446356
 20
239.8872652798618
 30
0.0
 40
0.5
100
AcDbArc
 50
90.0
 51
180.0
  0
LINE
  5
1D42
330
1F
100
AcDbEntity
  8
0
100
AcDbLine
 10
779.8057739446355
 20
240.3872652798618
 30
0.0
 11
772.2057739446356
 21
240.3872652798618
 31
0.0
  0
CIRCLE
  5
1D43
330
1F
100
AcDbEntity
  8
0
100
AcDbCircle
 10
789.0057739446358
 20
220.3872652752628
 30
0.0
 40
5.699999997719999
  0
LINE
  5
1D44
330
1F
100
AcDbEntity
  8
0
100
AcDbLine
 10
804.0057739386353
 20
208.8872652798628
 30
0.0
 11
804.0057739386353
 21
230.8872652710628
 31
0.0
  0
LINE
  5
1D45
330
1F
100
AcDbEntity
  8
0
100
AcDbLine
 10
820.0057739446345
 20
208.8872652798627
 30
0.0
 11
820.0057739446345
 21
231.8872652798618
 31
0.0
  0
LINE
  5
1D46
330
1F
100
AcDbEntity
  8
center
100
AcDbLine
 10
802.0057739446357
 20
234.3250522042565
 30
0.0
 11
802.0057739446357
 21
243.9126739956573
 31
0.0
  0
LINE
  5
1D47
330
1F
100
AcDbEntity
  8
0
100
AcDbLine
 10
807.0057739446358
 20
236.8872652798618
 30
0.0
 11
807.0057739446358
 21
231.8872652798619
 31
0.0
  0
LINE
  5
1D48
330
1F
100
AcDbEntity
  8
0
100
AcDbLine
 10
797.7057739446356
 20
236.8872652798619
 30
0.0
 11
797.7057739446356
 21
239.8872652798618
 31
0.0
  0
LINE
  5
1D49
330
1F
100
AcDbEntity
  8
0
100
AcDbLine
 10
806.3057739446355
 20
236.8872652798618
 30
0.0
 11
806.3057739446355
 21
239.8872652798618
 31
0.0
  0
ARC
  5
1D4A
330
1F
100
AcDbEntity
  8
0
100
AcDbCircle
 10
805.8057739446356
 20
239.8872652798618
 30
0.0
 40
0.5
100
AcDbArc
 50
0.0
 51
90.0
  0
ARC
  5
1D4B
330
1F
100
AcDbEntity
  8
0
100
AcDbCircle
 10
798.2057739446356
 20
239.8872652798618
 30
0.0
 40
0.5
100
AcDbArc
 50
90.0
 51
180.0
  0
LINE
  5
1D4C
330
1F
100
AcDbEntity
  8
0
100
AcDbLine
 10
805.8057739446356
 20
240.3872652798618
 30
0.0
 11
798.2057739446356
 21
240.3872652798618
 31
0.0
  0
ARC
  5
1D4D
330
1F
100
AcDbEntity
  8
0
100
AcDbCircle
 10
816.0057739446358
 20
235.8872652798618
 30
0.0
 40
1.0
100
AcDbArc
 50
0.0
 51
90.0
  0
LINE
  5
1D4E
330
1F
100
AcDbEntity
  8
0
100
AcDbLine
 10
817.0057739446358
 20
231.8872652798618
 30
0.0
 11
817.0057739446358
 21
235.8872652798618
 31
0.0
  0
LINE
  5
1D4F
330
1F
100
AcDbEntity
  8
0
 62
     3
100
AcDbLine
 10
787.5057739446358
 20
254.6372652798618
 30
0.0
 11
771.5057739446359
 21
254.637265279862
 31
0.0
  0
LINE
  5
1D50
330
1F
100
AcDbEntity
  8
0
100
AcDbLine
 10
806.5057739446357
 20
263.6372652798615
 30
0.0
 11
771.5057739446359
 21
263.637265279862
 31
0.0
  0
LINE
  5
1D51
330
1F
100
AcDbEntity
  8
0
 62
     3
100
AcDbLine
 10
806.5057739446357
 20
262.1372652798615
 30
0.0
 11
771.5057739446359
 21
262.137265279862
 31
0.0
  0
LINE
  5
1D52
330
1F
100
AcDbEntity
  8
0
 62
     3
100
AcDbLine
 10
806.5057739446357
 20
260.6372652798615
 30
0.0
 11
771.5057739446359
 21
260.637265279862
 31
0.0
  0
LINE
  5
1D53
330
1F
100
AcDbEntity
  8
0
 62
     3
100
AcDbLine
 10
806.5057739446357
 20
259.1372652798615
 30
0.0
 11
771.5057739446359
 21
259.1372652798621
 31
0.0
  0
LINE
  5
1D54
330
1F
100
AcDbEntity
  8
0
 62
     3
100
AcDbLine
 10
806.5057739446357
 20
257.6372652798615
 30
0.0
 11
771.5057739446359
 21
257.6372652798621
 31
0.0
  0
LINE
  5
1D55
330
1F
100
AcDbEntity
  8
0
 62
     3
100
AcDbLine
 10
806.5057739446357
 20
256.1372652798615
 30
0.0
 11
771.5057739446359
 21
256.137265279862
 31
0.0
  0
LINE
  5
1D56
330
1F
100
AcDbEntity
  8
0
100
AcDbLine
 10
766.0057739446358
 20
248.8872652798621
 30
0.0
 11
783.0057739446358
 21
248.887265279862
 31
0.0
  0
LINE
  5
1D57
330
1F
100
AcDbEntity
  8
0
100
AcDbLine
 10
802.5057739446353
 20
265.8872652798618
 30
0.0
 11
775.5057739446358
 21
265.8872652798618
 31
0.0
1001
ACAD
1000
ASC_BOUNDS
1002
{
1070
    19
1005
0
1005
0
1002
}
  0
ARC
  5
1D58
330
1F
100
AcDbEntity
  8
0
100
AcDbCircle
 10
780.0057739446359
 20
267.5687824519418
 30
0.0
 40
2.5
100
AcDbArc
 50
317.7314155704287
 51
355.8362690097699
  0
LINE
  5
1D59
330
1F
100
AcDbEntity
  8
0
100
AcDbLine
 10
775.5057739446358
 20
272.387265279862
 30
0.0
 11
802.5057739446353
 21
272.387265279862
 31
0.0
  0
LINE
  5
1D5A
330
1F
100
AcDbEntity
  8
0
100
AcDbLine
 10
775.5057739446358
 20
267.3872652798621
 30
0.0
 11
802.5057739446353
 21
267.3872652798621
 31
0.0
  0
LINE
  5
1D5B
330
1F
100
AcDbEntity
  8
0
100
AcDbLine
 10
776.91118229166
 20
282.3872652798619
 30
0.0
 11
801.1003655976116
 21
282.3872652798619
 31
0.0
  0
LINE
  5
1D5C
330
1F
100
AcDbEntity
  8
0
100
AcDbLine
 10
769.5057739446358
 20
253.8872652798618
 30
0.0
 11
808.5057739446353
 21
253.8872652798618
 31
0.0
  0
LINE
  5
1D5D
330
1F
100
AcDbEntity
  8
0
100
AcDbLine
 10
775.5057739446358
 20
267.3872652798621
 30
0.0
 11
775.5057739446358
 21
272.387265279862
 31
0.0
  0
LINE
  5
1D5E
330
1F
100
AcDbEntity
  8
center
100
AcDbLine
 10
780.0057739446359
 20
262.701771832859
 30
0.0
 11
780.0057739446359
 21
270.083024898079
 31
0.0
  0
LINE
  5
1D5F
330
1F
100
AcDbEntity
  8
0
100
AcDbLine
 10
771.5057739446359
 20
253.8872652798617
 30
0.0
 11
771.5057739446359
 21
263.8872652798618
 31
0.0
  0
LINE
  5
1D60
330
1F
100
AcDbEntity
  8
0
100
AcDbLine
 10
772.5057739446358
 20
253.8872652798617
 30
0.0
 11
772.5057739446358
 21
264.3872652798618
 31
0.0
  0
LINE
  5
1D61
330
1F
100
AcDbEntity
  8
0
100
AcDbLine
 10
769.5057739446358
 20
253.8872652798618
 30
0.0
 11
766.0057739446358
 21
248.8872652798621
 31
0.0
  0
ARC
  5
1D62
330
1F
100
AcDbEntity
  8
0
100
AcDbCircle
 10
780.0057739446359
 20
267.5687824519418
 30
0.0
 40
2.5
100
AcDbArc
 50
184.1637309902301
 51
222.2685844295714
  0
LINE
  5
1D63
330
1F
100
AcDbEntity
  8
0
100
AcDbLine
 10
771.5057739446359
 20
263.8872652798618
 30
0.0
 11
775.5057739446358
 21
265.8872652798618
 31
0.0
  0
LINE
  5
1D64
330
1F
100
AcDbEntity
  8
0
100
AcDbLine
 10
775.5057739446358
 20
272.387265279862
 30
0.0
 11
776.91118229166
 21
282.3872652798619
 31
0.0
  0
LINE
  5
1D65
330
1F
100
AcDbEntity
  8
center
100
AcDbLine
 10
798.5057739446354
 20
261.6939316212643
 30
0.0
 11
798.5057739446354
 21
270.0999661978937
 31
0.0
  0
LINE
  5
1D66
330
1F
100
AcDbEntity
  8
0
100
AcDbLine
 10
802.5057739446353
 20
267.3872652798621
 30
0.0
 11
802.5057739446353
 21
272.387265279862
 31
0.0
  0
LINE
  5
1D67
330
1F
100
AcDbEntity
  8
0
100
AcDbLine
 10
795.0057739446358
 20
248.8872652798619
 30
0.0
 11
812.0057739446359
 21
248.8872652798619
 31
0.0
  0
LINE
  5
1D68
330
1F
100
AcDbEntity
  8
0
100
AcDbLine
 10
806.5057739446357
 20
253.8872652798616
 30
0.0
 11
806.5057739446357
 21
263.8872652798618
 31
0.0
  0
LINE
  5
1D69
330
1F
100
AcDbEntity
  8
0
100
AcDbLine
 10
805.5057739446358
 20
253.8872652798616
 30
0.0
 11
805.5057739446358
 21
264.3872652798618
 31
0.0
  0
LINE
  5
1D6A
330
1F
100
AcDbEntity
  8
0
 62
     3
100
AcDbLine
 10
806.5057739446357
 20
254.6372652798615
 30
0.0
 11
790.5057739446358
 21
254.6372652798617
 31
0.0
  0
LINE
  5
1D6B
330
1F
100
AcDbEntity
  8
0
100
AcDbLine
 10
790.5057739446358
 20
255.3872652798617
 30
0.0
 11
787.5057739446358
 21
255.3872652798619
 31
0.0
  0
LINE
  5
1D6C
330
1F
100
AcDbEntity
  8
0
100
AcDbLine
 10
787.5057739446358
 20
253.8872652798618
 30
0.0
 11
787.5057739446358
 21
255.3872652798619
 31
0.0
  0
LINE
  5
1D6D
330
1F
100
AcDbEntity
  8
0
100
AcDbLine
 10
790.5057739446358
 20
253.8872652798618
 30
0.0
 11
790.5057739446358
 21
255.3872652798617
 31
0.0
  0
LINE
  5
1D6E
330
1F
100
AcDbEntity
  8
0
100
AcDbLine
 10
795.0057739446358
 20
253.8872652798618
 30
0.0
 11
795.0057739446358
 21
248.8872652798619
 31
0.0
  0
LINE
  5
1D6F
330
1F
100
AcDbEntity
  8
0
100
AcDbLine
 10
783.0057739446358
 20
253.8872652798618
 30
0.0
 11
783.0057739446358
 21
248.8872652798621
 31
0.0
  0
ARC
  5
1D70
330
1F
100
AcDbEntity
  8
0
100
AcDbCircle
 10
794.7557739446353
 20
266.3872652798621
 30
0.0
 40
0.99999999999999
100
AcDbArc
 50
0.0
 51
90.0
  0
LINE
  5
1D71
330
1F
100
AcDbEntity
  8
0
100
AcDbLine
 10
785.0057739446358
 20
265.8872652798618
 30
0.0
 11
785.0057739446358
 21
267.3872652798621
 31
0.0
  0
LINE
  5
1D72
330
1F
100
AcDbEntity
  8
0
100
AcDbLine
 10
793.0057739446358
 20
265.8872652798618
 30
0.0
 11
793.0057739446358
 21
267.3872652798621
 31
0.0
  0
ARC
  5
1D73
330
1F
100
AcDbEntity
  8
0
100
AcDbCircle
 10
802.2557739446353
 20
266.3872652798621
 30
0.0
 40
0.99999999999999
100
AcDbArc
 50
90.0
 51
180.0
  0
LINE
  5
1D74
330
1F
100
AcDbEntity
  8
0
100
AcDbLine
 10
801.2557739446354
 20
266.3872652798621
 30
0.0
 11
795.7557739446354
 21
266.3872652798621
 31
0.0
  0
LINE
  5
1D75
330
1F
100
AcDbEntity
  8
0
100
AcDbLine
 10
802.5057739446358
 20
265.8872652798618
 30
0.0
 11
806.5057739446357
 21
263.8872652798618
 31
0.0
  0
LINE
  5
1D76
330
1F
100
AcDbEntity
  8
0
100
AcDbLine
 10
801.2557739446354
 20
265.8872652798618
 30
0.0
 11
801.2557739446354
 21
266.3872652798621
 31
0.0
  0
LINE
  5
1D77
330
1F
100
AcDbEntity
  8
0
100
AcDbLine
 10
795.7557739446354
 20
265.8872652798618
 30
0.0
 11
795.7557739446354
 21
266.3872652798621
 31
0.0
  0
LINE
  5
1D78
330
1F
100
AcDbEntity
  8
0
100
AcDbLine
 10
808.5057739446359
 20
253.8872652798616
 30
0.0
 11
812.0057739446359
 21
248.8872652798619
 31
0.0
  0
LINE
  5
1D79
330
1F
100
AcDbEntity
  8
0
100
AcDbLine
 10
802.5057739446353
 20
272.387265279862
 30
0.0
 11
801.1003655976116
 21
282.3872652798619
 31
0.0
  0
LINE
  5
1D7A
330
1F
100
AcDbEntity
  8
0
100
AcDbLine
 10
758.0057739446367
 20
403.4102059139777
 30
0.0
 11
758.0057739446367
 21
351.4102059139778
 31
0.0
  0
LINE
  5
1D7B
330
1F
100
AcDbEntity
  8
center
100
AcDbLine
 10
789.0057739446358
 20
343.6562765802957
 30
0.0
 11
789.0057739446358
 21
411.1641352476598
 31
0.0
  0
CIRCLE
  5
1D7C
330
1F
100
AcDbEntity
  8
0
100
AcDbCircle
 10
789.0057739446358
 20
377.4102059139778
 30
0.0
 40
11.99999999999988
  0
ARC
  5
1D7D
330
1F
100
AcDbEntity
  8
0
100
AcDbCircle
 10
789.0057739446358
 20
377.4102059139778
 30
0.0
 40
13.49999999999986
100
AcDbArc
 50
16.96521324885029
 51
343.0347867511497
  0
LINE
  5
1D7E
330
1F
100
AcDbEntity
  8
0
100
AcDbLine
 10
820.0057739446345
 20
403.4102059139778
 30
0.0
 11
820.0057739446345
 21
381.4102059139778
 31
0.0
  0
ARC
  5
1D7F
330
1F
100
AcDbEntity
  8
0
100
AcDbCircle
 10
789.0057739446358
 20
377.4102059139778
 30
0.0
 40
16.5
100
AcDbArc
 50
110.0499757241513
 51
249.9500242758487
  0
TEXT
  5
1D80
330
1F
100
AcDbEntity
  8
0
100
AcDbText
 10
778.8108575716626
 20
386.3071726330412
 30
0.0
 40
3.0
  1
B
 50
45.0
  7
CHINESET
100
AcDbText
  0
ARC
  5
1D81
330
1F
100
AcDbEntity
  8
0
100
AcDbCircle
 10
789.0057739446358
 20
377.4102059139778
 30
0.0
 40
16.5
100
AcDbArc
 50
14.02966540128896
 51
69.95002427584871
  0
ARC
  5
1D82
330
1F
100
AcDbEntity
  8
0
100
AcDbCircle
 10
789.0057739446358
 20
377.4102059139778
 30
0.0
 40
19.5
100
AcDbArc
 50
11.83700415589313
 51
75.88301942869648
  0
ARC
  5
1D83
330
1F
100
AcDbEntity
  8
0
100
AcDbCircle
 10
789.0057739446358
 20
377.4102059139778
 30
0.0
 40
28.0
100
AcDbArc
 50
8.213210701738267
 51
49.99479911514183
  0
ARC
  5
1D84
330
1F
100
AcDbEntity
  8
0
100
AcDbCircle
 10
789.0057739446358
 20
377.4102059139778
 30
0.0
 40
28.0
100
AcDbArc
 50
130.0052008848581
 51
229.9947991151418
  0
ARC
  5
1D85
330
1F
100
AcDbEntity
  8
0
100
AcDbCircle
 10
789.0057739446358
 20
377.4102059139778
 30
0.0
 40
23.0
100
AcDbArc
 50
10.0154101682518
 51
349.9845898317482
  0
ARC
  5
1D86
330
1F
100
AcDbEntity
  8
0
100
AcDbCircle
 10
789.0057739446358
 20
377.4102059139778
 30
0.0
 40
19.5
100
AcDbArc
 50
104.1169805713035
 51
255.8830194286965
  0
SOLID
  5
1D87
330
1F
100
AcDbEntity
  8
dim
 62
     1
100
AcDbTrace
 10
829.0868840381424
 20
378.9102059139778
 30
0.0
 11
829.0868840381424
 21
375.9102059139778
 31
0.0
 12
839.0868840381424
 22
378.9102059139778
 32
0.0
 13
839.0868840381424
 23
375.9102059139778
 33
0.0
  0
LINE
  5
1D88
330
1F
100
AcDbEntity
  8
center
100
AcDbLine
 10
897.8942464725616
 20
377.4102059139779
 30
0.0
 11
753.4797838666743
 21
377.4102059139778
 31
0.0
  0
SOLID
  5
1D89
330
1F
100
AcDbEntity
  8
dim
 62
     1
100
AcDbTrace
 10
783.5919739067728
 20
332.2010988972664
 30
0.0
 11
792.5919739067729
 21
332.2010988972664
 31
0.0
 12
788.0919739067729
 22
323.2010988972664
 32
0.0
 13
788.0919739067729
 23
323.2010988972664
 33
0.0
  0
SOLID
  5
1D8A
330
1F
100
AcDbEntity
  8
dim
 62
     1
100
AcDbTrace
 10
786.5919739067728
 20
342.2010988972664
 30
0.0
 11
789.5919739067728
 21
342.2010988972664
 31
0.0
 12
786.5919739067728
 22
332.2010988972664
 32
0.0
 13
789.5919739067728
 23
332.2010988972664
 33
0.0
  0
TEXT
  5
1D8B
330
1F
100
AcDbEntity
  8
0
100
AcDbText
 10
795.9754072549856
 20
337.3608052306435
 30
0.0
 40
5.0
  1
A
  7
CHINESET
100
AcDbText
  0
LINE
  5
1D8C
330
1F
100
AcDbEntity
  8
0
100
AcDbLine
 10
784.0057739446359
 20
375.9102059139778
 30
0.0
 11
778.0057739446358
 21
377.4102059139778
 31
0.0
  0
LINE
  5
1D8D
330
1F
100
AcDbEntity
  8
0
100
AcDbLine
 10
778.0057739446358
 20
377.4102059139778
 30
0.0
 11
784.0057739446359
 21
378.9102059139777
 31
0.0
  0
LINE
  5
1D8E
330
1F
100
AcDbEntity
  8
0
100
AcDbLine
 10
763.0057739446368
 20
346.4102059139777
 30
0.0
 11
815.0057739446344
 21
346.4102059139778
 31
0.0
  0
TEXT
  5
1D8F
330
1F
100
AcDbEntity
  8
0
100
AcDbText
 10
780.1088072255723
 20
367.2152895410046
 30
0.0
 40
3.0
  1
A
 50
135.0
  7
CHINESET
100
AcDbText
  0
LINE
  5
1D90
330
1F
100
AcDbEntity
  8
center
100
AcDbLine
 10
764.5057739446358
 20
354.9102059139778
 30
0.0
 11
764.5057739446358
 21
356.6602059139778
 31
0.0
  0
LINE
  5
1D91
330
1F
100
AcDbEntity
  8
center
100
AcDbLine
 10
764.5057739446358
 20
350.9102059139778
 30
0.0
 11
764.5057739446358
 21
349.1602059139778
 31
0.0
  0
LINE
  5
1D92
330
1F
100
AcDbEntity
  8
center
100
AcDbLine
 10
766.5057739446358
 20
352.9102059139778
 30
0.0
 11
768.2557739446358
 21
352.9102059139778
 31
0.0
  0
LINE
  5
1D93
330
1F
100
AcDbEntity
  8
center
100
AcDbLine
 10
762.5057739446358
 20
352.9102059139778
 30
0.0
 11
760.7557739446358
 21
352.9102059139778
 31
0.0
  0
LINE
  5
1D94
330
1F
100
AcDbEntity
  8
center
100
AcDbLine
 10
764.5057739446358
 20
351.9102059139778
 30
0.0
 11
764.5057739446358
 21
353.9102059139778
 31
0.0
  0
LINE
  5
1D95
330
1F
100
AcDbEntity
  8
center
100
AcDbLine
 10
763.5057739446359
 20
352.9102059139778
 30
0.0
 11
765.5057739446358
 21
352.9102059139778
 31
0.0
  0
CIRCLE
  5
1D96
330
1F
100
AcDbEntity
  8
0
100
AcDbCircle
 10
764.5057739446358
 20
352.9102059139778
 30
0.0
 40
2.75
  0
ARC
  5
1D97
330
1F
100
AcDbEntity
  8
0
100
AcDbCircle
 10
763.0057739446368
 20
351.4102059139778
 30
0.0
 40
5.0
100
AcDbArc
 50
180.0
 51
270.0
  0
LINE
  5
1D98
330
1F
100
AcDbEntity
  8
0
100
AcDbLine
 10
778.5057739446358
 20
350.9102059139778
 30
0.0
 11
778.5057739446358
 21
351.9102059139778
 31
0.0
  0
LINE
  5
1D99
330
1F
100
AcDbEntity
  8
0
100
AcDbLine
 10
775.5057739446358
 20
353.9102059139778
 30
0.0
 11
776.5057739446358
 21
353.9102059139778
 31
0.0
  0
LINE
  5
1D9A
330
1F
100
AcDbEntity
  8
0
100
AcDbLine
 10
775.5057739446353
 20
352.4102059139778
 30
0.0
 11
775.5057739446358
 21
353.9102059139779
 31
0.0
  0
LINE
  5
1D9B
330
1F
100
AcDbEntity
  8
0
100
AcDbLine
 10
776.5057739446358
 20
352.4102059139778
 30
0.0
 11
776.5057739446358
 21
353.9102059139779
 31
0.0
  0
ARC
  5
1D9C
330
1F
100
AcDbEntity
  8
0
100
AcDbCircle
 10
775.0057739446353
 20
352.4102059139778
 30
0.0
 40
0.5
100
AcDbArc
 50
270.0
 51
359.9999999999984
  0
ARC
  5
1D9D
330
1F
100
AcDbEntity
  8
0
100
AcDbCircle
 10
777.0057739446358
 20
352.4102059139778
 30
0.0
 40
0.5
100
AcDbArc
 50
179.9999999999984
 51
270.0
  0
LINE
  5
1D9E
330
1F
100
AcDbEntity
  8
0
100
AcDbLine
 10
777.0057739446358
 20
350.9102059139778
 30
0.0
 11
778.5057739446358
 21
350.9102059139778
 31
0.0
  0
LINE
  5
1D9F
330
1F
100
AcDbEntity
  8
0
100
AcDbLine
 10
777.0057739446358
 20
351.9102059139777
 30
0.0
 11
778.5057739446358
 21
351.9102059139777
 31
0.0
  0
LINE
  5
1DA0
330
1F
100
AcDbEntity
  8
0
100
AcDbLine
 10
775.5057739446358
 20
348.9102059139778
 30
0.0
 11
775.5057739446353
 21
350.4102059139778
 31
0.0
  0
LINE
  5
1DA1
330
1F
100
AcDbEntity
  8
0
100
AcDbLine
 10
776.5057739446358
 20
348.9102059139778
 30
0.0
 11
776.5057739446358
 21
350.4102059139778
 31
0.0
  0
LINE
  5
1DA2
330
1F
100
AcDbEntity
  8
0
100
AcDbLine
 10
775.5057739446358
 20
348.9102059139778
 30
0.0
 11
776.5057739446358
 21
348.9102059139778
 31
0.0
  0
ARC
  5
1DA3
330
1F
100
AcDbEntity
  8
0
100
AcDbCircle
 10
777.0057739446358
 20
350.4102059139778
 30
0.0
 40
0.5
100
AcDbArc
 50
90.0
 51
180.0
  0
ARC
  5
1DA4
330
1F
100
AcDbEntity
  8
0
100
AcDbCircle
 10
775.0057739446353
 20
350.4102059139778
 30
0.0
 40
0.5
100
AcDbArc
 50
0.0000000000016284
 51
90.0
  0
LINE
  5
1DA5
330
1F
100
AcDbEntity
  8
0
100
AcDbLine
 10
771.0057739446358
 20
351.4102059139777
 30
0.0
 11
771.0057739446358
 21
355.9625953244506
 31
0.0
  0
LINE
  5
1DA6
330
1F
100
AcDbEntity
  8
0
100
AcDbLine
 10
773.5057739446358
 20
350.9102059139778
 30
0.0
 11
773.5057739446358
 21
351.9102059139777
 31
0.0
  0
ARC
  5
1DA7
330
1F
100
AcDbEntity
  8
0
100
AcDbCircle
 10
776.0057739446359
 20
351.4102059139777
 30
0.0
 40
5.0
100
AcDbArc
 50
180.0
 51
270.0
  0
CIRCLE
  5
1DA8
330
1F
100
AcDbEntity
  8
0
100
AcDbCircle
 10
776.0057739446359
 20
351.4102059139778
 30
0.0
 40
4.325
  0
LINE
  5
1DA9
330
1F
100
AcDbEntity
  8
0
100
AcDbLine
 10
773.5057739446358
 20
351.9102059139777
 30
0.0
 11
775.0057739446353
 21
351.9102059139777
 31
0.0
  0
LINE
  5
1DAA
330
1F
100
AcDbEntity
  8
0
100
AcDbLine
 10
773.5057739446358
 20
350.9102059139778
 30
0.0
 11
775.0057739446353
 21
350.9102059139778
 31
0.0
  0
SOLID
  5
1DAB
330
1F
100
AcDbEntity
  8
dim
 62
     1
100
AcDbTrace
 10
742.0913877227437
 20
381.9102059139778
 30
0.0
 11
742.0913877227437
 21
372.9102059139778
 31
0.0
 12
751.0913877227437
 22
377.4102059139778
 32
0.0
 13
751.0913877227437
 23
377.4102059139778
 33
0.0
  0
SOLID
  5
1DAC
330
1F
100
AcDbEntity
  8
dim
 62
     1
100
AcDbTrace
 10
732.0913877227438
 20
378.9102059139778
 30
0.0
 11
732.0913877227438
 21
375.9102059139778
 31
0.0
 12
742.0913877227437
 22
378.9102059139778
 32
0.0
 13
742.0913877227437
 23
375.9102059139778
 33
0.0
  0
TEXT
  5
1DAD
330
1F
100
AcDbEntity
  8
0
100
AcDbText
 10
775.5057739446358
 20
376.4924169120595
 30
0.0
 40
3.0
  1
N
 50
90.0
  7
CHINESET
100
AcDbText
  0
ARC
  5
1DAE
330
1F
100
AcDbEntity
  8
0
100
AcDbCircle
 10
789.0057739446358
 20
377.4102059139778
 30
0.0
 40
28.0
100
AcDbArc
 50
310.0052008848582
 51
351.7867892982617
  0
LINE
  5
1DAF
330
1F
100
AcDbEntity
  8
0
100
AcDbLine
 10
820.0057739446345
 20
373.4102059139777
 30
0.0
 11
820.0057739446345
 21
351.4102059139779
 31
0.0
  0
ARC
  5
1DB0
330
1F
100
AcDbEntity
  8
0
100
AcDbCircle
 10
789.0057739446358
 20
377.4102059139778
 30
0.0
 40
19.5
100
AcDbArc
 50
284.1169805713035
 51
348.1629958441069
  0
ARC
  5
1DB1
330
1F
100
AcDbEntity
  8
0
100
AcDbCircle
 10
789.0057739446358
 20
377.4102059139778
 30
0.0
 40
16.5
100
AcDbArc
 50
290.0499757241513
 51
345.970334598711
  0
ARC
  5
1DB2
330
1F
100
AcDbEntity
  8
0
100
AcDbCircle
 10
802.0057739446357
 20
351.4102059139779
 30
0.0
 40
5.0
100
AcDbArc
 50
270.0
 51
0.0
  0
LINE
  5
1DB3
330
1F
100
AcDbEntity
  8
0
100
AcDbLine
 10
795.0057739446358
 20
355.2066026028033
 30
0.0
 11
795.0057739446358
 21
357.5293105619067
 31
0.0
  0
LINE
  5
1DB4
330
1F
100
AcDbEntity
  8
0
100
AcDbLine
 10
783.0057739446358
 20
355.2066026028033
 30
0.0
 11
783.0057739446358
 21
357.5293105619067
 31
0.0
  0
CIRCLE
  5
1DB5
330
1F
100
AcDbEntity
  8
0
100
AcDbCircle
 10
789.0057739446358
 20
357.4102059139778
 30
0.0
 40
1.5
  0
LINE
  5
1DB6
330
1F
100
AcDbEntity
  8
0
100
AcDbLine
 10
807.0057739446358
 20
351.4102059139779
 30
0.0
 11
807.0057739446358
 21
355.9625953244506
 31
0.0
  0
LINE
  5
1DB7
330
1F
100
AcDbEntity
  8
0
100
AcDbLine
 10
804.5057739446358
 20
350.9102059139778
 30
0.0
 11
804.5057739446358
 21
351.9102059139778
 31
0.0
  0
LINE
  5
1DB8
330
1F
100
AcDbEntity
  8
0
100
AcDbLine
 10
802.5057739446358
 20
352.4102059139778
 30
0.0
 11
802.5057739446358
 21
353.9102059139779
 31
0.0
  0
LINE
  5
1DB9
330
1F
100
AcDbEntity
  8
0
100
AcDbLine
 10
801.5057739446358
 20
352.4102059139778
 30
0.0
 11
801.5057739446358
 21
353.9102059139779
 31
0.0
  0
ARC
  5
1DBA
330
1F
100
AcDbEntity
  8
0
100
AcDbCircle
 10
801.0057739446358
 20
352.4102059139778
 30
0.0
 40
0.5
100
AcDbArc
 50
270.0
 51
359.9999999999984
  0
LINE
  5
1DBB
330
1F
100
AcDbEntity
  8
0
100
AcDbLine
 10
799.5057739446358
 20
350.9102059139778
 30
0.0
 11
801.0057739446358
 21
350.9102059139778
 31
0.0
  0
LINE
  5
1DBC
330
1F
100
AcDbEntity
  8
0
100
AcDbLine
 10
799.5057739446358
 20
351.9102059139777
 30
0.0
 11
801.0057739446358
 21
351.9102059139777
 31
0.0
  0
LINE
  5
1DBD
330
1F
100
AcDbEntity
  8
0
100
AcDbLine
 10
799.5057739446358
 20
350.9102059139778
 30
0.0
 11
799.5057739446358
 21
351.9102059139777
 31
0.0
  0
ARC
  5
1DBE
330
1F
100
AcDbEntity
  8
0
100
AcDbCircle
 10
803.0057739446359
 20
352.4102059139778
 30
0.0
 40
0.5
100
AcDbArc
 50
179.9999999999984
 51
270.0
  0
LINE
  5
1DBF
330
1F
100
AcDbEntity
  8
0
100
AcDbLine
 10
801.5057739446358
 20
353.9102059139778
 30
0.0
 11
802.5057739446358
 21
353.9102059139778
 31
0.0
  0
LINE
  5
1DC0
330
1F
100
AcDbEntity
  8
0
100
AcDbLine
 10
803.0057739446359
 20
350.9102059139778
 30
0.0
 11
804.5057739446358
 21
350.9102059139778
 31
0.0
  0
LINE
  5
1DC1
330
1F
100
AcDbEntity
  8
0
100
AcDbLine
 10
803.0057739446359
 20
351.9102059139777
 30
0.0
 11
804.5057739446358
 21
351.9102059139777
 31
0.0
  0
LINE
  5
1DC2
330
1F
100
AcDbEntity
  8
0
100
AcDbLine
 10
801.5057739446358
 20
348.9102059139778
 30
0.0
 11
801.5057739446358
 21
350.4102059139778
 31
0.0
  0
LINE
  5
1DC3
330
1F
100
AcDbEntity
  8
0
100
AcDbLine
 10
802.5057739446358
 20
348.9102059139778
 30
0.0
 11
802.5057739446358
 21
350.4102059139778
 31
0.0
  0
LINE
  5
1DC4
330
1F
100
AcDbEntity
  8
0
100
AcDbLine
 10
801.5057739446358
 20
348.9102059139778
 30
0.0
 11
802.5057739446358
 21
348.9102059139778
 31
0.0
  0
ARC
  5
1DC5
330
1F
100
AcDbEntity
  8
0
100
AcDbCircle
 10
801.0057739446358
 20
350.4102059139778
 30
0.0
 40
0.5
100
AcDbArc
 50
0.0000000000016284
 51
90.0
  0
ARC
  5
1DC6
330
1F
100
AcDbEntity
  8
0
100
AcDbCircle
 10
803.0057739446359
 20
350.4102059139778
 30
0.0
 40
0.5
100
AcDbArc
 50
90.0
 51
180.0
  0
CIRCLE
  5
1DC7
330
1F
100
AcDbEntity
  8
0
100
AcDbCircle
 10
802.0057739446357
 20
351.4102059139778
 30
0.0
 40
4.325
  0
ARC
  5
1DC8
330
1F
100
AcDbEntity
  8
0
100
AcDbCircle
 10
794.0057739446358
 20
357.5293105619067
 30
0.0
 40
1.0
100
AcDbArc
 50
0.0
 51
104.1169805713035
  0
ARC
  5
1DC9
330
1F
100
AcDbEntity
  8
0
100
AcDbCircle
 10
784.0057739446359
 20
357.5293105619067
 30
0.0
 40
1.0
100
AcDbArc
 50
75.88301942869648
 51
180.0
  0
LINE
  5
1DCA
330
1F
100
AcDbEntity
  8
0
100
AcDbLine
 10
783.3489196951433
 20
361.9102059139777
 30
0.0
 11
794.6626281941278
 21
361.9102059139778
 31
0.0
  0
LINE
  5
1DCB
330
1F
100
AcDbEntity
  8
center
100
AcDbLine
 10
813.5057739446358
 20
354.9102059139778
 30
0.0
 11
813.5057739446358
 21
356.6602059139778
 31
0.0
  0
ARC
  5
1DCC
330
1F
100
AcDbEntity
  8
0
100
AcDbCircle
 10
815.0057739446344
 20
351.4102059139779
 30
0.0
 40
5.0
100
AcDbArc
 50
270.0
 51
0.0
  0
LINE
  5
1DCD
330
1F
100
AcDbEntity
  8
center
100
AcDbLine
 10
813.5057739446358
 20
350.9102059139778
 30
0.0
 11
813.5057739446358
 21
349.1602059139778
 31
0.0
  0
LINE
  5
1DCE
330
1F
100
AcDbEntity
  8
center
100
AcDbLine
 10
815.5057739446359
 20
352.9102059139778
 30
0.0
 11
817.2557739446357
 21
352.9102059139778
 31
0.0
  0
LINE
  5
1DCF
330
1F
100
AcDbEntity
  8
center
100
AcDbLine
 10
811.5057739446358
 20
352.9102059139778
 30
0.0
 11
809.7557739446358
 21
352.9102059139778
 31
0.0
  0
LINE
  5
1DD0
330
1F
100
AcDbEntity
  8
center
100
AcDbLine
 10
813.5057739446358
 20
351.9102059139778
 30
0.0
 11
813.5057739446358
 21
353.9102059139778
 31
0.0
  0
LINE
  5
1DD1
330
1F
100
AcDbEntity
  8
center
100
AcDbLine
 10
812.5057739446358
 20
352.9102059139778
 30
0.0
 11
814.5057739446357
 21
352.9102059139778
 31
0.0
  0
CIRCLE
  5
1DD2
330
1F
100
AcDbEntity
  8
0
100
AcDbCircle
 10
813.5057739446358
 20
352.9102059139778
 30
0.0
 40
2.75
  0
LINE
  5
1DD3
330
1F
100
AcDbEntity
  8
0
100
AcDbLine
 10
784.0057739446359
 20
378.9102059139777
 30
0.0
 11
784.0057739446359
 21
375.9102059139778
 31
0.0
  0
TEXT
  5
1DD4
330
1F
100
AcDbEntity
  8
0
100
AcDbText
 10
823.1786748637244
 20
373.8203093592483
 30
0.0
 40
5.0
  1
R
  7
CHINESET
100
AcDbText
  0
SOLID
  5
1DD5
330
1F
100
AcDbEntity
  8
dim
 62
     1
100
AcDbTrace
 10
839.0868840381424
 20
372.9102059139778
 30
0.0
 11
839.0868840381424
 21
381.9102059139778
 31
0.0
 12
848.0868840381424
 22
377.4102059139778
 32
0.0
 13
848.0868840381424
 23
377.4102059139778
 33
0.0
  0
SOLID
  5
1DD6
330
1F
100
AcDbEntity
  8
dim
 62
     1
100
AcDbTrace
 10
783.5919739067728
 20
422.2093375773408
 30
0.0
 11
792.5919739067729
 21
422.2093375773408
 31
0.0
 12
788.0919739067729
 22
431.2093375773408
 32
0.0
 13
788.0919739067729
 23
431.2093375773408
 33
0.0
  0
LINE
  5
1DD7
330
1F
100
AcDbEntity
  8
0
100
AcDbLine
 10
763.0057739446368
 20
408.4102059139777
 30
0.0
 11
815.0057739446344
 21
408.4102059139778
 31
0.0
  0
LINE
  5
1DD8
330
1F
100
AcDbEntity
  8
center
100
AcDbLine
 10
764.5057739446358
 20
399.9102059139779
 30
0.0
 11
764.5057739446358
 21
398.1602059139778
 31
0.0
  0
LINE
  5
1DD9
330
1F
100
AcDbEntity
  8
0
100
AcDbLine
 10
771.0057739446358
 20
398.857816503505
 30
0.0
 11
771.0057739446358
 21
403.4102059139778
 31
0.0
  0
LINE
  5
1DDA
330
1F
100
AcDbEntity
  8
center
100
AcDbLine
 10
764.5057739446358
 20
403.9102059139778
 30
0.0
 11
764.5057739446358
 21
405.6602059139778
 31
0.0
  0
LINE
  5
1DDB
330
1F
100
AcDbEntity
  8
center
100
AcDbLine
 10
766.5057739446358
 20
401.9102059139778
 30
0.0
 11
768.2557739446358
 21
401.9102059139778
 31
0.0
  0
LINE
  5
1DDC
330
1F
100
AcDbEntity
  8
center
100
AcDbLine
 10
762.5057739446358
 20
401.9102059139778
 30
0.0
 11
760.7557739446358
 21
401.9102059139778
 31
0.0
  0
LINE
  5
1DDD
330
1F
100
AcDbEntity
  8
center
100
AcDbLine
 10
764.5057739446358
 20
400.9102059139778
 30
0.0
 11
764.5057739446358
 21
402.9102059139778
 31
0.0
  0
LINE
  5
1DDE
330
1F
100
AcDbEntity
  8
center
100
AcDbLine
 10
763.5057739446359
 20
401.9102059139778
 30
0.0
 11
765.5057739446358
 21
401.9102059139778
 31
0.0
  0
CIRCLE
  5
1DDF
330
1F
100
AcDbEntity
  8
0
100
AcDbCircle
 10
764.5057739446358
 20
401.9102059139778
 30
0.0
 40
2.75
  0
ARC
  5
1DE0
330
1F
100
AcDbEntity
  8
0
100
AcDbCircle
 10
763.0057739446368
 20
403.4102059139777
 30
0.0
 40
5.0
100
AcDbArc
 50
90.0
 51
180.0
  0
LINE
  5
1DE1
330
1F
100
AcDbEntity
  8
0
100
AcDbLine
 10
778.5057739446358
 20
402.9102059139778
 30
0.0
 11
778.5057739446358
 21
403.9102059139778
 31
0.0
  0
LINE
  5
1DE2
330
1F
100
AcDbEntity
  8
0
100
AcDbLine
 10
776.5057739446358
 20
404.4102059139777
 30
0.0
 11
776.5057739446358
 21
405.9102059139778
 31
0.0
  0
LINE
  5
1DE3
330
1F
100
AcDbEntity
  8
0
100
AcDbLine
 10
775.5057739446353
 20
404.4102059139777
 30
0.0
 11
775.5057739446358
 21
405.9102059139778
 31
0.0
  0
ARC
  5
1DE4
330
1F
100
AcDbEntity
  8
0
100
AcDbCircle
 10
775.0057739446353
 20
402.4102059139778
 30
0.0
 40
0.5
100
AcDbArc
 50
0.0000000000016284
 51
90.0
  0
ARC
  5
1DE5
330
1F
100
AcDbEntity
  8
0
100
AcDbCircle
 10
775.0057739446353
 20
404.4102059139777
 30
0.0
 40
0.5
100
AcDbArc
 50
270.0
 51
359.9999999999984
  0
ARC
  5
1DE6
330
1F
100
AcDbEntity
  8
0
100
AcDbCircle
 10
777.0057739446358
 20
402.4102059139778
 30
0.0
 40
0.5
100
AcDbArc
 50
90.0
 51
180.0
  0
ARC
  5
1DE7
330
1F
100
AcDbEntity
  8
0
100
AcDbCircle
 10
777.0057739446358
 20
404.4102059139777
 30
0.0
 40
0.5
100
AcDbArc
 50
179.9999999999984
 51
270.0
  0
LINE
  5
1DE8
330
1F
100
AcDbEntity
  8
0
100
AcDbLine
 10
775.5057739446358
 20
405.9102059139778
 30
0.0
 11
776.5057739446358
 21
405.9102059139778
 31
0.0
  0
LINE
  5
1DE9
330
1F
100
AcDbEntity
  8
0
100
AcDbLine
 10
777.0057739446358
 20
402.9102059139778
 30
0.0
 11
778.5057739446358
 21
402.9102059139778
 31
0.0
  0
LINE
  5
1DEA
330
1F
100
AcDbEntity
  8
0
100
AcDbLine
 10
777.0057739446358
 20
403.9102059139777
 30
0.0
 11
778.5057739446358
 21
403.9102059139777
 31
0.0
  0
LINE
  5
1DEB
330
1F
100
AcDbEntity
  8
0
100
AcDbLine
 10
775.5057739446358
 20
400.9102059139778
 30
0.0
 11
776.5057739446358
 21
400.9102059139778
 31
0.0
  0
LINE
  5
1DEC
330
1F
100
AcDbEntity
  8
0
100
AcDbLine
 10
775.5057739446358
 20
400.9102059139778
 30
0.0
 11
775.5057739446353
 21
402.4102059139778
 31
0.0
  0
LINE
  5
1DED
330
1F
100
AcDbEntity
  8
0
100
AcDbLine
 10
776.5057739446358
 20
400.9102059139778
 30
0.0
 11
776.5057739446358
 21
402.4102059139778
 31
0.0
  0
LINE
  5
1DEE
330
1F
100
AcDbEntity
  8
0
100
AcDbLine
 10
773.5057739446358
 20
402.9102059139778
 30
0.0
 11
773.5057739446358
 21
403.9102059139777
 31
0.0
  0
ARC
  5
1DEF
330
1F
100
AcDbEntity
  8
0
100
AcDbCircle
 10
776.0057739446359
 20
403.4102059139777
 30
0.0
 40
5.0
100
AcDbArc
 50
90.0
 51
180.0
  0
CIRCLE
  5
1DF0
330
1F
100
AcDbEntity
  8
0
100
AcDbCircle
 10
776.0057739446359
 20
403.4102059139778
 30
0.0
 40
4.325
  0
LINE
  5
1DF1
330
1F
100
AcDbEntity
  8
0
100
AcDbLine
 10
773.5057739446358
 20
402.9102059139778
 30
0.0
 11
775.0057739446353
 21
402.9102059139778
 31
0.0
  0
LINE
  5
1DF2
330
1F
100
AcDbEntity
  8
0
100
AcDbLine
 10
773.5057739446358
 20
403.9102059139777
 30
0.0
 11
775.0057739446353
 21
403.9102059139777
 31
0.0
  0
TEXT
  5
1DF3
330
1F
100
AcDbEntity
  8
0
100
AcDbText
 10
778.3274473195872
 20
412.2981258161443
 30
0.0
 40
5.0
  1
B
  7
CHINESET
100
AcDbText
  0
ARC
  5
1DF4
330
1F
100
AcDbEntity
  8
0
100
AcDbCircle
 10
802.0057739446357
 20
403.4102059139778
 30
0.0
 40
5.0
100
AcDbArc
 50
0.0
 51
90.0
  0
LINE
  5
1DF5
330
1F
100
AcDbEntity
  8
0
100
AcDbLine
 10
795.0057739446358
 20
397.2911012660489
 30
0.0
 11
795.0057739446358
 21
399.6138092251523
 31
0.0
  0
LINE
  5
1DF6
330
1F
100
AcDbEntity
  8
0
100
AcDbLine
 10
807.0057739446358
 20
398.857816503505
 30
0.0
 11
807.0057739446358
 21
403.4102059139778
 31
0.0
  0
LINE
  5
1DF7
330
1F
100
AcDbEntity
  8
0
100
AcDbLine
 10
783.0057739446358
 20
397.2911012660489
 30
0.0
 11
783.0057739446358
 21
399.6138092251523
 31
0.0
  0
ARC
  5
1DF8
330
1F
100
AcDbEntity
  8
0
100
AcDbCircle
 10
794.0057739446358
 20
397.2911012660489
 30
0.0
 40
1.0
100
AcDbArc
 50
255.8830194286965
 51
0.0
  0
ARC
  5
1DF9
330
1F
100
AcDbEntity
  8
0
100
AcDbCircle
 10
784.0057739446359
 20
397.2911012660489
 30
0.0
 40
1.0
100
AcDbArc
 50
180.0
 51
284.1169805713035
  0
CIRCLE
  5
1DFA
330
1F
100
AcDbEntity
  8
0
100
AcDbCircle
 10
789.0057739446358
 20
397.4102059139779
 30
0.0
 40
1.5
  0
LINE
  5
1DFB
330
1F
100
AcDbEntity
  8
0
100
AcDbLine
 10
783.3489196951433
 20
392.9102059139779
 30
0.0
 11
794.6626281941282
 21
392.9102059139777
 31
0.0
  0
ARC
  5
1DFC
330
1F
100
AcDbEntity
  8
0
100
AcDbCircle
 10
789.0057739446354
 20
342.0150446457396
 30
0.0
 40
48.19516126823796
100
AcDbArc
 50
84.045142910615
 51
95.95485708938497
  0
LINE
  5
1DFD
330
1F
100
AcDbEntity
  8
0
100
AcDbLine
 10
804.5057739446358
 20
402.9102059139778
 30
0.0
 11
804.5057739446358
 21
403.9102059139778
 31
0.0
  0
LINE
  5
1DFE
330
1F
100
AcDbEntity
  8
0
100
AcDbLine
 10
802.5057739446358
 20
404.4102059139777
 30
0.0
 11
802.5057739446358
 21
405.9102059139778
 31
0.0
  0
LINE
  5
1DFF
330
1F
100
AcDbEntity
  8
0
100
AcDbLine
 10
801.5057739446358
 20
404.4102059139777
 30
0.0
 11
801.5057739446358
 21
405.9102059139778
 31
0.0
  0
ARC
  5
1E00
330
1F
100
AcDbEntity
  8
0
100
AcDbCircle
 10
801.0057739446358
 20
402.4102059139778
 30
0.0
 40
0.5
100
AcDbArc
 50
0.0000000000016284
 51
90.0
  0
ARC
  5
1E01
330
1F
100
AcDbEntity
  8
0
100
AcDbCircle
 10
801.0057739446358
 20
404.4102059139777
 30
0.0
 40
0.5
100
AcDbArc
 50
270.0
 51
359.9999999999984
  0
LINE
  5
1E02
330
1F
100
AcDbEntity
  8
0
100
AcDbLine
 10
799.5057739446358
 20
402.9102059139778
 30
0.0
 11
801.0057739446358
 21
402.9102059139778
 31
0.0
  0
LINE
  5
1E03
330
1F
100
AcDbEntity
  8
0
100
AcDbLine
 10
799.5057739446358
 20
403.9102059139777
 30
0.0
 11
801.0057739446358
 21
403.9102059139777
 31
0.0
  0
LINE
  5
1E04
330
1F
100
AcDbEntity
  8
0
100
AcDbLine
 10
799.5057739446358
 20
402.9102059139778
 30
0.0
 11
799.5057739446358
 21
403.9102059139777
 31
0.0
  0
ARC
  5
1E05
330
1F
100
AcDbEntity
  8
0
100
AcDbCircle
 10
803.0057739446359
 20
402.4102059139778
 30
0.0
 40
0.5
100
AcDbArc
 50
90.0
 51
180.0
  0
ARC
  5
1E06
330
1F
100
AcDbEntity
  8
0
100
AcDbCircle
 10
803.0057739446359
 20
404.4102059139777
 30
0.0
 40
0.5
100
AcDbArc
 50
179.9999999999984
 51
270.0
  0
LINE
  5
1E07
330
1F
100
AcDbEntity
  8
0
100
AcDbLine
 10
801.5057739446358
 20
405.9102059139778
 30
0.0
 11
802.5057739446358
 21
405.9102059139778
 31
0.0
  0
LINE
  5
1E08
330
1F
100
AcDbEntity
  8
0
100
AcDbLine
 10
803.0057739446359
 20
402.9102059139778
 30
0.0
 11
804.5057739446358
 21
402.9102059139778
 31
0.0
  0
LINE
  5
1E09
330
1F
100
AcDbEntity
  8
0
100
AcDbLine
 10
803.0057739446359
 20
403.9102059139777
 30
0.0
 11
804.5057739446358
 21
403.9102059139777
 31
0.0
  0
LINE
  5
1E0A
330
1F
100
AcDbEntity
  8
0
100
AcDbLine
 10
801.5057739446358
 20
400.9102059139778
 30
0.0
 11
802.5057739446358
 21
400.9102059139778
 31
0.0
  0
CIRCLE
  5
1E0B
330
1F
100
AcDbEntity
  8
0
100
AcDbCircle
 10
802.0057739446357
 20
403.4102059139778
 30
0.0
 40
4.325
  0
LINE
  5
1E0C
330
1F
100
AcDbEntity
  8
0
100
AcDbLine
 10
801.5057739446358
 20
400.9102059139778
 30
0.0
 11
801.5057739446358
 21
402.4102059139778
 31
0.0
  0
LINE
  5
1E0D
330
1F
100
AcDbEntity
  8
0
100
AcDbLine
 10
802.5057739446358
 20
400.9102059139778
 30
0.0
 11
802.5057739446358
 21
402.4102059139778
 31
0.0
  0
LINE
  5
1E0E
330
1F
100
AcDbEntity
  8
center
100
AcDbLine
 10
813.5057739446358
 20
399.9102059139779
 30
0.0
 11
813.5057739446358
 21
398.1602059139778
 31
0.0
  0
ARC
  5
1E0F
330
1F
100
AcDbEntity
  8
0
100
AcDbCircle
 10
815.0057739446344
 20
403.4102059139778
 30
0.0
 40
5.0
100
AcDbArc
 50
0.0
 51
90.0
  0
LINE
  5
1E10
330
1F
100
AcDbEntity
  8
center
100
AcDbLine
 10
813.5057739446358
 20
403.9102059139778
 30
0.0
 11
813.5057739446358
 21
405.6602059139778
 31
0.0
  0
LINE
  5
1E11
330
1F
100
AcDbEntity
  8
center
100
AcDbLine
 10
815.5057739446359
 20
401.9102059139778
 30
0.0
 11
817.2557739446357
 21
401.9102059139778
 31
0.0
  0
LINE
  5
1E12
330
1F
100
AcDbEntity
  8
center
100
AcDbLine
 10
811.5057739446358
 20
401.9102059139778
 30
0.0
 11
809.7557739446358
 21
401.9102059139778
 31
0.0
  0
LINE
  5
1E13
330
1F
100
AcDbEntity
  8
center
100
AcDbLine
 10
813.5057739446358
 20
400.9102059139778
 30
0.0
 11
813.5057739446358
 21
402.9102059139778
 31
0.0
  0
LINE
  5
1E14
330
1F
100
AcDbEntity
  8
center
100
AcDbLine
 10
812.5057739446358
 20
401.9102059139778
 30
0.0
 11
814.5057739446357
 21
401.9102059139778
 31
0.0
  0
CIRCLE
  5
1E15
330
1F
100
AcDbEntity
  8
0
100
AcDbCircle
 10
813.5057739446358
 20
401.9102059139778
 30
0.0
 40
2.75
  0
SOLID
  5
1E16
330
1F
100
AcDbEntity
  8
dim
 62
     1
100
AcDbTrace
 10
786.5919739067728
 20
412.2093375773408
 30
0.0
 11
789.5919739067728
 21
412.2093375773408
 31
0.0
 12
786.5919739067728
 22
422.2093375773408
 32
0.0
 13
789.5919739067728
 23
422.2093375773408
 33
0.0
  0
LINE
  5
1E17
330
1F
100
AcDbEntity
  8
0
100
AcDbLine
 10
851.5344505529519
 20
373.4102059139778
 30
0.0
 11
801.9354042033722
 21
373.4102059139778
 31
0.0
  0
LINE
  5
1E18
330
1F
100
AcDbEntity
  8
0
100
AcDbLine
 10
851.5344505529519
 20
381.4102059139777
 30
0.0
 11
801.9354042033722
 21
381.4102059139778
 31
0.0
  0
LINE
  5
1E19
330
1F
100
AcDbEntity
  8
0
100
AcDbLine
 10
802.4920966072125
 20
272.4845845924461
 30
0.0
 11
852.9957681130325
 21
279.5824127414095
 31
0.0
  0
LINE
  5
1E1A
330
1F
100
AcDbEntity
  8
0
100
AcDbLine
 10
801.3787117995319
 20
280.4067291423787
 30
0.0
 11
851.882383305352
 21
287.5045572913421
 31
0.0
  0
LINE
  5
1E1B
330
1F
100
AcDbEntity
  8
0
100
AcDbLine
 10
711.2885896823772
 20
287.446165699192
 30
0.0
 11
708.9944136546975
 21
282.3872652752624
 31
0.0
  0
LINE
  5
1E1C
330
1F
100
AcDbEntity
  8
0
100
AcDbLine
 10
693.2885896823773
 20
287.446165699192
 30
0.0
 11
695.582765710057
 21
282.3872652752624
 31
0.0
  0
ARC
  5
1E1D
330
1F
100
AcDbEntity
  8
0
100
AcDbCircle
 10
702.2885896823773
 20
288.1595538536146
 30
0.0
 40
9.028229209477931
100
AcDbArc
 50
355.4679058138733
 51
184.5320941861267
  0
ARC
  5
1E1E
330
1F
100
AcDbEntity
  8
0
100
AcDbCircle
 10
702.2885896823773
 20
283.0478565211595
 30
0.0
 40
4.398309178032496
100
AcDbArc
 50
24.57186867323221
 51
155.4281313267678
  0
ARC
  5
1E1F
330
1F
100
AcDbEntity
  8
0
100
AcDbCircle
 10
702.2885896823773
 20
283.2658987018792
 30
0.0
 40
6.5
100
AcDbArc
 50
352.2312968295504
 51
187.768703170448
  0
LINE
  5
1E20
330
1F
100
AcDbEntity
  8
0
100
AcDbLine
 10
698.2885896823773
 20
282.3872652752624
 30
0.0
 11
698.2885896823773
 21
284.8768244338263
 31
0.0
  0
LINE
  5
1E21
330
1F
100
AcDbEntity
  8
0
100
AcDbLine
 10
706.2885896823773
 20
282.3872652752624
 30
0.0
 11
706.2885896823773
 21
284.8768244338263
 31
0.0
  0
ARC
  5
1E22
330
1F
100
AcDbEntity
  8
0
100
AcDbCircle
 10
816.0276510701075
 20
377.4102059139778
 30
0.0
 40
14.64893927057562
100
AcDbArc
 50
164.1537238849405
 51
195.8462761150595
  0
LINE
  5
1E23
330
1F
100
AcDbEntity
  8
0
100
AcDbLine
 10
884.8556321377651
 20
297.1877830676921
 30
0.0
 11
851.5344505529519
 21
289.9802274631959
 31
0.0
  0
LINE
  5
1E24
330
1F
100
AcDbEntity
  8
0
100
AcDbLine
 10
853.3437008654328
 20
277.1067425695555
 30
0.0
 11
887.3607479550463
 21
279.3629578303438
 31
0.0
  0
LINE
  5
1E25
330
1F
100
AcDbEntity
  8
0
100
AcDbLine
 10
851.5344505529519
 20
289.9802274631959
 30
0.0
 11
853.3437008654328
 21
277.1067425695555
 31
0.0
  0
LINE
  5
1E26
330
1F
100
AcDbEntity
  8
0
100
AcDbLine
 10
891.6322791559748
 20
292.0812132610032
 30
0.0
 11
892.4673177617354
 21
286.1396048485537
 31
0.0
  0
ARC
  5
1E27
330
1F
100
AcDbEntity
  8
0
100
AcDbCircle
 10
886.5257093492859
 20
285.3045662427933
 30
0.0
 40
6.0
100
AcDbArc
 50
278.0000000000009
 51
8.000000000000873
  0
ARC
  5
1E28
330
1F
100
AcDbEntity
  8
0
100
AcDbCircle
 10
885.6906707435255
 20
291.2461746552427
 30
0.0
 40
6.0
100
AcDbArc
 50
8.000000000000873
 51
98.00000000000089
  0
ARC
  5
1E29
330
1F
100
AcDbEntity
  8
0
100
AcDbCircle
 10
885.5344505529519
 20
374.4102059139778
 30
0.0
 40
6.0
100
AcDbArc
 50
270.0
 51
0.0
  0
LINE
  5
1E2A
330
1F
100
AcDbEntity
  8
0
100
AcDbLine
 10
851.5344505529519
 20
370.9102059139778
 30
0.0
 11
885.5344505529519
 21
368.4102059139777
 31
0.0
  0
LINE
  5
1E2B
330
1F
100
AcDbEntity
  8
0
100
AcDbLine
 10
885.5344505529519
 20
386.4102059139778
 30
0.0
 11
851.5344505529519
 21
383.9102059139777
 31
0.0
  0
LINE
  5
1E2C
330
1F
100
AcDbEntity
  8
0
100
AcDbLine
 10
851.5344505529519
 20
383.9102059139777
 30
0.0
 11
851.5344505529519
 21
370.9102059139778
 31
0.0
  0
ARC
  5
1E2D
330
1F
100
AcDbEntity
  8
0
100
AcDbCircle
 10
840.2497230908402
 20
377.4102059139777
 30
0.0
 40
13.0939777745925
100
AcDbArc
 50
330.8968002211046
 51
29.10319977889539
  0
LINE
  5
1E2E
330
1F
100
AcDbEntity
  8
0
100
AcDbLine
 10
851.6905215062307
 20
371.0415023112089
 30
0.0
 11
851.3952774519918
 21
371.0415023112089
 31
0.0
  0
LINE
  5
1E2F
330
1F
100
AcDbEntity
  8
0
100
AcDbLine
 10
851.6905215062307
 20
383.7789095167465
 30
0.0
 11
851.3952774519918
 21
383.7789095167465
 31
0.0
  0
ARC
  5
1E30
330
1F
100
AcDbEntity
  8
0
100
AcDbCircle
 10
885.5344505529519
 20
380.4102059139778
 30
0.0
 40
6.0
100
AcDbArc
 50
0.0
 51
90.0
  0
LINE
  5
1E31
330
1F
100
AcDbEntity
  8
0
100
AcDbLine
 10
891.5344505529517
 20
380.4102059139779
 30
0.0
 11
891.5344505529517
 21
374.4102059139778
 31
0.0
  0
DIMENSION
  5
1E32
330
1F
100
AcDbEntity
  8
dim
100
AcDbDimension
  2
*D3
 10
724.2142323366954
 20
401.9102059139778
 30
0.0
 11
721.7142323366953
 21
377.4102059139779
 31
0.0
 70
    32
  1
{\Famgdt;o}<>
 71
     5
 42
49.00000000000005
  3
STANDARD
100
AcDbAlignedDimension
 13
760.7557739446358
 23
352.9102059139778
 33
0.0
 14
760.7557739446358
 24
401.9102059139778
 34
0.0
 50
90.0
100
AcDbRotatedDimension
  0
DIMENSION
  5
1E33
330
1F
100
AcDbEntity
  8
dim
100
AcDbDimension
  2
*D4
 10
715.8194128178798
 20
408.4102059139777
 30
0.0
 11
713.3194128178796
 21
377.4102059139778
 31
0.0
 70
    32
  1
{\Famgdt;o}<>
 71
     5
 42
62.0
  3
STANDARD
100
AcDbAlignedDimension
 13
763.0057739446368
 23
346.4102059139777
 33
0.0
 14
763.0057739446368
 24
408.4102059139777
 34
0.0
 50
90.0
100
AcDbRotatedDimension
  0
DIMENSION
  5
1E34
330
1F
100
AcDbEntity
  8
dim
100
AcDbDimension
  2
*D5
 10
682.2885896823772
 20
300.5765670983793
 30
0.0
 11
702.2885896823773
 21
303.0765670983793
 31
0.0
 70
    32
 71
     5
 42
40.0
  3
STANDARD
100
AcDbAlignedDimension
 13
722.2885896823773
 23
257.004577826089
 33
0.0
 14
682.2885896823772
 24
257.0045778260896
 34
0.0
100
AcDbRotatedDimension
  0
DIMENSION
  5
1E35
330
1F
100
AcDbEntity
  8
dim
100
AcDbDimension
  2
*D6
 10
892.4673177617354
 20
302.5111180851576
 30
0.0
 11
840.7365458531856
 21
305.0111180851576
 31
0.0
 70
    32
 71
     5
 42
103.4615438170995
  3
STANDARD
100
AcDbAlignedDimension
 13
789.0057739446358
 23
287.7275589524996
 33
0.0
 14
892.4673177617354
 24
286.1396048485537
 34
0.0
100
AcDbRotatedDimension
1001
ACAD
1000
DSTYLE
1002
{
1070
   271
1070
     0
1002
}
  0
DIMENSION
  5
1E36
330
1F
100
AcDbEntity
  8
dim
100
AcDbDimension
  2
*D7
 10
906.7759538628383
 20
208.8872652798627
 30
0.0
 11
904.2759538628384
 21
253.0375241737775
 31
0.0
 70
    32
 71
     5
 42
88.30051778782939
  3
STANDARD
100
AcDbAlignedDimension
 13
884.855632137765
 23
297.1877830676921
 33
0.0
 14
820.0057739446345
 24
208.8872652798627
 34
0.0
 50
90.0
100
AcDbRotatedDimension
1001
ACAD
1000
DSTYLE
1002
{
1070
   271
1070
     0
1002
}
  0
DIMENSION
  5
1E37
330
1F
100
AcDbEntity
  8
dim
100
AcDbDimension
  2
*D8
 10
836.5169929048873
 20
220.3872652752628
 30
0.0
 11
834.0169929048872
 21
214.6372652775629
 31
0.0
 70
    32
 71
     5
 42
11.49999999540006
  3
STANDARD
100
AcDbAlignedDimension
 13
820.0057739446345
 23
208.8872652798627
 33
0.0
 14
804.0057739386353
 24
220.3872652752628
 34
0.0
 50
90.0
100
AcDbRotatedDimension
  0
DIMENSION
  5
1E38
330
1F
100
AcDbEntity
  8
dim
100
AcDbDimension
  2
*D9
 10
853.0169929048872
 20
231.8872652798618
 30
0.0
 11
850.5169929048872
 21
220.3872652798624
 31
0.0
 70
    32
 71
     5
 42
22.99999999999909
  3
STANDARD
100
AcDbAlignedDimension
 13
820.0057739446345
 23
208.8872652798627
 33
0.0
 14
820.0057739446345
 24
231.8872652798618
 34
0.0
 50
90.0
100
AcDbRotatedDimension
  0
LEADER
  5
1E39
330
1F
100
AcDbEntity
  8
dim
100
AcDbLeader
  3
STANDARD
 73
     0
 75
     1
 40
3.0
 41
11.28571428571428
 76
     3
 10
682.2885896823772
 20
255.3872652798621
 30
0.0
 10
673.9387940359106
 20
267.5893021884608
 30
0.0
 10
670.9387940359106
 20
267.5893021884608
 30
0.0
340
1E3A
213
0.0
223
1.5
233
0.0
1001
ACAD
1000
DSTYLE
1002
{
1070
     5
1000

1070
    77
1070
     0
1070
   147
1040
1.0
1002
}
  0
MTEXT
  5
1E3A
102
{ACAD_REACTORS
330
1E39
102
}
330
1F
100
AcDbEntity
  8
dim
100
AcDbMText
 10
669.9387940359106
 20
266.0893021884608
 30
0.0
 40
3.0
 41
0.0
 71
     9
 72
     5
  1
\A1;2-%%c3
  7
CHINESET
 73
     1
 44
1.0
1001
ACAD
1000
MTEXTBEGIN
1070
    73
1070
     1
1070
    44
1040
1.0
1070
    74
1070
     0
1000
MTEXTEND
  0
LEADER
  5
1E3B
330
1F
100
AcDbEntity
  8
dim
100
AcDbLeader
  3
STANDARD
 73
     0
 75
     1
 40
3.0
 41
17.14285714285714
 76
     3
 10
771.5057739446359
 20
259.3712689693324
 30
0.0
 10
762.0677381066207
 20
274.0800198987548
 30
0.0
 10
759.0677381066207
 20
274.0800198987548
 30
0.0
340
1E3C
213
0.0
223
1.5
233
0.0
1001
ACAD
1000
DSTYLE
1002
{
1070
     5
1000

1070
    77
1070
     0
1070
   147
1040
1.0
1002
}
  0
MTEXT
  5
1E3C
102
{ACAD_REACTORS
330
1E3B
102
}
330
1F
100
AcDbEntity
  8
dim
100
AcDbMText
 10
758.0677381066207
 20
272.5800198987548
 30
0.0
 40
3.0
 41
0.0
 71
     9
 72
     5
  1
\A1;M33*1.5
  7
CHINESET
 73
     1
 44
1.0
1001
ACAD
1000
MTEXTBEGIN
1070
    73
1070
     1
1070
    44
1040
1.0
1070
    74
1070
     0
1000
MTEXTEND
  0
LEADER
  5
1E3D
330
1F
100
AcDbEntity
  8
dim
100
AcDbLeader
  3
STANDARD
 73
     0
 75
     1
 40
3.0
 41
15.57142857142857
 76
     3
 10
762.6128049419261
 20
403.9049912043738
 30
0.0
 10
753.5409512282706
 20
416.8182757772167
 30
0.0
 10
750.5409512282706
 20
416.8182757772167
 30
0.0
340
1E3E
213
0.0
223
1.5
233
0.0
1001
ACAD
1000
DSTYLE
1002
{
1070
     5
1000

1070
    77
1070
     0
1070
   147
1040
1.0
1002
}
  0
MTEXT
  5
1E3E
102
{ACAD_REACTORS
330
1E3D
102
}
330
1F
100
AcDbEntity
  8
dim
100
AcDbMText
 10
749.5409512282706
 20
415.3182757772167
 30
0.0
 40
3.0
 41
0.0
 71
     9
 72
     5
  1
\A1;4-%%C5.5
  7
CHINESET
 73
     1
 44
1.0
1001
ACAD
1000
MTEXTBEGIN
1070
    73
1070
     1
1070
    44
1040
1.0
1070
    74
1070
     0
1000
MTEXTEND
  0
LINE
  5
1F0E
330
1F
100
AcDbEntity
  8
AM_7
100
AcDbLine
 10
798.9922976025938
 20
276.0320302091205
 30
0.0
 11
894.0303345963382
 21
289.3887552566986
 31
0.0
1001
GENIUS_GENOBJ-N-CEN_13
1002
{
1000
OWNER
1000
GEN
1002
}
1001
GENIUS_GENODEF_13
1002
{
1000
HIER
1070
     0
1002
}
1002
{
1000
MANEDIT
1070
     0
1002
}
1002
{
1000
NOSEL
1070
     0
1002
}
1002
{
1000
BEHIND
1070
     0
1002
}
1002
{
1000
OTHER
1070
     0
1002
}
1002
{
1000
REACTOR
1002
}
1001
GENIUS_GENCEN_19
1002
{
1040
2.0
1002
}
  0
ENDSEC
  0
SECTION
  2
OBJECTS
  0
DICTIONARY
  5
C
330
0
100
AcDbDictionary
281
     1
  3
ACAD_COLOR
350
BE
  3
ACAD_GROUP
350
D
  3
ACAD_LAYOUT
350
1A
  3
ACAD_MATERIAL
350
BD
  3
ACAD_MLINESTYLE
350
17
  3
ACAD_PLOTSETTINGS
350
19
  3
ACAD_PLOTSTYLENAME
350
E
  3
ACAD_TABLESTYLE
350
11A
  3
ACDBHEADERROUNDTRIPXREC
350
1FA6
  3
AcDbVariableDictionary
350
94
  3
AcmDictionary
350
5B
  3
AMG
350
41
  3
AMGSNAPSETTINGS
350
1B8
  3
DWGPROPS
350
1FA5
  0
DICTIONARY
  5
3F9
330
2
100
AcDbDictionary
280
     1
281
     1
  3
ACAD_LAYERFILTERS
360
5B7
  3
ACAD_LAYERSTATES
360
113C
  3
ACLYDICTIONARY
360
5B6
  3
AMLAYER_GROUPCOLORS
360
1F26
  0
DICTIONARY
  5
8F
330
1F
100
AcDbDictionary
280
     1
281
     1
  0
DICTIONARY
  5
BE
102
{ACAD_REACTORS
330
C
102
}
330
C
100
AcDbDictionary
281
     1
  0
DICTIONARY
  5
D
102
{ACAD_REACTORS
330
C
102
}
330
C
100
AcDbDictionary
281
     1
  0
DICTIONARY
  5
1A
102
{ACAD_REACTORS
330
C
102
}
330
C
100
AcDbDictionary
281
     1
  3
Model
350
22
  3
配置1
350
1E
  3
配置2
350
26
  0
DICTIONARY
  5
BD
102
{ACAD_REACTORS
330
C
102
}
330
C
100
AcDbDictionary
281
     1
  0
DICTIONARY
  5
17
102
{ACAD_REACTORS
330
C
102
}
330
C
100
AcDbDictionary
281
     1
  3
Standard
350
18
  0
DICTIONARY
  5
19
102
{ACAD_REACTORS
330
C
102
}
330
C
100
AcDbDictionary
281
     1
  0
ACDBDICTIONARYWDFLT
  5
E
102
{ACAD_REACTORS
330
C
102
}
330
C
100
AcDbDictionary
281
     1
  3
Normal
350
F
100
AcDbDictionaryWithDefault
340
F
  0
DICTIONARY
  5
11A
102
{ACAD_REACTORS
330
C
102
}
330
C
100
AcDbDictionary
281
     1
  3
Standard
350
11B
  0
DICTIONARY
  5
1FA6
102
{ACAD_REACTORS
330
C
102
}
330
C
100
AcDbDictionary
281
     1
  0
DICTIONARY
  5
94
102
{ACAD_REACTORS
330
C
102
}
330
C
100
AcDbDictionary
281
     1
  3
CTABLESTYLE
350
138
  3
DIMASSOC
350
96
  3
INDEXCTL
350
95
  3
PROJECTNAME
350
1FA3
  0
DICTIONARY
  5
5B
102
{ACAD_REACTORS
330
C
102
}
330
C
100
AcDbDictionary
281
     1
  3
AcmBOM
350
1B5
  3
AcmStdDictionary
350
61
  3
AMDTSECTSYM_ARROWCOLOR
350
123
  0
DICTIONARY
  5
41
102
{ACAD_REACTORS
330
C
102
}
330
C
100
AcDbDictionary
281
     1
  0
DICTIONARY
  5
1B8
102
{ACAD_REACTORS
330
C
102
}
330
C
100
AcDbDictionary
281
     1
  0
XRECORD
  5
1FA5
102
{ACAD_REACTORS
330
C
102
}
330
C
100
AcDbXrecord
280
     1
  1
DWGPROPS COOKIE
  2

  3

  4

  6

  7

  8

  9

300
AmdtFileType=84
301
=
302
=
303
=
304
=
305
=
306
=
307
=
308
=
309
=
 40
0.0302352777777778
 41
2454144.463336945
 42
2454144.497872176
  1

 90
        1
  0
DICTIONARY
  5
5B7
102
{ACAD_REACTORS
330
3F9
102
}
330
3F9
100
AcDbDictionary
281
     1
  0
DICTIONARY
  5
113C
102
{ACAD_REACTORS
330
3F9
102
}
330
3F9
100
AcDbDictionary
281
     1
  0
DICTIONARY
  5
5B6
102
{ACAD_REACTORS
330
3F9
102
}
330
3F9
100
AcDbDictionary
281
     1
1001
ACAD
1000
<All
  0
DICTIONARY
  5
1F26
102
{ACAD_REACTORS
330
3F9
102
}
330
3F9
100
AcDbDictionary
280
     1
281
     1
  0
LAYOUT
  5
22
102
{ACAD_XDICTIONARY
360
1FA9
102
}
102
{ACAD_REACTORS
330
1A
102
}
330
1A
100
AcDbPlotSettings
  1

  2
\\RD\EPSON Stylus C63 Series單色
  4
A4
  6

 40
3.757083177566528
 41
3.757076978683471
 42
3.757080078125
 43
3.757080078125
 44
209.9733276367187
 45
296.9683227539062
 46
0.0
 47
0.0
 48
0.0
 49
0.0
140
0.0
141
0.0
142
1.0
143
0.3405120737814363
 70
 11952
 72
     1
 73
     0
 74
     0
  7
彩色出圖.ctb
 75
     0
147
2.936753428137963
148
-2047.07469463503
149
-1261.649717473083
100
AcDbLayout
  1
Model
 70
     1
 71
     0
 10
0.0
 20
0.0
 11
12.0
 21
9.0
 12
0.0
 22
0.0
 32
0.0
 14
0.0
 24
0.0
 34
0.0
 15
0.0
 25
0.0
 35
0.0
146
0.0
 13
0.0
 23
0.0
 33
0.0
 16
1.0
 26
0.0
 36
0.0
 17
0.0
 27
1.0
 37
0.0
 76
     0
330
1F
1001
ACAD_PSEXT
1000
\\RD\EPSON Stylus C63 Series單色
1000
EPSON Stylus C63 Series
1000
\\RD
1000

1070
     0
  0
LAYOUT
  5
1E
102
{ACAD_XDICTIONARY
360
1FA7
102
}
102
{ACAD_REACTORS
330
1A
102
}
330
1A
100
AcDbPlotSettings
  1

  2

  4

  6

 40
0.0
 41
0.0
 42
0.0
 43
0.0
 44
0.0
 45
0.0
 46
0.0
 47
0.0
 48
0.0
 49
0.0
140
0.0
141
0.0
142
1.0
143
1.0
 70
   688
 72
     0
 73
     0
 74
     5
  7
彩色出圖.ctb
 75
    16
147
1.0
148
0.0
149
0.0
100
AcDbLayout
  1
配置1
 70
     1
 71
     1
 10
0.0
 20
0.0
 11
420.0
 21
297.0
 12
0.0
 22
0.0
 32
0.0
 14
1.000000000000000E+20
 24
1.000000000000000E+20
 34
1.000000000000000E+20
 15
-1.000000000000000E+20
 25
-1.000000000000000E+20
 35
-1.000000000000000E+20
146
0.0
 13
0.0
 23
0.0
 33
0.0
 16
1.0
 26
0.0
 36
0.0
 17
0.0
 27
1.0
 37
0.0
 76
     0
330
1B
  0
LAYOUT
  5
26
102
{ACAD_XDICTIONARY
360
1FAB
102
}
102
{ACAD_REACTORS
330
1A
102
}
330
1A
100
AcDbPlotSettings
  1

  2

  4

  6

 40
0.0
 41
0.0
 42
0.0
 43
0.0
 44
0.0
 45
0.0
 46
0.0
 47
0.0
 48
0.0
 49
0.0
140
0.0
141
0.0
142
1.0
143
1.0
 70
   688
 72
     0
 73
     0
 74
     5
  7
彩色出圖.ctb
 75
    16
147
1.0
148
0.0
149
0.0
100
AcDbLayout
  1
配置2
 70
     1
 71
     2
 10
0.0
 20
0.0
 11
12.0
 21
9.0
 12
0.0
 22
0.0
 32
0.0
 14
0.0
 24
0.0
 34
0.0
 15
0.0
 25
0.0
 35
0.0
146
0.0
 13
0.0
 23
0.0
 33
0.0
 16
1.0
 26
0.0
 36
0.0
 17
0.0
 27
1.0
 37
0.0
 76
     0
330
23
  0
MLINESTYLE
  5
18
102
{ACAD_REACTORS
330
17
102
}
330
17
100
AcDbMlineStyle
  2
STANDARD
 70
     0
  3

 62
   256
 51
90.0
 52
90.0
 71
     2
 49
0.5
 62
   256
  6
BYLAYER
 49
-0.5
 62
   256
  6
BYLAYER
  0
ACDBPLACEHOLDER
  5
F
102
{ACAD_REACTORS
330
E
102
}
330
E
  0
TABLESTYLE
  5
11B
102
{ACAD_REACTORS
330
11A
102
}
330
11A
100
AcDbTableStyle
  3
Standard
 70
     0
 71
     0
 40
1.5
 41
1.5
280
     0
281
     0
  7
STANDARD
140
4.5
170
     2
 62
     0
 63
     7
283
     0
274
    -2
284
     1
 64
     0
275
    -2
285
     1
 65
     0
276
    -2
286
     1
 66
     0
277
    -2
287
     1
 67
     0
278
    -2
288
     1
 68
     0
279
    -2
289
     1
 69
     0
  7
STANDARD
140
6.0
170
     5
 62
     0
 63
     7
283
     0
274
    -2
284
     1
 64
     0
275
    -2
285
     1
 65
     0
276
    -2
286
     1
 66
     0
277
    -2
287
     1
 67
     0
278
    -2
288
     1
 68
     0
279
    -2
289
     1
 69
     0
  7
STANDARD
140
4.5
170
     5
 62
     0
 63
     7
283
     0
274
    -2
284
     1
 64
     0
275
    -2
285
     1
 65
     0
276
    -2
286
     1
 66
     0
277
    -2
287
     1
 67
     0
278
    -2
288
     1
 68
     0
279
    -2
289
     1
 69
     0
  0
DICTIONARYVAR
  5
138
102
{ACAD_REACTORS
330
94
102
}
330
94
100
DictionaryVariables
280
     0
  1
STANDARD
  0
DICTIONARYVAR
  5
96
102
{ACAD_REACTORS
330
94
102
}
330
94
100
DictionaryVariables
280
     0
  1
2
  0
DICTIONARYVAR
  5
95
102
{ACAD_REACTORS
330
94
102
}
330
94
100
DictionaryVariables
280
     0
  1
0
  0
DICTIONARYVAR
  5
1FA3
102
{ACAD_REACTORS
330
94
102
}
330
94
100
DictionaryVariables
280
     0
  1

  0
DICTIONARY
  5
1B5
102
{ACAD_REACTORS
330
5B
102
}
330
5B
100
AcDbDictionary
281
     1
  0
DICTIONARY
  5
61
102
{ACAD_REACTORS
330
5B
102
}
330
5B
100
AcDbDictionary
281
     1
  0
XRECORD
  5
123
102
{ACAD_REACTORS
330
5B
102
}
330
5B
100
AcDbXrecord
280
     1
 90
-1023410169
  0
DICTIONARY
  5
1FA9
330
22
100
AcDbDictionary
280
     1
281
     1
  3
ACAD_XREC_ROUNDTRIP
360
1FAA
  0
DICTIONARY
  5
1FA7
330
1E
100
AcDbDictionary
280
     1
281
     1
  3
ACAD_XREC_ROUNDTRIP
360
1FA8
  0
DICTIONARY
  5
1FAB
330
26
100
AcDbDictionary
280
     1
281
     1
  3
ACAD_XREC_ROUNDTRIP
360
1FAC
  0
XRECORD
  5
1FAA
102
{ACAD_REACTORS
330
1FA9
102
}
330
1FA9
100
AcDbXrecord
280
     1
102
SHADEPLOT
 70
     0
102
SHADEPLOTRESLEVEL
 70
     2
102
SHADEPLOTCUSTOMDPI
 70
   300
  0
XRECORD
  5
1FA8
102
{ACAD_REACTORS
330
1FA7
102
}
330
1FA7
100
AcDbXrecord
280
     1
102
SHADEPLOT
 70
     0
102
SHADEPLOTRESLEVEL
 70
     2
102
SHADEPLOTCUSTOMDPI
 70
   300
  0
XRECORD
  5
1FAC
102
{ACAD_REACTORS
330
1FAB
102
}
330
1FAB
100
AcDbXrecord
280
     1
102
SHADEPLOT
 70
     0
102
SHADEPLOTRESLEVEL
 70
     2
102
SHADEPLOTCUSTOMDPI
 70
   300
  0
ENDSEC
  0
EOF
