  0
SECTION
  2
HEADER
  9
$ACADVER
  1
AC1009
  9
$INSBASE
 10
0.0
 20
0.0
 30
0.0
  9
$EXTMIN
 10
1256.352311233605
 20
1055.7333163779469
 30
-0.0038865483021482
  9
$EXTMAX
 10
1360.0055772254379
 20
1208.7314601891101
 30
84.929294422757891
  9
$LIMMIN
 10
0.0
 20
0.0
  9
$LIMMAX
 10
420.0
 20
297.0
  9
$ORTHOMODE
 70
     0
  9
$REGENMODE
 70
     1
  9
$FILLMODE
 70
     1
  9
$QTEXTMODE
 70
     0
  9
$MIRRTEXT
 70
     1
  9
$DRAGMODE
 70
     2
  9
$LTSCALE
 40
1.0
  9
$OSMODE
 70
    37
  9
$ATTMODE
 70
     1
  9
$TEXTSIZE
 40
2.5
  9
$TRACEWID
 40
1.0
  9
$TEXTSTYLE
  7
STANDARD
  9
$CLAYER
  8
0
  9
$CELTYPE
  6
BYLAYER
  9
$CECOLOR
 62
   256
  9
$DIMSCALE
 40
1.0
  9
$DIMASZ
 40
3.5
  9
$DIMEXO
 40
1.0
  9
$DIMDLI
 40
8.0
  9
$DIMRND
 40
0.0
  9
$DIMDLE
 40
0.0
  9
$DIMEXE
 40
1.0
  9
$DIMTP
 40
0.1
  9
$DIMTM
 40
0.1
  9
$DIMTXT
 40
3.5
  9
$DIMCEN
 40
0.0
  9
$DIMTSZ
 40
0.0
  9
$DIMTOL
 70
     0
  9
$DIMLIM
 70
     0
  9
$DIMTIH
 70
     0
  9
$DIMTOH
 70
     0
  9
$DIMSE1
 70
     0
  9
$DIMSE2
 70
     0
  9
$DIMTAD
 70
     1
  9
$DIMZIN
 70
     8
  9
$DIMBLK
  1

  9
$DIMASO
 70
     1
  9
$DIMSHO
 70
     1
  9
$DIMPOST
  1

  9
$DIMAPOST
  1
"
  9
$DIMALT
 70
     0
  9
$DIMALTD
 70
     2
  9
$DIMALTF
 40
0.0393701
  9
$DIMLFAC
 40
1.0
  9
$DIMTOFL
 70
     1
  9
$DIMTVP
 40
0.0
  9
$DIMTIX
 70
     0
  9
$DIMSOXD
 70
     0
  9
$DIMSAH
 70
     0
  9
$DIMBLK1
  1

  9
$DIMBLK2
  1

  9
$DIMSTYLE
  2
AM_ISO
  9
$DIMCLRD
 70
   256
  9
$DIMCLRE
 70
   256
  9
$DIMCLRT
 70
   256
  9
$DIMTFAC
 40
0.71
  9
$DIMGAP
 40
1.0
  9
$LUNITS
 70
     2
  9
$LUPREC
 70
     2
  9
$SKETCHINC
 40
1.0
  9
$FILLETRAD
 40
2.5
  9
$AUNITS
 70
     0
  9
$AUPREC
 70
     0
  9
$MENU
  1
.
  9
$ELEVATION
 40
0.0
  9
$PELEVATION
 40
0.0
  9
$THICKNESS
 40
0.0
  9
$LIMCHECK
 70
     0
  9
$BLIPMODE
 70
     0
  9
$CHAMFERA
 40
2.5
  9
$CHAMFERB
 40
2.5
  9
$SKPOLY
 70
     0
  9
$TDCREATE
 40
2454929.5746417362
  9
$TDUPDATE
 40
2454931.4051205791
  9
$TDINDWG
 40
0.0900845718
  9
$TDUSRTIMER
 40
0.0900843981
  9
$USRTIMER
 70
     1
  9
$ANGBASE
 50
0.0
  9
$ANGDIR
 70
     0
  9
$PDMODE
 70
     0
  9
$PDSIZE
 40
0.0
  9
$PLINEWID
 40
0.0
  9
$COORDS
 70
     1
  9
$SPLFRAME
 70
     0
  9
$SPLINETYPE
 70
     6
  9
$SPLINESEGS
 70
     8
  9
$ATTDIA
 70
     1
  9
$ATTREQ
 70
     1
  9
$HANDLING
 70
     1
  9
$HANDSEED
  5
19CF
  9
$SURFTAB1
 70
     6
  9
$SURFTAB2
 70
     6
  9
$SURFTYPE
 70
     6
  9
$SURFU
 70
     6
  9
$SURFV
 70
     6
  9
$UCSNAME
  2

  9
$UCSORG
 10
0.0
 20
0.0
 30
0.0
  9
$UCSXDIR
 10
1.0
 20
0.0
 30
0.0
  9
$UCSYDIR
 10
0.0
 20
1.0
 30
0.0
  9
$PUCSNAME
  2

  9
$PUCSORG
 10
0.0
 20
0.0
 30
0.0
  9
$PUCSXDIR
 10
1.0
 20
0.0
 30
0.0
  9
$PUCSYDIR
 10
0.0
 20
1.0
 30
0.0
  9
$USERI1
 70
     0
  9
$USERI2
 70
     0
  9
$USERI3
 70
     0
  9
$USERI4
 70
     0
  9
$USERI5
 70
     0
  9
$USERR1
 40
0.0
  9
$USERR2
 40
0.0
  9
$USERR3
 40
0.0
  9
$USERR4
 40
0.0
  9
$USERR5
 40
0.0
  9
$WORLDVIEW
 70
     1
  9
$SHADEDGE
 70
     3
  9
$SHADEDIF
 70
    70
  9
$TILEMODE
 70
     1
  9
$MAXACTVP
 70
    64
  9
$PLIMCHECK
 70
     0
  9
$PEXTMIN
 10
1.0000000000000000E+020
 20
1.0000000000000000E+020
 30
1.0000000000000000E+020
  9
$PEXTMAX
 10
-1.0000000000000000E+020
 20
-1.0000000000000000E+020
 30
-1.0000000000000000E+020
  9
$PLIMMIN
 10
0.0
 20
0.0
  9
$PLIMMAX
 10
420.0
 20
297.0
  9
$UNITMODE
 70
     0
  9
$VISRETAIN
 70
     1
  9
$PLINEGEN
 70
     0
  9
$PSLTSCALE
 70
     1
  0
ENDSEC
  0
SECTION
  2
TABLES
  0
TABLE
  2
VPORT
 70
     3
  0
VPORT
  2
*ACTIVE
 70
     0
 10
0.0
 20
0.0
 11
1.0
 21
1.0
 12
1308.1789442295219
 22
1132.232388283529
 13
0.0
 23
0.0
 14
2.5
 24
2.5
 15
10.0
 25
10.0
 16
0.0
 26
0.0
 36
1.0
 17
0.0
 27
0.0
 37
0.0
 40
154.202853604952
 41
0.911957950065703
 42
50.0
 43
0.0
 44
0.0
 50
0.0
 51
0.0
 71
     0
 72
   100
 73
     1
 74
     3
 75
     0
 76
     0
 77
     0
 78
     0
  0
ENDTAB
  0
TABLE
  2
LTYPE
 70
    16
  0
LTYPE
  2
CONTINUOUS
 70
     0
  3
Solid line
 72
    65
 73
     0
 40
0.0
  0
LTYPE
  2
AM_ISO02W050
 70
     0
  3
__ __ __ __ __ __ __ __ __ __ __ __ __ __ __
 72
    65
 73
     2
 40
7.5
 49
6.0
 49
-1.5
  0
LTYPE
  2
AM_ISO08W050
 70
     0
  3
____ . ____ . ____ . ____ . ____ . ____ . ____
 72
    65
 73
     4
 40
18.0
 49
12.0
 49
-1.5
 49
3.0
 49
-1.5
  0
LTYPE
  2
AM_ISO09W050
 70
     0
  3
_____ . . _____ . . _____ . . ____ .. ____
 72
    65
 73
     6
 40
22.5
 49
12.0
 49
-1.5
 49
3.0
 49
-1.5
 49
3.0
 49
-1.5
  0
LTYPE
  2
AMCONSTR
 70
     0
  3
_______________________
 72
    65
 73
     2
 40
9999.0
 49
9999.0
 49
0.0
  0
LTYPE
  2
AM_ISO08W050X2
 70
     0
  3
__ . __ . __ . __ . __ . __
 72
    65
 73
     4
 40
9.0
 49
6.0
 49
-0.75
 49
1.5
 49
-0.75
  0
LTYPE
  2
AM_ISO02W050X2
 70
     0
  3
 _ _ _ _ _ _ _ _ _ _ _ _
 72
    65
 73
     2
 40
3.75
 49
3.0
 49
-0.75
  0
LTYPE
  2
AMZIGZAG
 70
     0
  3
/\/-/\/-/\/-/\/-/\/-/\/
 72
    65
 73
     2
 40
11.0001
 49
0.0001
 49
-11.0
  0
LTYPE
  2
ACISOWELD
 70
     0
  3
_ _ _ _ _
 72
    65
 73
     2
 40
2.0
 49
2.0
 49
-1.0
  0
LTYPE
  2
ACISOTGB
 70
     0
  3
__ . . __ . .
 72
    65
 73
     6
 40
9.0
 49
4.0
 49
-1.0
 49
1.0
 49
-1.0
 49
1.0
 49
-1.0
  0
LTYPE
  2
ACISOTGL
 70
     0
  3
_ _ _ _ _
 72
    65
 73
     2
 40
3.0
 49
2.0
 49
-1.0
  0
LTYPE
  2
CENTER
 70
     0
  3
__ . __
 72
    65
 73
     4
 40
7.0
 49
4.0
 49
-1.0
 49
1.0
 49
-1.0
  0
LTYPE
  2
HIDDEN
 70
     0
  3
Hidden __ __ __ __ __ __ __ __ __ __ __ __ __ _
 72
    65
 73
     2
 40
9.5249999999999986
 49
6.3499999999999988
 49
-3.1749999999999989
  0
LTYPE
  2
PHANTOM2
 70
     0
  3
Phantom (.5x) ___ _ _ ___ _ _ ___ _ _ ___ _ _
 72
    65
 73
     6
 40
31.75
 49
15.875
 49
-3.1749999999999989
 49
3.1749999999999989
 49
-3.1749999999999989
 49
3.1749999999999989
 49
-3.1749999999999989
  0
LTYPE
  2
ACANSTGB
 70
     0
  3
__ . . __ . .
 72
    65
 73
     6
 40
0.35433070866
 49
0.15748031496
 49
-0.03937007874
 49
0.03937007874
 49
-0.03937007874
 49
0.03937007874
 49
-0.03937007874
  0
LTYPE
  2
ACANSTGL
 70
     0
  3
_ _ _ _ _
 72
    65
 73
     2
 40
0.11811023622
 49
0.07874015748
 49
-0.03937007874
  0
ENDTAB
  0
TABLE
  2
LAYER
 70
     8
  0
LAYER
  2
0
 70
     0
 62
     7
  6
CONTINUOUS
  0
LAYER
  2
AM_5
 70
     0
 62
     5
  6
CONTINUOUS
  0
LAYER
  2
AM_VIS
 70
     0
 62
     7
  6
CONTINUOUS
  0
LAYER
  2
AM_7
 70
     0
 62
     1
  6
AM_ISO08W050X2
  0
LAYER
  2
AM_4
 70
     0
 62
     3
  6
CONTINUOUS
  0
LAYER
  2
DEFPOINTS
 70
     0
 62
     7
  6
CONTINUOUS
  0
LAYER
  2
HIDDEN
 70
     0
 62
     3
  6
AM_ISO02W050X2
  0
LAYER
  2
LOGO
 70
     0
 62
     7
  6
CONTINUOUS
  0
ENDTAB
  0
TABLE
  2
STYLE
 70
     7
  0
STYLE
  2
STANDARD
 70
     0
 40
0.0
 41
1.0
 50
0.0
 71
     0
 42
2.5
  3
ISOCP.SHX
  4
chineset.shx
  0
STYLE
  2

 70
     1
 40
0.0
 41
1.0
 50
0.0
 71
     0
 42
2.5
  3
ltypeshp.shx
  4

  0
STYLE
  2
ACISOTS
 70
     0
 40
1.0
 41
1.0
 50
0.0
 71
     0
 42
2.5
  3
isocp.shx
  4
chineset.shx
  0
STYLE
  2
ACISOGDT
 70
     0
 40
0.0
 41
1.0
 50
0.0
 71
     0
 42
2.5
  3
amgdt.shx
  4
chineset.shx
  0
STYLE
  2
CHINESET
 70
     0
 40
0.0
 41
1.0
 50
0.0
 71
     0
 42
4.0
  3
C:\r13\com\fonts\simplex.shx
  4
C:\r13\com\fonts\chineset.shx
  0
STYLE
  2
ACANSTS
 70
     0
 40
1.0
 41
1.0
 50
0.0
 71
     0
 42
6.0
  3
romans.shx
  4
chineset.shx
  0
STYLE
  2
ACANSGDT
 70
     0
 40
0.0
 41
1.0
 50
0.0
 71
     0
 42
6.0
  3
amgdtans.shx
  4

  0
ENDTAB
  0
TABLE
  2
VIEW
 70
     0
  0
ENDTAB
  0
TABLE
  2
UCS
 70
     0
  0
ENDTAB
  0
TABLE
  2
APPID
 70
    16
  0
APPID
  2
ACAD
 70
     0
  0
APPID
  2
MCAD_NO_VIS
 70
     0
  0
APPID
  2
ACAD_TEMP_GRAPHIC
 70
     0
  0
APPID
  2
ACATTRIBSERVICES
 70
     0
  0
APPID
  2
AD_DRAW
 70
     0
  0
APPID
  2
DESIGNERASSEMBLIES
 70
     0
  0
APPID
  2
ACADM_DIM_EDIT
 70
     0
  0
APPID
  2
AMDT_DM_ADJ
 70
     0
  0
APPID
  2
GENIUS_GENODEF_13
 70
     0
  0
APPID
  2
GENIUS_GENOENT_13
 70
     0
  0
APPID
  2
GENIUS_GENOBJ-N-CRS_13
 70
     0
  0
APPID
  2
GENIUS_GENOLIS_13
 70
     0
  0
APPID
  2
GENIUS_GENOREF_13
 70
     0
  0
APPID
  2
GENIUS_GENREC_14
 70
     0
  0
APPID
  2
GENIUS_GENOBJ-N-REC_13
 70
     0
  0
APPID
  2
ACAD_DSTYLE_DIMTEXT_FILL
 70
     0
  0
ENDTAB
  0
TABLE
  2
DIMSTYLE
 70
    14
  0
DIMSTYLE
  2
AM_ISO
 70
     0
  3

  4
"
  5

  6

  7

 40
1.0
 41
3.5
 42
1.0
 43
8.0
 44
1.0
 45
0.0
 46
0.0
 47
0.1
 48
0.1
140
3.5
141
0.0
142
0.0
143
0.0393701
144
1.0
145
0.0
146
0.71
147
1.0
 71
     0
 72
     0
 73
     0
 74
     0
 75
     0
 76
     0
 77
     1
 78
     8
170
     0
171
     2
172
     1
173
     0
174
     0
175
     0
176
   256
177
   256
178
   256
  0
DIMSTYLE
  2
AM_ISO$3
 70
     0
  3

  4
"
  5

  6

  7

 40
1.0
 41
3.5
 42
1.0
 43
8.0
 44
1.0
 45
0.0
 46
0.0
 47
0.1
 48
0.1
140
3.5
141
0.0
142
0.0
143
0.0393701
144
1.0
145
0.0
146
0.71
147
1.0
 71
     0
 72
     0
 73
     0
 74
     1
 75
     0
 76
     0
 77
     1
 78
     8
170
     0
171
     2
172
     0
173
     0
174
     0
175
     0
176
   256
177
   256
178
   256
  0
DIMSTYLE
  2
AM_ISO$4
 70
     0
  3

  4
"
  5

  6

  7

 40
1.0
 41
3.5
 42
1.0
 43
8.0
 44
1.0
 45
0.0
 46
0.0
 47
0.1
 48
0.1
140
3.5
141
0.0
142
0.0
143
0.0393701
144
1.0
145
0.0
146
0.71
147
1.0
 71
     0
 72
     0
 73
     0
 74
     1
 75
     0
 76
     0
 77
     1
 78
     8
170
     0
171
     2
172
     0
173
     0
174
     0
175
     0
176
   256
177
   256
178
   256
  0
DIMSTYLE
  2
AM_ISO$6
 70
     0
  3

  4
"
  5

  6

  7

 40
1.0
 41
3.5
 42
1.0
 43
8.0
 44
1.0
 45
0.0
 46
0.0
 47
0.1
 48
0.1
140
3.5
141
0.0
142
0.0
143
0.0393701
144
1.0
145
0.0
146
0.71
147
1.0
 71
     0
 72
     0
 73
     0
 74
     0
 75
     0
 76
     0
 77
     0
 78
     8
170
     0
171
     2
172
     1
173
     0
174
     0
175
     0
176
   256
177
   256
178
   256
  0
DIMSTYLE
  2
AM_ISO$7
 70
     0
  3

  4
"
  5

  6

  7

 40
1.0
 41
3.5
 42
1.0
 43
8.0
 44
1.0
 45
0.0
 46
0.0
 47
0.1
 48
0.1
140
3.5
141
0.0
142
0.0
143
0.0393701
144
1.0
145
0.0
146
0.71
147
1.0
 71
     0
 72
     0
 73
     0
 74
     0
 75
     0
 76
     0
 77
     1
 78
     8
170
     0
171
     2
172
     1
173
     0
174
     0
175
     0
176
   256
177
   256
178
   256
  0
DIMSTYLE
  2
AM_ISO$SF
 70
     0
  3

  4
"
  5

  6

  7

 40
1.0
 41
2.5
 42
1.0
 43
10.0
 44
1.0
 45
0.0
 46
0.0
 47
0.1
 48
0.1
140
3.5
141
0.0
142
0.0
143
0.0393701
144
1.0
145
0.0
146
0.71
147
1.5
 71
     0
 72
     0
 73
     0
 74
     0
 75
     1
 76
     1
 77
     1
 78
     8
170
     0
171
     2
172
     1
173
     0
174
     0
175
     0
176
   256
177
   256
178
     2
  0
DIMSTYLE
  2
AM_ISO$SH
 70
     0
  3

  4
"
  5

  6
GENAXEH
  7

 40
1.0
 41
2.5
 42
1.0
 43
10.0
 44
1.0
 45
0.0
 46
0.0
 47
0.1
 48
0.1
140
3.5
141
0.0
142
0.0
143
0.0393701
144
2.0
145
0.0
146
0.71
147
1.5
 71
     0
 72
     0
 73
     0
 74
     0
 75
     1
 76
     1
 77
     1
 78
     8
170
     0
171
     2
172
     1
173
     1
174
     0
175
     0
176
   256
177
   256
178
     2
  0
DIMSTYLE
  2
STANDARD
 70
     0
  3

  4

  5

  6

  7

 40
1.0
 41
3.0
 42
2.0
 43
8.0
 44
2.0
 45
0.0
 46
0.0
 47
0.0
 48
0.0
140
3.0
141
-3.0
142
0.0
143
25.399999999999999
144
1.0
145
0.0
146
0.5
147
1.0
 71
     0
 72
     0
 73
     0
 74
     0
 75
     0
 76
     0
 77
     1
 78
     8
170
     0
171
     2
172
     0
173
     0
174
     0
175
     0
176
   256
177
   256
178
   256
  0
DIMSTYLE
  2
AM_ANSI
 70
     0
  3

  4
mm
  5

  6

  7

 40
1.0
 41
0.1
 42
0.05
 43
0.5
 44
0.1
 45
0.0
 46
0.0
 47
0.1
 48
0.1
140
0.12
141
0.0
142
0.0
143
25.399999999999999
144
1.0
145
0.0
146
0.71
147
0.06
 71
     0
 72
     0
 73
     1
 74
     1
 75
     0
 76
     0
 77
     0
 78
     7
170
     0
171
     2
172
     0
173
     0
174
     0
175
     0
176
   256
177
   256
178
     2
  0
DIMSTYLE
  2
AM_ANSI$3
 70
     0
  3

  4
mm
  5

  6

  7

 40
1.0
 41
0.1
 42
0.05
 43
0.5
 44
0.1
 45
0.0
 46
0.0
 47
0.1
 48
0.1
140
0.12
141
0.0
142
0.0
143
25.399999999999999
144
1.0
145
0.0
146
0.71
147
0.06
 71
     0
 72
     0
 73
     1
 74
     1
 75
     0
 76
     0
 77
     0
 78
     7
170
     0
171
     2
172
     0
173
     0
174
     0
175
     0
176
   256
177
   256
178
     2
  0
DIMSTYLE
  2
AM_ANSI$4
 70
     0
  3

  4
mm
  5

  6

  7

 40
1.0
 41
0.1
 42
0.05
 43
0.5
 44
0.1
 45
0.0
 46
0.0
 47
0.1
 48
0.1
140
0.12
141
0.0
142
0.0
143
25.399999999999999
144
1.0
145
0.0
146
0.71
147
0.06
 71
     0
 72
     0
 73
     1
 74
     1
 75
     0
 76
     0
 77
     0
 78
     7
170
     0
171
     2
172
     0
173
     0
174
     0
175
     0
176
   256
177
   256
178
     2
  0
DIMSTYLE
  2
AM_ANSI$7
 70
     0
  3

  4
mm
  5

  6

  7

 40
1.0
 41
0.1
 42
0.05
 43
0.5
 44
0.1
 45
0.0
 46
0.0
 47
0.1
 48
0.1
140
0.24
141
0.0
142
0.0
143
25.399999999999999
144
1.0
145
0.0
146
0.71
147
0.06
 71
     0
 72
     0
 73
     1
 74
     1
 75
     0
 76
     0
 77
     0
 78
     7
170
     0
171
     2
172
     0
173
     0
174
     0
175
     0
176
   256
177
   256
178
     2
  0
DIMSTYLE
  2
AM_ANSI$SF
 70
     0
  3

  4
mm
  5

  6

  7

 40
1.0
 41
0.1
 42
0.05
 43
0.5
 44
0.1
 45
0.0
 46
0.0
 47
0.1
 48
0.1
140
0.12
141
0.0
142
0.0
143
25.399999999999999
144
1.0
145
0.0
146
0.71
147
0.06
 71
     0
 72
     0
 73
     1
 74
     1
 75
     1
 76
     1
 77
     0
 78
     7
170
     0
171
     2
172
     0
173
     0
174
     0
175
     0
176
   256
177
   256
178
     2
  0
DIMSTYLE
  2
AM_ANSI$SH
 70
     0
  3

  4
mm
  5

  6
GENAXEH
  7

 40
1.0
 41
0.1
 42
0.05
 43
0.5
 44
0.1
 45
0.0
 46
0.0
 47
0.1
 48
0.1
140
0.12
141
0.0
142
0.0
143
25.399999999999999
144
1.0
145
0.0
146
0.71
147
0.06
 71
     0
 72
     0
 73
     1
 74
     1
 75
     1
 76
     1
 77
     0
 78
     7
170
     0
171
     2
172
     0
173
     1
174
     0
175
     0
176
   256
177
   256
178
     2
  0
ENDTAB
  0
ENDSEC
  0
SECTION
  2
BLOCKS
  0
BLOCK
  8
0
  2
$MODEL_SPACE
 70
     0
 10
0.0
 20
0.0
 30
0.0
  3
$MODEL_SPACE
  1

  0
ENDBLK
  5
21
  8
0
  0
BLOCK
 67
     1
  8
0
  2
$PAPER_SPACE
 70
     0
 10
0.0
 20
0.0
 30
0.0
  3
$PAPER_SPACE
  1

  0
ENDBLK
  5
1D
 67
     1
  8
0
  0
BLOCK
  8
0
  2
GENAXEH
 70
     0
 10
0.0
 20
0.0
 30
0.0
  3
GENAXEH
  1

  0
LINE
  5
71
  8
0
 10
-1.0
 20
0.0
 30
0.0
 11
1.0
 21
0.0
 31
0.0
  0
ENDBLK
  5
73
  8
0
  0
BLOCK
  8
0
  2
_DOTSMALL
 70
     0
 10
0.0
 20
0.0
 30
0.0
  3
_DOTSMALL
  1

  0
POLYLINE
  5
A4B
  8
0
  6
BYBLOCK
 62
     0
 66
     1
 10
0.0
 20
0.0
 30
0.0
 70
     1
 40
0.5
 41
0.5
  0
VERTEX
  5
A4C
  8
0
  6
BYBLOCK
 62
     0
 10
-0.0625
 20
0.0
 30
0.0
 42
1.0
  0
VERTEX
  5
A4D
  8
0
  6
BYBLOCK
 62
     0
 10
0.0625
 20
0.0
 30
0.0
 42
1.0
  0
SEQEND
  5
A4E
  8
0
  6
BYBLOCK
 62
     0
  0
ENDBLK
  5
A4F
  8
0
  0
BLOCK
  8
0
  2
*U3
 70
     1
 10
0.0
 20
0.0
 30
0.0
  3
*U3
  1

  0
SOLID
  5
A52
  8
AM_5
 10
312.72154929703078
 20
-114.40164277411721
 30
0.0
 11
310.63274567787028
 21
-116.3237970911167
 31
0.0
 12
311.98523959318442
 22
-113.8280931850381
 32
0.0
 13
311.98523959318442
 23
-113.8280931850381
 33
0.0
  0
POLYLINE
  5
A53
  8
AM_5
 66
     1
 10
0.0
 20
0.0
 30
0.0
  0
VERTEX
  5
A54
  8
AM_5
 10
312.3533944451076
 20
-114.1148679795777
 30
0.0
  0
VERTEX
  5
A55
  8
AM_5
 10
316.11127969248003
 20
-109.29058176916671
 30
0.0
  0
VERTEX
  5
A56
  8
AM_5
 10
332.31127969248001
 20
-109.29058176916671
 30
0.0
  0
SEQEND
  5
A57
  8
AM_5
  0
ENDBLK
  5
A58
  8
0
  0
BLOCK
  8
0
  2
*U4
 70
     1
 10
0.0
 20
0.0
 30
0.0
  3
*U4
  1

  0
TEXT
  5
A5B
  8
AM_5
 10
317.53007770607752
 20
-108.55903820723501
 30
0.0
 40
3.0
  1
M12*0.8
  0
ENDBLK
  5
A5C
  8
0
  0
BLOCK
  8
0
  2
*U5
 70
     1
 10
0.0
 20
0.0
 30
0.0
  3
*U5
  1

  0
SOLID
  5
A5F
  8
AM_5
 10
315.28488006342582
 20
-135.61623089230679
 30
0.0
 11
313.18274567787012
 21
-137.52379709111671
 31
0.0
 12
314.5525810591871
 22
-135.03756926449449
 32
0.0
 13
314.5525810591871
 23
-135.03756926449449
 33
0.0
  0
POLYLINE
  5
A60
  8
AM_5
 66
     1
 10
0.0
 20
0.0
 30
0.0
  0
VERTEX
  5
A61
  8
AM_5
 10
314.91873056130652
 20
-135.32690007840071
 30
0.0
  0
VERTEX
  5
A62
  8
AM_5
 10
318.934296298535
 20
-130.24518280271809
 30
0.0
  0
VERTEX
  5
A63
  8
AM_5
 10
337.83429629853509
 20
-130.24518280271809
 30
0.0
  0
SEQEND
  5
A64
  8
AM_5
  0
ENDBLK
  5
A65
  8
0
  0
BLOCK
  8
0
  2
*U6
 70
     1
 10
0.0
 20
0.0
 30
0.0
  3
*U6
  1

  0
TEXT
  5
A68
  8
AM_5
 10
320.35309431213261
 20
-129.51363924078649
 30
0.0
 40
3.0
  1
3-M5*0.8
  0
ENDBLK
  5
A69
  8
0
  0
BLOCK
  8
0
  2
*U7
 70
     1
 10
0.0
 20
0.0
 30
0.0
  3
*U7
  1

  0
SOLID
  5
A6C
  8
AM_5
 10
315.41786943491599
 20
-121.038258994999
 30
0.0
 11
312.99899483238693
 21
-122.52379709111671
 31
0.0
 12
314.80532331711947
 22
-120.3340584804553
 32
0.0
 13
314.80532331711947
 23
-120.3340584804553
 33
0.0
  0
POLYLINE
  5
A6D
  8
AM_5
 66
     1
 10
0.0
 20
0.0
 30
0.0
  0
VERTEX
  5
A6E
  8
AM_5
 10
315.11159637601781
 20
-120.6861587377272
 30
0.0
  0
VERTEX
  5
A6F
  8
AM_5
 10
318.75054545305181
 20
-117.52083283415131
 30
0.0
  0
VERTEX
  5
A70
  8
AM_5
 10
337.65054545305168
 20
-117.52083283415131
 30
0.0
  0
SEQEND
  5
A71
  8
AM_5
  0
ENDBLK
  5
A72
  8
0
  0
BLOCK
  8
0
  2
*U8
 70
     1
 10
0.0
 20
0.0
 30
0.0
  3
*U8
  1

  0
TEXT
  5
A75
  8
AM_5
 10
320.16934346664931
 20
-116.78928927221961
 30
0.0
 40
3.0
  1
\U+22051.5 thru
  0
ENDBLK
  5
A76
  8
0
  0
BLOCK
  8
0
  2
*D9
 70
     1
 10
0.0
 20
0.0
 30
0.0
  3
*D9
  1

  0
LINE
  5
1765
  8
AM_5
 10
1305.858106635066
 20
1142.5108726298611
 30
0.0
 11
1305.858106635066
 21
1149.9264396135061
 31
0.0
  0
LINE
  5
1766
  8
AM_5
 10
1316.4463604985251
 20
1142.5108726298611
 30
0.0
 11
1316.4463604985251
 21
1149.9264396135061
 31
0.0
  0
LINE
  5
1767
  8
AM_5
 10
1308.6581066350659
 20
1149.1264396135059
 30
0.0
 11
1313.6463604985249
 21
1149.1264396135059
 31
0.0
  0
SOLID
  5
1768
  8
AM_5
 10
1308.6581066350659
 20
1149.5931062801731
 30
0.0
 11
1308.6581066350659
 21
1148.659772946839
 31
0.0
 12
1305.858106635066
 22
1149.1264396135059
 32
0.0
 13
1305.858106635066
 23
1149.1264396135059
 33
0.0
  0
SOLID
  5
1769
  8
AM_5
 10
1313.6463604985249
 20
1149.5931062801731
 30
0.0
 11
1313.6463604985249
 21
1148.659772946839
 31
0.0
 12
1316.4463604985251
 22
1149.1264396135059
 32
0.0
 13
1316.4463604985251
 23
1149.1264396135059
 33
0.0
  0
INSERT
  5
176A
  8
0
  2
*U22
 10
0.0
 20
0.0
 30
0.0
  0
POINT
  5
176B
  8
DEFPOINTS
 62
     0
 10
1305.858106635066
 20
1141.7108726298609
 30
0.0
  0
POINT
  5
176C
  8
DEFPOINTS
 62
     0
 10
1316.4463604985251
 20
1141.7108726298609
 30
0.0
  0
POINT
  5
176D
  8
DEFPOINTS
 62
     0
 10
1316.4463604985251
 20
1149.1264396135059
 30
0.0
  0
ENDBLK
  5
1072
  8
0
  0
BLOCK
  8
0
  2
*D10
 70
     1
 10
0.0
 20
0.0
 30
0.0
  3
*D10
  1

  0
LINE
  5
186D
  8
AM_5
 10
1310.3522335667949
 20
1143.4608726298609
 30
0.0
 11
1279.5040273445679
 21
1143.4608726298609
 31
0.0
  0
LINE
  5
186E
  8
AM_5
 10
1302.6022335667949
 20
1131.4608726298609
 30
0.0
 11
1279.5040273445679
 21
1131.4608726298609
 31
0.0
  0
LINE
  5
186F
  8
AM_5
 10
1280.3040273445681
 20
1140.6608726298609
 30
0.0
 11
1280.3040273445681
 21
1134.2608726298611
 31
0.0
  0
SOLID
  5
1870
  8
AM_5
 10
1279.837360677901
 20
1140.6608726298609
 30
0.0
 11
1280.770694011235
 21
1140.6608726298609
 31
0.0
 12
1280.3040273445681
 22
1143.4608726298609
 32
0.0
 13
1280.3040273445681
 23
1143.4608726298609
 33
0.0
  0
SOLID
  5
1871
  8
AM_5
 10
1279.837360677901
 20
1134.2608726298611
 30
0.0
 11
1280.770694011235
 21
1134.2608726298611
 31
0.0
 12
1280.3040273445681
 22
1131.4608726298609
 32
0.0
 13
1280.3040273445681
 23
1131.4608726298609
 33
0.0
  0
INSERT
  5
1872
  8
0
  2
*U28
 10
0.0
 20
0.0
 30
0.0
  0
POINT
  5
1873
  8
DEFPOINTS
 62
     0
 10
1311.1522335667951
 20
1143.4608726298609
 30
0.0
  0
POINT
  5
1874
  8
DEFPOINTS
 62
     0
 10
1303.4022335667951
 20
1131.4608726298609
 30
0.0
  0
POINT
  5
1875
  8
DEFPOINTS
 62
     0
 10
1280.3040273445681
 20
1131.4608726298609
 30
0.0
  0
ENDBLK
  5
107E
  8
0
  0
BLOCK
  8
0
  2
*D11
 70
     1
 10
0.0
 20
0.0
 30
0.0
  3
*D11
  1

  0
LINE
  5
185A
  8
AM_5
 10
1302.6022335667949
 20
1096.560872629861
 30
0.0
 11
1279.5040273445679
 21
1096.560872629861
 31
0.0
  0
LINE
  5
185B
  8
AM_5
 10
1301.2919064279711
 20
1122.360872629861
 30
0.0
 11
1279.5040273445679
 21
1122.360872629861
 31
0.0
  0
LINE
  5
185C
  8
AM_5
 10
1280.3040273445681
 20
1099.3608726298601
 30
0.0
 11
1280.3040273445681
 21
1119.560872629861
 31
0.0
  0
SOLID
  5
185D
  8
AM_5
 10
1279.837360677901
 20
1099.3608726298601
 30
0.0
 11
1280.770694011235
 21
1099.3608726298601
 31
0.0
 12
1280.3040273445681
 22
1096.560872629861
 32
0.0
 13
1280.3040273445681
 23
1096.560872629861
 33
0.0
  0
SOLID
  5
185E
  8
AM_5
 10
1279.837360677901
 20
1119.560872629861
 30
0.0
 11
1280.770694011235
 21
1119.560872629861
 31
0.0
 12
1280.3040273445681
 22
1122.360872629861
 32
0.0
 13
1280.3040273445681
 23
1122.360872629861
 33
0.0
  0
INSERT
  5
185F
  8
0
  2
*U27
 10
0.0
 20
0.0
 30
0.0
  0
POINT
  5
1860
  8
DEFPOINTS
 62
     0
 10
1303.4022335667951
 20
1096.560872629861
 30
0.0
  0
POINT
  5
1861
  8
DEFPOINTS
 62
     0
 10
1302.091906427971
 20
1122.360872629861
 30
0.0
  0
POINT
  5
1862
  8
DEFPOINTS
 62
     0
 10
1280.3040273445681
 20
1122.360872629861
 30
0.0
  0
ENDBLK
  5
108A
  8
0
  0
BLOCK
  8
0
  2
*D12
 70
     1
 10
0.0
 20
0.0
 30
0.0
  3
*D12
  1

  0
LINE
  5
1851
  8
AM_5
 10
1302.6022335667949
 20
1096.560872629861
 30
0.0
 11
1295.5040273445679
 21
1096.560872629861
 31
0.0
  0
LINE
  5
1852
  8
AM_5
 10
1301.2919064279711
 20
1105.7608726298611
 30
0.0
 11
1295.5040273445679
 21
1105.7608726298611
 31
0.0
  0
LINE
  5
1853
  8
AM_5
 10
1296.3040273445681
 20
1099.3608726298601
 30
0.0
 11
1296.3040273445681
 21
1102.9608726298609
 31
0.0
  0
SOLID
  5
1854
  8
AM_5
 10
1295.837360677901
 20
1099.3608726298601
 30
0.0
 11
1296.770694011235
 21
1099.3608726298601
 31
0.0
 12
1296.3040273445681
 22
1096.560872629861
 32
0.0
 13
1296.3040273445681
 23
1096.560872629861
 33
0.0
  0
SOLID
  5
1855
  8
AM_5
 10
1295.837360677901
 20
1102.9608726298609
 30
0.0
 11
1296.770694011235
 21
1102.9608726298609
 31
0.0
 12
1296.3040273445681
 22
1105.7608726298611
 32
0.0
 13
1296.3040273445681
 23
1105.7608726298611
 33
0.0
  0
INSERT
  5
1856
  8
0
  2
*U26
 10
0.0
 20
0.0
 30
0.0
  0
POINT
  5
1857
  8
DEFPOINTS
 62
     0
 10
1303.4022335667951
 20
1096.560872629861
 30
0.0
  0
POINT
  5
1858
  8
DEFPOINTS
 62
     0
 10
1302.091906427971
 20
1105.7608726298611
 30
0.0
  0
POINT
  5
1859
  8
DEFPOINTS
 62
     0
 10
1296.3040273445681
 20
1105.7608726298611
 30
0.0
  0
ENDBLK
  5
1096
  8
0
  0
BLOCK
  8
0
  2
*D13
 70
     1
 10
0.0
 20
0.0
 30
0.0
  3
*D13
  1

  0
LINE
  5
1848
  8
AM_5
 10
1310.3522335667949
 20
1143.4608726298609
 30
0.0
 11
1271.5040273445679
 21
1143.4608726298609
 31
0.0
  0
LINE
  5
1849
  8
AM_5
 10
1302.6022335667949
 20
1096.560872629861
 30
0.0
 11
1271.5040273445679
 21
1096.560872629861
 31
0.0
  0
LINE
  5
184A
  8
AM_5
 10
1272.3040273445681
 20
1140.6608726298609
 30
0.0
 11
1272.3040273445681
 21
1099.3608726298601
 31
0.0
  0
SOLID
  5
184B
  8
AM_5
 10
1271.837360677901
 20
1140.6608726298609
 30
0.0
 11
1272.770694011235
 21
1140.6608726298609
 31
0.0
 12
1272.3040273445681
 22
1143.4608726298609
 32
0.0
 13
1272.3040273445681
 23
1143.4608726298609
 33
0.0
  0
SOLID
  5
184C
  8
AM_5
 10
1271.837360677901
 20
1099.3608726298601
 30
0.0
 11
1272.770694011235
 21
1099.3608726298601
 31
0.0
 12
1272.3040273445681
 22
1096.560872629861
 32
0.0
 13
1272.3040273445681
 23
1096.560872629861
 33
0.0
  0
INSERT
  5
184D
  8
0
  2
*U25
 10
0.0
 20
0.0
 30
0.0
  0
POINT
  5
184E
  8
DEFPOINTS
 62
     0
 10
1311.1522335667951
 20
1143.4608726298609
 30
0.0
  0
POINT
  5
184F
  8
DEFPOINTS
 62
     0
 10
1303.4022335667951
 20
1096.560872629861
 30
0.0
  0
POINT
  5
1850
  8
DEFPOINTS
 62
     0
 10
1272.3040273445681
 20
1096.560872629861
 30
0.0
  0
ENDBLK
  5
10A2
  8
0
  0
BLOCK
  8
0
  2
*D14
 70
     1
 10
0.0
 20
0.0
 30
0.0
  3
*D14
  1

  0
LINE
  5
183F
  8
AM_5
 10
1302.6022335667949
 20
1096.560872629861
 30
0.0
 11
1287.5040273445679
 21
1096.560872629861
 31
0.0
  0
LINE
  5
1840
  8
AM_5
 10
1313.564324777544
 20
1114.060872629861
 30
0.0
 11
1287.5040273445679
 21
1114.060872629861
 31
0.0
  0
LINE
  5
1841
  8
AM_5
 10
1288.3040273445681
 20
1099.3608726298601
 30
0.0
 11
1288.3040273445681
 21
1111.2608726298611
 31
0.0
  0
SOLID
  5
1842
  8
AM_5
 10
1287.837360677901
 20
1099.3608726298601
 30
0.0
 11
1288.770694011235
 21
1099.3608726298601
 31
0.0
 12
1288.3040273445681
 22
1096.560872629861
 32
0.0
 13
1288.3040273445681
 23
1096.560872629861
 33
0.0
  0
SOLID
  5
1843
  8
AM_5
 10
1287.837360677901
 20
1111.2608726298611
 30
0.0
 11
1288.770694011235
 21
1111.2608726298611
 31
0.0
 12
1288.3040273445681
 22
1114.060872629861
 32
0.0
 13
1288.3040273445681
 23
1114.060872629861
 33
0.0
  0
INSERT
  5
1844
  8
0
  2
*U24
 10
0.0
 20
0.0
 30
0.0
  0
POINT
  5
1845
  8
DEFPOINTS
 62
     0
 10
1303.4022335667951
 20
1096.560872629861
 30
0.0
  0
POINT
  5
1846
  8
DEFPOINTS
 62
     0
 10
1314.364324777544
 20
1114.060872629861
 30
0.0
  0
POINT
  5
1847
  8
DEFPOINTS
 62
     0
 10
1288.3040273445681
 20
1114.060872629861
 30
0.0
  0
ENDBLK
  5
10AE
  8
0
  0
BLOCK
  8
0
  2
*D15
 70
     1
 10
0.0
 20
0.0
 30
0.0
  3
*D15
  1

  0
LINE
  5
176E
  8
AM_5
 10
1302.6522335667951
 20
1182.401676511085
 30
0.0
 11
1302.6522335667951
 21
1191.793100734558
 31
0.0
  0
LINE
  5
176F
  8
AM_5
 10
1319.6522335667951
 20
1182.401676511085
 30
0.0
 11
1319.6522335667951
 21
1191.793100734558
 31
0.0
  0
LINE
  5
1770
  8
AM_5
 10
1305.452233566795
 20
1190.9931007345581
 30
0.0
 11
1316.852233566796
 21
1190.9931007345581
 31
0.0
  0
SOLID
  5
1771
  8
AM_5
 10
1305.452233566795
 20
1191.459767401225
 30
0.0
 11
1305.452233566795
 21
1190.5264340678909
 31
0.0
 12
1302.6522335667951
 22
1190.9931007345581
 32
0.0
 13
1302.6522335667951
 23
1190.9931007345581
 33
0.0
  0
SOLID
  5
1772
  8
AM_5
 10
1316.852233566796
 20
1191.459767401225
 30
0.0
 11
1316.852233566796
 21
1190.5264340678909
 31
0.0
 12
1319.6522335667951
 22
1190.9931007345581
 32
0.0
 13
1319.6522335667951
 23
1190.9931007345581
 33
0.0
  0
INSERT
  5
1773
  8
0
  2
*U23
 10
0.0
 20
0.0
 30
0.0
  0
POINT
  5
1774
  8
DEFPOINTS
 62
     0
 10
1302.6522335667951
 20
1181.6016765110851
 30
0.0
  0
POINT
  5
1775
  8
DEFPOINTS
 62
     0
 10
1319.6522335667951
 20
1181.6016765110851
 30
0.0
  0
POINT
  5
1776
  8
DEFPOINTS
 62
     0
 10
1319.6522335667951
 20
1190.9931007345581
 30
0.0
  0
ENDBLK
  5
10BA
  8
0
  0
BLOCK
  8
0
  2
*D16
 70
     1
 10
0.0
 20
0.0
 30
0.0
  3
*D16
  1

  0
LINE
  5
1719
  8
AM_5
 10
1302.8022335667949
 20
1096.360872629861
 30
0.0
 11
1302.8022335667949
 21
1085.8729139862139
 31
0.0
  0
LINE
  5
171A
  8
AM_5
 10
1319.502233566795
 20
1096.360872629861
 30
0.0
 11
1319.502233566795
 21
1085.8729139862139
 31
0.0
  0
LINE
  5
171B
  8
AM_5
 10
1305.6022335667949
 20
1086.6729139862141
 30
0.0
 11
1316.702233566795
 21
1086.6729139862141
 31
0.0
  0
SOLID
  5
171C
  8
AM_5
 10
1305.6022335667949
 20
1087.1395806528801
 30
0.0
 11
1305.6022335667949
 21
1086.2062473195469
 31
0.0
 12
1302.8022335667949
 22
1086.6729139862141
 32
0.0
 13
1302.8022335667949
 23
1086.6729139862141
 33
0.0
  0
SOLID
  5
171D
  8
AM_5
 10
1316.702233566795
 20
1087.1395806528801
 30
0.0
 11
1316.702233566795
 21
1086.2062473195469
 31
0.0
 12
1319.502233566795
 22
1086.6729139862141
 32
0.0
 13
1319.502233566795
 23
1086.6729139862141
 33
0.0
  0
INSERT
  5
171E
  8
0
  2
*U21
 10
0.0
 20
0.0
 30
0.0
  0
POINT
  5
171F
  8
DEFPOINTS
 62
     0
 10
1302.8022335667949
 20
1097.1608726298609
 30
0.0
  0
POINT
  5
1720
  8
DEFPOINTS
 62
     0
 10
1319.502233566795
 20
1097.1608726298609
 30
0.0
  0
POINT
  5
1721
  8
DEFPOINTS
 62
     0
 10
1319.502233566795
 20
1086.6729139862141
 30
0.0
  0
ENDBLK
  5
10C6
  8
0
  0
BLOCK
  8
0
  2
*D17
 70
     1
 10
0.0
 20
0.0
 30
0.0
  3
*D17
  1

  0
LINE
  5
1972
  8
AM_5
 10
1307.8522335667949
 20
1140.9608726298609
 30
0.0
 11
1287.5040273445679
 21
1140.9608726298609
 31
0.0
  0
LINE
  5
1973
  8
AM_5
 10
1307.8522335667949
 20
1138.560872629861
 30
0.0
 11
1287.5040273445679
 21
1138.560872629861
 31
0.0
  0
LINE
  5
1974
  8
AM_5
 10
1288.3040273445681
 20
1138.560872629861
 30
0.0
 11
1288.3040273445681
 21
1140.9608726298609
 31
0.0
  0
LINE
  5
1975
  8
AM_5
 10
1288.3040273445681
 20
1140.9608726298609
 30
0.0
 11
1288.3040273445681
 21
1152.4319749920651
 31
0.0
  0
INSERT
  5
1976
  8
AM_5
  2
_OBLIQUE
 10
1288.3040273445681
 20
1138.560872629861
 30
0.0
 41
2.7999999999999998
 42
2.7999999999999998
 43
2.7999999999999998
 50
270.0
  0
INSERT
  5
1977
  8
AM_5
  2
_OBLIQUE
 10
1288.3040273445681
 20
1140.9608726298609
 30
0.0
 41
2.7999999999999998
 42
2.7999999999999998
 43
2.7999999999999998
 50
90.0
  0
TEXT
  8
AM_5
  40
2.8
  5
19CD
  72
0
  71
0
 10
1286.10
 20
1145.86
 30
0.000000
  1
2.4
  0
POINT
  5
1979
  8
DEFPOINTS
 62
     0
 10
1308.6522335667951
 20
1140.9608726298609
 30
0.0
  0
POINT
  5
197A
  8
DEFPOINTS
 62
     0
 10
1308.6522335667951
 20
1138.560872629861
 30
0.0
  0
POINT
  5
197B
  8
DEFPOINTS
 62
     0
 10
1288.3040273445681
 20
1138.560872629861
 30
0.0
  0
ENDBLK
  5
113A
  8
0
  0
BLOCK
  8
0
  2
*D18
 70
     1
 10
0.0
 20
0.0
 30
0.0
  3
*D18
  1

  0
LINE
  5
197C
  8
AM_5
 10
1302.6022335667949
 20
1131.4608726298609
 30
0.0
 11
1287.5040273445679
 21
1131.4608726298609
 31
0.0
  0
LINE
  5
197D
  8
AM_5
 10
1304.902233566796
 20
1138.560872629861
 30
0.0
 11
1287.5040273445679
 21
1138.560872629861
 31
0.0
  0
LINE
  5
197E
  8
AM_5
 10
1288.3040273445681
 20
1134.2608726298611
 30
0.0
 11
1288.3040273445681
 21
1138.560872629861
 31
0.0
  0
SOLID
  5
197F
  8
AM_5
 10
1287.837360677901
 20
1134.2608726298611
 30
0.0
 11
1288.770694011235
 21
1134.2608726298611
 31
0.0
 12
1288.3040273445681
 22
1131.4608726298609
 32
0.0
 13
1288.3040273445681
 23
1131.4608726298609
 33
0.0
  0
INSERT
  5
1980
  8
AM_5
  2
_DOTSMALL
 10
1288.3040273445681
 20
1138.560872629861
 30
0.0
 41
2.7999999999999998
 42
2.7999999999999998
 43
2.7999999999999998
 50
90.0
  0
TEXT
  8
AM_5
  40
2.8
  5
19CE
  72
0
  71
0
 10
1286.10
 20
1131.37
 30
0.000000
  1
7.1
  0
POINT
  5
1982
  8
DEFPOINTS
 62
     0
 10
1303.4022335667951
 20
1131.4608726298609
 30
0.0
  0
POINT
  5
1983
  8
DEFPOINTS
 62
     0
 10
1305.7022335667959
 20
1138.560872629861
 30
0.0
  0
POINT
  5
1984
  8
DEFPOINTS
 62
     0
 10
1288.3040273445681
 20
1138.560872629861
 30
0.0
  0
ENDBLK
  5
113C
  8
0
  0
BLOCK
  8
0
  2
_OBLIQUE
 70
     0
 10
0.0
 20
0.0
 30
0.0
  3
_OBLIQUE
  1

  0
LINE
  5
18B0
  8
0
  6
BYBLOCK
 62
     0
 10
-0.5
 20
-0.5
 30
0.0
 11
0.5
 21
0.5
 31
0.0
  0
ENDBLK
  5
18B2
  8
0
  0
BLOCK
  8
0
  2
*U21
 70
     1
 10
0.0
 20
0.0
 30
0.0
  3
*U21
  1

  0
TEXT
  5
19AE
  8
AM_5
 10
1306.8122335667949
 20
1087.4729139862141
 30
0.0
 40
2.7999999999999998
  1
\U+220516.7
  0
ENDBLK
  5
19B0
  8
0
  0
BLOCK
  8
0
  2
*U22
 70
     1
 10
0.0
 20
0.0
 30
0.0
  3
*U22
  1

  0
TEXT
  5
19B2
  8
AM_5
 10
1306.742784747898
 20
1149.9264396135061
 30
0.0
 40
2.7999999999999998
  1
\U+220510.6
  0
ENDBLK
  5
19B4
  8
0
  0
BLOCK
  8
0
  2
*U23
 70
     1
 10
0.0
 20
0.0
 30
0.0
  3
*U23
  1

  0
TEXT
  5
19B6
  8
AM_5
 10
1309.472233566795
 20
1191.793100734558
 30
0.0
 40
2.7999999999999998
  1
17
  0
ENDBLK
  5
19B8
  8
0
  0
BLOCK
  8
0
  2
*U24
 70
     1
 10
0.0
 20
0.0
 30
0.0
  3
*U24
  1

  0
TEXT
  5
19BA
  8
AM_5
 10
1287.5040273445679
 20
1102.1728827311281
 30
0.0
 40
2.7999999999999998
  1
17.5
 50
90.0
  0
ENDBLK
  5
19BC
  8
0
  0
BLOCK
  8
0
  2
*U25
 70
     1
 10
0.0
 20
0.0
 30
0.0
  3
*U25
  1

  0
TEXT
  5
19BE
  8
AM_5
 10
1271.5040273445679
 20
1116.4106417592579
 30
0.0
 40
2.7999999999999998
  1
46.9
 50
90.0
  0
ENDBLK
  5
19C0
  8
0
  0
BLOCK
  8
0
  2
*U26
 70
     1
 10
0.0
 20
0.0
 30
0.0
  3
*U26
  1

  0
TEXT
  5
19C2
  8
AM_5
 10
1295.5040273445679
 20
1098.744995726043
 30
0.0
 40
2.7999999999999998
  1
9.2
 50
90.0
  0
ENDBLK
  5
19C4
  8
0
  0
BLOCK
  8
0
  2
*U27
 70
     1
 10
0.0
 20
0.0
 30
0.0
  3
*U27
  1

  0
TEXT
  5
19C6
  8
AM_5
 10
1279.5040273445679
 20
1106.1364238109629
 30
0.0
 40
2.7999999999999998
  1
25.8
 50
90.0
  0
ENDBLK
  5
19C8
  8
0
  0
BLOCK
  8
0
  2
*U28
 70
     1
 10
0.0
 20
0.0
 30
0.0
  3
*U28
  1

  0
TEXT
  5
19CA
  8
AM_5
 10
1279.5040273445679
 20
1135.696789952696
 30
0.0
 40
2.7999999999999998
  1
12
 50
90.0
  0
ENDBLK
  5
19CC
  8
0
  0
ENDSEC
  0
SECTION
  2
ENTITIES
  0
LINE
  5
DB0
  8
AM_7
 10
1308.124500919397
 20
1176.6941992229731
 30
0.0
 11
1308.124500919397
 21
1176.6941992229731
 31
0.0
  0
LINE
  5
DB1
  8
AM_7
 10
1308.124500919397
 20
1176.6941992229731
 30
0.0
 11
1308.124500919397
 21
1176.6941992229731
 31
0.0
  0
LINE
  5
DB3
  8
AM_7
 10
1311.1522335667951
 20
1145.3458726298611
 30
0.0
 11
1311.1522335667951
 21
1114.868339234213
 31
0.0
  0
LINE
  5
DB4
  8
AM_7
  6
AM_ISO02W050X2
 10
1302.091906427971
 20
1122.360872629861
 30
0.0
 11
1308.591906427971
 21
1122.360872629861
 31
0.0
  0
LINE
  5
DB5
  8
AM_7
 10
1311.1522335667951
 20
1094.1608726298609
 30
0.0
 11
1311.1522335667951
 21
1113.453406025508
 31
0.0
  0
LINE
  5
DB6
  8
AM_7
  6
AM_ISO02W050X2
 10
1302.091906427971
 20
1105.7608726298611
 30
0.0
 11
1308.591906427971
 21
1105.7608726298611
 31
0.0
  0
LINE
  5
DB7
  8
AM_7
 10
1299.8022335667949
 20
1129.0608726298599
 30
0.0
 11
1322.4684827213121
 21
1129.0608726298599
 31
0.0
  0
LINE
  5
DB8
  8
AM_7
  6
AM_ISO02W050X2
 10
1320.4643247775441
 20
1114.060872629861
 30
0.0
 11
1314.364324777544
 21
1114.060872629861
 31
0.0
  0
LINE
  5
DB9
  8
AM_7
 10
1311.1522335667951
 20
1136.0108726298611
 30
0.0
 11
1311.1522335667951
 21
1136.0108726298611
 31
0.0
  0
LINE
  5
DBA
  8
AM_7
 10
1311.1522335667951
 20
1136.0108726298611
 30
0.0
 11
1311.1522335667951
 21
1136.0108726298611
 31
0.0
  0
LINE
  5
DBB
  8
AM_7
  6
AM_ISO02W050X2
 10
1307.4022335667951
 20
1136.0108726298611
 30
0.0
 11
1313.835533318445
 21
1136.0108726298611
 31
0.0
  0
LINE
  5
DBC
  8
AM_7
 10
1311.1522335667951
 20
1132.2608726298611
 30
0.0
 11
1311.1522335667951
 21
1136.0108726298611
 31
0.0
  0
LINE
  5
DBD
  8
AM_7
 10
1311.1522335667951
 20
1136.0108726298611
 30
0.0
 11
1311.1522335667951
 21
1139.7608726298611
 31
0.0
  0
LINE
  5
DBE
  8
AM_4
 10
1316.5977335667949
 20
1132.4608726298609
 30
0.0
 11
1316.5977335667949
 21
1138.060872629861
 31
0.0
  0
LINE
  5
DBF
  8
AM_4
 10
1305.706733566795
 20
1132.4608726298609
 30
0.0
 11
1305.706733566795
 21
1138.060872629861
 31
0.0
  0
LINE
  5
DC0
  8
AM_VIS
 10
1308.6522335667951
 20
1140.9608726298609
 30
0.0
 11
1308.6522335667951
 21
1138.560872629861
 31
0.0
  0
LINE
  5
DC1
  8
AM_VIS
 10
1313.6522335667951
 20
1140.9608726298609
 30
0.0
 11
1313.6522335667951
 21
1138.560872629861
 31
0.0
  0
LINE
  5
DC2
  8
AM_VIS
 10
1305.970074267816
 20
1142.3458726298611
 30
0.0
 11
1305.858106635066
 21
1141.7108726298609
 31
0.0
  0
LINE
  5
DC3
  8
AM_VIS
 10
1316.334392865775
 20
1142.3458726298611
 30
0.0
 11
1316.4463604985251
 21
1141.7108726298609
 31
0.0
  0
LINE
  5
DC4
  8
AM_VIS
 10
1305.970074267816
 20
1142.3458726298611
 30
0.0
 11
1316.334392865775
 21
1142.3458726298611
 31
0.0
  0
LINE
  5
DC5
  8
AM_VIS
 10
1305.858106635066
 20
1141.7108726298609
 30
0.0
 11
1316.4463604985251
 21
1141.7108726298609
 31
0.0
  0
LINE
  5
DC6
  8
AM_VIS
 10
1315.6963604985251
 20
1140.9608726298609
 30
0.0
 11
1306.608106635066
 21
1140.9608726298609
 31
0.0
  0
ARC
  5
DC7
  8
AM_VIS
 10
1311.1522335667951
 20
1130.860872629861
 30
0.0
 40
12.60000000000006
 50
65.714576062115455
 51
114.2854239378845
  0
ARC
  5
DC8
  8
AM_VIS
 10
1315.6963604985251
 20
1141.7108726298609
 30
0.0
 40
0.75
 50
270.0
 51
0.0
  0
ARC
  5
DC9
  8
AM_VIS
 10
1306.608106635066
 20
1141.7108726298609
 30
0.0
 40
0.75
 50
180.0
 51
270.0
  0
LINE
  5
DCA
  8
AM_VIS
 10
1302.6522335667951
 20
1110.453406025508
 30
0.0
 11
1302.6522335667951
 21
1117.868339234213
 31
0.0
  0
LINE
  5
DCB
  8
AM_VIS
 10
1311.1522335667951
 20
1110.453406025508
 30
0.0
 11
1311.1522335667951
 21
1117.868339234213
 31
0.0
  0
LINE
  5
DCC
  8
AM_VIS
 10
1302.6522335667951
 20
1118.2206802509961
 30
0.0
 11
1302.6522335667951
 21
1117.868339234213
 31
0.0
  0
LINE
  5
DCD
  8
AM_VIS
 10
1319.6522335667951
 20
1110.453406025508
 30
0.0
 11
1319.6522335667951
 21
1117.868339234213
 31
0.0
  0
LINE
  5
DCE
  8
AM_VIS
 10
1319.6522335667951
 20
1118.2206802509961
 30
0.0
 11
1319.6522335667951
 21
1117.868339234213
 31
0.0
  0
LINE
  5
DCF
  8
AM_VIS
 10
1302.808638113298
 20
1118.358186383784
 30
0.0
 11
1303.307641688074
 21
1119.547910447903
 31
0.0
  0
LINE
  5
DD0
  8
AM_VIS
 10
1302.808638113298
 20
1126.3635588759371
 30
0.0
 11
1303.307641688074
 21
1125.1738348118181
 31
0.0
  0
LINE
  5
DD1
  8
AM_VIS
 10
1302.8097648000951
 20
1101.7608726298611
 30
0.0
 11
1303.307641688074
 21
1102.947910447903
 31
0.0
  0
LINE
  5
DD2
  8
AM_VIS
 10
1302.808638113298
 20
1109.763558875937
 30
0.0
 11
1303.307641688074
 21
1108.573834811818
 31
0.0
  0
ARC
  5
DD3
  8
AM_VIS
 10
1327.8184827213131
 20
1129.060872629861
 30
0.0
 40
8.3500000000010566
 50
174.84672742019771
 51
185.15327257980229
  0
ARC
  5
DD4
  8
AM_VIS
 10
1294.485984412285
 20
1129.0608726298599
 30
0.0
 40
8.3499999999936136
 50
354.84672742019768
 51
5.1532725798022803
  0
LINE
  5
DD5
  8
AM_VIS
 10
1302.6522335667951
 20
1110.453406025508
 30
0.0
 11
1302.6522335667951
 21
1110.1010650087251
 31
0.0
  0
LINE
  5
DD6
  8
AM_VIS
 10
1319.6522335667951
 20
1110.453406025508
 30
0.0
 11
1319.6522335667951
 21
1110.1068178789189
 31
0.0
  0
LINE
  5
DD7
  8
AM_VIS
 10
1319.5522307670781
 20
1110.0762334243821
 30
0.0
 11
1319.6522308629751
 21
1110.1068267168801
 31
0.0
  0
LINE
  5
DD8
  8
AM_VIS
 10
1319.5522335667949
 20
1110.0762242729661
 30
0.0
 11
1319.5522335667949
 21
1110.074270089483
 31
0.0
  0
LINE
  5
DD9
  8
AM_VIS
 10
1303.3022335667949
 20
1108.573834811818
 30
0.0
 11
1303.3022335667949
 21
1102.947910447903
 31
0.0
  0
LINE
  5
DDA
  8
AM_VIS
 10
1303.3022335667949
 20
1125.1738348118181
 30
0.0
 11
1303.3022335667949
 21
1119.547910447903
 31
0.0
  0
CIRCLE
  5
DDB
  8
AM_VIS
 10
1311.1522335667951
 20
1136.0108726298611
 30
0.0
 40
0.7500000000000006
  0
LINE
  5
DDC
  8
AM_VIS
 10
1302.8022335667949
 20
1118.2608726298611
 30
0.0
 11
1302.6522335667951
 21
1118.2206802509961
 31
0.0
  0
LINE
  5
DDD
  8
AM_VIS
 10
1319.502233566795
 20
1118.2608726298611
 30
0.0
 11
1319.6522335667951
 21
1118.2206802509961
 31
0.0
  0
LINE
  5
DDE
  8
AM_VIS
 10
1319.502233566795
 20
1129.810872629861
 30
0.0
 11
1319.502233566795
 21
1130.860872629861
 31
0.0
  0
LINE
  5
DDF
  8
AM_VIS
 10
1319.502233566795
 20
1118.2608726298611
 30
0.0
 11
1319.502233566795
 21
1128.3108726298599
 31
0.0
  0
LINE
  5
DE0
  8
AM_VIS
 10
1302.8022335667949
 20
1129.810872629861
 30
0.0
 11
1302.8022335667949
 21
1130.860872629861
 31
0.0
  0
LINE
  5
DE1
  8
AM_VIS
 10
1302.8022335667949
 20
1126.3635588759371
 30
0.0
 11
1302.8022335667949
 21
1128.3108726298599
 31
0.0
  0
LINE
  5
DE2
  8
AM_VIS
 10
1302.8022335667949
 20
1118.2608726298611
 30
0.0
 11
1302.8022335667949
 21
1118.358186383784
 31
0.0
  0
LINE
  5
DE3
  8
AM_VIS
 10
1319.502233566795
 20
1097.1608726298609
 30
0.0
 11
1319.502233566795
 21
1110.060872629861
 31
0.0
  0
LINE
  5
DE4
  8
AM_VIS
 10
1302.8022335667949
 20
1109.7608726298611
 30
0.0
 11
1302.8022335667949
 21
1110.060872629861
 31
0.0
  0
LINE
  5
DE5
  8
AM_VIS
 10
1302.8022335667949
 20
1097.1608726298609
 30
0.0
 11
1302.8022335667949
 21
1101.7608726298611
 31
0.0
  0
LINE
  5
DE6
  8
AM_VIS
 10
1316.6522335667951
 20
1131.4608726298609
 30
0.0
 11
1316.6522335667951
 21
1132.4608726298609
 31
0.0
  0
LINE
  5
DE7
  8
AM_VIS
 10
1305.6522335667951
 20
1131.4608726298609
 30
0.0
 11
1305.6522335667951
 21
1132.4608726298609
 31
0.0
  0
LINE
  5
DE8
  8
AM_VIS
 10
1317.1022335667949
 20
1132.4608726298609
 30
0.0
 11
1317.1022335667949
 21
1138.060872629861
 31
0.0
  0
LINE
  5
DE9
  8
AM_VIS
 10
1305.202233566795
 20
1132.4608726298609
 30
0.0
 11
1305.202233566795
 21
1138.060872629861
 31
0.0
  0
LINE
  5
DEA
  8
AM_VIS
 10
1305.7022335667959
 20
1138.560872629861
 30
0.0
 11
1305.202233566795
 21
1138.060872629861
 31
0.0
  0
LINE
  5
DEB
  8
AM_VIS
 10
1316.6022335667949
 20
1138.560872629861
 30
0.0
 11
1317.1022335667949
 21
1138.060872629861
 31
0.0
  0
LINE
  5
DEC
  8
AM_VIS
 10
1319.502233566795
 20
1110.060872629861
 30
0.0
 11
1319.5522335667949
 21
1110.0742700894821
 31
0.0
  0
LINE
  5
DED
  8
AM_VIS
 10
1302.8022335667949
 20
1110.060872629861
 30
0.0
 11
1302.6522335667951
 21
1110.1010650087251
 31
0.0
  0
LINE
  5
DEE
  8
AM_VIS
 10
1302.8022335667949
 20
1118.2608726298611
 30
0.0
 11
1319.502233566795
 21
1118.2608726298611
 31
0.0
  0
LINE
  5
DEF
  8
AM_VIS
 10
1303.4022335667951
 20
1131.4608726298609
 30
0.0
 11
1318.9022335667951
 21
1131.4608726298609
 31
0.0
  0
LINE
  5
DF0
  8
AM_VIS
 10
1317.1022335667949
 20
1132.4608726298609
 30
0.0
 11
1305.202233566795
 21
1132.4608726298609
 31
0.0
  0
LINE
  5
DF1
  8
AM_VIS
 10
1317.1022335667949
 20
1138.060872629861
 30
0.0
 11
1305.202233566795
 21
1138.060872629861
 31
0.0
  0
LINE
  5
DF2
  8
AM_VIS
 10
1305.7022335667959
 20
1138.560872629861
 30
0.0
 11
1316.6022335667949
 21
1138.560872629861
 31
0.0
  0
LINE
  5
DF3
  8
AM_VIS
 10
1318.9022335667951
 20
1096.560872629861
 30
0.0
 11
1303.4022335667951
 21
1096.560872629861
 31
0.0
  0
LINE
  5
DF4
  8
AM_VIS
 10
1302.8022335667949
 20
1110.060872629861
 30
0.0
 11
1319.502233566795
 21
1110.060872629861
 31
0.0
  0
ARC
  5
DF5
  8
AM_VIS
 10
1318.9022335667951
 20
1130.860872629861
 30
0.0
 40
0.6
 50
0.0
 51
90.0
  0
ARC
  5
DF6
  8
AM_VIS
 10
1303.4022335667951
 20
1130.860872629861
 30
0.0
 40
0.6
 50
90.0
 51
180.0
  0
ARC
  5
DF7
  8
AM_VIS
 10
1303.4022335667951
 20
1097.1608726298609
 30
0.0
 40
0.6
 50
180.0
 51
270.0
  0
ARC
  5
DF8
  8
AM_VIS
 10
1318.9022335667951
 20
1097.1608726298609
 30
0.0
 40
0.6
 50
270.0
 51
0.0
  0
LINE
  5
DF9
  8
HIDDEN
 10
1303.4492335667951
 20
1119.74087262986
 30
0.0
 11
1307.952233567245
 21
1119.74087262986
 31
0.0
  0
LINE
  5
DFA
  8
HIDDEN
 10
1303.4492335667951
 20
1124.9808726298611
 30
0.0
 11
1307.952233567245
 21
1124.9808726298611
 31
0.0
  0
LINE
  5
DFB
  8
HIDDEN
 10
1303.4492335667951
 20
1103.140872629861
 30
0.0
 11
1307.952233567245
 21
1103.140872629861
 31
0.0
  0
LINE
  5
DFC
  8
HIDDEN
 10
1303.4492335667951
 20
1108.380872629861
 30
0.0
 11
1307.952233567245
 21
1108.380872629861
 31
0.0
  0
LINE
  5
DFD
  8
HIDDEN
 10
1303.3022335667949
 20
1119.5938726298609
 30
0.0
 11
1303.9022335667951
 21
1120.1938726298611
 31
0.0
  0
LINE
  5
DFE
  8
HIDDEN
 10
1307.952233567245
 20
1107.9278726298601
 30
0.0
 11
1303.9022335667951
 21
1107.9278726298601
 31
0.0
  0
LINE
  5
DFF
  8
HIDDEN
 10
1303.9022335667951
 20
1107.9278726298601
 30
0.0
 11
1303.3022335667949
 21
1108.5278726298609
 31
0.0
  0
LINE
  5
E00
  8
HIDDEN
 10
1303.3022335667949
 20
1102.993872629861
 30
0.0
 11
1303.9022335667951
 21
1103.5938726298609
 31
0.0
  0
LINE
  5
E01
  8
HIDDEN
 10
1303.9022335667951
 20
1103.5938726298609
 30
0.0
 11
1307.952233567245
 21
1103.5938726298609
 31
0.0
  0
LINE
  5
E02
  8
HIDDEN
 10
1307.952233567245
 20
1124.5278726298609
 30
0.0
 11
1303.9022335667951
 21
1124.5278726298609
 31
0.0
  0
LINE
  5
E03
  8
HIDDEN
 10
1303.9022335667951
 20
1124.5278726298609
 30
0.0
 11
1303.3022335667949
 21
1125.127872629861
 31
0.0
  0
LINE
  5
E04
  8
HIDDEN
 10
1303.9022335667951
 20
1120.1938726298611
 30
0.0
 11
1303.9022335667951
 21
1124.5278726298609
 31
0.0
  0
LINE
  5
E05
  8
HIDDEN
 10
1303.9022335667951
 20
1103.5938726298609
 30
0.0
 11
1303.9022335667951
 21
1107.9278726298601
 31
0.0
  0
LINE
  5
E06
  8
HIDDEN
 10
1319.4052335667959
 20
1116.6808726298609
 30
0.0
 11
1313.4022335667951
 21
1116.6808726298609
 31
0.0
  0
LINE
  5
E07
  8
HIDDEN
 10
1319.4052335667959
 20
1111.4408726298609
 30
0.0
 11
1313.4022335667951
 21
1111.4408726298609
 31
0.0
  0
LINE
  5
E08
  8
HIDDEN
 10
1313.4022335667951
 20
1111.8938726298611
 30
0.0
 11
1318.9522335667959
 21
1111.8938726298611
 31
0.0
  0
LINE
  5
E09
  8
HIDDEN
 10
1318.9522335667959
 20
1111.8938726298611
 30
0.0
 11
1319.5522335667949
 21
1111.2938726298601
 31
0.0
  0
LINE
  5
E0A
  8
HIDDEN
 10
1319.5522335667949
 20
1116.8278726298611
 30
0.0
 11
1318.9522335667959
 21
1116.2278726298609
 31
0.0
  0
LINE
  5
E0B
  8
HIDDEN
 10
1318.9522335667959
 20
1116.2278726298609
 30
0.0
 11
1313.4022335667951
 21
1116.2278726298609
 31
0.0
  0
LINE
  5
E0C
  8
HIDDEN
 10
1318.9522335667959
 20
1116.2278726298609
 30
0.0
 11
1318.9522335667959
 21
1111.8938726298611
 31
0.0
  0
LINE
  5
E0D
  8
HIDDEN
 10
1302.8022335667949
 20
1128.3108726298599
 30
0.0
 11
1319.502233566795
 21
1128.3108726298599
 31
0.0
  0
LINE
  5
E0E
  8
HIDDEN
 10
1319.502233566795
 20
1129.810872629861
 30
0.0
 11
1302.8022335667949
 21
1129.810872629861
 31
0.0
  0
LINE
  5
E0F
  8
AM_7
 10
1311.1522335667951
 20
1176.6941992229731
 30
0.0
 11
1311.1522335667951
 21
1176.6941992229731
 31
0.0
  0
LINE
  5
E10
  8
AM_7
 10
1311.1522335667951
 20
1176.6941992229731
 30
0.0
 11
1311.1522335667951
 21
1176.6941992229731
 31
0.0
  0
LINE
  5
E11
  8
AM_7
 10
1311.1522335667951
 20
1164.611721934861
 30
0.0
 11
1311.1522335667951
 21
1176.6941992229731
 31
0.0
  0
LINE
  5
E12
  8
AM_7
 10
1311.1522335667951
 20
1176.6941992229731
 30
0.0
 11
1311.1522335667951
 21
1188.776676511085
 31
0.0
  0
LINE
  5
E13
  8
AM_7
 10
1323.234710854907
 20
1176.6941992229731
 30
0.0
 11
1311.1522335667951
 21
1176.6941992229731
 31
0.0
  0
LINE
  5
E14
  8
AM_7
 10
1311.1522335667951
 20
1176.6941992229731
 30
0.0
 11
1299.0697562786829
 21
1176.6941992229731
 31
0.0
  0
ARC
  5
E15
  8
AM_4
 10
1311.1522335667951
 20
1176.6941992229731
 30
0.0
 40
5.4455
 50
349.99999999999608
 51
280.00000000000392
  0
CIRCLE
  5
E16
  8
AM_VIS
 10
1311.1522335667951
 20
1176.6941992229731
 30
0.0
 40
5.1821592989795331
  0
CIRCLE
  5
E17
  8
AM_VIS
 10
1311.1522335667951
 20
1176.6941992229731
 30
0.0
 40
5.294126931729406
  0
LINE
  5
E18
  8
AM_VIS
 10
1319.6522335667951
 20
1181.6016765110851
 30
0.0
 11
1311.1522335667951
 21
1186.5091537991971
 31
0.0
  0
LINE
  5
E19
  8
AM_VIS
 10
1319.6522335667951
 20
1171.7867219348609
 30
0.0
 11
1319.6522335667951
 21
1181.6016765110851
 31
0.0
  0
LINE
  5
E1A
  8
AM_VIS
 10
1311.1522335667951
 20
1166.8792446467489
 30
0.0
 11
1319.6522335667951
 21
1171.7867219348609
 31
0.0
  0
LINE
  5
E1B
  8
AM_VIS
 10
1302.6522335667951
 20
1181.6016765110851
 30
0.0
 11
1311.1522335667951
 21
1186.5091537991971
 31
0.0
  0
LINE
  5
E1C
  8
AM_VIS
 10
1311.1522335667951
 20
1166.8792446467489
 30
0.0
 11
1302.6522335667951
 21
1171.7867219348609
 31
0.0
  0
LINE
  5
E1D
  8
AM_VIS
 10
1302.6522335667951
 20
1171.7867219348609
 30
0.0
 11
1302.6522335667951
 21
1181.6016765110851
 31
0.0
  0
CIRCLE
  5
E1E
  8
AM_VIS
 10
1311.1522335667951
 20
1176.6941992229731
 30
0.0
 40
8.3499999999999979
  0
CIRCLE
  5
E1F
  8
AM_VIS
 10
1311.1522335667951
 20
1176.6941992229731
 30
0.0
 40
5.9500000000000002
  0
CIRCLE
  5
E20
  8
AM_VIS
 10
1311.1522335667951
 20
1176.6941992229731
 30
0.0
 40
5.4499999999999984
  0
LINE
  5
E21
  8
HIDDEN
 10
1307.952233567245
 20
1120.1938726298611
 30
0.0
 11
1303.9022335667951
 21
1120.1938726298611
 31
0.0
  0
DIMENSION
  5
E22
  8
AM_5
  2
*D9
 10
1316.4463604985251
 20
1149.1264396135059
 30
0.0
 11
1311.1522335667951
 21
1149.1264396135059
 31
0.0
 70
   128
  1
%%c<>
 13
1305.858106635066
 23
1141.7108726298609
 33
0.0
 14
1316.4463604985251
 24
1141.7108726298609
 34
0.0
1001
ACAD
1000
DSTYLE
1002
{
1070
    40
1040
0.8
1070
   271
1070
     1
1002
}
  0
INSERT
  5
E23
  8
0
  2
*U3
 10
1006.469487888925
 20
1251.584669720977
 30
0.0
1001
ACAD
1000
DSTYLE
1002
{
1070
   140
1040
3.5
1002
}
  0
INSERT
  5
E24
  8
0
  2
*U4
 10
1006.469487888925
 20
1251.584669720977
 30
0.0
  0
INSERT
  5
E25
  8
0
  2
*U5
 10
1006.469487888925
 20
1251.584669720977
 30
0.0
1001
ACAD
1000
DSTYLE
1002
{
1070
   140
1040
3.5
1002
}
  0
INSERT
  5
E26
  8
0
  2
*U6
 10
1006.469487888925
 20
1251.584669720977
 30
0.0
  0
INSERT
  5
E27
  8
0
  2
*U7
 10
1006.469487888925
 20
1251.584669720977
 30
0.0
1001
ACAD
1000
DSTYLE
1002
{
1070
   140
1040
3.5
1002
}
  0
INSERT
  5
E28
  8
0
  2
*U8
 10
1006.469487888925
 20
1251.584669720977
 30
0.0
  0
DIMENSION
  5
E29
  8
AM_5
  2
*D10
 10
1280.3040273445681
 20
1131.4608726298609
 30
0.0
 11
1278.1037517540169
 21
1137.4608726298609
 31
0.0
 70
     0
 13
1311.1522335667951
 23
1143.4608726298609
 33
0.0
 14
1303.4022335667951
 24
1131.4608726298609
 34
0.0
 50
90.0
1001
ACAD
1000
DSTYLE
1002
{
1070
    40
1040
0.8
1002
}
  0
DIMENSION
  5
E2A
  8
AM_5
  2
*D11
 10
1280.3040273445681
 20
1122.360872629861
 30
0.0
 11
1278.1037517540169
 21
1109.4608726298609
 31
0.0
 70
     0
 13
1303.4022335667951
 23
1096.560872629861
 33
0.0
 14
1302.091906427971
 24
1122.360872629861
 34
0.0
 50
90.0
1001
ACAD
1000
DSTYLE
1002
{
1070
    40
1040
0.8
1002
}
  0
DIMENSION
  5
E2B
  8
AM_5
  2
*D12
 10
1296.3040273445681
 20
1105.7608726298611
 30
0.0
 11
1294.1030750513889
 21
1101.1608726298609
 31
0.0
 70
     0
 13
1303.4022335667951
 23
1096.560872629861
 33
0.0
 14
1302.091906427971
 24
1105.7608726298611
 34
0.0
 50
90.0
1001
ACAD
1000
DSTYLE
1002
{
1070
    40
1040
0.8
1002
}
  0
DIMENSION
  5
E2C
  8
AM_5
  2
*D13
 10
1272.3040273445681
 20
1096.560872629861
 30
0.0
 11
1270.1040273445681
 21
1120.0108726298611
 31
0.0
 70
     0
 13
1311.1522335667951
 23
1143.4608726298609
 33
0.0
 14
1303.4022335667951
 24
1096.560872629861
 34
0.0
 50
90.0
1001
ACAD
1000
DSTYLE
1002
{
1070
    40
1040
0.8
1002
}
  0
DIMENSION
  5
E2D
  8
AM_5
  2
*D14
 10
1288.3040273445681
 20
1114.060872629861
 30
0.0
 11
1288.3040273445681
 21
1105.310872629861
 31
0.0
 70
   128
 13
1303.4022335667951
 23
1096.560872629861
 33
0.0
 14
1314.364324777544
 24
1114.060872629861
 34
0.0
 50
90.0
1001
ACAD
1000
DSTYLE
1002
{
1070
    40
1040
0.8
1002
}
  0
DIMENSION
  5
E2E
  8
AM_5
  2
*D15
 10
1319.6522335667951
 20
1190.9931007345581
 30
0.0
 11
1311.1522335667951
 21
1193.1931007345579
 31
0.0
 70
     0
 13
1302.6522335667951
 23
1181.6016765110851
 33
0.0
 14
1319.6522335667951
 24
1181.6016765110851
 34
0.0
1001
ACAD
1000
DSTYLE
1002
{
1070
    40
1040
0.8
1002
}
  0
DIMENSION
  5
E2F
  8
AM_5
  2
*D16
 10
1319.502233566795
 20
1086.6729139862141
 30
0.0
 11
1311.1522335667951
 21
1086.6729139862141
 31
0.0
 70
   128
  1
%%c<>
 13
1302.8022335667949
 23
1097.1608726298609
 33
0.0
 14
1319.502233566795
 24
1097.1608726298609
 34
0.0
1001
ACAD
1000
DSTYLE
1002
{
1070
    40
1040
0.8
1002
}
  0
DIMENSION
  5
E30
  8
AM_5
  2
*D17
 10
1288.3040273445681
 20
1138.560872629861
 30
0.0
 11
1288.3040273445681
 21
1149.4964238109631
 31
0.0
 70
   128
  1
<>
 13
1308.6522335667951
 23
1140.9608726298609
 33
0.0
 14
1308.6522335667951
 24
1138.560872629861
 34
0.0
 50
90.0
1001
ACAD
1000
DSTYLE
1002
{
1070
    40
1040
0.8
1070
     5
1000
OBLIQUE
1002
}
  0
DIMENSION
  5
E31
  8
AM_5
  2
*D18
 10
1288.3040273445681
 20
1138.560872629861
 30
0.0
 11
1288.3040273445681
 21
1135.0108726298611
 31
0.0
 70
   128
 13
1303.4022335667951
 23
1131.4608726298609
 33
0.0
 14
1305.7022335667959
 24
1138.560872629861
 34
0.0
 50
90.0
1001
ACAD
1000
DSTYLE
1002
{
1070
    40
1040
0.8
1070
   173
1070
     1
1070
     7
1000
DOTSMALL
1002
}
  0
LINE
  5
E3B
  8
AM_VIS
 10
1303.307641688074
 20
1125.1738348118181
 30
0.0
 11
1303.3022335667949
 21
1125.1738348118181
 31
0.0
  0
LINE
  5
E3C
  8
AM_VIS
 10
1302.808638113298
 20
1126.3635588759371
 30
0.0
 11
1302.8022335667949
 21
1126.3635588759371
 31
0.0
  0
LINE
  5
E3D
  8
AM_VIS
 10
1303.307641688074
 20
1119.547910447903
 30
0.0
 11
1303.3022335667949
 21
1119.547910447903
 31
0.0
  0
LINE
  5
E3E
  8
AM_VIS
 10
1302.808638113298
 20
1118.358186383784
 30
0.0
 11
1302.8022335667949
 21
1118.358186383784
 31
0.0
  0
LINE
  5
E3F
  8
AM_VIS
 10
1303.307641688074
 20
1108.573834811818
 30
0.0
 11
1303.3022335667949
 21
1108.573834811818
 31
0.0
  0
LINE
  5
E40
  8
AM_VIS
 10
1303.307641688074
 20
1102.947910447903
 30
0.0
 11
1303.3022335667949
 21
1102.947910447903
 31
0.0
  0
LINE
  5
E41
  8
AM_VIS
 10
1302.8022335667949
 20
1101.7608726298611
 30
0.0
 11
1302.8097648000951
 21
1101.7608726298611
 31
0.0
  0
POLYLINE
  5
E79
  8
AM_VIS
 66
     1
 10
0.0
 20
0.0
 30
0.0
 70
     8
  0
VERTEX
  5
E7A
  8
AM_VIS
 10
1311.152487888925
 20
1117.8686697209771
 30
0.0
 70
    32
  0
VERTEX
  5
E7B
  8
AM_VIS
 10
1311.0494878889249
 20
1117.883669720977
 30
0.0
 70
    32
  0
VERTEX
  5
E7C
  8
AM_VIS
 10
1310.947487888925
 20
1117.899669720977
 30
0.0
 70
    32
  0
VERTEX
  5
E7D
  8
AM_VIS
 10
1310.8464878889249
 20
1117.9146697209769
 30
0.0
 70
    32
  0
VERTEX
  5
E7E
  8
AM_VIS
 10
1310.746487888925
 20
1117.928669720977
 30
0.0
 70
    32
  0
VERTEX
  5
E7F
  8
AM_VIS
 10
1310.6474878889251
 20
1117.9426697209769
 30
0.0
 70
    32
  0
VERTEX
  5
E80
  8
AM_VIS
 10
1310.5484878889249
 20
1117.9566697209771
 30
0.0
 70
    32
  0
VERTEX
  5
E81
  8
AM_VIS
 10
1310.450487888925
 20
1117.969669720977
 30
0.0
 70
    32
  0
VERTEX
  5
E82
  8
AM_VIS
 10
1310.354487888925
 20
1117.9826697209769
 30
0.0
 70
    32
  0
VERTEX
  5
E83
  8
AM_VIS
 10
1310.257487888925
 20
1117.995669720977
 30
0.0
 70
    32
  0
VERTEX
  5
E84
  8
AM_VIS
 10
1310.1624878889249
 20
1118.007669720977
 30
0.0
 70
    32
  0
VERTEX
  5
E85
  8
AM_VIS
 10
1310.0674878889249
 20
1118.018669720977
 30
0.0
 70
    32
  0
VERTEX
  5
E86
  8
AM_VIS
 10
1309.9734878889251
 20
1118.0306697209769
 30
0.0
 70
    32
  0
VERTEX
  5
E87
  8
AM_VIS
 10
1309.880487888925
 20
1118.0416697209771
 30
0.0
 70
    32
  0
VERTEX
  5
E88
  8
AM_VIS
 10
1309.7874878889249
 20
1118.0516697209771
 30
0.0
 70
    32
  0
VERTEX
  5
E89
  8
AM_VIS
 10
1309.6954878889251
 20
1118.0626697209771
 30
0.0
 70
    32
  0
VERTEX
  5
E8A
  8
AM_VIS
 10
1309.603487888925
 20
1118.0716697209771
 30
0.0
 70
    32
  0
VERTEX
  5
E8B
  8
AM_VIS
 10
1309.5124878889251
 20
1118.0816697209771
 30
0.0
 70
    32
  0
VERTEX
  5
E8C
  8
AM_VIS
 10
1309.421487888925
 20
1118.0906697209771
 30
0.0
 70
    32
  0
VERTEX
  5
E8D
  8
AM_VIS
 10
1309.331487888925
 20
1118.0996697209771
 30
0.0
 70
    32
  0
VERTEX
  5
E8E
  8
AM_VIS
 10
1309.2424878889251
 20
1118.1086697209771
 30
0.0
 70
    32
  0
VERTEX
  5
E8F
  8
AM_VIS
 10
1309.1534878889249
 20
1118.1166697209769
 30
0.0
 70
    32
  0
VERTEX
  5
E90
  8
AM_VIS
 10
1309.064487888925
 20
1118.124669720977
 30
0.0
 70
    32
  0
VERTEX
  5
E91
  8
AM_VIS
 10
1308.976487888925
 20
1118.131669720977
 30
0.0
 70
    32
  0
VERTEX
  5
E92
  8
AM_VIS
 10
1308.8884878889251
 20
1118.1396697209771
 30
0.0
 70
    32
  0
VERTEX
  5
E93
  8
AM_VIS
 10
1308.8014878889251
 20
1118.1456697209769
 30
0.0
 70
    32
  0
VERTEX
  5
E94
  8
AM_VIS
 10
1308.7144878889251
 20
1118.152669720977
 30
0.0
 70
    32
  0
VERTEX
  5
E95
  8
AM_VIS
 10
1308.6274878889251
 20
1118.1586697209771
 30
0.0
 70
    32
  0
VERTEX
  5
E96
  8
AM_VIS
 10
1308.5414878889251
 20
1118.1646697209769
 30
0.0
 70
    32
  0
VERTEX
  5
E97
  8
AM_VIS
 10
1308.4554878889251
 20
1118.170669720977
 30
0.0
 70
    32
  0
VERTEX
  5
E98
  8
AM_VIS
 10
1308.3694878889251
 20
1118.1756697209771
 30
0.0
 70
    32
  0
VERTEX
  5
E99
  8
AM_VIS
 10
1308.284487888925
 20
1118.180669720977
 30
0.0
 70
    32
  0
VERTEX
  5
E9A
  8
AM_VIS
 10
1308.199487888925
 20
1118.1856697209771
 30
0.0
 70
    32
  0
VERTEX
  5
E9B
  8
AM_VIS
 10
1308.1144878889249
 20
1118.189669720977
 30
0.0
 70
    32
  0
VERTEX
  5
E9C
  8
AM_VIS
 10
1308.0294878889249
 20
1118.1936697209781
 30
0.0
 70
    32
  0
VERTEX
  5
E9D
  8
AM_VIS
 10
1307.9454878889251
 20
1118.197669720977
 30
0.0
 70
    32
  0
VERTEX
  5
E9E
  8
AM_VIS
 10
1307.861487888925
 20
1118.2016697209781
 30
0.0
 70
    32
  0
VERTEX
  5
E9F
  8
AM_VIS
 10
1307.777487888925
 20
1118.2046697209771
 30
0.0
 70
    32
  0
VERTEX
  5
EA0
  8
AM_VIS
 10
1307.6934878889249
 20
1118.207669720977
 30
0.0
 70
    32
  0
VERTEX
  5
EA1
  8
AM_VIS
 10
1307.6094878889251
 20
1118.210669720977
 30
0.0
 70
    32
  0
VERTEX
  5
EA2
  8
AM_VIS
 10
1307.526487888925
 20
1118.2126697209769
 30
0.0
 70
    32
  0
VERTEX
  5
EA3
  8
AM_VIS
 10
1307.4424878889249
 20
1118.2146697209771
 30
0.0
 70
    32
  0
VERTEX
  5
EA4
  8
AM_VIS
 10
1307.3594878889251
 20
1118.2166697209771
 30
0.0
 70
    32
  0
VERTEX
  5
EA5
  8
AM_VIS
 10
1307.276487888925
 20
1118.217669720977
 30
0.0
 70
    32
  0
VERTEX
  5
EA6
  8
AM_VIS
 10
1307.1934878889249
 20
1118.218669720977
 30
0.0
 70
    32
  0
VERTEX
  5
EA7
  8
AM_VIS
 10
1307.1094878889251
 20
1118.219669720977
 30
0.0
 70
    32
  0
VERTEX
  5
EA8
  8
AM_VIS
 10
1307.026487888925
 20
1118.220669720977
 30
0.0
 70
    32
  0
VERTEX
  5
EA9
  8
AM_VIS
 10
1306.9434878889249
 20
1118.220669720977
 30
0.0
 70
    32
  0
VERTEX
  5
EAA
  8
AM_VIS
 10
1306.860487888925
 20
1118.220669720977
 30
0.0
 70
    32
  0
VERTEX
  5
EAB
  8
AM_VIS
 10
1306.777487888925
 20
1118.220669720977
 30
0.0
 70
    32
  0
VERTEX
  5
EAC
  8
AM_VIS
 10
1306.6944878889251
 20
1118.219669720977
 30
0.0
 70
    32
  0
VERTEX
  5
EAD
  8
AM_VIS
 10
1306.611487888925
 20
1118.218669720977
 30
0.0
 70
    32
  0
VERTEX
  5
EAE
  8
AM_VIS
 10
1306.5284878889261
 20
1118.217669720977
 30
0.0
 70
    32
  0
VERTEX
  5
EAF
  8
AM_VIS
 10
1306.445487888926
 20
1118.2166697209771
 30
0.0
 70
    32
  0
VERTEX
  5
EB0
  8
AM_VIS
 10
1306.361487888925
 20
1118.2146697209771
 30
0.0
 70
    32
  0
VERTEX
  5
EB1
  8
AM_VIS
 10
1306.2784878889249
 20
1118.2126697209769
 30
0.0
 70
    32
  0
VERTEX
  5
EB2
  8
AM_VIS
 10
1306.1944878889251
 20
1118.210669720977
 30
0.0
 70
    32
  0
VERTEX
  5
EB3
  8
AM_VIS
 10
1306.111487888925
 20
1118.207669720977
 30
0.0
 70
    32
  0
VERTEX
  5
EB4
  8
AM_VIS
 10
1306.027487888925
 20
1118.2046697209771
 30
0.0
 70
    32
  0
VERTEX
  5
EB5
  8
AM_VIS
 10
1305.943487888926
 20
1118.2016697209781
 30
0.0
 70
    32
  0
VERTEX
  5
EB6
  8
AM_VIS
 10
1305.8584878889251
 20
1118.197669720977
 30
0.0
 70
    32
  0
VERTEX
  5
EB7
  8
AM_VIS
 10
1305.774487888925
 20
1118.1936697209781
 30
0.0
 70
    32
  0
VERTEX
  5
EB8
  8
AM_VIS
 10
1305.689487888925
 20
1118.189669720977
 30
0.0
 70
    32
  0
VERTEX
  5
EB9
  8
AM_VIS
 10
1305.6054878889249
 20
1118.1856697209771
 30
0.0
 70
    32
  0
VERTEX
  5
EBA
  8
AM_VIS
 10
1305.5194878889261
 20
1118.180669720977
 30
0.0
 70
    32
  0
VERTEX
  5
EBB
  8
AM_VIS
 10
1305.4344878889251
 20
1118.1756697209771
 30
0.0
 70
    32
  0
VERTEX
  5
EBC
  8
AM_VIS
 10
1305.3484878889251
 20
1118.170669720977
 30
0.0
 70
    32
  0
VERTEX
  5
EBD
  8
AM_VIS
 10
1305.2624878889251
 20
1118.1646697209769
 30
0.0
 70
    32
  0
VERTEX
  5
EBE
  8
AM_VIS
 10
1305.1764878889251
 20
1118.1586697209771
 30
0.0
 70
    32
  0
VERTEX
  5
EBF
  8
AM_VIS
 10
1305.0904878889251
 20
1118.152669720977
 30
0.0
 70
    32
  0
VERTEX
  5
EC0
  8
AM_VIS
 10
1305.0034878889251
 20
1118.1456697209769
 30
0.0
 70
    32
  0
VERTEX
  5
EC1
  8
AM_VIS
 10
1304.9154878889251
 20
1118.1396697209771
 30
0.0
 70
    32
  0
VERTEX
  5
EC2
  8
AM_VIS
 10
1304.8274878889249
 20
1118.131669720977
 30
0.0
 70
    32
  0
VERTEX
  5
EC3
  8
AM_VIS
 10
1304.7394878889249
 20
1118.124669720977
 30
0.0
 70
    32
  0
VERTEX
  5
EC4
  8
AM_VIS
 10
1304.651487888925
 20
1118.1166697209769
 30
0.0
 70
    32
  0
VERTEX
  5
EC5
  8
AM_VIS
 10
1304.562487888925
 20
1118.1086697209771
 30
0.0
 70
    32
  0
VERTEX
  5
EC6
  8
AM_VIS
 10
1304.4724878889249
 20
1118.0996697209771
 30
0.0
 70
    32
  0
VERTEX
  5
EC7
  8
AM_VIS
 10
1304.382487888925
 20
1118.0906697209771
 30
0.0
 70
    32
  0
VERTEX
  5
EC8
  8
AM_VIS
 10
1304.291487888926
 20
1118.0816697209771
 30
0.0
 70
    32
  0
VERTEX
  5
EC9
  8
AM_VIS
 10
1304.200487888925
 20
1118.0716697209771
 30
0.0
 70
    32
  0
VERTEX
  5
ECA
  8
AM_VIS
 10
1304.1094878889251
 20
1118.0626697209771
 30
0.0
 70
    32
  0
VERTEX
  5
ECB
  8
AM_VIS
 10
1304.017487888925
 20
1118.0516697209771
 30
0.0
 70
    32
  0
VERTEX
  5
ECC
  8
AM_VIS
 10
1303.9244878889249
 20
1118.0416697209771
 30
0.0
 70
    32
  0
VERTEX
  5
ECD
  8
AM_VIS
 10
1303.8304878889251
 20
1118.0306697209769
 30
0.0
 70
    32
  0
VERTEX
  5
ECE
  8
AM_VIS
 10
1303.736487888925
 20
1118.018669720977
 30
0.0
 70
    32
  0
VERTEX
  5
ECF
  8
AM_VIS
 10
1303.641487888925
 20
1118.007669720977
 30
0.0
 70
    32
  0
VERTEX
  5
ED0
  8
AM_VIS
 10
1303.546487888925
 20
1117.995669720977
 30
0.0
 70
    32
  0
VERTEX
  5
ED1
  8
AM_VIS
 10
1303.450487888925
 20
1117.9826697209769
 30
0.0
 70
    32
  0
VERTEX
  5
ED2
  8
AM_VIS
 10
1303.353487888925
 20
1117.969669720977
 30
0.0
 70
    32
  0
VERTEX
  5
ED3
  8
AM_VIS
 10
1303.255487888925
 20
1117.9566697209771
 30
0.0
 70
    32
  0
VERTEX
  5
ED4
  8
AM_VIS
 10
1303.1574878889251
 20
1117.9426697209769
 30
0.0
 70
    32
  0
VERTEX
  5
ED5
  8
AM_VIS
 10
1303.0584878889249
 20
1117.928669720977
 30
0.0
 70
    32
  0
VERTEX
  5
ED6
  8
AM_VIS
 10
1302.957487888925
 20
1117.9146697209769
 30
0.0
 70
    32
  0
VERTEX
  5
ED7
  8
AM_VIS
 10
1302.8564878889249
 20
1117.899669720977
 30
0.0
 70
    32
  0
VERTEX
  5
ED8
  8
AM_VIS
 10
1302.755487888925
 20
1117.883669720977
 30
0.0
 70
    32
  0
VERTEX
  5
ED9
  8
AM_VIS
 10
1302.652487888925
 20
1117.8686697209771
 30
0.0
 70
    32
  0
SEQEND
  5
EDA
  8
AM_VIS
  0
POLYLINE
  5
EDB
  8
AM_VIS
 66
     1
 10
0.0
 20
0.0
 30
0.0
 70
     8
  0
VERTEX
  5
EDC
  8
AM_VIS
 10
1319.652487888925
 20
1117.8686697209771
 30
0.0
 70
    32
  0
VERTEX
  5
EDD
  8
AM_VIS
 10
1319.5494878889249
 20
1117.883669720977
 30
0.0
 70
    32
  0
VERTEX
  5
EDE
  8
AM_VIS
 10
1319.447487888925
 20
1117.899669720977
 30
0.0
 70
    32
  0
VERTEX
  5
EDF
  8
AM_VIS
 10
1319.3464878889249
 20
1117.9146697209769
 30
0.0
 70
    32
  0
VERTEX
  5
EE0
  8
AM_VIS
 10
1319.246487888925
 20
1117.928669720977
 30
0.0
 70
    32
  0
VERTEX
  5
EE1
  8
AM_VIS
 10
1319.1474878889251
 20
1117.9426697209769
 30
0.0
 70
    32
  0
VERTEX
  5
EE2
  8
AM_VIS
 10
1319.0484878889249
 20
1117.9566697209771
 30
0.0
 70
    32
  0
VERTEX
  5
EE3
  8
AM_VIS
 10
1318.950487888925
 20
1117.969669720977
 30
0.0
 70
    32
  0
VERTEX
  5
EE4
  8
AM_VIS
 10
1318.854487888925
 20
1117.9826697209769
 30
0.0
 70
    32
  0
VERTEX
  5
EE5
  8
AM_VIS
 10
1318.757487888925
 20
1117.995669720977
 30
0.0
 70
    32
  0
VERTEX
  5
EE6
  8
AM_VIS
 10
1318.6624878889249
 20
1118.007669720977
 30
0.0
 70
    32
  0
VERTEX
  5
EE7
  8
AM_VIS
 10
1318.5674878889249
 20
1118.018669720977
 30
0.0
 70
    32
  0
VERTEX
  5
EE8
  8
AM_VIS
 10
1318.4734878889251
 20
1118.0306697209769
 30
0.0
 70
    32
  0
VERTEX
  5
EE9
  8
AM_VIS
 10
1318.380487888925
 20
1118.0416697209771
 30
0.0
 70
    32
  0
VERTEX
  5
EEA
  8
AM_VIS
 10
1318.2874878889249
 20
1118.0516697209771
 30
0.0
 70
    32
  0
VERTEX
  5
EEB
  8
AM_VIS
 10
1318.1954878889251
 20
1118.0626697209771
 30
0.0
 70
    32
  0
VERTEX
  5
EEC
  8
AM_VIS
 10
1318.103487888925
 20
1118.0716697209771
 30
0.0
 70
    32
  0
VERTEX
  5
EED
  8
AM_VIS
 10
1318.0124878889251
 20
1118.0816697209771
 30
0.0
 70
    32
  0
VERTEX
  5
EEE
  8
AM_VIS
 10
1317.921487888925
 20
1118.0906697209771
 30
0.0
 70
    32
  0
VERTEX
  5
EEF
  8
AM_VIS
 10
1317.831487888925
 20
1118.0996697209771
 30
0.0
 70
    32
  0
VERTEX
  5
EF0
  8
AM_VIS
 10
1317.7424878889251
 20
1118.1086697209771
 30
0.0
 70
    32
  0
VERTEX
  5
EF1
  8
AM_VIS
 10
1317.6534878889249
 20
1118.1166697209769
 30
0.0
 70
    32
  0
VERTEX
  5
EF2
  8
AM_VIS
 10
1317.564487888925
 20
1118.124669720977
 30
0.0
 70
    32
  0
VERTEX
  5
EF3
  8
AM_VIS
 10
1317.476487888925
 20
1118.131669720977
 30
0.0
 70
    32
  0
VERTEX
  5
EF4
  8
AM_VIS
 10
1317.3884878889251
 20
1118.1396697209771
 30
0.0
 70
    32
  0
VERTEX
  5
EF5
  8
AM_VIS
 10
1317.3014878889251
 20
1118.1456697209769
 30
0.0
 70
    32
  0
VERTEX
  5
EF6
  8
AM_VIS
 10
1317.2144878889251
 20
1118.152669720977
 30
0.0
 70
    32
  0
VERTEX
  5
EF7
  8
AM_VIS
 10
1317.1274878889251
 20
1118.1586697209771
 30
0.0
 70
    32
  0
VERTEX
  5
EF8
  8
AM_VIS
 10
1317.0414878889251
 20
1118.1646697209769
 30
0.0
 70
    32
  0
VERTEX
  5
EF9
  8
AM_VIS
 10
1316.955487888926
 20
1118.170669720977
 30
0.0
 70
    32
  0
VERTEX
  5
EFA
  8
AM_VIS
 10
1316.8694878889251
 20
1118.1756697209771
 30
0.0
 70
    32
  0
VERTEX
  5
EFB
  8
AM_VIS
 10
1316.784487888925
 20
1118.180669720977
 30
0.0
 70
    32
  0
VERTEX
  5
EFC
  8
AM_VIS
 10
1316.699487888925
 20
1118.1856697209771
 30
0.0
 70
    32
  0
VERTEX
  5
EFD
  8
AM_VIS
 10
1316.6144878889249
 20
1118.189669720977
 30
0.0
 70
    32
  0
VERTEX
  5
EFE
  8
AM_VIS
 10
1316.5294878889249
 20
1118.1936697209781
 30
0.0
 70
    32
  0
VERTEX
  5
EFF
  8
AM_VIS
 10
1316.4454878889251
 20
1118.197669720977
 30
0.0
 70
    32
  0
VERTEX
  5
F00
  8
AM_VIS
 10
1316.361487888925
 20
1118.2016697209781
 30
0.0
 70
    32
  0
VERTEX
  5
F01
  8
AM_VIS
 10
1316.277487888925
 20
1118.2046697209771
 30
0.0
 70
    32
  0
VERTEX
  5
F02
  8
AM_VIS
 10
1316.1934878889249
 20
1118.207669720977
 30
0.0
 70
    32
  0
VERTEX
  5
F03
  8
AM_VIS
 10
1316.1094878889251
 20
1118.210669720977
 30
0.0
 70
    32
  0
VERTEX
  5
F04
  8
AM_VIS
 10
1316.026487888925
 20
1118.2126697209769
 30
0.0
 70
    32
  0
VERTEX
  5
F05
  8
AM_VIS
 10
1315.9424878889249
 20
1118.2146697209771
 30
0.0
 70
    32
  0
VERTEX
  5
F06
  8
AM_VIS
 10
1315.8594878889251
 20
1118.2166697209771
 30
0.0
 70
    32
  0
VERTEX
  5
F07
  8
AM_VIS
 10
1315.776487888925
 20
1118.217669720977
 30
0.0
 70
    32
  0
VERTEX
  5
F08
  8
AM_VIS
 10
1315.6934878889249
 20
1118.218669720977
 30
0.0
 70
    32
  0
VERTEX
  5
F09
  8
AM_VIS
 10
1315.6094878889251
 20
1118.219669720977
 30
0.0
 70
    32
  0
VERTEX
  5
F0A
  8
AM_VIS
 10
1315.526487888925
 20
1118.220669720977
 30
0.0
 70
    32
  0
VERTEX
  5
F0B
  8
AM_VIS
 10
1315.443487888926
 20
1118.220669720977
 30
0.0
 70
    32
  0
VERTEX
  5
F0C
  8
AM_VIS
 10
1315.360487888925
 20
1118.220669720977
 30
0.0
 70
    32
  0
VERTEX
  5
F0D
  8
AM_VIS
 10
1315.277487888925
 20
1118.220669720977
 30
0.0
 70
    32
  0
VERTEX
  5
F0E
  8
AM_VIS
 10
1315.1944878889251
 20
1118.219669720977
 30
0.0
 70
    32
  0
VERTEX
  5
F0F
  8
AM_VIS
 10
1315.111487888925
 20
1118.218669720977
 30
0.0
 70
    32
  0
VERTEX
  5
F10
  8
AM_VIS
 10
1315.0284878889249
 20
1118.217669720977
 30
0.0
 70
    32
  0
VERTEX
  5
F11
  8
AM_VIS
 10
1314.9454878889251
 20
1118.2166697209771
 30
0.0
 70
    32
  0
VERTEX
  5
F12
  8
AM_VIS
 10
1314.861487888925
 20
1118.2146697209771
 30
0.0
 70
    32
  0
VERTEX
  5
F13
  8
AM_VIS
 10
1314.7784878889249
 20
1118.2126697209769
 30
0.0
 70
    32
  0
VERTEX
  5
F14
  8
AM_VIS
 10
1314.6944878889251
 20
1118.210669720977
 30
0.0
 70
    32
  0
VERTEX
  5
F15
  8
AM_VIS
 10
1314.611487888925
 20
1118.207669720977
 30
0.0
 70
    32
  0
VERTEX
  5
F16
  8
AM_VIS
 10
1314.527487888925
 20
1118.2046697209771
 30
0.0
 70
    32
  0
VERTEX
  5
F17
  8
AM_VIS
 10
1314.4434878889249
 20
1118.2016697209781
 30
0.0
 70
    32
  0
VERTEX
  5
F18
  8
AM_VIS
 10
1314.3584878889251
 20
1118.197669720977
 30
0.0
 70
    32
  0
VERTEX
  5
F19
  8
AM_VIS
 10
1314.274487888925
 20
1118.1936697209781
 30
0.0
 70
    32
  0
VERTEX
  5
F1A
  8
AM_VIS
 10
1314.189487888925
 20
1118.189669720977
 30
0.0
 70
    32
  0
VERTEX
  5
F1B
  8
AM_VIS
 10
1314.1054878889249
 20
1118.1856697209771
 30
0.0
 70
    32
  0
VERTEX
  5
F1C
  8
AM_VIS
 10
1314.0194878889249
 20
1118.180669720977
 30
0.0
 70
    32
  0
VERTEX
  5
F1D
  8
AM_VIS
 10
1313.9344878889251
 20
1118.1756697209771
 30
0.0
 70
    32
  0
VERTEX
  5
F1E
  8
AM_VIS
 10
1313.848487888926
 20
1118.170669720977
 30
0.0
 70
    32
  0
VERTEX
  5
F1F
  8
AM_VIS
 10
1313.7624878889251
 20
1118.1646697209769
 30
0.0
 70
    32
  0
VERTEX
  5
F20
  8
AM_VIS
 10
1313.6764878889251
 20
1118.1586697209771
 30
0.0
 70
    32
  0
VERTEX
  5
F21
  8
AM_VIS
 10
1313.5904878889251
 20
1118.152669720977
 30
0.0
 70
    32
  0
VERTEX
  5
F22
  8
AM_VIS
 10
1313.5034878889251
 20
1118.1456697209769
 30
0.0
 70
    32
  0
VERTEX
  5
F23
  8
AM_VIS
 10
1313.4154878889251
 20
1118.1396697209771
 30
0.0
 70
    32
  0
VERTEX
  5
F24
  8
AM_VIS
 10
1313.327487888926
 20
1118.131669720977
 30
0.0
 70
    32
  0
VERTEX
  5
F25
  8
AM_VIS
 10
1313.2394878889249
 20
1118.124669720977
 30
0.0
 70
    32
  0
VERTEX
  5
F26
  8
AM_VIS
 10
1313.151487888925
 20
1118.1166697209769
 30
0.0
 70
    32
  0
VERTEX
  5
F27
  8
AM_VIS
 10
1313.062487888925
 20
1118.1086697209771
 30
0.0
 70
    32
  0
VERTEX
  5
F28
  8
AM_VIS
 10
1312.9724878889249
 20
1118.0996697209771
 30
0.0
 70
    32
  0
VERTEX
  5
F29
  8
AM_VIS
 10
1312.882487888925
 20
1118.0906697209771
 30
0.0
 70
    32
  0
VERTEX
  5
F2A
  8
AM_VIS
 10
1312.7914878889251
 20
1118.0816697209771
 30
0.0
 70
    32
  0
VERTEX
  5
F2B
  8
AM_VIS
 10
1312.700487888925
 20
1118.0716697209771
 30
0.0
 70
    32
  0
VERTEX
  5
F2C
  8
AM_VIS
 10
1312.6094878889251
 20
1118.0626697209771
 30
0.0
 70
    32
  0
VERTEX
  5
F2D
  8
AM_VIS
 10
1312.517487888925
 20
1118.0516697209771
 30
0.0
 70
    32
  0
VERTEX
  5
F2E
  8
AM_VIS
 10
1312.4244878889249
 20
1118.0416697209771
 30
0.0
 70
    32
  0
VERTEX
  5
F2F
  8
AM_VIS
 10
1312.3304878889251
 20
1118.0306697209769
 30
0.0
 70
    32
  0
VERTEX
  5
F30
  8
AM_VIS
 10
1312.236487888925
 20
1118.018669720977
 30
0.0
 70
    32
  0
VERTEX
  5
F31
  8
AM_VIS
 10
1312.141487888925
 20
1118.007669720977
 30
0.0
 70
    32
  0
VERTEX
  5
F32
  8
AM_VIS
 10
1312.046487888925
 20
1117.995669720977
 30
0.0
 70
    32
  0
VERTEX
  5
F33
  8
AM_VIS
 10
1311.950487888925
 20
1117.9826697209769
 30
0.0
 70
    32
  0
VERTEX
  5
F34
  8
AM_VIS
 10
1311.853487888925
 20
1117.969669720977
 30
0.0
 70
    32
  0
VERTEX
  5
F35
  8
AM_VIS
 10
1311.755487888925
 20
1117.9566697209771
 30
0.0
 70
    32
  0
VERTEX
  5
F36
  8
AM_VIS
 10
1311.6574878889251
 20
1117.9426697209769
 30
0.0
 70
    32
  0
VERTEX
  5
F37
  8
AM_VIS
 10
1311.5584878889249
 20
1117.928669720977
 30
0.0
 70
    32
  0
VERTEX
  5
F38
  8
AM_VIS
 10
1311.457487888925
 20
1117.9146697209769
 30
0.0
 70
    32
  0
VERTEX
  5
F39
  8
AM_VIS
 10
1311.3564878889249
 20
1117.899669720977
 30
0.0
 70
    32
  0
VERTEX
  5
F3A
  8
AM_VIS
 10
1311.255487888925
 20
1117.883669720977
 30
0.0
 70
    32
  0
VERTEX
  5
F3B
  8
AM_VIS
 10
1311.152487888925
 20
1117.8686697209771
 30
0.0
 70
    32
  0
SEQEND
  5
F3C
  8
AM_VIS
  0
POLYLINE
  5
F3D
  8
AM_VIS
 66
     1
 10
0.0
 20
0.0
 30
0.0
 70
     8
  0
VERTEX
  5
F3E
  8
AM_VIS
 10
1302.652487888925
 20
1110.4536697209769
 30
0.0
 70
    32
  0
VERTEX
  5
F3F
  8
AM_VIS
 10
1302.755487888925
 20
1110.4376697209771
 30
0.0
 70
    32
  0
VERTEX
  5
F40
  8
AM_VIS
 10
1302.8564878889249
 20
1110.422669720977
 30
0.0
 70
    32
  0
VERTEX
  5
F41
  8
AM_VIS
 10
1302.957487888925
 20
1110.4076697209771
 30
0.0
 70
    32
  0
VERTEX
  5
F42
  8
AM_VIS
 10
1303.0584878889249
 20
1110.392669720977
 30
0.0
 70
    32
  0
VERTEX
  5
F43
  8
AM_VIS
 10
1303.1574878889251
 20
1110.3786697209771
 30
0.0
 70
    32
  0
VERTEX
  5
F44
  8
AM_VIS
 10
1303.255487888925
 20
1110.3656697209781
 30
0.0
 70
    32
  0
VERTEX
  5
F45
  8
AM_VIS
 10
1303.353487888925
 20
1110.351669720977
 30
0.0
 70
    32
  0
VERTEX
  5
F46
  8
AM_VIS
 10
1303.450487888925
 20
1110.3386697209769
 30
0.0
 70
    32
  0
VERTEX
  5
F47
  8
AM_VIS
 10
1303.546487888925
 20
1110.326669720977
 30
0.0
 70
    32
  0
VERTEX
  5
F48
  8
AM_VIS
 10
1303.641487888925
 20
1110.314669720977
 30
0.0
 70
    32
  0
VERTEX
  5
F49
  8
AM_VIS
 10
1303.736487888925
 20
1110.3026697209771
 30
0.0
 70
    32
  0
VERTEX
  5
F4A
  8
AM_VIS
 10
1303.8304878889251
 20
1110.2916697209771
 30
0.0
 70
    32
  0
VERTEX
  5
F4B
  8
AM_VIS
 10
1303.9244878889249
 20
1110.2806697209769
 30
0.0
 70
    32
  0
VERTEX
  5
F4C
  8
AM_VIS
 10
1304.017487888925
 20
1110.2696697209769
 30
0.0
 70
    32
  0
VERTEX
  5
F4D
  8
AM_VIS
 10
1304.1094878889251
 20
1110.2596697209769
 30
0.0
 70
    32
  0
VERTEX
  5
F4E
  8
AM_VIS
 10
1304.200487888925
 20
1110.249669720977
 30
0.0
 70
    32
  0
VERTEX
  5
F4F
  8
AM_VIS
 10
1304.291487888926
 20
1110.239669720977
 30
0.0
 70
    32
  0
VERTEX
  5
F50
  8
AM_VIS
 10
1304.382487888925
 20
1110.2306697209769
 30
0.0
 70
    32
  0
VERTEX
  5
F51
  8
AM_VIS
 10
1304.4724878889249
 20
1110.2216697209769
 30
0.0
 70
    32
  0
VERTEX
  5
F52
  8
AM_VIS
 10
1304.562487888925
 20
1110.2136697209769
 30
0.0
 70
    32
  0
VERTEX
  5
F53
  8
AM_VIS
 10
1304.651487888925
 20
1110.2056697209771
 30
0.0
 70
    32
  0
VERTEX
  5
F54
  8
AM_VIS
 10
1304.7394878889249
 20
1110.197669720977
 30
0.0
 70
    32
  0
VERTEX
  5
F55
  8
AM_VIS
 10
1304.8274878889249
 20
1110.189669720977
 30
0.0
 70
    32
  0
VERTEX
  5
F56
  8
AM_VIS
 10
1304.9154878889251
 20
1110.1826697209781
 30
0.0
 70
    32
  0
VERTEX
  5
F57
  8
AM_VIS
 10
1305.0034878889251
 20
1110.1756697209771
 30
0.0
 70
    32
  0
VERTEX
  5
F58
  8
AM_VIS
 10
1305.0904878889251
 20
1110.1686697209771
 30
0.0
 70
    32
  0
VERTEX
  5
F59
  8
AM_VIS
 10
1305.1764878889251
 20
1110.1626697209781
 30
0.0
 70
    32
  0
VERTEX
  5
F5A
  8
AM_VIS
 10
1305.2624878889251
 20
1110.1566697209771
 30
0.0
 70
    32
  0
VERTEX
  5
F5B
  8
AM_VIS
 10
1305.3484878889251
 20
1110.151669720977
 30
0.0
 70
    32
  0
VERTEX
  5
F5C
  8
AM_VIS
 10
1305.4344878889251
 20
1110.1456697209769
 30
0.0
 70
    32
  0
VERTEX
  5
F5D
  8
AM_VIS
 10
1305.5194878889261
 20
1110.140669720977
 30
0.0
 70
    32
  0
VERTEX
  5
F5E
  8
AM_VIS
 10
1305.6054878889249
 20
1110.1356697209769
 30
0.0
 70
    32
  0
VERTEX
  5
F5F
  8
AM_VIS
 10
1305.689487888925
 20
1110.131669720977
 30
0.0
 70
    32
  0
VERTEX
  5
F60
  8
AM_VIS
 10
1305.774487888925
 20
1110.1276697209771
 30
0.0
 70
    32
  0
VERTEX
  5
F61
  8
AM_VIS
 10
1305.8584878889251
 20
1110.123669720977
 30
0.0
 70
    32
  0
VERTEX
  5
F62
  8
AM_VIS
 10
1305.943487888926
 20
1110.120669720977
 30
0.0
 70
    32
  0
VERTEX
  5
F63
  8
AM_VIS
 10
1306.027487888925
 20
1110.1166697209769
 30
0.0
 70
    32
  0
VERTEX
  5
F64
  8
AM_VIS
 10
1306.111487888925
 20
1110.114669720977
 30
0.0
 70
    32
  0
VERTEX
  5
F65
  8
AM_VIS
 10
1306.1944878889251
 20
1110.111669720977
 30
0.0
 70
    32
  0
VERTEX
  5
F66
  8
AM_VIS
 10
1306.2784878889249
 20
1110.1096697209771
 30
0.0
 70
    32
  0
VERTEX
  5
F67
  8
AM_VIS
 10
1306.361487888925
 20
1110.1076697209769
 30
0.0
 70
    32
  0
VERTEX
  5
F68
  8
AM_VIS
 10
1306.445487888926
 20
1110.1056697209769
 30
0.0
 70
    32
  0
VERTEX
  5
F69
  8
AM_VIS
 10
1306.5284878889261
 20
1110.103669720977
 30
0.0
 70
    32
  0
VERTEX
  5
F6A
  8
AM_VIS
 10
1306.611487888925
 20
1110.102669720977
 30
0.0
 70
    32
  0
VERTEX
  5
F6B
  8
AM_VIS
 10
1306.6944878889251
 20
1110.101669720977
 30
0.0
 70
    32
  0
VERTEX
  5
F6C
  8
AM_VIS
 10
1306.777487888925
 20
1110.101669720977
 30
0.0
 70
    32
  0
VERTEX
  5
F6D
  8
AM_VIS
 10
1306.860487888925
 20
1110.1006697209771
 30
0.0
 70
    32
  0
VERTEX
  5
F6E
  8
AM_VIS
 10
1306.9434878889249
 20
1110.1006697209771
 30
0.0
 70
    32
  0
VERTEX
  5
F6F
  8
AM_VIS
 10
1307.026487888925
 20
1110.101669720977
 30
0.0
 70
    32
  0
VERTEX
  5
F70
  8
AM_VIS
 10
1307.1094878889251
 20
1110.101669720977
 30
0.0
 70
    32
  0
VERTEX
  5
F71
  8
AM_VIS
 10
1307.1934878889249
 20
1110.102669720977
 30
0.0
 70
    32
  0
VERTEX
  5
F72
  8
AM_VIS
 10
1307.276487888925
 20
1110.103669720977
 30
0.0
 70
    32
  0
VERTEX
  5
F73
  8
AM_VIS
 10
1307.3594878889251
 20
1110.1056697209769
 30
0.0
 70
    32
  0
VERTEX
  5
F74
  8
AM_VIS
 10
1307.4424878889249
 20
1110.1076697209769
 30
0.0
 70
    32
  0
VERTEX
  5
F75
  8
AM_VIS
 10
1307.526487888925
 20
1110.1096697209771
 30
0.0
 70
    32
  0
VERTEX
  5
F76
  8
AM_VIS
 10
1307.6094878889251
 20
1110.111669720977
 30
0.0
 70
    32
  0
VERTEX
  5
F77
  8
AM_VIS
 10
1307.6934878889249
 20
1110.114669720977
 30
0.0
 70
    32
  0
VERTEX
  5
F78
  8
AM_VIS
 10
1307.777487888925
 20
1110.1166697209769
 30
0.0
 70
    32
  0
VERTEX
  5
F79
  8
AM_VIS
 10
1307.861487888925
 20
1110.120669720977
 30
0.0
 70
    32
  0
VERTEX
  5
F7A
  8
AM_VIS
 10
1307.9454878889251
 20
1110.123669720977
 30
0.0
 70
    32
  0
VERTEX
  5
F7B
  8
AM_VIS
 10
1308.0294878889249
 20
1110.1276697209771
 30
0.0
 70
    32
  0
VERTEX
  5
F7C
  8
AM_VIS
 10
1308.1144878889249
 20
1110.131669720977
 30
0.0
 70
    32
  0
VERTEX
  5
F7D
  8
AM_VIS
 10
1308.199487888925
 20
1110.1356697209769
 30
0.0
 70
    32
  0
VERTEX
  5
F7E
  8
AM_VIS
 10
1308.284487888925
 20
1110.140669720977
 30
0.0
 70
    32
  0
VERTEX
  5
F7F
  8
AM_VIS
 10
1308.3694878889251
 20
1110.1456697209769
 30
0.0
 70
    32
  0
VERTEX
  5
F80
  8
AM_VIS
 10
1308.4554878889251
 20
1110.151669720977
 30
0.0
 70
    32
  0
VERTEX
  5
F81
  8
AM_VIS
 10
1308.5414878889251
 20
1110.1566697209771
 30
0.0
 70
    32
  0
VERTEX
  5
F82
  8
AM_VIS
 10
1308.6274878889251
 20
1110.1626697209781
 30
0.0
 70
    32
  0
VERTEX
  5
F83
  8
AM_VIS
 10
1308.7144878889251
 20
1110.1686697209771
 30
0.0
 70
    32
  0
VERTEX
  5
F84
  8
AM_VIS
 10
1308.8014878889251
 20
1110.1756697209771
 30
0.0
 70
    32
  0
VERTEX
  5
F85
  8
AM_VIS
 10
1308.8884878889251
 20
1110.1826697209781
 30
0.0
 70
    32
  0
VERTEX
  5
F86
  8
AM_VIS
 10
1308.976487888925
 20
1110.189669720977
 30
0.0
 70
    32
  0
VERTEX
  5
F87
  8
AM_VIS
 10
1309.064487888925
 20
1110.197669720977
 30
0.0
 70
    32
  0
VERTEX
  5
F88
  8
AM_VIS
 10
1309.1534878889249
 20
1110.2056697209771
 30
0.0
 70
    32
  0
VERTEX
  5
F89
  8
AM_VIS
 10
1309.2424878889251
 20
1110.2136697209769
 30
0.0
 70
    32
  0
VERTEX
  5
F8A
  8
AM_VIS
 10
1309.331487888925
 20
1110.2216697209769
 30
0.0
 70
    32
  0
VERTEX
  5
F8B
  8
AM_VIS
 10
1309.421487888925
 20
1110.2306697209769
 30
0.0
 70
    32
  0
VERTEX
  5
F8C
  8
AM_VIS
 10
1309.5124878889251
 20
1110.239669720977
 30
0.0
 70
    32
  0
VERTEX
  5
F8D
  8
AM_VIS
 10
1309.603487888925
 20
1110.249669720977
 30
0.0
 70
    32
  0
VERTEX
  5
F8E
  8
AM_VIS
 10
1309.6954878889251
 20
1110.2596697209769
 30
0.0
 70
    32
  0
VERTEX
  5
F8F
  8
AM_VIS
 10
1309.7874878889249
 20
1110.2696697209769
 30
0.0
 70
    32
  0
VERTEX
  5
F90
  8
AM_VIS
 10
1309.880487888925
 20
1110.2806697209769
 30
0.0
 70
    32
  0
VERTEX
  5
F91
  8
AM_VIS
 10
1309.9734878889251
 20
1110.2916697209771
 30
0.0
 70
    32
  0
VERTEX
  5
F92
  8
AM_VIS
 10
1310.0674878889249
 20
1110.3026697209771
 30
0.0
 70
    32
  0
VERTEX
  5
F93
  8
AM_VIS
 10
1310.1624878889249
 20
1110.314669720977
 30
0.0
 70
    32
  0
VERTEX
  5
F94
  8
AM_VIS
 10
1310.257487888925
 20
1110.326669720977
 30
0.0
 70
    32
  0
VERTEX
  5
F95
  8
AM_VIS
 10
1310.354487888925
 20
1110.3386697209769
 30
0.0
 70
    32
  0
VERTEX
  5
F96
  8
AM_VIS
 10
1310.450487888925
 20
1110.351669720977
 30
0.0
 70
    32
  0
VERTEX
  5
F97
  8
AM_VIS
 10
1310.5484878889249
 20
1110.3656697209781
 30
0.0
 70
    32
  0
VERTEX
  5
F98
  8
AM_VIS
 10
1310.6474878889251
 20
1110.3786697209771
 30
0.0
 70
    32
  0
VERTEX
  5
F99
  8
AM_VIS
 10
1310.746487888925
 20
1110.392669720977
 30
0.0
 70
    32
  0
VERTEX
  5
F9A
  8
AM_VIS
 10
1310.8464878889249
 20
1110.4076697209771
 30
0.0
 70
    32
  0
VERTEX
  5
F9B
  8
AM_VIS
 10
1310.947487888925
 20
1110.422669720977
 30
0.0
 70
    32
  0
VERTEX
  5
F9C
  8
AM_VIS
 10
1311.0494878889249
 20
1110.4376697209771
 30
0.0
 70
    32
  0
VERTEX
  5
F9D
  8
AM_VIS
 10
1311.152487888925
 20
1110.4536697209769
 30
0.0
 70
    32
  0
SEQEND
  5
F9E
  8
AM_VIS
  0
POLYLINE
  5
F9F
  8
AM_VIS
 66
     1
 10
0.0
 20
0.0
 30
0.0
 70
     8
  0
VERTEX
  5
FA0
  8
AM_VIS
 10
1311.152487888925
 20
1110.4536697209769
 30
0.0
 70
    32
  0
VERTEX
  5
FA1
  8
AM_VIS
 10
1311.255487888925
 20
1110.4376697209771
 30
0.0
 70
    32
  0
VERTEX
  5
FA2
  8
AM_VIS
 10
1311.3564878889249
 20
1110.422669720977
 30
0.0
 70
    32
  0
VERTEX
  5
FA3
  8
AM_VIS
 10
1311.457487888925
 20
1110.4076697209771
 30
0.0
 70
    32
  0
VERTEX
  5
FA4
  8
AM_VIS
 10
1311.5584878889249
 20
1110.392669720977
 30
0.0
 70
    32
  0
VERTEX
  5
FA5
  8
AM_VIS
 10
1311.6574878889251
 20
1110.3786697209771
 30
0.0
 70
    32
  0
VERTEX
  5
FA6
  8
AM_VIS
 10
1311.755487888925
 20
1110.3656697209781
 30
0.0
 70
    32
  0
VERTEX
  5
FA7
  8
AM_VIS
 10
1311.853487888925
 20
1110.351669720977
 30
0.0
 70
    32
  0
VERTEX
  5
FA8
  8
AM_VIS
 10
1311.950487888925
 20
1110.3386697209769
 30
0.0
 70
    32
  0
VERTEX
  5
FA9
  8
AM_VIS
 10
1312.046487888925
 20
1110.326669720977
 30
0.0
 70
    32
  0
VERTEX
  5
FAA
  8
AM_VIS
 10
1312.141487888925
 20
1110.314669720977
 30
0.0
 70
    32
  0
VERTEX
  5
FAB
  8
AM_VIS
 10
1312.236487888925
 20
1110.3026697209771
 30
0.0
 70
    32
  0
VERTEX
  5
FAC
  8
AM_VIS
 10
1312.3304878889251
 20
1110.2916697209771
 30
0.0
 70
    32
  0
VERTEX
  5
FAD
  8
AM_VIS
 10
1312.4244878889249
 20
1110.2806697209769
 30
0.0
 70
    32
  0
VERTEX
  5
FAE
  8
AM_VIS
 10
1312.517487888925
 20
1110.2696697209769
 30
0.0
 70
    32
  0
VERTEX
  5
FAF
  8
AM_VIS
 10
1312.6094878889251
 20
1110.2596697209769
 30
0.0
 70
    32
  0
VERTEX
  5
FB0
  8
AM_VIS
 10
1312.700487888925
 20
1110.249669720977
 30
0.0
 70
    32
  0
VERTEX
  5
FB1
  8
AM_VIS
 10
1312.7914878889251
 20
1110.239669720977
 30
0.0
 70
    32
  0
VERTEX
  5
FB2
  8
AM_VIS
 10
1312.882487888925
 20
1110.2306697209769
 30
0.0
 70
    32
  0
VERTEX
  5
FB3
  8
AM_VIS
 10
1312.9724878889249
 20
1110.2216697209769
 30
0.0
 70
    32
  0
VERTEX
  5
FB4
  8
AM_VIS
 10
1313.062487888925
 20
1110.2136697209769
 30
0.0
 70
    32
  0
VERTEX
  5
FB5
  8
AM_VIS
 10
1313.151487888925
 20
1110.2056697209771
 30
0.0
 70
    32
  0
VERTEX
  5
FB6
  8
AM_VIS
 10
1313.2394878889249
 20
1110.197669720977
 30
0.0
 70
    32
  0
VERTEX
  5
FB7
  8
AM_VIS
 10
1313.327487888926
 20
1110.189669720977
 30
0.0
 70
    32
  0
VERTEX
  5
FB8
  8
AM_VIS
 10
1313.4154878889251
 20
1110.1826697209781
 30
0.0
 70
    32
  0
VERTEX
  5
FB9
  8
AM_VIS
 10
1313.5034878889251
 20
1110.1756697209771
 30
0.0
 70
    32
  0
VERTEX
  5
FBA
  8
AM_VIS
 10
1313.5904878889251
 20
1110.1686697209771
 30
0.0
 70
    32
  0
VERTEX
  5
FBB
  8
AM_VIS
 10
1313.6764878889251
 20
1110.1626697209781
 30
0.0
 70
    32
  0
VERTEX
  5
FBC
  8
AM_VIS
 10
1313.7624878889251
 20
1110.1566697209771
 30
0.0
 70
    32
  0
VERTEX
  5
FBD
  8
AM_VIS
 10
1313.848487888926
 20
1110.151669720977
 30
0.0
 70
    32
  0
VERTEX
  5
FBE
  8
AM_VIS
 10
1313.9344878889251
 20
1110.1456697209769
 30
0.0
 70
    32
  0
VERTEX
  5
FBF
  8
AM_VIS
 10
1314.0194878889249
 20
1110.140669720977
 30
0.0
 70
    32
  0
VERTEX
  5
FC0
  8
AM_VIS
 10
1314.1054878889249
 20
1110.1356697209769
 30
0.0
 70
    32
  0
VERTEX
  5
FC1
  8
AM_VIS
 10
1314.189487888925
 20
1110.131669720977
 30
0.0
 70
    32
  0
VERTEX
  5
FC2
  8
AM_VIS
 10
1314.274487888925
 20
1110.1276697209771
 30
0.0
 70
    32
  0
VERTEX
  5
FC3
  8
AM_VIS
 10
1314.3584878889251
 20
1110.123669720977
 30
0.0
 70
    32
  0
VERTEX
  5
FC4
  8
AM_VIS
 10
1314.4434878889249
 20
1110.120669720977
 30
0.0
 70
    32
  0
VERTEX
  5
FC5
  8
AM_VIS
 10
1314.527487888925
 20
1110.1166697209769
 30
0.0
 70
    32
  0
VERTEX
  5
FC6
  8
AM_VIS
 10
1314.611487888925
 20
1110.114669720977
 30
0.0
 70
    32
  0
VERTEX
  5
FC7
  8
AM_VIS
 10
1314.6944878889251
 20
1110.111669720977
 30
0.0
 70
    32
  0
VERTEX
  5
FC8
  8
AM_VIS
 10
1314.7784878889249
 20
1110.1096697209771
 30
0.0
 70
    32
  0
VERTEX
  5
FC9
  8
AM_VIS
 10
1314.861487888925
 20
1110.1076697209769
 30
0.0
 70
    32
  0
VERTEX
  5
FCA
  8
AM_VIS
 10
1314.9454878889251
 20
1110.1056697209769
 30
0.0
 70
    32
  0
VERTEX
  5
FCB
  8
AM_VIS
 10
1315.0284878889249
 20
1110.103669720977
 30
0.0
 70
    32
  0
VERTEX
  5
FCC
  8
AM_VIS
 10
1315.111487888925
 20
1110.102669720977
 30
0.0
 70
    32
  0
VERTEX
  5
FCD
  8
AM_VIS
 10
1315.1944878889251
 20
1110.101669720977
 30
0.0
 70
    32
  0
VERTEX
  5
FCE
  8
AM_VIS
 10
1315.277487888925
 20
1110.101669720977
 30
0.0
 70
    32
  0
VERTEX
  5
FCF
  8
AM_VIS
 10
1315.360487888925
 20
1110.1006697209771
 30
0.0
 70
    32
  0
VERTEX
  5
FD0
  8
AM_VIS
 10
1315.443487888926
 20
1110.1006697209771
 30
0.0
 70
    32
  0
VERTEX
  5
FD1
  8
AM_VIS
 10
1315.526487888925
 20
1110.101669720977
 30
0.0
 70
    32
  0
VERTEX
  5
FD2
  8
AM_VIS
 10
1315.6094878889251
 20
1110.101669720977
 30
0.0
 70
    32
  0
VERTEX
  5
FD3
  8
AM_VIS
 10
1315.6934878889249
 20
1110.102669720977
 30
0.0
 70
    32
  0
VERTEX
  5
FD4
  8
AM_VIS
 10
1315.776487888925
 20
1110.103669720977
 30
0.0
 70
    32
  0
VERTEX
  5
FD5
  8
AM_VIS
 10
1315.8594878889251
 20
1110.1056697209769
 30
0.0
 70
    32
  0
VERTEX
  5
FD6
  8
AM_VIS
 10
1315.9424878889249
 20
1110.1076697209769
 30
0.0
 70
    32
  0
VERTEX
  5
FD7
  8
AM_VIS
 10
1316.026487888925
 20
1110.1096697209771
 30
0.0
 70
    32
  0
VERTEX
  5
FD8
  8
AM_VIS
 10
1316.1094878889251
 20
1110.111669720977
 30
0.0
 70
    32
  0
VERTEX
  5
FD9
  8
AM_VIS
 10
1316.1934878889249
 20
1110.114669720977
 30
0.0
 70
    32
  0
VERTEX
  5
FDA
  8
AM_VIS
 10
1316.277487888925
 20
1110.1166697209769
 30
0.0
 70
    32
  0
VERTEX
  5
FDB
  8
AM_VIS
 10
1316.361487888925
 20
1110.120669720977
 30
0.0
 70
    32
  0
VERTEX
  5
FDC
  8
AM_VIS
 10
1316.4454878889251
 20
1110.123669720977
 30
0.0
 70
    32
  0
VERTEX
  5
FDD
  8
AM_VIS
 10
1316.5294878889249
 20
1110.1276697209771
 30
0.0
 70
    32
  0
VERTEX
  5
FDE
  8
AM_VIS
 10
1316.6144878889249
 20
1110.131669720977
 30
0.0
 70
    32
  0
VERTEX
  5
FDF
  8
AM_VIS
 10
1316.699487888925
 20
1110.1356697209769
 30
0.0
 70
    32
  0
VERTEX
  5
FE0
  8
AM_VIS
 10
1316.784487888925
 20
1110.140669720977
 30
0.0
 70
    32
  0
VERTEX
  5
FE1
  8
AM_VIS
 10
1316.8694878889251
 20
1110.1456697209769
 30
0.0
 70
    32
  0
VERTEX
  5
FE2
  8
AM_VIS
 10
1316.955487888926
 20
1110.151669720977
 30
0.0
 70
    32
  0
VERTEX
  5
FE3
  8
AM_VIS
 10
1317.0414878889251
 20
1110.1566697209771
 30
0.0
 70
    32
  0
VERTEX
  5
FE4
  8
AM_VIS
 10
1317.1274878889251
 20
1110.1626697209781
 30
0.0
 70
    32
  0
VERTEX
  5
FE5
  8
AM_VIS
 10
1317.2144878889251
 20
1110.1686697209771
 30
0.0
 70
    32
  0
VERTEX
  5
FE6
  8
AM_VIS
 10
1317.3014878889251
 20
1110.1756697209771
 30
0.0
 70
    32
  0
VERTEX
  5
FE7
  8
AM_VIS
 10
1317.3884878889251
 20
1110.1826697209781
 30
0.0
 70
    32
  0
VERTEX
  5
FE8
  8
AM_VIS
 10
1317.476487888925
 20
1110.189669720977
 30
0.0
 70
    32
  0
VERTEX
  5
FE9
  8
AM_VIS
 10
1317.564487888925
 20
1110.197669720977
 30
0.0
 70
    32
  0
VERTEX
  5
FEA
  8
AM_VIS
 10
1317.6534878889249
 20
1110.2056697209771
 30
0.0
 70
    32
  0
VERTEX
  5
FEB
  8
AM_VIS
 10
1317.7424878889251
 20
1110.2136697209769
 30
0.0
 70
    32
  0
VERTEX
  5
FEC
  8
AM_VIS
 10
1317.831487888925
 20
1110.2216697209769
 30
0.0
 70
    32
  0
VERTEX
  5
FED
  8
AM_VIS
 10
1317.921487888925
 20
1110.2306697209769
 30
0.0
 70
    32
  0
VERTEX
  5
FEE
  8
AM_VIS
 10
1318.0124878889251
 20
1110.239669720977
 30
0.0
 70
    32
  0
VERTEX
  5
FEF
  8
AM_VIS
 10
1318.103487888925
 20
1110.249669720977
 30
0.0
 70
    32
  0
VERTEX
  5
FF0
  8
AM_VIS
 10
1318.1954878889251
 20
1110.2596697209769
 30
0.0
 70
    32
  0
VERTEX
  5
FF1
  8
AM_VIS
 10
1318.2874878889249
 20
1110.2696697209769
 30
0.0
 70
    32
  0
VERTEX
  5
FF2
  8
AM_VIS
 10
1318.380487888925
 20
1110.2806697209769
 30
0.0
 70
    32
  0
VERTEX
  5
FF3
  8
AM_VIS
 10
1318.4734878889251
 20
1110.2916697209771
 30
0.0
 70
    32
  0
VERTEX
  5
FF4
  8
AM_VIS
 10
1318.5674878889249
 20
1110.3026697209771
 30
0.0
 70
    32
  0
VERTEX
  5
FF5
  8
AM_VIS
 10
1318.6624878889249
 20
1110.314669720977
 30
0.0
 70
    32
  0
VERTEX
  5
FF6
  8
AM_VIS
 10
1318.757487888925
 20
1110.326669720977
 30
0.0
 70
    32
  0
VERTEX
  5
FF7
  8
AM_VIS
 10
1318.854487888925
 20
1110.3386697209769
 30
0.0
 70
    32
  0
VERTEX
  5
FF8
  8
AM_VIS
 10
1318.950487888925
 20
1110.351669720977
 30
0.0
 70
    32
  0
VERTEX
  5
FF9
  8
AM_VIS
 10
1319.0484878889249
 20
1110.3656697209781
 30
0.0
 70
    32
  0
VERTEX
  5
FFA
  8
AM_VIS
 10
1319.1474878889251
 20
1110.3786697209771
 30
0.0
 70
    32
  0
VERTEX
  5
FFB
  8
AM_VIS
 10
1319.246487888925
 20
1110.392669720977
 30
0.0
 70
    32
  0
VERTEX
  5
FFC
  8
AM_VIS
 10
1319.3464878889249
 20
1110.4076697209771
 30
0.0
 70
    32
  0
VERTEX
  5
FFD
  8
AM_VIS
 10
1319.447487888925
 20
1110.422669720977
 30
0.0
 70
    32
  0
VERTEX
  5
FFE
  8
AM_VIS
 10
1319.5494878889249
 20
1110.4376697209771
 30
0.0
 70
    32
  0
VERTEX
  5
FFF
  8
AM_VIS
 10
1319.652487888925
 20
1110.4536697209769
 30
0.0
 70
    32
  0
SEQEND
  5
1000
  8
AM_VIS
  0
LINE
  5
1001
  8
LOGO
 62
     4
 10
1359.962394914005
 20
1068.7457167089269
 30
0.0
 11
1256.3623949140051
 21
1068.7457167089269
 31
0.0
  0
POLYLINE
  5
1002
  8
LOGO
 62
     4
 66
     1
 10
0.0
 20
0.0
 30
0.0
 70
     1
1001
GENIUS_GENREC_14
1002
{
1000
PYDIR
1011
1256.3623949140051
1021
1.1084532072010068E+071
1031
1.8337819101333781E+047
1021
1208.7176658388271
1031
0.0
1002
}
1002
{
1000
PXDIR
1011
1359.962394914005
1021
1.1084532072010068E+071
1031
1.8337819101333781E+047
1021
1068.7457167089269
1031
0.0
1002
}
1002
{
1000
PORI
1011
1256.3623949140051
1021
1.1084532072010068E+071
1031
1.8337819101333781E+047
1021
1068.7457167089269
1031
0.0
1002
}
1002
{
1000
PINS
1011
1256.3623949140051
1021
1.1084532072010068E+071
1031
1.8337819101333781E+047
1021
1068.7457167089269
1031
0.0
1002
}
1002
{
1000
PINS2
1011
1359.962394914005
1021
1.1084532072010068E+071
1031
1.8337819101333781E+047
1021
1208.7176658388271
1031
0.0
1002
}
1002
{
1000
C
1070
     1
1002
}
1001
GENIUS_GENODEF_13
1002
{
1000
HIER
1070
     0
1002
}
1002
{
1000
MANEDIT
1070
     0
1002
}
1002
{
1000
NOSEL
1070
     0
1002
}
1002
{
1000
BEHIND
1070
     0
1002
}
1002
{
1000
OTHER
1070
     0
1002
}
1002
{
1000
REACTOR
1002
}
1001
GENIUS_GENOBJ-N-REC_13
1002
{
1000
OWNER
1000
GEN
1002
}
  0
VERTEX
  5
1985
  8
LOGO
 62
     4
 10
1256.3623949140051
 20
1068.7457167089269
 30
0.0
  0
VERTEX
  5
1986
  8
LOGO
 62
     4
 10
1359.962394914005
 20
1068.7457167089269
 30
0.0
  0
VERTEX
  5
1987
  8
LOGO
 62
     4
 10
1359.962394914005
 20
1208.7176658388271
 30
0.0
  0
VERTEX
  5
1988
  8
LOGO
 62
     4
 10
1256.3623949140051
 20
1208.7176658388271
 30
0.0
  0
SEQEND
  5
1989
  8
LOGO
 62
     4
  0
POLYLINE
  5
1003
  8
LOGO
 62
     4
 66
     1
 10
0.0
 20
0.0
 30
0.0
 70
     1
1001
GENIUS_GENREC_14
1002
{
1000
PYDIR
1011
1256.3623949140051
1021
1.1084532072010068E+071
1031
1.8337819101333781E+047
1021
1055.7875932700131
1031
0.0
1002
}
1002
{
1000
PXDIR
1011
1359.962394914005
1021
1.1084532072010068E+071
1031
1.8337819101333781E+047
1021
1068.7457167089269
1031
0.0
1002
}
1002
{
1000
PORI
1011
1256.3623949140051
1021
1.1084532072010068E+071
1031
1.8337819101333781E+047
1021
1068.7457167089269
1031
0.0
1002
}
1002
{
1000
PINS
1011
1256.3623949140051
1021
1.1084532072010068E+071
1031
1.8337819101333781E+047
1021
1068.7457167089269
1031
0.0
1002
}
1002
{
1000
PINS2
1011
1359.962394914005
1021
1.1084532072010068E+071
1031
1.8337819101333781E+047
1021
1055.7875932700131
1031
0.0
1002
}
1002
{
1000
C
1070
     1
1002
}
1001
GENIUS_GENOBJ-N-REC_13
1002
{
1000
OWNER
1000
GEN
1002
}
1001
GENIUS_GENODEF_13
1002
{
1000
HIER
1070
     0
1002
}
1002
{
1000
MANEDIT
1070
     0
1002
}
1002
{
1000
NOSEL
1070
     0
1002
}
1002
{
1000
BEHIND
1070
     0
1002
}
1002
{
1000
OTHER
1070
     0
1002
}
1002
{
1000
REACTOR
1002
}
  0
VERTEX
  5
198A
  8
LOGO
 62
     4
 10
1256.3623949140051
 20
1068.7457167089269
 30
0.0
  0
VERTEX
  5
198B
  8
LOGO
 62
     4
 10
1359.962394914005
 20
1068.7457167089269
 30
0.0
  0
VERTEX
  5
198C
  8
LOGO
 62
     4
 10
1359.962394914005
 20
1055.7875932700131
 30
0.0
  0
VERTEX
  5
198D
  8
LOGO
 62
     4
 10
1256.3623949140051
 20
1055.7875932700131
 30
0.0
  0
SEQEND
  5
198E
  8
LOGO
 62
     4
  0
TEXT
  5
1004
  8
LOGO
 62
     7
 10
1285.6209796243679
 20
1063.068983331651
 30
0.0
 40
1.7277497918552029
  1
Order example:
 41
0.8
  7
CHINESET
  0
TEXT
  5
1005
  8
LOGO
 62
     7
 10
1285.9309522249359
 20
1065.5012973034241
 30
0.0
 40
2.591624687782804
  1
訂購代號：
  7
CHINESET
  0
LINE
  5
1006
  8
LOGO
 62
     4
 10
1284.870266479616
 20
1055.7875932700131
 30
0.0
 11
1284.870266479616
 21
1068.7457167089269
 31
0.0
  0
TEXT
  5
1007
  8
LOGO
  6
CONTINUOUS
 10
1261.017011101155
 20
1058.333197064075
 30
0.0
 40
1.943718515837104
  1
金器工業股份有限公司
  7
CHINESET
  0
TEXT
  5
1008
  8
LOGO
  6
CONTINUOUS
 10
1257.4467847333069
 20
1056.3890977318019
 30
0.0
 40
1.295812343891402
  1
MINDMAN INDUSTRIAL CO., LTD.
 41
0.85
  7
CHINESET
  0
LINE
  5
1009
  8
LOGO
 62
     4
 10
1284.870266479616
 20
1066.1540920211451
 30
0.0
 11
1265.865018769209
 21
1066.1540920211451
 31
0.0
  0
LINE
  5
100A
  8
LOGO
 62
     4
 10
1284.870266479616
 20
1063.5624673333621
 30
0.0
 11
1265.865018769209
 21
1063.5624673333621
 31
0.0
  0
LINE
  5
100B
  8
LOGO
 62
     4
 10
1284.870266479616
 20
1060.9708426455791
 30
0.0
 11
1256.3623949140051
 21
1060.9708426455791
 31
0.0
  0
LINE
  5
100C
  8
LOGO
 62
     4
 10
1265.865018769209
 20
1060.9708426455791
 30
0.0
 11
1265.865018769209
 21
1068.7457167089269
 31
0.0
  0
TEXT
  5
100D
  8
LOGO
 10
1278.7307978458259
 20
1061.618748817524
 30
0.0
 40
1.295812343891402
  1
inch
  7
CHINESET
 72
     1
 11
1280.458547637681
 21
1062.26665498947
 31
0.0
 73
     2
  0
TEXT
  5
100E
  8
LOGO
 10
1278.175449698444
 20
1066.80199819309
 30
0.0
 40
1.295812343891402
  1
1 : 1
  7
CHINESET
 72
     1
 11
1280.458547637681
 21
1067.449904365036
 31
0.0
 73
     2
  0
LINE
  5
100F
  8
LOGO
 62
     4
 10
1276.23151752034
 20
1060.9708426455791
 30
0.0
 11
1276.23151752034
 21
1068.7457167089269
 31
0.0
  0
CIRCLE
  5
1010
  8
LOGO
  6
CONTINUOUS
 10
1278.6308761527009
 20
1064.8610514293391
 30
0.0
 40
0.7523791468477692
  0
CIRCLE
  5
1011
  8
LOGO
  6
CONTINUOUS
 10
1278.6308761527009
 20
1064.8610514293391
 30
0.0
 40
0.4408275756953069
  0
LINE
  5
1012
  8
LOGO
 10
1283.358914013877
 20
1064.1086722824909
 30
0.0
 11
1283.358914013877
 21
1065.6134305761871
 31
0.0
  0
LINE
  5
1013
  8
LOGO
 10
1281.0002485771331
 20
1064.4202238536441
 30
0.0
 11
1281.0002485771331
 21
1065.3018790050351
 31
0.0
  0
LINE
  5
1014
  8
LOGO
  6
CONTINUOUS
 10
1281.0002485771331
 20
1065.3018790050351
 30
0.0
 11
1283.358914013877
 21
1065.6134305761871
 31
0.0
  0
LINE
  5
1015
  8
LOGO
  6
CONTINUOUS
 10
1281.0002485771331
 20
1064.4202238536441
 30
0.0
 11
1283.358914013877
 21
1064.1086722824909
 31
0.0
  0
TEXT
  5
1016
  8
LOGO
 10
1266.9334854652659
 20
1066.802635896016
 30
84.925406292512278
 40
1.295812343891402
  1
比例 Scale:
 41
0.9
  7
CHINESET
 72
     4
 11
1271.0482681447741
 21
1067.449904365036
 31
84.925406292512278
  0
TEXT
  5
1017
  8
LOGO
 10
1266.858860557961
 20
1064.2286011805841
 30
84.925406292512278
 40
1.295812343891402
  1
投影  View:
 41
0.9
  7
CHINESET
 72
     4
 11
1271.0482681447741
 21
1064.858279677253
 31
84.925406292512278
  0
TEXT
  5
1018
  8
LOGO
 10
1266.9855493540831
 20
1061.618748817524
 30
84.925406292512278
 40
1.295812343891402
  1
單位  Unit:
 41
0.9
  7
CHINESET
 72
     4
 11
1271.0482681447741
 21
1062.26665498947
 31
84.925406292512278
  0
SOLID
  5
1019
  8
LOGO
 62
     5
 10
1257.7068210169989
 20
1063.124946222935
 30
0.0
 11
1258.2670962723821
 21
1063.124946222935
 31
0.0
 12
1260.604796475875
 22
1068.437901230875
 32
0.0
 13
1261.165071731258
 23
1068.437901230875
 33
0.0
  0
SOLID
  5
101A
  8
LOGO
 62
     5
 10
1258.498934309092
 20
1063.124946222935
 30
0.0
 11
1259.0592095644749
 21
1063.124946222935
 31
0.0
 12
1261.165071731258
 22
1068.01286483024
 32
0.0
 13
1260.604796475875
 23
1065.9585222271701
 33
0.0
  0
SOLID
  5
101B
  8
LOGO
 62
     2
 10
1258.2670962723821
 20
1063.124946222935
 30
0.0
 11
1258.498934309092
 21
1063.124946222935
 31
0.0
 12
1261.165071731258
 22
1068.437901230875
 32
0.0
 13
1261.3969097679681
 23
1068.437901230875
 33
0.0
  0
SOLID
  5
101C
  8
LOGO
 62
     5
 10
1256.8085623862969
 20
1061.1929625836849
 30
0.0
 11
1257.001760750223
 21
1061.1929625836849
 31
0.0
 12
1257.5458223803951
 22
1062.15895440331
 32
0.0
 13
1257.7390207443191
 23
1062.15895440331
 33
0.0
  0
SOLID
  5
101D
  8
LOGO
 62
     5
 10
1257.5458223803951
 20
1062.15895440331
 30
0.0
 11
1257.7390207443191
 21
1062.15895440331
 31
0.0
 12
1257.5458223803951
 22
1061.1929625836849
 32
0.0
 13
1257.7390207443191
 23
1061.1929625836849
 33
0.0
  0
SOLID
  5
101E
  8
LOGO
 62
     5
 10
1257.5458223803951
 20
1061.1929625836849
 30
0.0
 11
1257.7390207443191
 21
1061.1929625836849
 31
0.0
 12
1258.2830823744921
 22
1062.15895440331
 32
0.0
 13
1258.476280738417
 23
1062.15895440331
 33
0.0
  0
SOLID
  5
101F
  8
LOGO
 62
     5
 10
1258.2830823744921
 20
1062.15895440331
 30
0.0
 11
1258.476280738417
 21
1062.15895440331
 31
0.0
 12
1258.2830823744921
 22
1061.1929625836849
 32
0.0
 13
1258.476280738417
 23
1061.1929625836849
 33
0.0
  0
POLYLINE
  5
1020
  8
LOGO
 62
     5
 66
     1
 10
0.0
 20
0.0
 30
0.0
 40
0.1935079766877827
 41
0.1935079766877827
  0
VERTEX
  5
1021
  8
LOGO
 62
     5
 10
1264.759025719409
 20
1061.7725576754599
 30
0.0
 42
1.0
  0
VERTEX
  5
1022
  8
LOGO
 62
     5
 10
1264.1785017893451
 20
1061.7725576754599
 30
0.0
 42
1.0
  0
SEQEND
  5
1023
  8
LOGO
 62
     5
  0
POLYLINE
  5
1024
  8
LOGO
 62
     5
 66
     1
 10
0.0
 20
0.0
 30
0.0
 70
     1
  0
VERTEX
  5
1025
  8
LOGO
 62
     5
 10
1263.084188359471
 20
1061.6759584934971
 30
0.0
 42
1.0000000573306349
  0
VERTEX
  5
1026
  8
LOGO
 62
     5
 10
1263.663783451246
 20
1061.6759584934971
 30
0.0
 42
1.0000000573306349
  0
SEQEND
  5
1027
  8
LOGO
 62
     5
  0
CIRCLE
  5
1028
  8
LOGO
 62
     5
 10
1263.3739859053589
 20
1061.6759584934971
 30
0.0
 40
0.2897975458876236
  0
POLYLINE
  5
1029
  8
LOGO
 62
     5
 66
     1
 10
0.0
 20
0.0
 30
0.0
 70
     1
 40
0.1935079766877827
 41
0.1935079766877827
  0
VERTEX
  5
102A
  8
LOGO
 62
     5
 10
1262.9869699519841
 20
1061.6759584934971
 30
0.0
 42
1.0
  0
VERTEX
  5
102B
  8
LOGO
 62
     5
 10
1263.7610018587341
 20
1061.6759584934971
 30
0.0
 42
1.0
  0
SEQEND
  5
102C
  8
LOGO
 62
     5
  0
LINE
  5
102D
  8
LOGO
 10
1264.8551604822269
 20
1061.1929625836849
 30
0.0
 11
1264.8551604822269
 21
1061.7725576754599
 31
0.0
  0
SOLID
  5
102E
  8
LOGO
 62
     5
 10
1263.663764131411
 20
1062.15895440331
 30
0.0
 11
1263.856962495335
 21
1062.15895440331
 31
0.0
 12
1263.663764131411
 22
1061.1929625836849
 32
0.0
 13
1263.856962495335
 23
1061.1929625836849
 33
0.0
  0
SOLID
  5
102F
  8
LOGO
 62
     5
 10
1264.082367026527
 20
1061.1929625836849
 30
0.0
 11
1264.2755653904519
 21
1061.1929625836849
 31
0.0
 12
1264.082367026527
 22
1062.15895440331
 32
0.0
 13
1264.2755653904519
 23
1062.15895440331
 33
0.0
  0
SOLID
  5
1030
  8
LOGO
 62
     5
 10
1264.661962118302
 20
1061.7725576754599
 30
0.0
 11
1264.8551604822269
 21
1061.7725576754599
 31
0.0
 12
1264.661962118302
 22
1061.1929625836849
 32
0.0
 13
1264.8551604822269
 23
1061.1929625836849
 33
0.0
  0
SOLID
  5
1031
  8
LOGO
 62
     5
 10
1264.0630471901341
 20
1068.01286483024
 30
0.0
 11
1263.502771934752
 21
1065.9585222271701
 31
0.0
 12
1264.0630471901341
 22
1063.124946222935
 32
0.0
 13
1263.502771934752
 23
1063.124946222935
 33
0.0
  0
SOLID
  5
1032
  8
LOGO
 62
     5
 10
1264.2948852268439
 20
1063.124946222935
 30
0.0
 11
1264.8551604822269
 21
1063.124946222935
 31
0.0
 12
1264.2948852268439
 22
1068.437901230875
 32
0.0
 13
1264.8551604822269
 23
1068.437901230875
 33
0.0
  0
SOLID
  5
1033
  8
LOGO
 62
     2
 10
1264.0630471901341
 20
1068.437901230875
 30
0.0
 11
1264.2948852268439
 21
1068.437901230875
 31
0.0
 12
1264.0630471901341
 22
1063.124946222935
 32
0.0
 13
1264.2948852268439
 23
1063.124946222935
 33
0.0
  0
POLYLINE
  5
1034
  8
LOGO
 62
     5
 66
     1
 10
0.0
 20
0.0
 30
0.0
 40
0.1935079766877827
 41
0.1935079766877827
  0
VERTEX
  5
1035
  8
LOGO
 62
     5
 10
1261.9898362899251
 20
1061.7725576754599
 30
0.0
 42
1.0
  0
VERTEX
  5
1036
  8
LOGO
 62
     5
 10
1261.4093123598609
 20
1061.7725576754599
 30
0.0
 42
1.0
  0
SEQEND
  5
1037
  8
LOGO
 62
     5
  0
POLYLINE
  5
1038
  8
LOGO
 62
     5
 66
     1
 10
0.0
 20
0.0
 30
0.0
 40
0.1935079766877827
 41
0.1935079766877827
  0
VERTEX
  5
1039
  8
LOGO
 62
     5
 10
1262.5694313817
 20
1061.7725576754599
 30
0.0
 42
1.0
  0
VERTEX
  5
103A
  8
LOGO
 62
     5
 10
1261.988907451637
 20
1061.7725576754599
 30
0.0
 42
1.0
  0
SEQEND
  5
103B
  8
LOGO
 62
     5
  0
POLYLINE
  5
103C
  8
LOGO
 62
     5
 66
     1
 10
0.0
 20
0.0
 30
0.0
 40
0.1935079766877827
 41
0.1935079766877827
  0
VERTEX
  5
103D
  8
LOGO
 62
     5
 10
1259.8002419522161
 20
1061.7725576754599
 30
0.0
 42
1.0
  0
VERTEX
  5
103E
  8
LOGO
 62
     5
 10
1259.2197180221531
 20
1061.7725576754599
 30
0.0
 42
1.0
  0
SEQEND
  5
103F
  8
LOGO
 62
     5
  0
SOLID
  5
1040
  8
LOGO
 62
     5
 10
1259.1235832593341
 20
1062.15895440331
 30
0.0
 11
1259.316781623259
 21
1062.15895440331
 31
0.0
 12
1259.1235832593341
 22
1061.1929625836849
 32
0.0
 13
1259.316781623259
 23
1061.1929625836849
 33
0.0
  0
SOLID
  5
1041
  8
LOGO
 62
     5
 10
1259.70317835111
 20
1061.7725576754599
 30
0.0
 11
1259.8963767150351
 21
1061.7725576754599
 31
0.0
 12
1259.70317835111
 22
1061.1929625836849
 32
0.0
 13
1259.8963767150351
 23
1061.1929625836849
 33
0.0
  0
POLYLINE
  5
1042
  8
LOGO
 62
     5
 66
     1
 10
0.0
 20
0.0
 30
0.0
 70
     1
 40
0.1935079766877827
 41
0.1935079766877827
  0
VERTEX
  5
1043
  8
LOGO
 62
     5
 10
1260.217780522499
 20
1061.6759584934971
 30
0.0
 42
1.0
  0
VERTEX
  5
1044
  8
LOGO
 62
     5
 10
1260.9918124292501
 20
1061.6759584934971
 30
0.0
 42
1.0
  0
SEQEND
  5
1045
  8
LOGO
 62
     5
  0
SOLID
  5
1046
  8
LOGO
 62
     5
 10
1260.894574701927
 20
1062.4487519491979
 30
0.0
 11
1261.0877730658519
 21
1062.4487519491979
 31
0.0
 12
1260.894574701927
 22
1061.1929625836849
 32
0.0
 13
1261.0877730658519
 23
1061.1929625836849
 33
0.0
  0
SOLID
  5
1047
  8
LOGO
 62
     5
 10
1261.313177597043
 20
1062.15895440331
 30
0.0
 11
1261.5063759609679
 21
1062.15895440331
 31
0.0
 12
1261.313177597043
 22
1061.1929625836849
 32
0.0
 13
1261.5063759609679
 23
1061.1929625836849
 33
0.0
  0
SOLID
  5
1048
  8
LOGO
 62
     5
 10
1261.892772688818
 20
1061.7725576754599
 30
0.0
 11
1262.0859710527441
 21
1061.7725576754599
 31
0.0
 12
1261.892772688818
 22
1061.1929625836849
 32
0.0
 13
1262.0859710527441
 23
1061.1929625836849
 33
0.0
  0
SOLID
  5
1049
  8
LOGO
 62
     5
 10
1262.4723677805939
 20
1061.7725576754599
 30
0.0
 11
1262.6655661445179
 21
1061.7725576754599
 31
0.0
 12
1262.4723677805939
 22
1061.192962583684
 32
0.0
 13
1262.6655661445179
 23
1061.192962583684
 33
0.0
  0
SOLID
  5
104A
  8
LOGO
 62
     5
 10
1258.704980364218
 20
1062.2941932580579
 30
0.0
 11
1258.898178728143
 21
1062.2941932580579
 31
0.0
 12
1258.704980364218
 22
1062.4487519491979
 32
0.0
 13
1258.898178728143
 23
1062.4487519491979
 33
0.0
  0
SOLID
  5
104B
  8
LOGO
 62
     5
 10
1258.704980364218
 20
1062.15895440331
 30
0.0
 11
1258.898178728143
 21
1062.15895440331
 31
0.0
 12
1258.704980364218
 22
1061.192962583684
 32
0.0
 13
1258.898178728143
 23
1061.1929625836849
 33
0.0
  0
SOLID
  5
104C
  8
LOGO
 62
     5
 10
1260.604796475875
 20
1063.124946222935
 30
0.0
 11
1261.165071731258
 21
1063.124946222935
 31
0.0
 12
1260.604796475875
 22
1065.9585222271701
 32
0.0
 13
1261.165071731258
 23
1068.01286483024
 33
0.0
  0
SOLID
  5
104D
  8
LOGO
 62
     5
 10
1261.3969097679681
 20
1068.437901230875
 30
0.0
 11
1261.957185023351
 21
1068.437901230875
 31
0.0
 12
1261.3969097679681
 22
1063.5499826235709
 32
0.0
 13
1261.957185023351
 23
1065.6043252266411
 33
0.0
  0
SOLID
  5
104E
  8
LOGO
 62
     2
 10
1261.165071731258
 20
1068.437901230875
 30
0.0
 11
1261.3969097679681
 21
1068.437901230875
 31
0.0
 12
1261.165071731258
 22
1063.124946222935
 32
0.0
 13
1261.3969097679681
 23
1063.124946222935
 33
0.0
  0
SOLID
  5
104F
  8
LOGO
 62
     5
 10
1261.3969097679681
 20
1063.5499826235709
 30
0.0
 11
1261.957185023351
 21
1065.6043252266411
 31
0.0
 12
1264.0630471901341
 22
1068.437901230875
 32
0.0
 13
1263.502771934752
 23
1068.437901230875
 33
0.0
  0
SOLID
  5
1050
  8
LOGO
 62
     5
 10
1261.3969097679681
 20
1063.124946222935
 30
0.0
 11
1261.957185023351
 21
1063.124946222935
 31
0.0
 12
1264.0630471901341
 22
1068.01286483024
 32
0.0
 13
1263.502771934752
 23
1065.9585222271701
 33
0.0
  0
SOLID
  5
1051
  8
LOGO
 62
     2
 10
1261.165071731258
 20
1063.124946222935
 30
0.0
 11
1261.3969097679681
 21
1063.124946222935
 31
0.0
 12
1264.0630471901341
 22
1068.437901230875
 32
0.0
 13
1264.2948852268439
 23
1068.437901230875
 33
0.0
  0
LINE
  5
1059
  8
LOGO
 62
     4
 10
1307.4636903558639
 20
1063.3661721366791
 30
0.0
 11
1307.4636903558639
 21
1061.4819492144991
 31
0.0
  0
TEXT
  5
105A
  8
LOGO
  6
CONTINUOUS
 62
     7
 10
1303.384326836934
 20
1064.3739641302909
 30
0.0
 40
2.2679999999999998
  1
MVHA
  7
CHINESET
  0
TEXT
  5
105C
  8
LOGO
  6
CONTINUOUS
 10
1305.2886024292441
 20
1057.002271918974
 30
84.925406292512278
 40
1.5
  1
Model
  0
TEXT
  5
105D
  8
LOGO
 10
1304.532274906315
 20
1059.1300249106609
 30
84.925406292512278
 40
2.0
  1
型 號
  7
CHINESET
  0
TEXT
  5
105E
  8
LOGO
 10
1285.297861542738
 20
1056.476960322474
 30
0.0
 40
1.296
  1
00904090
 41
0.7
  7
CHINESET
 72
     1
 11
1288.6242615427379
 21
1056.476960322474
 31
0.0
  0
LINE
  5
105F
  8
LOGO
 62
     4
 10
1292.646266479615
 20
1058.3792179577961
 30
0.0
 11
1292.6462664796161
 21
1055.787593270014
 31
0.0
  0
LINE
  5
1060
  8
LOGO
 62
     4
 10
1292.646266479615
 20
1058.3792179577961
 30
0.0
 11
1284.870266479616
 21
1058.3792179577961
 31
0.0
  0
LINE
  5
1061
  8
LOGO
  6
AM_ISO08W050X2
 10
1277.5937102327809
 20
1064.8610514293391
 30
0.0
 11
1279.6680420726209
 21
1064.8610514293391
 31
0.0
1001
GENIUS_GENOREF_13
1005
1066
  0
LINE
  5
1062
  8
LOGO
  6
AM_ISO08W050X2
 10
1278.6308761527009
 20
1063.8238855094189
 30
0.0
 11
1278.6308761527009
 21
1065.89821734926
 31
0.0
1001
GENIUS_GENOREF_13
1005
1065
  0
LINE
  5
1063
  8
LOGO
  6
CENTER
 10
1280.811620900992
 20
1064.8610514293391
 30
0.0
 11
1283.5964239879629
 21
1064.8610514293391
 31
0.0
1001
GENIUS_GENOREF_13
1005
1064
  0
POINT
  5
1064
  8
0
 10
-374.47103617017251
 20
119.50047593354471
 30
0.0
1001
GENIUS_GENOBJ-N-CRS_13
1002
{
1000
OWNER
1000
GEN
1002
}
1001
GENIUS_GENOLIS_13
1002
{
1000
ENT
1005
0
1005
0
1005
0
1005
1063
1002
}
1001
GENIUS_GENOENT_13
1002
{
1000
MYREF
1005
1064
1002
}
1002
{
1000
GRP
1005
0
1002
}
1001
GENIUS_GENODEF_13
1002
{
1000
HIER
1070
    10
1002
}
1002
{
1000
MANEDIT
1070
     1
1002
}
1002
{
1000
NOSEL
1070
     0
1002
}
1002
{
1000
BEHIND
1070
     0
1002
}
1002
{
1000
OTHER
1070
     0
1002
}
1002
{
1000
REACTOR
1002
}
  0
POINT
  5
1065
  8
0
 10
-385.7956213930272
 20
128.376062412181
 30
0.0
1001
GENIUS_GENOBJ-N-CRS_13
1002
{
1000
OWNER
1000
GEN
1002
}
1001
GENIUS_GENOLIS_13
1002
{
1000
ENT
1005
0
1005
0
1005
0
1005
1062
1002
}
1001
GENIUS_GENOENT_13
1002
{
1000
MYREF
1005
1065
1002
}
1002
{
1000
GRP
1005
0
1002
}
1001
GENIUS_GENODEF_13
1002
{
1000
HIER
1070
    10
1002
}
1002
{
1000
MANEDIT
1070
     1
1002
}
1002
{
1000
NOSEL
1070
     0
1002
}
1002
{
1000
BEHIND
1070
     0
1002
}
1002
{
1000
OTHER
1070
     0
1002
}
1002
{
1000
REACTOR
1002
}
  0
POINT
  5
1066
  8
0
 10
-379.43694769519038
 20
119.50047593354471
 30
0.0
1001
GENIUS_GENOBJ-N-CRS_13
1002
{
1000
OWNER
1000
GEN
1002
}
1001
GENIUS_GENOLIS_13
1002
{
1000
ENT
1005
0
1005
0
1005
0
1005
1061
1002
}
1001
GENIUS_GENOENT_13
1002
{
1000
MYREF
1005
1066
1002
}
1002
{
1000
GRP
1005
0
1002
}
1001
GENIUS_GENODEF_13
1002
{
1000
HIER
1070
    10
1002
}
1002
{
1000
MANEDIT
1070
     1
1002
}
1002
{
1000
NOSEL
1070
     0
1002
}
1002
{
1000
BEHIND
1070
     0
1002
}
1002
{
1000
OTHER
1070
     0
1002
}
1002
{
1000
REACTOR
1002
}
  0
TEXT
  5
1247
  8
LOGO
 10
1331.157933419556
 20
1059.062644037647
 30
0.0
 40
2.0
  1
單側按鈕型
  7
CHINESET
 72
     4
 11
1336.157933419556
 21
1059.99473065182
 31
0.0
  0
TEXT
  5
124E
  8
LOGO
  6
CONTINUOUS
 10
1328.4763363967959
 20
1057.289024928243
 30
0.0
 40
1.5
  1
Single push button
 72
     4
 11
1336.8756894374169
 21
1057.813416966362
 31
0.0
  0
TEXT
  5
125C
  8
LOGO
 10
1317.3391604545491
 20
1058.9944842105499
 30
0.0
 40
2.0
  1
4方向
  7
CHINESET
 72
     4
 11
1320.1873747402631
 21
1059.9875944467699
 31
0.0
  0
TEXT
  5
125E
  8
LOGO
  6
CONTINUOUS
 10
1317.522605237124
 20
1057.123051200432
 30
0.0
 40
1.5
  1
4 Way
 72
     4
 11
1320.2976052371239
 21
1057.6480512004321
 31
0.0
  0
LINE
  5
1263
  8
LOGO
  6
CONTINUOUS
 62
     7
 10
1313.924717799154
 20
1065.6058901792319
 30
0.0
 11
1316.572831069938
 21
1065.6058901792319
 31
0.0
  0
POLYLINE
  5
1265
  8
LOGO
 62
     4
 66
     1
 10
0.0
 20
0.0
 30
0.0
 70
     1
  0
VERTEX
  5
198F
  8
LOGO
 62
     4
 10
1302.260961066366
 20
1067.6423528715211
 30
0.0
  0
VERTEX
  5
1990
  8
LOGO
 62
     4
 10
1313.0340733303181
 20
1067.6423528715211
 30
0.0
  0
VERTEX
  5
1991
  8
LOGO
 62
     4
 10
1313.0340733303181
 20
1063.3661721366791
 30
0.0
  0
VERTEX
  5
1992
  8
LOGO
 62
     4
 10
1302.260961066366
 20
1063.3661721366791
 30
0.0
  0
SEQEND
  5
1993
  8
LOGO
 62
     4
  0
POLYLINE
  5
1266
  8
LOGO
 62
     4
 66
     1
 10
0.0
 20
0.0
 30
0.0
 70
     1
  0
VERTEX
  5
1994
  8
LOGO
 62
     4
 10
1302.2165801394549
 20
1061.4819492144991
 30
0.0
  0
VERTEX
  5
1995
  8
LOGO
 62
     4
 10
1312.9896924034081
 20
1061.4819492144991
 30
0.0
  0
VERTEX
  5
1996
  8
LOGO
 62
     4
 10
1312.9896924034081
 20
1056.5789830675619
 30
0.0
  0
VERTEX
  5
1997
  8
LOGO
 62
     4
 10
1302.2165801394549
 20
1056.5789830675619
 30
0.0
  0
SEQEND
  5
1998
  8
LOGO
 62
     4
  0
POLYLINE
  5
1269
  8
LOGO
 62
     4
 66
     1
 10
0.0
 20
0.0
 30
0.0
 70
     1
  0
VERTEX
  5
1999
  8
LOGO
 62
     4
 10
1317.6041759232221
 20
1067.6423528715211
 30
0.0
  0
VERTEX
  5
199A
  8
LOGO
 62
     4
 10
1322.5654646284211
 20
1067.6423528715211
 30
0.0
  0
VERTEX
  5
199B
  8
LOGO
 62
     4
 10
1322.5654646284211
 20
1063.3661721366791
 30
0.0
  0
VERTEX
  5
199C
  8
LOGO
 62
     4
 10
1317.6041759232221
 20
1063.3661721366791
 30
0.0
  0
SEQEND
  5
199D
  8
LOGO
 62
     4
  0
TEXT
  5
126A
  8
LOGO
  6
CONTINUOUS
 62
     7
 10
1319.180819414385
 20
1064.3739641302909
 30
0.0
 40
2.2679999999999998
  1
4
  7
CHINESET
  0
LINE
  5
126F
  8
LOGO
  6
CONTINUOUS
 62
     7
 10
1323.7292115764039
 20
1065.6058901792319
 30
0.0
 11
1326.3773248471889
 21
1065.6058901792319
 31
0.0
  0
POLYLINE
  5
1270
  8
LOGO
 62
     4
 66
     1
 10
0.0
 20
0.0
 30
0.0
 70
     1
  0
VERTEX
  5
199E
  8
LOGO
 62
     4
 10
1327.408669700473
 20
1067.6423528715211
 30
0.0
  0
VERTEX
  5
199F
  8
LOGO
 62
     4
 10
1332.369958405671
 20
1067.6423528715211
 30
0.0
  0
VERTEX
  5
19A0
  8
LOGO
 62
     4
 10
1332.369958405671
 20
1063.3661721366791
 30
0.0
  0
VERTEX
  5
19A1
  8
LOGO
 62
     4
 10
1327.408669700473
 20
1063.3661721366791
 30
0.0
  0
SEQEND
  5
19A2
  8
LOGO
 62
     4
  0
TEXT
  5
1271
  8
LOGO
  6
CONTINUOUS
 62
     7
 10
1328.985313191635
 20
1064.3739641302909
 30
0.0
 40
2.2679999999999998
  1
P
  7
CHINESET
  0
POLYLINE
  5
15ED
  8
LOGO
 62
     4
 66
     1
 10
0.0
 20
0.0
 30
0.0
 70
     1
  0
VERTEX
  5
19A3
  8
LOGO
 62
     4
 10
1315.1410568578631
 20
1061.4819492144991
 30
0.0
  0
VERTEX
  5
19A4
  8
LOGO
 62
     4
 10
1325.914169121816
 20
1061.4819492144991
 30
0.0
  0
VERTEX
  5
19A5
  8
LOGO
 62
     4
 10
1325.914169121816
 20
1056.5789830675619
 30
0.0
  0
VERTEX
  5
19A6
  8
LOGO
 62
     4
 10
1315.1410568578631
 20
1056.5789830675619
 30
0.0
  0
SEQEND
  5
19A7
  8
LOGO
 62
     4
  0
LINE
  5
15F0
  8
LOGO
 62
     4
 10
1320.0848202758209
 20
1063.3661721366791
 30
0.0
 11
1320.0848202758209
 21
1061.4819492144991
 31
0.0
  0
POLYLINE
  5
15F2
  8
LOGO
 62
     4
 66
     1
 10
0.0
 20
0.0
 30
0.0
 70
     1
  0
VERTEX
  5
19A8
  8
LOGO
 62
     4
 10
1327.1806031784431
 20
1061.4819492144991
 30
0.0
  0
VERTEX
  5
19A9
  8
LOGO
 62
     4
 10
1346.0418209230691
 20
1061.4819492144991
 30
0.0
  0
VERTEX
  5
19AA
  8
LOGO
 62
     4
 10
1346.0418209230691
 20
1056.5789830675619
 30
0.0
  0
VERTEX
  5
19AB
  8
LOGO
 62
     4
 10
1327.1806031784431
 20
1056.5789830675619
 30
0.0
  0
SEQEND
  5
19AC
  8
LOGO
 62
     4
  0
LINE
  5
15F3
  8
LOGO
 62
     4
 10
1330.086904786921
 20
1063.3661721366791
 30
0.0
 11
1330.086904786921
 21
1061.4819492144991
 31
0.0
  0
ENDSEC
  0
EOF
