  0
SECTION
  2
HEADER
  9
$ACADVER
  1
AC1009
  9
$INSBASE
 10
0.0
 20
0.0
 30
0.0
  9
$EXTMIN
 10
489.64883013371139
 20
-20.526107109538771
 30
-0.0000000000000097
  9
$EXTMAX
 10
635.806624326357
 20
133.1224852661216
 30
0.0000000000000055
  9
$LIMMIN
 10
0.0
 20
0.0
  9
$LIMMAX
 10
396.0
 20
273.0
  9
$ORTHOMODE
 70
     1
  9
$REGENMODE
 70
     1
  9
$FILLMODE
 70
     1
  9
$QTEXTMODE
 70
     0
  9
$MIRRTEXT
 70
     1
  9
$DRAGMODE
 70
     2
  9
$LTSCALE
 40
6.0
  9
$OSMODE
 70
    39
  9
$ATTMODE
 70
     1
  9
$TEXTSIZE
 40
6.0
  9
$TRACEWID
 40
0.05
  9
$TEXTSTYLE
  7
CHINESET
  9
$CLAYER
  8
0
  9
$CELTYPE
  6
BYLAYER
  9
$CECOLOR
 62
   256
  9
$DIMSCALE
 40
1.0
  9
$DIMASZ
 40
3.0
  9
$DIMEXO
 40
2.0
  9
$DIMDLI
 40
8.0
  9
$DIMRND
 40
0.0
  9
$DIMDLE
 40
0.0
  9
$DIMEXE
 40
2.0
  9
$DIMTP
 40
0.0
  9
$DIMTM
 40
0.0
  9
$DIMTXT
 40
3.0
  9
$DIMCEN
 40
-3.0
  9
$DIMTSZ
 40
0.0
  9
$DIMTOL
 70
     0
  9
$DIMLIM
 70
     0
  9
$DIMTIH
 70
     0
  9
$DIMTOH
 70
     0
  9
$DIMSE1
 70
     0
  9
$DIMSE2
 70
     0
  9
$DIMTAD
 70
     1
  9
$DIMZIN
 70
     8
  9
$DIMBLK
  1

  9
$DIMASO
 70
     1
  9
$DIMSHO
 70
     1
  9
$DIMPOST
  1

  9
$DIMAPOST
  1

  9
$DIMALT
 70
     0
  9
$DIMALTD
 70
     2
  9
$DIMALTF
 40
25.399999999999999
  9
$DIMLFAC
 40
1.0
  9
$DIMTOFL
 70
     0
  9
$DIMTVP
 40
0.0
  9
$DIMTIX
 70
     0
  9
$DIMSOXD
 70
     0
  9
$DIMSAH
 70
     0
  9
$DIMBLK1
  1

  9
$DIMBLK2
  1

  9
$DIMSTYLE
  2
STANDARD
  9
$DIMCLRD
 70
   256
  9
$DIMCLRE
 70
   256
  9
$DIMCLRT
 70
   256
  9
$DIMTFAC
 40
0.5
  9
$DIMGAP
 40
1.0
  9
$LUNITS
 70
     2
  9
$LUPREC
 70
     2
  9
$SKETCHINC
 40
0.1
  9
$FILLETRAD
 40
8.0
  9
$AUNITS
 70
     0
  9
$AUPREC
 70
     0
  9
$MENU
  1
ACAD
  9
$ELEVATION
 40
0.0
  9
$PELEVATION
 40
0.0
  9
$THICKNESS
 40
0.0
  9
$LIMCHECK
 70
     0
  9
$BLIPMODE
 70
     0
  9
$CHAMFERA
 40
2.0
  9
$CHAMFERB
 40
2.0
  9
$SKPOLY
 70
     0
  9
$TDCREATE
 40
2450436.7992719901
  9
$TDUPDATE
 40
2451946.674105058
  9
$TDINDWG
 40
9.2845933102
  9
$TDUSRTIMER
 40
9.2845933102
  9
$USRTIMER
 70
     1
  9
$ANGBASE
 50
0.0
  9
$ANGDIR
 70
     0
  9
$PDMODE
 70
    65
  9
$PDSIZE
 40
8.3000000000000007
  9
$PLINEWID
 40
0.0
  9
$COORDS
 70
     2
  9
$SPLFRAME
 70
     0
  9
$SPLINETYPE
 70
     6
  9
$SPLINESEGS
 70
     8
  9
$ATTDIA
 70
     0
  9
$ATTREQ
 70
     1
  9
$HANDLING
 70
 12289
  9
$HANDSEED
  5
462
  9
$SURFTAB1
 70
     6
  9
$SURFTAB2
 70
     6
  9
$SURFTYPE
 70
     6
  9
$SURFU
 70
     6
  9
$SURFV
 70
     6
  9
$UCSNAME
  2

  9
$UCSORG
 10
0.0
 20
0.0
 30
0.0
  9
$UCSXDIR
 10
1.0
 20
0.0
 30
0.0
  9
$UCSYDIR
 10
0.0
 20
1.0
 30
0.0
  9
$PUCSNAME
  2

  9
$PUCSORG
 10
0.0
 20
0.0
 30
0.0
  9
$PUCSXDIR
 10
1.0
 20
0.0
 30
0.0
  9
$PUCSYDIR
 10
0.0
 20
1.0
 30
0.0
  9
$USERI1
 70
     0
  9
$USERI2
 70
     0
  9
$USERI3
 70
     0
  9
$USERI4
 70
     0
  9
$USERI5
 70
     0
  9
$USERR1
 40
0.0
  9
$USERR2
 40
0.0
  9
$USERR3
 40
0.0
  9
$USERR4
 40
0.0
  9
$USERR5
 40
0.0
  9
$WORLDVIEW
 70
     1
  9
$SHADEDGE
 70
     3
  9
$SHADEDIF
 70
    70
  9
$TILEMODE
 70
     1
  9
$MAXACTVP
 70
    16
  9
$PLIMCHECK
 70
     0
  9
$PEXTMIN
 10
1.0000000000000000E+020
 20
1.0000000000000000E+020
 30
1.0000000000000000E+020
  9
$PEXTMAX
 10
-1.0000000000000000E+020
 20
-1.0000000000000000E+020
 30
-1.0000000000000000E+020
  9
$PLIMMIN
 10
0.0
 20
0.0
  9
$PLIMMAX
 10
12.0
 20
9.0
  9
$UNITMODE
 70
     0
  9
$VISRETAIN
 70
     0
  9
$PLINEGEN
 70
     0
  9
$PSLTSCALE
 70
     0
  0
ENDSEC
  0
SECTION
  2
TABLES
  0
TABLE
  2
VPORT
 70
     3
  0
VPORT
  2
*ACTIVE
 70
     0
 10
0.0
 20
0.0
 11
1.0
 21
1.0
 12
562.72772723003425
 22
56.298189078291429
 13
0.0
 23
0.0
 14
1.0
 24
1.0
 15
0.0
 25
0.0
 16
0.0
 26
0.0
 36
1.0
 17
0.0
 27
0.0
 37
0.0
 40
155.34324596803901
 41
1.7274401473296499
 42
50.0
 43
0.0
 44
0.0
 50
0.0
 51
0.0
 71
     0
 72
   100
 73
     1
 74
     1
 75
     0
 76
     0
 77
     0
 78
     0
  0
ENDTAB
  0
TABLE
  2
LTYPE
 70
     3
  0
LTYPE
  2
CONTINUOUS
 70
     0
  3
Solid line
 72
    65
 73
     0
 40
0.0
  0
LTYPE
  2
HIDDEN
 70
     0
  3
__ __ __ __ __ __ __ __ __ __ __ __ __ __ __ __
 72
    65
 73
     2
 40
0.375
 49
0.25
 49
-0.125
  0
LTYPE
  2
CENTER
 70
     0
  3
____ _ ____ _ ____ _ ____ _ ____ _ ____ _ ____ 
 72
    65
 73
     4
 40
2.0
 49
1.25
 49
-0.25
 49
0.25
 49
-0.25
  0
ENDTAB
  0
TABLE
  2
LAYER
 70
     6
  0
LAYER
  2
0
 70
     0
 62
     7
  6
CONTINUOUS
  0
LAYER
  2
DEFPOINTS
 70
     0
 62
     7
  6
CONTINUOUS
  0
LAYER
  2
LOGO
 70
     0
 62
     7
  6
CONTINUOUS
  0
LAYER
  2
CENTER
 70
     0
 62
     1
  6
CENTER
  0
LAYER
  2
HIDDEN
 70
     0
 62
     6
  6
HIDDEN
  0
LAYER
  2
DIM
 70
     0
 62
     5
  6
CONTINUOUS
  0
ENDTAB
  0
TABLE
  2
STYLE
 70
     4
  0
STYLE
  2
STANDARD
 70
     0
 40
0.0
 41
1.0
 50
0.0
 71
     0
 42
0.2
  3
txt
  4

  0
STYLE
  2
CHINESET
 70
     0
 40
0.0
 41
1.0
 50
0.0
 71
     0
 42
6.0
  3
C:\r13\com\fonts\simplex.shx
  4
C:\r13\com\fonts\chineset.shx
  0
STYLE
  2
ITALIC
 70
     0
 40
0.0
 41
1.0
 50
0.0
 71
     0
 42
3.0
  3
italic.shx
  4
chineset.shx
  0
STYLE
  2
LOGO
 70
     0
 40
0.0
 41
1.0
 50
0.0
 71
     0
 42
5.0
  3
txt
  4

  0
ENDTAB
  0
TABLE
  2
VIEW
 70
     0
  0
ENDTAB
  0
TABLE
  2
UCS
 70
     0
  0
ENDTAB
  0
TABLE
  2
APPID
 70
     2
  0
APPID
  2
ACAD
 70
     0
  0
APPID
  2
TCAD
 70
     0
  0
ENDTAB
  0
TABLE
  2
DIMSTYLE
 70
     2
  0
DIMSTYLE
  2
STANDARD
 70
     0
  3

  4

  5

  6

  7

 40
1.0
 41
3.0
 42
2.0
 43
8.0
 44
2.0
 45
0.0
 46
0.0
 47
0.0
 48
0.0
140
3.0
141
-3.0
142
0.0
143
25.399999999999999
144
1.0
145
0.0
146
0.5
147
1.0
 71
     0
 72
     0
 73
     0
 74
     0
 75
     0
 76
     0
 77
     1
 78
     8
170
     0
171
     2
172
     0
173
     0
174
     0
175
     0
176
   256
177
   256
178
   256
  0
DIMSTYLE
  2
DIM2
 70
     0
  3

  4

  5

  6

  7

 40
1.0
 41
3.0
 42
2.0
 43
8.0
 44
2.0
 45
0.0
 46
0.0
 47
0.0
 48
0.0
140
3.0
141
-1.0
142
0.0
143
25.399999999999999
144
1.0
145
0.0
146
0.6
147
1.5
 71
     0
 72
     0
 73
     0
 74
     0
 75
     0
 76
     0
 77
     1
 78
     8
170
     0
171
     2
172
     0
173
     0
174
     0
175
     0
176
   256
177
   256
178
   256
  0
ENDTAB
  0
ENDSEC
  0
SECTION
  2
BLOCKS
  0
BLOCK
  8
0
  2
$MODEL_SPACE
 70
     0
 10
0.0
 20
0.0
 30
0.0
  3
$MODEL_SPACE
  1

  0
ENDBLK
  5
6
  8
0
  0
BLOCK
 67
     1
  8
0
  2
$PAPER_SPACE
 70
     0
 10
0.0
 20
0.0
 30
0.0
  3
$PAPER_SPACE
  1

  0
ENDBLK
  5
9
 67
     1
  8
0
  0
BLOCK
  8
0
  2
*D10
 70
     1
 10
0.0
 20
0.0
 30
0.0
  3
*D10
  1

  0
LINE
  5
37F
  8
DIM
 10
558.90424228766733
 20
96.216144708954076
 30
0.0
 11
558.90424228766733
 21
90.246421121182337
 31
0.0
  0
LINE
  5
380
  8
DIM
 10
590.90424228766722
 20
96.216144708954076
 30
0.0
 11
590.90424228766722
 21
90.246421121182337
 31
0.0
  0
LINE
  5
381
  8
DIM
 10
561.90424228766733
 20
92.246421121182337
 30
0.0
 11
587.90424228766722
 21
92.246421121182337
 31
0.0
  0
SOLID
  5
382
  8
DIM
 10
561.90424228766733
 20
92.746421121182337
 30
0.0
 11
561.90424228766733
 21
91.746421121182337
 31
0.0
 12
558.90424228766733
 22
92.246421121182337
 32
0.0
 13
558.90424228766733
 23
92.246421121182337
 33
0.0
  0
SOLID
  5
383
  8
DIM
 10
587.90424228766722
 20
92.746421121182337
 30
0.0
 11
587.90424228766722
 21
91.746421121182337
 31
0.0
 12
590.90424228766722
 22
92.246421121182337
 32
0.0
 13
590.90424228766722
 23
92.246421121182337
 33
0.0
  0
TEXT
  5
384
  8
0
 10
572.47567085909577
 20
93.246421121182337
 30
0.0
 40
3.0
  1
32
  7
CHINESET
  0
POINT
  5
385
  8
DEFPOINTS
 62
     0
 10
558.90424228766733
 20
98.216144708954062
 30
0.0
  0
POINT
  5
386
  8
DEFPOINTS
 62
     0
 10
590.90424228766722
 20
98.216144708954062
 30
0.0
  0
POINT
  5
387
  8
DEFPOINTS
 62
     0
 10
590.90424228766722
 20
92.246421121182337
 30
0.0
  0
ENDBLK
  5
389
  8
0
  0
BLOCK
  8
0
  2
*D11
 70
     1
 10
0.0
 20
0.0
 30
0.0
  3
*D11
  1

  0
LINE
  5
397
  8
DIM
 10
592.90424228766722
 20
98.216144708954062
 30
0.0
 11
600.79112991667341
 21
98.216144708954062
 31
0.0
  0
LINE
  5
398
  8
DIM
 10
592.90424228766722
 20
114.216144708954
 30
0.0
 11
600.79112991667341
 21
114.216144708954
 31
0.0
  0
LINE
  5
399
  8
DIM
 10
598.79112991667341
 20
101.216144708954
 30
0.0
 11
598.79112991667341
 21
111.216144708954
 31
0.0
  0
SOLID
  5
39A
  8
DIM
 10
598.29112991667341
 20
101.216144708954
 30
0.0
 11
599.29112991667341
 21
101.216144708954
 31
0.0
 12
598.79112991667341
 22
98.216144708954062
 32
0.0
 13
598.79112991667341
 23
98.216144708954062
 33
0.0
  0
SOLID
  5
39B
  8
DIM
 10
598.29112991667341
 20
111.216144708954
 30
0.0
 11
599.29112991667341
 21
111.216144708954
 31
0.0
 12
598.79112991667341
 22
114.216144708954
 32
0.0
 13
598.79112991667341
 23
114.216144708954
 33
0.0
  0
TEXT
  5
39C
  8
0
 10
597.79112991667341
 20
104.14471613752551
 30
0.0
 40
3.0
  1
16
 50
90.0
  7
CHINESET
  0
POINT
  5
39D
  8
DEFPOINTS
 62
     0
 10
590.90424228766722
 20
98.216144708954062
 30
0.0
  0
POINT
  5
39E
  8
DEFPOINTS
 62
     0
 10
590.90424228766722
 20
114.216144708954
 30
0.0
  0
POINT
  5
39F
  8
DEFPOINTS
 62
     0
 10
598.79112991667341
 20
114.216144708954
 30
0.0
  0
ENDBLK
  5
396
  8
0
  0
BLOCK
  8
0
  2
*D12
 70
     1
 10
0.0
 20
0.0
 30
0.0
  3
*D12
  1

  0
LINE
  5
3A2
  8
DIM
 10
572.90424228766722
 20
85.979270867332204
 30
0.0
 11
533.10060946991825
 21
85.979270867332204
 31
0.0
  0
LINE
  5
3A3
  8
DIM
 10
556.90424228766733
 20
74.079270867332241
 30
0.0
 11
533.10060946991825
 21
74.079270867332255
 31
0.0
  0
LINE
  5
3A4
  8
DIM
 10
535.10060946991825
 20
82.979270867332218
 30
0.0
 11
535.10060946991825
 21
77.079270867332255
 31
0.0
  0
SOLID
  5
3A5
  8
DIM
 10
534.60060946991825
 20
82.979270867332218
 30
0.0
 11
535.60060946991825
 21
82.979270867332218
 31
0.0
 12
535.10060946991825
 22
85.979270867332204
 32
0.0
 13
535.10060946991825
 23
85.979270867332204
 33
0.0
  0
SOLID
  5
3A6
  8
DIM
 10
534.60060946991825
 20
77.079270867332255
 30
0.0
 11
535.60060946991825
 21
77.079270867332255
 31
0.0
 12
535.10060946991825
 22
74.079270867332255
 32
0.0
 13
535.10060946991825
 23
74.079270867332255
 33
0.0
  0
TEXT
  5
3A7
  8
0
 10
534.10060946991825
 20
76.100699438760884
 30
0.0
 40
3.0
  1
11.9
 50
90.0
  7
CHINESET
  0
POINT
  5
3A8
  8
DEFPOINTS
 62
     0
 10
574.90424228766722
 20
85.979270867332204
 30
0.0
  0
POINT
  5
3A9
  8
DEFPOINTS
 62
     0
 10
558.90424228766733
 20
74.079270867332241
 30
0.0
  0
POINT
  5
3AA
  8
DEFPOINTS
 62
     0
 10
535.10060946991825
 20
74.079270867332255
 30
0.0
  0
ENDBLK
  5
3AC
  8
0
  0
BLOCK
  8
0
  2
*D13
 70
     1
 10
0.0
 20
0.0
 30
0.0
  3
*D13
  1

  0
LINE
  5
3AF
  8
DIM
 10
556.90424228766733
 20
74.079270867332241
 30
0.0
 11
533.10060946991825
 21
74.079270867332255
 31
0.0
  0
LINE
  5
3B0
  8
DIM
 10
556.90424228766733
 20
32.079270867332241
 30
0.0
 11
533.10060946991825
 21
32.079270867332241
 31
0.0
  0
LINE
  5
3B1
  8
DIM
 10
535.10060946991825
 20
71.079270867332255
 30
0.0
 11
535.10060946991825
 21
35.079270867332241
 31
0.0
  0
SOLID
  5
3B2
  8
DIM
 10
534.60060946991825
 20
71.079270867332255
 30
0.0
 11
535.60060946991825
 21
71.079270867332255
 31
0.0
 12
535.10060946991825
 22
74.079270867332255
 32
0.0
 13
535.10060946991825
 23
74.079270867332255
 33
0.0
  0
SOLID
  5
3B3
  8
DIM
 10
534.60060946991825
 20
35.079270867332241
 30
0.0
 11
535.60060946991825
 21
35.079270867332241
 31
0.0
 12
535.10060946991825
 22
32.079270867332241
 32
0.0
 13
535.10060946991825
 23
32.079270867332241
 33
0.0
  0
TEXT
  5
3B4
  8
0
 10
534.10060946991825
 20
50.650699438760903
 30
0.0
 40
3.0
  1
42
 50
90.0
  7
CHINESET
  0
POINT
  5
3B5
  8
DEFPOINTS
 62
     0
 10
558.90424228766733
 20
74.079270867332241
 30
0.0
  0
POINT
  5
3B6
  8
DEFPOINTS
 62
     0
 10
558.90424228766733
 20
32.079270867332241
 30
0.0
  0
POINT
  5
3B7
  8
DEFPOINTS
 62
     0
 10
535.10060946991825
 20
32.079270867332241
 30
0.0
  0
ENDBLK
  5
3B9
  8
0
  0
BLOCK
  8
0
  2
*D14
 70
     1
 10
0.0
 20
0.0
 30
0.0
  3
*D14
  1

  0
LINE
  5
3BC
  8
DIM
 10
556.90424228766733
 20
32.079270867332241
 30
0.0
 11
533.10060946991825
 21
32.079270867332241
 31
0.0
  0
LINE
  5
3BD
  8
DIM
 10
572.90424228766722
 20
22.579270867332362
 30
0.0
 11
533.10060946991825
 21
22.579270867332369
 31
0.0
  0
LINE
  5
3BE
  8
DIM
 10
535.10060946991825
 20
29.079270867332241
 30
0.0
 11
535.10060946991825
 21
25.579270867332379
 31
0.0
  0
SOLID
  5
3BF
  8
DIM
 10
534.60060946991825
 20
29.079270867332241
 30
0.0
 11
535.60060946991825
 21
29.079270867332241
 31
0.0
 12
535.10060946991825
 22
32.079270867332241
 32
0.0
 13
535.10060946991825
 23
32.079270867332241
 33
0.0
  0
SOLID
  5
3C0
  8
DIM
 10
534.60060946991825
 20
25.579270867332379
 30
0.0
 11
535.60060946991825
 21
25.579270867332379
 31
0.0
 12
535.10060946991825
 22
22.579270867332369
 32
0.0
 13
535.10060946991825
 23
22.579270867332369
 33
0.0
  0
TEXT
  5
3C1
  8
0
 10
534.10060946991825
 20
24.186413724475251
 30
0.0
 40
3.0
  1
9.5
 50
90.0
  7
CHINESET
  0
POINT
  5
3C2
  8
DEFPOINTS
 62
     0
 10
558.90424228766733
 20
32.079270867332241
 30
0.0
  0
POINT
  5
3C3
  8
DEFPOINTS
 62
     0
 10
574.90424228766722
 20
22.579270867332362
 30
0.0
  0
POINT
  5
3C4
  8
DEFPOINTS
 62
     0
 10
535.10060946991825
 20
22.579270867332369
 30
0.0
  0
ENDBLK
  5
3C6
  8
0
  0
BLOCK
  8
0
  2
*D15
 70
     1
 10
0.0
 20
0.0
 30
0.0
  3
*D15
  1

  0
LINE
  5
3C9
  8
DIM
 10
572.90424228766722
 20
85.979270867332204
 30
0.0
 11
526.49490578685788
 21
85.979270867332204
 31
0.0
  0
LINE
  5
3CA
  8
DIM
 10
572.90424228766722
 20
22.579270867332362
 30
0.0
 11
526.49490578685788
 21
22.579270867332369
 31
0.0
  0
LINE
  5
3CB
  8
DIM
 10
528.494905786858
 20
82.979270867332218
 30
0.0
 11
528.494905786858
 21
25.579270867332379
 31
0.0
  0
SOLID
  5
3CC
  8
DIM
 10
527.994905786858
 20
82.979270867332218
 30
0.0
 11
528.994905786858
 21
82.979270867332218
 31
0.0
 12
528.494905786858
 22
85.979270867332204
 32
0.0
 13
528.494905786858
 23
85.979270867332204
 33
0.0
  0
SOLID
  5
3CD
  8
DIM
 10
527.994905786858
 20
25.579270867332379
 30
0.0
 11
528.994905786858
 21
25.579270867332379
 31
0.0
 12
528.494905786858
 22
22.579270867332369
 32
0.0
 13
528.494905786858
 23
22.579270867332369
 33
0.0
  0
TEXT
  5
3CE
  8
0
 10
527.494905786858
 20
49.636413724475233
 30
0.0
 40
3.0
  1
63.4
 50
90.0
  7
CHINESET
  0
POINT
  5
3CF
  8
DEFPOINTS
 62
     0
 10
574.90424228766722
 20
85.979270867332204
 30
0.0
  0
POINT
  5
3D0
  8
DEFPOINTS
 62
     0
 10
574.90424228766722
 20
22.579270867332362
 30
0.0
  0
POINT
  5
3D1
  8
DEFPOINTS
 62
     0
 10
528.494905786858
 20
22.579270867332369
 30
0.0
  0
ENDBLK
  5
3D3
  8
0
  0
BLOCK
  8
0
  2
*D16
 70
     1
 10
0.0
 20
0.0
 30
0.0
  3
*D16
  1

  0
LINE
  5
3D6
  8
DIM
 10
555.10722589306556
 20
61.579270867332241
 30
0.0
 11
546.80995999374215
 21
61.579270867332241
 31
0.0
  0
LINE
  5
3D7
  8
DIM
 10
555.10722589306556
 20
44.579270867332227
 30
0.0
 11
546.80995999374215
 21
44.579270867332227
 31
0.0
  0
LINE
  5
3D8
  8
DIM
 10
548.80995999374215
 20
58.579270867332241
 30
0.0
 11
548.80995999374215
 21
47.57927086733222
 31
0.0
  0
SOLID
  5
3D9
  8
DIM
 10
548.30995999374215
 20
58.579270867332241
 30
0.0
 11
549.30995999374215
 21
58.579270867332241
 31
0.0
 12
548.80995999374215
 22
61.579270867332241
 32
0.0
 13
548.80995999374215
 23
61.579270867332241
 33
0.0
  0
SOLID
  5
3DA
  8
DIM
 10
548.30995999374215
 20
47.57927086733222
 30
0.0
 11
549.30995999374215
 21
47.57927086733222
 31
0.0
 12
548.80995999374215
 22
44.579270867332227
 32
0.0
 13
548.80995999374215
 23
44.579270867332227
 33
0.0
  0
TEXT
  5
3DB
  8
0
 10
547.80995999374215
 20
50.93641372447518
 30
0.0
 40
3.0
  1
17
 50
90.0
  7
CHINESET
  0
POINT
  5
3DC
  8
DEFPOINTS
 62
     0
 10
557.10722589306556
 20
61.579270867332241
 30
0.0
  0
POINT
  5
3DD
  8
DEFPOINTS
 62
     0
 10
557.10722589306556
 20
44.579270867332227
 30
0.0
  0
POINT
  5
3DE
  8
DEFPOINTS
 62
     0
 10
548.80995999374215
 20
44.579270867332227
 30
0.0
  0
ENDBLK
  5
3E0
  8
0
  0
BLOCK
  8
0
  2
*D17
 70
     1
 10
0.0
 20
0.0
 30
0.0
  3
*D17
  1

  0
LINE
  5
3E3
  8
DIM
 10
583.90424228766722
 20
40.829270867332227
 30
0.0
 11
583.90424228766722
 21
12.129092377313549
 31
0.0
  0
LINE
  5
3E4
  8
DIM
 10
565.90424228766722
 20
48.82927086733222
 30
0.0
 11
565.90424228766722
 21
12.129092377313549
 31
0.0
  0
LINE
  5
3E5
  8
DIM
 10
580.90424228766722
 20
14.129092377313549
 30
0.0
 11
568.90424228766722
 21
14.129092377313549
 31
0.0
  0
SOLID
  5
3E6
  8
DIM
 10
580.90424228766722
 20
14.629092377313549
 30
0.0
 11
580.90424228766722
 21
13.629092377313549
 31
0.0
 12
583.90424228766722
 22
14.129092377313549
 32
0.0
 13
583.90424228766722
 23
14.129092377313549
 33
0.0
  0
SOLID
  5
3E7
  8
DIM
 10
568.90424228766722
 20
14.629092377313549
 30
0.0
 11
568.90424228766722
 21
13.629092377313549
 31
0.0
 12
565.90424228766722
 22
14.129092377313549
 32
0.0
 13
565.90424228766722
 23
14.129092377313549
 33
0.0
  0
TEXT
  5
3E8
  8
0
 10
572.76138514481011
 20
15.129092377313549
 30
0.0
 40
3.0
  1
18
  7
CHINESET
  0
POINT
  5
3E9
  8
DEFPOINTS
 62
     0
 10
583.90424228766722
 20
42.829270867332227
 30
0.0
  0
POINT
  5
3EA
  8
DEFPOINTS
 62
     0
 10
565.90424228766722
 20
50.829270867332227
 30
0.0
  0
POINT
  5
3EB
  8
DEFPOINTS
 62
     0
 10
565.90424228766722
 20
14.129092377313549
 30
0.0
  0
ENDBLK
  5
3ED
  8
0
  0
BLOCK
  8
0
  2
*D18
 70
     1
 10
0.0
 20
0.0
 30
0.0
  3
*D18
  1

  0
LINE
  5
3F0
  8
DIM
 10
588.1542422876671
 20
61.079270867332191
 30
0.0
 11
603.12087941263064
 21
61.079270867332191
 31
0.0
  0
LINE
  5
3F1
  8
DIM
 10
588.1542422876671
 20
45.07927086733222
 30
0.0
 11
603.12087941263064
 21
45.079270867332212
 31
0.0
  0
LINE
  5
3F2
  8
DIM
 10
601.12087941263064
 20
58.079270867332191
 30
0.0
 11
601.12087941263064
 21
48.07927086733222
 31
0.0
  0
SOLID
  5
3F3
  8
DIM
 10
600.62087941263064
 20
58.079270867332191
 30
0.0
 11
601.62087941263064
 21
58.079270867332191
 31
0.0
 12
601.12087941263064
 22
61.079270867332191
 32
0.0
 13
601.12087941263064
 23
61.079270867332191
 33
0.0
  0
SOLID
  5
3F4
  8
DIM
 10
600.62087941263064
 20
48.07927086733222
 30
0.0
 11
601.62087941263064
 21
48.07927086733222
 31
0.0
 12
601.12087941263064
 22
45.079270867332212
 32
0.0
 13
601.12087941263064
 23
45.079270867332212
 33
0.0
  0
TEXT
  5
3F5
  8
0
 10
600.12087941263064
 20
51.007842295903743
 30
0.0
 40
3.0
  1
16
 50
90.0
  7
CHINESET
  0
POINT
  5
3F6
  8
DEFPOINTS
 62
     0
 10
586.15424228766722
 20
61.079270867332191
 30
0.0
  0
POINT
  5
3F7
  8
DEFPOINTS
 62
     0
 10
586.15424228766722
 20
45.07927086733222
 30
0.0
  0
POINT
  5
3F8
  8
DEFPOINTS
 62
     0
 10
601.12087941263064
 20
45.079270867332212
 30
0.0
  0
ENDBLK
  5
3FA
  8
0
  0
BLOCK
  8
0
  2
*D19
 70
     1
 10
0.0
 20
0.0
 30
0.0
  3
*D19
  1

  0
LINE
  5
3FD
  8
DIM
 10
594.0097887951971
 20
66.079270867332227
 30
0.0
 11
609.08848156341037
 21
66.079270867332212
 31
0.0
  0
LINE
  5
3FE
  8
DIM
 10
594.0097887951971
 20
40.079270867332212
 30
0.0
 11
609.08848156341037
 21
40.079270867332212
 31
0.0
  0
LINE
  5
3FF
  8
DIM
 10
607.08848156341026
 20
63.07927086733222
 30
0.0
 11
607.08848156341026
 21
43.079270867332212
 31
0.0
  0
SOLID
  5
400
  8
DIM
 10
606.58848156341026
 20
63.07927086733222
 30
0.0
 11
607.58848156341026
 21
63.07927086733222
 31
0.0
 12
607.08848156341026
 22
66.079270867332227
 32
0.0
 13
607.08848156341026
 23
66.079270867332227
 33
0.0
  0
SOLID
  5
401
  8
DIM
 10
606.58848156341026
 20
43.079270867332212
 30
0.0
 11
607.58848156341026
 21
43.079270867332212
 31
0.0
 12
607.08848156341026
 22
40.079270867332212
 32
0.0
 13
607.08848156341026
 23
40.079270867332212
 33
0.0
  0
TEXT
  5
402
  8
0
 10
606.08848156341026
 20
50.722128010189458
 30
0.0
 40
3.0
  1
26
 50
90.0
  7
CHINESET
  0
POINT
  5
403
  8
DEFPOINTS
 62
     0
 10
592.00978879519698
 20
66.079270867332227
 30
0.0
  0
POINT
  5
404
  8
DEFPOINTS
 62
     0
 10
592.00978879519698
 20
40.079270867332212
 30
0.0
  0
POINT
  5
405
  8
DEFPOINTS
 62
     0
 10
607.08848156341026
 20
40.079270867332212
 30
0.0
  0
ENDBLK
  5
407
  8
0
  0
BLOCK
  8
0
  2
*D20
 70
     1
 10
0.0
 20
0.0
 30
0.0
  3
*D20
  1

  0
LINE
  5
40A
  8
DIM
 10
592.90424228766722
 20
32.079270867332262
 30
0.0
 11
598.77914262769355
 21
32.079270867332262
 31
0.0
  0
LINE
  5
40B
  8
DIM
 10
582.40424228766699
 20
25.07927086733222
 30
0.0
 11
598.77914262769355
 21
25.07927086733222
 31
0.0
  0
LINE
  5
40C
  8
DIM
 10
596.77914262769355
 20
35.079270867332262
 30
0.0
 11
596.77914262769355
 21
38.079270867332262
 31
0.0
  0
LINE
  5
40D
  8
DIM
 10
596.77914262769355
 20
22.07927086733222
 30
0.0
 11
596.77914262769355
 21
19.07927086733222
 31
0.0
  0
SOLID
  5
40E
  8
DIM
 10
596.27914262769355
 20
35.079270867332262
 30
0.0
 11
597.27914262769355
 21
35.079270867332262
 31
0.0
 12
596.77914262769355
 22
32.079270867332262
 32
0.0
 13
596.77914262769355
 23
32.079270867332262
 33
0.0
  0
SOLID
  5
40F
  8
DIM
 10
596.27914262769355
 20
22.07927086733222
 30
0.0
 11
597.27914262769355
 21
22.07927086733222
 31
0.0
 12
596.77914262769355
 22
25.07927086733222
 32
0.0
 13
596.77914262769355
 23
25.07927086733222
 33
0.0
  0
TEXT
  5
410
  8
0
 10
595.77914262769355
 20
27.57927086733234
 30
0.0
 40
3.0
  1
7
 50
90.0
  7
CHINESET
  0
POINT
  5
411
  8
DEFPOINTS
 62
     0
 10
590.90424228766722
 20
32.079270867332269
 30
0.0
  0
POINT
  5
412
  8
DEFPOINTS
 62
     0
 10
580.4042422876671
 20
25.07927086733222
 30
0.0
  0
POINT
  5
413
  8
DEFPOINTS
 62
     0
 10
596.77914262769355
 20
25.07927086733222
 30
0.0
  0
ENDBLK
  5
415
  8
0
  0
BLOCK
  8
0
  2
*D21
 70
     1
 10
0.0
 20
0.0
 30
0.0
  3
*D21
  1

  0
LINE
  5
418
  8
DIM
 10
592.90424228766722
 20
74.079270867332241
 30
0.0
 11
601.62639269241356
 21
74.079270867332241
 31
0.0
  0
LINE
  5
419
  8
DIM
 10
582.40424228766699
 20
81.079270867332227
 30
0.0
 11
601.62639269241356
 21
81.079270867332227
 31
0.0
  0
LINE
  5
41A
  8
DIM
 10
599.62639269241356
 20
71.079270867332241
 30
0.0
 11
599.62639269241356
 21
68.079270867332241
 31
0.0
  0
LINE
  5
41B
  8
DIM
 10
599.62639269241356
 20
84.079270867332227
 30
0.0
 11
599.62639269241356
 21
87.079270867332227
 31
0.0
  0
SOLID
  5
41C
  8
DIM
 10
599.12639269241356
 20
71.079270867332241
 30
0.0
 11
600.12639269241367
 21
71.079270867332241
 31
0.0
 12
599.62639269241356
 22
74.079270867332241
 32
0.0
 13
599.62639269241356
 23
74.079270867332241
 33
0.0
  0
SOLID
  5
41D
  8
DIM
 10
599.12639269241356
 20
84.079270867332227
 30
0.0
 11
600.12639269241367
 21
84.079270867332227
 31
0.0
 12
599.62639269241356
 22
81.079270867332227
 32
0.0
 13
599.62639269241356
 23
81.079270867332227
 33
0.0
  0
TEXT
  5
41E
  8
0
 10
598.62639269241356
 20
76.579270867332312
 30
0.0
 40
3.0
  1
7
 50
90.0
  7
CHINESET
  0
POINT
  5
41F
  8
DEFPOINTS
 62
     0
 10
590.90424228766722
 20
74.079270867332241
 30
0.0
  0
POINT
  5
420
  8
DEFPOINTS
 62
     0
 10
580.4042422876671
 20
81.079270867332227
 30
0.0
  0
POINT
  5
421
  8
DEFPOINTS
 62
     0
 10
599.62639269241356
 20
81.079270867332227
 30
0.0
  0
ENDBLK
  5
423
  8
0
  0
ENDSEC
  0
SECTION
  2
ENTITIES
  0
TEXT
  5
21
  8
0
 10
527.52125312675719
 20
123.22588243766469
 30
0.0
 40
4.5833333333333304
  1
MVHA-41PP
  7
ITALIC
  0
POLYLINE
  8
0
  5
44E
  66
     1
 10
0.000000
 20
0.000000
 30
0.000000
  70
     8
  0
VERTEX
  8
0
  5
44F
 10
564.976
 20
54.5032
 30
0.000000
  70
    32
  0
VERTEX
  8
0
  5
450
 10
554.422
 20
68.2605
 30
0.000000
  70
    32
  0
VERTEX
  8
0
  5
451
 10
536.554
 20
68.2605
 30
0.000000
  70
    32
  0
SEQEND
  8
0
  5
452
  0
TEXT
  5
3F
  8
0
 10
519.62498213858169
 20
92.428990501533804
 30
0.0
 40
2.6041666666666639
  1
A
  0
TEXT
  5
41
  8
0
 10
527.09511116986528
 20
92.428990501533804
 30
0.0
 40
2.6041666666666639
  1
B
  0
LINE
  5
43
  8
0
 10
506.80917642909537
 20
105.34605067913969
 30
0.0
 11
530.24667642909537
 21
105.34605067913969
 31
0.0
  0
LINE
  5
45
  8
0
 10
506.80917642909537
 20
95.971050679139722
 30
0.0
 11
530.24667642909537
 21
95.971050679139722
 31
0.0
  0
LINE
  5
46
  8
0
 10
513.05917642909537
 20
105.34605067913969
 30
0.0
 11
509.15292642909537
 21
95.971050679139722
 31
0.0
  0
LINE
  5
47
  8
0
 10
510.46589517909553
 20
97.912613179139655
 30
0.0
 11
509.15308267909558
 21
95.971050679139722
 31
0.0
  0
ARC
  5
48
  8
0
 10
502.73865559576222
 20
100.65855067913969
 30
0.0
 40
2.190239583333331
 50
106.3604999999999
 51
253.63943
  0
LINE
  5
49
  8
0
 10
502.12167642909537
 20
98.556988179139736
 30
0.0
 11
502.12167642909537
 21
102.76011317913959
 31
0.0
  0
LINE
  5
4A
  8
0
 10
506.80917642909537
 20
95.971050679139722
 30
0.0
 11
506.80917642909537
 21
105.34605067913969
 31
0.0
  0
LINE
  5
4B
  8
0
 10
502.12167642909537
 20
99.356467345806379
 30
0.0
 11
506.80917642909537
 21
99.356467345806379
 31
0.0
  0
LINE
  5
4C
  8
0
 10
509.91855142909549
 20
98.186206929139786
 30
0.0
 11
509.15308267909558
 21
95.971050679139722
 31
0.0
  0
LINE
  5
4D
  8
0
 10
502.12167642909537
 20
101.96063401247299
 30
0.0
 11
506.80917642909537
 21
101.96063401247299
 31
0.0
  0
LINE
  5
4E
  8
0
 10
508.37167642909537
 20
103.00230067913969
 30
0.0
 11
509.93417642909537
 21
103.00230067913969
 31
0.0
  0
LINE
  5
4F
  8
0
 10
509.15292642909537
 20
103.00230067913969
 30
0.0
 11
509.15292642909537
 21
105.34605067913969
 31
0.0
  0
TEXT
  5
50
  8
0
 10
527.36552320023713
 20
105.84397584960701
 30
0.0
 40
2.6041666666666639
  1
R
  0
TEXT
  5
51
  8
0
 10
518.35179230606207
 20
105.84397584960701
 30
0.0
 40
2.6041666666666639
  1
R
  0
TEXT
  5
52
  8
0
 10
523.08400226231106
 20
105.84397584960701
 30
0.0
 40
3.2812499999999969
  1
P
  0
LINE
  5
53
  8
0
 10
516.18417642909537
 20
95.971050679139722
 30
0.0
 11
516.18417642909537
 21
105.34605067913969
 31
0.0
  0
LINE
  5
54
  8
0
 10
520.87167642909537
 20
95.971050679139722
 30
0.0
 11
520.87167642909537
 21
105.34605067913969
 31
0.0
  0
LINE
  5
55
  8
0
 10
518.52792642909537
 20
95.971050679139722
 30
0.0
 11
518.52792642909537
 21
105.34605067913969
 31
0.0
  0
LINE
  5
56
  8
0
 10
515.87839517909549
 20
103.0223006791396
 30
0.0
 11
516.18417642909537
 21
105.3458944291397
 31
0.0
  0
LINE
  5
57
  8
0
 10
516.18417642909537
 20
105.34605067913969
 30
0.0
 11
516.49011392909551
 21
103.0223006791396
 31
0.0
  0
TEXT
  5
58
  8
0
 10
520.53693423142852
 20
105.676028295763
 30
0.0
 40
1.041666666666665
  1
2
  7
CHINESET
  0
LINE
  5
59
  8
0
 10
520.87167642909537
 20
105.34605067913969
 30
0.0
 11
520.56573892909546
 21
103.0223006791396
 31
0.0
  0
LINE
  5
5A
  8
0
 10
521.1774576790956
 20
103.0223006791396
 30
0.0
 11
520.87167642909537
 21
105.3458944291397
 31
0.0
  0
LINE
  5
5B
  8
0
 10
534.93417642909537
 20
98.556988179139736
 30
0.0
 11
534.93417642909537
 21
102.76011317913959
 31
0.0
  0
ARC
  5
5C
  8
0
 10
534.31719726242875
 20
100.65855067913969
 30
0.0
 40
2.190239583333331
 50
286.36056999999988
 51
73.639500000000055
  0
LINE
  5
5D
  8
0
 10
523.99667642909537
 20
105.34605067913969
 30
0.0
 11
527.90292642909537
 21
95.971050679139722
 31
0.0
  0
LINE
  5
5E
  8
0
 10
530.24667642909537
 20
95.971050679139722
 30
0.0
 11
530.24667642909537
 21
105.34605067913969
 31
0.0
  0
LINE
  5
5F
  8
0
 10
534.93417642909537
 20
99.356467345806379
 30
0.0
 11
530.24667642909537
 21
99.356467345806379
 31
0.0
  0
LINE
  5
60
  8
0
 10
527.1373014290956
 20
98.186206929139786
 30
0.0
 11
527.90277017909546
 21
95.971050679139722
 31
0.0
  0
LINE
  5
61
  8
0
 10
526.58995767909551
 20
97.912613179139655
 30
0.0
 11
527.90277017909546
 21
95.971050679139722
 31
0.0
  0
LINE
  5
62
  8
0
 10
534.93417642909537
 20
101.96063401247299
 30
0.0
 11
530.24667642909537
 21
101.96063401247299
 31
0.0
  0
TEXT
  5
63
  8
0
 10
529.55066512560359
 20
105.6534340424778
 30
0.0
 40
1.041666666666665
  1
1
  7
CHINESET
  0
LINE
  5
64
  8
0
 10
527.90292642909537
 20
103.00230067913969
 30
0.0
 11
527.90292642909537
 21
105.34605067913969
 31
0.0
  0
LINE
  5
65
  8
0
 10
528.68417642909537
 20
103.00230067913969
 30
0.0
 11
527.12167642909537
 21
103.00230067913969
 31
0.0
  0
LINE
  5
69
  8
HIDDEN
  6
HIDDEN
 10
589.90424228766722
 20
57.079270867332198
 30
0.0
 11
589.90424228766722
 21
49.079270867332227
 31
0.0
  0
LINE
  5
6C
  8
0
 10
558.90424228766733
 20
74.079270867332241
 30
0.0
 11
558.90424228766733
 21
32.079270867332241
 31
0.0
  0
LINE
  5
6D
  8
0
 10
590.90424228766722
 20
74.079270867332241
 30
0.0
 11
590.90424228766722
 21
32.079270867332241
 31
0.0
  0
LINE
  5
6F
  8
CENTER
  6
CENTER
 10
574.90424228766722
 20
87.075311171651165
 30
0.0
 11
574.90424228766722
 21
21.959077443649221
 31
0.0
  0
LINE
  5
72
  8
HIDDEN
  6
HIDDEN
 10
590.90424228766722
 20
48.079270867332212
 30
0.0
 11
589.90424228766722
 21
49.079270867332227
 31
0.0
  0
LINE
  5
73
  8
HIDDEN
  6
HIDDEN
 10
590.4042422876671
 20
42.079270867332198
 30
0.0
 11
590.90424228766722
 21
42.579270867332212
 31
0.0
  0
LINE
  5
74
  8
HIDDEN
  6
HIDDEN
 10
590.4042422876671
 20
38.07927086733222
 30
0.0
 11
590.90424228766722
 21
37.579270867332212
 31
0.0
  0
LINE
  5
75
  8
HIDDEN
  6
HIDDEN
 10
581.78203348624811
 20
37.579270867332269
 30
0.0
 11
590.90424228766722
 21
37.579270867332212
 31
0.0
  0
LINE
  5
76
  8
HIDDEN
  6
HIDDEN
 10
581.78203348624811
 20
42.579270867332269
 30
0.0
 11
590.90424228766722
 21
42.579270867332212
 31
0.0
  0
LINE
  5
77
  8
CENTER
  6
CENTER
 10
579.27393615231904
 20
40.079270867332212
 30
0.0
 11
592.00978879519698
 21
40.079270867332212
 31
0.0
  0
LINE
  5
78
  8
0
 10
558.90424228766733
 20
32.079270867332241
 30
0.0
 11
590.90424228766722
 21
32.079270867332269
 31
0.0
  0
LINE
  5
7B
  8
0
 10
580.50424228766713
 20
25.179270867332221
 30
0.0
 11
580.50424228766713
 21
31.079270867332191
 31
0.0
  0
LINE
  5
7C
  8
0
 10
580.9042422876671
 20
25.579270867332241
 30
0.0
 11
580.9042422876671
 21
31.079270867332191
 31
0.0
  0
LINE
  5
7D
  8
0
 10
568.90424228766722
 20
25.579270867332141
 30
0.0
 11
568.90424228766722
 21
31.079270867332191
 31
0.0
  0
LINE
  5
7E
  8
0
 10
569.30424228766708
 20
25.179270867332129
 30
0.0
 11
569.30424228766708
 21
31.079270867332191
 31
0.0
  0
LINE
  5
80
  8
0
 10
568.90424228766722
 20
25.579270867332141
 30
0.0
 11
580.9042422876671
 21
25.579270867332241
 31
0.0
  0
LINE
  5
81
  8
0
 10
569.4042422876671
 20
25.079270867332209
 30
0.0
 11
580.4042422876671
 21
25.07927086733222
 31
0.0
  0
ARC
  5
82
  8
0
 10
574.90424228766722
 20
35.079270867332347
 30
0.0
 40
12.499999999999989
 50
245.46594877005731
 51
294.53405122994269
  0
LINE
  5
86
  8
0
 10
568.90424228766722
 20
25.579270867332141
 30
0.0
 11
569.4042422876671
 21
25.079270867332148
 31
0.0
  0
LINE
  5
87
  8
0
 10
569.60424228766715
 20
24.329270867332362
 30
0.0
 11
569.71381772638438
 21
23.707837673858769
 31
0.0
  0
ARC
  5
88
  8
0
 10
570.35424228766715
 20
24.329270867332308
 30
0.0
 40
0.7499999999999996
 50
89.999999999999844
 51
180.0
  0
LINE
  5
8A
  8
0
 10
580.4042422876671
 20
25.07927086733222
 30
0.0
 11
580.9042422876671
 21
25.579270867332241
 31
0.0
  0
LINE
  5
8B
  8
0
 10
580.20424228766728
 20
24.329270867332252
 30
0.0
 11
580.09466684894994
 21
23.707837673858769
 31
0.0
  0
ARC
  5
8C
  8
0
 10
579.45424228766717
 20
24.329270867332252
 30
0.0
 40
0.7499999999999996
 50
0.0
 51
90.0
  0
LINE
  5
8D
  8
HIDDEN
  6
HIDDEN
 10
559.90424228766722
 20
48.579270867332262
 30
0.0
 11
565.93041691019403
 21
48.36883221242195
 31
0.0
  0
LINE
  5
8E
  8
HIDDEN
  6
HIDDEN
 10
559.12663032120838
 20
49.356882833791119
 30
0.0
 11
565.93041691019403
 21
49.119289370646079
 31
0.0
  0
LINE
  5
8F
  8
HIDDEN
  6
HIDDEN
 10
559.90424228766722
 20
40.579270867332198
 30
0.0
 11
565.93041691019403
 21
40.789709522242497
 31
0.0
  0
LINE
  5
90
  8
HIDDEN
  6
HIDDEN
 10
559.12663032120827
 20
39.801658900873377
 30
0.0
 11
565.93041691019403
 21
40.039252364018402
 31
0.0
  0
TEXT
  5
92
  8
DIM
 10
537.74897933907414
 20
36.028139004435729
 30
0.0
 40
1.999999999999998
  1
3-PT1/8
  7
CHINESET
  0
POLYLINE
  8
0
  5
453
  66
     1
 10
0.000000
 20
0.000000
 30
0.000000
  70
     8
  0
VERTEX
  8
0
  5
454
 10
558.904
 20
44.5793
 30
0.000000
  70
    32
  0
VERTEX
  8
0
  5
455
 10
552.928
 20
35.4482
 30
0.000000
  70
    32
  0
VERTEX
  8
0
  5
456
 10
537.083
 20
35.4482
 30
0.000000
  70
    32
  0
SEQEND
  8
0
  5
457
  0
LINE
  5
94
  8
HIDDEN
  6
HIDDEN
 10
559.90424228766722
 20
40.579270867332284
 30
0.0
 11
559.90424228766722
 21
48.579270867332262
 31
0.0
  0
LINE
  5
95
  8
HIDDEN
  6
HIDDEN
 10
558.90424228766733
 20
39.579270867332284
 30
0.0
 11
559.90424228766722
 21
40.57927086733222
 31
0.0
  0
LINE
  5
98
  8
HIDDEN
  6
HIDDEN
 10
558.90424228766733
 20
49.579270867332269
 30
0.0
 11
559.90424228766722
 21
48.579270867332262
 31
0.0
  0
LINE
  5
99
  8
HIDDEN
  6
HIDDEN
 10
590.4042422876671
 20
38.07927086733222
 30
0.0
 11
590.4042422876671
 21
42.079270867332198
 31
0.0
  0
LINE
  5
9A
  8
0
 10
570.70424228766717
 20
32.079270867332212
 30
0.0
 11
579.10424228766715
 21
32.079270867332269
 31
0.0
  0
LINE
  5
9B
  8
0
 10
568.90424228766722
 20
31.079270867332191
 30
0.0
 11
580.9042422876671
 21
31.079270867332191
 31
0.0
  0
LINE
  5
9C
  8
0
 10
569.4042422876671
 20
31.079270867332191
 30
0.0
 11
569.4042422876671
 21
32.079270867332148
 31
0.0
  0
LINE
  5
9D
  8
0
 10
568.25424228766713
 20
32.079270867332241
 30
0.0
 11
569.4042422876671
 21
32.079270867332241
 31
0.0
  0
LINE
  5
9E
  8
0
 10
580.40424228766722
 20
32.079270867332241
 30
0.0
 11
581.55424228766719
 21
32.079270867332241
 31
0.0
  0
LINE
  5
9F
  8
0
 10
580.4042422876671
 20
31.079270867332191
 30
0.0
 11
580.4042422876671
 21
32.079270867332148
 31
0.0
  0
LINE
  5
A0
  8
HIDDEN
  6
HIDDEN
 10
581.78203348624811
 20
38.07927086733222
 30
0.0
 11
590.4042422876671
 21
38.07927086733222
 31
0.0
  0
CIRCLE
  5
A1
  8
0
 10
583.90424228766722
 20
45.07927086733222
 30
0.0
 40
1.699999999999998
  0
LINE
  5
A2
  8
CENTER
  6
CENTER
 10
583.90424228766722
 20
47.329270867332212
 30
0.0
 11
583.90424228766722
 21
42.829270867332227
 31
0.0
  0
LINE
  5
A3
  8
HIDDEN
  6
HIDDEN
 10
581.78203348624811
 20
42.079270867332198
 30
0.0
 11
590.4042422876671
 21
42.079270867332198
 31
0.0
  0
LINE
  5
A4
  8
HIDDEN
  6
HIDDEN
 10
590.68185425412605
 20
48.301658900873363
 30
0.0
 11
583.87806766514041
 21
48.539252364018388
 31
0.0
  0
LINE
  5
A5
  8
HIDDEN
  6
HIDDEN
 10
589.90424228766722
 20
49.079270867332227
 30
0.0
 11
583.87806766514041
 21
49.289709522242489
 31
0.0
  0
LINE
  5
A6
  8
CENTER
  6
CENTER
 10
586.15424228766722
 20
45.07927086733222
 30
0.0
 11
581.65424228766733
 21
45.07927086733222
 31
0.0
  0
TEXT
  5
A8
  8
DIM
 10
604.51629405830499
 20
33.313960903194143
 30
0.0
 40
1.999999999999998
  1
2-M5*0.8
  7
CHINESET
  0
POLYLINE
  8
0
  5
458
  66
     1
 10
0.000000
 20
0.000000
 30
0.000000
  70
     8
  0
VERTEX
  8
0
  5
459
 10
590.904
 20
40.0793
 30
0.000000
  70
    32
  0
VERTEX
  8
0
  5
45A
 10
602.877
 20
32.6313
 30
0.000000
  70
    32
  0
VERTEX
  8
0
  5
45B
 10
620.047
 20
32.6313
 30
0.000000
  70
    32
  0
SEQEND
  8
0
  5
45C
  0
LINE
  5
AA
  8
HIDDEN
  6
HIDDEN
 10
625.56951084922525
 20
42.587813661524379
 30
0.0
 11
625.56951084922525
 21
37.587813661524379
 31
0.0
  0
LINE
  5
AB
  8
0
 10
627.06951084922548
 20
42.587813661524379
 30
0.0
 11
627.06951084922548
 21
37.587813661524379
 31
0.0
  0
LINE
  5
AC
  8
0
 10
623.06951084922537
 20
42.587813661524379
 30
0.0
 11
623.06951084922537
 21
37.587813661524379
 31
0.0
  0
LINE
  5
AD
  8
0
 10
622.76951084922541
 20
42.28781366152436
 30
0.0
 11
622.76951084922541
 21
37.887813661524412
 31
0.0
  0
LINE
  5
AE
  8
0
 10
617.36951084922543
 20
42.587813661524379
 30
0.0
 11
617.36951084922543
 21
37.587813661524379
 31
0.0
  0
LINE
  5
AF
  8
0
 10
617.06951084922525
 20
42.28781366152436
 30
0.0
 11
617.06951084922525
 21
37.88781366152439
 31
0.0
  0
ARC
  5
B0
  8
HIDDEN
  6
HIDDEN
 10
614.62670724579425
 20
30.390767175348071
 30
0.0
 40
9.9999999999999911
 50
46.030101062924679
 51
75.860690738922031
  0
LINE
  5
B5
  8
0
 10
627.06951084922548
 20
37.587813661524379
 30
0.0
 11
617.36951084922543
 21
37.587813661524379
 31
0.0
  0
LINE
  5
B6
  8
0
 10
622.76951084922541
 20
37.88781366152439
 30
0.0
 11
617.06951084922525
 21
37.88781366152439
 31
0.0
  0
LINE
  5
B7
  8
0
 10
617.06951084922525
 20
37.88781366152439
 30
0.0
 11
617.36951084922543
 21
37.587813661524379
 31
0.0
  0
LINE
  5
B8
  8
0
 10
622.76951084922553
 20
37.88781366152439
 30
0.0
 11
623.06951084922537
 21
37.587813661524379
 31
0.0
  0
LINE
  5
BC
  8
CENTER
  6
CENTER
 10
627.72560931946271
 20
40.087813661524379
 30
0.0
 11
616.59485054999618
 21
40.087813661524379
 31
0.0
  0
LINE
  5
BD
  8
0
 10
622.76951084922541
 20
42.28781366152436
 30
0.0
 11
617.06951084922525
 21
42.28781366152436
 31
0.0
  0
LINE
  5
BE
  8
0
 10
627.06951084922548
 20
42.587813661524379
 30
0.0
 11
617.36951084922543
 21
42.587813661524379
 31
0.0
  0
LINE
  5
BF
  8
0
 10
617.06951084922525
 20
42.28781366152436
 30
0.0
 11
617.36951084922543
 21
42.587813661524379
 31
0.0
  0
LINE
  5
C0
  8
0
 10
622.76951084922541
 20
42.28781366152436
 30
0.0
 11
623.06951084922537
 21
42.587813661524379
 31
0.0
  0
LINE
  5
C6
  8
HIDDEN
  6
HIDDEN
 10
590.4042422876671
 20
68.079270867332269
 30
0.0
 11
590.90424228766722
 21
68.579270867332241
 31
0.0
  0
LINE
  5
C7
  8
HIDDEN
  6
HIDDEN
 10
581.78203348624811
 20
68.579270867332241
 30
0.0
 11
590.90424228766722
 21
68.579270867332241
 31
0.0
  0
LINE
  5
C8
  8
HIDDEN
  6
HIDDEN
 10
590.4042422876671
 20
64.079270867332269
 30
0.0
 11
590.90424228766722
 21
63.579270867332262
 31
0.0
  0
LINE
  5
C9
  8
HIDDEN
  6
HIDDEN
 10
590.90424228766722
 20
58.079270867332198
 30
0.0
 11
589.90424228766722
 21
57.079270867332248
 31
0.0
  0
LINE
  5
CA
  8
HIDDEN
  6
HIDDEN
 10
581.78203348624811
 20
63.579270867332262
 30
0.0
 11
590.90424228766722
 21
63.579270867332262
 31
0.0
  0
LINE
  5
CB
  8
CENTER
  6
CENTER
 10
579.27393615231904
 20
66.079270867332227
 30
0.0
 11
592.00978879519698
 21
66.079270867332227
 31
0.0
  0
LINE
  5
CC
  8
0
 10
574.90424228766722
 20
74.079270867332241
 30
0.0
 11
590.90424228766722
 21
74.079270867332241
 31
0.0
  0
LINE
  5
CD
  8
CENTER
  6
CENTER
 10
592.70125868226876
 20
53.07927086733222
 30
0.0
 11
557.30881369544693
 21
53.07927086733222
 31
0.0
  0
LINE
  5
CF
  8
HIDDEN
  6
HIDDEN
 10
559.12663032120827
 20
66.356882833791062
 30
0.0
 11
565.93041691019403
 21
66.119289370646101
 31
0.0
  0
LINE
  5
D0
  8
HIDDEN
  6
HIDDEN
 10
559.12663032120838
 20
56.801658900873363
 30
0.0
 11
565.93041691019403
 21
57.039252364018381
 31
0.0
  0
LINE
  5
D1
  8
HIDDEN
  6
HIDDEN
 10
559.90424228766722
 20
57.579270867332212
 30
0.0
 11
565.93041691019403
 21
57.789709522242482
 31
0.0
  0
LINE
  5
D2
  8
HIDDEN
  6
HIDDEN
 10
559.90424228766722
 20
65.579270867332269
 30
0.0
 11
565.93041691019403
 21
65.368832212421992
 31
0.0
  0
LINE
  5
D3
  8
CENTER
  6
CENTER
 10
557.10722589306556
 20
61.579270867332241
 30
0.0
 11
570.22860095392912
 21
61.579270867332212
 31
0.0
1001
ACAD
1000
ASC_BOUNDS
1002
{
1070
    19
1002
}
  0
LINE
  5
D4
  8
HIDDEN
  6
HIDDEN
 10
559.90424228766722
 20
65.579270867332212
 30
0.0
 11
559.90424228766722
 21
57.579270867332212
 31
0.0
  0
LINE
  5
D7
  8
HIDDEN
  6
HIDDEN
 10
558.90424228766733
 20
56.579270867332227
 30
0.0
 11
559.90424228766722
 21
57.579270867332212
 31
0.0
  0
TEXT
  5
D8
  8
DIM
 10
548.26058028233751
 20
68.564911332629606
 30
0.0
 40
2.3333333333333308
  1
貫通
  7
CHINESET
  0
TEXT
  5
D9
  8
DIM
 10
537.57436474386759
 20
68.744855658506964
 30
0.0
 40
1.999999999999998
  1
3-%%C3.5
  7
CHINESET
  0
LINE
  5
DB
  8
HIDDEN
  6
HIDDEN
 10
558.90424228766733
 20
66.579270867332212
 30
0.0
 11
559.90424228766722
 21
65.579270867332212
 31
0.0
  0
LINE
  5
DC
  8
CENTER
  6
CENTER
 10
583.90424228766722
 20
63.329270867332177
 30
0.0
 11
583.90424228766722
 21
58.829270867332198
 31
0.0
  0
CIRCLE
  5
DD
  8
0
 10
583.90424228766722
 20
61.079270867332191
 30
0.0
 40
1.699999999999998
  0
CIRCLE
  5
DE
  8
0
 10
565.90424228766722
 20
53.07927086733222
 30
0.0
 40
1.699999999999998
  0
LINE
  5
DF
  8
CENTER
  6
CENTER
 10
565.90424228766722
 20
55.329270867332241
 30
0.0
 11
565.90424228766722
 21
50.829270867332227
 31
0.0
  0
LINE
  5
E0
  8
CENTER
  6
CENTER
 10
586.15424228766722
 20
61.079270867332191
 30
0.0
 11
581.65424228766733
 21
61.079270867332191
 31
0.0
  0
LINE
  5
E1
  8
HIDDEN
  6
HIDDEN
 10
589.9042422876671
 20
57.079270867332248
 30
0.0
 11
583.87806766514041
 21
56.868832212421971
 31
0.0
  0
LINE
  5
E2
  8
HIDDEN
  6
HIDDEN
 10
590.68185425412605
 20
57.856882833791097
 30
0.0
 11
583.87806766514041
 21
57.619289370646086
 31
0.0
  0
LINE
  5
E3
  8
HIDDEN
  6
HIDDEN
 10
590.4042422876671
 20
68.079270867332269
 30
0.0
 11
590.4042422876671
 21
64.079270867332269
 31
0.0
  0
LINE
  5
E4
  8
HIDDEN
  6
HIDDEN
 10
581.78203348624811
 20
64.079270867332269
 30
0.0
 11
590.4042422876671
 21
64.079270867332269
 31
0.0
  0
LINE
  5
E5
  8
HIDDEN
  6
HIDDEN
 10
581.78203348624811
 20
68.079270867332269
 30
0.0
 11
590.4042422876671
 21
68.079270867332212
 31
0.0
  0
LINE
  5
E7
  8
0
 10
558.90424228766733
 20
74.079270867332241
 30
0.0
 11
574.90424228766722
 21
74.079270867332241
 31
0.0
  0
POLYLINE
  8
0
  5
45D
  66
     1
 10
0.000000
 20
0.000000
 30
0.000000
  70
     8
  0
VERTEX
  8
0
  5
45E
 10
568.904
 20
76.9261
 30
0.000000
  70
    32
  0
VERTEX
  8
0
  5
45F
 10
560.846
 20
81.8101
 30
0.000000
  70
    32
  0
VERTEX
  8
0
  5
460
 10
543.870
 20
81.8101
 30
0.000000
  70
    32
  0
SEQEND
  8
0
  5
461
  0
TEXT
  5
EA
  8
DIM
 10
544.24514950178559
 20
82.337133502114796
 30
0.0
 40
1.999999999999998
  1
2-M12*0.8
  7
CHINESET
  0
ARC
  5
EE
  8
0
 10
579.45424228766717
 20
84.229270867332289
 30
0.0
 40
0.7499999999999996
 50
270.0
 51
0.0
  0
ARC
  5
EF
  8
0
 10
570.35424228766715
 20
84.229270867332247
 30
0.0
 40
0.7499999999999996
 50
180.0
 51
270.00000000000011
  0
LINE
  5
F0
  8
0
 10
577.20424228766717
 20
81.479270867332247
 30
0.0
 11
577.4042422876671
 21
81.479270867332247
 31
0.0
  0
LINE
  5
F1
  8
0
 10
577.20424228766717
 20
82.479270867332318
 30
0.0
 11
577.4042422876671
 21
82.479270867332318
 31
0.0
  0
LINE
  5
F2
  8
0
 10
576.40424228766722
 20
83.479270867332275
 30
0.0
 11
579.45424228766717
 21
83.479270867332303
 31
0.0
  0
LINE
  5
F3
  8
0
 10
568.90424228766722
 20
80.579270867332284
 30
0.0
 11
580.9042422876671
 21
80.579270867332241
 31
0.0
  0
LINE
  5
F4
  8
0
  6
CONTINUOUS
 10
569.4042422876671
 20
81.079270867332227
 30
0.0
 11
580.4042422876671
 21
81.079270867332184
 31
0.0
  0
LINE
  5
F5
  8
0
 10
568.90424228766722
 20
75.079270867332241
 30
0.0
 11
580.9042422876671
 21
75.079270867332241
 31
0.0
  0
LINE
  5
F6
  8
0
 10
569.30424228766708
 20
80.979270867332303
 30
0.0
 11
569.30424228766708
 21
75.079270867332241
 31
0.0
  0
LINE
  5
F7
  8
0
 10
568.90424228766722
 20
80.579270867332284
 30
0.0
 11
568.90424228766722
 21
75.079270867332241
 31
0.0
  0
LINE
  5
F8
  8
0
 10
569.4042422876671
 20
75.079270867332241
 30
0.0
 11
569.4042422876671
 21
74.079270867332298
 31
0.0
  0
LINE
  5
F9
  8
0
 10
570.35424228766715
 20
83.479270867332247
 30
0.0
 11
573.4042422876671
 21
83.479270867332275
 31
0.0
  0
LINE
  5
FA
  8
0
 10
568.90424228766722
 20
80.579270867332284
 30
0.0
 11
569.4042422876671
 21
81.079270867332326
 31
0.0
  0
LINE
  5
FB
  8
0
 10
577.20424228766717
 20
81.479270867332247
 30
0.0
 11
577.20424228766717
 21
82.479270867332318
 31
0.0
  0
LINE
  5
FC
  8
0
 10
572.60424228766715
 20
81.479270867332247
 30
0.0
 11
572.60424228766715
 21
82.479270867332247
 31
0.0
  0
LINE
  5
FD
  8
0
 10
572.40424228766722
 20
81.479270867332247
 30
0.0
 11
572.60424228766715
 21
81.479270867332332
 31
0.0
  0
LINE
  5
FE
  8
0
 10
572.40424228766733
 20
82.479270867332247
 30
0.0
 11
572.60424228766715
 21
82.479270867332247
 31
0.0
  0
LINE
  5
FF
  8
0
 10
572.40424228766722
 20
81.079270867332227
 30
0.0
 11
572.40424228766722
 21
81.479270867332247
 31
0.0
  0
LINE
  5
100
  8
0
 10
572.40424228766722
 20
82.479270867332247
 30
0.0
 11
572.40424228766722
 21
83.479270867332247
 31
0.0
  0
LINE
  5
101
  8
0
 10
573.4042422876671
 20
83.579270867332298
 30
0.0
 11
576.40424228766722
 21
83.579270867332298
 31
0.0
  0
LINE
  5
102
  8
0
 10
580.9042422876671
 20
80.579270867332241
 30
0.0
 11
580.9042422876671
 21
75.079270867332241
 31
0.0
  0
LINE
  5
103
  8
0
 10
580.50424228766713
 20
80.979270867332247
 30
0.0
 11
580.50424228766713
 21
75.079270867332241
 31
0.0
  0
LINE
  5
104
  8
0
 10
580.4042422876671
 20
75.079270867332241
 30
0.0
 11
580.4042422876671
 21
74.079270867332298
 31
0.0
  0
LINE
  5
105
  8
0
 10
580.4042422876671
 20
81.079270867332227
 30
0.0
 11
580.9042422876671
 21
80.579270867332241
 31
0.0
  0
LINE
  5
106
  8
0
 10
577.4042422876671
 20
81.079270867332227
 30
0.0
 11
577.4042422876671
 21
81.479270867332332
 31
0.0
  0
LINE
  5
107
  8
0
 10
577.4042422876671
 20
82.479270867332318
 30
0.0
 11
577.4042422876671
 21
83.479270867332247
 31
0.0
  0
ARC
  5
108
  8
0
 10
574.90424228766722
 20
73.479270867332204
 30
0.0
 40
12.499999999999989
 50
65.465948770057295
 51
114.53405122994261
  0
LINE
  5
109
  8
0
 10
569.60424228766715
 20
84.22927086733219
 30
0.0
 11
569.71381772638438
 21
84.850704060805796
 31
0.0
  0
LINE
  5
10B
  8
0
 10
580.20424228766728
 20
84.229270867332289
 30
0.0
 11
580.09466684894994
 21
84.850704060805796
 31
0.0
  0
LINE
  5
111
  8
0
 10
623.06951084922537
 20
68.587813661524422
 30
0.0
 11
623.06951084922537
 21
63.587813661524422
 31
0.0
  0
LINE
  5
112
  8
0
 10
622.76951084922541
 20
68.28781366152441
 30
0.0
 11
622.76951084922541
 21
63.887813661524461
 31
0.0
  0
LINE
  5
113
  8
HIDDEN
  6
HIDDEN
 10
625.56951084922525
 20
68.587813661524422
 30
0.0
 11
625.56951084922525
 21
63.587813661524422
 31
0.0
  0
LINE
  5
114
  8
0
 10
627.06951084922548
 20
68.587813661524422
 30
0.0
 11
627.06951084922548
 21
63.587813661524422
 31
0.0
  0
LINE
  5
115
  8
0
 10
617.06951084922525
 20
68.28781366152441
 30
0.0
 11
617.06951084922525
 21
63.887813661524397
 31
0.0
  0
LINE
  5
116
  8
0
 10
617.36951084922543
 20
68.587813661524422
 30
0.0
 11
617.36951084922543
 21
63.587813661524422
 31
0.0
  0
LINE
  5
117
  8
CENTER
  6
CENTER
 10
627.72560931946271
 20
66.087813661524422
 30
0.0
 11
616.59485054999618
 21
66.087813661524422
 31
0.0
  0
LINE
  5
118
  8
0
 10
627.06951084922548
 20
63.587813661524422
 30
0.0
 11
617.36951084922543
 21
63.587813661524422
 31
0.0
  0
LINE
  5
119
  8
0
 10
622.76951084922541
 20
63.887813661524397
 30
0.0
 11
617.06951084922525
 21
63.887813661524397
 31
0.0
  0
LINE
  5
11A
  8
0
 10
617.06951084922525
 20
63.887813661524397
 30
0.0
 11
617.36951084922543
 21
63.587813661524422
 31
0.0
  0
ARC
  5
11B
  8
HIDDEN
  6
HIDDEN
 10
614.62670724579425
 20
56.390767175348117
 30
0.0
 40
9.9999999999999911
 50
46.030101062924679
 51
75.860690738922031
  0
LINE
  5
11C
  8
0
 10
622.76951084922553
 20
63.887813661524397
 30
0.0
 11
623.06951084922537
 21
63.587813661524422
 31
0.0
  0
LINE
  5
11D
  8
0
 10
627.06951084922548
 20
68.587813661524422
 30
0.0
 11
617.36951084922543
 21
68.587813661524422
 31
0.0
  0
LINE
  5
11E
  8
0
 10
622.76951084922541
 20
68.28781366152441
 30
0.0
 11
617.06951084922525
 21
68.28781366152441
 31
0.0
  0
LINE
  5
11F
  8
0
 10
617.06951084922525
 20
68.28781366152441
 30
0.0
 11
617.36951084922543
 21
68.587813661524422
 31
0.0
  0
LINE
  5
120
  8
0
 10
622.76951084922541
 20
68.28781366152441
 30
0.0
 11
623.06951084922537
 21
68.587813661524422
 31
0.0
  0
LINE
  5
127
  8
CENTER
  6
CENTER
 10
557.11469998812288
 20
106.216144708954
 30
0.0
 11
592.18453742500628
 21
106.216144708954
 31
0.0
  0
LINE
  5
128
  8
0
 10
558.90424228766733
 20
98.216144708954062
 30
0.0
 11
590.90424228766722
 21
98.216144708954062
 31
0.0
  0
LINE
  5
129
  8
0
 10
558.90424228766733
 20
114.216144708954
 30
0.0
 11
590.90424228766722
 21
114.216144708954
 31
0.0
  0
LINE
  5
12A
  8
0
 10
558.90424228766733
 20
98.216144708954062
 30
0.0
 11
558.90424228766733
 21
114.216144708954
 31
0.0
  0
LINE
  5
12B
  8
CENTER
  6
CENTER
 10
574.90424228766722
 20
96.647224332236021
 30
0.0
 11
574.90424228766722
 21
115.3220525074565
 31
0.0
  0
CIRCLE
  5
12C
  8
0
 10
574.90424228766722
 20
106.21614470895391
 30
0.0
 40
5.9999999999999956
  0
CIRCLE
  5
12D
  8
0
 10
574.90424228766722
 20
106.21614470895391
 30
0.0
 40
5.4999999999999956
  0
CIRCLE
  5
12E
  8
0
 10
574.90424228766722
 20
106.21614470895391
 30
0.0
 40
4.4999999999999396
  0
CIRCLE
  5
12F
  8
0
 10
574.90424228766722
 20
106.21614470895391
 30
0.0
 40
4.0000000000000542
  0
LINE
  5
132
  8
0
 10
590.90424228766722
 20
98.216144708954062
 30
0.0
 11
590.90424228766722
 21
114.216144708954
 31
0.0
  0
TEXT
  5
287
  8
LOGO
 62
     6
 10
528.10934167112873
 20
-10.24755710281185
 30
0.0
 40
2.2831844855688281
  1
m/m
  7
CHINESET
 72
     1
 11
532.13209528855953
 21
-9.1059648600274432
 31
0.0
 73
     2
  0
TEXT
  5
288
  8
LOGO
 62
     6
 10
528.10934167112873
 20
-1.1148191605365461
 30
0.0
 40
2.2831844855688281
  1
1 : 1
  7
CHINESET
 72
     1
 11
532.13209528855953
 21
0.0267730822478676
 31
0.0
 73
     2
  0
TEXT
  5
289
  8
LOGO
 62
     6
 10
509.32263785897192
 20
-10.24755710281185
 30
0.0
 40
2.2831844855688281
  1
單位 Unit:
 41
0.9
  7
CHINESET
 72
     4
 11
515.55145053366425
 21
-9.1059648600274432
 31
0.0
  0
TEXT
  5
28A
  8
LOGO
 62
     6
 10
508.30132051319509
 20
-1.1136955461243569
 30
0.0
 40
2.2831844855688281
  1
比例 Scale:
 41
0.9
  7
CHINESET
 72
     4
 11
515.55145053366425
 21
0.0267730822478676
 31
0.0
  0
LINE
  5
28B
  8
LOGO
 62
     1
 10
635.79916677362269
 20
-20.521887287871579
 30
0.0
 11
635.79916677362269
 21
2.3099575678166948
 31
0.0
  0
LINE
  5
28C
  8
LOGO
 62
     1
 10
524.68418847593966
 20
-11.38914934559627
 30
0.0
 11
524.68418847593966
 21
2.3099575678166948
 31
0.0
  0
LINE
  5
28D
  8
LOGO
 62
     1
 10
539.90541837973194
 20
-2.2564114033209601
 30
0.0
 11
506.41871259138901
 21
-2.2564114033209601
 31
0.0
  0
LINE
  5
28E
  8
LOGO
 62
     1
 10
539.90541837973194
 20
-6.822780374458616
 30
0.0
 11
506.41871259138901
 21
-6.822780374458616
 31
0.0
  0
LINE
  5
28F
  8
LOGO
 62
     1
 10
489.67535969721757
 20
-20.521887287871579
 30
0.0
 11
489.67535969721757
 21
2.3099575678166948
 31
0.0
  0
LINE
  5
290
  8
LOGO
 62
     1
 10
539.90541837973194
 20
-11.389149345596239
 30
0.0
 11
489.67535969721757
 21
-11.389149345596239
 31
0.0
  0
TEXT
  5
291
  8
LOGO
 62
     6
 10
509.09941580435589
 20
-5.6490714863924563
 30
0.0
 40
2.2831844855688281
  1
投影 View:
 41
0.9
  7
CHINESET
 72
     4
 11
515.55145053366425
 21
-4.5395958888897878
 31
0.0
  0
CIRCLE
  5
292
  8
LOGO
  6
CONTINUOUS
 62
     6
 10
528.91179012717146
 20
-4.5347121405672404
 30
0.0
 40
1.325670652426121
  0
CIRCLE
  5
293
  8
LOGO
  6
CONTINUOUS
 62
     6
 10
528.91179012717146
 20
-4.5347121405672404
 30
0.0
 40
0.7767256473386346
  0
LINE
  5
294
  8
LOGO
  6
CONTINUOUS
 62
     6
 10
533.0865569331055
 20
-3.7579864932286009
 30
0.0
 11
537.242458331335
 21
-3.209041488141116
 31
0.0
  0
LINE
  5
295
  8
LOGO
  6
CONTINUOUS
 62
     6
 10
533.0865569331055
 20
-5.3114377879058683
 30
0.0
 11
537.242458331335
 21
-5.8603827929933594
 31
0.0
  0
LINE
  5
296
  8
LOGO
 62
     6
 10
533.0865569331055
 20
-5.3114377879058727
 30
0.0
 11
533.0865569331055
 21
-3.7579864932285951
 31
0.0
  0
LINE
  5
297
  8
LOGO
 62
     6
 10
537.242458331335
 20
-5.8603827929933594
 30
0.0
 11
537.242458331335
 21
-3.209041488141116
 31
0.0
  0
TEXT
  5
29C
  8
LOGO
 62
     6
 10
577.39809961153173
 20
-14.355491393776241
 30
0.0
 40
3.0442459807584372
  1
型式
  7
CHINESET
 72
     4
 11
580.44234559229005
 21
-12.91127233597549
 31
0.0
  0
TEXT
  5
29D
  8
LOGO
 62
     7
 10
541.22815358386015
 20
-7.6922851464213231
 30
0.0
 40
3.0442459807584372
  1
Order example:
 41
0.8
  7
CHINESET
  0
LINE
  5
29F
  8
LOGO
 62
     6
 10
634.60399239126855
 20
-10.247557102811831
 30
0.0
 11
634.60399239126855
 21
-18.619233549897519
 31
0.0
  0
LINE
  5
2A0
  8
LOGO
 62
     6
 10
605.64148970994677
 20
-10.247557102811831
 30
0.0
 11
605.64148970994677
 21
-18.61923354989754
 31
0.0
  0
LINE
  5
2A1
  8
LOGO
 62
     6
 10
634.60399239126855
 20
-18.61923354989754
 30
0.0
 11
605.64148970994677
 21
-18.619233549897562
 31
0.0
  0
LINE
  5
2A3
  8
LOGO
 62
     6
 10
634.60399239126855
 20
-10.247557102811831
 30
0.0
 11
605.64148970994677
 21
-10.247557102811831
 31
0.0
  0
LINE
  5
2A4
  8
LOGO
 62
     6
 10
620.14382398266605
 20
-6.8227803744585946
 30
0.0
 11
603.358305224378
 21
-6.8227803744585946
 31
0.0
  0
LINE
  5
2A5
  8
LOGO
 62
     6
 10
611.75106460352197
 20
-6.8227803744585946
 30
0.0
 11
611.75106460352197
 21
-10.247557102811831
 31
0.0
  0
TEXT
  5
2A6
  8
LOGO
 62
     6
 10
612.51212609871163
 20
-14.30230697826592
 30
0.0
 40
3.0442459807584372
  1
雙側按鈕型
  7
CHINESET
 72
     4
 11
620.12274105060771
 21
-12.91127233597547
 31
0.0
  0
LINE
  5
2A7
  8
LOGO
 62
     6
 10
580.44234559229005
 20
-6.822780374458616
 30
0.0
 11
580.44234559229005
 21
-10.24755710281185
 31
0.0
  0
LINE
  5
2A8
  8
LOGO
 62
     6
 10
572.83173064039397
 20
-10.24755710281185
 30
0.0
 11
572.83173064039397
 21
-18.619233549897579
 31
0.0
  0
TEXT
  5
2A9
  8
LOGO
 62
     7
 10
541.77431648769834
 20
-3.4066171246865999
 30
0.0
 40
4.5663689711376563
  1
訂購代號:
  7
CHINESET
  0
LINE
  5
2AB
  8
LOGO
 62
     6
 10
620.14382398266605
 20
0.0267730822479324
 30
0.0
 11
603.358305224378
 21
0.0267730822478889
 31
0.0
  0
LINE
  5
2AC
  8
LOGO
 62
     6
 10
571.30960765001475
 20
0.0267730822478676
 30
0.0
 11
571.30960765001475
 21
-6.822780374458616
 31
0.0
  0
LINE
  5
2AD
  8
LOGO
 62
     6
 10
603.358305224378
 20
0.0267730822478889
 30
0.0
 11
603.358305224378
 21
-6.8227803744585946
 31
0.0
  0
LINE
  5
2AE
  8
LOGO
 62
     6
 10
620.14382398266605
 20
0.0267730822479324
 30
0.0
 11
620.14382398266605
 21
-6.8227803744585946
 31
0.0
  0
TEXT
  5
2B1
  8
LOGO
  6
CONTINUOUS
 62
     6
 10
605.98874185422926
 20
-17.350797724581529
 30
0.0
 40
1.9026537379740229
  1
Double push button
  7
CHINESET
 72
     4
 11
620.12274105060771
 21
-16.716579811923509
 31
0.0
  0
TEXT
  5
2B2
  8
LOGO
  6
CONTINUOUS
 62
     6
 10
576.81824323424428
 20
-17.667906680910551
 30
0.0
 40
1.9026537379740229
  1
Model
  7
CHINESET
 72
     4
 11
580.44234559229005
 21
-16.716579811923541
 31
0.0
  0
TEXT
  5
2B4
  8
LOGO
  6
CONTINUOUS
 62
     7
 10
608.57997504023194
 20
-5.343809810639625
 30
0.0
 40
3.8053074759480472
  1
PP
  7
CHINESET
 72
     1
 11
611.75106460352197
 21
-3.4411560726656001
 31
0.0
 73
     2
  0
TEXT
  5
2B5
  8
LOGO
  6
CONTINUOUS
 62
     7
 10
573.01293575829629
 20
-5.3006573840793978
 30
0.0
 40
3.8053074759480472
  1
MVHA
  7
CHINESET
 72
     1
 11
580.44234559229005
 21
-3.3980036461053742
 31
0.0
 73
     2
  0
LINE
  5
2B6
  8
LOGO
 62
     1
 10
539.90541837973194
 20
-20.521887287871579
 30
0.0
 11
539.90541837973194
 21
2.3099575678166948
 31
0.0
  0
LINE
  5
2B7
  8
LOGO
 62
     1
 10
635.79916677362269
 20
2.3099575678166948
 30
0.0
 11
489.67535969721757
 21
2.3099575678166948
 31
0.0
  0
LINE
  5
2B8
  8
LOGO
 62
     1
 10
635.79916677362269
 20
-20.521887287871579
 30
0.0
 11
489.67535969721757
 21
-20.521887287871579
 31
0.0
  0
LINE
  5
2B9
  8
LOGO
 62
     6
 10
589.57508353456535
 20
0.0267730822478676
 30
0.0
 11
589.57508353456535
 21
-6.822780374458616
 31
0.0
  0
LINE
  5
2BA
  8
LOGO
 62
     6
 10
588.05296054418625
 20
-10.24755710281185
 30
0.0
 11
588.05296054418625
 21
-18.619233549897562
 31
0.0
  0
LINE
  5
2BB
  8
LOGO
 62
     6
 10
589.57508353456535
 20
0.0267730822478676
 30
0.0
 11
571.30960765001475
 21
0.0267730822478676
 31
0.0
  0
LINE
  5
2BC
  8
LOGO
 62
     6
 10
589.57508353456535
 20
-6.822780374458616
 30
0.0
 11
571.30960765001475
 21
-6.822780374458616
 31
0.0
  0
LINE
  5
2BD
  8
LOGO
 62
     6
 10
588.05296054418625
 20
-10.24755710281185
 30
0.0
 11
572.83173064039397
 21
-10.24755710281185
 31
0.0
  0
LINE
  5
2BE
  8
LOGO
 62
     6
 10
588.05296054418625
 20
-18.619233549897562
 30
0.0
 11
572.83173064039397
 21
-18.619233549897579
 31
0.0
  0
TEXT
  5
2BF
  8
LOGO
  6
CONTINUOUS
 62
     7
 10
596.52552245078016
 20
-5.300657384079388
 30
0.0
 40
3.8053074759480472
  1
41
  7
CHINESET
 72
     1
 11
598.79058642455891
 21
-3.3980036461053631
 31
0.0
 73
     2
  0
LINE
  5
2C0
  8
LOGO
 62
     6
 10
602.61697683256534
 20
0.0267730822479107
 30
0.0
 11
594.96419601655259
 21
0.0267730822478676
 31
0.0
  0
LINE
  5
2C1
  8
LOGO
 62
     6
 10
604.900161318134
 20
-10.24755710281185
 30
0.0
 11
592.68101153098382
 21
-10.24755710281185
 31
0.0
  0
LINE
  5
2C2
  8
LOGO
 62
     6
 10
602.61697683256534
 20
-6.822780374458616
 30
0.0
 11
594.96419601655259
 21
-6.822780374458616
 31
0.0
  0
TEXT
  5
2C3
  8
LOGO
 62
     6
 10
593.64934421687633
 20
-14.422908258507629
 30
0.0
 40
3.0442459807584372
  1
4 方向
 41
0.9
  7
CHINESET
 72
     4
 11
598.79058642455902
 21
-12.911272335975511
 31
0.0
  0
LINE
  5
2C4
  8
LOGO
 62
     6
 10
604.900161318134
 20
-18.619233549897562
 30
0.0
 11
592.68101153098382
 21
-18.619233549897579
 31
0.0
  0
TEXT
  5
2C5
  8
LOGO
  6
CONTINUOUS
 62
     6
 10
595.34768918441557
 20
-17.350797724581572
 30
0.0
 40
1.9026537379740229
  1
4 Way
 41
0.8
  7
CHINESET
 72
     4
 11
598.79058642455902
 21
-16.716579811923559
 31
0.0
  0
LINE
  5
2C6
  8
LOGO
 62
     6
 10
594.96419601655259
 20
0.0267730822478676
 30
0.0
 11
594.96419601655259
 21
-6.822780374458616
 31
0.0
  0
LINE
  5
2C7
  8
LOGO
 62
     6
 10
592.68101153098382
 20
-10.24755710281185
 30
0.0
 11
592.68101153098382
 21
-18.619233549897562
 31
0.0
  0
LINE
  5
2C8
  8
LOGO
 62
     6
 10
602.61697683256534
 20
0.0267730822479107
 30
0.0
 11
602.61697683256534
 21
-6.822780374458616
 31
0.0
  0
LINE
  5
2C9
  8
LOGO
 62
     6
 10
604.900161318134
 20
-10.24755710281185
 30
0.0
 11
604.900161318134
 21
-18.61923354989754
 31
0.0
  0
LINE
  5
2CA
  8
LOGO
  6
CONTINUOUS
 62
     7
 10
590.75515865668046
 20
-3.4222658469343461
 30
0.0
 11
593.77967153406212
 21
-3.4222658469343461
 31
0.0
  0
LINE
  5
2CC
  8
LOGO
 62
     1
 10
506.41871259138901
 20
-11.38914934559627
 30
0.0
 11
506.41871259138901
 21
2.3099575678166948
 31
0.0
  0
POLYLINE
  5
2CD
  8
LOGO
 62
     5
 66
     1
 10
0.0
 20
0.0
 30
0.0
 70
     1
  0
VERTEX
  5
434
  8
LOGO
 62
     5
 10
501.5189685208523
 20
-10.146755281297301
 30
0.0
 42
1.0000000573306349
  0
VERTEX
  5
435
  8
LOGO
 62
     5
 10
502.54019858374801
 20
-10.146755281297301
 30
0.0
 42
1.0000000573306349
  0
SEQEND
  5
436
  8
LOGO
 62
     5
  0
CIRCLE
  5
2CE
  8
LOGO
 62
     5
 10
502.0295835523001
 20
-10.146755281297301
 30
0.0
 40
0.5106150314477899
  0
SOLID
  5
2CF
  8
LOGO
 62
     5
 10
492.04420024331949
 20
-7.5936801240584169
 30
0.0
 11
493.03138930411848
 21
-7.5936801240587419
 31
0.0
 12
497.15035055779771
 22
1.7675954524845829
 32
0.0
 13
498.13753961859652
 23
1.7675954524839339
 33
0.0
  0
SOLID
  5
2D0
  8
LOGO
 62
     5
 10
493.43988132927728
 20
-7.5936801240584169
 30
0.0
 11
494.42707039007621
 21
-7.5936801240584169
 31
0.0
 12
498.13753961859652
 22
1.0186934063608031
 32
0.0
 13
497.15035055779771
 23
-2.6009998165692698
 33
0.0
  0
SOLID
  5
2D1
  8
LOGO
 62
     5
 10
497.15035055779771
 20
-7.5936801240584169
 30
0.0
 11
498.13753961859652
 21
-7.5936801240584169
 31
0.0
 12
497.15035055779771
 22
-2.6009998165692698
 32
0.0
 13
498.13753961859652
 23
1.0186934063608031
 33
0.0
  0
SOLID
  5
2D2
  8
LOGO
 62
     5
 10
498.5460316437551
 20
1.7675954524839339
 30
0.0
 11
499.53322070455403
 21
1.7675954524845829
 31
0.0
 12
498.5460316437551
 22
-6.8447780779352883
 32
0.0
 13
499.53322070455403
 23
-3.2250848550052069
 33
0.0
  0
SOLID
  5
2D3
  8
LOGO
 62
     5
 10
498.5460316437551
 20
-6.8447780779352883
 30
0.0
 11
499.53322070455403
 21
-3.2250848550052069
 31
0.0
 12
503.24368993307428
 22
1.7675954524845829
 32
0.0
 13
502.2565008722753
 23
1.7675954524845829
 33
0.0
  0
SOLID
  5
2D4
  8
LOGO
 62
     5
 10
498.5460316437551
 20
-7.5936801240584169
 30
0.0
 11
499.53322070455403
 21
-7.5936801240584169
 31
0.0
 12
503.24368993307428
 22
1.0186934063608031
 32
0.0
 13
502.2565008722753
 23
-2.6009998165692698
 33
0.0
  0
SOLID
  5
2D5
  8
LOGO
 62
     5
 10
503.24368993307428
 20
1.0186934063608031
 30
0.0
 11
502.2565008722753
 21
-2.6009998165692698
 31
0.0
 12
503.24368993307428
 22
-7.5936801240587419
 32
0.0
 13
502.2565008722753
 23
-7.5936801240587419
 33
0.0
  0
SOLID
  5
2D6
  8
LOGO
 62
     5
 10
503.6521819582328
 20
-7.5936801240587419
 30
0.0
 11
504.63937101903178
 21
-7.5936801240587419
 31
0.0
 12
503.6521819582328
 22
1.7675954524839339
 32
0.0
 13
504.63937101903178
 23
1.7675954524845829
 33
0.0
  0
SOLID
  5
2D7
  8
LOGO
 62
     5
 10
490.46149409044682
 20
-10.99778033371015
 30
0.0
 11
490.8019041114124
 21
-10.99778033371015
 31
0.0
 12
491.7605252258486
 22
-9.2957302288844428
 32
0.0
 13
492.10093524681372
 23
-9.2957302288844428
 33
0.0
  0
SOLID
  5
2D8
  8
LOGO
 62
     5
 10
491.7605252258486
 20
-9.2957302288844428
 30
0.0
 11
492.10093524681372
 21
-9.2957302288844428
 31
0.0
 12
491.7605252258486
 22
-10.99778033371015
 32
0.0
 13
492.10093524681372
 23
-10.99778033371015
 33
0.0
  0
SOLID
  5
2D9
  8
LOGO
 62
     5
 10
491.7605252258486
 20
-10.99778033371015
 30
0.0
 11
492.10093524681372
 21
-10.99778033371015
 31
0.0
 12
493.059556361251
 22
-9.2957302288844428
 32
0.0
 13
493.39996638221589
 23
-9.2957302288844428
 33
0.0
  0
SOLID
  5
2DA
  8
LOGO
 62
     5
 10
493.059556361251
 20
-9.2957302288844428
 30
0.0
 11
493.39996638221589
 21
-9.2957302288844428
 31
0.0
 12
493.059556361251
 22
-10.99778033371015
 32
0.0
 13
493.39996638221589
 23
-10.99778033371015
 33
0.0
  0
SOLID
  5
2DB
  8
LOGO
 62
     5
 10
493.80292861663628
 20
-9.0574432142089627
 30
0.0
 11
494.14333863760208
 21
-9.0574432142089627
 31
0.0
 12
493.80292861663628
 22
-8.7851151974364772
 32
0.0
 13
494.14333863760208
 23
-8.7851151974364772
 33
0.0
  0
SOLID
  5
2DC
  8
LOGO
 62
     5
 10
493.80292861663628
 20
-9.2957302288844428
 30
0.0
 11
494.14333863760208
 21
-9.2957302288844428
 31
0.0
 12
493.80292861663628
 22
-10.9977803337108
 32
0.0
 13
494.14333863760208
 23
-10.99778033371015
 33
0.0
  0
POLYLINE
  5
2DD
  8
LOGO
 62
     5
 66
     1
 10
0.0
 20
0.0
 30
0.0
 40
0.340955549844945
 41
0.340955549844945
  0
VERTEX
  5
437
  8
LOGO
 62
     5
 10
495.73274837575951
 20
-9.9765502708148635
 30
0.0
 42
1.0
  0
VERTEX
  5
438
  8
LOGO
 62
     5
 10
494.70988172622458
 20
-9.9765502708148635
 30
0.0
 42
1.0
  0
SEQEND
  5
439
  8
LOGO
 62
     5
  0
SOLID
  5
2DE
  8
LOGO
 62
     5
 10
494.54049500906189
 20
-9.2957302288844428
 30
0.0
 11
494.88090503002672
 21
-9.2957302288844428
 31
0.0
 12
494.54049500906189
 22
-10.99778033371015
 32
0.0
 13
494.88090503002672
 23
-10.99778033371015
 33
0.0
  0
SOLID
  5
2DF
  8
LOGO
 62
     5
 10
495.5617250719572
 20
-9.9765502708148617
 30
0.0
 11
495.90213509292261
 21
-9.9765502708148617
 31
0.0
 12
495.5617250719572
 22
-10.99778033371015
 32
0.0
 13
495.90213509292261
 23
-10.99778033371015
 33
0.0
  0
POLYLINE
  5
2E0
  8
LOGO
 62
     5
 66
     1
 10
0.0
 20
0.0
 30
0.0
 70
     1
 40
0.340955549844945
 41
0.340955549844945
  0
VERTEX
  5
43A
  8
LOGO
 62
     5
 10
496.46843945810753
 20
-10.146755281297461
 30
0.0
 42
1.0
  0
VERTEX
  5
43B
  8
LOGO
 62
     5
 10
497.83226165748732
 20
-10.146755281297461
 30
0.0
 42
1.0
  0
SEQEND
  5
43C
  8
LOGO
 62
     5
  0
SOLID
  5
2E1
  8
LOGO
 62
     5
 10
497.66093154824352
 20
-8.7851151974364772
 30
0.0
 11
498.00134156920831
 21
-8.7851151974364772
 31
0.0
 12
497.66093154824352
 22
-10.99778033371015
 32
0.0
 13
498.00134156920831
 23
-10.99778033371015
 33
0.0
  0
SOLID
  5
2E2
  8
LOGO
 62
     5
 10
498.39849794066907
 20
-9.2957302288844428
 30
0.0
 11
498.73890796163403
 21
-9.2957302288844428
 31
0.0
 12
498.39849794066907
 22
-10.99778033371015
 32
0.0
 13
498.73890796163403
 23
-10.99778033371015
 33
0.0
  0
POLYLINE
  5
2E3
  8
LOGO
 62
     5
 66
     1
 10
0.0
 20
0.0
 30
0.0
 40
0.340955549844945
 41
0.340955549844945
  0
VERTEX
  5
43D
  8
LOGO
 62
     5
 10
499.59075130736659
 20
-9.9765502708148635
 30
0.0
 42
1.0
  0
VERTEX
  5
43E
  8
LOGO
 62
     5
 10
498.56788465783171
 20
-9.9765502708148635
 30
0.0
 42
1.0
  0
SEQEND
  5
43F
  8
LOGO
 62
     5
  0
POLYLINE
  5
2E4
  8
LOGO
 62
     5
 66
     1
 10
0.0
 20
0.0
 30
0.0
 40
0.340955549844945
 41
0.340955549844945
  0
VERTEX
  5
440
  8
LOGO
 62
     5
 10
500.6119813702619
 20
-9.9765502708148635
 30
0.0
 42
1.0
  0
VERTEX
  5
441
  8
LOGO
 62
     5
 10
499.58911472072703
 20
-9.9765502708148635
 30
0.0
 42
1.0
  0
SEQEND
  5
442
  8
LOGO
 62
     5
  0
SOLID
  5
2E5
  8
LOGO
 62
     5
 10
499.41972800356439
 20
-9.9765502708148617
 30
0.0
 11
499.76013802452928
 21
-9.9765502708148617
 31
0.0
 12
499.41972800356439
 22
-10.99778033371015
 32
0.0
 13
499.76013802452928
 23
-10.99778033371015
 33
0.0
  0
SOLID
  5
2E6
  8
LOGO
 62
     5
 10
500.44095806645981
 20
-9.9765502708148617
 30
0.0
 11
500.7813680874246
 21
-9.9765502708148617
 31
0.0
 12
500.44095806645981
 22
-10.9977803337108
 32
0.0
 13
500.7813680874246
 23
-10.9977803337108
 33
0.0
  0
POLYLINE
  5
2E7
  8
LOGO
 62
     5
 66
     1
 10
0.0
 20
0.0
 30
0.0
 70
     1
 40
0.340955549844945
 41
0.340955549844945
  0
VERTEX
  5
443
  8
LOGO
 62
     5
 10
501.34767245261008
 20
-10.146755281297461
 30
0.0
 42
1.0
  0
VERTEX
  5
444
  8
LOGO
 62
     5
 10
502.71149465198982
 20
-10.146755281297461
 30
0.0
 42
1.0
  0
SEQEND
  5
445
  8
LOGO
 62
     5
  0
LINE
  5
2E8
  8
LOGO
 62
     5
 10
504.63937101903178
 20
-10.99778033371015
 30
0.0
 11
504.63937101903178
 21
-9.9765502708148617
 31
0.0
  0
POLYLINE
  5
2E9
  8
LOGO
 62
     5
 66
     1
 10
0.0
 20
0.0
 30
0.0
 40
0.340955549844945
 41
0.340955549844945
  0
VERTEX
  5
446
  8
LOGO
 62
     5
 10
504.46998430186909
 20
-9.9765502708148635
 30
0.0
 42
1.0
  0
VERTEX
  5
447
  8
LOGO
 62
     5
 10
503.44711765233433
 20
-9.9765502708148635
 30
0.0
 42
1.0
  0
SEQEND
  5
448
  8
LOGO
 62
     5
  0
SOLID
  5
2EA
  8
LOGO
 62
     5
 10
502.54016454274631
 20
-9.2957302288844428
 30
0.0
 11
502.88057456371132
 21
-9.2957302288844428
 31
0.0
 12
502.54016454274631
 22
-10.99778033371015
 32
0.0
 13
502.88057456371132
 23
-10.99778033371015
 33
0.0
  0
SOLID
  5
2EB
  8
LOGO
 62
     5
 10
503.27773093517089
 20
-10.99778033371015
 30
0.0
 11
503.61814095613641
 21
-10.99778033371015
 31
0.0
 12
503.27773093517089
 22
-9.2957302288844428
 32
0.0
 13
503.61814095613641
 23
-9.2957302288844428
 33
0.0
  0
SOLID
  5
2EC
  8
LOGO
 62
     5
 10
504.29896099806689
 20
-9.9765502708148617
 30
0.0
 11
504.63937101903178
 21
-9.9765502708149114
 31
0.0
 12
504.29896099806689
 22
-10.99778033371015
 32
0.0
 13
504.63937101903178
 23
-10.99778033371015
 33
0.0
  0
SOLID
  5
2ED
  8
LOGO
 62
     2
 10
493.03138930411848
 20
-7.5936801240587419
 30
0.0
 11
493.43988132927728
 21
-7.5936801240584169
 31
0.0
 12
498.13753961859652
 22
1.7675954524839339
 32
0.0
 13
498.5460316437551
 23
1.7675954524839339
 33
0.0
  0
SOLID
  5
2EE
  8
LOGO
 62
     2
 10
498.13753961859652
 20
1.7675954524839339
 30
0.0
 11
498.5460316437551
 21
1.7675954524839339
 31
0.0
 12
498.13753961859652
 22
-7.5936801240584169
 32
0.0
 13
498.5460316437551
 23
-7.5936801240584169
 33
0.0
  0
SOLID
  5
2EF
  8
LOGO
 62
     2
 10
498.13753961859652
 20
-7.5936801240584169
 30
0.0
 11
498.5460316437551
 21
-7.5936801240584169
 31
0.0
 12
503.24368993307428
 22
1.7675954524845829
 32
0.0
 13
503.6521819582328
 23
1.7675954524839339
 33
0.0
  0
SOLID
  5
2F0
  8
LOGO
 62
     2
 10
503.24368993307428
 20
1.7675954524845829
 30
0.0
 11
503.6521819582328
 21
1.7675954524839339
 31
0.0
 12
503.24368993307428
 22
-7.5936801240587419
 32
0.0
 13
503.6521819582328
 23
-7.5936801240587419
 33
0.0
  0
TEXT
  5
2F1
  8
LOGO
  6
CONTINUOUS
 62
     5
 10
490.42268452887367
 20
-16.036605822229809
 30
0.0
 40
3.4247767283532422
  1
金器工業股份有限公司
 41
0.8
  7
LOGO
  0
TEXT
  5
2F2
  8
LOGO
  6
CONTINUOUS
 62
     5
 10
491.40333402103693
 20
-19.46205353830895
 30
0.0
 40
2.2831844855688281
  1
MINDMAN INDUSTRIAL CO.,LTD
 41
0.85
  7
CHINESET
  0
LINE
  5
2F4
  8
LOGO
 62
     6
 10
598.79058642455902
 20
-10.24755710281185
 30
0.0
 11
598.79058642455891
 21
-6.822780374458616
 31
0.0
  0
DIMENSION
  5
37D
  8
DIM
  2
*D10
 10
590.90424228766722
 20
92.246421121182337
 30
0.0
 11
574.90424228766733
 21
94.746421121182337
 31
0.0
 70
     0
 13
558.90424228766733
 23
98.216144708954062
 33
0.0
 14
590.90424228766722
 24
98.216144708954062
 34
0.0
  0
DIMENSION
  5
38A
  8
DIM
  2
*D11
 10
598.79112991667341
 20
114.216144708954
 30
0.0
 11
596.29112991667341
 21
106.2161447089541
 31
0.0
 70
     0
 13
590.90424228766722
 23
98.216144708954062
 33
0.0
 14
590.90424228766722
 24
114.216144708954
 34
0.0
 50
90.0
  0
DIMENSION
  5
3A0
  8
DIM
  2
*D12
 10
535.10060946991825
 20
74.079270867332255
 30
0.0
 11
532.60060946991825
 21
80.029270867332315
 31
0.0
 70
     0
 13
574.90424228766722
 23
85.979270867332204
 33
0.0
 14
558.90424228766733
 24
74.079270867332241
 34
0.0
 50
90.0
  0
DIMENSION
  5
3AD
  8
DIM
  2
*D13
 10
535.10060946991825
 20
32.079270867332241
 30
0.0
 11
532.60060946991825
 21
53.079270867332333
 31
0.0
 70
     0
 13
558.90424228766733
 23
74.079270867332241
 33
0.0
 14
558.90424228766733
 24
32.079270867332241
 34
0.0
 50
90.0
  0
DIMENSION
  5
3BA
  8
DIM
  2
*D14
 10
535.10060946991825
 20
22.579270867332369
 30
0.0
 11
532.60060946991825
 21
27.32927086733239
 31
0.0
 70
     0
 13
558.90424228766733
 23
32.079270867332241
 33
0.0
 14
574.90424228766722
 24
22.579270867332362
 34
0.0
 50
90.0
  0
DIMENSION
  5
3C7
  8
DIM
  2
*D15
 10
528.494905786858
 20
22.579270867332369
 30
0.0
 11
525.99490578685788
 21
54.279270867332372
 31
0.0
 70
     0
 13
574.90424228766722
 23
85.979270867332204
 33
0.0
 14
574.90424228766722
 24
22.579270867332362
 34
0.0
 50
90.0
  0
DIMENSION
  5
3D4
  8
DIM
  2
*D16
 10
548.80995999374215
 20
44.579270867332227
 30
0.0
 11
546.30995999374227
 21
53.079270867332319
 31
0.0
 70
     0
 13
557.10722589306556
 23
61.579270867332241
 33
0.0
 14
557.10722589306556
 24
44.579270867332227
 34
0.0
 50
90.0
  0
DIMENSION
  5
3E1
  8
DIM
  2
*D17
 10
565.90424228766722
 20
14.129092377313549
 30
0.0
 11
574.90424228766722
 21
16.629092377313551
 31
0.0
 70
     0
 13
583.90424228766722
 23
42.829270867332227
 33
0.0
 14
565.90424228766722
 24
50.829270867332227
 34
0.0
  0
DIMENSION
  5
3EE
  8
DIM
  2
*D18
 10
601.12087941263064
 20
45.079270867332212
 30
0.0
 11
598.62087941263064
 21
53.079270867332298
 31
0.0
 70
     0
 13
586.15424228766722
 23
61.079270867332191
 33
0.0
 14
586.15424228766722
 24
45.07927086733222
 34
0.0
 50
90.0
  0
DIMENSION
  5
3FB
  8
DIM
  2
*D19
 10
607.08848156341026
 20
40.079270867332212
 30
0.0
 11
604.58848156341026
 21
53.079270867332319
 31
0.0
 70
     0
 13
592.00978879519698
 23
66.079270867332227
 33
0.0
 14
592.00978879519698
 24
40.079270867332212
 34
0.0
 50
90.0
  0
DIMENSION
  5
408
  8
DIM
  2
*D20
 10
596.77914262769355
 20
25.07927086733222
 30
0.0
 11
594.27914262769355
 21
28.57927086733234
 31
0.0
 70
     0
 13
590.90424228766722
 23
32.079270867332269
 33
0.0
 14
580.4042422876671
 24
25.07927086733222
 34
0.0
 50
90.0
  0
DIMENSION
  5
416
  8
DIM
  2
*D21
 10
599.62639269241356
 20
81.079270867332227
 30
0.0
 11
597.12639269241356
 21
77.579270867332312
 31
0.0
 70
     0
 13
590.90424228766722
 23
74.079270867332241
 33
0.0
 14
580.4042422876671
 24
81.079270867332227
 34
0.0
 50
90.0
  0
POLYLINE
  5
42D
  8
0
 62
     4
 66
     1
 10
0.0
 20
0.0
 30
0.0
 70
     1
  0
VERTEX
  5
449
  8
0
 62
     4
 10
489.67535969721757
 20
133.1012937016628
 30
0.0
  0
VERTEX
  5
44A
  8
0
 62
     4
 10
635.79916677362269
 20
133.1012937016628
 30
0.0
  0
VERTEX
  5
44B
  8
0
 62
     4
 10
635.79916677362269
 20
2.3099575678166948
 30
0.0
  0
VERTEX
  5
44C
  8
0
 62
     4
 10
489.67535969721757
 20
2.3099575678166948
 30
0.0
  0
SEQEND
  5
44D
  8
0
 62
     4
  0
LINE
  5
42F
  8
CENTER
  6
CENTER
 10
557.10722589306556
 20
44.579270867332227
 30
0.0
 11
570.22860095392912
 21
44.579270867332212
 31
0.0
1001
ACAD
1000
ASC_BOUNDS
1002
{
1070
    19
1002
}
  0
ENDSEC
  0
EOF
