  0
SECTION
  2
HEADER
  9
$ACADVER
  1
AC1018
  9
$ACADMAINTVER
 70
    39
  9
$DWGCODEPAGE
  3
ANSI_950
  9
$CUSTOMPROPERTYTAG
  1
AmdtFileType
  9
$CUSTOMPROPERTY
  1
84
  9
$INSBASE
 10
0.0
 20
0.0
 30
0.0
  9
$EXTMIN
 10
1590.897267673892
 20
160.5755524938245
 30
0.0
  9
$EXTMAX
 10
2190.505350345765
 20
614.1755524938242
 30
297.238922023793
  9
$LIMMIN
 10
0.0
 20
0.0
  9
$LIMMAX
 10
420.0
 20
297.0
  9
$ORTHOMODE
 70
     0
  9
$REGENMODE
 70
     1
  9
$FILLMODE
 70
     1
  9
$QTEXTMODE
 70
     0
  9
$MIRRTEXT
 70
     1
  9
$LTSCALE
 40
1.0
  9
$ATTMODE
 70
     1
  9
$TEXTSIZE
 40
3.0
  9
$TRACEWID
 40
1.0
  9
$TEXTSTYLE
  7
STANDARD
  9
$CLAYER
  8
AM_5
  9
$CELTYPE
  6
ByLayer
  9
$CECOLOR
 62
   256
  9
$CELTSCALE
 40
1.0
  9
$DISPSILH
 70
     0
  9
$DIMSCALE
 40
1.0
  9
$DIMASZ
 40
3.5
  9
$DIMEXO
 40
1.5
  9
$DIMDLI
 40
8.0
  9
$DIMRND
 40
0.0
  9
$DIMDLE
 40
0.0
  9
$DIMEXE
 40
1.5
  9
$DIMTP
 40
0.1
  9
$DIMTM
 40
0.1
  9
$DIMTXT
 40
3.5
  9
$DIMCEN
 40
0.0
  9
$DIMTSZ
 40
0.0
  9
$DIMTOL
 70
     0
  9
$DIMLIM
 70
     0
  9
$DIMTIH
 70
     0
  9
$DIMTOH
 70
     0
  9
$DIMSE1
 70
     0
  9
$DIMSE2
 70
     0
  9
$DIMTAD
 70
     1
  9
$DIMZIN
 70
     8
  9
$DIMBLK
  1

  9
$DIMASO
 70
     1
  9
$DIMSHO
 70
     1
  9
$DIMPOST
  1

  9
$DIMAPOST
  1
"
  9
$DIMALT
 70
     0
  9
$DIMALTD
 70
     2
  9
$DIMALTF
 40
0.0393701
  9
$DIMLFAC
 40
1.0
  9
$DIMTOFL
 70
     1
  9
$DIMTVP
 40
0.0
  9
$DIMTIX
 70
     0
  9
$DIMSOXD
 70
     0
  9
$DIMSAH
 70
     0
  9
$DIMBLK1
  1

  9
$DIMBLK2
  1

  9
$DIMSTYLE
  2
AM_ISO
  9
$DIMCLRD
 70
   256
  9
$DIMCLRE
 70
   256
  9
$DIMCLRT
 70
   256
  9
$DIMTFAC
 40
0.71
  9
$DIMGAP
 40
1.0
  9
$DIMJUST
 70
     0
  9
$DIMSD1
 70
     0
  9
$DIMSD2
 70
     0
  9
$DIMTOLJ
 70
     0
  9
$DIMTZIN
 70
     8
  9
$DIMALTZ
 70
     0
  9
$DIMALTTZ
 70
     0
  9
$DIMUPT
 70
     0
  9
$DIMDEC
 70
     2
  9
$DIMTDEC
 70
     8
  9
$DIMALTU
 70
     2
  9
$DIMALTTD
 70
     2
  9
$DIMTXSTY
  7
STANDARD
  9
$DIMAUNIT
 70
     0
  9
$DIMADEC
 70
     0
  9
$DIMALTRND
 40
0.0
  9
$DIMAZIN
 70
     2
  9
$DIMDSEP
 70
    46
  9
$DIMATFIT
 70
     3
  9
$DIMFRAC
 70
     0
  9
$DIMLDRBLK
  1

  9
$DIMLUNIT
 70
     2
  9
$DIMLWD
 70
    -1
  9
$DIMLWE
 70
    -1
  9
$DIMTMOVE
 70
     0
  9
$LUNITS
 70
     2
  9
$LUPREC
 70
     2
  9
$SKETCHINC
 40
1.0
  9
$FILLETRAD
 40
0.5
  9
$AUNITS
 70
     0
  9
$AUPREC
 70
     0
  9
$MENU
  1
.
  9
$ELEVATION
 40
0.0
  9
$PELEVATION
 40
0.0
  9
$THICKNESS
 40
0.0
  9
$LIMCHECK
 70
     0
  9
$CHAMFERA
 40
2.5
  9
$CHAMFERB
 40
2.5
  9
$CHAMFERC
 40
20.0
  9
$CHAMFERD
 40
0.0
  9
$SKPOLY
 70
     0
  9
$TDCREATE
 40
2453229.426093924
  9
$TDUCREATE
 40
2453229.092760591
  9
$TDUPDATE
 40
2456318.364612986
  9
$TDUUPDATE
 40
2456318.031279653
  9
$TDINDWG
 40
0.4585861690
  9
$TDUSRTIMER
 40
0.4585861690
  9
$USRTIMER
 70
     1
  9
$ANGBASE
 50
0.0
  9
$ANGDIR
 70
     0
  9
$PDMODE
 70
     0
  9
$PDSIZE
 40
0.0
  9
$PLINEWID
 40
0.0
  9
$SPLFRAME
 70
     0
  9
$SPLINETYPE
 70
     6
  9
$SPLINESEGS
 70
     8
  9
$HANDSEED
  5
80A7
  9
$SURFTAB1
 70
     6
  9
$SURFTAB2
 70
     6
  9
$SURFTYPE
 70
     6
  9
$SURFU
 70
     6
  9
$SURFV
 70
     6
  9
$UCSBASE
  2

  9
$UCSNAME
  2

  9
$UCSORG
 10
0.0
 20
0.0
 30
0.0
  9
$UCSXDIR
 10
1.0
 20
0.0
 30
0.0
  9
$UCSYDIR
 10
0.0
 20
1.0
 30
0.0
  9
$UCSORTHOREF
  2

  9
$UCSORTHOVIEW
 70
     0
  9
$UCSORGTOP
 10
0.0
 20
0.0
 30
0.0
  9
$UCSORGBOTTOM
 10
0.0
 20
0.0
 30
0.0
  9
$UCSORGLEFT
 10
0.0
 20
0.0
 30
0.0
  9
$UCSORGRIGHT
 10
0.0
 20
0.0
 30
0.0
  9
$UCSORGFRONT
 10
0.0
 20
0.0
 30
0.0
  9
$UCSORGBACK
 10
0.0
 20
0.0
 30
0.0
  9
$PUCSBASE
  2

  9
$PUCSNAME
  2

  9
$PUCSORG
 10
0.0
 20
0.0
 30
0.0
  9
$PUCSXDIR
 10
1.0
 20
0.0
 30
0.0
  9
$PUCSYDIR
 10
0.0
 20
1.0
 30
0.0
  9
$PUCSORTHOREF
  2

  9
$PUCSORTHOVIEW
 70
     0
  9
$PUCSORGTOP
 10
0.0
 20
0.0
 30
0.0
  9
$PUCSORGBOTTOM
 10
0.0
 20
0.0
 30
0.0
  9
$PUCSORGLEFT
 10
0.0
 20
0.0
 30
0.0
  9
$PUCSORGRIGHT
 10
0.0
 20
0.0
 30
0.0
  9
$PUCSORGFRONT
 10
0.0
 20
0.0
 30
0.0
  9
$PUCSORGBACK
 10
0.0
 20
0.0
 30
0.0
  9
$USERI1
 70
     0
  9
$USERI2
 70
     0
  9
$USERI3
 70
     0
  9
$USERI4
 70
     0
  9
$USERI5
 70
     0
  9
$USERR1
 40
0.0
  9
$USERR2
 40
0.0
  9
$USERR3
 40
0.0
  9
$USERR4
 40
0.0
  9
$USERR5
 40
0.0
  9
$WORLDVIEW
 70
     1
  9
$SHADEDGE
 70
     3
  9
$SHADEDIF
 70
    70
  9
$TILEMODE
 70
     1
  9
$MAXACTVP
 70
    48
  9
$PINSBASE
 10
0.0
 20
0.0
 30
0.0
  9
$PLIMCHECK
 70
     0
  9
$PEXTMIN
 10
1.000000000000000E+20
 20
1.000000000000000E+20
 30
1.000000000000000E+20
  9
$PEXTMAX
 10
-1.000000000000000E+20
 20
-1.000000000000000E+20
 30
-1.000000000000000E+20
  9
$PLIMMIN
 10
0.0
 20
0.0
  9
$PLIMMAX
 10
420.0
 20
297.0
  9
$UNITMODE
 70
     0
  9
$VISRETAIN
 70
     1
  9
$PLINEGEN
 70
     0
  9
$PSLTSCALE
 70
     1
  9
$TREEDEPTH
 70
  3020
  9
$CMLSTYLE
  2
Standard
  9
$CMLJUST
 70
     0
  9
$CMLSCALE
 40
20.0
  9
$PROXYGRAPHICS
 70
     1
  9
$MEASUREMENT
 70
     1
  9
$CELWEIGHT
370
    -1
  9
$ENDCAPS
280
     0
  9
$JOINSTYLE
280
     0
  9
$LWDISPLAY
290
     0
  9
$INSUNITS
 70
     4
  9
$HYPERLINKBASE
  1

  9
$STYLESHEET
  1
彩色出圖.ctb
  9
$XEDIT
290
     1
  9
$CEPSNTYPE
380
     0
  9
$PSTYLEMODE
290
     1
  9
$FINGERPRINTGUID
  2
{83CC3F96-1E22-4B35-B707-B045C3365130}
  9
$VERSIONGUID
  2
{E76CEB28-0D0E-4BFB-A5D2-FF13D38B6BF9}
  9
$EXTNAMES
290
     1
  9
$PSVPSCALE
 40
0.0
  9
$OLESTARTUP
290
     0
  9
$SORTENTS
280
   127
  9
$INDEXCTL
280
     1
  9
$HIDETEXT
280
     1
  9
$XCLIPFRAME
290
     0
  9
$HALOGAP
280
     0
  9
$OBSCOLOR
 70
   257
  9
$OBSLTYPE
280
     0
  9
$INTERSECTIONDISPLAY
280
     0
  9
$INTERSECTIONCOLOR
 70
   257
  9
$DIMASSOC
280
     2
  9
$PROJECTNAME
  1

  0
ENDSEC
  0
SECTION
  2
CLASSES
  0
CLASS
  1
ACDBDICTIONARYWDFLT
  2
AcDbDictionaryWithDefault
  3
ObjectDBX Classes
 90
        0
 91
        1
280
     0
281
     0
  0
CLASS
  1
AMGSETTINGSOBJ
  2
AmgSettingsObj
  3
"AcadM|Product Description: AutoCAD Mechanical 2000|Company: Autodesk"
 90
        0
 91
        3
280
     0
281
     0
  0
CLASS
  1
ACME_DOCUMENT
  2
AcMeDbDoc
  3
AcMeServices
 90
        0
 91
        2
280
     0
281
     0
  0
CLASS
  1
ACMESCOPE
  2
AcMeScope
  3
AcMeServices
 90
        0
 91
        1
280
     0
281
     0
  0
CLASS
  1
ACMECOMMANDHISTORY
  2
AcMeCommandHistory
  3
AcMeServices
 90
        0
 91
        1
280
     0
281
     0
  0
CLASS
  1
ACIMSYSVARMAN
  2
AcImSysVarManager
  3
AcMeServices
 90
        0
 91
        6
280
     0
281
     0
  0
CLASS
  1
ACIMREALSYSVAR
  2
AcImRealSysVar
  3
AcMeServices
 90
        0
 91
       16
280
     0
281
     0
  0
CLASS
  1
ACIMINTSYSVAR
  2
AcImIntSysVar
  3
AcMeServices
 90
        0
 91
       45
280
     0
281
     0
  0
CLASS
  1
ACMEDRAWINGMAN
  2
AcMeDrawingMan
  3
AcMeServices
 90
        0
 91
        1
280
     0
281
     0
  0
CLASS
  1
ACMEVIEW
  2
AcMeView
  3
AcMeServices
 90
        0
 91
        1
280
     0
281
     0
  0
CLASS
  1
ACDBENTITYCACHE
  2
AcMeEntityCache
  3
AcMeServices
 90
        0
 91
        1
280
     0
281
     0
  0
CLASS
  1
GSMANAGER
  2
AcMeGSManager
  3
AcMeServices
 90
        0
 91
        1
280
     0
281
     0
  0
CLASS
  1
AMDTINTERNALREACTOR
  2
AmdtInternalReactor
  3
AcMeServices
 90
        0
 91
        2
280
     0
281
     0
  0
CLASS
  1
ACMESTATEMGR
  2
AcMeStateMgr
  3
AcMeServices
 90
        0
 91
        1
280
     0
281
     0
  0
CLASS
  1
ACGREFMASTER
  2
AcGrefMaster
  3
AcAttribServices
 90
        0
 91
        1
280
     0
281
     0
  0
CLASS
  1
ACME_DATABASE
  2
AcMeDbDatabase
  3
AcMeServices
 90
        0
 91
        1
280
     0
281
     0
  0
CLASS
  1
ACRFINSADJUSTERMGR
  2
AcRfInsAdjusterMgr
  3
AcMeServices
 90
        0
 91
        1
280
     0
281
     0
  0
CLASS
  1
ACGREFACADMASTER
  2
AcGrefacadMaster
  3
AcGrefServices
 90
        0
 91
        1
280
     0
281
     0
  0
CLASS
  1
AMIMASTER
  2
AmiMaster
  3
AmiServices
 90
        0
 91
        1
280
     0
281
     0
  0
CLASS
  1
ACMDATADICTIONARY
  2
AcmDataDictionary
  3
"AcmSymBB|Product Description: AutoCAD Mechanical 2004 DX|Company: Autodesk"
 90
        0
 91
        1
280
     0
281
     0
  0
CLASS
  1
ACMDATAENTRYBLOCK
  2
AcmDataEntryBlock
  3
"AcmSymBB|Product Description: AutoCAD Mechanical 2004 DX|Company: Autodesk"
 90
        0
 91
        1
280
     0
281
     0
  0
CLASS
  1
ACIMSTRSYSVAR
  2
AcImStrSysVar
  3
AcMeServices
 90
        0
 91
       11
280
     0
281
     0
  0
CLASS
  1
ACMSTANDARDISO
  2
AcmStandardISO
  3
"Amdt_StdImp|Product Description: AutoCAD Mechanical 2004 DX|Company: Autodesk"
 90
        0
 91
        1
280
     0
281
     0
  0
CLASS
  1
AMGOBJPROPCFG
  2
AmgObjPropCfg
  3
"AmgLay|Product Description: AutoCAD Mechanical 2000|Company: Autodesk"
 90
        1
 91
        1
280
     0
281
     0
  0
CLASS
  1
AMDTEDGESTANDARDISO
  2
AmdtEdgeStdISO
  3
"Amdt_StdImp|Product Description: AutoCAD Mechanical 2004 DX|Company: Autodesk"
 90
        0
 91
        0
280
     0
281
     0
  0
CLASS
  1
ACMSURFSTANDARDISO
  2
AcmSurfTextStdISO
  3
"Amdt_StdImp|Product Description: AutoCAD Mechanical 2004 DX|Company: Autodesk"
 90
        0
 91
        1
280
     0
281
     0
  0
CLASS
  1
ACMFCFSTANDARDISO
  2
AcmFCFStdISO
  3
"Amdt_StdImp|Product Description: AutoCAD Mechanical 2004 DX|Company: Autodesk"
 90
        0
 91
        1
280
     0
281
     0
  0
CLASS
  1
ACMWELDSTANDARDISO
  2
AcmWeldingStdISO
  3
"Amdt_StdImp|Product Description: AutoCAD Mechanical 2004 DX|Company: Autodesk"
 90
        0
 91
        1
280
     0
281
     0
  0
CLASS
  1
ACMIDSTANDARDISO
  2
AcmIdStdISO
  3
"Amdt_StdImp|Product Description: AutoCAD Mechanical 2004 DX|Company: Autodesk"
 90
        0
 91
        1
280
     0
281
     0
  0
CLASS
  1
ACMDATUMSTANDARDISO
  2
AcmDatumStdISO
  3
"Amdt_StdImp|Product Description: AutoCAD Mechanical 2004 DX|Company: Autodesk"
 90
        0
 91
        1
280
     0
281
     0
  0
CLASS
  1
ACMBOMSTANDARDISO
  2
AcmBOMStdISO
  3
"Amdt_StdImp|Product Description: AutoCAD Mechanical 2004 DX|Company: Autodesk"
 90
        0
 91
        1
280
     0
281
     0
  0
CLASS
  1
ACMDETAILSTANDARDISO
  2
AmdtDetailSymStdISO
  3
"Amdt_StdImp|Product Description: AutoCAD Mechanical 2004 DX|Company: Autodesk"
 90
        0
 91
        1
280
     0
281
     0
  0
CLASS
  1
ACMSECTIONSTANDARDISO
  2
AmdtSectionSymStdISO
  3
"Amdt_StdImp|Product Description: AutoCAD Mechanical 2004 DX|Company: Autodesk"
 90
        0
 91
        1
280
     0
281
     0
  0
CLASS
  1
ACMCENTERLINESTANDARDISO
  2
AmdtCenterLineStdISO
  3
"Amdt_StdImp|Product Description: AutoCAD Mechanical 2004 DX|Company: Autodesk"
 90
        0
 91
        1
280
     0
281
     0
  0
CLASS
  1
ACMNOTESTANDARDISO
  2
AmdtNoteStdISO
  3
"Amdt_StdImp|Product Description: AutoCAD Mechanical 2004 DX|Company: Autodesk"
 90
        0
 91
        1
280
     0
281
     0
  0
CLASS
  1
ACAMGLAYSTD
  2
AcAmgLayStd
  3
"AcAmgLayStd|Product Description: AutoCAD Mechanical 2000|Company: Autodesk"
 90
        0
 91
        1
280
     0
281
     0
  0
CLASS
  1
ACAMGDIMSTD
  2
AcAmgDimStd
  3
"AcAmgDimStd|Product Description: AutoCAD Mechanical 2000|Company: Autodesk"
 90
        0
 91
        1
280
     0
281
     0
  0
CLASS
  1
ACAMGHOLECHARTSTDISO
  2
AcAmgHoleChartStdISO
  3
ACMSYMBB_MODULE_NAME
 90
        0
 91
        1
280
     0
281
     0
  0
CLASS
  1
ACAMGTITLESTD
  2
AcAmgTitleStd
  3
"TITLEAPP"
 90
        0
 91
        1
280
     0
281
     0
  0
CLASS
  1
ACAMGFILTERDAT
  2
AcAmgFilterDat
  3
"AcadM|Product Description: AutoCAD Mechanical 2000|Company: Autodesk"
 90
        0
 91
        0
280
     0
281
     0
  0
CLASS
  1
DIMASSOC
  2
AcDbDimAssoc
  3
"AcDbDimAssoc|Product Desc:     AcDim ARX App For Dimension|Company:          Autodesk, Inc.|WEB Address:      www.autodesk.com"
 90
        0
 91
        1
280
     0
281
     0
  0
CLASS
  1
LAYER_INDEX
  2
AcDbLayerIndex
  3
ObjectDBX Classes
 90
        0
 91
        1
280
     0
281
     0
  0
CLASS
  1
IDBUFFER
  2
AcDbIdBuffer
  3
ObjectDBX Classes
 90
        0
 91
       10
280
     0
281
     0
  0
CLASS
  1
DICTIONARYVAR
  2
AcDbDictionaryVar
  3
ObjectDBX Classes
 90
        0
 91
        5
280
     0
281
     0
  0
CLASS
  1
AMDTFORMULAUPDATEDISPATCHER
  2
AmdtFormulaUpdateDispatcher
  3
AcMeServices
 90
        0
 91
        0
280
     0
281
     0
  0
CLASS
  1
AMDTNOTE
  2
AmdtNote
  3
"AcmSymBB|Product Description: AutoCAD Mechanical 2004 DX|Company: Autodesk"
 90
     1023
 91
        0
280
     0
281
     1
  0
CLASS
  1
TABLESTYLE
  2
AcDbTableStyle
  3
ObjectDBX Classes
 90
     2047
 91
        1
280
     0
281
     0
  0
CLASS
  1
AM_DRAWING_MGR
  2
AcDmDwgMgr
  3
AcMechDwgViewMgmt
 90
        0
 91
        1
280
     0
281
     0
  0
CLASS
  1
AM_DWG_DOCUMENT
  2
AcDmDwgDocument
  3
AcMechDwgViewMgmt
 90
        0
 91
        1
280
     0
281
     0
  0
CLASS
  1
AM_DWG_SHEET
  2
AcDmSheet
  3
AcMechDwgViewMgmt
 90
        0
 91
        2
280
     0
281
     0
  0
CLASS
  1
AM_VIEWDIMPARMAP
  2
AcDmViewDimParMap
  3
AcMechDwgViewMgmt
 90
        0
 91
        2
280
     0
281
     0
  0
CLASS
  1
AM_DWGMGR_NAME
  2
AcDmDwgMgrName
  3
AcMechDwgViewMgmt
 90
        0
 91
        1
280
     0
281
     0
  0
CLASS
  1
AMDTMENUSTATEMGR
  2
AmdtMenuStateMgr
  3
McadcomServices
 90
        0
 91
        1
280
     0
281
     0
  0
CLASS
  1
AMDTMCOMMENUSTATE
  2
AmdtMcomMenuState
  3
McadcomServices
 90
        0
 91
        1
280
     0
281
     0
  0
CLASS
  1
MAPIAMMOUDLE
  2
MApiAmModule
  3
MApiAmServices
 90
        0
 91
        1
280
     0
281
     0
  0
CLASS
  1
AMDTADMENUSTATE
  2
AmdtAdMenuState
  3
DesignerServices
 90
        0
 91
        1
280
     0
281
     0
  0
CLASS
  1
ADAPPL
  2
AcAdAppl
  3
DesignerServices
 90
        0
 91
        1
280
     0
281
     0
  0
CLASS
  1
DEPMGR
  2
AcAdDepMgr
  3
DesignerServices
 90
        0
 91
        1
280
     0
281
     0
  0
CLASS
  1
PARAMMGR
  2
AcAdParamMgr
  3
DesignerServices
 90
        0
 91
        1
280
     0
281
     0
  0
CLASS
  1
PARAMSCOPE
  2
AcAdParamScope
  3
DesignerServices
 90
        0
 91
        1
280
     0
281
     0
  0
CLASS
  1
NAMEDAPPL
  2
AcAdNamedAppl
  3
DesignerServices
 90
        0
 91
        1
280
     0
281
     0
  0
CLASS
  1
AMDTDMMENUSTATE
  2
AmdtDmMenuState
  3
AcMechDwgViewMgmt
 90
        0
 91
        1
280
     0
281
     0
  0
CLASS
  1
AMDTAMMENUSTATE
  2
AmdtAmMenuState
  3
DesignerAssemblies
 90
        0
 91
        1
280
     0
281
     0
  0
CLASS
  1
ACAMPROJECT
  2
AcAmProject
  3
DesignerAssemblies
 90
        0
 91
        1
280
     0
281
     0
  0
CLASS
  1
ACAMGRCOMPDEF
  2
AcAmGrCompDef
  3
DesignerAssemblies
 90
        0
 91
        1
280
     0
281
     0
  0
CLASS
  1
ACCMCONTEXT
  2
AcCmContext
  3
DesignerAssemblies
 90
        0
 91
        1
280
     0
281
     0
  0
CLASS
  1
ACAMCOMPDEF
  2
AcAmCompDef
  3
DesignerAssemblies
 90
        0
 91
        1
280
     0
281
     0
  0
CLASS
  1
ACAMCOMPDEFMGR
  2
AcAmCompDefMgr
  3
DesignerAssemblies
 90
        0
 91
        1
280
     0
281
     0
  0
CLASS
  1
AMCONTEXTMGR
  2
AcAmContextMgr
  3
DesignerAssemblies
 90
        0
 91
        1
280
     0
281
     0
  0
CLASS
  1
ACAMCONTEXTMODELER
  2
AcAmContextModeler
  3
DesignerAssemblies
 90
        0
 91
        1
280
     0
281
     0
  0
CLASS
  1
CATALOGSTATE
  2
AcAmCatalogState
  3
DesignerAssemblies
 90
        0
 91
        1
280
     0
281
     0
  0
CLASS
  1
ACAMGRCOMPDEFSET
  2
AcAmGrCompDefSet
  3
DesignerAssemblies
 90
        0
 91
        1
280
     0
281
     0
  0
CLASS
  1
AMDTBROWSERDBTAB
  2
AmdtBrowserDbTab
  3
McadcomServices
 90
        0
 91
        1
280
     0
281
     0
  0
CLASS
  1
CBROWSERAPPOBJECT
  2
CBrowserAppObject
  3
McadcomServices
 90
        0
 91
        3
280
     0
281
     0
  0
CLASS
  1
DM_PLACEHOLDER
  2
AcDmSelsetPlaceholder
  3
AcMechDwgViewMgmt
 90
        0
 91
        1
280
     0
281
     0
  0
CLASS
  1
AMDTEDGESTANDARDISO13715
  2
AmdtEdgeStdISO13715
  3
"Amdt_StdImp|Product Description: AutoCAD Mechanical 2004 DX|Company: Autodesk"
 90
        0
 91
        1
280
     0
281
     0
  0
CLASS
  1
ACMTHREADLINESTANDARDISO
  2
AmdtThreadLineStdISO
  3
"Amdt_StdImp|Product Description: AutoCAD Mechanical 2004 DX|Company: Autodesk"
 90
        0
 91
        1
280
     0
281
     0
  0
CLASS
  1
AMDTNOTETEMPLATEDB
  2
AmdtNoteTemplateDB
  3
AMDT_STDIMP_MODULE_NAME
 90
        0
 91
        5
280
     0
281
     0
  0
CLASS
  1
ACRFATTGENMGR
  2
AcRfAttGeneralMgr
  3
AcAttribServices
 90
        0
 91
        0
280
     0
281
     0
  0
CLASS
  1
ASAPP
  2
AcAsAppObject
  3
AutoSurfServices
 90
        0
 91
        1
280
     0
281
     0
  0
CLASS
  1
IM_STATIC_MAN
  2
AcImStaticVarManager
  3
AcMeServices
 90
        0
 91
        1
280
     0
281
     0
  0
CLASS
  1
ACIMDBLSTATICVAR
  2
AcImDblStaticVar
  3
AcMeServices
 90
        0
 91
       20
280
     0
281
     0
  0
CLASS
  1
ACIMSTRSTATICVAR
  2
AcImStrStaticVar
  3
AcMeServices
 90
        0
 91
       12
280
     0
281
     0
  0
CLASS
  1
ACIMINTSTATICVAR
  2
AcImIntStaticVar
  3
AcMeServices
 90
        0
 91
       17
280
     0
281
     0
  0
CLASS
  1
ACASGREFMASTER
  2
AcAsGrefMaster
  3
AutoSurfResolverServices
 90
        0
 91
        1
280
     0
281
     0
  0
CLASS
  1
ACADGREFMODULE
  2
AcAdGrefModule
  3
AdGrefServices
 90
        0
 91
        1
280
     0
281
     0
  0
CLASS
  1
AMDTMAPISURFMOUDULE
  2
AmdtMApiSurfModule
  3
MApiSurfServices
 90
        0
 91
        1
280
     0
281
     0
  0
CLASS
  1
MAPIADMODULE
  2
MApiAdModule
  3
MApiAdServices
 90
        0
 91
        1
280
     0
281
     0
  0
CLASS
  1
SORTENTSTABLE
  2
AcDbSortentsTable
  3
ObjectDBX Classes
 90
        0
 91
        1
280
     0
281
     0
  0
CLASS
  1
ADPART
  2
AcAdPart
  3
DesignerServices
 90
        0
 91
        0
280
     0
281
     1
  0
CLASS
  1
ADBASE
  2
AcAdBase
  3
DesignerServices
 90
        0
 91
        0
280
     0
281
     0
  0
CLASS
  1
BODYID
  2
AcAdBodyId
  3
DesignerServices
 90
        0
 91
        0
280
     0
281
     0
  0
CLASS
  1
WORKPLANEDISPLAYMGR
  2
AcAdDisplayMgr
  3
DesignerServices
 90
        0
 91
        0
280
     0
281
     0
  0
CLASS
  1
ACCMBODY
  2
AcCmBody
  3
DesignerAssemblies
 90
        0
 91
        0
280
     0
281
     0
  0
CLASS
  1
ACAMCOMPENT
  2
AcAmCompEnt
  3
DesignerAssemblies
 90
        0
 91
        0
280
     0
281
     1
  0
CLASS
  1
ACAMCOMPFEEDBACK
  2
AcAmCompFeedback
  3
DesignerAssemblies
 90
        0
 91
        0
280
     0
281
     0
  0
CLASS
  1
ACAMCOMP
  2
AcAmComp
  3
DesignerAssemblies
 90
        0
 91
        0
280
     0
281
     0
  0
CLASS
  1
ACAMCOMPENTCLONE
  2
AcAmCompEntClone
  3
DesignerAssemblies
 90
        0
 91
        0
280
     0
281
     1
  0
CLASS
  1
ACAMCLONEREACTOR
  2
AcAmGrCompCloneReactor
  3
DesignerAssemblies
 90
        0
 91
        0
280
     0
281
     0
  0
CLASS
  1
ADDATUMPLANEABS
  2
AcAdDatumPlaneAbs
  3
DesignerServices
 90
        0
 91
        0
280
     0
281
     0
  0
CLASS
  1
ADDATUMAXISABS
  2
AcAdDatumAxisAbs
  3
DesignerServices
 90
        0
 91
        0
280
     0
281
     0
  0
CLASS
  1
ADDATUMORIENTEDPLANE
  2
AcAdDatumOrientedPlane
  3
DesignerServices
 90
        0
 91
        0
280
     0
281
     0
  0
CLASS
  1
ACAD_LINE
  2
AcAdLine
  3
DesignerServices
 90
        0
 91
        0
280
     0
281
     1
  0
CLASS
  1
ACADLINEACAD
  2
AcAdVirtualBoundedLineAcad
  3
DesignerServices
 90
        0
 91
        0
280
     0
281
     0
  0
CLASS
  1
ACADREFLINEACAD
  2
AcAdVirtualReferenceLine
  3
DesignerServices
 90
        0
 91
        0
280
     0
281
     0
  0
CLASS
  1
ACADCONSLINE
  2
AcAdConstrainedLine
  3
DesignerServices
 90
        0
 91
        0
280
     0
281
     0
  0
CLASS
  1
ACADCONSGROUP
  2
AcAdConstraintGroup
  3
DesignerServices
 90
        0
 91
        0
280
     0
281
     0
  0
CLASS
  1
ACADIMPPTACAD
  2
AcAdVirtualImplicitPoint
  3
DesignerServices
 90
        0
 91
        0
280
     0
281
     0
  0
CLASS
  1
ACADCONSPOINT
  2
AcAdConstrainedPoint
  3
DesignerServices
 90
        0
 91
        0
280
     0
281
     0
  0
CLASS
  1
ADPCURCNS
  2
AcAdPointCurveConstr
  3
DesignerServices
 90
        0
 91
        0
280
     0
281
     0
  0
CLASS
  1
ADPROJCNS
  2
AcAdProjectionConstr
  3
DesignerServices
 90
        0
 91
        0
280
     0
281
     0
  0
CLASS
  1
ADVERCNS
  2
AcAdVerticalConstr
  3
DesignerServices
 90
        0
 91
        0
280
     0
281
     0
  0
CLASS
  1
ADHORCNS
  2
AcAdHorizontalConstr
  3
DesignerServices
 90
        0
 91
        0
280
     0
281
     0
  0
CLASS
  1
ADCOLNCNS
  2
AcAdColinearConstr
  3
DesignerServices
 90
        0
 91
        0
280
     0
281
     0
  0
CLASS
  1
ADPARCNS
  2
AcAdParallelConstr
  3
DesignerServices
 90
        0
 91
        0
280
     0
281
     0
  0
ENDSEC
  0
SECTION
  2
TABLES
  0
TABLE
  2
VPORT
  5
8
330
0
100
AcDbSymbolTable
 70
    33
  0
VPORT
  5
80A6
330
8
100
AcDbSymbolTableRecord
100
AcDbViewportTableRecord
  2
*Active
 70
     0
 10
0.0
 20
0.0
 11
1.0
 21
1.0
 12
659.2422358689815
 22
-99.8413981783549
 13
0.0
 23
0.0
 14
2.5
 24
2.5
 15
10.0
 25
10.0
 16
0.0
 26
0.0
 36
1.0
 17
1248.473340879117
 27
495.068632219338
 37
0.0
 40
561.6778311311854
 41
1.263157894736842
 42
50.0
 43
0.0
 44
0.0
 50
0.0
 51
0.0
 71
     0
 72
  2000
 73
     1
 74
     3
 75
     0
 76
     0
 77
     0
 78
     0
281
     0
 65
     0
110
0.0
120
0.0
130
0.0
111
1.0
121
0.0
131
0.0
112
0.0
122
1.0
132
0.0
 79
     0
146
0.0
  0
ENDTAB
  0
TABLE
  2
LTYPE
  5
5
330
0
100
AcDbSymbolTable
 70
    17
  0
LTYPE
  5
14
330
5
100
AcDbSymbolTableRecord
100
AcDbLinetypeTableRecord
  2
ByBlock
 70
     0
  3

 72
    65
 73
     0
 40
0.0
  0
LTYPE
  5
15
330
5
100
AcDbSymbolTableRecord
100
AcDbLinetypeTableRecord
  2
ByLayer
 70
     0
  3

 72
    65
 73
     0
 40
0.0
  0
LTYPE
  5
16
330
5
100
AcDbSymbolTableRecord
100
AcDbLinetypeTableRecord
  2
Continuous
 70
     0
  3
Solid line
 72
    65
 73
     0
 40
0.0
  0
LTYPE
  5
4D
330
5
100
AcDbSymbolTableRecord
100
AcDbLinetypeTableRecord
  2
AM_ISO02W050
 70
     0
  3
__ __ __ __ __ __ __ __ __ __ __ __ __ __ __
 72
    65
 73
     2
 40
7.5
 49
6.0
 74
     0
 49
-1.5
 74
     0
  0
LTYPE
  5
4E
330
5
100
AcDbSymbolTableRecord
100
AcDbLinetypeTableRecord
  2
AM_ISO08W050
 70
     0
  3
____ . ____ . ____ . ____ . ____ . ____ . ____
 72
    65
 73
     4
 40
18.0
 49
12.0
 74
     0
 49
-1.5
 74
     0
 49
3.0
 74
     0
 49
-1.5
 74
     0
  0
LTYPE
  5
4F
330
5
100
AcDbSymbolTableRecord
100
AcDbLinetypeTableRecord
  2
AM_ISO09W050
 70
     0
  3
_____ . . _____ . . _____ . . ____ .. ____
 72
    65
 73
     6
 40
22.5
 49
12.0
 74
     0
 49
-1.5
 74
     0
 49
3.0
 74
     0
 49
-1.5
 74
     0
 49
3.0
 74
     0
 49
-1.5
 74
     0
  0
LTYPE
  5
50
330
5
100
AcDbSymbolTableRecord
100
AcDbLinetypeTableRecord
  2
Amconstr
 70
     0
  3
_______________________
 72
    65
 73
     2
 40
9999.0
 49
9999.0
 74
     0
 49
0.0
 74
     0
  0
LTYPE
  5
51
330
5
100
AcDbSymbolTableRecord
100
AcDbLinetypeTableRecord
  2
AM_ISO08W050x2
 70
     0
  3
__ . __ . __ . __ . __ . __
 72
    65
 73
     4
 40
9.0
 49
6.0
 74
     0
 49
-0.75
 74
     0
 49
1.5
 74
     0
 49
-0.75
 74
     0
  0
LTYPE
  5
52
330
5
100
AcDbSymbolTableRecord
100
AcDbLinetypeTableRecord
  2
AM_ISO02W050x2
 70
     0
  3
 _ _ _ _ _ _ _ _ _ _ _ _
 72
    65
 73
     2
 40
3.75
 49
3.0
 74
     0
 49
-0.75
 74
     0
  0
LTYPE
  5
55
330
5
100
AcDbSymbolTableRecord
100
AcDbLinetypeTableRecord
  2
Amzigzag
 70
     0
  3
/\/-/\/-/\/-/\/-/\/-/\/
 72
    65
 73
     2
 40
11.0001
 49
0.0001
 74
     4
 75
   135
340
54
 46
0.04
 50
0.0
 44
0.0
 45
0.0
 49
-11.0
 74
     0
  0
LTYPE
  5
63
330
5
100
AcDbSymbolTableRecord
100
AcDbLinetypeTableRecord
  2
ACISOWELD
 70
     0
  3
_ _ _ _ _
 72
    65
 73
     2
 40
2.0
 49
2.0
 74
     0
 49
-1.0
 74
     0
  0
LTYPE
  5
64
330
5
100
AcDbSymbolTableRecord
100
AcDbLinetypeTableRecord
  2
ACISOTGB
 70
     0
  3
__ . . __ . .
 72
    65
 73
     6
 40
9.0
 49
4.0
 74
     0
 49
-1.0
 74
     0
 49
1.0
 74
     0
 49
-1.0
 74
     0
 49
1.0
 74
     0
 49
-1.0
 74
     0
  0
LTYPE
  5
65
330
5
100
AcDbSymbolTableRecord
100
AcDbLinetypeTableRecord
  2
ACISOTGL
 70
     0
  3
_ _ _ _ _
 72
    65
 73
     2
 40
3.0
 49
2.0
 74
     0
 49
-1.0
 74
     0
  0
LTYPE
  5
68
330
5
100
AcDbSymbolTableRecord
100
AcDbLinetypeTableRecord
  2
CENTER
 70
     0
  3
__ . __
 72
    65
 73
     4
 40
7.0
 49
4.0
 74
     0
 49
-1.0
 74
     0
 49
1.0
 74
     0
 49
-1.0
 74
     0
  0
LTYPE
  5
D47
330
5
100
AcDbSymbolTableRecord
100
AcDbLinetypeTableRecord
  2
HIDDEN2
 70
     0
  3
Hidden (.5x) _ _ _ _ _ _ _ _ _ _ _ _ _ _ _ _ _
 72
    65
 73
     2
 40
0.1875
 49
0.125
 74
     0
 49
-0.0625
 74
     0
  0
LTYPE
  5
2B41
330
5
100
AcDbSymbolTableRecord
100
AcDbLinetypeTableRecord
  2
HIDDEN
 70
     0
  3
Hidden __ __ __ __ __ __ __ __ __ __ __ __ __ _
 72
    65
 73
     2
 40
0.375
 49
0.25
 74
     0
 49
-0.125
 74
     0
  0
LTYPE
  5
2D83
330
5
100
AcDbSymbolTableRecord
100
AcDbLinetypeTableRecord
  2
PHANTOM2
 70
     0
  3
Phantom (.5x) ___ _ _ ___ _ _ ___ _ _ ___ _ _
 72
    65
 73
     6
 40
31.75
 49
15.875
 74
     0
 49
-3.174999999999999
 74
     0
 49
3.174999999999999
 74
     0
 49
-3.174999999999999
 74
     0
 49
3.174999999999999
 74
     0
 49
-3.174999999999999
 74
     0
  0
LTYPE
  5
8044
330
5
100
AcDbSymbolTableRecord
100
AcDbLinetypeTableRecord
  2
ASULTYPE
 70
     0
  3
實線
 72
    65
 73
     2
 40
3.0
 49
2.5
 74
     0
 49
0.5
 74
     0
  0
LTYPE
  5
8045
330
5
100
AcDbSymbolTableRecord
100
AcDbLinetypeTableRecord
  2
ASVLTYPE
 70
     0
  3
__ __ __ __ __ __ __ __ __ __ __ __ __ __ __ __ __ __ __ __ __
 72
    65
 73
     2
 40
0.75
 49
0.5
 74
     0
 49
-0.25
 74
     0
  0
ENDTAB
  0
TABLE
  2
LAYER
  5
2
102
{ACAD_XDICTIONARY
360
2DFC
102
}
330
0
100
AcDbSymbolTable
 70
    10
  0
LAYER
  5
10
330
2
100
AcDbSymbolTableRecord
100
AcDbLayerTableRecord
  2
0
 70
     0
 62
     7
  6
Continuous
370
    -3
390
F
  0
LAYER
  5
87
330
2
100
AcDbSymbolTableRecord
100
AcDbLayerTableRecord
  2
AM_5
 70
     0
 62
     5
  6
Continuous
370
    25
390
F
  0
LAYER
  5
97
330
2
100
AcDbSymbolTableRecord
100
AcDbLayerTableRecord
  2
Defpoints
 70
     0
 62
     7
  6
Continuous
290
     0
370
    -3
390
F
  0
LAYER
  5
14A
330
2
100
AcDbSymbolTableRecord
100
AcDbLayerTableRecord
  2
AM_7
 70
     0
 62
     1
  6
AM_ISO08W050
370
    25
390
F
  0
LAYER
  5
494
330
2
100
AcDbSymbolTableRecord
100
AcDbLayerTableRecord
  2
AM_VIS
 70
     2
 62
     7
  6
Continuous
370
    50
390
F
  0
LAYER
  5
D48
330
2
100
AcDbSymbolTableRecord
100
AcDbLayerTableRecord
  2
AM_4
 70
     0
 62
     3
  6
Continuous
370
    25
390
F
  0
LAYER
  5
180F
330
2
100
AcDbSymbolTableRecord
100
AcDbLayerTableRecord
  2
LOGO
 70
     0
 62
     7
  6
Continuous
370
    -3
390
F
  0
LAYER
  5
7445
330
2
100
AcDbSymbolTableRecord
100
AcDbLayerTableRecord
  2
AM_REFDIM
 70
     0
 62
     4
  6
Continuous
370
    25
390
F
  0
LAYER
  5
7BCB
330
2
100
AcDbSymbolTableRecord
100
AcDbLayerTableRecord
  2
DIM
 70
     0
 62
     5
  6
Continuous
370
    -3
390
F
  0
LAYER
  5
7BCC
330
2
100
AcDbSymbolTableRecord
100
AcDbLayerTableRecord
  2
center
 70
     0
 62
     1
  6
CENTER
370
    -3
390
F
  0
ENDTAB
  0
TABLE
  2
STYLE
  5
3
330
0
100
AcDbSymbolTable
 70
     8
  0
STYLE
  5
11
330
3
100
AcDbSymbolTableRecord
100
AcDbTextStyleTableRecord
  2
STANDARD
 70
     0
 40
0.0
 41
1.0
 50
0.0
 71
     0
 42
3.0
  3
ISOCP.SHX
  4
CHINESET.SHX
  0
STYLE
  5
54
330
3
100
AcDbSymbolTableRecord
100
AcDbTextStyleTableRecord
  2

 70
     1
 40
0.0
 41
1.0
 50
0.0
 71
     0
 42
2.5
  3
ltypeshp.shx
  4

  0
STYLE
  5
56
330
3
100
AcDbSymbolTableRecord
100
AcDbTextStyleTableRecord
  2
ACISOTS
 70
     0
 40
1.0
 41
1.0
 50
0.0
 71
     0
 42
2.5
  3
isocp.shx
  4
chineset.shx
  0
STYLE
  5
62
330
3
100
AcDbSymbolTableRecord
100
AcDbTextStyleTableRecord
  2
ACISOGDT
 70
     0
 40
0.0
 41
1.0
 50
0.0
 71
     0
 42
2.5
  3
amgdt.shx
  4

  0
STYLE
  5
499
330
3
100
AcDbSymbolTableRecord
100
AcDbTextStyleTableRecord
  2
CHINESET
 70
     0
 40
0.0
 41
1.0
 50
0.0
 71
     0
 42
2.5
  3
simplex.shx
  4
CHINESET.shx
  0
STYLE
  5
31F3
330
3
100
AcDbSymbolTableRecord
100
AcDbTextStyleTableRecord
  2
DAYUS
 70
     0
 40
0.0
 41
1.0
 50
0.0
 71
     0
 42
4.0
  3
simplex.shx
  4
dayus.shx
  0
STYLE
  5
7EE9
330
3
100
AcDbSymbolTableRecord
100
AcDbTextStyleTableRecord
  2
LOGO
 70
     0
 40
0.0
 41
1.0
 50
0.0
 71
     0
 42
5.0
  3
LEI00DP.TTF
  4

1001
ACAD
1000
文鼎中粗隸
1071
    34865
  0
ENDTAB
  0
TABLE
  2
VIEW
  5
6
330
0
100
AcDbSymbolTable
 70
     0
  0
ENDTAB
  0
TABLE
  2
UCS
  5
7
330
0
100
AcDbSymbolTable
 70
     0
  0
ENDTAB
  0
TABLE
  2
APPID
  5
9
330
0
100
AcDbSymbolTable
 70
    24
  0
APPID
  5
12
330
9
100
AcDbSymbolTableRecord
100
AcDbRegAppTableRecord
  2
ACAD
 70
     0
  0
APPID
  5
30
330
9
100
AcDbSymbolTableRecord
100
AcDbRegAppTableRecord
  2
MCAD_NO_VIS
 70
     0
  0
APPID
  5
31
330
9
100
AcDbSymbolTableRecord
100
AcDbRegAppTableRecord
  2
ACAD_TEMP_GRAPHIC
 70
     0
  0
APPID
  5
42
330
9
100
AcDbSymbolTableRecord
100
AcDbRegAppTableRecord
  2
ACATTRIBSERVICES
 70
     0
  0
APPID
  5
E0
330
9
100
AcDbSymbolTableRecord
100
AcDbRegAppTableRecord
  2
GENIUS_GENDTOL_13
 70
     0
  0
APPID
  5
150
330
9
100
AcDbSymbolTableRecord
100
AcDbRegAppTableRecord
  2
GENIUS_GENODEF_13
 70
     0
  0
APPID
  5
151
330
9
100
AcDbSymbolTableRecord
100
AcDbRegAppTableRecord
  2
GENIUS_GENOBJ-N-CRS_13
 70
     0
  0
APPID
  5
152
330
9
100
AcDbSymbolTableRecord
100
AcDbRegAppTableRecord
  2
GENIUS_GENOENT_13
 70
     0
  0
APPID
  5
153
330
9
100
AcDbSymbolTableRecord
100
AcDbRegAppTableRecord
  2
GENIUS_GENOLIS_13
 70
     0
  0
APPID
  5
154
330
9
100
AcDbSymbolTableRecord
100
AcDbRegAppTableRecord
  2
GENIUS_GENOREF_13
 70
     0
  0
APPID
  5
6B1
330
9
100
AcDbSymbolTableRecord
100
AcDbRegAppTableRecord
  2
GENIUS_GENDIMSH_14
 70
     0
  0
APPID
  5
2B45
330
9
100
AcDbSymbolTableRecord
100
AcDbRegAppTableRecord
  2
GENIUS_GENOBJ-N-CEN_13
 70
     0
  0
APPID
  5
2D85
330
9
100
AcDbSymbolTableRecord
100
AcDbRegAppTableRecord
  2
AD_DRAW
 70
     0
  0
APPID
  5
2DA3
330
9
100
AcDbSymbolTableRecord
100
AcDbRegAppTableRecord
  2
DESIGNERASSEMBLIES
 70
     0
  0
APPID
  5
2DA8
330
9
100
AcDbSymbolTableRecord
100
AcDbRegAppTableRecord
  2
ACADM_DIM_EDIT
 70
     0
  0
APPID
  5
2DA9
330
9
100
AcDbSymbolTableRecord
100
AcDbRegAppTableRecord
  2
AMDT_DM_ADJ
 70
     0
  0
APPID
  5
2DFA
330
9
100
AcDbSymbolTableRecord
100
AcDbRegAppTableRecord
  2
GENIUS_GENREC_14
 70
     0
  0
APPID
  5
2DFB
330
9
100
AcDbSymbolTableRecord
100
AcDbRegAppTableRecord
  2
GENIUS_GENOBJ-N-REC_13
 70
     0
  0
APPID
  5
300E
330
9
100
AcDbSymbolTableRecord
100
AcDbRegAppTableRecord
  2
GENIUS_GENDIM_13
 70
     0
  0
APPID
  5
300F
330
9
100
AcDbSymbolTableRecord
100
AcDbRegAppTableRecord
  2
GENIUS_GE3DTOL_13
 70
     0
  0
APPID
  5
308F
330
9
100
AcDbSymbolTableRecord
100
AcDbRegAppTableRecord
  2
ASURF_PCURVE_APPNAME
 70
     0
  0
APPID
  5
3094
330
9
100
AcDbSymbolTableRecord
100
AcDbRegAppTableRecord
  2
AMG_3D2D_5.0
 70
     0
  0
APPID
  5
31F8
330
9
100
AcDbSymbolTableRecord
100
AcDbRegAppTableRecord
  2
ACAD_PSEXT
 70
     0
  0
APPID
  5
5590
330
9
100
AcDbSymbolTableRecord
100
AcDbRegAppTableRecord
  2
ACAD_DSTYLE_DIMTEXT_FILL
 70
     0
  0
ENDTAB
  0
TABLE
  2
DIMSTYLE
  5
A
330
0
100
AcDbSymbolTable
 70
    17
100
AcDbDimStyleTable
 71
     2
340
6B
340
7446
  0
DIMSTYLE
105
6B
330
A
100
AcDbSymbolTableRecord
100
AcDbDimStyleTableRecord
  2
AM_ISO
 70
     0
  4
"
 41
3.5
 42
1.5
 43
8.0
 44
1.5
 47
0.1
 48
0.1
 73
     0
 74
     0
 77
     1
 78
     8
 79
     2
140
3.5
141
0.0
143
0.0393701
146
0.71
147
1.0
172
     1
176
   256
177
   256
178
   256
271
     2
272
     2
283
     0
284
     8
340
11
371
    -1
372
    -1
  0
DIMSTYLE
105
6C
330
A
100
AcDbSymbolTableRecord
100
AcDbDimStyleTableRecord
  2
AM_ISO$3
 70
     0
  4
"
 41
3.5
 42
1.5
 43
8.0
 44
1.5
 47
0.1
 48
0.1
 73
     0
 77
     1
 78
     8
 79
     2
140
3.5
141
0.0
143
0.0393701
146
0.71
147
1.0
176
   256
177
   256
178
   256
271
     2
272
     2
283
     0
284
     8
288
     1
289
     0
340
11
371
    -1
372
    -1
  0
DIMSTYLE
105
6D
330
A
100
AcDbSymbolTableRecord
100
AcDbDimStyleTableRecord
  2
AM_ISO$4
 70
     0
  4
"
 41
3.5
 42
1.5
 43
8.0
 44
1.5
 47
0.1
 48
0.1
 73
     0
 77
     1
 78
     8
 79
     2
140
3.5
141
0.0
143
0.0393701
146
0.71
147
1.0
176
   256
177
   256
178
   256
271
     2
272
     2
283
     0
284
     8
288
     1
289
     0
340
11
371
    -1
372
    -1
  0
DIMSTYLE
105
6E
330
A
100
AcDbSymbolTableRecord
100
AcDbDimStyleTableRecord
  2
AM_ISO$6
 70
     0
  4
"
 41
3.5
 42
1.5
 43
8.0
 44
1.5
 47
0.1
 48
0.1
 73
     0
 74
     0
 78
     8
 79
     2
140
3.5
141
0.0
143
0.0393701
146
0.71
147
1.0
172
     1
176
   256
177
   256
178
   256
271
     2
272
     2
283
     0
284
     8
340
11
371
    -1
372
    -1
  0
DIMSTYLE
105
6F
330
A
100
AcDbSymbolTableRecord
100
AcDbDimStyleTableRecord
  2
AM_ISO$7
 70
     0
  4
"
 41
3.5
 42
1.5
 43
8.0
 44
1.5
 47
0.1
 48
0.1
 73
     0
 74
     0
 77
     1
 78
     8
 79
     2
140
3.5
141
0.0
143
0.0393701
146
0.71
147
1.0
172
     1
176
   256
177
   256
178
   256
271
     2
272
     2
283
     0
284
     8
340
11
371
    -1
372
    -1
  0
DIMSTYLE
105
70
330
A
100
AcDbSymbolTableRecord
100
AcDbDimStyleTableRecord
  2
AM_ISO$SF
 70
     0
  4
"
 41
2.5
 42
1.0
 43
10.0
 44
1.0
 47
0.1
 48
0.1
 73
     0
 74
     0
 75
     1
 76
     1
 77
     1
 78
     8
 79
     2
140
3.5
141
0.0
143
0.0393701
146
0.71
147
1.5
172
     1
176
   256
177
   256
178
     2
271
     2
272
     3
274
     4
283
     0
284
     8
340
11
371
    -1
372
    -1
  0
DIMSTYLE
105
75
330
A
100
AcDbSymbolTableRecord
100
AcDbDimStyleTableRecord
  2
AM_ISO$SH
 70
     0
  4
"
 41
2.5
 42
1.0
 43
10.0
 44
1.0
 47
0.1
 48
0.1
 73
     0
 74
     0
 75
     1
 76
     1
 77
     1
 78
     8
 79
     2
140
3.5
141
0.0
143
0.0393701
144
2.0
146
0.71
147
1.5
172
     1
173
     1
176
   256
177
   256
178
     2
271
     2
272
     3
274
     4
283
     0
284
     8
340
11
341
71
343
71
371
    -1
372
    -1
  0
DIMSTYLE
105
31F5
330
A
100
AcDbSymbolTableRecord
100
AcDbDimStyleTableRecord
  2
AM_ISO$0
 70
     0
  4
"
 41
3.0
 42
1.0
 43
15.0
 44
1.0
 47
0.1
 48
0.1
 73
     0
 74
     0
 77
     1
 78
     8
 79
     2
140
3.5
141
0.0
143
0.0393701
146
0.71
147
1.0
172
     1
176
   256
177
   256
178
   256
271
     2
272
     2
283
     0
284
     8
340
11
371
    -1
372
    -1
  0
DIMSTYLE
105
31F6
330
A
100
AcDbSymbolTableRecord
100
AcDbDimStyleTableRecord
  2
AM_ANSI$7
 70
     0
  4
"
 40
1.333333333333333
 41
3.0
 42
1.5
 43
9.0
 44
2.0
 47
0.1
 48
0.1
 73
     0
 74
     0
 77
     3
 78
     8
 79
     2
140
5.0
141
0.0
143
0.0393701
146
0.6
147
0.8
172
     1
176
   256
177
   256
178
   256
271
     2
272
     2
284
     8
340
31F3
371
    -1
372
    -1
  0
DIMSTYLE
105
3E6F
330
A
100
AcDbSymbolTableRecord
100
AcDbDimStyleTableRecord
  2
AM_ANSI
 70
     0
  4
"
 40
1.25
 41
3.0
 42
1.5
 43
9.0
 44
2.0
 47
0.1
 48
0.1
 73
     0
 74
     0
 77
     3
 78
     8
 79
     2
140
3.0
141
0.0
143
0.0393701
146
0.6
147
0.8
172
     1
176
   256
177
   256
178
   256
271
     2
272
     2
284
     8
340
31F3
371
    -1
372
    -1
  0
DIMSTYLE
105
7446
102
{ACAD_REACTORS
330
778A
330
7791
330
7792
330
7793
330
779D
330
7797
330
7796
330
779C
330
77B4
330
77A5
330
77A4
102
}
330
A
100
AcDbSymbolTableRecord
100
AcDbDimStyleTableRecord
  2
STANDARD
 70
     0
 40
1.6
 41
2.5
 42
0.625
 43
3.75
 44
1.25
 73
     0
 74
     0
 77
     1
 78
     8
140
2.5
141
2.5
143
0.0394
147
0.625
171
     4
172
     1
273
     8
274
     4
277
     6
340
11
  0
DIMSTYLE
105
7447
330
A
100
AcDbSymbolTableRecord
100
AcDbDimStyleTableRecord
  2
AM_JIS
 70
     0
  4
"
 40
1.6
 41
2.5
 42
1.0
 43
10.0
 44
1.0
 47
0.1
 48
0.1
 73
     0
 74
     0
 77
     3
 78
     8
 79
     2
140
3.5
141
0.0
143
0.0393701
146
0.71
147
1.5
172
     1
176
   256
177
   256
178
     2
271
     2
272
     3
274
     4
283
     0
284
     8
340
11
341
73BA
342
73BA
343
73BA
344
73BA
371
    -1
372
    -1
  0
DIMSTYLE
105
7448
102
{ACAD_REACTORS
330
30CE
102
}
330
A
100
AcDbSymbolTableRecord
100
AcDbDimStyleTableRecord
  2
DAYUS
 70
     0
  4
"
 40
1.6
 41
3.0
 42
2.0
 43
10.0
 44
1.0
 47
0.1
 48
0.1
 73
     0
 74
     0
 77
     1
 78
     8
 79
     2
140
3.5
141
0.0
143
0.0393701
146
0.71
147
1.5
172
     1
176
   256
177
   256
178
     2
271
     2
272
     2
283
     0
284
     8
340
31F3
371
    -1
372
    -1
  0
DIMSTYLE
105
7449
330
A
100
AcDbSymbolTableRecord
100
AcDbDimStyleTableRecord
  2
ISO-25-1
 70
     0
 40
1.6
 41
3.0
 42
3.0
 43
2.0
 44
2.0
 73
     0
 74
     0
 77
     1
 78
     8
 79
     2
140
3.0
141
-3.0
146
0.6
147
1.0
172
     1
176
   256
177
   256
178
   256
271
     2
272
     8
284
     8
289
     0
340
499
371
    -1
372
    -1
  0
DIMSTYLE
105
744A
330
A
100
AcDbSymbolTableRecord
100
AcDbDimStyleTableRecord
  2
DAYUS-2
 70
     0
  4
"
 40
1.6
 41
5.0
 42
2.0
 43
10.0
 44
1.0
 47
0.1
 48
0.1
 73
     0
 74
     0
 77
     1
 78
     8
 79
     2
140
6.0
141
0.0
143
0.0393701
146
0.71
147
1.5
172
     1
176
   256
177
   256
178
     2
271
     0
272
     8
283
     0
284
     8
340
31F3
371
    -1
372
    -1
  0
DIMSTYLE
105
7BCD
330
A
100
AcDbSymbolTableRecord
100
AcDbDimStyleTableRecord
  2
ISO-25
 70
     0
 41
2.5
 42
0.625
 43
3.75
 44
1.25
 73
     0
 74
     0
 77
     1
 78
     8
140
2.5
141
2.5
143
0.03937007874016
147
0.625
171
     3
172
     1
271
     2
272
     2
274
     3
283
     0
284
     8
340
11
  0
ENDTAB
  0
TABLE
  2
BLOCK_RECORD
  5
1
330
0
100
AcDbSymbolTable
 70
    17
  0
BLOCK_RECORD
  5
1F
102
{ACAD_XDICTIONARY
360
159
102
}
330
1
100
AcDbSymbolTableRecord
100
AcDbBlockTableRecord
  2
*Model_Space
340
22
  0
BLOCK_RECORD
  5
1B
102
{ACAD_XDICTIONARY
360
2CA5
102
}
330
1
100
AcDbSymbolTableRecord
100
AcDbBlockTableRecord
  2
*Paper_Space
340
1E
  0
BLOCK_RECORD
  5
23
102
{ACAD_XDICTIONARY
360
2CA7
102
}
330
1
100
AcDbSymbolTableRecord
100
AcDbBlockTableRecord
  2
*Paper_Space0
340
26
  0
BLOCK_RECORD
  5
71
330
1
100
AcDbSymbolTableRecord
100
AcDbBlockTableRecord
  2
GENAXEH
340
0
  0
BLOCK_RECORD
  5
30BA
330
1
100
AcDbSymbolTableRecord
100
AcDbBlockTableRecord
  2
*U2
340
0
  0
BLOCK_RECORD
  5
30E8
330
1
100
AcDbSymbolTableRecord
100
AcDbBlockTableRecord
  2
_DotSmall
340
0
  0
BLOCK_RECORD
  5
73BA
330
1
100
AcDbSymbolTableRecord
100
AcDbBlockTableRecord
  2
_Open30
340
0
  0
BLOCK_RECORD
  5
7A50
330
1
100
AcDbSymbolTableRecord
100
AcDbBlockTableRecord
  2
*D5
340
0
  0
BLOCK_RECORD
  5
7A5C
330
1
100
AcDbSymbolTableRecord
100
AcDbBlockTableRecord
  2
*D6
340
0
  0
BLOCK_RECORD
  5
7A68
330
1
100
AcDbSymbolTableRecord
100
AcDbBlockTableRecord
  2
*D7
340
0
  0
BLOCK_RECORD
  5
7A74
330
1
100
AcDbSymbolTableRecord
100
AcDbBlockTableRecord
  2
*D8
340
0
  0
BLOCK_RECORD
  5
7A81
330
1
100
AcDbSymbolTableRecord
100
AcDbBlockTableRecord
  2
*D9
340
0
  0
BLOCK_RECORD
  5
7A8D
330
1
100
AcDbSymbolTableRecord
100
AcDbBlockTableRecord
  2
*D10
340
0
  0
BLOCK_RECORD
  5
7A99
330
1
100
AcDbSymbolTableRecord
100
AcDbBlockTableRecord
  2
*D11
340
0
  0
BLOCK_RECORD
  5
7AA5
330
1
100
AcDbSymbolTableRecord
100
AcDbBlockTableRecord
  2
*D12
340
0
  0
BLOCK_RECORD
  5
7AB1
330
1
100
AcDbSymbolTableRecord
100
AcDbBlockTableRecord
  2
*D13
340
0
  0
BLOCK_RECORD
  5
7ABD
330
1
100
AcDbSymbolTableRecord
100
AcDbBlockTableRecord
  2
*D14
340
0
  0
BLOCK_RECORD
  5
7AC9
330
1
100
AcDbSymbolTableRecord
100
AcDbBlockTableRecord
  2
*D15
340
0
  0
ENDTAB
  0
ENDSEC
  0
SECTION
  2
BLOCKS
  0
BLOCK
  5
20
330
1F
100
AcDbEntity
  8
0
100
AcDbBlockBegin
  2
*Model_Space
 70
     0
 10
0.0
 20
0.0
 30
0.0
  3
*Model_Space
  1

  0
ENDBLK
  5
21
330
1F
100
AcDbEntity
  8
0
100
AcDbBlockEnd
  0
BLOCK
  5
1C
330
1B
100
AcDbEntity
 67
     1
  8
0
100
AcDbBlockBegin
  2
*Paper_Space
 70
     0
 10
0.0
 20
0.0
 30
0.0
  3
*Paper_Space
  1

  0
ENDBLK
  5
1D
330
1B
100
AcDbEntity
 67
     1
  8
0
100
AcDbBlockEnd
  0
BLOCK
  5
24
330
23
100
AcDbEntity
  8
0
100
AcDbBlockBegin
  2
*Paper_Space0
 70
     0
 10
0.0
 20
0.0
 30
0.0
  3
*Paper_Space0
  1

  0
ENDBLK
  5
25
330
23
100
AcDbEntity
  8
0
100
AcDbBlockEnd
  0
BLOCK
  5
73
330
71
100
AcDbEntity
  8
0
100
AcDbBlockBegin
  2
GENAXEH
 70
     0
 10
0.0
 20
0.0
 30
0.0
  3
GENAXEH
  1

  0
LINE
  5
72
330
71
100
AcDbEntity
  8
0
100
AcDbLine
 10
-1.0
 20
0.0
 30
0.0
 11
1.0
 21
0.0
 31
0.0
  0
ENDBLK
  5
74
330
71
100
AcDbEntity
  8
0
100
AcDbBlockEnd
  0
BLOCK
  5
30BB
330
30BA
100
AcDbEntity
  8
0
100
AcDbBlockBegin
  2
*U2
 70
     1
 10
0.0
 20
0.0
 30
0.0
  3
*U2
  1

  0
ENDBLK
  5
30BC
330
30BA
100
AcDbEntity
  8
0
100
AcDbBlockEnd
  0
BLOCK
  5
30E9
330
30E8
100
AcDbEntity
  8
0
100
AcDbBlockBegin
  2
_DotSmall
 70
     0
 10
0.0
 20
0.0
 30
0.0
  3
_DotSmall
  1

  0
LWPOLYLINE
  5
30EA
330
30E8
100
AcDbEntity
  8
0
  6
ByBlock
 62
     0
100
AcDbPolyline
 90
        2
 70
     1
 43
0.5
 10
-0.0625
 20
0.0
 42
1.0
 10
0.0625
 20
0.0
 42
1.0
  0
ENDBLK
  5
30EB
330
30E8
100
AcDbEntity
  8
0
100
AcDbBlockEnd
  0
BLOCK
  5
73BB
330
73BA
100
AcDbEntity
  8
0
100
AcDbBlockBegin
  2
_Open30
 70
     0
 10
0.0
 20
0.0
 30
0.0
  3
_Open30
  1

  0
LINE
  5
73BC
330
73BA
100
AcDbEntity
  8
0
  6
ByBlock
 62
     0
370
    -2
100
AcDbLine
 10
-1.0
 20
0.26794919
 30
0.0
 11
0.0
 21
0.0
 31
0.0
  0
LINE
  5
73BD
330
73BA
100
AcDbEntity
  8
0
  6
ByBlock
 62
     0
370
    -2
100
AcDbLine
 10
0.0
 20
0.0
 30
0.0
 11
-1.0
 21
-0.26794919
 31
0.0
  0
LINE
  5
73BE
330
73BA
100
AcDbEntity
  8
0
  6
ByBlock
 62
     0
370
    -2
100
AcDbLine
 10
0.0
 20
0.0
 30
0.0
 11
-1.0
 21
0.0
 31
0.0
  0
ENDBLK
  5
73BF
330
73BA
100
AcDbEntity
  8
0
100
AcDbBlockEnd
  0
BLOCK
  5
7A5A
330
7A50
100
AcDbEntity
  8
0
100
AcDbBlockBegin
  2
*D5
 70
     1
 10
0.0
 20
0.0
 30
0.0
  3
*D5
  1

  0
LINE
  5
7E56
330
7A50
100
AcDbEntity
  8
DIM
 62
     0
370
    -2
100
AcDbLine
 10
1621.346995227766
 20
408.386462079301
 30
0.0
 11
1621.346995227766
 21
521.8169687818798
 31
0.0
  0
LINE
  5
7E57
330
7A50
100
AcDbEntity
  8
DIM
 62
     0
370
    -2
100
AcDbLine
 10
1918.346995227766
 20
408.386462079301
 30
0.0
 11
1918.346995227766
 21
521.8169687818798
 31
0.0
  0
LINE
  5
7E58
330
7A50
100
AcDbEntity
  8
DIM
 62
     0
370
    -2
100
AcDbLine
 10
1625.346995227766
 20
519.8169687818798
 30
0.0
 11
1914.346995227766
 21
519.8169687818798
 31
0.0
  0
SOLID
  5
7E59
330
7A50
100
AcDbEntity
  8
DIM
 62
     0
100
AcDbTrace
 10
1625.346995227766
 20
520.4836354485464
 30
0.0
 11
1625.346995227766
 21
519.1503021152132
 31
0.0
 12
1621.346995227766
 22
519.8169687818798
 32
0.0
 13
1621.346995227766
 23
519.8169687818798
 33
0.0
  0
SOLID
  5
7E5A
330
7A50
100
AcDbEntity
  8
DIM
 62
     0
100
AcDbTrace
 10
1914.346995227766
 20
520.4836354485464
 30
0.0
 11
1914.346995227766
 21
519.1503021152132
 31
0.0
 12
1918.346995227766
 22
519.8169687818798
 32
0.0
 13
1918.346995227766
 23
519.8169687818798
 33
0.0
  0
MTEXT
  5
7E5B
330
7A50
100
AcDbEntity
  8
DIM
 62
     0
100
AcDbMText
 10
1769.846995227766
 20
522.8173624826673
 30
0.0
 40
4.0
 41
0.0
 71
     5
 72
     1
  1
\A1;297
 73
     1
 44
1.0
  0
POINT
  5
7E5C
330
7A50
100
AcDbEntity
  8
Defpoints
 62
     0
100
AcDbPoint
 10
1621.346995227766
 20
407.386462079301
 30
0.0
  0
POINT
  5
7E5D
330
7A50
100
AcDbEntity
  8
Defpoints
 62
     0
100
AcDbPoint
 10
1918.346995227766
 20
407.386462079301
 30
0.0
  0
POINT
  5
7E5E
330
7A50
100
AcDbEntity
  8
Defpoints
 62
     0
100
AcDbPoint
 10
1918.346995227766
 20
519.8169687818798
 30
0.0
  0
ENDBLK
  5
7A5B
330
7A50
100
AcDbEntity
  8
0
100
AcDbBlockEnd
  0
BLOCK
  5
7A66
330
7A5C
100
AcDbEntity
  8
0
100
AcDbBlockBegin
  2
*D6
 70
     1
 10
0.0
 20
0.0
 30
0.0
  3
*D6
  1

  0
LINE
  5
7E5F
330
7A5C
100
AcDbEntity
  8
DIM
 62
     0
370
    -2
100
AcDbLine
 10
1743.146995227766
 20
327.7696102452051
 30
0.0
 11
1743.146995227766
 21
314.769610245205
 31
0.0
  0
LINE
  5
7E60
330
7A5C
100
AcDbEntity
  8
DIM
 62
     0
370
    -2
100
AcDbLine
 10
1796.146995227766
 20
327.7696102452051
 30
0.0
 11
1796.146995227766
 21
314.769610245205
 31
0.0
  0
LINE
  5
7E61
330
7A5C
100
AcDbEntity
  8
DIM
 62
     0
370
    -2
100
AcDbLine
 10
1747.146995227766
 20
316.769610245205
 30
0.0
 11
1792.146995227766
 21
316.769610245205
 31
0.0
  0
SOLID
  5
7E62
330
7A5C
100
AcDbEntity
  8
DIM
 62
     0
100
AcDbTrace
 10
1747.146995227766
 20
317.4362769118717
 30
0.0
 11
1747.146995227766
 21
316.1029435785383
 31
0.0
 12
1743.146995227766
 22
316.769610245205
 32
0.0
 13
1743.146995227766
 23
316.769610245205
 33
0.0
  0
SOLID
  5
7E63
330
7A5C
100
AcDbEntity
  8
DIM
 62
     0
100
AcDbTrace
 10
1792.146995227766
 20
317.4362769118717
 30
0.0
 11
1792.146995227766
 21
316.1029435785383
 31
0.0
 12
1796.146995227766
 22
316.769610245205
 32
0.0
 13
1796.146995227766
 23
316.769610245205
 33
0.0
  0
MTEXT
  5
7E64
330
7A5C
100
AcDbEntity
  8
DIM
 62
     0
100
AcDbMText
 10
1769.646995227765
 20
319.769610245205
 30
0.0
 40
4.0
 41
0.0
 71
     5
 72
     1
  1
\A1;53
 73
     1
 44
1.0
  0
POINT
  5
7E65
330
7A5C
100
AcDbEntity
  8
Defpoints
 62
     0
100
AcDbPoint
 10
1743.146995227766
 20
328.7696102452051
 30
0.0
  0
POINT
  5
7E66
330
7A5C
100
AcDbEntity
  8
Defpoints
 62
     0
100
AcDbPoint
 10
1796.146995227766
 20
328.7696102452051
 30
0.0
  0
POINT
  5
7E67
330
7A5C
100
AcDbEntity
  8
Defpoints
 62
     0
100
AcDbPoint
 10
1796.146995227766
 20
316.769610245205
 30
0.0
  0
ENDBLK
  5
7A67
330
7A5C
100
AcDbEntity
  8
0
100
AcDbBlockEnd
  0
BLOCK
  5
7A72
330
7A68
100
AcDbEntity
  8
0
100
AcDbBlockBegin
  2
*D7
 70
     1
 10
0.0
 20
0.0
 30
0.0
  3
*D7
  1

  0
LINE
  5
7E68
330
7A68
100
AcDbEntity
  8
DIM
 62
     0
370
    -2
100
AcDbLine
 10
1733.146995227766
 20
333.336462079301
 30
0.0
 11
1733.146995227766
 21
300.4577580060845
 31
0.0
  0
LINE
  5
7E69
330
7A68
100
AcDbEntity
  8
DIM
 62
     0
370
    -2
100
AcDbLine
 10
1806.146995227766
 20
333.336462079301
 30
0.0
 11
1806.146995227766
 21
300.4577580060845
 31
0.0
  0
LINE
  5
7E6A
330
7A68
100
AcDbEntity
  8
DIM
 62
     0
370
    -2
100
AcDbLine
 10
1737.146995227766
 20
302.4577580060845
 30
0.0
 11
1802.146995227766
 21
302.4577580060845
 31
0.0
  0
SOLID
  5
7E6B
330
7A68
100
AcDbEntity
  8
DIM
 62
     0
100
AcDbTrace
 10
1737.146995227766
 20
303.1244246727512
 30
0.0
 11
1737.146995227766
 21
301.7910913394178
 31
0.0
 12
1733.146995227766
 22
302.4577580060845
 32
0.0
 13
1733.146995227766
 23
302.4577580060845
 33
0.0
  0
SOLID
  5
7E6C
330
7A68
100
AcDbEntity
  8
DIM
 62
     0
100
AcDbTrace
 10
1802.146995227766
 20
303.1244246727512
 30
0.0
 11
1802.146995227766
 21
301.7910913394178
 31
0.0
 12
1806.146995227766
 22
302.4577580060845
 32
0.0
 13
1806.146995227766
 23
302.4577580060845
 33
0.0
  0
MTEXT
  5
7E6D
330
7A68
100
AcDbEntity
  8
DIM
 62
     0
100
AcDbMText
 10
1769.646995227766
 20
305.4577580060845
 30
0.0
 40
4.0
 41
0.0
 71
     5
 72
     1
  1
\A1;73
 73
     1
 44
1.0
  0
POINT
  5
7E6E
330
7A68
100
AcDbEntity
  8
Defpoints
 62
     0
100
AcDbPoint
 10
1733.146995227766
 20
334.336462079301
 30
0.0
  0
POINT
  5
7E6F
330
7A68
100
AcDbEntity
  8
Defpoints
 62
     0
100
AcDbPoint
 10
1806.146995227766
 20
334.336462079301
 30
0.0
  0
POINT
  5
7E70
330
7A68
100
AcDbEntity
  8
Defpoints
 62
     0
100
AcDbPoint
 10
1806.146995227766
 20
302.4577580060845
 30
0.0
  0
ENDBLK
  5
7A73
330
7A68
100
AcDbEntity
  8
0
100
AcDbBlockEnd
  0
BLOCK
  5
7A7F
330
7A74
100
AcDbEntity
  8
0
100
AcDbBlockBegin
  2
*D8
 70
     1
 10
0.0
 20
0.0
 30
0.0
  3
*D8
  1

  0
LINE
  5
7E71
330
7A74
100
AcDbEntity
  8
DIM
 62
     0
370
    -2
100
AcDbLine
 10
1807.146995227766
 20
349.336462079301
 30
0.0
 11
1826.491496593675
 21
349.336462079301
 31
0.0
  0
LINE
  5
7E72
330
7A74
100
AcDbEntity
  8
DIM
 62
     0
370
    -2
100
AcDbLine
 10
1807.146995227766
 20
334.336462079301
 30
0.0
 11
1826.491496593675
 21
334.336462079301
 31
0.0
  0
LINE
  5
7E73
330
7A74
100
AcDbEntity
  8
DIM
 62
     0
370
    -2
100
AcDbLine
 10
1824.491496593675
 20
345.336462079301
 30
0.0
 11
1824.491496593675
 21
338.3364620793011
 31
0.0
  0
LINE
  5
7E74
330
7A74
100
AcDbEntity
  8
DIM
 62
     0
370
    -2
100
AcDbLine
 10
1824.491496593675
 20
334.336462079301
 30
0.0
 11
1824.491496593675
 21
320.2536193668261
 31
0.0
  0
SOLID
  5
7E75
330
7A74
100
AcDbEntity
  8
DIM
 62
     0
100
AcDbTrace
 10
1823.824829927008
 20
345.336462079301
 30
0.0
 11
1825.158163260342
 21
345.336462079301
 31
0.0
 12
1824.491496593675
 22
349.336462079301
 32
0.0
 13
1824.491496593675
 23
349.336462079301
 33
0.0
  0
SOLID
  5
7E76
330
7A74
100
AcDbEntity
  8
DIM
 62
     0
100
AcDbTrace
 10
1823.824829927008
 20
338.3364620793011
 30
0.0
 11
1825.158163260342
 21
338.3364620793011
 31
0.0
 12
1824.491496593675
 22
334.336462079301
 32
0.0
 13
1824.491496593675
 23
334.336462079301
 33
0.0
  0
MTEXT
  5
7E77
330
7A74
100
AcDbEntity
  8
DIM
 62
     0
100
AcDbMText
 10
1821.491496593675
 20
323.136462079301
 30
0.0
 40
4.0
 41
0.0
 71
     5
 72
     1
  1
\A1;15
 11
0.0000000000000001
 21
1.0
 31
0.0
 73
     1
 44
1.0
  0
POINT
  5
7E78
330
7A74
100
AcDbEntity
  8
Defpoints
 62
     0
100
AcDbPoint
 10
1806.146995227766
 20
349.336462079301
 30
0.0
  0
POINT
  5
7E79
330
7A74
100
AcDbEntity
  8
Defpoints
 62
     0
100
AcDbPoint
 10
1806.146995227766
 20
334.336462079301
 30
0.0
  0
POINT
  5
7E7A
330
7A74
100
AcDbEntity
  8
Defpoints
 62
     0
100
AcDbPoint
 10
1824.491496593675
 20
334.336462079301
 30
0.0
  0
ENDBLK
  5
7A80
330
7A74
100
AcDbEntity
  8
0
100
AcDbBlockEnd
  0
BLOCK
  5
7A8B
330
7A81
100
AcDbEntity
  8
0
100
AcDbBlockBegin
  2
*D9
 70
     1
 10
0.0
 20
0.0
 30
0.0
  3
*D9
  1

  0
LINE
  5
7E8D
330
7A81
100
AcDbEntity
  8
DIM
 62
     0
370
    -2
100
AcDbLine
 10
1985.276775808656
 20
380.4364620793011
 30
0.0
 11
1965.171759131572
 21
380.4364620793011
 31
0.0
  0
LINE
  5
7E8E
330
7A81
100
AcDbEntity
  8
DIM
 62
     0
370
    -2
100
AcDbLine
 10
1980.276775808655
 20
334.336462079301
 30
0.0
 11
1965.171759131572
 21
334.336462079301
 31
0.0
  0
LINE
  5
7E8F
330
7A81
100
AcDbEntity
  8
DIM
 62
     0
370
    -2
100
AcDbLine
 10
1967.171759131572
 20
376.4364620793011
 30
0.0
 11
1967.171759131572
 21
338.3364620793011
 31
0.0
  0
SOLID
  5
7E90
330
7A81
100
AcDbEntity
  8
DIM
 62
     0
100
AcDbTrace
 10
1966.505092464905
 20
376.4364620793011
 30
0.0
 11
1967.838425798239
 21
376.4364620793011
 31
0.0
 12
1967.171759131572
 22
380.4364620793011
 32
0.0
 13
1967.171759131572
 23
380.4364620793011
 33
0.0
  0
SOLID
  5
7E91
330
7A81
100
AcDbEntity
  8
DIM
 62
     0
100
AcDbTrace
 10
1966.505092464905
 20
338.3364620793011
 30
0.0
 11
1967.838425798239
 21
338.3364620793011
 31
0.0
 12
1967.171759131572
 22
334.336462079301
 32
0.0
 13
1967.171759131572
 23
334.336462079301
 33
0.0
  0
MTEXT
  5
7E92
330
7A81
100
AcDbEntity
  8
DIM
 62
     0
100
AcDbMText
 10
1964.171759131572
 20
357.3864620793014
 30
0.0
 40
4.0
 41
0.0
 71
     5
 72
     1
  1
\A1;46.1
 11
0.0000000000000001
 21
1.0
 31
0.0
 73
     1
 44
1.0
  0
POINT
  5
7E93
330
7A81
100
AcDbEntity
  8
Defpoints
 62
     0
100
AcDbPoint
 10
1986.276775808656
 20
380.4364620793011
 30
0.0
  0
POINT
  5
7E94
330
7A81
100
AcDbEntity
  8
Defpoints
 62
     0
100
AcDbPoint
 10
1981.276775808655
 20
334.336462079301
 30
0.0
  0
POINT
  5
7E95
330
7A81
100
AcDbEntity
  8
Defpoints
 62
     0
100
AcDbPoint
 10
1967.171759131572
 20
334.336462079301
 30
0.0
  0
ENDBLK
  5
7A8C
330
7A81
100
AcDbEntity
  8
0
100
AcDbBlockEnd
  0
BLOCK
  5
7A97
330
7A8D
100
AcDbEntity
  8
0
100
AcDbBlockBegin
  2
*D10
 70
     1
 10
0.0
 20
0.0
 30
0.0
  3
*D10
  1

  0
LINE
  5
7E84
330
7A8D
100
AcDbEntity
  8
DIM
 62
     0
370
    -2
100
AcDbLine
 10
1985.276775808656
 20
380.4364620793011
 30
0.0
 11
1965.171759131572
 21
380.4364620793011
 31
0.0
  0
LINE
  5
7E85
330
7A8D
100
AcDbEntity
  8
DIM
 62
     0
370
    -2
100
AcDbLine
 10
1985.276775808656
 20
423.4364620793011
 30
0.0
 11
1965.171759131572
 21
423.4364620793011
 31
0.0
  0
LINE
  5
7E86
330
7A8D
100
AcDbEntity
  8
DIM
 62
     0
370
    -2
100
AcDbLine
 10
1967.171759131572
 20
384.4364620793011
 30
0.0
 11
1967.171759131572
 21
419.436462079301
 31
0.0
  0
SOLID
  5
7E87
330
7A8D
100
AcDbEntity
  8
DIM
 62
     0
100
AcDbTrace
 10
1966.505092464905
 20
384.4364620793011
 30
0.0
 11
1967.838425798239
 21
384.4364620793011
 31
0.0
 12
1967.171759131572
 22
380.4364620793011
 32
0.0
 13
1967.171759131572
 23
380.4364620793011
 33
0.0
  0
SOLID
  5
7E88
330
7A8D
100
AcDbEntity
  8
DIM
 62
     0
100
AcDbTrace
 10
1966.505092464905
 20
419.436462079301
 30
0.0
 11
1967.838425798239
 21
419.436462079301
 31
0.0
 12
1967.171759131572
 22
423.4364620793011
 32
0.0
 13
1967.171759131572
 23
423.4364620793011
 33
0.0
  0
MTEXT
  5
7E89
330
7A8D
100
AcDbEntity
  8
DIM
 62
     0
100
AcDbMText
 10
1964.171759131572
 20
401.9364620793013
 30
0.0
 40
4.0
 41
0.0
 71
     5
 72
     1
  1
\A1;43
 11
0.0000000000000001
 21
1.0
 31
0.0
 73
     1
 44
1.0
  0
POINT
  5
7E8A
330
7A8D
100
AcDbEntity
  8
Defpoints
 62
     0
100
AcDbPoint
 10
1986.276775808656
 20
380.4364620793011
 30
0.0
  0
POINT
  5
7E8B
330
7A8D
100
AcDbEntity
  8
Defpoints
 62
     0
100
AcDbPoint
 10
1986.276775808656
 20
423.4364620793011
 30
0.0
  0
POINT
  5
7E8C
330
7A8D
100
AcDbEntity
  8
Defpoints
 62
     0
100
AcDbPoint
 10
1967.171759131572
 20
423.4364620793011
 30
0.0
  0
ENDBLK
  5
7A98
330
7A8D
100
AcDbEntity
  8
0
100
AcDbBlockEnd
  0
BLOCK
  5
7AA3
330
7A99
100
AcDbEntity
  8
0
100
AcDbBlockBegin
  2
*D11
 70
     1
 10
0.0
 20
0.0
 30
0.0
  3
*D11
  1

  0
LINE
  5
8091
330
7A99
100
AcDbEntity
  8
DIM
 62
     0
370
    -2
100
AcDbLine
 10
2026.712349712471
 20
507.5871470108078
 30
0.0
 11
2026.712349712471
 21
520.5871470108079
 31
0.0
  0
LINE
  5
8092
330
7A99
100
AcDbEntity
  8
DIM
 62
     0
370
    -2
100
AcDbLine
 10
2060.84120190484
 20
507.5871470108079
 30
0.0
 11
2060.84120190484
 21
520.5871470108079
 31
0.0
  0
LINE
  5
8093
330
7A99
100
AcDbEntity
  8
DIM
 62
     0
370
    -2
100
AcDbLine
 10
2030.712349712471
 20
518.5871470108079
 30
0.0
 11
2056.84120190484
 21
518.5871470108079
 31
0.0
  0
SOLID
  5
8094
330
7A99
100
AcDbEntity
  8
DIM
 62
     0
100
AcDbTrace
 10
2030.712349712471
 20
519.2538136774746
 30
0.0
 11
2030.712349712471
 21
517.9204803441413
 31
0.0
 12
2026.712349712471
 22
518.5871470108079
 32
0.0
 13
2026.712349712471
 23
518.5871470108079
 33
0.0
  0
SOLID
  5
8095
330
7A99
100
AcDbEntity
  8
DIM
 62
     0
100
AcDbTrace
 10
2056.84120190484
 20
519.2538136774746
 30
0.0
 11
2056.84120190484
 21
517.9204803441413
 31
0.0
 12
2060.84120190484
 22
518.5871470108079
 32
0.0
 13
2060.84120190484
 23
518.5871470108079
 33
0.0
  0
MTEXT
  5
8096
330
7A99
100
AcDbEntity
  8
DIM
 62
     0
100
AcDbMText
 10
2043.776775808656
 20
521.5871470108079
 30
0.0
 40
4.0
 41
0.0
 71
     5
 72
     1
  1
\A1;%%c34
 73
     1
 44
1.0
  0
POINT
  5
8097
330
7A99
100
AcDbEntity
  8
Defpoints
 62
     0
100
AcDbPoint
 10
2026.712349712471
 20
506.5871470108079
 30
0.0
  0
POINT
  5
8098
330
7A99
100
AcDbEntity
  8
Defpoints
 62
     0
100
AcDbPoint
 10
2060.84120190484
 20
506.5871470108079
 30
0.0
  0
POINT
  5
8099
330
7A99
100
AcDbEntity
  8
Defpoints
 62
     0
100
AcDbPoint
 10
2060.84120190484
 20
518.5871470108079
 30
0.0
  0
ENDBLK
  5
7AA4
330
7A99
100
AcDbEntity
  8
0
100
AcDbBlockEnd
  0
BLOCK
  5
7AAF
330
7AA5
100
AcDbEntity
  8
0
100
AcDbBlockBegin
  2
*D12
 70
     1
 10
0.0
 20
0.0
 30
0.0
  3
*D12
  1

  0
LINE
  5
809B
330
7AA5
100
AcDbEntity
  8
DIM
 62
     0
370
    -2
100
AcDbLine
 10
2027.076775808655
 20
508.436462079301
 30
0.0
 11
1949.190175967726
 21
508.436462079301
 31
0.0
  0
LINE
  5
809C
330
7AA5
100
AcDbEntity
  8
DIM
 62
     0
370
    -2
100
AcDbLine
 10
1980.276775808655
 20
334.336462079301
 30
0.0
 11
1949.190175967726
 21
334.336462079301
 31
0.0
  0
LINE
  5
809D
330
7AA5
100
AcDbEntity
  8
DIM
 62
     0
370
    -2
100
AcDbLine
 10
1951.190175967726
 20
504.436462079301
 30
0.0
 11
1951.190175967726
 21
338.3364620793011
 31
0.0
  0
SOLID
  5
809E
330
7AA5
100
AcDbEntity
  8
DIM
 62
     0
100
AcDbTrace
 10
1950.523509301059
 20
504.436462079301
 30
0.0
 11
1951.856842634393
 21
504.436462079301
 31
0.0
 12
1951.190175967726
 22
508.436462079301
 32
0.0
 13
1951.190175967726
 23
508.436462079301
 33
0.0
  0
SOLID
  5
809F
330
7AA5
100
AcDbEntity
  8
DIM
 62
     0
100
AcDbTrace
 10
1950.523509301059
 20
338.3364620793011
 30
0.0
 11
1951.856842634393
 21
338.3364620793011
 31
0.0
 12
1951.190175967726
 22
334.336462079301
 32
0.0
 13
1951.190175967726
 23
334.336462079301
 33
0.0
  0
MTEXT
  5
80A0
330
7AA5
100
AcDbEntity
  8
DIM
 62
     0
100
AcDbMText
 10
1948.190175967726
 20
421.3864620793014
 30
0.0
 40
4.0
 41
0.0
 71
     5
 72
     1
  1
\A1;174
 11
0.0000000000000001
 21
1.0
 31
0.0
 73
     1
 44
1.0
  0
POINT
  5
80A1
330
7AA5
100
AcDbEntity
  8
Defpoints
 62
     0
100
AcDbPoint
 10
2028.076775808655
 20
508.436462079301
 30
0.0
  0
POINT
  5
80A2
330
7AA5
100
AcDbEntity
  8
Defpoints
 62
     0
100
AcDbPoint
 10
1981.276775808655
 20
334.336462079301
 30
0.0
  0
POINT
  5
80A3
330
7AA5
100
AcDbEntity
  8
Defpoints
 62
     0
100
AcDbPoint
 10
1951.190175967726
 20
334.336462079301
 30
0.0
  0
ENDBLK
  5
7AB0
330
7AA5
100
AcDbEntity
  8
0
100
AcDbBlockEnd
  0
BLOCK
  5
7ABB
330
7AB1
100
AcDbEntity
  8
0
100
AcDbBlockBegin
  2
*D13
 70
     1
 10
0.0
 20
0.0
 30
0.0
  3
*D13
  1

  0
LINE
  5
7EB1
330
7AB1
100
AcDbEntity
  8
DIM
 62
     0
370
    -2
100
AcDbLine
 10
1991.276775808655
 20
326.4805583533564
 30
0.0
 11
1991.276775808655
 21
315.8434038612761
 31
0.0
  0
LINE
  5
7EB2
330
7AB1
100
AcDbEntity
  8
DIM
 62
     0
370
    -2
100
AcDbLine
 10
2089.276775808656
 20
326.4805583533564
 30
0.0
 11
2089.276775808656
 21
315.8434038612761
 31
0.0
  0
LINE
  5
7EB3
330
7AB1
100
AcDbEntity
  8
DIM
 62
     0
370
    -2
100
AcDbLine
 10
1995.276775808655
 20
317.843403861276
 30
0.0
 11
2085.276775808656
 21
317.843403861276
 31
0.0
  0
SOLID
  5
7EB4
330
7AB1
100
AcDbEntity
  8
DIM
 62
     0
100
AcDbTrace
 10
1995.276775808655
 20
318.5100705279428
 30
0.0
 11
1995.276775808655
 21
317.1767371946093
 31
0.0
 12
1991.276775808655
 22
317.843403861276
 32
0.0
 13
1991.276775808655
 23
317.843403861276
 33
0.0
  0
SOLID
  5
7EB5
330
7AB1
100
AcDbEntity
  8
DIM
 62
     0
100
AcDbTrace
 10
2085.276775808656
 20
318.5100705279428
 30
0.0
 11
2085.276775808656
 21
317.1767371946093
 31
0.0
 12
2089.276775808656
 22
317.843403861276
 32
0.0
 13
2089.276775808656
 23
317.843403861276
 33
0.0
  0
MTEXT
  5
7EB6
330
7AB1
100
AcDbEntity
  8
DIM
 62
     0
100
AcDbMText
 10
2040.276775808656
 20
320.843403861276
 30
0.0
 40
4.0
 41
0.0
 71
     5
 72
     1
  1
\A1;98
 73
     1
 44
1.0
  0
POINT
  5
7EB7
330
7AB1
100
AcDbEntity
  8
Defpoints
 62
     0
100
AcDbPoint
 10
1991.276775808655
 20
327.4805583533564
 30
0.0
  0
POINT
  5
7EB8
330
7AB1
100
AcDbEntity
  8
Defpoints
 62
     0
100
AcDbPoint
 10
2089.276775808656
 20
327.4805583533564
 30
0.0
  0
POINT
  5
7EB9
330
7AB1
100
AcDbEntity
  8
Defpoints
 62
     0
100
AcDbPoint
 10
2089.276775808656
 20
317.843403861276
 30
0.0
  0
ENDBLK
  5
7ABC
330
7AB1
100
AcDbEntity
  8
0
100
AcDbBlockEnd
  0
BLOCK
  5
7AC7
330
7ABD
100
AcDbEntity
  8
0
100
AcDbBlockBegin
  2
*D14
 70
     1
 10
0.0
 20
0.0
 30
0.0
  3
*D14
  1

  0
LINE
  5
7EA8
330
7ABD
100
AcDbEntity
  8
DIM
 62
     0
370
    -2
100
AcDbLine
 10
1981.276775808655
 20
333.336462079301
 30
0.0
 11
1981.276775808655
 21
301.1177128454362
 31
0.0
  0
LINE
  5
7EA9
330
7ABD
100
AcDbEntity
  8
DIM
 62
     0
370
    -2
100
AcDbLine
 10
2099.276775808656
 20
333.3364620793011
 30
0.0
 11
2099.276775808656
 21
301.1177128454362
 31
0.0
  0
LINE
  5
7EAA
330
7ABD
100
AcDbEntity
  8
DIM
 62
     0
370
    -2
100
AcDbLine
 10
1985.276775808655
 20
303.1177128454362
 30
0.0
 11
2095.276775808656
 21
303.1177128454362
 31
0.0
  0
SOLID
  5
7EAB
330
7ABD
100
AcDbEntity
  8
DIM
 62
     0
100
AcDbTrace
 10
1985.276775808655
 20
303.7843795121029
 30
0.0
 11
1985.276775808655
 21
302.4510461787695
 31
0.0
 12
1981.276775808655
 22
303.1177128454362
 32
0.0
 13
1981.276775808655
 23
303.1177128454362
 33
0.0
  0
SOLID
  5
7EAC
330
7ABD
100
AcDbEntity
  8
DIM
 62
     0
100
AcDbTrace
 10
2095.276775808656
 20
303.7843795121029
 30
0.0
 11
2095.276775808656
 21
302.4510461787695
 31
0.0
 12
2099.276775808656
 22
303.1177128454362
 32
0.0
 13
2099.276775808656
 23
303.1177128454362
 33
0.0
  0
MTEXT
  5
7EAD
330
7ABD
100
AcDbEntity
  8
DIM
 62
     0
100
AcDbMText
 10
2040.276775808656
 20
306.1177128454362
 30
0.0
 40
4.0
 41
0.0
 71
     5
 72
     1
  1
\A1;118
 73
     1
 44
1.0
  0
POINT
  5
7EAE
330
7ABD
100
AcDbEntity
  8
Defpoints
 62
     0
100
AcDbPoint
 10
1981.276775808655
 20
334.336462079301
 30
0.0
  0
POINT
  5
7EAF
330
7ABD
100
AcDbEntity
  8
Defpoints
 62
     0
100
AcDbPoint
 10
2099.276775808656
 20
334.3364620793011
 30
0.0
  0
POINT
  5
7EB0
330
7ABD
100
AcDbEntity
  8
Defpoints
 62
     0
100
AcDbPoint
 10
2099.276775808656
 20
303.1177128454362
 30
0.0
  0
ENDBLK
  5
7AC8
330
7ABD
100
AcDbEntity
  8
0
100
AcDbBlockEnd
  0
BLOCK
  5
7AD3
330
7AC9
100
AcDbEntity
  8
0
100
AcDbBlockBegin
  2
*D15
 70
     1
 10
0.0
 20
0.0
 30
0.0
  3
*D15
  1

  0
LINE
  5
7E9F
330
7AC9
100
AcDbEntity
  8
DIM
 62
     0
370
    -2
100
AcDbLine
 10
2159.276775808656
 20
352.3364620793011
 30
0.0
 11
2172.276775808656
 21
352.3364620793011
 31
0.0
  0
LINE
  5
7EA0
330
7AC9
100
AcDbEntity
  8
DIM
 62
     0
370
    -2
100
AcDbLine
 10
2100.276775808656
 20
334.3364620793011
 30
0.0
 11
2172.276775808656
 21
334.3364620793011
 31
0.0
  0
LINE
  5
7EA1
330
7AC9
100
AcDbEntity
  8
DIM
 62
     0
370
    -2
100
AcDbLine
 10
2170.276775808656
 20
348.3364620793011
 30
0.0
 11
2170.276775808656
 21
338.3364620793011
 31
0.0
  0
SOLID
  5
7EA2
330
7AC9
100
AcDbEntity
  8
DIM
 62
     0
100
AcDbTrace
 10
2169.610109141989
 20
348.3364620793011
 30
0.0
 11
2170.943442475322
 21
348.3364620793011
 31
0.0
 12
2170.276775808656
 22
352.3364620793011
 32
0.0
 13
2170.276775808656
 23
352.3364620793011
 33
0.0
  0
SOLID
  5
7EA3
330
7AC9
100
AcDbEntity
  8
DIM
 62
     0
100
AcDbTrace
 10
2169.610109141989
 20
338.3364620793011
 30
0.0
 11
2170.943442475322
 21
338.3364620793011
 31
0.0
 12
2170.276775808656
 22
334.3364620793011
 32
0.0
 13
2170.276775808656
 23
334.3364620793011
 33
0.0
  0
MTEXT
  5
7EA4
330
7AC9
100
AcDbEntity
  8
DIM
 62
     0
100
AcDbMText
 10
2167.276775808656
 20
343.3364620793014
 30
0.0
 40
4.0
 41
0.0
 71
     5
 72
     1
  1
\A1;18
 11
0.0000000000000001
 21
1.0
 31
0.0
 73
     1
 44
1.0
  0
POINT
  5
7EA5
330
7AC9
100
AcDbEntity
  8
Defpoints
 62
     0
100
AcDbPoint
 10
2158.276775808656
 20
352.3364620793011
 30
0.0
  0
POINT
  5
7EA6
330
7AC9
100
AcDbEntity
  8
Defpoints
 62
     0
100
AcDbPoint
 10
2099.276775808656
 20
334.3364620793011
 30
0.0
  0
POINT
  5
7EA7
330
7AC9
100
AcDbEntity
  8
Defpoints
 62
     0
100
AcDbPoint
 10
2170.276775808656
 20
334.3364620793011
 30
0.0
  0
ENDBLK
  5
7AD4
330
7AC9
100
AcDbEntity
  8
0
100
AcDbBlockEnd
  0
ENDSEC
  0
SECTION
  2
ENTITIES
  0
TEXT
  5
18EC
330
1F
100
AcDbEntity
  8
LOGO
  6
Continuous
 62
     7
100
AcDbText
 10
466.8848434021445
 20
-19.43800514375071
 30
0.0
 40
13.27245374673802
  1

  7
CHINESET
 72
     1
 11
466.8848434021445
 21
-12.8017782703817
 31
0.0
100
AcDbText
 73
     2
  0
TEXT
  5
3E08
330
1F
100
AcDbEntity
  8
LOGO
 62
     7
100
AcDbText
 10
1693.30231416016
 20
186.0604177095579
 30
0.0
 40
6.047124271493212
  1
Order example:
 41
0.8
  7
CHINESET
100
AcDbText
  0
TEXT
  5
3E09
330
1F
100
AcDbEntity
  8
LOGO
 62
     7
100
AcDbText
 10
1694.387218262149
 20
194.5735166107637
 30
0.0
 40
9.070686407239819
  1
訂購代號：
  7
CHINESET
100
AcDbText
  0
LINE
  5
3E0A
330
1F
100
AcDbEntity
  8
LOGO
 62
     1
100
AcDbLine
 10
1690.67481815353
 20
160.575552493825
 30
0.0
 11
1690.67481815353
 21
205.9289845300244
 31
0.0
  0
TEXT
  5
3E0B
330
1F
100
AcDbEntity
  8
LOGO
  6
Continuous
100
AcDbText
 10
1607.188424328916
 20
169.4851657730397
 30
0.0
 40
6.803014805429865
  1
金器工業股份有限公司
  7
CHINESET
100
AcDbText
  0
TEXT
  5
3E0C
330
1F
100
AcDbEntity
  8
LOGO
  6
Continuous
100
AcDbText
 10
1594.692632041448
 20
162.680818110085
 30
0.0
 40
4.535343203619909
  1
MINDMAN INDUSTRIAL CO., LTD.
 41
0.85
  7
CHINESET
100
AcDbText
  0
LINE
  5
3E0D
330
1F
100
AcDbEntity
  8
LOGO
 62
     1
100
AcDbLine
 10
1690.67481815353
 20
196.8582981227846
 30
0.0
 11
1624.156451167104
 21
196.8582981227846
 31
0.0
  0
LINE
  5
3E0E
330
1F
100
AcDbEntity
  8
LOGO
 62
     1
100
AcDbLine
 10
1690.67481815353
 20
187.7876117155447
 30
0.0
 11
1624.156451167104
 21
187.7876117155447
 31
0.0
  0
LINE
  5
3E0F
330
1F
100
AcDbEntity
  8
LOGO
 62
     1
100
AcDbLine
 10
1690.67481815353
 20
178.7169253083053
 30
0.0
 11
1590.897267673892
 21
178.7169253083053
 31
0.0
  0
LINE
  5
3E10
330
1F
100
AcDbEntity
  8
LOGO
 62
     1
100
AcDbLine
 10
1624.156451167104
 20
178.7169253083053
 30
0.0
 11
1624.156451167104
 21
205.9289845300244
 31
0.0
  0
TEXT
  5
3E11
330
1F
100
AcDbEntity
  8
LOGO
100
AcDbText
 10
1669.618615383226
 20
180.9845969101145
 30
0.0
 40
4.535343203619909
  1
mm
  7
CHINESET
 72
     1
 11
1675.233802206756
 21
183.2522685119245
 31
0.0
100
AcDbText
 73
     2
  0
TEXT
  5
3E12
330
1F
100
AcDbEntity
  8
LOGO
100
AcDbText
 10
1667.242959419425
 20
199.1259697245943
 30
0.0
 40
4.535343203619909
  1
1 : 1
  7
CHINESET
 72
     1
 11
1675.233802206756
 21
201.3936413264042
 31
0.0
100
AcDbText
 73
     2
  0
LINE
  5
3E13
330
1F
100
AcDbEntity
  8
LOGO
 62
     1
100
AcDbLine
 10
1660.439196796064
 20
178.7169253083053
 30
0.0
 11
1660.439196796064
 21
205.9289845300244
 31
0.0
  0
TEXT
  5
3E14
330
1F
100
AcDbEntity
  8
LOGO
100
AcDbText
 10
1627.896084603303
 20
199.1282016848322
 30
297.238922023793
 40
4.535343203619909
  1
比例 Scale:
 41
0.9
  7
CHINESET
 72
     4
 11
1642.297823981584
 21
201.3936413264042
 31
297.238922023793
100
AcDbText
  0
TEXT
  5
3E15
330
1F
100
AcDbEntity
  8
LOGO
100
AcDbText
 10
1627.634897427738
 20
190.1190801808239
 30
297.238922023793
 40
4.535343203619909
  1
投影  View:
 41
0.9
  7
CHINESET
 72
     4
 11
1642.297823981584
 21
192.3229549191643
 31
297.238922023793
100
AcDbText
  0
TEXT
  5
3E16
330
1F
100
AcDbEntity
  8
LOGO
100
AcDbText
 10
1628.078308214163
 20
180.9845969101145
 30
297.238922023793
 40
4.535343203619909
  1
單位  Unit:
 41
0.9
  7
CHINESET
 72
     4
 11
1642.297823981584
 21
183.2522685119245
 31
297.238922023793
100
AcDbText
  0
LWPOLYLINE
  5
3E17
330
1F
100
AcDbEntity
  8
LOGO
 62
     4
100
AcDbPolyline
 90
        4
 70
     1
 43
0.0
 10
1590.897267673892
 20
205.9289845300244
 10
2190.505350345765
 20
205.9289845300244
 10
2190.505350345765
 20
614.1755524938242
 10
1590.897267673892
 20
614.1755524938242
1001
GENIUS_GENREC_14
1002
{
1000
PYDIR
1011
1590.897267673892
1021
614.1755524938242
1031
0.0
1002
}
1002
{
1000
PXDIR
1011
2190.505350345765
1021
205.9289845300244
1031
0.0
1002
}
1002
{
1000
PORI
1011
1590.897267673892
1021
205.9289845300244
1031
0.0
1002
}
1002
{
1000
PINS
1011
1590.897267673892
1021
205.9289845300244
1031
0.0
1002
}
1002
{
1000
PINS2
1011
2190.505350345765
1021
614.1755524938242
1031
0.0
1002
}
1002
{
1000
C
1070
     1
1002
}
1001
GENIUS_GENODEF_13
1002
{
1000
HIER
1070
     0
1002
}
1002
{
1000
MANEDIT
1070
     0
1002
}
1002
{
1000
NOSEL
1070
     0
1002
}
1002
{
1000
BEHIND
1070
     0
1002
}
1002
{
1000
OTHER
1070
     0
1002
}
1002
{
1000
REACTOR
1002
}
1001
GENIUS_GENOBJ-N-REC_13
1002
{
1000
OWNER
1000
GEN
1002
}
  0
SOLID
  5
3E18
330
1F
100
AcDbEntity
  8
LOGO
 62
     5
100
AcDbTrace
 10
1595.602759034369
 20
186.2562878290525
 30
0.0
 11
1597.563722428209
 21
186.2562878290521
 31
0.0
 12
1605.745673140436
 22
204.8516303568422
 32
0.0
 13
1607.706636534276
 23
204.8516303568411
 33
0.0
  0
SOLID
  5
3E19
330
1F
100
AcDbEntity
  8
LOGO
 62
     5
100
AcDbTrace
 10
1598.375155556696
 20
186.2562878290525
 30
0.0
 11
1600.336118950536
 21
186.2562878290525
 31
0.0
 12
1607.706636534276
 22
203.3640029546183
 32
0.0
 13
1605.745673140436
 23
196.1738038438729
 33
0.0
  0
SOLID
  5
3E1A
330
1F
100
AcDbEntity
  8
LOGO
 62
     2
100
AcDbTrace
 10
1597.563722428209
 20
186.2562878290521
 30
0.0
 11
1598.375155556696
 21
186.2562878290525
 31
0.0
 12
1607.706636534276
 22
204.8516303568411
 32
0.0
 13
1608.518069662763
 23
204.8516303568411
 33
0.0
  0
SOLID
  5
3E1B
330
1F
100
AcDbEntity
  8
LOGO
 62
     5
100
AcDbTrace
 10
1592.458853826915
 20
179.4943450916752
 30
0.0
 11
1593.135048100653
 21
179.4943450916752
 31
0.0
 12
1595.039263806255
 22
182.8753164603636
 32
0.0
 13
1595.715458079991
 23
182.8753164603636
 33
0.0
  0
SOLID
  5
3E1C
330
1F
100
AcDbEntity
  8
LOGO
 62
     5
100
AcDbTrace
 10
1595.039263806255
 20
182.8753164603636
 30
0.0
 11
1595.715458079991
 21
182.8753164603636
 31
0.0
 12
1595.039263806255
 22
179.4943450916752
 32
0.0
 13
1595.715458079991
 23
179.4943450916752
 33
0.0
  0
SOLID
  5
3E1D
330
1F
100
AcDbEntity
  8
LOGO
 62
     5
100
AcDbTrace
 10
1595.039263806255
 20
179.4943450916752
 30
0.0
 11
1595.715458079991
 21
179.4943450916752
 31
0.0
 12
1597.619673785596
 22
182.8753164603636
 32
0.0
 13
1598.295868059334
 23
182.8753164603636
 33
0.0
  0
SOLID
  5
3E1E
330
1F
100
AcDbEntity
  8
LOGO
 62
     5
100
AcDbTrace
 10
1597.619673785596
 20
182.8753164603636
 30
0.0
 11
1598.295868059334
 21
182.8753164603636
 31
0.0
 12
1597.619673785596
 22
179.4943450916752
 32
0.0
 13
1598.295868059334
 23
179.4943450916752
 33
0.0
  0
POLYLINE
  5
3E1F
330
1F
100
AcDbEntity
  8
LOGO
 62
     5
100
AcDb2dPolyline
 66
     1
 10
0.0
 20
0.0
 30
0.0
 40
0.6772779184072397
 41
0.6772779184072397
  0
VERTEX
  5
3E20
330
3E1F
100
AcDbEntity
  8
LOGO
 62
     5
100
AcDbVertex
100
AcDb2dVertex
 10
1620.285475492804
 20
181.5229279128881
 30
0.0
 42
1.0
  0
VERTEX
  5
3E21
330
3E1F
100
AcDbEntity
  8
LOGO
 62
     5
100
AcDbVertex
100
AcDb2dVertex
 10
1618.253641737582
 20
181.5229279128881
 30
0.0
 42
1.0
  0
SEQEND
  5
3E22
330
3E1F
100
AcDbEntity
  8
LOGO
 62
     5
  0
POLYLINE
  5
3E23
330
1F
100
AcDbEntity
  8
LOGO
 62
     5
100
AcDb2dPolyline
 66
     1
 10
0.0
 20
0.0
 30
0.0
 70
     1
  0
VERTEX
  5
3E24
330
3E23
100
AcDbEntity
  8
LOGO
 62
     5
100
AcDbVertex
100
AcDb2dVertex
 10
1614.423544733023
 20
181.1848307760189
 30
0.0
 42
1.000000057330635
  0
VERTEX
  5
3E25
330
3E23
100
AcDbEntity
  8
LOGO
 62
     5
100
AcDbVertex
100
AcDb2dVertex
 10
1616.452127554236
 20
181.1848307760189
 30
0.0
 42
1.000000057330635
  0
SEQEND
  5
3E26
330
3E23
100
AcDbEntity
  8
LOGO
 62
     5
  0
CIRCLE
  5
3E27
330
1F
100
AcDbEntity
  8
LOGO
 62
     5
100
AcDbCircle
 10
1615.437836143631
 20
181.1848307760189
 30
0.0
 40
1.014291410606682
  0
POLYLINE
  5
3E28
330
1F
100
AcDbEntity
  8
LOGO
 62
     5
100
AcDb2dPolyline
 66
     1
 10
0.0
 20
0.0
 30
0.0
 70
     1
 40
0.6772779184072397
 41
0.6772779184072397
  0
VERTEX
  5
3E29
330
3E28
100
AcDbEntity
  8
LOGO
 62
     5
100
AcDbVertex
100
AcDb2dVertex
 10
1614.083280306815
 20
181.1848307760189
 30
0.0
 42
1.0
  0
VERTEX
  5
3E2A
330
3E28
100
AcDbEntity
  8
LOGO
 62
     5
100
AcDbVertex
100
AcDb2dVertex
 10
1616.792391980444
 20
181.1848307760189
 30
0.0
 42
1.0
  0
SEQEND
  5
3E2B
330
3E28
100
AcDbEntity
  8
LOGO
 62
     5
  0
LINE
  5
3E2C
330
1F
100
AcDbEntity
  8
LOGO
100
AcDbLine
 10
1620.621947162668
 20
179.4943450916752
 30
0.0
 11
1620.621947162668
 21
181.5229279128881
 31
0.0
  0
SOLID
  5
3E2D
330
1F
100
AcDbEntity
  8
LOGO
 62
     5
100
AcDbTrace
 10
1616.452059934811
 20
182.8753164603636
 30
0.0
 11
1617.128254208548
 21
182.8753164603636
 31
0.0
 12
1616.452059934811
 22
179.4943450916752
 32
0.0
 13
1617.128254208548
 23
179.4943450916752
 33
0.0
  0
SOLID
  5
3E2E
330
1F
100
AcDbEntity
  8
LOGO
 62
     5
100
AcDbTrace
 10
1617.917170067717
 20
179.4943450916752
 30
0.0
 11
1618.593364341455
 21
179.4943450916752
 31
0.0
 12
1617.917170067717
 22
182.8753164603636
 32
0.0
 13
1618.593364341455
 23
182.8753164603636
 33
0.0
  0
SOLID
  5
3E2F
330
1F
100
AcDbEntity
  8
LOGO
 62
     5
100
AcDbTrace
 10
1619.945752888931
 20
181.5229279128881
 30
0.0
 11
1620.621947162668
 21
181.5229279128881
 31
0.0
 12
1619.945752888931
 22
179.4943450916752
 32
0.0
 13
1620.621947162668
 23
179.4943450916752
 33
0.0
  0
SOLID
  5
3E30
330
1F
100
AcDbEntity
  8
LOGO
 62
     5
100
AcDbTrace
 10
1617.849550640343
 20
203.3640029546183
 30
0.0
 11
1615.888587246504
 21
196.1738038438729
 31
0.0
 12
1617.849550640343
 22
186.2562878290521
 32
0.0
 13
1615.888587246504
 23
186.2562878290521
 33
0.0
  0
SOLID
  5
3E31
330
1F
100
AcDbEntity
  8
LOGO
 62
     5
100
AcDbTrace
 10
1618.660983768829
 20
186.2562878290521
 30
0.0
 11
1620.621947162668
 21
186.2562878290521
 31
0.0
 12
1618.660983768829
 22
204.8516303568411
 32
0.0
 13
1620.621947162668
 23
204.8516303568422
 33
0.0
  0
SOLID
  5
3E32
330
1F
100
AcDbEntity
  8
LOGO
 62
     2
100
AcDbTrace
 10
1617.849550640343
 20
204.8516303568422
 30
0.0
 11
1618.660983768829
 21
204.8516303568411
 31
0.0
 12
1617.849550640343
 22
186.2562878290521
 32
0.0
 13
1618.660983768829
 23
186.2562878290521
 33
0.0
  0
POLYLINE
  5
3E33
330
1F
100
AcDbEntity
  8
LOGO
 62
     5
100
AcDb2dPolyline
 66
     1
 10
0.0
 20
0.0
 30
0.0
 40
0.6772779184072397
 41
0.6772779184072397
  0
VERTEX
  5
3E34
330
3E33
100
AcDbEntity
  8
LOGO
 62
     5
100
AcDbVertex
100
AcDb2dVertex
 10
1610.593312489611
 20
181.5229279128881
 30
0.0
 42
1.0
  0
VERTEX
  5
3E35
330
3E33
100
AcDbEntity
  8
LOGO
 62
     5
100
AcDbVertex
100
AcDb2dVertex
 10
1608.561478734389
 20
181.5229279128881
 30
0.0
 42
1.0
  0
SEQEND
  5
3E36
330
3E33
100
AcDbEntity
  8
LOGO
 62
     5
  0
POLYLINE
  5
3E37
330
1F
100
AcDbEntity
  8
LOGO
 62
     5
100
AcDb2dPolyline
 66
     1
 10
0.0
 20
0.0
 30
0.0
 40
0.6772779184072397
 41
0.6772779184072397
  0
VERTEX
  5
3E38
330
3E37
100
AcDbEntity
  8
LOGO
 62
     5
100
AcDbVertex
100
AcDb2dVertex
 10
1612.621895310823
 20
181.5229279128881
 30
0.0
 42
1.0
  0
VERTEX
  5
3E39
330
3E37
100
AcDbEntity
  8
LOGO
 62
     5
100
AcDbVertex
100
AcDb2dVertex
 10
1610.590061555601
 20
181.5229279128881
 30
0.0
 42
1.0
  0
SEQEND
  5
3E3A
330
3E37
100
AcDbEntity
  8
LOGO
 62
     5
  0
POLYLINE
  5
3E3B
330
1F
100
AcDbEntity
  8
LOGO
 62
     5
100
AcDb2dPolyline
 66
     1
 10
0.0
 20
0.0
 30
0.0
 40
0.6772779184072397
 41
0.6772779184072397
  0
VERTEX
  5
3E3C
330
3E3B
100
AcDbEntity
  8
LOGO
 62
     5
100
AcDbVertex
100
AcDb2dVertex
 10
1602.92973230763
 20
181.5229279128881
 30
0.0
 42
1.0
  0
VERTEX
  5
3E3D
330
3E3B
100
AcDbEntity
  8
LOGO
 62
     5
100
AcDbVertex
100
AcDb2dVertex
 10
1600.897898552409
 20
181.5229279128881
 30
0.0
 42
1.0
  0
SEQEND
  5
3E3E
330
3E3B
100
AcDbEntity
  8
LOGO
 62
     5
  0
SOLID
  5
3E3F
330
1F
100
AcDbEntity
  8
LOGO
 62
     5
100
AcDbTrace
 10
1600.561426882544
 20
182.8753164603636
 30
0.0
 11
1601.23762115628
 21
182.8753164603636
 31
0.0
 12
1600.561426882544
 22
179.4943450916752
 32
0.0
 13
1601.23762115628
 23
179.4943450916752
 33
0.0
  0
SOLID
  5
3E40
330
1F
100
AcDbEntity
  8
LOGO
 62
     5
100
AcDbTrace
 10
1602.590009703757
 20
181.5229279128881
 30
0.0
 11
1603.266203977496
 21
181.5229279128881
 31
0.0
 12
1602.590009703757
 22
179.4943450916752
 32
0.0
 13
1603.266203977496
 23
179.4943450916752
 33
0.0
  0
POLYLINE
  5
3E41
330
1F
100
AcDbEntity
  8
LOGO
 62
     5
100
AcDb2dPolyline
 66
     1
 10
0.0
 20
0.0
 30
0.0
 70
     1
 40
0.6772779184072397
 41
0.6772779184072397
  0
VERTEX
  5
3E42
330
3E41
100
AcDbEntity
  8
LOGO
 62
     5
100
AcDbVertex
100
AcDb2dVertex
 10
1604.391117303621
 20
181.1848307760189
 30
0.0
 42
1.0
  0
VERTEX
  5
3E43
330
3E41
100
AcDbEntity
  8
LOGO
 62
     5
100
AcDbVertex
100
AcDb2dVertex
 10
1607.100228977251
 20
181.1848307760189
 30
0.0
 42
1.0
  0
SEQEND
  5
3E44
330
3E41
100
AcDbEntity
  8
LOGO
 62
     5
  0
SOLID
  5
3E45
330
1F
100
AcDbEntity
  8
LOGO
 62
     5
100
AcDbTrace
 10
1606.759896931617
 20
183.8896078709708
 30
0.0
 11
1607.436091205354
 21
183.8896078709708
 31
0.0
 12
1606.759896931617
 22
179.4943450916752
 32
0.0
 13
1607.436091205354
 23
179.4943450916752
 33
0.0
  0
SOLID
  5
3E46
330
1F
100
AcDbEntity
  8
LOGO
 62
     5
100
AcDbTrace
 10
1608.225007064526
 20
182.8753164603636
 30
0.0
 11
1608.901201338262
 21
182.8753164603636
 31
0.0
 12
1608.225007064526
 22
179.4943450916752
 32
0.0
 13
1608.901201338262
 23
179.4943450916752
 33
0.0
  0
SOLID
  5
3E47
330
1F
100
AcDbEntity
  8
LOGO
 62
     5
100
AcDbTrace
 10
1610.253589885737
 20
181.5229279128881
 30
0.0
 11
1610.929784159475
 21
181.5229279128881
 31
0.0
 12
1610.253589885737
 22
179.4943450916752
 32
0.0
 13
1610.929784159475
 23
179.4943450916752
 33
0.0
  0
SOLID
  5
3E48
330
1F
100
AcDbEntity
  8
LOGO
 62
     5
100
AcDbTrace
 10
1612.282172706951
 20
181.5229279128881
 30
0.0
 11
1612.958366980688
 21
181.5229279128881
 31
0.0
 12
1612.282172706951
 22
179.4943450916742
 32
0.0
 13
1612.958366980688
 23
179.4943450916742
 33
0.0
  0
SOLID
  5
3E49
330
1F
100
AcDbEntity
  8
LOGO
 62
     5
100
AcDbTrace
 10
1599.096316749636
 20
183.3486524519802
 30
0.0
 11
1599.772511023375
 21
183.3486524519802
 31
0.0
 12
1599.096316749636
 22
183.8896078709708
 32
0.0
 13
1599.772511023375
 23
183.8896078709708
 33
0.0
  0
SOLID
  5
3E4A
330
1F
100
AcDbEntity
  8
LOGO
 62
     5
100
AcDbTrace
 10
1599.096316749636
 20
182.8753164603636
 30
0.0
 11
1599.772511023375
 21
182.8753164603636
 31
0.0
 12
1599.096316749636
 22
179.4943450916742
 32
0.0
 13
1599.772511023375
 23
179.4943450916752
 33
0.0
  0
SOLID
  5
3E4B
330
1F
100
AcDbEntity
  8
LOGO
 62
     5
100
AcDbTrace
 10
1605.745673140436
 20
186.2562878290525
 30
0.0
 11
1607.706636534276
 21
186.2562878290525
 31
0.0
 12
1605.745673140436
 22
196.1738038438729
 32
0.0
 13
1607.706636534276
 23
203.3640029546183
 33
0.0
  0
SOLID
  5
3E4C
330
1F
100
AcDbEntity
  8
LOGO
 62
     5
100
AcDbTrace
 10
1608.518069662763
 20
204.8516303568411
 30
0.0
 11
1610.479033056601
 21
204.8516303568422
 31
0.0
 12
1608.518069662763
 22
187.7439152312754
 32
0.0
 13
1610.479033056601
 23
194.9341143420207
 33
0.0
  0
SOLID
  5
3E4D
330
1F
100
AcDbEntity
  8
LOGO
 62
     2
100
AcDbTrace
 10
1607.706636534276
 20
204.8516303568411
 30
0.0
 11
1608.518069662763
 21
204.8516303568411
 31
0.0
 12
1607.706636534276
 22
186.2562878290525
 32
0.0
 13
1608.518069662763
 23
186.2562878290525
 33
0.0
  0
SOLID
  5
3E4E
330
1F
100
AcDbEntity
  8
LOGO
 62
     5
100
AcDbTrace
 10
1608.518069662763
 20
187.7439152312754
 30
0.0
 11
1610.479033056601
 21
194.9341143420207
 31
0.0
 12
1617.849550640343
 22
204.8516303568422
 32
0.0
 13
1615.888587246504
 23
204.8516303568422
 33
0.0
  0
SOLID
  5
3E4F
330
1F
100
AcDbEntity
  8
LOGO
 62
     5
100
AcDbTrace
 10
1608.518069662763
 20
186.2562878290525
 30
0.0
 11
1610.479033056601
 21
186.2562878290525
 31
0.0
 12
1617.849550640343
 22
203.3640029546183
 32
0.0
 13
1615.888587246504
 23
196.1738038438729
 33
0.0
  0
SOLID
  5
3E50
330
1F
100
AcDbEntity
  8
LOGO
 62
     2
100
AcDbTrace
 10
1607.706636534276
 20
186.2562878290525
 30
0.0
 11
1608.518069662763
 21
186.2562878290525
 31
0.0
 12
1617.849550640343
 22
204.8516303568422
 32
0.0
 13
1618.660983768829
 23
204.8516303568411
 33
0.0
  0
LWPOLYLINE
  5
3E51
330
1F
100
AcDbEntity
  8
LOGO
 62
     1
100
AcDbPolyline
 90
        4
 70
     1
 43
0.0
 10
1590.897267673892
 20
205.9289845300244
 10
2190.505350345765
 20
205.9289845300244
 10
2190.505350345765
 20
160.5755524938245
 10
1590.897267673892
 20
160.5755524938245
1001
GENIUS_GENREC_14
1002
{
1000
PYDIR
1011
1590.897267673892
1021
160.5755524938245
1031
0.0
1002
}
1002
{
1000
PXDIR
1011
2190.505350345765
1021
205.9289845300244
1031
0.0
1002
}
1002
{
1000
PORI
1011
1590.897267673892
1021
205.9289845300244
1031
0.0
1002
}
1002
{
1000
PINS
1011
1590.897267673892
1021
205.9289845300244
1031
0.0
1002
}
1002
{
1000
PINS2
1011
2190.505350345765
1021
160.5755524938245
1031
0.0
1002
}
1002
{
1000
C
1070
     1
1002
}
1001
GENIUS_GENOBJ-N-REC_13
1002
{
1000
OWNER
1000
GEN
1002
}
1001
GENIUS_GENODEF_13
1002
{
1000
HIER
1070
     0
1002
}
1002
{
1000
MANEDIT
1070
     0
1002
}
1002
{
1000
NOSEL
1070
     0
1002
}
1002
{
1000
BEHIND
1070
     0
1002
}
1002
{
1000
OTHER
1070
     0
1002
}
1002
{
1000
REACTOR
1002
}
  0
LINE
  5
3E52
330
1F
100
AcDbEntity
  8
LOGO
 62
     6
100
AcDbLine
 10
1802.551125293152
 20
180.9845969101154
 30
0.0
 11
1802.551125293152
 21
164.3550051635081
 31
0.0
  0
LINE
  5
3E53
330
1F
100
AcDbEntity
  8
LOGO
 62
     6
100
AcDbLine
 10
1772.315503935686
 20
180.9845969101154
 30
0.0
 11
1772.315503935686
 21
164.3550051635081
 31
0.0
  0
LINE
  5
3E54
330
1F
100
AcDbEntity
  8
LOGO
 62
     6
100
AcDbLine
 10
1802.551125293152
 20
164.3550051635081
 30
0.0
 11
1772.315503935686
 21
164.3550051635081
 31
0.0
  0
LINE
  5
3E55
330
1F
100
AcDbEntity
  8
LOGO
 62
     6
100
AcDbLine
 10
1820.490133865891
 20
201.3936413264042
 30
0.0
 11
1753.056451031823
 21
201.3936413264042
 31
0.0
  0
LINE
  5
3E56
330
1F
100
AcDbEntity
  8
LOGO
 62
     6
100
AcDbLine
 10
1820.490133865891
 20
187.7876117155447
 30
0.0
 11
1753.056451031823
 21
187.7876117155447
 31
0.0
  0
LINE
  5
3E57
330
1F
100
AcDbEntity
  8
LOGO
 62
     6
100
AcDbLine
 10
1753.056451031823
 20
201.3936413264042
 30
0.0
 11
1753.056451031823
 21
187.7876117155447
 31
0.0
  0
LINE
  5
3E58
330
1F
100
AcDbEntity
  8
LOGO
 62
     6
100
AcDbLine
 10
1820.490133865891
 20
201.3936413264042
 30
0.0
 11
1820.490133865891
 21
187.7876117155447
 31
0.0
  0
LINE
  5
3E59
330
1F
100
AcDbEntity
  8
LOGO
 62
     6
100
AcDbLine
 10
1787.156405256363
 20
187.7876117155447
 30
0.0
 11
1787.156405256363
 21
180.9845969101154
 31
0.0
  0
TEXT
  5
3E5A
330
1F
100
AcDbEntity
  8
LOGO
  6
Continuous
100
AcDbText
 10
1756.667149356236
 20
191.6718583593836
 30
0.0
 40
7.0
  1
MVBA-2100
  7
CHINESET
100
AcDbText
  0
LINE
  5
3E5B
330
1F
100
AcDbEntity
  8
LOGO
 62
     6
100
AcDbLine
 10
1802.551125293152
 20
180.9845969101154
 30
0.0
 11
1772.315503935686
 21
180.9845969101154
 31
0.0
  0
TEXT
  5
3E5C
330
1F
100
AcDbEntity
  8
LOGO
  6
Continuous
100
AcDbText
 10
1782.018019104776
 20
166.7022367746733
 30
297.238922023793
 40
3.401999999999999
  1
Model
 41
0.8
  7
CHINESET
100
AcDbText
  0
TEXT
  5
3E5D
330
1F
100
AcDbEntity
  8
LOGO
100
AcDbText
 10
1781.112517296994
 20
173.0088115913445
 30
297.238922023793
 40
5.669999999999999
  1
型號
  7
CHINESET
100
AcDbText
  0
TEXT
  5
3E5E
330
1F
100
AcDbEntity
  8
LOGO
100
AcDbText
 10
1691.264200874457
 20
162.9883371774386
 30
0.0
 40
4.536
  1
010103240
 41
0.7
  7
CHINESET
 72
     1
 11
1703.813800874457
 21
162.9883371774386
 31
0.0
100
AcDbText
  0
LINE
  5
3E5F
330
1F
100
AcDbEntity
  8
LOGO
 62
     1
100
AcDbLine
 10
1717.890818153528
 20
169.6462389010659
 30
0.0
 11
1717.89081815353
 21
160.5755524938255
 31
0.0
  0
LINE
  5
3E60
330
1F
100
AcDbEntity
  8
LOGO
 62
     1
100
AcDbLine
 10
1717.890818153528
 20
169.6462389010659
 30
0.0
 11
1690.67481815353
 21
169.6462389010659
 31
0.0
  0
CIRCLE
  5
3E61
330
1F
100
AcDbEntity
  8
LOGO
  6
Continuous
100
AcDbCircle
 10
1668.836952009326
 20
192.332656051466
 30
0.0
 40
2.633327013967192
  0
CIRCLE
  5
3E62
330
1F
100
AcDbEntity
  8
LOGO
  6
Continuous
100
AcDbCircle
 10
1668.836952009326
 20
192.332656051466
 30
0.0
 40
1.542896514933574
  0
LINE
  5
3E63
330
1F
100
AcDbEntity
  8
LOGO
100
AcDbLine
 10
1685.385084523441
 20
189.6993290374984
 30
0.0
 11
1685.385084523441
 21
194.9659830654337
 31
0.0
  0
LINE
  5
3E64
330
1F
100
AcDbEntity
  8
LOGO
100
AcDbLine
 10
1677.129755494838
 20
190.7897595365327
 30
0.0
 11
1677.129755494838
 21
193.8755525663999
 31
0.0
  0
LINE
  5
3E65
330
1F
100
AcDbEntity
  8
LOGO
  6
Continuous
100
AcDbLine
 10
1677.129755494838
 20
193.8755525663999
 30
0.0
 11
1685.385084523441
 21
194.9659830654337
 31
0.0
  0
LINE
  5
3E66
330
1F
100
AcDbEntity
  8
LOGO
  6
Continuous
100
AcDbLine
 10
1677.129755494838
 20
190.7897595365327
 30
0.0
 11
1685.385084523441
 21
189.6993290374984
 31
0.0
  0
LINE
  5
3E67
330
1F
100
AcDbEntity
  8
LOGO
  6
AM_ISO08W050x2
 48
0.3
100
AcDbLine
 10
1665.206871289605
 20
192.332656051466
 30
0.0
 11
1672.467032729047
 21
192.332656051466
 31
0.0
1001
GENIUS_GENOREF_13
1005
3E6C
  0
LINE
  5
3E68
330
1F
100
AcDbEntity
  8
LOGO
  6
AM_ISO08W050x2
 48
0.3
100
AcDbLine
 10
1668.836952009326
 20
188.7025753317452
 30
0.0
 11
1668.836952009326
 21
195.9627367711869
 31
0.0
1001
GENIUS_GENOREF_13
1005
3E6B
  0
LINE
  5
3E69
330
1F
100
AcDbEntity
  8
LOGO
  6
CENTER
 48
0.5
100
AcDbLine
 10
1676.469558628346
 20
192.332656051466
 30
0.0
 11
1686.216369432744
 21
192.332656051466
 31
0.0
1001
GENIUS_GENOREF_13
1005
3E6A
  0
POINT
  5
3E6A
330
1F
100
AcDbEntity
  8
0
 60
     1
100
AcDbPoint
 10
202.438319745158
 20
-733.0932690936419
 30
0.0
1001
GENIUS_GENOBJ-N-CRS_13
1002
{
1000
OWNER
1000
GEN
1002
}
1001
GENIUS_GENOLIS_13
1002
{
1000
ENT
1005
0
1005
0
1005
0
1005
3E69
1002
}
1001
GENIUS_GENOENT_13
1002
{
1000
MYREF
1005
3E6A
1002
}
1002
{
1000
GRP
1005
0
1002
}
1001
GENIUS_GENODEF_13
1002
{
1000
HIER
1070
    10
1002
}
1002
{
1000
MANEDIT
1070
     1
1002
}
1002
{
1000
NOSEL
1070
     0
1002
}
1002
{
1000
BEHIND
1070
     0
1002
}
1002
{
1000
OTHER
1070
     0
1002
}
1002
{
1000
REACTOR
1002
}
  0
POINT
  5
3E6B
330
1F
100
AcDbEntity
  8
0
 60
     1
100
AcDbPoint
 10
191.1137345223032
 20
-724.2176826150057
 30
0.0
1001
GENIUS_GENOBJ-N-CRS_13
1002
{
1000
OWNER
1000
GEN
1002
}
1001
GENIUS_GENOLIS_13
1002
{
1000
ENT
1005
0
1005
0
1005
0
1005
3E68
1002
}
1001
GENIUS_GENOENT_13
1002
{
1000
MYREF
1005
3E6B
1002
}
1002
{
1000
GRP
1005
0
1002
}
1001
GENIUS_GENODEF_13
1002
{
1000
HIER
1070
    10
1002
}
1002
{
1000
MANEDIT
1070
     1
1002
}
1002
{
1000
NOSEL
1070
     0
1002
}
1002
{
1000
BEHIND
1070
     0
1002
}
1002
{
1000
OTHER
1070
     0
1002
}
1002
{
1000
REACTOR
1002
}
  0
POINT
  5
3E6C
330
1F
100
AcDbEntity
  8
0
 60
     1
100
AcDbPoint
 10
197.4724082201401
 20
-733.0932690936419
 30
0.0
1001
GENIUS_GENOBJ-N-CRS_13
1002
{
1000
OWNER
1000
GEN
1002
}
1001
GENIUS_GENOLIS_13
1002
{
1000
ENT
1005
0
1005
0
1005
0
1005
3E67
1002
}
1001
GENIUS_GENOENT_13
1002
{
1000
MYREF
1005
3E6C
1002
}
1002
{
1000
GRP
1005
0
1002
}
1001
GENIUS_GENODEF_13
1002
{
1000
HIER
1070
    10
1002
}
1002
{
1000
MANEDIT
1070
     1
1002
}
1002
{
1000
NOSEL
1070
     0
1002
}
1002
{
1000
BEHIND
1070
     0
1002
}
1002
{
1000
OTHER
1070
     0
1002
}
1002
{
1000
REACTOR
1002
}
  0
LINE
  5
7750
330
1F
100
AcDbEntity
  8
AM_7
100
AcDbLine
 10
1769.646995227766
 20
380.4364620793011
 30
0.0
 11
1769.646995227766
 21
380.4364620793011
 31
0.0
  0
LINE
  5
7751
330
1F
100
AcDbEntity
  8
AM_7
100
AcDbLine
 10
1769.646995227766
 20
380.4364620793011
 30
0.0
 11
1769.646995227766
 21
380.4364620793011
 31
0.0
  0
LINE
  5
7752
330
1F
100
AcDbEntity
  8
AM_7
100
AcDbLine
 10
1759.308995227766
 20
380.4364620793011
 30
0.0
 11
1769.646995227766
 21
380.4364620793011
 31
0.0
  0
LINE
  5
7753
330
1F
100
AcDbEntity
  8
AM_7
100
AcDbLine
 10
1769.646995227766
 20
380.4364620793011
 30
0.0
 11
1779.984995227766
 21
380.4364620793011
 31
0.0
  0
LINE
  5
7754
330
1F
100
AcDbEntity
  8
AM_7
100
AcDbLine
 10
1769.646995227766
 20
370.098462079301
 30
0.0
 11
1769.646995227766
 21
380.4364620793011
 31
0.0
  0
LINE
  5
7755
330
1F
100
AcDbEntity
  8
AM_7
100
AcDbLine
 10
1769.646995227766
 20
380.4364620793011
 30
0.0
 11
1769.646995227766
 21
390.7744620793011
 31
0.0
  0
LINE
  5
7756
330
1F
100
AcDbEntity
  8
AM_7
100
AcDbLine
 10
1769.646995227766
 20
423.4364620793011
 30
0.0
 11
1769.646995227766
 21
423.4364620793011
 31
0.0
  0
LINE
  5
7757
330
1F
100
AcDbEntity
  8
AM_7
100
AcDbLine
 10
1769.646995227766
 20
423.4364620793011
 30
0.0
 11
1769.646995227766
 21
423.4364620793011
 31
0.0
  0
LINE
  5
7758
330
1F
100
AcDbEntity
  8
AM_7
100
AcDbLine
 10
1759.308995227766
 20
423.4364620793011
 30
0.0
 11
1769.646995227766
 21
423.4364620793011
 31
0.0
  0
LINE
  5
7759
330
1F
100
AcDbEntity
  8
AM_7
100
AcDbLine
 10
1769.646995227766
 20
423.4364620793011
 30
0.0
 11
1779.984995227766
 21
423.4364620793011
 31
0.0
  0
LINE
  5
775A
330
1F
100
AcDbEntity
  8
AM_7
100
AcDbLine
 10
1769.646995227766
 20
413.098462079301
 30
0.0
 11
1769.646995227766
 21
423.4364620793011
 31
0.0
  0
LINE
  5
775B
330
1F
100
AcDbEntity
  8
AM_7
100
AcDbLine
 10
1769.646995227766
 20
423.4364620793011
 30
0.0
 11
1769.646995227766
 21
433.774462079301
 31
0.0
  0
LINE
  5
775C
330
1F
100
AcDbEntity
  8
AM_7
100
AcDbLine
 10
1769.646995227766
 20
411.0364620793011
 30
0.0
 11
1769.646995227766
 21
429.936462079301
 31
0.0
  0
LINE
  5
775D
330
1F
100
AcDbEntity
  8
AM_7
100
AcDbLine
 10
1769.646995227765
 20
446.936462079301
 30
0.0
 11
1769.646995227765
 21
466.936462079301
 31
0.0
  0
LINE
  5
775E
330
1F
100
AcDbEntity
  8
AM_7
100
AcDbLine
 10
1769.646995227766
 20
463.9718449865489
 30
0.0
 11
1769.646995227766
 21
511.436462079301
 31
0.0
  0
LINE
  5
775F
330
1F
100
AcDbEntity
  8
AM_7
100
AcDbLine
 10
1632.796995227766
 20
403.436462079301
 30
0.0
 11
1920.146995227766
 21
403.436462079301
 31
0.0
  0
LINE
  5
7760
330
1F
100
AcDbEntity
  8
AM_7
100
AcDbLine
 10
1900.346995227766
 20
356.636462079301
 30
0.0
 11
1789.046995227766
 21
356.636462079301
 31
0.0
  0
LINE
  5
7761
330
1F
100
AcDbEntity
  8
AM_7
100
AcDbLine
 10
1750.246995227766
 20
356.636462079301
 30
0.0
 11
1638.946995227765
 21
356.636462079301
 31
0.0
  0
LINE
  5
7762
330
1F
100
AcDbEntity
  8
AM_7
100
AcDbLine
 10
1619.146995227766
 20
403.436462079301
 30
0.0
 11
1635.146995227766
 21
403.436462079301
 31
0.0
  0
LINE
  5
7763
330
1F
100
AcDbEntity
  8
AM_7
100
AcDbLine
 10
1907.146995227766
 20
352.0034493774089
 30
0.0
 11
1907.146995227766
 21
339.8694747811933
 31
0.0
  0
LINE
  5
7764
330
1F
100
AcDbEntity
  8
AM_7
100
AcDbLine
 10
1632.146995227766
 20
352.0034493774089
 30
0.0
 11
1632.146995227766
 21
339.8694747811933
 31
0.0
  0
LINE
  5
7765
330
1F
100
AcDbEntity
  8
AM_7
100
AcDbLine
 10
1784.646995227766
 20
472.436462079301
 30
0.0
 11
1784.646995227766
 21
434.436462079301
 31
0.0
  0
LINE
  5
7766
330
1F
100
AcDbEntity
  8
AM_7
100
AcDbLine
 10
1754.646995227766
 20
472.436462079301
 30
0.0
 11
1754.646995227766
 21
434.436462079301
 31
0.0
  0
ARC
  5
7767
330
1F
100
AcDbEntity
  8
AM_4
100
AcDbCircle
 10
1769.646995227766
 20
380.4364620793011
 30
0.0
 40
8.202999999999999
100
AcDbArc
 50
259.999999999995
 51
190.0000000000007
  0
ARC
  5
7768
330
1F
100
AcDbEntity
  8
AM_4
100
AcDbCircle
 10
1769.646995227766
 20
423.4364620793011
 30
0.0
 40
8.202999999999999
100
AcDbArc
 50
259.999999999995
 51
190.0000000000007
  0
LINE
  5
7769
330
1F
100
AcDbEntity
  8
AM_4
100
AcDbLine
 10
1911.354505227766
 20
342.8694747811933
 30
0.0
 11
1911.354505227766
 21
349.0034493774089
 31
0.0
  0
LINE
  5
776A
330
1F
100
AcDbEntity
  8
AM_4
100
AcDbLine
 10
1902.939485227766
 20
342.8694747811933
 30
0.0
 11
1902.939485227766
 21
349.0034493774089
 31
0.0
  0
LINE
  5
776B
330
1F
100
AcDbEntity
  8
AM_4
100
AcDbLine
 10
1636.354505227766
 20
342.8694747811933
 30
0.0
 11
1636.354505227766
 21
349.0034493774089
 31
0.0
  0
LINE
  5
776C
330
1F
100
AcDbEntity
  8
AM_4
100
AcDbLine
 10
1627.939485227766
 20
342.8694747811933
 30
0.0
 11
1627.939485227766
 21
349.0034493774089
 31
0.0
  0
LINE
  5
776D
330
1F
100
AcDbEntity
  8
AM_4
100
AcDbLine
 10
1787.956495227766
 20
437.436462079301
 30
0.0
 11
1787.956495227766
 21
443.9364620793011
 31
0.0
  0
LINE
  5
776E
330
1F
100
AcDbEntity
  8
AM_4
100
AcDbLine
 10
1781.337495227766
 20
437.436462079301
 30
0.0
 11
1781.337495227766
 21
443.9364620793011
 31
0.0
  0
LINE
  5
776F
330
1F
100
AcDbEntity
  8
AM_4
100
AcDbLine
 10
1757.956495227766
 20
437.436462079301
 30
0.0
 11
1757.956495227766
 21
443.9364620793011
 31
0.0
  0
LINE
  5
7770
330
1F
100
AcDbEntity
  8
AM_4
100
AcDbLine
 10
1751.337495227766
 20
437.436462079301
 30
0.0
 11
1751.337495227766
 21
443.9364620793011
 31
0.0
  0
LINE
  5
7771
330
1F
100
AcDbEntity
  8
AM_4
100
AcDbLine
 10
1787.956495227766
 20
449.936462079301
 30
0.0
 11
1787.956495227766
 21
456.4364620793011
 31
0.0
  0
LINE
  5
7772
330
1F
100
AcDbEntity
  8
AM_4
100
AcDbLine
 10
1781.337495227766
 20
449.936462079301
 30
0.0
 11
1781.337495227766
 21
456.4364620793011
 31
0.0
  0
LINE
  5
7773
330
1F
100
AcDbEntity
  8
AM_4
100
AcDbLine
 10
1757.956495227766
 20
449.936462079301
 30
0.0
 11
1757.956495227766
 21
456.4364620793011
 31
0.0
  0
LINE
  5
7774
330
1F
100
AcDbEntity
  8
AM_4
100
AcDbLine
 10
1751.337495227766
 20
449.936462079301
 30
0.0
 11
1751.337495227766
 21
456.4364620793011
 31
0.0
  0
LINE
  5
7775
330
1F
100
AcDbEntity
  8
AM_7
100
AcDbLine
 10
2043.776775808655
 20
446.936462079301
 30
0.0
 11
2043.776775808655
 21
511.436462079301
 31
0.0
  0
LINE
  5
7776
330
1F
100
AcDbEntity
  8
AM_7
100
AcDbLine
 10
1999.276775808655
 20
403.436462079301
 30
0.0
 11
1999.276775808655
 21
403.436462079301
 31
0.0
  0
LINE
  5
7777
330
1F
100
AcDbEntity
  8
AM_7
100
AcDbLine
 10
1999.276775808655
 20
403.436462079301
 30
0.0
 11
1999.276775808655
 21
403.436462079301
 31
0.0
  0
LINE
  5
7778
330
1F
100
AcDbEntity
  8
AM_7
100
AcDbLine
 10
1983.276775808655
 20
403.436462079301
 30
0.0
 11
1999.276775808655
 21
403.436462079301
 31
0.0
  0
LINE
  5
7779
330
1F
100
AcDbEntity
  8
AM_7
100
AcDbLine
 10
1999.276775808655
 20
403.436462079301
 30
0.0
 11
2015.276775808656
 21
403.436462079301
 31
0.0
  0
LINE
  5
777A
330
1F
100
AcDbEntity
  8
AM_7
100
AcDbLine
 10
1999.276775808655
 20
387.4364620793011
 30
0.0
 11
1999.276775808655
 21
403.436462079301
 31
0.0
  0
LINE
  5
777B
330
1F
100
AcDbEntity
  8
AM_7
100
AcDbLine
 10
1999.276775808655
 20
403.436462079301
 30
0.0
 11
1999.276775808655
 21
419.436462079301
 31
0.0
  0
LINE
  5
777C
330
1F
100
AcDbEntity
  8
AM_7
100
AcDbLine
 10
2083.276775808656
 20
403.436462079301
 30
0.0
 11
2083.276775808656
 21
403.436462079301
 31
0.0
  0
LINE
  5
777D
330
1F
100
AcDbEntity
  8
AM_7
100
AcDbLine
 10
2083.276775808656
 20
403.436462079301
 30
0.0
 11
2083.276775808656
 21
403.436462079301
 31
0.0
  0
LINE
  5
777E
330
1F
100
AcDbEntity
  8
AM_7
100
AcDbLine
 10
2067.276775808656
 20
403.436462079301
 30
0.0
 11
2083.276775808656
 21
403.436462079301
 31
0.0
  0
LINE
  5
777F
330
1F
100
AcDbEntity
  8
AM_7
100
AcDbLine
 10
2083.276775808656
 20
403.436462079301
 30
0.0
 11
2099.276775808656
 21
403.436462079301
 31
0.0
  0
LINE
  5
7780
330
1F
100
AcDbEntity
  8
AM_7
100
AcDbLine
 10
2083.276775808656
 20
387.4364620793011
 30
0.0
 11
2083.276775808656
 21
403.436462079301
 31
0.0
  0
LINE
  5
7781
330
1F
100
AcDbEntity
  8
AM_7
100
AcDbLine
 10
2083.276775808656
 20
403.436462079301
 30
0.0
 11
2083.276775808656
 21
419.436462079301
 31
0.0
  0
LINE
  5
7782
330
1F
100
AcDbEntity
  8
AM_7
100
AcDbLine
 10
2041.276775808656
 20
352.0034493774089
 30
0.0
 11
2041.276775808656
 21
339.8694747811933
 31
0.0
  0
LINE
  5
7783
330
1F
100
AcDbEntity
  8
AM_7
100
AcDbLine
 10
2010.276775808655
 20
472.436462079301
 30
0.0
 11
2010.276775808655
 21
434.436462079301
 31
0.0
  0
ARC
  5
7784
330
1F
100
AcDbEntity
  8
AM_4
100
AcDbCircle
 10
1999.276775808655
 20
403.436462079301
 30
0.0
 40
4.187999999999999
100
AcDbArc
 50
259.999999999995
 51
190.0000000000007
  0
LINE
  5
7785
330
1F
100
AcDbEntity
  8
AM_4
100
AcDbLine
 10
2037.069265808655
 20
342.8694747811933
 30
0.0
 11
2037.069265808655
 21
349.0034493774089
 31
0.0
  0
LINE
  5
7786
330
1F
100
AcDbEntity
  8
AM_4
100
AcDbLine
 10
2045.484285808655
 20
342.8694747811933
 30
0.0
 11
2045.484285808655
 21
349.0034493774089
 31
0.0
  0
ARC
  5
7787
330
1F
100
AcDbEntity
  8
AM_4
100
AcDbCircle
 10
2083.276775808656
 20
403.436462079301
 30
0.0
 40
4.187999999999999
100
AcDbArc
 50
259.999999999995
 51
190.0000000000007
  0
LINE
  5
7788
330
1F
100
AcDbEntity
  8
AM_4
100
AcDbLine
 10
2013.586275808656
 20
449.936462079301
 30
0.0
 11
2013.586275808656
 21
456.4364620793011
 31
0.0
  0
LINE
  5
7789
330
1F
100
AcDbEntity
  8
AM_4
100
AcDbLine
 10
2006.967275808655
 20
449.936462079301
 30
0.0
 11
2006.967275808655
 21
456.4364620793011
 31
0.0
  0
DIMENSION
  5
778A
330
1F
100
AcDbEntity
  8
DIM
100
AcDbDimension
  2
*D5
 10
1918.346995227766
 20
519.8169687818798
 30
0.0
 11
1769.846995227766
 21
522.8173624826673
 31
0.0
 70
    32
 71
     5
 42
297.0
  3
STANDARD
100
AcDbAlignedDimension
 13
1621.346995227766
 23
407.386462079301
 33
0.0
 14
1918.346995227766
 24
407.386462079301
 34
0.0
100
AcDbRotatedDimension
  0
LINE
  5
778B
330
1F
100
AcDbEntity
  8
AM_5
  6
HIDDEN
 48
8.0
100
AcDbLine
 10
1737.146995227766
 20
334.336462079301
 30
0.0
 11
1737.146995227766
 21
349.336462079301
 31
0.0
  0
LINE
  5
778C
330
1F
100
AcDbEntity
  8
AM_5
  6
HIDDEN
 48
8.0
100
AcDbLine
 10
1749.146995227766
 20
334.336462079301
 30
0.0
 11
1749.146995227766
 21
349.336462079301
 31
0.0
  0
LINE
  5
778D
330
1F
100
AcDbEntity
  8
AM_7
100
AcDbLine
 10
1743.146995227766
 20
354.3996789643281
 30
0.0
 11
1743.146995227766
 21
328.7696102452051
 31
0.0
  0
LINE
  5
778E
330
1F
100
AcDbEntity
  8
AM_5
  6
HIDDEN
 48
8.0
100
AcDbLine
 10
1802.146995227766
 20
334.336462079301
 30
0.0
 11
1802.146995227766
 21
349.336462079301
 31
0.0
  0
LINE
  5
778F
330
1F
100
AcDbEntity
  8
AM_5
  6
HIDDEN
 48
8.0
100
AcDbLine
 10
1790.146995227766
 20
334.336462079301
 30
0.0
 11
1790.146995227766
 21
349.336462079301
 31
0.0
  0
LINE
  5
7790
330
1F
100
AcDbEntity
  8
AM_7
100
AcDbLine
 10
1796.146995227766
 20
354.3996789643281
 30
0.0
 11
1796.146995227766
 21
328.7696102452051
 31
0.0
  0
DIMENSION
  5
7791
330
1F
100
AcDbEntity
  8
DIM
100
AcDbDimension
  2
*D6
 10
1796.146995227766
 20
316.769610245205
 30
0.0
 11
1769.646995227765
 21
319.769610245205
 31
0.0
 70
    32
 71
     5
 42
53.00000000000022
  3
STANDARD
100
AcDbAlignedDimension
 13
1743.146995227766
 23
328.7696102452051
 33
0.0
 14
1796.146995227766
 24
328.7696102452051
 34
0.0
100
AcDbRotatedDimension
  0
DIMENSION
  5
7792
330
1F
100
AcDbEntity
  8
DIM
100
AcDbDimension
  2
*D7
 10
1806.146995227766
 20
302.4577580060845
 30
0.0
 11
1769.646995227766
 21
305.4577580060845
 31
0.0
 70
    32
 71
     5
 42
73.0
  3
STANDARD
100
AcDbAlignedDimension
 13
1733.146995227766
 23
334.336462079301
 33
0.0
 14
1806.146995227766
 24
334.336462079301
 34
0.0
100
AcDbRotatedDimension
  0
DIMENSION
  5
7793
330
1F
100
AcDbEntity
  8
DIM
100
AcDbDimension
  2
*D8
 10
1824.491496593675
 20
334.336462079301
 30
0.0
 11
1824.491496593675
 21
323.136462079301
 31
0.0
 70
   160
 71
     5
 42
15.0
  3
STANDARD
100
AcDbAlignedDimension
 13
1806.146995227766
 23
349.336462079301
 33
0.0
 14
1806.146995227766
 24
334.336462079301
 34
0.0
 50
90.0
100
AcDbRotatedDimension
  0
LINE
  5
7794
330
1F
100
AcDbEntity
  8
AM_VIS
  6
HIDDEN
 48
15.0
100
AcDbLine
 10
2018.349527204041
 20
423.436462079301
 30
0.0
 11
1986.276775808655
 21
423.4364620793011
 31
0.0
  0
LINE
  5
7795
330
1F
100
AcDbEntity
  8
AM_VIS
  6
HIDDEN
 48
15.0
100
AcDbLine
 10
2018.349527204041
 20
380.4364620793011
 30
0.0
 11
1986.276775808655
 21
380.4364620793011
 31
0.0
  0
DIMENSION
  5
7796
330
1F
100
AcDbEntity
  8
DIM
100
AcDbDimension
  2
*D9
 10
1967.171759131572
 20
334.336462079301
 30
0.0
 11
1964.171759131572
 21
357.3864620793014
 31
0.0
 70
    32
 71
     5
 42
46.10000000000002
  3
STANDARD
100
AcDbAlignedDimension
 13
1986.276775808656
 23
380.4364620793011
 33
0.0
 14
1981.276775808655
 24
334.336462079301
 34
0.0
 50
90.0
100
AcDbRotatedDimension
  0
DIMENSION
  5
7797
330
1F
100
AcDbEntity
  8
DIM
100
AcDbDimension
  2
*D10
 10
1967.171759131572
 20
423.4364620793011
 30
0.0
 11
1964.171759131572
 21
401.9364620793013
 31
0.0
 70
    32
 71
     5
 42
43.0
  3
STANDARD
100
AcDbAlignedDimension
 13
1986.276775808656
 23
380.4364620793011
 33
0.0
 14
1986.276775808656
 24
423.4364620793011
 34
0.0
 50
90.0
100
AcDbRotatedDimension
  0
LEADER
  5
7798
330
1F
100
AcDbEntity
  8
0
100
AcDbLeader
  3
DAYUS-2
 76
     2
 10
1986.276775808655
 20
423.4364620793011
 30
0.0
 10
1966.089081951798
 20
423.4364620793011
 30
0.0
1001
ACAD
1000
DSTYLE
1002
{
1070
    41
1040
10.0
1070
   147
1040
1.5
1070
    77
1070
     0
1002
}
  0
TEXT
  5
7799
330
1F
100
AcDbEntity
  8
0
100
AcDbText
 10
1993.701863271069
 20
426.2040556107181
 30
0.0
 40
4.8
  1
IN port
  7
DAYUS
100
AcDbText
  0
LEADER
  5
779A
330
1F
100
AcDbEntity
  8
0
100
AcDbLeader
  3
DAYUS-2
 76
     2
 10
1973.110434876545
 20
380.4364620793011
 30
0.0
 10
1993.298128733403
 20
380.4364620793011
 30
0.0
211
-1.0
221
0.0000000000000001
231
0.0
1001
ACAD
1000
DSTYLE
1002
{
1070
    40
1040
1.0
1070
    41
1040
10.0
1070
   147
1040
1.5
1070
    77
1070
     0
1002
}
  0
TEXT
  5
779B
330
1F
100
AcDbEntity
  8
0
100
AcDbText
 10
1993.572696261501
 20
370.2559646272807
 30
0.0
 40
4.8
  1
OUT port
  7
DAYUS
100
AcDbText
  0
DIMENSION
  5
779C
330
1F
100
AcDbEntity
  8
DIM
100
AcDbDimension
  2
*D11
 10
2060.84120190484
 20
518.5871470108079
 30
0.0
 11
2043.776775808656
 21
521.5871470108079
 31
0.0
 70
    32
  1
%%c<>
 71
     5
 42
34.1288521923691
  3
STANDARD
100
AcDbAlignedDimension
 13
2026.712349712471
 23
506.5871470108079
 33
0.0
 14
2060.84120190484
 24
506.5871470108079
 34
0.0
100
AcDbRotatedDimension
1001
ACAD
1000
DSTYLE
1002
{
1070
   271
1070
     0
1002
}
  0
DIMENSION
  5
779D
330
1F
100
AcDbEntity
  8
DIM
100
AcDbDimension
  2
*D12
 10
1951.190175967726
 20
334.336462079301
 30
0.0
 11
1948.190175967726
 21
421.3864620793014
 31
0.0
 70
    32
 71
     5
 42
174.1
  3
STANDARD
100
AcDbAlignedDimension
 13
2028.076775808655
 23
508.436462079301
 33
0.0
 14
1981.276775808655
 24
334.336462079301
 34
0.0
 50
90.0
100
AcDbRotatedDimension
1001
ACAD
1000
DSTYLE
1002
{
1070
   271
1070
     0
1002
}
  0
LINE
  5
779E
330
1F
100
AcDbEntity
  8
AM_7
100
AcDbLine
 10
1991.276775808655
 20
354.4622418559129
 30
0.0
 11
1991.276775808655
 21
327.4805583533564
 31
0.0
  0
LINE
  5
779F
330
1F
100
AcDbEntity
  8
AM_7
100
AcDbLine
 10
2089.276775808656
 20
354.4622418559129
 30
0.0
 11
2089.276775808656
 21
327.4805583533564
 31
0.0
  0
LINE
  5
77A0
330
1F
100
AcDbEntity
  8
AM_5
  6
HIDDEN
 48
8.0
100
AcDbLine
 10
1985.281932563406
 20
349.336462079301
 30
0.0
 11
1985.281932563406
 21
334.336462079301
 31
0.0
  0
LINE
  5
77A1
330
1F
100
AcDbEntity
  8
AM_5
  6
HIDDEN
 48
8.0
100
AcDbLine
 10
1997.271619053905
 20
349.336462079301
 30
0.0
 11
1997.271619053905
 21
334.336462079301
 31
0.0
  0
LINE
  5
77A2
330
1F
100
AcDbEntity
  8
AM_5
  6
HIDDEN
 48
8.0
100
AcDbLine
 10
2083.281932563405
 20
349.336462079301
 30
0.0
 11
2083.281932563405
 21
334.336462079301
 31
0.0
  0
LINE
  5
77A3
330
1F
100
AcDbEntity
  8
AM_5
  6
HIDDEN
 48
8.0
100
AcDbLine
 10
2095.276775808656
 20
349.336462079301
 30
0.0
 11
2095.276775808656
 21
334.336462079301
 31
0.0
  0
DIMENSION
  5
77A4
330
1F
100
AcDbEntity
  8
DIM
100
AcDbDimension
  2
*D13
 10
2089.276775808656
 20
317.843403861276
 30
0.0
 11
2040.276775808656
 21
320.843403861276
 31
0.0
 70
    32
 71
     5
 42
98.00000000000023
  3
STANDARD
100
AcDbAlignedDimension
 13
1991.276775808655
 23
327.4805583533564
 33
0.0
 14
2089.276775808656
 24
327.4805583533564
 34
0.0
100
AcDbRotatedDimension
  0
DIMENSION
  5
77A5
330
1F
100
AcDbEntity
  8
DIM
100
AcDbDimension
  2
*D14
 10
2099.276775808656
 20
303.1177128454362
 30
0.0
 11
2040.276775808656
 21
306.1177128454362
 31
0.0
 70
    32
 71
     5
 42
118.0000000000002
  3
STANDARD
100
AcDbAlignedDimension
 13
1981.276775808655
 23
334.336462079301
 33
0.0
 14
2099.276775808656
 24
334.3364620793011
 34
0.0
100
AcDbRotatedDimension
  0
LINE
  5
77A6
330
1F
100
AcDbEntity
  8
AM_7
100
AcDbLine
 10
2158.276775808656
 20
352.3364620793011
 30
0.0
 11
2096.276775808656
 21
352.3364620793011
 31
0.0
  0
LINE
  5
77A7
330
1F
100
AcDbEntity
  8
AM_VIS
  6
HIDDEN
 48
15.0
100
AcDbLine
 10
2110.276775808656
 20
364.3364620793011
 30
0.0
 11
2099.276775808656
 21
364.3364620793011
 31
0.0
  0
LINE
  5
77A8
330
1F
100
AcDbEntity
  8
AM_VIS
  6
HIDDEN
 48
15.0
100
AcDbLine
 10
2099.276775808656
 20
340.3364620793011
 30
0.0
 11
2110.276775808656
 21
340.3364620793011
 31
0.0
  0
LINE
  5
77A9
330
1F
100
AcDbEntity
  8
AM_VIS
  6
HIDDEN
 48
15.0
100
AcDbLine
 10
2110.276775808656
 20
341.6790083758274
 30
0.0
 11
2099.276775808656
 21
341.6790083758274
 31
0.0
  0
LINE
  5
77AA
330
1F
100
AcDbEntity
  8
AM_VIS
  6
HIDDEN
 48
15.0
100
AcDbLine
 10
2099.276775808656
 20
350.9939157827747
 30
0.0
 11
2110.276775808656
 21
350.9939157827747
 31
0.0
  0
LINE
  5
77AB
330
1F
100
AcDbEntity
  8
AM_VIS
  6
HIDDEN
 48
15.0
100
AcDbLine
 10
2110.276775808656
 20
353.6790083758275
 30
0.0
 11
2099.276775808656
 21
353.6790083758275
 31
0.0
  0
LINE
  5
77AC
330
1F
100
AcDbEntity
  8
AM_VIS
  6
HIDDEN
 48
15.0
100
AcDbLine
 10
2099.276775808656
 20
362.9939157827747
 30
0.0
 11
2110.276775808656
 21
362.9939157827747
 31
0.0
  0
LINE
  5
77AD
330
1F
100
AcDbEntity
  8
AM_VIS
  6
HIDDEN
 48
15.0
100
AcDbLine
 10
2155.276775808656
 20
365.4864620793011
 30
0.0
 11
2110.276775808656
 21
365.4864620793011
 31
0.0
  0
LINE
  5
77AE
330
1F
100
AcDbEntity
  8
AM_VIS
  6
HIDDEN
 48
15.0
100
AcDbLine
 10
2155.276775808656
 20
339.1864620793011
 30
0.0
 11
2110.276775808656
 21
339.1864620793011
 31
0.0
  0
LINE
  5
77AF
330
1F
100
AcDbEntity
  8
AM_VIS
  6
HIDDEN
 48
15.0
100
AcDbLine
 10
2155.276775808656
 20
365.4864620793011
 30
0.0
 11
2155.276775808656
 21
339.1864620793011
 31
0.0
  0
LINE
  5
77B0
330
1F
100
AcDbEntity
  8
AM_VIS
  6
HIDDEN
 48
15.0
100
AcDbLine
 10
2110.276775808656
 20
353.6790083758275
 30
0.0
 11
2110.276775808656
 21
362.9939157827747
 31
0.0
  0
LINE
  5
77B1
330
1F
100
AcDbEntity
  8
AM_VIS
  6
HIDDEN
 48
15.0
100
AcDbLine
 10
2110.276775808656
 20
364.3364620793011
 30
0.0
 11
2110.276775808656
 21
365.4864620793011
 31
0.0
  0
LINE
  5
77B2
330
1F
100
AcDbEntity
  8
AM_VIS
  6
HIDDEN
 48
15.0
100
AcDbLine
 10
2110.276775808656
 20
339.1864620793011
 30
0.0
 11
2110.276775808656
 21
340.3364620793011
 31
0.0
  0
LINE
  5
77B3
330
1F
100
AcDbEntity
  8
AM_VIS
  6
HIDDEN
 48
15.0
100
AcDbLine
 10
2110.276775808656
 20
341.6790083758275
 30
0.0
 11
2110.276775808656
 21
350.9939157827747
 31
0.0
  0
DIMENSION
  5
77B4
330
1F
100
AcDbEntity
  8
DIM
100
AcDbDimension
  2
*D15
 10
2170.276775808656
 20
334.3364620793011
 30
0.0
 11
2167.276775808656
 21
343.3364620793014
 31
0.0
 70
    32
 71
     5
 42
18.0
  3
STANDARD
100
AcDbAlignedDimension
 13
2158.276775808656
 23
352.3364620793011
 33
0.0
 14
2099.276775808656
 24
334.3364620793011
 34
0.0
 50
90.0
100
AcDbRotatedDimension
  0
LINE
  5
77B5
330
1F
100
AcDbEntity
  8
DIM
100
AcDbLine
 10
1696.506680787496
 20
318.2120402595513
 30
0.0
 11
1730.663025034019
 21
318.2120402595513
 31
0.0
  0
LINE
  5
77B6
330
1F
100
AcDbEntity
  8
DIM
100
AcDbLine
 10
1730.663025034019
 20
318.2120402595513
 30
0.0
 11
1740.222607933068
 21
330.5429372618895
 31
0.0
  0
TRACE
  5
77B7
330
1F
100
AcDbEntity
  8
DIM
100
AcDbTrace
 10
1740.854862066774
 20
330.0527794247682
 30
0.0
 11
1739.590353799361
 21
331.0330950990107
 31
0.0
 12
1743.163554967559
 22
334.336462079301
 32
0.0
 13
1743.163554967559
 23
334.336462079301
 33
0.0
  0
MTEXT
  5
77B8
330
1F
100
AcDbEntity
  8
DIM
100
AcDbMText
 10
1725.063025034019
 20
321.0120402595513
 30
0.0
 40
5.6
 41
0.0
 71
     9
 72
     5
  1
4-%%c12
  7
DAYUS
 73
     1
 44
1.0
  0
LINE
  5
77B9
330
1F
100
AcDbEntity
  8
DIM
100
AcDbLine
 10
2152.525642579341
 20
318.6206199768317
 30
0.0
 11
2114.005770366793
 21
318.6206199768317
 31
0.0
  0
LINE
  5
77BA
330
1F
100
AcDbEntity
  8
DIM
100
AcDbLine
 10
2114.005770366793
 20
318.6206199768317
 30
0.0
 11
2101.971136406541
 21
336.3640042798323
 31
0.0
  0
TRACE
  5
77BB
330
1F
100
AcDbEntity
  8
DIM
100
AcDbTrace
 10
2102.633212703805
 20
336.8130643776837
 30
0.0
 11
2101.309060109278
 21
335.914944181981
 31
0.0
 12
2099.276775808656
 22
340.3364620793011
 32
0.0
 13
2099.276775808656
 23
340.3364620793011
 33
0.0
  0
MTEXT
  5
77BC
330
1F
100
AcDbEntity
  8
DIM
100
AcDbMText
 10
2116.13359892698
 20
319.6904903208768
 30
0.0
 40
5.6
 41
0.0
 71
     7
 72
     5
  1
EXH port
  7
DAYUS
 73
     1
 44
1.0
  0
LINE
  5
77BD
330
1F
100
AcDbEntity
  8
DIM
100
AcDbLine
 10
2150.367503199356
 20
377.2104726672808
 30
0.0
 11
2124.467503199356
 21
377.2104726672808
 31
0.0
  0
LINE
  5
77BE
330
1F
100
AcDbEntity
  8
DIM
100
AcDbLine
 10
2124.467503199356
 20
377.2104726672808
 30
0.0
 11
2120.631584830832
 21
369.7546904779758
 31
0.0
  0
TRACE
  5
77BF
330
1F
100
AcDbEntity
  8
DIM
100
AcDbTrace
 10
2119.920213433899
 20
370.1206832791409
 30
0.0
 11
2121.342956227766
 21
369.3886976768107
 31
0.0
 12
2118.435628015058
 22
365.4864620793011
 32
0.0
 13
2118.435628015058
 23
365.4864620793011
 33
0.0
  0
MTEXT
  5
77C0
330
1F
100
AcDbEntity
  8
DIM
100
AcDbMText
 10
2118.926495629432
 20
380.0104726672808
 30
0.0
 40
5.6
 41
0.0
 71
     7
 72
     5
  1
Silencer(option)
  7
DAYUS
 73
     1
 44
1.0
  0
LINE
  5
77C1
330
1F
100
AcDbEntity
  8
DIM
100
AcDbLine
 10
1976.784457672093
 20
480.2345449410394
 30
0.0
 11
2002.684457672094
 21
480.2345449410394
 31
0.0
  0
LINE
  5
77C2
330
1F
100
AcDbEntity
  8
DIM
100
AcDbLine
 10
2002.684457672094
 20
480.2345449410394
 30
0.0
 11
2007.515947808911
 21
473.3630163901223
 31
0.0
  0
TRACE
  5
77C3
330
1F
100
AcDbEntity
  8
DIM
100
AcDbTrace
 10
2006.861522093059
 20
472.9028783920056
 30
0.0
 11
2008.170373524764
 21
473.8231543882391
 31
0.0
 12
2010.276775808655
 22
469.436462079301
 32
0.0
 13
2010.276775808655
 23
469.436462079301
 33
0.0
  0
MTEXT
  5
77C4
330
1F
100
AcDbEntity
  8
DIM
100
AcDbMText
 10
2014.094796547847
 20
483.0345449410395
 30
0.0
 40
5.6
 41
0.0
 71
     9
 72
     5
  1
Pressure gauge
 73
     1
 44
1.0
  0
LINE
  5
77C5
330
1F
100
AcDbEntity
  8
AM_VIS
100
AcDbLine
 10
1766.3331358894
 20
376.0468907693065
 30
0.0
 11
1766.3331358894
 21
384.8260333892957
 31
0.0
  0
ARC
  5
77C6
330
1F
100
AcDbEntity
  8
AM_VIS
100
AcDbCircle
 10
1769.646991887839
 20
380.436453481712
 30
0.0
 40
5.499991125858992
100
AcDbArc
 50
232.9493890897916
 51
264.5910510629881
  0
ARC
  5
77C7
330
1F
100
AcDbEntity
  8
AM_VIS
100
AcDbCircle
 10
1769.646991887839
 20
380.4364706768901
 30
0.0
 40
5.499991125859072
100
AcDbArc
 50
95.40894893701183
 51
127.0506109102064
  0
ARC
  5
77C8
330
1F
100
AcDbEntity
  8
AM_VIS
100
AcDbCircle
 10
1769.646998567693
 20
380.4364534817119
 30
0.0
 40
5.499991125858916
100
AcDbArc
 50
275.4089489370119
 51
307.0506109102084
  0
LINE
  5
77C9
330
1F
100
AcDbEntity
  8
AM_VIS
100
AcDbLine
 10
1772.960854566131
 20
384.8260333892957
 30
0.0
 11
1772.960854566131
 21
376.0468907693064
 31
0.0
  0
ARC
  5
77CA
330
1F
100
AcDbEntity
  8
AM_VIS
100
AcDbCircle
 10
1769.646998567693
 20
380.4364706768901
 30
0.0
 40
5.499991125859093
100
AcDbArc
 50
52.94938908979357
 51
84.59105106298816
  0
ARC
  5
77CB
330
1F
100
AcDbEntity
  8
AM_VIS
100
AcDbCircle
 10
1781.03312744391
 20
375.5539343544716
 30
0.0
 40
10.8838444248527
100
AcDbArc
 50
183.1231788976889
 51
192.8177665368904
  0
ARC
  5
77CC
330
1F
100
AcDbEntity
  8
AM_VIS
100
AcDbCircle
 10
1758.260863012051
 20
375.5539343544533
 30
0.0
 40
10.88384442442338
100
AcDbArc
 50
347.1822334626987
 51
356.8768211022851
  0
ARC
  5
77CD
330
1F
100
AcDbEntity
  8
AM_VIS
100
AcDbCircle
 10
1781.03312744391
 20
385.3189898041305
 30
0.0
 40
10.88384442485277
100
AcDbArc
 50
167.1822334631096
 51
176.8768211023111
  0
ARC
  5
77CE
330
1F
100
AcDbEntity
  8
AM_VIS
100
AcDbCircle
 10
1758.26086301205
 20
385.3189898041487
 30
0.0
 40
10.883844424424
100
AcDbArc
 50
3.123178897714927
 51
12.81776653730124
  0
LINE
  5
77CF
330
1F
100
AcDbEntity
  8
AM_VIS
100
AcDbLine
 10
1793.146995227766
 20
365.4364620793011
 30
0.0
 11
1746.146995227766
 21
365.4364620793011
 31
0.0
  0
LINE
  5
77D0
330
1F
100
AcDbEntity
  8
AM_VIS
100
AcDbLine
 10
1746.146995227766
 20
440.436462079301
 30
0.0
 11
1793.146995227766
 21
440.436462079301
 31
0.0
  0
LINE
  5
77D1
330
1F
100
AcDbEntity
  8
AM_VIS
100
AcDbLine
 10
1746.146995227766
 20
441.436462079301
 30
0.0
 11
1745.646995227766
 21
440.936462079301
 31
0.0
  0
LINE
  5
77D2
330
1F
100
AcDbEntity
  8
AM_VIS
100
AcDbLine
 10
1793.146995227766
 20
441.436462079301
 30
0.0
 11
1746.146995227766
 21
441.436462079301
 31
0.0
  0
LINE
  5
77D3
330
1F
100
AcDbEntity
  8
AM_VIS
100
AcDbLine
 10
1793.146995227766
 20
441.436462079301
 30
0.0
 11
1793.646995227766
 21
440.936462079301
 31
0.0
  0
LINE
  5
77D4
330
1F
100
AcDbEntity
  8
AM_VIS
100
AcDbLine
 10
1745.146995227766
 20
396.9364620793011
 30
0.0
 11
1745.146995227766
 21
365.4364620793011
 31
0.0
  0
LINE
  5
77D5
330
1F
100
AcDbEntity
  8
AM_VIS
100
AcDbLine
 10
1746.146995227766
 20
365.4364620793011
 30
0.0
 11
1746.146995227766
 21
396.9364620793011
 31
0.0
  0
LINE
  5
77D6
330
1F
100
AcDbEntity
  8
AM_VIS
100
AcDbLine
 10
1745.146995227766
 20
365.4364620793011
 30
0.0
 11
1746.146995227766
 21
365.4364620793011
 31
0.0
  0
LINE
  5
77D7
330
1F
100
AcDbEntity
  8
AM_VIS
100
AcDbLine
 10
1793.146995227766
 20
396.9364620793011
 30
0.0
 11
1793.146995227766
 21
365.4364620793011
 31
0.0
  0
LINE
  5
77D8
330
1F
100
AcDbEntity
  8
AM_VIS
100
AcDbLine
 10
1794.146995227766
 20
365.4364620793011
 30
0.0
 11
1794.146995227766
 21
396.9364620793011
 31
0.0
  0
LINE
  5
77D9
330
1F
100
AcDbEntity
  8
AM_VIS
100
AcDbLine
 10
1793.146995227766
 20
365.4364620793011
 30
0.0
 11
1794.146995227766
 21
365.4364620793011
 31
0.0
  0
LINE
  5
77DA
330
1F
100
AcDbEntity
  8
AM_VIS
100
AcDbLine
 10
1793.146995227766
 20
397.9364620793011
 30
0.0
 11
1746.146995227766
 21
397.9364620793011
 31
0.0
  0
LINE
  5
77DB
330
1F
100
AcDbEntity
  8
AM_VIS
100
AcDbLine
 10
1746.146995227766
 20
396.9364620793011
 30
0.0
 11
1793.146995227766
 21
396.9364620793011
 31
0.0
  0
LINE
  5
77DC
330
1F
100
AcDbEntity
  8
AM_VIS
100
AcDbLine
 10
1745.146995227766
 20
409.936462079301
 30
0.0
 11
1745.146995227766
 21
407.901462079301
 31
0.0
  0
LINE
  5
77DD
330
1F
100
AcDbEntity
  8
AM_VIS
100
AcDbLine
 10
1745.146995227766
 20
398.9714620793011
 30
0.0
 11
1745.146995227766
 21
396.9364620793011
 31
0.0
  0
LINE
  5
77DE
330
1F
100
AcDbEntity
  8
AM_VIS
100
AcDbLine
 10
1746.146995227766
 20
397.9364620793011
 30
0.0
 11
1746.146995227766
 21
398.9714620793011
 31
0.0
  0
LINE
  5
77DF
330
1F
100
AcDbEntity
  8
AM_VIS
100
AcDbLine
 10
1746.146995227766
 20
407.901462079301
 30
0.0
 11
1746.146995227766
 21
408.936462079301
 31
0.0
  0
LINE
  5
77E0
330
1F
100
AcDbEntity
  8
AM_VIS
100
AcDbLine
 10
1794.146995227766
 20
396.9364620793011
 30
0.0
 11
1794.146995227766
 21
398.9714620793011
 31
0.0
  0
LINE
  5
77E1
330
1F
100
AcDbEntity
  8
AM_VIS
100
AcDbLine
 10
1794.146995227766
 20
407.901462079301
 30
0.0
 11
1794.146995227766
 21
409.936462079301
 31
0.0
  0
LINE
  5
77E2
330
1F
100
AcDbEntity
  8
AM_VIS
100
AcDbLine
 10
1793.146995227766
 20
408.936462079301
 30
0.0
 11
1793.146995227766
 21
407.901462079301
 31
0.0
  0
LINE
  5
77E3
330
1F
100
AcDbEntity
  8
AM_VIS
100
AcDbLine
 10
1793.146995227766
 20
398.9714620793011
 30
0.0
 11
1793.146995227766
 21
397.9364620793011
 31
0.0
  0
LINE
  5
77E4
330
1F
100
AcDbEntity
  8
AM_VIS
100
AcDbLine
 10
1746.146995227766
 20
440.436462079301
 30
0.0
 11
1745.646995227766
 21
440.936462079301
 31
0.0
  0
LINE
  5
77E5
330
1F
100
AcDbEntity
  8
AM_VIS
100
AcDbLine
 10
1746.146995227766
 20
409.936462079301
 30
0.0
 11
1746.146995227766
 21
440.436462079301
 31
0.0
  0
LINE
  5
77E6
330
1F
100
AcDbEntity
  8
AM_VIS
100
AcDbLine
 10
1745.146995227766
 20
440.436462079301
 30
0.0
 11
1745.146995227766
 21
409.936462079301
 31
0.0
  0
LINE
  5
77E7
330
1F
100
AcDbEntity
  8
AM_VIS
100
AcDbLine
 10
1745.646995227766
 20
440.936462079301
 30
0.0
 11
1745.146995227766
 21
440.436462079301
 31
0.0
  0
LINE
  5
77E8
330
1F
100
AcDbEntity
  8
AM_VIS
100
AcDbLine
 10
1746.146995227766
 20
408.936462079301
 30
0.0
 11
1793.146995227766
 21
408.936462079301
 31
0.0
  0
LINE
  5
77E9
330
1F
100
AcDbEntity
  8
AM_VIS
100
AcDbLine
 10
1793.146995227766
 20
409.936462079301
 30
0.0
 11
1746.146995227766
 21
409.936462079301
 31
0.0
  0
LINE
  5
77EA
330
1F
100
AcDbEntity
  8
AM_VIS
100
AcDbLine
 10
1794.146995227766
 20
440.436462079301
 30
0.0
 11
1793.646995227766
 21
440.936462079301
 31
0.0
  0
LINE
  5
77EB
330
1F
100
AcDbEntity
  8
AM_VIS
100
AcDbLine
 10
1794.146995227766
 20
409.936462079301
 30
0.0
 11
1794.146995227766
 21
440.436462079301
 31
0.0
  0
LINE
  5
77EC
330
1F
100
AcDbEntity
  8
AM_VIS
100
AcDbLine
 10
1793.146995227766
 20
440.436462079301
 30
0.0
 11
1793.146995227766
 21
409.936462079301
 31
0.0
  0
LINE
  5
77ED
330
1F
100
AcDbEntity
  8
AM_VIS
100
AcDbLine
 10
1793.646995227766
 20
440.936462079301
 30
0.0
 11
1793.146995227766
 21
440.436462079301
 31
0.0
  0
LINE
  5
77EE
330
1F
100
AcDbEntity
  8
AM_VIS
100
AcDbLine
 10
1793.146995227766
 20
409.936462079301
 30
0.0
 11
1793.146995227766
 21
408.936462079301
 31
0.0
  0
LINE
  5
77EF
330
1F
100
AcDbEntity
  8
AM_VIS
100
AcDbLine
 10
1793.146995227766
 20
409.936462079301
 30
0.0
 11
1794.146995227766
 21
409.936462079301
 31
0.0
  0
LINE
  5
77F0
330
1F
100
AcDbEntity
  8
AM_VIS
100
AcDbLine
 10
1793.146995227766
 20
408.936462079301
 30
0.0
 11
1794.146995227766
 21
409.936462079301
 31
0.0
  0
LINE
  5
77F1
330
1F
100
AcDbEntity
  8
AM_VIS
100
AcDbLine
 10
1746.146995227766
 20
409.936462079301
 30
0.0
 11
1745.146995227766
 21
409.936462079301
 31
0.0
  0
LINE
  5
77F2
330
1F
100
AcDbEntity
  8
AM_VIS
100
AcDbLine
 10
1746.146995227766
 20
409.936462079301
 30
0.0
 11
1746.146995227766
 21
408.936462079301
 31
0.0
  0
LINE
  5
77F3
330
1F
100
AcDbEntity
  8
AM_VIS
100
AcDbLine
 10
1745.146995227766
 20
409.936462079301
 30
0.0
 11
1746.146995227766
 21
408.936462079301
 31
0.0
  0
LINE
  5
77F4
330
1F
100
AcDbEntity
  8
AM_VIS
100
AcDbLine
 10
1793.146995227766
 20
397.9364620793011
 30
0.0
 11
1793.146995227766
 21
396.9364620793011
 31
0.0
  0
LINE
  5
77F5
330
1F
100
AcDbEntity
  8
AM_VIS
100
AcDbLine
 10
1793.146995227766
 20
397.9364620793011
 30
0.0
 11
1794.146995227766
 21
396.9364620793011
 31
0.0
  0
LINE
  5
77F6
330
1F
100
AcDbEntity
  8
AM_VIS
100
AcDbLine
 10
1793.146995227766
 20
396.9364620793011
 30
0.0
 11
1794.146995227766
 21
396.9364620793011
 31
0.0
  0
LINE
  5
77F7
330
1F
100
AcDbEntity
  8
AM_VIS
100
AcDbLine
 10
1745.146995227766
 20
396.9364620793011
 30
0.0
 11
1746.146995227766
 21
397.9364620793011
 31
0.0
  0
LINE
  5
77F8
330
1F
100
AcDbEntity
  8
AM_VIS
100
AcDbLine
 10
1746.146995227766
 20
397.9364620793011
 30
0.0
 11
1746.146995227766
 21
396.9364620793011
 31
0.0
  0
LINE
  5
77F9
330
1F
100
AcDbEntity
  8
AM_VIS
100
AcDbLine
 10
1745.146995227766
 20
396.9364620793011
 30
0.0
 11
1746.146995227766
 21
396.9364620793011
 31
0.0
  0
LINE
  5
77FA
330
1F
100
AcDbEntity
  8
AM_VIS
100
AcDbLine
 10
1768.92189290853
 20
434.936462079301
 30
0.0
 11
1768.92189290853
 21
438.436462079301
 31
0.0
  0
LINE
  5
77FB
330
1F
100
AcDbEntity
  8
AM_VIS
100
AcDbLine
 10
1768.92189290853
 20
438.436462079301
 30
0.0
 11
1769.396995227766
 21
438.436462079301
 31
0.0
  0
LINE
  5
77FC
330
1F
100
AcDbEntity
  8
AM_VIS
100
AcDbLine
 10
1769.396995227766
 20
438.436462079301
 30
0.0
 11
1771.23533083486
 21
435.6885084640214
 31
0.0
  0
LINE
  5
77FD
330
1F
100
AcDbEntity
  8
AM_VIS
100
AcDbLine
 10
1771.23533083486
 20
435.6885084640214
 30
0.0
 11
1771.23533083486
 21
438.436462079301
 31
0.0
  0
LINE
  5
77FE
330
1F
100
AcDbEntity
  8
AM_VIS
100
AcDbLine
 10
1771.23533083486
 20
438.436462079301
 30
0.0
 11
1771.679396319171
 21
438.436462079301
 31
0.0
  0
LINE
  5
77FF
330
1F
100
AcDbEntity
  8
AM_VIS
100
AcDbLine
 10
1771.679396319171
 20
438.436462079301
 30
0.0
 11
1771.679396319171
 21
434.936462079301
 31
0.0
  0
LINE
  5
7800
330
1F
100
AcDbEntity
  8
AM_VIS
100
AcDbLine
 10
1771.679396319171
 20
434.936462079301
 30
0.0
 11
1771.204293999935
 21
434.936462079301
 31
0.0
  0
LINE
  5
7801
330
1F
100
AcDbEntity
  8
AM_VIS
100
AcDbLine
 10
1771.204293999935
 20
434.936462079301
 30
0.0
 11
1769.365958392841
 21
437.6868031434211
 31
0.0
  0
LINE
  5
7802
330
1F
100
AcDbEntity
  8
AM_VIS
100
AcDbLine
 10
1769.365958392841
 20
437.6868031434211
 30
0.0
 11
1769.365958392841
 21
434.936462079301
 31
0.0
  0
LINE
  5
7803
330
1F
100
AcDbEntity
  8
AM_VIS
100
AcDbLine
 10
1769.365958392841
 20
434.936462079301
 30
0.0
 11
1768.92189290853
 21
434.936462079301
 31
0.0
  0
LINE
  5
7804
330
1F
100
AcDbEntity
  8
AM_VIS
100
AcDbLine
 10
1767.646995227766
 20
434.936462079301
 30
0.0
 11
1767.646995227766
 21
438.436462079301
 31
0.0
  0
LINE
  5
7805
330
1F
100
AcDbEntity
  8
AM_VIS
100
AcDbLine
 10
1767.646995227766
 20
438.436462079301
 30
0.0
 11
1768.1101603028
 21
438.436462079301
 31
0.0
  0
LINE
  5
7806
330
1F
100
AcDbEntity
  8
AM_VIS
100
AcDbLine
 10
1768.1101603028
 20
438.436462079301
 30
0.0
 11
1768.1101603028
 21
434.936462079301
 31
0.0
  0
LINE
  5
7807
330
1F
100
AcDbEntity
  8
AM_VIS
100
AcDbLine
 10
1768.1101603028
 20
434.936462079301
 30
0.0
 11
1767.646995227766
 21
434.936462079301
 31
0.0
  0
LINE
  5
7808
330
1F
100
AcDbEntity
  8
AM_VIS
100
AcDbLine
 10
1772.731372287753
 20
390.9941417101514
 30
0.0
 11
1772.731372287753
 21
393.9773322177322
 31
0.0
  0
LINE
  5
7809
330
1F
100
AcDbEntity
  8
AM_VIS
100
AcDbLine
 10
1772.731372287753
 20
393.9773322177322
 30
0.0
 11
1771.617001819724
 21
393.9773322177322
 31
0.0
  0
LINE
  5
780A
330
1F
100
AcDbEntity
  8
AM_VIS
100
AcDbLine
 10
1771.617001819724
 20
393.9773322177322
 30
0.0
 11
1771.617001819724
 21
394.3764752632167
 31
0.0
  0
LINE
  5
780B
330
1F
100
AcDbEntity
  8
AM_VIS
100
AcDbLine
 10
1771.617001819724
 20
394.3764752632167
 30
0.0
 11
1774.297951061648
 21
394.3764752632167
 31
0.0
  0
LINE
  5
780C
330
1F
100
AcDbEntity
  8
AM_VIS
100
AcDbLine
 10
1774.297951061648
 20
394.3764752632167
 30
0.0
 11
1774.297951061648
 21
393.9773322177322
 31
0.0
  0
LINE
  5
780D
330
1F
100
AcDbEntity
  8
AM_VIS
100
AcDbLine
 10
1774.297951061648
 20
393.9773322177322
 30
0.0
 11
1773.178966223152
 21
393.9773322177322
 31
0.0
  0
LINE
  5
780E
330
1F
100
AcDbEntity
  8
AM_VIS
100
AcDbLine
 10
1773.178966223152
 20
393.9773322177322
 30
0.0
 11
1773.178966223152
 21
390.9941417101514
 31
0.0
  0
LINE
  5
780F
330
1F
100
AcDbEntity
  8
AM_VIS
100
AcDbLine
 10
1773.178966223152
 20
390.9941417101514
 30
0.0
 11
1772.731372287753
 21
390.9941417101514
 31
0.0
  0
SPLINE
  5
7810
330
1F
100
AcDbEntity
  8
AM_VIS
100
AcDbSpline
210
0.0
220
0.0
230
1.0
 70
     8
 71
     3
 72
     8
 73
     4
 74
     0
 42
0.0000000001
 43
0.0000000001
 40
0.0
 40
0.0
 40
0.0
 40
0.0
 40
80.0
 40
80.0
 40
80.0
 40
80.0
 10
1765.108432274569
 20
392.6345504115358
 30
0.0
 10
1765.108432274569
 20
392.2269476751249
 30
0.0
 10
1765.218023573184
 20
391.9058643849896
 30
0.0
 10
1765.437206170416
 20
391.6713005763347
 30
0.0
  0
SPLINE
  5
7811
330
1F
100
AcDbEntity
  8
AM_VIS
100
AcDbSpline
210
0.0
220
0.0
230
1.0
 70
     8
 71
     3
 72
     8
 73
     4
 74
     0
 42
0.0000000001
 43
0.0000000001
 40
0.0
 40
0.0
 40
0.0
 40
0.0
 40
80.0
 40
80.0
 40
80.0
 40
80.0
 10
1765.437206170416
 20
391.6713005763347
 30
0.0
 10
1765.656388767647
 20
391.436736732475
 30
0.0
 10
1765.931328317897
 20
391.3194548281475
 30
0.0
 10
1766.262024891576
 20
391.3194548281475
 30
0.0
  0
SPLINE
  5
7812
330
1F
100
AcDbEntity
  8
AM_VIS
100
AcDbSpline
210
0.0
220
0.0
230
1.0
 70
     8
 71
     3
 72
     8
 73
     4
 74
     0
 42
0.0000000001
 43
0.0000000001
 40
0.0
 40
0.0
 40
0.0
 40
0.0
 40
80.0
 40
80.0
 40
80.0
 40
80.0
 10
1766.262024891576
 20
391.3194548281475
 30
0.0
 10
1766.598873935742
 20
391.3194548281475
 30
0.0
 10
1766.876120671226
 20
391.437890325092
 30
0.0
 10
1767.093765168438
 20
391.6747613541857
 30
0.0
  0
SPLINE
  5
7813
330
1F
100
AcDbEntity
  8
AM_VIS
100
AcDbSpline
210
0.0
220
0.0
230
1.0
 70
     8
 71
     3
 72
     8
 73
     4
 74
     0
 42
0.0000000001
 43
0.0000000001
 40
0.0
 40
0.0
 40
0.0
 40
0.0
 40
80.0
 40
80.0
 40
80.0
 40
80.0
 10
1767.093765168438
 20
391.6747613541857
 30
0.0
 10
1767.311409630445
 20
391.9116323480746
 30
0.0
 10
1767.420231879051
 20
392.247712342231
 30
0.0
 10
1767.420231879051
 20
392.6830013014501
 30
0.0
  0
SPLINE
  5
7814
330
1F
100
AcDbEntity
  8
AM_VIS
100
AcDbSpline
210
0.0
220
0.0
230
1.0
 70
     8
 71
     3
 72
     8
 73
     4
 74
     0
 42
0.0000000001
 43
0.0000000001
 40
0.0
 40
0.0
 40
0.0
 40
0.0
 40
80.0
 40
80.0
 40
80.0
 40
80.0
 10
1767.420231879051
 20
392.6830013014501
 30
0.0
 10
1767.420231879051
 20
392.9583253943075
 30
0.0
 10
1767.373703631764
 20
393.1986571660474
 30
0.0
 10
1767.280647172393
 20
393.4039966870796
 30
0.0
  0
SPLINE
  5
7815
330
1F
100
AcDbEntity
  8
AM_VIS
100
AcDbSpline
210
0.0
220
0.0
230
1.0
 70
     8
 71
     3
 72
     8
 73
     4
 74
     0
 42
0.0000000001
 43
0.0000000001
 40
0.0
 40
0.0
 40
0.0
 40
0.0
 40
80.0
 40
80.0
 40
80.0
 40
80.0
 10
1767.280647172393
 20
393.4039966870796
 30
0.0
 10
1767.187590677818
 20
393.6093361729069
 30
0.0
 10
1767.051466749012
 20
393.7685319540539
 30
0.0
 10
1766.872275385973
 20
393.8815840305206
 30
0.0
  0
SPLINE
  5
7816
330
1F
100
AcDbEntity
  8
AM_VIS
100
AcDbSpline
210
0.0
220
0.0
230
1.0
 70
     8
 71
     3
 72
     8
 73
     4
 74
     0
 42
0.0000000001
 43
0.0000000001
 40
0.0
 40
0.0
 40
0.0
 40
0.0
 40
80.0
 40
80.0
 40
80.0
 40
80.0
 10
1766.872275385973
 20
393.8815840305206
 30
0.0
 10
1766.693083987729
 20
393.9946361069873
 30
0.0
 10
1766.491974329763
 20
394.0511621452206
 30
0.0
 10
1766.268946447278
 20
394.0511621452206
 30
0.0
  0
SPLINE
  5
7817
330
1F
100
AcDbEntity
  8
AM_VIS
100
AcDbSpline
210
0.0
220
0.0
230
1.0
 70
     8
 71
     3
 72
     8
 73
     4
 74
     0
 42
0.0000000001
 43
0.0000000001
 40
0.0
 40
0.0
 40
0.0
 40
0.0
 40
80.0
 40
80.0
 40
80.0
 40
80.0
 10
1766.268946447278
 20
394.0511621452206
 30
0.0
 10
1765.952092985003
 20
394.0511621452206
 30
0.0
 10
1765.679460619987
 20
393.9423398966147
 30
0.0
 10
1765.45104928182
 20
393.7246954346076
 30
0.0
  0
SPLINE
  5
7818
330
1F
100
AcDbEntity
  8
AM_VIS
100
AcDbSpline
210
0.0
220
0.0
230
1.0
 70
     8
 71
     3
 72
     8
 73
     4
 74
     0
 42
0.0000000001
 43
0.0000000001
 40
0.0
 40
0.0
 40
0.0
 40
0.0
 40
80.0
 40
80.0
 40
80.0
 40
80.0
 10
1765.45104928182
 20
393.7246954346076
 30
0.0
 10
1765.222637943652
 20
393.5070509373957
 30
0.0
 10
1765.108432274569
 20
393.1436692630384
 30
0.0
 10
1765.108432274569
 20
392.6345504115358
 30
0.0
  0
SPLINE
  5
7819
330
1F
100
AcDbEntity
  8
AM_VIS
100
AcDbSpline
210
0.0
220
0.0
230
1.0
 70
     8
 71
     3
 72
     8
 73
     4
 74
     0
 42
0.0000000001
 43
0.0000000001
 40
0.0
 40
0.0
 40
0.0
 40
0.0
 40
80.0
 40
80.0
 40
80.0
 40
80.0
 10
1764.646995227766
 20
392.6414719672377
 30
0.0
 10
1764.646995227766
 20
393.2028870291131
 30
0.0
 10
1764.797731317986
 20
393.6424058161928
 30
0.0
 10
1765.099203533633
 20
393.9600283284771
 30
0.0
  0
SPLINE
  5
781A
330
1F
100
AcDbEntity
  8
AM_VIS
100
AcDbSpline
210
0.0
220
0.0
230
1.0
 70
     8
 71
     3
 72
     8
 73
     4
 74
     0
 42
0.0000000001
 43
0.0000000001
 40
0.0
 40
0.0
 40
0.0
 40
0.0
 40
80.0
 40
80.0
 40
80.0
 40
80.0
 10
1765.099203533633
 20
393.9600283284771
 30
0.0
 10
1765.400675714074
 20
394.2776508055565
 30
0.0
 10
1765.789820968613
 20
394.436462079301
 30
0.0
 10
1766.266639262044
 20
394.436462079301
 30
0.0
  0
SPLINE
  5
781B
330
1F
100
AcDbEntity
  8
AM_VIS
100
AcDbSpline
210
0.0
220
0.0
230
1.0
 70
     8
 71
     3
 72
     8
 73
     4
 74
     0
 42
0.0000000001
 43
0.0000000001
 40
0.0
 40
0.0
 40
0.0
 40
0.0
 40
80.0
 40
80.0
 40
80.0
 40
80.0
 10
1766.266639262044
 20
394.436462079301
 30
0.0
 10
1766.578878318646
 20
394.436462079301
 30
0.0
 10
1766.860354917195
 20
394.361863066598
 30
0.0
 10
1767.111069057693
 20
394.2126651116017
 30
0.0
  0
SPLINE
  5
781C
330
1F
100
AcDbEntity
  8
AM_VIS
100
AcDbSpline
210
0.0
220
0.0
230
1.0
 70
     8
 71
     3
 72
     8
 73
     4
 74
     0
 42
0.0000000001
 43
0.0000000001
 40
0.0
 40
0.0
 40
0.0
 40
0.0
 40
80.0
 40
80.0
 40
80.0
 40
80.0
 10
1767.111069057693
 20
394.2126651116017
 30
0.0
 10
1767.361783162986
 20
394.0634671214004
 30
0.0
 10
1767.552895030007
 20
393.8554359077318
 30
0.0
 10
1767.684404588346
 20
393.5885715058007
 30
0.0
  0
SPLINE
  5
781D
330
1F
100
AcDbEntity
  8
AM_VIS
100
AcDbSpline
210
0.0
220
0.0
230
1.0
 70
     8
 71
     3
 72
     8
 73
     4
 74
     0
 42
0.0000000001
 43
0.0000000001
 40
0.0
 40
0.0
 40
0.0
 40
0.0
 40
80.0
 40
80.0
 40
80.0
 40
80.0
 10
1767.684404588346
 20
393.5885715058007
 30
0.0
 10
1767.815914146685
 20
393.3217070686648
 30
0.0
 10
1767.881668925854
 20
393.0190812604016
 30
0.0
 10
1767.881668925854
 20
392.6806941162161
 30
0.0
  0
SPLINE
  5
781E
330
1F
100
AcDbEntity
  8
AM_VIS
100
AcDbSpline
210
0.0
220
0.0
230
1.0
 70
     8
 71
     3
 72
     8
 73
     4
 74
     0
 42
0.0000000001
 43
0.0000000001
 40
0.0
 40
0.0
 40
0.0
 40
0.0
 40
80.0
 40
80.0
 40
80.0
 40
80.0
 10
1767.881668925854
 20
392.6806941162161
 30
0.0
 10
1767.881668925854
 20
392.3376925663576
 30
0.0
 10
1767.812453368834
 20
392.0308369302337
 30
0.0
 10
1767.674022254793
 20
391.7601272078442
 30
0.0
  0
SPLINE
  5
781F
330
1F
100
AcDbEntity
  8
AM_VIS
100
AcDbSpline
210
0.0
220
0.0
230
1.0
 70
     8
 71
     3
 72
     8
 73
     4
 74
     0
 42
0.0000000001
 43
0.0000000001
 40
0.0
 40
0.0
 40
0.0
 40
0.0
 40
80.0
 40
80.0
 40
80.0
 40
80.0
 10
1767.674022254793
 20
391.7601272078442
 30
0.0
 10
1767.535591140752
 20
391.48941745025
 30
0.0
 10
1767.339480395861
 20
391.28446250703
 30
0.0
 10
1767.085690020119
 20
391.1452623429794
 30
0.0
  0
SPLINE
  5
7820
330
1F
100
AcDbEntity
  8
AM_VIS
100
AcDbSpline
210
0.0
220
0.0
230
1.0
 70
     8
 71
     3
 72
     8
 73
     4
 74
     0
 42
0.0000000001
 43
0.0000000001
 40
0.0
 40
0.0
 40
0.0
 40
0.0
 40
80.0
 40
80.0
 40
80.0
 40
80.0
 10
1767.085690020119
 20
391.1452623429794
 30
0.0
 10
1766.831899644377
 20
391.0060621437239
 30
0.0
 10
1766.558113651539
 20
390.9364621145059
 30
0.0
 10
1766.26433207681
 20
390.9364620793011
 30
0.0
  0
SPLINE
  5
7821
330
1F
100
AcDbEntity
  8
AM_VIS
100
AcDbSpline
210
0.0
220
0.0
230
1.0
 70
     8
 71
     3
 72
     8
 73
     4
 74
     0
 42
0.0000000001
 43
0.0000000001
 40
0.0
 40
0.0
 40
0.0
 40
0.0
 40
80.0
 40
80.0
 40
80.0
 40
80.0
 10
1766.26433207681
 20
390.9364620793011
 30
0.0
 10
1765.945940514516
 20
390.9364621145059
 30
0.0
 10
1765.661387645517
 20
391.0133682420333
 30
0.0
 10
1765.410673540225
 20
391.1671806027025
 30
0.0
  0
SPLINE
  5
7822
330
1F
100
AcDbEntity
  8
AM_VIS
100
AcDbSpline
210
0.0
220
0.0
230
1.0
 70
     8
 71
     3
 72
     8
 73
     4
 74
     0
 42
0.0000000001
 43
0.0000000001
 40
0.0
 40
0.0
 40
0.0
 40
0.0
 40
80.0
 40
80.0
 40
80.0
 40
80.0
 10
1765.410673540225
 20
391.1671806027025
 30
0.0
 10
1765.159959399727
 20
391.3209929281669
 30
0.0
 10
1764.970001160528
 20
391.5309467844622
 30
0.0
 10
1764.840798787423
 20
391.7970421715885
 30
0.0
  0
SPLINE
  5
7823
330
1F
100
AcDbEntity
  8
AM_VIS
100
AcDbSpline
210
0.0
220
0.0
230
1.0
 70
     8
 71
     3
 72
     8
 73
     4
 74
     0
 42
0.0000000001
 43
0.0000000001
 40
0.0
 40
0.0
 40
0.0
 40
0.0
 40
80.0
 40
80.0
 40
80.0
 40
80.0
 10
1764.840798787423
 20
391.7970421715885
 30
0.0
 10
1764.711596414318
 20
392.0631375235099
 30
0.0
 10
1764.646995227766
 20
392.3446141220596
 30
0.0
 10
1764.646995227766
 20
392.6414719672377
 30
0.0
  0
LINE
  5
7824
330
1F
100
AcDbEntity
  8
AM_VIS
100
AcDbLine
 10
1770.67797742948
 20
394.3764752632167
 30
0.0
 11
1771.125571364878
 21
394.3764752632167
 31
0.0
  0
LINE
  5
7825
330
1F
100
AcDbEntity
  8
AM_VIS
100
AcDbLine
 10
1771.125571364878
 20
394.3764752632167
 30
0.0
 11
1771.125571364878
 21
392.4222893700064
 31
0.0
  0
SPLINE
  5
7826
330
1F
100
AcDbEntity
  8
AM_VIS
100
AcDbSpline
210
0.0
220
0.0
230
1.0
 70
     8
 71
     3
 72
     8
 73
     4
 74
     0
 42
0.0000000001
 43
0.0000000001
 40
0.0
 40
0.0
 40
0.0
 40
0.0
 40
80.0
 40
80.0
 40
80.0
 40
80.0
 10
1771.125571364878
 20
392.4222893700064
 30
0.0
 10
1771.125571364878
 20
392.0823640553917
 30
0.0
 10
1771.08711826591
 20
391.812423383012
 30
0.0
 10
1771.010212103178
 20
391.6124673528673
 30
0.0
  0
SPLINE
  5
7827
330
1F
100
AcDbEntity
  8
AM_VIS
100
AcDbSpline
210
0.0
220
0.0
230
1.0
 70
     8
 71
     3
 72
     8
 73
     4
 74
     0
 42
0.0000000001
 43
0.0000000001
 40
0.0
 40
0.0
 40
0.0
 40
0.0
 40
80.0
 40
80.0
 40
80.0
 40
80.0
 10
1771.010212103178
 20
391.6124673528673
 30
0.0
 10
1770.933305905241
 20
391.4125112875177
 30
0.0
 10
1770.794490283797
 20
391.2498547285197
 30
0.0
 10
1770.593765168438
 20
391.1244976758733
 30
0.0
  0
SPLINE
  5
7828
330
1F
100
AcDbEntity
  8
AM_VIS
100
AcDbSpline
210
0.0
220
0.0
230
1.0
 70
     8
 71
     3
 72
     8
 73
     4
 74
     0
 42
0.0000000001
 43
0.0000000001
 40
0.0
 40
0.0
 40
0.0
 40
0.0
 40
80.0
 40
80.0
 40
80.0
 40
80.0
 10
1770.593765168438
 20
391.1244976758733
 30
0.0
 10
1770.393040017874
 20
390.9991405880219
 30
0.0
 10
1770.129636393794
 20
390.9364621145059
 30
0.0
 10
1769.803554225788
 20
390.9364620793011
 30
0.0
  0
SPLINE
  5
7829
330
1F
100
AcDbEntity
  8
AM_VIS
100
AcDbSpline
210
0.0
220
0.0
230
1.0
 70
     8
 71
     3
 72
     8
 73
     4
 74
     0
 42
0.0000000001
 43
0.0000000001
 40
0.0
 40
0.0
 40
0.0
 40
0.0
 40
80.0
 40
80.0
 40
80.0
 40
80.0
 10
1769.803554225788
 20
390.9364620793011
 30
0.0
 10
1769.486700763513
 20
390.9364621145059
 30
0.0
 10
1769.227526967294
 20
390.9910654749077
 30
0.0
 10
1769.026032801925
 20
391.1002722309161
 30
0.0
  0
SPLINE
  5
782A
330
1F
100
AcDbEntity
  8
AM_VIS
100
AcDbSpline
210
0.0
220
0.0
230
1.0
 70
     8
 71
     3
 72
     8
 73
     4
 74
     0
 42
0.0000000001
 43
0.0000000001
 40
0.0
 40
0.0
 40
0.0
 40
0.0
 40
80.0
 40
80.0
 40
80.0
 40
80.0
 10
1769.026032801925
 20
391.1002722309161
 30
0.0
 10
1768.824538601351
 20
391.2094789869245
 30
0.0
 10
1768.680724066833
 20
391.3675211754545
 30
0.0
 10
1768.594589163164
 20
391.5743987965061
 30
0.0
  0
SPLINE
  5
782B
330
1F
100
AcDbEntity
  8
AM_VIS
100
AcDbSpline
210
0.0
220
0.0
230
1.0
 70
     8
 71
     3
 72
     8
 73
     4
 74
     0
 42
0.0000000001
 43
0.0000000001
 40
0.0
 40
0.0
 40
0.0
 40
0.0
 40
80.0
 40
80.0
 40
80.0
 40
80.0
 10
1768.594589163164
 20
391.5743987965061
 30
0.0
 10
1768.508454224291
 20
391.7812763823528
 30
0.0
 10
1768.46538679006
 20
392.0639065735196
 30
0.0
 10
1768.46538679006
 20
392.4222893700064
 30
0.0
  0
LINE
  5
782C
330
1F
100
AcDbEntity
  8
AM_VIS
100
AcDbLine
 10
1768.46538679006
 20
392.4222893700064
 30
0.0
 11
1768.46538679006
 21
394.3764752632167
 31
0.0
  0
LINE
  5
782D
330
1F
100
AcDbEntity
  8
AM_VIS
100
AcDbLine
 10
1768.46538679006
 20
394.3764752632167
 30
0.0
 11
1768.912980725459
 21
394.3764752632167
 31
0.0
  0
LINE
  5
782E
330
1F
100
AcDbEntity
  8
AM_VIS
100
AcDbLine
 10
1768.912980725459
 20
394.3764752632167
 30
0.0
 11
1768.912980725459
 21
392.4245965552405
 31
0.0
  0
SPLINE
  5
782F
330
1F
100
AcDbEntity
  8
AM_VIS
100
AcDbSpline
210
0.0
220
0.0
230
1.0
 70
     8
 71
     3
 72
     8
 73
     4
 74
     0
 42
0.0000000001
 43
0.0000000001
 40
0.0
 40
0.0
 40
0.0
 40
0.0
 40
80.0
 40
80.0
 40
80.0
 40
80.0
 10
1768.912980725459
 20
392.4245965552405
 30
0.0
 10
1768.912980725459
 20
392.130814945306
 30
0.0
 10
1768.940282405659
 20
391.9143240759159
 30
0.0
 10
1768.994885801266
 20
391.7751239118653
 30
0.0
  0
SPLINE
  5
7830
330
1F
100
AcDbEntity
  8
AM_VIS
100
AcDbSpline
210
0.0
220
0.0
230
1.0
 70
     8
 71
     3
 72
     8
 73
     4
 74
     0
 42
0.0000000001
 43
0.0000000001
 40
0.0
 40
0.0
 40
0.0
 40
0.0
 40
80.0
 40
80.0
 40
80.0
 40
80.0
 10
1768.994885801266
 20
391.7751239118653
 30
0.0
 10
1769.049489161668
 20
391.6359237126099
 30
0.0
 10
1769.143314706253
 20
391.5286395992282
 30
0.0
 10
1769.276362399816
 20
391.4532715717203
 30
0.0
  0
SPLINE
  5
7831
330
1F
100
AcDbEntity
  8
AM_VIS
100
AcDbSpline
210
0.0
220
0.0
230
1.0
 70
     8
 71
     3
 72
     8
 73
     4
 74
     0
 42
0.0000000001
 43
0.0000000001
 40
0.0
 40
0.0
 40
0.0
 40
0.0
 40
80.0
 40
80.0
 40
80.0
 40
80.0
 10
1769.276362399816
 20
391.4532715717203
 30
0.0
 10
1769.409410058174
 20
391.3779035090075
 30
0.0
 10
1769.572066617172
 20
391.3402194952536
 30
0.0
 10
1769.76433207681
 20
391.3402194952536
 30
0.0
  0
SPLINE
  5
7832
330
1F
100
AcDbEntity
  8
AM_VIS
100
AcDbSpline
210
0.0
220
0.0
230
1.0
 70
     8
 71
     3
 72
     8
 73
     4
 74
     0
 42
0.0000000001
 43
0.0000000001
 40
0.0
 40
0.0
 40
0.0
 40
0.0
 40
80.0
 40
80.0
 40
80.0
 40
80.0
 10
1769.76433207681
 20
391.3402194952536
 30
0.0
 10
1770.093490480059
 20
391.3402194952536
 30
0.0
 10
1770.328054323919
 20
391.4148184727518
 30
0.0
 10
1770.468023573184
 20
391.564016462953
 30
0.0
  0
SPLINE
  5
7833
330
1F
100
AcDbEntity
  8
AM_VIS
100
AcDbSpline
210
0.0
220
0.0
230
1.0
 70
     8
 71
     3
 72
     8
 73
     4
 74
     0
 42
0.0000000001
 43
0.0000000001
 40
0.0
 40
0.0
 40
0.0
 40
0.0
 40
80.0
 40
80.0
 40
80.0
 40
80.0
 10
1770.468023573184
 20
391.564016462953
 30
0.0
 10
1770.607992787245
 20
391.7132144179494
 30
0.0
 10
1770.67797742948
 20
392.0000744721818
 30
0.0
 10
1770.67797742948
 20
392.4245965552405
 30
0.0
  0
LINE
  5
7834
330
1F
100
AcDbEntity
  8
AM_VIS
100
AcDbLine
 10
1770.67797742948
 20
392.4245965552405
 30
0.0
 11
1770.67797742948
 21
394.3764752632167
 31
0.0
  0
LINE
  5
7835
330
1F
100
AcDbEntity
  8
AM_VIS
100
AcDbLine
 10
1773.583053237046
 20
441.436462079301
 30
0.0
 11
1773.81789173408
 21
441.436462079301
 31
0.0
  0
LINE
  5
7836
330
1F
100
AcDbEntity
  8
AM_VIS
100
AcDbLine
 10
1773.81789173408
 20
441.436462079301
 30
0.0
 11
1774.40704796348
 21
441.436462079301
 31
0.0
  0
LINE
  5
7837
330
1F
100
AcDbEntity
  8
AM_VIS
100
AcDbLine
 10
1774.40704796348
 20
441.436462079301
 30
0.0
 11
1775.001148161239
 21
441.436462079301
 31
0.0
  0
LINE
  5
7838
330
1F
100
AcDbEntity
  8
AM_VIS
100
AcDbLine
 10
1775.001148161239
 20
441.436462079301
 30
0.0
 11
1775.23433866882
 21
441.436462079301
 31
0.0
  0
CIRCLE
  5
7839
330
1F
100
AcDbEntity
  8
AM_VIS
100
AcDbCircle
 10
1769.646995227766
 20
423.4364620793011
 30
0.0
 40
5.5
  0
ARC
  5
783A
330
1F
100
AcDbEntity
  8
AM_VIS
100
AcDbCircle
 10
1769.646995227766
 20
380.4364620793011
 30
0.0
 40
5.5
100
AcDbArc
 50
264.5910248672176
 51
275.4089751327824
  0
ARC
  5
783B
330
1F
100
AcDbEntity
  8
AM_VIS
100
AcDbCircle
 10
1769.646995227766
 20
380.4364620793011
 30
0.0
 40
5.5
100
AcDbArc
 50
84.59102486721759
 51
95.40897513278238
  0
CIRCLE
  5
783C
330
1F
100
AcDbEntity
  8
AM_VIS
100
AcDbCircle
 10
1769.646995227766
 20
423.4364620793011
 30
0.0
 40
7.338
  0
CIRCLE
  5
783D
330
1F
100
AcDbEntity
  8
AM_VIS
100
AcDbCircle
 10
1769.646995227766
 20
380.4364620793011
 30
0.0
 40
7.338
  0
CIRCLE
  5
783E
330
1F
100
AcDbEntity
  8
AM_VIS
100
AcDbCircle
 10
1769.646995227766
 20
423.4364620793011
 30
0.0
 40
8.538
  0
CIRCLE
  5
783F
330
1F
100
AcDbEntity
  8
AM_VIS
100
AcDbCircle
 10
1769.646995227766
 20
380.4364620793011
 30
0.0
 40
8.538
  0
LINE
  5
7840
330
1F
100
AcDbEntity
  8
AM_VIS
100
AcDbLine
 10
1768.602964576875
 20
418.036462079301
 30
0.0
 11
1770.691025878657
 21
418.036462079301
 31
0.0
  0
LINE
  5
7841
330
1F
100
AcDbEntity
  8
AM_VIS
100
AcDbLine
 10
1774.545974713332
 20
420.936462079301
 30
0.0
 11
1764.748015742199
 21
420.936462079301
 31
0.0
  0
LINE
  5
7842
330
1F
100
AcDbEntity
  8
AM_VIS
100
AcDbLine
 10
1765.404354540646
 20
426.9364620793011
 30
0.0
 11
1773.889635914885
 21
426.9364620793011
 31
0.0
  0
LINE
  5
7843
330
1F
100
AcDbEntity
  8
AM_VIS
100
AcDbLine
 10
1774.938497849895
 20
424.936462079301
 30
0.0
 11
1769.655347248333
 21
424.936462079301
 31
0.0
  0
LINE
  5
7844
330
1F
100
AcDbEntity
  8
AM_VIS
100
AcDbLine
 10
1764.355492605637
 20
424.936462079301
 30
0.0
 11
1769.184075525708
 21
424.936462079301
 31
0.0
  0
LINE
  5
7845
330
1F
100
AcDbEntity
  8
AM_VIS
100
AcDbLine
 10
1769.655347248333
 20
424.936462079301
 30
0.0
 11
1769.184075525708
 21
424.936462079301
 31
0.0
  0
LINE
  5
7846
330
1F
100
AcDbEntity
  8
AM_VIS
100
AcDbLine
 10
1765.264424169342
 20
420.1167562705508
 30
0.0
 11
1769.13901420359
 21
420.3619739427544
 31
0.0
  0
LINE
  5
7847
330
1F
100
AcDbEntity
  8
AM_VIS
100
AcDbLine
 10
1767.334339710898
 20
418.4470715650595
 30
0.0
 11
1769.242935018826
 21
418.5624000075042
 31
0.0
  0
LINE
  5
7848
330
1F
100
AcDbEntity
  8
AM_VIS
100
AcDbLine
 10
1769.242981278372
 20
418.5616344482816
 30
0.0
 11
1770.154783448552
 21
418.6142803743596
 31
0.0
  0
LINE
  5
7849
330
1F
100
AcDbEntity
  8
AM_VIS
100
AcDbLine
 10
1769.139225103979
 20
420.3586415869083
 30
0.0
 11
1770.051027274159
 21
420.4112875129863
 31
0.0
  0
LINE
  5
784A
330
1F
100
AcDbEntity
  8
AM_VIS
100
AcDbLine
 10
1770.051302942764
 20
420.4069852614244
 30
0.0
 11
1774.41332398031
 21
420.6864836209935
 31
0.0
  0
LINE
  5
784B
330
1F
100
AcDbEntity
  8
AM_VIS
100
AcDbLine
 10
1770.154854978003
 20
418.6131094323786
 30
0.0
 11
1772.542327164031
 21
418.7589531857367
 31
0.0
  0
LINE
  5
784C
330
1F
100
AcDbEntity
  8
AM_VIS
100
AcDbLine
 10
1764.174273644053
 20
423.9841324960593
 30
0.0
 11
1765.010401700296
 21
424.0381435099892
 31
0.0
  0
LINE
  5
784D
330
1F
100
AcDbEntity
  8
AM_VIS
100
AcDbLine
 10
1764.290649123792
 20
422.1878905659757
 30
0.0
 11
1765.121237255951
 21
422.2415621726068
 31
0.0
  0
LINE
  5
784E
330
1F
100
AcDbEntity
  8
AM_VIS
100
AcDbLine
 10
1765.121257482194
 20
422.2412491639448
 30
0.0
 11
1765.958676472366
 21
422.2929116244094
 31
0.0
  0
LINE
  5
784F
330
1F
100
AcDbEntity
  8
AM_VIS
100
AcDbLine
 10
1765.010421723043
 20
424.037833543954
 30
0.0
 11
1765.847840713214
 21
424.0894960044188
 31
0.0
  0
LINE
  5
7850
330
1F
100
AcDbEntity
  8
AM_VIS
100
AcDbLine
 10
1765.847003464036
 20
424.1076919279928
 30
0.0
 11
1773.367087389371
 21
424.4537136100744
 31
0.0
  0
LINE
  5
7851
330
1F
100
AcDbEntity
  8
AM_VIS
100
AcDbLine
 10
1765.957845954459
 20
422.3109612486527
 30
0.0
 11
1773.421701000197
 21
422.6543958366635
 31
0.0
  0
LINE
  5
7852
330
1F
100
AcDbEntity
  8
AM_VIS
100
AcDbLine
 10
1773.422531731125
 20
422.6363415828294
 30
0.0
 11
1774.255652819814
 21
422.6616277459028
 31
0.0
  0
LINE
  5
7853
330
1F
100
AcDbEntity
  8
AM_VIS
100
AcDbLine
 10
1773.36792485035
 20
424.4355130834297
 30
0.0
 11
1774.201045939039
 21
424.460799246503
 31
0.0
  0
LINE
  5
7854
330
1F
100
AcDbEntity
  8
AM_VIS
100
AcDbLine
 10
1774.201050537149
 20
424.4606540030341
 30
0.0
 11
1775.045631236148
 21
424.4873916980626
 31
0.0
  0
LINE
  5
7855
330
1F
100
AcDbEntity
  8
AM_VIS
100
AcDbLine
 10
1774.255657259975
 20
422.6614874112295
 30
0.0
 11
1775.095866324122
 21
422.6880714604396
 31
0.0
  0
LINE
  5
7856
330
1F
100
AcDbEntity
  8
AM_VIS
100
AcDbLine
 10
1769.201134847144
 20
424.3237005823891
 30
0.0
 11
1769.672041584379
 21
424.3368106579047
 31
0.0
  0
LINE
  5
7857
330
1F
100
AcDbEntity
  8
AM_VIS
100
AcDbLine
 10
1764.196121901733
 20
424.1730377707707
 30
0.0
 11
1769.20107110857
 21
424.3257889998067
 31
0.0
  0
LINE
  5
7858
330
1F
100
AcDbEntity
  8
AM_VIS
100
AcDbLine
 10
1769.655347248333
 20
424.936462079301
 30
0.0
 11
1769.672041584379
 21
424.3368106579047
 31
0.0
  0
LINE
  5
7859
330
1F
100
AcDbEntity
  8
AM_VIS
100
AcDbLine
 10
1778.646995227766
 20
449.436462079301
 30
0.0
 11
1760.646995227766
 21
449.436462079301
 31
0.0
  0
LINE
  5
785A
330
1F
100
AcDbEntity
  8
AM_VIS
100
AcDbLine
 10
1760.646995227766
 20
448.936462079301
 30
0.0
 11
1778.646995227766
 21
448.936462079301
 31
0.0
  0
LINE
  5
785B
330
1F
100
AcDbEntity
  8
AM_VIS
100
AcDbLine
 10
1750.146995227766
 20
441.436462079301
 30
0.0
 11
1750.646995227766
 21
441.936462079301
 31
0.0
  0
LINE
  5
785C
330
1F
100
AcDbEntity
  8
AM_VIS
100
AcDbLine
 10
1780.646995227766
 20
441.936462079301
 30
0.0
 11
1758.646995227766
 21
441.936462079301
 31
0.0
  0
LINE
  5
785D
330
1F
100
AcDbEntity
  8
AM_VIS
100
AcDbLine
 10
1788.646995227766
 20
441.936462079301
 30
0.0
 11
1789.146995227766
 21
441.436462079301
 31
0.0
  0
LINE
  5
785E
330
1F
100
AcDbEntity
  8
AM_VIS
100
AcDbLine
 10
1789.146995227766
 20
441.436462079301
 30
0.0
 11
1789.646995227766
 21
441.936462079301
 31
0.0
  0
LINE
  5
785F
330
1F
100
AcDbEntity
  8
AM_VIS
100
AcDbLine
 10
1789.646995227766
 20
441.936462079301
 30
0.0
 11
1789.646995227766
 21
443.9364620793011
 31
0.0
  0
LINE
  5
7860
330
1F
100
AcDbEntity
  8
AM_VIS
100
AcDbLine
 10
1749.646995227766
 20
441.936462079301
 30
0.0
 11
1750.146995227766
 21
441.436462079301
 31
0.0
  0
LINE
  5
7861
330
1F
100
AcDbEntity
  8
AM_VIS
100
AcDbLine
 10
1749.646995227766
 20
443.9364620793011
 30
0.0
 11
1749.646995227766
 21
441.936462079301
 31
0.0
  0
LINE
  5
7862
330
1F
100
AcDbEntity
  8
AM_VIS
100
AcDbLine
 10
1772.646995227766
 20
460.9364620793011
 30
0.0
 11
1766.646995227766
 21
460.9364620793011
 31
0.0
  0
LINE
  5
7863
330
1F
100
AcDbEntity
  8
AM_VIS
100
AcDbLine
 10
1766.646995227766
 20
461.436462079301
 30
0.0
 11
1772.646995227766
 21
461.436462079301
 31
0.0
  0
SPLINE
  5
7864
330
1F
100
AcDbEntity
  8
AM_VIS
100
AcDbSpline
210
0.0
220
0.0
230
1.0
 70
    12
 71
     2
 72
     6
 73
     3
 74
     0
 42
0.0000000001
 43
0.0000000001
 40
7.338144408119102
 40
7.338144408119102
 40
7.338144408119102
 40
10.44899734842361
 40
10.44899734842361
 40
10.44899734842361
 10
1769.646995227766
 20
463.936462079301
 30
0.0
 41
1.0
 10
1771.133547396114
 20
463.936462079301
 30
0.0
 41
1.010666549940656
 10
1772.646995227766
 20
463.7724631058183
 30
0.0
 41
1.012289378089989
  0
SPLINE
  5
7865
330
1F
100
AcDbEntity
  8
AM_VIS
100
AcDbSpline
210
0.0
220
0.0
230
1.0
 70
    12
 71
     2
 72
     6
 73
     3
 74
     0
 42
0.0000000001
 43
0.0000000001
 40
4.227291467814586
 40
4.227291467814586
 40
4.227291467814586
 40
7.338144408119102
 40
7.338144408119102
 40
7.338144408119102
 10
1766.646995227765
 20
463.7724631058182
 30
0.0
 41
1.012289378089988
 10
1768.160443059417
 20
463.9364620793011
 30
0.0
 41
1.010666549940656
 10
1769.646995227766
 20
463.936462079301
 30
0.0
 41
1.0
  0
SPLINE
  5
7866
330
1F
100
AcDbEntity
  8
AM_VIS
100
AcDbSpline
210
0.0
220
0.0
230
1.0
 70
    12
 71
     2
 72
     6
 73
     3
 74
     0
 42
0.0000000001
 43
0.0000000001
 40
5.916960190534777
 40
5.916960190534777
 40
5.916960190534777
 40
12.34375831776966
 40
12.34375831776966
 40
12.34375831776966
 10
1772.646995227766
 20
467.1770794501274
 30
0.0
 41
1.068360740946624
 10
1769.646995227773
 20
467.3279512282266
 30
0.0
 41
1.087690214467263
 10
1766.646995227766
 20
467.1770794501265
 30
0.0
 41
1.06836074094688
  0
LINE
  5
7867
330
1F
100
AcDbEntity
  8
AM_VIS
100
AcDbLine
 10
1782.396995227766
 20
470.9272098081122
 30
0.0
 11
1782.396995227766
 21
470.936462079301
 31
0.0
  0
LINE
  5
7868
330
1F
100
AcDbEntity
  8
AM_VIS
100
AcDbLine
 10
1756.896995227766
 20
470.9272098081122
 30
0.0
 11
1756.896995227766
 21
470.936462079301
 31
0.0
  0
LINE
  5
7869
330
1F
100
AcDbEntity
  8
AM_VIS
100
AcDbLine
 10
1781.546995227766
 20
470.3364620793011
 30
0.0
 11
1781.546995227766
 21
470.436462079301
 31
0.0
  0
LINE
  5
786A
330
1F
100
AcDbEntity
  8
AM_VIS
100
AcDbLine
 10
1757.746995227766
 20
470.3364620793011
 30
0.0
 11
1757.746995227766
 21
470.436462079301
 31
0.0
  0
LINE
  5
786B
330
1F
100
AcDbEntity
  8
AM_VIS
100
AcDbLine
 10
1781.546995227766
 20
470.436462079301
 30
0.0
 11
1782.396995227766
 21
470.9272098081122
 31
0.0
  0
LINE
  5
786C
330
1F
100
AcDbEntity
  8
AM_VIS
100
AcDbLine
 10
1757.746995227766
 20
470.436462079301
 30
0.0
 11
1756.896995227766
 21
470.9272098081122
 31
0.0
  0
LINE
  5
786D
330
1F
100
AcDbEntity
  8
AM_VIS
100
AcDbLine
 10
1772.646995227766
 20
463.0127016485976
 30
0.0
 11
1766.646995227766
 21
463.0127016485976
 31
0.0
  0
LINE
  5
786E
330
1F
100
AcDbEntity
  8
AM_VIS
100
AcDbLine
 10
1772.646995227766
 20
467.936462079301
 30
0.0
 11
1766.646995227766
 21
467.936462079301
 31
0.0
  0
LINE
  5
786F
330
1F
100
AcDbEntity
  8
AM_VIS
100
AcDbLine
 10
1772.646995227766
 20
468.9364620793011
 30
0.0
 11
1766.646995227766
 21
468.9364620793011
 31
0.0
  0
LINE
  5
7870
330
1F
100
AcDbEntity
  8
AM_VIS
100
AcDbLine
 10
1781.546995227766
 20
470.436462079301
 30
0.0
 11
1757.746995227766
 21
470.436462079301
 31
0.0
  0
LINE
  5
7871
330
1F
100
AcDbEntity
  8
AM_VIS
100
AcDbLine
 10
1756.896995227766
 20
470.9272098081122
 30
0.0
 11
1782.396995227766
 21
470.9272098081122
 31
0.0
  0
LINE
  5
7872
330
1F
100
AcDbEntity
  8
AM_VIS
100
AcDbLine
 10
1754.009574613511
 20
476.936462079301
 30
0.0
 11
1754.597896326916
 21
477.2364620793011
 31
0.0
  0
LINE
  5
7873
330
1F
100
AcDbEntity
  8
AM_VIS
100
AcDbLine
 10
1754.597896326916
 20
477.2364620793011
 30
0.0
 11
1755.552328391091
 21
507.6058464387021
 31
0.0
  0
LINE
  5
7874
330
1F
100
AcDbEntity
  8
AM_VIS
100
AcDbLine
 10
1765.365607254648
 20
476.936462079301
 30
0.0
 11
1765.526684555709
 21
477.2364620793011
 31
0.0
  0
LINE
  5
7875
330
1F
100
AcDbEntity
  8
AM_VIS
100
AcDbLine
 10
1765.526684555709
 20
477.2364620793011
 30
0.0
 11
1765.787999644784
 21
507.6058464387021
 31
0.0
  0
LINE
  5
7876
330
1F
100
AcDbEntity
  8
AM_VIS
100
AcDbLine
 10
1773.767305899822
 20
477.2364620793011
 30
0.0
 11
1773.928383200883
 21
476.9364620793011
 31
0.0
  0
LINE
  5
7877
330
1F
100
AcDbEntity
  8
AM_VIS
100
AcDbLine
 10
1773.505990810748
 20
507.6058464387021
 30
0.0
 11
1773.767305899822
 21
477.2364620793011
 31
0.0
  0
LINE
  5
7878
330
1F
100
AcDbEntity
  8
AM_VIS
100
AcDbLine
 10
1784.696094128615
 20
477.2364620793011
 30
0.0
 11
1785.284415842021
 21
476.9364620793011
 31
0.0
  0
LINE
  5
7879
330
1F
100
AcDbEntity
  8
AM_VIS
100
AcDbLine
 10
1783.74166206444
 20
507.6058464387021
 30
0.0
 11
1784.696094128615
 21
477.2364620793011
 31
0.0
  0
LINE
  5
787A
330
1F
100
AcDbEntity
  8
AM_VIS
100
AcDbLine
 10
1785.720868642339
 20
507.6058464387021
 30
0.0
 11
1786.71142132395
 21
506.5871470108079
 31
0.0
  0
LINE
  5
787B
330
1F
100
AcDbEntity
  8
AM_VIS
100
AcDbLine
 10
1784.610246112067
 20
506.5871470108079
 30
0.0
 11
1783.74166206444
 21
507.6058464387021
 31
0.0
  0
LINE
  5
787C
330
1F
100
AcDbEntity
  8
AM_VIS
100
AcDbLine
 10
1778.28421817385
 20
507.6058464387021
 30
0.0
 11
1778.816487162801
 21
506.5871470108079
 31
0.0
  0
LINE
  5
787D
330
1F
100
AcDbEntity
  8
AM_VIS
100
AcDbLine
 10
1773.743801469352
 20
506.5871470108079
 30
0.0
 11
1773.505990810748
 21
507.6058464387021
 31
0.0
  0
LINE
  5
787E
330
1F
100
AcDbEntity
  8
AM_VIS
100
AcDbLine
 10
1765.787999644784
 20
507.6058464387021
 30
0.0
 11
1765.550188986179
 21
506.5871470108079
 31
0.0
  0
LINE
  5
787F
330
1F
100
AcDbEntity
  8
AM_VIS
100
AcDbLine
 10
1760.47750329273
 20
506.5871470108079
 30
0.0
 11
1761.009772281682
 21
507.6058464387021
 31
0.0
  0
LINE
  5
7880
330
1F
100
AcDbEntity
  8
AM_VIS
100
AcDbLine
 10
1755.552328391091
 20
507.6058464387021
 30
0.0
 11
1754.683744343464
 21
506.5871470108079
 31
0.0
  0
LINE
  5
7881
330
1F
100
AcDbEntity
  8
AM_VIS
100
AcDbLine
 10
1752.582569131581
 20
506.5871470108079
 30
0.0
 11
1753.573121813192
 21
507.6058464387021
 31
0.0
  0
LINE
  5
7882
330
1F
100
AcDbEntity
  8
AM_VIS
100
AcDbLine
 10
1752.582569131581
 20
506.5871470108079
 30
0.0
 11
1751.813730887673
 21
476.9364620793011
 31
0.0
  0
LINE
  5
7883
330
1F
100
AcDbEntity
  8
AM_VIS
100
AcDbLine
 10
1754.009574613512
 20
476.9364620793011
 30
0.0
 11
1754.683744343464
 21
506.5871470108079
 31
0.0
  0
LINE
  5
7884
330
1F
100
AcDbEntity
  8
AM_VIS
100
AcDbLine
 10
1760.47750329273
 20
506.5871470108079
 30
0.0
 11
1760.064371550875
 21
476.9364620793011
 31
0.0
  0
LINE
  5
7885
330
1F
100
AcDbEntity
  8
AM_VIS
100
AcDbLine
 10
1765.365607254648
 20
476.9364620793011
 30
0.0
 11
1765.550188986179
 21
506.5871470108079
 31
0.0
  0
LINE
  5
7886
330
1F
100
AcDbEntity
  8
AM_VIS
100
AcDbLine
 10
1773.743801469352
 20
506.5871470108079
 30
0.0
 11
1773.928383200883
 21
476.9364620793011
 31
0.0
  0
LINE
  5
7887
330
1F
100
AcDbEntity
  8
AM_VIS
100
AcDbLine
 10
1779.229618904656
 20
476.9364620793011
 30
0.0
 11
1778.816487162801
 21
506.5871470108079
 31
0.0
  0
LINE
  5
7888
330
1F
100
AcDbEntity
  8
AM_VIS
100
AcDbLine
 10
1784.610246112067
 20
506.5871470108079
 30
0.0
 11
1785.28441584202
 21
476.9364620793011
 31
0.0
  0
LINE
  5
7889
330
1F
100
AcDbEntity
  8
AM_VIS
100
AcDbLine
 10
1787.480259567859
 20
476.9364620793011
 30
0.0
 11
1786.71142132395
 21
506.5871470108079
 31
0.0
  0
LINE
  5
788A
330
1F
100
AcDbEntity
  8
AM_VIS
100
AcDbLine
 10
1751.819508891971
 20
477.1592941072166
 30
0.0
 11
1751.306995227766
 21
476.9364620793014
 31
0.0
  0
LINE
  5
788B
330
1F
100
AcDbEntity
  8
AM_VIS
100
AcDbLine
 10
1753.116379587167
 20
507.6058464387021
 30
0.0
 11
1753.098384020072
 21
507.11761887925
 31
0.0
  0
LINE
  5
788C
330
1F
100
AcDbEntity
  8
AM_VIS
100
AcDbLine
 10
1787.47448156356
 20
477.1592941072166
 30
0.0
 11
1787.986995227766
 21
476.9364620793014
 31
0.0
  0
LINE
  5
788D
330
1F
100
AcDbEntity
  8
AM_VIS
100
AcDbLine
 10
1786.177610868365
 20
507.6058464387021
 30
0.0
 11
1786.19560643546
 21
507.11761887925
 31
0.0
  0
LINE
  5
788E
330
1F
100
AcDbEntity
  8
AM_VIS
100
AcDbLine
 10
1753.946995227766
 20
508.436462079301
 30
0.0
 11
1753.116379587167
 21
507.6058464387021
 31
0.0
  0
LINE
  5
788F
330
1F
100
AcDbEntity
  8
AM_VIS
100
AcDbLine
 10
1785.346995227766
 20
508.436462079301
 30
0.0
 11
1786.177610868365
 21
507.6058464387021
 31
0.0
  0
LINE
  5
7890
330
1F
100
AcDbEntity
  8
AM_VIS
100
AcDbLine
 10
1751.306995227766
 20
476.9364620793014
 30
0.0
 11
1751.160683990302
 21
471.4497906744205
 31
0.0
  0
LINE
  5
7891
330
1F
100
AcDbEntity
  8
AM_VIS
100
AcDbLine
 10
1787.986995227766
 20
476.9364620793014
 30
0.0
 11
1788.133306465229
 21
471.4497906744205
 31
0.0
  0
LINE
  5
7892
330
1F
100
AcDbEntity
  8
AM_VIS
100
AcDbLine
 10
1760.068551539393
 20
477.2364620793011
 30
0.0
 11
1754.597896326916
 21
477.2364620793011
 31
0.0
  0
LINE
  5
7893
330
1F
100
AcDbEntity
  8
AM_VIS
100
AcDbLine
 10
1773.767305899822
 20
477.2364620793011
 30
0.0
 11
1765.526684555709
 21
477.2364620793011
 31
0.0
  0
LINE
  5
7894
330
1F
100
AcDbEntity
  8
AM_VIS
100
AcDbLine
 10
1784.696094128615
 20
477.2364620793011
 30
0.0
 11
1779.225438916139
 21
477.2364620793011
 31
0.0
  0
LINE
  5
7895
330
1F
100
AcDbEntity
  8
AM_VIS
100
AcDbLine
 10
1785.346995227766
 20
508.436462079301
 30
0.0
 11
1753.946995227766
 21
508.436462079301
 31
0.0
  0
LINE
  5
7896
330
1F
100
AcDbEntity
  8
AM_VIS
100
AcDbLine
 10
1785.720868642339
 20
507.6058464387021
 30
0.0
 11
1786.177610868365
 21
507.6058464387021
 31
0.0
  0
LINE
  5
7897
330
1F
100
AcDbEntity
  8
AM_VIS
100
AcDbLine
 10
1778.28421817385
 20
507.6058464387021
 30
0.0
 11
1783.74166206444
 21
507.6058464387021
 31
0.0
  0
LINE
  5
7898
330
1F
100
AcDbEntity
  8
AM_VIS
100
AcDbLine
 10
1765.787999644784
 20
507.6058464387021
 30
0.0
 11
1773.505990810748
 21
507.6058464387021
 31
0.0
  0
LINE
  5
7899
330
1F
100
AcDbEntity
  8
AM_VIS
100
AcDbLine
 10
1755.552328391091
 20
507.6058464387021
 30
0.0
 11
1761.009772281681
 21
507.6058464387021
 31
0.0
  0
LINE
  5
789A
330
1F
100
AcDbEntity
  8
AM_VIS
100
AcDbLine
 10
1753.116379587167
 20
507.6058464387021
 30
0.0
 11
1753.573121813192
 21
507.6058464387021
 31
0.0
  0
LINE
  5
789B
330
1F
100
AcDbEntity
  8
AM_VIS
100
AcDbLine
 10
1751.306995227766
 20
476.9364620793014
 30
0.0
 11
1751.813730887673
 21
476.9364620793014
 31
0.0
  0
LINE
  5
789C
330
1F
100
AcDbEntity
  8
AM_VIS
100
AcDbLine
 10
1752.582569131581
 20
506.5871470108079
 30
0.0
 11
1754.683744343464
 21
506.5871470108079
 31
0.0
  0
LINE
  5
789D
330
1F
100
AcDbEntity
  8
AM_VIS
100
AcDbLine
 10
1754.009574613512
 20
476.9364620793014
 30
0.0
 11
1760.064371550875
 21
476.9364620793014
 31
0.0
  0
LINE
  5
789E
330
1F
100
AcDbEntity
  8
AM_VIS
100
AcDbLine
 10
1760.47750329273
 20
506.5871470108079
 30
0.0
 11
1765.550188986179
 21
506.5871470108079
 31
0.0
  0
LINE
  5
789F
330
1F
100
AcDbEntity
  8
AM_VIS
100
AcDbLine
 10
1765.365607254648
 20
476.9364620793014
 30
0.0
 11
1773.928383200883
 21
476.9364620793014
 31
0.0
  0
LINE
  5
78A0
330
1F
100
AcDbEntity
  8
AM_VIS
100
AcDbLine
 10
1773.743801469352
 20
506.5871470108079
 30
0.0
 11
1778.816487162801
 21
506.5871470108079
 31
0.0
  0
LINE
  5
78A1
330
1F
100
AcDbEntity
  8
AM_VIS
100
AcDbLine
 10
1779.229618904656
 20
476.9364620793014
 30
0.0
 11
1785.28441584202
 21
476.9364620793014
 31
0.0
  0
LINE
  5
78A2
330
1F
100
AcDbEntity
  8
AM_VIS
100
AcDbLine
 10
1784.610246112067
 20
506.5871470108079
 30
0.0
 11
1786.71142132395
 21
506.5871470108079
 31
0.0
  0
LINE
  5
78A3
330
1F
100
AcDbEntity
  8
AM_VIS
100
AcDbLine
 10
1787.480259567859
 20
476.9364620793014
 30
0.0
 11
1787.986995227766
 21
476.9364620793014
 31
0.0
  0
LINE
  5
78A4
330
1F
100
AcDbEntity
  8
AM_VIS
100
AcDbLine
 10
1787.633484148248
 20
470.936462079301
 30
0.0
 11
1751.660506307283
 21
470.936462079301
 31
0.0
  0
ARC
  5
78A5
330
1F
100
AcDbEntity
  8
AM_VIS
100
AcDbCircle
 10
1787.633484148248
 20
471.436462079301
 30
0.0
 40
0.5
100
AcDbArc
 50
270.0
 51
1.527525442214576
  0
ARC
  5
78A6
330
1F
100
AcDbEntity
  8
AM_VIS
100
AcDbCircle
 10
1751.660506307283
 20
471.436462079301
 30
0.0
 40
0.5
100
AcDbArc
 50
178.4724745577854
 51
270.0
  0
LINE
  5
78A7
330
1F
100
AcDbEntity
  8
AM_VIS
100
AcDbLine
 10
1782.046995227766
 20
469.436462079301
 30
0.0
 11
1782.046995227766
 21
470.3364620793011
 31
0.0
  0
LINE
  5
78A8
330
1F
100
AcDbEntity
  8
AM_VIS
100
AcDbLine
 10
1757.246995227766
 20
469.436462079301
 30
0.0
 11
1757.246995227766
 21
470.3364620793011
 31
0.0
  0
LINE
  5
78A9
330
1F
100
AcDbEntity
  8
AM_VIS
100
AcDbLine
 10
1757.246995227766
 20
470.3364620793011
 30
0.0
 11
1782.046995227766
 21
470.3364620793011
 31
0.0
  0
LINE
  5
78AA
330
1F
100
AcDbEntity
  8
AM_VIS
100
AcDbLine
 10
1794.146995227765
 20
364.3364620793011
 30
0.0
 11
1794.146995227765
 21
365.4364620793011
 31
0.0
  0
LINE
  5
78AB
330
1F
100
AcDbEntity
  8
AM_VIS
100
AcDbLine
 10
1793.646995227766
 20
364.3364620793011
 30
0.0
 11
1745.646995227765
 21
364.3364620793011
 31
0.0
  0
LINE
  5
78AC
330
1F
100
AcDbEntity
  8
AM_VIS
100
AcDbLine
 10
1745.146995227766
 20
365.4364620793011
 30
0.0
 11
1745.146995227766
 21
364.3364620793011
 31
0.0
  0
LINE
  5
78AD
330
1F
100
AcDbEntity
  8
AM_VIS
100
AcDbLine
 10
1806.146995227766
 20
334.336462079301
 30
0.0
 11
1733.146995227766
 21
334.336462079301
 31
0.0
  0
LINE
  5
78AE
330
1F
100
AcDbEntity
  8
AM_VIS
100
AcDbLine
 10
1806.146995227766
 20
334.336462079301
 30
0.0
 11
1806.146995227766
 21
349.336462079301
 31
0.0
  0
LINE
  5
78AF
330
1F
100
AcDbEntity
  8
AM_VIS
100
AcDbLine
 10
1733.146995227766
 20
334.336462079301
 30
0.0
 11
1733.146995227766
 21
349.336462079301
 31
0.0
  0
LINE
  5
78B0
330
1F
100
AcDbEntity
  8
AM_VIS
100
AcDbLine
 10
1794.146995227766
 20
364.336462079301
 30
0.0
 11
1745.146995227766
 21
364.336462079301
 31
0.0
  0
LINE
  5
78B1
330
1F
100
AcDbEntity
  8
AM_VIS
100
AcDbLine
 10
1794.146995227766
 20
349.336462079301
 30
0.0
 11
1794.146995227766
 21
364.336462079301
 31
0.0
  0
LINE
  5
78B2
330
1F
100
AcDbEntity
  8
AM_VIS
100
AcDbLine
 10
1745.146995227766
 20
349.336462079301
 30
0.0
 11
1745.146995227766
 21
364.336462079301
 31
0.0
  0
LINE
  5
78B3
330
1F
100
AcDbEntity
  8
AM_VIS
100
AcDbLine
 10
1806.146995227766
 20
349.336462079301
 30
0.0
 11
1733.146995227766
 21
349.336462079301
 31
0.0
  0
LINE
  5
78B4
330
1F
100
AcDbEntity
  8
AM_VIS
100
AcDbLine
 10
1794.146995227766
 20
367.436462079301
 30
0.0
 11
1896.146995227766
 21
367.436462079301
 31
0.0
  0
LINE
  5
78B5
330
1F
100
AcDbEntity
  8
AM_VIS
100
AcDbLine
 10
1794.146995227766
 20
439.4364620793011
 30
0.0
 11
1896.146995227766
 21
439.4364620793011
 31
0.0
  0
LINE
  5
78B6
330
1F
100
AcDbEntity
  8
AM_VIS
100
AcDbLine
 10
1745.146995227766
 20
439.4364620793011
 30
0.0
 11
1643.146995227766
 21
439.4364620793011
 31
0.0
  0
LINE
  5
78B7
330
1F
100
AcDbEntity
  8
AM_VIS
100
AcDbLine
 10
1745.146995227766
 20
367.436462079301
 30
0.0
 11
1643.146995227766
 21
367.436462079301
 31
0.0
  0
LINE
  5
78B8
330
1F
100
AcDbEntity
  8
AM_VIS
100
AcDbLine
 10
1896.146995227766
 20
362.636462079301
 30
0.0
 11
1794.146995227766
 21
362.636462079301
 31
0.0
  0
LINE
  5
78B9
330
1F
100
AcDbEntity
  8
AM_VIS
100
AcDbLine
 10
1896.146995227766
 20
350.6364620793011
 30
0.0
 11
1794.146995227766
 21
350.6364620793011
 31
0.0
  0
LINE
  5
78BA
330
1F
100
AcDbEntity
  8
AM_VIS
100
AcDbLine
 10
1745.146995227766
 20
362.636462079301
 30
0.0
 11
1643.146995227766
 21
362.636462079301
 31
0.0
  0
LINE
  5
78BB
330
1F
100
AcDbEntity
  8
AM_VIS
100
AcDbLine
 10
1745.146995227766
 20
350.6364620793011
 30
0.0
 11
1643.146995227766
 21
350.6364620793011
 31
0.0
  0
LINE
  5
78BC
330
1F
100
AcDbEntity
  8
AM_VIS
100
AcDbLine
 10
1917.146995227766
 20
443.4364620793011
 30
0.0
 11
1896.146995227766
 21
443.4364620793011
 31
0.0
  0
LINE
  5
78BD
330
1F
100
AcDbEntity
  8
AM_VIS
100
AcDbLine
 10
1896.146995227766
 20
423.4364620793011
 30
0.0
 11
1896.146995227766
 21
378.4364620793011
 31
0.0
  0
LINE
  5
78BE
330
1F
100
AcDbEntity
  8
AM_VIS
100
AcDbLine
 10
1907.146995227766
 20
416.4364620793009
 30
0.0
 11
1917.146995227766
 21
416.4364620793009
 31
0.0
  0
LINE
  5
78BF
330
1F
100
AcDbEntity
  8
AM_VIS
100
AcDbLine
 10
1907.146995227766
 20
390.436462079301
 30
0.0
 11
1907.146995227766
 21
416.4364620793009
 31
0.0
  0
LINE
  5
78C0
330
1F
100
AcDbEntity
  8
AM_VIS
100
AcDbLine
 10
1917.146995227766
 20
390.4364620793011
 30
0.0
 11
1907.146995227766
 21
390.4364620793011
 31
0.0
  0
LINE
  5
78C1
330
1F
100
AcDbEntity
  8
AM_VIS
100
AcDbLine
 10
1917.146995227766
 20
390.436462079301
 30
0.0
 11
1917.146995227766
 21
378.4364620793011
 31
0.0
  0
LINE
  5
78C2
330
1F
100
AcDbEntity
  8
AM_VIS
100
AcDbLine
 10
1917.146995227766
 20
423.4364620793011
 30
0.0
 11
1917.146995227766
 21
416.4364620793009
 31
0.0
  0
LINE
  5
78C3
330
1F
100
AcDbEntity
  8
AM_VIS
100
AcDbLine
 10
1896.146995227766
 20
343.4364620793011
 30
0.0
 11
1917.146995227766
 21
343.4364620793011
 31
0.0
  0
LINE
  5
78C4
330
1F
100
AcDbEntity
  8
AM_VIS
100
AcDbLine
 10
1896.146995227766
 20
423.4364620793011
 30
0.0
 11
1896.146995227766
 21
443.4364620793011
 31
0.0
  0
LINE
  5
78C5
330
1F
100
AcDbEntity
  8
AM_VIS
100
AcDbLine
 10
1896.146995227766
 20
343.4364620793011
 30
0.0
 11
1896.146995227766
 21
378.4364620793011
 31
0.0
  0
LINE
  5
78C6
330
1F
100
AcDbEntity
  8
AM_VIS
100
AcDbLine
 10
1917.146995227766
 20
378.4364620793011
 30
0.0
 11
1917.146995227766
 21
343.4364620793011
 31
0.0
  0
LINE
  5
78C7
330
1F
100
AcDbEntity
  8
AM_VIS
100
AcDbLine
 10
1917.146995227766
 20
416.436462079301
 30
0.0
 11
1917.146995227766
 21
411.9386664809547
 31
0.0
  0
LINE
  5
78C8
330
1F
100
AcDbEntity
  8
AM_VIS
100
AcDbLine
 10
1917.146995227766
 20
394.9342576776474
 30
0.0
 11
1917.146995227766
 21
390.4364620793011
 31
0.0
  0
LINE
  5
78C9
330
1F
100
AcDbEntity
  8
AM_VIS
100
AcDbLine
 10
1917.146995227766
 20
443.4364620793011
 30
0.0
 11
1917.146995227766
 21
423.4364620793011
 31
0.0
  0
LINE
  5
78CA
330
1F
100
AcDbEntity
  8
AM_VIS
100
AcDbLine
 10
1632.146995227766
 20
390.4364620793011
 30
0.0
 11
1622.146995227766
 21
390.4364620793011
 31
0.0
  0
LINE
  5
78CB
330
1F
100
AcDbEntity
  8
AM_VIS
100
AcDbLine
 10
1632.146995227766
 20
416.4364620793009
 30
0.0
 11
1632.146995227766
 21
390.436462079301
 31
0.0
  0
LINE
  5
78CC
330
1F
100
AcDbEntity
  8
AM_VIS
100
AcDbLine
 10
1622.146995227766
 20
416.436462079301
 30
0.0
 11
1632.146995227766
 21
416.436462079301
 31
0.0
  0
LINE
  5
78CD
330
1F
100
AcDbEntity
  8
AM_VIS
100
AcDbLine
 10
1643.146995227766
 20
378.4364620793011
 30
0.0
 11
1643.146995227766
 21
423.4364620793011
 31
0.0
  0
LINE
  5
78CE
330
1F
100
AcDbEntity
  8
AM_VIS
100
AcDbLine
 10
1643.146995227766
 20
443.4364620793011
 30
0.0
 11
1622.146995227766
 21
443.4364620793011
 31
0.0
  0
LINE
  5
78CF
330
1F
100
AcDbEntity
  8
AM_VIS
100
AcDbLine
 10
1622.146995227766
 20
416.4364620793009
 30
0.0
 11
1622.146995227766
 21
423.4364620793011
 31
0.0
  0
LINE
  5
78D0
330
1F
100
AcDbEntity
  8
AM_VIS
100
AcDbLine
 10
1622.146995227766
 20
378.4364620793011
 30
0.0
 11
1622.146995227766
 21
390.436462079301
 31
0.0
  0
LINE
  5
78D1
330
1F
100
AcDbEntity
  8
AM_VIS
100
AcDbLine
 10
1622.146995227766
 20
343.4364620793011
 30
0.0
 11
1643.146995227766
 21
343.4364620793011
 31
0.0
  0
LINE
  5
78D2
330
1F
100
AcDbEntity
  8
AM_VIS
100
AcDbLine
 10
1643.146995227766
 20
443.4364620793011
 30
0.0
 11
1643.146995227766
 21
423.4364620793011
 31
0.0
  0
LINE
  5
78D3
330
1F
100
AcDbEntity
  8
AM_VIS
100
AcDbLine
 10
1622.146995227766
 20
423.4364620793011
 30
0.0
 11
1622.146995227766
 21
443.4364620793011
 31
0.0
  0
LINE
  5
78D4
330
1F
100
AcDbEntity
  8
AM_VIS
100
AcDbLine
 10
1622.146995227766
 20
390.4364620793011
 30
0.0
 11
1622.146995227766
 21
394.9342576776475
 31
0.0
  0
LINE
  5
78D5
330
1F
100
AcDbEntity
  8
AM_VIS
100
AcDbLine
 10
1622.146995227766
 20
411.9386664809547
 30
0.0
 11
1622.146995227766
 21
416.436462079301
 31
0.0
  0
LINE
  5
78D6
330
1F
100
AcDbEntity
  8
AM_VIS
100
AcDbLine
 10
1622.146995227766
 20
343.4364620793011
 30
0.0
 11
1622.146995227766
 21
378.4364620793011
 31
0.0
  0
LINE
  5
78D7
330
1F
100
AcDbEntity
  8
AM_VIS
100
AcDbLine
 10
1643.146995227766
 20
378.4364620793011
 30
0.0
 11
1643.146995227766
 21
343.4364620793011
 31
0.0
  0
LINE
  5
78D8
330
1F
100
AcDbEntity
  8
AM_VIS
100
AcDbLine
 10
1621.346995227766
 20
399.4864620793011
 30
0.0
 11
1621.946995227766
 21
398.886462079301
 31
0.0
  0
LINE
  5
78D9
330
1F
100
AcDbEntity
  8
AM_VIS
100
AcDbLine
 10
1621.346995227766
 20
407.386462079301
 30
0.0
 11
1621.946995227766
 21
407.9864620793011
 31
0.0
  0
LINE
  5
78DA
330
1F
100
AcDbEntity
  8
AM_VIS
100
AcDbLine
 10
1918.346995227766
 20
407.386462079301
 30
0.0
 11
1917.346995227766
 21
408.386462079301
 31
0.0
  0
LINE
  5
78DB
330
1F
100
AcDbEntity
  8
AM_VIS
100
AcDbLine
 10
1918.346995227766
 20
399.4864620793011
 30
0.0
 11
1917.346995227766
 21
398.4864620793011
 31
0.0
  0
LINE
  5
78DC
330
1F
100
AcDbEntity
  8
AM_VIS
100
AcDbLine
 10
1643.146995227766
 20
398.9714620793011
 30
0.0
 11
1896.146995227766
 21
398.9714620793011
 31
0.0
  0
LINE
  5
78DD
330
1F
100
AcDbEntity
  8
AM_VIS
100
AcDbLine
 10
1643.146995227766
 20
407.901462079301
 30
0.0
 11
1896.146995227766
 21
407.901462079301
 31
0.0
  0
LINE
  5
78DE
330
1F
100
AcDbEntity
  8
AM_VIS
100
AcDbLine
 10
1621.346995227766
 20
399.4864620793011
 30
0.0
 11
1621.346995227766
 21
407.386462079301
 31
0.0
  0
LINE
  5
78DF
330
1F
100
AcDbEntity
  8
AM_VIS
100
AcDbLine
 10
1918.346995227766
 20
407.386462079301
 30
0.0
 11
1918.346995227766
 21
399.4864620793011
 31
0.0
  0
LINE
  5
78E0
330
1F
100
AcDbEntity
  8
AM_VIS
100
AcDbLine
 10
1902.446995227766
 20
343.4364620793011
 30
0.0
 11
1902.446995227766
 21
342.8694747811933
 31
0.0
  0
LINE
  5
78E1
330
1F
100
AcDbEntity
  8
AM_VIS
100
AcDbLine
 10
1911.846995227766
 20
343.4364620793011
 30
0.0
 11
1911.846995227766
 21
342.8694747811933
 31
0.0
  0
LINE
  5
78E2
330
1F
100
AcDbEntity
  8
AM_VIS
100
AcDbLine
 10
1911.096995227766
 20
342.436462079301
 30
0.0
 11
1911.846995227766
 21
342.8694747811933
 31
0.0
  0
LINE
  5
78E3
330
1F
100
AcDbEntity
  8
AM_VIS
100
AcDbLine
 10
1903.196995227766
 20
342.436462079301
 30
0.0
 11
1902.446995227766
 21
342.8694747811933
 31
0.0
  0
LINE
  5
78E4
330
1F
100
AcDbEntity
  8
AM_VIS
100
AcDbLine
 10
1902.446995227766
 20
342.8694747811933
 30
0.0
 11
1911.846995227766
 21
342.8694747811933
 31
0.0
  0
LINE
  5
78E5
330
1F
100
AcDbEntity
  8
AM_VIS
100
AcDbLine
 10
1911.096995227766
 20
342.436462079301
 30
0.0
 11
1903.196995227766
 21
342.436462079301
 31
0.0
  0
LINE
  5
78E6
330
1F
100
AcDbEntity
  8
AM_VIS
100
AcDbLine
 10
1627.446995227766
 20
343.4364620793011
 30
0.0
 11
1627.446995227766
 21
342.8694747811933
 31
0.0
  0
LINE
  5
78E7
330
1F
100
AcDbEntity
  8
AM_VIS
100
AcDbLine
 10
1636.846995227766
 20
343.4364620793011
 30
0.0
 11
1636.846995227766
 21
342.8694747811933
 31
0.0
  0
LINE
  5
78E8
330
1F
100
AcDbEntity
  8
AM_VIS
100
AcDbLine
 10
1636.096995227766
 20
342.436462079301
 30
0.0
 11
1636.846995227766
 21
342.8694747811933
 31
0.0
  0
LINE
  5
78E9
330
1F
100
AcDbEntity
  8
AM_VIS
100
AcDbLine
 10
1628.196995227766
 20
342.436462079301
 30
0.0
 11
1627.446995227766
 21
342.8694747811933
 31
0.0
  0
LINE
  5
78EA
330
1F
100
AcDbEntity
  8
AM_VIS
100
AcDbLine
 10
1627.446995227766
 20
342.8694747811933
 30
0.0
 11
1636.846995227766
 21
342.8694747811933
 31
0.0
  0
LINE
  5
78EB
330
1F
100
AcDbEntity
  8
AM_VIS
100
AcDbLine
 10
1636.096995227766
 20
342.436462079301
 30
0.0
 11
1628.196995227766
 21
342.436462079301
 31
0.0
  0
ELLIPSE
  5
78EC
330
1F
100
AcDbEntity
  8
AM_VIS
100
AcDbEllipse
 10
1908.584892872436
 20
403.436462079301
 30
0.0
 11
15.67505980849857
 21
0.0
 31
0.0
210
0.0
220
0.0
230
1.0
 40
0.5773502691896181
 41
1.522158367792812
 42
1.662657022136251
  0
ELLIPSE
  5
78ED
330
1F
100
AcDbEntity
  8
AM_VIS
100
AcDbEllipse
 10
1910.109097583096
 20
403.436462079301
 30
0.0
 11
15.67505980849857
 21
0.0
 31
0.0
210
0.0
220
0.0
230
1.0
 40
0.5773502691896181
 41
1.619434285796981
 42
1.760908579289842
  0
LINE
  5
78EE
330
1F
100
AcDbEntity
  8
AM_VIS
100
AcDbLine
 10
1907.146995227766
 20
394.3864620793011
 30
0.0
 11
1909.346995227766
 21
394.3864620793011
 31
0.0
  0
LINE
  5
78EF
330
1F
100
AcDbEntity
  8
AM_VIS
100
AcDbLine
 10
1907.146995227766
 20
412.486462079301
 30
0.0
 11
1908.584892872436
 21
412.486462079301
 31
0.0
  0
LINE
  5
78F0
330
1F
100
AcDbEntity
  8
AM_VIS
100
AcDbLine
 10
1909.346995227766
 20
394.3864620793011
 30
0.0
 11
1909.346995227766
 21
412.47575961838
 31
0.0
  0
LINE
  5
78F1
330
1F
100
AcDbEntity
  8
AM_VIS
100
AcDbLine
 10
1909.348267939654
 20
411.9386664809547
 30
0.0
 11
1910.107654207423
 21
411.9386664809547
 31
0.0
  0
LINE
  5
78F2
330
1F
100
AcDbEntity
  8
AM_VIS
100
AcDbLine
 10
1916.586336248108
 20
411.9386664809547
 30
0.0
 11
1917.345722515878
 21
411.9386664809547
 31
0.0
  0
LINE
  5
78F3
330
1F
100
AcDbEntity
  8
AM_VIS
100
AcDbLine
 10
1909.348267939654
 20
394.9342576776474
 30
0.0
 11
1910.107654207423
 21
394.9342576776474
 31
0.0
  0
LINE
  5
78F4
330
1F
100
AcDbEntity
  8
AM_VIS
100
AcDbLine
 10
1916.586336248108
 20
394.9342576776474
 30
0.0
 11
1917.345722515878
 21
394.9342576776474
 31
0.0
  0
LINE
  5
78F5
330
1F
100
AcDbEntity
  8
AM_VIS
100
AcDbLine
 10
1910.107654207423
 20
394.9342576776474
 30
0.0
 11
1916.586336248108
 21
394.9342576776474
 31
0.0
  0
SPLINE
  5
78F6
330
1F
100
AcDbEntity
  8
AM_VIS
100
AcDbSpline
210
0.0
220
0.0
230
1.0
 70
    12
 71
     2
 72
     6
 73
     3
 74
     0
 42
0.0000000001
 43
0.0000000001
 40
0.0
 40
0.0
 40
0.0
 40
9.934282876217285
 40
9.934282876217285
 40
9.934282876217285
 10
1910.107654207423
 20
394.9342576776474
 30
0.0
 41
1.0
 10
1908.690620140481
 20
399.1853598784741
 30
0.0
 41
1.154700538379253
 10
1910.107654207423
 20
403.4364620793011
 30
0.0
 41
1.0
  0
SPLINE
  5
78F7
330
1F
100
AcDbEntity
  8
AM_VIS
100
AcDbSpline
210
0.0
220
0.0
230
1.0
 70
    12
 71
     2
 72
     6
 73
     3
 74
     0
 42
0.0000000001
 43
0.0000000001
 40
0.0
 40
0.0
 40
0.0
 40
9.934282876217281
 40
9.934282876217281
 40
9.934282876217281
 10
1916.586336248108
 20
403.436462079301
 30
0.0
 41
1.0
 10
1918.003370315051
 20
399.1853598784742
 30
0.0
 41
1.154700538379333
 10
1916.586336248108
 20
394.9342576776474
 30
0.0
 41
1.0
  0
LINE
  5
78F8
330
1F
100
AcDbEntity
  8
AM_VIS
100
AcDbLine
 10
1916.586336248108
 20
403.436462079301
 30
0.0
 11
1910.107654207423
 21
403.436462079301
 31
0.0
  0
SPLINE
  5
78F9
330
1F
100
AcDbEntity
  8
AM_VIS
100
AcDbSpline
210
0.0
220
0.0
230
1.0
 70
    12
 71
     2
 72
     6
 73
     3
 74
     0
 42
0.0000000001
 43
0.0000000001
 40
0.0
 40
0.0
 40
0.0
 40
9.934282876217286
 40
9.934282876217286
 40
9.934282876217286
 10
1910.107654207423
 20
403.4364620793009
 30
0.0
 41
1.0
 10
1908.690620140481
 20
407.6875642801278
 30
0.0
 41
1.154700538379253
 10
1910.107654207423
 20
411.9386664809547
 30
0.0
 41
1.0
  0
LINE
  5
78FA
330
1F
100
AcDbEntity
  8
AM_VIS
100
AcDbLine
 10
1916.586336248108
 20
411.9386664809547
 30
0.0
 11
1910.107654207423
 21
411.9386664809547
 31
0.0
  0
SPLINE
  5
78FB
330
1F
100
AcDbEntity
  8
AM_VIS
100
AcDbSpline
210
0.0
220
0.0
230
1.0
 70
    12
 71
     2
 72
     6
 73
     3
 74
     0
 42
0.0000000001
 43
0.0000000001
 40
0.0
 40
0.0
 40
0.0
 40
9.934282876217281
 40
9.934282876217281
 40
9.934282876217281
 10
1916.586336248108
 20
411.9386664809547
 30
0.0
 41
1.0
 10
1918.003370315051
 20
407.6875642801278
 30
0.0
 41
1.154700538379333
 10
1916.586336248108
 20
403.436462079301
 30
0.0
 41
1.0
  0
LINE
  5
78FC
330
1F
100
AcDbEntity
  8
AM_VIS
100
AcDbLine
 10
1917.346995227766
 20
411.9364620793009
 30
0.0
 11
1917.345722515878
 21
411.9386664809547
 31
0.0
  0
LINE
  5
78FD
330
1F
100
AcDbEntity
  8
AM_VIS
100
AcDbLine
 10
1917.346995227766
 20
394.9364620793011
 30
0.0
 11
1917.345722515878
 21
394.9342576776474
 31
0.0
  0
LINE
  5
78FE
330
1F
100
AcDbEntity
  8
AM_VIS
100
AcDbLine
 10
1909.346995227766
 20
394.9364620793011
 30
0.0
 11
1909.348267939654
 21
394.9342576776474
 31
0.0
  0
LINE
  5
78FF
330
1F
100
AcDbEntity
  8
AM_VIS
100
AcDbLine
 10
1909.346995227766
 20
411.936462079301
 30
0.0
 11
1909.348267939654
 21
411.9386664809547
 31
0.0
  0
LINE
  5
7900
330
1F
100
AcDbEntity
  8
AM_VIS
100
AcDbLine
 10
1917.346995227766
 20
394.9364620793011
 30
0.0
 11
1917.346995227766
 21
411.9364620793009
 31
0.0
  0
LINE
  5
7901
330
1F
100
AcDbEntity
  8
AM_VIS
100
AcDbLine
 10
1621.948267939654
 20
411.9386664809547
 30
0.0
 11
1622.707654207423
 21
411.9386664809547
 31
0.0
  0
LINE
  5
7902
330
1F
100
AcDbEntity
  8
AM_VIS
100
AcDbLine
 10
1629.186336248108
 20
411.9386664809547
 30
0.0
 11
1629.945722515877
 21
411.9386664809547
 31
0.0
  0
LINE
  5
7903
330
1F
100
AcDbEntity
  8
AM_VIS
100
AcDbLine
 10
1621.948267939654
 20
394.9342576776474
 30
0.0
 11
1622.707654207423
 21
394.9342576776474
 31
0.0
  0
LINE
  5
7904
330
1F
100
AcDbEntity
  8
AM_VIS
100
AcDbLine
 10
1629.186336248108
 20
394.9342576776474
 30
0.0
 11
1629.945722515877
 21
394.9342576776474
 31
0.0
  0
LINE
  5
7905
330
1F
100
AcDbEntity
  8
AM_VIS
100
AcDbLine
 10
1622.707654207423
 20
394.9342576776474
 30
0.0
 11
1629.186336248108
 21
394.9342576776474
 31
0.0
  0
SPLINE
  5
7906
330
1F
100
AcDbEntity
  8
AM_VIS
100
AcDbSpline
210
0.0
220
0.0
230
1.0
 70
    12
 71
     2
 72
     6
 73
     3
 74
     0
 42
0.0000000001
 43
0.0000000001
 40
0.0
 40
0.0
 40
0.0
 40
9.934282876217285
 40
9.934282876217285
 40
9.934282876217285
 10
1622.707654207423
 20
394.9342576776474
 30
0.0
 41
1.0
 10
1621.290620140481
 20
399.1853598784741
 30
0.0
 41
1.154700538379253
 10
1622.707654207423
 20
403.4364620793011
 30
0.0
 41
1.0
  0
SPLINE
  5
7907
330
1F
100
AcDbEntity
  8
AM_VIS
100
AcDbSpline
210
0.0
220
0.0
230
1.0
 70
    12
 71
     2
 72
     6
 73
     3
 74
     0
 42
0.0000000001
 43
0.0000000001
 40
0.0
 40
0.0
 40
0.0
 40
9.934282876217281
 40
9.934282876217281
 40
9.934282876217281
 10
1629.186336248108
 20
403.436462079301
 30
0.0
 41
1.0
 10
1630.603370315051
 20
399.1853598784742
 30
0.0
 41
1.154700538379333
 10
1629.186336248108
 20
394.9342576776474
 30
0.0
 41
1.0
  0
LINE
  5
7908
330
1F
100
AcDbEntity
  8
AM_VIS
100
AcDbLine
 10
1629.186336248108
 20
403.436462079301
 30
0.0
 11
1622.707654207423
 21
403.436462079301
 31
0.0
  0
SPLINE
  5
7909
330
1F
100
AcDbEntity
  8
AM_VIS
100
AcDbSpline
210
0.0
220
0.0
230
1.0
 70
    12
 71
     2
 72
     6
 73
     3
 74
     0
 42
0.0000000001
 43
0.0000000001
 40
0.0
 40
0.0
 40
0.0
 40
9.934282876217286
 40
9.934282876217286
 40
9.934282876217286
 10
1622.707654207423
 20
403.4364620793009
 30
0.0
 41
1.0
 10
1621.290620140481
 20
407.6875642801278
 30
0.0
 41
1.154700538379253
 10
1622.707654207423
 20
411.9386664809547
 30
0.0
 41
1.0
  0
LINE
  5
790A
330
1F
100
AcDbEntity
  8
AM_VIS
100
AcDbLine
 10
1629.186336248108
 20
411.9386664809547
 30
0.0
 11
1622.707654207423
 21
411.9386664809547
 31
0.0
  0
SPLINE
  5
790B
330
1F
100
AcDbEntity
  8
AM_VIS
100
AcDbSpline
210
0.0
220
0.0
230
1.0
 70
    12
 71
     2
 72
     6
 73
     3
 74
     0
 42
0.0000000001
 43
0.0000000001
 40
0.0
 40
0.0
 40
0.0
 40
9.934282876217281
 40
9.934282876217281
 40
9.934282876217281
 10
1629.186336248108
 20
411.9386664809547
 30
0.0
 41
1.0
 10
1630.603370315051
 20
407.6875642801278
 30
0.0
 41
1.154700538379333
 10
1629.186336248108
 20
403.436462079301
 30
0.0
 41
1.0
  0
LINE
  5
790C
330
1F
100
AcDbEntity
  8
AM_VIS
100
AcDbLine
 10
1629.946995227766
 20
411.9364620793009
 30
0.0
 11
1629.945722515877
 21
411.9386664809547
 31
0.0
  0
LINE
  5
790D
330
1F
100
AcDbEntity
  8
AM_VIS
100
AcDbLine
 10
1629.946995227766
 20
394.9364620793011
 30
0.0
 11
1629.945722515877
 21
394.9342576776474
 31
0.0
  0
LINE
  5
790E
330
1F
100
AcDbEntity
  8
AM_VIS
100
AcDbLine
 10
1621.946995227766
 20
394.9364620793011
 30
0.0
 11
1621.948267939654
 21
394.9342576776474
 31
0.0
  0
LINE
  5
790F
330
1F
100
AcDbEntity
  8
AM_VIS
100
AcDbLine
 10
1621.946995227766
 20
411.936462079301
 30
0.0
 11
1621.948267939654
 21
411.9386664809548
 31
0.0
  0
LINE
  5
7910
330
1F
100
AcDbEntity
  8
AM_VIS
100
AcDbLine
 10
1621.946995227766
 20
394.9364620793011
 30
0.0
 11
1621.946995227766
 21
411.936462079301
 31
0.0
  0
ELLIPSE
  5
7911
330
1F
100
AcDbEntity
  8
AM_VIS
100
AcDbEllipse
 10
1630.709097583096
 20
403.436462079301
 30
0.0
 11
-15.67505980849857
 21
0.0
 31
0.0
210
0.0
220
0.0
230
1.0
 40
0.5773502691896181
 41
1.522158367792812
 42
1.662657022136251
  0
ELLIPSE
  5
7912
330
1F
100
AcDbEntity
  8
AM_VIS
100
AcDbEllipse
 10
1629.184892872435
 20
403.436462079301
 30
0.0
 11
-15.67505980849857
 21
0.0
 31
0.0
210
0.0
220
0.0
230
1.0
 40
0.5773502691896181
 41
1.619434285796981
 42
1.760908579289842
  0
LINE
  5
7913
330
1F
100
AcDbEntity
  8
AM_VIS
100
AcDbLine
 10
1632.146995227766
 20
412.486462079301
 30
0.0
 11
1629.946995227766
 21
412.486462079301
 31
0.0
  0
LINE
  5
7914
330
1F
100
AcDbEntity
  8
AM_VIS
100
AcDbLine
 10
1632.146995227766
 20
394.3864620793011
 30
0.0
 11
1630.709097583096
 21
394.3864620793011
 31
0.0
  0
LINE
  5
7915
330
1F
100
AcDbEntity
  8
AM_VIS
100
AcDbLine
 10
1629.946995227766
 20
412.486462079301
 30
0.0
 11
1629.946995227766
 21
394.397164540222
 31
0.0
  0
LINE
  5
7916
330
1F
100
AcDbEntity
  8
AM_VIS
100
AcDbLine
 10
1784.325030888469
 20
443.9364620793011
 30
0.0
 11
1778.968959567062
 21
443.9364620793011
 31
0.0
  0
LINE
  5
7917
330
1F
100
AcDbEntity
  8
AM_VIS
100
AcDbLine
 10
1790.325030888469
 20
443.9364620793011
 30
0.0
 11
1784.968959567062
 21
443.9364620793011
 31
0.0
  0
LINE
  5
7918
330
1F
100
AcDbEntity
  8
AM_VIS
100
AcDbLine
 10
1790.325030888469
 20
453.936462079301
 30
0.0
 11
1784.968959567062
 21
453.936462079301
 31
0.0
  0
LINE
  5
7919
330
1F
100
AcDbEntity
  8
AM_VIS
100
AcDbLine
 10
1784.325030888469
 20
453.936462079301
 30
0.0
 11
1778.968959567063
 21
453.936462079301
 31
0.0
  0
LINE
  5
791A
330
1F
100
AcDbEntity
  8
AM_VIS
100
AcDbLine
 10
1790.646995227766
 20
453.936462079301
 30
0.0
 11
1790.646995227766
 21
443.9364620793011
 31
0.0
  0
LINE
  5
791B
330
1F
100
AcDbEntity
  8
AM_VIS
100
AcDbLine
 10
1790.325030888469
 20
443.9364620793011
 30
0.0
 11
1790.325030888469
 21
453.936462079301
 31
0.0
  0
LINE
  5
791C
330
1F
100
AcDbEntity
  8
AM_VIS
100
AcDbLine
 10
1784.968959567062
 20
453.936462079301
 30
0.0
 11
1784.968959567062
 21
443.9364620793011
 31
0.0
  0
LINE
  5
791D
330
1F
100
AcDbEntity
  8
AM_VIS
100
AcDbLine
 10
1784.325030888469
 20
443.9364620793011
 30
0.0
 11
1784.325030888469
 21
453.936462079301
 31
0.0
  0
LINE
  5
791E
330
1F
100
AcDbEntity
  8
AM_VIS
100
AcDbLine
 10
1778.968959567063
 20
453.936462079301
 30
0.0
 11
1778.968959567063
 21
443.9364620793011
 31
0.0
  0
LINE
  5
791F
330
1F
100
AcDbEntity
  8
AM_VIS
100
AcDbLine
 10
1778.646995227766
 20
443.9364620793011
 30
0.0
 11
1778.646995227766
 21
453.936462079301
 31
0.0
  0
LINE
  5
7920
330
1F
100
AcDbEntity
  8
AM_VIS
100
AcDbLine
 10
1788.646995227766
 20
441.436462079301
 30
0.0
 11
1788.646995227766
 21
443.9364620793011
 31
0.0
  0
LINE
  5
7921
330
1F
100
AcDbEntity
  8
AM_VIS
100
AcDbLine
 10
1780.646995227766
 20
441.436462079301
 30
0.0
 11
1780.646995227766
 21
443.9364620793011
 31
0.0
  0
LINE
  5
7922
330
1F
100
AcDbEntity
  8
AM_VIS
100
AcDbLine
 10
1790.646995227766
 20
453.936462079301
 30
0.0
 11
1790.325030888469
 21
453.936462079301
 31
0.0
  0
LINE
  5
7923
330
1F
100
AcDbEntity
  8
AM_VIS
100
AcDbLine
 10
1790.325030888469
 20
443.9364620793011
 30
0.0
 11
1790.646995227766
 21
443.9364620793011
 31
0.0
  0
LINE
  5
7924
330
1F
100
AcDbEntity
  8
AM_VIS
100
AcDbLine
 10
1784.968959567062
 20
453.936462079301
 30
0.0
 11
1784.325030888469
 21
453.936462079301
 31
0.0
  0
LINE
  5
7925
330
1F
100
AcDbEntity
  8
AM_VIS
100
AcDbLine
 10
1784.325030888469
 20
443.9364620793011
 30
0.0
 11
1784.968959567062
 21
443.9364620793011
 31
0.0
  0
LINE
  5
7926
330
1F
100
AcDbEntity
  8
AM_VIS
100
AcDbLine
 10
1778.968959567063
 20
453.936462079301
 30
0.0
 11
1778.646995227766
 21
453.936462079301
 31
0.0
  0
LINE
  5
7927
330
1F
100
AcDbEntity
  8
AM_VIS
100
AcDbLine
 10
1778.646995227766
 20
443.9364620793011
 30
0.0
 11
1778.968959567063
 21
443.9364620793011
 31
0.0
  0
LINE
  5
7928
330
1F
100
AcDbEntity
  8
AM_VIS
100
AcDbLine
 10
1754.325030888469
 20
443.9364620793011
 30
0.0
 11
1748.968959567062
 21
443.9364620793011
 31
0.0
  0
LINE
  5
7929
330
1F
100
AcDbEntity
  8
AM_VIS
100
AcDbLine
 10
1760.325030888469
 20
443.9364620793011
 30
0.0
 11
1754.968959567062
 21
443.9364620793011
 31
0.0
  0
LINE
  5
792A
330
1F
100
AcDbEntity
  8
AM_VIS
100
AcDbLine
 10
1760.325030888469
 20
453.936462079301
 30
0.0
 11
1754.968959567062
 21
453.936462079301
 31
0.0
  0
LINE
  5
792B
330
1F
100
AcDbEntity
  8
AM_VIS
100
AcDbLine
 10
1754.325030888469
 20
453.936462079301
 30
0.0
 11
1748.968959567062
 21
453.936462079301
 31
0.0
  0
LINE
  5
792C
330
1F
100
AcDbEntity
  8
AM_VIS
100
AcDbLine
 10
1760.646995227766
 20
453.936462079301
 30
0.0
 11
1760.646995227766
 21
443.9364620793011
 31
0.0
  0
LINE
  5
792D
330
1F
100
AcDbEntity
  8
AM_VIS
100
AcDbLine
 10
1760.325030888469
 20
443.9364620793011
 30
0.0
 11
1760.325030888469
 21
453.936462079301
 31
0.0
  0
LINE
  5
792E
330
1F
100
AcDbEntity
  8
AM_VIS
100
AcDbLine
 10
1754.968959567062
 20
453.936462079301
 30
0.0
 11
1754.968959567062
 21
443.9364620793011
 31
0.0
  0
LINE
  5
792F
330
1F
100
AcDbEntity
  8
AM_VIS
100
AcDbLine
 10
1754.325030888469
 20
443.9364620793011
 30
0.0
 11
1754.325030888469
 21
453.936462079301
 31
0.0
  0
LINE
  5
7930
330
1F
100
AcDbEntity
  8
AM_VIS
100
AcDbLine
 10
1748.968959567062
 20
453.936462079301
 30
0.0
 11
1748.968959567062
 21
443.9364620793011
 31
0.0
  0
LINE
  5
7931
330
1F
100
AcDbEntity
  8
AM_VIS
100
AcDbLine
 10
1748.646995227766
 20
443.9364620793011
 30
0.0
 11
1748.646995227766
 21
453.936462079301
 31
0.0
  0
LINE
  5
7932
330
1F
100
AcDbEntity
  8
AM_VIS
100
AcDbLine
 10
1758.646995227766
 20
441.436462079301
 30
0.0
 11
1758.646995227766
 21
443.9364620793011
 31
0.0
  0
LINE
  5
7933
330
1F
100
AcDbEntity
  8
AM_VIS
100
AcDbLine
 10
1750.646995227766
 20
441.436462079301
 30
0.0
 11
1750.646995227766
 21
443.9364620793011
 31
0.0
  0
LINE
  5
7934
330
1F
100
AcDbEntity
  8
AM_VIS
100
AcDbLine
 10
1760.646995227766
 20
453.936462079301
 30
0.0
 11
1760.325030888469
 21
453.936462079301
 31
0.0
  0
LINE
  5
7935
330
1F
100
AcDbEntity
  8
AM_VIS
100
AcDbLine
 10
1760.325030888469
 20
443.9364620793011
 30
0.0
 11
1760.646995227766
 21
443.9364620793011
 31
0.0
  0
LINE
  5
7936
330
1F
100
AcDbEntity
  8
AM_VIS
100
AcDbLine
 10
1754.968959567062
 20
453.936462079301
 30
0.0
 11
1754.325030888469
 21
453.936462079301
 31
0.0
  0
LINE
  5
7937
330
1F
100
AcDbEntity
  8
AM_VIS
100
AcDbLine
 10
1754.325030888469
 20
443.9364620793011
 30
0.0
 11
1754.968959567062
 21
443.9364620793011
 31
0.0
  0
LINE
  5
7938
330
1F
100
AcDbEntity
  8
AM_VIS
100
AcDbLine
 10
1748.968959567062
 20
453.936462079301
 30
0.0
 11
1748.646995227766
 21
453.936462079301
 31
0.0
  0
LINE
  5
7939
330
1F
100
AcDbEntity
  8
AM_VIS
100
AcDbLine
 10
1748.646995227766
 20
443.9364620793011
 30
0.0
 11
1748.968959567062
 21
443.9364620793011
 31
0.0
  0
LINE
  5
793A
330
1F
100
AcDbEntity
  8
AM_VIS
100
AcDbLine
 10
1791.978434377073
 20
461.436462079301
 30
0.0
 11
1791.978434377073
 21
456.4364620793011
 31
0.0
  0
LINE
  5
793B
330
1F
100
AcDbEntity
  8
AM_VIS
100
AcDbLine
 10
1791.978434377073
 20
456.4364620793011
 30
0.0
 11
1777.315556078458
 21
456.4364620793011
 31
0.0
  0
LINE
  5
793C
330
1F
100
AcDbEntity
  8
AM_VIS
100
AcDbLine
 10
1777.315556078458
 20
456.4364620793011
 30
0.0
 11
1777.315556078458
 21
461.436462079301
 31
0.0
  0
LINE
  5
793D
330
1F
100
AcDbEntity
  8
AM_VIS
100
AcDbLine
 10
1788.646995227766
 20
453.936462079301
 30
0.0
 11
1788.646995227766
 21
456.4364620793011
 31
0.0
  0
LINE
  5
793E
330
1F
100
AcDbEntity
  8
AM_VIS
100
AcDbLine
 10
1780.646995227766
 20
453.936462079301
 30
0.0
 11
1780.646995227766
 21
456.4364620793011
 31
0.0
  0
LINE
  5
793F
330
1F
100
AcDbEntity
  8
AM_VIS
100
AcDbLine
 10
1796.646995227766
 20
456.4364620793011
 30
0.0
 11
1796.646995227766
 21
469.436462079301
 31
0.0
  0
LINE
  5
7940
330
1F
100
AcDbEntity
  8
AM_VIS
100
AcDbLine
 10
1772.646995227766
 20
456.4364620793011
 30
0.0
 11
1772.646995227766
 21
469.436462079301
 31
0.0
  0
LINE
  5
7941
330
1F
100
AcDbEntity
  8
AM_VIS
100
AcDbLine
 10
1772.646995227766
 20
469.436462079301
 30
0.0
 11
1796.646995227766
 21
469.436462079301
 31
0.0
  0
LINE
  5
7942
330
1F
100
AcDbEntity
  8
AM_VIS
100
AcDbLine
 10
1796.646995227766
 20
456.4364620793011
 30
0.0
 11
1791.978434377073
 21
456.4364620793011
 31
0.0
  0
LINE
  5
7943
330
1F
100
AcDbEntity
  8
AM_VIS
100
AcDbLine
 10
1777.315556078458
 20
456.4364620793011
 30
0.0
 11
1772.646995227766
 21
456.4364620793011
 31
0.0
  0
LINE
  5
7944
330
1F
100
AcDbEntity
  8
AM_VIS
100
AcDbLine
 10
1791.978434377073
 20
461.436462079301
 30
0.0
 11
1777.315556078458
 21
461.436462079301
 31
0.0
  0
LINE
  5
7945
330
1F
100
AcDbEntity
  8
AM_VIS
100
AcDbLine
 10
1761.978434377073
 20
461.436462079301
 30
0.0
 11
1761.978434377073
 21
456.4364620793011
 31
0.0
  0
LINE
  5
7946
330
1F
100
AcDbEntity
  8
AM_VIS
100
AcDbLine
 10
1761.978434377073
 20
456.4364620793011
 30
0.0
 11
1747.315556078458
 21
456.4364620793011
 31
0.0
  0
LINE
  5
7947
330
1F
100
AcDbEntity
  8
AM_VIS
100
AcDbLine
 10
1747.315556078458
 20
456.4364620793011
 30
0.0
 11
1747.315556078458
 21
461.436462079301
 31
0.0
  0
LINE
  5
7948
330
1F
100
AcDbEntity
  8
AM_VIS
100
AcDbLine
 10
1758.646995227766
 20
453.936462079301
 30
0.0
 11
1758.646995227766
 21
456.4364620793011
 31
0.0
  0
LINE
  5
7949
330
1F
100
AcDbEntity
  8
AM_VIS
100
AcDbLine
 10
1750.646995227766
 20
453.936462079301
 30
0.0
 11
1750.646995227766
 21
456.4364620793011
 31
0.0
  0
LINE
  5
794A
330
1F
100
AcDbEntity
  8
AM_VIS
100
AcDbLine
 10
1766.646995227766
 20
456.4364620793011
 30
0.0
 11
1766.646995227766
 21
469.436462079301
 31
0.0
  0
LINE
  5
794B
330
1F
100
AcDbEntity
  8
AM_VIS
100
AcDbLine
 10
1742.646995227766
 20
456.4364620793011
 30
0.0
 11
1742.646995227766
 21
469.436462079301
 31
0.0
  0
LINE
  5
794C
330
1F
100
AcDbEntity
  8
AM_VIS
100
AcDbLine
 10
1742.646995227766
 20
469.436462079301
 30
0.0
 11
1766.646995227766
 21
469.436462079301
 31
0.0
  0
LINE
  5
794D
330
1F
100
AcDbEntity
  8
AM_VIS
100
AcDbLine
 10
1766.646995227766
 20
456.4364620793011
 30
0.0
 11
1761.978434377073
 21
456.4364620793011
 31
0.0
  0
LINE
  5
794E
330
1F
100
AcDbEntity
  8
AM_VIS
100
AcDbLine
 10
1747.315556078458
 20
456.4364620793011
 30
0.0
 11
1742.646995227766
 21
456.4364620793011
 31
0.0
  0
LINE
  5
794F
330
1F
100
AcDbEntity
  8
AM_VIS
100
AcDbLine
 10
1761.978434377073
 20
461.436462079301
 30
0.0
 11
1747.315556078458
 21
461.436462079301
 31
0.0
  0
LINE
  5
7950
330
1F
100
AcDbEntity
  8
AM_VIS
100
AcDbLine
 10
2021.276775808655
 20
448.936462079301
 30
0.0
 11
2021.276775808655
 21
443.4364620793011
 31
0.0
  0
LINE
  5
7951
330
1F
100
AcDbEntity
  8
AM_VIS
100
AcDbLine
 10
2021.776775808656
 20
449.436462079301
 30
0.0
 11
2021.276775808655
 21
448.936462079301
 31
0.0
  0
LINE
  5
7952
330
1F
100
AcDbEntity
  8
AM_VIS
100
AcDbLine
 10
2022.276775808656
 20
448.936462079301
 30
0.0
 11
2021.776775808656
 21
449.436462079301
 31
0.0
  0
LINE
  5
7953
330
1F
100
AcDbEntity
  8
AM_VIS
100
AcDbLine
 10
2043.776775808655
 20
449.436462079301
 30
0.0
 11
2021.776775808656
 21
449.436462079301
 31
0.0
  0
LINE
  5
7954
330
1F
100
AcDbEntity
  8
AM_VIS
100
AcDbLine
 10
2065.776775808656
 20
449.436462079301
 30
0.0
 11
2043.776775808655
 21
449.436462079301
 31
0.0
  0
LINE
  5
7955
330
1F
100
AcDbEntity
  8
AM_VIS
100
AcDbLine
 10
2022.276775808656
 20
443.4364620793011
 30
0.0
 11
2022.276775808656
 21
448.936462079301
 31
0.0
  0
LINE
  5
7956
330
1F
100
AcDbEntity
  8
AM_VIS
100
AcDbLine
 10
2022.276775808656
 20
448.936462079301
 30
0.0
 11
2065.276775808656
 21
448.936462079301
 31
0.0
  0
LINE
  5
7957
330
1F
100
AcDbEntity
  8
AM_VIS
100
AcDbLine
 10
2065.276775808656
 20
448.936462079301
 30
0.0
 11
2065.276775808656
 21
443.4364620793011
 31
0.0
  0
LINE
  5
7958
330
1F
100
AcDbEntity
  8
AM_VIS
100
AcDbLine
 10
2065.776775808656
 20
449.436462079301
 30
0.0
 11
2065.276775808656
 21
448.936462079301
 31
0.0
  0
LINE
  5
7959
330
1F
100
AcDbEntity
  8
AM_VIS
100
AcDbLine
 10
2066.276775808656
 20
448.936462079301
 30
0.0
 11
2065.776775808656
 21
449.436462079301
 31
0.0
  0
LINE
  5
795A
330
1F
100
AcDbEntity
  8
AM_VIS
100
AcDbLine
 10
2066.276775808656
 20
443.4364620793011
 30
0.0
 11
2066.276775808656
 21
448.936462079301
 31
0.0
  0
LINE
  5
795B
330
1F
100
AcDbEntity
  8
AM_VIS
100
AcDbLine
 10
2062.776775808655
 20
453.2422023001753
 30
0.0
 11
2062.776775808655
 21
460.9364620793011
 31
0.0
  0
LINE
  5
795C
330
1F
100
AcDbEntity
  8
AM_VIS
100
AcDbLine
 10
2024.776775808655
 20
453.2422023001753
 30
0.0
 11
2024.776775808655
 21
460.9364620793011
 31
0.0
  0
LINE
  5
795D
330
1F
100
AcDbEntity
  8
AM_VIS
100
AcDbLine
 10
2025.276775808656
 20
461.436462079301
 30
0.0
 11
2024.776775808655
 21
460.9364620793011
 31
0.0
  0
LINE
  5
795E
330
1F
100
AcDbEntity
  8
AM_VIS
100
AcDbLine
 10
2062.276775808656
 20
461.436462079301
 30
0.0
 11
2062.776775808655
 21
460.9364620793011
 31
0.0
  0
LINE
  5
795F
330
1F
100
AcDbEntity
  8
AM_VIS
100
AcDbLine
 10
2062.776775808655
 20
460.9364620793011
 30
0.0
 11
2024.776775808655
 21
460.9364620793011
 31
0.0
  0
LINE
  5
7960
330
1F
100
AcDbEntity
  8
AM_VIS
100
AcDbLine
 10
2025.276775808656
 20
461.436462079301
 30
0.0
 11
2062.276775808656
 21
461.436462079301
 31
0.0
  0
LINE
  5
7961
330
1F
100
AcDbEntity
  8
AM_VIS
100
AcDbLine
 10
2065.276775808656
 20
449.436462079301
 30
0.0
 11
2065.276775808656
 21
450.636462079301
 31
0.0
  0
LINE
  5
7962
330
1F
100
AcDbEntity
  8
AM_VIS
100
AcDbLine
 10
2058.276775808656
 20
449.436462079301
 30
0.0
 11
2058.276775808656
 21
450.636462079301
 31
0.0
  0
LINE
  5
7963
330
1F
100
AcDbEntity
  8
AM_VIS
100
AcDbLine
 10
2065.276775808656
 20
450.636462079301
 30
0.0
 11
2058.276775808656
 21
450.636462079301
 31
0.0
  0
LINE
  5
7964
330
1F
100
AcDbEntity
  8
AM_VIS
100
AcDbLine
 10
2029.276775808655
 20
449.436462079301
 30
0.0
 11
2029.276775808655
 21
450.636462079301
 31
0.0
  0
LINE
  5
7965
330
1F
100
AcDbEntity
  8
AM_VIS
100
AcDbLine
 10
2022.276775808656
 20
449.436462079301
 30
0.0
 11
2022.276775808656
 21
450.636462079301
 31
0.0
  0
LINE
  5
7966
330
1F
100
AcDbEntity
  8
AM_VIS
100
AcDbLine
 10
2029.276775808655
 20
450.636462079301
 30
0.0
 11
2022.276775808656
 21
450.636462079301
 31
0.0
  0
LINE
  5
7967
330
1F
100
AcDbEntity
  8
AM_VIS
100
AcDbLine
 10
2061.276775808655
 20
452.4192952330946
 30
0.0
 11
2061.276775808655
 21
451.7629866893011
 31
0.0
  0
LINE
  5
7968
330
1F
100
AcDbEntity
  8
AM_VIS
100
AcDbLine
 10
2062.276775808655
 20
452.4192952330946
 30
0.0
 11
2062.276775808655
 21
451.7629866893011
 31
0.0
  0
LINE
  5
7969
330
1F
100
AcDbEntity
  8
AM_VIS
100
AcDbLine
 10
2065.276775807085
 20
450.636462079301
 30
0.0
 11
2065.276775807085
 21
450.6364800753146
 31
0.0
  0
LINE
  5
796A
330
1F
100
AcDbEntity
  8
AM_VIS
100
AcDbLine
 10
2058.276775810226
 20
450.636462079301
 30
0.0
 11
2058.276775810226
 21
450.6364800753146
 31
0.0
  0
LINE
  5
796B
330
1F
100
AcDbEntity
  8
AM_VIS
100
AcDbLine
 10
2065.276775805515
 20
450.6364800753146
 30
0.0
 11
2058.276775811796
 21
450.6364800753146
 31
0.0
  0
LINE
  5
796C
330
1F
100
AcDbEntity
  8
AM_VIS
100
AcDbLine
 10
2065.276775808656
 20
450.636462079301
 30
0.0
 11
2058.276775808656
 21
450.636462079301
 31
0.0
  0
LINE
  5
796D
330
1F
100
AcDbEntity
  8
AM_VIS
100
AcDbLine
 10
2061.276775808655
 20
451.7629866893011
 30
0.0
 11
2062.276775808655
 21
451.7629866893011
 31
0.0
  0
LINE
  5
796E
330
1F
100
AcDbEntity
  8
AM_VIS
100
AcDbLine
 10
2061.276775808655
 20
453.3331185816996
 30
0.0
 11
2061.276775808655
 21
452.4192952330946
 31
0.0
  0
LINE
  5
796F
330
1F
100
AcDbEntity
  8
AM_VIS
100
AcDbLine
 10
2062.276775808655
 20
452.4192952330946
 30
0.0
 11
2062.276775808655
 21
453.3331185816996
 31
0.0
  0
ARC
  5
7970
330
1F
100
AcDbEntity
  8
AM_VIS
100
AcDbCircle
 10
2060.576775776766
 20
450.6360786495886
 30
0.0
 40
2.299999999999999
100
AcDbArc
 50
129.1667119564777
 51
179.9900000000013
  0
ARC
  5
7971
330
1F
100
AcDbEntity
  8
AM_VIS
100
AcDbCircle
 10
2062.976775840546
 20
450.6360786495886
 30
0.0
 40
2.299999999999999
100
AcDbArc
 50
0.0099999999987094
 51
50.83328804352229
  0
ARC
  5
7972
330
1F
100
AcDbEntity
  8
AM_VIS
100
AcDbCircle
 10
2061.776775808656
 20
449.1629866893011
 30
0.0
 40
4.200000000000004
100
AcDbArc
 50
50.83328804352229
 51
83.16285883187189
  0
ARC
  5
7973
330
1F
100
AcDbEntity
  8
AM_VIS
100
AcDbCircle
 10
2061.776775808656
 20
449.1629866893011
 30
0.0
 40
4.200000000000004
100
AcDbArc
 50
96.83714116814105
 51
129.1667119564777
  0
LINE
  5
7974
330
1F
100
AcDbEntity
  8
AM_VIS
100
AcDbLine
 10
2025.276775808655
 20
452.4192952330946
 30
0.0
 11
2025.276775808655
 21
451.7629866893011
 31
0.0
  0
LINE
  5
7975
330
1F
100
AcDbEntity
  8
AM_VIS
100
AcDbLine
 10
2026.276775808655
 20
452.4192952330946
 30
0.0
 11
2026.276775808655
 21
451.7629866893011
 31
0.0
  0
LINE
  5
7976
330
1F
100
AcDbEntity
  8
AM_VIS
100
AcDbLine
 10
2029.276775807085
 20
450.636462079301
 30
0.0
 11
2029.276775807085
 21
450.6364800753146
 31
0.0
  0
LINE
  5
7977
330
1F
100
AcDbEntity
  8
AM_VIS
100
AcDbLine
 10
2022.276775810226
 20
450.636462079301
 30
0.0
 11
2022.276775810226
 21
450.6364800753146
 31
0.0
  0
LINE
  5
7978
330
1F
100
AcDbEntity
  8
AM_VIS
100
AcDbLine
 10
2029.276775805515
 20
450.6364800753146
 30
0.0
 11
2022.276775811796
 21
450.6364800753146
 31
0.0
  0
LINE
  5
7979
330
1F
100
AcDbEntity
  8
AM_VIS
100
AcDbLine
 10
2029.276775808655
 20
450.636462079301
 30
0.0
 11
2022.276775808656
 21
450.636462079301
 31
0.0
  0
LINE
  5
797A
330
1F
100
AcDbEntity
  8
AM_VIS
100
AcDbLine
 10
2025.276775808655
 20
451.7629866893011
 30
0.0
 11
2026.276775808655
 21
451.7629866893011
 31
0.0
  0
LINE
  5
797B
330
1F
100
AcDbEntity
  8
AM_VIS
100
AcDbLine
 10
2025.276775808655
 20
453.3331185816996
 30
0.0
 11
2025.276775808655
 21
452.4192952330946
 31
0.0
  0
LINE
  5
797C
330
1F
100
AcDbEntity
  8
AM_VIS
100
AcDbLine
 10
2026.276775808655
 20
452.4192952330946
 30
0.0
 11
2026.276775808655
 21
453.3331185816996
 31
0.0
  0
ARC
  5
797D
330
1F
100
AcDbEntity
  8
AM_VIS
100
AcDbCircle
 10
2024.576775776765
 20
450.6360786495886
 30
0.0
 40
2.299999999999999
100
AcDbArc
 50
129.1667119564777
 51
179.9900000000013
  0
ARC
  5
797E
330
1F
100
AcDbEntity
  8
AM_VIS
100
AcDbCircle
 10
2026.976775840546
 20
450.6360786495886
 30
0.0
 40
2.299999999999999
100
AcDbArc
 50
0.0099999999987094
 51
50.83328804352229
  0
ARC
  5
797F
330
1F
100
AcDbEntity
  8
AM_VIS
100
AcDbCircle
 10
2025.776775808656
 20
449.1629866893011
 30
0.0
 40
4.200000000000004
100
AcDbArc
 50
50.83328804352229
 51
83.16285883187189
  0
ARC
  5
7980
330
1F
100
AcDbEntity
  8
AM_VIS
100
AcDbCircle
 10
2025.776775808656
 20
449.1629866893011
 30
0.0
 40
4.200000000000004
100
AcDbArc
 50
96.83714116814105
 51
129.1667119564777
  0
LINE
  5
7981
330
1F
100
AcDbEntity
  8
AM_VIS
100
AcDbLine
 10
2059.476775808656
 20
466.9718449865491
 30
0.0
 11
2059.476775808656
 21
463.3302442966519
 31
0.0
  0
LINE
  5
7982
330
1F
100
AcDbEntity
  8
AM_VIS
100
AcDbLine
 10
2059.005851516167
 20
463.3302442966519
 30
0.0
 11
2059.005851516167
 21
466.9718449865491
 31
0.0
  0
LINE
  5
7983
330
1F
100
AcDbEntity
  8
AM_VIS
100
AcDbLine
 10
2050.750853030401
 20
466.9718449865491
 30
0.0
 11
2050.750853030401
 21
463.3302442966519
 31
0.0
  0
LINE
  5
7984
330
1F
100
AcDbEntity
  8
AM_VIS
100
AcDbLine
 10
2049.613941216625
 20
463.3302442966519
 30
0.0
 11
2049.613941216625
 21
466.9718449865491
 31
0.0
  0
SPLINE
  5
7985
330
1F
100
AcDbEntity
  8
AM_VIS
100
AcDbSpline
210
0.0
220
0.0
230
1.0
 70
    12
 71
     2
 72
     6
 73
     3
 74
     0
 42
0.0000000001
 43
0.0000000001
 40
1.370888785601138
 40
1.370888785601138
 40
1.370888785601138
 40
7.33814440811904
 40
7.33814440811904
 40
7.33814440811904
 10
2037.939610400687
 20
463.3302442966522
 30
0.0
 41
1.007644781861666
 10
2040.952631065817
 20
463.9364620793011
 30
0.0
 41
1.020460636143025
 10
2043.776775808655
 20
463.936462079301
 30
0.0
 41
1.0
  0
SPLINE
  5
7986
330
1F
100
AcDbEntity
  8
AM_VIS
100
AcDbSpline
210
0.0
220
0.0
230
1.0
 70
    12
 71
     2
 72
     6
 73
     3
 74
     0
 42
0.0000000001
 43
0.0000000001
 40
7.33814440811904
 40
7.33814440811904
 40
7.33814440811904
 40
13.30540003063694
 40
13.30540003063694
 40
13.30540003063694
 10
2043.776775808655
 20
463.936462079301
 30
0.0
 41
1.0
 10
2046.600920551495
 20
463.9364620793012
 30
0.0
 41
1.020460636143024
 10
2049.613941216625
 20
463.3302442966522
 30
0.0
 41
1.007644781861666
  0
SPLINE
  5
7987
330
1F
100
AcDbEntity
  8
AM_VIS
100
AcDbSpline
210
0.0
220
0.0
230
1.0
 70
    12
 71
     2
 72
     6
 73
     3
 74
     0
 42
0.0000000001
 43
0.0000000001
 40
1.370888785601142
 40
1.370888785601142
 40
1.370888785601142
 40
7.338144408119045
 40
7.338144408119045
 40
7.338144408119045
 10
2050.750853030401
 20
463.3302442966519
 30
0.0
 41
1.007644781861668
 10
2052.881380374571
 20
463.9364620793011
 30
0.0
 41
1.02046063614303
 10
2054.878352273284
 20
463.936462079301
 30
0.0
 41
1.0
  0
SPLINE
  5
7988
330
1F
100
AcDbEntity
  8
AM_VIS
100
AcDbSpline
210
0.0
220
0.0
230
1.0
 70
    12
 71
     2
 72
     6
 73
     3
 74
     0
 42
0.0000000001
 43
0.0000000001
 40
7.338144408119045
 40
7.338144408119045
 40
7.338144408119045
 40
13.30540003063696
 40
13.30540003063696
 40
13.30540003063696
 10
2054.878352273284
 20
463.936462079301
 30
0.0
 41
1.0
 10
2056.875324171998
 20
463.9364620793013
 30
0.0
 41
1.020460636143044
 10
2059.005851516167
 20
463.3302442966521
 30
0.0
 41
1.007644781861673
  0
LINE
  5
7989
330
1F
100
AcDbEntity
  8
AM_VIS
100
AcDbLine
 10
2028.076775808655
 20
463.3302442966519
 30
0.0
 11
2028.076775808655
 21
466.9718449865491
 31
0.0
  0
SPLINE
  5
798A
330
1F
100
AcDbEntity
  8
AM_VIS
100
AcDbSpline
210
0.0
220
0.0
230
1.0
 70
    12
 71
     2
 72
     6
 73
     3
 74
     0
 42
0.0000000001
 43
0.0000000001
 40
7.338144408119051
 40
7.338144408119051
 40
7.338144408119051
 40
13.30540003063694
 40
13.30540003063694
 40
13.30540003063694
 10
2032.675199344026
 20
463.936462079301
 30
0.0
 41
1.0
 10
2034.672171242741
 20
463.9364620793012
 30
0.0
 41
1.020460636143019
 10
2036.802698586909
 20
463.3302442966519
 30
0.0
 41
1.007644781861664
  0
SPLINE
  5
798B
330
1F
100
AcDbEntity
  8
AM_VIS
100
AcDbSpline
210
0.0
220
0.0
230
1.0
 70
    12
 71
     2
 72
     6
 73
     3
 74
     0
 42
0.0000000001
 43
0.0000000001
 40
1.370888785601143
 40
1.370888785601143
 40
1.370888785601143
 40
7.338144408119051
 40
7.338144408119051
 40
7.338144408119051
 10
2028.547700101144
 20
463.3302442966519
 30
0.0
 41
1.007644781861668
 10
2030.678227445313
 20
463.9364620793011
 30
0.0
 41
1.02046063614303
 10
2032.675199344026
 20
463.936462079301
 30
0.0
 41
1.0
  0
LINE
  5
798C
330
1F
100
AcDbEntity
  8
AM_VIS
100
AcDbLine
 10
2028.547700101144
 20
466.9718449865491
 30
0.0
 11
2028.547700101144
 21
463.3302442966519
 31
0.0
  0
LINE
  5
798D
330
1F
100
AcDbEntity
  8
AM_VIS
100
AcDbLine
 10
2037.939610400686
 20
466.9718449865491
 30
0.0
 11
2037.939610400686
 21
463.3302442966519
 31
0.0
  0
LINE
  5
798E
330
1F
100
AcDbEntity
  8
AM_VIS
100
AcDbLine
 10
2036.80269858691
 20
463.3302442966519
 30
0.0
 11
2036.80269858691
 21
466.9718449865491
 31
0.0
  0
LINE
  5
798F
330
1F
100
AcDbEntity
  8
AM_VIS
100
AcDbLine
 10
2059.476775808656
 20
467.253191638601
 30
0.0
 11
2059.476775808656
 21
466.9718449865491
 31
0.0
  0
SPLINE
  5
7990
330
1F
100
AcDbEntity
  8
AM_VIS
100
AcDbSpline
210
0.0
220
0.0
230
1.0
 70
    12
 71
     2
 72
     6
 73
     3
 74
     0
 42
0.0000000001
 43
0.0000000001
 40
3.025558988543669
 40
3.025558988543669
 40
3.025558988543669
 40
15.23515951974274
 40
15.23515951974274
 40
15.23515951974274
 10
2059.005851516167
 20
466.9718449865493
 30
0.0
 41
1.043143297380426
 10
2054.878352273302
 20
467.5169016348529
 30
0.0
 41
1.112907658033238
 10
2050.750853030401
 20
466.9718449865491
 30
0.0
 41
1.043143297381117
  0
SPLINE
  5
7991
330
1F
100
AcDbEntity
  8
AM_VIS
100
AcDbSpline
210
0.0
220
0.0
230
1.0
 70
    12
 71
     2
 72
     6
 73
     3
 74
     0
 42
0.0000000001
 43
0.0000000001
 40
3.025558988543667
 40
3.025558988543667
 40
3.025558988543667
 40
15.23515951974274
 40
15.23515951974274
 40
15.23515951974274
 10
2049.613941216625
 20
466.9718449865493
 30
0.0
 41
1.043143297380426
 10
2043.77677580868
 20
467.5169016348529
 30
0.0
 41
1.112907658033238
 10
2037.939610400686
 20
466.9718449865489
 30
0.0
 41
1.043143297381117
  0
SPLINE
  5
7992
330
1F
100
AcDbEntity
  8
AM_VIS
100
AcDbSpline
210
0.0
220
0.0
230
1.0
 70
    12
 71
     2
 72
     6
 73
     3
 74
     0
 42
0.0000000001
 43
0.0000000001
 40
3.02555898854367
 40
3.02555898854367
 40
3.02555898854367
 40
15.23515951974274
 40
15.23515951974274
 40
15.23515951974274
 10
2036.80269858691
 20
466.9718449865491
 30
0.0
 41
1.043143297380425
 10
2032.675199344044
 20
467.5169016348529
 30
0.0
 41
1.112907658033235
 10
2028.547700101144
 20
466.9718449865492
 30
0.0
 41
1.043143297381116
  0
LINE
  5
7993
330
1F
100
AcDbEntity
  8
AM_VIS
100
AcDbLine
 10
2028.076775808655
 20
467.2531916386017
 30
0.0
 11
2028.076775808655
 21
466.9718449865491
 31
0.0
  0
LINE
  5
7994
330
1F
100
AcDbEntity
  8
AM_VIS
100
AcDbLine
 10
2028.076775808655
 20
463.936462079301
 30
0.0
 11
2026.476775808656
 21
463.0127016485976
 31
0.0
  0
LINE
  5
7995
330
1F
100
AcDbEntity
  8
AM_VIS
100
AcDbLine
 10
2059.476775808656
 20
463.936462079301
 30
0.0
 11
2061.076775808655
 21
463.0127016485976
 31
0.0
  0
LINE
  5
7996
330
1F
100
AcDbEntity
  8
AM_VIS
100
AcDbLine
 10
2061.076775808655
 20
461.436462079301
 30
0.0
 11
2061.076775808655
 21
463.0127016485976
 31
0.0
  0
LINE
  5
7997
330
1F
100
AcDbEntity
  8
AM_VIS
100
AcDbLine
 10
2026.476775808656
 20
461.436462079301
 30
0.0
 11
2026.476775808656
 21
463.0127016485976
 31
0.0
  0
LINE
  5
7998
330
1F
100
AcDbEntity
  8
AM_VIS
100
AcDbLine
 10
2030.626775808656
 20
467.936462079301
 30
0.0
 11
2028.076775808655
 21
467.2531916386017
 31
0.0
  0
LINE
  5
7999
330
1F
100
AcDbEntity
  8
AM_VIS
100
AcDbLine
 10
2056.926775808655
 20
467.936462079301
 30
0.0
 11
2059.476775808656
 21
467.2531916386017
 31
0.0
  0
LINE
  5
799A
330
1F
100
AcDbEntity
  8
AM_VIS
100
AcDbLine
 10
2056.776775808655
 20
467.936462079301
 30
0.0
 11
2056.776775808655
 21
468.9364620793011
 31
0.0
  0
LINE
  5
799B
330
1F
100
AcDbEntity
  8
AM_VIS
100
AcDbLine
 10
2030.776775808655
 20
467.936462079301
 30
0.0
 11
2030.776775808655
 21
468.9364620793011
 31
0.0
  0
LINE
  5
799C
330
1F
100
AcDbEntity
  8
AM_VIS
100
AcDbLine
 10
2056.526775808655
 20
470.9272098081122
 30
0.0
 11
2056.526775808655
 21
470.936462079301
 31
0.0
  0
LINE
  5
799D
330
1F
100
AcDbEntity
  8
AM_VIS
100
AcDbLine
 10
2031.026775808655
 20
470.9272098081122
 30
0.0
 11
2031.026775808655
 21
470.936462079301
 31
0.0
  0
LINE
  5
799E
330
1F
100
AcDbEntity
  8
AM_VIS
100
AcDbLine
 10
2055.676775808656
 20
470.3364620793011
 30
0.0
 11
2055.676775808656
 21
470.4364620793011
 31
0.0
  0
LINE
  5
799F
330
1F
100
AcDbEntity
  8
AM_VIS
100
AcDbLine
 10
2031.876775808655
 20
470.3364620793011
 30
0.0
 11
2031.876775808655
 21
470.436462079301
 31
0.0
  0
LINE
  5
79A0
330
1F
100
AcDbEntity
  8
AM_VIS
100
AcDbLine
 10
2055.676775808656
 20
470.436462079301
 30
0.0
 11
2056.526775808655
 21
470.9272098081122
 31
0.0
  0
LINE
  5
79A1
330
1F
100
AcDbEntity
  8
AM_VIS
100
AcDbLine
 10
2031.876775808655
 20
470.436462079301
 30
0.0
 11
2031.026775808655
 21
470.9272098081122
 31
0.0
  0
LINE
  5
79A2
330
1F
100
AcDbEntity
  8
AM_VIS
100
AcDbLine
 10
2050.750853030401
 20
463.3302442966519
 30
0.0
 11
2049.613941216625
 21
463.3302442966519
 31
0.0
  0
LINE
  5
79A3
330
1F
100
AcDbEntity
  8
AM_VIS
100
AcDbLine
 10
2059.476775808656
 20
463.3302442966519
 30
0.0
 11
2059.005851516167
 21
463.3302442966519
 31
0.0
  0
LINE
  5
79A4
330
1F
100
AcDbEntity
  8
AM_VIS
100
AcDbLine
 10
2061.076775808655
 20
463.0127016485976
 30
0.0
 11
2026.476775808656
 21
463.0127016485976
 31
0.0
  0
LINE
  5
79A5
330
1F
100
AcDbEntity
  8
AM_VIS
100
AcDbLine
 10
2028.547700101144
 20
463.3302442966519
 30
0.0
 11
2028.076775808655
 21
463.3302442966519
 31
0.0
  0
LINE
  5
79A6
330
1F
100
AcDbEntity
  8
AM_VIS
100
AcDbLine
 10
2037.939610400686
 20
463.3302442966519
 30
0.0
 11
2036.80269858691
 21
463.3302442966519
 31
0.0
  0
LINE
  5
79A7
330
1F
100
AcDbEntity
  8
AM_VIS
100
AcDbLine
 10
2056.926775808655
 20
467.936462079301
 30
0.0
 11
2030.626775808656
 21
467.936462079301
 31
0.0
  0
LINE
  5
79A8
330
1F
100
AcDbEntity
  8
AM_VIS
100
AcDbLine
 10
2059.005851516167
 20
466.9718449865491
 30
0.0
 11
2059.476775808656
 21
466.9718449865491
 31
0.0
  0
LINE
  5
79A9
330
1F
100
AcDbEntity
  8
AM_VIS
100
AcDbLine
 10
2049.613941216625
 20
466.9718449865491
 30
0.0
 11
2050.750853030401
 21
466.9718449865491
 31
0.0
  0
LINE
  5
79AA
330
1F
100
AcDbEntity
  8
AM_VIS
100
AcDbLine
 10
2036.80269858691
 20
466.9718449865491
 30
0.0
 11
2037.939610400686
 21
466.9718449865491
 31
0.0
  0
LINE
  5
79AB
330
1F
100
AcDbEntity
  8
AM_VIS
100
AcDbLine
 10
2028.076775808655
 20
466.9718449865491
 30
0.0
 11
2028.547700101144
 21
466.9718449865491
 31
0.0
  0
LINE
  5
79AC
330
1F
100
AcDbEntity
  8
AM_VIS
100
AcDbLine
 10
2056.776775808655
 20
468.9364620793011
 30
0.0
 11
2030.776775808655
 21
468.9364620793011
 31
0.0
  0
LINE
  5
79AD
330
1F
100
AcDbEntity
  8
AM_VIS
100
AcDbLine
 10
2055.676775808656
 20
470.436462079301
 30
0.0
 11
2031.876775808655
 21
470.436462079301
 31
0.0
  0
LINE
  5
79AE
330
1F
100
AcDbEntity
  8
AM_VIS
100
AcDbLine
 10
2031.026775808655
 20
470.9272098081122
 30
0.0
 11
2056.526775808655
 21
470.9272098081122
 31
0.0
  0
LINE
  5
79AF
330
1F
100
AcDbEntity
  8
AM_VIS
100
AcDbLine
 10
2058.825874709505
 20
477.2364620793011
 30
0.0
 11
2059.41419642291
 21
476.9364620793011
 31
0.0
  0
LINE
  5
79B0
330
1F
100
AcDbEntity
  8
AM_VIS
100
AcDbLine
 10
2057.87144264533
 20
507.6058464387021
 30
0.0
 11
2058.825874709505
 21
477.2364620793011
 31
0.0
  0
LINE
  5
79B1
330
1F
100
AcDbEntity
  8
AM_VIS
100
AcDbLine
 10
2047.897086480712
 20
477.2364620793011
 30
0.0
 11
2048.058163781773
 21
476.9364620793011
 31
0.0
  0
LINE
  5
79B2
330
1F
100
AcDbEntity
  8
AM_VIS
100
AcDbLine
 10
2028.139355194401
 20
476.936462079301
 30
0.0
 11
2028.727676907806
 21
477.2364620793011
 31
0.0
  0
LINE
  5
79B3
330
1F
100
AcDbEntity
  8
AM_VIS
100
AcDbLine
 10
2028.727676907806
 20
477.2364620793011
 30
0.0
 11
2029.682108971981
 21
507.6058464387021
 31
0.0
  0
LINE
  5
79B4
330
1F
100
AcDbEntity
  8
AM_VIS
100
AcDbLine
 10
2039.495387835538
 20
476.936462079301
 30
0.0
 11
2039.656465136599
 21
477.2364620793011
 31
0.0
  0
LINE
  5
79B5
330
1F
100
AcDbEntity
  8
AM_VIS
100
AcDbLine
 10
2047.635771391637
 20
507.6058464387021
 30
0.0
 11
2047.897086480712
 21
477.2364620793011
 31
0.0
  0
LINE
  5
79B6
330
1F
100
AcDbEntity
  8
AM_VIS
100
AcDbLine
 10
2039.656465136599
 20
477.2364620793011
 30
0.0
 11
2039.917780225674
 21
507.6058464387021
 31
0.0
  0
LINE
  5
79B7
330
1F
100
AcDbEntity
  8
AM_VIS
100
AcDbLine
 10
2059.850649223229
 20
507.6058464387021
 30
0.0
 11
2060.84120190484
 21
506.5871470108079
 31
0.0
  0
LINE
  5
79B8
330
1F
100
AcDbEntity
  8
AM_VIS
100
AcDbLine
 10
2058.740026692957
 20
506.5871470108079
 30
0.0
 11
2057.87144264533
 21
507.6058464387021
 31
0.0
  0
LINE
  5
79B9
330
1F
100
AcDbEntity
  8
AM_VIS
100
AcDbLine
 10
2052.41399875474
 20
507.6058464387021
 30
0.0
 11
2052.946267743691
 21
506.5871470108079
 31
0.0
  0
LINE
  5
79BA
330
1F
100
AcDbEntity
  8
AM_VIS
100
AcDbLine
 10
2047.873582050241
 20
506.5871470108079
 30
0.0
 11
2047.635771391637
 21
507.6058464387021
 31
0.0
  0
LINE
  5
79BB
330
1F
100
AcDbEntity
  8
AM_VIS
100
AcDbLine
 10
2039.917780225674
 20
507.6058464387021
 30
0.0
 11
2039.679969567069
 21
506.5871470108079
 31
0.0
  0
LINE
  5
79BC
330
1F
100
AcDbEntity
  8
AM_VIS
100
AcDbLine
 10
2034.60728387362
 20
506.5871470108079
 30
0.0
 11
2035.139552862572
 21
507.6058464387021
 31
0.0
  0
LINE
  5
79BD
330
1F
100
AcDbEntity
  8
AM_VIS
100
AcDbLine
 10
2029.682108971981
 20
507.6058464387021
 30
0.0
 11
2028.813524924354
 21
506.5871470108079
 31
0.0
  0
LINE
  5
79BE
330
1F
100
AcDbEntity
  8
AM_VIS
100
AcDbLine
 10
2026.712349712471
 20
506.5871470108079
 30
0.0
 11
2027.702902394082
 21
507.6058464387021
 31
0.0
  0
LINE
  5
79BF
330
1F
100
AcDbEntity
  8
AM_VIS
100
AcDbLine
 10
2053.359399485546
 20
476.9364620793011
 30
0.0
 11
2052.946267743691
 21
506.5871470108079
 31
0.0
  0
LINE
  5
79C0
330
1F
100
AcDbEntity
  8
AM_VIS
100
AcDbLine
 10
2058.740026692957
 20
506.5871470108079
 30
0.0
 11
2059.414196422909
 21
476.9364620793011
 31
0.0
  0
LINE
  5
79C1
330
1F
100
AcDbEntity
  8
AM_VIS
100
AcDbLine
 10
2061.610040148749
 20
476.9364620793011
 30
0.0
 11
2060.84120190484
 21
506.5871470108079
 31
0.0
  0
LINE
  5
79C2
330
1F
100
AcDbEntity
  8
AM_VIS
100
AcDbLine
 10
2026.712349712471
 20
506.5871470108079
 30
0.0
 11
2025.943511468562
 21
476.9364620793011
 31
0.0
  0
LINE
  5
79C3
330
1F
100
AcDbEntity
  8
AM_VIS
100
AcDbLine
 10
2028.139355194401
 20
476.9364620793011
 30
0.0
 11
2028.813524924354
 21
506.5871470108079
 31
0.0
  0
LINE
  5
79C4
330
1F
100
AcDbEntity
  8
AM_VIS
100
AcDbLine
 10
2034.60728387362
 20
506.5871470108079
 30
0.0
 11
2034.194152131765
 21
476.9364620793011
 31
0.0
  0
LINE
  5
79C5
330
1F
100
AcDbEntity
  8
AM_VIS
100
AcDbLine
 10
2039.495387835538
 20
476.9364620793011
 30
0.0
 11
2039.679969567069
 21
506.5871470108079
 31
0.0
  0
LINE
  5
79C6
330
1F
100
AcDbEntity
  8
AM_VIS
100
AcDbLine
 10
2047.873582050241
 20
506.5871470108079
 30
0.0
 11
2048.058163781773
 21
476.9364620793011
 31
0.0
  0
LINE
  5
79C7
330
1F
100
AcDbEntity
  8
AM_VIS
100
AcDbLine
 10
2061.60426214445
 20
477.1592941072166
 30
0.0
 11
2062.116775808656
 21
476.9364620793014
 31
0.0
  0
LINE
  5
79C8
330
1F
100
AcDbEntity
  8
AM_VIS
100
AcDbLine
 10
2060.307391449255
 20
507.6058464387021
 30
0.0
 11
2060.32538701635
 21
507.11761887925
 31
0.0
  0
LINE
  5
79C9
330
1F
100
AcDbEntity
  8
AM_VIS
100
AcDbLine
 10
2025.949289472861
 20
477.1592941072166
 30
0.0
 11
2025.436775808655
 21
476.9364620793014
 31
0.0
  0
LINE
  5
79CA
330
1F
100
AcDbEntity
  8
AM_VIS
100
AcDbLine
 10
2027.246160168056
 20
507.6058464387021
 30
0.0
 11
2027.228164600961
 21
507.11761887925
 31
0.0
  0
LINE
  5
79CB
330
1F
100
AcDbEntity
  8
AM_VIS
100
AcDbLine
 10
2028.076775808655
 20
508.436462079301
 30
0.0
 11
2027.246160168056
 21
507.6058464387021
 31
0.0
  0
LINE
  5
79CC
330
1F
100
AcDbEntity
  8
AM_VIS
100
AcDbLine
 10
2059.476775808656
 20
508.436462079301
 30
0.0
 11
2060.307391449255
 21
507.6058464387021
 31
0.0
  0
LINE
  5
79CD
330
1F
100
AcDbEntity
  8
AM_VIS
100
AcDbLine
 10
2025.436775808655
 20
476.9364620793014
 30
0.0
 11
2025.290464571192
 21
471.4497906744205
 31
0.0
  0
LINE
  5
79CE
330
1F
100
AcDbEntity
  8
AM_VIS
100
AcDbLine
 10
2062.116775808656
 20
476.9364620793014
 30
0.0
 11
2062.263087046119
 21
471.4497906744205
 31
0.0
  0
LINE
  5
79CF
330
1F
100
AcDbEntity
  8
AM_VIS
100
AcDbLine
 10
2058.825874709505
 20
477.2364620793011
 30
0.0
 11
2053.355219497028
 21
477.2364620793011
 31
0.0
  0
LINE
  5
79D0
330
1F
100
AcDbEntity
  8
AM_VIS
100
AcDbLine
 10
2034.198332120283
 20
477.2364620793011
 30
0.0
 11
2028.727676907806
 21
477.2364620793011
 31
0.0
  0
LINE
  5
79D1
330
1F
100
AcDbEntity
  8
AM_VIS
100
AcDbLine
 10
2047.897086480712
 20
477.2364620793011
 30
0.0
 11
2039.656465136599
 21
477.2364620793011
 31
0.0
  0
LINE
  5
79D2
330
1F
100
AcDbEntity
  8
AM_VIS
100
AcDbLine
 10
2059.476775808656
 20
508.436462079301
 30
0.0
 11
2028.076775808655
 21
508.436462079301
 31
0.0
  0
LINE
  5
79D3
330
1F
100
AcDbEntity
  8
AM_VIS
100
AcDbLine
 10
2059.850649223229
 20
507.6058464387021
 30
0.0
 11
2060.307391449255
 21
507.6058464387021
 31
0.0
  0
LINE
  5
79D4
330
1F
100
AcDbEntity
  8
AM_VIS
100
AcDbLine
 10
2052.41399875474
 20
507.605846438702
 30
0.0
 11
2057.87144264533
 21
507.605846438702
 31
0.0
  0
LINE
  5
79D5
330
1F
100
AcDbEntity
  8
AM_VIS
100
AcDbLine
 10
2039.917780225674
 20
507.6058464387021
 30
0.0
 11
2047.635771391637
 21
507.6058464387021
 31
0.0
  0
LINE
  5
79D6
330
1F
100
AcDbEntity
  8
AM_VIS
100
AcDbLine
 10
2029.682108971981
 20
507.6058464387021
 30
0.0
 11
2035.139552862572
 21
507.6058464387021
 31
0.0
  0
LINE
  5
79D7
330
1F
100
AcDbEntity
  8
AM_VIS
100
AcDbLine
 10
2027.246160168056
 20
507.6058464387021
 30
0.0
 11
2027.702902394082
 21
507.6058464387021
 31
0.0
  0
LINE
  5
79D8
330
1F
100
AcDbEntity
  8
AM_VIS
100
AcDbLine
 10
2053.359399485546
 20
476.9364620793014
 30
0.0
 11
2059.414196422909
 21
476.9364620793014
 31
0.0
  0
LINE
  5
79D9
330
1F
100
AcDbEntity
  8
AM_VIS
100
AcDbLine
 10
2058.740026692957
 20
506.5871470108079
 30
0.0
 11
2060.84120190484
 21
506.5871470108079
 31
0.0
  0
LINE
  5
79DA
330
1F
100
AcDbEntity
  8
AM_VIS
100
AcDbLine
 10
2061.610040148749
 20
476.9364620793014
 30
0.0
 11
2062.116775808656
 21
476.9364620793014
 31
0.0
  0
LINE
  5
79DB
330
1F
100
AcDbEntity
  8
AM_VIS
100
AcDbLine
 10
2025.436775808655
 20
476.9364620793014
 30
0.0
 11
2025.943511468562
 21
476.9364620793014
 31
0.0
  0
LINE
  5
79DC
330
1F
100
AcDbEntity
  8
AM_VIS
100
AcDbLine
 10
2026.712349712471
 20
506.5871470108079
 30
0.0
 11
2028.813524924354
 21
506.5871470108079
 31
0.0
  0
LINE
  5
79DD
330
1F
100
AcDbEntity
  8
AM_VIS
100
AcDbLine
 10
2028.139355194401
 20
476.9364620793014
 30
0.0
 11
2034.194152131765
 21
476.9364620793014
 31
0.0
  0
LINE
  5
79DE
330
1F
100
AcDbEntity
  8
AM_VIS
100
AcDbLine
 10
2034.60728387362
 20
506.5871470108079
 30
0.0
 11
2039.679969567069
 21
506.5871470108079
 31
0.0
  0
LINE
  5
79DF
330
1F
100
AcDbEntity
  8
AM_VIS
100
AcDbLine
 10
2039.495387835538
 20
476.9364620793014
 30
0.0
 11
2048.058163781773
 21
476.9364620793014
 31
0.0
  0
LINE
  5
79E0
330
1F
100
AcDbEntity
  8
AM_VIS
100
AcDbLine
 10
2047.873582050242
 20
506.5871470108079
 30
0.0
 11
2052.946267743691
 21
506.5871470108079
 31
0.0
  0
LINE
  5
79E1
330
1F
100
AcDbEntity
  8
AM_VIS
100
AcDbLine
 10
2061.763264729138
 20
470.936462079301
 30
0.0
 11
2025.790286888173
 21
470.936462079301
 31
0.0
  0
ARC
  5
79E2
330
1F
100
AcDbEntity
  8
AM_VIS
100
AcDbCircle
 10
2061.763264729138
 20
471.436462079301
 30
0.0
 40
0.5
100
AcDbArc
 50
270.0
 51
1.527525442214576
  0
ARC
  5
79E3
330
1F
100
AcDbEntity
  8
AM_VIS
100
AcDbCircle
 10
2025.790286888173
 20
471.436462079301
 30
0.0
 40
0.5
100
AcDbArc
 50
178.4724745577854
 51
270.0
  0
LINE
  5
79E4
330
1F
100
AcDbEntity
  8
AM_VIS
100
AcDbLine
 10
2056.176775808655
 20
468.9364620793011
 30
0.0
 11
2056.176775808655
 21
470.3364620793011
 31
0.0
  0
LINE
  5
79E5
330
1F
100
AcDbEntity
  8
AM_VIS
100
AcDbLine
 10
2031.376775808655
 20
468.9364620793011
 30
0.0
 11
2031.376775808655
 21
470.3364620793011
 31
0.0
  0
LINE
  5
79E6
330
1F
100
AcDbEntity
  8
AM_VIS
100
AcDbLine
 10
2031.376775808655
 20
470.3364620793011
 30
0.0
 11
2056.176775808655
 21
470.3364620793011
 31
0.0
  0
LINE
  5
79E7
330
1F
100
AcDbEntity
  8
AM_VIS
100
AcDbLine
 10
2099.276775808656
 20
334.3364620793011
 30
0.0
 11
1981.276775808655
 21
334.336462079301
 31
0.0
  0
LINE
  5
79E8
330
1F
100
AcDbEntity
  8
AM_VIS
100
AcDbLine
 10
1981.276775808655
 20
334.336462079301
 30
0.0
 11
1981.276775808655
 21
349.336462079301
 31
0.0
  0
LINE
  5
79E9
330
1F
100
AcDbEntity
  8
AM_VIS
100
AcDbLine
 10
2099.276775808656
 20
334.3364620793011
 30
0.0
 11
2099.276775808656
 21
349.3364620793011
 31
0.0
  0
LINE
  5
79EA
330
1F
100
AcDbEntity
  8
AM_VIS
100
AcDbLine
 10
2099.276775808656
 20
364.3364620793011
 30
0.0
 11
2093.310976282524
 21
364.3364620793011
 31
0.0
  0
LINE
  5
79EB
330
1F
100
AcDbEntity
  8
AM_VIS
100
AcDbLine
 10
2099.276775808656
 20
349.3364620793011
 30
0.0
 11
2099.276775808656
 21
364.3364620793011
 31
0.0
  0
LINE
  5
79EC
330
1F
100
AcDbEntity
  8
AM_VIS
100
AcDbLine
 10
2099.276775808656
 20
349.3364620793011
 30
0.0
 11
2080.723883562766
 21
349.3364620793011
 31
0.0
  0
LINE
  5
79ED
330
1F
100
AcDbEntity
  8
AM_VIS
100
AcDbLine
 10
2001.829668054545
 20
349.336462079301
 30
0.0
 11
1981.276775808655
 21
349.336462079301
 31
0.0
  0
LINE
  5
79EE
330
1F
100
AcDbEntity
  8
AM_VIS
100
AcDbLine
 10
2096.276775808656
 20
416.4364620793009
 30
0.0
 11
2096.276775808656
 21
390.436462079301
 31
0.0
  0
LINE
  5
79EF
330
1F
100
AcDbEntity
  8
AM_VIS
100
AcDbLine
 10
1986.276775808655
 20
390.436462079301
 30
0.0
 11
1986.276775808655
 21
416.4364620793009
 31
0.0
  0
LINE
  5
79F0
330
1F
100
AcDbEntity
  8
AM_VIS
100
AcDbLine
 10
1986.276775808655
 20
390.436462079301
 30
0.0
 11
1986.276775808655
 21
378.4364620793011
 31
0.0
  0
LINE
  5
79F1
330
1F
100
AcDbEntity
  8
AM_VIS
100
AcDbLine
 10
1999.276775808655
 20
390.4364620793011
 30
0.0
 11
1986.276775808655
 21
390.4364620793011
 31
0.0
  0
LINE
  5
79F2
330
1F
100
AcDbEntity
  8
AM_VIS
100
AcDbLine
 10
1986.276775808655
 20
416.4364620793009
 30
0.0
 11
1999.276775808655
 21
416.4364620793009
 31
0.0
  0
LINE
  5
79F3
330
1F
100
AcDbEntity
  8
AM_VIS
100
AcDbLine
 10
1986.276775808655
 20
423.4364620793011
 30
0.0
 11
1986.276775808655
 21
416.4364620793009
 31
0.0
  0
LINE
  5
79F4
330
1F
100
AcDbEntity
  8
AM_VIS
100
AcDbLine
 10
2076.276775808656
 20
443.4364620793011
 30
0.0
 11
2006.276775808656
 21
443.4364620793011
 31
0.0
  0
LINE
  5
79F5
330
1F
100
AcDbEntity
  8
AM_VIS
100
AcDbLine
 10
2096.276775808656
 20
416.4364620793009
 30
0.0
 11
2096.276775808656
 21
423.4364620793011
 31
0.0
  0
LINE
  5
79F6
330
1F
100
AcDbEntity
  8
AM_VIS
100
AcDbLine
 10
2083.276775808656
 20
416.436462079301
 30
0.0
 11
2096.276775808656
 21
416.436462079301
 31
0.0
  0
LINE
  5
79F7
330
1F
100
AcDbEntity
  8
AM_VIS
100
AcDbLine
 10
2096.276775808656
 20
390.4364620793011
 30
0.0
 11
2083.276775808656
 21
390.4364620793011
 31
0.0
  0
LINE
  5
79F8
330
1F
100
AcDbEntity
  8
AM_VIS
100
AcDbLine
 10
2096.276775808656
 20
378.4364620793011
 30
0.0
 11
2096.276775808656
 21
390.436462079301
 31
0.0
  0
LINE
  5
79F9
330
1F
100
AcDbEntity
  8
AM_VIS
100
AcDbLine
 10
2021.276775808655
 20
343.4364620793011
 30
0.0
 11
2061.276775808656
 21
343.4364620793011
 31
0.0
  0
ARC
  5
79FA
330
1F
100
AcDbEntity
  8
AM_VIS
100
AcDbCircle
 10
2021.276775808655
 20
378.4364620793011
 30
0.0
 40
35.0
100
AcDbArc
 50
180.0
 51
270.0
  0
ARC
  5
79FB
330
1F
100
AcDbEntity
  8
AM_VIS
100
AcDbCircle
 10
1999.276775808655
 20
403.436462079301
 30
0.0
 40
13.0
100
AcDbArc
 50
270.0
 51
90.0
  0
ARC
  5
79FC
330
1F
100
AcDbEntity
  8
AM_VIS
100
AcDbCircle
 10
2006.276775808656
 20
423.4364620793011
 30
0.0
 40
20.0
100
AcDbArc
 50
90.0
 51
180.0
  0
ARC
  5
79FD
330
1F
100
AcDbEntity
  8
AM_VIS
100
AcDbCircle
 10
2076.276775808656
 20
423.4364620793011
 30
0.0
 40
20.0
100
AcDbArc
 50
0.0
 51
90.0
  0
ARC
  5
79FE
330
1F
100
AcDbEntity
  8
AM_VIS
100
AcDbCircle
 10
2083.276775808656
 20
403.436462079301
 30
0.0
 40
13.0
100
AcDbArc
 50
90.0
 51
270.0
  0
ARC
  5
79FF
330
1F
100
AcDbEntity
  8
AM_VIS
100
AcDbCircle
 10
2061.276775808656
 20
378.4364620793011
 30
0.0
 40
35.0
100
AcDbArc
 50
270.0
 51
0.0
  0
CIRCLE
  5
7A00
330
1F
100
AcDbEntity
  8
AM_VIS
100
AcDbCircle
 10
1999.276775808655
 20
403.436462079301
 30
0.0
 40
4.95
  0
CIRCLE
  5
7A01
330
1F
100
AcDbEntity
  8
AM_VIS
100
AcDbCircle
 10
1999.276775808655
 20
403.436462079301
 30
0.0
 40
3.949999999999999
  0
LINE
  5
7A02
330
1F
100
AcDbEntity
  8
AM_VIS
100
AcDbLine
 10
2036.576775808656
 20
343.4364620793011
 30
0.0
 11
2036.576775808656
 21
342.8694747811933
 31
0.0
  0
LINE
  5
7A03
330
1F
100
AcDbEntity
  8
AM_VIS
100
AcDbLine
 10
2045.976775808656
 20
343.4364620793011
 30
0.0
 11
2045.976775808656
 21
342.8694747811933
 31
0.0
  0
LINE
  5
7A04
330
1F
100
AcDbEntity
  8
AM_VIS
100
AcDbLine
 10
2045.226775808655
 20
342.436462079301
 30
0.0
 11
2045.976775808656
 21
342.8694747811933
 31
0.0
  0
LINE
  5
7A05
330
1F
100
AcDbEntity
  8
AM_VIS
100
AcDbLine
 10
2037.326775808656
 20
342.436462079301
 30
0.0
 11
2036.576775808656
 21
342.8694747811933
 31
0.0
  0
LINE
  5
7A06
330
1F
100
AcDbEntity
  8
AM_VIS
100
AcDbLine
 10
2036.576775808656
 20
342.8694747811933
 30
0.0
 11
2045.976775808656
 21
342.8694747811933
 31
0.0
  0
LINE
  5
7A07
330
1F
100
AcDbEntity
  8
AM_VIS
100
AcDbLine
 10
2045.226775808655
 20
342.436462079301
 30
0.0
 11
2037.326775808656
 21
342.436462079301
 31
0.0
  0
LINE
  5
7A08
330
1F
100
AcDbEntity
  8
AM_VIS
100
AcDbLine
 10
1999.716775808655
 20
412.47575961838
 30
0.0
 11
1999.716775808655
 21
411.9386664809547
 31
0.0
  0
ARC
  5
7A09
330
1F
100
AcDbEntity
  8
AM_VIS
100
AcDbCircle
 10
1999.276775808655
 20
403.436462079301
 30
0.0
 40
9.050000000000011
100
AcDbArc
 50
87.21325022505
 51
92.78674977494999
  0
LINE
  5
7A0A
330
1F
100
AcDbEntity
  8
AM_VIS
100
AcDbLine
 10
1998.836775808655
 20
411.9386664809547
 30
0.0
 11
1998.836775808655
 21
412.47575961838
 31
0.0
  0
ARC
  5
7A0B
330
1F
100
AcDbEntity
  8
AM_VIS
100
AcDbCircle
 10
1999.276775808655
 20
403.436462079301
 30
0.0
 40
9.050000000000011
100
AcDbArc
 50
92.78674977494999
 51
110.0372438566895
  0
ARC
  5
7A0C
330
1F
100
AcDbEntity
  8
AM_VIS
100
AcDbCircle
 10
1999.276775808655
 20
403.436462079301
 30
0.0
 40
9.050000000000011
100
AcDbArc
 50
129.9627561433134
 51
170.0372438566902
  0
ARC
  5
7A0D
330
1F
100
AcDbEntity
  8
AM_VIS
100
AcDbCircle
 10
1999.276775808655
 20
403.436462079301
 30
0.0
 40
9.050000000000011
100
AcDbArc
 50
189.9627561433097
 51
230.0372438566866
  0
ARC
  5
7A0E
330
1F
100
AcDbEntity
  8
AM_VIS
100
AcDbCircle
 10
1999.276775808655
 20
403.436462079301
 30
0.0
 40
9.050000000000011
100
AcDbArc
 50
249.9627561433106
 51
290.0372438566895
  0
ARC
  5
7A0F
330
1F
100
AcDbEntity
  8
AM_VIS
100
AcDbCircle
 10
1999.276775808655
 20
403.436462079301
 30
0.0
 40
9.050000000000011
100
AcDbArc
 50
309.9627561433134
 51
350.0372438566903
  0
ARC
  5
7A10
330
1F
100
AcDbEntity
  8
AM_VIS
100
AcDbCircle
 10
1999.276775808655
 20
403.436462079301
 30
0.0
 40
9.050000000000011
100
AcDbArc
 50
9.96275614330973
 51
50.03724385668659
  0
ARC
  5
7A11
330
1F
100
AcDbEntity
  8
AM_VIS
100
AcDbCircle
 10
1999.276775808655
 20
403.436462079301
 30
0.0
 40
9.050000000000011
100
AcDbArc
 50
69.96275614331051
 51
87.21325022505
  0
LINE
  5
7A12
330
1F
100
AcDbEntity
  8
AM_VIS
100
AcDbLine
 10
1994.368025808655
 20
411.9386664809547
 30
0.0
 11
2004.185525808656
 21
411.9386664809547
 31
0.0
  0
LINE
  5
7A13
330
1F
100
AcDbEntity
  8
AM_VIS
100
AcDbLine
 10
2004.185525808656
 20
411.9386664809547
 30
0.0
 11
2009.094275808655
 21
403.436462079301
 31
0.0
  0
LINE
  5
7A14
330
1F
100
AcDbEntity
  8
AM_VIS
100
AcDbLine
 10
2004.185525808656
 20
394.9342576776474
 30
0.0
 11
2009.094275808656
 21
403.436462079301
 31
0.0
  0
LINE
  5
7A15
330
1F
100
AcDbEntity
  8
AM_VIS
100
AcDbLine
 10
1994.368025808655
 20
394.9342576776474
 30
0.0
 11
2004.185525808656
 21
394.9342576776474
 31
0.0
  0
LINE
  5
7A16
330
1F
100
AcDbEntity
  8
AM_VIS
100
AcDbLine
 10
1989.459275808656
 20
403.436462079301
 30
0.0
 11
1994.368025808655
 21
394.9342576776474
 31
0.0
  0
LINE
  5
7A17
330
1F
100
AcDbEntity
  8
AM_VIS
100
AcDbLine
 10
1989.459275808656
 20
403.436462079301
 30
0.0
 11
1994.368025808655
 21
411.9386664809547
 31
0.0
  0
CIRCLE
  5
7A18
330
1F
100
AcDbEntity
  8
AM_VIS
100
AcDbCircle
 10
1999.276775808655
 20
403.436462079301
 30
0.0
 40
8.499999999999971
  0
CIRCLE
  5
7A19
330
1F
100
AcDbEntity
  8
AM_VIS
100
AcDbCircle
 10
1999.276775808655
 20
403.436462079301
 30
0.0
 40
5.000000000000024
  0
LINE
  5
7A1A
330
1F
100
AcDbEntity
  8
AM_VIS
100
AcDbLine
 10
2078.368025808655
 20
411.9386664809547
 30
0.0
 11
2088.185525808656
 21
411.9386664809547
 31
0.0
  0
LINE
  5
7A1B
330
1F
100
AcDbEntity
  8
AM_VIS
100
AcDbLine
 10
2088.185525808655
 20
411.9386664809547
 30
0.0
 11
2093.094275808656
 21
403.436462079301
 31
0.0
  0
LINE
  5
7A1C
330
1F
100
AcDbEntity
  8
AM_VIS
100
AcDbLine
 10
2088.185525808655
 20
394.9342576776474
 30
0.0
 11
2093.094275808656
 21
403.436462079301
 31
0.0
  0
LINE
  5
7A1D
330
1F
100
AcDbEntity
  8
AM_VIS
100
AcDbLine
 10
2078.368025808655
 20
394.9342576776474
 30
0.0
 11
2088.185525808656
 21
394.9342576776474
 31
0.0
  0
LINE
  5
7A1E
330
1F
100
AcDbEntity
  8
AM_VIS
100
AcDbLine
 10
2073.459275808656
 20
403.436462079301
 30
0.0
 11
2078.368025808655
 21
394.9342576776474
 31
0.0
  0
LINE
  5
7A1F
330
1F
100
AcDbEntity
  8
AM_VIS
100
AcDbLine
 10
2073.459275808656
 20
403.436462079301
 30
0.0
 11
2078.368025808655
 21
411.9386664809547
 31
0.0
  0
CIRCLE
  5
7A20
330
1F
100
AcDbEntity
  8
AM_VIS
100
AcDbCircle
 10
2083.276775808656
 20
403.436462079301
 30
0.0
 40
8.499999999999971
  0
CIRCLE
  5
7A21
330
1F
100
AcDbEntity
  8
AM_VIS
100
AcDbCircle
 10
2083.276775808656
 20
403.436462079301
 30
0.0
 40
5.000000000000024
  0
LINE
  5
7A22
330
1F
100
AcDbEntity
  8
AM_VIS
100
AcDbLine
 10
2083.716775808655
 20
412.47575961838
 30
0.0
 11
2083.716775808655
 21
411.9386664809547
 31
0.0
  0
ARC
  5
7A23
330
1F
100
AcDbEntity
  8
AM_VIS
100
AcDbCircle
 10
2083.276775808656
 20
403.436462079301
 30
0.0
 40
9.050000000000011
100
AcDbArc
 50
87.21325022505
 51
92.78674977494999
  0
LINE
  5
7A24
330
1F
100
AcDbEntity
  8
AM_VIS
100
AcDbLine
 10
2082.836775808656
 20
411.9386664809547
 30
0.0
 11
2082.836775808656
 21
412.47575961838
 31
0.0
  0
ARC
  5
7A25
330
1F
100
AcDbEntity
  8
AM_VIS
100
AcDbCircle
 10
2083.276775808656
 20
403.436462079301
 30
0.0
 40
9.050000000000011
100
AcDbArc
 50
92.78674977494999
 51
110.0372438566895
  0
ARC
  5
7A26
330
1F
100
AcDbEntity
  8
AM_VIS
100
AcDbCircle
 10
2083.276775808656
 20
403.436462079301
 30
0.0
 40
9.050000000000011
100
AcDbArc
 50
129.9627561433134
 51
170.0372438566902
  0
ARC
  5
7A27
330
1F
100
AcDbEntity
  8
AM_VIS
100
AcDbCircle
 10
2083.276775808656
 20
403.436462079301
 30
0.0
 40
9.050000000000011
100
AcDbArc
 50
189.9627561433097
 51
230.0372438566866
  0
ARC
  5
7A28
330
1F
100
AcDbEntity
  8
AM_VIS
100
AcDbCircle
 10
2083.276775808656
 20
403.436462079301
 30
0.0
 40
9.050000000000011
100
AcDbArc
 50
249.9627561433106
 51
290.0372438566895
  0
ARC
  5
7A29
330
1F
100
AcDbEntity
  8
AM_VIS
100
AcDbCircle
 10
2083.276775808656
 20
403.436462079301
 30
0.0
 40
9.050000000000011
100
AcDbArc
 50
309.9627561433134
 51
350.0372438566903
  0
ARC
  5
7A2A
330
1F
100
AcDbEntity
  8
AM_VIS
100
AcDbCircle
 10
2083.276775808656
 20
403.436462079301
 30
0.0
 40
9.050000000000011
100
AcDbArc
 50
9.96275614330973
 51
50.03724385668659
  0
ARC
  5
7A2B
330
1F
100
AcDbEntity
  8
AM_VIS
100
AcDbCircle
 10
2083.276775808656
 20
403.436462079301
 30
0.0
 40
9.050000000000011
100
AcDbArc
 50
69.96275614331051
 51
87.21325022505
  0
CIRCLE
  5
7A2C
330
1F
100
AcDbEntity
  8
AM_VIS
100
AcDbCircle
 10
2083.276775808656
 20
403.436462079301
 30
0.0
 40
4.95
  0
CIRCLE
  5
7A2D
330
1F
100
AcDbEntity
  8
AM_VIS
100
AcDbCircle
 10
2083.276775808656
 20
403.436462079301
 30
0.0
 40
3.949999999999999
  0
LINE
  5
7A2E
330
1F
100
AcDbEntity
  8
AM_VIS
100
AcDbLine
 10
2006.626787995555
 20
443.9364620793011
 30
0.0
 11
2003.534458776342
 21
443.9364620793011
 31
0.0
  0
LINE
  5
7A2F
330
1F
100
AcDbEntity
  8
AM_VIS
100
AcDbLine
 10
2013.369105027869
 20
443.9364620793011
 30
0.0
 11
2007.184446589442
 21
443.9364620793011
 31
0.0
  0
LINE
  5
7A30
330
1F
100
AcDbEntity
  8
AM_VIS
100
AcDbLine
 10
2017.019092840969
 20
443.9364620793011
 30
0.0
 11
2013.926763621756
 21
443.9364620793011
 31
0.0
  0
LINE
  5
7A31
330
1F
100
AcDbEntity
  8
AM_VIS
100
AcDbLine
 10
2017.019092840969
 20
453.936462079301
 30
0.0
 11
2013.926763621756
 21
453.936462079301
 31
0.0
  0
LINE
  5
7A32
330
1F
100
AcDbEntity
  8
AM_VIS
100
AcDbLine
 10
2013.369105027869
 20
453.936462079301
 30
0.0
 11
2007.184446589442
 21
453.936462079301
 31
0.0
  0
LINE
  5
7A33
330
1F
100
AcDbEntity
  8
AM_VIS
100
AcDbLine
 10
2006.626787995555
 20
453.936462079301
 30
0.0
 11
2003.534458776342
 21
453.936462079301
 31
0.0
  0
LINE
  5
7A34
330
1F
100
AcDbEntity
  8
AM_VIS
100
AcDbLine
 10
2017.019092840969
 20
443.9364620793011
 30
0.0
 11
2017.019092840969
 21
453.936462079301
 31
0.0
  0
LINE
  5
7A35
330
1F
100
AcDbEntity
  8
AM_VIS
100
AcDbLine
 10
2013.926763621756
 20
453.936462079301
 30
0.0
 11
2013.926763621756
 21
443.9364620793011
 31
0.0
  0
LINE
  5
7A36
330
1F
100
AcDbEntity
  8
AM_VIS
100
AcDbLine
 10
2013.369105027869
 20
443.9364620793011
 30
0.0
 11
2013.369105027869
 21
453.936462079301
 31
0.0
  0
LINE
  5
7A37
330
1F
100
AcDbEntity
  8
AM_VIS
100
AcDbLine
 10
2007.184446589442
 20
453.936462079301
 30
0.0
 11
2007.184446589442
 21
443.9364620793011
 31
0.0
  0
LINE
  5
7A38
330
1F
100
AcDbEntity
  8
AM_VIS
100
AcDbLine
 10
2006.626787995555
 20
443.9364620793011
 30
0.0
 11
2006.626787995555
 21
453.936462079301
 31
0.0
  0
LINE
  5
7A39
330
1F
100
AcDbEntity
  8
AM_VIS
100
AcDbLine
 10
2003.534458776342
 20
453.936462079301
 30
0.0
 11
2003.534458776342
 21
443.9364620793011
 31
0.0
  0
LINE
  5
7A3A
330
1F
100
AcDbEntity
  8
AM_VIS
100
AcDbLine
 10
2014.276775808656
 20
443.4364620793011
 30
0.0
 11
2014.276775808656
 21
443.9364620793011
 31
0.0
  0
LINE
  5
7A3B
330
1F
100
AcDbEntity
  8
AM_VIS
100
AcDbLine
 10
2006.276775808656
 20
443.4364620793011
 30
0.0
 11
2006.276775808656
 21
443.9364620793011
 31
0.0
  0
LINE
  5
7A3C
330
1F
100
AcDbEntity
  8
AM_VIS
100
AcDbLine
 10
2017.026775808655
 20
453.936462079301
 30
0.0
 11
2017.026775808655
 21
443.9364620793011
 31
0.0
  0
LINE
  5
7A3D
330
1F
100
AcDbEntity
  8
AM_VIS
100
AcDbLine
 10
2003.526775808655
 20
453.936462079301
 30
0.0
 11
2003.526775808655
 21
443.9364620793011
 31
0.0
  0
LINE
  5
7A3E
330
1F
100
AcDbEntity
  8
AM_VIS
100
AcDbLine
 10
2017.026775808655
 20
453.936462079301
 30
0.0
 11
2017.019092840969
 21
453.936462079301
 31
0.0
  0
LINE
  5
7A3F
330
1F
100
AcDbEntity
  8
AM_VIS
100
AcDbLine
 10
2017.019092840969
 20
443.9364620793011
 30
0.0
 11
2017.026775808655
 21
443.9364620793011
 31
0.0
  0
LINE
  5
7A40
330
1F
100
AcDbEntity
  8
AM_VIS
100
AcDbLine
 10
2013.926763621756
 20
453.936462079301
 30
0.0
 11
2013.369105027869
 21
453.936462079301
 31
0.0
  0
LINE
  5
7A41
330
1F
100
AcDbEntity
  8
AM_VIS
100
AcDbLine
 10
2013.369105027869
 20
443.9364620793011
 30
0.0
 11
2013.926763621756
 21
443.9364620793011
 31
0.0
  0
LINE
  5
7A42
330
1F
100
AcDbEntity
  8
AM_VIS
100
AcDbLine
 10
2007.184446589442
 20
453.936462079301
 30
0.0
 11
2006.626787995555
 21
453.936462079301
 31
0.0
  0
LINE
  5
7A43
330
1F
100
AcDbEntity
  8
AM_VIS
100
AcDbLine
 10
2006.626787995555
 20
443.9364620793011
 30
0.0
 11
2007.184446589442
 21
443.9364620793011
 31
0.0
  0
LINE
  5
7A44
330
1F
100
AcDbEntity
  8
AM_VIS
100
AcDbLine
 10
2003.534458776342
 20
453.936462079301
 30
0.0
 11
2003.526775808655
 21
453.936462079301
 31
0.0
  0
LINE
  5
7A45
330
1F
100
AcDbEntity
  8
AM_VIS
100
AcDbLine
 10
2003.526775808655
 20
443.9364620793011
 30
0.0
 11
2003.534458776342
 21
443.9364620793011
 31
0.0
  0
LINE
  5
7A46
330
1F
100
AcDbEntity
  8
AM_VIS
100
AcDbLine
 10
2000.776775808656
 20
461.436462079301
 30
0.0
 11
2000.776775808656
 21
456.4364620793011
 31
0.0
  0
LINE
  5
7A47
330
1F
100
AcDbEntity
  8
AM_VIS
100
AcDbLine
 10
2019.776775808656
 20
456.4364620793011
 30
0.0
 11
2019.776775808656
 21
461.436462079301
 31
0.0
  0
LINE
  5
7A48
330
1F
100
AcDbEntity
  8
AM_VIS
100
AcDbLine
 10
2014.276775808656
 20
453.936462079301
 30
0.0
 11
2014.276775808656
 21
456.4364620793011
 31
0.0
  0
LINE
  5
7A49
330
1F
100
AcDbEntity
  8
AM_VIS
100
AcDbLine
 10
2006.276775808656
 20
453.936462079301
 30
0.0
 11
2006.276775808656
 21
456.4364620793011
 31
0.0
  0
LINE
  5
7A4A
330
1F
100
AcDbEntity
  8
AM_VIS
100
AcDbLine
 10
2022.276775808656
 20
461.436462079301
 30
0.0
 11
2022.276775808656
 21
469.436462079301
 31
0.0
  0
LINE
  5
7A4B
330
1F
100
AcDbEntity
  8
AM_VIS
100
AcDbLine
 10
1998.276775808655
 20
461.436462079301
 30
0.0
 11
1998.276775808655
 21
469.436462079301
 31
0.0
  0
LINE
  5
7A4C
330
1F
100
AcDbEntity
  8
AM_VIS
100
AcDbLine
 10
1998.276775808655
 20
469.436462079301
 30
0.0
 11
2022.276775808656
 21
469.436462079301
 31
0.0
  0
LINE
  5
7A4D
330
1F
100
AcDbEntity
  8
AM_VIS
100
AcDbLine
 10
2019.776775808656
 20
456.4364620793011
 30
0.0
 11
2000.776775808656
 21
456.4364620793011
 31
0.0
  0
LINE
  5
7A4E
330
1F
100
AcDbEntity
  8
AM_VIS
100
AcDbLine
 10
2000.776775808656
 20
461.436462079301
 30
0.0
 11
1998.276775808655
 21
461.436462079301
 31
0.0
  0
LINE
  5
7A4F
330
1F
100
AcDbEntity
  8
AM_VIS
100
AcDbLine
 10
2022.276775808656
 20
461.436462079301
 30
0.0
 11
2019.776775808656
 21
461.436462079301
 31
0.0
  0
VIEWPORT
  5
67EA
330
1B
100
AcDbEntity
 67
     1
  8
0
100
AcDbViewport
 10
128.5
 20
97.5
 30
0.0
 40
314.2260000000001
 41
320.1290895953758
 68
     1
 69
     1
 12
128.5
 22
97.5
 13
0.0
 23
0.0
 14
10.0
 24
10.0
 15
10.0
 25
10.0
 16
0.0
 26
0.0
 36
1.0
 17
0.0
 27
0.0
 37
0.0
 42
50.0
 43
0.0
 44
0.0
 45
320.1290895953758
 50
0.0
 51
0.0
 72
   100
 90
    32800
  1

281
     0
 71
     1
 74
     0
110
0.0
120
0.0
130
0.0
111
1.0
121
0.0
131
0.0
112
0.0
122
1.0
132
0.0
 79
     0
146
0.0
170
     0
  0
ENDSEC
  0
SECTION
  2
OBJECTS
  0
DICTIONARY
  5
C
330
0
100
AcDbDictionary
281
     1
  3
ACAD_COLOR
350
2D4A
  3
ACAD_GROUP
350
D
  3
ACAD_LAYOUT
350
1A
  3
ACAD_MATERIAL
350
2D49
  3
ACAD_MLINESTYLE
350
17
  3
ACAD_PLOTSETTINGS
350
19
  3
ACAD_PLOTSTYLENAME
350
E
  3
ACAD_TABLESTYLE
350
2D4B
  3
AcadDim
350
72F0
  3
AcDbVariableDictionary
350
161
  3
AcmDictionary
350
45
  3
AMG
350
2B
  3
AMGSNAPSETTINGS
350
7D
  3
MAPISURF_MODULE
350
3092
  0
DICTIONARY
  5
2DFC
330
2
100
AcDbDictionary
280
     1
281
     1
  3
ACAD_LAYERFILTERS
360
7B41
  3
ACAD_LAYERSTATES
360
2DFD
  3
ACLYDICTIONARY
360
7B40
  0
DICTIONARY
  5
159
330
1F
100
AcDbDictionary
280
     1
281
     1
  3
ACAD_INDEX
360
15A
  3
ACAD_LAYOUTSELFREF
360
2CE5
  3
ACAD_SORTENTS
360
6A5C
  0
DICTIONARY
  5
2CA5
330
1B
100
AcDbDictionary
280
     1
281
     1
  3
ACAD_LAYOUTSELFREF
360
2CE4
  0
DICTIONARY
  5
2CA7
330
23
100
AcDbDictionary
280
     1
281
     1
  3
ACAD_LAYOUTSELFREF
360
2CE6
  0
DICTIONARY
  5
2D4A
102
{ACAD_REACTORS
330
C
102
}
330
C
100
AcDbDictionary
281
     1
  0
DICTIONARY
  5
D
102
{ACAD_REACTORS
330
C
102
}
330
C
100
AcDbDictionary
281
     1
  0
DICTIONARY
  5
1A
102
{ACAD_REACTORS
330
C
102
}
330
C
100
AcDbDictionary
281
     1
  3
Layout1
350
1E
  3
Layout2
350
26
  3
Model
350
22
  0
DICTIONARY
  5
2D49
102
{ACAD_REACTORS
330
C
102
}
330
C
100
AcDbDictionary
281
     1
  0
DICTIONARY
  5
17
102
{ACAD_REACTORS
330
C
102
}
330
C
100
AcDbDictionary
281
     1
  3
Standard
350
18
  0
DICTIONARY
  5
19
102
{ACAD_REACTORS
330
C
102
}
330
C
100
AcDbDictionary
281
     1
  0
ACDBDICTIONARYWDFLT
  5
E
102
{ACAD_REACTORS
330
C
102
}
330
C
100
AcDbDictionary
281
     1
  3
Normal
350
F
100
AcDbDictionaryWithDefault
340
F
  0
DICTIONARY
  5
2D4B
102
{ACAD_REACTORS
330
C
102
}
330
C
100
AcDbDictionary
281
     1
  3
Standard
350
2D4C
  0
XRECORD
  5
72F0
102
{ACAD_REACTORS
330
C
102
}
330
C
100
AcDbXrecord
280
     1
 90
   990106
  3

 60
     0
 61
     0
 62
     4
 63
     4
 64
     1
 65
     0
 66
     0
 67
     3
 68
     0
 69
     0
 70
     0
 71
     0
 72
     0
 40
0.0
170
     2
340
0
  0
DICTIONARY
  5
161
102
{ACAD_REACTORS
330
C
102
}
330
C
100
AcDbDictionary
281
     1
  3
CTABLESTYLE
350
2DF7
  3
DIMASSOC
350
164
  3
HIDETEXT
350
163
  3
INDEXCTL
350
162
  3
PROJECTNAME
350
3004
  0
DICTIONARY
  5
45
102
{ACAD_REACTORS
330
C
102
}
330
C
100
AcDbDictionary
281
     1
  3
AcmBOMDATA
350
30C3
  3
AcmStdDictionary
350
4A
  3
AMDTSECTSYM_ARROWCOLOR
350
2DBE
  0
DICTIONARY
  5
2B
102
{ACAD_REACTORS
330
C
102
}
330
C
100
AcDbDictionary
281
     1
  3
AcMgSettings
350
300C
  3
AMGLAYCFG
350
30CF
  0
DICTIONARY
  5
7D
102
{ACAD_REACTORS
330
C
102
}
330
C
100
AcDbDictionary
281
     1
  0
DICTIONARY
  5
7B41
102
{ACAD_REACTORS
330
2DFC
102
}
330
2DFC
100
AcDbDictionary
281
     1
  0
DICTIONARY
  5
2DFD
102
{ACAD_REACTORS
330
2DFC
102
}
330
2DFC
100
AcDbDictionary
281
     1
  0
DICTIONARY
  5
7B40
102
{ACAD_REACTORS
330
2DFC
102
}
330
2DFC
100
AcDbDictionary
281
     1
1001
ACAD
1000
<All
  0
DICTIONARY
  5
15A
102
{ACAD_REACTORS
330
159
102
}
330
159
100
AcDbDictionary
281
     1
  3
*A1
350
15B
  0
XRECORD
  5
2CE5
102
{ACAD_REACTORS
330
159
102
}
330
159
100
AcDbXrecord
280
     1
340
1F
  0
SORTENTSTABLE
  5
6A5C
102
{ACAD_REACTORS
330
159
102
}
330
159
100
AcDbSortentsTable
330
1F
331
3E65
  5
3E65
331
3E47
  5
3E47
331
3E0B
  5
3E0B
331
3E33
  5
3E33
331
3E51
  5
3E51
331
3E15
  5
3E15
331
3E5C
  5
3E5C
331
3E48
  5
3E48
331
3E66
  5
3E66
331
3E0C
  5
3E0C
331
3E52
  5
3E52
331
3E16
  5
3E16
331
3E5D
  5
3E5D
331
3E3F
  5
3E3F
331
3E49
  5
3E49
331
3E67
  5
3E67
331
3E0D
  5
3E0D
331
3E53
  5
3E53
331
3E17
  5
3E17
331
3E18
  5
3E18
331
3E40
  5
3E40
331
3E5E
  5
3E5E
331
3E2C
  5
3E2C
331
3E4A
  5
3E4A
331
3E68
  5
3E68
331
3E54
  5
3E54
331
3E0E
  5
3E0E
331
3E19
  5
3E19
331
3E23
  5
3E23
331
3E41
  5
3E41
331
3E5F
  5
3E5F
331
3E2D
  5
3E2D
331
3E4B
  5
3E4B
331
3E69
  5
3E69
331
3E55
  5
3E55
331
3E0F
  5
3E0F
331
3E37
  5
3E37
331
3E1A
  5
3E1A
331
3E60
  5
3E60
331
18EC
  5
18EC
331
3E2E
  5
3E2E
331
3E4C
  5
3E4C
331
3E10
  5
3E10
331
3E56
  5
3E56
331
3E1B
  5
3E1B
331
3E61
  5
3E61
331
3E4D
  5
3E4D
331
3E2F
  5
3E2F
331
3E11
  5
3E11
331
3E57
  5
3E57
331
3E1C
  5
3E1C
331
3E58
  5
3E58
331
3E62
  5
3E62
331
3E08
  5
3E08
331
3E30
  5
3E30
331
3E4E
  5
3E4E
331
3E12
  5
3E12
331
3E1D
  5
3E1D
331
3E3B
  5
3E3B
331
3E59
  5
3E59
331
3E45
  5
3E45
331
3E63
  5
3E63
331
3E27
  5
3E27
331
3E09
  5
3E09
331
3E31
  5
3E31
331
3E4F
  5
3E4F
331
3E13
  5
3E13
331
3E1E
  5
3E1E
331
3E5A
  5
3E5A
331
3E64
  5
3E64
331
3E28
  5
3E28
331
3E46
  5
3E46
331
3E0A
  5
3E0A
331
3E32
  5
3E32
331
3E50
  5
3E50
331
3E14
  5
3E14
331
3E5B
  5
3E5B
331
3E1F
  5
3E1F
  0
XRECORD
  5
2CE4
102
{ACAD_REACTORS
330
2CA5
102
}
330
2CA5
100
AcDbXrecord
280
     1
340
1B
  0
XRECORD
  5
2CE6
102
{ACAD_REACTORS
330
2CA7
102
}
330
2CA7
100
AcDbXrecord
280
     1
340
23
  0
LAYOUT
  5
1E
102
{ACAD_REACTORS
330
1A
102
}
330
1A
100
AcDbPlotSettings
  1

  2
none_device
  4
ISO_A4_(210.00_x_297.00_MM)
  6

 40
7.5
 41
20.0
 42
7.5
 43
20.0
 44
210.0
 45
297.0
 46
0.0
 47
0.0
 48
0.0
 49
0.0
140
0.0
141
0.0
142
1.0
143
1.0
 70
   688
 72
     1
 73
     1
 74
     5
  7
單色出圖.ctb
 75
    16
147
1.0
 76
     0
 77
     2
 78
   300
148
0.0
149
0.0
100
AcDbLayout
  1
Layout1
 70
     1
 71
     1
 10
0.0
 20
0.0
 11
420.0
 21
297.0
 12
0.0
 22
0.0
 32
0.0
 14
1.000000000000000E+20
 24
1.000000000000000E+20
 34
1.000000000000000E+20
 15
-1.000000000000000E+20
 25
-1.000000000000000E+20
 35
-1.000000000000000E+20
146
0.0
 13
0.0
 23
0.0
 33
0.0
 16
1.0
 26
0.0
 36
0.0
 17
0.0
 27
1.0
 37
0.0
 76
     0
330
1B
331
67EA
1001
ACAD_PSEXT
1000
無
1000
無
1000
不適用
1000
除非另選一新建的繪圖機規劃名稱，否則配置將不會出圖。
1070
     0
  0
LAYOUT
  5
26
102
{ACAD_REACTORS
330
1A
102
}
330
1A
100
AcDbPlotSettings
  1

  2
自動 RD 上的 Epson Stylus Photo 750 單色
  4

  6

 40
0.0
 41
0.0
 42
0.0
 43
0.0
 44
0.0
 45
0.0
 46
0.0
 47
0.0
 48
0.0
 49
0.0
140
0.0
141
0.0
142
1.0
143
1.0
 70
   688
 72
     0
 73
     0
 74
     5
  7
單色出圖.ctb
 75
    16
147
1.0
 76
     0
 77
     2
 78
   300
148
0.0
149
0.0
100
AcDbLayout
  1
Layout2
 70
     1
 71
     2
 10
0.0
 20
0.0
 11
12.0
 21
9.0
 12
0.0
 22
0.0
 32
0.0
 14
0.0
 24
0.0
 34
0.0
 15
0.0
 25
0.0
 35
0.0
146
0.0
 13
0.0
 23
0.0
 33
0.0
 16
1.0
 26
0.0
 36
0.0
 17
0.0
 27
1.0
 37
0.0
 76
     0
330
23
  0
LAYOUT
  5
22
102
{ACAD_REACTORS
330
1A
102
}
330
1A
100
AcDbPlotSettings
  1

  2
DWF6 ePlot.pc3
  4
ISO_full_bleed_A4_(210.00_x_297.00_MM)
  6

 40
0.7937499880790711
 41
0.7937499880790711
 42
0.7937469482421875
 43
0.79376220703125
 44
210.0
 45
297.0
 46
0.0
 47
12.28485874324721
 48
326.4352652721618
 49
-351.0794376754639
140
955.4929322931121
141
132.9780943055921
142
1.0
143
2.322593533810954
 70
  3764
 72
     1
 73
     1
 74
     4
  7
彩色出圖.ctb
 75
     0
147
0.430553166295603
 76
     1
 77
     2
 78
   300
148
-326.4352652721618
149
351.0794376754639
100
AcDbLayout
  1
Model
 70
     1
 71
     0
 10
0.0
 20
0.0
 11
12.0
 21
9.0
 12
0.0
 22
0.0
 32
0.0
 14
0.0
 24
0.0
 34
0.0
 15
0.0
 25
0.0
 35
0.0
146
0.0
 13
0.0
 23
0.0
 33
0.0
 16
1.0
 26
0.0
 36
0.0
 17
0.0
 27
1.0
 37
0.0
 76
     0
330
1F
1001
ACAD_PSEXT
1000
DWF6 ePlot.pc3
1000
DWF6 ePlot
1000
檔案
1000

1070
     0
  0
MLINESTYLE
  5
18
102
{ACAD_REACTORS
330
17
102
}
330
17
100
AcDbMlineStyle
  2
STANDARD
 70
     0
  3

 62
   256
 51
90.0
 52
90.0
 71
     2
 49
0.5
 62
   256
  6
BYLAYER
 49
-0.5
 62
   256
  6
BYLAYER
  0
ACDBPLACEHOLDER
  5
F
102
{ACAD_REACTORS
330
E
102
}
330
E
  0
TABLESTYLE
  5
2D4C
102
{ACAD_REACTORS
330
2D4B
102
}
330
2D4B
100
AcDbTableStyle
  3
Standard
 70
     0
 71
     0
 40
1.5
 41
1.5
280
     0
281
     0
  7
STANDARD
140
4.5
170
     2
 62
     0
 63
     7
283
     0
274
    -2
284
     1
 64
     0
275
    -2
285
     1
 65
     0
276
    -2
286
     1
 66
     0
277
    -2
287
     1
 67
     0
278
    -2
288
     1
 68
     0
279
    -2
289
     1
 69
     0
  7
STANDARD
140
6.0
170
     5
 62
     0
 63
     7
283
     0
274
    -2
284
     1
 64
     0
275
    -2
285
     1
 65
     0
276
    -2
286
     1
 66
     0
277
    -2
287
     1
 67
     0
278
    -2
288
     1
 68
     0
279
    -2
289
     1
 69
     0
  7
STANDARD
140
4.5
170
     5
 62
     0
 63
     7
283
     0
274
    -2
284
     1
 64
     0
275
    -2
285
     1
 65
     0
276
    -2
286
     1
 66
     0
277
    -2
287
     1
 67
     0
278
    -2
288
     1
 68
     0
279
    -2
289
     1
 69
     0
  0
DICTIONARYVAR
  5
2DF7
102
{ACAD_REACTORS
330
161
102
}
330
161
100
DictionaryVariables
280
     0
  1
STANDARD
  0
DICTIONARYVAR
  5
164
102
{ACAD_REACTORS
330
161
102
}
330
161
100
DictionaryVariables
280
     0
  1
2
  0
DICTIONARYVAR
  5
163
102
{ACAD_REACTORS
330
161
102
}
330
161
100
DictionaryVariables
280
     0
  1
1
  0
DICTIONARYVAR
  5
162
102
{ACAD_REACTORS
330
161
102
}
330
161
100
DictionaryVariables
280
     0
  1
1
  0
DICTIONARYVAR
  5
3004
102
{ACAD_REACTORS
330
161
102
}
330
161
100
DictionaryVariables
280
     0
  1

  0
ACMDATADICTIONARY
  5
30C3
102
{ACAD_REACTORS
330
45
102
}
330
45
100
AcDbDictionary
281
     1
  3
*A1
350
30C4
100
AcmDataDictionary
  0
DICTIONARY
  5
4A
102
{ACAD_REACTORS
330
45
102
}
330
45
100
AcDbDictionary
281
     1
  3
ISO
350
30CE
  0
XRECORD
  5
2DBE
102
{ACAD_REACTORS
330
45
102
}
330
45
100
AcDbXrecord
280
     1
 90
-1023410169
  0
DICTIONARY
  5
300C
102
{ACAD_REACTORS
330
2B
102
}
330
2B
100
AcDbDictionary
281
     1
  3
DWGSETTINGS
350
300D
  3
Shaft
350
7B3F
  3
TRANSSETTINGS
350
3010
  0
LAYER_INDEX
  5
15B
102
{ACAD_REACTORS
330
15A
102
}
330
15A
100
AcDbIndex
 40
2456318.364612986
100
AcDbLayerIndex
  8
0
360
15C
 90
        7
  8
AM_5
360
15D
 90
        8
  8
Defpoints
360
15E
 90
        0
  8
AM_7
360
15F
 90
       43
  8
AM_VIS
360
4D5
 90
      666
  8
AM_4
360
11F1
 90
       20
  8
LOGO
360
18F9
 90
       78
  8
AM_REFDIM
360
7EBB
 90
        0
  8
DIM
360
7EBC
 90
       27
  8
center
360
7EBD
 90
        0
  0
ACMDATAENTRYBLOCK
  5
30C4
102
{ACAD_REACTORS
330
30C3
102
}
330
30C3
100
AcmDataEntry
100
AcmDataEntryBlock
  0
IDBUFFER
  5
15C
330
0
100
AcDbIdBuffer
330
3E6A
330
3E6B
330
3E6C
330
7798
330
7799
330
779A
330
779B
  0
IDBUFFER
  5
15D
330
0
100
AcDbIdBuffer
330
778B
330
778C
330
778E
330
778F
330
77A3
330
77A2
330
77A0
330
77A1
  0
IDBUFFER
  5
15E
330
0
100
AcDbIdBuffer
  0
IDBUFFER
  5
15F
330
0
100
AcDbIdBuffer
330
7750
330
7751
330
7752
330
7753
330
7754
330
7755
330
7756
330
7757
330
7758
330
7759
330
775A
330
775B
330
775C
330
775D
330
775E
330
775F
330
7760
330
7761
330
7762
330
7763
330
7764
330
7765
330
7766
330
7775
330
7776
330
7777
330
7778
330
7779
330
777A
330
777B
330
777C
330
777D
330
777E
330
777F
330
7780
330
7781
330
7782
330
7783
330
778D
330
7790
330
779E
330
779F
330
77A6
  0
IDBUFFER
  5
4D5
330
0
100
AcDbIdBuffer
330
798E
330
798F
330
7990
330
7991
330
7992
330
7993
330
7994
330
7995
330
7996
330
7997
330
7998
330
7999
330
799A
330
799B
330
799C
330
799D
330
799E
330
799F
330
79A0
330
79A1
330
79A2
330
79A3
330
79A4
330
79A5
330
79A6
330
79A7
330
79A8
330
79A9
330
79AA
330
79AB
330
79AC
330
79AD
330
79AE
330
79AF
330
79B0
330
79B1
330
79B2
330
79B3
330
79B4
330
79B5
330
79B6
330
79B7
330
79B8
330
79B9
330
79BA
330
79BB
330
79BC
330
79BD
330
79BE
330
79BF
330
79C0
330
79C1
330
79C2
330
79C3
330
79C4
330
79C5
330
79C6
330
79C7
330
79C8
330
79C9
330
79CA
330
79CB
330
79CC
330
79CD
330
79CE
330
79CF
330
79D0
330
79D1
330
79D2
330
79D3
330
79D4
330
79D5
330
79D6
330
79D7
330
79D8
330
79D9
330
79DA
330
79DB
330
79DC
330
79DD
330
79DE
330
79DF
330
79E0
330
79E1
330
79E2
330
79E3
330
79E4
330
79E5
330
79E6
330
79E7
330
79E8
330
79E9
330
79EA
330
79EB
330
79EC
330
79ED
330
79EE
330
79EF
330
79F0
330
79F1
330
79F2
330
79F3
330
79F4
330
79F5
330
79F6
330
79F7
330
79F8
330
79F9
330
79FA
330
79FB
330
79FC
330
79FD
330
79FE
330
79FF
330
7A00
330
7A01
330
7A02
330
7A03
330
7A04
330
7A05
330
7A06
330
7A07
330
7A08
330
7A09
330
7A0A
330
7A0B
330
7A0C
330
7A0D
330
7A0E
330
7A0F
330
7A10
330
7A11
330
7A12
330
7A13
330
7A14
330
7A15
330
7A16
330
7A17
330
7A18
330
7A19
330
7A1A
330
7A1B
330
7A1C
330
7A1D
330
7A1E
330
7A1F
330
7A20
330
7A21
330
7A22
330
7A23
330
7A24
330
7A25
330
7A26
330
7A27
330
7A28
330
7A29
330
7A2A
330
7A2B
330
7A2C
330
7A2D
330
7A2E
330
7A2F
330
7A30
330
7A31
330
7A32
330
7A33
330
7A34
330
7A35
330
7A36
330
7A37
330
7A38
330
7A39
330
7A3A
330
7A3B
330
7A3C
330
7A3D
330
7A3E
330
7A3F
330
7A40
330
7A41
330
7A42
330
7A43
330
7A44
330
7A45
330
7A46
330
7A47
330
7A48
330
7A49
330
7A4A
330
7A4B
330
7A4C
330
7A4D
330
7A4E
330
7A4F
330
7794
330
7795
330
77A7
330
77A8
330
77A9
330
77AA
330
77AB
330
77AC
330
77AD
330
77AE
330
77AF
330
77B0
330
77B1
330
77B2
330
77B3
330
77C5
330
77C6
330
77C7
330
77C8
330
77C9
330
77CA
330
77CB
330
77CC
330
77CD
330
77CE
330
77CF
330
77D0
330
77D1
330
77D2
330
77D3
330
77D4
330
77D5
330
77D6
330
77D7
330
77D8
330
77D9
330
77DA
330
77DB
330
77DC
330
77DD
330
77DE
330
77DF
330
77E0
330
77E1
330
77E2
330
77E3
330
77E4
330
77E5
330
77E6
330
77E7
330
77E8
330
77E9
330
77EA
330
77EB
330
77EC
330
77ED
330
77EE
330
77EF
330
77F0
330
77F1
330
77F2
330
77F3
330
77F4
330
77F5
330
77F6
330
77F7
330
77F8
330
77F9
330
77FA
330
77FB
330
77FC
330
77FD
330
77FE
330
77FF
330
7800
330
7801
330
7802
330
7803
330
7804
330
7805
330
7806
330
7807
330
7808
330
7809
330
780A
330
780B
330
780C
330
780D
330
780E
330
780F
330
7810
330
7811
330
7812
330
7813
330
7814
330
7815
330
7816
330
7817
330
7818
330
7819
330
781A
330
781B
330
781C
330
781D
330
781E
330
781F
330
7820
330
7821
330
7822
330
7823
330
7824
330
7825
330
7826
330
7827
330
7828
330
7829
330
782A
330
782B
330
782C
330
782D
330
782E
330
782F
330
7830
330
7831
330
7832
330
7833
330
7834
330
7835
330
7836
330
7837
330
7838
330
7839
330
783A
330
783B
330
783C
330
783D
330
783E
330
783F
330
7840
330
7841
330
7842
330
7843
330
7844
330
7845
330
7846
330
7847
330
7848
330
7849
330
784A
330
784B
330
784C
330
784D
330
784E
330
784F
330
7850
330
7851
330
7852
330
7853
330
7854
330
7855
330
7856
330
7857
330
7858
330
7859
330
785A
330
785B
330
785C
330
785D
330
785E
330
785F
330
7860
330
7861
330
7862
330
7863
330
7864
330
7865
330
7866
330
7867
330
7868
330
7869
330
786A
330
786B
330
786C
330
786D
330
786E
330
786F
330
7870
330
7871
330
7872
330
7873
330
7874
330
7875
330
7876
330
7877
330
7878
330
7879
330
787A
330
787B
330
787C
330
787D
330
787E
330
787F
330
7880
330
7881
330
7882
330
7883
330
7884
330
7885
330
7886
330
7887
330
7888
330
7889
330
788A
330
788B
330
788C
330
788D
330
788E
330
788F
330
7890
330
7891
330
7892
330
7893
330
7894
330
7895
330
7896
330
7897
330
7898
330
7899
330
789A
330
789B
330
789C
330
789D
330
789E
330
789F
330
78A0
330
78A1
330
78A2
330
78A3
330
78A4
330
78A5
330
78A6
330
78A7
330
78A8
330
78A9
330
78AA
330
78AB
330
78AC
330
78AD
330
78AE
330
78AF
330
78B0
330
78B1
330
78B2
330
78B3
330
78B4
330
78B5
330
78B6
330
78B7
330
78B8
330
78B9
330
78BA
330
78BB
330
78BC
330
78BD
330
78BE
330
78BF
330
78C0
330
78C1
330
78C2
330
78C3
330
78C4
330
78C5
330
78C6
330
78C7
330
78C8
330
78C9
330
78CA
330
78CB
330
78CC
330
78CD
330
78CE
330
78CF
330
78D0
330
78D1
330
78D2
330
78D3
330
78D4
330
78D5
330
78D6
330
78D7
330
78D8
330
78D9
330
78DA
330
78DB
330
78DC
330
78DD
330
78DE
330
78DF
330
78E0
330
78E1
330
78E2
330
78E3
330
78E4
330
78E5
330
78E6
330
78E7
330
78E8
330
78E9
330
78EA
330
78EB
330
78EC
330
78ED
330
78EE
330
78EF
330
78F0
330
78F1
330
78F2
330
78F3
330
78F4
330
78F5
330
78F6
330
78F7
330
78F8
330
78F9
330
78FA
330
78FB
330
78FC
330
78FD
330
78FE
330
78FF
330
7900
330
7901
330
7902
330
7903
330
7904
330
7905
330
7906
330
7907
330
7908
330
7909
330
790A
330
790B
330
790C
330
790D
330
790E
330
790F
330
7910
330
7911
330
7912
330
7913
330
7914
330
7915
330
7916
330
7917
330
7918
330
7919
330
791A
330
791B
330
791C
330
791D
330
791E
330
791F
330
7920
330
7921
330
7922
330
7923
330
7924
330
7925
330
7926
330
7927
330
7928
330
7929
330
792A
330
792B
330
792C
330
792D
330
792E
330
792F
330
7930
330
7931
330
7932
330
7933
330
7934
330
7935
330
7936
330
7937
330
7938
330
7939
330
793A
330
793B
330
793C
330
793D
330
793E
330
793F
330
7940
330
7941
330
7942
330
7943
330
7944
330
7945
330
7946
330
7947
330
7948
330
7949
330
794A
330
794B
330
794C
330
794D
330
794E
330
794F
330
7950
330
7951
330
7952
330
7953
330
7954
330
7955
330
7956
330
7957
330
7958
330
7959
330
795A
330
795B
330
795C
330
795D
330
795E
330
795F
330
7960
330
7961
330
7962
330
7963
330
7964
330
7965
330
7966
330
7967
330
7968
330
7969
330
796A
330
796B
330
796C
330
796D
330
796E
330
796F
330
7970
330
7971
330
7972
330
7973
330
7974
330
7975
330
7976
330
7977
330
7978
330
7979
330
797A
330
797B
330
797C
330
797D
330
797E
330
797F
330
7980
330
7981
330
7982
330
7983
330
7984
330
7985
330
7986
330
7987
330
7988
330
7989
330
798A
330
798B
330
798C
330
798D
  0
IDBUFFER
  5
11F1
330
0
100
AcDbIdBuffer
330
7784
330
7785
330
7786
330
7787
330
7788
330
7789
330
7767
330
7768
330
7769
330
776A
330
776B
330
776C
330
776D
330
776E
330
776F
330
7770
330
7771
330
7772
330
7773
330
7774
  0
IDBUFFER
  5
18F9
330
0
100
AcDbIdBuffer
330
18EC
330
3E08
330
3E09
330
3E0A
330
3E0B
330
3E0C
330
3E0D
330
3E0E
330
3E0F
330
3E10
330
3E11
330
3E12
330
3E13
330
3E14
330
3E15
330
3E16
330
3E17
330
3E18
330
3E19
330
3E1A
330
3E1B
330
3E1C
330
3E1D
330
3E1E
330
3E1F
330
3E23
330
3E27
330
3E28
330
3E2C
330
3E2D
330
3E2E
330
3E2F
330
3E30
330
3E31
330
3E32
330
3E33
330
3E37
330
3E3B
330
3E3F
330
3E40
330
3E41
330
3E45
330
3E46
330
3E47
330
3E48
330
3E49
330
3E4A
330
3E4B
330
3E4C
330
3E4D
330
3E4E
330
3E4F
330
3E50
330
3E51
330
3E52
330
3E53
330
3E54
330
3E55
330
3E56
330
3E57
330
3E58
330
3E59
330
3E5A
330
3E5B
330
3E5C
330
3E5D
330
3E5E
330
3E5F
330
3E60
330
3E61
330
3E62
330
3E63
330
3E64
330
3E65
330
3E66
330
3E67
330
3E68
330
3E69
  0
IDBUFFER
  5
7EBB
330
0
100
AcDbIdBuffer
  0
IDBUFFER
  5
7EBC
330
0
100
AcDbIdBuffer
330
77BA
330
77BB
330
77BC
330
77BD
330
77BE
330
77BF
330
77C0
330
77C1
330
77C2
330
77C3
330
77C4
330
778A
330
7791
330
7792
330
7793
330
7796
330
7797
330
779C
330
779D
330
77A4
330
77A5
330
77B4
330
77B5
330
77B6
330
77B7
330
77B8
330
77B9
  0
IDBUFFER
  5
7EBD
330
0
100
AcDbIdBuffer
  0
ENDSEC
  0
EOF
