  0
SECTION
  2
HEADER
  9
$ACADVER
  1
AC1015
  9
$ACADMAINTVER
 70
    20
  9
$DWGCODEPAGE
  3
ANSI_950
  9
$INSBASE
 10
0.0
 20
0.0
 30
0.0
  9
$EXTMIN
 10
704.9172749853051
 20
1171.069599266178
 30
-0.0014349069509763
  9
$EXTMAX
 10
960.3157120486262
 20
1486.443926543857
 30
188.734646198061
  9
$LIMMIN
 10
0.0
 20
0.0
  9
$LIMMAX
 10
420.0
 20
297.0
  9
$ORTHOMODE
 70
     1
  9
$REGENMODE
 70
     1
  9
$FILLMODE
 70
     1
  9
$QTEXTMODE
 70
     0
  9
$MIRRTEXT
 70
     1
  9
$LTSCALE
 40
1.0
  9
$ATTMODE
 70
     1
  9
$TEXTSIZE
 40
3.0
  9
$TRACEWID
 40
1.0
  9
$TEXTSTYLE
  7
STANDARD
  9
$CLAYER
  8
0
  9
$CELTYPE
  6
ByLayer
  9
$CECOLOR
 62
   256
  9
$CELTSCALE
 40
1.0
  9
$DISPSILH
 70
     0
  9
$DIMSCALE
 40
1.0
  9
$DIMASZ
 40
3.0
  9
$DIMEXO
 40
1.0
  9
$DIMDLI
 40
11.0
  9
$DIMRND
 40
0.0
  9
$DIMDLE
 40
0.0
  9
$DIMEXE
 40
1.5
  9
$DIMTP
 40
0.1
  9
$DIMTM
 40
0.1
  9
$DIMTXT
 40
3.5
  9
$DIMCEN
 40
0.0
  9
$DIMTSZ
 40
0.0
  9
$DIMTOL
 70
     0
  9
$DIMLIM
 70
     0
  9
$DIMTIH
 70
     0
  9
$DIMTOH
 70
     0
  9
$DIMSE1
 70
     0
  9
$DIMSE2
 70
     0
  9
$DIMTAD
 70
     1
  9
$DIMZIN
 70
     8
  9
$DIMBLK
  1

  9
$DIMASO
 70
     1
  9
$DIMSHO
 70
     1
  9
$DIMPOST
  1

  9
$DIMAPOST
  1
"
  9
$DIMALT
 70
     0
  9
$DIMALTD
 70
     2
  9
$DIMALTF
 40
0.0393701
  9
$DIMLFAC
 40
1.0
  9
$DIMTOFL
 70
     1
  9
$DIMTVP
 40
0.0
  9
$DIMTIX
 70
     0
  9
$DIMSOXD
 70
     0
  9
$DIMSAH
 70
     0
  9
$DIMBLK1
  1

  9
$DIMBLK2
  1

  9
$DIMSTYLE
  2
AM_ISO
  9
$DIMCLRD
 70
   256
  9
$DIMCLRE
 70
   256
  9
$DIMCLRT
 70
   256
  9
$DIMTFAC
 40
0.6
  9
$DIMGAP
 40
0.7
  9
$DIMJUST
 70
     0
  9
$DIMSD1
 70
     0
  9
$DIMSD2
 70
     0
  9
$DIMTOLJ
 70
     0
  9
$DIMTZIN
 70
     8
  9
$DIMALTZ
 70
     0
  9
$DIMALTTZ
 70
     0
  9
$DIMUPT
 70
     0
  9
$DIMDEC
 70
     2
  9
$DIMTDEC
 70
     8
  9
$DIMALTU
 70
     2
  9
$DIMALTTD
 70
     2
  9
$DIMTXSTY
  7
STANDARD
  9
$DIMAUNIT
 70
     0
  9
$DIMADEC
 70
     0
  9
$DIMALTRND
 40
0.0
  9
$DIMAZIN
 70
     2
  9
$DIMDSEP
 70
    46
  9
$DIMATFIT
 70
     3
  9
$DIMFRAC
 70
     0
  9
$DIMLDRBLK
  1

  9
$DIMLUNIT
 70
     2
  9
$DIMLWD
 70
    -1
  9
$DIMLWE
 70
    -1
  9
$DIMTMOVE
 70
     0
  9
$LUNITS
 70
     2
  9
$LUPREC
 70
     2
  9
$SKETCHINC
 40
1.0
  9
$FILLETRAD
 40
2.5
  9
$AUNITS
 70
     0
  9
$AUPREC
 70
     0
  9
$MENU
  1
.
  9
$ELEVATION
 40
0.0
  9
$PELEVATION
 40
0.0
  9
$THICKNESS
 40
0.0
  9
$LIMCHECK
 70
     0
  9
$CHAMFERA
 40
2.5
  9
$CHAMFERB
 40
2.5
  9
$CHAMFERC
 40
20.0
  9
$CHAMFERD
 40
0.0
  9
$SKPOLY
 70
     0
  9
$TDCREATE
 40
2453836.381385081
  9
$TDUCREATE
 40
2453836.048051748
  9
$TDUPDATE
 40
2455013.456326181
  9
$TDUUPDATE
 40
2455013.122992848
  9
$TDINDWG
 40
0.1614268171
  9
$TDUSRTIMER
 40
0.1614268171
  9
$USRTIMER
 70
     1
  9
$ANGBASE
 50
0.0
  9
$ANGDIR
 70
     0
  9
$PDMODE
 70
     0
  9
$PDSIZE
 40
0.0
  9
$PLINEWID
 40
0.0
  9
$SPLFRAME
 70
     0
  9
$SPLINETYPE
 70
     6
  9
$SPLINESEGS
 70
     8
  9
$HANDSEED
  5
4F4E
  9
$SURFTAB1
 70
     6
  9
$SURFTAB2
 70
     6
  9
$SURFTYPE
 70
     6
  9
$SURFU
 70
     6
  9
$SURFV
 70
     6
  9
$UCSBASE
  2

  9
$UCSNAME
  2

  9
$UCSORG
 10
0.0
 20
0.0
 30
0.0
  9
$UCSXDIR
 10
1.0
 20
0.0
 30
0.0
  9
$UCSYDIR
 10
0.0
 20
1.0
 30
0.0
  9
$UCSORTHOREF
  2

  9
$UCSORTHOVIEW
 70
     0
  9
$UCSORGTOP
 10
0.0
 20
0.0
 30
0.0
  9
$UCSORGBOTTOM
 10
0.0
 20
0.0
 30
0.0
  9
$UCSORGLEFT
 10
0.0
 20
0.0
 30
0.0
  9
$UCSORGRIGHT
 10
0.0
 20
0.0
 30
0.0
  9
$UCSORGFRONT
 10
0.0
 20
0.0
 30
0.0
  9
$UCSORGBACK
 10
0.0
 20
0.0
 30
0.0
  9
$PUCSBASE
  2

  9
$PUCSNAME
  2

  9
$PUCSORG
 10
0.0
 20
0.0
 30
0.0
  9
$PUCSXDIR
 10
1.0
 20
0.0
 30
0.0
  9
$PUCSYDIR
 10
0.0
 20
1.0
 30
0.0
  9
$PUCSORTHOREF
  2

  9
$PUCSORTHOVIEW
 70
     0
  9
$PUCSORGTOP
 10
0.0
 20
0.0
 30
0.0
  9
$PUCSORGBOTTOM
 10
0.0
 20
0.0
 30
0.0
  9
$PUCSORGLEFT
 10
0.0
 20
0.0
 30
0.0
  9
$PUCSORGRIGHT
 10
0.0
 20
0.0
 30
0.0
  9
$PUCSORGFRONT
 10
0.0
 20
0.0
 30
0.0
  9
$PUCSORGBACK
 10
0.0
 20
0.0
 30
0.0
  9
$USERI1
 70
     0
  9
$USERI2
 70
     0
  9
$USERI3
 70
     0
  9
$USERI4
 70
     0
  9
$USERI5
 70
     0
  9
$USERR1
 40
0.0
  9
$USERR2
 40
0.0
  9
$USERR3
 40
0.0
  9
$USERR4
 40
0.0
  9
$USERR5
 40
0.0
  9
$WORLDVIEW
 70
     1
  9
$SHADEDGE
 70
     3
  9
$SHADEDIF
 70
    70
  9
$TILEMODE
 70
     1
  9
$MAXACTVP
 70
    64
  9
$PINSBASE
 10
0.0
 20
0.0
 30
0.0
  9
$PLIMCHECK
 70
     0
  9
$PEXTMIN
 10
1.000000000000000E+20
 20
1.000000000000000E+20
 30
1.000000000000000E+20
  9
$PEXTMAX
 10
-1.000000000000000E+20
 20
-1.000000000000000E+20
 30
-1.000000000000000E+20
  9
$PLIMMIN
 10
0.0
 20
0.0
  9
$PLIMMAX
 10
420.0
 20
297.0
  9
$UNITMODE
 70
     0
  9
$VISRETAIN
 70
     1
  9
$PLINEGEN
 70
     0
  9
$PSLTSCALE
 70
     1
  9
$TREEDEPTH
 70
  3020
  9
$CMLSTYLE
  2
Standard
  9
$CMLJUST
 70
     0
  9
$CMLSCALE
 40
20.0
  9
$PROXYGRAPHICS
 70
     1
  9
$MEASUREMENT
 70
     1
  9
$CELWEIGHT
370
    -1
  9
$ENDCAPS
280
     0
  9
$JOINSTYLE
280
     0
  9
$LWDISPLAY
290
     0
  9
$INSUNITS
 70
     4
  9
$HYPERLINKBASE
  1

  9
$STYLESHEET
  1
acad.ctb
  9
$XEDIT
290
     1
  9
$CEPSNTYPE
380
     0
  9
$PSTYLEMODE
290
     1
  9
$FINGERPRINTGUID
  2
{4E42D67C-2C0E-4518-AAFF-743F4EBE0702}
  9
$VERSIONGUID
  2
{FBDF6444-17B2-4E50-B85E-BE20ADC66F9E}
  9
$EXTNAMES
290
     1
  9
$PSVPSCALE
 40
0.0
  9
$OLESTARTUP
290
     0
  0
ENDSEC
  0
SECTION
  2
CLASSES
  0
CLASS
  1
ACDBDICTIONARYWDFLT
  2
AcDbDictionaryWithDefault
  3
ObjectDBX Classes
 90
        0
280
     0
281
     0
  0
CLASS
  1
ACDBPLACEHOLDER
  2
AcDbPlaceHolder
  3
ObjectDBX Classes
 90
        0
280
     0
281
     0
  0
CLASS
  1
LAYOUT
  2
AcDbLayout
  3
ObjectDBX Classes
 90
        0
280
     0
281
     0
  0
CLASS
  1
ACME_DOCUMENT
  2
AcMeDbDoc
  3
AcMeServices
 90
        0
280
     0
281
     0
  0
CLASS
  1
AMGSETTINGSOBJ
  2
AmgSettingsObj
  3
"AcadM|Product Description: AutoCAD Mechanical 2000|Company: Autodesk"
 90
        0
280
     0
281
     0
  0
CLASS
  1
ACMESCOPE
  2
AcMeScope
  3
AcMeServices
 90
        0
280
     0
281
     0
  0
CLASS
  1
ACMECOMMANDHISTORY
  2
AcMeCommandHistory
  3
AcMeServices
 90
        0
280
     0
281
     0
  0
CLASS
  1
ACIMSYSVARMAN
  2
AcImSysVarManager
  3
AcMeServices
 90
        0
280
     0
281
     0
  0
CLASS
  1
ACIMREALSYSVAR
  2
AcImRealSysVar
  3
AcMeServices
 90
        0
280
     0
281
     0
  0
CLASS
  1
ACIMINTSYSVAR
  2
AcImIntSysVar
  3
AcMeServices
 90
        0
280
     0
281
     0
  0
CLASS
  1
ACMEDRAWINGMAN
  2
AcMeDrawingMan
  3
AcMeServices
 90
        0
280
     0
281
     0
  0
CLASS
  1
ACMEVIEW
  2
AcMeView
  3
AcMeServices
 90
        0
280
     0
281
     0
  0
CLASS
  1
ACDBENTITYCACHE
  2
AcMeEntityCache
  3
AcMeServices
 90
        0
280
     0
281
     0
  0
CLASS
  1
GSMANAGER
  2
AcMeGSManager
  3
AcMeServices
 90
        0
280
     0
281
     0
  0
CLASS
  1
AMDTINTERNALREACTOR
  2
AmdtInternalReactor
  3
AcMeServices
 90
        0
280
     0
281
     0
  0
CLASS
  1
ACMESTATEMGR
  2
AcMeStateMgr
  3
AcMeServices
 90
        0
280
     0
281
     0
  0
CLASS
  1
ACGREFMASTER
  2
AcGrefMaster
  3
AcAttribServices
 90
        0
280
     0
281
     0
  0
CLASS
  1
ACME_DATABASE
  2
AcMeDbDatabase
  3
AcMeServices
 90
        0
280
     0
281
     0
  0
CLASS
  1
ACRFINSADJUSTERMGR
  2
AcRfInsAdjusterMgr
  3
AcMeServices
 90
        0
280
     0
281
     0
  0
CLASS
  1
ACGREFACADMASTER
  2
AcGrefacadMaster
  3
AcGrefServices
 90
        0
280
     0
281
     0
  0
CLASS
  1
AMIMASTER
  2
AmiMaster
  3
AmiServices
 90
        0
280
     0
281
     0
  0
CLASS
  1
ACMDATADICTIONARY
  2
AcmDataDictionary
  3
"AcmSymBB|Product Description: AutoCAD Mechanical 2004 DX|Company: Autodesk"
 90
        0
280
     0
281
     0
  0
CLASS
  1
ACMDATAENTRYBLOCK
  2
AcmDataEntryBlock
  3
"AcmSymBB|Product Description: AutoCAD Mechanical 2004 DX|Company: Autodesk"
 90
    32768
280
     0
281
     0
  0
CLASS
  1
ACIMSTRSYSVAR
  2
AcImStrSysVar
  3
AcMeServices
 90
        0
280
     0
281
     0
  0
CLASS
  1
ACMSTANDARDISO
  2
AcmStandardISO
  3
"Amdt_StdImp|Product Description: AutoCAD Mechanical 2004 DX|Company: Autodesk"
 90
        0
280
     0
281
     0
  0
CLASS
  1
AMGOBJPROPCFG
  2
AmgObjPropCfg
  3
"AmgLay|Product Description: AutoCAD Mechanical 2000|Company: Autodesk"
 90
        1
280
     0
281
     0
  0
CLASS
  1
AMDTEDGESTANDARDISO
  2
AmdtEdgeStdISO
  3
"Amdt_StdImp|Product Description: AutoCAD Mechanical 2004 DX|Company: Autodesk"
 90
    32768
280
     0
281
     0
  0
CLASS
  1
ACMSURFSTANDARDISO
  2
AcmSurfTextStdISO
  3
"Amdt_StdImp|Product Description: AutoCAD Mechanical 2004 DX|Company: Autodesk"
 90
        0
280
     0
281
     0
  0
CLASS
  1
ACMFCFSTANDARDISO
  2
AcmFCFStdISO
  3
"Amdt_StdImp|Product Description: AutoCAD Mechanical 2004 DX|Company: Autodesk"
 90
        0
280
     0
281
     0
  0
CLASS
  1
ACMWELDSTANDARDISO
  2
AcmWeldingStdISO
  3
"Amdt_StdImp|Product Description: AutoCAD Mechanical 2004 DX|Company: Autodesk"
 90
        0
280
     0
281
     0
  0
CLASS
  1
ACMIDSTANDARDISO
  2
AcmIdStdISO
  3
"Amdt_StdImp|Product Description: AutoCAD Mechanical 2004 DX|Company: Autodesk"
 90
        0
280
     0
281
     0
  0
CLASS
  1
ACMDATUMSTANDARDISO
  2
AcmDatumStdISO
  3
"Amdt_StdImp|Product Description: AutoCAD Mechanical 2004 DX|Company: Autodesk"
 90
        0
280
     0
281
     0
  0
CLASS
  1
ACMBOMSTANDARDISO
  2
AcmBOMStdISO
  3
"Amdt_StdImp|Product Description: AutoCAD Mechanical 2004 DX|Company: Autodesk"
 90
        0
280
     0
281
     0
  0
CLASS
  1
ACMDETAILSTANDARDISO
  2
AmdtDetailSymStdISO
  3
"Amdt_StdImp|Product Description: AutoCAD Mechanical 2004 DX|Company: Autodesk"
 90
        0
280
     0
281
     0
  0
CLASS
  1
ACMSECTIONSTANDARDISO
  2
AmdtSectionSymStdISO
  3
"Amdt_StdImp|Product Description: AutoCAD Mechanical 2004 DX|Company: Autodesk"
 90
        0
280
     0
281
     0
  0
CLASS
  1
ACMCENTERLINESTANDARDISO
  2
AmdtCenterLineStdISO
  3
"Amdt_StdImp|Product Description: AutoCAD Mechanical 2004 DX|Company: Autodesk"
 90
        0
280
     0
281
     0
  0
CLASS
  1
ACMNOTESTANDARDISO
  2
AmdtNoteStdISO
  3
"Amdt_StdImp|Product Description: AutoCAD Mechanical 2004 DX|Company: Autodesk"
 90
        0
280
     0
281
     0
  0
CLASS
  1
ACAMGLAYSTD
  2
AcAmgLayStd
  3
"AcAmgLayStd|Product Description: AutoCAD Mechanical 2000|Company: Autodesk"
 90
        0
280
     0
281
     0
  0
CLASS
  1
ACAMGDIMSTD
  2
AcAmgDimStd
  3
"AcAmgDimStd|Product Description: AutoCAD Mechanical 2000|Company: Autodesk"
 90
        0
280
     0
281
     0
  0
CLASS
  1
ACAMGHOLECHARTSTDISO
  2
AcAmgHoleChartStdISO
  3
ACMSYMBB_MODULE_NAME
 90
        0
280
     0
281
     0
  0
CLASS
  1
ACAMGTITLESTD
  2
AcAmgTitleStd
  3
"TITLEAPP"
 90
        0
280
     0
281
     0
  0
CLASS
  1
LAYER_INDEX
  2
AcDbLayerIndex
  3
ObjectDBX Classes
 90
    32768
280
     0
281
     0
  0
CLASS
  1
IDBUFFER
  2
AcDbIdBuffer
  3
ObjectDBX Classes
 90
    32768
280
     0
281
     0
  0
CLASS
  1
DICTIONARYVAR
  2
AcDbDictionaryVar
  3
ObjectDBX Classes
 90
        0
280
     0
281
     0
  0
CLASS
  1
AM_DRAWING_MGR
  2
AcDmDwgMgr
  3
AcMechDwgViewMgmt
 90
        0
280
     0
281
     0
  0
CLASS
  1
AM_DWG_DOCUMENT
  2
AcDmDwgDocument
  3
AcMechDwgViewMgmt
 90
        0
280
     0
281
     0
  0
CLASS
  1
AM_DWG_SHEET
  2
AcDmSheet
  3
AcMechDwgViewMgmt
 90
        0
280
     0
281
     0
  0
CLASS
  1
AM_VIEWDIMPARMAP
  2
AcDmViewDimParMap
  3
AcMechDwgViewMgmt
 90
        0
280
     0
281
     0
  0
CLASS
  1
AM_DWGMGR_NAME
  2
AcDmDwgMgrName
  3
AcMechDwgViewMgmt
 90
        0
280
     0
281
     0
  0
CLASS
  1
AMDTMENUSTATEMGR
  2
AmdtMenuStateMgr
  3
McadcomServices
 90
        0
280
     0
281
     0
  0
CLASS
  1
AMDTMCOMMENUSTATE
  2
AmdtMcomMenuState
  3
McadcomServices
 90
        0
280
     0
281
     0
  0
CLASS
  1
MAPIAMMOUDLE
  2
MApiAmModule
  3
MApiAmServices
 90
        0
280
     0
281
     0
  0
CLASS
  1
AMDTADMENUSTATE
  2
AmdtAdMenuState
  3
DesignerServices
 90
        0
280
     0
281
     0
  0
CLASS
  1
ADAPPL
  2
AcAdAppl
  3
DesignerServices
 90
        0
280
     0
281
     0
  0
CLASS
  1
DEPMGR
  2
AcAdDepMgr
  3
DesignerServices
 90
        0
280
     0
281
     0
  0
CLASS
  1
PARAMMGR
  2
AcAdParamMgr
  3
DesignerServices
 90
        0
280
     0
281
     0
  0
CLASS
  1
PARAMSCOPE
  2
AcAdParamScope
  3
DesignerServices
 90
        0
280
     0
281
     0
  0
CLASS
  1
NAMEDAPPL
  2
AcAdNamedAppl
  3
DesignerServices
 90
        0
280
     0
281
     0
  0
CLASS
  1
AMDTDMMENUSTATE
  2
AmdtDmMenuState
  3
AcMechDwgViewMgmt
 90
        0
280
     0
281
     0
  0
CLASS
  1
AMDTAMMENUSTATE
  2
AmdtAmMenuState
  3
DesignerAssemblies
 90
        0
280
     0
281
     0
  0
CLASS
  1
ACAMPROJECT
  2
AcAmProject
  3
DesignerAssemblies
 90
        0
280
     0
281
     0
  0
CLASS
  1
ACAMGRCOMPDEF
  2
AcAmGrCompDef
  3
DesignerAssemblies
 90
        0
280
     0
281
     0
  0
CLASS
  1
ACCMCONTEXT
  2
AcCmContext
  3
DesignerAssemblies
 90
        0
280
     0
281
     0
  0
CLASS
  1
ACAMCOMPDEF
  2
AcAmCompDef
  3
DesignerAssemblies
 90
        0
280
     0
281
     0
  0
CLASS
  1
ACAMCOMPDEFMGR
  2
AcAmCompDefMgr
  3
DesignerAssemblies
 90
        0
280
     0
281
     0
  0
CLASS
  1
AMCONTEXTMGR
  2
AcAmContextMgr
  3
DesignerAssemblies
 90
        0
280
     0
281
     0
  0
CLASS
  1
ACAMCONTEXTMODELER
  2
AcAmContextModeler
  3
DesignerAssemblies
 90
        0
280
     0
281
     0
  0
CLASS
  1
ACMTHREADLINESTANDARDISO
  2
AmdtThreadLineStdISO
  3
"Amdt_StdImp|Product Description: AutoCAD Mechanical 2004 DX|Company: Autodesk"
 90
        0
280
     0
281
     0
  0
CLASS
  1
CATALOGSTATE
  2
AcAmCatalogState
  3
DesignerAssemblies
 90
        0
280
     0
281
     0
  0
CLASS
  1
ACAMGRCOMPDEFSET
  2
AcAmGrCompDefSet
  3
DesignerAssemblies
 90
        0
280
     0
281
     0
  0
CLASS
  1
AMDTBROWSERDBTAB
  2
AmdtBrowserDbTab
  3
McadcomServices
 90
        0
280
     0
281
     0
  0
CLASS
  1
CBROWSERAPPOBJECT
  2
CBrowserAppObject
  3
McadcomServices
 90
        0
280
     0
281
     0
  0
CLASS
  1
DM_PLACEHOLDER
  2
AcDmSelsetPlaceholder
  3
AcMechDwgViewMgmt
 90
        0
280
     0
281
     0
  0
CLASS
  1
TABLESTYLE
  2
AcDbTableStyle
  3
ObjectDBX Classes
 90
     2047
280
     0
281
     0
  0
CLASS
  1
VAACXREFPANELOBJECT
  2
VaAcXREFPanelObject
  3
VAAC_ADDIN
 90
    32768
280
     0
281
     0
  0
CLASS
  1
VAACIMAGEINVENTORY
  2
VaAcImageInventory
  3
VAAC_ADDIN
 90
    32768
280
     0
281
     0
  0
CLASS
  1
AMDTNOTETEMPLATEDB
  2
AmdtNoteTemplateDB
  3
AMDT_STDIMP_MODULE_NAME
 90
        0
280
     0
281
     0
  0
CLASS
  1
ACMBOM
  2
AcmBom
  3
"AcmSymBB|Product Description: AutoCAD Mechanical 2004 DX|Company: Autodesk"
 90
    32768
280
     0
281
     0
  0
CLASS
  1
AMDTFORMULAUPDATEDISPATCHER
  2
AmdtFormulaUpdateDispatcher
  3
AcMeServices
 90
    32768
280
     0
281
     0
  0
CLASS
  1
ACMPARTLIST
  2
AcmPartList
  3
"AcmSymBB|Product Description: AutoCAD Mechanical 2004 DX|Company: Autodesk"
 90
    33791
280
     0
281
     1
  0
CLASS
  1
ACAMGFILTERDAT
  2
AcAmgFilterDat
  3
"AcadM|Product Description: AutoCAD Mechanical 2000|Company: Autodesk"
 90
    32768
280
     0
281
     0
  0
CLASS
  1
DIMASSOC
  2
AcDbDimAssoc
  3
"AcDbDimAssoc|Product Desc:     AcDim ARX App For Dimension|Company:          Autodesk, Inc.|WEB Address:      www.autodesk.com"
 90
        0
280
     0
281
     0
  0
CLASS
  1
AMDTNOTE
  2
AmdtNote
  3
"AcmSymBB|Product Description: AutoCAD Mechanical 2004 DX|Company: Autodesk"
 90
    33791
280
     0
281
     1
  0
CLASS
  1
ACMSTANDARDANSI
  2
AcmStandardANSI
  3
"Amdt_StdImp|Product Description: AutoCAD Mechanical 2004 DX|Company: Autodesk"
 90
    32768
280
     0
281
     0
  0
CLASS
  1
ACMSURFSTANDARDANSI
  2
AcmSurfTextStdANSI
  3
"Amdt_StdImp|Product Description: AutoCAD Mechanical 2004 DX|Company: Autodesk"
 90
    32768
280
     0
281
     0
  0
CLASS
  1
ACMFCFSTANDARDANSI
  2
AcmFCFStdANSI
  3
"Amdt_StdImp|Product Description: AutoCAD Mechanical 2004 DX|Company: Autodesk"
 90
    32768
280
     0
281
     0
  0
CLASS
  1
ACMWELDSTANDARDANSI
  2
AcmWeldingStdANSI
  3
"Amdt_StdImp|Product Description: AutoCAD Mechanical 2004 DX|Company: Autodesk"
 90
    32768
280
     0
281
     0
  0
CLASS
  1
ACMIDSTANDARDANSI
  2
AcmIdStdANSI
  3
"Amdt_StdImp|Product Description: AutoCAD Mechanical 2004 DX|Company: Autodesk"
 90
    32768
280
     0
281
     0
  0
CLASS
  1
ACMDATUMSTANDARDANSI
  2
AcmDatumStdANSI
  3
"Amdt_StdImp|Product Description: AutoCAD Mechanical 2004 DX|Company: Autodesk"
 90
    32768
280
     0
281
     0
  0
CLASS
  1
ACMBOMSTANDARDANSI
  2
AcmBOMStdANSI
  3
"Amdt_StdImp|Product Description: AutoCAD Mechanical 2004 DX|Company: Autodesk"
 90
    32768
280
     0
281
     0
  0
CLASS
  1
ACMDETAILSTANDARDANSI
  2
AmdtDetailSymStdANSI
  3
"Amdt_StdImp|Product Description: AutoCAD Mechanical 2004 DX|Company: Autodesk"
 90
    32768
280
     0
281
     0
  0
CLASS
  1
ACMSECTIONSTANDARDANSI
  2
AmdtSectionSymStdANSI
  3
"Amdt_StdImp|Product Description: AutoCAD Mechanical 2004 DX|Company: Autodesk"
 90
    32768
280
     0
281
     0
  0
CLASS
  1
ACMCENTERLINESTANDARDANSI
  2
AmdtCenterLineStdANSI
  3
"Amdt_StdImp|Product Description: AutoCAD Mechanical 2004 DX|Company: Autodesk"
 90
    32768
280
     0
281
     0
  0
CLASS
  1
ACMTHREADLINESTANDARDANSI
  2
AmdtThreadLineStdANSI
  3
"Amdt_StdImp|Product Description: AutoCAD Mechanical 2004 DX|Company: Autodesk"
 90
    32768
280
     0
281
     0
  0
CLASS
  1
ACMNOTESTANDARDANSI
  2
AmdtNoteStdANSI
  3
"Amdt_StdImp|Product Description: AutoCAD Mechanical 2004 DX|Company: Autodesk"
 90
    32768
280
     0
281
     0
  0
CLASS
  1
ACAMGHOLECHARTSTDANSI
  2
AcAmgHoleChartStdANSI
  3
ACMSYMBB_MODULE_NAME
 90
    32768
280
     0
281
     0
  0
CLASS
  1
AMDTEDGESTANDARDISO13715
  2
AmdtEdgeStdISO13715
  3
"Amdt_StdImp|Product Description: AutoCAD Mechanical 2004 DX|Company: Autodesk"
 90
        0
280
     0
281
     0
  0
CLASS
  1
SORTENTSTABLE
  2
AcDbSortentsTable
  3
ObjectDBX Classes
 90
    32768
280
     0
281
     0
  0
CLASS
  1
ACRFATTGENMGR
  2
AcRfAttGeneralMgr
  3
AcAttribServices
 90
        0
280
     0
281
     0
  0
ENDSEC
  0
SECTION
  2
TABLES
  0
TABLE
  2
VPORT
  5
8
330
0
100
AcDbSymbolTable
 70
     5
  0
VPORT
  5
4F45
330
8
100
AcDbSymbolTableRecord
100
AcDbViewportTableRecord
  2
*Active
 70
     0
 10
0.0
 20
0.0
 11
1.0
 21
1.0
 12
832.6164935169655
 22
1328.756762905017
 13
0.0
 23
0.0
 14
2.5
 24
2.5
 15
10.0
 25
10.0
 16
0.0
 26
0.0
 36
1.0
 17
0.0
 27
0.0
 37
0.0
 40
317.8575896971874
 41
0.9093298291721417
 42
50.0
 43
0.0
 44
0.0
 50
0.0
 51
0.0
 71
     0
 72
   100
 73
     1
 74
     3
 75
     0
 76
     0
 77
     0
 78
     0
281
     0
 65
     1
110
0.0
120
0.0
130
0.0
111
1.0
121
0.0
131
0.0
112
0.0
122
1.0
132
0.0
 79
     0
146
0.0
  0
ENDTAB
  0
TABLE
  2
LTYPE
  5
5
330
0
100
AcDbSymbolTable
 70
    14
  0
LTYPE
  5
14
330
5
100
AcDbSymbolTableRecord
100
AcDbLinetypeTableRecord
  2
ByBlock
 70
     0
  3

 72
    65
 73
     0
 40
0.0
  0
LTYPE
  5
15
330
5
100
AcDbSymbolTableRecord
100
AcDbLinetypeTableRecord
  2
ByLayer
 70
     0
  3

 72
    65
 73
     0
 40
0.0
  0
LTYPE
  5
16
330
5
100
AcDbSymbolTableRecord
100
AcDbLinetypeTableRecord
  2
Continuous
 70
     0
  3
Solid line
 72
    65
 73
     0
 40
0.0
  0
LTYPE
  5
64
330
5
100
AcDbSymbolTableRecord
100
AcDbLinetypeTableRecord
  2
AM_ISO02W050
 70
     0
  3
__ __ __ __ __ __ __ __ __ __ __ __ __ __ __
 72
    65
 73
     2
 40
7.5
 49
6.0
 74
     0
 49
-1.5
 74
     0
  0
LTYPE
  5
65
330
5
100
AcDbSymbolTableRecord
100
AcDbLinetypeTableRecord
  2
AM_ISO08W050
 70
     0
  3
____ . ____ . ____ . ____ . ____ . ____ . ____
 72
    65
 73
     4
 40
18.0
 49
12.0
 74
     0
 49
-1.5
 74
     0
 49
3.0
 74
     0
 49
-1.5
 74
     0
  0
LTYPE
  5
66
330
5
100
AcDbSymbolTableRecord
100
AcDbLinetypeTableRecord
  2
AM_ISO09W050
 70
     0
  3
_____ . . _____ . . _____ . . ____ .. ____
 72
    65
 73
     6
 40
22.5
 49
12.0
 74
     0
 49
-1.5
 74
     0
 49
3.0
 74
     0
 49
-1.5
 74
     0
 49
3.0
 74
     0
 49
-1.5
 74
     0
  0
LTYPE
  5
67
330
5
100
AcDbSymbolTableRecord
100
AcDbLinetypeTableRecord
  2
Amconstr
 70
     0
  3
_______________________
 72
    65
 73
     2
 40
9999.0
 49
9999.0
 74
     0
 49
0.0
 74
     0
  0
LTYPE
  5
68
330
5
100
AcDbSymbolTableRecord
100
AcDbLinetypeTableRecord
  2
AM_ISO08W050x2
 70
     0
  3
__ . __ . __ . __ . __ . __
 72
    65
 73
     4
 40
9.0
 49
6.0
 74
     0
 49
-0.75
 74
     0
 49
1.5
 74
     0
 49
-0.75
 74
     0
  0
LTYPE
  5
69
330
5
100
AcDbSymbolTableRecord
100
AcDbLinetypeTableRecord
  2
AM_ISO02W050x2
 70
     0
  3
 _ _ _ _ _ _ _ _ _ _ _ _
 72
    65
 73
     2
 40
3.75
 49
3.0
 74
     0
 49
-0.75
 74
     0
  0
LTYPE
  5
6C
330
5
100
AcDbSymbolTableRecord
100
AcDbLinetypeTableRecord
  2
Amzigzag
 70
     0
  3
/\/-/\/-/\/-/\/-/\/-/\/
 72
    65
 73
     2
 40
11.0001
 49
0.0001
 74
     4
 75
   135
340
6B
 46
0.04
 50
0.0
 44
0.0
 45
0.0
 49
-11.0
 74
     0
  0
LTYPE
  5
7A
330
5
100
AcDbSymbolTableRecord
100
AcDbLinetypeTableRecord
  2
ACISOWELD
 70
     0
  3
_ _ _ _ _
 72
    65
 73
     2
 40
2.0
 49
2.0
 74
     0
 49
-1.0
 74
     0
  0
LTYPE
  5
7B
330
5
100
AcDbSymbolTableRecord
100
AcDbLinetypeTableRecord
  2
ACISOTGB
 70
     0
  3
__ . . __ . .
 72
    65
 73
     6
 40
9.0
 49
4.0
 74
     0
 49
-1.0
 74
     0
 49
1.0
 74
     0
 49
-1.0
 74
     0
 49
1.0
 74
     0
 49
-1.0
 74
     0
  0
LTYPE
  5
7C
330
5
100
AcDbSymbolTableRecord
100
AcDbLinetypeTableRecord
  2
ACISOTGL
 70
     0
  3
_ _ _ _ _
 72
    65
 73
     2
 40
3.0
 49
2.0
 74
     0
 49
-1.0
 74
     0
  0
LTYPE
  5
7E
330
5
100
AcDbSymbolTableRecord
100
AcDbLinetypeTableRecord
  2
CENTER
 70
     0
  3
__ . __
 72
    65
 73
     4
 40
7.0
 49
4.0
 74
     0
 49
-1.0
 74
     0
 49
1.0
 74
     0
 49
-1.0
 74
     0
  0
LTYPE
  5
D8
330
5
100
AcDbSymbolTableRecord
100
AcDbLinetypeTableRecord
  2
HIDDEN
 70
     0
  3
Hidden __ __ __ __ __ __ __ __ __ __ __ __ __ _
 72
    65
 73
     2
 40
9.524999999999998
 49
6.349999999999999
 74
     0
 49
-3.174999999999999
 74
     0
  0
LTYPE
  5
D9
330
5
100
AcDbSymbolTableRecord
100
AcDbLinetypeTableRecord
  2
PHANTOM2
 70
     0
  3
Phantom (.5x) ___ _ _ ___ _ _ ___ _ _ ___ _ _
 72
    65
 73
     6
 40
31.75
 49
15.875
 74
     0
 49
-3.174999999999999
 74
     0
 49
3.174999999999999
 74
     0
 49
-3.174999999999999
 74
     0
 49
3.174999999999999
 74
     0
 49
-3.174999999999999
 74
     0
  0
ENDTAB
  0
TABLE
  2
LAYER
  5
2
102
{ACAD_XDICTIONARY
360
3F9
102
}
330
0
100
AcDbSymbolTable
 70
     8
  0
LAYER
  5
10
330
2
100
AcDbSymbolTableRecord
100
AcDbLayerTableRecord
  2
0
 70
     0
 62
     7
  6
Continuous
370
    -3
390
F
  0
LAYER
  5
A20
330
2
100
AcDbSymbolTableRecord
100
AcDbLayerTableRecord
  2
AM_VIS
 70
     0
 62
     7
  6
Continuous
370
    50
390
F
  0
LAYER
  5
A21
330
2
100
AcDbSymbolTableRecord
100
AcDbLayerTableRecord
  2
AM_7
 70
     0
 62
     1
  6
CENTER
370
    25
390
F
  0
LAYER
  5
A22
330
2
100
AcDbSymbolTableRecord
100
AcDbLayerTableRecord
  2
AM_4
 70
     0
 62
     3
  6
Continuous
370
    25
390
F
  0
LAYER
  5
168E
330
2
100
AcDbSymbolTableRecord
100
AcDbLayerTableRecord
  2
AM_5
 70
     0
 62
     5
  6
Continuous
370
    50
390
F
  0
LAYER
  5
16A8
330
2
100
AcDbSymbolTableRecord
100
AcDbLayerTableRecord
  2
Defpoints
 70
     0
 62
     7
  6
Continuous
290
     0
370
    -3
390
F
  0
LAYER
  5
4025
330
2
100
AcDbSymbolTableRecord
100
AcDbLayerTableRecord
  2
LOGO
 70
     0
 62
     7
  6
Continuous
370
    -3
390
F
  0
LAYER
  5
4C6C
330
2
100
AcDbSymbolTableRecord
100
AcDbLayerTableRecord
  2
AM_10
 70
     0
 62
     7
  6
AM_ISO08W050
370
    50
390
F
  0
ENDTAB
  0
TABLE
  2
STYLE
  5
3
330
0
100
AcDbSymbolTable
 70
     5
  0
STYLE
  5
11
330
3
100
AcDbSymbolTableRecord
100
AcDbTextStyleTableRecord
  2
STANDARD
 70
     0
 40
0.0
 41
1.0
 50
0.0
 71
     0
 42
3.0
  3
ISOCP.SHX
  4
CHINESET.SHX
  0
STYLE
  5
6B
330
3
100
AcDbSymbolTableRecord
100
AcDbTextStyleTableRecord
  2

 70
     1
 40
0.0
 41
1.0
 50
0.0
 71
     0
 42
2.5
  3
ltypeshp.shx
  4

  0
STYLE
  5
6D
330
3
100
AcDbSymbolTableRecord
100
AcDbTextStyleTableRecord
  2
ACISOTS
 70
     0
 40
1.0
 41
1.0
 50
0.0
 71
     0
 42
1.0
  3
isocp.shx
  4
chineset.shx
  0
STYLE
  5
79
330
3
100
AcDbSymbolTableRecord
100
AcDbTextStyleTableRecord
  2
ACISOGDT
 70
     0
 40
0.0
 41
1.0
 50
0.0
 71
     0
 42
2.5
  3
amgdt.shx
  4
chineset.shx
  0
STYLE
  5
4026
330
3
100
AcDbSymbolTableRecord
100
AcDbTextStyleTableRecord
  2
CHINESET
 70
     0
 40
0.0
 41
1.0
 50
0.0
 71
     0
 42
3.0
  3
simplex.shx
  4
CHINESET.SHX
  0
ENDTAB
  0
TABLE
  2
VIEW
  5
6
330
0
100
AcDbSymbolTable
 70
     0
  0
ENDTAB
  0
TABLE
  2
UCS
  5
7
330
0
100
AcDbSymbolTable
 70
     0
  0
ENDTAB
  0
TABLE
  2
APPID
  5
9
330
0
100
AcDbSymbolTable
 70
    23
  0
APPID
  5
12
330
9
100
AcDbSymbolTableRecord
100
AcDbRegAppTableRecord
  2
ACAD
 70
     0
  0
APPID
  5
46
330
9
100
AcDbSymbolTableRecord
100
AcDbRegAppTableRecord
  2
MCAD_NO_VIS
 70
     0
  0
APPID
  5
47
330
9
100
AcDbSymbolTableRecord
100
AcDbRegAppTableRecord
  2
ACAD_TEMP_GRAPHIC
 70
     0
  0
APPID
  5
58
330
9
100
AcDbSymbolTableRecord
100
AcDbRegAppTableRecord
  2
ACATTRIBSERVICES
 70
     0
  0
APPID
  5
EE
330
9
100
AcDbSymbolTableRecord
100
AcDbRegAppTableRecord
  2
AD_DRAW
 70
     0
  0
APPID
  5
10C
330
9
100
AcDbSymbolTableRecord
100
AcDbRegAppTableRecord
  2
DESIGNERASSEMBLIES
 70
     0
  0
APPID
  5
111
330
9
100
AcDbSymbolTableRecord
100
AcDbRegAppTableRecord
  2
ACADM_DIM_EDIT
 70
     0
  0
APPID
  5
112
330
9
100
AcDbSymbolTableRecord
100
AcDbRegAppTableRecord
  2
AMDT_DM_ADJ
 70
     0
  0
APPID
  5
22C
330
9
100
AcDbSymbolTableRecord
100
AcDbRegAppTableRecord
  2
ACAD_DSTYLE_DIMTEXT_FILL
 70
     0
  0
APPID
  5
452
330
9
100
AcDbSymbolTableRecord
100
AcDbRegAppTableRecord
  2
GENIUS_GENOENT_13
 70
     0
  0
APPID
  5
453
330
9
100
AcDbSymbolTableRecord
100
AcDbRegAppTableRecord
  2
GENIUS_GENOBJ-N-CRS_13
 70
     0
  0
APPID
  5
454
330
9
100
AcDbSymbolTableRecord
100
AcDbRegAppTableRecord
  2
GENIUS_GENOLIS_13
 70
     0
  0
APPID
  5
455
330
9
100
AcDbSymbolTableRecord
100
AcDbRegAppTableRecord
  2
GENIUS_GENODEF_13
 70
     0
  0
APPID
  5
456
330
9
100
AcDbSymbolTableRecord
100
AcDbRegAppTableRecord
  2
GENIUS_GENOREF_13
 70
     0
  0
APPID
  5
6F3
330
9
100
AcDbSymbolTableRecord
100
AcDbRegAppTableRecord
  2
ACAD_PSEXT
 70
     0
  0
APPID
  5
808
330
9
100
AcDbSymbolTableRecord
100
AcDbRegAppTableRecord
  2
GENIUS_GENDTOL_13
 70
     0
  0
APPID
  5
167D
330
9
100
AcDbSymbolTableRecord
100
AcDbRegAppTableRecord
  2
GENIUS_GENOBJ-N-CEN_13
 70
     0
  0
APPID
  5
167E
330
9
100
AcDbSymbolTableRecord
100
AcDbRegAppTableRecord
  2
GENIUS_GENCEN_19
 70
     0
  0
APPID
  5
27A1
330
9
100
AcDbSymbolTableRecord
100
AcDbRegAppTableRecord
  2
GENIUS_GENOBJ-N-HTC_13
 70
     0
  0
APPID
  5
27A2
330
9
100
AcDbSymbolTableRecord
100
AcDbRegAppTableRecord
  2
GENIUS_GENHATCH_13
 70
     0
  0
APPID
  5
3FA1
330
9
100
AcDbSymbolTableRecord
100
AcDbRegAppTableRecord
  2
AcAecLayerStandard
 70
     0
  0
APPID
  5
3FDE
330
9
100
AcDbSymbolTableRecord
100
AcDbRegAppTableRecord
  2
GENIUS_GENREC_14
 70
     0
  0
APPID
  5
3FDF
330
9
100
AcDbSymbolTableRecord
100
AcDbRegAppTableRecord
  2
GENIUS_GENOBJ-N-REC_13
 70
     0
  0
ENDTAB
  0
TABLE
  2
DIMSTYLE
  5
A
330
0
100
AcDbSymbolTable
 70
     8
100
AcDbDimStyleTable
 71
     3
340
81
340
8B
340
86
  0
DIMSTYLE
105
81
330
A
100
AcDbSymbolTableRecord
100
AcDbDimStyleTableRecord
  2
AM_ISO
 70
     0
  4
"
 41
3.0
 42
1.0
 43
11.0
 44
1.5
 47
0.1
 48
0.1
 73
     0
 74
     0
 77
     1
 78
     8
 79
     2
140
3.5
141
0.0
143
0.0393701
146
0.6
147
0.7
172
     1
176
   256
177
   256
178
   256
271
     2
272
     2
283
     0
284
     8
340
11
371
    -1
372
    -1
  0
DIMSTYLE
105
82
330
A
100
AcDbSymbolTableRecord
100
AcDbDimStyleTableRecord
  2
AM_ISO$3
 70
     0
  4
"
 41
3.0
 42
1.0
 43
11.0
 44
1.5
 47
0.1
 48
0.1
 73
     0
 77
     1
 78
     8
 79
     2
140
3.5
141
0.0
143
0.0393701
146
0.6
147
0.7
176
   256
177
   256
178
   256
271
     2
272
     2
283
     0
284
     8
288
     1
289
     0
340
11
371
    -1
372
    -1
  0
DIMSTYLE
105
83
330
A
100
AcDbSymbolTableRecord
100
AcDbDimStyleTableRecord
  2
AM_ISO$4
 70
     0
  4
"
 41
3.0
 42
1.0
 43
11.0
 44
1.5
 47
0.1
 48
0.1
 73
     0
 77
     1
 78
     8
 79
     2
140
3.5
141
0.0
143
0.0393701
146
0.6
147
0.7
176
   256
177
   256
178
   256
271
     2
272
     2
283
     0
284
     8
288
     1
289
     0
340
11
371
    -1
372
    -1
  0
DIMSTYLE
105
84
330
A
100
AcDbSymbolTableRecord
100
AcDbDimStyleTableRecord
  2
AM_ISO$6
 70
     0
  4
"
 41
3.0
 42
1.0
 43
11.0
 44
1.5
 47
0.1
 48
0.1
 73
     0
 74
     0
 78
     8
 79
     2
140
3.5
141
0.0
143
0.0393701
146
0.6
147
0.7
172
     1
176
   256
177
   256
178
   256
271
     2
272
     2
283
     0
284
     8
340
11
371
    -1
372
    -1
  0
DIMSTYLE
105
85
330
A
100
AcDbSymbolTableRecord
100
AcDbDimStyleTableRecord
  2
AM_ISO$7
 70
     0
  4
"
 41
3.0
 42
1.0
 43
11.0
 44
1.5
 47
0.1
 48
0.1
 73
     0
 74
     0
 77
     1
 78
     8
 79
     2
140
5.0
141
0.0
143
0.0393701
146
0.6
147
0.7
172
     1
176
   256
177
   256
178
   256
271
     2
272
     2
283
     0
284
     8
340
11
371
    -1
372
    -1
  0
DIMSTYLE
105
86
330
A
100
AcDbSymbolTableRecord
100
AcDbDimStyleTableRecord
  2
AM_ISO$SF
 70
     0
  4
"
 41
2.5
 42
1.0
 43
10.0
 44
1.0
 47
0.1
 48
0.1
 73
     0
 74
     0
 75
     1
 76
     1
 77
     1
 78
     8
 79
     2
140
3.5
141
0.0
143
0.0393701
146
0.71
147
1.5
172
     1
176
   256
177
   256
178
     2
271
     2
272
     3
274
     4
283
     0
284
     8
340
11
371
    -1
372
    -1
  0
DIMSTYLE
105
8B
330
A
100
AcDbSymbolTableRecord
100
AcDbDimStyleTableRecord
  2
AM_ISO$SH
 70
     0
  4
"
 41
2.5
 42
1.0
 43
10.0
 44
1.0
 47
0.1
 48
0.1
 73
     0
 74
     0
 75
     1
 76
     1
 77
     1
 78
     8
 79
     2
140
3.5
141
0.0
143
0.0393701
144
2.0
146
0.71
147
1.5
172
     1
173
     1
176
   256
177
   256
178
     2
271
     2
272
     3
274
     4
283
     0
284
     8
340
11
343
87
371
    -1
372
    -1
  0
DIMSTYLE
105
40B
102
{ACAD_REACTORS
330
44C2
330
44C5
330
44C8
330
44CB
330
44D1
330
44D4
330
44D7
330
44DA
330
44DE
330
44E1
330
44E4
330
4AE9
330
4B30
330
4B9E
102
}
330
A
100
AcDbSymbolTableRecord
100
AcDbDimStyleTableRecord
  2
AM_ISO$0
 70
     0
  4
"
 41
3.0
 42
1.0
 43
11.0
 44
1.5
 47
0.1
 48
0.1
 73
     0
 74
     0
 77
     1
 78
     8
 79
     2
140
3.5
141
0.0
143
0.0393701
146
0.6
147
0.7
172
     1
176
   256
177
   256
178
   256
271
     2
272
     2
283
     0
284
     8
340
11
371
    -1
372
    -1
  0
ENDTAB
  0
TABLE
  2
BLOCK_RECORD
  5
1
330
0
100
AcDbSymbolTable
 70
    21
  0
BLOCK_RECORD
  5
1F
102
{ACAD_XDICTIONARY
360
8F
102
}
330
1
100
AcDbSymbolTableRecord
100
AcDbBlockTableRecord
  2
*Model_Space
340
22
  0
BLOCK_RECORD
  5
1B
330
1
100
AcDbSymbolTableRecord
100
AcDbBlockTableRecord
  2
*Paper_Space
340
1E
  0
BLOCK_RECORD
  5
23
330
1
100
AcDbSymbolTableRecord
100
AcDbBlockTableRecord
  2
*Paper_Space0
340
26
  0
BLOCK_RECORD
  5
87
330
1
100
AcDbSymbolTableRecord
100
AcDbBlockTableRecord
  2
GENAXEH
340
0
  0
BLOCK_RECORD
  5
4539
330
1
100
AcDbSymbolTableRecord
100
AcDbBlockTableRecord
  2
*D2
340
0
  0
BLOCK_RECORD
  5
4545
330
1
100
AcDbSymbolTableRecord
100
AcDbBlockTableRecord
  2
*D3
340
0
  0
BLOCK_RECORD
  5
4551
330
1
100
AcDbSymbolTableRecord
100
AcDbBlockTableRecord
  2
*D4
340
0
  0
BLOCK_RECORD
  5
455D
330
1
100
AcDbSymbolTableRecord
100
AcDbBlockTableRecord
  2
*D5
340
0
  0
BLOCK_RECORD
  5
4569
330
1
100
AcDbSymbolTableRecord
100
AcDbBlockTableRecord
  2
*D6
340
0
  0
BLOCK_RECORD
  5
4581
330
1
100
AcDbSymbolTableRecord
100
AcDbBlockTableRecord
  2
*D7
340
0
  0
BLOCK_RECORD
  5
458D
330
1
100
AcDbSymbolTableRecord
100
AcDbBlockTableRecord
  2
*D8
340
0
  0
BLOCK_RECORD
  5
4599
330
1
100
AcDbSymbolTableRecord
100
AcDbBlockTableRecord
  2
*D9
340
0
  0
BLOCK_RECORD
  5
45A5
330
1
100
AcDbSymbolTableRecord
100
AcDbBlockTableRecord
  2
*D10
340
0
  0
BLOCK_RECORD
  5
45BA
330
1
100
AcDbSymbolTableRecord
100
AcDbBlockTableRecord
  2
*D11
340
0
  0
BLOCK_RECORD
  5
45CF
330
1
100
AcDbSymbolTableRecord
100
AcDbBlockTableRecord
  2
*D12
340
0
  0
BLOCK_RECORD
  5
46F9
330
1
100
AcDbSymbolTableRecord
100
AcDbBlockTableRecord
  2
*S13
340
0
102
{BLKREFS
331
44E2
102
}
  0
BLOCK_RECORD
  5
4701
330
1
100
AcDbSymbolTableRecord
100
AcDbBlockTableRecord
  2
*S14
340
0
102
{BLKREFS
331
4506
102
}
  0
BLOCK_RECORD
  5
4709
330
1
100
AcDbSymbolTableRecord
100
AcDbBlockTableRecord
  2
*S15
340
0
102
{BLKREFS
331
4507
102
}
  0
BLOCK_RECORD
  5
4711
330
1
100
AcDbSymbolTableRecord
100
AcDbBlockTableRecord
  2
*S16
340
0
102
{BLKREFS
331
450A
102
}
  0
BLOCK_RECORD
  5
4AEA
330
1
100
AcDbSymbolTableRecord
100
AcDbBlockTableRecord
  2
*D17
340
0
  0
BLOCK_RECORD
  5
4B31
330
1
100
AcDbSymbolTableRecord
100
AcDbBlockTableRecord
  2
*D18
340
0
  0
BLOCK_RECORD
  5
4B9F
330
1
100
AcDbSymbolTableRecord
100
AcDbBlockTableRecord
  2
*D19
340
0
  0
ENDTAB
  0
ENDSEC
  0
SECTION
  2
BLOCKS
  0
BLOCK
  5
20
330
1F
100
AcDbEntity
  8
0
100
AcDbBlockBegin
  2
*Model_Space
 70
     0
 10
0.0
 20
0.0
 30
0.0
  3
*Model_Space
  1

  0
ENDBLK
  5
21
330
1F
100
AcDbEntity
  8
0
100
AcDbBlockEnd
  0
BLOCK
  5
1C
330
1B
100
AcDbEntity
 67
     1
  8
0
100
AcDbBlockBegin
  2
*Paper_Space
 70
     0
 10
0.0
 20
0.0
 30
0.0
  3
*Paper_Space
  1

  0
ENDBLK
  5
1D
330
1B
100
AcDbEntity
 67
     1
  8
0
100
AcDbBlockEnd
  0
BLOCK
  5
24
330
23
100
AcDbEntity
  8
0
100
AcDbBlockBegin
  2
*Paper_Space0
 70
     0
 10
0.0
 20
0.0
 30
0.0
  3
*Paper_Space0
  1

  0
ENDBLK
  5
25
330
23
100
AcDbEntity
  8
0
100
AcDbBlockEnd
  0
BLOCK
  5
89
330
87
100
AcDbEntity
  8
0
100
AcDbBlockBegin
  2
GENAXEH
 70
     0
 10
0.0
 20
0.0
 30
0.0
  3
GENAXEH
  1

  0
LINE
  5
88
330
87
100
AcDbEntity
  8
0
100
AcDbLine
 10
-1.0
 20
0.0
 30
0.0
 11
1.0
 21
0.0
 31
0.0
  0
ENDBLK
  5
8A
330
87
100
AcDbEntity
  8
0
100
AcDbBlockEnd
  0
BLOCK
  5
4543
330
4539
100
AcDbEntity
  8
0
100
AcDbBlockBegin
  2
*D2
 70
     1
 10
0.0
 20
0.0
 30
0.0
  3
*D2
  1

  0
LINE
  5
4AC6
330
4539
100
AcDbEntity
  8
AM_5
100
AcDbLine
 10
753.8754927843463
 20
1393.028553622058
 30
0.0
 11
728.1254927843463
 21
1393.028553622058
 31
0.0
  0
LINE
  5
4AC7
330
4539
100
AcDbEntity
  8
AM_5
100
AcDbLine
 10
753.8754927843463
 20
1423.028553622058
 30
0.0
 11
728.1254927843463
 21
1423.028553622058
 31
0.0
  0
LINE
  5
4AC8
330
4539
100
AcDbEntity
  8
AM_5
100
AcDbLine
 10
730.3754927843463
 20
1397.528553622058
 30
0.0
 11
730.3754927843463
 21
1418.528553622058
 31
0.0
  0
SOLID
  5
4AC9
330
4539
100
AcDbEntity
  8
AM_5
100
AcDbTrace
 10
729.6254927843463
 20
1397.528553622058
 30
0.0
 11
731.1254927843463
 21
1397.528553622058
 31
0.0
 12
730.3754927843463
 22
1393.028553622058
 32
0.0
 13
730.3754927843463
 23
1393.028553622058
 33
0.0
  0
SOLID
  5
4ACA
330
4539
100
AcDbEntity
  8
AM_5
100
AcDbTrace
 10
729.6254927843463
 20
1418.528553622058
 30
0.0
 11
731.1254927843463
 21
1418.528553622058
 31
0.0
 12
730.3754927843463
 22
1423.028553622058
 32
0.0
 13
730.3754927843463
 23
1423.028553622058
 33
0.0
  0
MTEXT
  5
4ACB
330
4539
100
AcDbEntity
  8
AM_5
100
AcDbMText
 10
726.7004927843461
 20
1408.028553622058
 30
0.0
 40
5.25
 41
0.0
 71
     5
 72
     1
  1
30
 11
0.0000000000000001
 21
1.0
 31
0.0
 73
     1
 44
1.0
1001
ACAD
1000
MTEXTBEGIN
1070
    73
1070
     1
1070
    44
1040
1.0
1070
    74
1070
     0
1000
MTEXTEND
  0
POINT
  5
4ACC
330
4539
100
AcDbEntity
  8
Defpoints
 62
     0
100
AcDbPoint
 10
755.3754927843463
 20
1393.028553622058
 30
0.0
  0
POINT
  5
4ACD
330
4539
100
AcDbEntity
  8
Defpoints
 62
     0
100
AcDbPoint
 10
755.3754927843463
 20
1423.028553622058
 30
0.0
  0
POINT
  5
4ACE
330
4539
100
AcDbEntity
  8
Defpoints
 62
     0
100
AcDbPoint
 10
730.3754927843463
 20
1423.028553622058
 30
0.0
  0
ENDBLK
  5
4544
330
4539
100
AcDbEntity
  8
0
100
AcDbBlockEnd
  0
BLOCK
  5
454F
330
4545
100
AcDbEntity
  8
0
100
AcDbBlockBegin
  2
*D3
 70
     1
 10
0.0
 20
0.0
 30
0.0
  3
*D3
  1

  0
LINE
  5
4A75
330
4545
100
AcDbEntity
  8
AM_5
100
AcDbLine
 10
809.8754927843463
 20
1426.528553622058
 30
0.0
 11
809.8754927843463
 21
1439.278553622058
 31
0.0
  0
LINE
  5
4A76
330
4545
100
AcDbEntity
  8
AM_5
100
AcDbLine
 10
822.8754927843462
 20
1403.528553622058
 30
0.0
 11
822.8754927843462
 21
1439.278553622058
 31
0.0
  0
LINE
  5
4A77
330
4545
100
AcDbEntity
  8
AM_5
100
AcDbLine
 10
814.3754927843463
 20
1437.028553622058
 30
0.0
 11
818.3754927843462
 21
1437.028553622058
 31
0.0
  0
SOLID
  5
4A78
330
4545
100
AcDbEntity
  8
AM_5
100
AcDbTrace
 10
814.3754927843463
 20
1437.778553622058
 30
0.0
 11
814.3754927843463
 21
1436.278553622058
 31
0.0
 12
809.8754927843463
 22
1437.028553622058
 32
0.0
 13
809.8754927843463
 23
1437.028553622058
 33
0.0
  0
SOLID
  5
4A79
330
4545
100
AcDbEntity
  8
AM_5
100
AcDbTrace
 10
818.3754927843462
 20
1437.778553622058
 30
0.0
 11
818.3754927843462
 21
1436.278553622058
 31
0.0
 12
822.8754927843462
 22
1437.028553622058
 32
0.0
 13
822.8754927843462
 23
1437.028553622058
 33
0.0
  0
MTEXT
  5
4A7A
330
4545
100
AcDbEntity
  8
AM_5
100
AcDbMText
 10
816.3754927843463
 20
1440.703553622058
 30
0.0
 40
5.25
 41
0.0
 71
     5
 72
     1
  1
13
 73
     1
 44
1.0
1001
ACAD
1000
MTEXTBEGIN
1070
    73
1070
     1
1070
    44
1040
1.0
1070
    74
1070
     0
1000
MTEXTEND
  0
POINT
  5
4A7B
330
4545
100
AcDbEntity
  8
Defpoints
 62
     0
100
AcDbPoint
 10
809.8754927843463
 20
1425.028553622058
 30
0.0
  0
POINT
  5
4A7C
330
4545
100
AcDbEntity
  8
Defpoints
 62
     0
100
AcDbPoint
 10
822.8754927843462
 20
1402.028553622058
 30
0.0
  0
POINT
  5
4A7D
330
4545
100
AcDbEntity
  8
Defpoints
 62
     0
100
AcDbPoint
 10
822.8754927843462
 20
1437.028553622058
 30
0.0
  0
ENDBLK
  5
4550
330
4545
100
AcDbEntity
  8
0
100
AcDbBlockEnd
  0
BLOCK
  5
455B
330
4551
100
AcDbEntity
  8
0
100
AcDbBlockBegin
  2
*D4
 70
     1
 10
0.0
 20
0.0
 30
0.0
  3
*D4
  1

  0
LINE
  5
4A7E
330
4551
100
AcDbEntity
  8
AM_5
100
AcDbLine
 10
802.6254927843464
 20
1419.528553622058
 30
0.0
 11
739.1254927843463
 21
1419.528553622058
 31
0.0
  0
LINE
  5
4A7F
330
4551
100
AcDbEntity
  8
AM_5
100
AcDbLine
 10
815.8754927843462
 20
1396.528553622058
 30
0.0
 11
739.1254927843463
 21
1396.528553622058
 31
0.0
  0
LINE
  5
4A80
330
4551
100
AcDbEntity
  8
AM_5
100
AcDbLine
 10
741.3754927843463
 20
1415.028553622058
 30
0.0
 11
741.3754927843463
 21
1401.028553622058
 31
0.0
  0
SOLID
  5
4A81
330
4551
100
AcDbEntity
  8
AM_5
100
AcDbTrace
 10
740.6254927843463
 20
1415.028553622058
 30
0.0
 11
742.1254927843463
 21
1415.028553622058
 31
0.0
 12
741.3754927843463
 22
1419.528553622058
 32
0.0
 13
741.3754927843463
 23
1419.528553622058
 33
0.0
  0
SOLID
  5
4A82
330
4551
100
AcDbEntity
  8
AM_5
100
AcDbTrace
 10
740.6254927843463
 20
1401.028553622058
 30
0.0
 11
742.1254927843463
 21
1401.028553622058
 31
0.0
 12
741.3754927843463
 22
1396.528553622058
 32
0.0
 13
741.3754927843463
 23
1396.528553622058
 33
0.0
  0
MTEXT
  5
4A83
330
4551
100
AcDbEntity
  8
AM_5
100
AcDbMText
 10
737.6999760520626
 20
1408.028553622058
 30
0.0
 40
5.25
 41
0.0
 71
     5
 72
     1
  1
23
 11
0.0000000000000001
 21
1.0
 31
0.0
 73
     1
 44
1.0
1001
ACAD
1000
MTEXTBEGIN
1070
    73
1070
     1
1070
    44
1040
1.0
1070
    74
1070
     0
1000
MTEXTEND
  0
POINT
  5
4A84
330
4551
100
AcDbEntity
  8
Defpoints
 62
     0
100
AcDbPoint
 10
804.1254927843462
 20
1419.528553622058
 30
0.0
  0
POINT
  5
4A85
330
4551
100
AcDbEntity
  8
Defpoints
 62
     0
100
AcDbPoint
 10
817.3754927843463
 20
1396.528553622058
 30
0.0
  0
POINT
  5
4A86
330
4551
100
AcDbEntity
  8
Defpoints
 62
     0
100
AcDbPoint
 10
741.3754927843463
 20
1396.528553622058
 30
0.0
  0
ENDBLK
  5
455C
330
4551
100
AcDbEntity
  8
0
100
AcDbBlockEnd
  0
BLOCK
  5
4567
330
455D
100
AcDbEntity
  8
0
100
AcDbBlockBegin
  2
*D5
 70
     1
 10
0.0
 20
0.0
 30
0.0
  3
*D5
  1

  0
LINE
  5
4A87
330
455D
100
AcDbEntity
  8
AM_5
100
AcDbLine
 10
801.3754927843462
 20
1420.178553622058
 30
0.0
 11
801.3754927843462
 21
1450.278553622058
 31
0.0
  0
LINE
  5
4A88
330
455D
100
AcDbEntity
  8
AM_5
100
AcDbLine
 10
831.3754927843463
 20
1420.178553622058
 30
0.0
 11
831.3754927843463
 21
1450.278553622058
 31
0.0
  0
LINE
  5
4A89
330
455D
100
AcDbEntity
  8
AM_5
100
AcDbLine
 10
805.8754927843462
 20
1448.028553622058
 30
0.0
 11
826.8754927843463
 21
1448.028553622058
 31
0.0
  0
SOLID
  5
4A8A
330
455D
100
AcDbEntity
  8
AM_5
100
AcDbTrace
 10
805.8754927843462
 20
1448.778553622058
 30
0.0
 11
805.8754927843462
 21
1447.278553622058
 31
0.0
 12
801.3754927843462
 22
1448.028553622058
 32
0.0
 13
801.3754927843462
 23
1448.028553622058
 33
0.0
  0
SOLID
  5
4A8B
330
455D
100
AcDbEntity
  8
AM_5
100
AcDbTrace
 10
826.8754927843463
 20
1448.778553622058
 30
0.0
 11
826.8754927843463
 21
1447.278553622058
 31
0.0
 12
831.3754927843463
 22
1448.028553622058
 32
0.0
 13
831.3754927843463
 23
1448.028553622058
 33
0.0
  0
MTEXT
  5
4A8C
330
455D
100
AcDbEntity
  8
AM_5
100
AcDbMText
 10
816.3754927843463
 20
1451.703553622058
 30
0.0
 40
5.25
 41
0.0
 71
     5
 72
     1
  1
30
 73
     1
 44
1.0
1001
ACAD
1000
MTEXTBEGIN
1070
    73
1070
     1
1070
    44
1040
1.0
1070
    74
1070
     0
1000
MTEXTEND
  0
POINT
  5
4A8D
330
455D
100
AcDbEntity
  8
Defpoints
 62
     0
100
AcDbPoint
 10
801.3754927843462
 20
1418.678553622058
 30
0.0
  0
POINT
  5
4A8E
330
455D
100
AcDbEntity
  8
Defpoints
 62
     0
100
AcDbPoint
 10
831.3754927843463
 20
1418.678553622058
 30
0.0
  0
POINT
  5
4A8F
330
455D
100
AcDbEntity
  8
Defpoints
 62
     0
100
AcDbPoint
 10
831.3754927843463
 20
1448.028553622058
 30
0.0
  0
ENDBLK
  5
4568
330
455D
100
AcDbEntity
  8
0
100
AcDbBlockEnd
  0
BLOCK
  5
4573
330
4569
100
AcDbEntity
  8
0
100
AcDbBlockBegin
  2
*D6
 70
     1
 10
0.0
 20
0.0
 30
0.0
  3
*D6
  1

  0
LINE
  5
4A90
330
4569
100
AcDbEntity
  8
AM_5
100
AcDbLine
 10
803.3754927843462
 20
1311.640224409773
 30
0.0
 11
803.3754927843462
 21
1296.940224409773
 31
0.0
  0
LINE
  5
4A91
330
4569
100
AcDbEntity
  8
AM_5
100
AcDbLine
 10
829.3754927843462
 20
1311.640224409773
 30
0.0
 11
829.3754927843462
 21
1296.940224409773
 31
0.0
  0
LINE
  5
4A92
330
4569
100
AcDbEntity
  8
AM_5
100
AcDbLine
 10
807.8754927843462
 20
1299.190224409773
 30
0.0
 11
824.8754927843462
 21
1299.190224409773
 31
0.0
  0
SOLID
  5
4A93
330
4569
100
AcDbEntity
  8
AM_5
100
AcDbTrace
 10
807.8754927843462
 20
1299.940224409773
 30
0.0
 11
807.8754927843462
 21
1298.440224409773
 31
0.0
 12
803.3754927843462
 22
1299.190224409773
 32
0.0
 13
803.3754927843462
 23
1299.190224409773
 33
0.0
  0
SOLID
  5
4A94
330
4569
100
AcDbEntity
  8
AM_5
100
AcDbTrace
 10
824.8754927843462
 20
1299.940224409773
 30
0.0
 11
824.8754927843462
 21
1298.440224409773
 31
0.0
 12
829.3754927843462
 22
1299.190224409773
 32
0.0
 13
829.3754927843462
 23
1299.190224409773
 33
0.0
  0
MTEXT
  5
4A95
330
4569
100
AcDbEntity
  8
AM_5
100
AcDbMText
 10
816.3754927843463
 20
1302.865741142057
 30
0.0
 40
5.25
 41
0.0
 71
     5
 72
     1
  1
26
 73
     1
 44
1.0
1001
ACAD
1000
MTEXTBEGIN
1070
    73
1070
     1
1070
    44
1040
1.0
1070
    74
1070
     0
1000
MTEXTEND
  0
POINT
  5
4A96
330
4569
100
AcDbEntity
  8
Defpoints
 62
     0
100
AcDbPoint
 10
803.3754927843462
 20
1313.140224409773
 30
0.0
  0
POINT
  5
4A97
330
4569
100
AcDbEntity
  8
Defpoints
 62
     0
100
AcDbPoint
 10
829.3754927843462
 20
1313.140224409773
 30
0.0
  0
POINT
  5
4A98
330
4569
100
AcDbEntity
  8
Defpoints
 62
     0
100
AcDbPoint
 10
829.3754927843462
 20
1299.190224409773
 30
0.0
  0
ENDBLK
  5
4574
330
4569
100
AcDbEntity
  8
0
100
AcDbBlockEnd
  0
BLOCK
  5
458B
330
4581
100
AcDbEntity
  8
0
100
AcDbBlockBegin
  2
*D7
 70
     1
 10
0.0
 20
0.0
 30
0.0
  3
*D7
  1

  0
LINE
  5
4A99
330
4581
100
AcDbEntity
  8
AM_5
100
AcDbLine
 10
790.3754927843463
 20
1243.942666033887
 30
0.0
 11
790.3754927843463
 21
1226.842666033887
 31
0.0
  0
LINE
  5
4A9A
330
4581
100
AcDbEntity
  8
AM_5
100
AcDbLine
 10
816.3754927843463
 20
1243.942666033887
 30
0.0
 11
816.3754927843463
 21
1226.842666033887
 31
0.0
  0
LINE
  5
4A9B
330
4581
100
AcDbEntity
  8
AM_5
100
AcDbLine
 10
794.8754927843463
 20
1229.092666033887
 30
0.0
 11
811.8754927843463
 21
1229.092666033887
 31
0.0
  0
SOLID
  5
4A9C
330
4581
100
AcDbEntity
  8
AM_5
100
AcDbTrace
 10
794.8754927843463
 20
1229.842666033887
 30
0.0
 11
794.8754927843463
 21
1228.342666033887
 31
0.0
 12
790.3754927843463
 22
1229.092666033887
 32
0.0
 13
790.3754927843463
 23
1229.092666033887
 33
0.0
  0
SOLID
  5
4A9D
330
4581
100
AcDbEntity
  8
AM_5
100
AcDbTrace
 10
811.8754927843463
 20
1229.842666033887
 30
0.0
 11
811.8754927843463
 21
1228.342666033887
 31
0.0
 12
816.3754927843463
 22
1229.092666033887
 32
0.0
 13
816.3754927843463
 23
1229.092666033887
 33
0.0
  0
MTEXT
  5
4A9E
330
4581
100
AcDbEntity
  8
AM_5
100
AcDbMText
 10
803.3754927843462
 20
1232.76818276617
 30
0.0
 40
5.25
 41
0.0
 71
     5
 72
     1
  1
26
 73
     1
 44
1.0
1001
ACAD
1000
MTEXTBEGIN
1070
    73
1070
     1
1070
    44
1040
1.0
1070
    74
1070
     0
1000
MTEXTEND
  0
POINT
  5
4A9F
330
4581
100
AcDbEntity
  8
Defpoints
 62
     0
100
AcDbPoint
 10
790.3754927843463
 20
1245.442666033887
 30
0.0
  0
POINT
  5
4AA0
330
4581
100
AcDbEntity
  8
Defpoints
 62
     0
100
AcDbPoint
 10
816.3754927843463
 20
1245.442666033887
 30
0.0
  0
POINT
  5
4AA1
330
4581
100
AcDbEntity
  8
Defpoints
 62
     0
100
AcDbPoint
 10
816.3754927843463
 20
1229.092666033887
 30
0.0
  0
ENDBLK
  5
458C
330
4581
100
AcDbEntity
  8
0
100
AcDbBlockEnd
  0
BLOCK
  5
4597
330
458D
100
AcDbEntity
  8
0
100
AcDbBlockBegin
  2
*D8
 70
     1
 10
0.0
 20
0.0
 30
0.0
  3
*D8
  1

  0
LINE
  5
4AA2
330
458D
100
AcDbEntity
  8
AM_5
100
AcDbLine
 10
816.3754927843463
 20
1243.942666033887
 30
0.0
 11
816.3754927843463
 21
1226.842666033887
 31
0.0
  0
LINE
  5
4AA3
330
458D
100
AcDbEntity
  8
AM_5
100
AcDbLine
 10
842.3754927843463
 20
1243.942666033887
 30
0.0
 11
842.3754927843463
 21
1226.842666033887
 31
0.0
  0
LINE
  5
4AA4
330
458D
100
AcDbEntity
  8
AM_5
100
AcDbLine
 10
820.8754927843463
 20
1229.092666033887
 30
0.0
 11
837.8754927843463
 21
1229.092666033887
 31
0.0
  0
SOLID
  5
4AA5
330
458D
100
AcDbEntity
  8
AM_5
100
AcDbTrace
 10
820.8754927843463
 20
1229.842666033887
 30
0.0
 11
820.8754927843463
 21
1228.342666033887
 31
0.0
 12
816.3754927843463
 22
1229.092666033887
 32
0.0
 13
816.3754927843463
 23
1229.092666033887
 33
0.0
  0
SOLID
  5
4AA6
330
458D
100
AcDbEntity
  8
AM_5
100
AcDbTrace
 10
837.8754927843463
 20
1229.842666033887
 30
0.0
 11
837.8754927843463
 21
1228.342666033887
 31
0.0
 12
842.3754927843463
 22
1229.092666033887
 32
0.0
 13
842.3754927843463
 23
1229.092666033887
 33
0.0
  0
MTEXT
  5
4AA7
330
458D
100
AcDbEntity
  8
AM_5
100
AcDbMText
 10
829.3754927843462
 20
1232.76818276617
 30
0.0
 40
5.25
 41
0.0
 71
     5
 72
     1
  1
26
 73
     1
 44
1.0
1001
ACAD
1000
MTEXTBEGIN
1070
    73
1070
     1
1070
    44
1040
1.0
1070
    74
1070
     0
1000
MTEXTEND
  0
POINT
  5
4AA8
330
458D
100
AcDbEntity
  8
Defpoints
 62
     0
100
AcDbPoint
 10
816.3754927843463
 20
1245.442666033887
 30
0.0
  0
POINT
  5
4AA9
330
458D
100
AcDbEntity
  8
Defpoints
 62
     0
100
AcDbPoint
 10
842.3754927843463
 20
1245.442666033887
 30
0.0
  0
POINT
  5
4AAA
330
458D
100
AcDbEntity
  8
Defpoints
 62
     0
100
AcDbPoint
 10
842.3754927843463
 20
1229.092666033887
 30
0.0
  0
ENDBLK
  5
4598
330
458D
100
AcDbEntity
  8
0
100
AcDbBlockEnd
  0
BLOCK
  5
45A3
330
4599
100
AcDbEntity
  8
0
100
AcDbBlockBegin
  2
*D9
 70
     1
 10
0.0
 20
0.0
 30
0.0
  3
*D9
  1

  0
LINE
  5
4AAB
330
4599
100
AcDbEntity
  8
AM_5
100
AcDbLine
 10
878.8754927843463
 20
1313.190224409773
 30
0.0
 11
891.6254927843462
 21
1313.190224409773
 31
0.0
  0
LINE
  5
4AAC
330
4599
100
AcDbEntity
  8
AM_5
100
AcDbLine
 10
878.8754927843463
 20
1359.590224409773
 30
0.0
 11
891.6254927843462
 21
1359.590224409773
 31
0.0
  0
LINE
  5
4AAD
330
4599
100
AcDbEntity
  8
AM_5
100
AcDbLine
 10
889.3754927843463
 20
1317.690224409773
 30
0.0
 11
889.3754927843463
 21
1355.090224409773
 31
0.0
  0
SOLID
  5
4AAE
330
4599
100
AcDbEntity
  8
AM_5
100
AcDbTrace
 10
888.6254927843463
 20
1317.690224409773
 30
0.0
 11
890.1254927843464
 21
1317.690224409773
 31
0.0
 12
889.3754927843463
 22
1313.190224409773
 32
0.0
 13
889.3754927843463
 23
1313.190224409773
 33
0.0
  0
SOLID
  5
4AAF
330
4599
100
AcDbEntity
  8
AM_5
100
AcDbTrace
 10
888.6254927843463
 20
1355.090224409773
 30
0.0
 11
890.1254927843464
 21
1355.090224409773
 31
0.0
 12
889.3754927843463
 22
1359.590224409773
 32
0.0
 13
889.3754927843463
 23
1359.590224409773
 33
0.0
  0
MTEXT
  5
4AB0
330
4599
100
AcDbEntity
  8
AM_5
100
AcDbMText
 10
885.700492784346
 20
1336.390224409773
 30
0.0
 40
5.25
 41
0.0
 71
     5
 72
     1
  1
46.4
 11
0.0000000000000001
 21
1.0
 31
0.0
 73
     1
 44
1.0
1001
ACAD
1000
MTEXTBEGIN
1070
    73
1070
     1
1070
    44
1040
1.0
1070
    74
1070
     0
1000
MTEXTEND
  0
POINT
  5
4AB1
330
4599
100
AcDbEntity
  8
Defpoints
 62
     0
100
AcDbPoint
 10
877.3754927843462
 20
1313.190224409773
 30
0.0
  0
POINT
  5
4AB2
330
4599
100
AcDbEntity
  8
Defpoints
 62
     0
100
AcDbPoint
 10
877.3754927843462
 20
1359.590224409773
 30
0.0
  0
POINT
  5
4AB3
330
4599
100
AcDbEntity
  8
Defpoints
 62
     0
100
AcDbPoint
 10
889.3754927843463
 20
1359.590224409773
 30
0.0
  0
ENDBLK
  5
45A4
330
4599
100
AcDbEntity
  8
0
100
AcDbBlockEnd
  0
BLOCK
  5
45AF
330
45A5
100
AcDbEntity
  8
0
100
AcDbBlockBegin
  2
*D10
 70
     1
 10
0.0
 20
0.0
 30
0.0
  3
*D10
  1

  0
LINE
  5
4AB4
330
45A5
100
AcDbEntity
  8
AM_5
100
AcDbLine
 10
755.3754927843463
 20
1311.690224409773
 30
0.0
 11
755.3754927843463
 21
1285.940224409773
 31
0.0
  0
LINE
  5
4AB5
330
45A5
100
AcDbEntity
  8
AM_5
100
AcDbLine
 10
877.3754927843462
 20
1311.690224409773
 30
0.0
 11
877.3754927843462
 21
1285.940224409773
 31
0.0
  0
LINE
  5
4AB6
330
45A5
100
AcDbEntity
  8
AM_5
100
AcDbLine
 10
759.8754927843462
 20
1288.190224409773
 30
0.0
 11
872.8754927843462
 21
1288.190224409773
 31
0.0
  0
SOLID
  5
4AB7
330
45A5
100
AcDbEntity
  8
AM_5
100
AcDbTrace
 10
759.8754927843462
 20
1288.940224409773
 30
0.0
 11
759.8754927843462
 21
1287.440224409773
 31
0.0
 12
755.3754927843463
 22
1288.190224409773
 32
0.0
 13
755.3754927843463
 23
1288.190224409773
 33
0.0
  0
SOLID
  5
4AB8
330
45A5
100
AcDbEntity
  8
AM_5
100
AcDbTrace
 10
872.8754927843462
 20
1288.940224409773
 30
0.0
 11
872.8754927843462
 21
1287.440224409773
 31
0.0
 12
877.3754927843462
 22
1288.190224409773
 32
0.0
 13
877.3754927843462
 23
1288.190224409773
 33
0.0
  0
MTEXT
  5
4AB9
330
45A5
100
AcDbEntity
  8
AM_5
100
AcDbMText
 10
816.3754927843463
 20
1291.865741142057
 30
0.0
 40
5.25
 41
0.0
 71
     5
 72
     1
  1
122
 73
     1
 44
1.0
1001
ACAD
1000
MTEXTBEGIN
1070
    73
1070
     1
1070
    44
1040
1.0
1070
    74
1070
     0
1000
MTEXTEND
  0
POINT
  5
4ABA
330
45A5
100
AcDbEntity
  8
Defpoints
 62
     0
100
AcDbPoint
 10
755.3754927843463
 20
1313.190224409773
 30
0.0
  0
POINT
  5
4ABB
330
45A5
100
AcDbEntity
  8
Defpoints
 62
     0
100
AcDbPoint
 10
877.3754927843462
 20
1313.190224409773
 30
0.0
  0
POINT
  5
4ABC
330
45A5
100
AcDbEntity
  8
Defpoints
 62
     0
100
AcDbPoint
 10
877.3754927843462
 20
1288.190224409773
 30
0.0
  0
ENDBLK
  5
45B0
330
45A5
100
AcDbEntity
  8
0
100
AcDbBlockEnd
  0
BLOCK
  5
45C4
330
45BA
100
AcDbEntity
  8
0
100
AcDbBlockBegin
  2
*D11
 70
     1
 10
0.0
 20
0.0
 30
0.0
  3
*D11
  1

  0
LINE
  5
4ABD
330
45BA
100
AcDbEntity
  8
AM_5
100
AcDbLine
 10
919.297394236522
 20
1313.190224409773
 30
0.0
 11
906.5473942365219
 21
1313.190224409773
 31
0.0
  0
LINE
  5
4ABE
330
45BA
100
AcDbEntity
  8
AM_5
100
AcDbLine
 10
927.4473942365219
 20
1330.190224409773
 30
0.0
 11
906.5473942365219
 21
1330.190224409773
 31
0.0
  0
LINE
  5
4ABF
330
45BA
100
AcDbEntity
  8
AM_5
100
AcDbLine
 10
908.797394236522
 20
1317.690224409773
 30
0.0
 11
908.797394236522
 21
1325.690224409773
 31
0.0
  0
SOLID
  5
4AC0
330
45BA
100
AcDbEntity
  8
AM_5
100
AcDbTrace
 10
908.047394236522
 20
1317.690224409773
 30
0.0
 11
909.547394236522
 21
1317.690224409773
 31
0.0
 12
908.797394236522
 22
1313.190224409773
 32
0.0
 13
908.797394236522
 23
1313.190224409773
 33
0.0
  0
SOLID
  5
4AC1
330
45BA
100
AcDbEntity
  8
AM_5
100
AcDbTrace
 10
908.047394236522
 20
1325.690224409773
 30
0.0
 11
909.547394236522
 21
1325.690224409773
 31
0.0
 12
908.797394236522
 22
1330.190224409773
 32
0.0
 13
908.797394236522
 23
1330.190224409773
 33
0.0
  0
MTEXT
  5
4AC2
330
45BA
100
AcDbEntity
  8
AM_5
100
AcDbMText
 10
905.1223942365218
 20
1321.690224409773
 30
0.0
 40
5.25
 41
0.0
 71
     5
 72
     1
  1
17
 11
0.0000000000000001
 21
1.0
 31
0.0
 73
     1
 44
1.0
1001
ACAD
1000
MTEXTBEGIN
1070
    73
1070
     1
1070
    44
1040
1.0
1070
    74
1070
     0
1000
MTEXTEND
  0
POINT
  5
4AC3
330
45BA
100
AcDbEntity
  8
Defpoints
 62
     0
100
AcDbPoint
 10
920.7973942365219
 20
1313.190224409773
 30
0.0
  0
POINT
  5
4AC4
330
45BA
100
AcDbEntity
  8
Defpoints
 62
     0
100
AcDbPoint
 10
928.9473942365217
 20
1330.190224409773
 30
0.0
  0
POINT
  5
4AC5
330
45BA
100
AcDbEntity
  8
Defpoints
 62
     0
100
AcDbPoint
 10
908.797394236522
 20
1330.190224409773
 30
0.0
  0
ENDBLK
  5
45C5
330
45BA
100
AcDbEntity
  8
0
100
AcDbBlockEnd
  0
BLOCK
  5
45DB
330
45CF
100
AcDbEntity
  8
0
100
AcDbBlockBegin
  2
*D12
 70
     1
 10
0.0
 20
0.0
 30
0.0
  3
*D12
  1

  0
LINE
  5
4B16
330
45CF
100
AcDbEntity
  8
AM_5
100
AcDbLine
 10
753.8754927843463
 20
1313.190224409773
 30
0.0
 11
736.7195623515776
 21
1313.190224409773
 31
0.0
  0
LINE
  5
4B17
330
45CF
100
AcDbEntity
  8
AM_5
100
AcDbLine
 10
796.1254927843463
 20
1317.890224409773
 30
0.0
 11
736.7195623515776
 21
1317.890224409773
 31
0.0
  0
LINE
  5
4B18
330
45CF
100
AcDbEntity
  8
AM_5
100
AcDbLine
 10
738.9695623515777
 20
1322.390224409773
 30
0.0
 11
738.9695623515777
 21
1326.890224409773
 31
0.0
  0
LINE
  5
4B19
330
45CF
100
AcDbEntity
  8
AM_5
100
AcDbLine
 10
738.9695623515777
 20
1308.690224409773
 30
0.0
 11
738.9695623515777
 21
1293.765224409773
 31
0.0
  0
LINE
  5
4B1A
330
45CF
100
AcDbEntity
  8
AM_5
100
AcDbLine
 10
738.9695623515777
 20
1317.890224409773
 30
0.0
 11
738.9695623515777
 21
1313.190224409773
 31
0.0
  0
SOLID
  5
4B1B
330
45CF
100
AcDbEntity
  8
AM_5
100
AcDbTrace
 10
738.2195623515777
 20
1322.390224409773
 30
0.0
 11
739.7195623515776
 21
1322.390224409773
 31
0.0
 12
738.9695623515777
 22
1317.890224409773
 32
0.0
 13
738.9695623515777
 23
1317.890224409773
 33
0.0
  0
SOLID
  5
4B1C
330
45CF
100
AcDbEntity
  8
AM_5
100
AcDbTrace
 10
738.2195623515777
 20
1308.690224409773
 30
0.0
 11
739.7195623515776
 21
1308.690224409773
 31
0.0
 12
738.9695623515777
 22
1313.190224409773
 32
0.0
 13
738.9695623515777
 23
1313.190224409773
 33
0.0
  0
MTEXT
  5
4B1D
330
45CF
100
AcDbEntity
  8
AM_5
100
AcDbMText
 10
735.2945623515775
 20
1298.752724409773
 30
0.0
 40
5.25
 41
0.0
 71
     5
 72
     1
  1
4.7
 11
0.0000000000000001
 21
1.0
 31
0.0
 73
     1
 44
1.0
1001
ACAD
1000
MTEXTBEGIN
1070
    73
1070
     1
1070
    44
1040
1.0
1070
    74
1070
     0
1000
MTEXTEND
  0
POINT
  5
4B1E
330
45CF
100
AcDbEntity
  8
Defpoints
 62
     0
100
AcDbPoint
 10
755.3754927843463
 20
1313.190224409773
 30
0.0
  0
POINT
  5
4B1F
330
45CF
100
AcDbEntity
  8
Defpoints
 62
     0
100
AcDbPoint
 10
797.6254927843463
 20
1317.890224409773
 30
0.0
  0
POINT
  5
4B20
330
45CF
100
AcDbEntity
  8
Defpoints
 62
     0
100
AcDbPoint
 10
738.9695623515777
 20
1317.890224409773
 30
0.0
  0
ENDBLK
  5
45DC
330
45CF
100
AcDbEntity
  8
0
100
AcDbBlockEnd
  0
BLOCK
  5
46FE
330
46F9
100
AcDbEntity
  8
0
100
AcDbBlockBegin
  2
*S13
 70
     1
 10
0.0
 20
0.0
 30
0.0
  3
*S13
  1

  0
LINE
  5
46FA
330
46F9
100
AcDbEntity
  8
AM_5
 62
     5
100
AcDbLine
 10
874.3004602329195
 20
1224.883686133734
 30
0.0
 11
855.8139258064274
 21
1224.883686133734
 31
0.0
  0
LINE
  5
46FB
330
46F9
100
AcDbEntity
  8
AM_5
 62
     5
100
AcDbLine
 10
855.8139258064274
 20
1224.883686133734
 30
0.0
 11
849.3989753944598
 21
1239.559775694878
 31
0.0
  0
TRACE
  5
46FC
330
46F9
100
AcDbEntity
  8
AM_5
 62
     5
370
    35
100
AcDbTrace
 10
849.8211874558711
 20
1239.744325497876
 30
0.0
 11
848.9767633330487
 21
1239.37522589188
 31
0.0
 12
847.9971804630823
 22
1242.766794711093
 32
0.0
 13
847.9971804630823
 23
1242.766794711093
 33
0.0
  0
MTEXT
  5
46FD
330
46F9
100
AcDbEntity
  8
AM_5
 62
     5
100
AcDbMText
 10
874.3004602329195
 20
1224.076212958002
 30
0.0
 40
3.5
 41
0.0
 71
     7
 72
     5
  1

  7
ACISOTS
 73
     1
 44
1.0
1001
ACAD
1000
MTEXTBEGIN
1070
    73
1070
     1
1070
    44
1040
1.0
1070
    74
1070
     0
1000
MTEXTEND
  0
ENDBLK
  5
46FF
330
46F9
100
AcDbEntity
  8
0
100
AcDbBlockEnd
  0
BLOCK
  5
4706
330
4701
100
AcDbEntity
  8
0
100
AcDbBlockBegin
  2
*S14
 70
     1
 10
0.0
 20
0.0
 30
0.0
  3
*S14
  1

  0
LINE
  5
4702
330
4701
100
AcDbEntity
  8
AM_5
 62
     5
100
AcDbLine
 10
891.4694217570199
 20
1293.209377929725
 30
0.0
 11
920.6350663425114
 21
1293.209377929725
 31
0.0
  0
LINE
  5
4703
330
4701
100
AcDbEntity
  8
AM_5
 62
     5
100
AcDbLine
 10
920.6350663425114
 20
1293.209377929725
 30
0.0
 11
930.6077741364553
 21
1315.297167344096
 31
0.0
  0
TRACE
  5
4704
330
4701
100
AcDbEntity
  8
AM_5
 62
     5
370
    35
100
AcDbTrace
 10
931.2377171837638
 20
1315.01274603693
 30
0.0
 11
929.977831089147
 21
1315.581588651262
 31
0.0
 12
932.7681684597443
 22
1320.082059857821
 32
0.0
 13
932.7681684597443
 23
1320.082059857821
 33
0.0
  0
MTEXT
  5
4705
330
4701
100
AcDbEntity
  8
AM_5
 62
     5
100
AcDbMText
 10
891.4694217570199
 20
1288.454987895365
 30
0.0
 40
5.25
 41
0.0
 71
     7
 72
     5
  1

  7
ACISOTS
210
0.0
220
0.0
230
-1.0
 11
-1.0
 21
0.0
 31
0.0
 73
     1
 44
1.0
1001
ACAD
1000
MTEXTBEGIN
1070
    73
1070
     1
1070
    44
1040
1.0
1070
    74
1070
     0
1000
MTEXTEND
  0
ENDBLK
  5
4707
330
4701
100
AcDbEntity
  8
0
100
AcDbBlockEnd
  0
BLOCK
  5
470E
330
4709
100
AcDbEntity
  8
0
100
AcDbBlockBegin
  2
*S15
 70
     1
 10
0.0
 20
0.0
 30
0.0
  3
*S15
  1

  0
LINE
  5
470A
330
4709
100
AcDbEntity
  8
AM_5
 62
     5
100
AcDbLine
 10
865.1554946157359
 20
1291.207507159591
 30
0.0
 11
842.2764717013647
 21
1291.207507159591
 31
0.0
  0
LINE
  5
470B
330
4709
100
AcDbEntity
  8
AM_5
 62
     5
100
AcDbLine
 10
842.2764717013647
 20
1291.207507159591
 30
0.0
 11
834.011415011451
 21
1304.463052999638
 31
0.0
  0
TRACE
  5
470C
330
4709
100
AcDbEntity
  8
AM_5
 62
     5
370
    35
100
AcDbTrace
 10
834.5979213679996
 20
1304.828749617821
 30
0.0
 11
833.4249086549023
 21
1304.097356381455
 31
0.0
 12
831.2336734074877
 22
1308.918011089408
 32
0.0
 13
831.2336734074877
 23
1308.918011089408
 33
0.0
  0
MTEXT
  5
470D
330
4709
100
AcDbEntity
  8
AM_5
 62
     5
100
AcDbMText
 10
865.1554946157359
 20
1286.266519531689
 30
0.0
 40
5.25
 41
0.0
 71
     7
 72
     5
  1

  7
ACISOTS
 73
     1
 44
1.0
1001
ACAD
1000
MTEXTBEGIN
1070
    73
1070
     1
1070
    44
1040
1.0
1070
    74
1070
     0
1000
MTEXTEND
  0
ENDBLK
  5
470F
330
4709
100
AcDbEntity
  8
0
100
AcDbBlockEnd
  0
BLOCK
  5
4716
330
4711
100
AcDbEntity
  8
0
100
AcDbBlockBegin
  2
*S16
 70
     1
 10
0.0
 20
0.0
 30
0.0
  3
*S16
  1

  0
LINE
  5
4712
330
4711
100
AcDbEntity
  8
AM_5
 62
     5
100
AcDbLine
 10
764.6429840392886
 20
1428.776707082122
 30
0.0
 11
790.3989204982476
 21
1428.776707082122
 31
0.0
  0
LINE
  5
4713
330
4711
100
AcDbEntity
  8
AM_5
 62
     5
100
AcDbLine
 10
790.3989204982476
 20
1428.776707082122
 30
0.0
 11
803.9875501881713
 21
1417.579807976519
 31
0.0
  0
TRACE
  5
4714
330
4711
100
AcDbEntity
  8
AM_5
 62
     5
370
    35
100
AcDbTrace
 10
803.5480183617053
 20
1417.046389288859
 30
0.0
 11
804.4270820146371
 21
1418.11322666418
 31
0.0
 12
808.0392673968525
 22
1414.241232283072
 32
0.0
 13
808.0392673968525
 23
1414.241232283072
 33
0.0
  0
MTEXT
  5
4715
330
4711
100
AcDbEntity
  8
AM_5
 62
     5
100
AcDbMText
 10
764.6429840392886
 20
1423.835719454219
 30
0.0
 40
5.25
 41
0.0
 71
     7
 72
     5
  1

  7
ACISOTS
210
0.0
220
0.0
230
-1.0
 11
-1.0
 21
0.0
 31
0.0
 73
     1
 44
1.0
1001
ACAD
1000
MTEXTBEGIN
1070
    73
1070
     1
1070
    44
1040
1.0
1070
    74
1070
     0
1000
MTEXTEND
  0
ENDBLK
  5
4717
330
4711
100
AcDbEntity
  8
0
100
AcDbBlockEnd
  0
BLOCK
  5
4AF4
330
4AEA
100
AcDbEntity
  8
0
100
AcDbBlockBegin
  2
*D17
 70
     1
 10
0.0
 20
0.0
 30
0.0
  3
*D17
  1

  0
LINE
  5
4B0D
330
4AEA
100
AcDbEntity
  8
AM_5
100
AcDbLine
 10
755.3754927843463
 20
1311.690224409773
 30
0.0
 11
755.3754927843463
 21
1296.940224409773
 31
0.0
  0
LINE
  5
4B0E
330
4AEA
100
AcDbEntity
  8
AM_5
100
AcDbLine
 10
803.3754927843462
 20
1310.640224409773
 30
0.0
 11
803.3754927843462
 21
1296.940224409773
 31
0.0
  0
LINE
  5
4B0F
330
4AEA
100
AcDbEntity
  8
AM_5
100
AcDbLine
 10
759.8754927843462
 20
1299.190224409773
 30
0.0
 11
798.8754927843463
 21
1299.190224409773
 31
0.0
  0
SOLID
  5
4B10
330
4AEA
100
AcDbEntity
  8
AM_5
100
AcDbTrace
 10
759.8754927843462
 20
1299.940224409773
 30
0.0
 11
759.8754927843462
 21
1298.440224409773
 31
0.0
 12
755.3754927843463
 22
1299.190224409773
 32
0.0
 13
755.3754927843463
 23
1299.190224409773
 33
0.0
  0
SOLID
  5
4B11
330
4AEA
100
AcDbEntity
  8
AM_5
100
AcDbTrace
 10
798.8754927843463
 20
1299.940224409773
 30
0.0
 11
798.8754927843463
 21
1298.440224409773
 31
0.0
 12
803.3754927843462
 22
1299.190224409773
 32
0.0
 13
803.3754927843462
 23
1299.190224409773
 33
0.0
  0
MTEXT
  5
4B12
330
4AEA
100
AcDbEntity
  8
AM_5
100
AcDbMText
 10
779.3754927843463
 20
1302.865224409773
 30
0.0
 40
5.25
 41
0.0
 71
     5
 72
     1
  1
48
 73
     1
 44
1.0
1001
ACAD
1000
MTEXTBEGIN
1070
    73
1070
     1
1070
    44
1040
1.0
1070
    74
1070
     0
1000
MTEXTEND
  0
POINT
  5
4B13
330
4AEA
100
AcDbEntity
  8
Defpoints
 62
     0
100
AcDbPoint
 10
755.3754927843463
 20
1313.190224409773
 30
0.0
  0
POINT
  5
4B14
330
4AEA
100
AcDbEntity
  8
Defpoints
 62
     0
100
AcDbPoint
 10
803.3754927843462
 20
1312.140224409773
 30
0.0
  0
POINT
  5
4B15
330
4AEA
100
AcDbEntity
  8
Defpoints
 62
     0
100
AcDbPoint
 10
803.3754927843462
 20
1299.190224409773
 30
0.0
  0
ENDBLK
  5
4AF5
330
4AEA
100
AcDbEntity
  8
0
100
AcDbBlockEnd
  0
BLOCK
  5
4B3D
330
4B31
100
AcDbEntity
  8
0
100
AcDbBlockBegin
  2
*D18
 70
     1
 10
0.0
 20
0.0
 30
0.0
  3
*D18
  1

  0
LINE
  5
4B84
330
4B31
100
AcDbEntity
  8
AM_5
100
AcDbLine
 10
828.3754927843462
 20
1359.590224409773
 30
0.0
 11
836.7102111036766
 21
1359.590224409773
 31
0.0
  0
LINE
  5
4B85
330
4B31
100
AcDbEntity
  8
AM_5
100
AcDbLine
 10
828.3754927843462
 20
1355.590224409773
 30
0.0
 11
836.7102111036766
 21
1355.590224409773
 31
0.0
  0
LINE
  5
4B86
330
4B31
100
AcDbEntity
  8
AM_5
100
AcDbLine
 10
834.4602111036765
 20
1351.090224409773
 30
0.0
 11
834.4602111036765
 21
1346.590224409773
 31
0.0
  0
LINE
  5
4B87
330
4B31
100
AcDbEntity
  8
AM_5
100
AcDbLine
 10
834.4602111036765
 20
1364.090224409773
 30
0.0
 11
834.4602111036765
 21
1373.315224409773
 31
0.0
  0
LINE
  5
4B88
330
4B31
100
AcDbEntity
  8
AM_5
100
AcDbLine
 10
834.4602111036765
 20
1355.590224409773
 30
0.0
 11
834.4602111036765
 21
1359.590224409773
 31
0.0
  0
SOLID
  5
4B89
330
4B31
100
AcDbEntity
  8
AM_5
100
AcDbTrace
 10
833.7102111036765
 20
1351.090224409773
 30
0.0
 11
835.2102111036765
 21
1351.090224409773
 31
0.0
 12
834.4602111036765
 22
1355.590224409773
 32
0.0
 13
834.4602111036765
 23
1355.590224409773
 33
0.0
  0
SOLID
  5
4B8A
330
4B31
100
AcDbEntity
  8
AM_5
100
AcDbTrace
 10
833.7102111036765
 20
1364.090224409773
 30
0.0
 11
835.2102111036765
 21
1364.090224409773
 31
0.0
 12
834.4602111036765
 22
1359.590224409773
 32
0.0
 13
834.4602111036765
 23
1359.590224409773
 33
0.0
  0
MTEXT
  5
4B8B
330
4B31
100
AcDbEntity
  8
AM_5
100
AcDbMText
 10
830.7852111036764
 20
1370.952724409773
 30
0.0
 40
5.25
 41
0.0
 71
     5
 72
     1
  1
4
 11
0.0000000000000001
 21
1.0
 31
0.0
 73
     1
 44
1.0
1001
ACAD
1000
MTEXTBEGIN
1070
    73
1070
     1
1070
    44
1040
1.0
1070
    74
1070
     0
1000
MTEXTEND
  0
POINT
  5
4B8C
330
4B31
100
AcDbEntity
  8
Defpoints
 62
     0
100
AcDbPoint
 10
826.8754927843463
 20
1359.590224409773
 30
0.0
  0
POINT
  5
4B8D
330
4B31
100
AcDbEntity
  8
Defpoints
 62
     0
100
AcDbPoint
 10
826.8754927843463
 20
1355.590224409773
 30
0.0
  0
POINT
  5
4B8E
330
4B31
100
AcDbEntity
  8
Defpoints
 62
     0
100
AcDbPoint
 10
834.4602111036765
 20
1355.590224409773
 30
0.0
  0
ENDBLK
  5
4B3E
330
4B31
100
AcDbEntity
  8
0
100
AcDbBlockEnd
  0
BLOCK
  5
4BA9
330
4B9F
100
AcDbEntity
  8
0
100
AcDbBlockBegin
  2
*D19
 70
     1
 10
0.0
 20
0.0
 30
0.0
  3
*D19
  1

  0
LINE
  5
4BB9
330
4B9F
100
AcDbEntity
  8
AM_5
100
AcDbLine
 10
755.3754927843463
 20
1239.592666033887
 30
0.0
 11
755.3754927843463
 21
1226.842666033888
 31
0.0
  0
LINE
  5
4BBA
330
4B9F
100
AcDbEntity
  8
AM_5
100
AcDbLine
 10
790.3754927843463
 20
1243.942666033887
 30
0.0
 11
790.3754927843463
 21
1226.842666033888
 31
0.0
  0
LINE
  5
4BBB
330
4B9F
100
AcDbEntity
  8
AM_5
100
AcDbLine
 10
759.8754927843462
 20
1229.092666033888
 30
0.0
 11
785.8754927843463
 21
1229.092666033888
 31
0.0
  0
SOLID
  5
4BBC
330
4B9F
100
AcDbEntity
  8
AM_5
100
AcDbTrace
 10
759.8754927843462
 20
1229.842666033888
 30
0.0
 11
759.8754927843462
 21
1228.342666033888
 31
0.0
 12
755.3754927843463
 22
1229.092666033888
 32
0.0
 13
755.3754927843463
 23
1229.092666033888
 33
0.0
  0
SOLID
  5
4BBD
330
4B9F
100
AcDbEntity
  8
AM_5
100
AcDbTrace
 10
785.8754927843463
 20
1229.842666033888
 30
0.0
 11
785.8754927843463
 21
1228.342666033888
 31
0.0
 12
790.3754927843463
 22
1229.092666033888
 32
0.0
 13
790.3754927843463
 23
1229.092666033888
 33
0.0
  0
MTEXT
  5
4BBE
330
4B9F
100
AcDbEntity
  8
AM_5
100
AcDbMText
 10
772.8754927843462
 20
1232.767666033888
 30
0.0
 40
5.25
 41
0.0
 71
     5
 72
     1
  1
35
 73
     1
 44
1.0
1001
ACAD
1000
MTEXTBEGIN
1070
    73
1070
     1
1070
    44
1040
1.0
1070
    74
1070
     0
1000
MTEXTEND
  0
POINT
  5
4BBF
330
4B9F
100
AcDbEntity
  8
Defpoints
 62
     0
100
AcDbPoint
 10
755.3754927843463
 20
1241.092666033887
 30
0.0
  0
POINT
  5
4BC0
330
4B9F
100
AcDbEntity
  8
Defpoints
 62
     0
100
AcDbPoint
 10
790.3754927843463
 20
1245.442666033887
 30
0.0
  0
POINT
  5
4BC1
330
4B9F
100
AcDbEntity
  8
Defpoints
 62
     0
100
AcDbPoint
 10
790.3754927843463
 20
1229.092666033888
 30
0.0
  0
ENDBLK
  5
4BAA
330
4B9F
100
AcDbEntity
  8
0
100
AcDbBlockEnd
  0
ENDSEC
  0
SECTION
  2
ENTITIES
  0
LINE
  5
40D9
330
1F
100
AcDbEntity
  8
LOGO
 62
     4
100
AcDbLine
 10
960.2663624467764
 20
1199.907097485865
 30
0.0
 11
704.9756251955893
 21
1199.907097485865
 31
0.0
  0
LWPOLYLINE
  5
40DA
330
1F
100
AcDbEntity
  8
LOGO
 62
     4
100
AcDbPolyline
 90
        4
 70
     1
 43
0.0
 10
704.9756251955893
 20
1199.907097485865
 10
960.2663624467764
 20
1199.907097485865
 10
960.2663624467764
 20
1486.396464726001
 10
704.9756251955893
 20
1486.396464726001
1001
GENIUS_GENREC_14
1002
{
1000
PYDIR
1011
704.9756251955893
1021
1486.396464726001
1031
0.0
1002
}
1002
{
1000
PXDIR
1011
960.2663624467764
1021
1199.907097485865
1031
0.0
1002
}
1002
{
1000
PORI
1011
704.9756251955893
1021
1199.907097485865
1031
0.0
1002
}
1002
{
1000
PINS
1011
704.9756251955893
1021
1199.907097485865
1031
0.0
1002
}
1002
{
1000
PINS2
1011
960.2663624467764
1021
1486.396464726001
1031
0.0
1002
}
1002
{
1000
C
1070
     1
1002
}
1001
GENIUS_GENODEF_13
1002
{
1000
HIER
1070
     0
1002
}
1002
{
1000
MANEDIT
1070
     0
1002
}
1002
{
1000
NOSEL
1070
     0
1002
}
1002
{
1000
BEHIND
1070
     0
1002
}
1002
{
1000
OTHER
1070
     0
1002
}
1002
{
1000
REACTOR
1002
}
1001
GENIUS_GENOBJ-N-REC_13
1002
{
1000
OWNER
1000
GEN
1002
}
  0
LWPOLYLINE
  5
40DB
330
1F
100
AcDbEntity
  8
LOGO
 62
     4
100
AcDbPolyline
 90
        4
 70
     1
 43
0.0
 10
704.9756251955893
 20
1199.907097485865
 10
960.2663624467764
 20
1199.907097485865
 10
960.2663624467764
 20
1171.111267621611
 10
704.9756251955893
 20
1171.111267621611
1001
GENIUS_GENREC_14
1002
{
1000
PYDIR
1011
704.9756251955893
1021
1171.111267621611
1031
0.0
1002
}
1002
{
1000
PXDIR
1011
960.2663624467764
1021
1199.907097485865
1031
0.0
1002
}
1002
{
1000
PORI
1011
704.9756251955893
1021
1199.907097485865
1031
0.0
1002
}
1002
{
1000
PINS
1011
704.9756251955893
1021
1199.907097485865
1031
0.0
1002
}
1002
{
1000
PINS2
1011
960.2663624467764
1021
1171.111267621611
1031
0.0
1002
}
1002
{
1000
C
1070
     1
1002
}
1001
GENIUS_GENOBJ-N-REC_13
1002
{
1000
OWNER
1000
GEN
1002
}
1001
GENIUS_GENODEF_13
1002
{
1000
HIER
1070
     0
1002
}
1002
{
1000
MANEDIT
1070
     0
1002
}
1002
{
1000
NOSEL
1070
     0
1002
}
1002
{
1000
BEHIND
1070
     0
1002
}
1002
{
1000
OTHER
1070
     0
1002
}
1002
{
1000
REACTOR
1002
}
  0
TEXT
  5
40DC
330
1F
100
AcDbEntity
  8
LOGO
 62
     7
100
AcDbText
 10
769.9947023297279
 20
1187.292134425251
 30
0.0
 40
3.839443981900452
  1
Order example:
 41
0.8
  7
CHINESET
100
AcDbText
  0
TEXT
  5
40DD
330
1F
100
AcDbEntity
  8
LOGO
 62
     7
100
AcDbText
 10
770.6835303309909
 20
1192.697276584747
 30
0.0
 40
5.759165972850677
  1
訂購代號：
  7
CHINESET
100
AcDbText
  0
LINE
  5
40DE
330
1F
100
AcDbEntity
  8
LOGO
 62
     4
100
AcDbLine
 10
768.3264508969468
 20
1171.111267621611
 30
0.0
 11
768.3264508969468
 21
1199.907097485865
 31
0.0
  0
TEXT
  5
40DF
330
1F
100
AcDbEntity
  8
LOGO
  6
Continuous
100
AcDbText
 10
715.3192167225888
 20
1176.768164941747
 30
0.0
 40
4.319374479638009
  1
金器工業股份有限公司
  7
CHINESET
100
AcDbText
  0
TEXT
  5
40E0
330
1F
100
AcDbEntity
  8
LOGO
  6
Continuous
100
AcDbText
 10
707.3853803495929
 20
1172.447944203363
 30
0.0
 40
2.879582986425338
  1
MINDMAN INDUSTRIAL CO., LTD.
 41
0.85
  7
CHINESET
100
AcDbText
  0
LINE
  5
40E1
330
1F
100
AcDbEntity
  8
LOGO
 62
     4
100
AcDbLine
 10
768.3264508969468
 20
1194.147931513014
 30
0.0
 11
726.0925670960416
 21
1194.147931513014
 31
0.0
  0
LINE
  5
40E2
330
1F
100
AcDbEntity
  8
LOGO
 62
     4
100
AcDbLine
 10
768.3264508969468
 20
1188.388765540163
 30
0.0
 11
726.0925670960416
 21
1188.388765540163
 31
0.0
  0
LINE
  5
40E3
330
1F
100
AcDbEntity
  8
LOGO
 62
     4
100
AcDbLine
 10
768.3264508969468
 20
1182.629599567313
 30
0.0
 11
704.9756251955893
 21
1182.629599567313
 31
0.0
  0
LINE
  5
40E4
330
1F
100
AcDbEntity
  8
LOGO
 62
     4
100
AcDbLine
 10
726.0925670960416
 20
1182.629599567313
 30
0.0
 11
726.0925670960416
 21
1199.907097485865
 31
0.0
  0
TEXT
  5
40E5
330
1F
100
AcDbEntity
  8
LOGO
100
AcDbText
 10
754.9574332650085
 20
1184.069391060525
 30
0.0
 40
2.879582986425338
  1
mm
  7
CHINESET
 72
     1
 11
758.5226312482017
 21
1185.509182553737
 31
0.0
100
AcDbText
 73
     2
  0
TEXT
  5
40E6
330
1F
100
AcDbEntity
  8
LOGO
100
AcDbText
 10
753.4490802721189
 20
1195.587723006226
 30
0.0
 40
2.879582986425338
  1
1 : 1
  7
CHINESET
 72
     1
 11
758.5226312482017
 21
1197.027514499439
 31
0.0
100
AcDbText
 73
     2
  0
LINE
  5
40E7
330
1F
100
AcDbEntity
  8
LOGO
 62
     4
100
AcDbLine
 10
749.1292309874445
 20
1182.629599567313
 30
0.0
 11
749.1292309874445
 21
1199.907097485865
 31
0.0
  0
TEXT
  5
40E8
330
1F
100
AcDbEntity
  8
LOGO
100
AcDbText
 10
728.4669375317236
 20
1195.589140123838
 30
188.7231250944717
 40
2.879582986425338
  1
比例 Scale:
 41
0.9
  7
CHINESET
 72
     4
 11
737.6108990417431
 21
1197.027514499439
 31
188.7231250944717
100
AcDbText
  0
TEXT
  5
40E9
330
1F
100
AcDbEntity
  8
LOGO
100
AcDbText
 10
728.3011044043804
 20
1189.869062978436
 30
188.7231250944717
 40
2.879582986425338
  1
投影  View:
 41
0.9
  7
CHINESET
 72
     4
 11
737.6108990417431
 21
1191.268348526588
 31
188.7231250944717
100
AcDbText
  0
TEXT
  5
40EA
330
1F
100
AcDbEntity
  8
LOGO
100
AcDbText
 10
728.5826350624282
 20
1184.069391060525
 30
188.7231250944717
 40
2.879582986425338
  1
單位  Unit:
 41
0.9
  7
CHINESET
 72
     4
 11
737.6108990417431
 21
1185.509182553737
 31
188.7231250944717
100
AcDbText
  0
SOLID
  5
40EB
330
1F
100
AcDbEntity
  8
LOGO
 62
     5
100
AcDbTrace
 10
707.9632387577973
 20
1187.416496405883
 30
0.0
 11
709.2082948808701
 21
1187.416496405882
 31
0.0
 12
714.4031842219665
 22
1199.223063090193
 32
0.0
 13
715.6482403450398
 23
1199.223063090192
 33
0.0
  0
SOLID
  5
40EC
330
1F
100
AcDbEntity
  8
LOGO
 62
     5
100
AcDbTrace
 10
709.7234905180049
 20
1187.416496405883
 30
0.0
 11
710.9685466410776
 21
1187.416496405883
 31
0.0
 12
715.6482403450398
 22
1198.278537755448
 32
0.0
 13
714.4031842219665
 23
1193.713331970847
 33
0.0
  0
SOLID
  5
40ED
330
1F
100
AcDbEntity
  8
LOGO
 62
     2
100
AcDbTrace
 10
709.2082948808701
 20
1187.416496405882
 30
0.0
 11
709.7234905180049
 21
1187.416496405883
 31
0.0
 12
715.6482403450398
 22
1199.223063090192
 32
0.0
 13
716.163435982174
 23
1199.223063090192
 33
0.0
  0
SOLID
  5
40EE
330
1F
100
AcDbEntity
  8
LOGO
 62
     5
100
AcDbTrace
 10
705.9671084673501
 20
1183.12319942977
 30
0.0
 11
706.3964381649618
 21
1183.12319942977
 31
0.0
 12
707.6054640097883
 22
1185.269847917826
 32
0.0
 13
708.0347937073988
 23
1185.269847917826
 33
0.0
  0
SOLID
  5
40EF
330
1F
100
AcDbEntity
  8
LOGO
 62
     5
100
AcDbTrace
 10
707.6054640097883
 20
1185.269847917826
 30
0.0
 11
708.0347937073988
 21
1185.269847917826
 31
0.0
 12
707.6054640097883
 22
1183.12319942977
 32
0.0
 13
708.0347937073988
 23
1183.12319942977
 33
0.0
  0
SOLID
  5
40F0
330
1F
100
AcDbEntity
  8
LOGO
 62
     5
100
AcDbTrace
 10
707.6054640097883
 20
1183.12319942977
 30
0.0
 11
708.0347937073988
 21
1183.12319942977
 31
0.0
 12
709.2438195522272
 22
1185.269847917826
 32
0.0
 13
709.6731492498382
 23
1185.269847917826
 33
0.0
  0
SOLID
  5
40F1
330
1F
100
AcDbEntity
  8
LOGO
 62
     5
100
AcDbTrace
 10
709.2438195522272
 20
1185.269847917826
 30
0.0
 11
709.6731492498382
 21
1185.269847917826
 31
0.0
 12
709.2438195522272
 22
1183.12319942977
 32
0.0
 13
709.6731492498382
 23
1183.12319942977
 33
0.0
  0
POLYLINE
  5
40F2
330
1F
100
AcDbEntity
  8
LOGO
 62
     5
100
AcDb2dPolyline
 66
     1
 10
0.0
 20
0.0
 30
0.0
 40
0.4300177259728505
 41
0.4300177259728505
  0
VERTEX
  5
40F3
330
40F2
100
AcDbEntity
  8
LOGO
 62
     5
100
AcDbVertex
100
AcDb2dVertex
 10
723.6348047631528
 20
1184.411188522604
 30
0.0
 42
1.0
  0
VERTEX
  5
40F4
330
40F2
100
AcDbEntity
  8
LOGO
 62
     5
100
AcDbVertex
100
AcDb2dVertex
 10
722.344751585234
 20
1184.411188522604
 30
0.0
 42
1.0
  0
SEQEND
  5
40F5
330
40F2
100
AcDbEntity
  8
LOGO
 62
     5
  0
POLYLINE
  5
40F6
330
1F
100
AcDbEntity
  8
LOGO
 62
     5
100
AcDb2dPolyline
 66
     1
 10
0.0
 20
0.0
 30
0.0
 70
     1
  0
VERTEX
  5
40F7
330
40F6
100
AcDbEntity
  8
LOGO
 62
     5
100
AcDbVertex
100
AcDb2dVertex
 10
719.9129439632915
 20
1184.196523673797
 30
0.0
 42
1.000000057330635
  0
VERTEX
  5
40F8
330
40F6
100
AcDbEntity
  8
LOGO
 62
     5
100
AcDbVertex
100
AcDb2dVertex
 10
721.2009330561254
 20
1184.196523673797
 30
0.0
 42
1.000000057330635
  0
SEQEND
  5
40F9
330
40F6
100
AcDbEntity
  8
LOGO
 62
     5
  0
CIRCLE
  5
40FA
330
1F
100
AcDbEntity
  8
LOGO
 62
     5
100
AcDbCircle
 10
720.5569385097094
 20
1184.196523673797
 30
0.0
 40
0.6439945464169412
  0
POLYLINE
  5
40FB
330
1F
100
AcDbEntity
  8
LOGO
 62
     5
100
AcDb2dPolyline
 66
     1
 10
0.0
 20
0.0
 30
0.0
 70
     1
 40
0.4300177259728505
 41
0.4300177259728505
  0
VERTEX
  5
40FC
330
40FB
100
AcDbEntity
  8
LOGO
 62
     5
100
AcDbVertex
100
AcDb2dVertex
 10
719.6969030577632
 20
1184.196523673797
 30
0.0
 42
1.0
  0
VERTEX
  5
40FD
330
40FB
100
AcDbEntity
  8
LOGO
 62
     5
100
AcDbVertex
100
AcDb2dVertex
 10
721.4169739616544
 20
1184.196523673797
 30
0.0
 42
1.0
  0
SEQEND
  5
40FE
330
40FB
100
AcDbEntity
  8
LOGO
 62
     5
  0
LINE
  5
40FF
330
1F
100
AcDbEntity
  8
LOGO
100
AcDbLine
 10
723.8484375694152
 20
1183.12319942977
 30
0.0
 11
723.8484375694152
 21
1184.411188522604
 31
0.0
  0
SOLID
  5
4100
330
1F
100
AcDbEntity
  8
LOGO
 62
     5
100
AcDbTrace
 10
721.2008901231574
 20
1185.269847917826
 30
0.0
 11
721.630219820768
 21
1185.269847917826
 31
0.0
 12
721.2008901231574
 22
1183.12319942977
 32
0.0
 13
721.630219820768
 23
1183.12319942977
 33
0.0
  0
SOLID
  5
4101
330
1F
100
AcDbEntity
  8
LOGO
 62
     5
100
AcDbTrace
 10
722.1311187789702
 20
1183.12319942977
 30
0.0
 11
722.560448476582
 21
1183.12319942977
 31
0.0
 12
722.1311187789702
 22
1185.269847917826
 32
0.0
 13
722.560448476582
 23
1185.269847917826
 33
0.0
  0
SOLID
  5
4102
330
1F
100
AcDbEntity
  8
LOGO
 62
     5
100
AcDbTrace
 10
723.4191078718048
 20
1184.411188522604
 30
0.0
 11
723.8484375694152
 21
1184.411188522604
 31
0.0
 12
723.4191078718048
 22
1183.12319942977
 32
0.0
 13
723.8484375694152
 23
1183.12319942977
 33
0.0
  0
SOLID
  5
4103
330
1F
100
AcDbEntity
  8
LOGO
 62
     5
100
AcDbTrace
 10
722.088185809209
 20
1198.278537755448
 30
0.0
 11
720.8431296861369
 21
1193.713331970847
 31
0.0
 12
722.088185809209
 22
1187.416496405882
 32
0.0
 13
720.8431296861369
 23
1187.416496405882
 33
0.0
  0
SOLID
  5
4104
330
1F
100
AcDbEntity
  8
LOGO
 62
     5
100
AcDbTrace
 10
722.6033814463431
 20
1187.416496405882
 30
0.0
 11
723.8484375694152
 21
1187.416496405882
 31
0.0
 12
722.6033814463431
 22
1199.223063090192
 32
0.0
 13
723.8484375694152
 23
1199.223063090193
 33
0.0
  0
SOLID
  5
4105
330
1F
100
AcDbEntity
  8
LOGO
 62
     2
100
AcDbTrace
 10
722.088185809209
 20
1199.223063090193
 30
0.0
 11
722.6033814463431
 21
1199.223063090192
 31
0.0
 12
722.088185809209
 22
1187.416496405882
 32
0.0
 13
722.6033814463431
 23
1187.416496405882
 33
0.0
  0
POLYLINE
  5
4106
330
1F
100
AcDbEntity
  8
LOGO
 62
     5
100
AcDb2dPolyline
 66
     1
 10
0.0
 20
0.0
 30
0.0
 40
0.4300177259728505
 41
0.4300177259728505
  0
VERTEX
  5
4107
330
4106
100
AcDbEntity
  8
LOGO
 62
     5
100
AcDbVertex
100
AcDb2dVertex
 10
717.4810504754112
 20
1184.411188522604
 30
0.0
 42
1.0
  0
VERTEX
  5
4108
330
4106
100
AcDbEntity
  8
LOGO
 62
     5
100
AcDbVertex
100
AcDb2dVertex
 10
716.1909972974923
 20
1184.411188522604
 30
0.0
 42
1.0
  0
SEQEND
  5
4109
330
4106
100
AcDbEntity
  8
LOGO
 62
     5
  0
POLYLINE
  5
410A
330
1F
100
AcDbEntity
  8
LOGO
 62
     5
100
AcDb2dPolyline
 66
     1
 10
0.0
 20
0.0
 30
0.0
 40
0.4300177259728505
 41
0.4300177259728505
  0
VERTEX
  5
410B
330
410A
100
AcDbEntity
  8
LOGO
 62
     5
100
AcDbVertex
100
AcDb2dVertex
 10
718.7690395682438
 20
1184.411188522604
 30
0.0
 42
1.0
  0
VERTEX
  5
410C
330
410A
100
AcDbEntity
  8
LOGO
 62
     5
100
AcDbVertex
100
AcDb2dVertex
 10
717.4789863903257
 20
1184.411188522604
 30
0.0
 42
1.0
  0
SEQEND
  5
410D
330
410A
100
AcDbEntity
  8
LOGO
 62
     5
  0
POLYLINE
  5
410E
330
1F
100
AcDbEntity
  8
LOGO
 62
     5
100
AcDb2dPolyline
 66
     1
 10
0.0
 20
0.0
 30
0.0
 40
0.4300177259728505
 41
0.4300177259728505
  0
VERTEX
  5
410F
330
410E
100
AcDbEntity
  8
LOGO
 62
     5
100
AcDbVertex
100
AcDb2dVertex
 10
712.6152852805023
 20
1184.411188522604
 30
0.0
 42
1.0
  0
VERTEX
  5
4110
330
410E
100
AcDbEntity
  8
LOGO
 62
     5
100
AcDbVertex
100
AcDb2dVertex
 10
711.325232102584
 20
1184.411188522604
 30
0.0
 42
1.0
  0
SEQEND
  5
4111
330
410E
100
AcDbEntity
  8
LOGO
 62
     5
  0
SOLID
  5
4112
330
1F
100
AcDbEntity
  8
LOGO
 62
     5
100
AcDbTrace
 10
711.1115992963209
 20
1185.269847917826
 30
0.0
 11
711.5409289939314
 21
1185.269847917826
 31
0.0
 12
711.1115992963209
 22
1183.12319942977
 32
0.0
 13
711.5409289939314
 23
1183.12319942977
 33
0.0
  0
SOLID
  5
4113
330
1F
100
AcDbEntity
  8
LOGO
 62
     5
100
AcDbTrace
 10
712.3995883891549
 20
1184.411188522604
 30
0.0
 11
712.8289180867666
 21
1184.411188522604
 31
0.0
 12
712.3995883891549
 22
1183.12319942977
 32
0.0
 13
712.8289180867666
 23
1183.12319942977
 33
0.0
  0
POLYLINE
  5
4114
330
1F
100
AcDbEntity
  8
LOGO
 62
     5
100
AcDb2dPolyline
 66
     1
 10
0.0
 20
0.0
 30
0.0
 70
     1
 40
0.4300177259728505
 41
0.4300177259728505
  0
VERTEX
  5
4115
330
4114
100
AcDbEntity
  8
LOGO
 62
     5
100
AcDbVertex
100
AcDb2dVertex
 10
713.5431487700208
 20
1184.196523673797
 30
0.0
 42
1.0
  0
VERTEX
  5
4116
330
4114
100
AcDbEntity
  8
LOGO
 62
     5
100
AcDbVertex
100
AcDb2dVertex
 10
715.2632196739127
 20
1184.196523673797
 30
0.0
 42
1.0
  0
SEQEND
  5
4117
330
4114
100
AcDbEntity
  8
LOGO
 62
     5
  0
SOLID
  5
4118
330
1F
100
AcDbEntity
  8
LOGO
 62
     5
100
AcDbTrace
 10
715.0471358354146
 20
1185.913842464243
 30
0.0
 11
715.4764655330256
 21
1185.913842464243
 31
0.0
 12
715.0471358354146
 22
1183.12319942977
 32
0.0
 13
715.4764655330256
 23
1183.12319942977
 33
0.0
  0
SOLID
  5
4119
330
1F
100
AcDbEntity
  8
LOGO
 62
     5
100
AcDbTrace
 10
715.9773644912299
 20
1185.269847917826
 30
0.0
 11
716.4066941888404
 21
1185.269847917826
 31
0.0
 12
715.9773644912299
 22
1183.12319942977
 32
0.0
 13
716.4066941888404
 23
1183.12319942977
 33
0.0
  0
SOLID
  5
411A
330
1F
100
AcDbEntity
  8
LOGO
 62
     5
100
AcDbTrace
 10
717.2653535840626
 20
1184.411188522604
 30
0.0
 11
717.6946832816743
 21
1184.411188522604
 31
0.0
 12
717.2653535840626
 22
1183.12319942977
 32
0.0
 13
717.6946832816743
 23
1183.12319942977
 33
0.0
  0
SOLID
  5
411B
330
1F
100
AcDbEntity
  8
LOGO
 62
     5
100
AcDbTrace
 10
718.5533426768966
 20
1184.411188522604
 30
0.0
 11
718.9826723745076
 21
1184.411188522604
 31
0.0
 12
718.5533426768966
 22
1183.123199429769
 32
0.0
 13
718.9826723745076
 23
1183.123199429769
 33
0.0
  0
SOLID
  5
411C
330
1F
100
AcDbEntity
  8
LOGO
 62
     5
100
AcDbTrace
 10
710.1813706405063
 20
1185.570378706154
 30
0.0
 11
710.6107003381187
 21
1185.570378706154
 31
0.0
 12
710.1813706405063
 22
1185.913842464243
 32
0.0
 13
710.6107003381187
 23
1185.913842464243
 33
0.0
  0
SOLID
  5
411D
330
1F
100
AcDbEntity
  8
LOGO
 62
     5
100
AcDbTrace
 10
710.1813706405063
 20
1185.269847917826
 30
0.0
 11
710.6107003381187
 21
1185.269847917826
 31
0.0
 12
710.1813706405063
 22
1183.123199429769
 32
0.0
 13
710.6107003381187
 23
1183.12319942977
 33
0.0
  0
SOLID
  5
411E
330
1F
100
AcDbEntity
  8
LOGO
 62
     5
100
AcDbTrace
 10
714.4031842219665
 20
1187.416496405883
 30
0.0
 11
715.6482403450398
 21
1187.416496405883
 31
0.0
 12
714.4031842219665
 22
1193.713331970847
 32
0.0
 13
715.6482403450398
 23
1198.278537755448
 33
0.0
  0
SOLID
  5
411F
330
1F
100
AcDbEntity
  8
LOGO
 62
     5
100
AcDbTrace
 10
716.163435982174
 20
1199.223063090192
 30
0.0
 11
717.4084921052461
 21
1199.223063090193
 31
0.0
 12
716.163435982174
 22
1188.361021740627
 32
0.0
 13
717.4084921052461
 23
1192.926227525227
 33
0.0
  0
SOLID
  5
4120
330
1F
100
AcDbEntity
  8
LOGO
 62
     2
100
AcDbTrace
 10
715.6482403450398
 20
1199.223063090192
 30
0.0
 11
716.163435982174
 21
1199.223063090192
 31
0.0
 12
715.6482403450398
 22
1187.416496405883
 32
0.0
 13
716.163435982174
 23
1187.416496405883
 33
0.0
  0
SOLID
  5
4121
330
1F
100
AcDbEntity
  8
LOGO
 62
     5
100
AcDbTrace
 10
716.163435982174
 20
1188.361021740627
 30
0.0
 11
717.4084921052461
 21
1192.926227525227
 31
0.0
 12
722.088185809209
 22
1199.223063090193
 32
0.0
 13
720.8431296861369
 23
1199.223063090193
 33
0.0
  0
SOLID
  5
4122
330
1F
100
AcDbEntity
  8
LOGO
 62
     5
100
AcDbTrace
 10
716.163435982174
 20
1187.416496405883
 30
0.0
 11
717.4084921052461
 21
1187.416496405883
 31
0.0
 12
722.088185809209
 22
1198.278537755448
 32
0.0
 13
720.8431296861369
 23
1193.713331970847
 33
0.0
  0
SOLID
  5
4123
330
1F
100
AcDbEntity
  8
LOGO
 62
     2
100
AcDbTrace
 10
715.6482403450398
 20
1187.416496405883
 30
0.0
 11
716.163435982174
 21
1187.416496405883
 31
0.0
 12
722.088185809209
 22
1199.223063090193
 32
0.0
 13
722.6033814463431
 23
1199.223063090192
 33
0.0
  0
LINE
  5
4124
330
1F
100
AcDbEntity
  8
LOGO
 62
     4
100
AcDbLine
 10
821.5896628073457
 20
1184.069391060526
 30
0.0
 11
821.5896628073457
 21
1173.510920110298
 31
0.0
  0
LINE
  5
4125
330
1F
100
AcDbEntity
  8
LOGO
 62
     4
100
AcDbLine
 10
807.9338368514191
 20
1184.069391060526
 30
0.0
 11
807.9338368514191
 21
1173.510920110298
 31
0.0
  0
LINE
  5
4126
330
1F
100
AcDbEntity
  8
LOGO
 62
     4
100
AcDbLine
 10
821.5896628073457
 20
1173.510920110298
 30
0.0
 11
807.9338368514191
 21
1173.510920110298
 31
0.0
  0
LINE
  5
4127
330
1F
100
AcDbEntity
  8
LOGO
 62
     4
100
AcDbLine
 10
830.7802995007881
 20
1197.027514499439
 30
0.0
 11
807.9338368514191
 21
1197.027514499439
 31
0.0
  0
LINE
  5
4128
330
1F
100
AcDbEntity
  8
LOGO
 62
     4
100
AcDbLine
 10
830.7802995007881
 20
1188.388765540163
 30
0.0
 11
807.9338368514191
 21
1188.388765540163
 31
0.0
  0
LINE
  5
4129
330
1F
100
AcDbEntity
  8
LOGO
 62
     4
100
AcDbLine
 10
807.9338368514191
 20
1197.027514499439
 30
0.0
 11
807.9338368514191
 21
1188.388765540163
 31
0.0
  0
LINE
  5
412A
330
1F
100
AcDbEntity
  8
LOGO
 62
     4
100
AcDbLine
 10
830.7802995007881
 20
1197.027514499439
 30
0.0
 11
830.7802995007881
 21
1188.388765540163
 31
0.0
  0
LINE
  5
412B
330
1F
100
AcDbEntity
  8
LOGO
 62
     4
100
AcDbLine
 10
818.5340595108305
 20
1188.388765540163
 30
0.0
 11
818.5340595108305
 21
1184.069391060526
 31
0.0
  0
TEXT
  5
412C
330
1F
100
AcDbEntity
  8
LOGO
  6
Continuous
 62
     7
100
AcDbText
 10
809.4688072465423
 20
1190.192091755562
 30
0.0
 40
5.04
  1
MVAA
  7
CHINESET
100
AcDbText
  0
LINE
  5
412D
330
1F
100
AcDbEntity
  8
LOGO
 62
     4
100
AcDbLine
 10
821.5896628073457
 20
1184.069391060526
 30
0.0
 11
807.9338368514191
 21
1184.069391060526
 31
0.0
  0
TEXT
  5
412E
330
1F
100
AcDbEntity
  8
LOGO
  6
Continuous
100
AcDbText
 10
810.4159647169444
 20
1175.001225895165
 30
188.7231250944717
 40
2.159999999999999
  1
Model
 41
0.8
  7
CHINESET
100
AcDbText
  0
TEXT
  5
412F
330
1F
100
AcDbEntity
  8
LOGO
100
AcDbText
 10
809.8410429342258
 20
1179.005400381941
 30
188.7231250944717
 40
3.599999999999999
  1
型號
  7
CHINESET
100
AcDbText
  0
LINE
  5
4130
330
1F
100
AcDbEntity
  8
LOGO
  6
Continuous
 62
     7
100
AcDbLine
 10
831.6986699134362
 20
1192.677540205742
 30
0.0
 11
835.5132262399092
 21
1192.677540205742
 31
0.0
  0
LINE
  5
4131
330
1F
100
AcDbEntity
  8
LOGO
 62
     4
100
AcDbLine
 10
841.330475695881
 20
1184.069391060526
 30
0.0
 11
841.330475695881
 21
1173.510920110298
 31
0.0
  0
LINE
  5
4132
330
1F
100
AcDbEntity
  8
LOGO
 62
     4
100
AcDbLine
 10
823.8393039271731
 20
1184.069391060526
 30
0.0
 11
823.8393039271731
 21
1173.510920110298
 31
0.0
  0
LINE
  5
4133
330
1F
100
AcDbEntity
  8
LOGO
 62
     4
100
AcDbLine
 10
841.330475695881
 20
1173.510920110298
 30
0.0
 11
823.8393039271731
 21
1173.510920110298
 31
0.0
  0
LINE
  5
4134
330
1F
100
AcDbEntity
  8
LOGO
 62
     4
100
AcDbLine
 10
852.1951102539521
 20
1197.027514499439
 30
0.0
 11
836.7165176836476
 21
1197.027514499439
 31
0.0
  0
LINE
  5
4135
330
1F
100
AcDbEntity
  8
LOGO
 62
     4
100
AcDbLine
 10
852.1951102539521
 20
1188.388765540163
 30
0.0
 11
836.7165176836476
 21
1188.388765540163
 31
0.0
  0
LINE
  5
4136
330
1F
100
AcDbEntity
  8
LOGO
 62
     4
100
AcDbLine
 10
836.7165176836476
 20
1197.027514499439
 30
0.0
 11
836.7165176836476
 21
1188.388765540163
 31
0.0
  0
LINE
  5
4137
330
1F
100
AcDbEntity
  8
LOGO
 62
     4
100
AcDbLine
 10
852.1951102539521
 20
1197.027514499439
 30
0.0
 11
852.1951102539521
 21
1188.388765540163
 31
0.0
  0
LINE
  5
4138
330
1F
100
AcDbEntity
  8
LOGO
 62
     4
100
AcDbLine
 10
841.8976018369399
 20
1188.388765540163
 30
0.0
 11
841.8976018369399
 21
1186.229078300344
 31
0.0
  0
TEXT
  5
4139
330
1F
100
AcDbEntity
  8
LOGO
  6
Continuous
 62
     7
100
AcDbText
 10
838.1208052506147
 20
1190.192091755562
 30
0.0
 40
5.04
  1
300
  7
CHINESET
100
AcDbText
  0
LINE
  5
413A
330
1F
100
AcDbEntity
  8
LOGO
 62
     4
100
AcDbLine
 10
841.330475695881
 20
1184.069391060526
 30
0.0
 11
823.8393039271731
 21
1184.069391060526
 31
0.0
  0
LINE
  5
413B
330
1F
100
AcDbEntity
  8
LOGO
  6
Continuous
 62
     7
100
AcDbLine
 10
852.9200603702408
 20
1192.677540205742
 30
0.0
 11
856.7346166967139
 21
1192.677540205742
 31
0.0
  0
LINE
  5
413C
330
1F
100
AcDbEntity
  8
LOGO
 62
     4
100
AcDbLine
 10
858.0933125199038
 20
1184.069391060526
 30
0.0
 11
858.0933125199038
 21
1173.510920110298
 31
0.0
  0
LINE
  5
413D
330
1F
100
AcDbEntity
  8
LOGO
 62
     4
100
AcDbLine
 10
843.6728468837953
 20
1184.069391060526
 30
0.0
 11
843.6728468837953
 21
1173.510920110298
 31
0.0
  0
LINE
  5
413E
330
1F
100
AcDbEntity
  8
LOGO
 62
     4
100
AcDbLine
 10
858.0933125199038
 20
1173.510920110298
 30
0.0
 11
843.6728468837953
 21
1173.510920110298
 31
0.0
  0
LINE
  5
413F
330
1F
100
AcDbEntity
  8
LOGO
 62
     4
100
AcDbLine
 10
864.0704108586184
 20
1197.027514499439
 30
0.0
 11
857.9379081404523
 21
1197.027514499439
 31
0.0
  0
LINE
  5
4140
330
1F
100
AcDbEntity
  8
LOGO
 62
     4
100
AcDbLine
 10
864.0704108586184
 20
1188.388765540163
 30
0.0
 11
857.9379081404523
 21
1188.388765540163
 31
0.0
  0
LINE
  5
4141
330
1F
100
AcDbEntity
  8
LOGO
 62
     4
100
AcDbLine
 10
857.9379081404523
 20
1197.027514499439
 30
0.0
 11
857.9379081404523
 21
1188.388765540163
 31
0.0
  0
LINE
  5
4142
330
1F
100
AcDbEntity
  8
LOGO
 62
     4
100
AcDbLine
 10
864.0704108586184
 20
1197.027514499439
 30
0.0
 11
864.0704108586184
 21
1188.388765540163
 31
0.0
  0
LINE
  5
4143
330
1F
100
AcDbEntity
  8
LOGO
 62
     4
100
AcDbLine
 10
861.0041594995353
 20
1188.388765540163
 30
0.0
 11
861.0041594995353
 21
1186.229078300344
 31
0.0
  0
TEXT
  5
4144
330
1F
100
AcDbEntity
  8
LOGO
  6
Continuous
 62
     7
100
AcDbText
 10
859.0877025269326
 20
1190.192091755562
 30
0.0
 40
5.04
  1
4
  7
CHINESET
100
AcDbText
  0
LINE
  5
4145
330
1F
100
AcDbEntity
  8
LOGO
 62
     4
100
AcDbLine
 10
858.0933125199038
 20
1184.069391060526
 30
0.0
 11
843.6728468837953
 21
1184.069391060526
 31
0.0
  0
LINE
  5
4146
330
1F
100
AcDbEntity
  8
LOGO
 62
     4
100
AcDbLine
 10
887.6095182338501
 20
1184.069391060526
 30
0.0
 11
887.6095182338501
 21
1173.510920110298
 31
0.0
  0
LINE
  5
4147
330
1F
100
AcDbEntity
  8
LOGO
 62
     4
100
AcDbLine
 10
861.0178386729907
 20
1184.069391060526
 30
0.0
 11
861.0178386729907
 21
1173.510920110298
 31
0.0
  0
LINE
  5
4148
330
1F
100
AcDbEntity
  8
LOGO
 62
     4
100
AcDbLine
 10
887.6095182338501
 20
1173.510920110298
 30
0.0
 11
861.0178386729907
 21
1173.510920110298
 31
0.0
  0
LINE
  5
4149
330
1F
100
AcDbEntity
  8
LOGO
 62
     4
100
AcDbLine
 10
877.15890427238
 20
1197.027514499439
 30
0.0
 11
865.7614302702041
 21
1197.027514499439
 31
0.0
  0
LINE
  5
414A
330
1F
100
AcDbEntity
  8
LOGO
 62
     4
100
AcDbLine
 10
877.15890427238
 20
1188.388765540163
 30
0.0
 11
865.7614302702041
 21
1188.388765540163
 31
0.0
  0
LINE
  5
414B
330
1F
100
AcDbEntity
  8
LOGO
 62
     4
100
AcDbLine
 10
865.7614302702041
 20
1197.027514499439
 30
0.0
 11
865.7614302702041
 21
1188.388765540163
 31
0.0
  0
LINE
  5
414C
330
1F
100
AcDbEntity
  8
LOGO
 62
     4
100
AcDbLine
 10
877.15890427238
 20
1197.027514499439
 30
0.0
 11
877.15890427238
 21
1188.388765540163
 31
0.0
  0
LINE
  5
414D
330
1F
100
AcDbEntity
  8
LOGO
 62
     4
100
AcDbLine
 10
871.4601672712921
 20
1188.388765540163
 30
0.0
 11
871.4601672712921
 21
1184.069391060526
 31
0.0
  0
TEXT
  5
414E
330
1F
100
AcDbEntity
  8
LOGO
  6
Continuous
 62
     7
100
AcDbText
 10
867.8004456066545
 20
1190.192091755562
 30
0.0
 40
5.04
  1
A2
  7
CHINESET
100
AcDbText
  0
LINE
  5
414F
330
1F
100
AcDbEntity
  8
LOGO
 62
     4
100
AcDbLine
 10
887.6095182338501
 20
1184.069391060526
 30
0.0
 11
861.0178386729907
 21
1184.069391060526
 31
0.0
  0
TEXT
  5
4150
330
1F
100
AcDbEntity
  8
LOGO
  6
Continuous
100
AcDbText
 10
825.2116935486444
 20
1175.001225895165
 30
188.7231250944717
 40
2.159999999999999
  1
Body width
 41
0.8
  7
CHINESET
100
AcDbText
  0
TEXT
  5
4151
330
1F
100
AcDbEntity
  8
LOGO
100
AcDbText
 10
825.1913456005322
 20
1179.005400381941
 30
188.7231250944717
 40
3.599999999999999
  1
本體寬度
  7
CHINESET
100
AcDbText
  0
TEXT
  5
4152
330
1F
100
AcDbEntity
  8
LOGO
  6
Continuous
100
AcDbText
 10
846.56319771587
 20
1175.001225895165
 30
188.7231250944717
 40
2.159999999999999
  1
4 Way
 41
0.8
  7
CHINESET
100
AcDbText
  0
TEXT
  5
4153
330
1F
100
AcDbEntity
  8
LOGO
100
AcDbText
 10
845.5870976357712
 20
1179.005400381941
 30
188.7231250944717
 40
3.599999999999999
  1
4方向
  7
CHINESET
100
AcDbText
  0
TEXT
  5
4154
330
1F
100
AcDbEntity
  8
LOGO
  6
Continuous
100
AcDbText
 10
862.5839844772437
 20
1175.001225895165
 30
188.7231250944717
 40
2.159999999999999
  1
Double air operate
 41
0.8
  7
CHINESET
100
AcDbText
  0
TEXT
  5
4155
330
1F
100
AcDbEntity
  8
LOGO
100
AcDbText
 10
862.6691740511139
 20
1179.005400381941
 30
188.7231250944717
 40
3.599999999999999
  1
複動氣壓引導
  7
CHINESET
100
AcDbText
  0
TEXT
  5
4162
330
1F
100
AcDbEntity
  8
LOGO
100
AcDbText
 10
769.2286621483292
 20
1172.643194404858
 30
0.0
 40
2.879999999999999
  1
30906304
 41
0.7
  7
CHINESET
 72
     1
 11
776.6686621483292
 21
1172.643194404858
 31
0.0
100
AcDbText
  0
LINE
  5
4163
330
1F
100
AcDbEntity
  8
LOGO
 62
     4
100
AcDbLine
 10
785.6064508969455
 20
1176.870433594462
 30
0.0
 11
785.6064508969468
 21
1171.111267621611
 31
0.0
  0
LINE
  5
4164
330
1F
100
AcDbEntity
  8
LOGO
 62
     4
100
AcDbLine
 10
785.6064508969455
 20
1176.870433594462
 30
0.0
 11
768.3264508969468
 21
1176.870433594462
 31
0.0
  0
CIRCLE
  5
4165
330
1F
100
AcDbEntity
  8
LOGO
  6
Continuous
100
AcDbCircle
 10
754.4611390593573
 20
1191.274507975669
 30
0.0
 40
1.671953659661709
  0
CIRCLE
  5
4166
330
1F
100
AcDbEntity
  8
LOGO
  6
Continuous
100
AcDbCircle
 10
754.4611390593573
 20
1191.274507975669
 30
0.0
 40
0.9796168348784597
  0
LINE
  5
4167
330
1F
100
AcDbEntity
  8
LOGO
100
AcDbLine
 10
764.96788986197
 20
1189.602554316007
 30
0.0
 11
764.96788986197
 21
1192.946461635331
 31
0.0
  0
LINE
  5
4168
330
1F
100
AcDbEntity
  8
LOGO
100
AcDbLine
 10
759.7264111136502
 20
1190.294891140791
 30
0.0
 11
759.7264111136502
 21
1192.254124810547
 31
0.0
  0
LINE
  5
4169
330
1F
100
AcDbEntity
  8
LOGO
  6
Continuous
100
AcDbLine
 10
759.7264111136502
 20
1192.254124810547
 30
0.0
 11
764.96788986197
 21
1192.946461635331
 31
0.0
  0
LINE
  5
416A
330
1F
100
AcDbEntity
  8
LOGO
  6
Continuous
100
AcDbLine
 10
759.7264111136502
 20
1190.294891140791
 30
0.0
 11
764.96788986197
 21
1189.602554316007
 31
0.0
  0
LINE
  5
416B
330
1F
100
AcDbEntity
  8
LOGO
  6
AM_ISO08W050x2
 48
0.3
100
AcDbLine
 10
752.156325903979
 20
1191.274507975669
 30
0.0
 11
756.7659522147355
 21
1191.274507975669
 31
0.0
1001
GENIUS_GENOREF_13
1005
4185
  0
LINE
  5
416C
330
1F
100
AcDbEntity
  8
LOGO
  6
AM_ISO08W050x2
 48
0.3
100
AcDbLine
 10
754.4611390593573
 20
1188.96969482029
 30
0.0
 11
754.4611390593573
 21
1193.579321131047
 31
0.0
1001
GENIUS_GENOREF_13
1005
4184
  0
LINE
  5
416D
330
1F
100
AcDbEntity
  8
LOGO
  6
CENTER
 48
0.5
100
AcDbLine
 10
759.3072385000048
 20
1191.274507975669
 30
0.0
 11
765.4956898043842
 21
1191.274507975669
 31
0.0
1001
GENIUS_GENOREF_13
1005
4183
  0
LINE
  5
4176
330
1F
100
AcDbEntity
  8
LOGO
 62
     4
100
AcDbLine
 10
841.8976018369399
 20
1186.229078300344
 30
0.0
 11
832.5848898115268
 21
1186.229078300344
 31
0.0
  0
LINE
  5
4177
330
1F
100
AcDbEntity
  8
LOGO
 62
     4
100
AcDbLine
 10
832.5848898115268
 20
1184.069391060526
 30
0.0
 11
832.5848898115268
 21
1186.229078300344
 31
0.0
  0
LINE
  5
4178
330
1F
100
AcDbEntity
  8
LOGO
 62
     4
100
AcDbLine
 10
861.0041594995353
 20
1186.229078300344
 30
0.0
 11
850.88307970185
 21
1186.229078300344
 31
0.0
  0
LINE
  5
4179
330
1F
100
AcDbEntity
  8
LOGO
 62
     4
100
AcDbLine
 10
850.88307970185
 20
1184.069391060526
 30
0.0
 11
850.88307970185
 21
1186.229078300344
 31
0.0
  0
POINT
  5
4183
330
1F
100
AcDbEntity
  8
0
 60
     1
100
AcDbPoint
 10
-1081.480523388607
 20
102.4479428696627
 30
0.0
1001
GENIUS_GENOBJ-N-CRS_13
1002
{
1000
OWNER
1000
GEN
1002
}
1001
GENIUS_GENOLIS_13
1002
{
1000
ENT
1005
0
1005
0
1005
0
1005
416D
1002
}
1001
GENIUS_GENOENT_13
1002
{
1000
MYREF
1005
4183
1002
}
1002
{
1000
GRP
1005
0
1002
}
1001
GENIUS_GENODEF_13
1002
{
1000
HIER
1070
    10
1002
}
1002
{
1000
MANEDIT
1070
     1
1002
}
1002
{
1000
NOSEL
1070
     0
1002
}
1002
{
1000
BEHIND
1070
     0
1002
}
1002
{
1000
OTHER
1070
     0
1002
}
1002
{
1000
REACTOR
1002
}
  0
POINT
  5
4184
330
1F
100
AcDbEntity
  8
0
 60
     1
100
AcDbPoint
 10
-1092.805108611462
 20
111.3235293482989
 30
0.0
1001
GENIUS_GENOBJ-N-CRS_13
1002
{
1000
OWNER
1000
GEN
1002
}
1001
GENIUS_GENOLIS_13
1002
{
1000
ENT
1005
0
1005
0
1005
0
1005
416C
1002
}
1001
GENIUS_GENOENT_13
1002
{
1000
MYREF
1005
4184
1002
}
1002
{
1000
GRP
1005
0
1002
}
1001
GENIUS_GENODEF_13
1002
{
1000
HIER
1070
    10
1002
}
1002
{
1000
MANEDIT
1070
     1
1002
}
1002
{
1000
NOSEL
1070
     0
1002
}
1002
{
1000
BEHIND
1070
     0
1002
}
1002
{
1000
OTHER
1070
     0
1002
}
1002
{
1000
REACTOR
1002
}
  0
POINT
  5
4185
330
1F
100
AcDbEntity
  8
0
 60
     1
100
AcDbPoint
 10
-1086.446434913625
 20
102.4479428696627
 30
0.0
1001
GENIUS_GENOBJ-N-CRS_13
1002
{
1000
OWNER
1000
GEN
1002
}
1001
GENIUS_GENOLIS_13
1002
{
1000
ENT
1005
0
1005
0
1005
0
1005
416B
1002
}
1001
GENIUS_GENOENT_13
1002
{
1000
MYREF
1005
4185
1002
}
1002
{
1000
GRP
1005
0
1002
}
1001
GENIUS_GENODEF_13
1002
{
1000
HIER
1070
    10
1002
}
1002
{
1000
MANEDIT
1070
     1
1002
}
1002
{
1000
NOSEL
1070
     0
1002
}
1002
{
1000
BEHIND
1070
     0
1002
}
1002
{
1000
OTHER
1070
     0
1002
}
1002
{
1000
REACTOR
1002
}
  0
LINE
  5
43FE
330
1F
100
AcDbEntity
  8
AM_7
100
AcDbLine
 10
946.7973942365219
 20
1317.390224409773
 30
0.0
 11
946.7973942365219
 21
1317.390224409773
 31
0.0
  0
LINE
  5
43FF
330
1F
100
AcDbEntity
  8
AM_7
100
AcDbLine
 10
946.7973942365219
 20
1317.390224409773
 30
0.0
 11
946.7973942365219
 21
1317.390224409773
 31
0.0
  0
LINE
  5
4400
330
1F
100
AcDbEntity
  8
AM_7
100
AcDbLine
 10
928.297394236522
 20
1354.390224409773
 30
0.0
 11
928.297394236522
 21
1354.390224409773
 31
0.0
  0
LINE
  5
4401
330
1F
100
AcDbEntity
  8
AM_7
100
AcDbLine
 10
928.297394236522
 20
1354.390224409773
 30
0.0
 11
928.297394236522
 21
1354.390224409773
 31
0.0
  0
ARC
  5
4402
330
1F
100
AcDbEntity
  8
AM_4
100
AcDbCircle
 10
935.7973942365219
 20
1330.190224409773
 30
0.0
 40
4.849999999999999
100
AcDbArc
 50
260.000000000009
 51
190.0000000000061
  0
LINE
  5
4403
330
1F
100
AcDbEntity
  8
AM_VIS
100
AcDbLine
 10
853.3754927843462
 20
1313.341363266541
 30
0.0
 11
853.3754927843462
 21
1359.439085553005
 31
0.0
  0
LINE
  5
4404
330
1F
100
AcDbEntity
  8
AM_VIS
100
AcDbLine
 10
853.3754927843462
 20
1313.190224409773
 30
0.0
 11
779.3754927843463
 21
1313.190224409773
 31
0.0
  0
LINE
  5
4405
330
1F
100
AcDbEntity
  8
AM_VIS
100
AcDbLine
 10
779.3754927843463
 20
1359.590224409773
 30
0.0
 11
853.3754927843462
 21
1359.590224409773
 31
0.0
  0
LINE
  5
4409
330
1F
100
AcDbEntity
  8
AM_VIS
100
AcDbLine
 10
853.3754927843462
 20
1359.590224409773
 30
0.0
 11
877.3754927843462
 21
1359.590224409773
 31
0.0
  0
LINE
  5
440A
330
1F
100
AcDbEntity
  8
AM_VIS
100
AcDbLine
 10
853.3754927843462
 20
1313.190224409773
 30
0.0
 11
877.3754927843462
 21
1313.190224409773
 31
0.0
  0
LINE
  5
440B
102
{ACAD_REACTORS
330
44D9
330
44DC
102
}
330
1F
100
AcDbEntity
  8
AM_VIS
100
AcDbLine
 10
877.3754927843462
 20
1313.190224409773
 30
0.0
 11
877.3754927843462
 21
1359.590224409773
 31
0.0
  0
LINE
  5
440C
330
1F
100
AcDbEntity
  8
AM_VIS
100
AcDbLine
 10
853.3754927843462
 20
1359.590224409773
 30
0.0
 11
853.3754927843462
 21
1313.190224409773
 31
0.0
  0
LINE
  5
4415
330
1F
100
AcDbEntity
  8
AM_VIS
100
AcDbLine
 10
779.3754927843463
 20
1423.028553622058
 30
0.0
 11
779.3754927843463
 21
1393.263391922977
 31
0.0
  0
LINE
  5
4416
330
1F
100
AcDbEntity
  8
AM_VIS
100
AcDbLine
 10
853.3754927843462
 20
1393.263391922977
 30
0.0
 11
853.3754927843462
 21
1422.793715321138
 31
0.0
  0
LINE
  5
4417
330
1F
100
AcDbEntity
  8
AM_VIS
100
AcDbLine
 10
853.3754927843462
 20
1393.028553622058
 30
0.0
 11
779.3754927843463
 21
1393.028553622058
 31
0.0
  0
LINE
  5
4418
330
1F
100
AcDbEntity
  8
AM_VIS
100
AcDbLine
 10
779.3754927843463
 20
1423.028553622058
 30
0.0
 11
853.3754927843462
 21
1423.028553622058
 31
0.0
  0
LINE
  5
441B
330
1F
100
AcDbEntity
  8
AM_VIS
100
AcDbLine
 10
779.3754927843463
 20
1393.263391922977
 30
0.0
 11
779.3754927843463
 21
1393.028553622058
 31
0.0
  0
LINE
  5
441C
330
1F
100
AcDbEntity
  8
AM_VIS
100
AcDbLine
 10
853.3754927843462
 20
1393.028553622058
 30
0.0
 11
877.3754927843462
 21
1393.028553622058
 31
0.0
  0
LINE
  5
441D
330
1F
100
AcDbEntity
  8
AM_VIS
100
AcDbLine
 10
853.3754927843462
 20
1423.028553622058
 30
0.0
 11
877.3754927843462
 21
1423.028553622058
 31
0.0
  0
LINE
  5
441E
330
1F
100
AcDbEntity
  8
AM_VIS
100
AcDbLine
 10
877.3754927843462
 20
1393.028553622058
 30
0.0
 11
877.3754927843462
 21
1423.028553622058
 31
0.0
  0
LINE
  5
441F
330
1F
100
AcDbEntity
  8
AM_VIS
100
AcDbLine
 10
853.3754927843462
 20
1423.028553622058
 30
0.0
 11
853.3754927843462
 21
1393.028553622058
 31
0.0
  0
LINE
  5
4420
330
1F
100
AcDbEntity
  8
AM_VIS
100
AcDbLine
 10
779.3754927843463
 20
1422.028553622058
 30
0.0
 11
779.3754927843463
 21
1394.028553622058
 31
0.0
  0
LINE
  5
4421
330
1F
100
AcDbEntity
  8
AM_VIS
100
AcDbLine
 10
853.3754927843462
 20
1241.327504334806
 30
0.0
 11
853.3754927843462
 21
1270.857827732968
 31
0.0
  0
LINE
  5
4422
330
1F
100
AcDbEntity
  8
AM_VIS
100
AcDbLine
 10
779.3754927843463
 20
1270.857827732968
 30
0.0
 11
779.3754927843463
 21
1241.327504334806
 31
0.0
  0
LINE
  5
442F
330
1F
100
AcDbEntity
  8
AM_VIS
100
AcDbLine
 10
779.3754927843463
 20
1271.092666033887
 30
0.0
 11
853.3754927843462
 21
1271.092666033887
 31
0.0
  0
LINE
  5
4430
330
1F
100
AcDbEntity
  8
AM_VIS
100
AcDbLine
 10
853.3754927843462
 20
1241.092666033887
 30
0.0
 11
779.3754927843463
 21
1241.092666033887
 31
0.0
  0
CIRCLE
  5
4431
330
1F
100
AcDbEntity
  8
AM_VIS
100
AcDbCircle
 10
822.8754927843462
 20
1267.592666033887
 30
0.0
 40
2.25
  0
CIRCLE
  5
4432
330
1F
100
AcDbEntity
  8
AM_VIS
100
AcDbCircle
 10
809.8754927843463
 20
1244.592666033887
 30
0.0
 40
2.25
  0
LINE
  5
4433
330
1F
100
AcDbEntity
  8
AM_VIS
100
AcDbLine
 10
779.3754927843463
 20
1271.092666033887
 30
0.0
 11
779.3754927843463
 21
1270.857827732968
 31
0.0
  0
LINE
  5
4434
330
1F
100
AcDbEntity
  8
AM_VIS
100
AcDbLine
 10
779.3754927843463
 20
1241.327504334806
 30
0.0
 11
779.3754927843463
 21
1241.092666033887
 31
0.0
  0
LINE
  5
4435
330
1F
100
AcDbEntity
  8
AM_VIS
100
AcDbLine
 10
853.3754927843462
 20
1271.092666033887
 30
0.0
 11
877.3754927843462
 21
1271.092666033887
 31
0.0
  0
LINE
  5
4436
330
1F
100
AcDbEntity
  8
AM_VIS
100
AcDbLine
 10
873.2754927843462
 20
1241.092666033887
 30
0.0
 11
873.2754927843462
 21
1248.842666033887
 31
0.0
  0
LINE
  5
4437
330
1F
100
AcDbEntity
  8
AM_VIS
100
AcDbLine
 10
853.3754927843462
 20
1241.092666033887
 30
0.0
 11
873.2754927843462
 21
1241.092666033887
 31
0.0
  0
LINE
  5
4438
330
1F
100
AcDbEntity
  8
AM_VIS
100
AcDbLine
 10
873.2754927843462
 20
1248.842666033887
 30
0.0
 11
877.3754927843462
 21
1248.842666033887
 31
0.0
  0
LINE
  5
4439
330
1F
100
AcDbEntity
  8
AM_VIS
100
AcDbLine
 10
877.3754927843462
 20
1241.092666033887
 30
0.0
 11
873.2754927843462
 21
1241.092666033887
 31
0.0
  0
LINE
  5
443A
330
1F
100
AcDbEntity
  8
AM_VIS
100
AcDbLine
 10
877.3754927843462
 20
1248.842666033887
 30
0.0
 11
877.3754927843462
 21
1271.092666033887
 31
0.0
  0
LINE
  5
443B
330
1F
100
AcDbEntity
  8
AM_VIS
100
AcDbLine
 10
877.3754927843462
 20
1245.092666033887
 30
0.0
 11
877.3754927843462
 21
1241.092666033887
 31
0.0
  0
LINE
  5
443C
330
1F
100
AcDbEntity
  8
AM_VIS
100
AcDbLine
 10
853.3754927843462
 20
1271.092666033887
 30
0.0
 11
853.3754927843462
 21
1241.092666033887
 31
0.0
  0
LINE
  5
443D
330
1F
100
AcDbEntity
  8
AM_VIS
100
AcDbLine
 10
877.3754927843462
 20
1248.842666033887
 30
0.0
 11
877.3754927843462
 21
1245.092666033887
 31
0.0
  0
LINE
  5
443E
330
1F
100
AcDbEntity
  8
AM_VIS
100
AcDbLine
 10
779.3754927843463
 20
1270.092666033887
 30
0.0
 11
779.3754927843463
 21
1242.092666033887
 31
0.0
  0
LINE
  5
443F
330
1F
100
AcDbEntity
  8
AM_VIS
100
AcDbLine
 10
874.3878562396039
 20
1241.131510621699
 30
0.0
 11
873.2754927843462
 21
1241.092666033887
 31
0.0
  0
ARC
  5
4440
330
1F
100
AcDbEntity
  8
AM_VIS
100
AcDbCircle
 10
869.8754927843465
 20
1245.092666033887
 30
0.0
 40
6.486738394601745
100
AcDbArc
 50
340.2630904472518
 51
356.3319009570639
  0
LINE
  5
4441
330
1F
100
AcDbEntity
  8
AM_VIS
100
AcDbLine
 10
875.9811560233861
 20
1242.90208359731
 30
0.0
 11
875.9918642576959
 21
1242.892666033888
 31
0.0
  0
LINE
  5
4442
330
1F
100
AcDbEntity
  8
AM_VIS
100
AcDbLine
 10
875.9918642576954
 20
1247.292666033888
 30
0.0
 11
875.9811560233854
 21
1247.283248470466
 31
0.0
  0
ARC
  5
4443
330
1F
100
AcDbEntity
  8
AM_VIS
100
AcDbCircle
 10
869.8754927843465
 20
1245.092666033887
 30
0.0
 40
6.486738394601745
100
AcDbArc
 50
3.668099042897083
 51
19.73690955277715
  0
LINE
  5
4444
330
1F
100
AcDbEntity
  8
AM_VIS
100
AcDbLine
 10
875.9811560233856
 20
1244.677666033885
 30
0.0
 11
876.3489424056841
 21
1244.677666033885
 31
0.0
  0
LINE
  5
4445
330
1F
100
AcDbEntity
  8
AM_VIS
100
AcDbLine
 10
876.3489424056844
 20
1245.507666033885
 30
0.0
 11
875.9811560233861
 21
1245.507666033885
 31
0.0
  0
ELLIPSE
  5
4446
330
1F
100
AcDbEntity
  8
AM_VIS
100
AcDbEllipse
 10
871.4520519626599
 20
1245.092666033887
 30
0.0
 11
0.0000000000000054
 21
6.045738556206449
 31
0.0
210
0.0
220
0.0
230
1.0
 40
0.7509111174473848
 41
4.643691567058446
 42
4.781086393710276
  0
ARC
  5
4447
330
1F
100
AcDbEntity
  8
AM_VIS
100
AcDbCircle
 10
874.3424868938905
 20
1247.75461337095
 30
0.0
 40
1.3
100
AcDbArc
 50
30.79133455397147
 51
56.820857322178
  0
ARC
  5
4448
330
1F
100
AcDbEntity
  8
AM_VIS
100
AcDbCircle
 10
874.3424868938905
 20
1242.430718696824
 30
0.0
 40
1.3
100
AcDbArc
 50
272.0000000000035
 51
329.2086654460285
  0
ARC
  5
4449
330
1F
100
AcDbEntity
  8
AM_VIS
100
AcDbCircle
 10
869.8754927843465
 20
1245.092666033887
 30
0.0
 40
6.500000000000031
100
AcDbArc
 50
19.78317037268212
 51
30.79133455397147
  0
ARC
  5
444A
330
1F
100
AcDbEntity
  8
AM_VIS
100
AcDbCircle
 10
869.8754927843465
 20
1245.092666033887
 30
0.0
 40
6.500000000000031
100
AcDbArc
 50
329.2086654460464
 51
340.2168296273468
  0
LINE
  5
444B
330
1F
100
AcDbEntity
  8
AM_VIS
100
AcDbLine
 10
950.797394236522
 20
1313.190224409773
 30
0.0
 11
943.0473942365219
 21
1313.190224409773
 31
0.0
  0
LINE
  5
444C
330
1F
100
AcDbEntity
  8
AM_VIS
100
AcDbLine
 10
950.797394236522
 20
1321.140224409773
 30
0.0
 11
950.797394236522
 21
1313.190224409773
 31
0.0
  0
LINE
  5
444D
330
1F
100
AcDbEntity
  8
AM_VIS
100
AcDbLine
 10
943.0473942365219
 20
1313.190224409773
 30
0.0
 11
943.0473942365219
 21
1317.390224409773
 31
0.0
  0
LINE
  5
444E
330
1F
100
AcDbEntity
  8
AM_VIS
100
AcDbLine
 10
943.0473942365219
 20
1313.190224409773
 30
0.0
 11
920.7973942365219
 21
1313.190224409773
 31
0.0
  0
LINE
  5
444F
102
{ACAD_REACTORS
330
44E0
102
}
330
1F
100
AcDbEntity
  8
AM_VIS
100
AcDbLine
 10
920.7973942365219
 20
1313.190224409773
 30
0.0
 11
920.7973942365219
 21
1359.590224409773
 31
0.0
  0
LINE
  5
4450
330
1F
100
AcDbEntity
  8
AM_VIS
100
AcDbLine
 10
920.7973942365219
 20
1359.590224409773
 30
0.0
 11
950.797394236522
 21
1359.590224409773
 31
0.0
  0
LINE
  5
4451
330
1F
100
AcDbEntity
  8
AM_VIS
100
AcDbLine
 10
950.797394236522
 20
1359.590224409773
 30
0.0
 11
950.797394236522
 21
1321.140224409773
 31
0.0
  0
LINE
  5
4452
330
1F
100
AcDbEntity
  8
AM_VIS
100
AcDbLine
 10
946.7973942365219
 20
1321.140224409773
 30
0.0
 11
950.797394236522
 21
1321.140224409773
 31
0.0
  0
ARC
  5
4453
330
1F
100
AcDbEntity
  8
AM_VIS
100
AcDbCircle
 10
946.7973942365219
 20
1317.390224409773
 30
0.0
 40
3.75
100
AcDbArc
 50
90.0
 51
180.0
  0
CIRCLE
  5
4454
330
1F
100
AcDbEntity
  8
AM_VIS
100
AcDbCircle
 10
928.297394236522
 20
1354.390224409773
 30
0.0
 40
3.75
  0
CIRCLE
  5
4455
330
1F
100
AcDbEntity
  8
AM_VIS
100
AcDbCircle
 10
935.7973942365219
 20
1330.190224409773
 30
0.0
 40
4.049999999999999
  0
LINE
  5
4456
330
1F
100
AcDbEntity
  8
AM_VIS
100
AcDbLine
 10
928.2973942365206
 20
1354.805224409773
 30
0.0
 11
928.2973942365206
 21
1354.390224409773
 31
0.0
  0
LINE
  5
4457
330
1F
100
AcDbEntity
  8
AM_VIS
100
AcDbLine
 10
928.2973942365206
 20
1354.390224409773
 30
0.0
 11
928.2973942365206
 21
1353.975224409773
 31
0.0
  0
LINE
  5
4458
330
1F
100
AcDbEntity
  8
AM_VIS
100
AcDbLine
 10
928.2973942365206
 20
1354.390224409773
 30
0.0
 11
928.7123942365214
 21
1354.805224409774
 31
0.0
  0
LINE
  5
4459
330
1F
100
AcDbEntity
  8
AM_VIS
100
AcDbLine
 10
927.8823942365216
 20
1354.805224409772
 30
0.0
 11
928.2973942365206
 21
1354.390224409773
 31
0.0
  0
LINE
  5
445A
330
1F
100
AcDbEntity
  8
AM_VIS
100
AcDbLine
 10
928.7123942365235
 20
1354.805224409773
 30
0.0
 11
927.8823942365235
 21
1354.805224409773
 31
0.0
  0
LINE
  5
445B
330
1F
100
AcDbEntity
  8
AM_VIS
100
AcDbLine
 10
927.8823942365233
 20
1353.975224409773
 30
0.0
 11
927.8823942365233
 21
1354.805224409773
 31
0.0
  0
LINE
  5
445C
330
1F
100
AcDbEntity
  8
AM_VIS
100
AcDbLine
 10
928.7123942365234
 20
1354.390224409773
 30
0.0
 11
928.2973942365206
 21
1354.390224409773
 31
0.0
  0
LINE
  5
445D
330
1F
100
AcDbEntity
  8
AM_VIS
100
AcDbLine
 10
928.7123942365214
 20
1353.975224409772
 30
0.0
 11
928.2973942365206
 21
1354.390224409773
 31
0.0
  0
LINE
  5
445E
330
1F
100
AcDbEntity
  8
AM_VIS
100
AcDbLine
 10
927.8823942365235
 20
1353.975224409773
 30
0.0
 11
928.7123942365235
 21
1353.975224409773
 31
0.0
  0
LINE
  5
445F
330
1F
100
AcDbEntity
  8
AM_VIS
100
AcDbLine
 10
928.2973942365206
 20
1354.390224409773
 30
0.0
 11
927.8823942365233
 21
1354.390224409773
 31
0.0
  0
LINE
  5
4460
330
1F
100
AcDbEntity
  8
AM_VIS
100
AcDbLine
 10
928.2973942365204
 20
1354.390224409773
 30
0.0
 11
927.882394236521
 21
1353.975224409774
 31
0.0
  0
LINE
  5
4461
330
1F
100
AcDbEntity
  8
AM_VIS
100
AcDbLine
 10
928.7123942365234
 20
1354.805224409773
 30
0.0
 11
928.7123942365234
 21
1353.975224409773
 31
0.0
  0
LINE
  5
4462
330
1F
100
AcDbEntity
  8
AM_VIS
100
AcDbLine
 10
928.7123942365237
 20
1353.975224409773
 30
0.0
 11
930.4879766730982
 21
1353.975224409773
 31
0.0
  0
ELLIPSE
  5
4463
330
1F
100
AcDbEntity
  8
AM_VIS
100
AcDbEllipse
 10
926.5047686573007
 20
1354.390224409773
 30
0.0
 11
-0.0000000000000006
 21
6.045738556206283
 31
0.0
210
0.0
220
0.0
230
1.0
 40
0.6604032811046718
 41
4.643691567058777
 42
4.781086393710602
  0
LINE
  5
4464
330
1F
100
AcDbEntity
  8
AM_VIS
100
AcDbLine
 10
930.4879766730982
 20
1354.805224409773
 30
0.0
 11
928.7123942365237
 21
1354.805224409773
 31
0.0
  0
LINE
  5
4465
330
1F
100
AcDbEntity
  8
AM_VIS
100
AcDbLine
 10
927.8823942365239
 20
1354.805224409773
 30
0.0
 11
926.106811799943
 21
1354.805224409773
 31
0.0
  0
ELLIPSE
  5
4466
330
1F
100
AcDbEntity
  8
AM_VIS
100
AcDbEllipse
 10
930.090019815741
 20
1354.390224409773
 30
0.0
 11
-0.0000000000000006
 21
6.045738556206687
 31
0.0
210
0.0
220
0.0
230
1.0
 40
0.6604032811047999
 41
1.502098913468988
 42
1.639493740120804
  0
LINE
  5
4467
330
1F
100
AcDbEntity
  8
AM_VIS
100
AcDbLine
 10
926.106811799943
 20
1353.975224409773
 30
0.0
 11
927.8823942365239
 21
1353.975224409773
 31
0.0
  0
LINE
  5
4468
330
1F
100
AcDbEntity
  8
AM_VIS
100
AcDbLine
 10
928.7123942365237
 20
1352.199641973196
 30
0.0
 11
928.7123942365237
 21
1353.975224409773
 31
0.0
  0
ELLIPSE
  5
4469
330
1F
100
AcDbEntity
  8
AM_VIS
100
AcDbEllipse
 10
928.2973942365215
 20
1352.597598830553
 30
0.0
 11
-6.045738556206449
 21
-0.0000000000000006
 31
0.0
210
0.0
220
0.0
230
1.0
 40
0.6604032811047506
 41
4.643691567058448
 42
4.781086393710276
  0
LINE
  5
446A
330
1F
100
AcDbEntity
  8
AM_VIS
100
AcDbLine
 10
927.8823942365233
 20
1353.975224409773
 30
0.0
 11
927.8823942365233
 21
1352.199641973195
 31
0.0
  0
LINE
  5
446B
330
1F
100
AcDbEntity
  8
AM_VIS
100
AcDbLine
 10
927.8823942365233
 20
1356.580806846351
 30
0.0
 11
927.8823942365233
 21
1354.805224409773
 31
0.0
  0
ELLIPSE
  5
446C
330
1F
100
AcDbEntity
  8
AM_VIS
100
AcDbEllipse
 10
928.2973942365215
 20
1356.182849988994
 30
0.0
 11
-6.045738556206449
 21
-0.0000000000000006
 31
0.0
210
0.0
220
0.0
230
1.0
 40
0.6604032811047503
 41
1.50209891346931
 42
1.639493740121138
  0
LINE
  5
446D
330
1F
100
AcDbEntity
  8
AM_VIS
100
AcDbLine
 10
928.7123942365237
 20
1354.805224409773
 30
0.0
 11
928.7123942365237
 21
1356.580806846351
 31
0.0
  0
LINE
  5
446E
330
1F
100
AcDbEntity
  8
AM_VIS
100
AcDbLine
 10
946.7973942365206
 20
1317.805224409773
 30
0.0
 11
946.7973942365206
 21
1317.390224409773
 31
0.0
  0
LINE
  5
446F
330
1F
100
AcDbEntity
  8
AM_VIS
100
AcDbLine
 10
946.7973942365206
 20
1317.390224409773
 30
0.0
 11
946.7973942365206
 21
1316.975224409773
 31
0.0
  0
LINE
  5
4470
330
1F
100
AcDbEntity
  8
AM_VIS
100
AcDbLine
 10
946.7973942365206
 20
1317.390224409773
 30
0.0
 11
947.2123942365215
 21
1317.805224409774
 31
0.0
  0
LINE
  5
4471
330
1F
100
AcDbEntity
  8
AM_VIS
100
AcDbLine
 10
946.3823942365216
 20
1317.805224409772
 30
0.0
 11
946.7973942365206
 21
1317.390224409773
 31
0.0
  0
LINE
  5
4472
330
1F
100
AcDbEntity
  8
AM_VIS
100
AcDbLine
 10
947.2123942365236
 20
1317.805224409773
 30
0.0
 11
946.3823942365236
 21
1317.805224409773
 31
0.0
  0
LINE
  5
4473
330
1F
100
AcDbEntity
  8
AM_VIS
100
AcDbLine
 10
946.3823942365234
 20
1316.975224409773
 30
0.0
 11
946.3823942365234
 21
1317.805224409773
 31
0.0
  0
LINE
  5
4474
330
1F
100
AcDbEntity
  8
AM_VIS
100
AcDbLine
 10
947.2123942365232
 20
1317.390224409773
 30
0.0
 11
946.7973942365206
 21
1317.390224409773
 31
0.0
  0
LINE
  5
4475
330
1F
100
AcDbEntity
  8
AM_VIS
100
AcDbLine
 10
947.2123942365215
 20
1316.975224409772
 30
0.0
 11
946.7973942365206
 21
1317.390224409773
 31
0.0
  0
LINE
  5
4476
330
1F
100
AcDbEntity
  8
AM_VIS
100
AcDbLine
 10
946.3823942365236
 20
1316.975224409773
 30
0.0
 11
947.2123942365236
 21
1316.975224409773
 31
0.0
  0
LINE
  5
4477
330
1F
100
AcDbEntity
  8
AM_VIS
100
AcDbLine
 10
946.7973942365206
 20
1317.390224409773
 30
0.0
 11
946.3823942365234
 21
1317.390224409773
 31
0.0
  0
LINE
  5
4478
330
1F
100
AcDbEntity
  8
AM_VIS
100
AcDbLine
 10
946.7973942365203
 20
1317.390224409773
 30
0.0
 11
946.3823942365211
 21
1316.975224409774
 31
0.0
  0
LINE
  5
4479
330
1F
100
AcDbEntity
  8
AM_VIS
100
AcDbLine
 10
947.2123942365232
 20
1317.805224409773
 30
0.0
 11
947.2123942365232
 21
1316.975224409773
 31
0.0
  0
ARC
  5
447A
330
1F
100
AcDbEntity
  8
AM_VIS
100
AcDbCircle
 10
946.7973942365215
 20
1317.390224409773
 30
0.0
 40
3.999999999999971
100
AcDbArc
 50
200.3641348063287
 51
69.63586519368354
  0
LINE
  5
447B
330
1F
100
AcDbEntity
  8
AM_VIS
100
AcDbLine
 10
947.2123942365238
 20
1316.975224409773
 30
0.0
 11
948.9879766730982
 21
1316.975224409773
 31
0.0
  0
ELLIPSE
  5
447C
330
1F
100
AcDbEntity
  8
AM_VIS
100
AcDbEllipse
 10
945.0047686573007
 20
1317.390224409773
 30
0.0
 11
-0.0000000000000006
 21
6.045738556206283
 31
0.0
210
0.0
220
0.0
230
1.0
 40
0.6604032811046718
 41
4.643691567058777
 42
4.781086393710602
  0
LINE
  5
447D
330
1F
100
AcDbEntity
  8
AM_VIS
100
AcDbLine
 10
948.9879766730982
 20
1317.805224409773
 30
0.0
 11
947.2123942365238
 21
1317.805224409773
 31
0.0
  0
LINE
  5
447E
330
1F
100
AcDbEntity
  8
AM_VIS
100
AcDbLine
 10
946.3823942365237
 20
1317.805224409773
 30
0.0
 11
944.6068117999429
 21
1317.805224409773
 31
0.0
  0
ELLIPSE
  5
447F
330
1F
100
AcDbEntity
  8
AM_VIS
100
AcDbEllipse
 10
948.5900198157409
 20
1317.390224409773
 30
0.0
 11
-0.0000000000000006
 21
6.045738556206687
 31
0.0
210
0.0
220
0.0
230
1.0
 40
0.6604032811047999
 41
1.502098913468988
 42
1.639493740120804
  0
LINE
  5
4480
330
1F
100
AcDbEntity
  8
AM_VIS
100
AcDbLine
 10
944.6068117999429
 20
1316.975224409773
 30
0.0
 11
946.3823942365237
 21
1316.975224409773
 31
0.0
  0
LINE
  5
4481
330
1F
100
AcDbEntity
  8
AM_VIS
100
AcDbLine
 10
947.2123942365238
 20
1315.199641973195
 30
0.0
 11
947.2123942365238
 21
1316.975224409773
 31
0.0
  0
ELLIPSE
  5
4482
330
1F
100
AcDbEntity
  8
AM_VIS
100
AcDbEllipse
 10
946.7973942365215
 20
1315.597598830553
 30
0.0
 11
-6.045738556206449
 21
-0.0000000000000006
 31
0.0
210
0.0
220
0.0
230
1.0
 40
0.6604032811047506
 41
4.643691567058448
 42
4.781086393710276
  0
LINE
  5
4483
330
1F
100
AcDbEntity
  8
AM_VIS
100
AcDbLine
 10
946.3823942365234
 20
1316.975224409773
 30
0.0
 11
946.3823942365234
 21
1315.199641973195
 31
0.0
  0
LINE
  5
4484
330
1F
100
AcDbEntity
  8
AM_VIS
100
AcDbLine
 10
946.3823942365234
 20
1319.580806846351
 30
0.0
 11
946.3823942365234
 21
1317.805224409773
 31
0.0
  0
ELLIPSE
  5
4485
330
1F
100
AcDbEntity
  8
AM_VIS
100
AcDbEllipse
 10
946.7973942365215
 20
1319.182849988993
 30
0.0
 11
-6.045738556206449
 21
-0.0000000000000006
 31
0.0
210
0.0
220
0.0
230
1.0
 40
0.6604032811047503
 41
1.50209891346931
 42
1.639493740121138
  0
LINE
  5
4486
330
1F
100
AcDbEntity
  8
AM_VIS
100
AcDbLine
 10
947.2123942365238
 20
1317.805224409773
 30
0.0
 11
947.2123942365238
 21
1319.580806846351
 31
0.0
  0
LINE
  5
448C
330
1F
100
AcDbEntity
  8
AM_7
100
AcDbLine
 10
790.3754927843463
 20
1256.092666033887
 30
0.0
 11
801.0254927843462
 21
1256.092666033887
 31
0.0
1001
GENIUS_GENOREF_13
1005
452C
  0
LINE
  5
448D
330
1F
100
AcDbEntity
  8
AM_7
100
AcDbLine
 10
790.3754927843463
 20
1256.092666033887
 30
0.0
 11
790.3754927843463
 21
1266.742666033887
 31
0.0
1001
GENIUS_GENOREF_13
1005
452C
  0
LINE
  5
448E
330
1F
100
AcDbEntity
  8
AM_7
100
AcDbLine
 10
790.3754927843463
 20
1256.092666033887
 30
0.0
 11
779.7254927843464
 21
1256.092666033887
 31
0.0
1001
GENIUS_GENOREF_13
1005
452C
  0
LINE
  5
448F
102
{ACAD_REACTORS
330
44D3
330
4BAC
102
}
330
1F
100
AcDbEntity
  8
AM_7
100
AcDbLine
 10
790.3754927843463
 20
1256.092666033887
 30
0.0
 11
790.3754927843463
 21
1245.442666033887
 31
0.0
1001
GENIUS_GENOREF_13
1005
452C
  0
LINE
  5
4490
330
1F
100
AcDbEntity
  8
AM_7
100
AcDbLine
 10
816.3754927843463
 20
1256.092666033887
 30
0.0
 11
827.0254927843462
 21
1256.092666033887
 31
0.0
1001
GENIUS_GENOREF_13
1005
452B
  0
LINE
  5
4491
330
1F
100
AcDbEntity
  8
AM_7
100
AcDbLine
 10
816.3754927843463
 20
1256.092666033887
 30
0.0
 11
816.3754927843463
 21
1266.742666033887
 31
0.0
1001
GENIUS_GENOREF_13
1005
452B
  0
LINE
  5
4492
330
1F
100
AcDbEntity
  8
AM_7
100
AcDbLine
 10
816.3754927843463
 20
1256.092666033887
 30
0.0
 11
805.7254927843464
 21
1256.092666033887
 31
0.0
1001
GENIUS_GENOREF_13
1005
452B
  0
LINE
  5
4493
102
{ACAD_REACTORS
330
44D3
330
44D6
102
}
330
1F
100
AcDbEntity
  8
AM_7
100
AcDbLine
 10
816.3754927843463
 20
1256.092666033887
 30
0.0
 11
816.3754927843463
 21
1245.442666033887
 31
0.0
1001
GENIUS_GENOREF_13
1005
452B
  0
LINE
  5
4494
330
1F
100
AcDbEntity
  8
AM_7
100
AcDbLine
 10
842.3754927843463
 20
1256.092666033887
 30
0.0
 11
853.0254927843461
 21
1256.092666033887
 31
0.0
1001
GENIUS_GENOREF_13
1005
452A
  0
LINE
  5
4495
330
1F
100
AcDbEntity
  8
AM_7
100
AcDbLine
 10
842.3754927843463
 20
1256.092666033887
 30
0.0
 11
842.3754927843463
 21
1266.742666033887
 31
0.0
1001
GENIUS_GENOREF_13
1005
452A
  0
LINE
  5
4496
330
1F
100
AcDbEntity
  8
AM_7
100
AcDbLine
 10
842.3754927843463
 20
1256.092666033887
 30
0.0
 11
831.7254927843464
 21
1256.092666033887
 31
0.0
1001
GENIUS_GENOREF_13
1005
452A
  0
LINE
  5
4497
102
{ACAD_REACTORS
330
44D6
102
}
330
1F
100
AcDbEntity
  8
AM_7
100
AcDbLine
 10
842.3754927843463
 20
1256.092666033887
 30
0.0
 11
842.3754927843463
 21
1245.442666033887
 31
0.0
1001
GENIUS_GENOREF_13
1005
452A
  0
LINE
  5
4498
330
1F
100
AcDbEntity
  8
AM_7
  6
AM_ISO08W050x2
100
AcDbLine
 10
822.8754927843462
 20
1267.592666033887
 30
0.0
 11
827.1254927843463
 21
1267.592666033887
 31
0.0
1001
GENIUS_GENOREF_13
1005
4529
  0
LINE
  5
4499
330
1F
100
AcDbEntity
  8
AM_7
  6
AM_ISO08W050x2
100
AcDbLine
 10
822.8754927843462
 20
1267.592666033887
 30
0.0
 11
822.8754927843462
 21
1271.842666033887
 31
0.0
1001
GENIUS_GENOREF_13
1005
4529
  0
LINE
  5
449A
330
1F
100
AcDbEntity
  8
AM_7
  6
AM_ISO08W050x2
100
AcDbLine
 10
822.8754927843462
 20
1267.592666033887
 30
0.0
 11
818.6254927843462
 21
1267.592666033887
 31
0.0
1001
GENIUS_GENOREF_13
1005
4529
  0
LINE
  5
449B
330
1F
100
AcDbEntity
  8
AM_7
  6
AM_ISO08W050x2
100
AcDbLine
 10
822.8754927843462
 20
1267.592666033887
 30
0.0
 11
822.8754927843462
 21
1263.342666033887
 31
0.0
1001
GENIUS_GENOREF_13
1005
4529
  0
LINE
  5
449C
330
1F
100
AcDbEntity
  8
AM_7
  6
AM_ISO08W050x2
100
AcDbLine
 10
809.8754927843463
 20
1244.592666033887
 30
0.0
 11
814.1254927843462
 21
1244.592666033887
 31
0.0
1001
GENIUS_GENOREF_13
1005
4528
  0
LINE
  5
449D
330
1F
100
AcDbEntity
  8
AM_7
  6
AM_ISO08W050x2
100
AcDbLine
 10
809.8754927843463
 20
1244.592666033887
 30
0.0
 11
809.8754927843463
 21
1248.842666033887
 31
0.0
1001
GENIUS_GENOREF_13
1005
4528
  0
LINE
  5
449E
330
1F
100
AcDbEntity
  8
AM_7
  6
AM_ISO08W050x2
100
AcDbLine
 10
809.8754927843463
 20
1244.592666033887
 30
0.0
 11
805.6254927843463
 21
1244.592666033887
 31
0.0
1001
GENIUS_GENOREF_13
1005
4528
  0
LINE
  5
449F
330
1F
100
AcDbEntity
  8
AM_7
  6
AM_ISO08W050x2
100
AcDbLine
 10
809.8754927843463
 20
1244.592666033887
 30
0.0
 11
809.8754927843463
 21
1240.342666033887
 31
0.0
1001
GENIUS_GENOREF_13
1005
4528
  0
LINE
  5
44B4
330
1F
100
AcDbEntity
  8
AM_7
100
AcDbLine
 10
831.3754927843463
 20
1408.028553622058
 30
0.0
 11
842.0254927843462
 21
1408.028553622058
 31
0.0
1001
GENIUS_GENOREF_13
1005
4522
  0
LINE
  5
44B5
102
{ACAD_REACTORS
330
44CA
102
}
330
1F
100
AcDbEntity
  8
AM_7
100
AcDbLine
 10
831.3754927843463
 20
1408.028553622058
 30
0.0
 11
831.3754927843463
 21
1418.678553622058
 31
0.0
1001
GENIUS_GENOREF_13
1005
4522
  0
LINE
  5
44B6
330
1F
100
AcDbEntity
  8
AM_7
100
AcDbLine
 10
831.3754927843463
 20
1408.028553622058
 30
0.0
 11
820.7254927843464
 21
1408.028553622058
 31
0.0
1001
GENIUS_GENOREF_13
1005
4522
  0
LINE
  5
44B7
330
1F
100
AcDbEntity
  8
AM_7
100
AcDbLine
 10
831.3754927843463
 20
1408.028553622058
 30
0.0
 11
831.3754927843463
 21
1397.378553622058
 31
0.0
1001
GENIUS_GENOREF_13
1005
4522
  0
LINE
  5
44B8
330
1F
100
AcDbEntity
  8
AM_7
100
AcDbLine
 10
801.3754927843462
 20
1408.028553622058
 30
0.0
 11
812.0254927843461
 21
1408.028553622058
 31
0.0
1001
GENIUS_GENOREF_13
1005
4521
  0
LINE
  5
44B9
102
{ACAD_REACTORS
330
44CA
102
}
330
1F
100
AcDbEntity
  8
AM_7
100
AcDbLine
 10
801.3754927843462
 20
1408.028553622058
 30
0.0
 11
801.3754927843462
 21
1418.678553622058
 31
0.0
1001
GENIUS_GENOREF_13
1005
4521
  0
LINE
  5
44BA
330
1F
100
AcDbEntity
  8
AM_7
100
AcDbLine
 10
801.3754927843462
 20
1408.028553622058
 30
0.0
 11
790.7254927843464
 21
1408.028553622058
 31
0.0
1001
GENIUS_GENOREF_13
1005
4521
  0
LINE
  5
44BB
330
1F
100
AcDbEntity
  8
AM_7
100
AcDbLine
 10
801.3754927843462
 20
1408.028553622058
 30
0.0
 11
801.3754927843462
 21
1397.378553622058
 31
0.0
1001
GENIUS_GENOREF_13
1005
4521
  0
LINE
  5
44BC
330
1F
100
AcDbEntity
  8
AM_7
  6
AM_ISO08W050x2
100
AcDbLine
 10
935.7973942365219
 20
1330.190224409773
 30
0.0
 11
942.6473942365218
 21
1330.190224409773
 31
0.0
1001
GENIUS_GENOREF_13
1005
4520
  0
LINE
  5
44BD
330
1F
100
AcDbEntity
  8
AM_7
  6
AM_ISO08W050x2
100
AcDbLine
 10
935.7973942365219
 20
1330.190224409773
 30
0.0
 11
935.7973942365219
 21
1337.040224409773
 31
0.0
1001
GENIUS_GENOREF_13
1005
4520
  0
LINE
  5
44BE
102
{ACAD_REACTORS
330
44E0
102
}
330
1F
100
AcDbEntity
  8
AM_7
  6
AM_ISO08W050x2
100
AcDbLine
 10
935.7973942365219
 20
1330.190224409773
 30
0.0
 11
928.9473942365217
 21
1330.190224409773
 31
0.0
1001
GENIUS_GENOREF_13
1005
4520
  0
LINE
  5
44BF
330
1F
100
AcDbEntity
  8
AM_7
  6
AM_ISO08W050x2
100
AcDbLine
 10
935.7973942365219
 20
1330.190224409773
 30
0.0
 11
935.7973942365219
 21
1323.340224409773
 31
0.0
1001
GENIUS_GENOREF_13
1005
4520
  0
LINE
  5
44C0
330
1F
100
AcDbEntity
  8
AM_7
100
AcDbLine
 10
879.3754927843464
 20
1408.028553622058
 30
0.0
 11
752.5474907996954
 21
1408.028553622058
 31
0.0
1001
GENIUS_GENOBJ-N-CEN_13
1002
{
1000
OWNER
1000
GEN
1002
}
1001
GENIUS_GENODEF_13
1002
{
1000
HIER
1070
     0
1002
}
1002
{
1000
MANEDIT
1070
     0
1002
}
1002
{
1000
NOSEL
1070
     0
1002
}
1002
{
1000
BEHIND
1070
     0
1002
}
1002
{
1000
OTHER
1070
     0
1002
}
1002
{
1000
REACTOR
1002
}
1001
GENIUS_GENCEN_19
1002
{
1040
2.0
1002
}
  0
LINE
  5
44C1
330
1F
100
AcDbEntity
  8
AM_7
100
AcDbLine
 10
752.4573684900201
 20
1256.092666033887
 30
0.0
 11
882.0901664484601
 21
1256.092666033887
 31
0.0
1001
GENIUS_GENODEF_13
1002
{
1000
HIER
1070
     0
1002
}
1002
{
1000
MANEDIT
1070
     0
1002
}
1002
{
1000
NOSEL
1070
     0
1002
}
1002
{
1000
BEHIND
1070
     0
1002
}
1002
{
1000
OTHER
1070
     0
1002
}
1002
{
1000
REACTOR
1002
}
1001
GENIUS_GENOBJ-N-CEN_13
1002
{
1000
OWNER
1000
GEN
1002
}
1001
GENIUS_GENCEN_19
1002
{
1040
2.0
1002
}
  0
DIMENSION
  5
44C2
330
1F
100
AcDbEntity
  8
AM_5
100
AcDbDimension
  2
*D3
 10
822.8754927843462
 20
1437.028553622058
 30
0.0
 11
816.3754927843463
 21
1440.703553622058
 31
0.0
 70
    32
 71
     5
 42
13.0
  3
AM_ISO$0
100
AcDbAlignedDimension
 13
809.8754927843463
 23
1425.028553622058
 33
0.0
 14
822.8754927843462
 24
1402.028553622058
 34
0.0
100
AcDbRotatedDimension
1001
ACAD
1000
DSTYLE
1002
{
1070
    40
1040
1.5
1070
   272
1070
     8
1002
}
  0
DIMENSION
  5
44C5
330
1F
100
AcDbEntity
  8
AM_5
100
AcDbDimension
  2
*D4
 10
741.3754927843463
 20
1396.528553622058
 30
0.0
 11
737.6999760520626
 21
1408.028553622058
 31
0.0
 70
    32
 71
     5
 42
23.0
  3
AM_ISO$0
100
AcDbAlignedDimension
 13
804.1254927843462
 23
1419.528553622058
 33
0.0
 14
817.3754927843463
 24
1396.528553622058
 34
0.0
 50
90.0
100
AcDbRotatedDimension
1001
ACAD
1000
DSTYLE
1002
{
1070
    40
1040
1.5
1070
   272
1070
     8
1002
}
  0
DIMENSION
  5
44C8
102
{ACAD_XDICTIONARY
360
44C9
102
}
102
{ACAD_REACTORS
330
44CA
102
}
330
1F
100
AcDbEntity
  8
AM_5
100
AcDbDimension
  2
*D5
 10
831.3754927843463
 20
1448.028553622058
 30
0.0
 11
816.3754927843463
 21
1451.703553622058
 31
0.0
 70
    32
 71
     5
 42
30.0
  3
AM_ISO$0
100
AcDbAlignedDimension
 13
801.3754927843462
 23
1418.678553622058
 33
0.0
 14
831.3754927843463
 24
1418.678553622058
 34
0.0
100
AcDbRotatedDimension
1001
ACAD
1000
DSTYLE
1002
{
1070
    40
1040
1.5
1070
   272
1070
     8
1002
}
  0
DIMENSION
  5
44CB
330
1F
100
AcDbEntity
  8
AM_5
100
AcDbDimension
  2
*D6
 10
829.3754927843462
 20
1299.190224409773
 30
0.0
 11
816.3754927843463
 21
1302.865741142057
 31
0.0
 70
    32
 71
     5
 42
26.0
  3
AM_ISO$0
100
AcDbAlignedDimension
 13
803.3754927843462
 23
1313.140224409773
 33
0.0
 14
829.3754927843462
 24
1313.140224409773
 34
0.0
100
AcDbRotatedDimension
1001
ACAD
1000
DSTYLE
1002
{
1070
    40
1040
1.5
1070
   272
1070
     8
1002
}
  0
DIMENSION
  5
44D1
102
{ACAD_XDICTIONARY
360
44D2
102
}
102
{ACAD_REACTORS
330
44D3
102
}
330
1F
100
AcDbEntity
  8
AM_5
100
AcDbDimension
  2
*D7
 10
816.3754927843463
 20
1229.092666033887
 30
0.0
 11
803.3754927843462
 21
1232.76818276617
 31
0.0
 70
    32
 71
     5
 42
26.0
  3
AM_ISO$0
100
AcDbAlignedDimension
 13
790.3754927843463
 23
1245.442666033887
 33
0.0
 14
816.3754927843463
 24
1245.442666033887
 34
0.0
100
AcDbRotatedDimension
1001
ACAD
1000
DSTYLE
1002
{
1070
    40
1040
1.5
1070
   272
1070
     8
1002
}
  0
DIMENSION
  5
44D4
102
{ACAD_XDICTIONARY
360
44D5
102
}
102
{ACAD_REACTORS
330
44D6
102
}
330
1F
100
AcDbEntity
  8
AM_5
100
AcDbDimension
  2
*D8
 10
842.3754927843463
 20
1229.092666033887
 30
0.0
 11
829.3754927843462
 21
1232.76818276617
 31
0.0
 70
    32
 71
     5
 42
26.0
  3
AM_ISO$0
100
AcDbAlignedDimension
 13
816.3754927843463
 23
1245.442666033887
 33
0.0
 14
842.3754927843463
 24
1245.442666033887
 34
0.0
100
AcDbRotatedDimension
1001
ACAD
1000
DSTYLE
1002
{
1070
    40
1040
1.5
1070
   272
1070
     8
1002
}
  0
DIMENSION
  5
44D7
102
{ACAD_XDICTIONARY
360
44D8
102
}
102
{ACAD_REACTORS
330
44D9
102
}
330
1F
100
AcDbEntity
  8
AM_5
100
AcDbDimension
  2
*D9
 10
889.3754927843463
 20
1359.590224409773
 30
0.0
 11
885.700492784346
 21
1336.390224409773
 31
0.0
 70
    32
 71
     5
 42
46.39999999999986
  3
AM_ISO$0
100
AcDbAlignedDimension
 13
877.3754927843462
 23
1313.190224409773
 33
0.0
 14
877.3754927843462
 24
1359.590224409773
 34
0.0
 50
90.0
100
AcDbRotatedDimension
1001
ACAD
1000
DSTYLE
1002
{
1070
    40
1040
1.5
1070
   272
1070
     8
1002
}
  0
DIMENSION
  5
44DA
102
{ACAD_XDICTIONARY
360
44DB
102
}
102
{ACAD_REACTORS
330
44DC
102
}
330
1F
100
AcDbEntity
  8
AM_5
100
AcDbDimension
  2
*D10
 10
877.3754927843462
 20
1288.190224409773
 30
0.0
 11
816.3754927843463
 21
1291.865741142057
 31
0.0
 70
    32
 71
     5
 42
122.0
  3
AM_ISO$0
100
AcDbAlignedDimension
 13
755.3754927843463
 23
1313.190224409773
 33
0.0
 14
877.3754927843462
 24
1313.190224409773
 34
0.0
100
AcDbRotatedDimension
1001
ACAD
1000
DSTYLE
1002
{
1070
    40
1040
1.5
1070
   272
1070
     8
1002
}
  0
DIMENSION
  5
44DE
102
{ACAD_XDICTIONARY
360
44DF
102
}
102
{ACAD_REACTORS
330
44E0
102
}
330
1F
100
AcDbEntity
  8
AM_5
100
AcDbDimension
  2
*D11
 10
908.797394236522
 20
1330.190224409773
 30
0.0
 11
905.1223942365218
 21
1321.690224409773
 31
0.0
 70
    32
 71
     5
 42
17.0
  3
AM_ISO$0
100
AcDbAlignedDimension
 13
920.7973942365219
 23
1313.190224409773
 33
0.0
 14
928.9473942365217
 24
1330.190224409773
 34
0.0
 50
90.0
100
AcDbRotatedDimension
1001
ACAD
1000
DSTYLE
1002
{
1070
    40
1040
1.5
1070
   272
1070
     8
1002
}
  0
DIMENSION
  5
44E1
330
1F
100
AcDbEntity
  8
AM_5
100
AcDbDimension
  2
*D2
 10
730.3754927843463
 20
1423.028553622058
 30
0.0
 11
726.7004927843461
 21
1408.028553622058
 31
0.0
 70
    32
 71
     5
 42
30.0
  3
AM_ISO$0
100
AcDbAlignedDimension
 13
755.3754927843463
 23
1393.028553622058
 33
0.0
 14
755.3754927843463
 24
1423.028553622058
 34
0.0
 50
90.0
100
AcDbRotatedDimension
1001
ACAD
1000
DSTYLE
1002
{
1070
    40
1040
1.5
1070
   272
1070
     8
1002
}
  0
INSERT
  5
44E2
330
1F
100
AcDbEntity
  8
AM_5
100
AcDbBlockReference
  2
*S13
 10
0.0
 20
6.684964436247355
 30
0.0
  0
TEXT
  5
44E3
330
1F
100
AcDbEntity
  8
AM_5
100
AcDbText
 10
856.3946167588257
 20
1232.496969590587
 30
0.0
 40
3.5
  1
5-PT3/8
100
AcDbText
  0
DIMENSION
  5
44E4
330
1F
100
AcDbEntity
  8
AM_5
100
AcDbDimension
  2
*D12
 10
738.9695623515777
 20
1317.890224409773
 30
0.0
 11
738.9695623515774
 21
1298.752724409773
 31
0.0
 70
   160
 71
     5
 42
4.699999999999818
  3
AM_ISO$0
100
AcDbAlignedDimension
 13
755.3754927843463
 23
1313.190224409773
 33
0.0
 14
797.6254927843463
 24
1317.890224409773
 34
0.0
 50
90.0
100
AcDbRotatedDimension
1001
ACAD
1000
DSTYLE
1002
{
1070
    40
1040
1.5
1070
   272
1070
     8
1002
}
  0
LINE
  5
44E7
330
1F
100
AcDbEntity
  8
AM_VIS
100
AcDbLine
 10
779.3754927843463
 20
1313.341363266541
 30
0.0
 11
779.3754927843463
 21
1359.439085553005
 31
0.0
  0
LINE
  5
44E8
330
1F
100
AcDbEntity
  8
AM_VIS
100
AcDbLine
 10
755.3754927843463
 20
1313.190224409773
 30
0.0
 11
755.3754927843463
 21
1359.590224409773
 31
0.0
  0
LINE
  5
44E9
330
1F
100
AcDbEntity
  8
AM_VIS
100
AcDbLine
 10
779.3754927843463
 20
1359.590224409773
 30
0.0
 11
779.3754927843463
 21
1313.190224409773
 31
0.0
  0
LINE
  5
44EA
330
1F
100
AcDbEntity
  8
AM_VIS
100
AcDbLine
 10
779.3754927843463
 20
1359.590224409773
 30
0.0
 11
755.3754927843463
 21
1359.590224409773
 31
0.0
  0
LINE
  5
44EB
102
{ACAD_REACTORS
330
4AF7
102
}
330
1F
100
AcDbEntity
  8
AM_VIS
100
AcDbLine
 10
779.3754927843463
 20
1313.190224409773
 30
0.0
 11
755.3754927843463
 21
1313.190224409773
 31
0.0
  0
LINE
  5
44EC
330
1F
100
AcDbEntity
  8
AM_VIS
100
AcDbLine
 10
779.3754927843463
 20
1393.028553622058
 30
0.0
 11
755.3754927843463
 21
1393.028553622058
 31
0.0
  0
LINE
  5
44ED
330
1F
100
AcDbEntity
  8
AM_VIS
100
AcDbLine
 10
779.3754927843463
 20
1423.028553622058
 30
0.0
 11
755.3754927843463
 21
1423.028553622058
 31
0.0
  0
LINE
  5
44EE
330
1F
100
AcDbEntity
  8
AM_VIS
100
AcDbLine
 10
755.3754927843463
 20
1393.028553622058
 30
0.0
 11
755.3754927843463
 21
1423.028553622058
 31
0.0
  0
LINE
  5
44EF
330
1F
100
AcDbEntity
  8
AM_VIS
100
AcDbLine
 10
779.3754927843463
 20
1241.092666033887
 30
0.0
 11
755.3754927843463
 21
1241.092666033887
 31
0.0
  0
LINE
  5
44F0
330
1F
100
AcDbEntity
  8
AM_VIS
100
AcDbLine
 10
759.4754927843464
 20
1271.092666033887
 30
0.0
 11
759.4754927843464
 21
1263.342666033887
 31
0.0
  0
LINE
  5
44F1
330
1F
100
AcDbEntity
  8
AM_VIS
100
AcDbLine
 10
779.3754927843463
 20
1271.092666033887
 30
0.0
 11
759.4754927843464
 21
1271.092666033887
 31
0.0
  0
LINE
  5
44F2
330
1F
100
AcDbEntity
  8
AM_VIS
100
AcDbLine
 10
759.4754927843464
 20
1263.342666033887
 30
0.0
 11
755.3754927843463
 21
1263.342666033887
 31
0.0
  0
LINE
  5
44F3
330
1F
100
AcDbEntity
  8
AM_VIS
100
AcDbLine
 10
755.3754927843463
 20
1271.092666033887
 30
0.0
 11
759.4754927843464
 21
1271.092666033887
 31
0.0
  0
LINE
  5
44F4
102
{ACAD_REACTORS
330
4BAC
102
}
330
1F
100
AcDbEntity
  8
AM_VIS
100
AcDbLine
 10
755.3754927843463
 20
1263.342666033887
 30
0.0
 11
755.3754927843463
 21
1241.092666033887
 31
0.0
  0
LINE
  5
44F5
330
1F
100
AcDbEntity
  8
AM_VIS
100
AcDbLine
 10
755.3754927843463
 20
1267.092666033887
 30
0.0
 11
755.3754927843463
 21
1271.092666033887
 31
0.0
  0
LINE
  5
44F6
330
1F
100
AcDbEntity
  8
AM_VIS
100
AcDbLine
 10
755.3754927843463
 20
1263.342666033887
 30
0.0
 11
755.3754927843463
 21
1267.092666033887
 31
0.0
  0
LINE
  5
44F7
330
1F
100
AcDbEntity
  8
AM_VIS
100
AcDbLine
 10
758.3631293290887
 20
1271.053821446075
 30
0.0
 11
759.4754927843464
 21
1271.092666033887
 31
0.0
  0
ARC
  5
44F8
330
1F
100
AcDbEntity
  8
AM_VIS
100
AcDbCircle
 10
762.875492784346
 20
1267.092666033887
 30
0.0
 40
6.486738394601745
100
AcDbArc
 50
160.2630904472517
 51
176.3319009570639
  0
LINE
  5
44F9
330
1F
100
AcDbEntity
  8
AM_VIS
100
AcDbLine
 10
756.7698295453064
 20
1269.283248470463
 30
0.0
 11
756.7591213109968
 21
1269.292666033886
 31
0.0
  0
LINE
  5
44FA
330
1F
100
AcDbEntity
  8
AM_VIS
100
AcDbLine
 10
756.7591213109972
 20
1264.892666033885
 30
0.0
 11
756.7698295453071
 21
1264.902083597308
 31
0.0
  0
ARC
  5
44FB
330
1F
100
AcDbEntity
  8
AM_VIS
100
AcDbCircle
 10
762.875492784346
 20
1267.092666033887
 30
0.0
 40
6.486738394601745
100
AcDbArc
 50
183.668099042897
 51
199.7369095527772
  0
LINE
  5
44FC
330
1F
100
AcDbEntity
  8
AM_VIS
100
AcDbLine
 10
756.769829545307
 20
1267.507666033889
 30
0.0
 11
756.4020431630085
 21
1267.507666033889
 31
0.0
  0
LINE
  5
44FD
330
1F
100
AcDbEntity
  8
AM_VIS
100
AcDbLine
 10
756.4020431630081
 20
1266.677666033889
 30
0.0
 11
756.7698295453064
 21
1266.677666033889
 31
0.0
  0
ELLIPSE
  5
44FE
330
1F
100
AcDbEntity
  8
AM_VIS
100
AcDbEllipse
 10
761.2989336060327
 20
1267.092666033887
 30
0.0
 11
-0.0000000000000061
 21
-6.045738556206449
 31
0.0
210
0.0
220
0.0
230
1.0
 40
0.7509111174473848
 41
4.643691567058446
 42
4.781086393710276
  0
ARC
  5
44FF
330
1F
100
AcDbEntity
  8
AM_VIS
100
AcDbCircle
 10
758.408498674802
 20
1264.430718696824
 30
0.0
 40
1.3
100
AcDbArc
 50
210.7913345539714
 51
236.820857322178
  0
ARC
  5
4500
330
1F
100
AcDbEntity
  8
AM_VIS
100
AcDbCircle
 10
758.408498674802
 20
1269.75461337095
 30
0.0
 40
1.3
100
AcDbArc
 50
92.00000000000349
 51
149.2086654460285
  0
ARC
  5
4501
330
1F
100
AcDbEntity
  8
AM_VIS
100
AcDbCircle
 10
762.875492784346
 20
1267.092666033887
 30
0.0
 40
6.500000000000031
100
AcDbArc
 50
199.7831703726821
 51
210.7913345539714
  0
ARC
  5
4502
330
1F
100
AcDbEntity
  8
AM_VIS
100
AcDbCircle
 10
762.875492784346
 20
1267.092666033887
 30
0.0
 40
6.500000000000031
100
AcDbArc
 50
149.2086654460464
 51
160.2168296273468
  0
LINE
  5
4503
330
1F
100
AcDbEntity
  8
AM_7
  6
AM_ISO08W050x2
100
AcDbLine
 10
879.5747132311371
 20
1330.190224409773
 30
0.0
 11
870.3257458758081
 21
1330.190224409773
 31
0.0
  0
LINE
  5
4504
330
1F
100
AcDbEntity
  8
AM_7
  6
AM_ISO08W050x2
100
AcDbLine
 10
753.1762723375557
 20
1330.190224409773
 30
0.0
 11
762.4252396928845
 21
1330.190224409773
 31
0.0
  0
TEXT
  5
4505
330
1F
100
AcDbEntity
  8
AM_5
100
AcDbText
 10
890.689988605095
 20
1301.286820896881
 30
0.0
 40
5.25
  1
2-G1/8
100
AcDbText
  0
INSERT
  5
4506
330
1F
100
AcDbEntity
  8
AM_5
100
AcDbBlockReference
  2
*S14
 10
0.0
 20
6.684964436247355
 30
0.0
  0
INSERT
  5
4507
330
1F
100
AcDbEntity
  8
AM_5
100
AcDbBlockReference
  2
*S15
 10
0.0
 20
6.684964436247355
 30
0.0
  0
TEXT
  5
4508
330
1F
100
AcDbEntity
  8
AM_5
100
AcDbText
 10
843.147508129962
 20
1299.284950126748
 30
0.0
 40
5.25
  1
2-%%c5.5
100
AcDbText
  0
TEXT
  5
4509
330
1F
100
AcDbEntity
  8
AM_5
100
AcDbText
 10
766.1055790586703
 20
1436.854150049278
 30
0.0
 40
5.25
  1
2-%%c4.5
100
AcDbText
  0
INSERT
  5
450A
330
1F
100
AcDbEntity
  8
AM_5
100
AcDbBlockReference
  2
*S16
 10
0.0
 20
6.684964436247355
 30
0.0
  0
ARC
  5
450B
330
1F
100
AcDbEntity
  8
AM_4
100
AcDbCircle
 10
801.3754927843462
 20
1408.028553622058
 30
0.0
 40
8.5
100
AcDbArc
 50
259.9999999999961
 51
190.0000000000061
  0
CIRCLE
  5
450C
330
1F
100
AcDbEntity
  8
AM_VIS
100
AcDbCircle
 10
801.3754927843462
 20
1408.028553622058
 30
0.0
 40
7.5
  0
ARC
  5
450D
330
1F
100
AcDbEntity
  8
AM_4
100
AcDbCircle
 10
831.3754927843463
 20
1408.028553622058
 30
0.0
 40
8.5
100
AcDbArc
 50
259.9999999999961
 51
190.0000000000061
  0
CIRCLE
  5
450E
330
1F
100
AcDbEntity
  8
AM_VIS
100
AcDbCircle
 10
831.3754927843463
 20
1408.028553622058
 30
0.0
 40
7.5
  0
ARC
  5
450F
330
1F
100
AcDbEntity
  8
AM_4
100
AcDbCircle
 10
790.3754927843463
 20
1256.092666033887
 30
0.0
 40
8.5
100
AcDbArc
 50
259.9999999999961
 51
190.0000000000061
  0
CIRCLE
  5
4510
330
1F
100
AcDbEntity
  8
AM_VIS
100
AcDbCircle
 10
790.3754927843463
 20
1256.092666033887
 30
0.0
 40
7.5
  0
ARC
  5
4511
330
1F
100
AcDbEntity
  8
AM_4
100
AcDbCircle
 10
816.3754927843463
 20
1256.092666033887
 30
0.0
 40
8.5
100
AcDbArc
 50
259.9999999999961
 51
190.0000000000061
  0
CIRCLE
  5
4512
330
1F
100
AcDbEntity
  8
AM_VIS
100
AcDbCircle
 10
816.3754927843463
 20
1256.092666033887
 30
0.0
 40
7.5
  0
ARC
  5
4513
330
1F
100
AcDbEntity
  8
AM_4
100
AcDbCircle
 10
842.3754927843463
 20
1256.092666033887
 30
0.0
 40
8.5
100
AcDbArc
 50
259.9999999999961
 51
190.0000000000061
  0
CIRCLE
  5
4514
330
1F
100
AcDbEntity
  8
AM_VIS
100
AcDbCircle
 10
842.3754927843463
 20
1256.092666033887
 30
0.0
 40
7.5
  0
POINT
  5
4520
330
1F
100
AcDbEntity
  8
0
 60
     1
100
AcDbPoint
 10
412.9112026173759
 20
-44.05348560828429
 30
0.0
1001
GENIUS_GENOENT_13
1002
{
1000
MYREF
1005
4520
1002
}
1002
{
1000
GRP
1005
0
1002
}
1001
GENIUS_GENOBJ-N-CRS_13
1002
{
1000
OWNER
1000
GEN
1002
}
1001
GENIUS_GENOLIS_13
1002
{
1000
ENT
1005
44BF
1005
44BE
1005
44BD
1005
44BC
1002
}
1001
GENIUS_GENODEF_13
1002
{
1000
HIER
1070
    10
1002
}
1002
{
1000
MANEDIT
1070
     0
1002
}
1002
{
1000
NOSEL
1070
     0
1002
}
1002
{
1000
BEHIND
1070
     0
1002
}
1002
{
1000
OTHER
1070
     0
1002
}
1002
{
1000
REACTOR
1002
}
  0
POINT
  5
4521
330
1F
100
AcDbEntity
  8
0
 60
     1
100
AcDbPoint
 10
412.9112026173759
 20
-44.05348560828429
 30
0.0
1001
GENIUS_GENOENT_13
1002
{
1000
MYREF
1005
4521
1002
}
1002
{
1000
GRP
1005
0
1002
}
1001
GENIUS_GENOBJ-N-CRS_13
1002
{
1000
OWNER
1000
GEN
1002
}
1001
GENIUS_GENODEF_13
1002
{
1000
HIER
1070
    10
1002
}
1002
{
1000
MANEDIT
1070
     0
1002
}
1002
{
1000
NOSEL
1070
     0
1002
}
1002
{
1000
BEHIND
1070
     0
1002
}
1002
{
1000
OTHER
1070
     0
1002
}
1002
{
1000
REACTOR
1002
}
1001
GENIUS_GENOLIS_13
1002
{
1000
ENT
1005
44BB
1005
44BA
1005
44B9
1005
44B8
1002
}
  0
POINT
  5
4522
330
1F
100
AcDbEntity
  8
0
 60
     1
100
AcDbPoint
 10
412.9112026173759
 20
-44.05348560828429
 30
0.0
1001
GENIUS_GENOENT_13
1002
{
1000
MYREF
1005
4522
1002
}
1002
{
1000
GRP
1005
0
1002
}
1001
GENIUS_GENOBJ-N-CRS_13
1002
{
1000
OWNER
1000
GEN
1002
}
1001
GENIUS_GENODEF_13
1002
{
1000
HIER
1070
    10
1002
}
1002
{
1000
MANEDIT
1070
     0
1002
}
1002
{
1000
NOSEL
1070
     0
1002
}
1002
{
1000
BEHIND
1070
     0
1002
}
1002
{
1000
OTHER
1070
     0
1002
}
1002
{
1000
REACTOR
1002
}
1001
GENIUS_GENOLIS_13
1002
{
1000
ENT
1005
44B7
1005
44B6
1005
44B5
1005
44B4
1002
}
  0
POINT
  5
4528
330
1F
100
AcDbEntity
  8
0
 60
     1
100
AcDbPoint
 10
412.9112026173759
 20
-44.05348560828429
 30
0.0
1001
GENIUS_GENODEF_13
1002
{
1000
HIER
1070
    10
1002
}
1002
{
1000
MANEDIT
1070
     0
1002
}
1002
{
1000
NOSEL
1070
     0
1002
}
1002
{
1000
BEHIND
1070
     0
1002
}
1002
{
1000
OTHER
1070
     0
1002
}
1002
{
1000
REACTOR
1002
}
1001
GENIUS_GENOENT_13
1002
{
1000
MYREF
1005
4528
1002
}
1002
{
1000
GRP
1005
0
1002
}
1001
GENIUS_GENOBJ-N-CRS_13
1002
{
1000
OWNER
1000
GEN
1002
}
1001
GENIUS_GENOLIS_13
1002
{
1000
ENT
1005
449F
1005
449E
1005
449D
1005
449C
1002
}
  0
POINT
  5
4529
330
1F
100
AcDbEntity
  8
0
 60
     1
100
AcDbPoint
 10
412.9112026173759
 20
-44.05348560828429
 30
0.0
1001
GENIUS_GENOLIS_13
1002
{
1000
ENT
1005
449B
1005
449A
1005
4499
1005
4498
1002
}
1001
GENIUS_GENODEF_13
1002
{
1000
HIER
1070
    10
1002
}
1002
{
1000
MANEDIT
1070
     0
1002
}
1002
{
1000
NOSEL
1070
     0
1002
}
1002
{
1000
BEHIND
1070
     0
1002
}
1002
{
1000
OTHER
1070
     0
1002
}
1002
{
1000
REACTOR
1002
}
1001
GENIUS_GENOENT_13
1002
{
1000
MYREF
1005
4529
1002
}
1002
{
1000
GRP
1005
0
1002
}
1001
GENIUS_GENOBJ-N-CRS_13
1002
{
1000
OWNER
1000
GEN
1002
}
  0
POINT
  5
452A
330
1F
100
AcDbEntity
  8
0
 60
     1
100
AcDbPoint
 10
412.9112026173759
 20
-44.05348560828429
 30
0.0
1001
GENIUS_GENODEF_13
1002
{
1000
HIER
1070
    10
1002
}
1002
{
1000
MANEDIT
1070
     0
1002
}
1002
{
1000
NOSEL
1070
     0
1002
}
1002
{
1000
BEHIND
1070
     0
1002
}
1002
{
1000
OTHER
1070
     0
1002
}
1002
{
1000
REACTOR
1002
}
1001
GENIUS_GENOENT_13
1002
{
1000
MYREF
1005
452A
1002
}
1002
{
1000
GRP
1005
0
1002
}
1001
GENIUS_GENOBJ-N-CRS_13
1002
{
1000
OWNER
1000
GEN
1002
}
1001
GENIUS_GENOLIS_13
1002
{
1000
ENT
1005
4497
1005
4496
1005
4495
1005
4494
1002
}
  0
POINT
  5
452B
330
1F
100
AcDbEntity
  8
0
 60
     1
100
AcDbPoint
 10
412.9112026173759
 20
-44.05348560828429
 30
0.0
1001
GENIUS_GENODEF_13
1002
{
1000
HIER
1070
    10
1002
}
1002
{
1000
MANEDIT
1070
     0
1002
}
1002
{
1000
NOSEL
1070
     0
1002
}
1002
{
1000
BEHIND
1070
     0
1002
}
1002
{
1000
OTHER
1070
     0
1002
}
1002
{
1000
REACTOR
1002
}
1001
GENIUS_GENOENT_13
1002
{
1000
MYREF
1005
452B
1002
}
1002
{
1000
GRP
1005
0
1002
}
1001
GENIUS_GENOBJ-N-CRS_13
1002
{
1000
OWNER
1000
GEN
1002
}
1001
GENIUS_GENOLIS_13
1002
{
1000
ENT
1005
4493
1005
4492
1005
4491
1005
4490
1002
}
  0
POINT
  5
452C
330
1F
100
AcDbEntity
  8
0
 60
     1
100
AcDbPoint
 10
412.9112026173759
 20
-44.05348560828429
 30
0.0
1001
GENIUS_GENODEF_13
1002
{
1000
HIER
1070
    10
1002
}
1002
{
1000
MANEDIT
1070
     0
1002
}
1002
{
1000
NOSEL
1070
     0
1002
}
1002
{
1000
BEHIND
1070
     0
1002
}
1002
{
1000
OTHER
1070
     0
1002
}
1002
{
1000
REACTOR
1002
}
1001
GENIUS_GENOBJ-N-CRS_13
1002
{
1000
OWNER
1000
GEN
1002
}
1001
GENIUS_GENOENT_13
1002
{
1000
MYREF
1005
452C
1002
}
1002
{
1000
GRP
1005
0
1002
}
1001
GENIUS_GENOLIS_13
1002
{
1000
ENT
1005
448F
1005
448E
1005
448D
1005
448C
1002
}
  0
LINE
  5
49F0
330
1F
100
AcDbEntity
  8
AM_VIS
100
AcDbLine
 10
805.8754927843462
 20
1423.028553622058
 30
0.0
 11
813.8754927843462
 21
1423.028553622058
 31
0.0
  0
LINE
  5
49F1
330
1F
100
AcDbEntity
  8
AM_VIS
100
AcDbLine
 10
805.8754927843462
 20
1419.528553622058
 30
0.0
 11
805.8754927843462
 21
1423.028553622058
 31
0.0
  0
LINE
  5
49F2
330
1F
100
AcDbEntity
  8
AM_VIS
100
AcDbLine
 10
813.8754927843462
 20
1423.028553622058
 30
0.0
 11
813.8754927843462
 21
1419.528553622058
 31
0.0
  0
LINE
  5
49F3
330
1F
100
AcDbEntity
  8
AM_VIS
100
AcDbLine
 10
818.8754927843463
 20
1393.028553622058
 30
0.0
 11
818.8754927843463
 21
1396.528553622058
 31
0.0
  0
LINE
  5
49F4
330
1F
100
AcDbEntity
  8
AM_VIS
100
AcDbLine
 10
826.8754927843463
 20
1396.528553622058
 30
0.0
 11
826.8754927843463
 21
1393.028553622058
 31
0.0
  0
LINE
  5
49F5
330
1F
100
AcDbEntity
  8
AM_VIS
100
AcDbLine
 10
826.8754927843463
 20
1393.028553622058
 30
0.0
 11
818.8754927843463
 21
1393.028553622058
 31
0.0
  0
CIRCLE
  5
49F6
330
1F
100
AcDbEntity
  8
AM_VIS
100
AcDbCircle
 10
809.8754927843463
 20
1419.528553622058
 30
0.0
 40
2.25
  0
ARC
  5
49F7
330
1F
100
AcDbEntity
  8
AM_VIS
100
AcDbCircle
 10
809.8754927843463
 20
1419.528553622058
 30
0.0
 40
4.0
100
AcDbArc
 50
180.0
 51
0.0
  0
ARC
  5
49F8
330
1F
100
AcDbEntity
  8
AM_VIS
100
AcDbCircle
 10
822.8754927843462
 20
1396.528553622058
 30
0.0
 40
4.0
100
AcDbArc
 50
0.0
 51
180.0
  0
CIRCLE
  5
49F9
330
1F
100
AcDbEntity
  8
AM_VIS
100
AcDbCircle
 10
822.8754927843462
 20
1396.528553622058
 30
0.0
 40
2.25
  0
LINE
  5
49FA
330
1F
100
AcDbEntity
  8
AM_7
  6
AM_ISO08W050x2
100
AcDbLine
 10
822.8754927843462
 20
1396.528553622058
 30
0.0
 11
828.3754927843462
 21
1396.528553622058
 31
0.0
1001
GENIUS_GENOREF_13
1005
4A02
  0
LINE
  5
49FB
330
1F
100
AcDbEntity
  8
AM_7
  6
AM_ISO08W050x2
100
AcDbLine
 10
822.8754927843462
 20
1396.528553622058
 30
0.0
 11
822.8754927843462
 21
1402.028553622058
 31
0.0
1001
GENIUS_GENOREF_13
1005
4A02
  0
LINE
  5
49FC
330
1F
100
AcDbEntity
  8
AM_7
  6
AM_ISO08W050x2
100
AcDbLine
 10
822.8754927843462
 20
1396.528553622058
 30
0.0
 11
817.3754927843463
 21
1396.528553622058
 31
0.0
1001
GENIUS_GENOREF_13
1005
4A02
  0
LINE
  5
49FD
330
1F
100
AcDbEntity
  8
AM_7
  6
AM_ISO08W050x2
100
AcDbLine
 10
822.8754927843462
 20
1396.528553622058
 30
0.0
 11
822.8754927843462
 21
1391.028553622058
 31
0.0
1001
GENIUS_GENOREF_13
1005
4A02
  0
LINE
  5
49FE
330
1F
100
AcDbEntity
  8
AM_7
  6
AM_ISO08W050x2
100
AcDbLine
 10
809.8754927843463
 20
1419.528553622058
 30
0.0
 11
815.3754927843463
 21
1419.528553622058
 31
0.0
  0
LINE
  5
49FF
330
1F
100
AcDbEntity
  8
AM_7
  6
AM_ISO08W050x2
100
AcDbLine
 10
809.8754927843463
 20
1419.528553622058
 30
0.0
 11
809.8754927843463
 21
1425.028553622058
 31
0.0
  0
LINE
  5
4A00
330
1F
100
AcDbEntity
  8
AM_7
  6
AM_ISO08W050x2
100
AcDbLine
 10
809.8754927843463
 20
1419.528553622058
 30
0.0
 11
809.8754927843463
 21
1414.028553622058
 31
0.0
  0
LINE
  5
4A01
330
1F
100
AcDbEntity
  8
AM_7
  6
AM_ISO08W050x2
100
AcDbLine
 10
809.8754927843463
 20
1419.528553622058
 30
0.0
 11
804.3754927843462
 21
1419.528553622058
 31
0.0
  0
POINT
  5
4A02
330
1F
100
AcDbEntity
  8
0
 60
     1
100
AcDbPoint
 10
-370.7369828196374
 20
310.4179064622294
 30
0.0
1001
GENIUS_GENOLIS_13
1002
{
1000
ENT
1005
49FD
1005
49FC
1005
49FB
1005
49FA
1002
}
1001
GENIUS_GENODEF_13
1002
{
1000
HIER
1070
    10
1002
}
1002
{
1000
MANEDIT
1070
     0
1002
}
1002
{
1000
NOSEL
1070
     0
1002
}
1002
{
1000
BEHIND
1070
     0
1002
}
1002
{
1000
OTHER
1070
     0
1002
}
1002
{
1000
REACTOR
1002
}
1001
GENIUS_GENOENT_13
1002
{
1000
MYREF
1005
4A02
1002
}
1002
{
1000
GRP
1005
0
1002
}
1001
GENIUS_GENOBJ-N-CRS_13
1002
{
1000
OWNER
1000
GEN
1002
}
  0
LINE
  5
4A27
330
1F
100
AcDbEntity
  8
AM_VIS
100
AcDbLine
 10
850.8754927843463
 20
1320.540224409773
 30
0.0
 11
845.8754927843463
 21
1320.540224409773
 31
0.0
  0
LINE
  5
4A28
330
1F
100
AcDbEntity
  8
AM_VIS
100
AcDbLine
 10
782.8754927843463
 20
1343.890224409773
 30
0.0
 11
816.3754927843463
 21
1343.890224409773
 31
0.0
  0
LINE
  5
4A29
330
1F
100
AcDbEntity
  8
AM_VIS
100
AcDbLine
 10
788.1641846347875
 20
1351.890224409773
 30
0.0
 11
782.8754927843463
 21
1351.890224409773
 31
0.0
  0
LINE
  5
4A2A
330
1F
100
AcDbEntity
  8
AM_VIS
100
AcDbLine
 10
791.3754927843463
 20
1353.853995260199
 30
0.0
 11
781.8754927843463
 21
1353.853995260199
 31
0.0
  0
LINE
  5
4A2B
330
1F
100
AcDbEntity
  8
AM_VIS
100
AcDbLine
 10
826.8754927843463
 20
1355.590224409773
 30
0.0
 11
818.8754927843463
 21
1355.590224409773
 31
0.0
  0
LINE
  5
4A2C
102
{ACAD_REACTORS
330
4B40
102
}
330
1F
100
AcDbEntity
  8
AM_VIS
100
AcDbLine
 10
826.8754927843463
 20
1359.590224409773
 30
0.0
 11
826.8754927843463
 21
1355.590224409773
 31
0.0
  0
LINE
  5
4A2D
330
1F
100
AcDbEntity
  8
AM_VIS
100
AcDbLine
 10
818.8754927843463
 20
1355.590224409773
 30
0.0
 11
818.8754927843463
 21
1359.590224409773
 31
0.0
  0
LINE
  5
4A2E
330
1F
100
AcDbEntity
  8
AM_VIS
100
AcDbLine
 10
781.8754927843463
 20
1356.590224409773
 30
0.0
 11
781.8754927843463
 21
1351.390224409773
 31
0.0
  0
LINE
  5
4A2F
330
1F
100
AcDbEntity
  8
AM_VIS
100
AcDbLine
 10
781.8754927843463
 20
1351.390224409773
 30
0.0
 11
781.8754927843463
 21
1344.390224409773
 31
0.0
  0
LINE
  5
4A30
330
1F
100
AcDbEntity
  8
AM_VIS
100
AcDbLine
 10
781.8754927843463
 20
1344.390224409773
 30
0.0
 11
781.8754927843463
 21
1316.190224409773
 31
0.0
  0
LINE
  5
4A31
330
1F
100
AcDbEntity
  8
AM_VIS
100
AcDbLine
 10
798.1254927843463
 20
1316.190224409773
 30
0.0
 11
781.8754927843463
 21
1316.190224409773
 31
0.0
  0
LINE
  5
4A32
330
1F
100
AcDbEntity
  8
AM_VIS
100
AcDbLine
 10
799.1254927843463
 20
1317.190224409773
 30
0.0
 11
799.1254927843463
 21
1317.890224409773
 31
0.0
  0
LINE
  5
4A33
330
1F
100
AcDbEntity
  8
AM_VIS
100
AcDbLine
 10
807.6254927843462
 20
1317.890224409773
 30
0.0
 11
807.6254927843462
 21
1317.190224409773
 31
0.0
  0
LINE
  5
4A34
330
1F
100
AcDbEntity
  8
AM_VIS
100
AcDbLine
 10
825.0670707994427
 20
1319.890224409773
 30
0.0
 11
819.3754927843462
 21
1319.890224409773
 31
0.0
  0
LINE
  5
4A35
330
1F
100
AcDbEntity
  8
AM_VIS
100
AcDbLine
 10
850.8754927843463
 20
1316.190224409773
 30
0.0
 11
834.6254927843462
 21
1316.190224409773
 31
0.0
  0
LINE
  5
4A36
330
1F
100
AcDbEntity
  8
AM_VIS
100
AcDbLine
 10
850.8754927843463
 20
1316.190224409773
 30
0.0
 11
850.8754927843463
 21
1355.590224409773
 31
0.0
  0
LINE
  5
4A37
330
1F
100
AcDbEntity
  8
AM_VIS
100
AcDbLine
 10
820.3754927843462
 20
1351.340224409773
 30
0.0
 11
820.3754927843462
 21
1347.890224409773
 31
0.0
  0
SPLINE
  5
4A38
330
1F
100
AcDbEntity
  8
AM_VIS
100
AcDbSpline
210
0.0
220
0.0
230
1.0
 70
     8
 71
     3
 72
    10
 73
     6
 74
     0
 42
0.0000000001
 43
0.0000000001
 40
-1.896800349551322
 40
-1.896800349551322
 40
-1.896800349551322
 40
-1.896800349551322
 40
-1.895154008054369
 40
-1.895154008054369
 40
-1.888306925220645
 40
-1.888306925220645
 40
-1.888306925220645
 40
-1.888306925220645
 10
820.3755044643719
 20
1348.030390621032
 30
0.0
 10
820.3755029455662
 20
1348.030390548626
 30
0.0
 10
820.3755015754522
 20
1348.030388930966
 30
0.0
 10
820.3754952723761
 20
1348.030372617558
 30
0.0
 10
820.3754927843462
 20
1348.030332826987
 30
0.0
 10
820.3754927843462
 20
1348.030267326071
 30
0.0
  0
LINE
  5
4A39
330
1F
100
AcDbEntity
  8
AM_VIS
100
AcDbLine
 10
829.8754927843463
 20
1356.590224409773
 30
0.0
 11
849.8754927843462
 21
1356.590224409773
 31
0.0
  0
LINE
  5
4A3A
330
1F
100
AcDbEntity
  8
AM_VIS
100
AcDbLine
 10
828.8754927843463
 20
1352.590224409773
 30
0.0
 11
828.8754927843463
 21
1355.590224409773
 31
0.0
  0
LINE
  5
4A3B
330
1F
100
AcDbEntity
  8
AM_VIS
100
AcDbLine
 10
820.6254927843463
 20
1351.590224409773
 30
0.0
 11
827.8754927843463
 21
1351.590224409773
 31
0.0
  0
LINE
  5
4A3C
330
1F
100
AcDbEntity
  8
AM_VIS
100
AcDbLine
 10
817.3754927843463
 20
1316.190224409773
 30
0.0
 11
808.6254927843462
 21
1316.190224409773
 31
0.0
  0
LINE
  5
4A3D
330
1F
100
AcDbEntity
  8
AM_VIS
100
AcDbLine
 10
818.3754927843462
 20
1318.890224409773
 30
0.0
 11
818.3754927843462
 21
1317.190224409773
 31
0.0
  0
LINE
  5
4A3E
330
1F
100
AcDbEntity
  8
AM_VIS
100
AcDbLine
 10
844.8754927843463
 20
1317.390224409773
 30
0.0
 11
844.8754927843463
 21
1316.190224409773
 31
0.0
  0
LINE
  5
4A3F
330
1F
100
AcDbEntity
  8
AM_VIS
100
AcDbLine
 10
833.6254927843462
 20
1317.890224409773
 30
0.0
 11
833.6254927843462
 21
1317.190224409773
 31
0.0
  0
LINE
  5
4A40
330
1F
100
AcDbEntity
  8
AM_VIS
100
AcDbLine
 10
781.8754927843463
 20
1320.540224409773
 30
0.0
 11
786.8754927843463
 21
1320.540224409773
 31
0.0
  0
LINE
  5
4A41
330
1F
100
AcDbEntity
  8
AM_VIS
100
AcDbLine
 10
787.8754927843463
 20
1316.190224409773
 30
0.0
 11
787.8754927843463
 21
1317.390224409773
 31
0.0
  0
LINE
  5
4A42
330
1F
100
AcDbEntity
  8
AM_VIS
100
AcDbLine
 10
811.5213708246095
 20
1351.890224409773
 30
0.0
 11
796.1254927843463
 21
1351.890224409773
 31
0.0
  0
LINE
  5
4A43
330
1F
100
AcDbEntity
  8
AM_VIS
100
AcDbLine
 10
781.8754927843463
 20
1356.590224409773
 30
0.0
 11
811.1723687227847
 21
1356.590224409773
 31
0.0
  0
LINE
  5
4A44
330
1F
100
AcDbEntity
  8
AM_VIS
100
AcDbLine
 10
791.3754927843463
 20
1356.456249813557
 30
0.0
 11
791.3754927843463
 21
1353.853995260199
 31
0.0
  0
ARC
  5
4A45
330
1F
100
AcDbEntity
  8
AM_VIS
100
AcDbCircle
 10
791.5447167065426
 20
1347.984680087114
 30
0.0
 40
5.203755826916125
100
AcDbArc
 50
91.86356289479123
 51
113.3076277541129
  0
LINE
  5
4A46
330
1F
100
AcDbEntity
  8
AM_VIS
100
AcDbLine
 10
795.1254927843462
 20
1355.590224409773
 30
0.0
 11
795.1254927843462
 21
1352.890224409773
 31
0.0
  0
ARC
  5
4A47
330
1F
100
AcDbEntity
  8
AM_VIS
100
AcDbCircle
 10
789.5917845907472
 20
1350.968004562186
 30
0.0
 40
1.730897325113616
100
AcDbArc
 50
107.6505983135952
 51
147.8052524131203
  0
LINE
  5
4A48
330
1F
100
AcDbEntity
  8
AM_VIS
100
AcDbLine
 10
789.0674536376559
 20
1352.615987798506
 30
0.0
 11
789.4864680195892
 21
1352.761736161961
 31
0.0
  0
LINE
  5
4A49
330
1F
100
AcDbEntity
  8
AM_VIS
100
AcDbLine
 10
790.4059583113507
 20
1356.59047576098
 30
0.0
 11
791.3754897070821
 21
1356.584695677162
 31
0.0
  0
ARC
  5
4A4A
330
1F
100
AcDbEntity
  8
AM_VIS
100
AcDbCircle
 10
788.0183102421977
 20
1352.052359720212
 30
0.0
 40
0.1804820260397376
100
AcDbArc
 50
296.0584960283259
 51
321.1893515986192
  0
ARC
  5
4A4B
330
1F
100
AcDbEntity
  8
AM_VIS
100
AcDbCircle
 10
782.8754927843463
 20
1352.890224409773
 30
0.0
 40
1.0
100
AcDbArc
 50
180.0
 51
270.0
  0
ARC
  5
4A4C
330
1F
100
AcDbEntity
  8
AM_VIS
100
AcDbCircle
 10
782.8754927843463
 20
1342.890224409773
 30
0.0
 40
1.0
100
AcDbArc
 50
90.0
 51
180.0
  0
LINE
  5
4A4D
102
{ACAD_REACTORS
330
4B40
102
}
330
1F
100
AcDbEntity
  8
AM_VIS
100
AcDbLine
 10
818.8754927843463
 20
1359.590224409773
 30
0.0
 11
826.8754927843463
 21
1359.590224409773
 31
0.0
  0
CIRCLE
  5
4A4E
330
1F
100
AcDbEntity
  8
AM_VIS
100
AcDbCircle
 10
816.3754927843463
 20
1347.890224409773
 30
0.0
 40
1.35
  0
CIRCLE
  5
4A4F
330
1F
100
AcDbEntity
  8
AM_VIS
100
AcDbCircle
 10
829.3754927843462
 20
1317.890224409773
 30
0.0
 40
2.75
  0
CIRCLE
  5
4A50
330
1F
100
AcDbEntity
  8
AM_VIS
100
AcDbCircle
 10
803.3754927843462
 20
1317.890224409773
 30
0.0
 40
2.75
  0
ARC
  5
4A51
330
1F
100
AcDbEntity
  8
AM_VIS
100
AcDbCircle
 10
812.63413635555
 20
1351.207188695487
 30
0.0
 40
1.0
100
AcDbArc
 50
318.4408524081332
 51
44.54993459296599
  0
ARC
  5
4A52
330
1F
100
AcDbEntity
  8
AM_VIS
100
AcDbCircle
 10
816.3754927843463
 20
1354.890224409773
 30
0.0
 40
4.25
100
AcDbArc
 50
221.8103148957702
 51
224.549934592966
  0
ARC
  5
4A53
330
1F
100
AcDbEntity
  8
AM_VIS
100
AcDbCircle
 10
811.1723687227847
 20
1355.590224409773
 30
0.0
 40
0.9999999999999998
100
AcDbArc
 50
352.3377443392412
 51
90.0
  0
ARC
  5
4A54
330
1F
100
AcDbEntity
  8
AM_VIS
100
AcDbCircle
 10
798.1254927843463
 20
1317.190224409773
 30
0.0
 40
0.9999999999999998
100
AcDbArc
 50
270.0
 51
0.0
  0
ARC
  5
4A55
330
1F
100
AcDbEntity
  8
AM_VIS
100
AcDbCircle
 10
803.3754927843462
 20
1317.890224409773
 30
0.0
 40
4.25
100
AcDbArc
 50
0.0
 51
180.0
  0
ARC
  5
4A56
330
1F
100
AcDbEntity
  8
AM_VIS
100
AcDbCircle
 10
808.6254927843462
 20
1317.190224409773
 30
0.0
 40
0.9999999999999998
100
AcDbArc
 50
180.0
 51
270.0
  0
ARC
  5
4A57
330
1F
100
AcDbEntity
  8
AM_VIS
100
AcDbCircle
 10
825.0670707994427
 20
1320.890224409773
 30
0.0
 40
1.0
100
AcDbArc
 50
270.0
 51
325.1500954209618
  0
ARC
  5
4A58
330
1F
100
AcDbEntity
  8
AM_VIS
100
AcDbCircle
 10
816.3754927843463
 20
1347.890224409773
 30
0.0
 40
4.0
100
AcDbArc
 50
138.4408524081332
 51
0.0
  0
ARC
  5
4A59
330
1F
100
AcDbEntity
  8
AM_VIS
100
AcDbCircle
 10
820.6254927843463
 20
1351.340224409773
 30
0.0
 40
0.25
100
AcDbArc
 50
90.0
 51
180.0
  0
ARC
  5
4A5A
330
1F
100
AcDbEntity
  8
AM_VIS
100
AcDbCircle
 10
829.8754927843463
 20
1355.590224409773
 30
0.0
 40
0.9999999999999998
100
AcDbArc
 50
90.0
 51
180.0
  0
ARC
  5
4A5B
330
1F
100
AcDbEntity
  8
AM_VIS
100
AcDbCircle
 10
827.8754927843463
 20
1352.590224409773
 30
0.0
 40
0.9999999999999998
100
AcDbArc
 50
270.0
 51
0.0
  0
ARC
  5
4A5C
330
1F
100
AcDbEntity
  8
AM_VIS
100
AcDbCircle
 10
819.3754927843462
 20
1318.890224409773
 30
0.0
 40
0.9999999999999998
100
AcDbArc
 50
90.0
 51
180.0
  0
ARC
  5
4A5D
330
1F
100
AcDbEntity
  8
AM_VIS
100
AcDbCircle
 10
817.3754927843463
 20
1317.190224409773
 30
0.0
 40
1.0
100
AcDbArc
 50
270.0
 51
0.0
  0
LINE
  5
4A5E
330
1F
100
AcDbEntity
  8
AM_VIS
100
AcDbLine
 10
844.8754927843463
 20
1317.390224409773
 30
0.0
 11
844.8754927843463
 21
1319.540224409773
 31
0.0
  0
ARC
  5
4A5F
330
1F
100
AcDbEntity
  8
AM_VIS
100
AcDbCircle
 10
845.8754927843463
 20
1319.540224409773
 30
0.0
 40
1.0
100
AcDbArc
 50
90.0
 51
180.0
  0
ARC
  5
4A60
330
1F
100
AcDbEntity
  8
AM_VIS
100
AcDbCircle
 10
829.3754927843462
 20
1317.890224409773
 30
0.0
 40
4.25
100
AcDbArc
 50
0.0
 51
145.1500954209618
  0
ARC
  5
4A61
330
1F
100
AcDbEntity
  8
AM_VIS
100
AcDbCircle
 10
834.6254927843462
 20
1317.190224409773
 30
0.0
 40
0.9999999999999998
100
AcDbArc
 50
180.0
 51
270.0
  0
ARC
  5
4A62
330
1F
100
AcDbEntity
  8
AM_VIS
100
AcDbCircle
 10
786.8754927843463
 20
1319.540224409773
 30
0.0
 40
1.0
100
AcDbArc
 50
0.0
 51
90.0
  0
LINE
  5
4A63
330
1F
100
AcDbEntity
  8
AM_VIS
100
AcDbLine
 10
787.8754927843463
 20
1319.540224409773
 30
0.0
 11
787.8754927843463
 21
1317.390224409773
 31
0.0
  0
ARC
  5
4A64
330
1F
100
AcDbEntity
  8
AM_VIS
100
AcDbCircle
 10
849.8754927843462
 20
1355.590224409773
 30
0.0
 40
0.9999999999999998
100
AcDbArc
 50
0.0
 51
90.0
  0
ARC
  5
4A65
330
1F
100
AcDbEntity
  8
AM_VIS
100
AcDbCircle
 10
816.3754927843463
 20
1354.890224409773
 30
0.0
 40
4.25
100
AcDbArc
 50
172.3377443392412
 51
221.8103148957702
  0
ARC
  5
4A66
330
1F
100
AcDbEntity
  8
AM_VIS
100
AcDbCircle
 10
811.5213708246095
 20
1352.890224409773
 30
0.0
 40
1.0
100
AcDbArc
 50
270.0
 51
22.39268780541091
  0
LINE
  5
4A67
330
1F
100
AcDbEntity
  8
AM_VIS
100
AcDbLine
 10
791.3754927843463
 20
1353.853995260199
 30
0.0
 11
791.3754927843463
 21
1353.185683641268
 31
0.0
  0
LINE
  5
4A68
330
1F
100
AcDbEntity
  8
AM_VIS
100
AcDbLine
 10
791.3754927843463
 20
1356.58521184688
 30
0.0
 11
791.3754927843463
 21
1356.456249813557
 31
0.0
  0
ARC
  5
4A69
330
1F
100
AcDbEntity
  8
AM_VIS
100
AcDbCircle
 10
796.1254927843463
 20
1355.590224409773
 30
0.0
 40
1.0
100
AcDbArc
 50
90.0
 51
180.0
  0
ARC
  5
4A6A
330
1F
100
AcDbEntity
  8
AM_VIS
100
AcDbCircle
 10
796.1254927843463
 20
1352.890224409773
 30
0.0
 40
0.9999999999999996
100
AcDbArc
 50
180.0
 51
270.0
  0
LINE
  5
4A6B
330
1F
100
AcDbEntity
  8
AM_7
  6
AM_ISO08W050x2
100
AcDbLine
 10
803.3754927843462
 20
1317.890224409773
 30
0.0
 11
809.1254927843463
 21
1317.890224409773
 31
0.0
1001
GENIUS_GENOREF_13
1005
4A74
  0
LINE
  5
4A6C
330
1F
100
AcDbEntity
  8
AM_7
  6
AM_ISO08W050x2
100
AcDbLine
 10
803.3754927843462
 20
1317.890224409773
 30
0.0
 11
803.3754927843462
 21
1323.640224409773
 31
0.0
1001
GENIUS_GENOREF_13
1005
4A74
  0
LINE
  5
4A6D
330
1F
100
AcDbEntity
  8
AM_7
  6
AM_ISO08W050x2
100
AcDbLine
 10
803.3754927843462
 20
1317.890224409773
 30
0.0
 11
797.6254927843463
 21
1317.890224409773
 31
0.0
1001
GENIUS_GENOREF_13
1005
4A74
  0
LINE
  5
4A6E
102
{ACAD_REACTORS
330
4AF7
102
}
330
1F
100
AcDbEntity
  8
AM_7
  6
AM_ISO08W050x2
100
AcDbLine
 10
803.3754927843462
 20
1317.890224409773
 30
0.0
 11
803.3754927843462
 21
1312.140224409773
 31
0.0
1001
GENIUS_GENOREF_13
1005
4A74
  0
LINE
  5
4A6F
330
1F
100
AcDbEntity
  8
AM_7
  6
AM_ISO08W050x2
100
AcDbLine
 10
829.3754927843462
 20
1317.890224409773
 30
0.0
 11
835.1254927843463
 21
1317.890224409773
 31
0.0
1001
GENIUS_GENOREF_13
1005
4A73
  0
LINE
  5
4A70
330
1F
100
AcDbEntity
  8
AM_7
  6
AM_ISO08W050x2
100
AcDbLine
 10
829.3754927843462
 20
1317.890224409773
 30
0.0
 11
829.3754927843462
 21
1323.640224409773
 31
0.0
1001
GENIUS_GENOREF_13
1005
4A73
  0
LINE
  5
4A71
330
1F
100
AcDbEntity
  8
AM_7
  6
AM_ISO08W050x2
100
AcDbLine
 10
829.3754927843462
 20
1317.890224409773
 30
0.0
 11
823.6254927843463
 21
1317.890224409773
 31
0.0
1001
GENIUS_GENOREF_13
1005
4A73
  0
LINE
  5
4A72
330
1F
100
AcDbEntity
  8
AM_7
  6
AM_ISO08W050x2
100
AcDbLine
 10
829.3754927843462
 20
1317.890224409773
 30
0.0
 11
829.3754927843462
 21
1312.140224409773
 31
0.0
1001
GENIUS_GENOREF_13
1005
4A73
  0
POINT
  5
4A73
330
1F
100
AcDbEntity
  8
0
 60
     1
100
AcDbPoint
 10
-366.4218471913928
 20
338.6053347685301
 30
0.0
1001
GENIUS_GENOBJ-N-CRS_13
1002
{
1000
OWNER
1000
GEN
1002
}
1001
GENIUS_GENOLIS_13
1002
{
1000
ENT
1005
4A72
1005
4A71
1005
4A70
1005
4A6F
1002
}
1001
GENIUS_GENOENT_13
1002
{
1000
MYREF
1005
4A73
1002
}
1002
{
1000
GRP
1005
0
1002
}
1001
GENIUS_GENODEF_13
1002
{
1000
HIER
1070
    10
1002
}
1002
{
1000
MANEDIT
1070
     0
1002
}
1002
{
1000
NOSEL
1070
     0
1002
}
1002
{
1000
BEHIND
1070
     0
1002
}
1002
{
1000
OTHER
1070
     0
1002
}
1002
{
1000
REACTOR
1002
}
  0
POINT
  5
4A74
330
1F
100
AcDbEntity
  8
0
 60
     1
100
AcDbPoint
 10
-366.4218471913928
 20
338.6053347685301
 30
0.0
1001
GENIUS_GENODEF_13
1002
{
1000
HIER
1070
    10
1002
}
1002
{
1000
MANEDIT
1070
     0
1002
}
1002
{
1000
NOSEL
1070
     0
1002
}
1002
{
1000
BEHIND
1070
     0
1002
}
1002
{
1000
OTHER
1070
     0
1002
}
1002
{
1000
REACTOR
1002
}
1001
GENIUS_GENOENT_13
1002
{
1000
MYREF
1005
4A74
1002
}
1002
{
1000
GRP
1005
0
1002
}
1001
GENIUS_GENOBJ-N-CRS_13
1002
{
1000
OWNER
1000
GEN
1002
}
1001
GENIUS_GENOLIS_13
1002
{
1000
ENT
1005
4A6E
1005
4A6D
1005
4A6C
1005
4A6B
1002
}
  0
DIMENSION
  5
4AE9
102
{ACAD_XDICTIONARY
360
4AF6
102
}
102
{ACAD_REACTORS
330
4AF7
102
}
330
1F
100
AcDbEntity
  8
AM_5
100
AcDbDimension
  2
*D17
 10
803.3754927843462
 20
1299.190224409773
 30
0.0
 11
779.3754927843463
 21
1302.865224409773
 31
0.0
 70
    32
 71
     5
 42
48.0
  3
AM_ISO$0
100
AcDbAlignedDimension
 13
755.3754927843463
 23
1313.190224409773
 33
0.0
 14
803.3754927843462
 24
1312.140224409773
 34
0.0
 50
0.0000000000001132
100
AcDbRotatedDimension
1001
ACAD
1000
DSTYLE
1002
{
1070
    40
1040
1.5
1070
   272
1070
     8
1002
}
  0
DIMENSION
  5
4B30
102
{ACAD_XDICTIONARY
360
4B3F
102
}
102
{ACAD_REACTORS
330
4B40
102
}
330
1F
100
AcDbEntity
  8
AM_5
100
AcDbDimension
  2
*D18
 10
834.4602111036765
 20
1355.590224409773
 30
0.0
 11
834.4602111036763
 21
1370.952724409773
 31
0.0
 70
   160
 71
     5
 42
4.0
  3
AM_ISO$0
100
AcDbAlignedDimension
 13
826.8754927843463
 23
1359.590224409773
 33
0.0
 14
826.8754927843463
 24
1355.590224409773
 34
0.0
 50
90.00000000000003
100
AcDbRotatedDimension
1001
ACAD
1000
DSTYLE
1002
{
1070
    40
1040
1.5
1070
   272
1070
     8
1002
}
  0
DIMENSION
  5
4B9E
102
{ACAD_XDICTIONARY
360
4BAB
102
}
102
{ACAD_REACTORS
330
4BAC
102
}
330
1F
100
AcDbEntity
  8
AM_5
100
AcDbDimension
  2
*D19
 10
790.3754927843463
 20
1229.092666033888
 30
0.0
 11
772.8754927843462
 21
1232.767666033888
 31
0.0
 70
    32
 71
     5
 42
35.0
  3
AM_ISO$0
100
AcDbAlignedDimension
 13
755.3754927843463
 23
1241.092666033887
 33
0.0
 14
790.3754927843463
 24
1245.442666033887
 34
0.0
 50
0.0000000000001132
100
AcDbRotatedDimension
1001
ACAD
1000
DSTYLE
1002
{
1070
    40
1040
1.5
1070
   272
1070
     8
1002
}
  0
TEXT
  5
4E75
330
1F
100
AcDbEntity
  8
0
100
AcDbText
 10
790.3987937692626
 20
1394.425742593855
 30
0.0
 40
3.2
  1
A
100
AcDbText
  0
TEXT
  5
4E76
330
1F
100
AcDbEntity
  8
0
100
AcDbText
 10
841.5242305215153
 20
1421.234714896403
 30
0.0
 40
3.2
  1
B
 50
180.0
100
AcDbText
  0
TEXT
  5
4E77
330
1F
100
AcDbEntity
  8
0
100
AcDbText
 10
796.6327250093365
 20
1242.496348070891
 30
0.0
 40
3.2
  1
R1
100
AcDbText
  0
TEXT
  5
4E78
330
1F
100
AcDbEntity
  8
0
100
AcDbText
 10
830.2640898793608
 20
1242.496347199815
 30
0.0
 40
3.2
  1
R2
100
AcDbText
  0
TEXT
  5
4E79
330
1F
100
AcDbEntity
  8
0
100
AcDbText
 10
805.6464696597091
 20
1265.996347199815
 30
0.0
 40
3.2
  1
P
100
AcDbText
  0
LINE
  5
4E89
330
1F
100
AcDbEntity
  8
AM_VIS
100
AcDbLine
 10
788.8754927843464
 20
1394.293715321138
 30
0.0
 11
788.8754927843464
 21
1397.793715321139
 31
0.0
  0
LINE
  5
4E8A
330
1F
100
AcDbEntity
  8
AM_VIS
100
AcDbLine
 10
794.8754927843464
 20
1394.293715321138
 30
0.0
 11
788.8754927843464
 21
1394.293715321138
 31
0.0
  0
LINE
  5
4E8B
330
1F
100
AcDbEntity
  8
AM_VIS
100
AcDbLine
 10
794.8754927843464
 20
1397.793715321139
 30
0.0
 11
794.8754927843464
 21
1394.293715321138
 31
0.0
  0
LINE
  5
4E8C
330
1F
100
AcDbEntity
  8
AM_VIS
100
AcDbLine
 10
842.8754927843463
 20
1421.293715321138
 30
0.0
 11
842.8754927843463
 21
1417.793715321139
 31
0.0
  0
LINE
  5
4E8D
330
1F
100
AcDbEntity
  8
AM_VIS
100
AcDbLine
 10
836.8754927843463
 20
1421.293715321138
 30
0.0
 11
842.8754927843463
 21
1421.293715321138
 31
0.0
  0
LINE
  5
4E8E
330
1F
100
AcDbEntity
  8
AM_VIS
100
AcDbLine
 10
836.8754927843463
 20
1417.793715321139
 30
0.0
 11
836.8754927843463
 21
1421.293715321138
 31
0.0
  0
LINE
  5
4E8F
330
1F
100
AcDbEntity
  8
AM_VIS
100
AcDbLine
 10
842.8754927843463
 20
1417.793715321139
 30
0.0
 11
836.8754927843463
 21
1417.793715321139
 31
0.0
  0
LINE
  5
4E91
330
1F
100
AcDbEntity
  8
AM_VIS
100
AcDbLine
 10
829.8754927843463
 20
1242.357827732968
 30
0.0
 11
829.8754927843463
 21
1245.857827732968
 31
0.0
  0
LINE
  5
4E92
330
1F
100
AcDbEntity
  8
AM_VIS
100
AcDbLine
 10
835.8754927843463
 20
1242.357827732968
 30
0.0
 11
829.8754927843463
 21
1242.357827732968
 31
0.0
  0
LINE
  5
4E93
330
1F
100
AcDbEntity
  8
AM_VIS
100
AcDbLine
 10
835.8754927843463
 20
1245.857827732968
 30
0.0
 11
835.8754927843463
 21
1242.357827732968
 31
0.0
  0
LINE
  5
4E94
330
1F
100
AcDbEntity
  8
AM_VIS
100
AcDbLine
 10
829.8754927843463
 20
1245.857827732968
 30
0.0
 11
835.8754927843463
 21
1245.857827732968
 31
0.0
  0
LINE
  5
4E95
330
1F
100
AcDbEntity
  8
AM_VIS
100
AcDbLine
 10
801.8754927843463
 20
1245.857827732968
 30
0.0
 11
801.8754927843463
 21
1242.357827732968
 31
0.0
  0
LINE
  5
4E96
330
1F
100
AcDbEntity
  8
AM_VIS
100
AcDbLine
 10
795.8754927843464
 20
1245.857827732968
 30
0.0
 11
801.8754927843463
 21
1245.857827732968
 31
0.0
  0
LINE
  5
4E97
330
1F
100
AcDbEntity
  8
AM_VIS
100
AcDbLine
 10
795.8754927843464
 20
1242.357827732968
 30
0.0
 11
795.8754927843464
 21
1245.857827732968
 31
0.0
  0
LINE
  5
4E98
330
1F
100
AcDbEntity
  8
AM_VIS
100
AcDbLine
 10
801.8754927843463
 20
1242.357827732968
 30
0.0
 11
795.8754927843464
 21
1242.357827732968
 31
0.0
  0
LINE
  5
4E99
330
1F
100
AcDbEntity
  8
AM_VIS
100
AcDbLine
 10
809.8754927843463
 20
1269.357827732968
 30
0.0
 11
809.8754927843463
 21
1265.857827732968
 31
0.0
  0
LINE
  5
4E9A
330
1F
100
AcDbEntity
  8
AM_VIS
100
AcDbLine
 10
803.8754927843465
 20
1269.357827732968
 30
0.0
 11
809.8754927843463
 21
1269.357827732968
 31
0.0
  0
LINE
  5
4E9B
330
1F
100
AcDbEntity
  8
AM_VIS
100
AcDbLine
 10
803.8754927843465
 20
1265.857827732968
 30
0.0
 11
803.8754927843465
 21
1269.357827732968
 31
0.0
  0
LINE
  5
4E9C
330
1F
100
AcDbEntity
  8
AM_VIS
100
AcDbLine
 10
809.8754927843463
 20
1265.857827732968
 30
0.0
 11
803.8754927843465
 21
1265.857827732968
 31
0.0
  0
LINE
  5
4EA1
330
1F
100
AcDbEntity
  8
AM_VIS
100
AcDbLine
 10
794.8754927843464
 20
1397.793715321139
 30
0.0
 11
788.8754927843464
 21
1397.793715321139
 31
0.0
  0
ENDSEC
  0
SECTION
  2
OBJECTS
  0
DICTIONARY
  5
C
330
0
100
AcDbDictionary
281
     1
  3
ACAD_COLOR
350
BE
  3
ACAD_GROUP
350
D
  3
ACAD_LAYOUT
350
1A
  3
ACAD_MATERIAL
350
BD
  3
ACAD_MLINESTYLE
350
17
  3
ACAD_PLOTSETTINGS
350
19
  3
ACAD_PLOTSTYLENAME
350
E
  3
ACAD_TABLESTYLE
350
11A
  3
ACDBHEADERROUNDTRIPXREC
350
4F47
  3
AcDbVariableDictionary
350
94
  3
AcmDictionary
350
5B
  3
AMG
350
41
  3
AMGSNAPSETTINGS
350
1B8
  3
DWGPROPS
350
4F46
  0
DICTIONARY
  5
3F9
330
2
100
AcDbDictionary
280
     1
281
     1
  3
ACAD_LAYERFILTERS
360
3FA5
  3
ACAD_LAYERSTATES
360
A25
  3
ACLYDICTIONARY
360
3FA4
  0
DICTIONARY
  5
8F
330
1F
100
AcDbDictionary
280
     1
281
     1
  0
DICTIONARY
  5
44C9
330
44C8
100
AcDbDictionary
280
     1
281
     1
  3
ACAD_DIMASSOC
360
44CA
  0
DICTIONARY
  5
44D2
330
44D1
100
AcDbDictionary
280
     1
281
     1
  3
ACAD_DIMASSOC
360
44D3
  0
DICTIONARY
  5
44D5
330
44D4
100
AcDbDictionary
280
     1
281
     1
  3
ACAD_DIMASSOC
360
44D6
  0
DICTIONARY
  5
44D8
330
44D7
100
AcDbDictionary
280
     1
281
     1
  3
ACAD_DIMASSOC
360
44D9
  0
DICTIONARY
  5
44DB
330
44DA
100
AcDbDictionary
280
     1
281
     1
  3
ACAD_DIMASSOC
360
44DC
  0
DICTIONARY
  5
44DF
330
44DE
100
AcDbDictionary
280
     1
281
     1
  3
ACAD_DIMASSOC
360
44E0
  0
DICTIONARY
  5
4AF6
330
4AE9
100
AcDbDictionary
280
     1
281
     1
  3
ACAD_DIMASSOC
360
4AF7
  0
DICTIONARY
  5
4B3F
330
4B30
100
AcDbDictionary
280
     1
281
     1
  3
ACAD_DIMASSOC
360
4B40
  0
DICTIONARY
  5
4BAB
330
4B9E
100
AcDbDictionary
280
     1
281
     1
  3
ACAD_DIMASSOC
360
4BAC
  0
DICTIONARY
  5
BE
102
{ACAD_REACTORS
330
C
102
}
330
C
100
AcDbDictionary
281
     1
  0
DICTIONARY
  5
D
102
{ACAD_REACTORS
330
C
102
}
330
C
100
AcDbDictionary
281
     1
  0
DICTIONARY
  5
1A
102
{ACAD_REACTORS
330
C
102
}
330
C
100
AcDbDictionary
281
     1
  3
Model
350
22
  3
配置1
350
1E
  3
配置2
350
26
  0
DICTIONARY
  5
BD
102
{ACAD_REACTORS
330
C
102
}
330
C
100
AcDbDictionary
281
     1
  0
DICTIONARY
  5
17
102
{ACAD_REACTORS
330
C
102
}
330
C
100
AcDbDictionary
281
     1
  3
Standard
350
18
  0
DICTIONARY
  5
19
102
{ACAD_REACTORS
330
C
102
}
330
C
100
AcDbDictionary
281
     1
  0
ACDBDICTIONARYWDFLT
  5
E
102
{ACAD_REACTORS
330
C
102
}
330
C
100
AcDbDictionary
281
     1
  3
Normal
350
F
100
AcDbDictionaryWithDefault
340
F
  0
DICTIONARY
  5
11A
102
{ACAD_REACTORS
330
C
102
}
330
C
100
AcDbDictionary
281
     1
  3
Standard
350
11B
  0
DICTIONARY
  5
4F47
102
{ACAD_REACTORS
330
C
102
}
330
C
100
AcDbDictionary
281
     1
  0
DICTIONARY
  5
94
102
{ACAD_REACTORS
330
C
102
}
330
C
100
AcDbDictionary
281
     1
  3
CTABLESTYLE
350
138
  3
DIMASSOC
350
96
  3
INDEXCTL
350
95
  3
PROJECTNAME
350
4722
  0
DICTIONARY
  5
5B
102
{ACAD_REACTORS
330
C
102
}
330
C
100
AcDbDictionary
281
     1
  3
AcmBOM
350
1B5
  3
AcmStdDictionary
350
61
  3
AMDTSECTSYM_ARROWCOLOR
350
123
  0
DICTIONARY
  5
41
102
{ACAD_REACTORS
330
C
102
}
330
C
100
AcDbDictionary
281
     1
  0
DICTIONARY
  5
1B8
102
{ACAD_REACTORS
330
C
102
}
330
C
100
AcDbDictionary
281
     1
  0
XRECORD
  5
4F46
102
{ACAD_REACTORS
330
C
102
}
330
C
100
AcDbXrecord
280
     1
  1
DWGPROPS COOKIE
  2

  3

  4

  6

  7

  8

  9

300
AmdtFileType=84
301
=
302
=
303
=
304
=
305
=
306
=
307
=
308
=
309
=
 40
0.1614266319444444
 41
2453836.381385081
 42
2455013.456326181
  1

 90
        1
  0
DICTIONARY
  5
3FA5
102
{ACAD_REACTORS
330
3F9
102
}
330
3F9
100
AcDbDictionary
281
     1
  0
DICTIONARY
  5
A25
102
{ACAD_REACTORS
330
3F9
102
}
330
3F9
100
AcDbDictionary
281
     1
  0
DICTIONARY
  5
3FA4
102
{ACAD_REACTORS
330
3F9
102
}
330
3F9
100
AcDbDictionary
281
     1
1001
ACAD
1000
<All
  0
DIMASSOC
  5
44CA
102
{ACAD_REACTORS
330
44C9
102
}
330
44C9
100
AcDbDimAssoc
330
44C8
 90
        3
 70
     0
 71
     0
  1
AcDbOsnapPointRef
 72
     1
331
44B9
 73
     0
 91
        0
 40
0.0
 10
0.0
 20
0.0
 30
2.000000000000000E+50
 75
     0
  1
AcDbOsnapPointRef
 72
     1
331
44B5
 73
     0
 91
        0
 40
0.0
 10
0.0
 20
0.0
 30
2.000000000000000E+50
 75
     0
  0
DIMASSOC
  5
44D3
102
{ACAD_REACTORS
330
44D2
102
}
330
44D2
100
AcDbDimAssoc
330
44D1
 90
        3
 70
     0
 71
     0
  1
AcDbOsnapPointRef
 72
     1
331
448F
 73
     0
 91
        0
 40
0.0
 10
0.0
 20
0.0
 30
2.000000000000000E+50
 75
     0
  1
AcDbOsnapPointRef
 72
     1
331
4493
 73
     0
 91
        0
 40
0.0
 10
0.0
 20
0.0
 30
2.000000000000000E+50
 75
     0
  0
DIMASSOC
  5
44D6
102
{ACAD_REACTORS
330
44D5
102
}
330
44D5
100
AcDbDimAssoc
330
44D4
 90
        3
 70
     0
 71
     0
  1
AcDbOsnapPointRef
 72
     1
331
4493
 73
     0
 91
        0
 40
0.0
 10
0.0
 20
0.0
 30
2.000000000000000E+50
 75
     0
  1
AcDbOsnapPointRef
 72
     1
331
4497
 73
     0
 91
        0
 40
0.0
 10
0.0
 20
0.0
 30
2.000000000000000E+50
 75
     0
  0
DIMASSOC
  5
44D9
102
{ACAD_REACTORS
330
44D8
102
}
330
44D8
100
AcDbDimAssoc
330
44D7
 90
        3
 70
     0
 71
     0
  1
AcDbOsnapPointRef
 72
    13
331
440B
 73
     0
 91
        0
 40
0.0
 10
0.0
 20
0.0
 30
2.000000000000000E+50
 75
     0
  1
AcDbOsnapPointRef
 72
     1
331
440B
 73
     0
 91
        0
 40
0.0
 10
0.0
 20
0.0
 30
2.000000000000000E+50
 75
     0
  0
DIMASSOC
  5
44DC
102
{ACAD_REACTORS
330
44DB
102
}
330
44DB
100
AcDbDimAssoc
330
44DA
 90
        2
 70
     0
 71
     0
  1
AcDbOsnapPointRef
 72
    13
331
440B
 73
     0
 91
        0
 40
0.0
 10
0.0
 20
0.0
 30
2.000000000000000E+50
 75
     0
  0
DIMASSOC
  5
44E0
102
{ACAD_REACTORS
330
44DF
102
}
330
44DF
100
AcDbDimAssoc
330
44DE
 90
        3
 70
     0
 71
     0
  1
AcDbOsnapPointRef
 72
    13
331
444F
 73
     0
 91
        0
 40
0.0
 10
0.0
 20
0.0
 30
2.000000000000000E+50
 75
     0
  1
AcDbOsnapPointRef
 72
     1
331
44BE
 73
     0
 91
        0
 40
0.0
 10
0.0
 20
0.0
 30
2.000000000000000E+50
 75
     0
  0
DIMASSOC
  5
4AF7
102
{ACAD_REACTORS
330
4AF6
102
}
330
4AF6
100
AcDbDimAssoc
330
4AE9
 90
        3
 70
     0
 71
     0
  1
AcDbOsnapPointRef
 72
     1
331
44EB
 73
     0
 91
        0
 40
0.0
 10
0.0
 20
0.0
 30
2.000000000000000E+50
 75
     0
  1
AcDbOsnapPointRef
 72
     1
331
4A6E
 73
     0
 91
        0
 40
0.0
 10
0.0
 20
0.0
 30
2.000000000000000E+50
 75
     0
  0
DIMASSOC
  5
4B40
102
{ACAD_REACTORS
330
4B3F
102
}
330
4B3F
100
AcDbDimAssoc
330
4B30
 90
        3
 70
     0
 71
     0
  1
AcDbOsnapPointRef
 72
     1
331
4A4D
 73
     0
 91
        0
 40
0.0
 10
0.0
 20
0.0
 30
2.000000000000000E+50
 75
     0
  1
AcDbOsnapPointRef
 72
     1
331
4A2C
 73
     0
 91
        0
 40
0.0
 10
0.0
 20
0.0
 30
2.000000000000000E+50
 75
     0
  0
DIMASSOC
  5
4BAC
102
{ACAD_REACTORS
330
4BAB
102
}
330
4BAB
100
AcDbDimAssoc
330
4B9E
 90
        3
 70
     0
 71
     0
  1
AcDbOsnapPointRef
 72
     1
331
44F4
 73
     0
 91
        0
 40
0.0
 10
0.0
 20
0.0
 30
2.000000000000000E+50
 75
     0
  1
AcDbOsnapPointRef
 72
     1
331
448F
 73
     0
 91
        0
 40
0.0
 10
0.0
 20
0.0
 30
2.000000000000000E+50
 75
     0
  0
LAYOUT
  5
22
102
{ACAD_XDICTIONARY
360
4F4A
102
}
102
{ACAD_REACTORS
330
1A
102
}
330
1A
100
AcDbPlotSettings
  1

  2
\\RD\EPSON Stylus C63 Series單色
  4
A4
  6

 40
3.757083177566528
 41
3.757076978683471
 42
3.757080078125
 43
3.757080078125
 44
209.9733276367187
 45
296.9683227539062
 46
0.0
 47
0.0
 48
0.0
 49
0.0
140
0.0
141
0.0
142
1.0
143
0.3405120737814363
 70
 11952
 72
     1
 73
     0
 74
     0
  7
單色出圖.ctb
 75
     0
147
2.936753428137963
148
-2047.07469463503
149
-1261.649717473083
100
AcDbLayout
  1
Model
 70
     1
 71
     0
 10
0.0
 20
0.0
 11
12.0
 21
9.0
 12
0.0
 22
0.0
 32
0.0
 14
0.0
 24
0.0
 34
0.0
 15
0.0
 25
0.0
 35
0.0
146
0.0
 13
0.0
 23
0.0
 33
0.0
 16
1.0
 26
0.0
 36
0.0
 17
0.0
 27
1.0
 37
0.0
 76
     0
330
1F
1001
ACAD_PSEXT
1000
\\RD\EPSON Stylus C63 Series單色
1000
EPSON Stylus C63 Series
1000
\\RD
1000

1070
     0
  0
LAYOUT
  5
1E
102
{ACAD_XDICTIONARY
360
4F48
102
}
102
{ACAD_REACTORS
330
1A
102
}
330
1A
100
AcDbPlotSettings
  1

  2

  4

  6

 40
0.0
 41
0.0
 42
0.0
 43
0.0
 44
0.0
 45
0.0
 46
0.0
 47
0.0
 48
0.0
 49
0.0
140
0.0
141
0.0
142
1.0
143
1.0
 70
   688
 72
     0
 73
     0
 74
     5
  7
單色出圖.ctb
 75
    16
147
1.0
148
0.0
149
0.0
100
AcDbLayout
  1
配置1
 70
     1
 71
     1
 10
0.0
 20
0.0
 11
420.0
 21
297.0
 12
0.0
 22
0.0
 32
0.0
 14
1.000000000000000E+20
 24
1.000000000000000E+20
 34
1.000000000000000E+20
 15
-1.000000000000000E+20
 25
-1.000000000000000E+20
 35
-1.000000000000000E+20
146
0.0
 13
0.0
 23
0.0
 33
0.0
 16
1.0
 26
0.0
 36
0.0
 17
0.0
 27
1.0
 37
0.0
 76
     0
330
1B
  0
LAYOUT
  5
26
102
{ACAD_XDICTIONARY
360
4F4C
102
}
102
{ACAD_REACTORS
330
1A
102
}
330
1A
100
AcDbPlotSettings
  1

  2

  4

  6

 40
0.0
 41
0.0
 42
0.0
 43
0.0
 44
0.0
 45
0.0
 46
0.0
 47
0.0
 48
0.0
 49
0.0
140
0.0
141
0.0
142
1.0
143
1.0
 70
   688
 72
     0
 73
     0
 74
     5
  7
單色出圖.ctb
 75
    16
147
1.0
148
0.0
149
0.0
100
AcDbLayout
  1
配置2
 70
     1
 71
     2
 10
0.0
 20
0.0
 11
12.0
 21
9.0
 12
0.0
 22
0.0
 32
0.0
 14
0.0
 24
0.0
 34
0.0
 15
0.0
 25
0.0
 35
0.0
146
0.0
 13
0.0
 23
0.0
 33
0.0
 16
1.0
 26
0.0
 36
0.0
 17
0.0
 27
1.0
 37
0.0
 76
     0
330
23
  0
MLINESTYLE
  5
18
102
{ACAD_REACTORS
330
17
102
}
330
17
100
AcDbMlineStyle
  2
STANDARD
 70
     0
  3

 62
   256
 51
90.0
 52
90.0
 71
     2
 49
0.5
 62
   256
  6
BYLAYER
 49
-0.5
 62
   256
  6
BYLAYER
  0
ACDBPLACEHOLDER
  5
F
102
{ACAD_REACTORS
330
E
102
}
330
E
  0
TABLESTYLE
  5
11B
102
{ACAD_REACTORS
330
11A
102
}
330
11A
100
AcDbTableStyle
  3
Standard
 70
     0
 71
     0
 40
1.5
 41
1.5
280
     0
281
     0
  7
STANDARD
140
4.5
170
     2
 62
     0
 63
     7
283
     0
274
    -2
284
     1
 64
     0
275
    -2
285
     1
 65
     0
276
    -2
286
     1
 66
     0
277
    -2
287
     1
 67
     0
278
    -2
288
     1
 68
     0
279
    -2
289
     1
 69
     0
  7
STANDARD
140
6.0
170
     5
 62
     0
 63
     7
283
     0
274
    -2
284
     1
 64
     0
275
    -2
285
     1
 65
     0
276
    -2
286
     1
 66
     0
277
    -2
287
     1
 67
     0
278
    -2
288
     1
 68
     0
279
    -2
289
     1
 69
     0
  7
STANDARD
140
4.5
170
     5
 62
     0
 63
     7
283
     0
274
    -2
284
     1
 64
     0
275
    -2
285
     1
 65
     0
276
    -2
286
     1
 66
     0
277
    -2
287
     1
 67
     0
278
    -2
288
     1
 68
     0
279
    -2
289
     1
 69
     0
  0
DICTIONARYVAR
  5
138
102
{ACAD_REACTORS
330
94
102
}
330
94
100
DictionaryVariables
280
     0
  1
STANDARD
  0
DICTIONARYVAR
  5
96
102
{ACAD_REACTORS
330
94
102
}
330
94
100
DictionaryVariables
280
     0
  1
2
  0
DICTIONARYVAR
  5
95
102
{ACAD_REACTORS
330
94
102
}
330
94
100
DictionaryVariables
280
     0
  1
0
  0
DICTIONARYVAR
  5
4722
102
{ACAD_REACTORS
330
94
102
}
330
94
100
DictionaryVariables
280
     0
  1

  0
DICTIONARY
  5
1B5
102
{ACAD_REACTORS
330
5B
102
}
330
5B
100
AcDbDictionary
281
     1
  0
DICTIONARY
  5
61
102
{ACAD_REACTORS
330
5B
102
}
330
5B
100
AcDbDictionary
281
     1
  0
XRECORD
  5
123
102
{ACAD_REACTORS
330
5B
102
}
330
5B
100
AcDbXrecord
280
     1
 90
-1023410169
  0
DICTIONARY
  5
4F4A
330
22
100
AcDbDictionary
280
     1
281
     1
  3
ACAD_XREC_ROUNDTRIP
360
4F4B
  0
DICTIONARY
  5
4F48
330
1E
100
AcDbDictionary
280
     1
281
     1
  3
ACAD_XREC_ROUNDTRIP
360
4F49
  0
DICTIONARY
  5
4F4C
330
26
100
AcDbDictionary
280
     1
281
     1
  3
ACAD_XREC_ROUNDTRIP
360
4F4D
  0
XRECORD
  5
4F4B
102
{ACAD_REACTORS
330
4F4A
102
}
330
4F4A
100
AcDbXrecord
280
     1
102
SHADEPLOT
 70
     0
102
SHADEPLOTRESLEVEL
 70
     2
102
SHADEPLOTCUSTOMDPI
 70
   300
  0
XRECORD
  5
4F49
102
{ACAD_REACTORS
330
4F48
102
}
330
4F48
100
AcDbXrecord
280
     1
102
SHADEPLOT
 70
     0
102
SHADEPLOTRESLEVEL
 70
     2
102
SHADEPLOTCUSTOMDPI
 70
   300
  0
XRECORD
  5
4F4D
102
{ACAD_REACTORS
330
4F4C
102
}
330
4F4C
100
AcDbXrecord
280
     1
102
SHADEPLOT
 70
     0
102
SHADEPLOTRESLEVEL
 70
     2
102
SHADEPLOTCUSTOMDPI
 70
   300
  0
ENDSEC
  0
EOF
