  0
SECTION
  2
HEADER
  9
$ACADVER
  1
AC1015
  9
$ACADMAINTVER
 70
    20
  9
$DWGCODEPAGE
  3
ANSI_950
  9
$INSBASE
 10
0.0
 20
0.0
 30
0.0
  9
$EXTMIN
 10
1034.127262603084
 20
864.9755485550846
 30
0.0
  9
$EXTMAX
 10
1228.807119705437
 20
1126.411864925056
 30
149.7203459082809
  9
$LIMMIN
 10
0.0
 20
0.0
  9
$LIMMAX
 10
420.0
 20
297.0
  9
$ORTHOMODE
 70
     1
  9
$REGENMODE
 70
     1
  9
$FILLMODE
 70
     1
  9
$QTEXTMODE
 70
     0
  9
$MIRRTEXT
 70
     1
  9
$LTSCALE
 40
1.0
  9
$ATTMODE
 70
     1
  9
$TEXTSIZE
 40
3.0
  9
$TRACEWID
 40
1.0
  9
$TEXTSTYLE
  7
STANDARD
  9
$CLAYER
  8
0
  9
$CELTYPE
  6
ByLayer
  9
$CECOLOR
 62
   256
  9
$CELTSCALE
 40
1.0
  9
$DISPSILH
 70
     0
  9
$DIMSCALE
 40
1.0
  9
$DIMASZ
 40
3.0
  9
$DIMEXO
 40
1.0
  9
$DIMDLI
 40
10.0
  9
$DIMRND
 40
0.0
  9
$DIMDLE
 40
0.0
  9
$DIMEXE
 40
1.5
  9
$DIMTP
 40
0.1
  9
$DIMTM
 40
0.1
  9
$DIMTXT
 40
3.5
  9
$DIMCEN
 40
0.0
  9
$DIMTSZ
 40
0.0
  9
$DIMTOL
 70
     0
  9
$DIMLIM
 70
     0
  9
$DIMTIH
 70
     0
  9
$DIMTOH
 70
     0
  9
$DIMSE1
 70
     0
  9
$DIMSE2
 70
     0
  9
$DIMTAD
 70
     1
  9
$DIMZIN
 70
     8
  9
$DIMBLK
  1

  9
$DIMASO
 70
     1
  9
$DIMSHO
 70
     1
  9
$DIMPOST
  1

  9
$DIMAPOST
  1
"
  9
$DIMALT
 70
     0
  9
$DIMALTD
 70
     2
  9
$DIMALTF
 40
0.0393701
  9
$DIMLFAC
 40
1.0
  9
$DIMTOFL
 70
     1
  9
$DIMTVP
 40
0.0
  9
$DIMTIX
 70
     0
  9
$DIMSOXD
 70
     0
  9
$DIMSAH
 70
     0
  9
$DIMBLK1
  1

  9
$DIMBLK2
  1

  9
$DIMSTYLE
  2
AM_ISO
  9
$DIMCLRD
 70
   256
  9
$DIMCLRE
 70
   256
  9
$DIMCLRT
 70
   256
  9
$DIMTFAC
 40
0.6
  9
$DIMGAP
 40
0.7
  9
$DIMJUST
 70
     0
  9
$DIMSD1
 70
     0
  9
$DIMSD2
 70
     0
  9
$DIMTOLJ
 70
     0
  9
$DIMTZIN
 70
     8
  9
$DIMALTZ
 70
     0
  9
$DIMALTTZ
 70
     0
  9
$DIMUPT
 70
     0
  9
$DIMDEC
 70
     2
  9
$DIMTDEC
 70
     8
  9
$DIMALTU
 70
     2
  9
$DIMALTTD
 70
     2
  9
$DIMTXSTY
  7
STANDARD
  9
$DIMAUNIT
 70
     0
  9
$DIMADEC
 70
     0
  9
$DIMALTRND
 40
0.0
  9
$DIMAZIN
 70
     2
  9
$DIMDSEP
 70
    46
  9
$DIMATFIT
 70
     3
  9
$DIMFRAC
 70
     0
  9
$DIMLDRBLK
  1

  9
$DIMLUNIT
 70
     2
  9
$DIMLWD
 70
    -1
  9
$DIMLWE
 70
    -1
  9
$DIMTMOVE
 70
     0
  9
$LUNITS
 70
     2
  9
$LUPREC
 70
     2
  9
$SKETCHINC
 40
1.0
  9
$FILLETRAD
 40
2.5
  9
$AUNITS
 70
     0
  9
$AUPREC
 70
     0
  9
$MENU
  1
.
  9
$ELEVATION
 40
0.0
  9
$PELEVATION
 40
0.0
  9
$THICKNESS
 40
0.0
  9
$LIMCHECK
 70
     0
  9
$CHAMFERA
 40
2.5
  9
$CHAMFERB
 40
2.5
  9
$CHAMFERC
 40
20.0
  9
$CHAMFERD
 40
0.0
  9
$SKPOLY
 70
     0
  9
$TDCREATE
 40
2454098.708838426
  9
$TDUCREATE
 40
2454098.375505093
  9
$TDUPDATE
 40
2454789.563869537
  9
$TDUUPDATE
 40
2454789.230536204
  9
$TDINDWG
 40
0.4543783449
  9
$TDUSRTIMER
 40
0.4543783449
  9
$USRTIMER
 70
     1
  9
$ANGBASE
 50
0.0
  9
$ANGDIR
 70
     0
  9
$PDMODE
 70
     0
  9
$PDSIZE
 40
0.0
  9
$PLINEWID
 40
0.0
  9
$SPLFRAME
 70
     0
  9
$SPLINETYPE
 70
     6
  9
$SPLINESEGS
 70
     8
  9
$HANDSEED
  5
7B6B
  9
$SURFTAB1
 70
     6
  9
$SURFTAB2
 70
     6
  9
$SURFTYPE
 70
     6
  9
$SURFU
 70
     6
  9
$SURFV
 70
     6
  9
$UCSBASE
  2

  9
$UCSNAME
  2

  9
$UCSORG
 10
0.0
 20
0.0
 30
0.0
  9
$UCSXDIR
 10
1.0
 20
0.0
 30
0.0
  9
$UCSYDIR
 10
0.0
 20
1.0
 30
0.0
  9
$UCSORTHOREF
  2

  9
$UCSORTHOVIEW
 70
     0
  9
$UCSORGTOP
 10
0.0
 20
0.0
 30
0.0
  9
$UCSORGBOTTOM
 10
0.0
 20
0.0
 30
0.0
  9
$UCSORGLEFT
 10
0.0
 20
0.0
 30
0.0
  9
$UCSORGRIGHT
 10
0.0
 20
0.0
 30
0.0
  9
$UCSORGFRONT
 10
0.0
 20
0.0
 30
0.0
  9
$UCSORGBACK
 10
0.0
 20
0.0
 30
0.0
  9
$PUCSBASE
  2

  9
$PUCSNAME
  2

  9
$PUCSORG
 10
0.0
 20
0.0
 30
0.0
  9
$PUCSXDIR
 10
1.0
 20
0.0
 30
0.0
  9
$PUCSYDIR
 10
0.0
 20
1.0
 30
0.0
  9
$PUCSORTHOREF
  2

  9
$PUCSORTHOVIEW
 70
     0
  9
$PUCSORGTOP
 10
0.0
 20
0.0
 30
0.0
  9
$PUCSORGBOTTOM
 10
0.0
 20
0.0
 30
0.0
  9
$PUCSORGLEFT
 10
0.0
 20
0.0
 30
0.0
  9
$PUCSORGRIGHT
 10
0.0
 20
0.0
 30
0.0
  9
$PUCSORGFRONT
 10
0.0
 20
0.0
 30
0.0
  9
$PUCSORGBACK
 10
0.0
 20
0.0
 30
0.0
  9
$USERI1
 70
     0
  9
$USERI2
 70
     0
  9
$USERI3
 70
     0
  9
$USERI4
 70
     0
  9
$USERI5
 70
     0
  9
$USERR1
 40
0.0
  9
$USERR2
 40
0.0
  9
$USERR3
 40
0.0
  9
$USERR4
 40
0.0
  9
$USERR5
 40
0.0
  9
$WORLDVIEW
 70
     1
  9
$SHADEDGE
 70
     3
  9
$SHADEDIF
 70
    70
  9
$TILEMODE
 70
     1
  9
$MAXACTVP
 70
    64
  9
$PINSBASE
 10
0.0
 20
0.0
 30
0.0
  9
$PLIMCHECK
 70
     0
  9
$PEXTMIN
 10
1.000000000000000E+20
 20
1.000000000000000E+20
 30
1.000000000000000E+20
  9
$PEXTMAX
 10
-1.000000000000000E+20
 20
-1.000000000000000E+20
 30
-1.000000000000000E+20
  9
$PLIMMIN
 10
0.0
 20
0.0
  9
$PLIMMAX
 10
420.0
 20
297.0
  9
$UNITMODE
 70
     0
  9
$VISRETAIN
 70
     1
  9
$PLINEGEN
 70
     0
  9
$PSLTSCALE
 70
     1
  9
$TREEDEPTH
 70
  3020
  9
$CMLSTYLE
  2
Standard
  9
$CMLJUST
 70
     0
  9
$CMLSCALE
 40
20.0
  9
$PROXYGRAPHICS
 70
     1
  9
$MEASUREMENT
 70
     1
  9
$CELWEIGHT
370
    -1
  9
$ENDCAPS
280
     0
  9
$JOINSTYLE
280
     0
  9
$LWDISPLAY
290
     0
  9
$INSUNITS
 70
     4
  9
$HYPERLINKBASE
  1

  9
$STYLESHEET
  1
acad.ctb
  9
$XEDIT
290
     1
  9
$CEPSNTYPE
380
     0
  9
$PSTYLEMODE
290
     1
  9
$FINGERPRINTGUID
  2
{7A381171-16FB-4E44-972A-3DD660A2669C}
  9
$VERSIONGUID
  2
{BC87F192-69F1-4A38-830D-550AD1B69BC5}
  9
$EXTNAMES
290
     1
  9
$PSVPSCALE
 40
0.0
  9
$OLESTARTUP
290
     0
  0
ENDSEC
  0
SECTION
  2
CLASSES
  0
CLASS
  1
ACDBDICTIONARYWDFLT
  2
AcDbDictionaryWithDefault
  3
ObjectDBX Classes
 90
        0
280
     0
281
     0
  0
CLASS
  1
ACDBPLACEHOLDER
  2
AcDbPlaceHolder
  3
ObjectDBX Classes
 90
        0
280
     0
281
     0
  0
CLASS
  1
LAYOUT
  2
AcDbLayout
  3
ObjectDBX Classes
 90
        0
280
     0
281
     0
  0
CLASS
  1
ACME_DOCUMENT
  2
AcMeDbDoc
  3
AcMeServices
 90
        0
280
     0
281
     0
  0
CLASS
  1
AMGSETTINGSOBJ
  2
AmgSettingsObj
  3
"AcadM|Product Description: AutoCAD Mechanical 2000|Company: Autodesk"
 90
        0
280
     0
281
     0
  0
CLASS
  1
ACMESCOPE
  2
AcMeScope
  3
AcMeServices
 90
        0
280
     0
281
     0
  0
CLASS
  1
ACMECOMMANDHISTORY
  2
AcMeCommandHistory
  3
AcMeServices
 90
        0
280
     0
281
     0
  0
CLASS
  1
ACIMSYSVARMAN
  2
AcImSysVarManager
  3
AcMeServices
 90
        0
280
     0
281
     0
  0
CLASS
  1
ACIMREALSYSVAR
  2
AcImRealSysVar
  3
AcMeServices
 90
        0
280
     0
281
     0
  0
CLASS
  1
ACIMINTSYSVAR
  2
AcImIntSysVar
  3
AcMeServices
 90
        0
280
     0
281
     0
  0
CLASS
  1
ACMEDRAWINGMAN
  2
AcMeDrawingMan
  3
AcMeServices
 90
        0
280
     0
281
     0
  0
CLASS
  1
ACMEVIEW
  2
AcMeView
  3
AcMeServices
 90
        0
280
     0
281
     0
  0
CLASS
  1
ACDBENTITYCACHE
  2
AcMeEntityCache
  3
AcMeServices
 90
        0
280
     0
281
     0
  0
CLASS
  1
GSMANAGER
  2
AcMeGSManager
  3
AcMeServices
 90
        0
280
     0
281
     0
  0
CLASS
  1
AMDTINTERNALREACTOR
  2
AmdtInternalReactor
  3
AcMeServices
 90
        0
280
     0
281
     0
  0
CLASS
  1
ACMESTATEMGR
  2
AcMeStateMgr
  3
AcMeServices
 90
        0
280
     0
281
     0
  0
CLASS
  1
ACGREFMASTER
  2
AcGrefMaster
  3
AcAttribServices
 90
        0
280
     0
281
     0
  0
CLASS
  1
ACME_DATABASE
  2
AcMeDbDatabase
  3
AcMeServices
 90
        0
280
     0
281
     0
  0
CLASS
  1
ACRFINSADJUSTERMGR
  2
AcRfInsAdjusterMgr
  3
AcMeServices
 90
        0
280
     0
281
     0
  0
CLASS
  1
ACGREFACADMASTER
  2
AcGrefacadMaster
  3
AcGrefServices
 90
        0
280
     0
281
     0
  0
CLASS
  1
AMIMASTER
  2
AmiMaster
  3
AmiServices
 90
        0
280
     0
281
     0
  0
CLASS
  1
ACMDATADICTIONARY
  2
AcmDataDictionary
  3
"AcmSymBB|Product Description: AutoCAD Mechanical 2004 DX|Company: Autodesk"
 90
        0
280
     0
281
     0
  0
CLASS
  1
ACMDATAENTRYBLOCK
  2
AcmDataEntryBlock
  3
"AcmSymBB|Product Description: AutoCAD Mechanical 2004 DX|Company: Autodesk"
 90
    32768
280
     0
281
     0
  0
CLASS
  1
ACIMSTRSYSVAR
  2
AcImStrSysVar
  3
AcMeServices
 90
        0
280
     0
281
     0
  0
CLASS
  1
ACMSTANDARDISO
  2
AcmStandardISO
  3
"Amdt_StdImp|Product Description: AutoCAD Mechanical 2004 DX|Company: Autodesk"
 90
        0
280
     0
281
     0
  0
CLASS
  1
AMGOBJPROPCFG
  2
AmgObjPropCfg
  3
"AmgLay|Product Description: AutoCAD Mechanical 2000|Company: Autodesk"
 90
        1
280
     0
281
     0
  0
CLASS
  1
AMDTEDGESTANDARDISO
  2
AmdtEdgeStdISO
  3
"Amdt_StdImp|Product Description: AutoCAD Mechanical 2004 DX|Company: Autodesk"
 90
    32768
280
     0
281
     0
  0
CLASS
  1
ACMSURFSTANDARDISO
  2
AcmSurfTextStdISO
  3
"Amdt_StdImp|Product Description: AutoCAD Mechanical 2004 DX|Company: Autodesk"
 90
        0
280
     0
281
     0
  0
CLASS
  1
ACMFCFSTANDARDISO
  2
AcmFCFStdISO
  3
"Amdt_StdImp|Product Description: AutoCAD Mechanical 2004 DX|Company: Autodesk"
 90
        0
280
     0
281
     0
  0
CLASS
  1
ACMWELDSTANDARDISO
  2
AcmWeldingStdISO
  3
"Amdt_StdImp|Product Description: AutoCAD Mechanical 2004 DX|Company: Autodesk"
 90
        0
280
     0
281
     0
  0
CLASS
  1
ACMIDSTANDARDISO
  2
AcmIdStdISO
  3
"Amdt_StdImp|Product Description: AutoCAD Mechanical 2004 DX|Company: Autodesk"
 90
        0
280
     0
281
     0
  0
CLASS
  1
ACMDATUMSTANDARDISO
  2
AcmDatumStdISO
  3
"Amdt_StdImp|Product Description: AutoCAD Mechanical 2004 DX|Company: Autodesk"
 90
        0
280
     0
281
     0
  0
CLASS
  1
ACMBOMSTANDARDISO
  2
AcmBOMStdISO
  3
"Amdt_StdImp|Product Description: AutoCAD Mechanical 2004 DX|Company: Autodesk"
 90
        0
280
     0
281
     0
  0
CLASS
  1
ACMDETAILSTANDARDISO
  2
AmdtDetailSymStdISO
  3
"Amdt_StdImp|Product Description: AutoCAD Mechanical 2004 DX|Company: Autodesk"
 90
        0
280
     0
281
     0
  0
CLASS
  1
ACMSECTIONSTANDARDISO
  2
AmdtSectionSymStdISO
  3
"Amdt_StdImp|Product Description: AutoCAD Mechanical 2004 DX|Company: Autodesk"
 90
        0
280
     0
281
     0
  0
CLASS
  1
ACMCENTERLINESTANDARDISO
  2
AmdtCenterLineStdISO
  3
"Amdt_StdImp|Product Description: AutoCAD Mechanical 2004 DX|Company: Autodesk"
 90
        0
280
     0
281
     0
  0
CLASS
  1
ACMNOTESTANDARDISO
  2
AmdtNoteStdISO
  3
"Amdt_StdImp|Product Description: AutoCAD Mechanical 2004 DX|Company: Autodesk"
 90
        0
280
     0
281
     0
  0
CLASS
  1
ACAMGLAYSTD
  2
AcAmgLayStd
  3
"AcAmgLayStd|Product Description: AutoCAD Mechanical 2000|Company: Autodesk"
 90
        0
280
     0
281
     0
  0
CLASS
  1
ACAMGDIMSTD
  2
AcAmgDimStd
  3
"AcAmgDimStd|Product Description: AutoCAD Mechanical 2000|Company: Autodesk"
 90
        0
280
     0
281
     0
  0
CLASS
  1
ACAMGHOLECHARTSTDISO
  2
AcAmgHoleChartStdISO
  3
ACMSYMBB_MODULE_NAME
 90
        0
280
     0
281
     0
  0
CLASS
  1
ACAMGTITLESTD
  2
AcAmgTitleStd
  3
"TITLEAPP"
 90
        0
280
     0
281
     0
  0
CLASS
  1
LAYER_INDEX
  2
AcDbLayerIndex
  3
ObjectDBX Classes
 90
    32768
280
     0
281
     0
  0
CLASS
  1
IDBUFFER
  2
AcDbIdBuffer
  3
ObjectDBX Classes
 90
    32768
280
     0
281
     0
  0
CLASS
  1
DICTIONARYVAR
  2
AcDbDictionaryVar
  3
ObjectDBX Classes
 90
        0
280
     0
281
     0
  0
CLASS
  1
AM_DRAWING_MGR
  2
AcDmDwgMgr
  3
AcMechDwgViewMgmt
 90
        0
280
     0
281
     0
  0
CLASS
  1
AM_DWG_DOCUMENT
  2
AcDmDwgDocument
  3
AcMechDwgViewMgmt
 90
        0
280
     0
281
     0
  0
CLASS
  1
AM_DWG_SHEET
  2
AcDmSheet
  3
AcMechDwgViewMgmt
 90
        0
280
     0
281
     0
  0
CLASS
  1
AM_VIEWDIMPARMAP
  2
AcDmViewDimParMap
  3
AcMechDwgViewMgmt
 90
        0
280
     0
281
     0
  0
CLASS
  1
AM_DWGMGR_NAME
  2
AcDmDwgMgrName
  3
AcMechDwgViewMgmt
 90
        0
280
     0
281
     0
  0
CLASS
  1
AMDTMENUSTATEMGR
  2
AmdtMenuStateMgr
  3
McadcomServices
 90
        0
280
     0
281
     0
  0
CLASS
  1
AMDTMCOMMENUSTATE
  2
AmdtMcomMenuState
  3
McadcomServices
 90
        0
280
     0
281
     0
  0
CLASS
  1
MAPIAMMOUDLE
  2
MApiAmModule
  3
MApiAmServices
 90
        0
280
     0
281
     0
  0
CLASS
  1
AMDTADMENUSTATE
  2
AmdtAdMenuState
  3
DesignerServices
 90
        0
280
     0
281
     0
  0
CLASS
  1
ADAPPL
  2
AcAdAppl
  3
DesignerServices
 90
        0
280
     0
281
     0
  0
CLASS
  1
DEPMGR
  2
AcAdDepMgr
  3
DesignerServices
 90
        0
280
     0
281
     0
  0
CLASS
  1
PARAMMGR
  2
AcAdParamMgr
  3
DesignerServices
 90
        0
280
     0
281
     0
  0
CLASS
  1
PARAMSCOPE
  2
AcAdParamScope
  3
DesignerServices
 90
        0
280
     0
281
     0
  0
CLASS
  1
NAMEDAPPL
  2
AcAdNamedAppl
  3
DesignerServices
 90
        0
280
     0
281
     0
  0
CLASS
  1
AMDTDMMENUSTATE
  2
AmdtDmMenuState
  3
AcMechDwgViewMgmt
 90
        0
280
     0
281
     0
  0
CLASS
  1
AMDTAMMENUSTATE
  2
AmdtAmMenuState
  3
DesignerAssemblies
 90
        0
280
     0
281
     0
  0
CLASS
  1
ACAMPROJECT
  2
AcAmProject
  3
DesignerAssemblies
 90
        0
280
     0
281
     0
  0
CLASS
  1
ACAMGRCOMPDEF
  2
AcAmGrCompDef
  3
DesignerAssemblies
 90
        0
280
     0
281
     0
  0
CLASS
  1
ACCMCONTEXT
  2
AcCmContext
  3
DesignerAssemblies
 90
        0
280
     0
281
     0
  0
CLASS
  1
ACAMCOMPDEF
  2
AcAmCompDef
  3
DesignerAssemblies
 90
        0
280
     0
281
     0
  0
CLASS
  1
ACAMCOMPDEFMGR
  2
AcAmCompDefMgr
  3
DesignerAssemblies
 90
        0
280
     0
281
     0
  0
CLASS
  1
AMCONTEXTMGR
  2
AcAmContextMgr
  3
DesignerAssemblies
 90
        0
280
     0
281
     0
  0
CLASS
  1
ACAMCONTEXTMODELER
  2
AcAmContextModeler
  3
DesignerAssemblies
 90
        0
280
     0
281
     0
  0
CLASS
  1
ACMTHREADLINESTANDARDISO
  2
AmdtThreadLineStdISO
  3
"Amdt_StdImp|Product Description: AutoCAD Mechanical 2004 DX|Company: Autodesk"
 90
        0
280
     0
281
     0
  0
CLASS
  1
CATALOGSTATE
  2
AcAmCatalogState
  3
DesignerAssemblies
 90
        0
280
     0
281
     0
  0
CLASS
  1
ACAMGRCOMPDEFSET
  2
AcAmGrCompDefSet
  3
DesignerAssemblies
 90
        0
280
     0
281
     0
  0
CLASS
  1
AMDTBROWSERDBTAB
  2
AmdtBrowserDbTab
  3
McadcomServices
 90
        0
280
     0
281
     0
  0
CLASS
  1
CBROWSERAPPOBJECT
  2
CBrowserAppObject
  3
McadcomServices
 90
        0
280
     0
281
     0
  0
CLASS
  1
DM_PLACEHOLDER
  2
AcDmSelsetPlaceholder
  3
AcMechDwgViewMgmt
 90
        0
280
     0
281
     0
  0
CLASS
  1
TABLESTYLE
  2
AcDbTableStyle
  3
ObjectDBX Classes
 90
     2047
280
     0
281
     0
  0
CLASS
  1
VAACXREFPANELOBJECT
  2
VaAcXREFPanelObject
  3
VAAC_ADDIN
 90
    32768
280
     0
281
     0
  0
CLASS
  1
VAACIMAGEINVENTORY
  2
VaAcImageInventory
  3
VAAC_ADDIN
 90
    32768
280
     0
281
     0
  0
CLASS
  1
AMDTNOTETEMPLATEDB
  2
AmdtNoteTemplateDB
  3
AMDT_STDIMP_MODULE_NAME
 90
        0
280
     0
281
     0
  0
CLASS
  1
ACMBOM
  2
AcmBom
  3
"AcmSymBB|Product Description: AutoCAD Mechanical 2004 DX|Company: Autodesk"
 90
    32768
280
     0
281
     0
  0
CLASS
  1
AMDTFORMULAUPDATEDISPATCHER
  2
AmdtFormulaUpdateDispatcher
  3
AcMeServices
 90
    32768
280
     0
281
     0
  0
CLASS
  1
ACMPARTLIST
  2
AcmPartList
  3
"AcmSymBB|Product Description: AutoCAD Mechanical 2004 DX|Company: Autodesk"
 90
    33791
280
     0
281
     1
  0
CLASS
  1
ACAMGFILTERDAT
  2
AcAmgFilterDat
  3
"AcadM|Product Description: AutoCAD Mechanical 2000|Company: Autodesk"
 90
    32768
280
     0
281
     0
  0
CLASS
  1
DIMASSOC
  2
AcDbDimAssoc
  3
"AcDbDimAssoc|Product Desc:     AcDim ARX App For Dimension|Company:          Autodesk, Inc.|WEB Address:      www.autodesk.com"
 90
        0
280
     0
281
     0
  0
CLASS
  1
SORTENTSTABLE
  2
AcDbSortentsTable
  3
ObjectDBX Classes
 90
        0
280
     0
281
     0
  0
CLASS
  1
AMDTNOTE
  2
AmdtNote
  3
"AcmSymBB|Product Description: AutoCAD Mechanical 2004 DX|Company: Autodesk"
 90
    33791
280
     0
281
     1
  0
CLASS
  1
ACMSTANDARDANSI
  2
AcmStandardANSI
  3
"Amdt_StdImp|Product Description: AutoCAD Mechanical 2004 DX|Company: Autodesk"
 90
    32768
280
     0
281
     0
  0
CLASS
  1
ACMSURFSTANDARDANSI
  2
AcmSurfTextStdANSI
  3
"Amdt_StdImp|Product Description: AutoCAD Mechanical 2004 DX|Company: Autodesk"
 90
    32768
280
     0
281
     0
  0
CLASS
  1
ACMFCFSTANDARDANSI
  2
AcmFCFStdANSI
  3
"Amdt_StdImp|Product Description: AutoCAD Mechanical 2004 DX|Company: Autodesk"
 90
    32768
280
     0
281
     0
  0
CLASS
  1
ACMWELDSTANDARDANSI
  2
AcmWeldingStdANSI
  3
"Amdt_StdImp|Product Description: AutoCAD Mechanical 2004 DX|Company: Autodesk"
 90
    32768
280
     0
281
     0
  0
CLASS
  1
ACMIDSTANDARDANSI
  2
AcmIdStdANSI
  3
"Amdt_StdImp|Product Description: AutoCAD Mechanical 2004 DX|Company: Autodesk"
 90
    32768
280
     0
281
     0
  0
CLASS
  1
ACMDATUMSTANDARDANSI
  2
AcmDatumStdANSI
  3
"Amdt_StdImp|Product Description: AutoCAD Mechanical 2004 DX|Company: Autodesk"
 90
    32768
280
     0
281
     0
  0
CLASS
  1
ACMBOMSTANDARDANSI
  2
AcmBOMStdANSI
  3
"Amdt_StdImp|Product Description: AutoCAD Mechanical 2004 DX|Company: Autodesk"
 90
    32768
280
     0
281
     0
  0
CLASS
  1
ACMDETAILSTANDARDANSI
  2
AmdtDetailSymStdANSI
  3
"Amdt_StdImp|Product Description: AutoCAD Mechanical 2004 DX|Company: Autodesk"
 90
    32768
280
     0
281
     0
  0
CLASS
  1
ACMSECTIONSTANDARDANSI
  2
AmdtSectionSymStdANSI
  3
"Amdt_StdImp|Product Description: AutoCAD Mechanical 2004 DX|Company: Autodesk"
 90
    32768
280
     0
281
     0
  0
CLASS
  1
ACMCENTERLINESTANDARDANSI
  2
AmdtCenterLineStdANSI
  3
"Amdt_StdImp|Product Description: AutoCAD Mechanical 2004 DX|Company: Autodesk"
 90
    32768
280
     0
281
     0
  0
CLASS
  1
ACMNOTESTANDARDANSI
  2
AmdtNoteStdANSI
  3
"Amdt_StdImp|Product Description: AutoCAD Mechanical 2004 DX|Company: Autodesk"
 90
    32768
280
     0
281
     0
  0
CLASS
  1
ACAMGHOLECHARTSTDANSI
  2
AcAmgHoleChartStdANSI
  3
ACMSYMBB_MODULE_NAME
 90
    32768
280
     0
281
     0
  0
CLASS
  1
ACMTHREADLINESTANDARDANSI
  2
AmdtThreadLineStdANSI
  3
"Amdt_StdImp|Product Description: AutoCAD Mechanical 2004 DX|Company: Autodesk"
 90
    32768
280
     0
281
     0
  0
CLASS
  1
AMDTEDGESTANDARDISO13715
  2
AmdtEdgeStdISO13715
  3
"Amdt_StdImp|Product Description: AutoCAD Mechanical 2004 DX|Company: Autodesk"
 90
        0
280
     0
281
     0
  0
CLASS
  1
ACRFATTGENMGR
  2
AcRfAttGeneralMgr
  3
AcAttribServices
 90
        0
280
     0
281
     0
  0
ENDSEC
  0
SECTION
  2
TABLES
  0
TABLE
  2
VPORT
  5
8
330
0
100
AcDbSymbolTable
 70
     5
  0
VPORT
  5
7B62
330
8
100
AcDbSymbolTableRecord
100
AcDbViewportTableRecord
  2
*Active
 70
     0
 10
0.0
 20
0.0
 11
1.0
 21
1.0
 12
1131.46719115426
 22
995.6937067400707
 13
0.0
 23
0.0
 14
2.5
 24
2.5
 15
10.0
 25
10.0
 16
0.0
 26
0.0
 36
1.0
 17
0.0
 27
0.0
 37
0.0
 40
263.4948700421761
 41
1.283837056504599
 42
50.0
 43
0.0
 44
0.0
 50
0.0
 51
0.0
 71
     0
 72
   100
 73
     1
 74
     3
 75
     0
 76
     0
 77
     0
 78
     0
281
     0
 65
     1
110
0.0
120
0.0
130
0.0
111
1.0
121
0.0
131
0.0
112
0.0
122
1.0
132
0.0
 79
     0
146
0.0
  0
ENDTAB
  0
TABLE
  2
LTYPE
  5
5
330
0
100
AcDbSymbolTable
 70
    16
  0
LTYPE
  5
14
330
5
100
AcDbSymbolTableRecord
100
AcDbLinetypeTableRecord
  2
ByBlock
 70
     0
  3

 72
    65
 73
     0
 40
0.0
  0
LTYPE
  5
15
330
5
100
AcDbSymbolTableRecord
100
AcDbLinetypeTableRecord
  2
ByLayer
 70
     0
  3

 72
    65
 73
     0
 40
0.0
  0
LTYPE
  5
16
330
5
100
AcDbSymbolTableRecord
100
AcDbLinetypeTableRecord
  2
Continuous
 70
     0
  3
Solid line
 72
    65
 73
     0
 40
0.0
  0
LTYPE
  5
64
330
5
100
AcDbSymbolTableRecord
100
AcDbLinetypeTableRecord
  2
AM_ISO02W050
 70
     0
  3
__ __ __ __ __ __ __ __ __ __ __ __ __ __ __
 72
    65
 73
     2
 40
7.5
 49
6.0
 74
     0
 49
-1.5
 74
     0
  0
LTYPE
  5
65
330
5
100
AcDbSymbolTableRecord
100
AcDbLinetypeTableRecord
  2
AM_ISO08W050
 70
     0
  3
____ . ____ . ____ . ____ . ____ . ____ . ____
 72
    65
 73
     4
 40
18.0
 49
12.0
 74
     0
 49
-1.5
 74
     0
 49
3.0
 74
     0
 49
-1.5
 74
     0
  0
LTYPE
  5
66
330
5
100
AcDbSymbolTableRecord
100
AcDbLinetypeTableRecord
  2
AM_ISO09W050
 70
     0
  3
_____ . . _____ . . _____ . . ____ .. ____
 72
    65
 73
     6
 40
22.5
 49
12.0
 74
     0
 49
-1.5
 74
     0
 49
3.0
 74
     0
 49
-1.5
 74
     0
 49
3.0
 74
     0
 49
-1.5
 74
     0
  0
LTYPE
  5
67
330
5
100
AcDbSymbolTableRecord
100
AcDbLinetypeTableRecord
  2
Amconstr
 70
     0
  3
_______________________
 72
    65
 73
     2
 40
9999.0
 49
9999.0
 74
     0
 49
0.0
 74
     0
  0
LTYPE
  5
68
330
5
100
AcDbSymbolTableRecord
100
AcDbLinetypeTableRecord
  2
AM_ISO08W050x2
 70
     0
  3
__ . __ . __ . __ . __ . __
 72
    65
 73
     4
 40
9.0
 49
6.0
 74
     0
 49
-0.75
 74
     0
 49
1.5
 74
     0
 49
-0.75
 74
     0
  0
LTYPE
  5
69
330
5
100
AcDbSymbolTableRecord
100
AcDbLinetypeTableRecord
  2
AM_ISO02W050x2
 70
     0
  3
 _ _ _ _ _ _ _ _ _ _ _ _
 72
    65
 73
     2
 40
3.75
 49
3.0
 74
     0
 49
-0.75
 74
     0
  0
LTYPE
  5
6C
330
5
100
AcDbSymbolTableRecord
100
AcDbLinetypeTableRecord
  2
Amzigzag
 70
     0
  3
/\/-/\/-/\/-/\/-/\/-/\/
 72
    65
 73
     2
 40
11.0001
 49
0.0001
 74
     4
 75
   135
340
6B
 46
0.04
 50
0.0
 44
0.0
 45
0.0
 49
-11.0
 74
     0
  0
LTYPE
  5
7A
330
5
100
AcDbSymbolTableRecord
100
AcDbLinetypeTableRecord
  2
ACISOWELD
 70
     0
  3
_ _ _ _ _
 72
    65
 73
     2
 40
2.0
 49
2.0
 74
     0
 49
-1.0
 74
     0
  0
LTYPE
  5
7B
330
5
100
AcDbSymbolTableRecord
100
AcDbLinetypeTableRecord
  2
ACISOTGB
 70
     0
  3
__ . . __ . .
 72
    65
 73
     6
 40
9.0
 49
4.0
 74
     0
 49
-1.0
 74
     0
 49
1.0
 74
     0
 49
-1.0
 74
     0
 49
1.0
 74
     0
 49
-1.0
 74
     0
  0
LTYPE
  5
7C
330
5
100
AcDbSymbolTableRecord
100
AcDbLinetypeTableRecord
  2
ACISOTGL
 70
     0
  3
_ _ _ _ _
 72
    65
 73
     2
 40
3.0
 49
2.0
 74
     0
 49
-1.0
 74
     0
  0
LTYPE
  5
7E
330
5
100
AcDbSymbolTableRecord
100
AcDbLinetypeTableRecord
  2
CENTER
 70
     0
  3
__ . __
 72
    65
 73
     4
 40
7.0
 49
4.0
 74
     0
 49
-1.0
 74
     0
 49
1.0
 74
     0
 49
-1.0
 74
     0
  0
LTYPE
  5
D8
330
5
100
AcDbSymbolTableRecord
100
AcDbLinetypeTableRecord
  2
HIDDEN
 70
     0
  3
Hidden __ __ __ __ __ __ __ __ __ __ __ __ __ _
 72
    65
 73
     2
 40
9.524999999999998
 49
6.349999999999999
 74
     0
 49
-3.174999999999999
 74
     0
  0
LTYPE
  5
D9
330
5
100
AcDbSymbolTableRecord
100
AcDbLinetypeTableRecord
  2
PHANTOM2
 70
     0
  3
Phantom (.5x) ___ _ _ ___ _ _ ___ _ _ ___ _ _
 72
    65
 73
     6
 40
31.75
 49
15.875
 74
     0
 49
-3.174999999999999
 74
     0
 49
3.174999999999999
 74
     0
 49
-3.174999999999999
 74
     0
 49
3.174999999999999
 74
     0
 49
-3.174999999999999
 74
     0
  0
ENDTAB
  0
TABLE
  2
LAYER
  5
2
102
{ACAD_XDICTIONARY
360
3F9
102
}
330
0
100
AcDbSymbolTable
 70
     9
  0
LAYER
  5
10
330
2
100
AcDbSymbolTableRecord
100
AcDbLayerTableRecord
  2
0
 70
     0
 62
     7
  6
Continuous
370
    -3
390
F
  0
LAYER
  5
A8E
330
2
100
AcDbSymbolTableRecord
100
AcDbLayerTableRecord
  2
AM_VIS
 70
     0
 62
     7
  6
Continuous
370
    50
390
F
  0
LAYER
  5
A8F
330
2
100
AcDbSymbolTableRecord
100
AcDbLayerTableRecord
  2
AM_7
 70
     0
 62
     1
  6
CENTER
370
    25
390
F
  0
LAYER
  5
33A3
330
2
100
AcDbSymbolTableRecord
100
AcDbLayerTableRecord
  2
AM_5
 70
     0
 62
     5
  6
Continuous
370
    50
390
F
  0
LAYER
  5
33B7
330
2
100
AcDbSymbolTableRecord
100
AcDbLayerTableRecord
  2
Defpoints
 70
     0
 62
     7
  6
Continuous
290
     0
370
    -3
390
F
  0
LAYER
  5
6295
330
2
100
AcDbSymbolTableRecord
100
AcDbLayerTableRecord
  2
AM_0
 70
     0
 62
     7
  6
Continuous
370
    50
390
F
  0
LAYER
  5
76C5
330
2
100
AcDbSymbolTableRecord
100
AcDbLayerTableRecord
  2
AM_4
 70
     0
 62
     3
  6
Continuous
370
    25
390
F
  0
LAYER
  5
76E2
330
2
100
AcDbSymbolTableRecord
100
AcDbLayerTableRecord
  2
LOGO
 70
     0
 62
     7
  6
Continuous
370
    -3
390
F
  0
LAYER
  5
7931
330
2
100
AcDbSymbolTableRecord
100
AcDbLayerTableRecord
  2
AM_HID
 70
     0
 62
     7
  6
AM_ISO02W050
370
    25
390
F
  0
ENDTAB
  0
TABLE
  2
STYLE
  5
3
330
0
100
AcDbSymbolTable
 70
     8
  0
STYLE
  5
11
330
3
100
AcDbSymbolTableRecord
100
AcDbTextStyleTableRecord
  2
STANDARD
 70
     0
 40
0.0
 41
1.0
 50
0.0
 71
     0
 42
3.0
  3
ISOCP.SHX
  4
CHINESET.SHX
  0
STYLE
  5
6B
330
3
100
AcDbSymbolTableRecord
100
AcDbTextStyleTableRecord
  2

 70
     1
 40
0.0
 41
1.0
 50
0.0
 71
     0
 42
2.5
  3
ltypeshp.shx
  4

  0
STYLE
  5
6D
330
3
100
AcDbSymbolTableRecord
100
AcDbTextStyleTableRecord
  2
ACISOTS
 70
     0
 40
1.0
 41
1.0
 50
0.0
 71
     0
 42
1.0
  3
isocp.shx
  4
chineset.shx
  0
STYLE
  5
79
330
3
100
AcDbSymbolTableRecord
100
AcDbTextStyleTableRecord
  2
ACISOGDT
 70
     0
 40
0.0
 41
1.0
 50
0.0
 71
     0
 42
2.5
  3
amgdt.shx
  4
chineset.shx
  0
STYLE
  5
76E3
330
3
100
AcDbSymbolTableRecord
100
AcDbTextStyleTableRecord
  2
CHINESET
 70
     0
 40
0.0
 41
1.0
 50
0.0
 71
     0
 42
3.0
  3
simplex.shx
  4
CHINESET.SHX
  0
ENDTAB
  0
TABLE
  2
VIEW
  5
6
330
0
100
AcDbSymbolTable
 70
     0
  0
ENDTAB
  0
TABLE
  2
UCS
  5
7
330
0
100
AcDbSymbolTable
 70
     0
  0
ENDTAB
  0
TABLE
  2
APPID
  5
9
330
0
100
AcDbSymbolTable
 70
    23
  0
APPID
  5
12
330
9
100
AcDbSymbolTableRecord
100
AcDbRegAppTableRecord
  2
ACAD
 70
     0
  0
APPID
  5
46
330
9
100
AcDbSymbolTableRecord
100
AcDbRegAppTableRecord
  2
MCAD_NO_VIS
 70
     0
  0
APPID
  5
47
330
9
100
AcDbSymbolTableRecord
100
AcDbRegAppTableRecord
  2
ACAD_TEMP_GRAPHIC
 70
     0
  0
APPID
  5
58
330
9
100
AcDbSymbolTableRecord
100
AcDbRegAppTableRecord
  2
ACATTRIBSERVICES
 70
     0
  0
APPID
  5
EE
330
9
100
AcDbSymbolTableRecord
100
AcDbRegAppTableRecord
  2
AD_DRAW
 70
     0
  0
APPID
  5
10C
330
9
100
AcDbSymbolTableRecord
100
AcDbRegAppTableRecord
  2
DESIGNERASSEMBLIES
 70
     0
  0
APPID
  5
111
330
9
100
AcDbSymbolTableRecord
100
AcDbRegAppTableRecord
  2
ACADM_DIM_EDIT
 70
     0
  0
APPID
  5
112
330
9
100
AcDbSymbolTableRecord
100
AcDbRegAppTableRecord
  2
AMDT_DM_ADJ
 70
     0
  0
APPID
  5
22C
330
9
100
AcDbSymbolTableRecord
100
AcDbRegAppTableRecord
  2
ACAD_DSTYLE_DIMTEXT_FILL
 70
     0
  0
APPID
  5
452
330
9
100
AcDbSymbolTableRecord
100
AcDbRegAppTableRecord
  2
GENIUS_GENOENT_13
 70
     0
  0
APPID
  5
453
330
9
100
AcDbSymbolTableRecord
100
AcDbRegAppTableRecord
  2
GENIUS_GENOBJ-N-CRS_13
 70
     0
  0
APPID
  5
454
330
9
100
AcDbSymbolTableRecord
100
AcDbRegAppTableRecord
  2
GENIUS_GENOLIS_13
 70
     0
  0
APPID
  5
455
330
9
100
AcDbSymbolTableRecord
100
AcDbRegAppTableRecord
  2
GENIUS_GENODEF_13
 70
     0
  0
APPID
  5
456
330
9
100
AcDbSymbolTableRecord
100
AcDbRegAppTableRecord
  2
GENIUS_GENOREF_13
 70
     0
  0
APPID
  5
6F3
330
9
100
AcDbSymbolTableRecord
100
AcDbRegAppTableRecord
  2
ACAD_PSEXT
 70
     0
  0
APPID
  5
808
330
9
100
AcDbSymbolTableRecord
100
AcDbRegAppTableRecord
  2
GENIUS_GENDTOL_13
 70
     0
  0
APPID
  5
17FF
330
9
100
AcDbSymbolTableRecord
100
AcDbRegAppTableRecord
  2
GENIUS_GENOBJ-N-CEN_13
 70
     0
  0
APPID
  5
1800
330
9
100
AcDbSymbolTableRecord
100
AcDbRegAppTableRecord
  2
GENIUS_GENCEN_19
 70
     0
  0
APPID
  5
34E6
330
9
100
AcDbSymbolTableRecord
100
AcDbRegAppTableRecord
  2
GENIUS_GENOBJ-N-HTC_13
 70
     0
  0
APPID
  5
34E7
330
9
100
AcDbSymbolTableRecord
100
AcDbRegAppTableRecord
  2
GENIUS_GENHATCH_13
 70
     0
  0
APPID
  5
7667
330
9
100
AcDbSymbolTableRecord
100
AcDbRegAppTableRecord
  2
AcAecLayerStandard
 70
     0
  0
APPID
  5
76E4
330
9
100
AcDbSymbolTableRecord
100
AcDbRegAppTableRecord
  2
GENIUS_GENREC_14
 70
     0
  0
APPID
  5
76E5
330
9
100
AcDbSymbolTableRecord
100
AcDbRegAppTableRecord
  2
GENIUS_GENOBJ-N-REC_13
 70
     0
  0
ENDTAB
  0
TABLE
  2
DIMSTYLE
  5
A
330
0
100
AcDbSymbolTable
 70
    15
100
AcDbDimStyleTable
 71
     3
340
81
340
8B
340
86
  0
DIMSTYLE
105
81
330
A
100
AcDbSymbolTableRecord
100
AcDbDimStyleTableRecord
  2
AM_ISO
 70
     0
  4
"
 41
3.0
 42
1.0
 43
10.0
 44
1.5
 47
0.1
 48
0.1
 73
     0
 74
     0
 77
     1
 78
     8
 79
     2
140
3.5
141
0.0
143
0.0393701
146
0.6
147
0.7
172
     1
176
   256
177
   256
178
   256
271
     2
272
     2
283
     0
284
     8
340
11
371
    -1
372
    -1
  0
DIMSTYLE
105
82
330
A
100
AcDbSymbolTableRecord
100
AcDbDimStyleTableRecord
  2
AM_ISO$3
 70
     0
  4
"
 41
3.0
 42
1.0
 43
10.0
 44
1.5
 47
0.1
 48
0.1
 73
     0
 77
     1
 78
     8
 79
     2
140
3.5
141
0.0
143
0.0393701
146
0.6
147
0.7
176
   256
177
   256
178
   256
271
     2
272
     2
283
     0
284
     8
288
     1
289
     0
340
11
371
    -1
372
    -1
  0
DIMSTYLE
105
83
330
A
100
AcDbSymbolTableRecord
100
AcDbDimStyleTableRecord
  2
AM_ISO$4
 70
     0
  4
"
 41
3.0
 42
1.0
 43
10.0
 44
1.5
 47
0.1
 48
0.1
 73
     0
 77
     1
 78
     8
 79
     2
140
3.5
141
0.0
143
0.0393701
146
0.6
147
0.7
176
   256
177
   256
178
   256
271
     2
272
     2
283
     0
284
     8
288
     1
289
     0
340
11
371
    -1
372
    -1
  0
DIMSTYLE
105
84
330
A
100
AcDbSymbolTableRecord
100
AcDbDimStyleTableRecord
  2
AM_ISO$6
 70
     0
  4
"
 41
3.0
 42
1.0
 43
10.0
 44
1.5
 47
0.1
 48
0.1
 73
     0
 74
     0
 78
     8
 79
     2
140
3.5
141
0.0
143
0.0393701
146
0.6
147
0.7
172
     1
176
   256
177
   256
178
   256
271
     2
272
     2
283
     0
284
     8
340
11
371
    -1
372
    -1
  0
DIMSTYLE
105
85
330
A
100
AcDbSymbolTableRecord
100
AcDbDimStyleTableRecord
  2
AM_ISO$7
 70
     0
  4
"
 41
3.0
 42
1.0
 43
10.0
 44
1.5
 47
0.1
 48
0.1
 73
     0
 74
     0
 77
     1
 78
     8
 79
     2
140
5.0
141
0.0
143
0.0393701
146
0.6
147
0.7
172
     1
176
   256
177
   256
178
   256
271
     2
272
     2
283
     0
284
     8
340
11
371
    -1
372
    -1
  0
DIMSTYLE
105
86
330
A
100
AcDbSymbolTableRecord
100
AcDbDimStyleTableRecord
  2
AM_ISO$SF
 70
     0
  4
"
 41
2.5
 42
1.0
 43
10.0
 44
1.0
 47
0.1
 48
0.1
 73
     0
 74
     0
 75
     1
 76
     1
 77
     1
 78
     8
 79
     2
140
3.5
141
0.0
143
0.0393701
146
0.71
147
1.5
172
     1
176
   256
177
   256
178
     2
271
     2
272
     3
274
     4
283
     0
284
     8
340
11
371
    -1
372
    -1
  0
DIMSTYLE
105
8B
330
A
100
AcDbSymbolTableRecord
100
AcDbDimStyleTableRecord
  2
AM_ISO$SH
 70
     0
  4
"
 41
2.5
 42
1.0
 43
10.0
 44
1.0
 47
0.1
 48
0.1
 73
     0
 74
     0
 75
     1
 76
     1
 77
     1
 78
     8
 79
     2
140
3.5
141
0.0
143
0.0393701
144
2.0
146
0.71
147
1.5
172
     1
173
     1
176
   256
177
   256
178
     2
271
     2
272
     3
274
     4
283
     0
284
     8
340
11
343
87
371
    -1
372
    -1
  0
DIMSTYLE
105
40B
102
{ACAD_REACTORS
330
653F
330
653C
330
6563
330
6548
330
6545
330
655A
330
6557
330
655D
330
6560
330
6554
330
6551
330
6588
330
6EB5
330
6ED1
330
6542
330
654E
102
}
330
A
100
AcDbSymbolTableRecord
100
AcDbDimStyleTableRecord
  2
AM_ISO$0
 70
     0
  4
"
 41
3.0
 42
1.0
 43
10.0
 44
1.5
 47
0.1
 48
0.1
 73
     0
 74
     0
 77
     1
 78
     8
 79
     2
140
3.5
141
0.0
143
0.0393701
146
0.6
147
0.7
172
     1
176
   256
177
   256
178
   256
271
     2
272
     2
283
     0
284
     8
340
11
371
    -1
372
    -1
  0
ENDTAB
  0
TABLE
  2
BLOCK_RECORD
  5
1
330
0
100
AcDbSymbolTable
 70
    27
  0
BLOCK_RECORD
  5
1F
102
{ACAD_XDICTIONARY
360
8F
102
}
330
1
100
AcDbSymbolTableRecord
100
AcDbBlockTableRecord
  2
*Model_Space
340
22
  0
BLOCK_RECORD
  5
1B
330
1
100
AcDbSymbolTableRecord
100
AcDbBlockTableRecord
  2
*Paper_Space
340
1E
  0
BLOCK_RECORD
  5
23
330
1
100
AcDbSymbolTableRecord
100
AcDbBlockTableRecord
  2
*Paper_Space0
340
26
  0
BLOCK_RECORD
  5
87
330
1
100
AcDbSymbolTableRecord
100
AcDbBlockTableRecord
  2
GENAXEH
340
0
  0
BLOCK_RECORD
  5
65AE
330
1
100
AcDbSymbolTableRecord
100
AcDbBlockTableRecord
  2
*D2
340
0
  0
BLOCK_RECORD
  5
65BA
330
1
100
AcDbSymbolTableRecord
100
AcDbBlockTableRecord
  2
*D3
340
0
  0
BLOCK_RECORD
  5
65C6
330
1
100
AcDbSymbolTableRecord
100
AcDbBlockTableRecord
  2
*D4
340
0
  0
BLOCK_RECORD
  5
65D2
330
1
100
AcDbSymbolTableRecord
100
AcDbBlockTableRecord
  2
*D5
340
0
  0
BLOCK_RECORD
  5
65DE
330
1
100
AcDbSymbolTableRecord
100
AcDbBlockTableRecord
  2
*D6
340
0
  0
BLOCK_RECORD
  5
65EA
330
1
100
AcDbSymbolTableRecord
100
AcDbBlockTableRecord
  2
*D7
340
0
  0
BLOCK_RECORD
  5
65F6
330
1
100
AcDbSymbolTableRecord
100
AcDbBlockTableRecord
  2
*D8
340
0
  0
BLOCK_RECORD
  5
6604
330
1
100
AcDbSymbolTableRecord
100
AcDbBlockTableRecord
  2
*D9
340
0
  0
BLOCK_RECORD
  5
6610
330
1
100
AcDbSymbolTableRecord
100
AcDbBlockTableRecord
  2
*D10
340
0
  0
BLOCK_RECORD
  5
661C
330
1
100
AcDbSymbolTableRecord
100
AcDbBlockTableRecord
  2
*D11
340
0
  0
BLOCK_RECORD
  5
6628
330
1
100
AcDbSymbolTableRecord
100
AcDbBlockTableRecord
  2
*D12
340
0
  0
BLOCK_RECORD
  5
6634
330
1
100
AcDbSymbolTableRecord
100
AcDbBlockTableRecord
  2
*D13
340
0
  0
BLOCK_RECORD
  5
6642
330
1
100
AcDbSymbolTableRecord
100
AcDbBlockTableRecord
  2
*D14
340
0
  0
BLOCK_RECORD
  5
664E
330
1
100
AcDbSymbolTableRecord
100
AcDbBlockTableRecord
  2
*D15
340
0
  0
BLOCK_RECORD
  5
6EB8
330
1
100
AcDbSymbolTableRecord
100
AcDbBlockTableRecord
  2
*D16
340
0
  0
BLOCK_RECORD
  5
6ED4
330
1
100
AcDbSymbolTableRecord
100
AcDbBlockTableRecord
  2
*D17
340
0
  0
BLOCK_RECORD
  5
7879
330
1
100
AcDbSymbolTableRecord
100
AcDbBlockTableRecord
  2
*S18
340
0
102
{BLKREFS
331
6567
102
}
  0
BLOCK_RECORD
  5
7881
330
1
100
AcDbSymbolTableRecord
100
AcDbBlockTableRecord
  2
*S19
340
0
102
{BLKREFS
331
6569
102
}
  0
BLOCK_RECORD
  5
7889
330
1
100
AcDbSymbolTableRecord
100
AcDbBlockTableRecord
  2
*S20
340
0
102
{BLKREFS
331
656B
102
}
  0
BLOCK_RECORD
  5
7891
330
1
100
AcDbSymbolTableRecord
100
AcDbBlockTableRecord
  2
*S21
340
0
102
{BLKREFS
331
6572
102
}
  0
BLOCK_RECORD
  5
7899
330
1
100
AcDbSymbolTableRecord
100
AcDbBlockTableRecord
  2
*S22
340
0
102
{BLKREFS
331
6F4E
102
}
  0
BLOCK_RECORD
  5
78A1
330
1
100
AcDbSymbolTableRecord
100
AcDbBlockTableRecord
  2
*S23
340
0
102
{BLKREFS
331
7440
102
}
  0
ENDTAB
  0
ENDSEC
  0
SECTION
  2
BLOCKS
  0
BLOCK
  5
20
330
1F
100
AcDbEntity
  8
0
100
AcDbBlockBegin
  2
*Model_Space
 70
     0
 10
0.0
 20
0.0
 30
0.0
  3
*Model_Space
  1

  0
ENDBLK
  5
21
330
1F
100
AcDbEntity
  8
0
100
AcDbBlockEnd
  0
BLOCK
  5
1C
330
1B
100
AcDbEntity
 67
     1
  8
0
100
AcDbBlockBegin
  2
*Paper_Space
 70
     0
 10
0.0
 20
0.0
 30
0.0
  3
*Paper_Space
  1

  0
ENDBLK
  5
1D
330
1B
100
AcDbEntity
 67
     1
  8
0
100
AcDbBlockEnd
  0
BLOCK
  5
24
330
23
100
AcDbEntity
  8
0
100
AcDbBlockBegin
  2
*Paper_Space0
 70
     0
 10
0.0
 20
0.0
 30
0.0
  3
*Paper_Space0
  1

  0
ENDBLK
  5
25
330
23
100
AcDbEntity
  8
0
100
AcDbBlockEnd
  0
BLOCK
  5
89
330
87
100
AcDbEntity
  8
0
100
AcDbBlockBegin
  2
GENAXEH
 70
     0
 10
0.0
 20
0.0
 30
0.0
  3
GENAXEH
  1

  0
LINE
  5
88
330
87
100
AcDbEntity
  8
0
100
AcDbLine
 10
-1.0
 20
0.0
 30
0.0
 11
1.0
 21
0.0
 31
0.0
  0
ENDBLK
  5
8A
330
87
100
AcDbEntity
  8
0
100
AcDbBlockEnd
  0
BLOCK
  5
65B8
330
65AE
100
AcDbEntity
  8
0
100
AcDbBlockBegin
  2
*D2
 70
     1
 10
0.0
 20
0.0
 30
0.0
  3
*D2
  1

  0
LINE
  5
729A
330
65AE
100
AcDbEntity
  8
AM_5
100
AcDbLine
 10
1163.304873356663
 20
998.610399543792
 30
0.0
 11
1177.649977357094
 21
998.610399543792
 31
0.0
  0
LINE
  5
729B
330
65AE
100
AcDbEntity
  8
AM_5
100
AcDbLine
 10
1161.899977357093
 20
985.660399543792
 30
0.0
 11
1177.649977357094
 21
985.660399543792
 31
0.0
  0
LINE
  5
729C
330
65AE
100
AcDbEntity
  8
AM_5
100
AcDbLine
 10
1175.399977357094
 20
994.110399543792
 30
0.0
 11
1175.399977357094
 21
990.1603995437922
 31
0.0
  0
SOLID
  5
729D
330
65AE
100
AcDbEntity
  8
AM_5
100
AcDbTrace
 10
1174.649977357094
 20
994.110399543792
 30
0.0
 11
1176.149977357094
 21
994.110399543792
 31
0.0
 12
1175.399977357094
 22
998.610399543792
 32
0.0
 13
1175.399977357094
 23
998.610399543792
 33
0.0
  0
SOLID
  5
729E
330
65AE
100
AcDbEntity
  8
AM_5
100
AcDbTrace
 10
1174.649977357094
 20
990.1603995437922
 30
0.0
 11
1176.149977357094
 21
990.1603995437922
 31
0.0
 12
1175.399977357094
 22
985.660399543792
 32
0.0
 13
1175.399977357094
 23
985.660399543792
 33
0.0
  0
MTEXT
  5
729F
330
65AE
100
AcDbEntity
  8
AM_5
100
AcDbMText
 10
1171.724977357093
 20
992.1353995437922
 30
0.0
 40
5.25
 41
0.0
 71
     5
 72
     1
  1
13
 11
0.0000000000000001
 21
1.0
 31
0.0
 73
     1
 44
1.0
1001
ACAD
1000
MTEXTBEGIN
1070
    73
1070
     1
1070
    44
1040
1.0
1070
    74
1070
     0
1000
MTEXTEND
  0
POINT
  5
72A0
330
65AE
100
AcDbEntity
  8
Defpoints
 62
     0
100
AcDbPoint
 10
1161.804873356663
 20
998.610399543792
 30
0.0
  0
POINT
  5
72A1
330
65AE
100
AcDbEntity
  8
Defpoints
 62
     0
100
AcDbPoint
 10
1160.399977357093
 20
985.660399543792
 30
0.0
  0
POINT
  5
72A2
330
65AE
100
AcDbEntity
  8
Defpoints
 62
     0
100
AcDbPoint
 10
1175.399977357094
 20
985.660399543792
 30
0.0
  0
ENDBLK
  5
65B9
330
65AE
100
AcDbEntity
  8
0
100
AcDbBlockEnd
  0
BLOCK
  5
65C4
330
65BA
100
AcDbEntity
  8
0
100
AcDbBlockBegin
  2
*D3
 70
     1
 10
0.0
 20
0.0
 30
0.0
  3
*D3
  1

  0
LINE
  5
7484
330
65BA
100
AcDbEntity
  8
AM_5
100
AcDbLine
 10
1070.399977357094
 20
915.311797458243
 30
0.0
 11
1070.399977357094
 21
899.561797458243
 31
0.0
  0
LINE
  5
7485
330
65BA
100
AcDbEntity
  8
AM_5
100
AcDbLine
 10
1096.899977357093
 20
922.011797458243
 30
0.0
 11
1096.899977357093
 21
899.561797458243
 31
0.0
  0
LINE
  5
7486
330
65BA
100
AcDbEntity
  8
AM_5
100
AcDbLine
 10
1074.899977357093
 20
901.811797458243
 30
0.0
 11
1092.399977357093
 21
901.811797458243
 31
0.0
  0
SOLID
  5
7487
330
65BA
100
AcDbEntity
  8
AM_5
100
AcDbTrace
 10
1074.899977357093
 20
902.5617974582431
 30
0.0
 11
1074.899977357093
 21
901.061797458243
 31
0.0
 12
1070.399977357094
 22
901.811797458243
 32
0.0
 13
1070.399977357094
 23
901.811797458243
 33
0.0
  0
SOLID
  5
7488
330
65BA
100
AcDbEntity
  8
AM_5
100
AcDbTrace
 10
1092.399977357093
 20
902.5617974582431
 30
0.0
 11
1092.399977357093
 21
901.061797458243
 31
0.0
 12
1096.899977357093
 22
901.811797458243
 32
0.0
 13
1096.899977357093
 23
901.811797458243
 33
0.0
  0
MTEXT
  5
7489
330
65BA
100
AcDbEntity
  8
AM_5
100
AcDbMText
 10
1083.649977357093
 20
905.4873141905265
 30
0.0
 40
5.25
 41
0.0
 71
     5
 72
     1
  1
26.5
 73
     1
 44
1.0
1001
ACAD
1000
MTEXTBEGIN
1070
    73
1070
     1
1070
    44
1040
1.0
1070
    74
1070
     0
1000
MTEXTEND
  0
POINT
  5
748A
330
65BA
100
AcDbEntity
  8
Defpoints
 62
     0
100
AcDbPoint
 10
1070.399977357094
 20
916.8117974582431
 30
0.0
  0
POINT
  5
748B
330
65BA
100
AcDbEntity
  8
Defpoints
 62
     0
100
AcDbPoint
 10
1096.899977357093
 20
923.5117974582431
 30
0.0
  0
POINT
  5
748C
330
65BA
100
AcDbEntity
  8
Defpoints
 62
     0
100
AcDbPoint
 10
1096.899977357093
 20
901.811797458243
 30
0.0
  0
ENDBLK
  5
65C5
330
65BA
100
AcDbEntity
  8
0
100
AcDbBlockEnd
  0
BLOCK
  5
65D0
330
65C6
100
AcDbEntity
  8
0
100
AcDbBlockBegin
  2
*D4
 70
     1
 10
0.0
 20
0.0
 30
0.0
  3
*D4
  1

  0
LINE
  5
740E
330
65C6
100
AcDbEntity
  8
AM_5
100
AcDbLine
 10
1096.899977357093
 20
922.011797458243
 30
0.0
 11
1096.899977357093
 21
899.561797458243
 31
0.0
  0
LINE
  5
740F
330
65C6
100
AcDbEntity
  8
AM_5
100
AcDbLine
 10
1115.399977357093
 20
920.3117974582431
 30
0.0
 11
1115.399977357093
 21
899.561797458243
 31
0.0
  0
LINE
  5
7410
330
65C6
100
AcDbEntity
  8
AM_5
100
AcDbLine
 10
1101.399977357093
 20
901.811797458243
 30
0.0
 11
1110.899977357093
 21
901.811797458243
 31
0.0
  0
SOLID
  5
7411
330
65C6
100
AcDbEntity
  8
AM_5
100
AcDbTrace
 10
1101.399977357093
 20
902.5617974582431
 30
0.0
 11
1101.399977357093
 21
901.061797458243
 31
0.0
 12
1096.899977357093
 22
901.811797458243
 32
0.0
 13
1096.899977357093
 23
901.811797458243
 33
0.0
  0
SOLID
  5
7412
330
65C6
100
AcDbEntity
  8
AM_5
100
AcDbTrace
 10
1110.899977357093
 20
902.5617974582431
 30
0.0
 11
1110.899977357093
 21
901.061797458243
 31
0.0
 12
1115.399977357093
 22
901.811797458243
 32
0.0
 13
1115.399977357093
 23
901.811797458243
 33
0.0
  0
MTEXT
  5
7413
330
65C6
100
AcDbEntity
  8
AM_5
100
AcDbMText
 10
1106.149977357093
 20
905.486797458243
 30
0.0
 40
5.25
 41
0.0
 71
     5
 72
     1
  1
18.5
 73
     1
 44
1.0
1001
ACAD
1000
MTEXTBEGIN
1070
    73
1070
     1
1070
    44
1040
1.0
1070
    74
1070
     0
1000
MTEXTEND
  0
POINT
  5
7414
330
65C6
100
AcDbEntity
  8
Defpoints
 62
     0
100
AcDbPoint
 10
1096.899977357093
 20
923.5117974582431
 30
0.0
  0
POINT
  5
7415
330
65C6
100
AcDbEntity
  8
Defpoints
 62
     0
100
AcDbPoint
 10
1115.399977357093
 20
921.811797458243
 30
0.0
  0
POINT
  5
7416
330
65C6
100
AcDbEntity
  8
Defpoints
 62
     0
100
AcDbPoint
 10
1115.399977357093
 20
901.811797458243
 30
0.0
  0
ENDBLK
  5
65D1
330
65C6
100
AcDbEntity
  8
0
100
AcDbBlockEnd
  0
BLOCK
  5
65DC
330
65D2
100
AcDbEntity
  8
0
100
AcDbBlockBegin
  2
*D5
 70
     1
 10
0.0
 20
0.0
 30
0.0
  3
*D5
  1

  0
LINE
  5
7417
330
65D2
100
AcDbEntity
  8
AM_5
100
AcDbLine
 10
1115.399977357093
 20
920.3117974582431
 30
0.0
 11
1115.399977357093
 21
899.561797458243
 31
0.0
  0
LINE
  5
7418
330
65D2
100
AcDbEntity
  8
AM_5
100
AcDbLine
 10
1133.899977357093
 20
922.011797458243
 30
0.0
 11
1133.899977357093
 21
899.561797458243
 31
0.0
  0
LINE
  5
7419
330
65D2
100
AcDbEntity
  8
AM_5
100
AcDbLine
 10
1119.899977357093
 20
901.811797458243
 30
0.0
 11
1129.399977357093
 21
901.811797458243
 31
0.0
  0
SOLID
  5
741A
330
65D2
100
AcDbEntity
  8
AM_5
100
AcDbTrace
 10
1119.899977357093
 20
902.5617974582431
 30
0.0
 11
1119.899977357093
 21
901.061797458243
 31
0.0
 12
1115.399977357093
 22
901.811797458243
 32
0.0
 13
1115.399977357093
 23
901.811797458243
 33
0.0
  0
SOLID
  5
741B
330
65D2
100
AcDbEntity
  8
AM_5
100
AcDbTrace
 10
1129.399977357093
 20
902.5617974582431
 30
0.0
 11
1129.399977357093
 21
901.061797458243
 31
0.0
 12
1133.899977357093
 22
901.811797458243
 32
0.0
 13
1133.899977357093
 23
901.811797458243
 33
0.0
  0
MTEXT
  5
741C
330
65D2
100
AcDbEntity
  8
AM_5
100
AcDbMText
 10
1124.649977357093
 20
905.486797458243
 30
0.0
 40
5.25
 41
0.0
 71
     5
 72
     1
  1
18.5
 73
     1
 44
1.0
1001
ACAD
1000
MTEXTBEGIN
1070
    73
1070
     1
1070
    44
1040
1.0
1070
    74
1070
     0
1000
MTEXTEND
  0
POINT
  5
741D
330
65D2
100
AcDbEntity
  8
Defpoints
 62
     0
100
AcDbPoint
 10
1115.399977357093
 20
921.811797458243
 30
0.0
  0
POINT
  5
741E
330
65D2
100
AcDbEntity
  8
Defpoints
 62
     0
100
AcDbPoint
 10
1133.899977357093
 20
923.5117974582431
 30
0.0
  0
POINT
  5
741F
330
65D2
100
AcDbEntity
  8
Defpoints
 62
     0
100
AcDbPoint
 10
1133.899977357093
 20
901.811797458243
 30
0.0
  0
ENDBLK
  5
65DD
330
65D2
100
AcDbEntity
  8
0
100
AcDbBlockEnd
  0
BLOCK
  5
65E8
330
65DE
100
AcDbEntity
  8
0
100
AcDbBlockBegin
  2
*D6
 70
     1
 10
0.0
 20
0.0
 30
0.0
  3
*D6
  1

  0
LINE
  5
7827
330
65DE
100
AcDbEntity
  8
AM_5
100
AcDbLine
 10
1070.399977357094
 20
1068.274321673477
 30
0.0
 11
1070.399977357094
 21
1052.524321673477
 31
0.0
  0
LINE
  5
7828
330
65DE
100
AcDbEntity
  8
AM_5
100
AcDbLine
 10
1103.899977357093
 20
1073.274321673477
 30
0.0
 11
1103.899977357093
 21
1052.524321673477
 31
0.0
  0
LINE
  5
7829
330
65DE
100
AcDbEntity
  8
AM_5
100
AcDbLine
 10
1074.899977357093
 20
1054.774321673477
 30
0.0
 11
1099.399977357093
 21
1054.774321673477
 31
0.0
  0
SOLID
  5
782A
330
65DE
100
AcDbEntity
  8
AM_5
100
AcDbTrace
 10
1074.899977357093
 20
1055.524321673477
 30
0.0
 11
1074.899977357093
 21
1054.024321673477
 31
0.0
 12
1070.399977357094
 22
1054.774321673477
 32
0.0
 13
1070.399977357094
 23
1054.774321673477
 33
0.0
  0
SOLID
  5
782B
330
65DE
100
AcDbEntity
  8
AM_5
100
AcDbTrace
 10
1099.399977357093
 20
1055.524321673477
 30
0.0
 11
1099.399977357093
 21
1054.024321673477
 31
0.0
 12
1103.899977357093
 22
1054.774321673477
 32
0.0
 13
1103.899977357093
 23
1054.774321673477
 33
0.0
  0
MTEXT
  5
782C
330
65DE
100
AcDbEntity
  8
AM_5
100
AcDbMText
 10
1087.149977357093
 20
1058.449321673477
 30
0.0
 40
5.25
 41
0.0
 71
     5
 72
     1
  1
33.5
 73
     1
 44
1.0
1001
ACAD
1000
MTEXTBEGIN
1070
    73
1070
     1
1070
    44
1040
1.0
1070
    74
1070
     0
1000
MTEXTEND
  0
POINT
  5
782D
330
65DE
100
AcDbEntity
  8
Defpoints
 62
     0
100
AcDbPoint
 10
1070.399977357094
 20
1069.774321673477
 30
0.0
  0
POINT
  5
782E
330
65DE
100
AcDbEntity
  8
Defpoints
 62
     0
100
AcDbPoint
 10
1103.899977357093
 20
1074.774321673477
 30
0.0
  0
POINT
  5
782F
330
65DE
100
AcDbEntity
  8
Defpoints
 62
     0
100
AcDbPoint
 10
1103.899977357093
 20
1054.774321673477
 30
0.0
  0
ENDBLK
  5
65E9
330
65DE
100
AcDbEntity
  8
0
100
AcDbBlockEnd
  0
BLOCK
  5
65F4
330
65EA
100
AcDbEntity
  8
0
100
AcDbBlockBegin
  2
*D7
 70
     1
 10
0.0
 20
0.0
 30
0.0
  3
*D7
  1

  0
LINE
  5
7830
330
65EA
100
AcDbEntity
  8
AM_5
100
AcDbLine
 10
1103.899977357093
 20
1073.274321673477
 30
0.0
 11
1103.899977357093
 21
1052.524321673477
 31
0.0
  0
LINE
  5
7831
330
65EA
100
AcDbEntity
  8
AM_5
100
AcDbLine
 10
1126.899977357093
 20
1073.274321673477
 30
0.0
 11
1126.899977357093
 21
1052.524321673477
 31
0.0
  0
LINE
  5
7832
330
65EA
100
AcDbEntity
  8
AM_5
100
AcDbLine
 10
1108.399977357093
 20
1054.774321673477
 30
0.0
 11
1122.399977357093
 21
1054.774321673477
 31
0.0
  0
SOLID
  5
7833
330
65EA
100
AcDbEntity
  8
AM_5
100
AcDbTrace
 10
1108.399977357093
 20
1055.524321673477
 30
0.0
 11
1108.399977357093
 21
1054.024321673477
 31
0.0
 12
1103.899977357093
 22
1054.774321673477
 32
0.0
 13
1103.899977357093
 23
1054.774321673477
 33
0.0
  0
SOLID
  5
7834
330
65EA
100
AcDbEntity
  8
AM_5
100
AcDbTrace
 10
1122.399977357093
 20
1055.524321673477
 30
0.0
 11
1122.399977357093
 21
1054.024321673477
 31
0.0
 12
1126.899977357093
 22
1054.774321673477
 32
0.0
 13
1126.899977357093
 23
1054.774321673477
 33
0.0
  0
MTEXT
  5
7835
330
65EA
100
AcDbEntity
  8
AM_5
100
AcDbMText
 10
1115.399977357093
 20
1058.449838405761
 30
0.0
 40
5.25
 41
0.0
 71
     5
 72
     1
  1
23
 73
     1
 44
1.0
1001
ACAD
1000
MTEXTBEGIN
1070
    73
1070
     1
1070
    44
1040
1.0
1070
    74
1070
     0
1000
MTEXTEND
  0
POINT
  5
7836
330
65EA
100
AcDbEntity
  8
Defpoints
 62
     0
100
AcDbPoint
 10
1103.899977357093
 20
1074.774321673477
 30
0.0
  0
POINT
  5
7837
330
65EA
100
AcDbEntity
  8
Defpoints
 62
     0
100
AcDbPoint
 10
1126.899977357093
 20
1074.774321673477
 30
0.0
  0
POINT
  5
7838
330
65EA
100
AcDbEntity
  8
Defpoints
 62
     0
100
AcDbPoint
 10
1126.899977357093
 20
1054.774321673477
 30
0.0
  0
ENDBLK
  5
65F5
330
65EA
100
AcDbEntity
  8
0
100
AcDbBlockEnd
  0
BLOCK
  5
6602
330
65F6
100
AcDbEntity
  8
0
100
AcDbBlockBegin
  2
*D8
 70
     1
 10
0.0
 20
0.0
 30
0.0
  3
*D8
  1

  0
LINE
  5
7839
330
65F6
100
AcDbEntity
  8
AM_5
100
AcDbLine
 10
1110.399977357093
 20
1099.474321673477
 30
0.0
 11
1110.399977357093
 21
1111.424321673477
 31
0.0
  0
LINE
  5
783A
330
65F6
100
AcDbEntity
  8
AM_5
100
AcDbLine
 10
1120.399977357093
 20
1080.474321673477
 30
0.0
 11
1120.399977357093
 21
1111.424321673477
 31
0.0
  0
LINE
  5
783B
330
65F6
100
AcDbEntity
  8
AM_5
100
AcDbLine
 10
1105.899977357093
 20
1109.174321673477
 30
0.0
 11
1101.399977357093
 21
1109.174321673477
 31
0.0
  0
LINE
  5
783C
330
65F6
100
AcDbEntity
  8
AM_5
100
AcDbLine
 10
1124.899977357093
 20
1109.174321673477
 30
0.0
 11
1129.399977357093
 21
1109.174321673477
 31
0.0
  0
LINE
  5
783D
330
65F6
100
AcDbEntity
  8
AM_5
100
AcDbLine
 10
1110.399977357093
 20
1109.174321673477
 30
0.0
 11
1120.399977357093
 21
1109.174321673477
 31
0.0
  0
SOLID
  5
783E
330
65F6
100
AcDbEntity
  8
AM_5
100
AcDbTrace
 10
1105.899977357093
 20
1109.924321673477
 30
0.0
 11
1105.899977357093
 21
1108.424321673477
 31
0.0
 12
1110.399977357093
 22
1109.174321673477
 32
0.0
 13
1110.399977357093
 23
1109.174321673477
 33
0.0
  0
SOLID
  5
783F
330
65F6
100
AcDbEntity
  8
AM_5
100
AcDbTrace
 10
1124.899977357093
 20
1109.924321673477
 30
0.0
 11
1124.899977357093
 21
1108.424321673477
 31
0.0
 12
1120.399977357093
 22
1109.174321673477
 32
0.0
 13
1120.399977357093
 23
1109.174321673477
 33
0.0
  0
MTEXT
  5
7840
330
65F6
100
AcDbEntity
  8
AM_5
100
AcDbMText
 10
1115.399977357093
 20
1112.849321673477
 30
0.0
 40
5.25
 41
0.0
 71
     5
 72
     1
  1
10
 73
     1
 44
1.0
1001
ACAD
1000
MTEXTBEGIN
1070
    73
1070
     1
1070
    44
1040
1.0
1070
    74
1070
     0
1000
MTEXTEND
  0
POINT
  5
7841
330
65F6
100
AcDbEntity
  8
Defpoints
 62
     0
100
AcDbPoint
 10
1110.399977357093
 20
1097.974321673477
 30
0.0
  0
POINT
  5
7842
330
65F6
100
AcDbEntity
  8
Defpoints
 62
     0
100
AcDbPoint
 10
1120.399977357093
 20
1078.974321673477
 30
0.0
  0
POINT
  5
7843
330
65F6
100
AcDbEntity
  8
Defpoints
 62
     0
100
AcDbPoint
 10
1120.399977357093
 20
1109.174321673477
 30
0.0
  0
ENDBLK
  5
6603
330
65F6
100
AcDbEntity
  8
0
100
AcDbBlockEnd
  0
BLOCK
  5
660E
330
6604
100
AcDbEntity
  8
0
100
AcDbBlockBegin
  2
*D9
 70
     1
 10
0.0
 20
0.0
 30
0.0
  3
*D9
  1

  0
LINE
  5
7844
330
6604
100
AcDbEntity
  8
AM_5
100
AcDbLine
 10
1070.399977357094
 20
1097.674321673477
 30
0.0
 11
1070.399977357094
 21
1111.424321673477
 31
0.0
  0
LINE
  5
7845
330
6604
100
AcDbEntity
  8
AM_5
100
AcDbLine
 10
1110.399977357093
 20
1099.474321673477
 30
0.0
 11
1110.399977357093
 21
1111.424321673477
 31
0.0
  0
LINE
  5
7846
330
6604
100
AcDbEntity
  8
AM_5
100
AcDbLine
 10
1074.899977357093
 20
1109.174321673477
 30
0.0
 11
1105.899977357093
 21
1109.174321673477
 31
0.0
  0
SOLID
  5
7847
330
6604
100
AcDbEntity
  8
AM_5
100
AcDbTrace
 10
1074.899977357093
 20
1109.924321673477
 30
0.0
 11
1074.899977357093
 21
1108.424321673477
 31
0.0
 12
1070.399977357094
 22
1109.174321673477
 32
0.0
 13
1070.399977357094
 23
1109.174321673477
 33
0.0
  0
SOLID
  5
7848
330
6604
100
AcDbEntity
  8
AM_5
100
AcDbTrace
 10
1105.899977357093
 20
1109.924321673477
 30
0.0
 11
1105.899977357093
 21
1108.424321673477
 31
0.0
 12
1110.399977357093
 22
1109.174321673477
 32
0.0
 13
1110.399977357093
 23
1109.174321673477
 33
0.0
  0
MTEXT
  5
7849
330
6604
100
AcDbEntity
  8
AM_5
100
AcDbMText
 10
1090.399977357093
 20
1112.849321673477
 30
0.0
 40
5.25
 41
0.0
 71
     5
 72
     1
  1
40
 73
     1
 44
1.0
1001
ACAD
1000
MTEXTBEGIN
1070
    73
1070
     1
1070
    44
1040
1.0
1070
    74
1070
     0
1000
MTEXTEND
  0
POINT
  5
784A
330
6604
100
AcDbEntity
  8
Defpoints
 62
     0
100
AcDbPoint
 10
1070.399977357094
 20
1096.174321673477
 30
0.0
  0
POINT
  5
784B
330
6604
100
AcDbEntity
  8
Defpoints
 62
     0
100
AcDbPoint
 10
1110.399977357093
 20
1097.974321673477
 30
0.0
  0
POINT
  5
784C
330
6604
100
AcDbEntity
  8
Defpoints
 62
     0
100
AcDbPoint
 10
1110.399977357093
 20
1109.174321673477
 30
0.0
  0
ENDBLK
  5
660F
330
6604
100
AcDbEntity
  8
0
100
AcDbBlockEnd
  0
BLOCK
  5
661A
330
6610
100
AcDbEntity
  8
0
100
AcDbBlockBegin
  2
*D10
 70
     1
 10
0.0
 20
0.0
 30
0.0
  3
*D10
  1

  0
LINE
  5
7313
330
6610
100
AcDbEntity
  8
AM_5
100
AcDbLine
 10
1083.399977357093
 20
985.660399543792
 30
0.0
 11
1043.149977357093
 21
985.660399543792
 31
0.0
  0
LINE
  5
7314
330
6610
100
AcDbEntity
  8
AM_5
100
AcDbLine
 10
1083.399977357093
 20
1020.960399543792
 30
0.0
 11
1043.149977357093
 21
1020.960399543792
 31
0.0
  0
LINE
  5
7315
330
6610
100
AcDbEntity
  8
AM_5
100
AcDbLine
 10
1045.399977357093
 20
990.160399543792
 30
0.0
 11
1045.399977357093
 21
1016.460399543792
 31
0.0
  0
SOLID
  5
7316
330
6610
100
AcDbEntity
  8
AM_5
100
AcDbTrace
 10
1044.649977357093
 20
990.160399543792
 30
0.0
 11
1046.149977357093
 21
990.160399543792
 31
0.0
 12
1045.399977357093
 22
985.660399543792
 32
0.0
 13
1045.399977357093
 23
985.660399543792
 33
0.0
  0
SOLID
  5
7317
330
6610
100
AcDbEntity
  8
AM_5
100
AcDbTrace
 10
1044.649977357093
 20
1016.460399543792
 30
0.0
 11
1046.149977357093
 21
1016.460399543792
 31
0.0
 12
1045.399977357093
 22
1020.960399543792
 32
0.0
 13
1045.399977357093
 23
1020.960399543792
 33
0.0
  0
MTEXT
  5
7318
330
6610
100
AcDbEntity
  8
AM_5
100
AcDbMText
 10
1041.724977357093
 20
1003.310399543792
 30
0.0
 40
5.25
 41
0.0
 71
     5
 72
     1
  1
35.3
 11
0.0000000000000001
 21
1.0
 31
0.0
 73
     1
 44
1.0
1001
ACAD
1000
MTEXTBEGIN
1070
    73
1070
     1
1070
    44
1040
1.0
1070
    74
1070
     0
1000
MTEXTEND
  0
POINT
  5
7319
330
6610
100
AcDbEntity
  8
Defpoints
 62
     0
100
AcDbPoint
 10
1084.899977357093
 20
985.660399543792
 30
0.0
  0
POINT
  5
731A
330
6610
100
AcDbEntity
  8
Defpoints
 62
     0
100
AcDbPoint
 10
1084.899977357093
 20
1020.960399543792
 30
0.0
  0
POINT
  5
731B
330
6610
100
AcDbEntity
  8
Defpoints
 62
     0
100
AcDbPoint
 10
1045.399977357093
 20
1020.960399543792
 30
0.0
  0
ENDBLK
  5
661B
330
6610
100
AcDbEntity
  8
0
100
AcDbBlockEnd
  0
BLOCK
  5
6626
330
661C
100
AcDbEntity
  8
0
100
AcDbBlockBegin
  2
*D11
 70
     1
 10
0.0
 20
0.0
 30
0.0
  3
*D11
  1

  0
LINE
  5
7496
330
661C
100
AcDbEntity
  8
AM_5
100
AcDbLine
 10
1070.399977357094
 20
984.1603995437919
 30
0.0
 11
1070.399977357094
 21
968.410399543792
 31
0.0
  0
LINE
  5
7497
330
661C
100
AcDbEntity
  8
AM_5
100
AcDbLine
 10
1104.899977357096
 20
984.5603995437921
 30
0.0
 11
1104.899977357096
 21
968.410399543792
 31
0.0
  0
LINE
  5
7498
330
661C
100
AcDbEntity
  8
AM_5
100
AcDbLine
 10
1074.899977357093
 20
970.6603995437919
 30
0.0
 11
1100.399977357096
 21
970.6603995437919
 31
0.0
  0
SOLID
  5
7499
330
661C
100
AcDbEntity
  8
AM_5
100
AcDbTrace
 10
1074.899977357093
 20
971.410399543792
 30
0.0
 11
1074.899977357093
 21
969.9103995437919
 31
0.0
 12
1070.399977357094
 22
970.6603995437919
 32
0.0
 13
1070.399977357094
 23
970.6603995437919
 33
0.0
  0
SOLID
  5
749A
330
661C
100
AcDbEntity
  8
AM_5
100
AcDbTrace
 10
1100.399977357096
 20
971.410399543792
 30
0.0
 11
1100.399977357096
 21
969.9103995437919
 31
0.0
 12
1104.899977357096
 22
970.6603995437919
 32
0.0
 13
1104.899977357096
 23
970.6603995437919
 33
0.0
  0
MTEXT
  5
749B
330
661C
100
AcDbEntity
  8
AM_5
100
AcDbMText
 10
1087.649977357095
 20
974.3353995437919
 30
0.0
 40
5.25
 41
0.0
 71
     5
 72
     1
  1
34.5
 73
     1
 44
1.0
1001
ACAD
1000
MTEXTBEGIN
1070
    73
1070
     1
1070
    44
1040
1.0
1070
    74
1070
     0
1000
MTEXTEND
  0
POINT
  5
749C
330
661C
100
AcDbEntity
  8
Defpoints
 62
     0
100
AcDbPoint
 10
1070.399977357094
 20
985.660399543792
 30
0.0
  0
POINT
  5
749D
330
661C
100
AcDbEntity
  8
Defpoints
 62
     0
100
AcDbPoint
 10
1104.899977357096
 20
986.0603995437921
 30
0.0
  0
POINT
  5
749E
330
661C
100
AcDbEntity
  8
Defpoints
 62
     0
100
AcDbPoint
 10
1104.899977357096
 20
970.6603995437919
 30
0.0
  0
ENDBLK
  5
6627
330
661C
100
AcDbEntity
  8
0
100
AcDbBlockEnd
  0
BLOCK
  5
6632
330
6628
100
AcDbEntity
  8
0
100
AcDbBlockBegin
  2
*D12
 70
     1
 10
0.0
 20
0.0
 30
0.0
  3
*D12
  1

  0
LINE
  5
71A8
330
6628
100
AcDbEntity
  8
AM_5
100
AcDbLine
 10
1104.899977357096
 20
984.5603995437921
 30
0.0
 11
1104.899977357096
 21
968.410399543792
 31
0.0
  0
LINE
  5
71A9
330
6628
100
AcDbEntity
  8
AM_5
100
AcDbLine
 10
1125.899977357096
 20
984.5603995437921
 30
0.0
 11
1125.899977357096
 21
968.410399543792
 31
0.0
  0
LINE
  5
71AA
330
6628
100
AcDbEntity
  8
AM_5
100
AcDbLine
 10
1109.399977357096
 20
970.6603995437921
 30
0.0
 11
1121.399977357096
 21
970.6603995437921
 31
0.0
  0
SOLID
  5
71AB
330
6628
100
AcDbEntity
  8
AM_5
100
AcDbTrace
 10
1109.399977357096
 20
971.4103995437922
 30
0.0
 11
1109.399977357096
 21
969.9103995437921
 31
0.0
 12
1104.899977357096
 22
970.6603995437921
 32
0.0
 13
1104.899977357096
 23
970.6603995437921
 33
0.0
  0
SOLID
  5
71AC
330
6628
100
AcDbEntity
  8
AM_5
100
AcDbTrace
 10
1121.399977357096
 20
971.4103995437922
 30
0.0
 11
1121.399977357096
 21
969.9103995437921
 31
0.0
 12
1125.899977357096
 22
970.6603995437921
 32
0.0
 13
1125.899977357096
 23
970.6603995437921
 33
0.0
  0
MTEXT
  5
71AD
330
6628
100
AcDbEntity
  8
AM_5
100
AcDbMText
 10
1115.399977357096
 20
974.3359162760755
 30
0.0
 40
5.25
 41
0.0
 71
     5
 72
     1
  1
21
 73
     1
 44
1.0
1001
ACAD
1000
MTEXTBEGIN
1070
    73
1070
     1
1070
    44
1040
1.0
1070
    74
1070
     0
1000
MTEXTEND
  0
POINT
  5
71AE
330
6628
100
AcDbEntity
  8
Defpoints
 62
     0
100
AcDbPoint
 10
1104.899977357096
 20
986.0603995437921
 30
0.0
  0
POINT
  5
71AF
330
6628
100
AcDbEntity
  8
Defpoints
 62
     0
100
AcDbPoint
 10
1125.899977357096
 20
986.0603995437921
 30
0.0
  0
POINT
  5
71B0
330
6628
100
AcDbEntity
  8
Defpoints
 62
     0
100
AcDbPoint
 10
1125.899977357096
 20
970.6603995437921
 30
0.0
  0
ENDBLK
  5
6633
330
6628
100
AcDbEntity
  8
0
100
AcDbBlockEnd
  0
BLOCK
  5
6640
330
6634
100
AcDbEntity
  8
0
100
AcDbBlockBegin
  2
*D13
 70
     1
 10
0.0
 20
0.0
 30
0.0
  3
*D13
  1

  0
LINE
  5
7381
330
6634
100
AcDbEntity
  8
AM_5
100
AcDbLine
 10
1083.399977357093
 20
985.660399543792
 30
0.0
 11
1053.149977357093
 21
985.660399543792
 31
0.0
  0
LINE
  5
7382
330
6634
100
AcDbEntity
  8
AM_5
100
AcDbLine
 10
1099.649977357096
 20
989.8103995437921
 30
0.0
 11
1053.149977357093
 21
989.8103995437921
 31
0.0
  0
LINE
  5
7383
330
6634
100
AcDbEntity
  8
AM_5
100
AcDbLine
 10
1055.399977357093
 20
981.160399543792
 30
0.0
 11
1055.399977357093
 21
976.660399543792
 31
0.0
  0
LINE
  5
7384
330
6634
100
AcDbEntity
  8
AM_5
100
AcDbLine
 10
1055.399977357093
 20
994.3103995437921
 30
0.0
 11
1055.399977357093
 21
1009.100709583162
 31
0.0
  0
LINE
  5
7385
330
6634
100
AcDbEntity
  8
AM_5
100
AcDbLine
 10
1055.399977357093
 20
985.660399543792
 30
0.0
 11
1055.399977357093
 21
989.8103995437921
 31
0.0
  0
SOLID
  5
7386
330
6634
100
AcDbEntity
  8
AM_5
100
AcDbTrace
 10
1054.649977357093
 20
981.160399543792
 30
0.0
 11
1056.149977357093
 21
981.160399543792
 31
0.0
 12
1055.399977357093
 22
985.660399543792
 32
0.0
 13
1055.399977357093
 23
985.660399543792
 33
0.0
  0
SOLID
  5
7387
330
6634
100
AcDbEntity
  8
AM_5
100
AcDbTrace
 10
1054.649977357093
 20
994.3103995437921
 30
0.0
 11
1056.149977357093
 21
994.3103995437921
 31
0.0
 12
1055.399977357093
 22
989.8103995437921
 32
0.0
 13
1055.399977357093
 23
989.8103995437921
 33
0.0
  0
MTEXT
  5
7388
330
6634
100
AcDbEntity
  8
AM_5
100
AcDbMText
 10
1051.72446062481
 20
1003.955554563477
 30
0.0
 40
5.25
 41
0.0
 71
     5
 72
     1
  1
4.2
 11
0.0000000000000001
 21
1.0
 31
0.0
 73
     1
 44
1.0
1001
ACAD
1000
MTEXTBEGIN
1070
    73
1070
     1
1070
    44
1040
1.0
1070
    74
1070
     0
1000
MTEXTEND
  0
POINT
  5
7389
330
6634
100
AcDbEntity
  8
Defpoints
 62
     0
100
AcDbPoint
 10
1084.899977357093
 20
985.660399543792
 30
0.0
  0
POINT
  5
738A
330
6634
100
AcDbEntity
  8
Defpoints
 62
     0
100
AcDbPoint
 10
1101.149977357096
 20
989.8103995437921
 30
0.0
  0
POINT
  5
738B
330
6634
100
AcDbEntity
  8
Defpoints
 62
     0
100
AcDbPoint
 10
1055.399977357093
 20
989.8103995437921
 30
0.0
  0
ENDBLK
  5
6641
330
6634
100
AcDbEntity
  8
0
100
AcDbBlockEnd
  0
BLOCK
  5
664C
330
6642
100
AcDbEntity
  8
0
100
AcDbBlockBegin
  2
*D14
 70
     1
 10
0.0
 20
0.0
 30
0.0
  3
*D14
  1

  0
LINE
  5
7815
330
6642
100
AcDbEntity
  8
AM_5
100
AcDbLine
 10
1103.399977357093
 20
1092.474321673477
 30
0.0
 11
1053.149977357093
 21
1092.474321673477
 31
0.0
  0
LINE
  5
7816
330
6642
100
AcDbEntity
  8
AM_5
100
AcDbLine
 10
1113.399977357093
 20
1073.474321673477
 30
0.0
 11
1053.149977357093
 21
1073.474321673477
 31
0.0
  0
LINE
  5
7817
330
6642
100
AcDbEntity
  8
AM_5
100
AcDbLine
 10
1055.399977357093
 20
1087.974321673477
 30
0.0
 11
1055.399977357093
 21
1077.974321673477
 31
0.0
  0
SOLID
  5
7818
330
6642
100
AcDbEntity
  8
AM_5
100
AcDbTrace
 10
1054.649977357093
 20
1087.974321673477
 30
0.0
 11
1056.149977357093
 21
1087.974321673477
 31
0.0
 12
1055.399977357093
 22
1092.474321673477
 32
0.0
 13
1055.399977357093
 23
1092.474321673477
 33
0.0
  0
SOLID
  5
7819
330
6642
100
AcDbEntity
  8
AM_5
100
AcDbTrace
 10
1054.649977357093
 20
1077.974321673477
 30
0.0
 11
1056.149977357093
 21
1077.974321673477
 31
0.0
 12
1055.399977357093
 22
1073.474321673477
 32
0.0
 13
1055.399977357093
 23
1073.474321673477
 33
0.0
  0
MTEXT
  5
781A
330
6642
100
AcDbEntity
  8
AM_5
100
AcDbMText
 10
1051.724977357093
 20
1082.974321673477
 30
0.0
 40
5.25
 41
0.0
 71
     5
 72
     1
  1
19
 11
0.0000000000000001
 21
1.0
 31
0.0
 73
     1
 44
1.0
1001
ACAD
1000
MTEXTBEGIN
1070
    73
1070
     1
1070
    44
1040
1.0
1070
    74
1070
     0
1000
MTEXTEND
  0
POINT
  5
781B
330
6642
100
AcDbEntity
  8
Defpoints
 62
     0
100
AcDbPoint
 10
1104.899977357093
 20
1092.474321673477
 30
0.0
  0
POINT
  5
781C
330
6642
100
AcDbEntity
  8
Defpoints
 62
     0
100
AcDbPoint
 10
1114.899977357093
 20
1073.474321673477
 30
0.0
  0
POINT
  5
781D
330
6642
100
AcDbEntity
  8
Defpoints
 62
     0
100
AcDbPoint
 10
1055.399977357093
 20
1073.474321673477
 30
0.0
  0
ENDBLK
  5
664D
330
6642
100
AcDbEntity
  8
0
100
AcDbBlockEnd
  0
BLOCK
  5
6658
330
664E
100
AcDbEntity
  8
0
100
AcDbBlockBegin
  2
*D15
 70
     1
 10
0.0
 20
0.0
 30
0.0
  3
*D15
  1

  0
LINE
  5
781E
330
664E
100
AcDbEntity
  8
AM_5
100
AcDbLine
 10
1083.399977357093
 20
1096.174321673477
 30
0.0
 11
1043.149977357093
 21
1096.174321673477
 31
0.0
  0
LINE
  5
781F
330
664E
100
AcDbEntity
  8
AM_5
100
AcDbLine
 10
1083.399977357093
 20
1069.774321673477
 30
0.0
 11
1043.149977357093
 21
1069.774321673477
 31
0.0
  0
LINE
  5
7820
330
664E
100
AcDbEntity
  8
AM_5
100
AcDbLine
 10
1045.399977357093
 20
1091.674321673477
 30
0.0
 11
1045.399977357093
 21
1074.274321673477
 31
0.0
  0
SOLID
  5
7821
330
664E
100
AcDbEntity
  8
AM_5
100
AcDbTrace
 10
1044.649977357093
 20
1091.674321673477
 30
0.0
 11
1046.149977357093
 21
1091.674321673477
 31
0.0
 12
1045.399977357093
 22
1096.174321673477
 32
0.0
 13
1045.399977357093
 23
1096.174321673477
 33
0.0
  0
SOLID
  5
7822
330
664E
100
AcDbEntity
  8
AM_5
100
AcDbTrace
 10
1044.649977357093
 20
1074.274321673477
 30
0.0
 11
1046.149977357093
 21
1074.274321673477
 31
0.0
 12
1045.399977357093
 22
1069.774321673477
 32
0.0
 13
1045.399977357093
 23
1069.774321673477
 33
0.0
  0
MTEXT
  5
7823
330
664E
100
AcDbEntity
  8
AM_5
100
AcDbMText
 10
1041.72446062481
 20
1082.974321673477
 30
0.0
 40
5.25
 41
0.0
 71
     5
 72
     1
  1
26.4
 11
0.0000000000000001
 21
1.0
 31
0.0
 73
     1
 44
1.0
1001
ACAD
1000
MTEXTBEGIN
1070
    73
1070
     1
1070
    44
1040
1.0
1070
    74
1070
     0
1000
MTEXTEND
  0
POINT
  5
7824
330
664E
100
AcDbEntity
  8
Defpoints
 62
     0
100
AcDbPoint
 10
1084.899977357093
 20
1096.174321673477
 30
0.0
  0
POINT
  5
7825
330
664E
100
AcDbEntity
  8
Defpoints
 62
     0
100
AcDbPoint
 10
1084.899977357093
 20
1069.774321673477
 30
0.0
  0
POINT
  5
7826
330
664E
100
AcDbEntity
  8
Defpoints
 62
     0
100
AcDbPoint
 10
1045.399977357093
 20
1069.774321673477
 30
0.0
  0
ENDBLK
  5
6659
330
664E
100
AcDbEntity
  8
0
100
AcDbBlockEnd
  0
BLOCK
  5
6EC4
330
6EB8
100
AcDbEntity
  8
0
100
AcDbBlockBegin
  2
*D16
 70
     1
 10
0.0
 20
0.0
 30
0.0
  3
*D16
  1

  0
LINE
  5
72C0
330
6EB8
100
AcDbEntity
  8
AM_5
100
AcDbLine
 10
1161.899977357093
 20
1020.960399543792
 30
0.0
 11
1177.649977357094
 21
1020.960399543792
 31
0.0
  0
LINE
  5
72C1
330
6EB8
100
AcDbEntity
  8
AM_5
100
AcDbLine
 10
1125.899977357096
 20
1016.960399543792
 30
0.0
 11
1177.649977357094
 21
1016.960399543792
 31
0.0
  0
LINE
  5
72C2
330
6EB8
100
AcDbEntity
  8
AM_5
100
AcDbLine
 10
1175.399977357094
 20
1012.460399543792
 30
0.0
 11
1175.399977357094
 21
1007.960399543792
 31
0.0
  0
LINE
  5
72C3
330
6EB8
100
AcDbEntity
  8
AM_5
100
AcDbLine
 10
1175.399977357094
 20
1025.460399543792
 30
0.0
 11
1175.399977357094
 21
1034.685399543792
 31
0.0
  0
LINE
  5
72C4
330
6EB8
100
AcDbEntity
  8
AM_5
100
AcDbLine
 10
1175.399977357094
 20
1016.960399543792
 30
0.0
 11
1175.399977357094
 21
1020.960399543792
 31
0.0
  0
SOLID
  5
72C5
330
6EB8
100
AcDbEntity
  8
AM_5
100
AcDbTrace
 10
1174.649977357094
 20
1012.460399543792
 30
0.0
 11
1176.149977357094
 21
1012.460399543792
 31
0.0
 12
1175.399977357094
 22
1016.960399543792
 32
0.0
 13
1175.399977357094
 23
1016.960399543792
 33
0.0
  0
SOLID
  5
72C6
330
6EB8
100
AcDbEntity
  8
AM_5
100
AcDbTrace
 10
1174.649977357094
 20
1025.460399543792
 30
0.0
 11
1176.149977357094
 21
1025.460399543792
 31
0.0
 12
1175.399977357094
 22
1020.960399543792
 32
0.0
 13
1175.399977357094
 23
1020.960399543792
 33
0.0
  0
MTEXT
  5
72C7
330
6EB8
100
AcDbEntity
  8
AM_5
100
AcDbMText
 10
1171.724977357093
 20
1032.322899543792
 30
0.0
 40
5.25
 41
0.0
 71
     5
 72
     1
  1
4
 11
0.0000000000000001
 21
1.0
 31
0.0
 73
     1
 44
1.0
1001
ACAD
1000
MTEXTBEGIN
1070
    73
1070
     1
1070
    44
1040
1.0
1070
    74
1070
     0
1000
MTEXTEND
  0
POINT
  5
72C8
330
6EB8
100
AcDbEntity
  8
Defpoints
 62
     0
100
AcDbPoint
 10
1160.399977357093
 20
1020.960399543792
 30
0.0
  0
POINT
  5
72C9
330
6EB8
100
AcDbEntity
  8
Defpoints
 62
     0
100
AcDbPoint
 10
1124.399977357096
 20
1016.960399543792
 30
0.0
  0
POINT
  5
72CA
330
6EB8
100
AcDbEntity
  8
Defpoints
 62
     0
100
AcDbPoint
 10
1175.399977357094
 20
1016.960399543792
 30
0.0
  0
ENDBLK
  5
6EC5
330
6EB8
100
AcDbEntity
  8
0
100
AcDbBlockEnd
  0
BLOCK
  5
6EDE
330
6ED4
100
AcDbEntity
  8
0
100
AcDbBlockBegin
  2
*D17
 70
     1
 10
0.0
 20
0.0
 30
0.0
  3
*D17
  1

  0
LINE
  5
7334
330
6ED4
100
AcDbEntity
  8
AM_5
100
AcDbLine
 10
1070.399977357094
 20
1022.460399543792
 30
0.0
 11
1070.399977357094
 21
1038.210399543792
 31
0.0
  0
LINE
  5
7335
330
6ED4
100
AcDbEntity
  8
AM_5
100
AcDbLine
 10
1160.399977357093
 20
1022.460399543792
 30
0.0
 11
1160.399977357093
 21
1038.210399543792
 31
0.0
  0
LINE
  5
7336
330
6ED4
100
AcDbEntity
  8
AM_5
100
AcDbLine
 10
1074.899977357093
 20
1035.960399543792
 30
0.0
 11
1155.899977357093
 21
1035.960399543792
 31
0.0
  0
SOLID
  5
7337
330
6ED4
100
AcDbEntity
  8
AM_5
100
AcDbTrace
 10
1074.899977357093
 20
1036.710399543792
 30
0.0
 11
1074.899977357093
 21
1035.210399543792
 31
0.0
 12
1070.399977357094
 22
1035.960399543792
 32
0.0
 13
1070.399977357094
 23
1035.960399543792
 33
0.0
  0
SOLID
  5
7338
330
6ED4
100
AcDbEntity
  8
AM_5
100
AcDbTrace
 10
1155.899977357093
 20
1036.710399543792
 30
0.0
 11
1155.899977357093
 21
1035.210399543792
 31
0.0
 12
1160.399977357093
 22
1035.960399543792
 32
0.0
 13
1160.399977357093
 23
1035.960399543792
 33
0.0
  0
MTEXT
  5
7339
330
6ED4
100
AcDbEntity
  8
AM_5
100
AcDbMText
 10
1115.399977357093
 20
1039.635399543792
 30
0.0
 40
5.25
 41
0.0
 71
     5
 72
     1
  1
90
 73
     1
 44
1.0
1001
ACAD
1000
MTEXTBEGIN
1070
    73
1070
     1
1070
    44
1040
1.0
1070
    74
1070
     0
1000
MTEXTEND
  0
POINT
  5
733A
330
6ED4
100
AcDbEntity
  8
Defpoints
 62
     0
100
AcDbPoint
 10
1070.399977357094
 20
1020.960399543792
 30
0.0
  0
POINT
  5
733B
330
6ED4
100
AcDbEntity
  8
Defpoints
 62
     0
100
AcDbPoint
 10
1160.399977357093
 20
1020.960399543792
 30
0.0
  0
POINT
  5
733C
330
6ED4
100
AcDbEntity
  8
Defpoints
 62
     0
100
AcDbPoint
 10
1160.399977357093
 20
1035.960399543792
 30
0.0
  0
ENDBLK
  5
6EDF
330
6ED4
100
AcDbEntity
  8
0
100
AcDbBlockEnd
  0
BLOCK
  5
787E
330
7879
100
AcDbEntity
  8
0
100
AcDbBlockBegin
  2
*S18
 70
     1
 10
0.0
 20
0.0
 30
0.0
  3
*S18
  1

  0
LINE
  5
787A
330
7879
100
AcDbEntity
  8
AM_5
 62
     5
100
AcDbLine
 10
1179.84549621295
 20
1054.779053272241
 30
0.0
 11
1139.099461247579
 21
1054.779053272241
 31
0.0
  0
LINE
  5
787B
330
7879
100
AcDbEntity
  8
AM_5
 62
     5
100
AcDbLine
 10
1139.099461247579
 20
1054.779053272241
 30
0.0
 11
1126.236997784355
 21
1067.799538377405
 31
0.0
  0
TRACE
  5
787C
330
7879
100
AcDbEntity
  8
AM_5
 62
     5
370
    35
100
AcDbTrace
 10
1126.794268711013
 20
1068.350046048614
 30
0.0
 11
1125.679726857697
 21
1067.249030706196
 31
0.0
 12
1122.055476858026
 22
1072.032431329355
 32
0.0
 13
1122.055476858026
 23
1072.032431329355
 33
0.0
  0
MTEXT
  5
787D
330
7879
100
AcDbEntity
  8
AM_5
 62
     5
100
AcDbMText
 10
1179.84549621295
 20
1064.393978972005
 30
0.0
 40
5.95
 41
0.0
 71
     7
 72
     5
  1

  7
ACISOTS
 73
     1
 44
1.0
1001
ACAD
1000
MTEXTBEGIN
1070
    73
1070
     1
1070
    44
1040
1.0
1070
    74
1070
     0
1000
MTEXTEND
  0
ENDBLK
  5
787F
330
7879
100
AcDbEntity
  8
0
100
AcDbBlockEnd
  0
BLOCK
  5
7886
330
7881
100
AcDbEntity
  8
0
100
AcDbBlockBegin
  2
*S19
 70
     1
 10
0.0
 20
0.0
 30
0.0
  3
*S19
  1

  0
LINE
  5
7882
330
7881
100
AcDbEntity
  8
AM_VIS
 62
     5
100
AcDbLine
 10
1182.9593322518
 20
1106.140230118233
 30
0.0
 11
1149.704187251959
 21
1106.140230118233
 31
0.0
  0
LINE
  5
7883
330
7881
100
AcDbEntity
  8
AM_VIS
 62
     5
100
AcDbLine
 10
1149.704187251959
 20
1106.140230118233
 30
0.0
 11
1137.123474984566
 21
1090.859739806123
 31
0.0
  0
TRACE
  5
7884
330
7881
100
AcDbEntity
  8
AM_VIS
 62
     5
100
AcDbTrace
 10
1136.518734505284
 20
1091.357633905782
 30
0.0
 11
1137.728215463849
 21
1090.361845706464
 31
0.0
 12
1133.341593812505
 22
1086.266279802987
 32
0.0
 13
1133.341593812505
 23
1086.266279802987
 33
0.0
  0
MTEXT
  5
7885
330
7881
100
AcDbEntity
  8
AM_VIS
 62
     5
100
AcDbMText
 10
1182.9593322518
 20
1116.233839312732
 30
0.0
 40
5.95
 41
0.0
 71
     7
 72
     5
  1

  7
ACISOTS
 73
     1
 44
1.0
1001
ACAD
1000
MTEXTBEGIN
1070
    73
1070
     1
1070
    44
1040
1.0
1070
    74
1070
     0
1000
MTEXTEND
  0
ENDBLK
  5
7887
330
7881
100
AcDbEntity
  8
0
100
AcDbBlockEnd
  0
BLOCK
  5
788E
330
7889
100
AcDbEntity
  8
0
100
AcDbBlockBegin
  2
*S20
 70
     1
 10
0.0
 20
0.0
 30
0.0
  3
*S20
  1

  0
LINE
  5
788A
330
7889
100
AcDbEntity
  8
AM_5
 62
     5
100
AcDbLine
 10
1183.989209704197
 20
900.3020621753217
 30
0.0
 11
1150.734064704356
 21
900.3020621753217
 31
0.0
  0
LINE
  5
788B
330
7889
100
AcDbEntity
  8
AM_5
 62
     5
100
AcDbLine
 10
1150.734064704356
 20
900.3020621753217
 30
0.0
 11
1140.616797657872
 21
921.5411567173893
 31
0.0
  0
TRACE
  5
788C
330
7889
100
AcDbEntity
  8
AM_5
 62
     5
370
    35
100
AcDbTrace
 10
1141.323993404094
 20
921.8780302222599
 30
0.0
 11
1139.90960191165
 21
921.2042832125186
 31
0.0
 12
1138.057989336366
 22
926.9128417392231
 32
0.0
 13
1138.057989336366
 23
926.9128417392231
 33
0.0
  0
MTEXT
  5
788D
330
7889
100
AcDbEntity
  8
AM_5
 62
     5
100
AcDbMText
 10
1183.989209704197
 20
910.3956713698208
 30
0.0
 40
5.95
 41
0.0
 71
     7
 72
     5
  1

  7
ACISOTS
 73
     1
 44
1.0
1001
ACAD
1000
MTEXTBEGIN
1070
    73
1070
     1
1070
    44
1040
1.0
1070
    74
1070
     0
1000
MTEXTEND
  0
ENDBLK
  5
788F
330
7889
100
AcDbEntity
  8
0
100
AcDbBlockEnd
  0
BLOCK
  5
7896
330
7891
100
AcDbEntity
  8
0
100
AcDbBlockBegin
  2
*S21
 70
     1
 10
0.0
 20
0.0
 30
0.0
  3
*S21
  1

  0
LINE
  5
7892
330
7891
100
AcDbEntity
  8
AM_5
 62
     5
100
AcDbLine
 10
1179.84549621295
 20
970.9075854111897
 30
0.0
 11
1139.099461247579
 21
970.9075854111897
 31
0.0
  0
LINE
  5
7893
330
7891
100
AcDbEntity
  8
AM_5
 62
     5
100
AcDbLine
 10
1139.099461247579
 20
970.9075854111897
 30
0.0
 11
1130.966978610757
 21
983.4927125264119
 31
0.0
  0
TRACE
  5
7894
330
7891
100
AcDbEntity
  8
AM_5
 62
     5
370
    35
100
AcDbTrace
 10
1131.624899304086
 20
983.917859492821
 30
0.0
 11
1130.309057917427
 21
983.0675655600028
 31
0.0
 12
1127.737666777734
 22
988.4901163609143
 32
0.0
 13
1127.737666777734
 23
988.4901163609143
 33
0.0
  0
MTEXT
  5
7895
330
7891
100
AcDbEntity
  8
AM_5
 62
     5
100
AcDbMText
 10
1179.84549621295
 20
980.5225111109539
 30
0.0
 40
5.95
 41
0.0
 71
     7
 72
     5
  1

  7
ACISOTS
 73
     1
 44
1.0
1001
ACAD
1000
MTEXTBEGIN
1070
    73
1070
     1
1070
    44
1040
1.0
1070
    74
1070
     0
1000
MTEXTEND
  0
ENDBLK
  5
7897
330
7891
100
AcDbEntity
  8
0
100
AcDbBlockEnd
  0
BLOCK
  5
789E
330
7899
100
AcDbEntity
  8
0
100
AcDbBlockBegin
  2
*S22
 70
     1
 10
0.0
 20
0.0
 30
0.0
  3
*S22
  1

  0
LINE
  5
789A
330
7899
100
AcDbEntity
  8
AM_VIS
 62
     5
100
AcDbLine
 10
1199.198391450763
 20
1092.034425601721
 30
0.0
 11
1171.992702961109
 21
1092.034425601721
 31
0.0
  0
LINE
  5
789B
330
7899
100
AcDbEntity
  8
AM_VIS
 62
     5
100
AcDbLine
 10
1171.992702961109
 20
1092.034425601721
 30
0.0
 11
1164.536536232704
 21
1086.207181192325
 31
0.0
  0
TRACE
  5
789C
330
7899
100
AcDbEntity
  8
AM_VIS
 62
     5
100
AcDbTrace
 10
1164.110922204598
 20
1086.751769497287
 30
0.0
 11
1164.962150260811
 21
1085.662592887363
 31
0.0
 12
1160.399977357093
 22
1082.974321673477
 32
0.0
 13
1160.399977357093
 23
1082.974321673477
 33
0.0
  0
MTEXT
  5
789D
330
7899
100
AcDbEntity
  8
AM_VIS
 62
     5
100
AcDbMText
 10
1199.198391450763
 20
1102.548585271748
 30
0.0
 40
5.25
 41
0.0
 71
     7
 72
     5
  1

  7
ACISOTS
 73
     1
 44
1.0
1001
ACAD
1000
MTEXTBEGIN
1070
    73
1070
     1
1070
    44
1040
1.0
1070
    74
1070
     0
1000
MTEXTEND
  0
ENDBLK
  5
789F
330
7899
100
AcDbEntity
  8
0
100
AcDbBlockEnd
  0
BLOCK
  5
78A6
330
78A1
100
AcDbEntity
  8
0
100
AcDbBlockBegin
  2
*S23
 70
     1
 10
0.0
 20
0.0
 30
0.0
  3
*S23
  1

  0
LINE
  5
78A2
330
78A1
100
AcDbEntity
  8
AM_5
 62
     5
100
AcDbLine
 10
1070.688551314057
 20
953.4003578887171
 30
0.0
 11
1094.43659853427
 21
953.4003578887171
 31
0.0
  0
LINE
  5
78A3
330
78A1
100
AcDbEntity
  8
AM_5
 62
     5
100
AcDbLine
 10
1094.43659853427
 20
953.4003578887171
 30
0.0
 11
1106.934372910109
 21
938.7712940497113
 31
0.0
  0
TRACE
  5
78A4
330
78A1
100
AcDbEntity
  8
AM_5
 62
     5
370
    35
100
AcDbTrace
 10
1106.338790144074
 20
938.2624809695334
 30
0.0
 11
1107.529955676144
 21
939.2801071298892
 31
0.0
 12
1110.799191973724
 22
934.2473937849479
 32
0.0
 13
1110.799191973724
 23
934.2473937849479
 33
0.0
  0
MTEXT
  5
78A5
330
78A1
100
AcDbEntity
  8
AM_5
 62
     5
100
AcDbMText
 10
1070.688551314057
 20
963.4939670832162
 30
0.0
 40
5.95
 41
0.0
 71
     7
 72
     5
  1

  7
ACISOTS
210
0.0
220
0.0
230
-1.0
 11
-1.0
 21
0.0
 31
0.0
 73
     1
 44
1.0
1001
ACAD
1000
MTEXTBEGIN
1070
    73
1070
     1
1070
    44
1040
1.0
1070
    74
1070
     0
1000
MTEXTEND
  0
ENDBLK
  5
78A7
330
78A1
100
AcDbEntity
  8
0
100
AcDbBlockEnd
  0
ENDSEC
  0
SECTION
  2
ENTITIES
  0
LINE
  5
633F
330
1F
100
AcDbEntity
  8
AM_VIS
100
AcDbLine
 10
1140.399977357093
 20
1020.960399543792
 30
0.0
 11
1090.399977357093
 21
1020.960399543792
 31
0.0
  0
LINE
  5
6340
330
1F
100
AcDbEntity
  8
AM_VIS
100
AcDbLine
 10
1140.399977357093
 20
985.660399543792
 30
0.0
 11
1140.399977357093
 21
1020.960399543792
 31
0.0
  0
LINE
  5
6341
330
1F
100
AcDbEntity
  8
AM_VIS
100
AcDbLine
 10
1140.399977357093
 20
985.660399543792
 30
0.0
 11
1090.399977357093
 21
985.660399543792
 31
0.0
  0
LINE
  5
6342
330
1F
100
AcDbEntity
  8
AM_VIS
100
AcDbLine
 10
1090.399977357093
 20
1001.810399543792
 30
0.0
 11
1090.399977357093
 21
985.660399543792
 31
0.0
  0
LINE
  5
6343
330
1F
100
AcDbEntity
  8
AM_VIS
100
AcDbLine
 10
1090.399977357093
 20
1020.960399543792
 30
0.0
 11
1090.399977357093
 21
1004.810399543792
 31
0.0
  0
LINE
  5
6344
330
1F
100
AcDbEntity
  8
AM_VIS
100
AcDbLine
 10
1090.399977357093
 20
985.660399543792
 30
0.0
 11
1090.399977357093
 21
1020.960399543792
 31
0.0
  0
LINE
  5
6345
330
1F
100
AcDbEntity
  8
AM_VIS
100
AcDbLine
 10
1140.399977357093
 20
1020.960399543792
 30
0.0
 11
1140.399977357093
 21
985.660399543792
 31
0.0
  0
LINE
  5
6346
330
1F
100
AcDbEntity
  8
AM_VIS
100
AcDbLine
 10
1140.399977357093
 20
1069.774321673477
 30
0.0
 11
1090.399977357093
 21
1069.774321673477
 31
0.0
  0
LINE
  5
6347
330
1F
100
AcDbEntity
  8
AM_VIS
100
AcDbLine
 10
1140.399977357093
 20
1069.774321673477
 30
0.0
 11
1140.399977357093
 21
1096.174321673477
 31
0.0
  0
LINE
  5
6348
330
1F
100
AcDbEntity
  8
AM_VIS
100
AcDbLine
 10
1140.399977357093
 20
1096.174321673477
 30
0.0
 11
1090.399977357093
 21
1096.174321673477
 31
0.0
  0
LINE
  5
6349
330
1F
100
AcDbEntity
  8
AM_VIS
100
AcDbLine
 10
1090.399977357093
 20
1096.174321673477
 30
0.0
 11
1090.399977357093
 21
1069.774321673477
 31
0.0
  0
LINE
  5
634A
330
1F
100
AcDbEntity
  8
AM_VIS
100
AcDbLine
 10
1090.399977357093
 20
1069.774321673477
 30
0.0
 11
1090.399977357093
 21
1096.174321673477
 31
0.0
  0
LINE
  5
634B
330
1F
100
AcDbEntity
  8
AM_VIS
100
AcDbLine
 10
1140.399977357093
 20
1096.174321673476
 30
0.0
 11
1140.399977357093
 21
1069.774321673476
 31
0.0
  0
LINE
  5
634C
330
1F
100
AcDbEntity
  8
AM_VIS
100
AcDbLine
 10
1140.399977357093
 20
943.211797458243
 30
0.0
 11
1090.399977357093
 21
943.211797458243
 31
0.0
  0
LINE
  5
634D
330
1F
100
AcDbEntity
  8
AM_VIS
100
AcDbLine
 10
1140.399977357093
 20
936.511797458243
 30
0.0
 11
1140.399977357093
 21
943.211797458243
 31
0.0
  0
LINE
  5
634E
330
1F
100
AcDbEntity
  8
AM_VIS
100
AcDbLine
 10
1140.399977357093
 20
916.8117974582431
 30
0.0
 11
1140.399977357093
 21
933.5117974582431
 31
0.0
  0
LINE
  5
634F
330
1F
100
AcDbEntity
  8
AM_VIS
100
AcDbLine
 10
1140.399977357093
 20
916.8117974582431
 30
0.0
 11
1090.399977357093
 21
916.8117974582431
 31
0.0
  0
LINE
  5
6350
330
1F
100
AcDbEntity
  8
AM_VIS
100
AcDbLine
 10
1090.399977357093
 20
943.211797458243
 30
0.0
 11
1090.399977357093
 21
926.511797458243
 31
0.0
  0
LINE
  5
6352
330
1F
100
AcDbEntity
  8
AM_VIS
100
AcDbLine
 10
1090.399977357093
 20
916.8117974582431
 30
0.0
 11
1090.399977357093
 21
943.211797458243
 31
0.0
  0
LINE
  5
6353
330
1F
100
AcDbEntity
  8
AM_VIS
100
AcDbLine
 10
1140.399977357093
 20
943.2117974582432
 30
0.0
 11
1140.399977357093
 21
916.8117974582433
 31
0.0
  0
LINE
  5
6397
330
1F
100
AcDbEntity
  8
AM_VIS
100
AcDbLine
 10
1124.399977357093
 20
1069.774321673477
 30
0.0
 11
1116.399977357093
 21
1069.774321673477
 31
0.0
  0
LINE
  5
6398
330
1F
100
AcDbEntity
  8
AM_VIS
100
AcDbLine
 10
1106.399977357093
 20
1096.174321673477
 30
0.0
 11
1114.399977357093
 21
1096.174321673477
 31
0.0
  0
LINE
  5
6399
330
1F
100
AcDbEntity
  8
AM_VIS
100
AcDbLine
 10
1124.399977357093
 20
1073.474321673477
 30
0.0
 11
1124.399977357093
 21
1069.774321673477
 31
0.0
  0
LINE
  5
639A
330
1F
100
AcDbEntity
  8
AM_VIS
100
AcDbLine
 10
1116.399977357093
 20
1069.774321673477
 30
0.0
 11
1116.399977357093
 21
1073.474321673477
 31
0.0
  0
LINE
  5
639B
330
1F
100
AcDbEntity
  8
AM_VIS
100
AcDbLine
 10
1106.399977357093
 20
1092.474321673477
 30
0.0
 11
1106.399977357093
 21
1096.174321673477
 31
0.0
  0
LINE
  5
639C
330
1F
100
AcDbEntity
  8
AM_VIS
100
AcDbLine
 10
1114.399977357093
 20
1096.174321673477
 30
0.0
 11
1114.399977357093
 21
1092.474321673477
 31
0.0
  0
LINE
  5
639D
330
1F
100
AcDbEntity
  8
AM_VIS
100
AcDbLine
 10
1137.399977357093
 20
1094.674321673477
 30
0.0
 11
1137.399977357093
 21
1091.174321673477
 31
0.0
  0
LINE
  5
639E
330
1F
100
AcDbEntity
  8
AM_VIS
100
AcDbLine
 10
1131.399977357093
 20
1094.674321673477
 30
0.0
 11
1137.399977357093
 21
1094.674321673477
 31
0.0
  0
LINE
  5
639F
330
1F
100
AcDbEntity
  8
AM_VIS
100
AcDbLine
 10
1131.399977357093
 20
1091.174321673477
 30
0.0
 11
1131.399977357093
 21
1094.674321673477
 31
0.0
  0
LINE
  5
63A0
330
1F
100
AcDbEntity
  8
AM_VIS
100
AcDbLine
 10
1137.399977357093
 20
1091.174321673477
 30
0.0
 11
1131.399977357093
 21
1091.174321673477
 31
0.0
  0
LINE
  5
63A1
330
1F
100
AcDbEntity
  8
AM_VIS
100
AcDbLine
 10
1093.399977357093
 20
1071.274321673477
 30
0.0
 11
1093.399977357093
 21
1074.774321673477
 31
0.0
  0
LINE
  5
63A2
330
1F
100
AcDbEntity
  8
AM_VIS
100
AcDbLine
 10
1099.399977357093
 20
1071.274321673477
 30
0.0
 11
1093.399977357093
 21
1071.274321673477
 31
0.0
  0
LINE
  5
63A3
330
1F
100
AcDbEntity
  8
AM_VIS
100
AcDbLine
 10
1099.399977357093
 20
1074.774321673477
 30
0.0
 11
1099.399977357093
 21
1071.274321673477
 31
0.0
  0
LINE
  5
63A4
330
1F
100
AcDbEntity
  8
AM_VIS
100
AcDbLine
 10
1093.399977357093
 20
1074.774321673477
 30
0.0
 11
1099.399977357093
 21
1074.774321673477
 31
0.0
  0
ARC
  5
63A7
330
1F
100
AcDbEntity
  8
AM_VIS
100
AcDbCircle
 10
1126.899977357093
 20
1082.974321673477
 30
0.0
 40
5.477419666661914
100
AcDbArc
 50
161.6866196971664
 51
198.3133803028336
  0
ARC
  5
63A8
330
1F
100
AcDbEntity
  8
AM_VIS
100
AcDbCircle
 10
1126.899977357093
 20
1082.974321673477
 30
0.0
 40
5.477419666661914
100
AcDbArc
 50
273.1396789510136
 51
86.86032104898638
  0
ARC
  5
63A9
330
1F
100
AcDbEntity
  8
AM_VIS
100
AcDbCircle
 10
1103.899977357093
 20
1082.974321673477
 30
0.0
 40
5.477419666661914
100
AcDbArc
 50
341.6866196971664
 51
18.3133803028336
  0
ARC
  5
63AA
330
1F
100
AcDbEntity
  8
AM_VIS
100
AcDbCircle
 10
1103.899977357093
 20
1082.974321673477
 30
0.0
 40
5.477419666661914
100
AcDbArc
 50
93.13967895101361
 51
266.8603210489863
  0
ARC
  5
63AB
330
1F
100
AcDbEntity
  8
AM_VIS
100
AcDbCircle
 10
1126.899977357093
 20
1082.974321673477
 30
0.0
 40
5.477419666661914
100
AcDbArc
 50
198.3133803028336
 51
273.1396789510136
  0
ARC
  5
63AC
330
1F
100
AcDbEntity
  8
AM_VIS
100
AcDbCircle
 10
1103.899977357093
 20
1082.974321673477
 30
0.0
 40
5.477419666661914
100
AcDbArc
 50
18.3133803028336
 51
93.13967895101361
  0
CIRCLE
  5
63AD
330
1F
100
AcDbEntity
  8
AM_VIS
100
AcDbCircle
 10
1120.399977357093
 20
1073.474321673477
 30
0.0
 40
2.25
  0
CIRCLE
  5
63AE
330
1F
100
AcDbEntity
  8
AM_VIS
100
AcDbCircle
 10
1110.399977357093
 20
1092.474321673477
 30
0.0
 40
2.25
  0
ARC
  5
63AF
330
1F
100
AcDbEntity
  8
AM_VIS
100
AcDbCircle
 10
1120.399977357093
 20
1073.474321673477
 30
0.0
 40
4.0
100
AcDbArc
 50
0.0
 51
180.0
  0
ARC
  5
63B0
330
1F
100
AcDbEntity
  8
AM_VIS
100
AcDbCircle
 10
1110.399977357093
 20
1092.474321673477
 30
0.0
 40
4.0
100
AcDbArc
 50
180.0
 51
0.0
  0
CIRCLE
  5
63B1
330
1F
100
AcDbEntity
  8
AM_VIS
100
AcDbCircle
 10
1103.899977357093
 20
1082.974321673477
 30
0.0
 40
6.700000000000005
  0
CIRCLE
  5
63B2
330
1F
100
AcDbEntity
  8
AM_VIS
100
AcDbCircle
 10
1126.899977357093
 20
1082.974321673477
 30
0.0
 40
6.700000000000011
  0
ARC
  5
63B3
330
1F
100
AcDbEntity
  8
AM_VIS
100
AcDbCircle
 10
1103.899977357093
 20
1082.974321673477
 30
0.0
 40
5.477419666661914
100
AcDbArc
 50
266.8603210489863
 51
341.6866196971664
  0
ARC
  5
63B4
330
1F
100
AcDbEntity
  8
AM_VIS
100
AcDbCircle
 10
1126.899977357093
 20
1082.974321673477
 30
0.0
 40
5.477419666661914
100
AcDbArc
 50
86.86032104898638
 51
161.6866196971664
  0
LINE
  5
63B5
330
1F
100
AcDbEntity
  8
AM_VIS
100
AcDbLine
 10
1119.296524194223
 20
1010.913852706665
 30
0.0
 11
1119.296524194223
 21
1012.960399543792
 31
0.0
  0
LINE
  5
63B6
330
1F
100
AcDbEntity
  8
AM_VIS
100
AcDbLine
 10
1108.149977357096
 20
1007.560399543792
 30
0.0
 11
1105.588472863485
 21
1004.998895050181
 31
0.0
  0
LINE
  5
63B7
330
1F
100
AcDbEntity
  8
AM_VIS
100
AcDbLine
 10
1118.121236368283
 20
1010.913852706665
 30
0.0
 11
1119.296524194223
 21
1010.913852706665
 31
0.0
  0
LINE
  5
63B8
330
1F
100
AcDbEntity
  8
AM_VIS
100
AcDbLine
 10
1125.315272926822
 20
1004.895103974066
 30
0.0
 11
1119.296524194223
 21
1010.913852706665
 31
0.0
  0
LINE
  5
63B9
330
1F
100
AcDbEntity
  8
AM_VIS
100
AcDbLine
 10
1118.149977357096
 20
1012.960399543792
 30
0.0
 11
1118.149977357096
 21
1011.310399543792
 31
0.0
  0
LINE
  5
63BA
330
1F
100
AcDbEntity
  8
AM_VIS
100
AcDbLine
 10
1108.899977357096
 20
989.8103995437921
 30
0.0
 11
1108.899977357096
 21
989.6603995437921
 31
0.0
  0
LINE
  5
63BB
330
1F
100
AcDbEntity
  8
AM_VIS
100
AcDbLine
 10
1122.280930521257
 20
992.2603995437921
 30
0.0
 11
1117.399977357096
 21
992.2603995437921
 31
0.0
  0
LINE
  5
63BC
330
1F
100
AcDbEntity
  8
AM_VIS
100
AcDbLine
 10
1126.399977357096
 20
1016.960399543792
 30
0.0
 11
1126.399977357096
 21
1014.460399543792
 31
0.0
  0
LINE
  5
63BD
330
1F
100
AcDbEntity
  8
AM_VIS
100
AcDbLine
 10
1118.149977357096
 20
1012.960399543792
 30
0.0
 11
1124.899977357096
 21
1012.960399543792
 31
0.0
  0
LINE
  5
63BE
330
1F
100
AcDbEntity
  8
AM_VIS
100
AcDbLine
 10
1100.899977357096
 20
989.6603995437921
 30
0.0
 11
1100.899977357096
 21
989.8103995437921
 31
0.0
  0
LINE
  5
63BF
330
1F
100
AcDbEntity
  8
AM_VIS
100
AcDbLine
 10
1109.899977357096
 20
988.6603995437921
 30
0.0
 11
1115.399977357096
 21
988.6603995437921
 31
0.0
  0
LINE
  5
63C0
330
1F
100
AcDbEntity
  8
AM_VIS
100
AcDbLine
 10
1116.399977357096
 20
989.6603995437921
 30
0.0
 11
1116.399977357096
 21
991.2603995437921
 31
0.0
  0
LINE
  5
63C1
330
1F
100
AcDbEntity
  8
AM_VIS
100
AcDbLine
 10
1107.796524194223
 20
995.7069463809194
 30
0.0
 11
1115.399977357096
 21
1003.310399543792
 31
0.0
  0
LINE
  5
63C2
330
1F
100
AcDbEntity
  8
AM_VIS
100
AcDbLine
 10
1115.399977357096
 20
1003.310399543792
 30
0.0
 11
1123.003430519969
 21
995.7069463809194
 31
0.0
  0
LINE
  5
63C3
330
1F
100
AcDbEntity
  8
AM_VIS
100
AcDbLine
 10
1130.899977357096
 20
988.6603995437921
 30
0.0
 11
1136.899977357096
 21
988.6603995437921
 31
0.0
  0
LINE
  5
63C4
330
1F
100
AcDbEntity
  8
AM_VIS
100
AcDbLine
 10
1116.871351936732
 20
1008.987123051953
 30
0.0
 11
1116.899980097479
 21
1008.994610542653
 31
0.0
  0
LINE
  5
63C5
330
1F
100
AcDbEntity
  8
AM_VIS
100
AcDbLine
 10
1124.399977357096
 20
1016.960399543792
 30
0.0
 11
1116.399977357096
 21
1016.960399543792
 31
0.0
  0
LINE
  5
63C6
330
1F
100
AcDbEntity
  8
AM_VIS
100
AcDbLine
 10
1116.399977357096
 20
1016.960399543792
 30
0.0
 11
1116.399977357096
 21
1020.960399543792
 31
0.0
  0
LINE
  5
63C7
330
1F
100
AcDbEntity
  8
AM_VIS
100
AcDbLine
 10
1124.399977357096
 20
1020.960399543792
 30
0.0
 11
1124.399977357096
 21
1016.960399543792
 31
0.0
  0
LINE
  5
63C8
330
1F
100
AcDbEntity
  8
AM_VIS
100
AcDbLine
 10
1093.899977357096
 20
988.6603995437921
 30
0.0
 11
1099.899977357096
 21
988.6603995437921
 31
0.0
  0
LINE
  5
63C9
330
1F
100
AcDbEntity
  8
AM_VIS
100
AcDbLine
 10
1136.899977357096
 20
1017.960399543792
 30
0.0
 11
1127.399977357096
 21
1017.960399543792
 31
0.0
  0
LINE
  5
63CA
330
1F
100
AcDbEntity
  8
AM_VIS
100
AcDbLine
 10
1112.649977357096
 20
1011.310399543792
 30
0.0
 11
1112.649977357096
 21
1016.960399543792
 31
0.0
  0
LINE
  5
63CB
330
1F
100
AcDbEntity
  8
AM_VIS
100
AcDbLine
 10
1123.003430519969
 20
995.7069463809194
 30
0.0
 11
1123.003430519969
 21
992.5690286217388
 31
0.0
  0
LINE
  5
63CC
330
1F
100
AcDbEntity
  8
AM_VIS
100
AcDbLine
 10
1125.399977357096
 20
995.7069463809194
 30
0.0
 11
1123.003430519969
 21
995.7069463809194
 31
0.0
  0
LINE
  5
63CD
330
1F
100
AcDbEntity
  8
AM_VIS
100
AcDbLine
 10
1127.83264680734
 20
994.717002748
 30
0.0
 11
1127.83264680734
 21
995.3807583416057
 31
0.0
  0
LINE
  5
63CE
330
1F
100
AcDbEntity
  8
AM_VIS
100
AcDbLine
 10
1129.899977357096
 20
989.8103995437921
 30
0.0
 11
1129.899977357096
 21
989.6603995437921
 31
0.0
  0
ARC
  5
63CF
330
1F
100
AcDbEntity
  8
AM_VIS
100
AcDbCircle
 10
1126.823691378004
 20
994.7334866416365
 30
0.0
 40
1.009090073846735
100
AcDbArc
 50
258.6715631342564
 51
359.0640086853448
  0
LINE
  5
63D0
330
1F
100
AcDbEntity
  8
AM_VIS
100
AcDbLine
 10
1111.649977357096
 20
1017.960399543792
 30
0.0
 11
1093.899977357096
 21
1017.960399543792
 31
0.0
  0
LINE
  5
63D1
330
1F
100
AcDbEntity
  8
AM_VIS
100
AcDbLine
 10
1092.899977357096
 20
1016.960399543792
 30
0.0
 11
1092.899977357096
 21
989.6603995437921
 31
0.0
  0
LINE
  5
63D2
330
1F
100
AcDbEntity
  8
AM_VIS
100
AcDbLine
 10
1137.399977357096
 20
1010.310399543792
 30
0.0
 11
1128.899977357096
 21
1010.310399543792
 31
0.0
  0
LINE
  5
63D3
330
1F
100
AcDbEntity
  8
AM_VIS
100
AcDbLine
 10
1137.399977357096
 20
1016.310399543792
 30
0.0
 11
1128.899977357096
 21
1016.310399543792
 31
0.0
  0
ARC
  5
63D4
330
1F
100
AcDbEntity
  8
AM_VIS
100
AcDbCircle
 10
1137.126148439142
 20
997.2997178813978
 30
0.0
 40
1.387376188562006
100
AcDbArc
 50
242.5304844436444
 51
266.0469275322701
  0
ARC
  5
63D5
330
1F
100
AcDbEntity
  8
AM_VIS
100
AcDbCircle
 10
1132.670012329269
 20
989.3025771477086
 30
0.0
 40
7.768165280076305
100
AcDbArc
 50
60.57671213274492
 51
128.5147879991273
  0
LINE
  5
63D6
330
1F
100
AcDbEntity
  8
AM_VIS
100
AcDbLine
 10
1125.399971778384
 20
995.7069047752559
 30
0.0
 11
1127.832641569137
 21
995.3807192754361
 31
0.0
  0
SPLINE
  5
63D7
330
1F
100
AcDbEntity
  8
AM_VIS
100
AcDbSpline
210
0.0
220
0.0
230
1.0
 70
     8
 71
     3
 72
    16
 73
    12
 74
     0
 42
0.0000000001
 43
0.0000000001
 40
-1.530724040777871
 40
-1.530724040777871
 40
-1.530724040777871
 40
-1.530724040777871
 40
-1.173531879215616
 40
-1.173531879215616
 40
-0.7868186477857164
 40
-0.7868186477857164
 40
-0.3967806205976246
 40
-0.3967806205976246
 40
0.0
 40
0.0
 40
0.0015640547437225
 40
0.0015640547437225
 40
0.0015640547437225
 40
0.0015640547437225
 10
1137.030503549316
 20
995.9156424702879
 30
0.0
 10
1137.147888868996
 20
995.9079675464154
 30
0.0
 10
1137.260195056115
 20
995.8901017143398
 30
0.0
 10
1137.47389963243
 20
995.8350751695478
 30
0.0
 10
1137.571049227766
 20
995.7971423239373
 30
0.0
 10
1137.731444352036
 20
995.7085136709434
 30
0.0
 10
1137.793434771479
 20
995.6582703360986
 30
0.0
 10
1137.878089499075
 20
995.551510373658
 30
0.0
 10
1137.89980647066
 20
995.4952303719988
 30
0.0
 10
1137.899977022263
 20
995.4390882220323
 30
0.0
 10
1137.899977357096
 20
995.4388677938164
 30
0.0
 10
1137.899977357096
 20
995.4386473731217
 30
0.0
  0
LINE
  5
63D8
330
1F
100
AcDbEntity
  8
AM_VIS
100
AcDbLine
 10
1137.899977357096
 20
989.6603995437921
 30
0.0
 11
1137.899977357096
 21
1016.960399543792
 31
0.0
  0
ARC
  5
63D9
330
1F
100
AcDbEntity
  8
AM_VIS
100
AcDbCircle
 10
1135.008221106153
 20
1016.815195045905
 30
0.0
 40
0.5048133642652037
100
AcDbArc
 50
180.5442925718797
 51
270.4819926183816
  0
LINE
  5
63DA
330
1F
100
AcDbEntity
  8
AM_VIS
100
AcDbLine
 10
1134.503430519969
 20
1017.960399543792
 30
0.0
 11
1134.503430519969
 21
1016.810399543792
 31
0.0
  0
SPLINE
  5
63DB
330
1F
100
AcDbEntity
  8
AM_VIS
100
AcDbSpline
210
0.0
220
0.0
230
1.0
 70
     8
 71
     3
 72
    12
 73
     8
 74
     0
 42
0.0000000001
 43
0.0000000001
 40
0.0
 40
0.0
 40
0.0
 40
0.0
 40
0.0288907000736388
 40
0.0288907000736388
 40
0.0789525820262509
 40
0.0789525820262509
 40
0.1430575208287007
 40
0.1430575208287007
 40
0.1430575208287007
 40
0.1430575208287007
 10
1125.399977357096
 20
1004.760221445208
 30
0.0
 10
1125.399977357096
 20
1004.769681665113
 30
0.0
 10
1125.397928697553
 20
1004.779064816892
 30
0.0
 10
1125.389308709517
 20
1004.803458422199
 30
0.0
 10
1125.379976063019
 20
1004.819140723048
 30
0.0
 10
1125.354364081591
 20
1004.854109846116
 30
0.0
 10
1125.335930907423
 20
1004.874445993465
 30
0.0
 10
1125.315272926822
 20
1004.895103974066
 30
0.0
  0
ARC
  5
63DC
330
1F
100
AcDbEntity
  8
AM_VIS
100
AcDbCircle
 10
1110.873267428278
 20
1004.408468593604
 30
0.0
 40
4.16545045901981
100
AcDbArc
 50
94.61747585898001
 51
130.8272416970325
  0
LINE
  5
63DD
330
1F
100
AcDbEntity
  8
AM_VIS
100
AcDbLine
 10
1093.899977357096
 20
993.3103995437921
 30
0.0
 11
1102.720527885326
 21
993.3103995437921
 31
0.0
  0
LINE
  5
63DE
330
1F
100
AcDbEntity
  8
AM_VIS
100
AcDbLine
 10
1103.820477601396
 20
995.495083752128
 30
0.0
 11
1105.399979736614
 21
995.7069286393855
 31
0.0
  0
LINE
  5
63DF
330
1F
100
AcDbEntity
  8
AM_VIS
100
AcDbLine
 10
1107.796524194223
 20
995.7069463809194
 30
0.0
 11
1105.399977357096
 21
995.7069463809194
 31
0.0
  0
LINE
  5
63E0
330
1F
100
AcDbEntity
  8
AM_VIS
100
AcDbLine
 10
1107.796524194223
 20
992.5690253647994
 30
0.0
 11
1107.796524194223
 21
995.7069463809194
 31
0.0
  0
ARC
  5
63E1
330
1F
100
AcDbEntity
  8
AM_VIS
100
AcDbCircle
 10
1103.937772233776
 20
994.5318033234539
 30
0.0
 40
0.9704125677465894
100
AcDbArc
 50
96.94250268407602
 51
174.5428866617078
  0
ARC
  5
63E2
330
1F
100
AcDbEntity
  8
AM_VIS
100
AcDbCircle
 10
1103.97759871212
 20
994.7368661391799
 30
0.0
 40
1.012143341363944
100
AcDbArc
 50
186.3973457540927
 51
281.2167369769025
  0
SPLINE
  5
63E3
330
1F
100
AcDbEntity
  8
AM_VIS
100
AcDbSpline
210
0.0
220
0.0
230
1.0
 70
     8
 71
     3
 72
    12
 73
     8
 74
     0
 42
0.0000000001
 43
0.0000000001
 40
0.0
 40
0.0
 40
0.0
 40
0.0
 40
0.2748202303343902
 40
0.2748202303343902
 40
0.3746707428581118
 40
0.3746707428581118
 40
0.4537956655441534
 40
0.4537956655441534
 40
0.4537956655441534
 40
0.4537956655441534
 10
1105.588472863485
 20
1004.998895050181
 30
0.0
 10
1105.524489331604
 20
1004.934911518299
 30
0.0
 10
1105.473046521806
 20
1004.878023992315
 30
0.0
 10
1105.428173879869
 20
1004.807787852103
 30
0.0
 10
1105.417112477138
 20
1004.787341351051
 30
0.0
 10
1105.403778919395
 20
1004.749766771046
 30
0.0
 10
1105.399977357096
 20
1004.732347030931
 30
0.0
 10
1105.399977357096
 20
1004.714721073818
 30
0.0
  0
LINE
  5
63E4
330
1F
100
AcDbEntity
  8
AM_VIS
100
AcDbLine
 10
1093.899977357096
 20
1008.560399543792
 30
0.0
 11
1115.399977357096
 21
1008.560399543792
 31
0.0
  0
LINE
  5
63E5
330
1F
100
AcDbEntity
  8
AM_VIS
100
AcDbLine
 10
1111.649977357096
 20
1014.560399543792
 30
0.0
 11
1093.899977357096
 21
1014.560399543792
 31
0.0
  0
CIRCLE
  5
63E6
330
1F
100
AcDbEntity
  8
AM_VIS
100
AcDbCircle
 10
1115.399977357096
 20
1011.310399543792
 30
0.0
 40
1.400000000000003
  0
CIRCLE
  5
63E7
330
1F
100
AcDbEntity
  8
AM_VIS
100
AcDbCircle
 10
1125.899977357096
 20
989.8103995437921
 30
0.0
 40
2.25
  0
ARC
  5
63E8
330
1F
100
AcDbEntity
  8
AM_VIS
100
AcDbCircle
 10
1117.399977357096
 20
991.2603995437921
 30
0.0
 40
0.9999999999999998
100
AcDbArc
 50
90.0
 51
180.0
  0
CIRCLE
  5
63E9
330
1F
100
AcDbEntity
  8
AM_VIS
100
AcDbCircle
 10
1104.899977357096
 20
989.8103995437921
 30
0.0
 40
2.25
  0
ARC
  5
63EA
330
1F
100
AcDbEntity
  8
AM_VIS
100
AcDbCircle
 10
1124.899977357096
 20
1014.460399543792
 30
0.0
 40
1.5
100
AcDbArc
 50
270.0
 51
0.0
  0
ARC
  5
63EB
330
1F
100
AcDbEntity
  8
AM_VIS
100
AcDbCircle
 10
1099.899977357096
 20
989.6603995437921
 30
0.0
 40
0.9999999999999998
100
AcDbArc
 50
270.0
 51
0.0
  0
ARC
  5
63EC
330
1F
100
AcDbEntity
  8
AM_VIS
100
AcDbCircle
 10
1109.899977357096
 20
989.6603995437921
 30
0.0
 40
0.9999999999999998
100
AcDbArc
 50
180.0
 51
270.0
  0
ARC
  5
63ED
330
1F
100
AcDbEntity
  8
AM_VIS
100
AcDbCircle
 10
1115.399977357096
 20
989.6603995437921
 30
0.0
 40
1.0
100
AcDbArc
 50
270.0
 51
0.0
  0
ARC
  5
63EE
330
1F
100
AcDbEntity
  8
AM_VIS
100
AcDbCircle
 10
1122.280930521257
 20
993.260399543792
 30
0.0
 40
1.0
100
AcDbArc
 50
270.0
 51
316.3698911321441
  0
ARC
  5
63EF
330
1F
100
AcDbEntity
  8
AM_VIS
100
AcDbCircle
 10
1130.899977357096
 20
989.6603995437921
 30
0.0
 40
0.9999999999999998
100
AcDbArc
 50
180.0
 51
270.0
  0
ARC
  5
63F0
330
1F
100
AcDbEntity
  8
AM_VIS
100
AcDbCircle
 10
1111.649977357096
 20
1016.960399543792
 30
0.0
 40
0.9999999999999998
100
AcDbArc
 50
0.0
 51
90.0
  0
ARC
  5
63F1
330
1F
100
AcDbEntity
  8
AM_VIS
100
AcDbCircle
 10
1127.399977357096
 20
1016.960399543792
 30
0.0
 40
0.9999999999999998
100
AcDbArc
 50
90.0
 51
180.0
  0
ARC
  5
63F2
330
1F
100
AcDbEntity
  8
AM_VIS
100
AcDbCircle
 10
1115.399977357096
 20
1011.310399543792
 30
0.0
 40
2.75
100
AcDbArc
 50
180.0
 51
0.0
  0
LINE
  5
63F3
330
1F
100
AcDbEntity
  8
AM_VIS
100
AcDbLine
 10
1116.899977357096
 20
1008.994621020412
 30
0.0
 11
1116.899977357096
 21
1009.00551342919
 31
0.0
  0
ARC
  5
63F4
330
1F
100
AcDbEntity
  8
AM_VIS
100
AcDbCircle
 10
1093.899977357096
 20
1016.960399543792
 30
0.0
 40
0.9999999999999998
100
AcDbArc
 50
90.0
 51
180.0
  0
ARC
  5
63F5
330
1F
100
AcDbEntity
  8
AM_VIS
100
AcDbCircle
 10
1093.899977357096
 20
989.6603995437921
 30
0.0
 40
0.9999999999999998
100
AcDbArc
 50
180.0
 51
270.0
  0
ARC
  5
63F6
330
1F
100
AcDbEntity
  8
AM_VIS
100
AcDbCircle
 10
1136.899977357096
 20
989.6603995437921
 30
0.0
 40
0.9999999999999998
100
AcDbArc
 50
270.0
 51
0.0
  0
ARC
  5
63F7
330
1F
100
AcDbEntity
  8
AM_VIS
100
AcDbCircle
 10
1136.899977357096
 20
1016.960399543792
 30
0.0
 40
0.9999999999999998
100
AcDbArc
 50
0.0
 51
90.0
  0
ARC
  5
63F8
330
1F
100
AcDbEntity
  8
AM_VIS
100
AcDbCircle
 10
1125.899977357096
 20
989.8103995437921
 30
0.0
 40
4.0
100
AcDbArc
 50
0.0
 51
136.369891132144
  0
ARC
  5
63F9
330
1F
100
AcDbEntity
  8
AM_VIS
100
AcDbCircle
 10
1128.899977357096
 20
1011.310399543792
 30
0.0
 40
1.0
100
AcDbArc
 50
180.0
 51
270.0
  0
LINE
  5
63FA
330
1F
100
AcDbEntity
  8
AM_VIS
100
AcDbLine
 10
1127.899977357096
 20
1011.310399543792
 30
0.0
 11
1127.899977357096
 21
1015.310399543792
 31
0.0
  0
ARC
  5
63FB
330
1F
100
AcDbEntity
  8
AM_VIS
100
AcDbCircle
 10
1128.899977357096
 20
1015.310399543792
 30
0.0
 40
1.0
100
AcDbArc
 50
90.0
 51
180.0
  0
LINE
  5
63FC
330
1F
100
AcDbEntity
  8
AM_VIS
100
AcDbLine
 10
1125.399977357096
 20
995.7069463809194
 30
0.0
 11
1125.399977357096
 21
1004.760221445208
 31
0.0
  0
ARC
  5
63FD
330
1F
100
AcDbEntity
  8
AM_VIS
100
AcDbCircle
 10
1137.399977357096
 20
1009.810399543792
 30
0.0
 40
0.4999999999999992
100
AcDbArc
 50
0.0
 51
90.0
  0
ARC
  5
63FE
330
1F
100
AcDbEntity
  8
AM_VIS
100
AcDbCircle
 10
1137.399977357096
 20
1016.810399543792
 30
0.0
 40
0.5
100
AcDbArc
 50
270.0
 51
0.0
  0
ARC
  5
63FF
330
1F
100
AcDbEntity
  8
AM_VIS
100
AcDbCircle
 10
1093.899977357096
 20
994.3103995437921
 30
0.0
 40
1.000000000000003
100
AcDbArc
 50
180.0
 51
270.0
  0
LINE
  5
6400
330
1F
100
AcDbEntity
  8
AM_VIS
100
AcDbLine
 10
1105.399977357096
 20
995.7069463809194
 30
0.0
 11
1105.399977357096
 21
1004.714721073818
 31
0.0
  0
ARC
  5
6401
330
1F
100
AcDbEntity
  8
AM_VIS
100
AcDbCircle
 10
1102.720527885326
 20
994.3103995437921
 30
0.0
 40
0.9999999999999996
100
AcDbArc
 50
270.0
 51
295.8419327631682
  0
ARC
  5
6402
330
1F
100
AcDbEntity
  8
AM_VIS
100
AcDbCircle
 10
1104.899977357096
 20
989.8103995437921
 30
0.0
 40
4.0
100
AcDbArc
 50
0.0
 51
180.0
  0
CIRCLE
  5
6403
330
1F
100
AcDbEntity
  8
AM_VIS
100
AcDbCircle
 10
1115.399977357096
 20
1011.310399543792
 30
0.0
 40
1.399999999999999
  0
ARC
  5
6404
330
1F
100
AcDbEntity
  8
AM_VIS
100
AcDbCircle
 10
1093.899977357096
 20
1007.560399543792
 30
0.0
 40
0.9999999999999998
100
AcDbArc
 50
90.0
 51
180.0
  0
ARC
  5
6405
330
1F
100
AcDbEntity
  8
AM_VIS
100
AcDbCircle
 10
1111.649977357096
 20
1015.560399543792
 30
0.0
 40
1.0
100
AcDbArc
 50
270.0
 51
0.0
  0
ARC
  5
6406
330
1F
100
AcDbEntity
  8
AM_VIS
100
AcDbCircle
 10
1093.899977357096
 20
1015.560399543792
 30
0.0
 40
0.9999999999999998
100
AcDbArc
 50
180.0
 51
270.0
  0
LINE
  5
6407
330
1F
100
AcDbEntity
  8
AM_VIS
100
AcDbLine
 10
1116.399977357096
 20
1020.960399543792
 30
0.0
 11
1124.399977357096
 21
1020.960399543792
 31
0.0
  0
LINE
  5
6497
330
1F
100
AcDbEntity
  8
AM_VIS
100
AcDbLine
 10
1136.899977357093
 20
921.811797458243
 30
0.0
 11
1136.899977357093
 21
918.311797458243
 31
0.0
  0
LINE
  5
6498
330
1F
100
AcDbEntity
  8
AM_VIS
100
AcDbLine
 10
1130.899977357093
 20
921.811797458243
 30
0.0
 11
1136.899977357093
 21
921.811797458243
 31
0.0
  0
LINE
  5
6499
330
1F
100
AcDbEntity
  8
AM_VIS
100
AcDbLine
 10
1130.899977357093
 20
918.311797458243
 30
0.0
 11
1130.899977357093
 21
921.811797458243
 31
0.0
  0
LINE
  5
649A
330
1F
100
AcDbEntity
  8
AM_VIS
100
AcDbLine
 10
1136.899977357093
 20
918.311797458243
 30
0.0
 11
1130.899977357093
 21
918.311797458243
 31
0.0
  0
LINE
  5
649B
330
1F
100
AcDbEntity
  8
AM_VIS
100
AcDbLine
 10
1099.899977357093
 20
921.811797458243
 30
0.0
 11
1099.899977357093
 21
918.311797458243
 31
0.0
  0
LINE
  5
649C
330
1F
100
AcDbEntity
  8
AM_VIS
100
AcDbLine
 10
1093.899977357093
 20
921.811797458243
 30
0.0
 11
1099.899977357093
 21
921.811797458243
 31
0.0
  0
LINE
  5
649D
330
1F
100
AcDbEntity
  8
AM_VIS
100
AcDbLine
 10
1093.899977357093
 20
918.311797458243
 30
0.0
 11
1093.899977357093
 21
921.811797458243
 31
0.0
  0
LINE
  5
649E
330
1F
100
AcDbEntity
  8
AM_VIS
100
AcDbLine
 10
1099.899977357093
 20
918.311797458243
 30
0.0
 11
1093.899977357093
 21
918.311797458243
 31
0.0
  0
LINE
  5
649F
330
1F
100
AcDbEntity
  8
AM_VIS
100
AcDbLine
 10
1113.399977357093
 20
941.7117974582431
 30
0.0
 11
1113.399977357093
 21
938.2117974582431
 31
0.0
  0
LINE
  5
64A0
330
1F
100
AcDbEntity
  8
AM_VIS
100
AcDbLine
 10
1107.399977357093
 20
941.7117974582431
 30
0.0
 11
1113.399977357093
 21
941.7117974582431
 31
0.0
  0
LINE
  5
64A1
330
1F
100
AcDbEntity
  8
AM_VIS
100
AcDbLine
 10
1107.399977357093
 20
938.2117974582431
 30
0.0
 11
1107.399977357093
 21
941.7117974582431
 31
0.0
  0
LINE
  5
64A2
330
1F
100
AcDbEntity
  8
AM_VIS
100
AcDbLine
 10
1113.399977357093
 20
938.2117974582431
 30
0.0
 11
1107.399977357093
 21
938.2117974582431
 31
0.0
  0
CIRCLE
  5
64A5
330
1F
100
AcDbEntity
  8
AM_VIS
100
AcDbCircle
 10
1133.899977357093
 20
930.011797458243
 30
0.0
 40
5.0
  0
CIRCLE
  5
64A6
330
1F
100
AcDbEntity
  8
AM_VIS
100
AcDbCircle
 10
1096.899977357093
 20
930.011797458243
 30
0.0
 40
5.000000000000001
  0
CIRCLE
  5
64A7
330
1F
100
AcDbEntity
  8
AM_VIS
100
AcDbCircle
 10
1115.399977357093
 20
930.011797458243
 30
0.0
 40
6.700000000000002
  0
CIRCLE
  5
64A8
330
1F
100
AcDbEntity
  8
AM_VIS
100
AcDbCircle
 10
1110.399977357093
 20
920.5117974582432
 30
0.0
 40
2.25
  0
CIRCLE
  5
64A9
330
1F
100
AcDbEntity
  8
AM_VIS
100
AcDbCircle
 10
1120.399977357093
 20
939.5117974582431
 30
0.0
 40
2.25
  0
CIRCLE
  5
64AC
330
1F
100
AcDbEntity
  8
0
100
AcDbCircle
 10
1115.399977357093
 20
930.011797458243
 30
0.0
 40
5.474999999999999
  0
CIRCLE
  5
64AD
330
1F
100
AcDbEntity
  8
0
100
AcDbCircle
 10
1096.899977357093
 20
930.011797458243
 30
0.0
 40
4.020873186269625
  0
CIRCLE
  5
64AE
330
1F
100
AcDbEntity
  8
0
100
AcDbCircle
 10
1133.899977357093
 20
930.011797458243
 30
0.0
 40
4.020873186269596
  0
LINE
  5
64AF
330
1F
100
AcDbEntity
  8
AM_7
100
AcDbLine
 10
1126.899977357093
 20
1082.974321673477
 30
0.0
 11
1135.099977357093
 21
1082.974321673477
 31
0.0
1001
GENIUS_GENOREF_13
1005
65AB
  0
LINE
  5
64B0
330
1F
100
AcDbEntity
  8
AM_7
100
AcDbLine
 10
1126.899977357093
 20
1082.974321673477
 30
0.0
 11
1126.899977357093
 21
1091.174321673477
 31
0.0
1001
GENIUS_GENOREF_13
1005
65AB
  0
LINE
  5
64B1
330
1F
100
AcDbEntity
  8
AM_7
100
AcDbLine
 10
1126.899977357093
 20
1082.974321673477
 30
0.0
 11
1118.699977357093
 21
1082.974321673477
 31
0.0
1001
GENIUS_GENOREF_13
1005
65AB
  0
LINE
  5
64B2
102
{ACAD_REACTORS
330
655C
102
}
330
1F
100
AcDbEntity
  8
AM_7
100
AcDbLine
 10
1126.899977357093
 20
1082.974321673477
 30
0.0
 11
1126.899977357093
 21
1074.774321673477
 31
0.0
1001
GENIUS_GENOREF_13
1005
65AB
  0
LINE
  5
64B3
330
1F
100
AcDbEntity
  8
AM_7
100
AcDbLine
 10
1103.899977357093
 20
1082.974321673477
 30
0.0
 11
1112.099977357093
 21
1082.974321673477
 31
0.0
1001
GENIUS_GENOREF_13
1005
65AA
  0
LINE
  5
64B4
330
1F
100
AcDbEntity
  8
AM_7
100
AcDbLine
 10
1103.899977357093
 20
1082.974321673477
 30
0.0
 11
1103.899977357093
 21
1091.174321673477
 31
0.0
1001
GENIUS_GENOREF_13
1005
65AA
  0
LINE
  5
64B5
330
1F
100
AcDbEntity
  8
AM_7
100
AcDbLine
 10
1103.899977357093
 20
1082.974321673477
 30
0.0
 11
1095.699977357093
 21
1082.974321673477
 31
0.0
1001
GENIUS_GENOREF_13
1005
65AA
  0
LINE
  5
64B6
102
{ACAD_REACTORS
330
6559
330
655C
102
}
330
1F
100
AcDbEntity
  8
AM_7
100
AcDbLine
 10
1103.899977357093
 20
1082.974321673477
 30
0.0
 11
1103.899977357093
 21
1074.774321673477
 31
0.0
1001
GENIUS_GENOREF_13
1005
65AA
  0
LINE
  5
64B7
330
1F
100
AcDbEntity
  8
AM_7
  6
AM_ISO08W050x2
100
AcDbLine
 10
1110.399977357093
 20
1092.474321673477
 30
0.0
 11
1115.899977357093
 21
1092.474321673477
 31
0.0
1001
GENIUS_GENOREF_13
1005
65A9
  0
LINE
  5
64B8
102
{ACAD_REACTORS
330
655F
330
6562
102
}
330
1F
100
AcDbEntity
  8
AM_7
  6
AM_ISO08W050x2
100
AcDbLine
 10
1110.399977357093
 20
1092.474321673477
 30
0.0
 11
1110.399977357093
 21
1097.974321673477
 31
0.0
1001
GENIUS_GENOREF_13
1005
65A9
  0
LINE
  5
64B9
102
{ACAD_REACTORS
330
6547
102
}
330
1F
100
AcDbEntity
  8
AM_7
  6
AM_ISO08W050x2
100
AcDbLine
 10
1110.399977357093
 20
1092.474321673477
 30
0.0
 11
1104.899977357093
 21
1092.474321673477
 31
0.0
1001
GENIUS_GENOREF_13
1005
65A9
  0
LINE
  5
64BA
330
1F
100
AcDbEntity
  8
AM_7
  6
AM_ISO08W050x2
100
AcDbLine
 10
1110.399977357093
 20
1092.474321673477
 30
0.0
 11
1110.399977357093
 21
1086.974321673477
 31
0.0
1001
GENIUS_GENOREF_13
1005
65A9
  0
LINE
  5
64BB
330
1F
100
AcDbEntity
  8
AM_7
  6
AM_ISO08W050x2
100
AcDbLine
 10
1120.399977357093
 20
1073.474321673477
 30
0.0
 11
1125.899977357093
 21
1073.474321673477
 31
0.0
1001
GENIUS_GENOREF_13
1005
65A8
  0
LINE
  5
64BC
102
{ACAD_REACTORS
330
655F
102
}
330
1F
100
AcDbEntity
  8
AM_7
  6
AM_ISO08W050x2
100
AcDbLine
 10
1120.399977357093
 20
1073.474321673477
 30
0.0
 11
1120.399977357093
 21
1078.974321673477
 31
0.0
1001
GENIUS_GENOREF_13
1005
65A8
  0
LINE
  5
64BD
102
{ACAD_REACTORS
330
6547
102
}
330
1F
100
AcDbEntity
  8
AM_7
  6
AM_ISO08W050x2
100
AcDbLine
 10
1120.399977357093
 20
1073.474321673477
 30
0.0
 11
1114.899977357093
 21
1073.474321673477
 31
0.0
1001
GENIUS_GENOREF_13
1005
65A8
  0
LINE
  5
64BE
330
1F
100
AcDbEntity
  8
AM_7
  6
AM_ISO08W050x2
100
AcDbLine
 10
1120.399977357093
 20
1073.474321673477
 30
0.0
 11
1120.399977357093
 21
1067.974321673477
 31
0.0
1001
GENIUS_GENOREF_13
1005
65A8
  0
LINE
  5
64BF
330
1F
100
AcDbEntity
  8
AM_7
100
AcDbLine
 10
1133.899977357093
 20
930.011797458243
 30
0.0
 11
1140.399977357093
 21
930.011797458243
 31
0.0
1001
GENIUS_GENOREF_13
1005
65A7
  0
LINE
  5
64C0
330
1F
100
AcDbEntity
  8
AM_7
100
AcDbLine
 10
1133.899977357093
 20
930.011797458243
 30
0.0
 11
1133.899977357093
 21
936.511797458243
 31
0.0
1001
GENIUS_GENOREF_13
1005
65A7
  0
LINE
  5
64C1
330
1F
100
AcDbEntity
  8
AM_7
100
AcDbLine
 10
1133.899977357093
 20
930.011797458243
 30
0.0
 11
1127.399977357093
 21
930.011797458243
 31
0.0
1001
GENIUS_GENOREF_13
1005
65A7
  0
LINE
  5
64C2
102
{ACAD_REACTORS
330
6556
102
}
330
1F
100
AcDbEntity
  8
AM_7
100
AcDbLine
 10
1133.899977357093
 20
930.011797458243
 30
0.0
 11
1133.899977357093
 21
923.5117974582431
 31
0.0
1001
GENIUS_GENOREF_13
1005
65A7
  0
LINE
  5
64C3
330
1F
100
AcDbEntity
  8
AM_7
100
AcDbLine
 10
1115.399977357093
 20
930.011797458243
 30
0.0
 11
1123.599977357093
 21
930.011797458243
 31
0.0
1001
GENIUS_GENOREF_13
1005
65A6
  0
LINE
  5
64C4
330
1F
100
AcDbEntity
  8
AM_7
100
AcDbLine
 10
1115.399977357093
 20
930.011797458243
 30
0.0
 11
1115.399977357093
 21
938.2117974582431
 31
0.0
1001
GENIUS_GENOREF_13
1005
65A6
  0
LINE
  5
64C5
330
1F
100
AcDbEntity
  8
AM_7
100
AcDbLine
 10
1115.399977357093
 20
930.011797458243
 30
0.0
 11
1107.199977357093
 21
930.011797458243
 31
0.0
1001
GENIUS_GENOREF_13
1005
65A6
  0
LINE
  5
64C6
102
{ACAD_REACTORS
330
6553
330
6556
102
}
330
1F
100
AcDbEntity
  8
AM_7
100
AcDbLine
 10
1115.399977357093
 20
930.011797458243
 30
0.0
 11
1115.399977357093
 21
921.811797458243
 31
0.0
1001
GENIUS_GENOREF_13
1005
65A6
  0
LINE
  5
64C7
330
1F
100
AcDbEntity
  8
AM_7
100
AcDbLine
 10
1096.899977357093
 20
930.011797458243
 30
0.0
 11
1103.399977357093
 21
930.011797458243
 31
0.0
1001
GENIUS_GENOREF_13
1005
65A5
  0
LINE
  5
64C8
330
1F
100
AcDbEntity
  8
AM_7
100
AcDbLine
 10
1096.899977357093
 20
930.011797458243
 30
0.0
 11
1096.899977357093
 21
936.511797458243
 31
0.0
1001
GENIUS_GENOREF_13
1005
65A5
  0
LINE
  5
64C9
330
1F
100
AcDbEntity
  8
AM_7
100
AcDbLine
 10
1096.899977357093
 20
930.011797458243
 30
0.0
 11
1090.399977357093
 21
930.011797458243
 31
0.0
1001
GENIUS_GENOREF_13
1005
65A5
  0
LINE
  5
64CA
102
{ACAD_REACTORS
330
6553
330
6550
102
}
330
1F
100
AcDbEntity
  8
AM_7
100
AcDbLine
 10
1096.899977357093
 20
930.011797458243
 30
0.0
 11
1096.899977357093
 21
923.5117974582431
 31
0.0
1001
GENIUS_GENOREF_13
1005
65A5
  0
LINE
  5
64CB
330
1F
100
AcDbEntity
  8
AM_7
  6
AM_ISO08W050x2
100
AcDbLine
 10
1110.399977357093
 20
920.5117974582432
 30
0.0
 11
1114.149977357093
 21
920.5117974582432
 31
0.0
1001
GENIUS_GENOREF_13
1005
65A4
  0
LINE
  5
64CC
330
1F
100
AcDbEntity
  8
AM_7
  6
AM_ISO08W050x2
100
AcDbLine
 10
1110.399977357093
 20
920.5117974582432
 30
0.0
 11
1110.399977357093
 21
924.2617974582431
 31
0.0
1001
GENIUS_GENOREF_13
1005
65A4
  0
LINE
  5
64CD
330
1F
100
AcDbEntity
  8
AM_7
  6
AM_ISO08W050x2
100
AcDbLine
 10
1110.399977357093
 20
920.5117974582432
 30
0.0
 11
1106.649977357093
 21
920.5117974582432
 31
0.0
1001
GENIUS_GENOREF_13
1005
65A4
  0
LINE
  5
64CE
330
1F
100
AcDbEntity
  8
AM_7
  6
AM_ISO08W050x2
100
AcDbLine
 10
1110.399977357093
 20
920.5117974582432
 30
0.0
 11
1110.399977357093
 21
916.761797458243
 31
0.0
1001
GENIUS_GENOREF_13
1005
65A4
  0
LINE
  5
64CF
330
1F
100
AcDbEntity
  8
AM_7
  6
AM_ISO08W050x2
100
AcDbLine
 10
1120.399977357093
 20
939.5117974582431
 30
0.0
 11
1124.149977357093
 21
939.5117974582431
 31
0.0
1001
GENIUS_GENOREF_13
1005
65A3
  0
LINE
  5
64D0
330
1F
100
AcDbEntity
  8
AM_7
  6
AM_ISO08W050x2
100
AcDbLine
 10
1120.399977357093
 20
939.5117974582431
 30
0.0
 11
1120.399977357093
 21
943.2617974582431
 31
0.0
1001
GENIUS_GENOREF_13
1005
65A3
  0
LINE
  5
64D1
330
1F
100
AcDbEntity
  8
AM_7
  6
AM_ISO08W050x2
100
AcDbLine
 10
1120.399977357093
 20
939.5117974582431
 30
0.0
 11
1116.649977357093
 21
939.5117974582431
 31
0.0
1001
GENIUS_GENOREF_13
1005
65A3
  0
LINE
  5
64D2
330
1F
100
AcDbEntity
  8
AM_7
  6
AM_ISO08W050x2
100
AcDbLine
 10
1120.399977357093
 20
939.5117974582431
 30
0.0
 11
1120.399977357093
 21
935.7617974582431
 31
0.0
1001
GENIUS_GENOREF_13
1005
65A3
  0
LINE
  5
64D3
330
1F
100
AcDbEntity
  8
AM_7
100
AcDbLine
 10
1079.723693189207
 20
930.0117974582432
 30
0.0
 11
1166.113885615645
 21
930.0117974582432
 31
0.0
1001
GENIUS_GENODEF_13
1002
{
1000
HIER
1070
     0
1002
}
1002
{
1000
MANEDIT
1070
     0
1002
}
1002
{
1000
NOSEL
1070
     0
1002
}
1002
{
1000
BEHIND
1070
     0
1002
}
1002
{
1000
OTHER
1070
     0
1002
}
1002
{
1000
REACTOR
1002
}
1001
GENIUS_GENOBJ-N-CEN_13
1002
{
1000
OWNER
1000
GEN
1002
}
1001
GENIUS_GENCEN_19
1002
{
1040
1.5
1002
}
  0
LINE
  5
64D4
330
1F
100
AcDbEntity
  8
AM_7
100
AcDbLine
 10
1078.731007315251
 20
1082.974321673477
 30
0.0
 11
1165.590709732171
 21
1082.974321673477
 31
0.0
1001
GENIUS_GENOBJ-N-CEN_13
1002
{
1000
OWNER
1000
GEN
1002
}
1001
GENIUS_GENODEF_13
1002
{
1000
HIER
1070
     0
1002
}
1002
{
1000
MANEDIT
1070
     0
1002
}
1002
{
1000
NOSEL
1070
     0
1002
}
1002
{
1000
BEHIND
1070
     0
1002
}
1002
{
1000
OTHER
1070
     0
1002
}
1002
{
1000
REACTOR
1002
}
1001
GENIUS_GENCEN_19
1002
{
1040
2.0
1002
}
  0
LINE
  5
6534
330
1F
100
AcDbEntity
  8
AM_7
  6
AM_ISO08W050x2
100
AcDbLine
 10
1104.899977357096
 20
989.8103995437921
 30
0.0
 11
1108.649977357096
 21
989.8103995437921
 31
0.0
1001
GENIUS_GENOREF_13
1005
65AD
  0
LINE
  5
6535
330
1F
100
AcDbEntity
  8
AM_7
  6
AM_ISO08W050x2
100
AcDbLine
 10
1104.899977357096
 20
989.8103995437921
 30
0.0
 11
1104.899977357096
 21
993.560399543792
 31
0.0
1001
GENIUS_GENOREF_13
1005
65AD
  0
LINE
  5
6536
102
{ACAD_REACTORS
330
6544
102
}
330
1F
100
AcDbEntity
  8
AM_7
  6
AM_ISO08W050x2
100
AcDbLine
 10
1104.899977357096
 20
989.8103995437921
 30
0.0
 11
1101.149977357096
 21
989.8103995437921
 31
0.0
1001
GENIUS_GENOREF_13
1005
65AD
  0
LINE
  5
6537
102
{ACAD_REACTORS
330
653E
330
6541
102
}
330
1F
100
AcDbEntity
  8
AM_7
  6
AM_ISO08W050x2
100
AcDbLine
 10
1104.899977357096
 20
989.8103995437921
 30
0.0
 11
1104.899977357096
 21
986.0603995437921
 31
0.0
1001
GENIUS_GENOREF_13
1005
65AD
  0
LINE
  5
6538
330
1F
100
AcDbEntity
  8
AM_7
  6
AM_ISO08W050x2
100
AcDbLine
 10
1125.899977357096
 20
989.8103995437921
 30
0.0
 11
1129.649977357096
 21
989.8103995437921
 31
0.0
1001
GENIUS_GENOREF_13
1005
65AC
  0
LINE
  5
6539
330
1F
100
AcDbEntity
  8
AM_7
  6
AM_ISO08W050x2
100
AcDbLine
 10
1125.899977357096
 20
989.8103995437921
 30
0.0
 11
1125.899977357096
 21
993.560399543792
 31
0.0
1001
GENIUS_GENOREF_13
1005
65AC
  0
LINE
  5
653A
330
1F
100
AcDbEntity
  8
AM_7
  6
AM_ISO08W050x2
100
AcDbLine
 10
1125.899977357096
 20
989.8103995437921
 30
0.0
 11
1122.149977357096
 21
989.8103995437921
 31
0.0
1001
GENIUS_GENOREF_13
1005
65AC
  0
LINE
  5
653B
102
{ACAD_REACTORS
330
6541
102
}
330
1F
100
AcDbEntity
  8
AM_7
  6
AM_ISO08W050x2
100
AcDbLine
 10
1125.899977357096
 20
989.8103995437921
 30
0.0
 11
1125.899977357096
 21
986.0603995437921
 31
0.0
1001
GENIUS_GENOREF_13
1005
65AC
  0
DIMENSION
  5
653C
102
{ACAD_XDICTIONARY
360
653D
102
}
102
{ACAD_REACTORS
330
653E
102
}
330
1F
100
AcDbEntity
  8
AM_5
100
AcDbDimension
  2
*D11
 10
1104.899977357096
 20
970.6603995437919
 30
0.0
 11
1087.649977357095
 21
974.3353995437919
 31
0.0
 70
    32
 71
     5
 42
34.50000000000296
  3
AM_ISO$0
100
AcDbAlignedDimension
 13
1070.399977357094
 23
985.660399543792
 33
0.0
 14
1104.899977357096
 24
986.0603995437921
 34
0.0
 50
0.0000000000002036
100
AcDbRotatedDimension
1001
ACAD
1000
DSTYLE
1002
{
1070
    40
1040
1.5
1070
   272
1070
     8
1002
}
  0
DIMENSION
  5
653F
102
{ACAD_XDICTIONARY
360
6540
102
}
102
{ACAD_REACTORS
330
6541
102
}
330
1F
100
AcDbEntity
  8
AM_5
100
AcDbDimension
  2
*D12
 10
1125.899977357096
 20
970.6603995437921
 30
0.0
 11
1115.399977357096
 21
974.3359162760755
 31
0.0
 70
    32
 71
     5
 42
21.0
  3
AM_ISO$0
100
AcDbAlignedDimension
 13
1104.899977357096
 23
986.0603995437921
 33
0.0
 14
1125.899977357096
 24
986.0603995437921
 34
0.0
 50
0.0000000000002036
100
AcDbRotatedDimension
1001
ACAD
1000
DSTYLE
1002
{
1070
    40
1040
1.5
1070
   272
1070
     8
1002
}
  0
DIMENSION
  5
6542
102
{ACAD_XDICTIONARY
360
6543
102
}
102
{ACAD_REACTORS
330
6544
102
}
330
1F
100
AcDbEntity
  8
AM_5
100
AcDbDimension
  2
*D13
 10
1055.399977357093
 20
989.8103995437921
 30
0.0
 11
1051.72446062481
 21
1003.955554563477
 31
0.0
 70
    32
 71
     5
 42
4.15000000000009
  3
AM_ISO$0
100
AcDbAlignedDimension
 13
1084.899977357093
 23
985.660399543792
 33
0.0
 14
1101.149977357096
 24
989.8103995437921
 34
0.0
 50
90.0
100
AcDbRotatedDimension
1001
ACAD
1000
DSTYLE
1002
{
1070
    40
1040
1.5
1070
   271
1070
     1
1070
   272
1070
     8
1002
}
  0
DIMENSION
  5
6545
102
{ACAD_XDICTIONARY
360
6546
102
}
102
{ACAD_REACTORS
330
6547
102
}
330
1F
100
AcDbEntity
  8
AM_5
100
AcDbDimension
  2
*D14
 10
1055.399977357093
 20
1073.474321673477
 30
0.0
 11
1051.724977357093
 21
1082.974321673477
 31
0.0
 70
    32
 71
     5
 42
19.0
  3
AM_ISO$0
100
AcDbAlignedDimension
 13
1104.899977357093
 23
1092.474321673477
 33
0.0
 14
1114.899977357093
 24
1073.474321673477
 34
0.0
 50
90.0
100
AcDbRotatedDimension
1001
ACAD
1000
DSTYLE
1002
{
1070
    40
1040
1.5
1070
   272
1070
     8
1002
}
  0
DIMENSION
  5
6548
330
1F
100
AcDbEntity
  8
AM_5
100
AcDbDimension
  2
*D15
 10
1045.399977357093
 20
1069.774321673477
 30
0.0
 11
1041.72446062481
 21
1082.974321673477
 31
0.0
 70
    32
 71
     5
 42
26.39999999999986
  3
AM_ISO$0
100
AcDbAlignedDimension
 13
1084.899977357093
 23
1096.174321673477
 33
0.0
 14
1084.899977357093
 24
1069.774321673477
 34
0.0
 50
90.0
100
AcDbRotatedDimension
1001
ACAD
1000
DSTYLE
1002
{
1070
    40
1040
1.5
1070
   272
1070
     8
1002
}
  0
DIMENSION
  5
654E
102
{ACAD_XDICTIONARY
360
654F
102
}
102
{ACAD_REACTORS
330
6550
102
}
330
1F
100
AcDbEntity
  8
AM_5
100
AcDbDimension
  2
*D3
 10
1096.899977357093
 20
901.811797458243
 30
0.0
 11
1083.649977357093
 21
905.4873141905265
 31
0.0
 70
    32
 71
     5
 42
26.5
  3
AM_ISO$0
100
AcDbAlignedDimension
 13
1070.399977357094
 23
916.8117974582431
 33
0.0
 14
1096.899977357093
 24
923.5117974582431
 34
0.0
 50
0.0000000000002036
100
AcDbRotatedDimension
1001
ACAD
1000
DSTYLE
1002
{
1070
    40
1040
1.5
1070
   272
1070
     8
1002
}
  0
DIMENSION
  5
6551
102
{ACAD_XDICTIONARY
360
6552
102
}
102
{ACAD_REACTORS
330
6553
102
}
330
1F
100
AcDbEntity
  8
AM_5
100
AcDbDimension
  2
*D4
 10
1115.399977357093
 20
901.811797458243
 30
0.0
 11
1106.149977357093
 21
905.486797458243
 31
0.0
 70
    32
 71
     5
 42
18.5
  3
AM_ISO$0
100
AcDbAlignedDimension
 13
1096.899977357093
 23
923.5117974582431
 33
0.0
 14
1115.399977357093
 24
921.811797458243
 34
0.0
 50
0.0000000000002036
100
AcDbRotatedDimension
1001
ACAD
1000
DSTYLE
1002
{
1070
    40
1040
1.5
1070
   272
1070
     8
1002
}
  0
DIMENSION
  5
6554
102
{ACAD_XDICTIONARY
360
6555
102
}
102
{ACAD_REACTORS
330
6556
102
}
330
1F
100
AcDbEntity
  8
AM_5
100
AcDbDimension
  2
*D5
 10
1133.899977357093
 20
901.811797458243
 30
0.0
 11
1124.649977357093
 21
905.486797458243
 31
0.0
 70
    32
 71
     5
 42
18.5
  3
AM_ISO$0
100
AcDbAlignedDimension
 13
1115.399977357093
 23
921.811797458243
 33
0.0
 14
1133.899977357093
 24
923.5117974582431
 34
0.0
 50
0.0000000000002036
100
AcDbRotatedDimension
1001
ACAD
1000
DSTYLE
1002
{
1070
    40
1040
1.5
1070
   272
1070
     8
1002
}
  0
DIMENSION
  5
6557
102
{ACAD_XDICTIONARY
360
6558
102
}
102
{ACAD_REACTORS
330
6559
102
}
330
1F
100
AcDbEntity
  8
AM_5
100
AcDbDimension
  2
*D6
 10
1103.899977357093
 20
1054.774321673477
 30
0.0
 11
1087.149977357093
 21
1058.449321673477
 31
0.0
 70
    32
 71
     5
 42
33.49999999999955
  3
AM_ISO$0
100
AcDbAlignedDimension
 13
1070.399977357094
 23
1069.774321673477
 33
0.0
 14
1103.899977357093
 24
1074.774321673477
 34
0.0
100
AcDbRotatedDimension
1001
ACAD
1000
DSTYLE
1002
{
1070
    40
1040
1.5
1070
   272
1070
     8
1002
}
  0
DIMENSION
  5
655A
102
{ACAD_XDICTIONARY
360
655B
102
}
102
{ACAD_REACTORS
330
655C
102
}
330
1F
100
AcDbEntity
  8
AM_5
100
AcDbDimension
  2
*D7
 10
1126.899977357093
 20
1054.774321673477
 30
0.0
 11
1115.399977357093
 21
1058.449838405761
 31
0.0
 70
    32
 71
     5
 42
23.0
  3
AM_ISO$0
100
AcDbAlignedDimension
 13
1103.899977357093
 23
1074.774321673477
 33
0.0
 14
1126.899977357093
 24
1074.774321673477
 34
0.0
100
AcDbRotatedDimension
1001
ACAD
1000
DSTYLE
1002
{
1070
    40
1040
1.5
1070
   272
1070
     8
1002
}
  0
DIMENSION
  5
655D
102
{ACAD_XDICTIONARY
360
655E
102
}
102
{ACAD_REACTORS
330
655F
102
}
330
1F
100
AcDbEntity
  8
AM_5
100
AcDbDimension
  2
*D8
 10
1120.399977357093
 20
1109.174321673477
 30
0.0
 11
1115.399977357093
 21
1112.849321673477
 31
0.0
 70
    32
 71
     5
 42
10.0
  3
AM_ISO$0
100
AcDbAlignedDimension
 13
1110.399977357093
 23
1097.974321673477
 33
0.0
 14
1120.399977357093
 24
1078.974321673477
 34
0.0
100
AcDbRotatedDimension
1001
ACAD
1000
DSTYLE
1002
{
1070
    40
1040
1.5
1070
   272
1070
     8
1002
}
  0
DIMENSION
  5
6560
102
{ACAD_XDICTIONARY
360
6561
102
}
102
{ACAD_REACTORS
330
6562
102
}
330
1F
100
AcDbEntity
  8
AM_5
100
AcDbDimension
  2
*D9
 10
1110.399977357093
 20
1109.174321673477
 30
0.0
 11
1090.399977357093
 21
1112.849321673477
 31
0.0
 70
    32
 71
     5
 42
39.99999999999955
  3
AM_ISO$0
100
AcDbAlignedDimension
 13
1070.399977357094
 23
1096.174321673477
 33
0.0
 14
1110.399977357093
 24
1097.974321673477
 34
0.0
100
AcDbRotatedDimension
1001
ACAD
1000
DSTYLE
1002
{
1070
    40
1040
1.5
1070
   272
1070
     8
1002
}
  0
DIMENSION
  5
6563
330
1F
100
AcDbEntity
  8
AM_5
100
AcDbDimension
  2
*D10
 10
1045.399977357093
 20
1020.960399543792
 30
0.0
 11
1041.724977357093
 21
1003.310399543792
 31
0.0
 70
    32
 71
     5
 42
35.30000000000007
  3
AM_ISO$0
100
AcDbAlignedDimension
 13
1084.899977357093
 23
985.660399543792
 33
0.0
 14
1084.899977357093
 24
1020.960399543792
 34
0.0
 50
90.0
100
AcDbRotatedDimension
1001
ACAD
1000
DSTYLE
1002
{
1070
    40
1040
1.5
1070
   272
1070
     8
1002
}
  0
TEXT
  5
6566
330
1F
100
AcDbEntity
  8
AM_5
100
AcDbText
 10
1140.645876814834
 20
1056.401644422635
 30
0.0
 40
5.95
  1
2-%%c4.5貫通
100
AcDbText
  0
INSERT
  5
6567
330
1F
100
AcDbEntity
  8
AM_5
100
AcDbBlockReference
  2
*S18
 10
0.0
 20
0.0
 30
0.0
  0
TEXT
  5
6568
330
1F
100
AcDbEntity
  8
AM_5
100
AcDbText
 10
1151.250602819214
 20
1107.762821268627
 30
0.0
 40
5.95
  1
2-PT1/4
100
AcDbText
  0
INSERT
  5
6569
330
1F
100
AcDbEntity
  8
AM_VIS
100
AcDbBlockReference
  2
*S19
 10
0.0
 20
0.0
 30
0.0
  0
TEXT
  5
656A
330
1F
100
AcDbEntity
  8
AM_5
100
AcDbText
 10
1152.280480271611
 20
901.924653325716
 30
0.0
 40
5.95
  1
2-PT1/8
100
AcDbText
  0
INSERT
  5
656B
330
1F
100
AcDbEntity
  8
AM_5
100
AcDbBlockReference
  2
*S20
 10
0.0
 20
0.0
 30
0.0
  0
TEXT
  5
6571
330
1F
100
AcDbEntity
  8
AM_5
100
AcDbText
 10
1140.645876814834
 20
972.530176561584
 30
0.0
 40
5.95
  1
2-%%c4.5貫通
100
AcDbText
  0
INSERT
  5
6572
330
1F
100
AcDbEntity
  8
AM_5
100
AcDbBlockReference
  2
*S21
 10
0.0
 20
0.0
 30
0.0
  0
LINE
  5
6573
330
1F
100
AcDbEntity
  8
AM_VIS
100
AcDbLine
 10
1140.399977357093
 20
1069.774321673477
 30
0.0
 11
1160.399977357093
 21
1069.774321673477
 31
0.0
  0
LINE
  5
6574
330
1F
100
AcDbEntity
  8
AM_VIS
100
AcDbLine
 10
1140.399977357093
 20
1096.174321673477
 30
0.0
 11
1160.399977357093
 21
1096.174321673477
 31
0.0
  0
LINE
  5
6575
330
1F
100
AcDbEntity
  8
AM_VIS
100
AcDbLine
 10
1160.399977357093
 20
1096.174321673477
 30
0.0
 11
1160.399977357093
 21
1069.774321673477
 31
0.0
  0
LINE
  5
6576
330
1F
100
AcDbEntity
  8
AM_VIS
100
AcDbLine
 10
1140.399977357093
 20
985.660399543792
 30
0.0
 11
1160.399977357093
 21
985.660399543792
 31
0.0
  0
LINE
  5
6577
330
1F
100
AcDbEntity
  8
AM_VIS
100
AcDbLine
 10
1140.399977357093
 20
1020.960399543792
 30
0.0
 11
1160.399977357093
 21
1020.960399543792
 31
0.0
  0
LINE
  5
6578
102
{ACAD_REACTORS
330
658A
102
}
330
1F
100
AcDbEntity
  8
AM_VIS
100
AcDbLine
 10
1160.399977357093
 20
1020.960399543792
 30
0.0
 11
1160.399977357093
 21
985.660399543792
 31
0.0
  0
LINE
  5
6579
330
1F
100
AcDbEntity
  8
AM_VIS
100
AcDbLine
 10
1140.399977357093
 20
916.8117974582431
 30
0.0
 11
1160.399977357093
 21
916.8117974582431
 31
0.0
  0
LINE
  5
657A
330
1F
100
AcDbEntity
  8
AM_VIS
100
AcDbLine
 10
1140.399977357093
 20
943.2117974582428
 30
0.0
 11
1160.399977357093
 21
943.2117974582428
 31
0.0
  0
LINE
  5
657B
330
1F
100
AcDbEntity
  8
AM_VIS
100
AcDbLine
 10
1160.399977357093
 20
943.2117974582428
 30
0.0
 11
1160.399977357093
 21
916.8117974582431
 31
0.0
  0
LINE
  5
657C
330
1F
100
AcDbEntity
  8
AM_0
  6
HIDDEN
 62
     3
 48
0.2
100
AcDbLine
 10
1154.199977357093
 20
993.554149543792
 30
0.0
 11
1160.399977357093
 21
993.360399543792
 31
0.0
  0
LINE
  5
657D
330
1F
100
AcDbEntity
  8
AM_0
  6
HIDDEN
 62
     3
 48
0.2
100
AcDbLine
 10
1154.199977357093
 20
1003.666649543792
 30
0.0
 11
1160.399977357093
 21
1003.860399543792
 31
0.0
  0
LINE
  5
657E
330
1F
100
AcDbEntity
  8
AM_0
  6
HIDDEN
 62
     3
 48
0.2
100
AcDbLine
 10
1154.199977357093
 20
1002.699649543792
 30
0.0
 11
1160.399977357093
 21
1002.893399543792
 31
0.0
  0
LINE
  5
657F
330
1F
100
AcDbEntity
  8
AM_0
  6
HIDDEN
 62
     3
 48
0.2
100
AcDbLine
 10
1154.199977357093
 20
994.521149543792
 30
0.0
 11
1160.399977357093
 21
994.3273995437921
 31
0.0
  0
LINE
  5
6580
102
{ACAD_REACTORS
330
658A
102
}
330
1F
100
AcDbEntity
  8
AM_7
  6
AM_ISO08W050x2
100
AcDbLine
 10
1151.246665851929
 20
998.610399543792
 30
0.0
 11
1161.804873356663
 21
998.610399543792
 31
0.0
  0
POINT
  5
6581
330
1F
100
AcDbEntity
  8
AM_7
  6
AM_ISO08W050x2
100
AcDbPoint
 10
1156.429977357093
 20
998.610399543792
 30
0.0
  0
LINE
  5
6582
330
1F
100
AcDbEntity
  8
AM_0
  6
HIDDEN
 62
     3
 48
0.2
100
AcDbLine
 10
1154.199977357093
 20
994.521149543792
 30
0.0
 11
1152.839327357094
 21
994.5211495437922
 31
0.0
  0
LINE
  5
6583
330
1F
100
AcDbEntity
  8
AM_0
  6
HIDDEN
 62
     3
 48
0.2
100
AcDbLine
 10
1154.199977357093
 20
1002.699649543792
 30
0.0
 11
1152.839327357094
 21
1002.699649543792
 31
0.0
  0
LINE
  5
6584
330
1F
100
AcDbEntity
  8
AM_0
  6
HIDDEN
 62
     3
 48
0.2
100
AcDbLine
 10
1154.199977357093
 20
1003.666649543792
 30
0.0
 11
1154.199977357093
 21
993.554149543792
 31
0.0
  0
LINE
  5
6585
330
1F
100
AcDbEntity
  8
AM_0
  6
HIDDEN
 62
     3
 48
0.2
100
AcDbLine
 10
1154.199977357093
 20
993.554149543792
 30
0.0
 11
1152.839327357094
 21
994.521149543792
 31
0.0
  0
LINE
  5
6586
330
1F
100
AcDbEntity
  8
AM_0
  6
HIDDEN
 62
     3
 48
0.2
100
AcDbLine
 10
1154.199977357093
 20
1003.666649543792
 30
0.0
 11
1152.839327357094
 21
1002.699649543792
 31
0.0
  0
LINE
  5
6587
330
1F
100
AcDbEntity
  8
AM_0
  6
HIDDEN
 62
     3
 48
0.2
100
AcDbLine
 10
1152.839327357094
 20
994.521149543792
 30
0.0
 11
1152.839327357094
 21
1002.699649543792
 31
0.0
  0
DIMENSION
  5
6588
102
{ACAD_XDICTIONARY
360
6589
102
}
102
{ACAD_REACTORS
330
658A
102
}
330
1F
100
AcDbEntity
  8
AM_5
100
AcDbDimension
  2
*D2
 10
1175.399977357094
 20
985.660399543792
 30
0.0
 11
1175.399977357093
 21
992.1353995437922
 31
0.0
 70
   160
 71
     5
 42
12.94999999999993
  3
AM_ISO$0
100
AcDbAlignedDimension
 13
1161.804873356663
 23
998.610399543792
 33
0.0
 14
1160.399977357093
 24
985.660399543792
 34
0.0
 50
90.0
100
AcDbRotatedDimension
1001
ACAD
1000
DSTYLE
1002
{
1070
    40
1040
1.5
1070
   271
1070
     0
1070
   272
1070
     8
1002
}
  0
LINE
  5
658B
330
1F
100
AcDbEntity
  8
AM_0
  6
HIDDEN
 62
     3
 48
0.2
100
AcDbLine
 10
1154.199977357093
 20
1077.918071673477
 30
0.0
 11
1160.399977357093
 21
1077.724321673477
 31
0.0
  0
LINE
  5
658C
330
1F
100
AcDbEntity
  8
AM_0
  6
HIDDEN
 62
     3
 48
0.2
100
AcDbLine
 10
1154.199977357093
 20
1088.030571673477
 30
0.0
 11
1160.399977357093
 21
1088.224321673477
 31
0.0
  0
LINE
  5
658D
330
1F
100
AcDbEntity
  8
AM_0
  6
HIDDEN
 62
     3
 48
0.2
100
AcDbLine
 10
1154.199977357093
 20
1087.063571673477
 30
0.0
 11
1160.399977357093
 21
1087.257321673477
 31
0.0
  0
LINE
  5
658E
330
1F
100
AcDbEntity
  8
AM_0
  6
HIDDEN
 62
     3
 48
0.2
100
AcDbLine
 10
1154.199977357093
 20
1078.885071673477
 30
0.0
 11
1160.399977357093
 21
1078.691321673477
 31
0.0
  0
LINE
  5
658F
330
1F
100
AcDbEntity
  8
AM_7
  6
AM_ISO08W050x2
100
AcDbLine
 10
1151.246665851929
 20
1082.974321673477
 30
0.0
 11
1161.804873356663
 21
1082.974321673477
 31
0.0
  0
POINT
  5
6590
330
1F
100
AcDbEntity
  8
AM_7
  6
AM_ISO08W050x2
100
AcDbPoint
 10
1156.429977357093
 20
1082.974321673477
 30
0.0
  0
LINE
  5
6591
330
1F
100
AcDbEntity
  8
AM_0
  6
HIDDEN
 62
     3
 48
0.2
100
AcDbLine
 10
1154.199977357093
 20
1078.885071673477
 30
0.0
 11
1152.839327357094
 21
1078.885071673477
 31
0.0
  0
LINE
  5
6592
330
1F
100
AcDbEntity
  8
AM_0
  6
HIDDEN
 62
     3
 48
0.2
100
AcDbLine
 10
1154.199977357093
 20
1087.063571673477
 30
0.0
 11
1152.839327357094
 21
1087.063571673477
 31
0.0
  0
LINE
  5
6593
330
1F
100
AcDbEntity
  8
AM_0
  6
HIDDEN
 62
     3
 48
0.2
100
AcDbLine
 10
1154.199977357093
 20
1088.030571673477
 30
0.0
 11
1154.199977357093
 21
1077.918071673477
 31
0.0
  0
LINE
  5
6594
330
1F
100
AcDbEntity
  8
AM_0
  6
HIDDEN
 62
     3
 48
0.2
100
AcDbLine
 10
1154.199977357093
 20
1077.918071673477
 30
0.0
 11
1152.839327357094
 21
1078.885071673477
 31
0.0
  0
LINE
  5
6595
330
1F
100
AcDbEntity
  8
AM_0
  6
HIDDEN
 62
     3
 48
0.2
100
AcDbLine
 10
1154.199977357093
 20
1088.030571673477
 30
0.0
 11
1152.839327357094
 21
1087.063571673477
 31
0.0
  0
LINE
  5
6596
330
1F
100
AcDbEntity
  8
AM_0
  6
HIDDEN
 62
     3
 48
0.2
100
AcDbLine
 10
1152.839327357094
 20
1078.885071673477
 30
0.0
 11
1152.839327357094
 21
1087.063571673477
 31
0.0
  0
LINE
  5
6597
330
1F
100
AcDbEntity
  8
AM_0
  6
HIDDEN
 62
     3
 48
0.2
100
AcDbLine
 10
1154.199977357093
 20
924.9555474582431
 30
0.0
 11
1160.399977357093
 21
924.761797458243
 31
0.0
  0
LINE
  5
6598
330
1F
100
AcDbEntity
  8
AM_0
  6
HIDDEN
 62
     3
 48
0.2
100
AcDbLine
 10
1154.199977357093
 20
935.068047458243
 30
0.0
 11
1160.399977357093
 21
935.2617974582429
 31
0.0
  0
LINE
  5
6599
330
1F
100
AcDbEntity
  8
AM_0
  6
HIDDEN
 62
     3
 48
0.2
100
AcDbLine
 10
1154.199977357093
 20
934.101047458243
 30
0.0
 11
1160.399977357093
 21
934.2947974582429
 31
0.0
  0
LINE
  5
659A
330
1F
100
AcDbEntity
  8
AM_0
  6
HIDDEN
 62
     3
 48
0.2
100
AcDbLine
 10
1154.199977357093
 20
925.922547458243
 30
0.0
 11
1160.399977357093
 21
925.728797458243
 31
0.0
  0
LINE
  5
659B
330
1F
100
AcDbEntity
  8
AM_7
  6
AM_ISO08W050x2
100
AcDbLine
 10
1151.246665851929
 20
930.011797458243
 30
0.0
 11
1161.804873356663
 21
930.011797458243
 31
0.0
  0
POINT
  5
659C
330
1F
100
AcDbEntity
  8
AM_7
  6
AM_ISO08W050x2
100
AcDbPoint
 10
1156.429977357093
 20
930.011797458243
 30
0.0
  0
LINE
  5
659D
330
1F
100
AcDbEntity
  8
AM_0
  6
HIDDEN
 62
     3
 48
0.2
100
AcDbLine
 10
1154.199977357093
 20
925.922547458243
 30
0.0
 11
1152.839327357094
 21
925.922547458243
 31
0.0
  0
LINE
  5
659E
330
1F
100
AcDbEntity
  8
AM_0
  6
HIDDEN
 62
     3
 48
0.2
100
AcDbLine
 10
1154.199977357093
 20
934.101047458243
 30
0.0
 11
1152.839327357094
 21
934.101047458243
 31
0.0
  0
LINE
  5
659F
330
1F
100
AcDbEntity
  8
AM_0
  6
HIDDEN
 62
     3
 48
0.2
100
AcDbLine
 10
1154.199977357093
 20
935.068047458243
 30
0.0
 11
1154.199977357093
 21
924.9555474582431
 31
0.0
  0
LINE
  5
65A0
330
1F
100
AcDbEntity
  8
AM_0
  6
HIDDEN
 62
     3
 48
0.2
100
AcDbLine
 10
1154.199977357093
 20
924.9555474582431
 30
0.0
 11
1152.839327357094
 21
925.922547458243
 31
0.0
  0
LINE
  5
65A1
330
1F
100
AcDbEntity
  8
AM_0
  6
HIDDEN
 62
     3
 48
0.2
100
AcDbLine
 10
1154.199977357093
 20
935.068047458243
 30
0.0
 11
1152.839327357094
 21
934.101047458243
 31
0.0
  0
LINE
  5
65A2
330
1F
100
AcDbEntity
  8
AM_0
  6
HIDDEN
 62
     3
 48
0.2
100
AcDbLine
 10
1152.839327357094
 20
925.922547458243
 30
0.0
 11
1152.839327357094
 21
934.101047458243
 31
0.0
  0
POINT
  5
65A3
330
1F
100
AcDbEntity
  8
0
 60
     1
100
AcDbPoint
 10
-60.53597199568503
 20
0.0
 30
0.0
1001
GENIUS_GENODEF_13
1002
{
1000
HIER
1070
    10
1002
}
1002
{
1000
MANEDIT
1070
     0
1002
}
1002
{
1000
NOSEL
1070
     0
1002
}
1002
{
1000
BEHIND
1070
     0
1002
}
1002
{
1000
OTHER
1070
     0
1002
}
1002
{
1000
REACTOR
1002
}
1001
GENIUS_GENOLIS_13
1002
{
1000
ENT
1005
64D2
1005
64D1
1005
64D0
1005
64CF
1002
}
1001
GENIUS_GENOENT_13
1002
{
1000
MYREF
1005
65A3
1002
}
1002
{
1000
GRP
1005
0
1002
}
1001
GENIUS_GENOBJ-N-CRS_13
1002
{
1000
OWNER
1000
GEN
1002
}
  0
POINT
  5
65A4
330
1F
100
AcDbEntity
  8
0
 60
     1
100
AcDbPoint
 10
-60.53597199568503
 20
0.0
 30
0.0
1001
GENIUS_GENOENT_13
1002
{
1000
MYREF
1005
65A4
1002
}
1002
{
1000
GRP
1005
0
1002
}
1001
GENIUS_GENOBJ-N-CRS_13
1002
{
1000
OWNER
1000
GEN
1002
}
1001
GENIUS_GENODEF_13
1002
{
1000
HIER
1070
    10
1002
}
1002
{
1000
MANEDIT
1070
     0
1002
}
1002
{
1000
NOSEL
1070
     0
1002
}
1002
{
1000
BEHIND
1070
     0
1002
}
1002
{
1000
OTHER
1070
     0
1002
}
1002
{
1000
REACTOR
1002
}
1001
GENIUS_GENOLIS_13
1002
{
1000
ENT
1005
64CE
1005
64CD
1005
64CC
1005
64CB
1002
}
  0
POINT
  5
65A5
330
1F
100
AcDbEntity
  8
0
 60
     1
100
AcDbPoint
 10
-60.53597199568503
 20
0.0
 30
0.0
1001
GENIUS_GENOENT_13
1002
{
1000
MYREF
1005
65A5
1002
}
1002
{
1000
GRP
1005
0
1002
}
1001
GENIUS_GENOBJ-N-CRS_13
1002
{
1000
OWNER
1000
GEN
1002
}
1001
GENIUS_GENOLIS_13
1002
{
1000
ENT
1005
64CA
1005
64C9
1005
64C8
1005
64C7
1002
}
1001
GENIUS_GENODEF_13
1002
{
1000
HIER
1070
    10
1002
}
1002
{
1000
MANEDIT
1070
     0
1002
}
1002
{
1000
NOSEL
1070
     0
1002
}
1002
{
1000
BEHIND
1070
     0
1002
}
1002
{
1000
OTHER
1070
     0
1002
}
1002
{
1000
REACTOR
1002
}
  0
POINT
  5
65A6
330
1F
100
AcDbEntity
  8
0
 60
     1
100
AcDbPoint
 10
-60.53597199568503
 20
0.0
 30
0.0
1001
GENIUS_GENODEF_13
1002
{
1000
HIER
1070
    10
1002
}
1002
{
1000
MANEDIT
1070
     0
1002
}
1002
{
1000
NOSEL
1070
     0
1002
}
1002
{
1000
BEHIND
1070
     0
1002
}
1002
{
1000
OTHER
1070
     0
1002
}
1002
{
1000
REACTOR
1002
}
1001
GENIUS_GENOLIS_13
1002
{
1000
ENT
1005
64C6
1005
64C5
1005
64C4
1005
64C3
1002
}
1001
GENIUS_GENOENT_13
1002
{
1000
MYREF
1005
65A6
1002
}
1002
{
1000
GRP
1005
0
1002
}
1001
GENIUS_GENOBJ-N-CRS_13
1002
{
1000
OWNER
1000
GEN
1002
}
  0
POINT
  5
65A7
330
1F
100
AcDbEntity
  8
0
 60
     1
100
AcDbPoint
 10
-60.53597199568503
 20
0.0
 30
0.0
1001
GENIUS_GENODEF_13
1002
{
1000
HIER
1070
    10
1002
}
1002
{
1000
MANEDIT
1070
     0
1002
}
1002
{
1000
NOSEL
1070
     0
1002
}
1002
{
1000
BEHIND
1070
     0
1002
}
1002
{
1000
OTHER
1070
     0
1002
}
1002
{
1000
REACTOR
1002
}
1001
GENIUS_GENOENT_13
1002
{
1000
MYREF
1005
65A7
1002
}
1002
{
1000
GRP
1005
0
1002
}
1001
GENIUS_GENOBJ-N-CRS_13
1002
{
1000
OWNER
1000
GEN
1002
}
1001
GENIUS_GENOLIS_13
1002
{
1000
ENT
1005
64C2
1005
64C1
1005
64C0
1005
64BF
1002
}
  0
POINT
  5
65A8
330
1F
100
AcDbEntity
  8
0
 60
     1
100
AcDbPoint
 10
-60.53597199568503
 20
0.0
 30
0.0
1001
GENIUS_GENOBJ-N-CRS_13
1002
{
1000
OWNER
1000
GEN
1002
}
1001
GENIUS_GENOLIS_13
1002
{
1000
ENT
1005
64BE
1005
64BD
1005
64BC
1005
64BB
1002
}
1001
GENIUS_GENOENT_13
1002
{
1000
MYREF
1005
65A8
1002
}
1002
{
1000
GRP
1005
0
1002
}
1001
GENIUS_GENODEF_13
1002
{
1000
HIER
1070
    10
1002
}
1002
{
1000
MANEDIT
1070
     0
1002
}
1002
{
1000
NOSEL
1070
     0
1002
}
1002
{
1000
BEHIND
1070
     0
1002
}
1002
{
1000
OTHER
1070
     0
1002
}
1002
{
1000
REACTOR
1002
}
  0
POINT
  5
65A9
330
1F
100
AcDbEntity
  8
0
 60
     1
100
AcDbPoint
 10
-60.53597199568503
 20
0.0
 30
0.0
1001
GENIUS_GENODEF_13
1002
{
1000
HIER
1070
    10
1002
}
1002
{
1000
MANEDIT
1070
     0
1002
}
1002
{
1000
NOSEL
1070
     0
1002
}
1002
{
1000
BEHIND
1070
     0
1002
}
1002
{
1000
OTHER
1070
     0
1002
}
1002
{
1000
REACTOR
1002
}
1001
GENIUS_GENOBJ-N-CRS_13
1002
{
1000
OWNER
1000
GEN
1002
}
1001
GENIUS_GENOLIS_13
1002
{
1000
ENT
1005
64BA
1005
64B9
1005
64B8
1005
64B7
1002
}
1001
GENIUS_GENOENT_13
1002
{
1000
MYREF
1005
65A9
1002
}
1002
{
1000
GRP
1005
0
1002
}
  0
POINT
  5
65AA
330
1F
100
AcDbEntity
  8
0
 60
     1
100
AcDbPoint
 10
-60.53597199568503
 20
0.0
 30
0.0
1001
GENIUS_GENOLIS_13
1002
{
1000
ENT
1005
64B6
1005
64B5
1005
64B4
1005
64B3
1002
}
1001
GENIUS_GENOENT_13
1002
{
1000
MYREF
1005
65AA
1002
}
1002
{
1000
GRP
1005
0
1002
}
1001
GENIUS_GENOBJ-N-CRS_13
1002
{
1000
OWNER
1000
GEN
1002
}
1001
GENIUS_GENODEF_13
1002
{
1000
HIER
1070
    10
1002
}
1002
{
1000
MANEDIT
1070
     0
1002
}
1002
{
1000
NOSEL
1070
     0
1002
}
1002
{
1000
BEHIND
1070
     0
1002
}
1002
{
1000
OTHER
1070
     0
1002
}
1002
{
1000
REACTOR
1002
}
  0
POINT
  5
65AB
330
1F
100
AcDbEntity
  8
0
 60
     1
100
AcDbPoint
 10
-60.53597199568503
 20
0.0
 30
0.0
1001
GENIUS_GENODEF_13
1002
{
1000
HIER
1070
    10
1002
}
1002
{
1000
MANEDIT
1070
     0
1002
}
1002
{
1000
NOSEL
1070
     0
1002
}
1002
{
1000
BEHIND
1070
     0
1002
}
1002
{
1000
OTHER
1070
     0
1002
}
1002
{
1000
REACTOR
1002
}
1001
GENIUS_GENOENT_13
1002
{
1000
MYREF
1005
65AB
1002
}
1002
{
1000
GRP
1005
0
1002
}
1001
GENIUS_GENOLIS_13
1002
{
1000
ENT
1005
64B2
1005
64B1
1005
64B0
1005
64AF
1002
}
1001
GENIUS_GENOBJ-N-CRS_13
1002
{
1000
OWNER
1000
GEN
1002
}
  0
POINT
  5
65AC
330
1F
100
AcDbEntity
  8
0
 60
     1
100
AcDbPoint
 10
246.3777038955291
 20
0.0
 30
0.0
1001
GENIUS_GENOLIS_13
1002
{
1000
ENT
1005
653B
1005
653A
1005
6539
1005
6538
1002
}
1001
GENIUS_GENODEF_13
1002
{
1000
HIER
1070
    10
1002
}
1002
{
1000
MANEDIT
1070
     0
1002
}
1002
{
1000
NOSEL
1070
     0
1002
}
1002
{
1000
BEHIND
1070
     0
1002
}
1002
{
1000
OTHER
1070
     0
1002
}
1002
{
1000
REACTOR
1002
}
1001
GENIUS_GENOENT_13
1002
{
1000
MYREF
1005
65AC
1002
}
1002
{
1000
GRP
1005
0
1002
}
1001
GENIUS_GENOBJ-N-CRS_13
1002
{
1000
OWNER
1000
GEN
1002
}
  0
POINT
  5
65AD
330
1F
100
AcDbEntity
  8
0
 60
     1
100
AcDbPoint
 10
246.3777038955291
 20
0.0
 30
0.0
1001
GENIUS_GENODEF_13
1002
{
1000
HIER
1070
    10
1002
}
1002
{
1000
MANEDIT
1070
     0
1002
}
1002
{
1000
NOSEL
1070
     0
1002
}
1002
{
1000
BEHIND
1070
     0
1002
}
1002
{
1000
OTHER
1070
     0
1002
}
1002
{
1000
REACTOR
1002
}
1001
GENIUS_GENOENT_13
1002
{
1000
MYREF
1005
65AD
1002
}
1002
{
1000
GRP
1005
0
1002
}
1001
GENIUS_GENOBJ-N-CRS_13
1002
{
1000
OWNER
1000
GEN
1002
}
1001
GENIUS_GENOLIS_13
1002
{
1000
ENT
1005
6537
1005
6536
1005
6535
1005
6534
1002
}
  0
LINE
  5
6690
330
1F
100
AcDbEntity
  8
AM_VIS
100
AcDbLine
 10
1090.399977357093
 20
985.660399543792
 30
0.0
 11
1070.399977357094
 21
985.660399543792
 31
0.0
  0
LINE
  5
6691
330
1F
100
AcDbEntity
  8
AM_VIS
100
AcDbLine
 10
1090.399977357093
 20
1020.960399543792
 30
0.0
 11
1070.399977357094
 21
1020.960399543792
 31
0.0
  0
LINE
  5
6692
330
1F
100
AcDbEntity
  8
AM_VIS
100
AcDbLine
 10
1070.399977357094
 20
1020.960399543792
 30
0.0
 11
1070.399977357094
 21
985.660399543792
 31
0.0
  0
LINE
  5
6693
330
1F
100
AcDbEntity
  8
AM_0
  6
HIDDEN
 62
     3
 48
0.2
100
AcDbLine
 10
1076.599977357093
 20
993.554149543792
 30
0.0
 11
1070.399977357094
 21
993.360399543792
 31
0.0
  0
LINE
  5
6694
330
1F
100
AcDbEntity
  8
AM_0
  6
HIDDEN
 62
     3
 48
0.2
100
AcDbLine
 10
1076.599977357093
 20
1003.666649543792
 30
0.0
 11
1070.399977357094
 21
1003.860399543792
 31
0.0
  0
LINE
  5
6695
330
1F
100
AcDbEntity
  8
AM_0
  6
HIDDEN
 62
     3
 48
0.2
100
AcDbLine
 10
1076.599977357093
 20
1002.699649543792
 30
0.0
 11
1070.399977357094
 21
1002.893399543792
 31
0.0
  0
LINE
  5
6696
330
1F
100
AcDbEntity
  8
AM_0
  6
HIDDEN
 62
     3
 48
0.2
100
AcDbLine
 10
1076.599977357093
 20
994.521149543792
 30
0.0
 11
1070.399977357094
 21
994.3273995437921
 31
0.0
  0
LINE
  5
6697
330
1F
100
AcDbEntity
  8
AM_7
  6
AM_ISO08W050x2
100
AcDbLine
 10
1079.553288862258
 20
998.610399543792
 30
0.0
 11
1068.995081357523
 21
998.610399543792
 31
0.0
  0
POINT
  5
6698
330
1F
100
AcDbEntity
  8
AM_7
  6
AM_ISO08W050x2
100
AcDbPoint
 10
1074.369977357093
 20
998.610399543792
 30
0.0
  0
LINE
  5
6699
330
1F
100
AcDbEntity
  8
AM_0
  6
HIDDEN
 62
     3
 48
0.2
100
AcDbLine
 10
1076.599977357093
 20
994.521149543792
 30
0.0
 11
1077.960627357093
 21
994.5211495437922
 31
0.0
  0
LINE
  5
669A
330
1F
100
AcDbEntity
  8
AM_0
  6
HIDDEN
 62
     3
 48
0.2
100
AcDbLine
 10
1076.599977357093
 20
1002.699649543792
 30
0.0
 11
1077.960627357093
 21
1002.699649543792
 31
0.0
  0
LINE
  5
669B
330
1F
100
AcDbEntity
  8
AM_0
  6
HIDDEN
 62
     3
 48
0.2
100
AcDbLine
 10
1076.599977357093
 20
1003.666649543792
 30
0.0
 11
1076.599977357093
 21
993.554149543792
 31
0.0
  0
LINE
  5
669C
330
1F
100
AcDbEntity
  8
AM_0
  6
HIDDEN
 62
     3
 48
0.2
100
AcDbLine
 10
1076.599977357093
 20
993.554149543792
 30
0.0
 11
1077.960627357093
 21
994.521149543792
 31
0.0
  0
LINE
  5
669D
330
1F
100
AcDbEntity
  8
AM_0
  6
HIDDEN
 62
     3
 48
0.2
100
AcDbLine
 10
1076.599977357093
 20
1003.666649543792
 30
0.0
 11
1077.960627357093
 21
1002.699649543792
 31
0.0
  0
LINE
  5
669E
330
1F
100
AcDbEntity
  8
AM_0
  6
HIDDEN
 62
     3
 48
0.2
100
AcDbLine
 10
1077.960627357093
 20
994.521149543792
 30
0.0
 11
1077.960627357093
 21
1002.699649543792
 31
0.0
  0
LINE
  5
66B2
330
1F
100
AcDbEntity
  8
AM_7
100
AcDbLine
 10
1152.068947398935
 20
1082.974321673477
 30
0.0
 11
1065.209244982016
 21
1082.974321673477
 31
0.0
1001
GENIUS_GENOBJ-N-CEN_13
1002
{
1000
OWNER
1000
GEN
1002
}
1001
GENIUS_GENODEF_13
1002
{
1000
HIER
1070
     0
1002
}
1002
{
1000
MANEDIT
1070
     0
1002
}
1002
{
1000
NOSEL
1070
     0
1002
}
1002
{
1000
BEHIND
1070
     0
1002
}
1002
{
1000
OTHER
1070
     0
1002
}
1002
{
1000
REACTOR
1002
}
1001
GENIUS_GENCEN_19
1002
{
1040
2.0
1002
}
  0
LINE
  5
66B3
330
1F
100
AcDbEntity
  8
AM_VIS
100
AcDbLine
 10
1090.399977357093
 20
1069.774321673477
 30
0.0
 11
1070.399977357094
 21
1069.774321673477
 31
0.0
  0
LINE
  5
66B4
330
1F
100
AcDbEntity
  8
AM_VIS
100
AcDbLine
 10
1090.399977357093
 20
1096.174321673477
 30
0.0
 11
1070.399977357094
 21
1096.174321673477
 31
0.0
  0
LINE
  5
66B5
330
1F
100
AcDbEntity
  8
AM_VIS
100
AcDbLine
 10
1070.399977357094
 20
1096.174321673477
 30
0.0
 11
1070.399977357094
 21
1069.774321673477
 31
0.0
  0
LINE
  5
66B6
330
1F
100
AcDbEntity
  8
AM_0
  6
HIDDEN
 62
     3
 48
0.2
100
AcDbLine
 10
1076.599977357093
 20
1077.918071673477
 30
0.0
 11
1070.399977357094
 21
1077.724321673477
 31
0.0
  0
LINE
  5
66B7
330
1F
100
AcDbEntity
  8
AM_0
  6
HIDDEN
 62
     3
 48
0.2
100
AcDbLine
 10
1076.599977357093
 20
1088.030571673477
 30
0.0
 11
1070.399977357094
 21
1088.224321673477
 31
0.0
  0
LINE
  5
66B8
330
1F
100
AcDbEntity
  8
AM_0
  6
HIDDEN
 62
     3
 48
0.2
100
AcDbLine
 10
1076.599977357093
 20
1087.063571673477
 30
0.0
 11
1070.399977357094
 21
1087.257321673477
 31
0.0
  0
LINE
  5
66B9
330
1F
100
AcDbEntity
  8
AM_0
  6
HIDDEN
 62
     3
 48
0.2
100
AcDbLine
 10
1076.599977357093
 20
1078.885071673477
 30
0.0
 11
1070.399977357094
 21
1078.691321673477
 31
0.0
  0
LINE
  5
66BA
330
1F
100
AcDbEntity
  8
AM_7
  6
AM_ISO08W050x2
100
AcDbLine
 10
1079.553288862258
 20
1082.974321673477
 30
0.0
 11
1068.995081357523
 21
1082.974321673477
 31
0.0
  0
POINT
  5
66BB
330
1F
100
AcDbEntity
  8
AM_7
  6
AM_ISO08W050x2
100
AcDbPoint
 10
1074.369977357093
 20
1082.974321673477
 30
0.0
  0
LINE
  5
66BC
330
1F
100
AcDbEntity
  8
AM_0
  6
HIDDEN
 62
     3
 48
0.2
100
AcDbLine
 10
1076.599977357093
 20
1078.885071673477
 30
0.0
 11
1077.960627357093
 21
1078.885071673477
 31
0.0
  0
LINE
  5
66BD
330
1F
100
AcDbEntity
  8
AM_0
  6
HIDDEN
 62
     3
 48
0.2
100
AcDbLine
 10
1076.599977357093
 20
1087.063571673477
 30
0.0
 11
1077.960627357093
 21
1087.063571673477
 31
0.0
  0
LINE
  5
66BE
330
1F
100
AcDbEntity
  8
AM_0
  6
HIDDEN
 62
     3
 48
0.2
100
AcDbLine
 10
1076.599977357093
 20
1088.030571673477
 30
0.0
 11
1076.599977357093
 21
1077.918071673477
 31
0.0
  0
LINE
  5
66BF
330
1F
100
AcDbEntity
  8
AM_0
  6
HIDDEN
 62
     3
 48
0.2
100
AcDbLine
 10
1076.599977357093
 20
1077.918071673477
 30
0.0
 11
1077.960627357093
 21
1078.885071673477
 31
0.0
  0
LINE
  5
66C0
330
1F
100
AcDbEntity
  8
AM_0
  6
HIDDEN
 62
     3
 48
0.2
100
AcDbLine
 10
1076.599977357093
 20
1088.030571673477
 30
0.0
 11
1077.960627357093
 21
1087.063571673477
 31
0.0
  0
LINE
  5
66C1
330
1F
100
AcDbEntity
  8
AM_0
  6
HIDDEN
 62
     3
 48
0.2
100
AcDbLine
 10
1077.960627357093
 20
1078.885071673477
 30
0.0
 11
1077.960627357093
 21
1087.063571673477
 31
0.0
  0
LINE
  5
66C2
330
1F
100
AcDbEntity
  8
AM_VIS
100
AcDbLine
 10
1090.399977357093
 20
916.8117974582431
 30
0.0
 11
1070.399977357094
 21
916.8117974582431
 31
0.0
  0
LINE
  5
66C3
330
1F
100
AcDbEntity
  8
AM_VIS
100
AcDbLine
 10
1090.399977357093
 20
943.2117974582428
 30
0.0
 11
1070.399977357094
 21
943.2117974582428
 31
0.0
  0
LINE
  5
66C4
330
1F
100
AcDbEntity
  8
AM_VIS
100
AcDbLine
 10
1070.399977357094
 20
943.2117974582428
 30
0.0
 11
1070.399977357094
 21
916.8117974582431
 31
0.0
  0
LINE
  5
66C5
330
1F
100
AcDbEntity
  8
AM_0
  6
HIDDEN
 62
     3
 48
0.2
100
AcDbLine
 10
1076.599977357093
 20
924.9555474582431
 30
0.0
 11
1070.399977357094
 21
924.761797458243
 31
0.0
  0
LINE
  5
66C6
330
1F
100
AcDbEntity
  8
AM_0
  6
HIDDEN
 62
     3
 48
0.2
100
AcDbLine
 10
1076.599977357093
 20
935.068047458243
 30
0.0
 11
1070.399977357094
 21
935.2617974582429
 31
0.0
  0
LINE
  5
66C7
330
1F
100
AcDbEntity
  8
AM_0
  6
HIDDEN
 62
     3
 48
0.2
100
AcDbLine
 10
1076.599977357093
 20
934.101047458243
 30
0.0
 11
1070.399977357094
 21
934.2947974582429
 31
0.0
  0
LINE
  5
66C8
330
1F
100
AcDbEntity
  8
AM_0
  6
HIDDEN
 62
     3
 48
0.2
100
AcDbLine
 10
1076.599977357093
 20
925.922547458243
 30
0.0
 11
1070.399977357094
 21
925.728797458243
 31
0.0
  0
LINE
  5
66C9
330
1F
100
AcDbEntity
  8
AM_7
  6
AM_ISO08W050x2
100
AcDbLine
 10
1079.553288862258
 20
930.011797458243
 30
0.0
 11
1068.995081357523
 21
930.011797458243
 31
0.0
  0
POINT
  5
66CA
330
1F
100
AcDbEntity
  8
AM_7
  6
AM_ISO08W050x2
100
AcDbPoint
 10
1074.369977357093
 20
930.011797458243
 30
0.0
  0
LINE
  5
66CB
330
1F
100
AcDbEntity
  8
AM_0
  6
HIDDEN
 62
     3
 48
0.2
100
AcDbLine
 10
1076.599977357093
 20
925.922547458243
 30
0.0
 11
1077.960627357093
 21
925.922547458243
 31
0.0
  0
LINE
  5
66CC
330
1F
100
AcDbEntity
  8
AM_0
  6
HIDDEN
 62
     3
 48
0.2
100
AcDbLine
 10
1076.599977357093
 20
934.101047458243
 30
0.0
 11
1077.960627357093
 21
934.101047458243
 31
0.0
  0
LINE
  5
66CD
330
1F
100
AcDbEntity
  8
AM_0
  6
HIDDEN
 62
     3
 48
0.2
100
AcDbLine
 10
1076.599977357093
 20
935.068047458243
 30
0.0
 11
1076.599977357093
 21
924.9555474582431
 31
0.0
  0
LINE
  5
66CE
330
1F
100
AcDbEntity
  8
AM_0
  6
HIDDEN
 62
     3
 48
0.2
100
AcDbLine
 10
1076.599977357093
 20
924.9555474582431
 30
0.0
 11
1077.960627357093
 21
925.922547458243
 31
0.0
  0
LINE
  5
66CF
330
1F
100
AcDbEntity
  8
AM_0
  6
HIDDEN
 62
     3
 48
0.2
100
AcDbLine
 10
1076.599977357093
 20
935.068047458243
 30
0.0
 11
1077.960627357093
 21
934.101047458243
 31
0.0
  0
LINE
  5
66D0
330
1F
100
AcDbEntity
  8
AM_0
  6
HIDDEN
 62
     3
 48
0.2
100
AcDbLine
 10
1077.960627357093
 20
925.922547458243
 30
0.0
 11
1077.960627357093
 21
934.101047458243
 31
0.0
  0
DIMENSION
  5
6EB5
330
1F
100
AcDbEntity
  8
AM_5
100
AcDbDimension
  2
*D16
 10
1175.399977357094
 20
1016.960399543792
 30
0.0
 11
1175.399977357093
 21
1032.322899543792
 31
0.0
 70
   160
 71
     5
 42
4.0
  3
AM_ISO$0
100
AcDbAlignedDimension
 13
1160.399977357093
 23
1020.960399543792
 33
0.0
 14
1124.399977357096
 24
1016.960399543792
 34
0.0
 50
90.0
100
AcDbRotatedDimension
1001
ACAD
1000
DSTYLE
1002
{
1070
    40
1040
1.5
1070
   271
1070
     0
1070
   272
1070
     8
1002
}
  0
DIMENSION
  5
6ED1
330
1F
100
AcDbEntity
  8
AM_5
100
AcDbDimension
  2
*D17
 10
1160.399977357093
 20
1035.960399543792
 30
0.0
 11
1115.399977357093
 21
1035.960399543792
 31
0.0
 70
   160
 71
     5
 42
90.0
  3
AM_ISO$0
100
AcDbAlignedDimension
 13
1070.399977357094
 23
1020.960399543792
 33
0.0
 14
1160.399977357093
 24
1020.960399543792
 34
0.0
100
AcDbRotatedDimension
1001
ACAD
1000
DSTYLE
1002
{
1070
    40
1040
1.5
1070
   272
1070
     8
1002
}
  0
TEXT
  5
6F4D
330
1F
100
AcDbEntity
  8
AM_5
100
AcDbText
 10
1173.357187285158
 20
1093.466123675598
 30
0.0
 40
5.25
  1
2-PT1/8
100
AcDbText
  0
INSERT
  5
6F4E
330
1F
100
AcDbEntity
  8
AM_VIS
100
AcDbBlockReference
  2
*S22
 10
0.0
 20
0.0
 30
0.0
  0
TEXT
  5
743F
330
1F
100
AcDbEntity
  8
AM_5
100
AcDbText
 10
1070.285549278193
 20
955.0229490391114
 30
0.0
 40
5.95
  1
PT1/4
100
AcDbText
  0
INSERT
  5
7440
330
1F
100
AcDbEntity
  8
AM_5
100
AcDbBlockReference
  2
*S23
 10
0.0
 20
0.0
 30
0.0
  0
LINE
  5
76D8
330
1F
100
AcDbEntity
  8
0
100
AcDbLine
 10
1193.801378690133
 20
985.6603995437923
 30
0.0
 11
1220.201378690133
 21
985.6603995437922
 31
0.0
  0
LINE
  5
76D9
330
1F
100
AcDbEntity
  8
0
100
AcDbLine
 10
1193.801378690133
 20
1020.960399543792
 30
0.0
 11
1220.201378690133
 21
1020.960399543792
 31
0.0
  0
LINE
  5
76DA
330
1F
100
AcDbEntity
  8
0
100
AcDbLine
 10
1193.801378690133
 20
985.6603995437923
 30
0.0
 11
1193.801378690133
 21
1020.960399543792
 31
0.0
  0
LINE
  5
76DB
330
1F
100
AcDbEntity
  8
0
100
AcDbLine
 10
1220.201378690133
 20
985.6603995437922
 30
0.0
 11
1220.201378690133
 21
1020.960399543792
 31
0.0
  0
ARC
  5
76DC
330
1F
100
AcDbEntity
  8
AM_4
100
AcDbCircle
 10
1207.001378690133
 20
998.610399543792
 30
0.0
 40
4.863999999999999
100
AcDbArc
 50
259.999999999995
 51
170.0000000000025
  0
LINE
  5
76DD
330
1F
100
AcDbEntity
  8
AM_7
  6
AM_ISO08W050x2
100
AcDbLine
 10
1207.001378690133
 20
1004.974399543792
 30
0.0
 11
1207.001378690133
 21
992.2463995437921
 31
0.0
  0
CIRCLE
  5
76DE
330
1F
100
AcDbEntity
  8
AM_0
100
AcDbCircle
 10
1207.001378690133
 20
998.610399543792
 30
0.0
 40
4.283
  0
LINE
  5
76DF
330
1F
100
AcDbEntity
  8
AM_7
  6
AM_ISO08W050x2
100
AcDbLine
 10
1200.637378690133
 20
998.610399543792
 30
0.0
 11
1213.365378690133
 21
998.610399543792
 31
0.0
  0
LINE
  5
777C
330
1F
100
AcDbEntity
  8
LOGO
 62
     4
100
AcDbLine
 10
1228.807119705437
 20
887.8202402473924
 30
0.0
 11
1034.127262603084
 21
887.8202402473924
 31
0.0
  0
LWPOLYLINE
  5
777D
330
1F
100
AcDbEntity
  8
LOGO
 62
     4
100
AcDbPolyline
 90
        4
 70
     1
 43
0.0
 10
1034.127262603084
 20
887.8202402473924
 10
1228.807119705437
 20
887.8202402473924
 10
1228.807119705437
 20
1126.411864925056
 10
1034.127262603084
 20
1126.411864925056
1001
GENIUS_GENREC_14
1002
{
1000
PYDIR
1011
1034.127262603084
1021
1126.411864925056
1031
0.0
1002
}
1002
{
1000
PXDIR
1011
1228.807119705437
1021
887.8202402473924
1031
0.0
1002
}
1002
{
1000
PORI
1011
1034.127262603084
1021
887.8202402473924
1031
0.0
1002
}
1002
{
1000
PINS
1011
1034.127262603084
1021
887.8202402473924
1031
0.0
1002
}
1002
{
1000
PINS2
1011
1228.807119705437
1021
1126.411864925056
1031
0.0
1002
}
1002
{
1000
C
1070
     1
1002
}
1001
GENIUS_GENODEF_13
1002
{
1000
HIER
1070
     0
1002
}
1002
{
1000
MANEDIT
1070
     0
1002
}
1002
{
1000
NOSEL
1070
     0
1002
}
1002
{
1000
BEHIND
1070
     0
1002
}
1002
{
1000
OTHER
1070
     0
1002
}
1002
{
1000
REACTOR
1002
}
1001
GENIUS_GENOBJ-N-REC_13
1002
{
1000
OWNER
1000
GEN
1002
}
  0
LWPOLYLINE
  5
777E
330
1F
100
AcDbEntity
  8
LOGO
 62
     4
100
AcDbPolyline
 90
        4
 70
     1
 43
0.0
 10
1034.127262603084
 20
887.8202402473924
 10
1228.807119705437
 20
887.8202402473924
 10
1228.807119705437
 20
864.9755485550846
 10
1034.127262603084
 20
864.9755485550846
1001
GENIUS_GENREC_14
1002
{
1000
PYDIR
1011
1034.127262603084
1021
864.9755485550846
1031
0.0
1002
}
1002
{
1000
PXDIR
1011
1228.807119705437
1021
887.8202402473924
1031
0.0
1002
}
1002
{
1000
PORI
1011
1034.127262603084
1021
887.8202402473924
1031
0.0
1002
}
1002
{
1000
PINS
1011
1034.127262603084
1021
887.8202402473924
1031
0.0
1002
}
1002
{
1000
PINS2
1011
1228.807119705437
1021
864.9755485550846
1031
0.0
1002
}
1002
{
1000
C
1070
     1
1002
}
1001
GENIUS_GENOBJ-N-REC_13
1002
{
1000
OWNER
1000
GEN
1002
}
1001
GENIUS_GENODEF_13
1002
{
1000
HIER
1070
     0
1002
}
1002
{
1000
MANEDIT
1070
     0
1002
}
1002
{
1000
NOSEL
1070
     0
1002
}
1002
{
1000
BEHIND
1070
     0
1002
}
1002
{
1000
OTHER
1070
     0
1002
}
1002
{
1000
REACTOR
1002
}
  0
TEXT
  5
777F
330
1F
100
AcDbEntity
  8
LOGO
 62
     7
100
AcDbText
 10
1085.709063796167
 20
877.8123695526389
 30
0.0
 40
3.045958892307691
  1
Order example:
 41
0.8
  7
CHINESET
100
AcDbText
  0
TEXT
  5
7780
330
1F
100
AcDbEntity
  8
LOGO
 62
     7
100
AcDbText
 10
1086.255534010502
 20
882.1004489991722
 30
0.0
 40
4.568938338461538
  1
訂購代號：
  7
CHINESET
100
AcDbText
  0
LINE
  5
7781
330
1F
100
AcDbEntity
  8
LOGO
 62
     4
100
AcDbLine
 10
1084.38558432616
 20
864.9755485550846
 30
0.0
 11
1084.38558432616
 21
887.8202402473924
 31
0.0
  0
TEXT
  5
7782
330
1F
100
AcDbEntity
  8
LOGO
  6
Continuous
100
AcDbText
 10
1042.333178547837
 20
869.4633537623927
 30
0.0
 40
3.426703753846153
  1
金器工業股份有限公司
  7
CHINESET
100
AcDbText
  0
TEXT
  5
7783
330
1F
100
AcDbEntity
  8
LOGO
  6
Continuous
100
AcDbText
 10
1036.039001691926
 20
866.0359786432749
 30
0.0
 40
2.284469169230769
  1
MINDMAN INDUSTRIAL CO., LTD.
 41
0.85
  7
CHINESET
100
AcDbText
  0
LINE
  5
7784
330
1F
100
AcDbEntity
  8
LOGO
 62
     4
100
AcDbLine
 10
1084.38558432616
 20
883.251301908931
 30
0.0
 11
1050.880036510776
 21
883.251301908931
 31
0.0
  0
LINE
  5
7785
330
1F
100
AcDbEntity
  8
LOGO
 62
     4
100
AcDbLine
 10
1084.38558432616
 20
878.6823635704692
 30
0.0
 11
1050.880036510776
 21
878.6823635704692
 31
0.0
  0
LINE
  5
7786
330
1F
100
AcDbEntity
  8
LOGO
 62
     4
100
AcDbLine
 10
1084.38558432616
 20
874.113425232008
 30
0.0
 11
1034.127262603084
 21
874.113425232008
 31
0.0
  0
LINE
  5
7787
330
1F
100
AcDbEntity
  8
LOGO
 62
     4
100
AcDbLine
 10
1050.880036510776
 20
874.113425232008
 30
0.0
 11
1050.880036510776
 21
887.8202402473924
 31
0.0
  0
TEXT
  5
7788
330
1F
100
AcDbEntity
  8
LOGO
100
AcDbText
 10
1073.779497004823
 20
875.2556598166231
 30
0.0
 40
2.284469169230769
  1
mm
  7
CHINESET
 72
     1
 11
1076.607887404823
 21
876.3978944012386
 31
0.0
100
AcDbText
 73
     2
  0
TEXT
  5
7789
330
1F
100
AcDbEntity
  8
LOGO
100
AcDbText
 10
1072.58287029713
 20
884.3935364935461
 30
0.0
 40
2.284469169230769
  1
1 : 1
  7
CHINESET
 72
     1
 11
1076.607887404823
 21
885.5357710781616
 31
0.0
100
AcDbText
 73
     2
  0
LINE
  5
778A
330
1F
100
AcDbEntity
  8
LOGO
 62
     4
100
AcDbLine
 10
1069.155789864622
 20
874.113425232008
 30
0.0
 11
1069.155789864622
 21
887.8202402473924
 31
0.0
  0
TEXT
  5
778B
330
1F
100
AcDbEntity
  8
LOGO
100
AcDbText
 10
1052.763703723084
 20
884.3946607401845
 30
149.7203459082809
 40
2.284469169230769
  1
比例 Scale:
 41
0.9
  7
CHINESET
 72
     4
 11
1060.017913187699
 21
885.5357710781616
 31
149.7203459082809
100
AcDbText
  0
TEXT
  5
778C
330
1F
100
AcDbEntity
  8
LOGO
100
AcDbText
 10
1052.632142775391
 20
879.8567328714989
 30
149.7203459082809
 40
2.284469169230769
  1
投影  View:
 41
0.9
  7
CHINESET
 72
     4
 11
1060.017913187699
 21
880.9668327397
 31
149.7203459082809
100
AcDbText
  0
TEXT
  5
778D
330
1F
100
AcDbEntity
  8
LOGO
100
AcDbText
 10
1052.855490430776
 20
875.2556598166231
 30
149.7203459082809
 40
2.284469169230769
  1
單位  Unit:
 41
0.9
  7
CHINESET
 72
     4
 11
1060.017913187699
 21
876.3978944012386
 31
149.7203459082809
100
AcDbText
  0
SOLID
  5
778E
330
1F
100
AcDbEntity
  8
LOGO
 62
     5
100
AcDbTrace
 10
1036.497436029102
 20
877.9110300572734
 30
0.0
 11
1037.485180553406
 21
877.911030057273
 31
0.0
 12
1041.606459430676
 22
887.2775729601599
 32
0.0
 13
1042.594203954981
 23
887.2775729601594
 33
0.0
  0
SOLID
  5
778F
330
1F
100
AcDbEntity
  8
LOGO
 62
     5
100
AcDbTrace
 10
1037.893902425534
 20
877.9110300572734
 30
0.0
 11
1038.881646949838
 21
877.9110300572734
 31
0.0
 12
1042.594203954981
 22
886.5282495279286
 32
0.0
 13
1041.606459430676
 23
882.9065196054791
 33
0.0
  0
SOLID
  5
7790
330
1F
100
AcDbEntity
  8
LOGO
 62
     2
100
AcDbTrace
 10
1037.485180553406
 20
877.911030057273
 30
0.0
 11
1037.893902425534
 21
877.9110300572734
 31
0.0
 12
1042.594203954981
 22
887.2775729601594
 32
0.0
 13
1043.002925827107
 23
887.2775729601594
 33
0.0
  0
SOLID
  5
7791
330
1F
100
AcDbEntity
  8
LOGO
 62
     5
100
AcDbTrace
 10
1034.913839332014
 20
874.5050144562238
 30
0.0
 11
1035.254440892119
 21
874.5050144562238
 31
0.0
 12
1036.213601395681
 22
876.2080222567485
 32
0.0
 13
1036.554202955786
 23
876.2080222567485
 33
0.0
  0
SOLID
  5
7792
330
1F
100
AcDbEntity
  8
LOGO
 62
     5
100
AcDbTrace
 10
1036.213601395681
 20
876.2080222567485
 30
0.0
 11
1036.554202955786
 21
876.2080222567485
 31
0.0
 12
1036.213601395681
 22
874.5050144562238
 32
0.0
 13
1036.554202955786
 23
874.5050144562238
 33
0.0
  0
SOLID
  5
7793
330
1F
100
AcDbEntity
  8
LOGO
 62
     5
100
AcDbTrace
 10
1036.213601395681
 20
874.5050144562238
 30
0.0
 11
1036.554202955786
 21
874.5050144562238
 31
0.0
 12
1037.51336345935
 22
876.2080222567485
 32
0.0
 13
1037.853965019454
 23
876.2080222567485
 33
0.0
  0
SOLID
  5
7794
330
1F
100
AcDbEntity
  8
LOGO
 62
     5
100
AcDbTrace
 10
1037.51336345935
 20
876.2080222567485
 30
0.0
 11
1037.853965019454
 21
876.2080222567485
 31
0.0
 12
1037.51336345935
 22
874.5050144562238
 32
0.0
 13
1037.853965019454
 23
874.5050144562238
 33
0.0
  0
POLYLINE
  5
7795
330
1F
100
AcDbEntity
  8
LOGO
 62
     5
100
AcDb2dPolyline
 66
     1
 10
0.0
 20
0.0
 30
0.0
 40
0.3411473959384614
 41
0.3411473959384614
  0
VERTEX
  5
7796
330
7795
100
AcDbEntity
  8
LOGO
 62
     5
100
AcDbVertex
100
AcDb2dVertex
 10
1048.930211726684
 20
875.5268191365386
 30
0.0
 42
1.0
  0
VERTEX
  5
7797
330
7795
100
AcDbEntity
  8
LOGO
 62
     5
100
AcDbVertex
100
AcDb2dVertex
 10
1047.906769538869
 20
875.5268191365386
 30
0.0
 42
1.0
  0
SEQEND
  5
7798
330
7795
100
AcDbEntity
  8
LOGO
 62
     5
  0
POLYLINE
  5
7799
330
1F
100
AcDbEntity
  8
LOGO
 62
     5
100
AcDb2dPolyline
 66
     1
 10
0.0
 20
0.0
 30
0.0
 70
     1
  0
VERTEX
  5
779A
330
7799
100
AcDbEntity
  8
LOGO
 62
     5
100
AcDbVertex
100
AcDb2dVertex
 10
1045.977535492127
 20
875.3565183564861
 30
0.0
 42
1.000000057330635
  0
VERTEX
  5
779B
330
7799
100
AcDbEntity
  8
LOGO
 62
     5
100
AcDbVertex
100
AcDb2dVertex
 10
1046.999340172442
 20
875.3565183564861
 30
0.0
 42
1.000000057330635
  0
SEQEND
  5
779C
330
7799
100
AcDbEntity
  8
LOGO
 62
     5
  0
CIRCLE
  5
779D
330
1F
100
AcDbEntity
  8
LOGO
 62
     5
100
AcDbCircle
 10
1046.488437832286
 20
875.3565183564861
 30
0.0
 40
0.5109023401574399
  0
POLYLINE
  5
779E
330
1F
100
AcDbEntity
  8
LOGO
 62
     5
100
AcDb2dPolyline
 66
     1
 10
0.0
 20
0.0
 30
0.0
 70
     1
 40
0.3411473959384614
 41
0.3411473959384614
  0
VERTEX
  5
779F
330
779E
100
AcDbEntity
  8
LOGO
 62
     5
100
AcDbVertex
100
AcDb2dVertex
 10
1045.806143040408
 20
875.3565183564861
 30
0.0
 42
1.0
  0
VERTEX
  5
77A0
330
779E
100
AcDbEntity
  8
LOGO
 62
     5
100
AcDbVertex
100
AcDb2dVertex
 10
1047.170732624162
 20
875.3565183564861
 30
0.0
 42
1.0
  0
SEQEND
  5
77A1
330
779E
100
AcDbEntity
  8
LOGO
 62
     5
  0
LINE
  5
77A2
330
1F
100
AcDbEntity
  8
LOGO
100
AcDbLine
 10
1049.099693752985
 20
874.5050144562238
 30
0.0
 11
1049.099693752985
 21
875.5268191365386
 31
0.0
  0
SOLID
  5
77A3
330
1F
100
AcDbEntity
  8
LOGO
 62
     5
100
AcDbTrace
 10
1046.999306112288
 20
876.2080222567485
 30
0.0
 11
1047.339907672392
 21
876.2080222567485
 31
0.0
 12
1046.999306112288
 22
874.5050144562238
 32
0.0
 13
1047.339907672392
 23
874.5050144562238
 33
0.0
  0
SOLID
  5
77A4
330
1F
100
AcDbEntity
  8
LOGO
 62
     5
100
AcDbTrace
 10
1047.737287512566
 20
874.5050144562238
 30
0.0
 11
1048.077889072671
 21
874.5050144562238
 31
0.0
 12
1047.737287512566
 22
876.2080222567485
 32
0.0
 13
1048.077889072671
 23
876.2080222567485
 33
0.0
  0
SOLID
  5
77A5
330
1F
100
AcDbEntity
  8
LOGO
 62
     5
100
AcDbTrace
 10
1048.759092192881
 20
875.5268191365386
 30
0.0
 11
1049.099693752985
 21
875.5268191365386
 31
0.0
 12
1048.759092192881
 22
874.5050144562238
 32
0.0
 13
1049.099693752985
 23
874.5050144562238
 33
0.0
  0
SOLID
  5
77A6
330
1F
100
AcDbEntity
  8
LOGO
 62
     5
100
AcDbTrace
 10
1047.703227356555
 20
886.5282495279286
 30
0.0
 11
1046.715482832252
 21
882.9065196054791
 31
0.0
 12
1047.703227356555
 22
877.911030057273
 32
0.0
 13
1046.715482832252
 23
877.911030057273
 33
0.0
  0
SOLID
  5
77A7
330
1F
100
AcDbEntity
  8
LOGO
 62
     5
100
AcDbTrace
 10
1048.111949228682
 20
877.911030057273
 30
0.0
 11
1049.099693752985
 21
877.911030057273
 31
0.0
 12
1048.111949228682
 22
887.2775729601594
 32
0.0
 13
1049.099693752985
 23
887.2775729601599
 33
0.0
  0
SOLID
  5
77A8
330
1F
100
AcDbEntity
  8
LOGO
 62
     2
100
AcDbTrace
 10
1047.703227356555
 20
887.2775729601599
 30
0.0
 11
1048.111949228682
 21
887.2775729601594
 31
0.0
 12
1047.703227356555
 22
877.911030057273
 32
0.0
 13
1048.111949228682
 23
877.911030057273
 33
0.0
  0
POLYLINE
  5
77A9
330
1F
100
AcDbEntity
  8
LOGO
 62
     5
100
AcDb2dPolyline
 66
     1
 10
0.0
 20
0.0
 30
0.0
 40
0.3411473959384614
 41
0.3411473959384614
  0
VERTEX
  5
77AA
330
77A9
100
AcDbEntity
  8
LOGO
 62
     5
100
AcDbVertex
100
AcDb2dVertex
 10
1044.048233325076
 20
875.5268191365386
 30
0.0
 42
1.0
  0
VERTEX
  5
77AB
330
77A9
100
AcDbEntity
  8
LOGO
 62
     5
100
AcDbVertex
100
AcDb2dVertex
 10
1043.02479113726
 20
875.5268191365386
 30
0.0
 42
1.0
  0
SEQEND
  5
77AC
330
77A9
100
AcDbEntity
  8
LOGO
 62
     5
  0
POLYLINE
  5
77AD
330
1F
100
AcDbEntity
  8
LOGO
 62
     5
100
AcDb2dPolyline
 66
     1
 10
0.0
 20
0.0
 30
0.0
 40
0.3411473959384614
 41
0.3411473959384614
  0
VERTEX
  5
77AE
330
77AD
100
AcDbEntity
  8
LOGO
 62
     5
100
AcDbVertex
100
AcDb2dVertex
 10
1045.070038005389
 20
875.5268191365386
 30
0.0
 42
1.0
  0
VERTEX
  5
77AF
330
77AD
100
AcDbEntity
  8
LOGO
 62
     5
100
AcDbVertex
100
AcDb2dVertex
 10
1044.046595817574
 20
875.5268191365386
 30
0.0
 42
1.0
  0
SEQEND
  5
77B0
330
77AD
100
AcDbEntity
  8
LOGO
 62
     5
  0
POLYLINE
  5
77B1
330
1F
100
AcDbEntity
  8
LOGO
 62
     5
100
AcDb2dPolyline
 66
     1
 10
0.0
 20
0.0
 30
0.0
 40
0.3411473959384614
 41
0.3411473959384614
  0
VERTEX
  5
77B2
330
77B1
100
AcDbEntity
  8
LOGO
 62
     5
100
AcDbVertex
100
AcDb2dVertex
 10
1040.188059603782
 20
875.5268191365386
 30
0.0
 42
1.0
  0
VERTEX
  5
77B3
330
77B1
100
AcDbEntity
  8
LOGO
 62
     5
100
AcDbVertex
100
AcDb2dVertex
 10
1039.164617415966
 20
875.5268191365386
 30
0.0
 42
1.0
  0
SEQEND
  5
77B4
330
77B1
100
AcDbEntity
  8
LOGO
 62
     5
  0
SOLID
  5
77B5
330
1F
100
AcDbEntity
  8
LOGO
 62
     5
100
AcDbTrace
 10
1038.995135389664
 20
876.2080222567485
 30
0.0
 11
1039.335736949769
 21
876.2080222567485
 31
0.0
 12
1038.995135389664
 22
874.5050144562238
 32
0.0
 13
1039.335736949769
 23
874.5050144562238
 33
0.0
  0
SOLID
  5
77B6
330
1F
100
AcDbEntity
  8
LOGO
 62
     5
100
AcDbTrace
 10
1040.016940069979
 20
875.5268191365386
 30
0.0
 11
1040.357541630084
 21
875.5268191365386
 31
0.0
 12
1040.016940069979
 22
874.5050144562238
 32
0.0
 13
1040.357541630084
 23
874.5050144562238
 33
0.0
  0
POLYLINE
  5
77B7
330
1F
100
AcDbEntity
  8
LOGO
 62
     5
100
AcDb2dPolyline
 66
     1
 10
0.0
 20
0.0
 30
0.0
 70
     1
 40
0.3411473959384614
 41
0.3411473959384614
  0
VERTEX
  5
77B8
330
77B7
100
AcDbEntity
  8
LOGO
 62
     5
100
AcDbVertex
100
AcDb2dVertex
 10
1040.924164638799
 20
875.3565183564861
 30
0.0
 42
1.0
  0
VERTEX
  5
77B9
330
77B7
100
AcDbEntity
  8
LOGO
 62
     5
100
AcDbVertex
100
AcDb2dVertex
 10
1042.288754222554
 20
875.3565183564861
 30
0.0
 42
1.0
  0
SEQEND
  5
77BA
330
77B7
100
AcDbEntity
  8
LOGO
 62
     5
  0
SOLID
  5
77BB
330
1F
100
AcDbEntity
  8
LOGO
 62
     5
100
AcDbTrace
 10
1042.117327710678
 20
876.7189245969062
 30
0.0
 11
1042.457929270783
 21
876.7189245969062
 31
0.0
 12
1042.117327710678
 22
874.5050144562238
 32
0.0
 13
1042.457929270783
 23
874.5050144562238
 33
0.0
  0
SOLID
  5
77BC
330
1F
100
AcDbEntity
  8
LOGO
 62
     5
100
AcDbTrace
 10
1042.855309110959
 20
876.2080222567485
 30
0.0
 11
1043.195910671063
 21
876.2080222567485
 31
0.0
 12
1042.855309110959
 22
874.5050144562238
 32
0.0
 13
1043.195910671063
 23
874.5050144562238
 33
0.0
  0
SOLID
  5
77BD
330
1F
100
AcDbEntity
  8
LOGO
 62
     5
100
AcDbTrace
 10
1043.877113791273
 20
875.5268191365386
 30
0.0
 11
1044.217715351378
 21
875.5268191365386
 31
0.0
 12
1043.877113791273
 22
874.5050144562238
 32
0.0
 13
1044.217715351378
 23
874.5050144562238
 33
0.0
  0
SOLID
  5
77BE
330
1F
100
AcDbEntity
  8
LOGO
 62
     5
100
AcDbTrace
 10
1044.898918471588
 20
875.5268191365386
 30
0.0
 11
1045.239520031692
 21
875.5268191365386
 31
0.0
 12
1044.898918471588
 22
874.5050144562233
 32
0.0
 13
1045.239520031692
 23
874.5050144562233
 33
0.0
  0
SOLID
  5
77BF
330
1F
100
AcDbEntity
  8
LOGO
 62
     5
100
AcDbTrace
 10
1038.257153989385
 20
876.4464433488221
 30
0.0
 11
1038.59775554949
 21
876.4464433488221
 31
0.0
 12
1038.257153989385
 22
876.7189245969062
 32
0.0
 13
1038.59775554949
 23
876.7189245969062
 33
0.0
  0
SOLID
  5
77C0
330
1F
100
AcDbEntity
  8
LOGO
 62
     5
100
AcDbTrace
 10
1038.257153989385
 20
876.2080222567485
 30
0.0
 11
1038.59775554949
 21
876.2080222567485
 31
0.0
 12
1038.257153989385
 22
874.5050144562233
 32
0.0
 13
1038.59775554949
 23
874.5050144562238
 33
0.0
  0
SOLID
  5
77C1
330
1F
100
AcDbEntity
  8
LOGO
 62
     5
100
AcDbTrace
 10
1041.606459430676
 20
877.9110300572734
 30
0.0
 11
1042.594203954981
 21
877.9110300572734
 31
0.0
 12
1041.606459430676
 22
882.9065196054791
 32
0.0
 13
1042.594203954981
 23
886.5282495279286
 33
0.0
  0
SOLID
  5
77C2
330
1F
100
AcDbEntity
  8
LOGO
 62
     5
100
AcDbTrace
 10
1043.002925827107
 20
887.2775729601594
 30
0.0
 11
1043.990670351411
 21
887.2775729601599
 31
0.0
 12
1043.002925827107
 22
878.6603534895041
 32
0.0
 13
1043.990670351411
 23
882.2820834119536
 33
0.0
  0
SOLID
  5
77C3
330
1F
100
AcDbEntity
  8
LOGO
 62
     2
100
AcDbTrace
 10
1042.594203954981
 20
887.2775729601594
 30
0.0
 11
1043.002925827107
 21
887.2775729601594
 31
0.0
 12
1042.594203954981
 22
877.9110300572734
 32
0.0
 13
1043.002925827107
 23
877.9110300572734
 33
0.0
  0
SOLID
  5
77C4
330
1F
100
AcDbEntity
  8
LOGO
 62
     5
100
AcDbTrace
 10
1043.002925827107
 20
878.6603534895041
 30
0.0
 11
1043.990670351411
 21
882.2820834119536
 31
0.0
 12
1047.703227356555
 22
887.2775729601599
 32
0.0
 13
1046.715482832252
 23
887.2775729601599
 33
0.0
  0
SOLID
  5
77C5
330
1F
100
AcDbEntity
  8
LOGO
 62
     5
100
AcDbTrace
 10
1043.002925827107
 20
877.9110300572734
 30
0.0
 11
1043.990670351411
 21
877.9110300572734
 31
0.0
 12
1047.703227356555
 22
886.5282495279286
 32
0.0
 13
1046.715482832252
 23
882.9065196054791
 33
0.0
  0
SOLID
  5
77C6
330
1F
100
AcDbEntity
  8
LOGO
 62
     2
100
AcDbTrace
 10
1042.594203954981
 20
877.9110300572734
 30
0.0
 11
1043.002925827107
 21
877.9110300572734
 31
0.0
 12
1047.703227356555
 22
887.2775729601599
 32
0.0
 13
1048.111949228682
 23
887.2775729601594
 33
0.0
  0
LINE
  5
77C7
330
1F
100
AcDbEntity
  8
LOGO
 62
     4
100
AcDbLine
 10
1126.641065775077
 20
875.2556598166234
 30
0.0
 11
1126.641065775077
 21
866.8792728627769
 31
0.0
  0
LINE
  5
77C8
330
1F
100
AcDbEntity
  8
LOGO
 62
     4
100
AcDbLine
 10
1115.807443850042
 20
875.2556598166234
 30
0.0
 11
1115.807443850042
 21
866.8792728627769
 31
0.0
  0
LINE
  5
77C9
330
1F
100
AcDbEntity
  8
LOGO
 62
     4
100
AcDbLine
 10
1126.641065775077
 20
866.8792728627769
 30
0.0
 11
1115.807443850042
 21
866.8792728627769
 31
0.0
  0
LINE
  5
77CA
330
1F
100
AcDbEntity
  8
LOGO
 62
     4
100
AcDbLine
 10
1133.932304218541
 20
885.5357710781616
 30
0.0
 11
1115.807443850042
 21
885.5357710781616
 31
0.0
  0
LINE
  5
77CB
330
1F
100
AcDbEntity
  8
LOGO
 62
     4
100
AcDbLine
 10
1133.932304218541
 20
878.6823635704692
 30
0.0
 11
1115.807443850042
 21
878.6823635704692
 31
0.0
  0
LINE
  5
77CC
330
1F
100
AcDbEntity
  8
LOGO
 62
     4
100
AcDbLine
 10
1115.807443850042
 20
885.5357710781616
 30
0.0
 11
1115.807443850042
 21
878.6823635704692
 31
0.0
  0
LINE
  5
77CD
330
1F
100
AcDbEntity
  8
LOGO
 62
     4
100
AcDbLine
 10
1133.932304218541
 20
885.5357710781616
 30
0.0
 11
1133.932304218541
 21
878.6823635704692
 31
0.0
  0
LINE
  5
77CE
330
1F
100
AcDbEntity
  8
LOGO
 62
     4
100
AcDbLine
 10
1124.216953826508
 20
878.6823635704692
 30
0.0
 11
1124.216953826508
 21
875.2556598166234
 31
0.0
  0
TEXT
  5
77CF
330
1F
100
AcDbEntity
  8
LOGO
  6
Continuous
 62
     7
100
AcDbText
 10
1117.025187030173
 20
880.1130023680194
 30
0.0
 40
3.998399999999999
  1
MVAA
  7
CHINESET
100
AcDbText
  0
LINE
  5
77D0
330
1F
100
AcDbEntity
  8
LOGO
 62
     4
100
AcDbLine
 10
1126.641065775077
 20
875.2556598166234
 30
0.0
 11
1115.807443850042
 21
875.2556598166234
 31
0.0
  0
TEXT
  5
77D1
330
1F
100
AcDbEntity
  8
LOGO
  6
Continuous
100
AcDbText
 10
1118.89281736691
 20
868.0615821187712
 30
149.7203459082809
 40
1.713599999999999
  1
Model
 41
0.8
  7
CHINESET
100
AcDbText
  0
TEXT
  5
77D2
330
1F
100
AcDbEntity
  8
LOGO
100
AcDbText
 10
1118.436712752619
 20
871.238227211613
 30
149.7203459082809
 40
2.856
  1
型號
  7
CHINESET
100
AcDbText
  0
LINE
  5
77D3
330
1F
100
AcDbEntity
  8
LOGO
  6
Continuous
 62
     7
100
AcDbLine
 10
1134.660878079242
 20
882.0847914718289
 30
0.0
 11
1137.687092764911
 21
882.0847914718289
 31
0.0
  0
LINE
  5
77D4
330
1F
100
AcDbEntity
  8
LOGO
 62
     4
100
AcDbLine
 10
1142.302110666649
 20
875.2556598166234
 30
0.0
 11
1142.302110666649
 21
866.8792728627769
 31
0.0
  0
LINE
  5
77D5
330
1F
100
AcDbEntity
  8
LOGO
 62
     4
100
AcDbLine
 10
1128.425781063474
 20
875.2556598166234
 30
0.0
 11
1128.425781063474
 21
866.8792728627769
 31
0.0
  0
LINE
  5
77D6
330
1F
100
AcDbEntity
  8
LOGO
 62
     4
100
AcDbLine
 10
1142.302110666649
 20
866.8792728627769
 30
0.0
 11
1128.425781063474
 21
866.8792728627769
 31
0.0
  0
LINE
  5
77D7
330
1F
100
AcDbEntity
  8
LOGO
 62
     4
100
AcDbLine
 10
1150.543407408847
 20
885.5357710781616
 30
0.0
 11
1138.641703976943
 21
885.5357710781616
 31
0.0
  0
LINE
  5
77D8
330
1F
100
AcDbEntity
  8
LOGO
 62
     4
100
AcDbLine
 10
1150.543407408847
 20
878.6823635704692
 30
0.0
 11
1138.641703976943
 21
878.6823635704692
 31
0.0
  0
LINE
  5
77D9
330
1F
100
AcDbEntity
  8
LOGO
 62
     4
100
AcDbLine
 10
1138.641703976943
 20
885.5357710781616
 30
0.0
 11
1138.641703976943
 21
878.6823635704692
 31
0.0
  0
LINE
  5
77DA
330
1F
100
AcDbEntity
  8
LOGO
 62
     4
100
AcDbLine
 10
1150.543407408847
 20
885.5357710781616
 30
0.0
 11
1150.543407408847
 21
878.6823635704692
 31
0.0
  0
LINE
  5
77DB
330
1F
100
AcDbEntity
  8
LOGO
 62
     4
100
AcDbLine
 10
1142.752030738555
 20
878.6823635704692
 30
0.0
 11
1142.752030738555
 21
876.9690116935464
 31
0.0
  0
TEXT
  5
77DC
330
1F
100
AcDbEntity
  8
LOGO
  6
Continuous
 62
     7
100
AcDbText
 10
1139.755772113404
 20
880.1130023680194
 30
0.0
 40
3.998399999999999
  1
260
  7
CHINESET
100
AcDbText
  0
LINE
  5
77DD
330
1F
100
AcDbEntity
  8
LOGO
 62
     4
100
AcDbLine
 10
1142.302110666649
 20
875.2556598166234
 30
0.0
 11
1128.425781063474
 21
875.2556598166234
 31
0.0
  0
LINE
  5
77DE
330
1F
100
AcDbEntity
  8
LOGO
  6
Continuous
 62
     7
100
AcDbLine
 10
1153.402772693639
 20
882.0847914718289
 30
0.0
 11
1156.428987379307
 21
882.0847914718289
 31
0.0
  0
LINE
  5
77DF
330
1F
100
AcDbEntity
  8
LOGO
 62
     4
100
AcDbLine
 10
1159.281677789053
 20
875.2556598166234
 30
0.0
 11
1159.281677789053
 21
866.8792728627769
 31
0.0
  0
LINE
  5
77E0
330
1F
100
AcDbEntity
  8
LOGO
 62
     4
100
AcDbLine
 10
1147.841441717741
 20
875.2556598166234
 30
0.0
 11
1147.841441717741
 21
866.8792728627769
 31
0.0
  0
LINE
  5
77E1
330
1F
100
AcDbEntity
  8
LOGO
 62
     4
100
AcDbLine
 10
1159.281677789053
 20
866.8792728627769
 30
0.0
 11
1147.841441717741
 21
866.8792728627769
 31
0.0
  0
LINE
  5
77E2
330
1F
100
AcDbEntity
  8
LOGO
 62
     4
100
AcDbLine
 10
1164.023509137767
 20
885.5357710781616
 30
0.0
 11
1159.158390314688
 21
885.5357710781616
 31
0.0
  0
LINE
  5
77E3
330
1F
100
AcDbEntity
  8
LOGO
 62
     4
100
AcDbLine
 10
1164.023509137767
 20
878.6823635704692
 30
0.0
 11
1159.158390314688
 21
878.6823635704692
 31
0.0
  0
LINE
  5
77E4
330
1F
100
AcDbEntity
  8
LOGO
 62
     4
100
AcDbLine
 10
1159.158390314688
 20
885.5357710781616
 30
0.0
 11
1159.158390314688
 21
878.6823635704692
 31
0.0
  0
LINE
  5
77E5
330
1F
100
AcDbEntity
  8
LOGO
 62
     4
100
AcDbLine
 10
1164.023509137767
 20
885.5357710781616
 30
0.0
 11
1164.023509137767
 21
878.6823635704692
 31
0.0
  0
LINE
  5
77E6
330
1F
100
AcDbEntity
  8
LOGO
 62
     4
100
AcDbLine
 10
1161.590949726228
 20
878.6823635704692
 30
0.0
 11
1161.590949726228
 21
876.9690116935464
 31
0.0
  0
TEXT
  5
77E7
330
1F
100
AcDbEntity
  8
LOGO
  6
Continuous
 62
     7
100
AcDbText
 10
1160.070560527963
 20
880.1130023680194
 30
0.0
 40
3.998399999999999
  1
4
  7
CHINESET
100
AcDbText
  0
LINE
  5
77E8
330
1F
100
AcDbEntity
  8
LOGO
 62
     4
100
AcDbLine
 10
1159.281677789053
 20
875.2556598166234
 30
0.0
 11
1147.841441717741
 21
875.2556598166234
 31
0.0
  0
LINE
  5
77E9
330
1F
100
AcDbEntity
  8
LOGO
 62
     4
100
AcDbLine
 10
1184.157576170594
 20
875.2556598166234
 30
0.0
 11
1184.157576170594
 21
866.8792728627769
 31
0.0
  0
LINE
  5
77EA
330
1F
100
AcDbEntity
  8
LOGO
 62
     4
100
AcDbLine
 10
1161.601801870503
 20
875.2556598166234
 30
0.0
 11
1161.601801870503
 21
866.8792728627769
 31
0.0
  0
LINE
  5
77EB
330
1F
100
AcDbEntity
  8
LOGO
 62
     4
100
AcDbLine
 10
1184.157576170594
 20
866.8792728627769
 30
0.0
 11
1161.601801870503
 21
866.8792728627769
 31
0.0
  0
LINE
  5
77EC
330
1F
100
AcDbEntity
  8
LOGO
 62
     4
100
AcDbLine
 10
1174.407047246018
 20
885.5357710781616
 30
0.0
 11
1165.365051204292
 21
885.5357710781616
 31
0.0
  0
LINE
  5
77ED
330
1F
100
AcDbEntity
  8
LOGO
 62
     4
100
AcDbLine
 10
1174.407047246018
 20
878.6823635704692
 30
0.0
 11
1165.365051204292
 21
878.6823635704692
 31
0.0
  0
LINE
  5
77EE
330
1F
100
AcDbEntity
  8
LOGO
 62
     4
100
AcDbLine
 10
1165.365051204292
 20
885.5357710781616
 30
0.0
 11
1165.365051204292
 21
878.6823635704692
 31
0.0
  0
LINE
  5
77EF
330
1F
100
AcDbEntity
  8
LOGO
 62
     4
100
AcDbLine
 10
1174.407047246018
 20
885.5357710781616
 30
0.0
 11
1174.407047246018
 21
878.6823635704692
 31
0.0
  0
LINE
  5
77F0
330
1F
100
AcDbEntity
  8
LOGO
 62
     4
100
AcDbLine
 10
1169.886049225155
 20
878.6823635704692
 30
0.0
 11
1169.886049225155
 21
875.2556598166234
 31
0.0
  0
TEXT
  5
77F1
330
1F
100
AcDbEntity
  8
LOGO
  6
Continuous
 62
     7
100
AcDbText
 10
1166.982670037876
 20
880.1130023680194
 30
0.0
 40
3.998399999999999
  1
A2
  7
CHINESET
100
AcDbText
  0
LINE
  5
77F2
330
1F
100
AcDbEntity
  8
LOGO
 62
     4
100
AcDbLine
 10
1184.157576170594
 20
875.2556598166234
 30
0.0
 11
1161.601801870503
 21
875.2556598166234
 31
0.0
  0
TEXT
  5
77F3
330
1F
100
AcDbEntity
  8
LOGO
  6
Continuous
100
AcDbText
 10
1129.514543496507
 20
868.0615821187712
 30
149.7203459082809
 40
1.713599999999999
  1
Body width
 41
0.8
  7
CHINESET
100
AcDbText
  0
TEXT
  5
77F4
330
1F
100
AcDbEntity
  8
LOGO
100
AcDbText
 10
1129.498400791005
 20
871.238227211613
 30
149.7203459082809
 40
2.856
  1
本體寬度
  7
CHINESET
100
AcDbText
  0
TEXT
  5
77F5
330
1F
100
AcDbEntity
  8
LOGO
  6
Continuous
100
AcDbText
 10
1151.03146119918
 20
868.0615821187712
 30
149.7203459082809
 40
1.713599999999999
  1
4 Way
 41
0.8
  7
CHINESET
100
AcDbText
  0
TEXT
  5
77F6
330
1F
100
AcDbEntity
  8
LOGO
100
AcDbText
 10
1149.360080647642
 20
871.238227211613
 30
149.7203459082809
 40
2.856
  1
4方向
  7
CHINESET
100
AcDbText
  0
TEXT
  5
77F7
330
1F
100
AcDbEntity
  8
LOGO
  6
Continuous
100
AcDbText
 10
1163.189262695263
 20
868.0615821187712
 30
149.7203459082809
 40
1.713599999999999
  1
Double air operate
 41
0.8
  7
CHINESET
100
AcDbText
  0
TEXT
  5
77F8
330
1F
100
AcDbEntity
  8
LOGO
100
AcDbText
 10
1163.778263634717
 20
871.238227211613
 30
149.7203459082809
 40
2.856
  1
複動氣壓引導
  7
CHINESET
100
AcDbText
  0
TEXT
  5
77F9
330
1F
100
AcDbEntity
  8
LOGO
100
AcDbText
 10
1085.59637858559
 20
866.1908771364604
 30
0.0
 40
2.284799999999999
  1
20811193
 41
0.7
  7
CHINESET
 72
     1
 11
1091.00373858559
 21
866.1908771364604
 31
0.0
100
AcDbText
  0
LINE
  5
77FA
330
1F
100
AcDbEntity
  8
LOGO
 62
     4
100
AcDbLine
 10
1098.094384326159
 20
869.5444868935467
 30
0.0
 11
1098.094384326161
 21
864.975548555085
 31
0.0
  0
LINE
  5
77FB
330
1F
100
AcDbEntity
  8
LOGO
 62
     4
100
AcDbLine
 10
1098.094384326159
 20
869.5444868935467
 30
0.0
 11
1084.38558432616
 21
869.5444868935467
 31
0.0
  0
CIRCLE
  5
77FC
330
1F
100
AcDbEntity
  8
LOGO
  6
Continuous
100
AcDbCircle
 10
1073.385770268339
 20
880.9717192359705
 30
0.0
 40
1.326416569998289
  0
CIRCLE
  5
77FD
330
1F
100
AcDbEntity
  8
LOGO
  6
Continuous
100
AcDbCircle
 10
1073.385770268339
 20
880.9717192359705
 30
0.0
 40
0.7771626890035782
  0
LINE
  5
77FE
330
1F
100
AcDbEntity
  8
LOGO
100
AcDbLine
 10
1081.721125905079
 20
879.6453026659719
 30
0.0
 11
1081.721125905079
 21
882.298135805969
 31
0.0
  0
LINE
  5
77FF
330
1F
100
AcDbEntity
  8
LOGO
100
AcDbLine
 10
1077.562886098079
 20
880.1945565469669
 30
0.0
 11
1077.562886098079
 21
881.7488819249742
 31
0.0
  0
LINE
  5
7800
330
1F
100
AcDbEntity
  8
LOGO
  6
Continuous
100
AcDbLine
 10
1077.562886098079
 20
881.7488819249742
 30
0.0
 11
1081.721125905079
 21
882.298135805969
 31
0.0
  0
LINE
  5
7801
330
1F
100
AcDbEntity
  8
LOGO
  6
Continuous
100
AcDbLine
 10
1077.562886098079
 20
880.1945565469669
 30
0.0
 11
1081.721125905079
 21
879.6453026659719
 31
0.0
  0
LINE
  5
7802
330
1F
100
AcDbEntity
  8
LOGO
  6
AM_ISO08W050x2
 48
0.3
100
AcDbLine
 10
1071.557285165073
 20
880.9717192359705
 30
0.0
 11
1075.214255371606
 21
880.9717192359705
 31
0.0
1001
GENIUS_GENOREF_13
1005
780B
  0
LINE
  5
7803
330
1F
100
AcDbEntity
  8
LOGO
  6
AM_ISO08W050x2
 48
0.3
100
AcDbLine
 10
1073.385770268339
 20
879.1432341327036
 30
0.0
 11
1073.385770268339
 21
882.8002043392373
 31
0.0
1001
GENIUS_GENOREF_13
1005
780A
  0
LINE
  5
7804
330
1F
100
AcDbEntity
  8
LOGO
  6
CENTER
 48
0.5
100
AcDbLine
 10
1077.230342491253
 20
880.9717192359705
 30
0.0
 11
1082.139847192728
 21
880.9717192359705
 31
0.0
1001
GENIUS_GENOREF_13
1005
7809
  0
LINE
  5
7805
330
1F
100
AcDbEntity
  8
LOGO
 62
     4
100
AcDbLine
 10
1142.752030738555
 20
876.9690116935464
 30
0.0
 11
1135.363945865061
 21
876.9690116935464
 31
0.0
  0
LINE
  5
7806
330
1F
100
AcDbEntity
  8
LOGO
 62
     4
100
AcDbLine
 10
1135.363945865061
 20
875.2556598166234
 30
0.0
 11
1135.363945865061
 21
876.9690116935464
 31
0.0
  0
LINE
  5
7807
330
1F
100
AcDbEntity
  8
LOGO
 62
     4
100
AcDbLine
 10
1161.590949726228
 20
876.9690116935464
 30
0.0
 11
1153.561559753397
 21
876.9690116935464
 31
0.0
  0
LINE
  5
7808
330
1F
100
AcDbEntity
  8
LOGO
 62
     4
100
AcDbLine
 10
1153.561559753397
 20
875.2556598166234
 30
0.0
 11
1153.561559753397
 21
876.9690116935464
 31
0.0
  0
POINT
  5
7809
330
1F
100
AcDbEntity
  8
0
 60
     1
100
AcDbPoint
 10
-1387.261275653985
 20
-43.65945892919547
 30
0.0
1001
GENIUS_GENOBJ-N-CRS_13
1002
{
1000
OWNER
1000
GEN
1002
}
1001
GENIUS_GENOLIS_13
1002
{
1000
ENT
1005
0
1005
0
1005
0
1005
7804
1002
}
1001
GENIUS_GENOENT_13
1002
{
1000
MYREF
1005
7809
1002
}
1002
{
1000
GRP
1005
0
1002
}
1001
GENIUS_GENODEF_13
1002
{
1000
HIER
1070
    10
1002
}
1002
{
1000
MANEDIT
1070
     1
1002
}
1002
{
1000
NOSEL
1070
     0
1002
}
1002
{
1000
BEHIND
1070
     0
1002
}
1002
{
1000
OTHER
1070
     0
1002
}
1002
{
1000
REACTOR
1002
}
  0
POINT
  5
780A
330
1F
100
AcDbEntity
  8
0
 60
     1
100
AcDbPoint
 10
-1398.58586087684
 20
-34.78387245055922
 30
0.0
1001
GENIUS_GENOBJ-N-CRS_13
1002
{
1000
OWNER
1000
GEN
1002
}
1001
GENIUS_GENOLIS_13
1002
{
1000
ENT
1005
0
1005
0
1005
0
1005
7803
1002
}
1001
GENIUS_GENOENT_13
1002
{
1000
MYREF
1005
780A
1002
}
1002
{
1000
GRP
1005
0
1002
}
1001
GENIUS_GENODEF_13
1002
{
1000
HIER
1070
    10
1002
}
1002
{
1000
MANEDIT
1070
     1
1002
}
1002
{
1000
NOSEL
1070
     0
1002
}
1002
{
1000
BEHIND
1070
     0
1002
}
1002
{
1000
OTHER
1070
     0
1002
}
1002
{
1000
REACTOR
1002
}
  0
POINT
  5
780B
330
1F
100
AcDbEntity
  8
0
 60
     1
100
AcDbPoint
 10
-1392.227187179003
 20
-43.65945892919547
 30
0.0
1001
GENIUS_GENOBJ-N-CRS_13
1002
{
1000
OWNER
1000
GEN
1002
}
1001
GENIUS_GENOLIS_13
1002
{
1000
ENT
1005
0
1005
0
1005
0
1005
7802
1002
}
1001
GENIUS_GENOENT_13
1002
{
1000
MYREF
1005
780B
1002
}
1002
{
1000
GRP
1005
0
1002
}
1001
GENIUS_GENODEF_13
1002
{
1000
HIER
1070
    10
1002
}
1002
{
1000
MANEDIT
1070
     1
1002
}
1002
{
1000
NOSEL
1070
     0
1002
}
1002
{
1000
BEHIND
1070
     0
1002
}
1002
{
1000
OTHER
1070
     0
1002
}
1002
{
1000
REACTOR
1002
}
  0
LINE
  5
7AA2
330
1F
100
AcDbEntity
  8
AM_VIS
100
AcDbLine
 10
1096.894314404422
 20
1072.491484415464
 30
0.0
 11
1096.473753656758
 21
1073.716451037626
 31
0.0
  0
LINE
  5
7AA3
330
1F
100
AcDbEntity
  8
AM_VIS
100
AcDbLine
 10
1096.033166206825
 20
1072.491484415464
 30
0.0
 11
1096.894314404422
 21
1072.491484415464
 31
0.0
  0
LINE
  5
7AA4
330
1F
100
AcDbEntity
  8
AM_VIS
100
AcDbLine
 10
1096.473753656758
 20
1073.716451037626
 30
0.0
 11
1096.033166206825
 21
1072.491484415464
 31
0.0
  0
LINE
  5
7AA5
330
1F
100
AcDbEntity
  8
AM_VIS
100
AcDbLine
 10
1097.638640172112
 20
1071.563580543634
 30
0.0
 11
1096.847585432459
 21
1071.563580543634
 31
0.0
  0
LINE
  5
7AA6
330
1F
100
AcDbEntity
  8
AM_VIS
100
AcDbLine
 10
1097.638640172112
 20
1071.630336217867
 30
0.0
 11
1097.638640172112
 21
1071.563580543634
 31
0.0
  0
SPLINE
  5
7AA7
330
1F
100
AcDbEntity
  8
AM_VIS
100
AcDbSpline
210
0.0
220
0.0
230
1.0
 70
     8
 71
     3
 72
     8
 73
     4
 74
     0
 42
0.0000000001
 43
0.0000000001
 40
0.0
 40
0.0
 40
0.0
 40
0.0
 40
80.0
 40
80.0
 40
80.0
 40
80.0
 10
1097.465075419108
 20
1071.687078540964
 30
0.0
 10
1097.498453256224
 20
1071.660376271271
 30
0.0
 10
1097.556308156915
 20
1071.641462197526
 30
0.0
 10
1097.638640172112
 20
1071.630336217867
 30
0.0
  0
SPLINE
  5
7AA8
330
1F
100
AcDbEntity
  8
AM_VIS
100
AcDbSpline
210
0.0
220
0.0
230
1.0
 70
     8
 71
     3
 72
     8
 73
     4
 74
     0
 42
0.0000000001
 43
0.0000000001
 40
0.0
 40
0.0
 40
0.0
 40
0.0
 40
80.0
 40
80.0
 40
80.0
 40
80.0
 10
1097.304861800951
 20
1071.957439021605
 30
0.0
 10
1097.353815928101
 20
1071.82392767314
 30
0.0
 10
1097.407220467486
 20
1071.733807512927
 30
0.0
 10
1097.465075419108
 20
1071.687078540964
 30
0.0
  0
LINE
  5
7AA9
330
1F
100
AcDbEntity
  8
AM_VIS
100
AcDbLine
 10
1096.513807061298
 20
1074.063580543634
 30
0.0
 11
1097.304861800951
 21
1071.957439021605
 31
0.0
  0
LINE
  5
7AAA
330
1F
100
AcDbEntity
  8
AM_VIS
100
AcDbLine
 10
1096.500455926451
 20
1074.063580543634
 30
0.0
 11
1096.513807061298
 21
1074.063580543634
 31
0.0
  0
LINE
  5
7AAB
330
1F
100
AcDbEntity
  8
AM_VIS
100
AcDbLine
 10
1095.826223616705
 20
1072.231137285958
 30
0.0
 11
1096.500455926451
 21
1074.063580543634
 31
0.0
  0
SPLINE
  5
7AAC
330
1F
100
AcDbEntity
  8
AM_VIS
100
AcDbSpline
210
0.0
220
0.0
230
1.0
 70
     8
 71
     3
 72
     8
 73
     4
 74
     0
 42
0.0000000001
 43
0.0000000001
 40
0.0
 40
0.0
 40
0.0
 40
0.0
 40
80.0
 40
80.0
 40
80.0
 40
80.0
 10
1095.582565405757
 20
1071.703767459522
 30
0.0
 10
1095.644870667753
 20
1071.783874217671
 30
0.0
 10
1095.726090105357
 20
1071.959664176792
 30
0.0
 10
1095.826223616705
 20
1072.231137285958
 30
0.0
  0
SPLINE
  5
7AAD
330
1F
100
AcDbEntity
  8
AM_VIS
100
AcDbSpline
210
0.0
220
0.0
230
1.0
 70
     8
 71
     3
 72
     8
 73
     4
 74
     0
 42
0.0000000001
 43
0.0000000001
 40
0.0
 40
0.0
 40
0.0
 40
0.0
 40
80.0
 40
80.0
 40
80.0
 40
80.0
 10
1095.50579638039
 20
1071.647025136425
 30
0.0
 10
1095.532498599152
 20
1071.653700703848
 30
0.0
 10
1095.558088291252
 20
1071.672614828524
 30
0.0
 10
1095.582565405757
 20
1071.703767459522
 30
0.0
  0
LINE
  5
7AAE
330
1F
100
AcDbEntity
  8
AM_VIS
100
AcDbLine
 10
1095.41911810447
 20
1071.629795203384
 30
0.0
 11
1095.505898714969
 21
1071.646493299924
 31
0.0
  0
LINE
  5
7AAF
330
1F
100
AcDbEntity
  8
AM_VIS
100
AcDbLine
 10
1095.419014003888
 20
1071.563580543634
 30
0.0
 11
1095.419014003888
 21
1071.630336217867
 31
0.0
  0
LINE
  5
7AB0
330
1F
100
AcDbEntity
  8
AM_VIS
100
AcDbLine
 10
1096.029828423114
 20
1071.563580543634
 30
0.0
 11
1095.419014003888
 21
1071.563580543634
 31
0.0
  0
LINE
  5
7AB1
330
1F
100
AcDbEntity
  8
AM_VIS
100
AcDbLine
 10
1096.029828423114
 20
1071.630336217867
 30
0.0
 11
1096.029828423114
 21
1071.563580543634
 31
0.0
  0
SPLINE
  5
7AB2
330
1F
100
AcDbEntity
  8
AM_VIS
100
AcDbSpline
210
0.0
220
0.0
230
1.0
 70
     8
 71
     3
 72
     8
 73
     4
 74
     0
 42
0.0000000001
 43
0.0000000001
 40
0.0
 40
0.0
 40
0.0
 40
0.0
 40
80.0
 40
80.0
 40
80.0
 40
80.0
 10
1095.889641507226
 20
1071.657038487559
 30
0.0
 10
1095.914118570801
 20
1071.643687352713
 30
0.0
 10
1095.960847542763
 20
1071.634786630103
 30
0.0
 10
1096.029828423114
 20
1071.630336217867
 30
0.0
  0
SPLINE
  5
7AB3
330
1F
100
AcDbEntity
  8
AM_VIS
100
AcDbSpline
210
0.0
220
0.0
230
1.0
 70
     8
 71
     3
 72
     8
 73
     4
 74
     0
 42
0.0000000001
 43
0.0000000001
 40
0.0
 40
0.0
 40
0.0
 40
0.0
 40
80.0
 40
80.0
 40
80.0
 40
80.0
 10
1095.809534698147
 20
1071.797225403448
 30
0.0
 10
1095.809534698147
 20
1071.72601936791
 30
0.0
 10
1095.83623696784
 20
1071.679290395947
 30
0.0
 10
1095.889641507226
 20
1071.657038487559
 30
0.0
  0
SPLINE
  5
7AB4
330
1F
100
AcDbEntity
  8
AM_VIS
100
AcDbSpline
210
0.0
220
0.0
230
1.0
 70
     8
 71
     3
 72
     8
 73
     4
 74
     0
 42
0.0000000001
 43
0.0000000001
 40
0.0
 40
0.0
 40
0.0
 40
0.0
 40
80.0
 40
80.0
 40
80.0
 40
80.0
 10
1095.83623696784
 20
1071.944087886758
 30
0.0
 10
1095.818435420758
 20
1071.899584069983
 30
0.0
 10
1095.809534698147
 20
1071.850629942833
 30
0.0
 10
1095.809534698147
 20
1071.797225403448
 30
0.0
  0
LINE
  5
7AB5
330
1F
100
AcDbEntity
  8
AM_VIS
100
AcDbLine
 10
1096.003126153421
 20
1072.367986418134
 30
0.0
 11
1095.83623696784
 21
1071.944087886758
 31
0.0
  0
LINE
  5
7AB6
330
1F
100
AcDbEntity
  8
AM_VIS
100
AcDbLine
 10
1096.937705592673
 20
1072.367986418134
 30
0.0
 11
1096.003126153421
 21
1072.367986418134
 31
0.0
  0
LINE
  5
7AB7
330
1F
100
AcDbEntity
  8
AM_VIS
100
AcDbLine
 10
1097.057865806291
 20
1072.037545830684
 30
0.0
 11
1096.937705592673
 21
1072.367986418134
 31
0.0
  0
SPLINE
  5
7AB8
330
1F
100
AcDbEntity
  8
AM_VIS
100
AcDbSpline
210
0.0
220
0.0
230
1.0
 70
     8
 71
     3
 72
     8
 73
     4
 74
     0
 42
0.0000000001
 43
0.0000000001
 40
0.0
 40
0.0
 40
0.0
 40
0.0
 40
80.0
 40
80.0
 40
80.0
 40
80.0
 10
1097.114608129389
 20
1071.797225403448
 30
0.0
 10
1097.114608129389
 20
1071.852855098021
 30
0.0
 10
1097.095694004713
 20
1071.9329619071
 30
0.0
 10
1097.057865806291
 20
1072.037545830684
 30
0.0
  0
SPLINE
  5
7AB9
330
1F
100
AcDbEntity
  8
AM_VIS
100
AcDbSpline
210
0.0
220
0.0
230
1.0
 70
     8
 71
     3
 72
     8
 73
     4
 74
     0
 42
0.0000000001
 43
0.0000000001
 40
0.0
 40
0.0
 40
0.0
 40
0.0
 40
80.0
 40
80.0
 40
80.0
 40
80.0
 10
1097.031163536598
 20
1071.657038487559
 30
0.0
 10
1097.086793231172
 20
1071.681515602065
 30
0.0
 10
1097.114608129389
 20
1071.728244574028
 30
0.0
 10
1097.114608129389
 20
1071.797225403448
 30
0.0
  0
SPLINE
  5
7ABA
330
1F
100
AcDbEntity
  8
AM_VIS
100
AcDbSpline
210
0.0
220
0.0
230
1.0
 70
     8
 71
     3
 72
     8
 73
     4
 74
     0
 42
0.0000000001
 43
0.0000000001
 40
0.0
 40
0.0
 40
0.0
 40
0.0
 40
80.0
 40
80.0
 40
80.0
 40
80.0
 10
1096.847585432459
 20
1071.630336217867
 30
0.0
 10
1096.934367808961
 20
1071.634786630103
 30
0.0
 10
1096.995560493364
 20
1071.643687352713
 30
0.0
 10
1097.031163536598
 20
1071.657038487559
 30
0.0
  0
LINE
  5
7ABB
330
1F
100
AcDbEntity
  8
AM_VIS
100
AcDbLine
 10
1096.847585432459
 20
1071.563580543634
 30
0.0
 11
1096.847585432459
 21
1071.630336217867
 31
0.0
  0
SPLINE
  5
7ABC
330
1F
100
AcDbEntity
  8
AM_VIS
100
AcDbSpline
210
0.0
220
0.0
230
1.0
 70
     8
 71
     3
 72
     8
 73
     4
 74
     0
 42
0.0000000001
 43
0.0000000001
 40
0.0
 40
0.0
 40
0.0
 40
0.0
 40
80.0
 40
80.0
 40
80.0
 40
80.0
 10
1133.850189085166
 20
1093.291026195808
 30
0.0
 10
1133.850189136996
 20
1093.026080595465
 30
0.0
 10
1133.992852180474
 20
1092.844921140621
 30
0.0
 10
1134.278178215601
 20
1092.747547934939
 30
0.0
  0
SPLINE
  5
7ABD
330
1F
100
AcDbEntity
  8
AM_VIS
100
AcDbSpline
210
0.0
220
0.0
230
1.0
 70
     8
 71
     3
 72
     8
 73
     4
 74
     0
 42
0.0000000001
 43
0.0000000001
 40
0.0
 40
0.0
 40
0.0
 40
0.0
 40
80.0
 40
80.0
 40
80.0
 40
80.0
 10
1134.573694519948
 20
1093.85148815233
 30
0.0
 10
1134.091357615257
 20
1093.8514881005
 30
0.0
 10
1133.850189136996
 20
1093.664667500156
 30
0.0
 10
1133.850189085166
 20
1093.291026195808
 30
0.0
  0
SPLINE
  5
7ABE
330
1F
100
AcDbEntity
  8
AM_VIS
100
AcDbSpline
210
0.0
220
0.0
230
1.0
 70
     8
 71
     3
 72
     8
 73
     4
 74
     0
 42
0.0000000001
 43
0.0000000001
 40
0.0
 40
0.0
 40
0.0
 40
0.0
 40
80.0
 40
80.0
 40
80.0
 40
80.0
 10
1134.787689085166
 20
1093.831107717547
 30
0.0
 10
1134.7446637574
 20
1093.844694622239
 30
0.0
 10
1134.673332235661
 20
1093.8514881005
 30
0.0
 10
1134.573694519948
 20
1093.85148815233
 30
0.0
  0
SPLINE
  5
7ABF
330
1F
100
AcDbEntity
  8
AM_VIS
100
AcDbSpline
210
0.0
220
0.0
230
1.0
 70
     8
 71
     3
 72
     8
 73
     4
 74
     0
 42
0.0000000001
 43
0.0000000001
 40
0.0
 40
0.0
 40
0.0
 40
0.0
 40
80.0
 40
80.0
 40
80.0
 40
80.0
 10
1134.89638473734
 20
1093.671460978417
 30
0.0
 10
1134.89638478917
 20
1093.750718259347
 30
0.0
 10
1134.860152887835
 20
1093.803933804504
 30
0.0
 10
1134.787689085166
 20
1093.831107717547
 30
0.0
  0
LINE
  5
7AC0
330
1F
100
AcDbEntity
  8
AM_VIS
100
AcDbLine
 10
1134.89638473734
 20
1092.693200108852
 30
0.0
 11
1134.89638473734
 21
1093.671460978417
 31
0.0
  0
SPLINE
  5
7AC1
330
1F
100
AcDbEntity
  8
AM_VIS
100
AcDbSpline
210
0.0
220
0.0
230
1.0
 70
     8
 71
     3
 72
     8
 73
     4
 74
     0
 42
0.0000000001
 43
0.0000000001
 40
0.0
 40
0.0
 40
0.0
 40
0.0
 40
80.0
 40
80.0
 40
80.0
 40
80.0
 10
1134.278178215601
 20
1092.747547934939
 30
0.0
 10
1134.384609409574
 20
1092.711316085434
 30
0.0
 10
1134.590678215601
 20
1092.693200108852
 30
0.0
 10
1134.89638473734
 20
1092.693200108852
 30
0.0
  0
SPLINE
  5
7AC2
330
1F
100
AcDbEntity
  8
AM_VIS
100
AcDbSpline
210
0.0
220
0.0
230
1.0
 70
     8
 71
     3
 72
     8
 73
     4
 74
     0
 42
0.0000000001
 43
0.0000000001
 40
0.0
 40
0.0
 40
0.0
 40
0.0
 40
80.0
 40
80.0
 40
80.0
 40
80.0
 10
1133.918123867774
 20
1092.115754456678
 30
0.0
 10
1133.918123867774
 20
1091.755700108852
 30
0.0
 10
1134.162689085166
 20
1091.575672934939
 30
0.0
 10
1134.651819519948
 20
1091.575672934939
 30
0.0
  0
SPLINE
  5
7AC3
330
1F
100
AcDbEntity
  8
AM_VIS
100
AcDbSpline
210
0.0
220
0.0
230
1.0
 70
     8
 71
     3
 72
     8
 73
     4
 74
     0
 42
0.0000000001
 43
0.0000000001
 40
0.0
 40
0.0
 40
0.0
 40
0.0
 40
80.0
 40
80.0
 40
80.0
 40
80.0
 10
1134.176276041688
 20
1092.513172934939
 30
0.0
 10
1134.004174626966
 20
1092.449767172391
 30
0.0
 10
1133.918123867774
 20
1092.317294346304
 30
0.0
 10
1133.918123867774
 20
1092.115754456678
 30
0.0
  0
SPLINE
  5
7AC4
330
1F
100
AcDbEntity
  8
AM_VIS
100
AcDbSpline
210
0.0
220
0.0
230
1.0
 70
     8
 71
     3
 72
     8
 73
     4
 74
     0
 42
0.0000000001
 43
0.0000000001
 40
0.0
 40
0.0
 40
0.0
 40
0.0
 40
80.0
 40
80.0
 40
80.0
 40
80.0
 10
1134.512553215601
 20
1092.550537065373
 30
0.0
 10
1134.358567725631
 20
1092.548272607173
 30
0.0
 10
1134.246475334327
 20
1092.535817879752
 30
0.0
 10
1134.176276041688
 20
1092.513172934939
 30
0.0
  0
LINE
  5
7AC5
330
1F
100
AcDbEntity
  8
AM_VIS
100
AcDbLine
 10
1134.89638473734
 20
1092.553933804504
 30
0.0
 11
1134.512553215601
 21
1092.550537065373
 31
0.0
  0
LINE
  5
7AC6
330
1F
100
AcDbEntity
  8
AM_VIS
100
AcDbLine
 10
1134.89638473734
 20
1091.674178369721
 30
0.0
 11
1134.89638473734
 21
1092.553933804504
 31
0.0
  0
SPLINE
  5
7AC7
330
1F
100
AcDbEntity
  8
AM_VIS
100
AcDbSpline
210
0.0
220
0.0
230
1.0
 70
     8
 71
     3
 72
     8
 73
     4
 74
     0
 42
0.0000000001
 43
0.0000000001
 40
0.0
 40
0.0
 40
0.0
 40
0.0
 40
80.0
 40
80.0
 40
80.0
 40
80.0
 10
1134.882797780818
 20
1091.602846847982
 30
0.0
 10
1134.891855769109
 20
1091.614169346304
 30
0.0
 10
1134.89638478917
 20
1091.637946520217
 30
0.0
 10
1134.89638473734
 20
1091.674178369721
 30
0.0
  0
SPLINE
  5
7AC8
330
1F
100
AcDbEntity
  8
AM_VIS
100
AcDbSpline
210
0.0
220
0.0
230
1.0
 70
     8
 71
     3
 72
     8
 73
     4
 74
     0
 42
0.0000000001
 43
0.0000000001
 40
0.0
 40
0.0
 40
0.0
 40
0.0
 40
80.0
 40
80.0
 40
80.0
 40
80.0
 10
1134.808069519948
 20
1091.579069674069
 30
0.0
 10
1134.848830389514
 20
1091.58359869413
 30
0.0
 10
1134.873739844357
 20
1091.591524401491
 30
0.0
 10
1134.882797780818
 20
1091.602846847982
 30
0.0
  0
SPLINE
  5
7AC9
330
1F
100
AcDbEntity
  8
AM_VIS
100
AcDbSpline
210
0.0
220
0.0
230
1.0
 70
     8
 71
     3
 72
     8
 73
     4
 74
     0
 42
0.0000000001
 43
0.0000000001
 40
0.0
 40
0.0
 40
0.0
 40
0.0
 40
80.0
 40
80.0
 40
80.0
 40
80.0
 10
1134.651819519948
 20
1091.575672934939
 30
0.0
 10
1134.746928267431
 20
1091.575672934939
 30
0.0
 10
1134.799011583487
 20
1091.576805215869
 30
0.0
 10
1134.808069519948
 20
1091.579069674069
 30
0.0
  0
SPLINE
  5
7ACA
330
1F
100
AcDbEntity
  8
AM_VIS
100
AcDbSpline
210
0.0
220
0.0
230
1.0
 70
     8
 71
     3
 72
     8
 73
     4
 74
     0
 42
0.0000000001
 43
0.0000000001
 40
0.0
 40
0.0
 40
0.0
 40
0.0
 40
80.0
 40
80.0
 40
80.0
 40
80.0
 10
1133.588640172122
 20
1093.30461315233
 30
0.0
 10
1133.588640172122
 20
1093.449540705839
 30
0.0
 10
1133.629401041687
 20
1093.577484563695
 30
0.0
 10
1133.710922780818
 20
1093.688444674069
 30
0.0
  0
SPLINE
  5
7ACB
330
1F
100
AcDbEntity
  8
AM_VIS
100
AcDbSpline
210
0.0
220
0.0
230
1.0
 70
     8
 71
     3
 72
     8
 73
     4
 74
     0
 42
0.0000000001
 43
0.0000000001
 40
0.0
 40
0.0
 40
0.0
 40
0.0
 40
80.0
 40
80.0
 40
80.0
 40
80.0
 10
1134.132118432992
 20
1092.659232717547
 30
0.0
 10
1133.769799626966
 20
1092.745283476738
 30
0.0
 10
1133.588640172122
 20
1092.960410271056
 30
0.0
 10
1133.588640172122
 20
1093.30461315233
 30
0.0
  0
LINE
  5
7ACC
330
1F
100
AcDbEntity
  8
AM_VIS
100
AcDbLine
 10
1134.189862998209
 20
1092.645645761026
 30
0.0
 11
1134.132118432992
 21
1092.659232717547
 31
0.0
  0
SPLINE
  5
7ACD
330
1F
100
AcDbEntity
  8
AM_VIS
100
AcDbSpline
210
0.0
220
0.0
230
1.0
 70
     8
 71
     3
 72
     8
 73
     4
 74
     0
 42
0.0000000001
 43
0.0000000001
 40
0.0
 40
0.0
 40
0.0
 40
0.0
 40
80.0
 40
80.0
 40
80.0
 40
80.0
 10
1133.697335824296
 20
1092.088580543634
 30
0.0
 10
1133.697335824296
 20
1092.36937766236
 30
0.0
 10
1133.861511583487
 20
1092.555066085434
 30
0.0
 10
1134.189862998209
 20
1092.645645761026
 30
0.0
  0
SPLINE
  5
7ACE
330
1F
100
AcDbEntity
  8
AM_VIS
100
AcDbSpline
210
0.0
220
0.0
230
1.0
 70
     8
 71
     3
 72
     8
 73
     4
 74
     0
 42
0.0000000001
 43
0.0000000001
 40
0.0
 40
0.0
 40
0.0
 40
0.0
 40
80.0
 40
80.0
 40
80.0
 40
80.0
 10
1134.556710824296
 20
1091.463580543634
 30
0.0
 10
1133.983794192183
 20
1091.463580543634
 30
0.0
 10
1133.697335824296
 20
1091.671913911521
 30
0.0
 10
1133.697335824296
 20
1092.088580543634
 30
0.0
  0
LINE
  5
7ACF
330
1F
100
AcDbEntity
  8
AM_VIS
100
AcDbLine
 10
1135.470433650383
 20
1091.463580543634
 30
0.0
 11
1134.556710824296
 21
1091.463580543634
 31
0.0
  0
LINE
  5
7AD0
330
1F
100
AcDbEntity
  8
AM_VIS
100
AcDbLine
 10
1135.470433650383
 20
1091.531515326243
 30
0.0
 11
1135.470433650383
 21
1091.463580543634
 31
0.0
  0
SPLINE
  5
7AD1
330
1F
100
AcDbEntity
  8
AM_VIS
100
AcDbSpline
210
0.0
220
0.0
230
1.0
 70
     8
 71
     3
 72
     8
 73
     4
 74
     0
 42
0.0000000001
 43
0.0000000001
 40
0.0
 40
0.0
 40
0.0
 40
0.0
 40
80.0
 40
80.0
 40
80.0
 40
80.0
 10
1135.185107563427
 20
1091.592656630591
 30
0.0
 10
1135.228132943022
 20
1091.560953749317
 30
0.0
 10
1135.323241638674
 20
1091.540573314534
 30
0.0
 10
1135.470433650383
 20
1091.531515326243
 30
0.0
  0
SPLINE
  5
7AD2
330
1F
100
AcDbEntity
  8
AM_VIS
100
AcDbSpline
210
0.0
220
0.0
230
1.0
 70
     8
 71
     3
 72
     8
 73
     4
 74
     0
 42
0.0000000001
 43
0.0000000001
 40
0.0
 40
0.0
 40
0.0
 40
0.0
 40
80.0
 40
80.0
 40
80.0
 40
80.0
 10
1135.106982563427
 20
1091.857602282765
 30
0.0
 10
1135.106982563427
 20
1091.721732717547
 30
0.0
 10
1135.13302424737
 20
1091.633417500156
 30
0.0
 10
1135.185107563427
 20
1091.592656630591
 30
0.0
  0
LINE
  5
7AD3
330
1F
100
AcDbEntity
  8
AM_VIS
100
AcDbLine
 10
1135.106982563427
 20
1093.515210978417
 30
0.0
 11
1135.106982563427
 21
1091.857602282765
 31
0.0
  0
SPLINE
  5
7AD4
330
1F
100
AcDbEntity
  8
AM_VIS
100
AcDbSpline
210
0.0
220
0.0
230
1.0
 70
     8
 71
     3
 72
     8
 73
     4
 74
     0
 42
0.0000000001
 43
0.0000000001
 40
0.0
 40
0.0
 40
0.0
 40
0.0
 40
80.0
 40
80.0
 40
80.0
 40
80.0
 10
1135.181710824296
 20
1093.803933804504
 30
0.0
 10
1135.13189201827
 20
1093.751850488447
 30
0.0
 10
1135.106982563427
 20
1093.655609563695
 30
0.0
 10
1135.106982563427
 20
1093.515210978417
 30
0.0
  0
SPLINE
  5
7AD5
330
1F
100
AcDbEntity
  8
AM_VIS
100
AcDbSpline
210
0.0
220
0.0
230
1.0
 70
     8
 71
     3
 72
     8
 73
     4
 74
     0
 42
0.0000000001
 43
0.0000000001
 40
0.0
 40
0.0
 40
0.0
 40
0.0
 40
80.0
 40
80.0
 40
80.0
 40
80.0
 10
1135.470433650383
 20
1093.895645761026
 30
0.0
 10
1135.330035116935
 20
1093.886587772734
 30
0.0
 10
1135.233794192183
 20
1093.856017120561
 30
0.0
 10
1135.181710824296
 20
1093.803933804504
 30
0.0
  0
LINE
  5
7AD6
330
1F
100
AcDbEntity
  8
AM_VIS
100
AcDbLine
 10
1135.470433650383
 20
1093.963580543634
 30
0.0
 11
1135.470433650383
 21
1093.895645761026
 31
0.0
  0
LINE
  5
7AD7
330
1F
100
AcDbEntity
  8
AM_VIS
100
AcDbLine
 10
1134.373286911253
 20
1093.963580543634
 30
0.0
 11
1135.470433650383
 21
1093.963580543634
 31
0.0
  0
SPLINE
  5
7AD8
330
1F
100
AcDbEntity
  8
AM_VIS
100
AcDbSpline
210
0.0
220
0.0
230
1.0
 70
     8
 71
     3
 72
     8
 73
     4
 74
     0
 42
0.0000000001
 43
0.0000000001
 40
0.0
 40
0.0
 40
0.0
 40
0.0
 40
80.0
 40
80.0
 40
80.0
 40
80.0
 10
1133.710922780818
 20
1093.688444674069
 30
0.0
 10
1133.844527887835
 20
1093.871868587113
 30
0.0
 10
1134.065315931313
 20
1093.963580543634
 30
0.0
 10
1134.373286911253
 20
1093.963580543634
 30
0.0
  0
LINE
  5
7AD9
330
1F
100
AcDbEntity
  8
AM_HID
100
AcDbLine
 10
1134.408873194734
 20
1093.963580543634
 30
0.0
 11
1134.408873194734
 21
1093.9469360696
 31
0.0
  0
SPLINE
  5
7ADA
330
1F
100
AcDbEntity
  8
AM_VIS
100
AcDbSpline
210
0.0
220
0.0
230
1.0
 70
     8
 71
     3
 72
     8
 73
     4
 74
     0
 42
0.0000000001
 43
0.0000000001
 40
0.0
 40
0.0
 40
0.0
 40
0.0
 40
80.0
 40
80.0
 40
80.0
 40
80.0
 10
1111.106812192987
 20
940.2967800174939
 30
0.0
 10
1111.106812141157
 20
940.6726857800419
 30
0.0
 10
1110.845263228114
 20
940.8606387131461
 30
0.0
 10
1110.322165453857
 20
940.8606387131461
 30
0.0
  0
SPLINE
  5
7ADB
330
1F
100
AcDbEntity
  8
AM_VIS
100
AcDbSpline
210
0.0
220
0.0
230
1.0
 70
     8
 71
     3
 72
     8
 73
     4
 74
     0
 42
0.0000000001
 43
0.0000000001
 40
0.0
 40
0.0
 40
0.0
 40
0.0
 40
80.0
 40
80.0
 40
80.0
 40
80.0
 10
1110.43086110603
 20
939.702350669668
 30
0.0
 10
1110.881495129448
 20
939.702350669668
 30
0.0
 10
1111.106812141157
 20
939.9004937683333
 30
0.0
 10
1111.106812192987
 20
940.2967800174939
 30
0.0
  0
SPLINE
  5
7ADC
330
1F
100
AcDbEntity
  8
AM_VIS
100
AcDbSpline
210
0.0
220
0.0
230
1.0
 70
     8
 71
     3
 72
     8
 73
     4
 74
     0
 42
0.0000000001
 43
0.0000000001
 40
0.0
 40
0.0
 40
0.0
 40
0.0
 40
80.0
 40
80.0
 40
80.0
 40
80.0
 10
1110.162518714726
 20
939.7159376261896
 30
0.0
 10
1110.237246923766
 20
939.7068796378984
 30
0.0
 10
1110.326694422087
 20
939.702350669668
 30
0.0
 10
1110.43086110603
 20
939.702350669668
 30
0.0
  0
LINE
  5
7ADD
330
1F
100
AcDbEntity
  8
AM_VIS
100
AcDbLine
 10
1110.162518714726
 20
940.7043887131461
 30
0.0
 11
1110.162518714726
 21
939.7159376261896
 31
0.0
  0
SPLINE
  5
7ADE
330
1F
100
AcDbEntity
  8
AM_VIS
100
AcDbSpline
210
0.0
220
0.0
230
1.0
 70
     8
 71
     3
 72
     8
 73
     4
 74
     0
 42
0.0000000001
 43
0.0000000001
 40
0.0
 40
0.0
 40
0.0
 40
0.0
 40
80.0
 40
80.0
 40
80.0
 40
80.0
 10
1110.196486106031
 20
940.8402582783635
 30
0.0
 10
1110.173841161218
 20
940.8176133335507
 30
0.0
 10
1110.162518714726
 20
940.7723234957549
 30
0.0
 10
1110.162518714726
 20
940.7043887131461
 30
0.0
  0
SPLINE
  5
7ADF
330
1F
100
AcDbEntity
  8
AM_VIS
100
AcDbSpline
210
0.0
220
0.0
230
1.0
 70
     8
 71
     3
 72
     8
 73
     4
 74
     0
 42
0.0000000001
 43
0.0000000001
 40
0.0
 40
0.0
 40
0.0
 40
0.0
 40
80.0
 40
80.0
 40
80.0
 40
80.0
 10
1110.322165453857
 20
940.8606387131461
 30
0.0
 10
1110.256495129448
 20
940.8606387131461
 30
0.0
 10
1110.214602030783
 20
940.8538452348853
 30
0.0
 10
1110.196486106031
 20
940.8402582783635
 30
0.0
  0
SPLINE
  5
7AE0
330
1F
100
AcDbEntity
  8
AM_VIS
100
AcDbSpline
210
0.0
220
0.0
230
1.0
 70
     8
 71
     3
 72
     8
 73
     4
 74
     0
 42
0.0000000001
 43
0.0000000001
 40
0.0
 40
0.0
 40
0.0
 40
0.0
 40
80.0
 40
80.0
 40
80.0
 40
80.0
 10
1111.344583932118
 20
940.3035734957549
 30
0.0
 10
1111.344583932118
 20
940.1020336061289
 30
0.0
 10
1111.28117811774
 20
939.9355933887378
 30
0.0
 10
1111.154366540813
 20
939.804252843581
 30
0.0
  0
SPLINE
  5
7AE1
330
1F
100
AcDbEntity
  8
AM_VIS
100
AcDbSpline
210
0.0
220
0.0
230
1.0
 70
     8
 71
     3
 72
     8
 73
     4
 74
     0
 42
0.0000000001
 43
0.0000000001
 40
0.0
 40
0.0
 40
0.0
 40
0.0
 40
80.0
 40
80.0
 40
80.0
 40
80.0
 10
1111.086431758204
 20
940.819877843581
 30
0.0
 10
1111.258533172926
 20
940.6998596930854
 30
0.0
 10
1111.344583932118
 20
940.5277582783636
 30
0.0
 10
1111.344583932118
 20
940.3035734957549
 30
0.0
  0
SPLINE
  5
7AE2
330
1F
100
AcDbEntity
  8
AM_VIS
100
AcDbSpline
210
0.0
220
0.0
230
1.0
 70
     8
 71
     3
 72
     8
 73
     4
 74
     0
 42
0.0000000001
 43
0.0000000001
 40
0.0
 40
0.0
 40
0.0
 40
0.0
 40
80.0
 40
80.0
 40
80.0
 40
80.0
 10
1110.488605671248
 20
940.976127843581
 30
0.0
 10
1110.735435346839
 20
940.976127843581
 30
0.0
 10
1110.934710726435
 20
940.9240444756942
 30
0.0
 10
1111.086431758204
 20
940.819877843581
 30
0.0
  0
LINE
  5
7AE3
330
1F
100
AcDbEntity
  8
AM_VIS
100
AcDbLine
 10
1109.625833932118
 20
940.976127843581
 30
0.0
 11
1110.488605671248
 21
940.976127843581
 31
0.0
  0
LINE
  5
7AE4
330
1F
100
AcDbEntity
  8
AM_VIS
100
AcDbLine
 10
1109.625833932118
 20
940.9081930609723
 30
0.0
 11
1109.625833932118
 21
940.976127843581
 31
0.0
  0
SPLINE
  5
7AE5
330
1F
100
AcDbEntity
  8
AM_VIS
100
AcDbSpline
210
0.0
220
0.0
230
1.0
 70
     8
 71
     3
 72
     8
 73
     4
 74
     0
 42
0.0000000001
 43
0.0000000001
 40
0.0
 40
0.0
 40
0.0
 40
0.0
 40
80.0
 40
80.0
 40
80.0
 40
80.0
 10
1109.883986106031
 20
940.8232745827113
 30
0.0
 10
1109.843225236466
 20
940.8640354522766
 30
0.0
 10
1109.757174477274
 20
940.8923415944203
 30
0.0
 10
1109.625833932118
 20
940.9081930609723
 30
0.0
  0
SPLINE
  5
7AE6
330
1F
100
AcDbEntity
  8
AM_VIS
100
AcDbSpline
210
0.0
220
0.0
230
1.0
 70
     8
 71
     3
 72
     8
 73
     4
 74
     0
 42
0.0000000001
 43
0.0000000001
 40
0.0
 40
0.0
 40
0.0
 40
0.0
 40
80.0
 40
80.0
 40
80.0
 40
80.0
 10
1109.948524149509
 20
940.5549321914071
 30
0.0
 10
1109.948524149509
 20
940.6908017566244
 30
0.0
 10
1109.927011433796
 20
940.7802492031159
 30
0.0
 10
1109.883986106031
 20
940.8232745827113
 30
0.0
  0
LINE
  5
7AE7
330
1F
100
AcDbEntity
  8
AM_VIS
100
AcDbLine
 10
1109.948524149509
 20
938.9686550174941
 30
0.0
 11
1109.948524149509
 21
940.5549321914071
 31
0.0
  0
SPLINE
  5
7AE8
330
1F
100
AcDbEntity
  8
AM_VIS
100
AcDbSpline
210
0.0
220
0.0
230
1.0
 70
     8
 71
     3
 72
     8
 73
     4
 74
     0
 42
0.0000000001
 43
0.0000000001
 40
0.0
 40
0.0
 40
0.0
 40
0.0
 40
80.0
 40
80.0
 40
80.0
 40
80.0
 10
1109.890779584292
 20
938.6595517566243
 30
0.0
 10
1109.929275943827
 20
938.7138995827113
 30
0.0
 10
1109.948524149509
 20
938.8169339857245
 30
0.0
 10
1109.948524149509
 20
938.9686550174941
 30
0.0
  0
SPLINE
  5
7AE9
330
1F
100
AcDbEntity
  8
AM_VIS
100
AcDbSpline
210
0.0
220
0.0
230
1.0
 70
     8
 71
     3
 72
     8
 73
     4
 74
     0
 42
0.0000000001
 43
0.0000000001
 40
0.0
 40
0.0
 40
0.0
 40
0.0
 40
80.0
 40
80.0
 40
80.0
 40
80.0
 10
1109.625833932118
 20
938.5440626261896
 30
0.0
 10
1109.759438987305
 20
938.5576495827114
 30
0.0
 10
1109.847754204696
 20
938.5961459940764
 30
0.0
 10
1109.890779584292
 20
938.6595517566243
 30
0.0
  0
LINE
  5
7AEA
330
1F
100
AcDbEntity
  8
AM_VIS
100
AcDbLine
 10
1109.625833932118
 20
938.476127843581
 30
0.0
 11
1109.625833932118
 21
938.5440626261896
 31
0.0
  0
LINE
  5
7AEB
330
1F
100
AcDbEntity
  8
AM_VIS
100
AcDbLine
 10
1110.519176323422
 20
938.476127843581
 30
0.0
 11
1109.625833932118
 21
938.476127843581
 31
0.0
  0
LINE
  5
7AEC
330
1F
100
AcDbEntity
  8
AM_VIS
100
AcDbLine
 10
1110.519176323422
 20
938.5440626261896
 30
0.0
 11
1110.519176323422
 21
938.476127843581
 31
0.0
  0
SPLINE
  5
7AED
330
1F
100
AcDbEntity
  8
AM_VIS
100
AcDbSpline
210
0.0
220
0.0
230
1.0
 70
     8
 71
     3
 72
     8
 73
     4
 74
     0
 42
0.0000000001
 43
0.0000000001
 40
0.0
 40
0.0
 40
0.0
 40
0.0
 40
80.0
 40
80.0
 40
80.0
 40
80.0
 10
1110.247437192987
 20
938.6289811044505
 30
0.0
 10
1110.294991540813
 20
938.5814268084546
 30
0.0
 10
1110.385571216405
 20
938.5531206144809
 30
0.0
 10
1110.519176323422
 20
938.5440626261896
 30
0.0
  0
SPLINE
  5
7AEE
330
1F
100
AcDbEntity
  8
AM_VIS
100
AcDbSpline
210
0.0
220
0.0
230
1.0
 70
     8
 71
     3
 72
     8
 73
     4
 74
     0
 42
0.0000000001
 43
0.0000000001
 40
0.0
 40
0.0
 40
0.0
 40
0.0
 40
80.0
 40
80.0
 40
80.0
 40
80.0
 10
1110.162518714726
 20
938.921100669668
 30
0.0
 10
1110.162518714726
 20
938.7829665944202
 30
0.0
 10
1110.19082485687
 20
938.6855933887376
 30
0.0
 10
1110.247437192987
 20
938.6289811044505
 30
0.0
  0
LINE
  5
7AEF
330
1F
100
AcDbEntity
  8
AM_VIS
100
AcDbLine
 10
1110.162518714726
 20
939.5936550174941
 30
0.0
 11
1110.162518714726
 21
938.921100669668
 31
0.0
  0
LINE
  5
7AF0
330
1F
100
AcDbEntity
  8
AM_VIS
100
AcDbLine
 10
1110.162479877907
 20
939.5916542653472
 30
0.0
 11
1110.45462123579
 21
939.5859834774583
 31
0.0
  0
SPLINE
  5
7AF1
330
1F
100
AcDbEntity
  8
AM_VIS
100
AcDbSpline
210
0.0
220
0.0
230
1.0
 70
     8
 71
     3
 72
     8
 73
     4
 74
     0
 42
0.0000000001
 43
0.0000000001
 40
0.0
 40
0.0
 40
0.0
 40
0.0
 40
80.0
 40
80.0
 40
80.0
 40
80.0
 10
1111.154366540813
 20
939.804252843581
 30
0.0
 10
1111.013967955535
 20
939.6593252900723
 30
0.0
 10
1110.780725184635
 20
939.586861539233
 30
0.0
 10
1110.454638279944
 20
939.586861539233
 30
0.0
  0
LINE
  5
7AF2
330
1F
100
AcDbEntity
  8
AM_VIS
100
AcDbLine
 10
1098.664583932133
 20
918.576127843581
 30
0.0
 11
1097.785573236946
 21
918.576127843581
 31
0.0
  0
LINE
  5
7AF3
330
1F
100
AcDbEntity
  8
AM_VIS
100
AcDbLine
 10
1098.664583932133
 20
918.6429727633671
 30
0.0
 11
1098.664583932133
 21
918.576127843581
 31
0.0
  0
SPLINE
  5
7AF4
330
1F
100
AcDbEntity
  8
AM_VIS
100
AcDbSpline
210
0.0
220
0.0
230
1.0
 70
     8
 71
     3
 72
     8
 73
     4
 74
     0
 42
0.0000000001
 43
0.0000000001
 40
0.0
 40
0.0
 40
0.0
 40
0.0
 40
80.0
 40
80.0
 40
80.0
 40
80.0
 10
1098.397204252989
 20
918.6964486991961
 30
0.0
 10
1098.450680188817
 20
918.6607981093091
 30
0.0
 10
1098.539806714533
 20
918.6429727633671
 30
0.0
 10
1098.664583932133
 20
918.6429727633671
 30
0.0
  0
SPLINE
  5
7AF5
330
1F
100
AcDbEntity
  8
AM_VIS
100
AcDbSpline
210
0.0
220
0.0
230
1.0
 70
     8
 71
     3
 72
     8
 73
     4
 74
     0
 42
0.0000000001
 43
0.0000000001
 40
0.0
 40
0.0
 40
0.0
 40
0.0
 40
80.0
 40
80.0
 40
80.0
 40
80.0
 10
1098.316990349245
 20
918.9003257045435
 30
0.0
 10
1098.316990349245
 20
918.8045146358506
 30
0.0
 10
1098.34372831716
 20
918.7365557020664
 30
0.0
 10
1098.397204252989
 20
918.6964486991961
 30
0.0
  0
LINE
  5
7AF6
330
1F
100
AcDbEntity
  8
AM_VIS
100
AcDbLine
 10
1098.316990349245
 20
921.0761278435811
 30
0.0
 11
1098.316990349245
 21
918.9003257045435
 31
0.0
  0
LINE
  5
7AF7
330
1F
100
AcDbEntity
  8
AM_VIS
100
AcDbLine
 10
1097.752150777053
 20
920.8054059184473
 30
0.0
 11
1098.316990349245
 21
921.0761278435811
 31
0.0
  0
LINE
  5
7AF8
330
1F
100
AcDbEntity
  8
AM_VIS
100
AcDbLine
 10
1097.752150777053
 20
920.7519299826184
 30
0.0
 11
1097.752150777053
 21
920.8054059184473
 31
0.0
  0
SPLINE
  5
7AF9
330
1F
100
AcDbEntity
  8
AM_VIS
100
AcDbSpline
210
0.0
220
0.0
230
1.0
 70
     8
 71
     3
 72
     8
 73
     4
 74
     0
 42
0.0000000001
 43
0.0000000001
 40
0.0
 40
0.0
 40
0.0
 40
0.0
 40
80.0
 40
80.0
 40
80.0
 40
80.0
 10
1097.992792488283
 20
920.8120904104259
 30
0.0
 10
1097.934860190469
 20
920.8120904104259
 30
0.0
 10
1097.854646286726
 20
920.79203693449
 30
0.0
 10
1097.752150777053
 20
920.7519299826184
 30
0.0
  0
SPLINE
  5
7AFA
330
1F
100
AcDbEntity
  8
AM_VIS
100
AcDbSpline
210
0.0
220
0.0
230
1.0
 70
     8
 71
     3
 72
     8
 73
     4
 74
     0
 42
0.0000000001
 43
0.0000000001
 40
0.0
 40
0.0
 40
0.0
 40
0.0
 40
80.0
 40
80.0
 40
80.0
 40
80.0
 10
1098.129824573844
 20
920.6215823890355
 30
0.0
 10
1098.129824573844
 20
920.7485877366291
 30
0.0
 10
1098.084147194991
 20
920.8120904104259
 30
0.0
 10
1097.992792488283
 20
920.8120904104259
 30
0.0
  0
LINE
  5
7AFB
330
1F
100
AcDbEntity
  8
AM_VIS
100
AcDbLine
 10
1098.129824573844
 20
918.9638283783404
 30
0.0
 11
1098.129824573844
 21
920.6215823890355
 31
0.0
  0
SPLINE
  5
7AFC
330
1F
100
AcDbEntity
  8
AM_VIS
100
AcDbSpline
210
0.0
220
0.0
230
1.0
 70
     8
 71
     3
 72
     8
 73
     4
 74
     0
 42
0.0000000001
 43
0.0000000001
 40
0.0
 40
0.0
 40
0.0
 40
0.0
 40
80.0
 40
80.0
 40
80.0
 40
80.0
 10
1098.029557194165
 20
918.6964486991961
 30
0.0
 10
1098.096402113951
 20
918.743240194045
 30
0.0
 10
1098.129824573844
 20
918.8323666687621
 30
0.0
 10
1098.129824573844
 20
918.9638283783404
 30
0.0
  0
SPLINE
  5
7AFD
330
1F
100
AcDbEntity
  8
AM_VIS
100
AcDbSpline
210
0.0
220
0.0
230
1.0
 70
     8
 71
     3
 72
     8
 73
     4
 74
     0
 42
0.0000000001
 43
0.0000000001
 40
0.0
 40
0.0
 40
0.0
 40
0.0
 40
80.0
 40
80.0
 40
80.0
 40
80.0
 10
1097.785573236946
 20
918.6429727633671
 30
0.0
 10
1097.903665911569
 20
918.6474291253519
 30
0.0
 10
1097.984993880309
 20
918.6652544202953
 30
0.0
 10
1098.029557194165
 20
918.6964486991961
 30
0.0
  0
LINE
  5
7AFE
330
1F
100
AcDbEntity
  8
AM_VIS
100
AcDbLine
 10
1097.785573236946
 20
918.576127843581
 30
0.0
 11
1097.785573236946
 21
918.6429727633671
 31
0.0
  0
SPLINE
  5
7AFF
330
1F
100
AcDbEntity
  8
AM_VIS
100
AcDbSpline
210
0.0
220
0.0
230
1.0
 70
     8
 71
     3
 72
     8
 73
     4
 74
     0
 42
0.0000000001
 43
0.0000000001
 40
0.0
 40
0.0
 40
0.0
 40
0.0
 40
80.0
 40
80.0
 40
80.0
 40
80.0
 10
1096.771201579192
 20
920.3976519077521
 30
0.0
 10
1096.771201528193
 20
920.629380946011
 30
0.0
 10
1096.66870601852
 20
920.7842383265159
 30
0.0
 10
1096.463714948176
 20
920.8622241002656
 30
0.0
  0
SPLINE
  5
7B00
330
1F
100
AcDbEntity
  8
AM_VIS
100
AcDbSpline
210
0.0
220
0.0
230
1.0
 70
     8
 71
     3
 72
     8
 73
     4
 74
     0
 42
0.0000000001
 43
0.0000000001
 40
0.0
 40
0.0
 40
0.0
 40
0.0
 40
80.0
 40
80.0
 40
80.0
 40
80.0
 10
1096.420265750315
 20
919.9163684852921
 30
0.0
 10
1096.654222918568
 20
919.9988105190293
 30
0.0
 10
1096.771201528193
 20
920.1592383265159
 30
0.0
 10
1096.771201579192
 20
920.3976519077521
 30
0.0
  0
SPLINE
  5
7B01
330
1F
100
AcDbEntity
  8
AM_VIS
100
AcDbSpline
210
0.0
220
0.0
230
1.0
 70
     8
 71
     3
 72
     8
 73
     4
 74
     0
 42
0.0000000001
 43
0.0000000001
 40
0.0
 40
0.0
 40
0.0
 40
0.0
 40
80.0
 40
80.0
 40
80.0
 40
80.0
 10
1095.838714948176
 20
919.8461813195168
 30
0.0
 10
1096.103866446328
 20
919.8484094495107
 30
0.0
 10
1096.297716713707
 20
919.8718051714358
 30
0.0
 10
1096.420265750315
 20
919.9163684852921
 30
0.0
  0
LINE
  5
7B02
330
1F
100
AcDbEntity
  8
AM_VIS
100
AcDbLine
 10
1095.838714948176
 20
920.7619567205863
 30
0.0
 11
1095.838714948176
 21
919.8461813195168
 31
0.0
  0
SPLINE
  5
7B03
330
1F
100
AcDbEntity
  8
AM_VIS
100
AcDbSpline
210
0.0
220
0.0
230
1.0
 70
     8
 71
     3
 72
     8
 73
     4
 74
     0
 42
0.0000000001
 43
0.0000000001
 40
0.0
 40
0.0
 40
0.0
 40
0.0
 40
80.0
 40
80.0
 40
80.0
 40
80.0
 10
1095.892190884005
 20
920.8989888061479
 30
0.0
 10
1095.856540243119
 20
920.8767071492195
 30
0.0
 10
1095.838714948176
 20
920.8310297703663
 30
0.0
 10
1095.838714948176
 20
920.7619567205863
 30
0.0
  0
SPLINE
  5
7B04
330
1F
100
AcDbEntity
  8
AM_VIS
100
AcDbSpline
210
0.0
220
0.0
230
1.0
 70
     8
 71
     3
 72
     8
 73
     4
 74
     0
 42
0.0000000001
 43
0.0000000001
 40
0.0
 40
0.0
 40
0.0
 40
0.0
 40
80.0
 40
80.0
 40
80.0
 40
80.0
 10
1096.05930318347
 20
920.922384528073
 30
0.0
 10
1095.970176606755
 20
920.9179281660881
 30
0.0
 10
1095.914472489934
 20
920.9101296091127
 30
0.0
 10
1095.892190884005
 20
920.8989888061479
 30
0.0
  0
SPLINE
  5
7B05
330
1F
100
AcDbEntity
  8
AM_VIS
100
AcDbSpline
210
0.0
220
0.0
230
1.0
 70
     8
 71
     3
 72
     8
 73
     4
 74
     0
 42
0.0000000001
 43
0.0000000001
 40
0.0
 40
0.0
 40
0.0
 40
0.0
 40
80.0
 40
80.0
 40
80.0
 40
80.0
 10
1096.463714948176
 20
920.8622241002656
 30
0.0
 10
1096.347850403547
 20
920.9112436741095
 30
0.0
 10
1096.213046498978
 20
920.9312971500454
 30
0.0
 10
1096.05930318347
 20
920.922384528073
 30
0.0
  0
LINE
  5
7B06
330
1F
100
AcDbEntity
  8
AM_VIS
100
AcDbLine
 10
1097.372805857267
 20
918.576127843581
 30
0.0
 11
1096.911575910743
 21
918.576127843581
 31
0.0
  0
LINE
  5
7B07
330
1F
100
AcDbEntity
  8
AM_VIS
100
AcDbLine
 10
1097.372805857267
 20
918.6429727633671
 30
0.0
 11
1097.372805857267
 21
918.576127843581
 31
0.0
  0
SPLINE
  5
7B08
330
1F
100
AcDbEntity
  8
AM_VIS
100
AcDbSpline
210
0.0
220
0.0
230
1.0
 70
     8
 71
     3
 72
     8
 73
     4
 74
     0
 42
0.0000000001
 43
0.0000000001
 40
0.0
 40
0.0
 40
0.0
 40
0.0
 40
80.0
 40
80.0
 40
80.0
 40
80.0
 10
1097.058634734272
 20
918.7766626029393
 30
0.0
 10
1097.10319799713
 20
918.7075895531593
 30
0.0
 10
1097.207921687795
 20
918.6630262393029
 30
0.0
 10
1097.372805857267
 20
918.6429727633671
 30
0.0
  0
LINE
  5
7B09
330
1F
100
AcDbEntity
  8
AM_VIS
100
AcDbLine
 10
1096.383501044432
 20
919.7793363997307
 30
0.0
 11
1097.058634734272
 21
918.7766626029393
 31
0.0
  0
SPLINE
  5
7B0A
330
1F
100
AcDbEntity
  8
AM_VIS
100
AcDbSpline
210
0.0
220
0.0
230
1.0
 70
     8
 71
     3
 72
     8
 73
     4
 74
     0
 42
0.0000000001
 43
0.0000000001
 40
0.0
 40
0.0
 40
0.0
 40
0.0
 40
80.0
 40
80.0
 40
80.0
 40
80.0
 10
1096.767859333202
 20
919.9163684852921
 30
0.0
 10
1096.678732756488
 20
919.8562080574847
 30
0.0
 10
1096.550613343898
 20
919.8105306786313
 30
0.0
 10
1096.383501044432
 20
919.7793363997307
 30
0.0
  0
SPLINE
  5
7B0B
330
1F
100
AcDbEntity
  8
AM_VIS
100
AcDbSpline
210
0.0
220
0.0
230
1.0
 70
     8
 71
     3
 72
     8
 73
     4
 74
     0
 42
0.0000000001
 43
0.0000000001
 40
0.0
 40
0.0
 40
0.0
 40
0.0
 40
80.0
 40
80.0
 40
80.0
 40
80.0
 10
1097.005158798443
 20
920.3909674157735
 30
0.0
 10
1097.005158798443
 20
920.1792918024517
 30
0.0
 10
1096.926058959697
 20
920.0210921759575
 30
0.0
 10
1096.767859333202
 20
919.9163684852921
 30
0.0
  0
SPLINE
  5
7B0C
330
1F
100
AcDbEntity
  8
AM_VIS
100
AcDbSpline
210
0.0
220
0.0
230
1.0
 70
     8
 71
     3
 72
     8
 73
     4
 74
     0
 42
0.0000000001
 43
0.0000000001
 40
0.0
 40
0.0
 40
0.0
 40
0.0
 40
80.0
 40
80.0
 40
80.0
 40
80.0
 10
1096.707698905395
 20
920.9290690200516
 30
0.0
 10
1096.906005483761
 20
920.8221171483939
 30
0.0
 10
1097.005158798443
 20
920.6427499299683
 30
0.0
 10
1097.005158798443
 20
920.3909674157735
 30
0.0
  0
SPLINE
  5
7B0D
330
1F
100
AcDbEntity
  8
AM_VIS
100
AcDbSpline
210
0.0
220
0.0
230
1.0
 70
     8
 71
     3
 72
     8
 73
     4
 74
     0
 42
0.0000000001
 43
0.0000000001
 40
0.0
 40
0.0
 40
0.0
 40
0.0
 40
80.0
 40
80.0
 40
80.0
 40
80.0
 10
1096.196335269032
 20
921.0360208917093
 30
0.0
 10
1096.403554520368
 20
921.0360208917093
 30
0.0
 10
1096.574009065823
 20
921.0003702508238
 30
0.0
 10
1096.707698905395
 20
920.9290690200516
 30
0.0
  0
LINE
  5
7B0E
330
1F
100
AcDbEntity
  8
AM_VIS
100
AcDbLine
 10
1095.307297835876
 20
921.0360208917093
 30
0.0
 11
1096.196335269032
 21
921.0360208917093
 31
0.0
  0
LINE
  5
7B0F
330
1F
100
AcDbEntity
  8
AM_VIS
100
AcDbLine
 10
1095.307297835876
 20
920.9691759719232
 30
0.0
 11
1095.307297835876
 21
921.0360208917093
 31
0.0
  0
SPLINE
  5
7B10
330
1F
100
AcDbEntity
  8
AM_VIS
100
AcDbSpline
210
0.0
220
0.0
230
1.0
 70
     8
 71
     3
 72
     8
 73
     4
 74
     0
 42
0.0000000001
 43
0.0000000001
 40
0.0
 40
0.0
 40
0.0
 40
0.0
 40
80.0
 40
80.0
 40
80.0
 40
80.0
 10
1095.554624039085
 20
920.8822775762014
 30
0.0
 10
1095.514517087213
 20
920.9268408390592
 30
0.0
 10
1095.432075002477
 20
920.955806987966
 30
0.0
 10
1095.307297835876
 20
920.9691759719232
 30
0.0
  0
SPLINE
  5
7B11
330
1F
100
AcDbEntity
  8
AM_VIS
100
AcDbSpline
210
0.0
220
0.0
230
1.0
 70
     8
 71
     3
 72
     8
 73
     4
 74
     0
 42
0.0000000001
 43
0.0000000001
 40
0.0
 40
0.0
 40
0.0
 40
0.0
 40
80.0
 40
80.0
 40
80.0
 40
80.0
 10
1095.628153450849
 20
920.5915021751318
 30
0.0
 10
1095.628153399851
 20
920.7318765066826
 30
0.0
 10
1095.603643612929
 20
920.8288016403725
 30
0.0
 10
1095.554624039085
 20
920.8822775762014
 30
0.0
  0
LINE
  5
7B12
330
1F
100
AcDbEntity
  8
AM_VIS
100
AcDbLine
 10
1095.628153450849
 20
919.0607535120301
 30
0.0
 11
1095.628153450849
 21
920.5915021751318
 31
0.0
  0
SPLINE
  5
7B13
330
1F
100
AcDbEntity
  8
AM_VIS
100
AcDbSpline
210
0.0
220
0.0
230
1.0
 70
     8
 71
     3
 72
     8
 73
     4
 74
     0
 42
0.0000000001
 43
0.0000000001
 40
0.0
 40
0.0
 40
0.0
 40
0.0
 40
80.0
 40
80.0
 40
80.0
 40
80.0
 10
1095.564650777053
 20
918.7499246350249
 30
0.0
 10
1095.606985858918
 20
918.8056287008475
 30
0.0
 10
1095.628153399851
 20
918.909238326516
 30
0.0
 10
1095.628153450849
 20
919.0607535120301
 30
0.0
  0
SPLINE
  5
7B14
330
1F
100
AcDbEntity
  8
AM_VIS
100
AcDbSpline
210
0.0
220
0.0
230
1.0
 70
     8
 71
     3
 72
     8
 73
     4
 74
     0
 42
0.0000000001
 43
0.0000000001
 40
0.0
 40
0.0
 40
0.0
 40
0.0
 40
80.0
 40
80.0
 40
80.0
 40
80.0
 10
1095.307297835876
 20
918.6429727633671
 30
0.0
 10
1095.436531313463
 20
918.6563417473243
 30
0.0
 10
1095.522315644189
 20
918.6919923882097
 30
0.0
 10
1095.564650777053
 20
918.7499246350249
 30
0.0
  0
LINE
  5
7B15
330
1F
100
AcDbEntity
  8
AM_VIS
100
AcDbLine
 10
1095.307297835876
 20
918.576127843581
 30
0.0
 11
1095.307297835876
 21
918.6429727633671
 31
0.0
  0
LINE
  5
7B16
330
1F
100
AcDbEntity
  8
AM_VIS
100
AcDbLine
 10
1096.176281793096
 20
918.576127843581
 30
0.0
 11
1095.307297835876
 21
918.576127843581
 31
0.0
  0
LINE
  5
7B17
330
1F
100
AcDbEntity
  8
AM_VIS
100
AcDbLine
 10
1096.176281793096
 20
918.6429727633671
 30
0.0
 11
1096.176281793096
 21
918.576127843581
 31
0.0
  0
SPLINE
  5
7B18
330
1F
100
AcDbEntity
  8
AM_VIS
100
AcDbSpline
210
0.0
220
0.0
230
1.0
 70
     8
 71
     3
 72
     8
 73
     4
 74
     0
 42
0.0000000001
 43
0.0000000001
 40
0.0
 40
0.0
 40
0.0
 40
0.0
 40
80.0
 40
80.0
 40
80.0
 40
80.0
 10
1095.91224435994
 20
918.7365556510677
 30
0.0
 10
1095.959035752792
 20
918.6853078962311
 30
0.0
 10
1096.047048264509
 20
918.6541136173305
 30
0.0
 10
1096.176281793096
 20
918.6429727633671
 30
0.0
  0
SPLINE
  5
7B19
330
1F
100
AcDbEntity
  8
AM_VIS
100
AcDbSpline
210
0.0
220
0.0
230
1.0
 70
     8
 71
     3
 72
     8
 73
     4
 74
     0
 42
0.0000000001
 43
0.0000000001
 40
0.0
 40
0.0
 40
0.0
 40
0.0
 40
80.0
 40
80.0
 40
80.0
 40
80.0
 10
1095.838714948176
 20
919.0139620681799
 30
0.0
 10
1095.838714948176
 20
918.8825003586016
 30
0.0
 10
1095.863224735098
 20
918.7900315868965
 30
0.0
 10
1095.91224435994
 20
918.7365556510677
 30
0.0
  0
LINE
  5
7B1A
330
1F
100
AcDbEntity
  8
AM_VIS
100
AcDbLine
 10
1095.838714948176
 20
919.7292027098912
 30
0.0
 11
1095.838714948176
 21
919.0139620681799
 31
0.0
  0
LINE
  5
7B1B
330
1F
100
AcDbEntity
  8
AM_VIS
100
AcDbLine
 10
1096.119463611277
 20
919.7425716938484
 30
0.0
 11
1095.838714948176
 21
919.7292027098912
 31
0.0
  0
LINE
  5
7B1C
330
1F
100
AcDbEntity
  8
AM_VIS
100
AcDbLine
 10
1096.911575910743
 20
918.576127843581
 30
0.0
 11
1096.119463611277
 21
919.7425716938484
 31
0.0
  0
LINE
  5
7B1D
330
1F
100
AcDbEntity
  8
AM_VIS
100
AcDbLine
 10
1135.789583932082
 20
919.0621464853919
 30
0.0
 11
1135.616481402122
 21
918.5761278435808
 31
0.0
  0
LINE
  5
7B1E
330
1F
100
AcDbEntity
  8
AM_VIS
100
AcDbLine
 10
1135.723006035944
 20
919.0621464853919
 30
0.0
 11
1135.789583932082
 21
919.0621464853919
 31
0.0
  0
SPLINE
  5
7B1F
330
1F
100
AcDbEntity
  8
AM_VIS
100
AcDbSpline
210
0.0
220
0.0
230
1.0
 70
     8
 71
     3
 72
     8
 73
     4
 74
     0
 42
0.0000000001
 43
0.0000000001
 40
0.0
 40
0.0
 40
0.0
 40
0.0
 40
80.0
 40
80.0
 40
80.0
 40
80.0
 10
1135.569876874825
 20
918.8224660592933
 30
0.0
 10
1135.607604332372
 20
918.8557549565677
 30
0.0
 10
1135.658647369147
 20
918.9356484827287
 30
0.0
 10
1135.723006035944
 20
919.0621464853919
 30
0.0
  0
SPLINE
  5
7B20
330
1F
100
AcDbEntity
  8
AM_VIS
100
AcDbSpline
210
0.0
220
0.0
230
1.0
 70
     8
 71
     3
 72
     8
 73
     4
 74
     0
 42
0.0000000001
 43
0.0000000001
 40
0.0
 40
0.0
 40
0.0
 40
0.0
 40
80.0
 40
80.0
 40
80.0
 40
80.0
 10
1135.400103239672
 20
918.7592170579618
 30
0.0
 10
1135.473338925425
 20
918.7592170579618
 30
0.0
 10
1135.529930137142
 20
918.780300041474
 30
0.0
 10
1135.569876874825
 20
918.8224660592933
 30
0.0
  0
LINE
  5
7B21
330
1F
100
AcDbEntity
  8
AM_VIS
100
AcDbLine
 10
1134.654430802921
 20
918.7592170579618
 30
0.0
 11
1135.400103239672
 21
918.7592170579618
 31
0.0
  0
LINE
  5
7B22
330
1F
100
AcDbEntity
  8
AM_VIS
100
AcDbLine
 10
1135.276934131816
 20
919.5182050739404
 30
0.0
 11
1134.654430802921
 21
918.7592170579618
 31
0.0
  0
SPLINE
  5
7B23
330
1F
100
AcDbEntity
  8
AM_VIS
100
AcDbSpline
210
0.0
220
0.0
230
1.0
 70
     8
 71
     3
 72
     8
 73
     4
 74
     0
 42
0.0000000001
 43
0.0000000001
 40
0.0
 40
0.0
 40
0.0
 40
0.0
 40
80.0
 40
80.0
 40
80.0
 40
80.0
 10
1135.626468086543
 20
920.41700667181
 30
0.0
 10
1135.626468086543
 20
920.0996519996866
 30
0.0
 10
1135.5099567683
 20
919.8000514670635
 30
0.0
 10
1135.276934131816
 20
919.5182050739404
 30
0.0
  0
SPLINE
  5
7B24
330
1F
100
AcDbEntity
  8
AM_VIS
100
AcDbSpline
210
0.0
220
0.0
230
1.0
 70
     8
 71
     3
 72
     8
 73
     4
 74
     0
 42
0.0000000001
 43
0.0000000001
 40
0.0
 40
0.0
 40
0.0
 40
0.0
 40
80.0
 40
80.0
 40
80.0
 40
80.0
 10
1135.446707766969
 20
920.9030253136209
 30
0.0
 10
1135.566547980018
 20
920.7743080308215
 30
0.0
 10
1135.626468086543
 20
920.612301799953
 30
0.0
 10
1135.626468086543
 20
920.41700667181
 30
0.0
  0
SPLINE
  5
7B25
330
1F
100
AcDbEntity
  8
AM_VIS
100
AcDbSpline
210
0.0
220
0.0
230
1.0
 70
     8
 71
     3
 72
     8
 73
     4
 74
     0
 42
0.0000000001
 43
0.0000000001
 40
0.0
 40
0.0
 40
0.0
 40
0.0
 40
80.0
 40
80.0
 40
80.0
 40
80.0
 10
1135.043911495331
 20
921.0761278435809
 30
0.0
 10
1135.201479165927
 20
921.0761278435809
 30
0.0
 10
1135.335744572875
 20
921.0184269663976
 30
0.0
 10
1135.446707766969
 20
920.9030253136209
 30
0.0
  0
SPLINE
  5
7B26
330
1F
100
AcDbEntity
  8
AM_VIS
100
AcDbSpline
210
0.0
220
0.0
230
1.0
 70
     8
 71
     3
 72
     8
 73
     4
 74
     0
 42
0.0000000001
 43
0.0000000001
 40
0.0
 40
0.0
 40
0.0
 40
0.0
 40
80.0
 40
80.0
 40
80.0
 40
80.0
 10
1134.6444441185
 20
920.9229986824624
 30
0.0
 10
1134.757626541936
 20
921.0250847560116
 30
0.0
 10
1134.890782334213
 20
921.0761278435809
 30
0.0
 10
1135.043911495331
 20
921.0761278435809
 30
0.0
  0
SPLINE
  5
7B27
330
1F
100
AcDbEntity
  8
AM_VIS
100
AcDbSpline
210
0.0
220
0.0
230
1.0
 70
     8
 71
     3
 72
     8
 73
     4
 74
     0
 42
0.0000000001
 43
0.0000000001
 40
0.0
 40
0.0
 40
0.0
 40
0.0
 40
80.0
 40
80.0
 40
80.0
 40
80.0
 10
1134.374803639139
 20
920.3604154600922
 30
0.0
 10
1134.4191888863
 20
920.6134114654185
 30
0.0
 10
1134.509069046087
 20
920.8009391892769
 30
0.0
 10
1134.6444441185
 20
920.9229986824624
 30
0.0
  0
LINE
  5
7B28
330
1F
100
AcDbEntity
  8
AM_VIS
100
AcDbLine
 10
1134.441381535278
 20
920.3504287756715
 30
0.0
 11
1134.374803639139
 21
920.3604154600922
 31
0.0
  0
SPLINE
  5
7B29
330
1F
100
AcDbEntity
  8
AM_VIS
100
AcDbSpline
210
0.0
220
0.0
230
1.0
 70
     8
 71
     3
 72
     8
 73
     4
 74
     0
 42
0.0000000001
 43
0.0000000001
 40
0.0
 40
0.0
 40
0.0
 40
0.0
 40
80.0
 40
80.0
 40
80.0
 40
80.0
 10
1134.587852906783
 20
920.7032916252055
 30
0.0
 10
1134.561221748327
 20
920.6589063272499
 30
0.0
 10
1134.512397940894
 20
920.541285394337
 30
0.0
 10
1134.441381535278
 20
920.3504287756715
 30
0.0
  0
SPLINE
  5
7B2A
330
1F
100
AcDbEntity
  8
AM_VIS
100
AcDbSpline
210
0.0
220
0.0
230
1.0
 70
     8
 71
     3
 72
     8
 73
     4
 74
     0
 42
0.0000000001
 43
0.0000000001
 40
0.0
 40
0.0
 40
0.0
 40
0.0
 40
80.0
 40
80.0
 40
80.0
 40
80.0
 10
1134.900769018633
 20
920.8996964188139
 30
0.0
 10
1134.772051735834
 20
920.8996964188139
 30
0.0
 10
1134.667746382149
 20
920.8342281373461
 30
0.0
 10
1134.587852906783
 20
920.7032916252055
 30
0.0
  0
SPLINE
  5
7B2B
330
1F
100
AcDbEntity
  8
AM_VIS
100
AcDbSpline
210
0.0
220
0.0
230
1.0
 70
     8
 71
     3
 72
     8
 73
     4
 74
     0
 42
0.0000000001
 43
0.0000000001
 40
0.0
 40
0.0
 40
0.0
 40
0.0
 40
80.0
 40
80.0
 40
80.0
 40
80.0
 10
1135.320209764306
 20
920.67666046675
 30
0.0
 10
1135.222562149439
 20
920.8253510675961
 30
0.0
 10
1135.082748567548
 20
920.8996964188139
 30
0.0
 10
1134.900769018633
 20
920.8996964188139
 30
0.0
  0
SPLINE
  5
7B2C
330
1F
100
AcDbEntity
  8
AM_VIS
100
AcDbSpline
210
0.0
220
0.0
230
1.0
 70
     8
 71
     3
 72
     8
 73
     4
 74
     0
 42
0.0000000001
 43
0.0000000001
 40
0.0
 40
0.0
 40
0.0
 40
0.0
 40
80.0
 40
80.0
 40
80.0
 40
80.0
 10
1135.430063292934
 20
920.28717977434
 30
0.0
 10
1135.43894031189
 20
920.4269933562308
 30
0.0
 10
1135.402322469013
 20
920.5568202537008
 30
0.0
 10
1135.320209764306
 20
920.67666046675
 30
0.0
  0
SPLINE
  5
7B2D
330
1F
100
AcDbEntity
  8
AM_VIS
100
AcDbSpline
210
0.0
220
0.0
230
1.0
 70
     8
 71
     3
 72
     8
 73
     4
 74
     0
 42
0.0000000001
 43
0.0000000001
 40
0.0
 40
0.0
 40
0.0
 40
0.0
 40
80.0
 40
80.0
 40
80.0
 40
80.0
 10
1134.944044651123
 20
919.2984980166835
 30
0.0
 10
1135.250302973361
 20
919.6735534644004
 30
0.0
 10
1135.412309153434
 20
920.0031140502858
 30
0.0
 10
1135.430063292934
 20
920.28717977434
 30
0.0
  0
LINE
  5
7B2E
330
1F
100
AcDbEntity
  8
AM_VIS
100
AcDbLine
 10
1134.364816954719
 20
918.5927723176156
 30
0.0
 11
1134.944044651123
 21
919.2984980166835
 31
0.0
  0
LINE
  5
7B2F
330
1F
100
AcDbEntity
  8
AM_VIS
100
AcDbLine
 10
1134.364816954719
 20
918.5761278435808
 30
0.0
 11
1134.364816954719
 21
918.5927723176156
 31
0.0
  0
LINE
  5
7B30
330
1F
100
AcDbEntity
  8
AM_VIS
100
AcDbLine
 10
1135.616481402122
 20
918.5761278435808
 30
0.0
 11
1134.364816954719
 21
918.5761278435808
 31
0.0
  0
SPLINE
  5
7B31
330
1F
100
AcDbEntity
  8
AM_VIS
100
AcDbSpline
210
0.0
220
0.0
230
1.0
 70
     8
 71
     3
 72
     8
 73
     4
 74
     0
 42
0.0000000001
 43
0.0000000001
 40
0.0
 40
0.0
 40
0.0
 40
0.0
 40
80.0
 40
80.0
 40
80.0
 40
80.0
 10
1133.640782334213
 20
920.3903755133545
 30
0.0
 10
1133.640782283418
 20
920.621178869703
 30
0.0
 10
1133.538696209869
 20
920.7754176454923
 30
0.0
 10
1133.334524011976
 20
920.8530918915171
 30
0.0
  0
SPLINE
  5
7B32
330
1F
100
AcDbEntity
  8
AM_VIS
100
AcDbSpline
210
0.0
220
0.0
230
1.0
 70
     8
 71
     3
 72
     8
 73
     4
 74
     0
 42
0.0000000001
 43
0.0000000001
 40
0.0
 40
0.0
 40
0.0
 40
0.0
 40
80.0
 40
80.0
 40
80.0
 40
80.0
 10
1133.291248379486
 20
919.9110146611575
 30
0.0
 10
1133.524270965176
 20
919.993127365865
 30
0.0
 10
1133.640782283418
 20
920.1529143165974
 30
0.0
 10
1133.640782334213
 20
920.3903755133545
 30
0.0
  0
SPLINE
  5
7B33
330
1F
100
AcDbEntity
  8
AM_VIS
100
AcDbSpline
210
0.0
220
0.0
230
1.0
 70
     8
 71
     3
 72
     8
 73
     4
 74
     0
 42
0.0000000001
 43
0.0000000001
 40
0.0
 40
0.0
 40
0.0
 40
0.0
 40
80.0
 40
80.0
 40
80.0
 40
80.0
 10
1132.712020683081
 20
919.841107870212
 30
0.0
 10
1132.976112987498
 20
919.8433270995534
 30
0.0
 10
1133.1691888863
 20
919.8666293632019
 30
0.0
 10
1133.291248379486
 20
919.9110146611575
 30
0.0
  0
LINE
  5
7B34
330
1F
100
AcDbEntity
  8
AM_VIS
100
AcDbLine
 10
1132.712020683081
 20
920.7532250473093
 30
0.0
 11
1132.712020683081
 21
919.841107870212
 31
0.0
  0
SPLINE
  5
7B35
330
1F
100
AcDbEntity
  8
AM_VIS
100
AcDbSpline
210
0.0
220
0.0
230
1.0
 70
     8
 71
     3
 72
     8
 73
     4
 74
     0
 42
0.0000000001
 43
0.0000000001
 40
0.0
 40
0.0
 40
0.0
 40
0.0
 40
80.0
 40
80.0
 40
80.0
 40
80.0
 10
1132.765282999992
 20
920.8897097343932
 30
0.0
 10
1132.729774771786
 20
920.8675170854155
 30
0.0
 10
1132.712020683081
 20
920.8220221727891
 30
0.0
 10
1132.712020683081
 20
920.7532250473093
 30
0.0
  0
SPLINE
  5
7B36
330
1F
100
AcDbEntity
  8
AM_VIS
100
AcDbSpline
210
0.0
220
0.0
230
1.0
 70
     8
 71
     3
 72
     8
 73
     4
 74
     0
 42
0.0000000001
 43
0.0000000001
 40
0.0
 40
0.0
 40
0.0
 40
0.0
 40
80.0
 40
80.0
 40
80.0
 40
80.0
 10
1132.931727740338
 20
920.9130119980416
 30
0.0
 10
1132.842957195221
 20
920.9085734377692
 30
0.0
 10
1132.787475598175
 20
920.9008060334847
 30
0.0
 10
1132.765282999992
 20
920.8897097343932
 30
0.0
  0
SPLINE
  5
7B37
330
1F
100
AcDbEntity
  8
AM_VIS
100
AcDbSpline
210
0.0
220
0.0
230
1.0
 70
     8
 71
     3
 72
     8
 73
     4
 74
     0
 42
0.0000000001
 43
0.0000000001
 40
0.0
 40
0.0
 40
0.0
 40
0.0
 40
80.0
 40
80.0
 40
80.0
 40
80.0
 10
1133.334524011976
 20
920.8530918915171
 30
0.0
 10
1133.219122308404
 20
920.9019156481552
 30
0.0
 10
1133.084856901456
 20
920.9218890169969
 30
0.0
 10
1132.931727740338
 20
920.9130119980416
 30
0.0
  0
LINE
  5
7B38
330
1F
100
AcDbEntity
  8
AM_VIS
100
AcDbLine
 10
1134.239983399459
 20
918.5761278435808
 30
0.0
 11
1133.780595916104
 21
918.5761278435808
 31
0.0
  0
LINE
  5
7B39
330
1F
100
AcDbEntity
  8
AM_VIS
100
AcDbLine
 10
1134.239983399459
 20
918.6427057397194
 30
0.0
 11
1134.239983399459
 21
918.5761278435808
 31
0.0
  0
SPLINE
  5
7B3A
330
1F
100
AcDbEntity
  8
AM_VIS
100
AcDbSpline
210
0.0
220
0.0
230
1.0
 70
     8
 71
     3
 72
     8
 73
     4
 74
     0
 42
0.0000000001
 43
0.0000000001
 40
0.0
 40
0.0
 40
0.0
 40
0.0
 40
80.0
 40
80.0
 40
80.0
 40
80.0
 10
1133.927067287608
 20
918.7758615319964
 30
0.0
 10
1133.971452534769
 20
918.7070644065165
 30
0.0
 10
1134.075757888454
 20
918.6626791085609
 30
0.0
 10
1134.239983399459
 20
918.6427057397194
 30
0.0
  0
LINE
  5
7B3B
330
1F
100
AcDbEntity
  8
AM_VIS
100
AcDbLine
 10
1133.25463053661
 20
919.7745299740736
 30
0.0
 11
1133.927067287608
 21
918.7758615319964
 31
0.0
  0
SPLINE
  5
7B3C
330
1F
100
AcDbEntity
  8
AM_VIS
100
AcDbSpline
210
0.0
220
0.0
230
1.0
 70
     8
 71
     3
 72
     8
 73
     4
 74
     0
 42
0.0000000001
 43
0.0000000001
 40
0.0
 40
0.0
 40
0.0
 40
0.0
 40
80.0
 40
80.0
 40
80.0
 40
80.0
 10
1133.637453439406
 20
919.9110146611575
 30
0.0
 10
1133.548682894289
 20
919.8510945546329
 30
0.0
 10
1133.421075276956
 20
919.8055996420066
 30
0.0
 10
1133.25463053661
 20
919.7745299740736
 30
0.0
  0
SPLINE
  5
7B3D
330
1F
100
AcDbEntity
  8
AM_VIS
100
AcDbSpline
210
0.0
220
0.0
230
1.0
 70
     8
 71
     3
 72
     8
 73
     4
 74
     0
 42
0.0000000001
 43
0.0000000001
 40
0.0
 40
0.0
 40
0.0
 40
0.0
 40
80.0
 40
80.0
 40
80.0
 40
80.0
 10
1133.873804970697
 20
920.3837177237408
 30
0.0
 10
1133.873804970697
 20
920.1728876854389
 30
0.0
 10
1133.795021110002
 20
920.0153200148427
 30
0.0
 10
1133.637453439406
 20
919.9110146611575
 30
0.0
  0
SPLINE
  5
7B3E
330
1F
100
AcDbEntity
  8
AM_VIS
100
AcDbSpline
210
0.0
220
0.0
230
1.0
 70
     8
 71
     3
 72
     8
 73
     4
 74
     0
 42
0.0000000001
 43
0.0000000001
 40
0.0
 40
0.0
 40
0.0
 40
0.0
 40
80.0
 40
80.0
 40
80.0
 40
80.0
 10
1133.577533332881
 20
920.9196697876555
 30
0.0
 10
1133.77504774116
 20
920.8131451538339
 30
0.0
 10
1133.873804970697
 20
920.6344944489307
 30
0.0
 10
1133.873804970697
 20
920.3837177237408
 30
0.0
  0
SPLINE
  5
7B3F
330
1F
100
AcDbEntity
  8
AM_VIS
100
AcDbSpline
210
0.0
220
0.0
230
1.0
 70
     8
 71
     3
 72
     8
 73
     4
 74
     0
 42
0.0000000001
 43
0.0000000001
 40
0.0
 40
0.0
 40
0.0
 40
0.0
 40
80.0
 40
80.0
 40
80.0
 40
80.0
 10
1133.068212427422
 20
921.0261944214771
 30
0.0
 10
1133.274603905451
 20
921.0261944214771
 30
0.0
 10
1133.444377540604
 20
920.9906861932715
 30
0.0
 10
1133.577533332881
 20
920.9196697876555
 30
0.0
  0
LINE
  5
7B40
330
1F
100
AcDbEntity
  8
AM_VIS
100
AcDbLine
 10
1132.18272640878
 20
921.0261944214771
 30
0.0
 11
1133.068212427422
 21
921.0261944214771
 31
0.0
  0
LINE
  5
7B41
330
1F
100
AcDbEntity
  8
AM_VIS
100
AcDbLine
 10
1132.18272640878
 20
920.9596165253387
 30
0.0
 11
1132.18272640878
 21
921.0261944214771
 31
0.0
  0
SPLINE
  5
7B42
330
1F
100
AcDbEntity
  8
AM_VIS
100
AcDbSpline
210
0.0
220
0.0
230
1.0
 70
     8
 71
     3
 72
     8
 73
     4
 74
     0
 42
0.0000000001
 43
0.0000000001
 40
0.0
 40
0.0
 40
0.0
 40
0.0
 40
80.0
 40
80.0
 40
80.0
 40
80.0
 10
1132.429064624492
 20
920.8730652603586
 30
0.0
 10
1132.389117886809
 20
920.9174505075193
 30
0.0
 10
1132.307005131307
 20
920.9463009461108
 30
0.0
 10
1132.18272640878
 20
920.9596165253387
 30
0.0
  0
SPLINE
  5
7B43
330
1F
100
AcDbEntity
  8
AM_VIS
100
AcDbSpline
210
0.0
220
0.0
230
1.0
 70
     8
 71
     3
 72
     8
 73
     4
 74
     0
 42
0.0000000001
 43
0.0000000001
 40
0.0
 40
0.0
 40
0.0
 40
0.0
 40
80.0
 40
80.0
 40
80.0
 40
80.0
 10
1132.502300310245
 20
920.5834514121562
 30
0.0
 10
1132.50230025945
 20
920.723264994047
 30
0.0
 10
1132.477888381131
 20
920.8198029434479
 30
0.0
 10
1132.429064624492
 20
920.8730652603586
 30
0.0
  0
LINE
  5
7B44
330
1F
100
AcDbEntity
  8
AM_VIS
100
AcDbLine
 10
1132.502300310245
 20
919.0588175905849
 30
0.0
 11
1132.502300310245
 21
920.5834514121562
 31
0.0
  0
SPLINE
  5
7B45
330
1F
100
AcDbEntity
  8
AM_VIS
100
AcDbSpline
210
0.0
220
0.0
230
1.0
 70
     8
 71
     3
 72
     8
 73
     4
 74
     0
 42
0.0000000001
 43
0.0000000001
 40
0.0
 40
0.0
 40
0.0
 40
0.0
 40
80.0
 40
80.0
 40
80.0
 40
80.0
 10
1132.439051308913
 20
918.749230373541
 30
0.0
 10
1132.481217275937
 20
918.804711919793
 30
0.0
 10
1132.50230025945
 20
918.9079076588079
 30
0.0
 10
1132.502300310245
 20
919.0588175905849
 30
0.0
  0
SPLINE
  5
7B46
330
1F
100
AcDbEntity
  8
AM_VIS
100
AcDbSpline
210
0.0
220
0.0
230
1.0
 70
     8
 71
     3
 72
     8
 73
     4
 74
     0
 42
0.0000000001
 43
0.0000000001
 40
0.0
 40
0.0
 40
0.0
 40
0.0
 40
80.0
 40
80.0
 40
80.0
 40
80.0
 10
1132.18272640878
 20
918.6427057397194
 30
0.0
 10
1132.311443640784
 20
918.6560213189471
 30
0.0
 10
1132.396885291094
 20
918.6915295471527
 30
0.0
 10
1132.439051308913
 20
918.749230373541
 30
0.0
  0
LINE
  5
7B47
330
1F
100
AcDbEntity
  8
AM_VIS
100
AcDbLine
 10
1132.18272640878
 20
918.5761278435808
 30
0.0
 11
1132.18272640878
 21
918.6427057397194
 31
0.0
  0
LINE
  5
7B48
330
1F
100
AcDbEntity
  8
AM_VIS
100
AcDbLine
 10
1133.04823905858
 20
918.5761278435808
 30
0.0
 11
1132.18272640878
 21
918.5761278435808
 31
0.0
  0
LINE
  5
7B49
330
1F
100
AcDbEntity
  8
AM_VIS
100
AcDbLine
 10
1133.04823905858
 20
918.6427057397194
 30
0.0
 11
1133.04823905858
 21
918.5761278435808
 31
0.0
  0
SPLINE
  5
7B4A
330
1F
100
AcDbEntity
  8
AM_VIS
100
AcDbSpline
210
0.0
220
0.0
230
1.0
 70
     8
 71
     3
 72
     8
 73
     4
 74
     0
 42
0.0000000001
 43
0.0000000001
 40
0.0
 40
0.0
 40
0.0
 40
0.0
 40
80.0
 40
80.0
 40
80.0
 40
80.0
 10
1132.785256368833
 20
918.7359147943134
 30
0.0
 10
1132.831860845335
 20
918.6848717575387
 30
0.0
 10
1132.919521775781
 20
918.6538020896058
 30
0.0
 10
1133.04823905858
 20
918.6427057397194
 30
0.0
  0
SPLINE
  5
7B4B
330
1F
100
AcDbEntity
  8
AM_VIS
100
AcDbSpline
210
0.0
220
0.0
230
1.0
 70
     8
 71
     3
 72
     8
 73
     4
 74
     0
 42
0.0000000001
 43
0.0000000001
 40
0.0
 40
0.0
 40
0.0
 40
0.0
 40
80.0
 40
80.0
 40
80.0
 40
80.0
 10
1132.712020683081
 20
919.0122130632881
 30
0.0
 10
1132.712020683081
 20
918.8812765003524
 30
0.0
 10
1132.7364325614
 20
918.7891771112241
 30
0.0
 10
1132.785256368833
 20
918.7359147943134
 30
0.0
  0
LINE
  5
7B4C
330
1F
100
AcDbEntity
  8
AM_VIS
100
AcDbLine
 10
1132.712020683081
 20
919.7245965519696
 30
0.0
 11
1132.712020683081
 21
919.0122130632881
 31
0.0
  0
LINE
  5
7B4D
330
1F
100
AcDbEntity
  8
AM_VIS
100
AcDbLine
 10
1132.991647846862
 20
919.7379121311975
 30
0.0
 11
1132.712020683081
 21
919.7245965519696
 31
0.0
  0
LINE
  5
7B4E
330
1F
100
AcDbEntity
  8
AM_VIS
100
AcDbLine
 10
1133.780595916104
 20
918.5761278435808
 30
0.0
 11
1132.991647846862
 21
919.7379121311975
 31
0.0
  0
ENDSEC
  0
SECTION
  2
OBJECTS
  0
DICTIONARY
  5
C
330
0
100
AcDbDictionary
281
     1
  3
ACAD_COLOR
350
BE
  3
ACAD_GROUP
350
D
  3
ACAD_LAYOUT
350
1A
  3
ACAD_MATERIAL
350
BD
  3
ACAD_MLINESTYLE
350
17
  3
ACAD_PLOTSETTINGS
350
19
  3
ACAD_PLOTSTYLENAME
350
E
  3
ACAD_TABLESTYLE
350
11A
  3
ACDBHEADERROUNDTRIPXREC
350
7B64
  3
AcDbVariableDictionary
350
94
  3
AcmDictionary
350
5B
  3
AMG
350
41
  3
AMGSNAPSETTINGS
350
1B8
  3
DWGPROPS
350
7B63
  0
DICTIONARY
  5
3F9
330
2
100
AcDbDictionary
280
     1
281
     1
  3
ACAD_LAYERFILTERS
360
766B
  3
ACAD_LAYERSTATES
360
A94
  3
ACLYDICTIONARY
360
766A
  0
DICTIONARY
  5
8F
330
1F
100
AcDbDictionary
280
     1
281
     1
  0
DICTIONARY
  5
653D
330
653C
100
AcDbDictionary
280
     1
281
     1
  3
ACAD_DIMASSOC
360
653E
  0
DICTIONARY
  5
6540
330
653F
100
AcDbDictionary
280
     1
281
     1
  3
ACAD_DIMASSOC
360
6541
  0
DICTIONARY
  5
6543
330
6542
100
AcDbDictionary
280
     1
281
     1
  3
ACAD_DIMASSOC
360
6544
  0
DICTIONARY
  5
6546
330
6545
100
AcDbDictionary
280
     1
281
     1
  3
ACAD_DIMASSOC
360
6547
  0
DICTIONARY
  5
654F
330
654E
100
AcDbDictionary
280
     1
281
     1
  3
ACAD_DIMASSOC
360
6550
  0
DICTIONARY
  5
6552
330
6551
100
AcDbDictionary
280
     1
281
     1
  3
ACAD_DIMASSOC
360
6553
  0
DICTIONARY
  5
6555
330
6554
100
AcDbDictionary
280
     1
281
     1
  3
ACAD_DIMASSOC
360
6556
  0
DICTIONARY
  5
6558
330
6557
100
AcDbDictionary
280
     1
281
     1
  3
ACAD_DIMASSOC
360
6559
  0
DICTIONARY
  5
655B
330
655A
100
AcDbDictionary
280
     1
281
     1
  3
ACAD_DIMASSOC
360
655C
  0
DICTIONARY
  5
655E
330
655D
100
AcDbDictionary
280
     1
281
     1
  3
ACAD_DIMASSOC
360
655F
  0
DICTIONARY
  5
6561
330
6560
100
AcDbDictionary
280
     1
281
     1
  3
ACAD_DIMASSOC
360
6562
  0
DICTIONARY
  5
6589
330
6588
100
AcDbDictionary
280
     1
281
     1
  3
ACAD_DIMASSOC
360
658A
  0
DICTIONARY
  5
BE
102
{ACAD_REACTORS
330
C
102
}
330
C
100
AcDbDictionary
281
     1
  0
DICTIONARY
  5
D
102
{ACAD_REACTORS
330
C
102
}
330
C
100
AcDbDictionary
281
     1
  0
DICTIONARY
  5
1A
102
{ACAD_REACTORS
330
C
102
}
330
C
100
AcDbDictionary
281
     1
  3
Model
350
22
  3
配置1
350
1E
  3
配置2
350
26
  0
DICTIONARY
  5
BD
102
{ACAD_REACTORS
330
C
102
}
330
C
100
AcDbDictionary
281
     1
  0
DICTIONARY
  5
17
102
{ACAD_REACTORS
330
C
102
}
330
C
100
AcDbDictionary
281
     1
  3
Standard
350
18
  0
DICTIONARY
  5
19
102
{ACAD_REACTORS
330
C
102
}
330
C
100
AcDbDictionary
281
     1
  0
ACDBDICTIONARYWDFLT
  5
E
102
{ACAD_REACTORS
330
C
102
}
330
C
100
AcDbDictionary
281
     1
  3
Normal
350
F
100
AcDbDictionaryWithDefault
340
F
  0
DICTIONARY
  5
11A
102
{ACAD_REACTORS
330
C
102
}
330
C
100
AcDbDictionary
281
     1
  3
Standard
350
11B
  0
DICTIONARY
  5
7B64
102
{ACAD_REACTORS
330
C
102
}
330
C
100
AcDbDictionary
281
     1
  0
DICTIONARY
  5
94
102
{ACAD_REACTORS
330
C
102
}
330
C
100
AcDbDictionary
281
     1
  3
CTABLESTYLE
350
138
  3
DIMASSOC
350
96
  3
INDEXCTL
350
95
  3
PROJECTNAME
350
78B2
  0
DICTIONARY
  5
5B
102
{ACAD_REACTORS
330
C
102
}
330
C
100
AcDbDictionary
281
     1
  3
AcmBOM
350
1B5
  3
AcmStdDictionary
350
61
  3
AMDTSECTSYM_ARROWCOLOR
350
123
  0
DICTIONARY
  5
41
102
{ACAD_REACTORS
330
C
102
}
330
C
100
AcDbDictionary
281
     1
  0
DICTIONARY
  5
1B8
102
{ACAD_REACTORS
330
C
102
}
330
C
100
AcDbDictionary
281
     1
  0
XRECORD
  5
7B63
102
{ACAD_REACTORS
330
C
102
}
330
C
100
AcDbXrecord
280
     1
  1
DWGPROPS COOKIE
  2

  3

  4

  6

  7

  8

  9

300
AmdtFileType=84
301
=
302
=
303
=
304
=
305
=
306
=
307
=
308
=
309
=
 40
0.4543779861111111
 41
2454098.708838426
 42
2454789.563869537
  1

 90
        1
  0
DICTIONARY
  5
766B
102
{ACAD_REACTORS
330
3F9
102
}
330
3F9
100
AcDbDictionary
281
     1
  0
DICTIONARY
  5
A94
102
{ACAD_REACTORS
330
3F9
102
}
330
3F9
100
AcDbDictionary
281
     1
  0
DICTIONARY
  5
766A
102
{ACAD_REACTORS
330
3F9
102
}
330
3F9
100
AcDbDictionary
281
     1
1001
ACAD
1000
<All
  0
DIMASSOC
  5
653E
102
{ACAD_REACTORS
330
653D
102
}
330
653D
100
AcDbDimAssoc
330
653C
 90
        2
 70
     0
 71
     0
  1
AcDbOsnapPointRef
 72
     1
331
6537
 73
     0
 91
        0
 40
0.0
 10
0.0
 20
0.0
 30
2.000000000000000E+50
 75
     0
  0
DIMASSOC
  5
6541
102
{ACAD_REACTORS
330
6540
102
}
330
6540
100
AcDbDimAssoc
330
653F
 90
        3
 70
     0
 71
     0
  1
AcDbOsnapPointRef
 72
     1
331
6537
 73
     0
 91
        0
 40
0.0
 10
0.0
 20
0.0
 30
2.000000000000000E+50
 75
     0
  1
AcDbOsnapPointRef
 72
     1
331
653B
 73
     0
 91
        0
 40
0.0
 10
0.0
 20
0.0
 30
2.000000000000000E+50
 75
     0
  0
DIMASSOC
  5
6544
102
{ACAD_REACTORS
330
6543
102
}
330
6543
100
AcDbDimAssoc
330
6542
 90
        2
 70
     0
 71
     0
  1
AcDbOsnapPointRef
 72
     1
331
6536
 73
     0
 91
        0
 40
0.0
 10
0.0
 20
0.0
 30
2.000000000000000E+50
 75
     0
  0
DIMASSOC
  5
6547
102
{ACAD_REACTORS
330
6546
102
}
330
6546
100
AcDbDimAssoc
330
6545
 90
        3
 70
     0
 71
     0
  1
AcDbOsnapPointRef
 72
     1
331
64B9
 73
     0
 91
        0
 40
0.0
 10
0.0
 20
0.0
 30
2.000000000000000E+50
 75
     0
  1
AcDbOsnapPointRef
 72
     1
331
64BD
 73
     0
 91
        0
 40
0.0
 10
0.0
 20
0.0
 30
2.000000000000000E+50
 75
     0
  0
DIMASSOC
  5
6550
102
{ACAD_REACTORS
330
654F
102
}
330
654F
100
AcDbDimAssoc
330
654E
 90
        2
 70
     0
 71
     0
  1
AcDbOsnapPointRef
 72
     1
331
64CA
 73
     0
 91
        0
 40
0.0
 10
0.0
 20
0.0
 30
2.000000000000000E+50
 75
     0
  0
DIMASSOC
  5
6553
102
{ACAD_REACTORS
330
6552
102
}
330
6552
100
AcDbDimAssoc
330
6551
 90
        3
 70
     0
 71
     0
  1
AcDbOsnapPointRef
 72
     1
331
64CA
 73
     0
 91
        0
 40
0.0
 10
0.0
 20
0.0
 30
2.000000000000000E+50
 75
     0
  1
AcDbOsnapPointRef
 72
     1
331
64C6
 73
     0
 91
        0
 40
0.0
 10
0.0
 20
0.0
 30
2.000000000000000E+50
 75
     0
  0
DIMASSOC
  5
6556
102
{ACAD_REACTORS
330
6555
102
}
330
6555
100
AcDbDimAssoc
330
6554
 90
        3
 70
     0
 71
     0
  1
AcDbOsnapPointRef
 72
     1
331
64C6
 73
     0
 91
        0
 40
0.0
 10
0.0
 20
0.0
 30
2.000000000000000E+50
 75
     0
  1
AcDbOsnapPointRef
 72
     1
331
64C2
 73
     0
 91
        0
 40
0.0
 10
0.0
 20
0.0
 30
2.000000000000000E+50
 75
     0
  0
DIMASSOC
  5
6559
102
{ACAD_REACTORS
330
6558
102
}
330
6558
100
AcDbDimAssoc
330
6557
 90
        2
 70
     0
 71
     0
  1
AcDbOsnapPointRef
 72
     1
331
64B6
 73
     0
 91
        0
 40
0.0
 10
0.0
 20
0.0
 30
2.000000000000000E+50
 75
     0
  0
DIMASSOC
  5
655C
102
{ACAD_REACTORS
330
655B
102
}
330
655B
100
AcDbDimAssoc
330
655A
 90
        3
 70
     0
 71
     0
  1
AcDbOsnapPointRef
 72
     1
331
64B6
 73
     0
 91
        0
 40
0.0
 10
0.0
 20
0.0
 30
2.000000000000000E+50
 75
     0
  1
AcDbOsnapPointRef
 72
     1
331
64B2
 73
     0
 91
        0
 40
0.0
 10
0.0
 20
0.0
 30
2.000000000000000E+50
 75
     0
  0
DIMASSOC
  5
655F
102
{ACAD_REACTORS
330
655E
102
}
330
655E
100
AcDbDimAssoc
330
655D
 90
        3
 70
     0
 71
     0
  1
AcDbOsnapPointRef
 72
     1
331
64B8
 73
     0
 91
        0
 40
0.0
 10
0.0
 20
0.0
 30
2.000000000000000E+50
 75
     0
  1
AcDbOsnapPointRef
 72
     1
331
64BC
 73
     0
 91
        0
 40
0.0
 10
0.0
 20
0.0
 30
2.000000000000000E+50
 75
     0
  0
DIMASSOC
  5
6562
102
{ACAD_REACTORS
330
6561
102
}
330
6561
100
AcDbDimAssoc
330
6560
 90
        2
 70
     0
 71
     0
  1
AcDbOsnapPointRef
 72
     1
331
64B8
 73
     0
 91
        0
 40
0.0
 10
0.0
 20
0.0
 30
2.000000000000000E+50
 75
     0
  0
DIMASSOC
  5
658A
102
{ACAD_REACTORS
330
6589
102
}
330
6589
100
AcDbDimAssoc
330
6588
 90
        3
 70
     0
 71
     0
  1
AcDbOsnapPointRef
 72
     1
331
6580
 73
     0
 91
        0
 40
0.0
 10
0.0
 20
0.0
 30
2.000000000000000E+50
 75
     0
  1
AcDbOsnapPointRef
 72
     1
331
6578
 73
     0
 91
        0
 40
0.0
 10
0.0
 20
0.0
 30
2.000000000000000E+50
 75
     0
  0
LAYOUT
  5
22
102
{ACAD_XDICTIONARY
360
7B67
102
}
102
{ACAD_REACTORS
330
1A
102
}
330
1A
100
AcDbPlotSettings
  1

  2
\\RD\EPSON Stylus C63 Series單色
  4
A4
  6

 40
3.757083177566528
 41
3.757076978683471
 42
3.757080078125
 43
3.757080078125
 44
209.9733276367187
 45
296.9683227539062
 46
0.0
 47
0.0
 48
0.0
 49
0.0
140
0.0
141
0.0
142
1.0
143
0.3405120737814363
 70
 11952
 72
     1
 73
     0
 74
     0
  7
單色出圖.ctb
 75
     0
147
2.936753428137963
148
-2047.07469463503
149
-1261.649717473083
100
AcDbLayout
  1
Model
 70
     1
 71
     0
 10
0.0
 20
0.0
 11
12.0
 21
9.0
 12
0.0
 22
0.0
 32
0.0
 14
0.0
 24
0.0
 34
0.0
 15
0.0
 25
0.0
 35
0.0
146
0.0
 13
0.0
 23
0.0
 33
0.0
 16
1.0
 26
0.0
 36
0.0
 17
0.0
 27
1.0
 37
0.0
 76
     0
330
1F
1001
ACAD_PSEXT
1000
\\RD\EPSON Stylus C63 Series單色
1000
EPSON Stylus C63 Series
1000
\\RD
1000

1070
     0
  0
LAYOUT
  5
1E
102
{ACAD_XDICTIONARY
360
7B65
102
}
102
{ACAD_REACTORS
330
1A
102
}
330
1A
100
AcDbPlotSettings
  1

  2

  4

  6

 40
0.0
 41
0.0
 42
0.0
 43
0.0
 44
0.0
 45
0.0
 46
0.0
 47
0.0
 48
0.0
 49
0.0
140
0.0
141
0.0
142
1.0
143
1.0
 70
   688
 72
     0
 73
     0
 74
     5
  7
單色出圖.ctb
 75
    16
147
1.0
148
0.0
149
0.0
100
AcDbLayout
  1
配置1
 70
     1
 71
     1
 10
0.0
 20
0.0
 11
420.0
 21
297.0
 12
0.0
 22
0.0
 32
0.0
 14
1.000000000000000E+20
 24
1.000000000000000E+20
 34
1.000000000000000E+20
 15
-1.000000000000000E+20
 25
-1.000000000000000E+20
 35
-1.000000000000000E+20
146
0.0
 13
0.0
 23
0.0
 33
0.0
 16
1.0
 26
0.0
 36
0.0
 17
0.0
 27
1.0
 37
0.0
 76
     0
330
1B
  0
LAYOUT
  5
26
102
{ACAD_XDICTIONARY
360
7B69
102
}
102
{ACAD_REACTORS
330
1A
102
}
330
1A
100
AcDbPlotSettings
  1

  2

  4

  6

 40
0.0
 41
0.0
 42
0.0
 43
0.0
 44
0.0
 45
0.0
 46
0.0
 47
0.0
 48
0.0
 49
0.0
140
0.0
141
0.0
142
1.0
143
1.0
 70
   688
 72
     0
 73
     0
 74
     5
  7
單色出圖.ctb
 75
    16
147
1.0
148
0.0
149
0.0
100
AcDbLayout
  1
配置2
 70
     1
 71
     2
 10
0.0
 20
0.0
 11
12.0
 21
9.0
 12
0.0
 22
0.0
 32
0.0
 14
0.0
 24
0.0
 34
0.0
 15
0.0
 25
0.0
 35
0.0
146
0.0
 13
0.0
 23
0.0
 33
0.0
 16
1.0
 26
0.0
 36
0.0
 17
0.0
 27
1.0
 37
0.0
 76
     0
330
23
  0
MLINESTYLE
  5
18
102
{ACAD_REACTORS
330
17
102
}
330
17
100
AcDbMlineStyle
  2
STANDARD
 70
     0
  3

 62
   256
 51
90.0
 52
90.0
 71
     2
 49
0.5
 62
   256
  6
BYLAYER
 49
-0.5
 62
   256
  6
BYLAYER
  0
ACDBPLACEHOLDER
  5
F
102
{ACAD_REACTORS
330
E
102
}
330
E
  0
TABLESTYLE
  5
11B
102
{ACAD_REACTORS
330
11A
102
}
330
11A
100
AcDbTableStyle
  3
Standard
 70
     0
 71
     0
 40
1.5
 41
1.5
280
     0
281
     0
  7
STANDARD
140
4.5
170
     2
 62
     0
 63
     7
283
     0
274
    -2
284
     1
 64
     0
275
    -2
285
     1
 65
     0
276
    -2
286
     1
 66
     0
277
    -2
287
     1
 67
     0
278
    -2
288
     1
 68
     0
279
    -2
289
     1
 69
     0
  7
STANDARD
140
6.0
170
     5
 62
     0
 63
     7
283
     0
274
    -2
284
     1
 64
     0
275
    -2
285
     1
 65
     0
276
    -2
286
     1
 66
     0
277
    -2
287
     1
 67
     0
278
    -2
288
     1
 68
     0
279
    -2
289
     1
 69
     0
  7
STANDARD
140
4.5
170
     5
 62
     0
 63
     7
283
     0
274
    -2
284
     1
 64
     0
275
    -2
285
     1
 65
     0
276
    -2
286
     1
 66
     0
277
    -2
287
     1
 67
     0
278
    -2
288
     1
 68
     0
279
    -2
289
     1
 69
     0
  0
DICTIONARYVAR
  5
138
102
{ACAD_REACTORS
330
94
102
}
330
94
100
DictionaryVariables
280
     0
  1
STANDARD
  0
DICTIONARYVAR
  5
96
102
{ACAD_REACTORS
330
94
102
}
330
94
100
DictionaryVariables
280
     0
  1
2
  0
DICTIONARYVAR
  5
95
102
{ACAD_REACTORS
330
94
102
}
330
94
100
DictionaryVariables
280
     0
  1
0
  0
DICTIONARYVAR
  5
78B2
102
{ACAD_REACTORS
330
94
102
}
330
94
100
DictionaryVariables
280
     0
  1

  0
DICTIONARY
  5
1B5
102
{ACAD_REACTORS
330
5B
102
}
330
5B
100
AcDbDictionary
281
     1
  0
DICTIONARY
  5
61
102
{ACAD_REACTORS
330
5B
102
}
330
5B
100
AcDbDictionary
281
     1
  0
XRECORD
  5
123
102
{ACAD_REACTORS
330
5B
102
}
330
5B
100
AcDbXrecord
280
     1
 90
-1023410169
  0
DICTIONARY
  5
7B67
330
22
100
AcDbDictionary
280
     1
281
     1
  3
ACAD_XREC_ROUNDTRIP
360
7B68
  0
DICTIONARY
  5
7B65
330
1E
100
AcDbDictionary
280
     1
281
     1
  3
ACAD_XREC_ROUNDTRIP
360
7B66
  0
DICTIONARY
  5
7B69
330
26
100
AcDbDictionary
280
     1
281
     1
  3
ACAD_XREC_ROUNDTRIP
360
7B6A
  0
XRECORD
  5
7B68
102
{ACAD_REACTORS
330
7B67
102
}
330
7B67
100
AcDbXrecord
280
     1
102
SHADEPLOT
 70
     0
102
SHADEPLOTRESLEVEL
 70
     2
102
SHADEPLOTCUSTOMDPI
 70
   300
  0
XRECORD
  5
7B66
102
{ACAD_REACTORS
330
7B65
102
}
330
7B65
100
AcDbXrecord
280
     1
102
SHADEPLOT
 70
     0
102
SHADEPLOTRESLEVEL
 70
     2
102
SHADEPLOTCUSTOMDPI
 70
   300
  0
XRECORD
  5
7B6A
102
{ACAD_REACTORS
330
7B69
102
}
330
7B69
100
AcDbXrecord
280
     1
102
SHADEPLOT
 70
     0
102
SHADEPLOTRESLEVEL
 70
     2
102
SHADEPLOTCUSTOMDPI
 70
   300
  0
ENDSEC
  0
EOF
