  0
SECTION
  2
HEADER
  9
$ACADVER
  1
AC1015
  9
$ACADMAINTVER
 70
    20
  9
$DWGCODEPAGE
  3
ANSI_950
  9
$INSBASE
 10
0.0
 20
0.0
 30
0.0
  9
$EXTMIN
 10
816.8083372523669
 20
869.6987681932782
 30
-0.002910326035817
  9
$EXTMAX
 10
1011.615545672817
 20
1131.252383207651
 30
149.7264838463308
  9
$LIMMIN
 10
0.0
 20
0.0
  9
$LIMMAX
 10
420.0
 20
297.0
  9
$ORTHOMODE
 70
     1
  9
$REGENMODE
 70
     1
  9
$FILLMODE
 70
     1
  9
$QTEXTMODE
 70
     0
  9
$MIRRTEXT
 70
     1
  9
$LTSCALE
 40
1.0
  9
$ATTMODE
 70
     1
  9
$TEXTSIZE
 40
3.0
  9
$TRACEWID
 40
1.0
  9
$TEXTSTYLE
  7
STANDARD
  9
$CLAYER
  8
0
  9
$CELTYPE
  6
ByLayer
  9
$CECOLOR
 62
   256
  9
$CELTSCALE
 40
1.0
  9
$DISPSILH
 70
     0
  9
$DIMSCALE
 40
1.0
  9
$DIMASZ
 40
3.0
  9
$DIMEXO
 40
1.0
  9
$DIMDLI
 40
10.0
  9
$DIMRND
 40
0.0
  9
$DIMDLE
 40
0.0
  9
$DIMEXE
 40
1.5
  9
$DIMTP
 40
0.1
  9
$DIMTM
 40
0.1
  9
$DIMTXT
 40
3.5
  9
$DIMCEN
 40
0.0
  9
$DIMTSZ
 40
0.0
  9
$DIMTOL
 70
     0
  9
$DIMLIM
 70
     0
  9
$DIMTIH
 70
     0
  9
$DIMTOH
 70
     0
  9
$DIMSE1
 70
     0
  9
$DIMSE2
 70
     0
  9
$DIMTAD
 70
     1
  9
$DIMZIN
 70
     8
  9
$DIMBLK
  1

  9
$DIMASO
 70
     1
  9
$DIMSHO
 70
     1
  9
$DIMPOST
  1

  9
$DIMAPOST
  1
"
  9
$DIMALT
 70
     0
  9
$DIMALTD
 70
     2
  9
$DIMALTF
 40
0.0393701
  9
$DIMLFAC
 40
1.0
  9
$DIMTOFL
 70
     1
  9
$DIMTVP
 40
0.0
  9
$DIMTIX
 70
     0
  9
$DIMSOXD
 70
     0
  9
$DIMSAH
 70
     0
  9
$DIMBLK1
  1

  9
$DIMBLK2
  1

  9
$DIMSTYLE
  2
AM_ISO
  9
$DIMCLRD
 70
   256
  9
$DIMCLRE
 70
   256
  9
$DIMCLRT
 70
   256
  9
$DIMTFAC
 40
0.6
  9
$DIMGAP
 40
0.7
  9
$DIMJUST
 70
     0
  9
$DIMSD1
 70
     0
  9
$DIMSD2
 70
     0
  9
$DIMTOLJ
 70
     0
  9
$DIMTZIN
 70
     8
  9
$DIMALTZ
 70
     0
  9
$DIMALTTZ
 70
     0
  9
$DIMUPT
 70
     0
  9
$DIMDEC
 70
     2
  9
$DIMTDEC
 70
     8
  9
$DIMALTU
 70
     2
  9
$DIMALTTD
 70
     2
  9
$DIMTXSTY
  7
STANDARD
  9
$DIMAUNIT
 70
     0
  9
$DIMADEC
 70
     0
  9
$DIMALTRND
 40
0.0
  9
$DIMAZIN
 70
     2
  9
$DIMDSEP
 70
    46
  9
$DIMATFIT
 70
     3
  9
$DIMFRAC
 70
     0
  9
$DIMLDRBLK
  1

  9
$DIMLUNIT
 70
     2
  9
$DIMLWD
 70
    -1
  9
$DIMLWE
 70
    -1
  9
$DIMTMOVE
 70
     0
  9
$LUNITS
 70
     2
  9
$LUPREC
 70
     2
  9
$SKETCHINC
 40
1.0
  9
$FILLETRAD
 40
2.5
  9
$AUNITS
 70
     0
  9
$AUPREC
 70
     0
  9
$MENU
  1
.
  9
$ELEVATION
 40
0.0
  9
$PELEVATION
 40
0.0
  9
$THICKNESS
 40
0.0
  9
$LIMCHECK
 70
     0
  9
$CHAMFERA
 40
2.5
  9
$CHAMFERB
 40
2.5
  9
$CHAMFERC
 40
20.0
  9
$CHAMFERD
 40
0.0
  9
$SKPOLY
 70
     0
  9
$TDCREATE
 40
2454098.708838426
  9
$TDUCREATE
 40
2454098.375505093
  9
$TDUPDATE
 40
2454789.565238762
  9
$TDUUPDATE
 40
2454789.231905428
  9
$TDINDWG
 40
0.4604942130
  9
$TDUSRTIMER
 40
0.4604942130
  9
$USRTIMER
 70
     1
  9
$ANGBASE
 50
0.0
  9
$ANGDIR
 70
     0
  9
$PDMODE
 70
     0
  9
$PDSIZE
 40
0.0
  9
$PLINEWID
 40
0.0
  9
$SPLFRAME
 70
     0
  9
$SPLINETYPE
 70
     6
  9
$SPLINESEGS
 70
     8
  9
$HANDSEED
  5
7AFC
  9
$SURFTAB1
 70
     6
  9
$SURFTAB2
 70
     6
  9
$SURFTYPE
 70
     6
  9
$SURFU
 70
     6
  9
$SURFV
 70
     6
  9
$UCSBASE
  2

  9
$UCSNAME
  2

  9
$UCSORG
 10
0.0
 20
0.0
 30
0.0
  9
$UCSXDIR
 10
1.0
 20
0.0
 30
0.0
  9
$UCSYDIR
 10
0.0
 20
1.0
 30
0.0
  9
$UCSORTHOREF
  2

  9
$UCSORTHOVIEW
 70
     0
  9
$UCSORGTOP
 10
0.0
 20
0.0
 30
0.0
  9
$UCSORGBOTTOM
 10
0.0
 20
0.0
 30
0.0
  9
$UCSORGLEFT
 10
0.0
 20
0.0
 30
0.0
  9
$UCSORGRIGHT
 10
0.0
 20
0.0
 30
0.0
  9
$UCSORGFRONT
 10
0.0
 20
0.0
 30
0.0
  9
$UCSORGBACK
 10
0.0
 20
0.0
 30
0.0
  9
$PUCSBASE
  2

  9
$PUCSNAME
  2

  9
$PUCSORG
 10
0.0
 20
0.0
 30
0.0
  9
$PUCSXDIR
 10
1.0
 20
0.0
 30
0.0
  9
$PUCSYDIR
 10
0.0
 20
1.0
 30
0.0
  9
$PUCSORTHOREF
  2

  9
$PUCSORTHOVIEW
 70
     0
  9
$PUCSORGTOP
 10
0.0
 20
0.0
 30
0.0
  9
$PUCSORGBOTTOM
 10
0.0
 20
0.0
 30
0.0
  9
$PUCSORGLEFT
 10
0.0
 20
0.0
 30
0.0
  9
$PUCSORGRIGHT
 10
0.0
 20
0.0
 30
0.0
  9
$PUCSORGFRONT
 10
0.0
 20
0.0
 30
0.0
  9
$PUCSORGBACK
 10
0.0
 20
0.0
 30
0.0
  9
$USERI1
 70
     0
  9
$USERI2
 70
     0
  9
$USERI3
 70
     0
  9
$USERI4
 70
     0
  9
$USERI5
 70
     0
  9
$USERR1
 40
0.0
  9
$USERR2
 40
0.0
  9
$USERR3
 40
0.0
  9
$USERR4
 40
0.0
  9
$USERR5
 40
0.0
  9
$WORLDVIEW
 70
     1
  9
$SHADEDGE
 70
     3
  9
$SHADEDIF
 70
    70
  9
$TILEMODE
 70
     1
  9
$MAXACTVP
 70
    64
  9
$PINSBASE
 10
0.0
 20
0.0
 30
0.0
  9
$PLIMCHECK
 70
     0
  9
$PEXTMIN
 10
1.000000000000000E+20
 20
1.000000000000000E+20
 30
1.000000000000000E+20
  9
$PEXTMAX
 10
-1.000000000000000E+20
 20
-1.000000000000000E+20
 30
-1.000000000000000E+20
  9
$PLIMMIN
 10
0.0
 20
0.0
  9
$PLIMMAX
 10
420.0
 20
297.0
  9
$UNITMODE
 70
     0
  9
$VISRETAIN
 70
     1
  9
$PLINEGEN
 70
     0
  9
$PSLTSCALE
 70
     1
  9
$TREEDEPTH
 70
  3020
  9
$CMLSTYLE
  2
Standard
  9
$CMLJUST
 70
     0
  9
$CMLSCALE
 40
20.0
  9
$PROXYGRAPHICS
 70
     1
  9
$MEASUREMENT
 70
     1
  9
$CELWEIGHT
370
    -1
  9
$ENDCAPS
280
     0
  9
$JOINSTYLE
280
     0
  9
$LWDISPLAY
290
     0
  9
$INSUNITS
 70
     4
  9
$HYPERLINKBASE
  1

  9
$STYLESHEET
  1
acad.ctb
  9
$XEDIT
290
     1
  9
$CEPSNTYPE
380
     0
  9
$PSTYLEMODE
290
     1
  9
$FINGERPRINTGUID
  2
{7A381171-16FB-4E44-972A-3DD660A2669C}
  9
$VERSIONGUID
  2
{6D2C9986-D305-4676-92FC-5B3773A351C6}
  9
$EXTNAMES
290
     1
  9
$PSVPSCALE
 40
0.0
  9
$OLESTARTUP
290
     0
  0
ENDSEC
  0
SECTION
  2
CLASSES
  0
CLASS
  1
ACDBDICTIONARYWDFLT
  2
AcDbDictionaryWithDefault
  3
ObjectDBX Classes
 90
        0
280
     0
281
     0
  0
CLASS
  1
ACDBPLACEHOLDER
  2
AcDbPlaceHolder
  3
ObjectDBX Classes
 90
        0
280
     0
281
     0
  0
CLASS
  1
LAYOUT
  2
AcDbLayout
  3
ObjectDBX Classes
 90
        0
280
     0
281
     0
  0
CLASS
  1
ACME_DOCUMENT
  2
AcMeDbDoc
  3
AcMeServices
 90
        0
280
     0
281
     0
  0
CLASS
  1
AMGSETTINGSOBJ
  2
AmgSettingsObj
  3
"AcadM|Product Description: AutoCAD Mechanical 2000|Company: Autodesk"
 90
        0
280
     0
281
     0
  0
CLASS
  1
ACMESCOPE
  2
AcMeScope
  3
AcMeServices
 90
        0
280
     0
281
     0
  0
CLASS
  1
ACMECOMMANDHISTORY
  2
AcMeCommandHistory
  3
AcMeServices
 90
        0
280
     0
281
     0
  0
CLASS
  1
ACIMSYSVARMAN
  2
AcImSysVarManager
  3
AcMeServices
 90
        0
280
     0
281
     0
  0
CLASS
  1
ACIMREALSYSVAR
  2
AcImRealSysVar
  3
AcMeServices
 90
        0
280
     0
281
     0
  0
CLASS
  1
ACIMINTSYSVAR
  2
AcImIntSysVar
  3
AcMeServices
 90
        0
280
     0
281
     0
  0
CLASS
  1
ACMEDRAWINGMAN
  2
AcMeDrawingMan
  3
AcMeServices
 90
        0
280
     0
281
     0
  0
CLASS
  1
ACMEVIEW
  2
AcMeView
  3
AcMeServices
 90
        0
280
     0
281
     0
  0
CLASS
  1
ACDBENTITYCACHE
  2
AcMeEntityCache
  3
AcMeServices
 90
        0
280
     0
281
     0
  0
CLASS
  1
GSMANAGER
  2
AcMeGSManager
  3
AcMeServices
 90
        0
280
     0
281
     0
  0
CLASS
  1
AMDTINTERNALREACTOR
  2
AmdtInternalReactor
  3
AcMeServices
 90
        0
280
     0
281
     0
  0
CLASS
  1
ACMESTATEMGR
  2
AcMeStateMgr
  3
AcMeServices
 90
        0
280
     0
281
     0
  0
CLASS
  1
ACGREFMASTER
  2
AcGrefMaster
  3
AcAttribServices
 90
        0
280
     0
281
     0
  0
CLASS
  1
ACME_DATABASE
  2
AcMeDbDatabase
  3
AcMeServices
 90
        0
280
     0
281
     0
  0
CLASS
  1
ACRFINSADJUSTERMGR
  2
AcRfInsAdjusterMgr
  3
AcMeServices
 90
        0
280
     0
281
     0
  0
CLASS
  1
ACGREFACADMASTER
  2
AcGrefacadMaster
  3
AcGrefServices
 90
        0
280
     0
281
     0
  0
CLASS
  1
AMIMASTER
  2
AmiMaster
  3
AmiServices
 90
        0
280
     0
281
     0
  0
CLASS
  1
ACMDATADICTIONARY
  2
AcmDataDictionary
  3
"AcmSymBB|Product Description: AutoCAD Mechanical 2004 DX|Company: Autodesk"
 90
        0
280
     0
281
     0
  0
CLASS
  1
ACMDATAENTRYBLOCK
  2
AcmDataEntryBlock
  3
"AcmSymBB|Product Description: AutoCAD Mechanical 2004 DX|Company: Autodesk"
 90
    32768
280
     0
281
     0
  0
CLASS
  1
ACIMSTRSYSVAR
  2
AcImStrSysVar
  3
AcMeServices
 90
        0
280
     0
281
     0
  0
CLASS
  1
ACMSTANDARDISO
  2
AcmStandardISO
  3
"Amdt_StdImp|Product Description: AutoCAD Mechanical 2004 DX|Company: Autodesk"
 90
        0
280
     0
281
     0
  0
CLASS
  1
AMGOBJPROPCFG
  2
AmgObjPropCfg
  3
"AmgLay|Product Description: AutoCAD Mechanical 2000|Company: Autodesk"
 90
        1
280
     0
281
     0
  0
CLASS
  1
AMDTEDGESTANDARDISO
  2
AmdtEdgeStdISO
  3
"Amdt_StdImp|Product Description: AutoCAD Mechanical 2004 DX|Company: Autodesk"
 90
    32768
280
     0
281
     0
  0
CLASS
  1
ACMSURFSTANDARDISO
  2
AcmSurfTextStdISO
  3
"Amdt_StdImp|Product Description: AutoCAD Mechanical 2004 DX|Company: Autodesk"
 90
        0
280
     0
281
     0
  0
CLASS
  1
ACMFCFSTANDARDISO
  2
AcmFCFStdISO
  3
"Amdt_StdImp|Product Description: AutoCAD Mechanical 2004 DX|Company: Autodesk"
 90
        0
280
     0
281
     0
  0
CLASS
  1
ACMWELDSTANDARDISO
  2
AcmWeldingStdISO
  3
"Amdt_StdImp|Product Description: AutoCAD Mechanical 2004 DX|Company: Autodesk"
 90
        0
280
     0
281
     0
  0
CLASS
  1
ACMIDSTANDARDISO
  2
AcmIdStdISO
  3
"Amdt_StdImp|Product Description: AutoCAD Mechanical 2004 DX|Company: Autodesk"
 90
        0
280
     0
281
     0
  0
CLASS
  1
ACMDATUMSTANDARDISO
  2
AcmDatumStdISO
  3
"Amdt_StdImp|Product Description: AutoCAD Mechanical 2004 DX|Company: Autodesk"
 90
        0
280
     0
281
     0
  0
CLASS
  1
ACMBOMSTANDARDISO
  2
AcmBOMStdISO
  3
"Amdt_StdImp|Product Description: AutoCAD Mechanical 2004 DX|Company: Autodesk"
 90
        0
280
     0
281
     0
  0
CLASS
  1
ACMDETAILSTANDARDISO
  2
AmdtDetailSymStdISO
  3
"Amdt_StdImp|Product Description: AutoCAD Mechanical 2004 DX|Company: Autodesk"
 90
        0
280
     0
281
     0
  0
CLASS
  1
ACMSECTIONSTANDARDISO
  2
AmdtSectionSymStdISO
  3
"Amdt_StdImp|Product Description: AutoCAD Mechanical 2004 DX|Company: Autodesk"
 90
        0
280
     0
281
     0
  0
CLASS
  1
ACMCENTERLINESTANDARDISO
  2
AmdtCenterLineStdISO
  3
"Amdt_StdImp|Product Description: AutoCAD Mechanical 2004 DX|Company: Autodesk"
 90
        0
280
     0
281
     0
  0
CLASS
  1
ACMNOTESTANDARDISO
  2
AmdtNoteStdISO
  3
"Amdt_StdImp|Product Description: AutoCAD Mechanical 2004 DX|Company: Autodesk"
 90
        0
280
     0
281
     0
  0
CLASS
  1
ACAMGLAYSTD
  2
AcAmgLayStd
  3
"AcAmgLayStd|Product Description: AutoCAD Mechanical 2000|Company: Autodesk"
 90
        0
280
     0
281
     0
  0
CLASS
  1
ACAMGDIMSTD
  2
AcAmgDimStd
  3
"AcAmgDimStd|Product Description: AutoCAD Mechanical 2000|Company: Autodesk"
 90
        0
280
     0
281
     0
  0
CLASS
  1
ACAMGHOLECHARTSTDISO
  2
AcAmgHoleChartStdISO
  3
ACMSYMBB_MODULE_NAME
 90
        0
280
     0
281
     0
  0
CLASS
  1
ACAMGTITLESTD
  2
AcAmgTitleStd
  3
"TITLEAPP"
 90
        0
280
     0
281
     0
  0
CLASS
  1
LAYER_INDEX
  2
AcDbLayerIndex
  3
ObjectDBX Classes
 90
    32768
280
     0
281
     0
  0
CLASS
  1
IDBUFFER
  2
AcDbIdBuffer
  3
ObjectDBX Classes
 90
    32768
280
     0
281
     0
  0
CLASS
  1
DICTIONARYVAR
  2
AcDbDictionaryVar
  3
ObjectDBX Classes
 90
        0
280
     0
281
     0
  0
CLASS
  1
AM_DRAWING_MGR
  2
AcDmDwgMgr
  3
AcMechDwgViewMgmt
 90
        0
280
     0
281
     0
  0
CLASS
  1
AM_DWG_DOCUMENT
  2
AcDmDwgDocument
  3
AcMechDwgViewMgmt
 90
        0
280
     0
281
     0
  0
CLASS
  1
AM_DWG_SHEET
  2
AcDmSheet
  3
AcMechDwgViewMgmt
 90
        0
280
     0
281
     0
  0
CLASS
  1
AM_VIEWDIMPARMAP
  2
AcDmViewDimParMap
  3
AcMechDwgViewMgmt
 90
        0
280
     0
281
     0
  0
CLASS
  1
AM_DWGMGR_NAME
  2
AcDmDwgMgrName
  3
AcMechDwgViewMgmt
 90
        0
280
     0
281
     0
  0
CLASS
  1
AMDTMENUSTATEMGR
  2
AmdtMenuStateMgr
  3
McadcomServices
 90
        0
280
     0
281
     0
  0
CLASS
  1
AMDTMCOMMENUSTATE
  2
AmdtMcomMenuState
  3
McadcomServices
 90
        0
280
     0
281
     0
  0
CLASS
  1
MAPIAMMOUDLE
  2
MApiAmModule
  3
MApiAmServices
 90
        0
280
     0
281
     0
  0
CLASS
  1
AMDTADMENUSTATE
  2
AmdtAdMenuState
  3
DesignerServices
 90
        0
280
     0
281
     0
  0
CLASS
  1
ADAPPL
  2
AcAdAppl
  3
DesignerServices
 90
        0
280
     0
281
     0
  0
CLASS
  1
DEPMGR
  2
AcAdDepMgr
  3
DesignerServices
 90
        0
280
     0
281
     0
  0
CLASS
  1
PARAMMGR
  2
AcAdParamMgr
  3
DesignerServices
 90
        0
280
     0
281
     0
  0
CLASS
  1
PARAMSCOPE
  2
AcAdParamScope
  3
DesignerServices
 90
        0
280
     0
281
     0
  0
CLASS
  1
NAMEDAPPL
  2
AcAdNamedAppl
  3
DesignerServices
 90
        0
280
     0
281
     0
  0
CLASS
  1
AMDTDMMENUSTATE
  2
AmdtDmMenuState
  3
AcMechDwgViewMgmt
 90
        0
280
     0
281
     0
  0
CLASS
  1
AMDTAMMENUSTATE
  2
AmdtAmMenuState
  3
DesignerAssemblies
 90
        0
280
     0
281
     0
  0
CLASS
  1
ACAMPROJECT
  2
AcAmProject
  3
DesignerAssemblies
 90
        0
280
     0
281
     0
  0
CLASS
  1
ACAMGRCOMPDEF
  2
AcAmGrCompDef
  3
DesignerAssemblies
 90
        0
280
     0
281
     0
  0
CLASS
  1
ACCMCONTEXT
  2
AcCmContext
  3
DesignerAssemblies
 90
        0
280
     0
281
     0
  0
CLASS
  1
ACAMCOMPDEF
  2
AcAmCompDef
  3
DesignerAssemblies
 90
        0
280
     0
281
     0
  0
CLASS
  1
ACAMCOMPDEFMGR
  2
AcAmCompDefMgr
  3
DesignerAssemblies
 90
        0
280
     0
281
     0
  0
CLASS
  1
AMCONTEXTMGR
  2
AcAmContextMgr
  3
DesignerAssemblies
 90
        0
280
     0
281
     0
  0
CLASS
  1
ACAMCONTEXTMODELER
  2
AcAmContextModeler
  3
DesignerAssemblies
 90
        0
280
     0
281
     0
  0
CLASS
  1
ACMTHREADLINESTANDARDISO
  2
AmdtThreadLineStdISO
  3
"Amdt_StdImp|Product Description: AutoCAD Mechanical 2004 DX|Company: Autodesk"
 90
        0
280
     0
281
     0
  0
CLASS
  1
CATALOGSTATE
  2
AcAmCatalogState
  3
DesignerAssemblies
 90
        0
280
     0
281
     0
  0
CLASS
  1
ACAMGRCOMPDEFSET
  2
AcAmGrCompDefSet
  3
DesignerAssemblies
 90
        0
280
     0
281
     0
  0
CLASS
  1
AMDTBROWSERDBTAB
  2
AmdtBrowserDbTab
  3
McadcomServices
 90
        0
280
     0
281
     0
  0
CLASS
  1
CBROWSERAPPOBJECT
  2
CBrowserAppObject
  3
McadcomServices
 90
        0
280
     0
281
     0
  0
CLASS
  1
DM_PLACEHOLDER
  2
AcDmSelsetPlaceholder
  3
AcMechDwgViewMgmt
 90
        0
280
     0
281
     0
  0
CLASS
  1
TABLESTYLE
  2
AcDbTableStyle
  3
ObjectDBX Classes
 90
     2047
280
     0
281
     0
  0
CLASS
  1
VAACXREFPANELOBJECT
  2
VaAcXREFPanelObject
  3
VAAC_ADDIN
 90
    32768
280
     0
281
     0
  0
CLASS
  1
VAACIMAGEINVENTORY
  2
VaAcImageInventory
  3
VAAC_ADDIN
 90
    32768
280
     0
281
     0
  0
CLASS
  1
AMDTNOTETEMPLATEDB
  2
AmdtNoteTemplateDB
  3
AMDT_STDIMP_MODULE_NAME
 90
        0
280
     0
281
     0
  0
CLASS
  1
ACMBOM
  2
AcmBom
  3
"AcmSymBB|Product Description: AutoCAD Mechanical 2004 DX|Company: Autodesk"
 90
    32768
280
     0
281
     0
  0
CLASS
  1
AMDTFORMULAUPDATEDISPATCHER
  2
AmdtFormulaUpdateDispatcher
  3
AcMeServices
 90
    32768
280
     0
281
     0
  0
CLASS
  1
ACMPARTLIST
  2
AcmPartList
  3
"AcmSymBB|Product Description: AutoCAD Mechanical 2004 DX|Company: Autodesk"
 90
    33791
280
     0
281
     1
  0
CLASS
  1
ACAMGFILTERDAT
  2
AcAmgFilterDat
  3
"AcadM|Product Description: AutoCAD Mechanical 2000|Company: Autodesk"
 90
    32768
280
     0
281
     0
  0
CLASS
  1
DIMASSOC
  2
AcDbDimAssoc
  3
"AcDbDimAssoc|Product Desc:     AcDim ARX App For Dimension|Company:          Autodesk, Inc.|WEB Address:      www.autodesk.com"
 90
        0
280
     0
281
     0
  0
CLASS
  1
SORTENTSTABLE
  2
AcDbSortentsTable
  3
ObjectDBX Classes
 90
        0
280
     0
281
     0
  0
CLASS
  1
AMDTNOTE
  2
AmdtNote
  3
"AcmSymBB|Product Description: AutoCAD Mechanical 2004 DX|Company: Autodesk"
 90
    33791
280
     0
281
     1
  0
CLASS
  1
ACMSTANDARDANSI
  2
AcmStandardANSI
  3
"Amdt_StdImp|Product Description: AutoCAD Mechanical 2004 DX|Company: Autodesk"
 90
    32768
280
     0
281
     0
  0
CLASS
  1
ACMSURFSTANDARDANSI
  2
AcmSurfTextStdANSI
  3
"Amdt_StdImp|Product Description: AutoCAD Mechanical 2004 DX|Company: Autodesk"
 90
    32768
280
     0
281
     0
  0
CLASS
  1
ACMFCFSTANDARDANSI
  2
AcmFCFStdANSI
  3
"Amdt_StdImp|Product Description: AutoCAD Mechanical 2004 DX|Company: Autodesk"
 90
    32768
280
     0
281
     0
  0
CLASS
  1
ACMWELDSTANDARDANSI
  2
AcmWeldingStdANSI
  3
"Amdt_StdImp|Product Description: AutoCAD Mechanical 2004 DX|Company: Autodesk"
 90
    32768
280
     0
281
     0
  0
CLASS
  1
ACMIDSTANDARDANSI
  2
AcmIdStdANSI
  3
"Amdt_StdImp|Product Description: AutoCAD Mechanical 2004 DX|Company: Autodesk"
 90
    32768
280
     0
281
     0
  0
CLASS
  1
ACMDATUMSTANDARDANSI
  2
AcmDatumStdANSI
  3
"Amdt_StdImp|Product Description: AutoCAD Mechanical 2004 DX|Company: Autodesk"
 90
    32768
280
     0
281
     0
  0
CLASS
  1
ACMBOMSTANDARDANSI
  2
AcmBOMStdANSI
  3
"Amdt_StdImp|Product Description: AutoCAD Mechanical 2004 DX|Company: Autodesk"
 90
    32768
280
     0
281
     0
  0
CLASS
  1
ACMDETAILSTANDARDANSI
  2
AmdtDetailSymStdANSI
  3
"Amdt_StdImp|Product Description: AutoCAD Mechanical 2004 DX|Company: Autodesk"
 90
    32768
280
     0
281
     0
  0
CLASS
  1
ACMSECTIONSTANDARDANSI
  2
AmdtSectionSymStdANSI
  3
"Amdt_StdImp|Product Description: AutoCAD Mechanical 2004 DX|Company: Autodesk"
 90
    32768
280
     0
281
     0
  0
CLASS
  1
ACMCENTERLINESTANDARDANSI
  2
AmdtCenterLineStdANSI
  3
"Amdt_StdImp|Product Description: AutoCAD Mechanical 2004 DX|Company: Autodesk"
 90
    32768
280
     0
281
     0
  0
CLASS
  1
ACMNOTESTANDARDANSI
  2
AmdtNoteStdANSI
  3
"Amdt_StdImp|Product Description: AutoCAD Mechanical 2004 DX|Company: Autodesk"
 90
    32768
280
     0
281
     0
  0
CLASS
  1
ACAMGHOLECHARTSTDANSI
  2
AcAmgHoleChartStdANSI
  3
ACMSYMBB_MODULE_NAME
 90
    32768
280
     0
281
     0
  0
CLASS
  1
ACMTHREADLINESTANDARDANSI
  2
AmdtThreadLineStdANSI
  3
"Amdt_StdImp|Product Description: AutoCAD Mechanical 2004 DX|Company: Autodesk"
 90
    32768
280
     0
281
     0
  0
CLASS
  1
STDPART2D
  2
AmgStdPart
  3
"AmgStdPart|Product Description: AutoCAD Mechanical 2000|Company: Autodesk"
 90
    33791
280
     0
281
     1
  0
CLASS
  1
ACAMSTDPCOMPDEF
  2
AcAmStdpCompDef
  3
DesignerAssemblies
 90
    32768
280
     0
281
     0
  0
CLASS
  1
ACRFATTGENMGR
  2
AcRfAttGeneralMgr
  3
AcAttribServices
 90
        0
280
     0
281
     0
  0
CLASS
  1
ACRFOBJATTMGR
  2
AcRfObjAttGroupMgr
  3
AcAttribServices
 90
    32768
280
     0
281
     0
  0
CLASS
  1
ACRFMCADAPIATTHOLDER
  2
AcRfMCADAPIAttHolder
  3
AcAttribServices
 90
    32768
280
     0
281
     0
  0
CLASS
  1
AMDTSYSATTR
  2
AmdtSystemAttribute
  3
AcAttribServices
 90
    32768
280
     0
281
     0
  0
CLASS
  1
ACAMCOMP
  2
AcAmComp
  3
DesignerAssemblies
 90
    32768
280
     0
281
     0
  0
CLASS
  1
AC_AM_STDP_VIEW_DEF
  2
AcAmStdpViewDef
  3
DesignerAssemblies
 90
    32768
280
     0
281
     0
  0
CLASS
  1
AC_AM_MVD_DEP_MGR
  2
AcAmMVDdepMgr
  3
DesignerAssemblies
 90
    32768
280
     0
281
     0
  0
CLASS
  1
AC_AM_MASTER_VIEW_DEF
  2
AcAmMasterViewDef
  3
DesignerAssemblies
 90
    32768
280
     0
281
     0
  0
CLASS
  1
AC_AM_DIRTY_NODES
  2
AcAmDirtyNodes
  3
DesignerAssemblies
 90
    32768
280
     0
281
     0
  0
CLASS
  1
AC_AM_MAPPER_CACHE
  2
AcAmMapperCache
  3
DesignerAssemblies
 90
    32768
280
     0
281
     0
  0
CLASS
  1
ACAMMVDBACKUPOBJECT
  2
AcAmMVDBackupObject
  3
DesignerAssemblies
 90
    32768
280
     0
281
     0
  0
CLASS
  1
AC_AM_COMP_VIEW_INST
  2
AcAmCompView
  3
DesignerAssemblies
 90
    32768
280
     0
281
     0
  0
CLASS
  1
AC_AM_2D_XREF_MGR
  2
AcAmXrefMgr2d
  3
DesignerAssemblies
 90
    32768
280
     0
281
     0
  0
CLASS
  1
AMDTEDGESTANDARDISO13715
  2
AmdtEdgeStdISO13715
  3
"Amdt_StdImp|Product Description: AutoCAD Mechanical 2004 DX|Company: Autodesk"
 90
        0
280
     0
281
     0
  0
ENDSEC
  0
SECTION
  2
TABLES
  0
TABLE
  2
VPORT
  5
8
330
0
100
AcDbSymbolTable
 70
     4
  0
VPORT
  5
7AF3
330
8
100
AcDbSymbolTableRecord
100
AcDbViewportTableRecord
  2
*Active
 70
     0
 10
0.0
 20
0.0
 11
1.0
 21
1.0
 12
914.211941462592
 22
1000.475575700464
 13
0.0
 23
0.0
 14
2.5
 24
2.5
 15
10.0
 25
10.0
 16
0.0
 26
0.0
 36
1.0
 17
0.0
 27
0.0
 37
0.0
 40
263.6130922979504
 41
1.283837056504599
 42
50.0
 43
0.0
 44
0.0
 50
0.0
 51
0.0
 71
     0
 72
   100
 73
     1
 74
     3
 75
     0
 76
     0
 77
     0
 78
     0
281
     0
 65
     1
110
0.0
120
0.0
130
0.0
111
1.0
121
0.0
131
0.0
112
0.0
122
1.0
132
0.0
 79
     0
146
0.0
  0
ENDTAB
  0
TABLE
  2
LTYPE
  5
5
330
0
100
AcDbSymbolTable
 70
    16
  0
LTYPE
  5
14
330
5
100
AcDbSymbolTableRecord
100
AcDbLinetypeTableRecord
  2
ByBlock
 70
     0
  3

 72
    65
 73
     0
 40
0.0
  0
LTYPE
  5
15
330
5
100
AcDbSymbolTableRecord
100
AcDbLinetypeTableRecord
  2
ByLayer
 70
     0
  3

 72
    65
 73
     0
 40
0.0
  0
LTYPE
  5
16
330
5
100
AcDbSymbolTableRecord
100
AcDbLinetypeTableRecord
  2
Continuous
 70
     0
  3
Solid line
 72
    65
 73
     0
 40
0.0
  0
LTYPE
  5
64
330
5
100
AcDbSymbolTableRecord
100
AcDbLinetypeTableRecord
  2
AM_ISO02W050
 70
     0
  3
__ __ __ __ __ __ __ __ __ __ __ __ __ __ __
 72
    65
 73
     2
 40
7.5
 49
6.0
 74
     0
 49
-1.5
 74
     0
  0
LTYPE
  5
65
330
5
100
AcDbSymbolTableRecord
100
AcDbLinetypeTableRecord
  2
AM_ISO08W050
 70
     0
  3
____ . ____ . ____ . ____ . ____ . ____ . ____
 72
    65
 73
     4
 40
18.0
 49
12.0
 74
     0
 49
-1.5
 74
     0
 49
3.0
 74
     0
 49
-1.5
 74
     0
  0
LTYPE
  5
66
330
5
100
AcDbSymbolTableRecord
100
AcDbLinetypeTableRecord
  2
AM_ISO09W050
 70
     0
  3
_____ . . _____ . . _____ . . ____ .. ____
 72
    65
 73
     6
 40
22.5
 49
12.0
 74
     0
 49
-1.5
 74
     0
 49
3.0
 74
     0
 49
-1.5
 74
     0
 49
3.0
 74
     0
 49
-1.5
 74
     0
  0
LTYPE
  5
67
330
5
100
AcDbSymbolTableRecord
100
AcDbLinetypeTableRecord
  2
Amconstr
 70
     0
  3
_______________________
 72
    65
 73
     2
 40
9999.0
 49
9999.0
 74
     0
 49
0.0
 74
     0
  0
LTYPE
  5
68
330
5
100
AcDbSymbolTableRecord
100
AcDbLinetypeTableRecord
  2
AM_ISO08W050x2
 70
     0
  3
__ . __ . __ . __ . __ . __
 72
    65
 73
     4
 40
9.0
 49
6.0
 74
     0
 49
-0.75
 74
     0
 49
1.5
 74
     0
 49
-0.75
 74
     0
  0
LTYPE
  5
69
330
5
100
AcDbSymbolTableRecord
100
AcDbLinetypeTableRecord
  2
AM_ISO02W050x2
 70
     0
  3
 _ _ _ _ _ _ _ _ _ _ _ _
 72
    65
 73
     2
 40
3.75
 49
3.0
 74
     0
 49
-0.75
 74
     0
  0
LTYPE
  5
6C
330
5
100
AcDbSymbolTableRecord
100
AcDbLinetypeTableRecord
  2
Amzigzag
 70
     0
  3
/\/-/\/-/\/-/\/-/\/-/\/
 72
    65
 73
     2
 40
11.0001
 49
0.0001
 74
     4
 75
   135
340
6B
 46
0.04
 50
0.0
 44
0.0
 45
0.0
 49
-11.0
 74
     0
  0
LTYPE
  5
7A
330
5
100
AcDbSymbolTableRecord
100
AcDbLinetypeTableRecord
  2
ACISOWELD
 70
     0
  3
_ _ _ _ _
 72
    65
 73
     2
 40
2.0
 49
2.0
 74
     0
 49
-1.0
 74
     0
  0
LTYPE
  5
7B
330
5
100
AcDbSymbolTableRecord
100
AcDbLinetypeTableRecord
  2
ACISOTGB
 70
     0
  3
__ . . __ . .
 72
    65
 73
     6
 40
9.0
 49
4.0
 74
     0
 49
-1.0
 74
     0
 49
1.0
 74
     0
 49
-1.0
 74
     0
 49
1.0
 74
     0
 49
-1.0
 74
     0
  0
LTYPE
  5
7C
330
5
100
AcDbSymbolTableRecord
100
AcDbLinetypeTableRecord
  2
ACISOTGL
 70
     0
  3
_ _ _ _ _
 72
    65
 73
     2
 40
3.0
 49
2.0
 74
     0
 49
-1.0
 74
     0
  0
LTYPE
  5
7E
330
5
100
AcDbSymbolTableRecord
100
AcDbLinetypeTableRecord
  2
CENTER
 70
     0
  3
__ . __
 72
    65
 73
     4
 40
7.0
 49
4.0
 74
     0
 49
-1.0
 74
     0
 49
1.0
 74
     0
 49
-1.0
 74
     0
  0
LTYPE
  5
D8
330
5
100
AcDbSymbolTableRecord
100
AcDbLinetypeTableRecord
  2
HIDDEN
 70
     0
  3
Hidden __ __ __ __ __ __ __ __ __ __ __ __ __ _
 72
    65
 73
     2
 40
9.524999999999998
 49
6.349999999999999
 74
     0
 49
-3.174999999999999
 74
     0
  0
LTYPE
  5
D9
330
5
100
AcDbSymbolTableRecord
100
AcDbLinetypeTableRecord
  2
PHANTOM2
 70
     0
  3
Phantom (.5x) ___ _ _ ___ _ _ ___ _ _ ___ _ _
 72
    65
 73
     6
 40
31.75
 49
15.875
 74
     0
 49
-3.174999999999999
 74
     0
 49
3.174999999999999
 74
     0
 49
-3.174999999999999
 74
     0
 49
3.174999999999999
 74
     0
 49
-3.174999999999999
 74
     0
  0
LTYPE
  5
589C
330
5
100
AcDbSymbolTableRecord
100
AcDbLinetypeTableRecord
  2
ACANSTGB
 70
     0
  3
__ . . __ . .
 72
    65
 73
     6
 40
0.35433070866
 49
0.15748031496
 74
     0
 49
-0.03937007874
 74
     0
 49
0.03937007874
 74
     0
 49
-0.03937007874
 74
     0
 49
0.03937007874
 74
     0
 49
-0.03937007874
 74
     0
  0
LTYPE
  5
589D
330
5
100
AcDbSymbolTableRecord
100
AcDbLinetypeTableRecord
  2
ACANSTGL
 70
     0
  3
_ _ _ _ _
 72
    65
 73
     2
 40
0.11811023622
 49
0.07874015748
 74
     0
 49
-0.03937007874
 74
     0
  0
ENDTAB
  0
TABLE
  2
LAYER
  5
2
102
{ACAD_XDICTIONARY
360
3F9
102
}
330
0
100
AcDbSymbolTable
 70
     9
  0
LAYER
  5
10
330
2
100
AcDbSymbolTableRecord
100
AcDbLayerTableRecord
  2
0
 70
     0
 62
     7
  6
Continuous
370
    -3
390
F
  0
LAYER
  5
A8E
330
2
100
AcDbSymbolTableRecord
100
AcDbLayerTableRecord
  2
AM_VIS
 70
     0
 62
     7
  6
Continuous
370
    50
390
F
  0
LAYER
  5
A8F
330
2
100
AcDbSymbolTableRecord
100
AcDbLayerTableRecord
  2
AM_7
 70
     0
 62
     1
  6
CENTER
370
    25
390
F
  0
LAYER
  5
33A3
330
2
100
AcDbSymbolTableRecord
100
AcDbLayerTableRecord
  2
AM_5
 70
     0
 62
     5
  6
Continuous
370
    50
390
F
  0
LAYER
  5
33B7
330
2
100
AcDbSymbolTableRecord
100
AcDbLayerTableRecord
  2
Defpoints
 70
     0
 62
     7
  6
Continuous
290
     0
370
    -3
390
F
  0
LAYER
  5
6295
330
2
100
AcDbSymbolTableRecord
100
AcDbLayerTableRecord
  2
AM_0
 70
     0
 62
     7
  6
Continuous
370
    50
390
F
  0
LAYER
  5
76F2
330
2
100
AcDbSymbolTableRecord
100
AcDbLayerTableRecord
  2
AM_4
 70
     0
 62
     3
  6
Continuous
370
    25
390
F
  0
LAYER
  5
7707
330
2
100
AcDbSymbolTableRecord
100
AcDbLayerTableRecord
  2
LOGO
 70
     0
 62
     7
  6
Continuous
370
    -3
390
F
  0
LAYER
  5
7988
330
2
100
AcDbSymbolTableRecord
100
AcDbLayerTableRecord
  2
AM_HID
 70
     0
 62
     7
  6
AM_ISO02W050
370
    25
390
F
  0
ENDTAB
  0
TABLE
  2
STYLE
  5
3
330
0
100
AcDbSymbolTable
 70
     8
  0
STYLE
  5
11
330
3
100
AcDbSymbolTableRecord
100
AcDbTextStyleTableRecord
  2
STANDARD
 70
     0
 40
0.0
 41
1.0
 50
0.0
 71
     0
 42
3.0
  3
ISOCP.SHX
  4
CHINESET.SHX
  0
STYLE
  5
6B
330
3
100
AcDbSymbolTableRecord
100
AcDbTextStyleTableRecord
  2

 70
     1
 40
0.0
 41
1.0
 50
0.0
 71
     0
 42
2.5
  3
ltypeshp.shx
  4

  0
STYLE
  5
6D
330
3
100
AcDbSymbolTableRecord
100
AcDbTextStyleTableRecord
  2
ACISOTS
 70
     0
 40
1.0
 41
1.0
 50
0.0
 71
     0
 42
1.0
  3
isocp.shx
  4
chineset.shx
  0
STYLE
  5
79
330
3
100
AcDbSymbolTableRecord
100
AcDbTextStyleTableRecord
  2
ACISOGDT
 70
     0
 40
0.0
 41
1.0
 50
0.0
 71
     0
 42
2.5
  3
amgdt.shx
  4
chineset.shx
  0
STYLE
  5
58A1
330
3
100
AcDbSymbolTableRecord
100
AcDbTextStyleTableRecord
  2
ACANSTS
 70
     0
 40
1.0
 41
1.0
 50
0.0
 71
     0
 42
2.5
  3
romans.shx
  4
chineset.shx
  0
STYLE
  5
58A2
330
3
100
AcDbSymbolTableRecord
100
AcDbTextStyleTableRecord
  2
ACANSGDT
 70
     0
 40
0.0
 41
1.0
 50
0.0
 71
     0
 42
2.5
  3
amgdtans.shx
  4

  0
STYLE
  5
7708
330
3
100
AcDbSymbolTableRecord
100
AcDbTextStyleTableRecord
  2
CHINESET
 70
     0
 40
0.0
 41
1.0
 50
0.0
 71
     0
 42
3.0
  3
simplex.shx
  4
CHINESET.SHX
  0
ENDTAB
  0
TABLE
  2
VIEW
  5
6
330
0
100
AcDbSymbolTable
 70
     0
  0
ENDTAB
  0
TABLE
  2
UCS
  5
7
330
0
100
AcDbSymbolTable
 70
     0
  0
ENDTAB
  0
TABLE
  2
APPID
  5
9
330
0
100
AcDbSymbolTable
 70
    28
  0
APPID
  5
12
330
9
100
AcDbSymbolTableRecord
100
AcDbRegAppTableRecord
  2
ACAD
 70
     0
  0
APPID
  5
46
330
9
100
AcDbSymbolTableRecord
100
AcDbRegAppTableRecord
  2
MCAD_NO_VIS
 70
     0
  0
APPID
  5
47
330
9
100
AcDbSymbolTableRecord
100
AcDbRegAppTableRecord
  2
ACAD_TEMP_GRAPHIC
 70
     0
  0
APPID
  5
58
330
9
100
AcDbSymbolTableRecord
100
AcDbRegAppTableRecord
  2
ACATTRIBSERVICES
 70
     0
  0
APPID
  5
EE
330
9
100
AcDbSymbolTableRecord
100
AcDbRegAppTableRecord
  2
AD_DRAW
 70
     0
  0
APPID
  5
10C
330
9
100
AcDbSymbolTableRecord
100
AcDbRegAppTableRecord
  2
DESIGNERASSEMBLIES
 70
     0
  0
APPID
  5
111
330
9
100
AcDbSymbolTableRecord
100
AcDbRegAppTableRecord
  2
ACADM_DIM_EDIT
 70
     0
  0
APPID
  5
112
330
9
100
AcDbSymbolTableRecord
100
AcDbRegAppTableRecord
  2
AMDT_DM_ADJ
 70
     0
  0
APPID
  5
22C
330
9
100
AcDbSymbolTableRecord
100
AcDbRegAppTableRecord
  2
ACAD_DSTYLE_DIMTEXT_FILL
 70
     0
  0
APPID
  5
452
330
9
100
AcDbSymbolTableRecord
100
AcDbRegAppTableRecord
  2
GENIUS_GENOENT_13
 70
     0
  0
APPID
  5
453
330
9
100
AcDbSymbolTableRecord
100
AcDbRegAppTableRecord
  2
GENIUS_GENOBJ-N-CRS_13
 70
     0
  0
APPID
  5
454
330
9
100
AcDbSymbolTableRecord
100
AcDbRegAppTableRecord
  2
GENIUS_GENOLIS_13
 70
     0
  0
APPID
  5
455
330
9
100
AcDbSymbolTableRecord
100
AcDbRegAppTableRecord
  2
GENIUS_GENODEF_13
 70
     0
  0
APPID
  5
456
330
9
100
AcDbSymbolTableRecord
100
AcDbRegAppTableRecord
  2
GENIUS_GENOREF_13
 70
     0
  0
APPID
  5
6F3
330
9
100
AcDbSymbolTableRecord
100
AcDbRegAppTableRecord
  2
ACAD_PSEXT
 70
     0
  0
APPID
  5
808
330
9
100
AcDbSymbolTableRecord
100
AcDbRegAppTableRecord
  2
GENIUS_GENDTOL_13
 70
     0
  0
APPID
  5
17FF
330
9
100
AcDbSymbolTableRecord
100
AcDbRegAppTableRecord
  2
GENIUS_GENOBJ-N-CEN_13
 70
     0
  0
APPID
  5
1800
330
9
100
AcDbSymbolTableRecord
100
AcDbRegAppTableRecord
  2
GENIUS_GENCEN_19
 70
     0
  0
APPID
  5
34E6
330
9
100
AcDbSymbolTableRecord
100
AcDbRegAppTableRecord
  2
GENIUS_GENOBJ-N-HTC_13
 70
     0
  0
APPID
  5
34E7
330
9
100
AcDbSymbolTableRecord
100
AcDbRegAppTableRecord
  2
GENIUS_GENHATCH_13
 70
     0
  0
APPID
  5
7667
330
9
100
AcDbSymbolTableRecord
100
AcDbRegAppTableRecord
  2
AcAecLayerStandard
 70
     0
  0
APPID
  5
76D4
330
9
100
AcDbSymbolTableRecord
100
AcDbRegAppTableRecord
  2
GEVID1167883021
 70
     0
  0
APPID
  5
76D5
330
9
100
AcDbSymbolTableRecord
100
AcDbRegAppTableRecord
  2
GEVDC
 70
     0
  0
APPID
  5
76DE
330
9
100
AcDbSymbolTableRecord
100
AcDbRegAppTableRecord
  2
AMG_2DHIDE
 70
     0
  0
APPID
  5
76DF
330
9
100
AcDbSymbolTableRecord
100
AcDbRegAppTableRecord
  2
AMG_2DSTRUCT_BTR
 70
     0
  0
APPID
  5
76F0
330
9
100
AcDbSymbolTableRecord
100
AcDbRegAppTableRecord
  2
ACADM_2DVIEW_IGN_NOTIFY
 70
     0
  0
APPID
  5
7709
330
9
100
AcDbSymbolTableRecord
100
AcDbRegAppTableRecord
  2
GENIUS_GENREC_14
 70
     0
  0
APPID
  5
770A
330
9
100
AcDbSymbolTableRecord
100
AcDbRegAppTableRecord
  2
GENIUS_GENOBJ-N-REC_13
 70
     0
  0
ENDTAB
  0
TABLE
  2
DIMSTYLE
  5
A
330
0
100
AcDbSymbolTable
 70
    15
100
AcDbDimStyleTable
 71
     3
340
81
340
8B
340
86
  0
DIMSTYLE
105
81
330
A
100
AcDbSymbolTableRecord
100
AcDbDimStyleTableRecord
  2
AM_ISO
 70
     0
  4
"
 41
3.0
 42
1.0
 43
10.0
 44
1.5
 47
0.1
 48
0.1
 73
     0
 74
     0
 77
     1
 78
     8
 79
     2
140
3.5
141
0.0
143
0.0393701
146
0.6
147
0.7
172
     1
176
   256
177
   256
178
   256
271
     2
272
     2
283
     0
284
     8
340
11
371
    -1
372
    -1
  0
DIMSTYLE
105
82
330
A
100
AcDbSymbolTableRecord
100
AcDbDimStyleTableRecord
  2
AM_ISO$3
 70
     0
  4
"
 41
3.0
 42
1.0
 43
10.0
 44
1.5
 47
0.1
 48
0.1
 73
     0
 77
     1
 78
     8
 79
     2
140
3.5
141
0.0
143
0.0393701
146
0.6
147
0.7
176
   256
177
   256
178
   256
271
     2
272
     2
283
     0
284
     8
288
     1
289
     0
340
11
371
    -1
372
    -1
  0
DIMSTYLE
105
83
330
A
100
AcDbSymbolTableRecord
100
AcDbDimStyleTableRecord
  2
AM_ISO$4
 70
     0
  4
"
 41
3.0
 42
1.0
 43
10.0
 44
1.5
 47
0.1
 48
0.1
 73
     0
 77
     1
 78
     8
 79
     2
140
3.5
141
0.0
143
0.0393701
146
0.6
147
0.7
176
   256
177
   256
178
   256
271
     2
272
     2
283
     0
284
     8
288
     1
289
     0
340
11
371
    -1
372
    -1
  0
DIMSTYLE
105
84
330
A
100
AcDbSymbolTableRecord
100
AcDbDimStyleTableRecord
  2
AM_ISO$6
 70
     0
  4
"
 41
3.0
 42
1.0
 43
10.0
 44
1.5
 47
0.1
 48
0.1
 73
     0
 74
     0
 78
     8
 79
     2
140
3.5
141
0.0
143
0.0393701
146
0.6
147
0.7
172
     1
176
   256
177
   256
178
   256
271
     2
272
     2
283
     0
284
     8
340
11
371
    -1
372
    -1
  0
DIMSTYLE
105
85
330
A
100
AcDbSymbolTableRecord
100
AcDbDimStyleTableRecord
  2
AM_ISO$7
 70
     0
  4
"
 41
3.0
 42
1.0
 43
10.0
 44
1.5
 47
0.1
 48
0.1
 73
     0
 74
     0
 77
     1
 78
     8
 79
     2
140
5.0
141
0.0
143
0.0393701
146
0.6
147
0.7
172
     1
176
   256
177
   256
178
   256
271
     2
272
     2
283
     0
284
     8
340
11
371
    -1
372
    -1
  0
DIMSTYLE
105
86
330
A
100
AcDbSymbolTableRecord
100
AcDbDimStyleTableRecord
  2
AM_ISO$SF
 70
     0
  4
"
 41
2.5
 42
1.0
 43
10.0
 44
1.0
 47
0.1
 48
0.1
 73
     0
 74
     0
 75
     1
 76
     1
 77
     1
 78
     8
 79
     2
140
3.5
141
0.0
143
0.0393701
146
0.71
147
1.5
172
     1
176
   256
177
   256
178
     2
271
     2
272
     3
274
     4
283
     0
284
     8
340
11
371
    -1
372
    -1
  0
DIMSTYLE
105
8B
330
A
100
AcDbSymbolTableRecord
100
AcDbDimStyleTableRecord
  2
AM_ISO$SH
 70
     0
  4
"
 41
2.5
 42
1.0
 43
10.0
 44
1.0
 47
0.1
 48
0.1
 73
     0
 74
     0
 75
     1
 76
     1
 77
     1
 78
     8
 79
     2
140
3.5
141
0.0
143
0.0393701
144
2.0
146
0.71
147
1.5
172
     1
173
     1
176
   256
177
   256
178
     2
271
     2
272
     3
274
     4
283
     0
284
     8
340
11
343
87
371
    -1
372
    -1
  0
DIMSTYLE
105
40B
102
{ACAD_REACTORS
330
3835
330
380F
330
37E9
330
37C3
330
36DF
330
3705
330
385B
330
36A6
330
3677
330
3648
330
62E3
330
379D
330
3777
330
3751
330
6E56
330
5703
102
}
330
A
100
AcDbSymbolTableRecord
100
AcDbDimStyleTableRecord
  2
AM_ISO$0
 70
     0
  4
"
 41
3.0
 42
1.0
 43
10.0
 44
1.5
 47
0.1
 48
0.1
 73
     0
 74
     0
 77
     1
 78
     8
 79
     2
140
3.5
141
0.0
143
0.0393701
146
0.6
147
0.7
172
     1
176
   256
177
   256
178
   256
271
     2
272
     2
283
     0
284
     8
340
11
371
    -1
372
    -1
  0
DIMSTYLE
105
58A4
330
A
100
AcDbSymbolTableRecord
100
AcDbDimStyleTableRecord
  2
AM_ANSI
 70
     0
  4
mm
 41
0.1
 42
0.05
 43
0.5
 44
0.1
 47
0.1
 48
0.1
 78
     7
 79
     2
140
0.12
141
0.0
146
0.71
147
0.06
176
   256
177
   256
178
     2
274
     4
284
     7
340
11
371
    -1
372
    -1
  0
DIMSTYLE
105
58A5
330
A
100
AcDbSymbolTableRecord
100
AcDbDimStyleTableRecord
  2
AM_ANSI$3
 70
     0
  4
mm
 41
0.1
 42
0.05
 43
0.5
 44
0.1
 47
0.1
 48
0.1
 78
     7
 79
     2
140
0.12
141
0.0
146
0.71
147
0.06
176
   256
177
   256
178
     2
274
     4
284
     7
288
     1
289
     0
340
11
371
    -1
372
    -1
  0
DIMSTYLE
105
58A6
330
A
100
AcDbSymbolTableRecord
100
AcDbDimStyleTableRecord
  2
AM_ANSI$4
 70
     0
  4
mm
 41
0.1
 42
0.05
 43
0.5
 44
0.1
 47
0.1
 48
0.1
 78
     7
 79
     2
140
0.12
141
0.0
146
0.71
147
0.06
176
   256
177
   256
178
     2
274
     4
284
     7
288
     1
289
     0
340
11
371
    -1
372
    -1
  0
DIMSTYLE
105
58A7
330
A
100
AcDbSymbolTableRecord
100
AcDbDimStyleTableRecord
  2
AM_ANSI$7
 70
     0
  4
mm
 41
0.1
 42
0.05
 43
0.5
 44
0.1
 47
0.1
 48
0.1
 78
     7
 79
     2
140
0.24
141
0.0
146
0.71
147
0.06
176
   256
177
   256
178
     2
274
     4
284
     7
340
11
371
    -1
372
    -1
  0
DIMSTYLE
105
58A8
330
A
100
AcDbSymbolTableRecord
100
AcDbDimStyleTableRecord
  2
AM_ANSI$SF
 70
     0
  4
mm
 41
0.1
 42
0.05
 43
0.5
 44
0.1
 47
0.1
 48
0.1
 75
     1
 76
     1
 78
     7
 79
     2
140
0.12
141
0.0
146
0.71
147
0.06
176
   256
177
   256
178
     2
274
     4
284
     7
340
11
371
    -1
372
    -1
  0
DIMSTYLE
105
58A9
330
A
100
AcDbSymbolTableRecord
100
AcDbDimStyleTableRecord
  2
AM_ANSI$SH
 70
     0
  4
mm
 41
0.1
 42
0.05
 43
0.5
 44
0.1
 47
0.1
 48
0.1
 75
     1
 76
     1
 78
     7
 79
     2
140
0.12
141
0.0
146
0.71
147
0.06
173
     1
176
   256
177
   256
178
     2
274
     4
284
     7
340
11
341
87
343
87
371
    -1
372
    -1
  0
ENDTAB
  0
TABLE
  2
BLOCK_RECORD
  5
1
330
0
100
AcDbSymbolTable
 70
    28
  0
BLOCK_RECORD
  5
1F
102
{ACAD_XDICTIONARY
360
8F
102
}
330
1
100
AcDbSymbolTableRecord
100
AcDbBlockTableRecord
  2
*Model_Space
340
22
  0
BLOCK_RECORD
  5
1B
330
1
100
AcDbSymbolTableRecord
100
AcDbBlockTableRecord
  2
*Paper_Space
340
1E
  0
BLOCK_RECORD
  5
23
330
1
100
AcDbSymbolTableRecord
100
AcDbBlockTableRecord
  2
*Paper_Space0
340
26
  0
BLOCK_RECORD
  5
87
330
1
100
AcDbSymbolTableRecord
100
AcDbBlockTableRecord
  2
GENAXEH
340
0
  0
BLOCK_RECORD
  5
3649
330
1
100
AcDbSymbolTableRecord
100
AcDbBlockTableRecord
  2
*D2
340
0
  0
BLOCK_RECORD
  5
3678
330
1
100
AcDbSymbolTableRecord
100
AcDbBlockTableRecord
  2
*D3
340
0
  0
BLOCK_RECORD
  5
36A7
330
1
100
AcDbSymbolTableRecord
100
AcDbBlockTableRecord
  2
*D4
340
0
  0
BLOCK_RECORD
  5
36E0
330
1
100
AcDbSymbolTableRecord
100
AcDbBlockTableRecord
  2
*D5
340
0
  0
BLOCK_RECORD
  5
3706
330
1
100
AcDbSymbolTableRecord
100
AcDbBlockTableRecord
  2
*D6
340
0
  0
BLOCK_RECORD
  5
3752
330
1
100
AcDbSymbolTableRecord
100
AcDbBlockTableRecord
  2
*D7
340
0
  0
BLOCK_RECORD
  5
3778
330
1
100
AcDbSymbolTableRecord
100
AcDbBlockTableRecord
  2
*D8
340
0
  0
BLOCK_RECORD
  5
379E
330
1
100
AcDbSymbolTableRecord
100
AcDbBlockTableRecord
  2
*D9
340
0
  0
BLOCK_RECORD
  5
37C4
330
1
100
AcDbSymbolTableRecord
100
AcDbBlockTableRecord
  2
*D10
340
0
  0
BLOCK_RECORD
  5
37EA
330
1
100
AcDbSymbolTableRecord
100
AcDbBlockTableRecord
  2
*D11
340
0
  0
BLOCK_RECORD
  5
3810
330
1
100
AcDbSymbolTableRecord
100
AcDbBlockTableRecord
  2
*D12
340
0
  0
BLOCK_RECORD
  5
3836
330
1
100
AcDbSymbolTableRecord
100
AcDbBlockTableRecord
  2
*D13
340
0
  0
BLOCK_RECORD
  5
385C
330
1
100
AcDbSymbolTableRecord
100
AcDbBlockTableRecord
  2
*D14
340
0
  0
BLOCK_RECORD
  5
5704
330
1
100
AcDbSymbolTableRecord
100
AcDbBlockTableRecord
  2
*D15
340
0
  0
BLOCK_RECORD
  5
62E4
330
1
100
AcDbSymbolTableRecord
100
AcDbBlockTableRecord
  2
*D16
340
0
  0
BLOCK_RECORD
  5
6E57
330
1
100
AcDbSymbolTableRecord
100
AcDbBlockTableRecord
  2
*D17
340
0
  0
BLOCK_RECORD
  5
78D1
330
1
100
AcDbSymbolTableRecord
100
AcDbBlockTableRecord
  2
*S19
340
0
102
{BLKREFS
331
46CA
102
}
  0
BLOCK_RECORD
  5
78D9
330
1
100
AcDbSymbolTableRecord
100
AcDbBlockTableRecord
  2
*S20
340
0
102
{BLKREFS
331
4939
102
}
  0
BLOCK_RECORD
  5
78E1
330
1
100
AcDbSymbolTableRecord
100
AcDbBlockTableRecord
  2
*S21
340
0
102
{BLKREFS
331
493C
102
}
  0
BLOCK_RECORD
  5
78E9
330
1
100
AcDbSymbolTableRecord
100
AcDbBlockTableRecord
  2
*S22
340
0
102
{BLKREFS
331
6E45
102
}
  0
BLOCK_RECORD
  5
78F1
330
1
100
AcDbSymbolTableRecord
100
AcDbBlockTableRecord
  2
*S23
340
0
102
{BLKREFS
331
6F4B
102
}
  0
BLOCK_RECORD
  5
78F9
330
1
100
AcDbSymbolTableRecord
100
AcDbBlockTableRecord
  2
*S24
340
0
102
{BLKREFS
331
743E
102
}
  0
ENDTAB
  0
ENDSEC
  0
SECTION
  2
BLOCKS
  0
BLOCK
  5
20
330
1F
100
AcDbEntity
  8
0
100
AcDbBlockBegin
  2
*Model_Space
 70
     0
 10
0.0
 20
0.0
 30
0.0
  3
*Model_Space
  1

  0
ENDBLK
  5
21
330
1F
100
AcDbEntity
  8
0
100
AcDbBlockEnd
  0
BLOCK
  5
1C
330
1B
100
AcDbEntity
 67
     1
  8
0
100
AcDbBlockBegin
  2
*Paper_Space
 70
     0
 10
0.0
 20
0.0
 30
0.0
  3
*Paper_Space
  1

  0
ENDBLK
  5
1D
330
1B
100
AcDbEntity
 67
     1
  8
0
100
AcDbBlockEnd
  0
BLOCK
  5
24
330
23
100
AcDbEntity
  8
0
100
AcDbBlockBegin
  2
*Paper_Space0
 70
     0
 10
0.0
 20
0.0
 30
0.0
  3
*Paper_Space0
  1

  0
ENDBLK
  5
25
330
23
100
AcDbEntity
  8
0
100
AcDbBlockEnd
  0
BLOCK
  5
89
330
87
100
AcDbEntity
  8
0
100
AcDbBlockBegin
  2
GENAXEH
 70
     0
 10
0.0
 20
0.0
 30
0.0
  3
GENAXEH
  1

  0
LINE
  5
88
330
87
100
AcDbEntity
  8
0
100
AcDbLine
 10
-1.0
 20
0.0
 30
0.0
 11
1.0
 21
0.0
 31
0.0
  0
ENDBLK
  5
8A
330
87
100
AcDbEntity
  8
0
100
AcDbBlockEnd
  0
BLOCK
  5
3653
330
3649
100
AcDbEntity
  8
0
100
AcDbBlockBegin
  2
*D2
 70
     1
 10
0.0
 20
0.0
 30
0.0
  3
*D2
  1

  0
LINE
  5
74FB
330
3649
100
AcDbEntity
  8
AM_5
100
AcDbLine
 10
853.6213506930222
 20
985.1603995437919
 30
0.0
 11
853.6213506930222
 21
968.410399543792
 31
0.0
  0
LINE
  5
74FC
330
3649
100
AcDbEntity
  8
AM_5
100
AcDbLine
 10
874.6213506930251
 20
984.5603995437921
 30
0.0
 11
874.6213506930251
 21
968.410399543792
 31
0.0
  0
LINE
  5
74FD
330
3649
100
AcDbEntity
  8
AM_5
100
AcDbLine
 10
858.1213506930222
 20
970.6603995437919
 30
0.0
 11
870.1213506930251
 21
970.6603995437919
 31
0.0
  0
SOLID
  5
74FE
330
3649
100
AcDbEntity
  8
AM_5
100
AcDbTrace
 10
858.1213506930222
 20
971.410399543792
 30
0.0
 11
858.1213506930222
 21
969.9103995437919
 31
0.0
 12
853.6213506930222
 22
970.6603995437919
 32
0.0
 13
853.6213506930222
 23
970.6603995437919
 33
0.0
  0
SOLID
  5
74FF
330
3649
100
AcDbEntity
  8
AM_5
100
AcDbTrace
 10
870.1213506930251
 20
971.410399543792
 30
0.0
 11
870.1213506930251
 21
969.9103995437919
 31
0.0
 12
874.6213506930251
 22
970.6603995437919
 32
0.0
 13
874.6213506930251
 23
970.6603995437919
 33
0.0
  0
MTEXT
  5
7500
330
3649
100
AcDbEntity
  8
AM_5
100
AcDbMText
 10
864.1213506930236
 20
974.3359162760754
 30
0.0
 40
5.25
 41
0.0
 71
     5
 72
     1
  1
21
 73
     1
 44
1.0
1001
ACAD
1000
MTEXTBEGIN
1070
    73
1070
     1
1070
    44
1040
1.0
1070
    74
1070
     0
1000
MTEXTEND
  0
POINT
  5
7501
330
3649
100
AcDbEntity
  8
Defpoints
 62
     0
100
AcDbPoint
 10
853.6213506930222
 20
986.660399543792
 30
0.0
  0
POINT
  5
7502
330
3649
100
AcDbEntity
  8
Defpoints
 62
     0
100
AcDbPoint
 10
874.6213506930251
 20
986.0603995437921
 30
0.0
  0
POINT
  5
7503
330
3649
100
AcDbEntity
  8
Defpoints
 62
     0
100
AcDbPoint
 10
874.6213506930251
 20
970.6603995437919
 30
0.0
  0
ENDBLK
  5
3654
330
3649
100
AcDbEntity
  8
0
100
AcDbBlockEnd
  0
BLOCK
  5
3682
330
3678
100
AcDbEntity
  8
0
100
AcDbBlockBegin
  2
*D3
 70
     1
 10
0.0
 20
0.0
 30
0.0
  3
*D3
  1

  0
LINE
  5
7504
330
3678
100
AcDbEntity
  8
AM_5
100
AcDbLine
 10
874.6213506930251
 20
984.5603995437921
 30
0.0
 11
874.6213506930251
 21
968.410399543792
 31
0.0
  0
LINE
  5
7505
330
3678
100
AcDbEntity
  8
AM_5
100
AcDbLine
 10
895.621350693025
 20
984.5603995437921
 30
0.0
 11
895.621350693025
 21
968.410399543792
 31
0.0
  0
LINE
  5
7506
330
3678
100
AcDbEntity
  8
AM_5
100
AcDbLine
 10
879.1213506930251
 20
970.6603995437921
 30
0.0
 11
891.121350693025
 21
970.6603995437921
 31
0.0
  0
SOLID
  5
7507
330
3678
100
AcDbEntity
  8
AM_5
100
AcDbTrace
 10
879.1213506930251
 20
971.4103995437922
 30
0.0
 11
879.1213506930251
 21
969.9103995437921
 31
0.0
 12
874.6213506930251
 22
970.6603995437921
 32
0.0
 13
874.6213506930251
 23
970.6603995437921
 33
0.0
  0
SOLID
  5
7508
330
3678
100
AcDbEntity
  8
AM_5
100
AcDbTrace
 10
891.121350693025
 20
971.4103995437922
 30
0.0
 11
891.121350693025
 21
969.9103995437921
 31
0.0
 12
895.621350693025
 22
970.6603995437921
 32
0.0
 13
895.621350693025
 23
970.6603995437921
 33
0.0
  0
MTEXT
  5
7509
330
3678
100
AcDbEntity
  8
AM_5
100
AcDbMText
 10
885.121350693025
 20
974.3359162760755
 30
0.0
 40
5.25
 41
0.0
 71
     5
 72
     1
  1
21
 73
     1
 44
1.0
1001
ACAD
1000
MTEXTBEGIN
1070
    73
1070
     1
1070
    44
1040
1.0
1070
    74
1070
     0
1000
MTEXTEND
  0
POINT
  5
750A
330
3678
100
AcDbEntity
  8
Defpoints
 62
     0
100
AcDbPoint
 10
874.6213506930251
 20
986.0603995437921
 30
0.0
  0
POINT
  5
750B
330
3678
100
AcDbEntity
  8
Defpoints
 62
     0
100
AcDbPoint
 10
895.621350693025
 20
986.0603995437921
 30
0.0
  0
POINT
  5
750C
330
3678
100
AcDbEntity
  8
Defpoints
 62
     0
100
AcDbPoint
 10
895.621350693025
 20
970.6603995437921
 30
0.0
  0
ENDBLK
  5
3683
330
3678
100
AcDbEntity
  8
0
100
AcDbBlockEnd
  0
BLOCK
  5
36B3
330
36A7
100
AcDbEntity
  8
0
100
AcDbBlockBegin
  2
*D4
 70
     1
 10
0.0
 20
0.0
 30
0.0
  3
*D4
  1

  0
LINE
  5
750D
330
36A7
100
AcDbEntity
  8
AM_5
100
AcDbLine
 10
853.1213506930221
 20
985.660399543792
 30
0.0
 11
836.3713506930221
 21
985.660399543792
 31
0.0
  0
LINE
  5
750E
330
36A7
100
AcDbEntity
  8
AM_5
100
AcDbLine
 10
869.3713506930251
 20
989.8103995437921
 30
0.0
 11
836.3713506930221
 21
989.8103995437921
 31
0.0
  0
LINE
  5
750F
330
36A7
100
AcDbEntity
  8
AM_5
100
AcDbLine
 10
838.6213506930221
 20
981.160399543792
 30
0.0
 11
838.6213506930221
 21
976.660399543792
 31
0.0
  0
LINE
  5
7510
330
36A7
100
AcDbEntity
  8
AM_5
100
AcDbLine
 10
838.6213506930221
 20
994.3103995437921
 30
0.0
 11
838.6213506930221
 21
1009.100709583162
 31
0.0
  0
LINE
  5
7511
330
36A7
100
AcDbEntity
  8
AM_5
100
AcDbLine
 10
838.6213506930221
 20
985.660399543792
 30
0.0
 11
838.6213506930221
 21
989.8103995437921
 31
0.0
  0
SOLID
  5
7512
330
36A7
100
AcDbEntity
  8
AM_5
100
AcDbTrace
 10
837.8713506930221
 20
981.160399543792
 30
0.0
 11
839.3713506930222
 21
981.160399543792
 31
0.0
 12
838.6213506930221
 22
985.660399543792
 32
0.0
 13
838.6213506930221
 23
985.660399543792
 33
0.0
  0
SOLID
  5
7513
330
36A7
100
AcDbEntity
  8
AM_5
100
AcDbTrace
 10
837.8713506930221
 20
994.3103995437921
 30
0.0
 11
839.3713506930222
 21
994.3103995437921
 31
0.0
 12
838.6213506930221
 22
989.8103995437921
 32
0.0
 13
838.6213506930221
 23
989.8103995437921
 33
0.0
  0
MTEXT
  5
7514
330
36A7
100
AcDbEntity
  8
AM_5
100
AcDbMText
 10
834.9458339607386
 20
1003.955554563477
 30
0.0
 40
5.25
 41
0.0
 71
     5
 72
     1
  1
4.2
 11
0.0000000000000001
 21
1.0
 31
0.0
 73
     1
 44
1.0
1001
ACAD
1000
MTEXTBEGIN
1070
    73
1070
     1
1070
    44
1040
1.0
1070
    74
1070
     0
1000
MTEXTEND
  0
POINT
  5
7515
330
36A7
100
AcDbEntity
  8
Defpoints
 62
     0
100
AcDbPoint
 10
854.6213506930222
 20
985.660399543792
 30
0.0
  0
POINT
  5
7516
330
36A7
100
AcDbEntity
  8
Defpoints
 62
     0
100
AcDbPoint
 10
870.871350693025
 20
989.8103995437921
 30
0.0
  0
POINT
  5
7517
330
36A7
100
AcDbEntity
  8
Defpoints
 62
     0
100
AcDbPoint
 10
838.6213506930221
 20
989.8103995437921
 30
0.0
  0
ENDBLK
  5
36B4
330
36A7
100
AcDbEntity
  8
0
100
AcDbBlockEnd
  0
BLOCK
  5
36EA
330
36E0
100
AcDbEntity
  8
0
100
AcDbBlockBegin
  2
*D5
 70
     1
 10
0.0
 20
0.0
 30
0.0
  3
*D5
  1

  0
LINE
  5
7870
330
36E0
100
AcDbEntity
  8
AM_5
100
AcDbLine
 10
873.1213506930217
 20
1094.923189579591
 30
0.0
 11
836.3713506930221
 21
1094.923189579591
 31
0.0
  0
LINE
  5
7871
330
36E0
100
AcDbEntity
  8
AM_5
100
AcDbLine
 10
883.1213506930216
 20
1075.923189579591
 30
0.0
 11
836.3713506930221
 21
1075.923189579591
 31
0.0
  0
LINE
  5
7872
330
36E0
100
AcDbEntity
  8
AM_5
100
AcDbLine
 10
838.6213506930221
 20
1090.423189579591
 30
0.0
 11
838.6213506930221
 21
1080.423189579591
 31
0.0
  0
SOLID
  5
7873
330
36E0
100
AcDbEntity
  8
AM_5
100
AcDbTrace
 10
837.8713506930221
 20
1090.423189579591
 30
0.0
 11
839.3713506930222
 21
1090.423189579591
 31
0.0
 12
838.6213506930221
 22
1094.923189579591
 32
0.0
 13
838.6213506930221
 23
1094.923189579591
 33
0.0
  0
SOLID
  5
7874
330
36E0
100
AcDbEntity
  8
AM_5
100
AcDbTrace
 10
837.8713506930221
 20
1080.423189579591
 30
0.0
 11
839.3713506930222
 21
1080.423189579591
 31
0.0
 12
838.6213506930221
 22
1075.923189579591
 32
0.0
 13
838.6213506930221
 23
1075.923189579591
 33
0.0
  0
MTEXT
  5
7875
330
36E0
100
AcDbEntity
  8
AM_5
100
AcDbMText
 10
834.946350693022
 20
1085.423189579591
 30
0.0
 40
5.25
 41
0.0
 71
     5
 72
     1
  1
19
 11
0.0000000000000001
 21
1.0
 31
0.0
 73
     1
 44
1.0
1001
ACAD
1000
MTEXTBEGIN
1070
    73
1070
     1
1070
    44
1040
1.0
1070
    74
1070
     0
1000
MTEXTEND
  0
POINT
  5
7876
330
36E0
100
AcDbEntity
  8
Defpoints
 62
     0
100
AcDbPoint
 10
874.6213506930216
 20
1094.923189579591
 30
0.0
  0
POINT
  5
7877
330
36E0
100
AcDbEntity
  8
Defpoints
 62
     0
100
AcDbPoint
 10
884.6213506930217
 20
1075.923189579591
 30
0.0
  0
POINT
  5
7878
330
36E0
100
AcDbEntity
  8
Defpoints
 62
     0
100
AcDbPoint
 10
838.6213506930221
 20
1075.923189579591
 30
0.0
  0
ENDBLK
  5
36EB
330
36E0
100
AcDbEntity
  8
0
100
AcDbBlockEnd
  0
BLOCK
  5
3710
330
3706
100
AcDbEntity
  8
0
100
AcDbBlockBegin
  2
*D6
 70
     1
 10
0.0
 20
0.0
 30
0.0
  3
*D6
  1

  0
LINE
  5
7879
330
3706
100
AcDbEntity
  8
AM_5
100
AcDbLine
 10
853.1213506930221
 20
1098.623189579591
 30
0.0
 11
826.3713506930221
 21
1098.623189579591
 31
0.0
  0
LINE
  5
787A
330
3706
100
AcDbEntity
  8
AM_5
100
AcDbLine
 10
853.1213506930221
 20
1072.223189579591
 30
0.0
 11
826.3713506930221
 21
1072.223189579591
 31
0.0
  0
LINE
  5
787B
330
3706
100
AcDbEntity
  8
AM_5
100
AcDbLine
 10
828.621350693022
 20
1094.123189579591
 30
0.0
 11
828.621350693022
 21
1076.723189579591
 31
0.0
  0
SOLID
  5
787C
330
3706
100
AcDbEntity
  8
AM_5
100
AcDbTrace
 10
827.8713506930222
 20
1094.123189579591
 30
0.0
 11
829.371350693022
 21
1094.123189579591
 31
0.0
 12
828.621350693022
 22
1098.623189579591
 32
0.0
 13
828.621350693022
 23
1098.623189579591
 33
0.0
  0
SOLID
  5
787D
330
3706
100
AcDbEntity
  8
AM_5
100
AcDbTrace
 10
827.8713506930222
 20
1076.723189579591
 30
0.0
 11
829.371350693022
 21
1076.723189579591
 31
0.0
 12
828.621350693022
 22
1072.223189579591
 32
0.0
 13
828.621350693022
 23
1072.223189579591
 33
0.0
  0
MTEXT
  5
787E
330
3706
100
AcDbEntity
  8
AM_5
100
AcDbMText
 10
824.9458339607386
 20
1085.423189579591
 30
0.0
 40
5.25
 41
0.0
 71
     5
 72
     1
  1
26.4
 11
0.0000000000000001
 21
1.0
 31
0.0
 73
     1
 44
1.0
1001
ACAD
1000
MTEXTBEGIN
1070
    73
1070
     1
1070
    44
1040
1.0
1070
    74
1070
     0
1000
MTEXTEND
  0
POINT
  5
787F
330
3706
100
AcDbEntity
  8
Defpoints
 62
     0
100
AcDbPoint
 10
854.6213506930222
 20
1098.623189579591
 30
0.0
  0
POINT
  5
7880
330
3706
100
AcDbEntity
  8
Defpoints
 62
     0
100
AcDbPoint
 10
854.6213506930222
 20
1072.223189579591
 30
0.0
  0
POINT
  5
7881
330
3706
100
AcDbEntity
  8
Defpoints
 62
     0
100
AcDbPoint
 10
828.621350693022
 20
1072.223189579591
 30
0.0
  0
ENDBLK
  5
3711
330
3706
100
AcDbEntity
  8
0
100
AcDbBlockEnd
  0
BLOCK
  5
375C
330
3752
100
AcDbEntity
  8
0
100
AcDbBlockBegin
  2
*D7
 70
     1
 10
0.0
 20
0.0
 30
0.0
  3
*D7
  1

  0
LINE
  5
752A
330
3752
100
AcDbEntity
  8
AM_5
100
AcDbLine
 10
853.6213506930222
 20
916.311797458243
 30
0.0
 11
853.6213506930222
 21
899.561797458243
 31
0.0
  0
LINE
  5
752B
330
3752
100
AcDbEntity
  8
AM_5
100
AcDbLine
 10
866.6213506930221
 20
922.011797458243
 30
0.0
 11
866.6213506930221
 21
899.561797458243
 31
0.0
  0
LINE
  5
752C
330
3752
100
AcDbEntity
  8
AM_5
100
AcDbLine
 10
858.1213506930222
 20
901.811797458243
 30
0.0
 11
862.1213506930221
 21
901.811797458243
 31
0.0
  0
SOLID
  5
752D
330
3752
100
AcDbEntity
  8
AM_5
100
AcDbTrace
 10
858.1213506930222
 20
902.5617974582431
 30
0.0
 11
858.1213506930222
 21
901.061797458243
 31
0.0
 12
853.6213506930222
 22
901.811797458243
 32
0.0
 13
853.6213506930222
 23
901.811797458243
 33
0.0
  0
SOLID
  5
752E
330
3752
100
AcDbEntity
  8
AM_5
100
AcDbTrace
 10
862.1213506930221
 20
902.5617974582431
 30
0.0
 11
862.1213506930221
 21
901.061797458243
 31
0.0
 12
866.6213506930221
 22
901.811797458243
 32
0.0
 13
866.6213506930221
 23
901.811797458243
 33
0.0
  0
MTEXT
  5
752F
330
3752
100
AcDbEntity
  8
AM_5
100
AcDbMText
 10
860.1213506930221
 20
905.486797458243
 30
0.0
 40
5.25
 41
0.0
 71
     5
 72
     1
  1
13
 73
     1
 44
1.0
1001
ACAD
1000
MTEXTBEGIN
1070
    73
1070
     1
1070
    44
1040
1.0
1070
    74
1070
     0
1000
MTEXTEND
  0
POINT
  5
7530
330
3752
100
AcDbEntity
  8
Defpoints
 62
     0
100
AcDbPoint
 10
853.6213506930222
 20
917.8117974582431
 30
0.0
  0
POINT
  5
7531
330
3752
100
AcDbEntity
  8
Defpoints
 62
     0
100
AcDbPoint
 10
866.6213506930221
 20
923.5117974582431
 30
0.0
  0
POINT
  5
7532
330
3752
100
AcDbEntity
  8
Defpoints
 62
     0
100
AcDbPoint
 10
866.6213506930221
 20
901.811797458243
 30
0.0
  0
ENDBLK
  5
375D
330
3752
100
AcDbEntity
  8
0
100
AcDbBlockEnd
  0
BLOCK
  5
3782
330
3778
100
AcDbEntity
  8
0
100
AcDbBlockBegin
  2
*D8
 70
     1
 10
0.0
 20
0.0
 30
0.0
  3
*D8
  1

  0
LINE
  5
7533
330
3778
100
AcDbEntity
  8
AM_5
100
AcDbLine
 10
866.6213506930221
 20
922.011797458243
 30
0.0
 11
866.6213506930221
 21
899.561797458243
 31
0.0
  0
LINE
  5
7534
330
3778
100
AcDbEntity
  8
AM_5
100
AcDbLine
 10
885.1213506930221
 20
920.3117974582431
 30
0.0
 11
885.1213506930221
 21
899.561797458243
 31
0.0
  0
LINE
  5
7535
330
3778
100
AcDbEntity
  8
AM_5
100
AcDbLine
 10
871.1213506930221
 20
901.811797458243
 30
0.0
 11
880.6213506930221
 21
901.811797458243
 31
0.0
  0
SOLID
  5
7536
330
3778
100
AcDbEntity
  8
AM_5
100
AcDbTrace
 10
871.1213506930221
 20
902.5617974582431
 30
0.0
 11
871.1213506930221
 21
901.061797458243
 31
0.0
 12
866.6213506930221
 22
901.811797458243
 32
0.0
 13
866.6213506930221
 23
901.811797458243
 33
0.0
  0
SOLID
  5
7537
330
3778
100
AcDbEntity
  8
AM_5
100
AcDbTrace
 10
880.6213506930221
 20
902.5617974582431
 30
0.0
 11
880.6213506930221
 21
901.061797458243
 31
0.0
 12
885.1213506930221
 22
901.811797458243
 32
0.0
 13
885.1213506930221
 23
901.811797458243
 33
0.0
  0
MTEXT
  5
7538
330
3778
100
AcDbEntity
  8
AM_5
100
AcDbMText
 10
875.871350693022
 20
905.486797458243
 30
0.0
 40
5.25
 41
0.0
 71
     5
 72
     1
  1
18.5
 73
     1
 44
1.0
1001
ACAD
1000
MTEXTBEGIN
1070
    73
1070
     1
1070
    44
1040
1.0
1070
    74
1070
     0
1000
MTEXTEND
  0
POINT
  5
7539
330
3778
100
AcDbEntity
  8
Defpoints
 62
     0
100
AcDbPoint
 10
866.6213506930221
 20
923.5117974582431
 30
0.0
  0
POINT
  5
753A
330
3778
100
AcDbEntity
  8
Defpoints
 62
     0
100
AcDbPoint
 10
885.1213506930221
 20
921.811797458243
 30
0.0
  0
POINT
  5
753B
330
3778
100
AcDbEntity
  8
Defpoints
 62
     0
100
AcDbPoint
 10
885.1213506930221
 20
901.811797458243
 30
0.0
  0
ENDBLK
  5
3783
330
3778
100
AcDbEntity
  8
0
100
AcDbBlockEnd
  0
BLOCK
  5
37A8
330
379E
100
AcDbEntity
  8
0
100
AcDbBlockBegin
  2
*D9
 70
     1
 10
0.0
 20
0.0
 30
0.0
  3
*D9
  1

  0
LINE
  5
753C
330
379E
100
AcDbEntity
  8
AM_5
100
AcDbLine
 10
885.1213506930221
 20
920.3117974582431
 30
0.0
 11
885.1213506930221
 21
899.561797458243
 31
0.0
  0
LINE
  5
753D
330
379E
100
AcDbEntity
  8
AM_5
100
AcDbLine
 10
903.6213506930222
 20
922.011797458243
 30
0.0
 11
903.6213506930222
 21
899.561797458243
 31
0.0
  0
LINE
  5
753E
330
379E
100
AcDbEntity
  8
AM_5
100
AcDbLine
 10
889.6213506930221
 20
901.811797458243
 30
0.0
 11
899.121350693022
 21
901.811797458243
 31
0.0
  0
SOLID
  5
753F
330
379E
100
AcDbEntity
  8
AM_5
100
AcDbTrace
 10
889.6213506930221
 20
902.5617974582431
 30
0.0
 11
889.6213506930221
 21
901.061797458243
 31
0.0
 12
885.1213506930221
 22
901.811797458243
 32
0.0
 13
885.1213506930221
 23
901.811797458243
 33
0.0
  0
SOLID
  5
7540
330
379E
100
AcDbEntity
  8
AM_5
100
AcDbTrace
 10
899.121350693022
 20
902.5617974582431
 30
0.0
 11
899.121350693022
 21
901.061797458243
 31
0.0
 12
903.6213506930222
 22
901.811797458243
 32
0.0
 13
903.6213506930222
 23
901.811797458243
 33
0.0
  0
MTEXT
  5
7541
330
379E
100
AcDbEntity
  8
AM_5
100
AcDbMText
 10
894.3713506930221
 20
905.486797458243
 30
0.0
 40
5.25
 41
0.0
 71
     5
 72
     1
  1
18.5
 73
     1
 44
1.0
1001
ACAD
1000
MTEXTBEGIN
1070
    73
1070
     1
1070
    44
1040
1.0
1070
    74
1070
     0
1000
MTEXTEND
  0
POINT
  5
7542
330
379E
100
AcDbEntity
  8
Defpoints
 62
     0
100
AcDbPoint
 10
885.1213506930221
 20
921.811797458243
 30
0.0
  0
POINT
  5
7543
330
379E
100
AcDbEntity
  8
Defpoints
 62
     0
100
AcDbPoint
 10
903.6213506930222
 20
923.5117974582431
 30
0.0
  0
POINT
  5
7544
330
379E
100
AcDbEntity
  8
Defpoints
 62
     0
100
AcDbPoint
 10
903.6213506930222
 20
901.811797458243
 30
0.0
  0
ENDBLK
  5
37A9
330
379E
100
AcDbEntity
  8
0
100
AcDbBlockEnd
  0
BLOCK
  5
37CE
330
37C4
100
AcDbEntity
  8
0
100
AcDbBlockBegin
  2
*D10
 70
     1
 10
0.0
 20
0.0
 30
0.0
  3
*D10
  1

  0
LINE
  5
7882
330
37C4
100
AcDbEntity
  8
AM_5
100
AcDbLine
 10
853.6213506930222
 20
1071.723189579591
 30
0.0
 11
853.6213506930222
 21
1054.973189579591
 31
0.0
  0
LINE
  5
7883
330
37C4
100
AcDbEntity
  8
AM_5
100
AcDbLine
 10
873.6213506930218
 20
1075.723189579591
 30
0.0
 11
873.6213506930218
 21
1054.973189579591
 31
0.0
  0
LINE
  5
7884
330
37C4
100
AcDbEntity
  8
AM_5
100
AcDbLine
 10
858.1213506930222
 20
1057.223189579591
 30
0.0
 11
869.1213506930218
 21
1057.223189579591
 31
0.0
  0
SOLID
  5
7885
330
37C4
100
AcDbEntity
  8
AM_5
100
AcDbTrace
 10
858.1213506930222
 20
1057.973189579591
 30
0.0
 11
858.1213506930222
 21
1056.473189579591
 31
0.0
 12
853.6213506930222
 22
1057.223189579591
 32
0.0
 13
853.6213506930222
 23
1057.223189579591
 33
0.0
  0
SOLID
  5
7886
330
37C4
100
AcDbEntity
  8
AM_5
100
AcDbTrace
 10
869.1213506930218
 20
1057.973189579591
 30
0.0
 11
869.1213506930218
 21
1056.473189579591
 31
0.0
 12
873.6213506930218
 22
1057.223189579591
 32
0.0
 13
873.6213506930218
 23
1057.223189579591
 33
0.0
  0
MTEXT
  5
7887
330
37C4
100
AcDbEntity
  8
AM_5
100
AcDbMText
 10
863.6213506930218
 20
1060.898706311875
 30
0.0
 40
5.25
 41
0.0
 71
     5
 72
     1
  1
20
 73
     1
 44
1.0
1001
ACAD
1000
MTEXTBEGIN
1070
    73
1070
     1
1070
    44
1040
1.0
1070
    74
1070
     0
1000
MTEXTEND
  0
POINT
  5
7888
330
37C4
100
AcDbEntity
  8
Defpoints
 62
     0
100
AcDbPoint
 10
853.6213506930222
 20
1073.223189579591
 30
0.0
  0
POINT
  5
7889
330
37C4
100
AcDbEntity
  8
Defpoints
 62
     0
100
AcDbPoint
 10
873.6213506930218
 20
1077.223189579591
 30
0.0
  0
POINT
  5
788A
330
37C4
100
AcDbEntity
  8
Defpoints
 62
     0
100
AcDbPoint
 10
873.6213506930218
 20
1057.223189579591
 30
0.0
  0
ENDBLK
  5
37CF
330
37C4
100
AcDbEntity
  8
0
100
AcDbBlockEnd
  0
BLOCK
  5
37F4
330
37EA
100
AcDbEntity
  8
0
100
AcDbBlockBegin
  2
*D11
 70
     1
 10
0.0
 20
0.0
 30
0.0
  3
*D11
  1

  0
LINE
  5
788B
330
37EA
100
AcDbEntity
  8
AM_5
100
AcDbLine
 10
873.6213506930216
 20
1075.723189579591
 30
0.0
 11
873.6213506930216
 21
1054.973189579591
 31
0.0
  0
LINE
  5
788C
330
37EA
100
AcDbEntity
  8
AM_5
100
AcDbLine
 10
896.6213506930216
 20
1075.723189579591
 30
0.0
 11
896.6213506930216
 21
1054.973189579591
 31
0.0
  0
LINE
  5
788D
330
37EA
100
AcDbEntity
  8
AM_5
100
AcDbLine
 10
878.1213506930216
 20
1057.223189579591
 30
0.0
 11
892.1213506930216
 21
1057.223189579591
 31
0.0
  0
SOLID
  5
788E
330
37EA
100
AcDbEntity
  8
AM_5
100
AcDbTrace
 10
878.1213506930216
 20
1057.973189579591
 30
0.0
 11
878.1213506930216
 21
1056.473189579591
 31
0.0
 12
873.6213506930216
 22
1057.223189579591
 32
0.0
 13
873.6213506930216
 23
1057.223189579591
 33
0.0
  0
SOLID
  5
788F
330
37EA
100
AcDbEntity
  8
AM_5
100
AcDbTrace
 10
892.1213506930216
 20
1057.973189579591
 30
0.0
 11
892.1213506930216
 21
1056.473189579591
 31
0.0
 12
896.6213506930216
 22
1057.223189579591
 32
0.0
 13
896.6213506930216
 23
1057.223189579591
 33
0.0
  0
MTEXT
  5
7890
330
37EA
100
AcDbEntity
  8
AM_5
100
AcDbMText
 10
885.1213506930216
 20
1060.898706311875
 30
0.0
 40
5.25
 41
0.0
 71
     5
 72
     1
  1
23
 73
     1
 44
1.0
1001
ACAD
1000
MTEXTBEGIN
1070
    73
1070
     1
1070
    44
1040
1.0
1070
    74
1070
     0
1000
MTEXTEND
  0
POINT
  5
7891
330
37EA
100
AcDbEntity
  8
Defpoints
 62
     0
100
AcDbPoint
 10
873.6213506930216
 20
1077.223189579591
 30
0.0
  0
POINT
  5
7892
330
37EA
100
AcDbEntity
  8
Defpoints
 62
     0
100
AcDbPoint
 10
896.6213506930216
 20
1077.223189579591
 30
0.0
  0
POINT
  5
7893
330
37EA
100
AcDbEntity
  8
Defpoints
 62
     0
100
AcDbPoint
 10
896.6213506930216
 20
1057.223189579591
 30
0.0
  0
ENDBLK
  5
37F5
330
37EA
100
AcDbEntity
  8
0
100
AcDbBlockEnd
  0
BLOCK
  5
381A
330
3810
100
AcDbEntity
  8
0
100
AcDbBlockBegin
  2
*D12
 70
     1
 10
0.0
 20
0.0
 30
0.0
  3
*D12
  1

  0
LINE
  5
7894
330
3810
100
AcDbEntity
  8
AM_5
100
AcDbLine
 10
880.1213506930217
 20
1101.923189579591
 30
0.0
 11
880.1213506930217
 21
1115.873189579591
 31
0.0
  0
LINE
  5
7895
330
3810
100
AcDbEntity
  8
AM_5
100
AcDbLine
 10
890.1213506930217
 20
1082.923189579591
 30
0.0
 11
890.1213506930217
 21
1115.873189579591
 31
0.0
  0
LINE
  5
7896
330
3810
100
AcDbEntity
  8
AM_5
100
AcDbLine
 10
875.6213506930217
 20
1113.623189579591
 30
0.0
 11
871.1213506930217
 21
1113.623189579591
 31
0.0
  0
LINE
  5
7897
330
3810
100
AcDbEntity
  8
AM_5
100
AcDbLine
 10
894.6213506930217
 20
1113.623189579591
 30
0.0
 11
899.1213506930217
 21
1113.623189579591
 31
0.0
  0
LINE
  5
7898
330
3810
100
AcDbEntity
  8
AM_5
100
AcDbLine
 10
880.1213506930217
 20
1113.623189579591
 30
0.0
 11
890.1213506930217
 21
1113.623189579591
 31
0.0
  0
SOLID
  5
7899
330
3810
100
AcDbEntity
  8
AM_5
100
AcDbTrace
 10
875.6213506930217
 20
1114.373189579591
 30
0.0
 11
875.6213506930217
 21
1112.873189579591
 31
0.0
 12
880.1213506930217
 22
1113.623189579591
 32
0.0
 13
880.1213506930217
 23
1113.623189579591
 33
0.0
  0
SOLID
  5
789A
330
3810
100
AcDbEntity
  8
AM_5
100
AcDbTrace
 10
894.6213506930217
 20
1114.373189579591
 30
0.0
 11
894.6213506930217
 21
1112.873189579591
 31
0.0
 12
890.1213506930217
 22
1113.623189579591
 32
0.0
 13
890.1213506930217
 23
1113.623189579591
 33
0.0
  0
MTEXT
  5
789B
330
3810
100
AcDbEntity
  8
AM_5
100
AcDbMText
 10
885.1213506930216
 20
1117.298189579591
 30
0.0
 40
5.25
 41
0.0
 71
     5
 72
     1
  1
10
 73
     1
 44
1.0
1001
ACAD
1000
MTEXTBEGIN
1070
    73
1070
     1
1070
    44
1040
1.0
1070
    74
1070
     0
1000
MTEXTEND
  0
POINT
  5
789C
330
3810
100
AcDbEntity
  8
Defpoints
 62
     0
100
AcDbPoint
 10
880.1213506930217
 20
1100.423189579591
 30
0.0
  0
POINT
  5
789D
330
3810
100
AcDbEntity
  8
Defpoints
 62
     0
100
AcDbPoint
 10
890.1213506930217
 20
1081.423189579591
 30
0.0
  0
POINT
  5
789E
330
3810
100
AcDbEntity
  8
Defpoints
 62
     0
100
AcDbPoint
 10
890.1213506930217
 20
1113.623189579591
 30
0.0
  0
ENDBLK
  5
381B
330
3810
100
AcDbEntity
  8
0
100
AcDbBlockEnd
  0
BLOCK
  5
3840
330
3836
100
AcDbEntity
  8
0
100
AcDbBlockBegin
  2
*D13
 70
     1
 10
0.0
 20
0.0
 30
0.0
  3
*D13
  1

  0
LINE
  5
789F
330
3836
100
AcDbEntity
  8
AM_5
100
AcDbLine
 10
853.6213506930222
 20
1099.123189579591
 30
0.0
 11
853.6213506930222
 21
1115.873189579591
 31
0.0
  0
LINE
  5
78A0
330
3836
100
AcDbEntity
  8
AM_5
100
AcDbLine
 10
880.1213506930217
 20
1101.923189579591
 30
0.0
 11
880.1213506930217
 21
1115.873189579591
 31
0.0
  0
LINE
  5
78A1
330
3836
100
AcDbEntity
  8
AM_5
100
AcDbLine
 10
858.1213506930222
 20
1113.623189579591
 30
0.0
 11
875.6213506930217
 21
1113.623189579591
 31
0.0
  0
SOLID
  5
78A2
330
3836
100
AcDbEntity
  8
AM_5
100
AcDbTrace
 10
858.1213506930222
 20
1114.373189579591
 30
0.0
 11
858.1213506930222
 21
1112.873189579591
 31
0.0
 12
853.6213506930222
 22
1113.623189579591
 32
0.0
 13
853.6213506930222
 23
1113.623189579591
 33
0.0
  0
SOLID
  5
78A3
330
3836
100
AcDbEntity
  8
AM_5
100
AcDbTrace
 10
875.6213506930217
 20
1114.373189579591
 30
0.0
 11
875.6213506930217
 21
1112.873189579591
 31
0.0
 12
880.1213506930217
 22
1113.623189579591
 32
0.0
 13
880.1213506930217
 23
1113.623189579591
 33
0.0
  0
MTEXT
  5
78A4
330
3836
100
AcDbEntity
  8
AM_5
100
AcDbMText
 10
866.8713506930219
 20
1117.298706311875
 30
0.0
 40
5.25
 41
0.0
 71
     5
 72
     1
  1
26.5
 73
     1
 44
1.0
1001
ACAD
1000
MTEXTBEGIN
1070
    73
1070
     1
1070
    44
1040
1.0
1070
    74
1070
     0
1000
MTEXTEND
  0
POINT
  5
78A5
330
3836
100
AcDbEntity
  8
Defpoints
 62
     0
100
AcDbPoint
 10
853.6213506930222
 20
1097.623189579591
 30
0.0
  0
POINT
  5
78A6
330
3836
100
AcDbEntity
  8
Defpoints
 62
     0
100
AcDbPoint
 10
880.1213506930217
 20
1100.423189579591
 30
0.0
  0
POINT
  5
78A7
330
3836
100
AcDbEntity
  8
Defpoints
 62
     0
100
AcDbPoint
 10
880.1213506930217
 20
1113.623189579591
 30
0.0
  0
ENDBLK
  5
3841
330
3836
100
AcDbEntity
  8
0
100
AcDbBlockEnd
  0
BLOCK
  5
3866
330
385C
100
AcDbEntity
  8
0
100
AcDbBlockBegin
  2
*D14
 70
     1
 10
0.0
 20
0.0
 30
0.0
  3
*D14
  1

  0
LINE
  5
756B
330
385C
100
AcDbEntity
  8
AM_5
100
AcDbLine
 10
853.1213506930221
 20
985.660399543792
 30
0.0
 11
826.3713506930221
 21
985.660399543792
 31
0.0
  0
LINE
  5
756C
330
385C
100
AcDbEntity
  8
AM_5
100
AcDbLine
 10
853.1213506930221
 20
1020.960399543792
 30
0.0
 11
826.3713506930221
 21
1020.960399543792
 31
0.0
  0
LINE
  5
756D
330
385C
100
AcDbEntity
  8
AM_5
100
AcDbLine
 10
828.621350693022
 20
990.160399543792
 30
0.0
 11
828.621350693022
 21
1016.460399543792
 31
0.0
  0
SOLID
  5
756E
330
385C
100
AcDbEntity
  8
AM_5
100
AcDbTrace
 10
827.8713506930222
 20
990.160399543792
 30
0.0
 11
829.371350693022
 21
990.160399543792
 31
0.0
 12
828.621350693022
 22
985.660399543792
 32
0.0
 13
828.621350693022
 23
985.660399543792
 33
0.0
  0
SOLID
  5
756F
330
385C
100
AcDbEntity
  8
AM_5
100
AcDbTrace
 10
827.8713506930222
 20
1016.460399543792
 30
0.0
 11
829.371350693022
 21
1016.460399543792
 31
0.0
 12
828.621350693022
 22
1020.960399543792
 32
0.0
 13
828.621350693022
 23
1020.960399543792
 33
0.0
  0
MTEXT
  5
7570
330
385C
100
AcDbEntity
  8
AM_5
100
AcDbMText
 10
824.946350693022
 20
1003.310399543792
 30
0.0
 40
5.25
 41
0.0
 71
     5
 72
     1
  1
35.3
 11
0.0000000000000001
 21
1.0
 31
0.0
 73
     1
 44
1.0
1001
ACAD
1000
MTEXTBEGIN
1070
    73
1070
     1
1070
    44
1040
1.0
1070
    74
1070
     0
1000
MTEXTEND
  0
POINT
  5
7571
330
385C
100
AcDbEntity
  8
Defpoints
 62
     0
100
AcDbPoint
 10
854.6213506930222
 20
985.660399543792
 30
0.0
  0
POINT
  5
7572
330
385C
100
AcDbEntity
  8
Defpoints
 62
     0
100
AcDbPoint
 10
854.6213506930222
 20
1020.960399543792
 30
0.0
  0
POINT
  5
7573
330
385C
100
AcDbEntity
  8
Defpoints
 62
     0
100
AcDbPoint
 10
828.621350693022
 20
1020.960399543792
 30
0.0
  0
ENDBLK
  5
3867
330
385C
100
AcDbEntity
  8
0
100
AcDbBlockEnd
  0
BLOCK
  5
5710
330
5704
100
AcDbEntity
  8
0
100
AcDbBlockBegin
  2
*D15
 70
     1
 10
0.0
 20
0.0
 30
0.0
  3
*D15
  1

  0
LINE
  5
7574
330
5704
100
AcDbEntity
  8
AM_5
100
AcDbLine
 10
931.6213506930221
 20
1020.960399543792
 30
0.0
 11
947.3713506930222
 21
1020.960399543792
 31
0.0
  0
LINE
  5
7575
330
5704
100
AcDbEntity
  8
AM_5
100
AcDbLine
 10
895.621350693025
 20
1016.960399543792
 30
0.0
 11
947.3713506930222
 21
1016.960399543792
 31
0.0
  0
LINE
  5
7576
330
5704
100
AcDbEntity
  8
AM_5
100
AcDbLine
 10
945.1213506930221
 20
1012.460399543792
 30
0.0
 11
945.1213506930221
 21
1007.960399543792
 31
0.0
  0
LINE
  5
7577
330
5704
100
AcDbEntity
  8
AM_5
100
AcDbLine
 10
945.1213506930221
 20
1025.460399543792
 30
0.0
 11
945.1213506930221
 21
1034.685399543792
 31
0.0
  0
LINE
  5
7578
330
5704
100
AcDbEntity
  8
AM_5
100
AcDbLine
 10
945.1213506930221
 20
1016.960399543792
 30
0.0
 11
945.1213506930221
 21
1020.960399543792
 31
0.0
  0
SOLID
  5
7579
330
5704
100
AcDbEntity
  8
AM_5
100
AcDbTrace
 10
944.3713506930221
 20
1012.460399543792
 30
0.0
 11
945.8713506930221
 21
1012.460399543792
 31
0.0
 12
945.1213506930221
 22
1016.960399543792
 32
0.0
 13
945.1213506930221
 23
1016.960399543792
 33
0.0
  0
SOLID
  5
757A
330
5704
100
AcDbEntity
  8
AM_5
100
AcDbTrace
 10
944.3713506930221
 20
1025.460399543792
 30
0.0
 11
945.8713506930221
 21
1025.460399543792
 31
0.0
 12
945.1213506930221
 22
1020.960399543792
 32
0.0
 13
945.1213506930221
 23
1020.960399543792
 33
0.0
  0
MTEXT
  5
757B
330
5704
100
AcDbEntity
  8
AM_5
100
AcDbMText
 10
941.446350693022
 20
1032.322899543792
 30
0.0
 40
5.25
 41
0.0
 71
     5
 72
     1
  1
4
 11
0.0000000000000001
 21
1.0
 31
0.0
 73
     1
 44
1.0
1001
ACAD
1000
MTEXTBEGIN
1070
    73
1070
     1
1070
    44
1040
1.0
1070
    74
1070
     0
1000
MTEXTEND
  0
POINT
  5
757C
330
5704
100
AcDbEntity
  8
Defpoints
 62
     0
100
AcDbPoint
 10
930.1213506930221
 20
1020.960399543792
 30
0.0
  0
POINT
  5
757D
330
5704
100
AcDbEntity
  8
Defpoints
 62
     0
100
AcDbPoint
 10
894.1213506930251
 20
1016.960399543792
 30
0.0
  0
POINT
  5
757E
330
5704
100
AcDbEntity
  8
Defpoints
 62
     0
100
AcDbPoint
 10
945.1213506930221
 20
1016.960399543792
 30
0.0
  0
ENDBLK
  5
5711
330
5704
100
AcDbEntity
  8
0
100
AcDbBlockEnd
  0
BLOCK
  5
62EE
330
62E4
100
AcDbEntity
  8
0
100
AcDbBlockBegin
  2
*D16
 70
     1
 10
0.0
 20
0.0
 30
0.0
  3
*D16
  1

  0
LINE
  5
757F
330
62E4
100
AcDbEntity
  8
AM_5
100
AcDbLine
 10
933.0262466925921
 20
998.610399543792
 30
0.0
 11
947.3713506930222
 21
998.610399543792
 31
0.0
  0
LINE
  5
7580
330
62E4
100
AcDbEntity
  8
AM_5
100
AcDbLine
 10
931.6213506930221
 20
985.660399543792
 30
0.0
 11
947.3713506930222
 21
985.660399543792
 31
0.0
  0
LINE
  5
7581
330
62E4
100
AcDbEntity
  8
AM_5
100
AcDbLine
 10
945.1213506930221
 20
994.110399543792
 30
0.0
 11
945.1213506930221
 21
990.1603995437922
 31
0.0
  0
SOLID
  5
7582
330
62E4
100
AcDbEntity
  8
AM_5
100
AcDbTrace
 10
944.3713506930221
 20
994.110399543792
 30
0.0
 11
945.8713506930221
 21
994.110399543792
 31
0.0
 12
945.1213506930221
 22
998.610399543792
 32
0.0
 13
945.1213506930221
 23
998.610399543792
 33
0.0
  0
SOLID
  5
7583
330
62E4
100
AcDbEntity
  8
AM_5
100
AcDbTrace
 10
944.3713506930221
 20
990.1603995437922
 30
0.0
 11
945.8713506930221
 21
990.1603995437922
 31
0.0
 12
945.1213506930221
 22
985.660399543792
 32
0.0
 13
945.1213506930221
 23
985.660399543792
 33
0.0
  0
MTEXT
  5
7584
330
62E4
100
AcDbEntity
  8
AM_5
100
AcDbMText
 10
941.446350693022
 20
992.1353995437922
 30
0.0
 40
5.25
 41
0.0
 71
     5
 72
     1
  1
13
 11
0.0000000000000001
 21
1.0
 31
0.0
 73
     1
 44
1.0
1001
ACAD
1000
MTEXTBEGIN
1070
    73
1070
     1
1070
    44
1040
1.0
1070
    74
1070
     0
1000
MTEXTEND
  0
POINT
  5
7585
330
62E4
100
AcDbEntity
  8
Defpoints
 62
     0
100
AcDbPoint
 10
931.5262466925922
 20
998.610399543792
 30
0.0
  0
POINT
  5
7586
330
62E4
100
AcDbEntity
  8
Defpoints
 62
     0
100
AcDbPoint
 10
930.1213506930221
 20
985.660399543792
 30
0.0
  0
POINT
  5
7587
330
62E4
100
AcDbEntity
  8
Defpoints
 62
     0
100
AcDbPoint
 10
945.1213506930221
 20
985.660399543792
 30
0.0
  0
ENDBLK
  5
62EF
330
62E4
100
AcDbEntity
  8
0
100
AcDbBlockEnd
  0
BLOCK
  5
6E61
330
6E57
100
AcDbEntity
  8
0
100
AcDbBlockBegin
  2
*D17
 70
     1
 10
0.0
 20
0.0
 30
0.0
  3
*D17
  1

  0
LINE
  5
760A
330
6E57
100
AcDbEntity
  8
AM_5
100
AcDbLine
 10
853.6213506930222
 20
1021.460399543792
 30
0.0
 11
853.6213506930222
 21
1038.210399543792
 31
0.0
  0
LINE
  5
760B
330
6E57
100
AcDbEntity
  8
AM_5
100
AcDbLine
 10
930.1213506930221
 20
1022.460399543792
 30
0.0
 11
930.1213506930221
 21
1038.210399543792
 31
0.0
  0
LINE
  5
760C
330
6E57
100
AcDbEntity
  8
AM_5
100
AcDbLine
 10
858.1213506930222
 20
1035.960399543792
 30
0.0
 11
925.6213506930221
 21
1035.960399543792
 31
0.0
  0
SOLID
  5
760D
330
6E57
100
AcDbEntity
  8
AM_5
100
AcDbTrace
 10
858.1213506930222
 20
1036.710399543792
 30
0.0
 11
858.1213506930222
 21
1035.210399543792
 31
0.0
 12
853.6213506930222
 22
1035.960399543792
 32
0.0
 13
853.6213506930222
 23
1035.960399543792
 33
0.0
  0
SOLID
  5
760E
330
6E57
100
AcDbEntity
  8
AM_5
100
AcDbTrace
 10
925.6213506930221
 20
1036.710399543792
 30
0.0
 11
925.6213506930221
 21
1035.210399543792
 31
0.0
 12
930.1213506930221
 22
1035.960399543792
 32
0.0
 13
930.1213506930221
 23
1035.960399543792
 33
0.0
  0
MTEXT
  5
760F
330
6E57
100
AcDbEntity
  8
AM_5
100
AcDbMText
 10
891.871350693022
 20
1039.635399543792
 30
0.0
 40
5.25
 41
0.0
 71
     5
 72
     1
  1
76.5
 73
     1
 44
1.0
1001
ACAD
1000
MTEXTBEGIN
1070
    73
1070
     1
1070
    44
1040
1.0
1070
    74
1070
     0
1000
MTEXTEND
  0
POINT
  5
7610
330
6E57
100
AcDbEntity
  8
Defpoints
 62
     0
100
AcDbPoint
 10
853.6213506930222
 20
1019.960399543792
 30
0.0
  0
POINT
  5
7611
330
6E57
100
AcDbEntity
  8
Defpoints
 62
     0
100
AcDbPoint
 10
930.1213506930221
 20
1020.960399543792
 30
0.0
  0
POINT
  5
7612
330
6E57
100
AcDbEntity
  8
Defpoints
 62
     0
100
AcDbPoint
 10
930.1213506930221
 20
1035.960399543792
 30
0.0
  0
ENDBLK
  5
6E62
330
6E57
100
AcDbEntity
  8
0
100
AcDbBlockEnd
  0
BLOCK
  5
78D6
330
78D1
100
AcDbEntity
  8
0
100
AcDbBlockBegin
  2
*S19
 70
     1
 10
0.0
 20
0.0
 30
0.0
  3
*S19
  1

  0
LINE
  5
78D2
330
78D1
100
AcDbEntity
  8
AM_5
 62
     5
100
AcDbLine
 10
942.7680437424168
 20
1059.257730361545
 30
0.0
 11
906.8156599494431
 21
1059.257730361545
 31
0.0
  0
LINE
  5
78D3
330
78D1
100
AcDbEntity
  8
AM_5
 62
     5
100
AcDbLine
 10
906.8156599494431
 20
1059.257730361545
 30
0.0
 11
895.466427481892
 21
1070.746393689631
 31
0.0
  0
TRACE
  5
78D4
330
78D1
100
AcDbEntity
  8
AM_5
 62
     5
370
    35
100
AcDbTrace
 10
895.9581371230608
 20
1071.232135752462
 30
0.0
 11
894.9747178407232
 21
1070.260651626799
 31
0.0
 12
891.7768501939544
 22
1074.481299235469
 32
0.0
 13
891.7768501939544
 23
1074.481299235469
 33
0.0
  0
MTEXT
  5
78D5
330
78D1
100
AcDbEntity
  8
AM_5
 62
     5
100
AcDbMText
 10
942.7680437424168
 20
1067.741488331925
 30
0.0
 40
5.25
 41
0.0
 71
     7
 72
     5
  1

  7
ACISOTS
 73
     1
 44
1.0
1001
ACAD
1000
MTEXTBEGIN
1070
    73
1070
     1
1070
    44
1040
1.0
1070
    74
1070
     0
1000
MTEXTEND
  0
ENDBLK
  5
78D7
330
78D1
100
AcDbEntity
  8
0
100
AcDbBlockEnd
  0
BLOCK
  5
78DE
330
78D9
100
AcDbEntity
  8
0
100
AcDbBlockBegin
  2
*S20
 70
     1
 10
0.0
 20
0.0
 30
0.0
  3
*S20
  1

  0
LINE
  5
78DA
330
78D9
100
AcDbEntity
  8
AM_VIS
 62
     5
100
AcDbLine
 10
946.8433245948705
 20
1106.250986222553
 30
0.0
 11
917.5005495950109
 21
1106.250986222553
 31
0.0
  0
LINE
  5
78DB
330
78D9
100
AcDbEntity
  8
AM_VIS
 62
     5
100
AcDbLine
 10
917.5005495950109
 20
1106.250986222553
 30
0.0
 11
906.3999211237819
 21
1092.768200653044
 31
0.0
  0
TRACE
  5
78DC
330
78D9
100
AcDbEntity
  8
AM_VIS
 62
     5
100
AcDbTrace
 10
905.8663265832386
 20
1093.207518976273
 30
0.0
 11
906.9335156643253
 21
1092.328882329816
 31
0.0
 12
903.0629671484339
 22
1088.715147709101
 32
0.0
 13
903.0629671484339
 23
1088.715147709101
 33
0.0
  0
MTEXT
  5
78DD
330
78D9
100
AcDbEntity
  8
AM_VIS
 62
     5
100
AcDbMText
 10
946.8433245948705
 20
1115.157111982405
 30
0.0
 40
5.25
 41
0.0
 71
     7
 72
     5
  1

  7
ACISOTS
 73
     1
 44
1.0
1001
ACAD
1000
MTEXTBEGIN
1070
    73
1070
     1
1070
    44
1040
1.0
1070
    74
1070
     0
1000
MTEXTEND
  0
ENDBLK
  5
78DF
330
78D9
100
AcDbEntity
  8
0
100
AcDbBlockEnd
  0
BLOCK
  5
78E6
330
78E1
100
AcDbEntity
  8
0
100
AcDbBlockBegin
  2
*S21
 70
     1
 10
0.0
 20
0.0
 30
0.0
  3
*S21
  1

  0
LINE
  5
78E2
330
78E1
100
AcDbEntity
  8
AM_5
 62
     5
100
AcDbLine
 10
953.7105830401261
 20
900.3020621753217
 30
0.0
 11
920.4554380402852
 21
900.3020621753217
 31
0.0
  0
LINE
  5
78E3
330
78E1
100
AcDbEntity
  8
AM_5
 62
     5
100
AcDbLine
 10
920.4554380402852
 20
900.3020621753217
 30
0.0
 11
910.3381709938009
 21
921.5411567173893
 31
0.0
  0
TRACE
  5
78E4
330
78E1
100
AcDbEntity
  8
AM_5
 62
     5
370
    35
100
AcDbTrace
 10
911.0453667400228
 20
921.8780302222599
 30
0.0
 11
909.6309752475789
 21
921.2042832125186
 31
0.0
 12
907.779362672295
 22
926.9128417392231
 32
0.0
 13
907.779362672295
 23
926.9128417392231
 33
0.0
  0
MTEXT
  5
78E5
330
78E1
100
AcDbEntity
  8
AM_5
 62
     5
100
AcDbMText
 10
953.7105830401261
 20
910.3956713698208
 30
0.0
 40
5.95
 41
0.0
 71
     7
 72
     5
  1

  7
ACISOTS
 73
     1
 44
1.0
1001
ACAD
1000
MTEXTBEGIN
1070
    73
1070
     1
1070
    44
1040
1.0
1070
    74
1070
     0
1000
MTEXTEND
  0
ENDBLK
  5
78E7
330
78E1
100
AcDbEntity
  8
0
100
AcDbBlockEnd
  0
BLOCK
  5
78EE
330
78E9
100
AcDbEntity
  8
0
100
AcDbBlockBegin
  2
*S22
 70
     1
 10
0.0
 20
0.0
 30
0.0
  3
*S22
  1

  0
LINE
  5
78EA
330
78E9
100
AcDbEntity
  8
AM_5
 62
     5
100
AcDbLine
 10
946.922840567505
 20
969.9210703865633
 30
0.0
 11
910.9704567745312
 21
969.9210703865633
 31
0.0
  0
LINE
  5
78EB
330
78E9
100
AcDbEntity
  8
AM_5
 62
     5
100
AcDbLine
 10
910.9704567745312
 20
969.9210703865633
 30
0.0
 11
900.5985016597259
 21
984.0405994180263
 31
0.0
  0
TRACE
  5
78EC
330
78E9
100
AcDbEntity
  8
AM_5
 62
     5
370
    35
100
AcDbTrace
 10
901.1555371857651
 20
984.4497878166306
 30
0.0
 11
900.0414661336867
 21
983.6314110194221
 31
0.0
 12
897.4904071842807
 22
988.2717043247508
 32
0.0
 13
897.4904071842807
 23
988.2717043247508
 33
0.0
  0
MTEXT
  5
78ED
330
78E9
100
AcDbEntity
  8
AM_5
 62
     5
100
AcDbMText
 10
946.922840567505
 20
978.4048283569436
 30
0.0
 40
5.25
 41
0.0
 71
     7
 72
     5
  1

  7
ACISOTS
 73
     1
 44
1.0
1001
ACAD
1000
MTEXTBEGIN
1070
    73
1070
     1
1070
    44
1040
1.0
1070
    74
1070
     0
1000
MTEXTEND
  0
ENDBLK
  5
78EF
330
78E9
100
AcDbEntity
  8
0
100
AcDbBlockEnd
  0
BLOCK
  5
78F6
330
78F1
100
AcDbEntity
  8
0
100
AcDbBlockBegin
  2
*S23
 70
     1
 10
0.0
 20
0.0
 30
0.0
  3
*S23
  1

  0
LINE
  5
78F2
330
78F1
100
AcDbEntity
  8
AM_VIS
 62
     5
100
AcDbLine
 10
1012.164270089988
 20
1011.150655549639
 30
0.0
 11
991.1935788932741
 21
1011.150655549639
 31
0.0
  0
LINE
  5
78F3
330
78F1
100
AcDbEntity
  8
AM_VIS
 62
     5
100
AcDbLine
 10
991.1935788932741
 20
1011.150655549639
 30
0.0
 11
983.7374121648689
 21
1005.323411140242
 31
0.0
  0
TRACE
  5
78F4
330
78F1
100
AcDbEntity
  8
AM_VIS
 62
     5
100
AcDbTrace
 10
983.3117981367625
 20
1005.867999445204
 30
0.0
 11
984.1630261929754
 21
1004.778822835281
 31
0.0
 12
979.6008532892582
 22
1002.090551621395
 32
0.0
 13
979.6008532892582
 23
1002.090551621395
 33
0.0
  0
MTEXT
  5
78F5
330
78F1
100
AcDbEntity
  8
AM_VIS
 62
     5
100
AcDbMText
 10
1012.164270089988
 20
1021.066506945499
 30
0.0
 40
5.25
 41
0.0
 71
     7
 72
     5
  1

  7
ACISOTS
 73
     1
 44
1.0
1001
ACAD
1000
MTEXTBEGIN
1070
    73
1070
     1
1070
    44
1040
1.0
1070
    74
1070
     0
1000
MTEXTEND
  0
ENDBLK
  5
78F7
330
78F1
100
AcDbEntity
  8
0
100
AcDbBlockEnd
  0
BLOCK
  5
78FE
330
78F9
100
AcDbEntity
  8
0
100
AcDbBlockBegin
  2
*S24
 70
     1
 10
0.0
 20
0.0
 30
0.0
  3
*S24
  1

  0
LINE
  5
78FA
330
78F9
100
AcDbEntity
  8
AM_5
 62
     5
100
AcDbLine
 10
840.4099246499853
 20
953.4003578887167
 30
0.0
 11
864.1579718701983
 21
953.4003578887167
 31
0.0
  0
LINE
  5
78FB
330
78F9
100
AcDbEntity
  8
AM_5
 62
     5
100
AcDbLine
 10
864.1579718701983
 20
953.4003578887167
 30
0.0
 11
876.6557462460381
 21
938.7712940497111
 31
0.0
  0
TRACE
  5
78FC
330
78F9
100
AcDbEntity
  8
AM_5
 62
     5
370
    35
100
AcDbTrace
 10
876.0601634800032
 20
938.2624809695331
 30
0.0
 11
877.2513290120734
 21
939.280107129889
 31
0.0
 12
880.5205653096523
 22
934.2473937849478
 32
0.0
 13
880.5205653096523
 23
934.2473937849478
 33
0.0
  0
MTEXT
  5
78FD
330
78F9
100
AcDbEntity
  8
AM_5
 62
     5
100
AcDbMText
 10
840.4099246499853
 20
963.4939670832158
 30
0.0
 40
5.95
 41
0.0
 71
     7
 72
     5
  1

  7
ACISOTS
210
0.0
220
0.0
230
-1.0
 11
-1.0
 21
0.0
 31
0.0
 73
     1
 44
1.0
1001
ACAD
1000
MTEXTBEGIN
1070
    73
1070
     1
1070
    44
1040
1.0
1070
    74
1070
     0
1000
MTEXTEND
  0
ENDBLK
  5
78FF
330
78F9
100
AcDbEntity
  8
0
100
AcDbBlockEnd
  0
ENDSEC
  0
SECTION
  2
ENTITIES
  0
LINE
  5
2937
330
1F
100
AcDbEntity
  8
AM_VIS
100
AcDbLine
 10
910.1213506930221
 20
1020.960399543792
 30
0.0
 11
860.1213506930221
 21
1020.960399543792
 31
0.0
  0
LINE
  5
2938
330
1F
100
AcDbEntity
  8
AM_VIS
100
AcDbLine
 10
910.1213506930221
 20
985.660399543792
 30
0.0
 11
910.1213506930221
 21
1020.960399543792
 31
0.0
  0
LINE
  5
2939
330
1F
100
AcDbEntity
  8
AM_VIS
100
AcDbLine
 10
910.1213506930221
 20
985.660399543792
 30
0.0
 11
860.1213506930221
 21
985.660399543792
 31
0.0
  0
LINE
  5
293A
330
1F
100
AcDbEntity
  8
AM_VIS
100
AcDbLine
 10
860.1213506930221
 20
1001.810399543792
 30
0.0
 11
860.1213506930221
 21
985.660399543792
 31
0.0
  0
LINE
  5
293B
330
1F
100
AcDbEntity
  8
AM_VIS
100
AcDbLine
 10
860.1213506930221
 20
1020.960399543792
 30
0.0
 11
860.1213506930221
 21
1004.810399543792
 31
0.0
  0
LINE
  5
2940
330
1F
100
AcDbEntity
  8
AM_VIS
100
AcDbLine
 10
860.1213506930221
 20
985.660399543792
 30
0.0
 11
860.1213506930221
 21
1020.960399543792
 31
0.0
  0
LINE
  5
294C
330
1F
100
AcDbEntity
  8
AM_VIS
100
AcDbLine
 10
910.1213506930221
 20
1020.960399543792
 30
0.0
 11
910.1213506930221
 21
985.660399543792
 31
0.0
  0
LINE
  5
29F9
330
1F
100
AcDbEntity
  8
AM_VIS
100
AcDbLine
 10
910.1213506930221
 20
1072.223189579591
 30
0.0
 11
860.1213506930221
 21
1072.223189579591
 31
0.0
  0
LINE
  5
29FA
330
1F
100
AcDbEntity
  8
AM_VIS
100
AcDbLine
 10
910.1213506930221
 20
1072.223189579591
 30
0.0
 11
910.1213506930221
 21
1098.623189579591
 31
0.0
  0
LINE
  5
29FB
330
1F
100
AcDbEntity
  8
AM_VIS
100
AcDbLine
 10
910.1213506930221
 20
1098.623189579591
 30
0.0
 11
860.1213506930221
 21
1098.623189579591
 31
0.0
  0
LINE
  5
29FC
330
1F
100
AcDbEntity
  8
AM_VIS
100
AcDbLine
 10
860.1213506930221
 20
1098.623189579591
 30
0.0
 11
860.1213506930221
 21
1072.223189579591
 31
0.0
  0
LINE
  5
2A00
330
1F
100
AcDbEntity
  8
AM_VIS
100
AcDbLine
 10
860.1213506930221
 20
1072.223189579591
 30
0.0
 11
860.1213506930221
 21
1098.623189579591
 31
0.0
  0
LINE
  5
2A10
330
1F
100
AcDbEntity
  8
AM_VIS
100
AcDbLine
 10
910.1213506930221
 20
1098.623189579591
 30
0.0
 11
910.1213506930221
 21
1072.223189579591
 31
0.0
  0
LINE
  5
2B77
330
1F
100
AcDbEntity
  8
AM_VIS
100
AcDbLine
 10
910.1213506930221
 20
943.211797458243
 30
0.0
 11
860.1213506930221
 21
943.211797458243
 31
0.0
  0
LINE
  5
2B78
330
1F
100
AcDbEntity
  8
AM_VIS
100
AcDbLine
 10
910.1213506930221
 20
936.511797458243
 30
0.0
 11
910.1213506930221
 21
943.211797458243
 31
0.0
  0
LINE
  5
2B79
330
1F
100
AcDbEntity
  8
AM_VIS
100
AcDbLine
 10
910.1213506930221
 20
916.8117974582431
 30
0.0
 11
910.1213506930221
 21
933.5117974582431
 31
0.0
  0
LINE
  5
2B7A
330
1F
100
AcDbEntity
  8
AM_VIS
100
AcDbLine
 10
910.1213506930221
 20
916.8117974582431
 30
0.0
 11
860.1213506930221
 21
916.8117974582431
 31
0.0
  0
LINE
  5
2B7B
330
1F
100
AcDbEntity
  8
AM_VIS
100
AcDbLine
 10
860.1213506930221
 20
943.211797458243
 30
0.0
 11
860.1213506930221
 21
926.511797458243
 31
0.0
  0
LINE
  5
2B7C
330
1F
100
AcDbEntity
  8
AM_VIS
100
AcDbLine
 10
860.1213506930221
 20
923.5117974582431
 30
0.0
 11
860.1213506930221
 21
916.8117974582431
 31
0.0
  0
LINE
  5
2B80
330
1F
100
AcDbEntity
  8
AM_VIS
100
AcDbLine
 10
860.1213506930221
 20
916.8117974582431
 30
0.0
 11
860.1213506930221
 21
943.211797458243
 31
0.0
  0
LINE
  5
2B89
330
1F
100
AcDbEntity
  8
AM_VIS
100
AcDbLine
 10
910.1213506930221
 20
943.2117974582432
 30
0.0
 11
910.1213506930221
 21
916.8117974582433
 31
0.0
  0
LINE
  5
2C8D
330
1F
100
AcDbEntity
  8
AM_VIS
100
AcDbLine
 10
894.1213506930216
 20
1072.223189579591
 30
0.0
 11
886.1213506930216
 21
1072.223189579591
 31
0.0
  0
LINE
  5
2C8E
330
1F
100
AcDbEntity
  8
AM_VIS
100
AcDbLine
 10
876.1213506930216
 20
1098.623189579591
 30
0.0
 11
884.1213506930216
 21
1098.623189579591
 31
0.0
  0
LINE
  5
2C8F
330
1F
100
AcDbEntity
  8
AM_VIS
100
AcDbLine
 10
894.1213506930216
 20
1075.923189579591
 30
0.0
 11
894.1213506930216
 21
1072.223189579591
 31
0.0
  0
LINE
  5
2C90
330
1F
100
AcDbEntity
  8
AM_VIS
100
AcDbLine
 10
886.1213506930216
 20
1072.223189579591
 30
0.0
 11
886.1213506930216
 21
1075.923189579591
 31
0.0
  0
LINE
  5
2C91
330
1F
100
AcDbEntity
  8
AM_VIS
100
AcDbLine
 10
876.1213506930216
 20
1094.923189579591
 30
0.0
 11
876.1213506930216
 21
1098.623189579591
 31
0.0
  0
LINE
  5
2C92
330
1F
100
AcDbEntity
  8
AM_VIS
100
AcDbLine
 10
884.1213506930216
 20
1098.623189579591
 30
0.0
 11
884.1213506930216
 21
1094.923189579591
 31
0.0
  0
LINE
  5
2C93
330
1F
100
AcDbEntity
  8
AM_VIS
100
AcDbLine
 10
907.1213506930217
 20
1097.123189579591
 30
0.0
 11
907.1213506930217
 21
1093.623189579591
 31
0.0
  0
LINE
  5
2C94
330
1F
100
AcDbEntity
  8
AM_VIS
100
AcDbLine
 10
901.1213506930216
 20
1097.123189579591
 30
0.0
 11
907.1213506930217
 21
1097.123189579591
 31
0.0
  0
LINE
  5
2C95
330
1F
100
AcDbEntity
  8
AM_VIS
100
AcDbLine
 10
901.1213506930216
 20
1093.623189579591
 30
0.0
 11
901.1213506930216
 21
1097.123189579591
 31
0.0
  0
LINE
  5
2C96
330
1F
100
AcDbEntity
  8
AM_VIS
100
AcDbLine
 10
907.1213506930217
 20
1093.623189579591
 30
0.0
 11
901.1213506930216
 21
1093.623189579591
 31
0.0
  0
LINE
  5
2C97
330
1F
100
AcDbEntity
  8
AM_VIS
100
AcDbLine
 10
863.1213506930217
 20
1073.723189579591
 30
0.0
 11
863.1213506930217
 21
1077.223189579591
 31
0.0
  0
LINE
  5
2C98
330
1F
100
AcDbEntity
  8
AM_VIS
100
AcDbLine
 10
869.1213506930216
 20
1073.723189579591
 30
0.0
 11
863.1213506930217
 21
1073.723189579591
 31
0.0
  0
LINE
  5
2C99
330
1F
100
AcDbEntity
  8
AM_VIS
100
AcDbLine
 10
869.1213506930216
 20
1077.223189579591
 30
0.0
 11
869.1213506930216
 21
1073.723189579591
 31
0.0
  0
LINE
  5
2C9A
330
1F
100
AcDbEntity
  8
AM_VIS
100
AcDbLine
 10
863.1213506930217
 20
1077.223189579591
 30
0.0
 11
869.1213506930216
 21
1077.223189579591
 31
0.0
  0
ARC
  5
2C9D
330
1F
100
AcDbEntity
  8
AM_VIS
100
AcDbCircle
 10
896.6213506930216
 20
1085.423189579591
 30
0.0
 40
5.477419666661914
100
AcDbArc
 50
161.6866196971664
 51
198.3133803028336
  0
ARC
  5
2C9E
330
1F
100
AcDbEntity
  8
AM_VIS
100
AcDbCircle
 10
896.6213506930216
 20
1085.423189579591
 30
0.0
 40
5.477419666661914
100
AcDbArc
 50
273.1396789510136
 51
86.86032104898638
  0
ARC
  5
2C9F
330
1F
100
AcDbEntity
  8
AM_VIS
100
AcDbCircle
 10
873.6213506930216
 20
1085.423189579591
 30
0.0
 40
5.477419666661914
100
AcDbArc
 50
341.6866196971664
 51
18.3133803028336
  0
ARC
  5
2CA0
330
1F
100
AcDbEntity
  8
AM_VIS
100
AcDbCircle
 10
873.6213506930216
 20
1085.423189579591
 30
0.0
 40
5.477419666661914
100
AcDbArc
 50
93.13967895101361
 51
266.8603210489863
  0
ARC
  5
2CA1
330
1F
100
AcDbEntity
  8
AM_VIS
100
AcDbCircle
 10
896.6213506930216
 20
1085.423189579591
 30
0.0
 40
5.477419666661914
100
AcDbArc
 50
198.3133803028336
 51
273.1396789510136
  0
ARC
  5
2CA2
330
1F
100
AcDbEntity
  8
AM_VIS
100
AcDbCircle
 10
873.6213506930216
 20
1085.423189579591
 30
0.0
 40
5.477419666661914
100
AcDbArc
 50
18.3133803028336
 51
93.13967895101361
  0
CIRCLE
  5
2CA3
330
1F
100
AcDbEntity
  8
AM_VIS
100
AcDbCircle
 10
890.1213506930217
 20
1075.923189579591
 30
0.0
 40
2.25
  0
CIRCLE
  5
2CA4
330
1F
100
AcDbEntity
  8
AM_VIS
100
AcDbCircle
 10
880.1213506930217
 20
1094.923189579591
 30
0.0
 40
2.25
  0
ARC
  5
2CA5
330
1F
100
AcDbEntity
  8
AM_VIS
100
AcDbCircle
 10
890.1213506930217
 20
1075.923189579591
 30
0.0
 40
4.0
100
AcDbArc
 50
0.0
 51
180.0
  0
ARC
  5
2CA6
330
1F
100
AcDbEntity
  8
AM_VIS
100
AcDbCircle
 10
880.1213506930217
 20
1094.923189579591
 30
0.0
 40
4.0
100
AcDbArc
 50
180.0
 51
0.0
  0
CIRCLE
  5
2CA7
330
1F
100
AcDbEntity
  8
AM_VIS
100
AcDbCircle
 10
873.6213506930216
 20
1085.423189579591
 30
0.0
 40
6.700000000000005
  0
CIRCLE
  5
2CA8
330
1F
100
AcDbEntity
  8
AM_VIS
100
AcDbCircle
 10
896.6213506930216
 20
1085.423189579591
 30
0.0
 40
6.700000000000011
  0
ARC
  5
2CA9
330
1F
100
AcDbEntity
  8
AM_VIS
100
AcDbCircle
 10
873.6213506930216
 20
1085.423189579591
 30
0.0
 40
5.477419666661914
100
AcDbArc
 50
266.8603210489863
 51
341.6866196971664
  0
ARC
  5
2CAA
330
1F
100
AcDbEntity
  8
AM_VIS
100
AcDbCircle
 10
896.6213506930216
 20
1085.423189579591
 30
0.0
 40
5.477419666661914
100
AcDbArc
 50
86.86032104898638
 51
161.6866196971664
  0
LINE
  5
2CAB
330
1F
100
AcDbEntity
  8
AM_VIS
100
AcDbLine
 10
889.0178975301521
 20
1010.913852706665
 30
0.0
 11
889.0178975301521
 21
1012.960399543792
 31
0.0
  0
LINE
  5
2CAC
330
1F
100
AcDbEntity
  8
AM_VIS
100
AcDbLine
 10
877.871350693025
 20
1007.560399543792
 30
0.0
 11
875.3098461994138
 21
1004.998895050181
 31
0.0
  0
LINE
  5
2CAD
330
1F
100
AcDbEntity
  8
AM_VIS
100
AcDbLine
 10
887.8426097042115
 20
1010.913852706665
 30
0.0
 11
889.0178975301521
 21
1010.913852706665
 31
0.0
  0
LINE
  5
2CAE
330
1F
100
AcDbEntity
  8
AM_VIS
100
AcDbLine
 10
895.0366462627508
 20
1004.895103974066
 30
0.0
 11
889.0178975301521
 21
1010.913852706665
 31
0.0
  0
LINE
  5
2CB0
330
1F
100
AcDbEntity
  8
AM_VIS
100
AcDbLine
 10
887.8713506930251
 20
1012.960399543792
 30
0.0
 11
887.8713506930251
 21
1011.310399543792
 31
0.0
  0
LINE
  5
2CB1
330
1F
100
AcDbEntity
  8
AM_VIS
100
AcDbLine
 10
878.621350693025
 20
989.8103995437921
 30
0.0
 11
878.621350693025
 21
989.6603995437921
 31
0.0
  0
LINE
  5
2CB2
330
1F
100
AcDbEntity
  8
AM_VIS
100
AcDbLine
 10
892.0023038571855
 20
992.2603995437921
 30
0.0
 11
887.1213506930251
 21
992.2603995437921
 31
0.0
  0
LINE
  5
2CB3
330
1F
100
AcDbEntity
  8
AM_VIS
100
AcDbLine
 10
896.1213506930251
 20
1016.960399543792
 30
0.0
 11
896.1213506930251
 21
1014.460399543792
 31
0.0
  0
LINE
  5
2CB4
330
1F
100
AcDbEntity
  8
AM_VIS
100
AcDbLine
 10
887.8713506930251
 20
1012.960399543792
 30
0.0
 11
894.621350693025
 21
1012.960399543792
 31
0.0
  0
LINE
  5
2CB5
330
1F
100
AcDbEntity
  8
AM_VIS
100
AcDbLine
 10
870.621350693025
 20
989.6603995437921
 30
0.0
 11
870.621350693025
 21
989.8103995437921
 31
0.0
  0
LINE
  5
2CB6
330
1F
100
AcDbEntity
  8
AM_VIS
100
AcDbLine
 10
879.621350693025
 20
988.6603995437921
 30
0.0
 11
885.121350693025
 21
988.6603995437921
 31
0.0
  0
LINE
  5
2CB7
330
1F
100
AcDbEntity
  8
AM_VIS
100
AcDbLine
 10
886.1213506930251
 20
989.6603995437921
 30
0.0
 11
886.1213506930251
 21
991.2603995437921
 31
0.0
  0
LINE
  5
2CB8
330
1F
100
AcDbEntity
  8
AM_VIS
100
AcDbLine
 10
877.5178975301521
 20
995.7069463809194
 30
0.0
 11
885.121350693025
 21
1003.310399543792
 31
0.0
  0
LINE
  5
2CB9
330
1F
100
AcDbEntity
  8
AM_VIS
100
AcDbLine
 10
885.121350693025
 20
1003.310399543792
 30
0.0
 11
892.7248038558978
 21
995.7069463809194
 31
0.0
  0
LINE
  5
2CBA
330
1F
100
AcDbEntity
  8
AM_VIS
100
AcDbLine
 10
900.6213506930251
 20
988.6603995437921
 30
0.0
 11
906.6213506930251
 21
988.6603995437921
 31
0.0
  0
LINE
  5
2CBB
330
1F
100
AcDbEntity
  8
AM_VIS
100
AcDbLine
 10
886.5927252726605
 20
1008.987123051953
 30
0.0
 11
886.6213534334079
 21
1008.994610542653
 31
0.0
  0
LINE
  5
2CBC
330
1F
100
AcDbEntity
  8
AM_VIS
100
AcDbLine
 10
894.1213506930251
 20
1016.960399543792
 30
0.0
 11
886.1213506930251
 21
1016.960399543792
 31
0.0
  0
LINE
  5
2CBD
330
1F
100
AcDbEntity
  8
AM_VIS
100
AcDbLine
 10
886.1213506930251
 20
1016.960399543792
 30
0.0
 11
886.1213506930251
 21
1020.960399543792
 31
0.0
  0
LINE
  5
2CBE
102
{ACAD_REACTORS
330
5713
102
}
330
1F
100
AcDbEntity
  8
AM_VIS
100
AcDbLine
 10
894.1213506930251
 20
1020.960399543792
 30
0.0
 11
894.1213506930251
 21
1016.960399543792
 31
0.0
  0
LINE
  5
2CBF
330
1F
100
AcDbEntity
  8
AM_VIS
100
AcDbLine
 10
863.621350693025
 20
988.6603995437921
 30
0.0
 11
869.621350693025
 21
988.6603995437921
 31
0.0
  0
LINE
  5
2CC0
330
1F
100
AcDbEntity
  8
AM_VIS
100
AcDbLine
 10
906.6213506930251
 20
1017.960399543792
 30
0.0
 11
897.1213506930251
 21
1017.960399543792
 31
0.0
  0
LINE
  5
2CC1
330
1F
100
AcDbEntity
  8
AM_VIS
100
AcDbLine
 10
882.371350693025
 20
1011.310399543792
 30
0.0
 11
882.371350693025
 21
1016.960399543792
 31
0.0
  0
LINE
  5
2CC2
330
1F
100
AcDbEntity
  8
AM_VIS
100
AcDbLine
 10
892.7248038558978
 20
995.7069463809194
 30
0.0
 11
892.7248038558978
 21
992.5690286217388
 31
0.0
  0
LINE
  5
2CC3
330
1F
100
AcDbEntity
  8
AM_VIS
100
AcDbLine
 10
895.1213506930251
 20
995.7069463809194
 30
0.0
 11
892.7248038558978
 21
995.7069463809194
 31
0.0
  0
LINE
  5
2CC4
330
1F
100
AcDbEntity
  8
AM_VIS
100
AcDbLine
 10
897.5540201432691
 20
994.717002748
 30
0.0
 11
897.5540201432691
 21
995.3807583416057
 31
0.0
  0
LINE
  5
2CC5
330
1F
100
AcDbEntity
  8
AM_VIS
100
AcDbLine
 10
899.6213506930251
 20
989.8103995437921
 30
0.0
 11
899.6213506930251
 21
989.6603995437921
 31
0.0
  0
ARC
  5
2CC6
330
1F
100
AcDbEntity
  8
AM_VIS
100
AcDbCircle
 10
896.5450647139332
 20
994.7334866416365
 30
0.0
 40
1.009090073846735
100
AcDbArc
 50
258.6715631342564
 51
359.0640086853448
  0
LINE
  5
2CC7
330
1F
100
AcDbEntity
  8
AM_VIS
100
AcDbLine
 10
881.371350693025
 20
1017.960399543792
 30
0.0
 11
863.621350693025
 21
1017.960399543792
 31
0.0
  0
LINE
  5
2CC8
330
1F
100
AcDbEntity
  8
AM_VIS
100
AcDbLine
 10
862.621350693025
 20
1016.960399543792
 30
0.0
 11
862.621350693025
 21
989.6603995437921
 31
0.0
  0
LINE
  5
2CC9
330
1F
100
AcDbEntity
  8
AM_VIS
100
AcDbLine
 10
907.121350693025
 20
1010.310399543792
 30
0.0
 11
898.6213506930251
 21
1010.310399543792
 31
0.0
  0
LINE
  5
2CCA
330
1F
100
AcDbEntity
  8
AM_VIS
100
AcDbLine
 10
907.121350693025
 20
1016.310399543792
 30
0.0
 11
898.6213506930251
 21
1016.310399543792
 31
0.0
  0
ARC
  5
2CCB
330
1F
100
AcDbEntity
  8
AM_VIS
100
AcDbCircle
 10
906.8475217750703
 20
997.2997178813978
 30
0.0
 40
1.387376188562006
100
AcDbArc
 50
242.5304844436444
 51
266.0469275322701
  0
ARC
  5
2CCC
330
1F
100
AcDbEntity
  8
AM_VIS
100
AcDbCircle
 10
902.3913856651972
 20
989.3025771477086
 30
0.0
 40
7.768165280076305
100
AcDbArc
 50
60.57671213274492
 51
128.5147879991273
  0
LINE
  5
2CCD
330
1F
100
AcDbEntity
  8
AM_VIS
100
AcDbLine
 10
895.121345114313
 20
995.7069047752559
 30
0.0
 11
897.5540149050662
 21
995.3807192754361
 31
0.0
  0
SPLINE
  5
2CCE
330
1F
100
AcDbEntity
  8
AM_VIS
100
AcDbSpline
210
0.0
220
0.0
230
1.0
 70
     8
 71
     3
 72
    16
 73
    12
 74
     0
 42
0.0000000001
 43
0.0000000001
 40
-1.530724040777871
 40
-1.530724040777871
 40
-1.530724040777871
 40
-1.530724040777871
 40
-1.173531879215616
 40
-1.173531879215616
 40
-0.7868186477857164
 40
-0.7868186477857164
 40
-0.3967806205976246
 40
-0.3967806205976246
 40
0.0
 40
0.0
 40
0.0015640547437225
 40
0.0015640547437225
 40
0.0015640547437225
 40
0.0015640547437225
 10
906.7518768852451
 20
995.9156424702879
 30
0.0
 10
906.8692622049253
 20
995.9079675464154
 30
0.0
 10
906.9815683920442
 20
995.8901017143398
 30
0.0
 10
907.1952729683586
 20
995.8350751695478
 30
0.0
 10
907.2924225636946
 20
995.7971423239373
 30
0.0
 10
907.4528176879651
 20
995.7085136709434
 30
0.0
 10
907.5148081074077
 20
995.6582703360986
 30
0.0
 10
907.5994628350038
 20
995.551510373658
 30
0.0
 10
907.6211798065882
 20
995.4952303719988
 30
0.0
 10
907.6213503581918
 20
995.4390882220323
 30
0.0
 10
907.6213506930251
 20
995.4388677938164
 30
0.0
 10
907.6213506930251
 20
995.4386473731217
 30
0.0
  0
LINE
  5
2CCF
330
1F
100
AcDbEntity
  8
AM_VIS
100
AcDbLine
 10
907.6213506930251
 20
989.6603995437921
 30
0.0
 11
907.6213506930251
 21
1016.960399543792
 31
0.0
  0
ARC
  5
2CD0
330
1F
100
AcDbEntity
  8
AM_VIS
100
AcDbCircle
 10
904.729594442082
 20
1016.815195045905
 30
0.0
 40
0.5048133642652037
100
AcDbArc
 50
180.5442925718797
 51
270.4819926183816
  0
LINE
  5
2CD1
330
1F
100
AcDbEntity
  8
AM_VIS
100
AcDbLine
 10
904.2248038558978
 20
1017.960399543792
 30
0.0
 11
904.2248038558978
 21
1016.810399543792
 31
0.0
  0
SPLINE
  5
2CD2
330
1F
100
AcDbEntity
  8
AM_VIS
100
AcDbSpline
210
0.0
220
0.0
230
1.0
 70
     8
 71
     3
 72
    12
 73
     8
 74
     0
 42
0.0000000001
 43
0.0000000001
 40
0.0
 40
0.0
 40
0.0
 40
0.0
 40
0.0288907000736388
 40
0.0288907000736388
 40
0.0789525820262509
 40
0.0789525820262509
 40
0.1430575208287007
 40
0.1430575208287007
 40
0.1430575208287007
 40
0.1430575208287007
 10
895.1213506930251
 20
1004.760221445208
 30
0.0
 10
895.1213506930251
 20
1004.769681665113
 30
0.0
 10
895.1193020334812
 20
1004.779064816892
 30
0.0
 10
895.1106820454455
 20
1004.803458422199
 30
0.0
 10
895.1013493989474
 20
1004.819140723048
 30
0.0
 10
895.0757374175195
 20
1004.854109846116
 30
0.0
 10
895.0573042433518
 20
1004.874445993465
 30
0.0
 10
895.0366462627508
 20
1004.895103974066
 30
0.0
  0
ARC
  5
2CD3
330
1F
100
AcDbEntity
  8
AM_VIS
100
AcDbCircle
 10
880.5946407642068
 20
1004.408468593604
 30
0.0
 40
4.16545045901981
100
AcDbArc
 50
94.61747585898001
 51
130.8272416970325
  0
LINE
  5
2CD4
330
1F
100
AcDbEntity
  8
AM_VIS
100
AcDbLine
 10
863.621350693025
 20
993.3103995437921
 30
0.0
 11
872.4419012212548
 21
993.3103995437921
 31
0.0
  0
LINE
  5
2CD5
330
1F
100
AcDbEntity
  8
AM_VIS
100
AcDbLine
 10
873.5418509373245
 20
995.495083752128
 30
0.0
 11
875.1213530725426
 21
995.7069286393855
 31
0.0
  0
LINE
  5
2CD6
330
1F
100
AcDbEntity
  8
AM_VIS
100
AcDbLine
 10
877.5178975301521
 20
995.7069463809194
 30
0.0
 11
875.121350693025
 21
995.7069463809194
 31
0.0
  0
LINE
  5
2CD7
330
1F
100
AcDbEntity
  8
AM_VIS
100
AcDbLine
 10
877.5178975301521
 20
992.5690253647994
 30
0.0
 11
877.5178975301521
 21
995.7069463809194
 31
0.0
  0
ARC
  5
2CD8
330
1F
100
AcDbEntity
  8
AM_VIS
100
AcDbCircle
 10
873.659145569705
 20
994.5318033234539
 30
0.0
 40
0.9704125677465894
100
AcDbArc
 50
96.94250268407602
 51
174.5428866617078
  0
ARC
  5
2CD9
330
1F
100
AcDbEntity
  8
AM_VIS
100
AcDbCircle
 10
873.6989720480483
 20
994.7368661391799
 30
0.0
 40
1.012143341363944
100
AcDbArc
 50
186.3973457540927
 51
281.2167369769025
  0
SPLINE
  5
2CDA
330
1F
100
AcDbEntity
  8
AM_VIS
100
AcDbSpline
210
0.0
220
0.0
230
1.0
 70
     8
 71
     3
 72
    12
 73
     8
 74
     0
 42
0.0000000001
 43
0.0000000001
 40
0.0
 40
0.0
 40
0.0
 40
0.0
 40
0.2748202303343902
 40
0.2748202303343902
 40
0.3746707428581118
 40
0.3746707428581118
 40
0.4537956655441534
 40
0.4537956655441534
 40
0.4537956655441534
 40
0.4537956655441534
 10
875.3098461994136
 20
1004.998895050181
 30
0.0
 10
875.2458626675322
 20
1004.934911518299
 30
0.0
 10
875.1944198577346
 20
1004.878023992315
 30
0.0
 10
875.149547215798
 20
1004.807787852103
 30
0.0
 10
875.1384858130668
 20
1004.787341351051
 30
0.0
 10
875.1251522553239
 20
1004.749766771046
 30
0.0
 10
875.121350693025
 20
1004.732347030931
 30
0.0
 10
875.121350693025
 20
1004.714721073818
 30
0.0
  0
LINE
  5
2CDB
330
1F
100
AcDbEntity
  8
AM_VIS
100
AcDbLine
 10
863.621350693025
 20
1008.560399543792
 30
0.0
 11
885.121350693025
 21
1008.560399543792
 31
0.0
  0
LINE
  5
2CDC
330
1F
100
AcDbEntity
  8
AM_VIS
100
AcDbLine
 10
881.371350693025
 20
1014.560399543792
 30
0.0
 11
863.621350693025
 21
1014.560399543792
 31
0.0
  0
CIRCLE
  5
2CDD
330
1F
100
AcDbEntity
  8
AM_VIS
100
AcDbCircle
 10
885.121350693025
 20
1011.310399543792
 30
0.0
 40
1.400000000000003
  0
CIRCLE
  5
2CDE
330
1F
100
AcDbEntity
  8
AM_VIS
100
AcDbCircle
 10
895.621350693025
 20
989.8103995437921
 30
0.0
 40
2.25
  0
ARC
  5
2CDF
330
1F
100
AcDbEntity
  8
AM_VIS
100
AcDbCircle
 10
887.1213506930251
 20
991.2603995437921
 30
0.0
 40
0.9999999999999998
100
AcDbArc
 50
90.0
 51
180.0
  0
CIRCLE
  5
2CE0
330
1F
100
AcDbEntity
  8
AM_VIS
100
AcDbCircle
 10
874.6213506930251
 20
989.8103995437921
 30
0.0
 40
2.25
  0
ARC
  5
2CE1
330
1F
100
AcDbEntity
  8
AM_VIS
100
AcDbCircle
 10
894.621350693025
 20
1014.460399543792
 30
0.0
 40
1.5
100
AcDbArc
 50
270.0
 51
0.0
  0
ARC
  5
2CE2
330
1F
100
AcDbEntity
  8
AM_VIS
100
AcDbCircle
 10
869.621350693025
 20
989.6603995437921
 30
0.0
 40
0.9999999999999998
100
AcDbArc
 50
270.0
 51
0.0
  0
ARC
  5
2CE3
330
1F
100
AcDbEntity
  8
AM_VIS
100
AcDbCircle
 10
879.621350693025
 20
989.6603995437921
 30
0.0
 40
0.9999999999999998
100
AcDbArc
 50
180.0
 51
270.0
  0
ARC
  5
2CE4
330
1F
100
AcDbEntity
  8
AM_VIS
100
AcDbCircle
 10
885.121350693025
 20
989.6603995437921
 30
0.0
 40
1.0
100
AcDbArc
 50
270.0
 51
0.0
  0
ARC
  5
2CE5
330
1F
100
AcDbEntity
  8
AM_VIS
100
AcDbCircle
 10
892.0023038571855
 20
993.260399543792
 30
0.0
 40
1.0
100
AcDbArc
 50
270.0
 51
316.3698911321441
  0
ARC
  5
2CE6
330
1F
100
AcDbEntity
  8
AM_VIS
100
AcDbCircle
 10
900.6213506930251
 20
989.6603995437921
 30
0.0
 40
0.9999999999999998
100
AcDbArc
 50
180.0
 51
270.0
  0
ARC
  5
2CE7
330
1F
100
AcDbEntity
  8
AM_VIS
100
AcDbCircle
 10
881.371350693025
 20
1016.960399543792
 30
0.0
 40
0.9999999999999998
100
AcDbArc
 50
0.0
 51
90.0
  0
ARC
  5
2CE8
330
1F
100
AcDbEntity
  8
AM_VIS
100
AcDbCircle
 10
897.1213506930251
 20
1016.960399543792
 30
0.0
 40
0.9999999999999998
100
AcDbArc
 50
90.0
 51
180.0
  0
ARC
  5
2CE9
330
1F
100
AcDbEntity
  8
AM_VIS
100
AcDbCircle
 10
885.121350693025
 20
1011.310399543792
 30
0.0
 40
2.75
100
AcDbArc
 50
180.0
 51
0.0
  0
LINE
  5
2CEA
330
1F
100
AcDbEntity
  8
AM_VIS
100
AcDbLine
 10
886.621350693025
 20
1008.994621020412
 30
0.0
 11
886.621350693025
 21
1009.00551342919
 31
0.0
  0
ARC
  5
2CEB
330
1F
100
AcDbEntity
  8
AM_VIS
100
AcDbCircle
 10
863.621350693025
 20
1016.960399543792
 30
0.0
 40
0.9999999999999998
100
AcDbArc
 50
90.0
 51
180.0
  0
ARC
  5
2CEC
330
1F
100
AcDbEntity
  8
AM_VIS
100
AcDbCircle
 10
863.621350693025
 20
989.6603995437921
 30
0.0
 40
0.9999999999999998
100
AcDbArc
 50
180.0
 51
270.0
  0
ARC
  5
2CED
330
1F
100
AcDbEntity
  8
AM_VIS
100
AcDbCircle
 10
906.6213506930251
 20
989.6603995437921
 30
0.0
 40
0.9999999999999998
100
AcDbArc
 50
270.0
 51
0.0
  0
ARC
  5
2CEE
330
1F
100
AcDbEntity
  8
AM_VIS
100
AcDbCircle
 10
906.6213506930251
 20
1016.960399543792
 30
0.0
 40
0.9999999999999998
100
AcDbArc
 50
0.0
 51
90.0
  0
ARC
  5
2CEF
330
1F
100
AcDbEntity
  8
AM_VIS
100
AcDbCircle
 10
895.621350693025
 20
989.8103995437921
 30
0.0
 40
4.0
100
AcDbArc
 50
0.0
 51
136.369891132144
  0
ARC
  5
2CF0
330
1F
100
AcDbEntity
  8
AM_VIS
100
AcDbCircle
 10
898.6213506930251
 20
1011.310399543792
 30
0.0
 40
1.0
100
AcDbArc
 50
180.0
 51
270.0
  0
LINE
  5
2CF1
330
1F
100
AcDbEntity
  8
AM_VIS
100
AcDbLine
 10
897.621350693025
 20
1011.310399543792
 30
0.0
 11
897.621350693025
 21
1015.310399543792
 31
0.0
  0
ARC
  5
2CF2
330
1F
100
AcDbEntity
  8
AM_VIS
100
AcDbCircle
 10
898.6213506930251
 20
1015.310399543792
 30
0.0
 40
1.0
100
AcDbArc
 50
90.0
 51
180.0
  0
LINE
  5
2CF3
330
1F
100
AcDbEntity
  8
AM_VIS
100
AcDbLine
 10
895.1213506930251
 20
995.7069463809194
 30
0.0
 11
895.1213506930251
 21
1004.760221445208
 31
0.0
  0
ARC
  5
2CF4
330
1F
100
AcDbEntity
  8
AM_VIS
100
AcDbCircle
 10
907.121350693025
 20
1009.810399543792
 30
0.0
 40
0.4999999999999992
100
AcDbArc
 50
0.0
 51
90.0
  0
ARC
  5
2CF5
330
1F
100
AcDbEntity
  8
AM_VIS
100
AcDbCircle
 10
907.121350693025
 20
1016.810399543792
 30
0.0
 40
0.5
100
AcDbArc
 50
270.0
 51
0.0
  0
ARC
  5
2CF6
330
1F
100
AcDbEntity
  8
AM_VIS
100
AcDbCircle
 10
863.621350693025
 20
994.3103995437921
 30
0.0
 40
1.000000000000003
100
AcDbArc
 50
180.0
 51
270.0
  0
LINE
  5
2CF7
330
1F
100
AcDbEntity
  8
AM_VIS
100
AcDbLine
 10
875.121350693025
 20
995.7069463809194
 30
0.0
 11
875.121350693025
 21
1004.714721073818
 31
0.0
  0
ARC
  5
2CF8
330
1F
100
AcDbEntity
  8
AM_VIS
100
AcDbCircle
 10
872.4419012212548
 20
994.3103995437921
 30
0.0
 40
0.9999999999999996
100
AcDbArc
 50
270.0
 51
295.8419327631682
  0
ARC
  5
2CF9
330
1F
100
AcDbEntity
  8
AM_VIS
100
AcDbCircle
 10
874.6213506930251
 20
989.8103995437921
 30
0.0
 40
4.0
100
AcDbArc
 50
0.0
 51
180.0
  0
CIRCLE
  5
2CFA
330
1F
100
AcDbEntity
  8
AM_VIS
100
AcDbCircle
 10
885.121350693025
 20
1011.310399543792
 30
0.0
 40
1.399999999999999
  0
ARC
  5
2CFB
330
1F
100
AcDbEntity
  8
AM_VIS
100
AcDbCircle
 10
863.621350693025
 20
1007.560399543792
 30
0.0
 40
0.9999999999999998
100
AcDbArc
 50
90.0
 51
180.0
  0
ARC
  5
2CFC
330
1F
100
AcDbEntity
  8
AM_VIS
100
AcDbCircle
 10
881.371350693025
 20
1015.560399543792
 30
0.0
 40
1.0
100
AcDbArc
 50
270.0
 51
0.0
  0
ARC
  5
2CFD
330
1F
100
AcDbEntity
  8
AM_VIS
100
AcDbCircle
 10
863.621350693025
 20
1015.560399543792
 30
0.0
 40
0.9999999999999998
100
AcDbArc
 50
180.0
 51
270.0
  0
LINE
  5
2CFE
330
1F
100
AcDbEntity
  8
AM_VIS
100
AcDbLine
 10
886.1213506930251
 20
1020.960399543792
 30
0.0
 11
894.1213506930251
 21
1020.960399543792
 31
0.0
  0
LINE
  5
2D85
330
1F
100
AcDbEntity
  8
AM_VIS
100
AcDbLine
 10
887.1213506930221
 20
935.1110254591011
 30
0.0
 11
887.1213506930221
 21
935.0688099349881
 31
0.0
  0
ARC
  5
2D8D
330
1F
100
AcDbEntity
  8
AM_VIS
100
AcDbCircle
 10
880.1213506930221
 20
920.5117974582432
 30
0.0
 40
2.249999999999999
100
AcDbArc
 50
51.0575587310204
 51
128.9424412689796
  0
LINE
  5
2D8E
330
1F
100
AcDbEntity
  8
AM_VIS
100
AcDbLine
 10
906.6213506930221
 20
921.811797458243
 30
0.0
 11
906.6213506930221
 21
918.311797458243
 31
0.0
  0
LINE
  5
2D8F
330
1F
100
AcDbEntity
  8
AM_VIS
100
AcDbLine
 10
900.6213506930221
 20
921.811797458243
 30
0.0
 11
906.6213506930221
 21
921.811797458243
 31
0.0
  0
LINE
  5
2D90
330
1F
100
AcDbEntity
  8
AM_VIS
100
AcDbLine
 10
900.6213506930221
 20
918.311797458243
 30
0.0
 11
900.6213506930221
 21
921.811797458243
 31
0.0
  0
LINE
  5
2D91
330
1F
100
AcDbEntity
  8
AM_VIS
100
AcDbLine
 10
906.6213506930221
 20
918.311797458243
 30
0.0
 11
900.6213506930221
 21
918.311797458243
 31
0.0
  0
LINE
  5
2D92
330
1F
100
AcDbEntity
  8
AM_VIS
100
AcDbLine
 10
869.621350693022
 20
921.811797458243
 30
0.0
 11
869.621350693022
 21
918.311797458243
 31
0.0
  0
LINE
  5
2D93
330
1F
100
AcDbEntity
  8
AM_VIS
100
AcDbLine
 10
863.6213506930221
 20
921.811797458243
 30
0.0
 11
869.621350693022
 21
921.811797458243
 31
0.0
  0
LINE
  5
2D94
330
1F
100
AcDbEntity
  8
AM_VIS
100
AcDbLine
 10
863.6213506930221
 20
918.311797458243
 30
0.0
 11
863.6213506930221
 21
921.811797458243
 31
0.0
  0
LINE
  5
2D95
330
1F
100
AcDbEntity
  8
AM_VIS
100
AcDbLine
 10
869.621350693022
 20
918.311797458243
 30
0.0
 11
863.6213506930221
 21
918.311797458243
 31
0.0
  0
LINE
  5
2D96
330
1F
100
AcDbEntity
  8
AM_VIS
100
AcDbLine
 10
883.1213506930222
 20
941.7117974582431
 30
0.0
 11
883.1213506930222
 21
938.2117974582431
 31
0.0
  0
LINE
  5
2D97
330
1F
100
AcDbEntity
  8
AM_VIS
100
AcDbLine
 10
877.1213506930221
 20
941.7117974582431
 30
0.0
 11
883.1213506930222
 21
941.7117974582431
 31
0.0
  0
LINE
  5
2D98
330
1F
100
AcDbEntity
  8
AM_VIS
100
AcDbLine
 10
877.1213506930221
 20
938.2117974582431
 30
0.0
 11
877.1213506930221
 21
941.7117974582431
 31
0.0
  0
LINE
  5
2D99
330
1F
100
AcDbEntity
  8
AM_VIS
100
AcDbLine
 10
883.1213506930222
 20
938.2117974582431
 30
0.0
 11
877.1213506930221
 21
938.2117974582431
 31
0.0
  0
LINE
  5
2D9A
330
1F
100
AcDbEntity
  8
AM_VIS
100
AcDbLine
 10
883.1213506930222
 20
924.954784981498
 30
0.0
 11
883.1213506930222
 21
924.912569457385
 31
0.0
  0
CIRCLE
  5
2D9C
330
1F
100
AcDbEntity
  8
AM_VIS
100
AcDbCircle
 10
903.6213506930222
 20
930.011797458243
 30
0.0
 40
5.0
  0
CIRCLE
  5
2D9D
330
1F
100
AcDbEntity
  8
AM_VIS
100
AcDbCircle
 10
866.6213506930221
 20
930.011797458243
 30
0.0
 40
5.000000000000001
  0
CIRCLE
  5
2D9E
330
1F
100
AcDbEntity
  8
AM_VIS
100
AcDbCircle
 10
885.1213506930221
 20
930.011797458243
 30
0.0
 40
6.700000000000002
  0
CIRCLE
  5
2D9F
330
1F
100
AcDbEntity
  8
AM_VIS
100
AcDbCircle
 10
880.1213506930221
 20
920.5117974582432
 30
0.0
 40
2.25
  0
CIRCLE
  5
2DA0
330
1F
100
AcDbEntity
  8
AM_VIS
100
AcDbCircle
 10
890.121350693022
 20
939.5117974582431
 30
0.0
 40
2.25
  0
CIRCLE
  5
2DA3
330
1F
100
AcDbEntity
  8
0
100
AcDbCircle
 10
885.1213506930216
 20
930.011797458243
 30
0.0
 40
5.474999999999999
  0
CIRCLE
  5
2DA4
330
1F
100
AcDbEntity
  8
0
100
AcDbCircle
 10
866.6213506930221
 20
930.011797458243
 30
0.0
 40
4.020873186269625
  0
CIRCLE
  5
2DA5
330
1F
100
AcDbEntity
  8
0
100
AcDbCircle
 10
903.6213506930222
 20
930.011797458243
 30
0.0
 40
4.020873186269596
  0
LINE
  5
2DA7
330
1F
100
AcDbEntity
  8
AM_7
100
AcDbLine
 10
896.6213506930216
 20
1085.423189579591
 30
0.0
 11
904.8213506930217
 21
1085.423189579591
 31
0.0
1001
GENIUS_GENOREF_13
1005
2DD7
  0
LINE
  5
2DA8
330
1F
100
AcDbEntity
  8
AM_7
100
AcDbLine
 10
896.6213506930216
 20
1085.423189579591
 30
0.0
 11
896.6213506930216
 21
1093.623189579591
 31
0.0
1001
GENIUS_GENOREF_13
1005
2DD7
  0
LINE
  5
2DA9
330
1F
100
AcDbEntity
  8
AM_7
100
AcDbLine
 10
896.6213506930216
 20
1085.423189579591
 30
0.0
 11
888.4213506930219
 21
1085.423189579591
 31
0.0
1001
GENIUS_GENOREF_13
1005
2DD7
  0
LINE
  5
2DAA
102
{ACAD_REACTORS
330
37F7
102
}
330
1F
100
AcDbEntity
  8
AM_7
100
AcDbLine
 10
896.6213506930216
 20
1085.423189579591
 30
0.0
 11
896.6213506930216
 21
1077.223189579591
 31
0.0
1001
GENIUS_GENOREF_13
1005
2DD7
  0
LINE
  5
2DAB
330
1F
100
AcDbEntity
  8
AM_7
100
AcDbLine
 10
873.6213506930216
 20
1085.423189579591
 30
0.0
 11
881.8213506930216
 21
1085.423189579591
 31
0.0
1001
GENIUS_GENOREF_13
1005
2DD6
  0
LINE
  5
2DAC
330
1F
100
AcDbEntity
  8
AM_7
100
AcDbLine
 10
873.6213506930216
 20
1085.423189579591
 30
0.0
 11
873.6213506930216
 21
1093.623189579591
 31
0.0
1001
GENIUS_GENOREF_13
1005
2DD6
  0
LINE
  5
2DAD
330
1F
100
AcDbEntity
  8
AM_7
100
AcDbLine
 10
873.6213506930216
 20
1085.423189579591
 30
0.0
 11
865.4213506930219
 21
1085.423189579591
 31
0.0
1001
GENIUS_GENOREF_13
1005
2DD6
  0
LINE
  5
2DAE
102
{ACAD_REACTORS
330
37D1
330
37F7
102
}
330
1F
100
AcDbEntity
  8
AM_7
100
AcDbLine
 10
873.6213506930216
 20
1085.423189579591
 30
0.0
 11
873.6213506930216
 21
1077.223189579591
 31
0.0
1001
GENIUS_GENOREF_13
1005
2DD6
  0
LINE
  5
2DAF
330
1F
100
AcDbEntity
  8
AM_7
  6
AM_ISO08W050x2
100
AcDbLine
 10
880.1213506930217
 20
1094.923189579591
 30
0.0
 11
885.6213506930217
 21
1094.923189579591
 31
0.0
1001
GENIUS_GENOREF_13
1005
2DD5
  0
LINE
  5
2DB0
102
{ACAD_REACTORS
330
381D
330
3843
102
}
330
1F
100
AcDbEntity
  8
AM_7
  6
AM_ISO08W050x2
100
AcDbLine
 10
880.1213506930217
 20
1094.923189579591
 30
0.0
 11
880.1213506930217
 21
1100.423189579591
 31
0.0
1001
GENIUS_GENOREF_13
1005
2DD5
  0
LINE
  5
2DB1
102
{ACAD_REACTORS
330
36ED
102
}
330
1F
100
AcDbEntity
  8
AM_7
  6
AM_ISO08W050x2
100
AcDbLine
 10
880.1213506930217
 20
1094.923189579591
 30
0.0
 11
874.6213506930216
 21
1094.923189579591
 31
0.0
1001
GENIUS_GENOREF_13
1005
2DD5
  0
LINE
  5
2DB2
330
1F
100
AcDbEntity
  8
AM_7
  6
AM_ISO08W050x2
100
AcDbLine
 10
880.1213506930217
 20
1094.923189579591
 30
0.0
 11
880.1213506930217
 21
1089.423189579591
 31
0.0
1001
GENIUS_GENOREF_13
1005
2DD5
  0
LINE
  5
2DB3
330
1F
100
AcDbEntity
  8
AM_7
  6
AM_ISO08W050x2
100
AcDbLine
 10
890.1213506930217
 20
1075.923189579591
 30
0.0
 11
895.6213506930216
 21
1075.923189579591
 31
0.0
1001
GENIUS_GENOREF_13
1005
2DD4
  0
LINE
  5
2DB4
102
{ACAD_REACTORS
330
381D
102
}
330
1F
100
AcDbEntity
  8
AM_7
  6
AM_ISO08W050x2
100
AcDbLine
 10
890.1213506930217
 20
1075.923189579591
 30
0.0
 11
890.1213506930217
 21
1081.423189579591
 31
0.0
1001
GENIUS_GENOREF_13
1005
2DD4
  0
LINE
  5
2DB5
102
{ACAD_REACTORS
330
36ED
102
}
330
1F
100
AcDbEntity
  8
AM_7
  6
AM_ISO08W050x2
100
AcDbLine
 10
890.1213506930217
 20
1075.923189579591
 30
0.0
 11
884.6213506930217
 21
1075.923189579591
 31
0.0
1001
GENIUS_GENOREF_13
1005
2DD4
  0
LINE
  5
2DB6
330
1F
100
AcDbEntity
  8
AM_7
  6
AM_ISO08W050x2
100
AcDbLine
 10
890.1213506930217
 20
1075.923189579591
 30
0.0
 11
890.1213506930217
 21
1070.423189579591
 31
0.0
1001
GENIUS_GENOREF_13
1005
2DD4
  0
LINE
  5
2DB7
330
1F
100
AcDbEntity
  8
AM_7
100
AcDbLine
 10
903.6213506930222
 20
930.011797458243
 30
0.0
 11
910.1213506930221
 21
930.011797458243
 31
0.0
1001
GENIUS_GENOREF_13
1005
2DD3
  0
LINE
  5
2DB8
330
1F
100
AcDbEntity
  8
AM_7
100
AcDbLine
 10
903.6213506930222
 20
930.011797458243
 30
0.0
 11
903.6213506930222
 21
936.511797458243
 31
0.0
1001
GENIUS_GENOREF_13
1005
2DD3
  0
LINE
  5
2DB9
330
1F
100
AcDbEntity
  8
AM_7
100
AcDbLine
 10
903.6213506930222
 20
930.011797458243
 30
0.0
 11
897.1213506930221
 21
930.011797458243
 31
0.0
1001
GENIUS_GENOREF_13
1005
2DD3
  0
LINE
  5
2DBA
102
{ACAD_REACTORS
330
37AB
102
}
330
1F
100
AcDbEntity
  8
AM_7
100
AcDbLine
 10
903.6213506930222
 20
930.011797458243
 30
0.0
 11
903.6213506930222
 21
923.5117974582431
 31
0.0
1001
GENIUS_GENOREF_13
1005
2DD3
  0
LINE
  5
2DBB
330
1F
100
AcDbEntity
  8
AM_7
100
AcDbLine
 10
885.1213506930221
 20
930.011797458243
 30
0.0
 11
893.3213506930218
 21
930.011797458243
 31
0.0
1001
GENIUS_GENOREF_13
1005
2DD2
  0
LINE
  5
2DBC
330
1F
100
AcDbEntity
  8
AM_7
100
AcDbLine
 10
885.1213506930221
 20
930.011797458243
 30
0.0
 11
885.1213506930221
 21
938.2117974582431
 31
0.0
1001
GENIUS_GENOREF_13
1005
2DD2
  0
LINE
  5
2DBD
330
1F
100
AcDbEntity
  8
AM_7
100
AcDbLine
 10
885.1213506930221
 20
930.011797458243
 30
0.0
 11
876.9213506930221
 21
930.011797458243
 31
0.0
1001
GENIUS_GENOREF_13
1005
2DD2
  0
LINE
  5
2DBE
102
{ACAD_REACTORS
330
3785
330
37AB
102
}
330
1F
100
AcDbEntity
  8
AM_7
100
AcDbLine
 10
885.1213506930221
 20
930.011797458243
 30
0.0
 11
885.1213506930221
 21
921.811797458243
 31
0.0
1001
GENIUS_GENOREF_13
1005
2DD2
  0
LINE
  5
2DBF
330
1F
100
AcDbEntity
  8
AM_7
100
AcDbLine
 10
866.6213506930221
 20
930.011797458243
 30
0.0
 11
873.121350693022
 21
930.011797458243
 31
0.0
1001
GENIUS_GENOREF_13
1005
2DD1
  0
LINE
  5
2DC0
330
1F
100
AcDbEntity
  8
AM_7
100
AcDbLine
 10
866.6213506930221
 20
930.011797458243
 30
0.0
 11
866.6213506930221
 21
936.511797458243
 31
0.0
1001
GENIUS_GENOREF_13
1005
2DD1
  0
LINE
  5
2DC1
330
1F
100
AcDbEntity
  8
AM_7
100
AcDbLine
 10
866.6213506930221
 20
930.011797458243
 30
0.0
 11
860.1213506930221
 21
930.011797458243
 31
0.0
1001
GENIUS_GENOREF_13
1005
2DD1
  0
LINE
  5
2DC2
102
{ACAD_REACTORS
330
375F
330
3785
102
}
330
1F
100
AcDbEntity
  8
AM_7
100
AcDbLine
 10
866.6213506930221
 20
930.011797458243
 30
0.0
 11
866.6213506930221
 21
923.5117974582431
 31
0.0
1001
GENIUS_GENOREF_13
1005
2DD1
  0
LINE
  5
2DC3
330
1F
100
AcDbEntity
  8
AM_7
  6
AM_ISO08W050x2
100
AcDbLine
 10
880.1213506930221
 20
920.5117974582432
 30
0.0
 11
883.871350693022
 21
920.5117974582432
 31
0.0
1001
GENIUS_GENOREF_13
1005
2DD0
  0
LINE
  5
2DC4
330
1F
100
AcDbEntity
  8
AM_7
  6
AM_ISO08W050x2
100
AcDbLine
 10
880.1213506930221
 20
920.5117974582432
 30
0.0
 11
880.1213506930221
 21
924.2617974582431
 31
0.0
1001
GENIUS_GENOREF_13
1005
2DD0
  0
LINE
  5
2DC5
330
1F
100
AcDbEntity
  8
AM_7
  6
AM_ISO08W050x2
100
AcDbLine
 10
880.1213506930221
 20
920.5117974582432
 30
0.0
 11
876.3713506930221
 21
920.5117974582432
 31
0.0
1001
GENIUS_GENOREF_13
1005
2DD0
  0
LINE
  5
2DC6
330
1F
100
AcDbEntity
  8
AM_7
  6
AM_ISO08W050x2
100
AcDbLine
 10
880.1213506930221
 20
920.5117974582432
 30
0.0
 11
880.1213506930221
 21
916.761797458243
 31
0.0
1001
GENIUS_GENOREF_13
1005
2DD0
  0
LINE
  5
2DC7
330
1F
100
AcDbEntity
  8
AM_7
  6
AM_ISO08W050x2
100
AcDbLine
 10
890.121350693022
 20
939.5117974582431
 30
0.0
 11
893.8713506930222
 21
939.5117974582431
 31
0.0
1001
GENIUS_GENOREF_13
1005
2DCF
  0
LINE
  5
2DC8
330
1F
100
AcDbEntity
  8
AM_7
  6
AM_ISO08W050x2
100
AcDbLine
 10
890.121350693022
 20
939.5117974582431
 30
0.0
 11
890.121350693022
 21
943.2617974582431
 31
0.0
1001
GENIUS_GENOREF_13
1005
2DCF
  0
LINE
  5
2DC9
330
1F
100
AcDbEntity
  8
AM_7
  6
AM_ISO08W050x2
100
AcDbLine
 10
890.121350693022
 20
939.5117974582431
 30
0.0
 11
886.3713506930221
 21
939.5117974582431
 31
0.0
1001
GENIUS_GENOREF_13
1005
2DCF
  0
LINE
  5
2DCA
330
1F
100
AcDbEntity
  8
AM_7
  6
AM_ISO08W050x2
100
AcDbLine
 10
890.121350693022
 20
939.5117974582431
 30
0.0
 11
890.121350693022
 21
935.7617974582431
 31
0.0
1001
GENIUS_GENOREF_13
1005
2DCF
  0
LINE
  5
2DCD
330
1F
100
AcDbEntity
  8
AM_7
100
AcDbLine
 10
849.445066525136
 20
930.0117974582432
 30
0.0
 11
935.8352589515739
 21
930.0117974582432
 31
0.0
1001
GENIUS_GENODEF_13
1002
{
1000
HIER
1070
     0
1002
}
1002
{
1000
MANEDIT
1070
     0
1002
}
1002
{
1000
NOSEL
1070
     0
1002
}
1002
{
1000
BEHIND
1070
     0
1002
}
1002
{
1000
OTHER
1070
     0
1002
}
1002
{
1000
REACTOR
1002
}
1001
GENIUS_GENOBJ-N-CEN_13
1002
{
1000
OWNER
1000
GEN
1002
}
1001
GENIUS_GENCEN_19
1002
{
1040
1.5
1002
}
  0
LINE
  5
2DCE
330
1F
100
AcDbEntity
  8
AM_7
100
AcDbLine
 10
848.4523806511802
 20
1085.423189579591
 30
0.0
 11
935.3120830681
 21
1085.423189579591
 31
0.0
1001
GENIUS_GENOBJ-N-CEN_13
1002
{
1000
OWNER
1000
GEN
1002
}
1001
GENIUS_GENODEF_13
1002
{
1000
HIER
1070
     0
1002
}
1002
{
1000
MANEDIT
1070
     0
1002
}
1002
{
1000
NOSEL
1070
     0
1002
}
1002
{
1000
BEHIND
1070
     0
1002
}
1002
{
1000
OTHER
1070
     0
1002
}
1002
{
1000
REACTOR
1002
}
1001
GENIUS_GENCEN_19
1002
{
1040
2.0
1002
}
  0
POINT
  5
2DCF
330
1F
100
AcDbEntity
  8
0
 60
     1
100
AcDbPoint
 10
-306.9136758912141
 20
0.0
 30
0.0
1001
GENIUS_GENODEF_13
1002
{
1000
HIER
1070
    10
1002
}
1002
{
1000
MANEDIT
1070
     0
1002
}
1002
{
1000
NOSEL
1070
     0
1002
}
1002
{
1000
BEHIND
1070
     0
1002
}
1002
{
1000
OTHER
1070
     0
1002
}
1002
{
1000
REACTOR
1002
}
1001
GENIUS_GENOLIS_13
1002
{
1000
ENT
1005
2DCA
1005
2DC9
1005
2DC8
1005
2DC7
1002
}
1001
GENIUS_GENOENT_13
1002
{
1000
MYREF
1005
2DCF
1002
}
1002
{
1000
GRP
1005
0
1002
}
1001
GENIUS_GENOBJ-N-CRS_13
1002
{
1000
OWNER
1000
GEN
1002
}
  0
POINT
  5
2DD0
330
1F
100
AcDbEntity
  8
0
 60
     1
100
AcDbPoint
 10
-306.9136758912141
 20
0.0
 30
0.0
1001
GENIUS_GENOENT_13
1002
{
1000
MYREF
1005
2DD0
1002
}
1002
{
1000
GRP
1005
0
1002
}
1001
GENIUS_GENOBJ-N-CRS_13
1002
{
1000
OWNER
1000
GEN
1002
}
1001
GENIUS_GENODEF_13
1002
{
1000
HIER
1070
    10
1002
}
1002
{
1000
MANEDIT
1070
     0
1002
}
1002
{
1000
NOSEL
1070
     0
1002
}
1002
{
1000
BEHIND
1070
     0
1002
}
1002
{
1000
OTHER
1070
     0
1002
}
1002
{
1000
REACTOR
1002
}
1001
GENIUS_GENOLIS_13
1002
{
1000
ENT
1005
2DC6
1005
2DC5
1005
2DC4
1005
2DC3
1002
}
  0
POINT
  5
2DD1
330
1F
100
AcDbEntity
  8
0
 60
     1
100
AcDbPoint
 10
-306.9136758912141
 20
0.0
 30
0.0
1001
GENIUS_GENOENT_13
1002
{
1000
MYREF
1005
2DD1
1002
}
1002
{
1000
GRP
1005
0
1002
}
1001
GENIUS_GENOBJ-N-CRS_13
1002
{
1000
OWNER
1000
GEN
1002
}
1001
GENIUS_GENOLIS_13
1002
{
1000
ENT
1005
2DC2
1005
2DC1
1005
2DC0
1005
2DBF
1002
}
1001
GENIUS_GENODEF_13
1002
{
1000
HIER
1070
    10
1002
}
1002
{
1000
MANEDIT
1070
     0
1002
}
1002
{
1000
NOSEL
1070
     0
1002
}
1002
{
1000
BEHIND
1070
     0
1002
}
1002
{
1000
OTHER
1070
     0
1002
}
1002
{
1000
REACTOR
1002
}
  0
POINT
  5
2DD2
330
1F
100
AcDbEntity
  8
0
 60
     1
100
AcDbPoint
 10
-306.9136758912141
 20
0.0
 30
0.0
1001
GENIUS_GENODEF_13
1002
{
1000
HIER
1070
    10
1002
}
1002
{
1000
MANEDIT
1070
     0
1002
}
1002
{
1000
NOSEL
1070
     0
1002
}
1002
{
1000
BEHIND
1070
     0
1002
}
1002
{
1000
OTHER
1070
     0
1002
}
1002
{
1000
REACTOR
1002
}
1001
GENIUS_GENOLIS_13
1002
{
1000
ENT
1005
2DBE
1005
2DBD
1005
2DBC
1005
2DBB
1002
}
1001
GENIUS_GENOENT_13
1002
{
1000
MYREF
1005
2DD2
1002
}
1002
{
1000
GRP
1005
0
1002
}
1001
GENIUS_GENOBJ-N-CRS_13
1002
{
1000
OWNER
1000
GEN
1002
}
  0
POINT
  5
2DD3
330
1F
100
AcDbEntity
  8
0
 60
     1
100
AcDbPoint
 10
-306.9136758912141
 20
0.0
 30
0.0
1001
GENIUS_GENODEF_13
1002
{
1000
HIER
1070
    10
1002
}
1002
{
1000
MANEDIT
1070
     0
1002
}
1002
{
1000
NOSEL
1070
     0
1002
}
1002
{
1000
BEHIND
1070
     0
1002
}
1002
{
1000
OTHER
1070
     0
1002
}
1002
{
1000
REACTOR
1002
}
1001
GENIUS_GENOENT_13
1002
{
1000
MYREF
1005
2DD3
1002
}
1002
{
1000
GRP
1005
0
1002
}
1001
GENIUS_GENOBJ-N-CRS_13
1002
{
1000
OWNER
1000
GEN
1002
}
1001
GENIUS_GENOLIS_13
1002
{
1000
ENT
1005
2DBA
1005
2DB9
1005
2DB8
1005
2DB7
1002
}
  0
POINT
  5
2DD4
330
1F
100
AcDbEntity
  8
0
 60
     1
100
AcDbPoint
 10
-306.9136758912141
 20
0.0
 30
0.0
1001
GENIUS_GENOBJ-N-CRS_13
1002
{
1000
OWNER
1000
GEN
1002
}
1001
GENIUS_GENOLIS_13
1002
{
1000
ENT
1005
2DB6
1005
2DB5
1005
2DB4
1005
2DB3
1002
}
1001
GENIUS_GENOENT_13
1002
{
1000
MYREF
1005
2DD4
1002
}
1002
{
1000
GRP
1005
0
1002
}
1001
GENIUS_GENODEF_13
1002
{
1000
HIER
1070
    10
1002
}
1002
{
1000
MANEDIT
1070
     0
1002
}
1002
{
1000
NOSEL
1070
     0
1002
}
1002
{
1000
BEHIND
1070
     0
1002
}
1002
{
1000
OTHER
1070
     0
1002
}
1002
{
1000
REACTOR
1002
}
  0
POINT
  5
2DD5
330
1F
100
AcDbEntity
  8
0
 60
     1
100
AcDbPoint
 10
-306.9136758912141
 20
0.0
 30
0.0
1001
GENIUS_GENODEF_13
1002
{
1000
HIER
1070
    10
1002
}
1002
{
1000
MANEDIT
1070
     0
1002
}
1002
{
1000
NOSEL
1070
     0
1002
}
1002
{
1000
BEHIND
1070
     0
1002
}
1002
{
1000
OTHER
1070
     0
1002
}
1002
{
1000
REACTOR
1002
}
1001
GENIUS_GENOBJ-N-CRS_13
1002
{
1000
OWNER
1000
GEN
1002
}
1001
GENIUS_GENOLIS_13
1002
{
1000
ENT
1005
2DB2
1005
2DB1
1005
2DB0
1005
2DAF
1002
}
1001
GENIUS_GENOENT_13
1002
{
1000
MYREF
1005
2DD5
1002
}
1002
{
1000
GRP
1005
0
1002
}
  0
POINT
  5
2DD6
330
1F
100
AcDbEntity
  8
0
 60
     1
100
AcDbPoint
 10
-306.9136758912141
 20
0.0
 30
0.0
1001
GENIUS_GENOLIS_13
1002
{
1000
ENT
1005
2DAE
1005
2DAD
1005
2DAC
1005
2DAB
1002
}
1001
GENIUS_GENOENT_13
1002
{
1000
MYREF
1005
2DD6
1002
}
1002
{
1000
GRP
1005
0
1002
}
1001
GENIUS_GENOBJ-N-CRS_13
1002
{
1000
OWNER
1000
GEN
1002
}
1001
GENIUS_GENODEF_13
1002
{
1000
HIER
1070
    10
1002
}
1002
{
1000
MANEDIT
1070
     0
1002
}
1002
{
1000
NOSEL
1070
     0
1002
}
1002
{
1000
BEHIND
1070
     0
1002
}
1002
{
1000
OTHER
1070
     0
1002
}
1002
{
1000
REACTOR
1002
}
  0
POINT
  5
2DD7
330
1F
100
AcDbEntity
  8
0
 60
     1
100
AcDbPoint
 10
-306.9136758912141
 20
0.0
 30
0.0
1001
GENIUS_GENODEF_13
1002
{
1000
HIER
1070
    10
1002
}
1002
{
1000
MANEDIT
1070
     0
1002
}
1002
{
1000
NOSEL
1070
     0
1002
}
1002
{
1000
BEHIND
1070
     0
1002
}
1002
{
1000
OTHER
1070
     0
1002
}
1002
{
1000
REACTOR
1002
}
1001
GENIUS_GENOENT_13
1002
{
1000
MYREF
1005
2DD7
1002
}
1002
{
1000
GRP
1005
0
1002
}
1001
GENIUS_GENOLIS_13
1002
{
1000
ENT
1005
2DAA
1005
2DA9
1005
2DA8
1005
2DA7
1002
}
1001
GENIUS_GENOBJ-N-CRS_13
1002
{
1000
OWNER
1000
GEN
1002
}
  0
LINE
  5
2DD9
330
1F
100
AcDbEntity
  8
AM_VIS
100
AcDbLine
 10
853.536295912991
 20
989.9322411518831
 30
0.0
 11
853.5457406926061
 21
989.9322411518831
 31
0.0
  0
LINE
  5
2DDA
330
1F
100
AcDbEntity
  8
AM_VIS
100
AcDbLine
 10
853.8991834662651
 20
990.5363657594719
 30
0.0
 11
853.536295912991
 21
990.5363657594719
 31
0.0
  0
LINE
  5
2DDB
330
1F
100
AcDbEntity
  8
AM_VIS
100
AcDbLine
 10
853.536295912991
 20
990.6885579357018
 30
0.0
 11
853.9440065363605
 21
990.6885579357018
 31
0.0
  0
LINE
  5
2DDC
330
1F
100
AcDbEntity
  8
AM_VIS
100
AcDbLine
 10
855.562413180894
 20
986.4030445714854
 30
0.0
 11
856.6213506930219
 21
986.3103995437919
 31
0.0
  0
LINE
  5
2DDD
330
1F
100
AcDbEntity
  8
AM_VIS
100
AcDbLine
 10
855.562413180894
 20
994.2177545160985
 30
0.0
 11
856.6213506930219
 21
994.3103995437919
 31
0.0
  0
LINE
  5
2DDE
330
1F
100
AcDbEntity
  8
AM_VIS
100
AcDbLine
 10
856.6213506930219
 20
994.3103995437919
 30
0.0
 11
856.6213506930219
 21
986.3103995437919
 31
0.0
  0
ELLIPSE
  5
2DDF
330
1F
100
AcDbEntity
  8
AM_VIS
100
AcDbEllipse
 10
860.0213506930218
 20
990.0083372399974
 30
0.0
 11
6.492531690334673
 21
0.0000000000000001
 31
0.0
210
0.0
220
0.0
230
1.0
 40
0.2442892074314519
 41
2.780431964941603
 42
3.093596025122931
  0
ELLIPSE
  5
2DE0
330
1F
100
AcDbEntity
  8
AM_VIS
100
AcDbEllipse
 10
858.1292308823213
 20
989.8485372568282
 30
0.0
 11
1.404821546394668
 21
-5.755158525512295
 31
0.0
210
0.0
220
0.0
230
1.0
 40
0.6854143757910944
 41
4.3176563025189
 42
4.422867857954484
  0
ELLIPSE
  5
2DE1
330
1F
100
AcDbEntity
  8
AM_VIS
100
AcDbEllipse
 10
860.0213506930218
 20
990.6124618475864
 30
0.0
 11
6.492531690334673
 21
0.0000000000000001
 31
0.0
210
0.0
220
0.0
230
1.0
 40
0.2442892074314519
 41
2.780431964941603
 42
3.093596025122931
  0
ELLIPSE
  5
2DE2
330
1F
100
AcDbEntity
  8
AM_VIS
100
AcDbEllipse
 10
860.0213506930218
 20
990.6124618475864
 30
0.0
 11
6.492531690334673
 21
0.0000000000000001
 31
0.0
210
0.0
220
0.0
230
1.0
 40
0.2442892074314519
 41
3.189589282056066
 42
3.333211916616567
  0
ELLIPSE
  5
2DE3
330
1F
100
AcDbEntity
  8
AM_VIS
100
AcDbEllipse
 10
860.0213506930218
 20
990.3864956319074
 30
0.0
 11
6.492531690334577
 21
0.0000000000000197
 31
0.0
210
0.0
220
0.0
230
1.0
 40
0.9697024198858706
 41
3.18958928205636
 42
3.502753342237983
  0
ELLIPSE
  5
2DE4
330
1F
100
AcDbEntity
  8
AM_VIS
100
AcDbEllipse
 10
860.0213506930218
 20
990.2343034556775
 30
0.0
 11
6.492531690334767
 21
0.0000000000000197
 31
0.0
210
0.0
220
0.0
230
0.9999999999999998
 40
0.9697024198858706
 41
3.189589282056359
 42
3.502753342238002
  0
ELLIPSE
  5
2DE5
330
1F
100
AcDbEntity
  8
AM_VIS
100
AcDbEllipse
 10
860.0213506930218
 20
990.2343034556775
 30
0.0
 11
6.492531690334767
 21
0.0000000000000197
 31
0.0
210
0.0
220
0.0
230
0.9999999999999998
 40
0.9697024198858706
 41
3.069378188870087
 42
3.093596025123216
  0
ELLIPSE
  5
2DE6
330
1F
100
AcDbEntity
  8
AM_VIS
100
AcDbEllipse
 10
858.1292308823213
 20
992.1437551063721
 30
0.0
 11
4.122407438785637
 21
4.25454229496387
 31
0.0
210
0.0
220
0.0
230
1.0
 40
0.1726708433334045
 41
2.912632726893235
 42
3.017844282328804
  0
ELLIPSE
  5
2DE7
330
1F
100
AcDbEntity
  8
AM_VIS
100
AcDbEllipse
 10
860.0213506930218
 20
990.3864956319074
 30
0.0
 11
6.492531690334577
 21
0.0000000000000197
 31
0.0
210
0.0
220
0.0
230
1.0
 40
0.9697024198858706
 41
2.949973390561813
 42
3.093596025123215
  0
ARC
  5
2DE8
330
1F
100
AcDbEntity
  8
AM_VIS
100
AcDbCircle
 10
855.7018623692902
 20
987.9969560884321
 30
0.0
 40
1.599999999999999
100
AcDbArc
 50
208.1727341318666
 51
265.0000000000003
  0
ARC
  5
2DE9
330
1F
100
AcDbEntity
  8
AM_VIS
100
AcDbCircle
 10
855.7018623692902
 20
992.6238429991515
 30
0.0
 40
1.6
100
AcDbArc
 50
94.99999999999975
 51
151.8272658681334
  0
ARC
  5
2DEA
330
1F
100
AcDbEntity
  8
AM_VIS
100
AcDbCircle
 10
860.0213506930217
 20
990.3103995437918
 30
0.0
 40
6.5
100
AcDbArc
 50
191.3132862836025
 51
208.1727341318666
  0
ARC
  5
2DEB
330
1F
100
AcDbEntity
  8
AM_VIS
100
AcDbCircle
 10
860.0213506930217
 20
990.3103995437918
 30
0.0
 40
6.5
100
AcDbArc
 50
151.8272658681348
 51
168.6867137162598
  0
LINE
  5
2DEC
330
1F
100
AcDbEntity
  8
AM_VIS
100
AcDbLine
 10
856.6213506930219
 20
986.510399543792
 30
0.0
 11
857.6213506930221
 21
986.510399543792
 31
0.0
  0
LINE
  5
2DED
330
1F
100
AcDbEntity
  8
AM_VIS
100
AcDbLine
 10
856.6213506930221
 20
994.110399543792
 30
0.0
 11
857.521350693022
 21
994.110399543792
 31
0.0
  0
LINE
  5
2DEE
330
1F
100
AcDbEntity
  8
AM_VIS
100
AcDbLine
 10
857.6213506930221
 20
989.4443741400079
 30
0.0
 11
857.6213506930221
 21
991.176424947576
 31
0.0
  0
LINE
  5
2DEF
330
1F
100
AcDbEntity
  8
AM_VIS
100
AcDbLine
 10
857.6213506930221
 20
986.5103995437918
 30
0.0
 11
857.6213506930221
 21
986.660399543792
 31
0.0
  0
LINE
  5
2DFA
330
1F
100
AcDbEntity
  8
AM_VIS
100
AcDbLine
 10
858.6213506930221
 20
985.660399543792
 30
0.0
 11
860.1213506930221
 21
985.660399543792
 31
0.0
  0
LINE
  5
2DFB
330
1F
100
AcDbEntity
  8
AM_VIS
100
AcDbLine
 10
853.6213506930222
 20
990.310399543792
 30
0.0
 11
853.6213506930222
 21
990.2751573950322
 31
0.0
  0
LINE
  5
2DFC
330
1F
100
AcDbEntity
  8
AM_VIS
100
AcDbLine
 10
853.6213506930222
 20
989.1751647702967
 30
0.0
 11
853.6213506930222
 21
986.660399543792
 31
0.0
  0
LINE
  5
2DFD
330
1F
100
AcDbEntity
  8
AM_VIS
100
AcDbLine
 10
854.6213506930222
 20
985.660399543792
 30
0.0
 11
857.121350693022
 21
985.660399543792
 31
0.0
  0
ARC
  5
2DFE
102
{ACAD_REACTORS
330
3656
330
36B6
330
3869
102
}
330
1F
100
AcDbEntity
  8
AM_VIS
100
AcDbCircle
 10
854.6213506930222
 20
986.660399543792
 30
0.0
 40
1.0
100
AcDbArc
 50
180.0
 51
270.0
  0
LINE
  5
2DFF
330
1F
100
AcDbEntity
  8
AM_VIS
100
AcDbLine
 10
854.1213506930221
 20
994.3103995437921
 30
0.0
 11
857.121350693022
 21
994.3103995437921
 31
0.0
  0
LINE
  5
2E00
330
1F
100
AcDbEntity
  8
AM_VIS
100
AcDbLine
 10
857.6213506930221
 20
993.810399543792
 30
0.0
 11
857.6213506930221
 21
991.176424947576
 31
0.0
  0
LINE
  5
2E01
330
1F
100
AcDbEntity
  8
AM_VIS
100
AcDbLine
 10
857.6213506930221
 20
989.4443741400079
 30
0.0
 11
857.6213506930221
 21
986.660399543792
 31
0.0
  0
LINE
  5
2E02
330
1F
100
AcDbEntity
  8
AM_VIS
100
AcDbLine
 10
853.6213506930222
 20
1019.960399543792
 30
0.0
 11
853.6213506930222
 21
994.810399543792
 31
0.0
  0
LINE
  5
2E03
330
1F
100
AcDbEntity
  8
AM_VIS
100
AcDbLine
 10
860.1213506930221
 20
1020.960399543792
 30
0.0
 11
854.6213506930222
 21
1020.960399543792
 31
0.0
  0
LINE
  5
2E04
330
1F
100
AcDbEntity
  8
AM_VIS
100
AcDbLine
 10
853.6213506930222
 20
994.810399543792
 30
0.0
 11
853.6213506930222
 21
991.4456343172867
 31
0.0
  0
LINE
  5
2E05
330
1F
100
AcDbEntity
  8
AM_VIS
100
AcDbLine
 10
853.6213506930222
 20
990.3456416925516
 30
0.0
 11
853.6213506930222
 21
990.310399543792
 31
0.0
  0
ARC
  5
2E06
330
1F
100
AcDbEntity
  8
AM_VIS
100
AcDbCircle
 10
858.6213506930221
 20
986.660399543792
 30
0.0
 40
1.0
100
AcDbArc
 50
180.0
 51
270.0
  0
LINE
  5
2E07
330
1F
100
AcDbEntity
  8
AM_VIS
100
AcDbLine
 10
857.121350693022
 20
985.660399543792
 30
0.0
 11
858.6213506930221
 21
985.660399543792
 31
0.0
  0
ARC
  5
2E08
330
1F
100
AcDbEntity
  8
AM_VIS
100
AcDbCircle
 10
857.121350693022
 20
993.810399543792
 30
0.0
 40
0.5
100
AcDbArc
 50
0.0
 51
90.0
  0
ARC
  5
2E09
330
1F
100
AcDbEntity
  8
AM_VIS
100
AcDbCircle
 10
854.1213506930221
 20
994.810399543792
 30
0.0
 40
0.5
100
AcDbArc
 50
180.0
 51
270.0
  0
ARC
  5
2E0A
102
{ACAD_REACTORS
330
3869
330
6E64
102
}
330
1F
100
AcDbEntity
  8
AM_VIS
100
AcDbCircle
 10
854.6213506930222
 20
1019.960399543792
 30
0.0
 40
1.0
100
AcDbArc
 50
90.0
 51
180.0
  0
LINE
  5
2E1F
330
1F
100
AcDbEntity
  8
AM_VIS
100
AcDbLine
 10
860.1213506930221
 20
1098.623189579591
 30
0.0
 11
854.6213506930222
 21
1098.623189579591
 31
0.0
  0
LINE
  5
2E20
330
1F
100
AcDbEntity
  8
AM_VIS
100
AcDbLine
 10
854.6213506930222
 20
1072.223189579591
 30
0.0
 11
860.1213506930221
 21
1072.223189579591
 31
0.0
  0
LINE
  5
2E21
102
{ACAD_REACTORS
330
37D1
330
3843
102
}
330
1F
100
AcDbEntity
  8
AM_VIS
100
AcDbLine
 10
853.6213506930222
 20
1097.623189579591
 30
0.0
 11
853.6213506930222
 21
1073.223189579591
 31
0.0
  0
ARC
  5
2E29
102
{ACAD_REACTORS
330
3713
330
3843
102
}
330
1F
100
AcDbEntity
  8
AM_VIS
100
AcDbCircle
 10
854.6213506930222
 20
1097.623189579591
 30
0.0
 40
1.0
100
AcDbArc
 50
90.0
 51
180.0
  0
ARC
  5
2E2A
102
{ACAD_REACTORS
330
3713
330
37D1
102
}
330
1F
100
AcDbEntity
  8
AM_VIS
100
AcDbCircle
 10
854.6213506930222
 20
1073.223189579591
 30
0.0
 40
1.0
100
AcDbArc
 50
180.0
 51
270.0
  0
LINE
  5
2E2D
330
1F
100
AcDbEntity
  8
AM_VIS
100
AcDbLine
 10
853.9440065363605
 20
938.8899558501542
 30
0.0
 11
853.536295912991
 21
938.8899558501542
 31
0.0
  0
LINE
  5
2E2E
330
1F
100
AcDbEntity
  8
AM_VIS
100
AcDbLine
 10
853.545740692606
 20
938.1336390663355
 30
0.0
 11
853.536295912991
 21
938.1336390663355
 31
0.0
  0
LINE
  5
2E2F
330
1F
100
AcDbEntity
  8
AM_VIS
100
AcDbLine
 10
853.536295912991
 20
938.7377636739243
 30
0.0
 11
853.8991834662642
 21
938.7377636739243
 31
0.0
  0
LINE
  5
2E30
330
1F
100
AcDbEntity
  8
AM_VIS
100
AcDbLine
 10
855.562413180894
 20
934.6044424859364
 30
0.0
 11
856.6213506930219
 21
934.5117974582429
 31
0.0
  0
LINE
  5
2E31
330
1F
100
AcDbEntity
  8
AM_VIS
100
AcDbLine
 10
855.562413180894
 20
942.4191524305495
 30
0.0
 11
856.6213506930216
 21
942.5117974582429
 31
0.0
  0
LINE
  5
2E32
330
1F
100
AcDbEntity
  8
AM_VIS
100
AcDbLine
 10
856.6213506930216
 20
942.5117974582429
 30
0.0
 11
856.6213506930219
 21
934.5117974582429
 31
0.0
  0
ELLIPSE
  5
2E33
330
1F
100
AcDbEntity
  8
AM_VIS
100
AcDbEllipse
 10
860.0213506930218
 20
938.5878935463578
 30
0.0
 11
6.492531690334673
 21
0.0
 31
0.0
210
0.0
220
0.0
230
1.0
 40
0.9697024198858706
 41
2.949973390563009
 42
3.093596025122939
  0
ELLIPSE
  5
2E34
330
1F
100
AcDbEntity
  8
AM_VIS
100
AcDbEllipse
 10
860.0213506930218
 20
938.4357013701281
 30
0.0
 11
6.492531690334673
 21
0.0
 31
0.0
210
0.0
220
0.0
230
1.0
 40
0.9697024198858706
 41
3.0693781888698
 42
3.093596025122931
  0
ELLIPSE
  5
2E35
330
1F
100
AcDbEntity
  8
AM_VIS
100
AcDbEllipse
 10
860.0213506930218
 20
938.4357013701281
 30
0.0
 11
6.492531690334673
 21
0.0
 31
0.0
210
0.0
220
0.0
230
1.0
 40
0.9697024198858706
 41
3.189589282056065
 42
3.502753342238002
  0
ELLIPSE
  5
2E36
330
1F
100
AcDbEntity
  8
AM_VIS
100
AcDbEllipse
 10
858.1292308823213
 20
940.3451530208231
 30
0.0
 11
4.122407438785578
 21
4.254542294963925
 31
0.0
210
0.0
220
0.0
230
0.9999999999999998
 40
0.1726708433333933
 41
2.912632726893558
 42
3.01784428232914
  0
ELLIPSE
  5
2E37
330
1F
100
AcDbEntity
  8
AM_VIS
100
AcDbEllipse
 10
860.0213506930218
 20
938.5878935463578
 30
0.0
 11
6.492531690334673
 21
0.0
 31
0.0
210
0.0
220
0.0
230
1.0
 40
0.9697024198858706
 41
3.189589282056065
 42
3.502753342238003
  0
ELLIPSE
  5
2E38
330
1F
100
AcDbEntity
  8
AM_VIS
100
AcDbEllipse
 10
860.0213506930218
 20
938.8138597620393
 30
0.0
 11
6.492531690334577
 21
0.0000000000000782
 31
0.0
210
0.0
220
0.0
230
1.0
 40
0.2442892074314519
 41
2.780431964941596
 42
3.093596025123218
  0
ELLIPSE
  5
2E39
330
1F
100
AcDbEntity
  8
AM_VIS
100
AcDbEllipse
 10
860.0213506930218
 20
938.2097351544503
 30
0.0
 11
6.492531690334767
 21
0.0000000000000782
 31
0.0
210
0.0
220
0.0
230
1.0
 40
0.2442892074314519
 41
2.780431964941577
 42
3.09359602512322
  0
ELLIPSE
  5
2E3A
330
1F
100
AcDbEntity
  8
AM_VIS
100
AcDbEllipse
 10
858.1292308823213
 20
938.049935171279
 30
0.0
 11
1.404821546394707
 21
-5.755158525512287
 31
0.0
210
0.0
220
0.0
230
0.9999999999999998
 40
0.6854143757910853
 41
4.317656302518576
 42
4.422867857954146
  0
ELLIPSE
  5
2E3B
330
1F
100
AcDbEntity
  8
AM_VIS
100
AcDbEllipse
 10
860.0213506930218
 20
938.8138597620393
 30
0.0
 11
6.492531690334577
 21
0.0000000000000782
 31
0.0
210
0.0
220
0.0
230
1.0
 40
0.2442892074314519
 41
3.189589282056365
 42
3.333211916616506
  0
ARC
  5
2E3C
330
1F
100
AcDbEntity
  8
AM_VIS
100
AcDbCircle
 10
855.7018623692902
 20
936.198354002883
 30
0.0
 40
1.6
100
AcDbArc
 50
208.1727341318666
 51
265.0000000000003
  0
ARC
  5
2E3D
330
1F
100
AcDbEntity
  8
AM_VIS
100
AcDbCircle
 10
855.7018623692902
 20
940.8252409136027
 30
0.0
 40
1.6
100
AcDbArc
 50
94.99999999999975
 51
151.8272658681348
  0
ARC
  5
2E3E
330
1F
100
AcDbEntity
  8
AM_VIS
100
AcDbCircle
 10
860.0213506930217
 20
938.5117974582428
 30
0.0
 40
6.5
100
AcDbArc
 50
191.3132862836705
 51
208.1727341318666
  0
ARC
  5
2E3F
330
1F
100
AcDbEntity
  8
AM_VIS
100
AcDbCircle
 10
860.0213506930217
 20
938.5117974582428
 30
0.0
 40
6.5
100
AcDbArc
 50
151.8272658681348
 51
168.6867137163295
  0
LINE
  5
2E40
330
1F
100
AcDbEntity
  8
AM_VIS
100
AcDbLine
 10
856.6213506930219
 20
934.7117974582429
 30
0.0
 11
857.5213506930218
 21
934.7117974582429
 31
0.0
  0
LINE
  5
2E41
330
1F
100
AcDbEntity
  8
AM_VIS
100
AcDbLine
 10
856.6213506930221
 20
942.311797458243
 30
0.0
 11
857.6213506930221
 21
942.311797458243
 31
0.0
  0
LINE
  5
2E42
330
1F
100
AcDbEntity
  8
AM_VIS
100
AcDbLine
 10
857.6213506930221
 20
942.211797458243
 30
0.0
 11
857.6213506930221
 21
942.311797458243
 31
0.0
  0
LINE
  5
2E43
330
1F
100
AcDbEntity
  8
AM_VIS
100
AcDbLine
 10
857.6213506930221
 20
937.4546787326492
 30
0.0
 11
857.6213506930221
 21
939.5689161838365
 31
0.0
  0
LINE
  5
2E44
330
1F
100
AcDbEntity
  8
AM_VIS
100
AcDbLine
 10
853.5457406926061
 20
921.1336390663317
 30
0.0
 11
853.536295912991
 21
921.1336390663317
 31
0.0
  0
LINE
  5
2E45
330
1F
100
AcDbEntity
  8
AM_VIS
100
AcDbLine
 10
853.536295912991
 20
921.7377636739206
 30
0.0
 11
853.6213506930222
 21
921.7377636739206
 31
0.0
  0
LINE
  5
2E46
330
1F
100
AcDbEntity
  8
AM_VIS
100
AcDbLine
 10
853.6213506930222
 20
921.8899558501504
 30
0.0
 11
853.536295912991
 21
921.8899558501504
 31
0.0
  0
ELLIPSE
  5
2E47
330
1F
100
AcDbEntity
  8
AM_VIS
100
AcDbEllipse
 10
860.0213506930218
 20
921.4357013701281
 30
0.0
 11
6.492531690334672
 21
0.0
 31
0.0
210
0.0
220
0.0
230
1.0
 40
0.9697024198858704
 41
3.189589282056653
 42
3.310625209143402
  0
ELLIPSE
  5
2E48
330
1F
100
AcDbEntity
  8
AM_VIS
100
AcDbEllipse
 10
860.0213506930218
 20
921.5878935463578
 30
0.0
 11
6.492531690334672
 21
0.0
 31
0.0
210
0.0
220
0.0
230
1.0
 40
0.9697024198858704
 41
3.189589282056653
 42
3.310625209143402
  0
ELLIPSE
  5
2E49
330
1F
100
AcDbEntity
  8
AM_VIS
100
AcDbEllipse
 10
860.0213506930218
 20
921.5878935463578
 30
0.0
 11
6.492531690334672
 21
0.0
 31
0.0
210
0.0
220
0.0
230
1.0
 40
0.9697024198858704
 41
2.972560098036182
 42
3.09359602512351
  0
ELLIPSE
  5
2E4A
330
1F
100
AcDbEntity
  8
AM_VIS
100
AcDbEllipse
 10
860.0213506930218
 20
921.4357013701281
 30
0.0
 11
6.492531690334672
 21
0.0
 31
0.0
210
0.0
220
0.0
230
1.0
 40
0.9697024198858704
 41
3.069378188870398
 42
3.093596025123527
  0
ELLIPSE
  5
2E4B
330
1F
100
AcDbEntity
  8
AM_VIS
100
AcDbEllipse
 10
860.0213506930218
 20
921.8138597620354
 30
0.0
 11
6.492531690334765
 21
-0.000000000000078
 31
0.0
210
0.0
220
0.0
230
1.0
 40
0.2442892074314519
 41
3.189589282056369
 42
3.310625209143514
  0
ELLIPSE
  5
2E4C
330
1F
100
AcDbEntity
  8
AM_VIS
100
AcDbEllipse
 10
860.0213506930218
 20
921.8138597620354
 30
0.0
 11
6.492531690334765
 21
-0.000000000000078
 31
0.0
210
0.0
220
0.0
230
1.0
 40
0.2442892074314519
 41
2.97256009803608
 42
3.093596025123222
  0
ELLIPSE
  5
2E4D
330
1F
100
AcDbEntity
  8
AM_VIS
100
AcDbEllipse
 10
860.0213506930218
 20
921.2097351544466
 30
0.0
 11
6.492531690334577
 21
-0.000000000000078
 31
0.0
210
0.0
220
0.0
230
1.0
 40
0.2442892074314519
 41
2.972560098036273
 42
3.093596025123225
  0
LINE
  5
2E4E
330
1F
100
AcDbEntity
  8
AM_VIS
100
AcDbLine
 10
853.6213506930222
 20
942.211797458243
 30
0.0
 11
853.6213506930222
 21
939.6470322317377
 31
0.0
  0
LINE
  5
2E4F
330
1F
100
AcDbEntity
  8
AM_VIS
100
AcDbLine
 10
853.6213506930222
 20
938.5470396070047
 30
0.0
 11
853.6213506930222
 21
938.5117974582431
 31
0.0
  0
LINE
  5
2E50
330
1F
100
AcDbEntity
  8
AM_VIS
100
AcDbLine
 10
854.6213506930222
 20
916.8117974582431
 30
0.0
 11
860.1213506930221
 21
916.8117974582431
 31
0.0
  0
LINE
  5
2E51
330
1F
100
AcDbEntity
  8
AM_VIS
100
AcDbLine
 10
860.1213506930221
 20
943.211797458243
 30
0.0
 11
858.6213506930221
 21
943.211797458243
 31
0.0
  0
LINE
  5
2E52
330
1F
100
AcDbEntity
  8
AM_VIS
100
AcDbLine
 10
853.6213506930222
 20
934.0117974582431
 30
0.0
 11
853.6213506930222
 21
917.8117974582431
 31
0.0
  0
LINE
  5
2E53
330
1F
100
AcDbEntity
  8
AM_VIS
100
AcDbLine
 10
857.6213506930221
 20
942.211797458243
 30
0.0
 11
857.6213506930221
 21
939.5689161838365
 31
0.0
  0
LINE
  5
2E54
330
1F
100
AcDbEntity
  8
AM_VIS
100
AcDbLine
 10
857.6213506930221
 20
937.4546787326492
 30
0.0
 11
857.6213506930221
 21
935.0117974582431
 31
0.0
  0
LINE
  5
2E55
330
1F
100
AcDbEntity
  8
AM_VIS
100
AcDbLine
 10
857.121350693022
 20
934.511797458243
 30
0.0
 11
854.1213506930221
 21
934.511797458243
 31
0.0
  0
LINE
  5
2E56
330
1F
100
AcDbEntity
  8
AM_VIS
100
AcDbLine
 10
857.121350693022
 20
943.211797458243
 30
0.0
 11
854.6213506930222
 21
943.211797458243
 31
0.0
  0
ARC
  5
2E57
330
1F
100
AcDbEntity
  8
AM_VIS
100
AcDbCircle
 10
854.6213506930222
 20
942.211797458243
 30
0.0
 40
1.0
100
AcDbArc
 50
90.0
 51
180.0
  0
LINE
  5
2E58
330
1F
100
AcDbEntity
  8
AM_VIS
100
AcDbLine
 10
853.6213506930222
 20
938.5117974582431
 30
0.0
 11
853.6213506930222
 21
938.4765553094851
 31
0.0
  0
LINE
  5
2E59
330
1F
100
AcDbEntity
  8
AM_VIS
100
AcDbLine
 10
853.6213506930222
 20
937.3765626847481
 30
0.0
 11
853.6213506930222
 21
934.0117974582431
 31
0.0
  0
ARC
  5
2E5A
102
{ACAD_REACTORS
330
375F
102
}
330
1F
100
AcDbEntity
  8
AM_VIS
100
AcDbCircle
 10
854.6213506930222
 20
917.8117974582431
 30
0.0
 40
1.0
100
AcDbArc
 50
180.0
 51
270.0
  0
ARC
  5
2E5B
330
1F
100
AcDbEntity
  8
AM_VIS
100
AcDbCircle
 10
857.121350693022
 20
935.0117974582431
 30
0.0
 40
0.5
100
AcDbArc
 50
270.0
 51
0.0
  0
ARC
  5
2E5C
330
1F
100
AcDbEntity
  8
AM_VIS
100
AcDbCircle
 10
854.1213506930221
 20
934.0117974582431
 30
0.0
 40
0.5
100
AcDbArc
 50
90.0
 51
180.0
  0
LINE
  5
2E5D
330
1F
100
AcDbEntity
  8
AM_VIS
100
AcDbLine
 10
858.6213506930221
 20
943.211797458243
 30
0.0
 11
857.121350693022
 21
943.211797458243
 31
0.0
  0
ARC
  5
2E5E
330
1F
100
AcDbEntity
  8
AM_VIS
100
AcDbCircle
 10
858.6213506930221
 20
942.211797458243
 30
0.0
 40
1.0
100
AcDbArc
 50
90.0
 51
180.0
  0
LINE
  5
3622
330
1F
100
AcDbEntity
  8
AM_7
  6
AM_ISO08W050x2
100
AcDbLine
 10
874.6213506930251
 20
989.8103995437921
 30
0.0
 11
878.3713506930251
 21
989.8103995437921
 31
0.0
1001
GENIUS_GENOREF_13
1005
3626
  0
LINE
  5
3623
330
1F
100
AcDbEntity
  8
AM_7
  6
AM_ISO08W050x2
100
AcDbLine
 10
874.6213506930251
 20
989.8103995437921
 30
0.0
 11
874.6213506930251
 21
993.560399543792
 31
0.0
1001
GENIUS_GENOREF_13
1005
3626
  0
LINE
  5
3624
102
{ACAD_REACTORS
330
36B6
102
}
330
1F
100
AcDbEntity
  8
AM_7
  6
AM_ISO08W050x2
100
AcDbLine
 10
874.6213506930251
 20
989.8103995437921
 30
0.0
 11
870.871350693025
 21
989.8103995437921
 31
0.0
1001
GENIUS_GENOREF_13
1005
3626
  0
LINE
  5
3625
102
{ACAD_REACTORS
330
3656
330
3685
102
}
330
1F
100
AcDbEntity
  8
AM_7
  6
AM_ISO08W050x2
100
AcDbLine
 10
874.6213506930251
 20
989.8103995437921
 30
0.0
 11
874.6213506930251
 21
986.0603995437921
 31
0.0
1001
GENIUS_GENOREF_13
1005
3626
  0
POINT
  5
3626
330
1F
100
AcDbEntity
  8
0
 60
     1
100
AcDbPoint
 10
0.0
 20
0.0
 30
0.0
1001
GENIUS_GENODEF_13
1002
{
1000
HIER
1070
    10
1002
}
1002
{
1000
MANEDIT
1070
     0
1002
}
1002
{
1000
NOSEL
1070
     0
1002
}
1002
{
1000
BEHIND
1070
     0
1002
}
1002
{
1000
OTHER
1070
     0
1002
}
1002
{
1000
REACTOR
1002
}
1001
GENIUS_GENOENT_13
1002
{
1000
MYREF
1005
3626
1002
}
1002
{
1000
GRP
1005
0
1002
}
1001
GENIUS_GENOBJ-N-CRS_13
1002
{
1000
OWNER
1000
GEN
1002
}
1001
GENIUS_GENOLIS_13
1002
{
1000
ENT
1005
3625
1005
3624
1005
3623
1005
3622
1002
}
  0
LINE
  5
3634
330
1F
100
AcDbEntity
  8
AM_7
  6
AM_ISO08W050x2
100
AcDbLine
 10
895.621350693025
 20
989.8103995437921
 30
0.0
 11
899.371350693025
 21
989.8103995437921
 31
0.0
1001
GENIUS_GENOREF_13
1005
3638
  0
LINE
  5
3635
330
1F
100
AcDbEntity
  8
AM_7
  6
AM_ISO08W050x2
100
AcDbLine
 10
895.621350693025
 20
989.8103995437921
 30
0.0
 11
895.621350693025
 21
993.560399543792
 31
0.0
1001
GENIUS_GENOREF_13
1005
3638
  0
LINE
  5
3636
330
1F
100
AcDbEntity
  8
AM_7
  6
AM_ISO08W050x2
100
AcDbLine
 10
895.621350693025
 20
989.8103995437921
 30
0.0
 11
891.8713506930251
 21
989.8103995437921
 31
0.0
1001
GENIUS_GENOREF_13
1005
3638
  0
LINE
  5
3637
102
{ACAD_REACTORS
330
3685
102
}
330
1F
100
AcDbEntity
  8
AM_7
  6
AM_ISO08W050x2
100
AcDbLine
 10
895.621350693025
 20
989.8103995437921
 30
0.0
 11
895.621350693025
 21
986.0603995437921
 31
0.0
1001
GENIUS_GENOREF_13
1005
3638
  0
POINT
  5
3638
330
1F
100
AcDbEntity
  8
0
 60
     1
100
AcDbPoint
 10
0.0
 20
0.0
 30
0.0
1001
GENIUS_GENOLIS_13
1002
{
1000
ENT
1005
3637
1005
3636
1005
3635
1005
3634
1002
}
1001
GENIUS_GENODEF_13
1002
{
1000
HIER
1070
    10
1002
}
1002
{
1000
MANEDIT
1070
     0
1002
}
1002
{
1000
NOSEL
1070
     0
1002
}
1002
{
1000
BEHIND
1070
     0
1002
}
1002
{
1000
OTHER
1070
     0
1002
}
1002
{
1000
REACTOR
1002
}
1001
GENIUS_GENOENT_13
1002
{
1000
MYREF
1005
3638
1002
}
1002
{
1000
GRP
1005
0
1002
}
1001
GENIUS_GENOBJ-N-CRS_13
1002
{
1000
OWNER
1000
GEN
1002
}
  0
DIMENSION
  5
3648
102
{ACAD_XDICTIONARY
360
3655
102
}
102
{ACAD_REACTORS
330
3656
102
}
330
1F
100
AcDbEntity
  8
AM_5
100
AcDbDimension
  2
*D2
 10
874.6213506930251
 20
970.6603995437919
 30
0.0
 11
864.1213506930236
 21
974.3359162760754
 31
0.0
 70
    32
 71
     5
 42
21.00000000000296
  3
AM_ISO$0
100
AcDbAlignedDimension
 13
853.6213506930222
 23
986.660399543792
 33
0.0
 14
874.6213506930251
 24
986.0603995437921
 34
0.0
 50
0.0000000000002036
100
AcDbRotatedDimension
1001
ACAD
1000
DSTYLE
1002
{
1070
    40
1040
1.5
1070
   272
1070
     8
1002
}
  0
DIMENSION
  5
3677
102
{ACAD_XDICTIONARY
360
3684
102
}
102
{ACAD_REACTORS
330
3685
102
}
330
1F
100
AcDbEntity
  8
AM_5
100
AcDbDimension
  2
*D3
 10
895.621350693025
 20
970.6603995437921
 30
0.0
 11
885.121350693025
 21
974.3359162760755
 31
0.0
 70
    32
 71
     5
 42
21.0
  3
AM_ISO$0
100
AcDbAlignedDimension
 13
874.6213506930251
 23
986.0603995437921
 33
0.0
 14
895.621350693025
 24
986.0603995437921
 34
0.0
 50
0.0000000000002036
100
AcDbRotatedDimension
1001
ACAD
1000
DSTYLE
1002
{
1070
    40
1040
1.5
1070
   272
1070
     8
1002
}
  0
DIMENSION
  5
36A6
102
{ACAD_XDICTIONARY
360
36B5
102
}
102
{ACAD_REACTORS
330
36B6
102
}
330
1F
100
AcDbEntity
  8
AM_5
100
AcDbDimension
  2
*D4
 10
838.6213506930221
 20
989.8103995437921
 30
0.0
 11
834.9458339607386
 21
1003.955554563477
 31
0.0
 70
    32
 71
     5
 42
4.15000000000009
  3
AM_ISO$0
100
AcDbAlignedDimension
 13
854.6213506930222
 23
985.660399543792
 33
0.0
 14
870.871350693025
 24
989.8103995437921
 34
0.0
 50
90.0
100
AcDbRotatedDimension
1001
ACAD
1000
DSTYLE
1002
{
1070
    40
1040
1.5
1070
   271
1070
     1
1070
   272
1070
     8
1002
}
  0
DIMENSION
  5
36DF
102
{ACAD_XDICTIONARY
360
36EC
102
}
102
{ACAD_REACTORS
330
36ED
102
}
330
1F
100
AcDbEntity
  8
AM_5
100
AcDbDimension
  2
*D5
 10
838.6213506930221
 20
1075.923189579591
 30
0.0
 11
834.946350693022
 21
1085.423189579591
 31
0.0
 70
    32
 71
     5
 42
19.0
  3
AM_ISO$0
100
AcDbAlignedDimension
 13
874.6213506930216
 23
1094.923189579591
 33
0.0
 14
884.6213506930217
 24
1075.923189579591
 34
0.0
 50
90.0
100
AcDbRotatedDimension
1001
ACAD
1000
DSTYLE
1002
{
1070
    40
1040
1.5
1070
   272
1070
     8
1002
}
  0
DIMENSION
  5
3705
102
{ACAD_XDICTIONARY
360
3712
102
}
102
{ACAD_REACTORS
330
3713
102
}
330
1F
100
AcDbEntity
  8
AM_5
100
AcDbDimension
  2
*D6
 10
828.621350693022
 20
1072.223189579591
 30
0.0
 11
824.9458339607386
 21
1085.423189579591
 31
0.0
 70
    32
 71
     5
 42
26.39999999999986
  3
AM_ISO$0
100
AcDbAlignedDimension
 13
854.6213506930222
 23
1098.623189579591
 33
0.0
 14
854.6213506930222
 24
1072.223189579591
 34
0.0
 50
90.0
100
AcDbRotatedDimension
1001
ACAD
1000
DSTYLE
1002
{
1070
    40
1040
1.5
1070
   272
1070
     8
1002
}
  0
DIMENSION
  5
3751
102
{ACAD_XDICTIONARY
360
375E
102
}
102
{ACAD_REACTORS
330
375F
102
}
330
1F
100
AcDbEntity
  8
AM_5
100
AcDbDimension
  2
*D7
 10
866.6213506930221
 20
901.811797458243
 30
0.0
 11
860.1213506930221
 21
905.486797458243
 31
0.0
 70
    32
 71
     5
 42
13.0
  3
AM_ISO$0
100
AcDbAlignedDimension
 13
853.6213506930222
 23
917.8117974582431
 33
0.0
 14
866.6213506930221
 24
923.5117974582431
 34
0.0
 50
0.0000000000002036
100
AcDbRotatedDimension
1001
ACAD
1000
DSTYLE
1002
{
1070
    40
1040
1.5
1070
   272
1070
     8
1002
}
  0
DIMENSION
  5
3777
102
{ACAD_XDICTIONARY
360
3784
102
}
102
{ACAD_REACTORS
330
3785
102
}
330
1F
100
AcDbEntity
  8
AM_5
100
AcDbDimension
  2
*D8
 10
885.1213506930221
 20
901.811797458243
 30
0.0
 11
875.871350693022
 21
905.486797458243
 31
0.0
 70
    32
 71
     5
 42
18.5
  3
AM_ISO$0
100
AcDbAlignedDimension
 13
866.6213506930221
 23
923.5117974582431
 33
0.0
 14
885.1213506930221
 24
921.811797458243
 34
0.0
 50
0.0000000000002036
100
AcDbRotatedDimension
1001
ACAD
1000
DSTYLE
1002
{
1070
    40
1040
1.5
1070
   272
1070
     8
1002
}
  0
DIMENSION
  5
379D
102
{ACAD_XDICTIONARY
360
37AA
102
}
102
{ACAD_REACTORS
330
37AB
102
}
330
1F
100
AcDbEntity
  8
AM_5
100
AcDbDimension
  2
*D9
 10
903.6213506930222
 20
901.811797458243
 30
0.0
 11
894.3713506930221
 21
905.486797458243
 31
0.0
 70
    32
 71
     5
 42
18.5
  3
AM_ISO$0
100
AcDbAlignedDimension
 13
885.1213506930221
 23
921.811797458243
 33
0.0
 14
903.6213506930222
 24
923.5117974582431
 34
0.0
 50
0.0000000000002036
100
AcDbRotatedDimension
1001
ACAD
1000
DSTYLE
1002
{
1070
    40
1040
1.5
1070
   272
1070
     8
1002
}
  0
DIMENSION
  5
37C3
102
{ACAD_XDICTIONARY
360
37D0
102
}
102
{ACAD_REACTORS
330
37D1
102
}
330
1F
100
AcDbEntity
  8
AM_5
100
AcDbDimension
  2
*D10
 10
873.6213506930218
 20
1057.223189579591
 30
0.0
 11
863.6213506930218
 21
1060.898706311875
 31
0.0
 70
    32
 71
     5
 42
19.99999999999966
  3
AM_ISO$0
100
AcDbAlignedDimension
 13
853.6213506930222
 23
1073.223189579591
 33
0.0
 14
873.6213506930218
 24
1077.223189579591
 34
0.0
100
AcDbRotatedDimension
1001
ACAD
1000
DSTYLE
1002
{
1070
    40
1040
1.5
1070
   272
1070
     8
1002
}
  0
DIMENSION
  5
37E9
102
{ACAD_XDICTIONARY
360
37F6
102
}
102
{ACAD_REACTORS
330
37F7
102
}
330
1F
100
AcDbEntity
  8
AM_5
100
AcDbDimension
  2
*D11
 10
896.6213506930216
 20
1057.223189579591
 30
0.0
 11
885.1213506930216
 21
1060.898706311875
 31
0.0
 70
    32
 71
     5
 42
23.0
  3
AM_ISO$0
100
AcDbAlignedDimension
 13
873.6213506930216
 23
1077.223189579591
 33
0.0
 14
896.6213506930216
 24
1077.223189579591
 34
0.0
100
AcDbRotatedDimension
1001
ACAD
1000
DSTYLE
1002
{
1070
    40
1040
1.5
1070
   272
1070
     8
1002
}
  0
DIMENSION
  5
380F
102
{ACAD_XDICTIONARY
360
381C
102
}
102
{ACAD_REACTORS
330
381D
102
}
330
1F
100
AcDbEntity
  8
AM_5
100
AcDbDimension
  2
*D12
 10
890.1213506930217
 20
1113.623189579591
 30
0.0
 11
885.1213506930216
 21
1117.298189579591
 31
0.0
 70
    32
 71
     5
 42
10.0
  3
AM_ISO$0
100
AcDbAlignedDimension
 13
880.1213506930217
 23
1100.423189579591
 33
0.0
 14
890.1213506930217
 24
1081.423189579591
 34
0.0
100
AcDbRotatedDimension
1001
ACAD
1000
DSTYLE
1002
{
1070
    40
1040
1.5
1070
   272
1070
     8
1002
}
  0
DIMENSION
  5
3835
102
{ACAD_XDICTIONARY
360
3842
102
}
102
{ACAD_REACTORS
330
3843
102
}
330
1F
100
AcDbEntity
  8
AM_5
100
AcDbDimension
  2
*D13
 10
880.1213506930217
 20
1113.623189579591
 30
0.0
 11
866.8713506930219
 21
1117.298706311875
 31
0.0
 70
    32
 71
     5
 42
26.49999999999966
  3
AM_ISO$0
100
AcDbAlignedDimension
 13
853.6213506930222
 23
1097.623189579591
 33
0.0
 14
880.1213506930217
 24
1100.423189579591
 34
0.0
100
AcDbRotatedDimension
1001
ACAD
1000
DSTYLE
1002
{
1070
    40
1040
1.5
1070
   272
1070
     8
1002
}
  0
DIMENSION
  5
385B
102
{ACAD_XDICTIONARY
360
3868
102
}
102
{ACAD_REACTORS
330
3869
102
}
330
1F
100
AcDbEntity
  8
AM_5
100
AcDbDimension
  2
*D14
 10
828.621350693022
 20
1020.960399543792
 30
0.0
 11
824.946350693022
 21
1003.310399543792
 31
0.0
 70
    32
 71
     5
 42
35.30000000000007
  3
AM_ISO$0
100
AcDbAlignedDimension
 13
854.6213506930222
 23
985.660399543792
 33
0.0
 14
854.6213506930222
 24
1020.960399543792
 34
0.0
 50
90.0
100
AcDbRotatedDimension
1001
ACAD
1000
DSTYLE
1002
{
1070
    40
1040
1.5
1070
   272
1070
     8
1002
}
  0
TEXT
  5
46C9
330
1F
100
AcDbEntity
  8
AM_5
100
AcDbText
 10
908.1801442734914
 20
1060.689428435422
 30
0.0
 40
5.25
  1
2-%%c4.5貫通
100
AcDbText
  0
INSERT
  5
46CA
330
1F
100
AcDbEntity
  8
AM_5
100
AcDbBlockReference
  2
*S19
 10
0.0
 20
0.0
 30
0.0
  0
TEXT
  5
4938
330
1F
100
AcDbEntity
  8
AM_5
100
AcDbText
 10
918.8650339190594
 20
1107.682684296431
 30
0.0
 40
5.25
  1
2-PT1/4
100
AcDbText
  0
INSERT
  5
4939
330
1F
100
AcDbEntity
  8
AM_VIS
100
AcDbBlockReference
  2
*S20
 10
0.0
 20
0.0
 30
0.0
  0
TEXT
  5
493B
330
1F
100
AcDbEntity
  8
AM_5
100
AcDbText
 10
922.0018536075398
 20
901.924653325716
 30
0.0
 40
5.95
  1
2-PT1/8
100
AcDbText
  0
INSERT
  5
493C
330
1F
100
AcDbEntity
  8
AM_5
100
AcDbBlockReference
  2
*S21
 10
0.0
 20
0.0
 30
0.0
  0
DIMENSION
  5
5703
102
{ACAD_XDICTIONARY
360
5712
102
}
102
{ACAD_REACTORS
330
5713
102
}
330
1F
100
AcDbEntity
  8
AM_5
100
AcDbDimension
  2
*D15
 10
945.1213506930221
 20
1016.960399543792
 30
0.0
 11
945.1213506930219
 21
1032.322899543792
 31
0.0
 70
   160
 71
     5
 42
4.0
  3
AM_ISO$0
100
AcDbAlignedDimension
 13
930.1213506930221
 23
1020.960399543792
 33
0.0
 14
894.1213506930251
 24
1016.960399543792
 34
0.0
 50
90.0
100
AcDbRotatedDimension
1001
ACAD
1000
DSTYLE
1002
{
1070
    40
1040
1.5
1070
   271
1070
     0
1070
   272
1070
     8
1002
}
  0
LINE
  5
6277
330
1F
100
AcDbEntity
  8
AM_VIS
100
AcDbLine
 10
910.1213506930221
 20
1072.223189579591
 30
0.0
 11
930.1213506930221
 21
1072.223189579591
 31
0.0
  0
LINE
  5
6278
330
1F
100
AcDbEntity
  8
AM_VIS
100
AcDbLine
 10
910.1213506930221
 20
1098.623189579591
 30
0.0
 11
930.1213506930221
 21
1098.623189579591
 31
0.0
  0
LINE
  5
6279
330
1F
100
AcDbEntity
  8
AM_VIS
100
AcDbLine
 10
930.1213506930221
 20
1098.623189579591
 30
0.0
 11
930.1213506930221
 21
1072.223189579591
 31
0.0
  0
LINE
  5
627A
330
1F
100
AcDbEntity
  8
AM_VIS
100
AcDbLine
 10
910.1213506930221
 20
985.660399543792
 30
0.0
 11
930.1213506930221
 21
985.660399543792
 31
0.0
  0
LINE
  5
627B
330
1F
100
AcDbEntity
  8
AM_VIS
100
AcDbLine
 10
910.1213506930221
 20
1020.960399543792
 30
0.0
 11
930.1213506930221
 21
1020.960399543792
 31
0.0
  0
LINE
  5
627C
102
{ACAD_REACTORS
330
62F1
330
6E64
102
}
330
1F
100
AcDbEntity
  8
AM_VIS
100
AcDbLine
 10
930.1213506930221
 20
1020.960399543792
 30
0.0
 11
930.1213506930221
 21
985.660399543792
 31
0.0
  0
LINE
  5
627D
330
1F
100
AcDbEntity
  8
AM_VIS
100
AcDbLine
 10
910.1213506930221
 20
916.8117974582431
 30
0.0
 11
930.1213506930221
 21
916.8117974582431
 31
0.0
  0
LINE
  5
627E
330
1F
100
AcDbEntity
  8
AM_VIS
100
AcDbLine
 10
910.1213506930221
 20
943.2117974582428
 30
0.0
 11
930.1213506930221
 21
943.2117974582428
 31
0.0
  0
LINE
  5
627F
330
1F
100
AcDbEntity
  8
AM_VIS
100
AcDbLine
 10
930.1213506930221
 20
943.2117974582428
 30
0.0
 11
930.1213506930221
 21
916.8117974582431
 31
0.0
  0
LINE
  5
62B7
330
1F
100
AcDbEntity
  8
AM_0
  6
HIDDEN
 62
     3
 48
0.2
100
AcDbLine
 10
923.9213506930221
 20
993.554149543792
 30
0.0
 11
930.1213506930221
 21
993.360399543792
 31
0.0
  0
LINE
  5
62B8
330
1F
100
AcDbEntity
  8
AM_0
  6
HIDDEN
 62
     3
 48
0.2
100
AcDbLine
 10
923.9213506930221
 20
1003.666649543792
 30
0.0
 11
930.1213506930221
 21
1003.860399543792
 31
0.0
  0
LINE
  5
62B9
330
1F
100
AcDbEntity
  8
AM_0
  6
HIDDEN
 62
     3
 48
0.2
100
AcDbLine
 10
923.9213506930221
 20
1002.699649543792
 30
0.0
 11
930.1213506930221
 21
1002.893399543792
 31
0.0
  0
LINE
  5
62BA
330
1F
100
AcDbEntity
  8
AM_0
  6
HIDDEN
 62
     3
 48
0.2
100
AcDbLine
 10
923.9213506930221
 20
994.521149543792
 30
0.0
 11
930.1213506930221
 21
994.3273995437921
 31
0.0
  0
LINE
  5
62BB
102
{ACAD_REACTORS
330
62F1
102
}
330
1F
100
AcDbEntity
  8
AM_7
  6
AM_ISO08W050x2
100
AcDbLine
 10
920.9680391878576
 20
998.610399543792
 30
0.0
 11
931.5262466925922
 21
998.610399543792
 31
0.0
  0
POINT
  5
62BC
330
1F
100
AcDbEntity
  8
AM_7
  6
AM_ISO08W050x2
100
AcDbPoint
 10
926.1513506930221
 20
998.610399543792
 30
0.0
  0
LINE
  5
62BD
330
1F
100
AcDbEntity
  8
AM_0
  6
HIDDEN
 62
     3
 48
0.2
100
AcDbLine
 10
923.9213506930221
 20
994.521149543792
 30
0.0
 11
922.5607006930221
 21
994.5211495437922
 31
0.0
  0
LINE
  5
62BE
330
1F
100
AcDbEntity
  8
AM_0
  6
HIDDEN
 62
     3
 48
0.2
100
AcDbLine
 10
923.9213506930221
 20
1002.699649543792
 30
0.0
 11
922.5607006930221
 21
1002.699649543792
 31
0.0
  0
LINE
  5
62BF
330
1F
100
AcDbEntity
  8
AM_0
  6
HIDDEN
 62
     3
 48
0.2
100
AcDbLine
 10
923.9213506930221
 20
1003.666649543792
 30
0.0
 11
923.9213506930221
 21
993.554149543792
 31
0.0
  0
LINE
  5
62C0
330
1F
100
AcDbEntity
  8
AM_0
  6
HIDDEN
 62
     3
 48
0.2
100
AcDbLine
 10
923.9213506930221
 20
993.554149543792
 30
0.0
 11
922.5607006930221
 21
994.521149543792
 31
0.0
  0
LINE
  5
62C1
330
1F
100
AcDbEntity
  8
AM_0
  6
HIDDEN
 62
     3
 48
0.2
100
AcDbLine
 10
923.9213506930221
 20
1003.666649543792
 30
0.0
 11
922.5607006930221
 21
1002.699649543792
 31
0.0
  0
LINE
  5
62C2
330
1F
100
AcDbEntity
  8
AM_0
  6
HIDDEN
 62
     3
 48
0.2
100
AcDbLine
 10
922.5607006930221
 20
994.521149543792
 30
0.0
 11
922.5607006930221
 21
1002.699649543792
 31
0.0
  0
DIMENSION
  5
62E3
102
{ACAD_XDICTIONARY
360
62F0
102
}
102
{ACAD_REACTORS
330
62F1
102
}
330
1F
100
AcDbEntity
  8
AM_5
100
AcDbDimension
  2
*D16
 10
945.1213506930221
 20
985.660399543792
 30
0.0
 11
941.446350693022
 21
992.1353995437922
 31
0.0
 70
    32
 71
     5
 42
12.94999999999993
  3
AM_ISO$0
100
AcDbAlignedDimension
 13
931.5262466925922
 23
998.610399543792
 33
0.0
 14
930.1213506930221
 24
985.660399543792
 34
0.0
 50
90.0
100
AcDbRotatedDimension
1001
ACAD
1000
DSTYLE
1002
{
1070
    40
1040
1.5
1070
   271
1070
     0
1070
   272
1070
     8
1002
}
  0
LINE
  5
6318
330
1F
100
AcDbEntity
  8
AM_0
  6
HIDDEN
 62
     3
 48
0.2
100
AcDbLine
 10
923.9213506930221
 20
1080.366939579591
 30
0.0
 11
930.1213506930221
 21
1080.173189579591
 31
0.0
  0
LINE
  5
6319
330
1F
100
AcDbEntity
  8
AM_0
  6
HIDDEN
 62
     3
 48
0.2
100
AcDbLine
 10
923.9213506930221
 20
1090.479439579591
 30
0.0
 11
930.1213506930221
 21
1090.673189579591
 31
0.0
  0
LINE
  5
631A
330
1F
100
AcDbEntity
  8
AM_0
  6
HIDDEN
 62
     3
 48
0.2
100
AcDbLine
 10
923.9213506930221
 20
1089.512439579591
 30
0.0
 11
930.1213506930221
 21
1089.706189579591
 31
0.0
  0
LINE
  5
631B
330
1F
100
AcDbEntity
  8
AM_0
  6
HIDDEN
 62
     3
 48
0.2
100
AcDbLine
 10
923.9213506930221
 20
1081.333939579591
 30
0.0
 11
930.1213506930221
 21
1081.140189579591
 31
0.0
  0
LINE
  5
631C
330
1F
100
AcDbEntity
  8
AM_7
  6
AM_ISO08W050x2
100
AcDbLine
 10
920.9680391878576
 20
1085.423189579591
 30
0.0
 11
931.5262466925922
 21
1085.423189579591
 31
0.0
  0
POINT
  5
631D
330
1F
100
AcDbEntity
  8
AM_7
  6
AM_ISO08W050x2
100
AcDbPoint
 10
926.1513506930221
 20
1085.423189579591
 30
0.0
  0
LINE
  5
631E
330
1F
100
AcDbEntity
  8
AM_0
  6
HIDDEN
 62
     3
 48
0.2
100
AcDbLine
 10
923.9213506930221
 20
1081.333939579591
 30
0.0
 11
922.5607006930221
 21
1081.333939579591
 31
0.0
  0
LINE
  5
631F
330
1F
100
AcDbEntity
  8
AM_0
  6
HIDDEN
 62
     3
 48
0.2
100
AcDbLine
 10
923.9213506930221
 20
1089.512439579591
 30
0.0
 11
922.5607006930221
 21
1089.512439579591
 31
0.0
  0
LINE
  5
6320
330
1F
100
AcDbEntity
  8
AM_0
  6
HIDDEN
 62
     3
 48
0.2
100
AcDbLine
 10
923.9213506930221
 20
1090.479439579591
 30
0.0
 11
923.9213506930221
 21
1080.366939579591
 31
0.0
  0
LINE
  5
6321
330
1F
100
AcDbEntity
  8
AM_0
  6
HIDDEN
 62
     3
 48
0.2
100
AcDbLine
 10
923.9213506930221
 20
1080.366939579591
 30
0.0
 11
922.5607006930221
 21
1081.333939579591
 31
0.0
  0
LINE
  5
6322
330
1F
100
AcDbEntity
  8
AM_0
  6
HIDDEN
 62
     3
 48
0.2
100
AcDbLine
 10
923.9213506930221
 20
1090.479439579591
 30
0.0
 11
922.5607006930221
 21
1089.512439579591
 31
0.0
  0
LINE
  5
6323
330
1F
100
AcDbEntity
  8
AM_0
  6
HIDDEN
 62
     3
 48
0.2
100
AcDbLine
 10
922.5607006930221
 20
1081.333939579591
 30
0.0
 11
922.5607006930221
 21
1089.512439579591
 31
0.0
  0
LINE
  5
6324
330
1F
100
AcDbEntity
  8
AM_0
  6
HIDDEN
 62
     3
 48
0.2
100
AcDbLine
 10
923.9213506930221
 20
924.9555474582431
 30
0.0
 11
930.1213506930221
 21
924.761797458243
 31
0.0
  0
LINE
  5
6325
330
1F
100
AcDbEntity
  8
AM_0
  6
HIDDEN
 62
     3
 48
0.2
100
AcDbLine
 10
923.9213506930221
 20
935.068047458243
 30
0.0
 11
930.1213506930221
 21
935.2617974582429
 31
0.0
  0
LINE
  5
6326
330
1F
100
AcDbEntity
  8
AM_0
  6
HIDDEN
 62
     3
 48
0.2
100
AcDbLine
 10
923.9213506930221
 20
934.101047458243
 30
0.0
 11
930.1213506930221
 21
934.2947974582429
 31
0.0
  0
LINE
  5
6327
330
1F
100
AcDbEntity
  8
AM_0
  6
HIDDEN
 62
     3
 48
0.2
100
AcDbLine
 10
923.9213506930221
 20
925.922547458243
 30
0.0
 11
930.1213506930221
 21
925.728797458243
 31
0.0
  0
LINE
  5
6328
330
1F
100
AcDbEntity
  8
AM_7
  6
AM_ISO08W050x2
100
AcDbLine
 10
920.9680391878576
 20
930.011797458243
 30
0.0
 11
931.5262466925922
 21
930.011797458243
 31
0.0
  0
POINT
  5
6329
330
1F
100
AcDbEntity
  8
AM_7
  6
AM_ISO08W050x2
100
AcDbPoint
 10
926.1513506930221
 20
930.011797458243
 30
0.0
  0
LINE
  5
632A
330
1F
100
AcDbEntity
  8
AM_0
  6
HIDDEN
 62
     3
 48
0.2
100
AcDbLine
 10
923.9213506930221
 20
925.922547458243
 30
0.0
 11
922.5607006930221
 21
925.922547458243
 31
0.0
  0
LINE
  5
632B
330
1F
100
AcDbEntity
  8
AM_0
  6
HIDDEN
 62
     3
 48
0.2
100
AcDbLine
 10
923.9213506930221
 20
934.101047458243
 30
0.0
 11
922.5607006930221
 21
934.101047458243
 31
0.0
  0
LINE
  5
632C
330
1F
100
AcDbEntity
  8
AM_0
  6
HIDDEN
 62
     3
 48
0.2
100
AcDbLine
 10
923.9213506930221
 20
935.068047458243
 30
0.0
 11
923.9213506930221
 21
924.9555474582431
 31
0.0
  0
LINE
  5
632D
330
1F
100
AcDbEntity
  8
AM_0
  6
HIDDEN
 62
     3
 48
0.2
100
AcDbLine
 10
923.9213506930221
 20
924.9555474582431
 30
0.0
 11
922.5607006930221
 21
925.922547458243
 31
0.0
  0
LINE
  5
632E
330
1F
100
AcDbEntity
  8
AM_0
  6
HIDDEN
 62
     3
 48
0.2
100
AcDbLine
 10
923.9213506930221
 20
935.068047458243
 30
0.0
 11
922.5607006930221
 21
934.101047458243
 31
0.0
  0
LINE
  5
632F
330
1F
100
AcDbEntity
  8
AM_0
  6
HIDDEN
 62
     3
 48
0.2
100
AcDbLine
 10
922.5607006930221
 20
925.922547458243
 30
0.0
 11
922.5607006930221
 21
934.101047458243
 31
0.0
  0
TEXT
  5
6E44
330
1F
100
AcDbEntity
  8
AM_5
100
AcDbText
 10
912.3349410985795
 20
971.3527684604407
 30
0.0
 40
5.25
  1
2-%%c4.5貫通
100
AcDbText
  0
INSERT
  5
6E45
330
1F
100
AcDbEntity
  8
AM_5
100
AcDbBlockReference
  2
*S22
 10
0.0
 20
0.0
 30
0.0
  0
DIMENSION
  5
6E56
102
{ACAD_XDICTIONARY
360
6E63
102
}
102
{ACAD_REACTORS
330
6E64
102
}
330
1F
100
AcDbEntity
  8
AM_5
100
AcDbDimension
  2
*D17
 10
930.1213506930221
 20
1035.960399543792
 30
0.0
 11
891.871350693022
 21
1039.635399543792
 31
0.0
 70
    32
 71
     5
 42
76.5
  3
AM_ISO$0
100
AcDbAlignedDimension
 13
853.6213506930222
 23
1019.960399543792
 33
0.0
 14
930.1213506930221
 24
1020.960399543792
 34
0.0
100
AcDbRotatedDimension
1001
ACAD
1000
DSTYLE
1002
{
1070
    40
1040
1.5
1070
   272
1070
     8
1002
}
  0
TEXT
  5
6F4A
330
1F
100
AcDbEntity
  8
AM_5
100
AcDbText
 10
986.4983099913347
 20
1012.582353623516
 30
0.0
 40
5.25
  1
PT1/8
100
AcDbText
  0
INSERT
  5
6F4B
330
1F
100
AcDbEntity
  8
AM_VIS
100
AcDbBlockReference
  2
*S23
 10
-6.059753225987833
 20
0.0
 30
0.0
  0
TEXT
  5
743D
330
1F
100
AcDbEntity
  8
AM_5
100
AcDbText
 10
840.0069226141212
 20
955.0229490391112
 30
0.0
 40
5.95
  1
PT1/4
100
AcDbText
  0
INSERT
  5
743E
330
1F
100
AcDbEntity
  8
AM_5
100
AcDbBlockReference
  2
*S24
 10
0.0
 20
0.0
 30
0.0
  0
LINE
  5
76C3
330
1F
100
AcDbEntity
  8
0
100
AcDbLine
 10
957.4629988000738
 20
985.6603995437923
 30
0.0
 11
983.8629988000738
 21
985.6603995437922
 31
0.0
  0
LINE
  5
76C4
330
1F
100
AcDbEntity
  8
0
100
AcDbLine
 10
957.4629988000738
 20
1020.960399543792
 30
0.0
 11
983.8629988000739
 21
1020.960399543792
 31
0.0
  0
LINE
  5
76C5
330
1F
100
AcDbEntity
  8
0
100
AcDbLine
 10
957.4629988000738
 20
985.6603995437923
 30
0.0
 11
957.4629988000738
 21
1020.960399543792
 31
0.0
  0
LINE
  5
76C6
330
1F
100
AcDbEntity
  8
0
100
AcDbLine
 10
983.8629988000738
 20
985.6603995437922
 30
0.0
 11
983.8629988000739
 21
1020.960399543792
 31
0.0
  0
ARC
  5
7702
330
1F
100
AcDbEntity
  8
AM_4
100
AcDbCircle
 10
970.6629988000738
 20
998.610399543792
 30
0.0
 40
4.863999999999999
100
AcDbArc
 50
260.0
 51
170.0
  0
LINE
  5
7703
330
1F
100
AcDbEntity
  8
AM_7
  6
AM_ISO08W050x2
100
AcDbLine
 10
970.6629988000738
 20
1004.974399543792
 30
0.0
 11
970.6629988000738
 21
992.2463995437921
 31
0.0
  0
CIRCLE
  5
7704
330
1F
100
AcDbEntity
  8
AM_0
100
AcDbCircle
 10
970.6629988000738
 20
998.610399543792
 30
0.0
 40
4.283
  0
LINE
  5
7705
330
1F
100
AcDbEntity
  8
AM_7
  6
AM_ISO08W050x2
100
AcDbLine
 10
964.2989988000739
 20
998.610399543792
 30
0.0
 11
977.0269988000739
 21
998.610399543792
 31
0.0
  0
LINE
  5
77BB
330
1F
100
AcDbEntity
  8
LOGO
 62
     4
100
AcDbLine
 10
1011.555419011589
 20
892.6039297078538
 30
0.0
 11
816.8755619092362
 21
892.6039297078538
 31
0.0
  0
LWPOLYLINE
  5
77BC
330
1F
100
AcDbEntity
  8
LOGO
 62
     4
100
AcDbPolyline
 90
        4
 70
     1
 43
0.0
 10
816.8755619092364
 20
892.6039297078538
 10
1011.555419011589
 20
892.6039297078538
 10
1011.555419011589
 20
1131.195554385517
 10
816.8755619092364
 20
1131.195554385517
1001
GENIUS_GENREC_14
1002
{
1000
PYDIR
1011
816.8755619092364
1021
1131.195554385517
1031
0.0
1002
}
1002
{
1000
PXDIR
1011
1011.555419011589
1021
892.6039297078538
1031
0.0
1002
}
1002
{
1000
PORI
1011
816.8755619092364
1021
892.6039297078538
1031
0.0
1002
}
1002
{
1000
PINS
1011
816.8755619092364
1021
892.6039297078538
1031
0.0
1002
}
1002
{
1000
PINS2
1011
1011.555419011589
1021
1131.195554385517
1031
0.0
1002
}
1002
{
1000
C
1070
     1
1002
}
1001
GENIUS_GENODEF_13
1002
{
1000
HIER
1070
     0
1002
}
1002
{
1000
MANEDIT
1070
     0
1002
}
1002
{
1000
NOSEL
1070
     0
1002
}
1002
{
1000
BEHIND
1070
     0
1002
}
1002
{
1000
OTHER
1070
     0
1002
}
1002
{
1000
REACTOR
1002
}
1001
GENIUS_GENOBJ-N-REC_13
1002
{
1000
OWNER
1000
GEN
1002
}
  0
LWPOLYLINE
  5
77BD
330
1F
100
AcDbEntity
  8
LOGO
 62
     4
100
AcDbPolyline
 90
        4
 70
     1
 43
0.0
 10
816.8755619092364
 20
892.6039297078538
 10
1011.555419011589
 20
892.6039297078538
 10
1011.555419011589
 20
869.7592380155459
 10
816.8755619092364
 20
869.7592380155459
1001
GENIUS_GENREC_14
1002
{
1000
PYDIR
1011
816.8755619092364
1021
869.7592380155459
1031
0.0
1002
}
1002
{
1000
PXDIR
1011
1011.555419011589
1021
892.6039297078538
1031
0.0
1002
}
1002
{
1000
PORI
1011
816.8755619092364
1021
892.6039297078538
1031
0.0
1002
}
1002
{
1000
PINS
1011
816.8755619092364
1021
892.6039297078538
1031
0.0
1002
}
1002
{
1000
PINS2
1011
1011.555419011589
1021
869.7592380155459
1031
0.0
1002
}
1002
{
1000
C
1070
     1
1002
}
1001
GENIUS_GENOBJ-N-REC_13
1002
{
1000
OWNER
1000
GEN
1002
}
1001
GENIUS_GENODEF_13
1002
{
1000
HIER
1070
     0
1002
}
1002
{
1000
MANEDIT
1070
     0
1002
}
1002
{
1000
NOSEL
1070
     0
1002
}
1002
{
1000
BEHIND
1070
     0
1002
}
1002
{
1000
OTHER
1070
     0
1002
}
1002
{
1000
REACTOR
1002
}
  0
TEXT
  5
77BE
330
1F
100
AcDbEntity
  8
LOGO
 62
     7
100
AcDbText
 10
868.4573631023194
 20
882.5960590131003
 30
0.0
 40
3.045958892307691
  1
Order example:
 41
0.8
  7
CHINESET
100
AcDbText
  0
TEXT
  5
77BF
330
1F
100
AcDbEntity
  8
LOGO
 62
     7
100
AcDbText
 10
869.0038333166548
 20
886.8841384596336
 30
0.0
 40
4.568938338461538
  1
訂購代號：
  7
CHINESET
100
AcDbText
  0
LINE
  5
77C0
330
1F
100
AcDbEntity
  8
LOGO
 62
     4
100
AcDbLine
 10
867.133883632313
 20
869.7592380155461
 30
0.0
 11
867.133883632313
 21
892.6039297078538
 31
0.0
  0
TEXT
  5
77C1
330
1F
100
AcDbEntity
  8
LOGO
  6
Continuous
100
AcDbText
 10
825.081477853989
 20
874.2470432228541
 30
0.0
 40
3.426703753846153
  1
金器工業股份有限公司
  7
CHINESET
100
AcDbText
  0
TEXT
  5
77C2
330
1F
100
AcDbEntity
  8
LOGO
  6
Continuous
100
AcDbText
 10
818.7873009980789
 20
870.8196681037362
 30
0.0
 40
2.284469169230769
  1
MINDMAN INDUSTRIAL CO., LTD.
 41
0.85
  7
CHINESET
100
AcDbText
  0
LINE
  5
77C3
330
1F
100
AcDbEntity
  8
LOGO
 62
     4
100
AcDbLine
 10
867.133883632313
 20
888.0349913693924
 30
0.0
 11
833.6283358169284
 21
888.0349913693924
 31
0.0
  0
LINE
  5
77C4
330
1F
100
AcDbEntity
  8
LOGO
 62
     4
100
AcDbLine
 10
867.133883632313
 20
883.4660530309307
 30
0.0
 11
833.6283358169284
 21
883.4660530309307
 31
0.0
  0
LINE
  5
77C5
330
1F
100
AcDbEntity
  8
LOGO
 62
     4
100
AcDbLine
 10
867.133883632313
 20
878.8971146924694
 30
0.0
 11
816.8755619092362
 21
878.8971146924694
 31
0.0
  0
LINE
  5
77C6
330
1F
100
AcDbEntity
  8
LOGO
 62
     4
100
AcDbLine
 10
833.6283358169284
 20
878.8971146924694
 30
0.0
 11
833.6283358169284
 21
892.6039297078538
 31
0.0
  0
TEXT
  5
77C7
330
1F
100
AcDbEntity
  8
LOGO
100
AcDbText
 10
856.5277963109751
 20
880.0393492770846
 30
0.0
 40
2.284469169230769
  1
mm
  7
CHINESET
 72
     1
 11
859.3561867109752
 21
881.1815838616999
 31
0.0
100
AcDbText
 73
     2
  0
TEXT
  5
77C8
330
1F
100
AcDbEntity
  8
LOGO
100
AcDbText
 10
855.3311696032828
 20
889.1772259540076
 30
0.0
 40
2.284469169230769
  1
1 : 1
  7
CHINESET
 72
     1
 11
859.3561867109752
 21
890.319460538623
 31
0.0
100
AcDbText
 73
     2
  0
LINE
  5
77C9
330
1F
100
AcDbEntity
  8
LOGO
 62
     4
100
AcDbLine
 10
851.9040891707746
 20
878.8971146924694
 30
0.0
 11
851.9040891707746
 21
892.6039297078538
 31
0.0
  0
TEXT
  5
77CA
330
1F
100
AcDbEntity
  8
LOGO
100
AcDbText
 10
835.5120030292361
 20
889.1783502006459
 30
149.7203459082809
 40
2.284469169230769
  1
比例 Scale:
 41
0.9
  7
CHINESET
 72
     4
 11
842.7662124938516
 21
890.319460538623
 31
149.7203459082809
100
AcDbText
  0
TEXT
  5
77CB
330
1F
100
AcDbEntity
  8
LOGO
100
AcDbText
 10
835.3804420815437
 20
884.6404223319602
 30
149.7203459082809
 40
2.284469169230769
  1
投影  View:
 41
0.9
  7
CHINESET
 72
     4
 11
842.7662124938516
 21
885.7505222001615
 31
149.7203459082809
100
AcDbText
  0
TEXT
  5
77CC
330
1F
100
AcDbEntity
  8
LOGO
100
AcDbText
 10
835.6037897369285
 20
880.0393492770846
 30
149.7203459082809
 40
2.284469169230769
  1
單位  Unit:
 41
0.9
  7
CHINESET
 72
     4
 11
842.7662124938516
 21
881.1815838616999
 31
149.7203459082809
100
AcDbText
  0
SOLID
  5
77CD
330
1F
100
AcDbEntity
  8
LOGO
 62
     5
100
AcDbTrace
 10
819.2457353352546
 20
882.6947195177346
 30
0.0
 11
820.2334798595588
 21
882.6947195177343
 31
0.0
 12
824.3547587368286
 22
892.0612624206214
 32
0.0
 13
825.3425032611335
 23
892.0612624206208
 33
0.0
  0
SOLID
  5
77CE
330
1F
100
AcDbEntity
  8
LOGO
 62
     5
100
AcDbTrace
 10
820.642201731686
 20
882.6947195177346
 30
0.0
 11
821.6299462559902
 21
882.6947195177346
 31
0.0
 12
825.3425032611335
 22
891.3119389883901
 32
0.0
 13
824.3547587368286
 23
887.6902090659404
 33
0.0
  0
SOLID
  5
77CF
330
1F
100
AcDbEntity
  8
LOGO
 62
     2
100
AcDbTrace
 10
820.2334798595588
 20
882.6947195177343
 30
0.0
 11
820.642201731686
 21
882.6947195177346
 31
0.0
 12
825.3425032611335
 22
892.0612624206208
 32
0.0
 13
825.7512251332601
 23
892.0612624206208
 33
0.0
  0
SOLID
  5
77D0
330
1F
100
AcDbEntity
  8
LOGO
 62
     5
100
AcDbTrace
 10
817.6621386381665
 20
879.2887039166853
 30
0.0
 11
818.0027401982718
 21
879.2887039166853
 31
0.0
 12
818.9619007018341
 22
880.99171171721
 32
0.0
 13
819.3025022619384
 23
880.99171171721
 33
0.0
  0
SOLID
  5
77D1
330
1F
100
AcDbEntity
  8
LOGO
 62
     5
100
AcDbTrace
 10
818.9619007018341
 20
880.99171171721
 30
0.0
 11
819.3025022619384
 21
880.99171171721
 31
0.0
 12
818.9619007018341
 22
879.2887039166853
 32
0.0
 13
819.3025022619384
 23
879.2887039166853
 33
0.0
  0
SOLID
  5
77D2
330
1F
100
AcDbEntity
  8
LOGO
 62
     5
100
AcDbTrace
 10
818.9619007018341
 20
879.2887039166853
 30
0.0
 11
819.3025022619384
 21
879.2887039166853
 31
0.0
 12
820.2616627655022
 22
880.99171171721
 32
0.0
 13
820.6022643256071
 23
880.99171171721
 33
0.0
  0
SOLID
  5
77D3
330
1F
100
AcDbEntity
  8
LOGO
 62
     5
100
AcDbTrace
 10
820.2616627655022
 20
880.99171171721
 30
0.0
 11
820.6022643256071
 21
880.99171171721
 31
0.0
 12
820.2616627655022
 22
879.2887039166853
 32
0.0
 13
820.6022643256071
 23
879.2887039166853
 33
0.0
  0
POLYLINE
  5
77D4
330
1F
100
AcDbEntity
  8
LOGO
 62
     5
100
AcDb2dPolyline
 66
     1
 10
0.0
 20
0.0
 30
0.0
 40
0.3411473959384614
 41
0.3411473959384614
  0
VERTEX
  5
77D5
330
77D4
100
AcDbEntity
  8
LOGO
 62
     5
100
AcDbVertex
100
AcDb2dVertex
 10
831.6785110328366
 20
880.3105085969999
 30
0.0
 42
1.0
  0
VERTEX
  5
77D6
330
77D4
100
AcDbEntity
  8
LOGO
 62
     5
100
AcDbVertex
100
AcDb2dVertex
 10
830.655068845021
 20
880.3105085969999
 30
0.0
 42
1.0
  0
SEQEND
  5
77D7
330
77D4
100
AcDbEntity
  8
LOGO
 62
     5
  0
POLYLINE
  5
77D8
330
1F
100
AcDbEntity
  8
LOGO
 62
     5
100
AcDb2dPolyline
 66
     1
 10
0.0
 20
0.0
 30
0.0
 70
     1
  0
VERTEX
  5
77D9
330
77D8
100
AcDbEntity
  8
LOGO
 62
     5
100
AcDbVertex
100
AcDb2dVertex
 10
828.7258347982799
 20
880.1402078169473
 30
0.0
 42
1.000000057330635
  0
VERTEX
  5
77DA
330
77D8
100
AcDbEntity
  8
LOGO
 62
     5
100
AcDbVertex
100
AcDb2dVertex
 10
829.7476394785949
 20
880.1402078169473
 30
0.0
 42
1.000000057330635
  0
SEQEND
  5
77DB
330
77D8
100
AcDbEntity
  8
LOGO
 62
     5
  0
CIRCLE
  5
77DC
330
1F
100
AcDbEntity
  8
LOGO
 62
     5
100
AcDbCircle
 10
829.2367371384381
 20
880.1402078169473
 30
0.0
 40
0.5109023401574399
  0
POLYLINE
  5
77DD
330
1F
100
AcDbEntity
  8
LOGO
 62
     5
100
AcDb2dPolyline
 66
     1
 10
0.0
 20
0.0
 30
0.0
 70
     1
 40
0.3411473959384614
 41
0.3411473959384614
  0
VERTEX
  5
77DE
330
77DD
100
AcDbEntity
  8
LOGO
 62
     5
100
AcDbVertex
100
AcDb2dVertex
 10
828.5544423465607
 20
880.1402078169473
 30
0.0
 42
1.0
  0
VERTEX
  5
77DF
330
77DD
100
AcDbEntity
  8
LOGO
 62
     5
100
AcDbVertex
100
AcDb2dVertex
 10
829.9190319303145
 20
880.1402078169473
 30
0.0
 42
1.0
  0
SEQEND
  5
77E0
330
77DD
100
AcDbEntity
  8
LOGO
 62
     5
  0
LINE
  5
77E1
330
1F
100
AcDbEntity
  8
LOGO
100
AcDbLine
 10
831.8479930591381
 20
879.2887039166853
 30
0.0
 11
831.8479930591381
 21
880.3105085969999
 31
0.0
  0
SOLID
  5
77E2
330
1F
100
AcDbEntity
  8
LOGO
 62
     5
100
AcDbTrace
 10
829.7476054184404
 20
880.99171171721
 30
0.0
 11
830.0882069785446
 21
880.99171171721
 31
0.0
 12
829.7476054184404
 22
879.2887039166853
 32
0.0
 13
830.0882069785446
 23
879.2887039166853
 33
0.0
  0
SOLID
  5
77E3
330
1F
100
AcDbEntity
  8
LOGO
 62
     5
100
AcDbTrace
 10
830.4855868187182
 20
879.2887039166853
 30
0.0
 11
830.8261883788237
 21
879.2887039166853
 31
0.0
 12
830.4855868187182
 22
880.99171171721
 32
0.0
 13
830.8261883788237
 23
880.99171171721
 33
0.0
  0
SOLID
  5
77E4
330
1F
100
AcDbEntity
  8
LOGO
 62
     5
100
AcDbTrace
 10
831.5073914990339
 20
880.3105085969999
 30
0.0
 11
831.8479930591381
 21
880.3105085969999
 31
0.0
 12
831.5073914990339
 22
879.2887039166853
 32
0.0
 13
831.8479930591381
 23
879.2887039166853
 33
0.0
  0
SOLID
  5
77E5
330
1F
100
AcDbEntity
  8
LOGO
 62
     5
100
AcDbTrace
 10
830.4515266627078
 20
891.3119389883901
 30
0.0
 11
829.4637821384039
 21
887.6902090659404
 31
0.0
 12
830.4515266627078
 22
882.6947195177343
 32
0.0
 13
829.4637821384039
 23
882.6947195177343
 33
0.0
  0
SOLID
  5
77E6
330
1F
100
AcDbEntity
  8
LOGO
 62
     5
100
AcDbTrace
 10
830.8602485348343
 20
882.6947195177343
 30
0.0
 11
831.8479930591381
 21
882.6947195177343
 31
0.0
 12
830.8602485348343
 22
892.0612624206208
 32
0.0
 13
831.8479930591381
 23
892.0612624206214
 33
0.0
  0
SOLID
  5
77E7
330
1F
100
AcDbEntity
  8
LOGO
 62
     2
100
AcDbTrace
 10
830.4515266627078
 20
892.0612624206214
 30
0.0
 11
830.8602485348343
 21
892.0612624206208
 31
0.0
 12
830.4515266627078
 22
882.6947195177343
 32
0.0
 13
830.8602485348343
 23
882.6947195177343
 33
0.0
  0
POLYLINE
  5
77E8
330
1F
100
AcDbEntity
  8
LOGO
 62
     5
100
AcDb2dPolyline
 66
     1
 10
0.0
 20
0.0
 30
0.0
 40
0.3411473959384614
 41
0.3411473959384614
  0
VERTEX
  5
77E9
330
77E8
100
AcDbEntity
  8
LOGO
 62
     5
100
AcDbVertex
100
AcDb2dVertex
 10
826.7965326312282
 20
880.3105085969999
 30
0.0
 42
1.0
  0
VERTEX
  5
77EA
330
77E8
100
AcDbEntity
  8
LOGO
 62
     5
100
AcDbVertex
100
AcDb2dVertex
 10
825.7730904434126
 20
880.3105085969999
 30
0.0
 42
1.0
  0
SEQEND
  5
77EB
330
77E8
100
AcDbEntity
  8
LOGO
 62
     5
  0
POLYLINE
  5
77EC
330
1F
100
AcDbEntity
  8
LOGO
 62
     5
100
AcDb2dPolyline
 66
     1
 10
0.0
 20
0.0
 30
0.0
 40
0.3411473959384614
 41
0.3411473959384614
  0
VERTEX
  5
77ED
330
77EC
100
AcDbEntity
  8
LOGO
 62
     5
100
AcDbVertex
100
AcDb2dVertex
 10
827.8183373115421
 20
880.3105085969999
 30
0.0
 42
1.0
  0
VERTEX
  5
77EE
330
77EC
100
AcDbEntity
  8
LOGO
 62
     5
100
AcDbVertex
100
AcDb2dVertex
 10
826.7948951237269
 20
880.3105085969999
 30
0.0
 42
1.0
  0
SEQEND
  5
77EF
330
77EC
100
AcDbEntity
  8
LOGO
 62
     5
  0
POLYLINE
  5
77F0
330
1F
100
AcDbEntity
  8
LOGO
 62
     5
100
AcDb2dPolyline
 66
     1
 10
0.0
 20
0.0
 30
0.0
 40
0.3411473959384614
 41
0.3411473959384614
  0
VERTEX
  5
77F1
330
77F0
100
AcDbEntity
  8
LOGO
 62
     5
100
AcDbVertex
100
AcDb2dVertex
 10
822.9363589099339
 20
880.3105085969999
 30
0.0
 42
1.0
  0
VERTEX
  5
77F2
330
77F0
100
AcDbEntity
  8
LOGO
 62
     5
100
AcDbVertex
100
AcDb2dVertex
 10
821.9129167221188
 20
880.3105085969999
 30
0.0
 42
1.0
  0
SEQEND
  5
77F3
330
77F0
100
AcDbEntity
  8
LOGO
 62
     5
  0
SOLID
  5
77F4
330
1F
100
AcDbEntity
  8
LOGO
 62
     5
100
AcDbTrace
 10
821.7434346958166
 20
880.99171171721
 30
0.0
 11
822.0840362559208
 21
880.99171171721
 31
0.0
 12
821.7434346958166
 22
879.2887039166853
 32
0.0
 13
822.0840362559208
 23
879.2887039166853
 33
0.0
  0
SOLID
  5
77F5
330
1F
100
AcDbEntity
  8
LOGO
 62
     5
100
AcDbTrace
 10
822.7652393761315
 20
880.3105085969999
 30
0.0
 11
823.1058409362367
 21
880.3105085969999
 31
0.0
 12
822.7652393761315
 22
879.2887039166853
 32
0.0
 13
823.1058409362367
 23
879.2887039166853
 33
0.0
  0
POLYLINE
  5
77F6
330
1F
100
AcDbEntity
  8
LOGO
 62
     5
100
AcDb2dPolyline
 66
     1
 10
0.0
 20
0.0
 30
0.0
 70
     1
 40
0.3411473959384614
 41
0.3411473959384614
  0
VERTEX
  5
77F7
330
77F6
100
AcDbEntity
  8
LOGO
 62
     5
100
AcDbVertex
100
AcDb2dVertex
 10
823.6724639449519
 20
880.1402078169473
 30
0.0
 42
1.0
  0
VERTEX
  5
77F8
330
77F6
100
AcDbEntity
  8
LOGO
 62
     5
100
AcDbVertex
100
AcDb2dVertex
 10
825.0370535287061
 20
880.1402078169473
 30
0.0
 42
1.0
  0
SEQEND
  5
77F9
330
77F6
100
AcDbEntity
  8
LOGO
 62
     5
  0
SOLID
  5
77FA
330
1F
100
AcDbEntity
  8
LOGO
 62
     5
100
AcDbTrace
 10
824.8656270168307
 20
881.5026140573676
 30
0.0
 11
825.2062285769358
 21
881.5026140573676
 31
0.0
 12
824.8656270168307
 22
879.2887039166853
 32
0.0
 13
825.2062285769358
 23
879.2887039166853
 33
0.0
  0
SOLID
  5
77FB
330
1F
100
AcDbEntity
  8
LOGO
 62
     5
100
AcDbTrace
 10
825.603608417111
 20
880.99171171721
 30
0.0
 11
825.9442099772153
 21
880.99171171721
 31
0.0
 12
825.603608417111
 22
879.2887039166853
 32
0.0
 13
825.9442099772153
 23
879.2887039166853
 33
0.0
  0
SOLID
  5
77FC
330
1F
100
AcDbEntity
  8
LOGO
 62
     5
100
AcDbTrace
 10
826.625413097425
 20
880.3105085969999
 30
0.0
 11
826.9660146575303
 21
880.3105085969999
 31
0.0
 12
826.625413097425
 22
879.2887039166853
 32
0.0
 13
826.9660146575303
 23
879.2887039166853
 33
0.0
  0
SOLID
  5
77FD
330
1F
100
AcDbEntity
  8
LOGO
 62
     5
100
AcDbTrace
 10
827.6472177777399
 20
880.3105085969999
 30
0.0
 11
827.9878193378447
 21
880.3105085969999
 31
0.0
 12
827.6472177777399
 22
879.2887039166847
 32
0.0
 13
827.9878193378447
 23
879.2887039166847
 33
0.0
  0
SOLID
  5
77FE
330
1F
100
AcDbEntity
  8
LOGO
 62
     5
100
AcDbTrace
 10
821.005453295537
 20
881.2301328092834
 30
0.0
 11
821.3460548556428
 21
881.2301328092834
 31
0.0
 12
821.005453295537
 22
881.5026140573676
 32
0.0
 13
821.3460548556428
 23
881.5026140573676
 33
0.0
  0
SOLID
  5
77FF
330
1F
100
AcDbEntity
  8
LOGO
 62
     5
100
AcDbTrace
 10
821.005453295537
 20
880.99171171721
 30
0.0
 11
821.3460548556428
 21
880.99171171721
 31
0.0
 12
821.005453295537
 22
879.2887039166847
 32
0.0
 13
821.3460548556428
 23
879.2887039166853
 33
0.0
  0
SOLID
  5
7800
330
1F
100
AcDbEntity
  8
LOGO
 62
     5
100
AcDbTrace
 10
824.3547587368286
 20
882.6947195177346
 30
0.0
 11
825.3425032611335
 21
882.6947195177346
 31
0.0
 12
824.3547587368286
 22
887.6902090659404
 32
0.0
 13
825.3425032611335
 23
891.3119389883901
 33
0.0
  0
SOLID
  5
7801
330
1F
100
AcDbEntity
  8
LOGO
 62
     5
100
AcDbTrace
 10
825.7512251332601
 20
892.0612624206208
 30
0.0
 11
826.7389696575639
 21
892.0612624206214
 31
0.0
 12
825.7512251332601
 22
883.4440429499654
 32
0.0
 13
826.7389696575639
 23
887.065772872415
 33
0.0
  0
SOLID
  5
7802
330
1F
100
AcDbEntity
  8
LOGO
 62
     2
100
AcDbTrace
 10
825.3425032611335
 20
892.0612624206208
 30
0.0
 11
825.7512251332601
 21
892.0612624206208
 31
0.0
 12
825.3425032611335
 22
882.6947195177346
 32
0.0
 13
825.7512251332601
 23
882.6947195177346
 33
0.0
  0
SOLID
  5
7803
330
1F
100
AcDbEntity
  8
LOGO
 62
     5
100
AcDbTrace
 10
825.7512251332601
 20
883.4440429499654
 30
0.0
 11
826.7389696575639
 21
887.065772872415
 31
0.0
 12
830.4515266627078
 22
892.0612624206214
 32
0.0
 13
829.4637821384039
 23
892.0612624206214
 33
0.0
  0
SOLID
  5
7804
330
1F
100
AcDbEntity
  8
LOGO
 62
     5
100
AcDbTrace
 10
825.7512251332601
 20
882.6947195177346
 30
0.0
 11
826.7389696575639
 21
882.6947195177346
 31
0.0
 12
830.4515266627078
 22
891.3119389883901
 32
0.0
 13
829.4637821384039
 23
887.6902090659404
 33
0.0
  0
SOLID
  5
7805
330
1F
100
AcDbEntity
  8
LOGO
 62
     2
100
AcDbTrace
 10
825.3425032611335
 20
882.6947195177346
 30
0.0
 11
825.7512251332601
 21
882.6947195177346
 31
0.0
 12
830.4515266627078
 22
892.0612624206214
 32
0.0
 13
830.8602485348343
 23
892.0612624206208
 33
0.0
  0
LINE
  5
7806
330
1F
100
AcDbEntity
  8
LOGO
 62
     4
100
AcDbLine
 10
909.3893650812296
 20
880.0393492770849
 30
0.0
 11
909.3893650812296
 21
871.6629623232384
 31
0.0
  0
LINE
  5
7807
330
1F
100
AcDbEntity
  8
LOGO
 62
     4
100
AcDbLine
 10
898.5557431561945
 20
880.0393492770849
 30
0.0
 11
898.5557431561945
 21
871.6629623232384
 31
0.0
  0
LINE
  5
7808
330
1F
100
AcDbEntity
  8
LOGO
 62
     4
100
AcDbLine
 10
909.3893650812296
 20
871.6629623232384
 30
0.0
 11
898.5557431561945
 21
871.6629623232384
 31
0.0
  0
LINE
  5
7809
330
1F
100
AcDbEntity
  8
LOGO
 62
     4
100
AcDbLine
 10
916.6806035246938
 20
890.319460538623
 30
0.0
 11
898.5557431561945
 21
890.319460538623
 31
0.0
  0
LINE
  5
780A
330
1F
100
AcDbEntity
  8
LOGO
 62
     4
100
AcDbLine
 10
916.6806035246938
 20
883.4660530309307
 30
0.0
 11
898.5557431561945
 21
883.4660530309307
 31
0.0
  0
LINE
  5
780B
330
1F
100
AcDbEntity
  8
LOGO
 62
     4
100
AcDbLine
 10
898.5557431561945
 20
890.319460538623
 30
0.0
 11
898.5557431561945
 21
883.4660530309307
 31
0.0
  0
LINE
  5
780C
330
1F
100
AcDbEntity
  8
LOGO
 62
     4
100
AcDbLine
 10
916.6806035246938
 20
890.319460538623
 30
0.0
 11
916.6806035246938
 21
883.4660530309307
 31
0.0
  0
LINE
  5
780D
330
1F
100
AcDbEntity
  8
LOGO
 62
     4
100
AcDbLine
 10
906.965253132661
 20
883.4660530309307
 30
0.0
 11
906.965253132661
 21
880.0393492770849
 31
0.0
  0
TEXT
  5
780E
330
1F
100
AcDbEntity
  8
LOGO
  6
Continuous
 62
     7
100
AcDbText
 10
899.7734863363254
 20
884.8966918284808
 30
0.0
 40
3.998399999999999
  1
MVAA
  7
CHINESET
100
AcDbText
  0
LINE
  5
780F
330
1F
100
AcDbEntity
  8
LOGO
 62
     4
100
AcDbLine
 10
909.3893650812296
 20
880.0393492770849
 30
0.0
 11
898.5557431561945
 21
880.0393492770849
 31
0.0
  0
TEXT
  5
7810
330
1F
100
AcDbEntity
  8
LOGO
  6
Continuous
100
AcDbText
 10
901.6411166730621
 20
872.8452715792325
 30
149.7203459082809
 40
1.713599999999999
  1
Model
 41
0.8
  7
CHINESET
100
AcDbText
  0
TEXT
  5
7811
330
1F
100
AcDbEntity
  8
LOGO
100
AcDbText
 10
901.185012058772
 20
876.0219166720744
 30
149.7203459082809
 40
2.856
  1
型號
  7
CHINESET
100
AcDbText
  0
LINE
  5
7812
330
1F
100
AcDbEntity
  8
LOGO
  6
Continuous
 62
     7
100
AcDbLine
 10
917.4091773853948
 20
886.8684809322902
 30
0.0
 11
920.4353920710634
 21
886.8684809322902
 31
0.0
  0
LINE
  5
7813
330
1F
100
AcDbEntity
  8
LOGO
 62
     4
100
AcDbLine
 10
925.050409972801
 20
880.0393492770849
 30
0.0
 11
925.050409972801
 21
871.6629623232384
 31
0.0
  0
LINE
  5
7814
330
1F
100
AcDbEntity
  8
LOGO
 62
     4
100
AcDbLine
 10
911.174080369626
 20
880.0393492770849
 30
0.0
 11
911.174080369626
 21
871.6629623232384
 31
0.0
  0
LINE
  5
7815
330
1F
100
AcDbEntity
  8
LOGO
 62
     4
100
AcDbLine
 10
925.050409972801
 20
871.6629623232384
 30
0.0
 11
911.174080369626
 21
871.6629623232384
 31
0.0
  0
LINE
  5
7816
330
1F
100
AcDbEntity
  8
LOGO
 62
     4
100
AcDbLine
 10
933.4350932929357
 20
890.319460538623
 30
0.0
 11
921.3900032830958
 21
890.319460538623
 31
0.0
  0
LINE
  5
7817
330
1F
100
AcDbEntity
  8
LOGO
 62
     4
100
AcDbLine
 10
933.4350932929357
 20
883.4660530309307
 30
0.0
 11
921.3900032830958
 21
883.4660530309307
 31
0.0
  0
LINE
  5
7818
330
1F
100
AcDbEntity
  8
LOGO
 62
     4
100
AcDbLine
 10
921.3900032830958
 20
890.319460538623
 30
0.0
 11
921.3900032830958
 21
883.4660530309307
 31
0.0
  0
LINE
  5
7819
330
1F
100
AcDbEntity
  8
LOGO
 62
     4
100
AcDbLine
 10
933.4350932929357
 20
890.319460538623
 30
0.0
 11
933.4350932929357
 21
883.4660530309307
 31
0.0
  0
LINE
  5
781A
330
1F
100
AcDbEntity
  8
LOGO
 62
     4
100
AcDbLine
 10
925.5003300447077
 20
883.4660530309307
 30
0.0
 11
925.5003300447077
 21
881.7527011540077
 31
0.0
  0
TEXT
  5
781B
330
1F
100
AcDbEntity
  8
LOGO
  6
Continuous
 62
     7
100
AcDbText
 10
922.5040714195564
 20
884.8966918284808
 30
0.0
 40
3.998399999999999
  1
260
  7
CHINESET
100
AcDbText
  0
LINE
  5
781C
330
1F
100
AcDbEntity
  8
LOGO
 62
     4
100
AcDbLine
 10
925.050409972801
 20
880.0393492770849
 30
0.0
 11
911.174080369626
 21
880.0393492770849
 31
0.0
  0
LINE
  5
781D
330
1F
100
AcDbEntity
  8
LOGO
  6
Continuous
 62
     7
100
AcDbLine
 10
934.2448138144597
 20
886.8684809322902
 30
0.0
 11
937.2710285001282
 21
886.8684809322902
 31
0.0
  0
LINE
  5
781E
330
1F
100
AcDbEntity
  8
LOGO
 62
     4
100
AcDbLine
 10
938.3489271865258
 20
880.0393492770849
 30
0.0
 11
938.3489271865258
 21
871.6629623232384
 31
0.0
  0
LINE
  5
781F
330
1F
100
AcDbEntity
  8
LOGO
 62
     4
100
AcDbLine
 10
926.9086911152131
 20
880.0393492770849
 30
0.0
 11
926.9086911152131
 21
871.6629623232384
 31
0.0
  0
LINE
  5
7820
330
1F
100
AcDbEntity
  8
LOGO
 62
     4
100
AcDbLine
 10
938.3489271865258
 20
871.6629623232384
 30
0.0
 11
926.9086911152131
 21
871.6629623232384
 31
0.0
  0
LINE
  5
7821
330
1F
100
AcDbEntity
  8
LOGO
 62
     4
100
AcDbLine
 10
943.0907585352393
 20
890.319460538623
 30
0.0
 11
938.2256397121606
 21
890.319460538623
 31
0.0
  0
LINE
  5
7822
330
1F
100
AcDbEntity
  8
LOGO
 62
     4
100
AcDbLine
 10
943.0907585352393
 20
883.4660530309307
 30
0.0
 11
938.2256397121606
 21
883.4660530309307
 31
0.0
  0
LINE
  5
7823
330
1F
100
AcDbEntity
  8
LOGO
 62
     4
100
AcDbLine
 10
938.2256397121606
 20
890.319460538623
 30
0.0
 11
938.2256397121606
 21
883.4660530309307
 31
0.0
  0
LINE
  5
7824
330
1F
100
AcDbEntity
  8
LOGO
 62
     4
100
AcDbLine
 10
943.0907585352393
 20
890.319460538623
 30
0.0
 11
943.0907585352393
 21
883.4660530309307
 31
0.0
  0
LINE
  5
7825
330
1F
100
AcDbEntity
  8
LOGO
 62
     4
100
AcDbLine
 10
940.6581991237001
 20
883.4660530309307
 30
0.0
 11
940.6581991237001
 21
881.7527011540077
 31
0.0
  0
TEXT
  5
7826
330
1F
100
AcDbEntity
  8
LOGO
  6
Continuous
 62
     7
100
AcDbText
 10
939.1378099254351
 20
884.8966918284808
 30
0.0
 40
3.998399999999999
  1
4
  7
CHINESET
100
AcDbText
  0
LINE
  5
7827
330
1F
100
AcDbEntity
  8
LOGO
 62
     4
100
AcDbLine
 10
938.3489271865258
 20
880.0393492770849
 30
0.0
 11
926.9086911152131
 21
880.0393492770849
 31
0.0
  0
LINE
  5
7828
330
1F
100
AcDbEntity
  8
LOGO
 62
     4
100
AcDbLine
 10
963.2248255680663
 20
880.0393492770849
 30
0.0
 11
963.2248255680663
 21
871.6629623232384
 31
0.0
  0
LINE
  5
7829
330
1F
100
AcDbEntity
  8
LOGO
 62
     4
100
AcDbLine
 10
940.6690512679746
 20
880.0393492770849
 30
0.0
 11
940.6690512679746
 21
871.6629623232384
 31
0.0
  0
LINE
  5
782A
330
1F
100
AcDbEntity
  8
LOGO
 62
     4
100
AcDbLine
 10
963.2248255680663
 20
871.6629623232384
 30
0.0
 11
940.6690512679746
 21
871.6629623232384
 31
0.0
  0
LINE
  5
782B
330
1F
100
AcDbEntity
  8
LOGO
 62
     4
100
AcDbLine
 10
953.4742966434903
 20
890.319460538623
 30
0.0
 11
944.4323006017638
 21
890.319460538623
 31
0.0
  0
LINE
  5
782C
330
1F
100
AcDbEntity
  8
LOGO
 62
     4
100
AcDbLine
 10
953.4742966434903
 20
883.4660530309307
 30
0.0
 11
944.4323006017638
 21
883.4660530309307
 31
0.0
  0
LINE
  5
782D
330
1F
100
AcDbEntity
  8
LOGO
 62
     4
100
AcDbLine
 10
944.4323006017638
 20
890.319460538623
 30
0.0
 11
944.4323006017638
 21
883.4660530309307
 31
0.0
  0
LINE
  5
782E
330
1F
100
AcDbEntity
  8
LOGO
 62
     4
100
AcDbLine
 10
953.4742966434903
 20
890.319460538623
 30
0.0
 11
953.4742966434903
 21
883.4660530309307
 31
0.0
  0
LINE
  5
782F
330
1F
100
AcDbEntity
  8
LOGO
 62
     4
100
AcDbLine
 10
948.953298622627
 20
883.4660530309307
 30
0.0
 11
948.953298622627
 21
880.0393492770849
 31
0.0
  0
TEXT
  5
7830
330
1F
100
AcDbEntity
  8
LOGO
  6
Continuous
 62
     7
100
AcDbText
 10
946.0499194353479
 20
884.8966918284808
 30
0.0
 40
3.998399999999999
  1
A1
  7
CHINESET
100
AcDbText
  0
LINE
  5
7831
330
1F
100
AcDbEntity
  8
LOGO
 62
     4
100
AcDbLine
 10
963.2248255680663
 20
880.0393492770849
 30
0.0
 11
940.6690512679746
 21
880.0393492770849
 31
0.0
  0
TEXT
  5
7832
330
1F
100
AcDbEntity
  8
LOGO
  6
Continuous
100
AcDbText
 10
912.2628428026599
 20
872.8452715792325
 30
149.7203459082809
 40
1.713599999999999
  1
Body width
 41
0.8
  7
CHINESET
100
AcDbText
  0
TEXT
  5
7833
330
1F
100
AcDbEntity
  8
LOGO
100
AcDbText
 10
912.2467000971573
 20
876.0219166720744
 30
149.7203459082809
 40
2.856
  1
本體寬度
  7
CHINESET
100
AcDbText
  0
TEXT
  5
7834
330
1F
100
AcDbEntity
  8
LOGO
  6
Continuous
100
AcDbText
 10
930.0987105966518
 20
872.8452715792325
 30
149.7203459082809
 40
1.713599999999999
  1
4 Way
 41
0.8
  7
CHINESET
100
AcDbText
  0
TEXT
  5
7835
330
1F
100
AcDbEntity
  8
LOGO
100
AcDbText
 10
928.4273300451138
 20
876.0219166720744
 30
149.7203459082809
 40
2.856
  1
4方向
  7
CHINESET
100
AcDbText
  0
TEXT
  5
7836
330
1F
100
AcDbEntity
  8
LOGO
  6
Continuous
100
AcDbText
 10
942.2565120927353
 20
872.8452715792325
 30
149.7203459082809
 40
1.713599999999999
  1
Single air operate
 41
0.8
  7
CHINESET
100
AcDbText
  0
TEXT
  5
7837
330
1F
100
AcDbEntity
  8
LOGO
100
AcDbText
 10
942.8455130321893
 20
876.0219166720744
 30
149.7203459082809
 40
2.856
  1
單動氣壓引導
  7
CHINESET
100
AcDbText
  0
TEXT
  5
7844
330
1F
100
AcDbEntity
  8
LOGO
100
AcDbText
 10
868.344677891743
 20
870.9745665969217
 30
0.0
 40
2.284799999999999
  1
20811193
 41
0.7
  7
CHINESET
 72
     1
 11
873.752037891743
 21
870.9745665969217
 31
0.0
100
AcDbText
  0
LINE
  5
7845
330
1F
100
AcDbEntity
  8
LOGO
 62
     4
100
AcDbLine
 10
880.8426836323119
 20
874.328176354008
 30
0.0
 11
880.8426836323132
 21
869.7592380155464
 31
0.0
  0
LINE
  5
7846
330
1F
100
AcDbEntity
  8
LOGO
 62
     4
100
AcDbLine
 10
880.8426836323119
 20
874.328176354008
 30
0.0
 11
867.133883632313
 21
874.328176354008
 31
0.0
  0
CIRCLE
  5
7847
330
1F
100
AcDbEntity
  8
LOGO
  6
Continuous
100
AcDbCircle
 10
856.134069574492
 20
885.7554086964318
 30
0.0
 40
1.326416569998289
  0
CIRCLE
  5
7848
330
1F
100
AcDbEntity
  8
LOGO
  6
Continuous
100
AcDbCircle
 10
856.134069574492
 20
885.7554086964318
 30
0.0
 40
0.7771626890035782
  0
LINE
  5
7849
330
1F
100
AcDbEntity
  8
LOGO
100
AcDbLine
 10
864.4694252112314
 20
884.4289921264332
 30
0.0
 11
864.4694252112314
 21
887.0818252664305
 31
0.0
  0
LINE
  5
784A
330
1F
100
AcDbEntity
  8
LOGO
100
AcDbLine
 10
860.3111854042312
 20
884.9782460074283
 30
0.0
 11
860.3111854042312
 21
886.5325713854355
 31
0.0
  0
LINE
  5
784B
330
1F
100
AcDbEntity
  8
LOGO
  6
Continuous
100
AcDbLine
 10
860.3111854042312
 20
886.5325713854355
 30
0.0
 11
864.4694252112314
 21
887.0818252664305
 31
0.0
  0
LINE
  5
784C
330
1F
100
AcDbEntity
  8
LOGO
  6
Continuous
100
AcDbLine
 10
860.3111854042312
 20
884.9782460074283
 30
0.0
 11
864.4694252112314
 21
884.4289921264332
 31
0.0
  0
LINE
  5
784D
330
1F
100
AcDbEntity
  8
LOGO
  6
AM_ISO08W050x2
 48
0.3
100
AcDbLine
 10
854.3055844712252
 20
885.7554086964318
 30
0.0
 11
857.9625546777588
 21
885.7554086964318
 31
0.0
1001
GENIUS_GENOREF_13
1005
7864
  0
LINE
  5
784E
330
1F
100
AcDbEntity
  8
LOGO
  6
AM_ISO08W050x2
 48
0.3
100
AcDbLine
 10
856.134069574492
 20
883.926923593165
 30
0.0
 11
856.134069574492
 21
887.5838937996988
 31
0.0
1001
GENIUS_GENOREF_13
1005
7863
  0
LINE
  5
784F
330
1F
100
AcDbEntity
  8
LOGO
  6
CENTER
 48
0.5
100
AcDbLine
 10
859.9786417974058
 20
885.7554086964318
 30
0.0
 11
864.88814649888
 21
885.7554086964318
 31
0.0
1001
GENIUS_GENOREF_13
1005
7862
  0
LINE
  5
7856
330
1F
100
AcDbEntity
  8
LOGO
 62
     4
100
AcDbLine
 10
925.5003300447077
 20
881.7527011540077
 30
0.0
 11
918.1122451712132
 21
881.7527011540077
 31
0.0
  0
LINE
  5
7857
330
1F
100
AcDbEntity
  8
LOGO
 62
     4
100
AcDbLine
 10
918.1122451712132
 20
880.0393492770849
 30
0.0
 11
918.1122451712132
 21
881.7527011540077
 31
0.0
  0
LINE
  5
7858
330
1F
100
AcDbEntity
  8
LOGO
 62
     4
100
AcDbLine
 10
940.6581991237001
 20
881.7527011540077
 30
0.0
 11
932.6288091508695
 21
881.7527011540077
 31
0.0
  0
LINE
  5
7859
330
1F
100
AcDbEntity
  8
LOGO
 62
     4
100
AcDbLine
 10
932.6288091508695
 20
880.0393492770849
 30
0.0
 11
932.6288091508695
 21
881.7527011540077
 31
0.0
  0
POINT
  5
7862
330
1F
100
AcDbEntity
  8
0
 60
     1
100
AcDbPoint
 10
-1610.158351132404
 20
-39.97246613958009
 30
0.0
1001
GENIUS_GENOBJ-N-CRS_13
1002
{
1000
OWNER
1000
GEN
1002
}
1001
GENIUS_GENOLIS_13
1002
{
1000
ENT
1005
0
1005
0
1005
0
1005
784F
1002
}
1001
GENIUS_GENOENT_13
1002
{
1000
MYREF
1005
7862
1002
}
1002
{
1000
GRP
1005
0
1002
}
1001
GENIUS_GENODEF_13
1002
{
1000
HIER
1070
    10
1002
}
1002
{
1000
MANEDIT
1070
     1
1002
}
1002
{
1000
NOSEL
1070
     0
1002
}
1002
{
1000
BEHIND
1070
     0
1002
}
1002
{
1000
OTHER
1070
     0
1002
}
1002
{
1000
REACTOR
1002
}
  0
POINT
  5
7863
330
1F
100
AcDbEntity
  8
0
 60
     1
100
AcDbPoint
 10
-1621.482936355258
 20
-31.09687966094384
 30
0.0
1001
GENIUS_GENOBJ-N-CRS_13
1002
{
1000
OWNER
1000
GEN
1002
}
1001
GENIUS_GENOLIS_13
1002
{
1000
ENT
1005
0
1005
0
1005
0
1005
784E
1002
}
1001
GENIUS_GENOENT_13
1002
{
1000
MYREF
1005
7863
1002
}
1002
{
1000
GRP
1005
0
1002
}
1001
GENIUS_GENODEF_13
1002
{
1000
HIER
1070
    10
1002
}
1002
{
1000
MANEDIT
1070
     1
1002
}
1002
{
1000
NOSEL
1070
     0
1002
}
1002
{
1000
BEHIND
1070
     0
1002
}
1002
{
1000
OTHER
1070
     0
1002
}
1002
{
1000
REACTOR
1002
}
  0
POINT
  5
7864
330
1F
100
AcDbEntity
  8
0
 60
     1
100
AcDbPoint
 10
-1615.124262657421
 20
-39.97246613958009
 30
0.0
1001
GENIUS_GENOBJ-N-CRS_13
1002
{
1000
OWNER
1000
GEN
1002
}
1001
GENIUS_GENOLIS_13
1002
{
1000
ENT
1005
0
1005
0
1005
0
1005
784D
1002
}
1001
GENIUS_GENOENT_13
1002
{
1000
MYREF
1005
7864
1002
}
1002
{
1000
GRP
1005
0
1002
}
1001
GENIUS_GENODEF_13
1002
{
1000
HIER
1070
    10
1002
}
1002
{
1000
MANEDIT
1070
     1
1002
}
1002
{
1000
NOSEL
1070
     0
1002
}
1002
{
1000
BEHIND
1070
     0
1002
}
1002
{
1000
OTHER
1070
     0
1002
}
1002
{
1000
REACTOR
1002
}
  0
LINE
  5
7A3B
330
1F
100
AcDbEntity
  8
AM_VIS
100
AcDbLine
 10
866.5097265582465
 20
1075.350244249443
 30
0.0
 11
866.0891658105828
 21
1076.575210871606
 31
0.0
  0
LINE
  5
7A3C
330
1F
100
AcDbEntity
  8
AM_VIS
100
AcDbLine
 10
865.6485783606497
 20
1075.350244249443
 30
0.0
 11
866.5097265582465
 21
1075.350244249443
 31
0.0
  0
LINE
  5
7A3D
330
1F
100
AcDbEntity
  8
AM_VIS
100
AcDbLine
 10
866.0891658105828
 20
1076.575210871606
 30
0.0
 11
865.6485783606497
 21
1075.350244249443
 31
0.0
  0
LINE
  5
7A3E
330
1F
100
AcDbEntity
  8
AM_VIS
100
AcDbLine
 10
867.2540523259367
 20
1074.422340377614
 30
0.0
 11
866.462997586284
 21
1074.422340377614
 31
0.0
  0
LINE
  5
7A3F
330
1F
100
AcDbEntity
  8
AM_VIS
100
AcDbLine
 10
867.2540523259367
 20
1074.489096051846
 30
0.0
 11
867.2540523259367
 21
1074.422340377614
 31
0.0
  0
SPLINE
  5
7A40
330
1F
100
AcDbEntity
  8
AM_VIS
100
AcDbSpline
210
0.0
220
0.0
230
1.0
 70
     8
 71
     3
 72
     8
 73
     4
 74
     0
 42
0.0000000001
 43
0.0000000001
 40
0.0
 40
0.0
 40
0.0
 40
0.0
 40
80.0
 40
80.0
 40
80.0
 40
80.0
 10
867.0804875729327
 20
1074.545838374943
 30
0.0
 10
867.1138654100488
 20
1074.519136105251
 30
0.0
 10
867.17172031074
 20
1074.500222031505
 30
0.0
 10
867.2540523259367
 20
1074.489096051846
 30
0.0
  0
SPLINE
  5
7A41
330
1F
100
AcDbEntity
  8
AM_VIS
100
AcDbSpline
210
0.0
220
0.0
230
1.0
 70
     8
 71
     3
 72
     8
 73
     4
 74
     0
 42
0.0000000001
 43
0.0000000001
 40
0.0
 40
0.0
 40
0.0
 40
0.0
 40
80.0
 40
80.0
 40
80.0
 40
80.0
 10
866.9202739547753
 20
1074.816198855584
 30
0.0
 10
866.9692280819251
 20
1074.68268750712
 30
0.0
 10
867.0226326213109
 20
1074.592567346906
 30
0.0
 10
867.0804875729327
 20
1074.545838374943
 30
0.0
  0
LINE
  5
7A42
330
1F
100
AcDbEntity
  8
AM_VIS
100
AcDbLine
 10
866.1292192151224
 20
1076.922340377614
 30
0.0
 11
866.9202739547753
 21
1074.816198855584
 31
0.0
  0
LINE
  5
7A43
330
1F
100
AcDbEntity
  8
AM_VIS
100
AcDbLine
 10
866.115868080276
 20
1076.922340377614
 30
0.0
 11
866.1292192151224
 21
1076.922340377614
 31
0.0
  0
LINE
  5
7A44
330
1F
100
AcDbEntity
  8
AM_VIS
100
AcDbLine
 10
865.4416357705295
 20
1075.089897119937
 30
0.0
 11
866.115868080276
 21
1076.922340377614
 31
0.0
  0
SPLINE
  5
7A45
330
1F
100
AcDbEntity
  8
AM_VIS
100
AcDbSpline
210
0.0
220
0.0
230
1.0
 70
     8
 71
     3
 72
     8
 73
     4
 74
     0
 42
0.0000000001
 43
0.0000000001
 40
0.0
 40
0.0
 40
0.0
 40
0.0
 40
80.0
 40
80.0
 40
80.0
 40
80.0
 10
865.1979775595817
 20
1074.562527293501
 30
0.0
 10
865.2602828215782
 20
1074.64263405165
 30
0.0
 10
865.3415022591811
 20
1074.818424010772
 30
0.0
 10
865.4416357705295
 20
1075.089897119937
 30
0.0
  0
SPLINE
  5
7A46
330
1F
100
AcDbEntity
  8
AM_VIS
100
AcDbSpline
210
0.0
220
0.0
230
1.0
 70
     8
 71
     3
 72
     8
 73
     4
 74
     0
 42
0.0000000001
 43
0.0000000001
 40
0.0
 40
0.0
 40
0.0
 40
0.0
 40
80.0
 40
80.0
 40
80.0
 40
80.0
 10
865.1212085342145
 20
1074.505784970404
 30
0.0
 10
865.147910752977
 20
1074.512460537827
 30
0.0
 10
865.1735004450761
 20
1074.531374662504
 30
0.0
 10
865.1979775595817
 20
1074.562527293501
 30
0.0
  0
LINE
  5
7A47
330
1F
100
AcDbEntity
  8
AM_VIS
100
AcDbLine
 10
865.0345302582946
 20
1074.488555037363
 30
0.0
 11
865.1213108687935
 21
1074.505253133903
 31
0.0
  0
LINE
  5
7A48
330
1F
100
AcDbEntity
  8
AM_VIS
100
AcDbLine
 10
865.0344261577124
 20
1074.422340377614
 30
0.0
 11
865.0344261577124
 21
1074.489096051846
 31
0.0
  0
LINE
  5
7A49
330
1F
100
AcDbEntity
  8
AM_VIS
100
AcDbLine
 10
865.645240576938
 20
1074.422340377614
 30
0.0
 11
865.0344261577124
 21
1074.422340377614
 31
0.0
  0
LINE
  5
7A4A
330
1F
100
AcDbEntity
  8
AM_VIS
100
AcDbLine
 10
865.645240576938
 20
1074.489096051846
 30
0.0
 11
865.645240576938
 21
1074.422340377614
 31
0.0
  0
SPLINE
  5
7A4B
330
1F
100
AcDbEntity
  8
AM_VIS
100
AcDbSpline
210
0.0
220
0.0
230
1.0
 70
     8
 71
     3
 72
     8
 73
     4
 74
     0
 42
0.0000000001
 43
0.0000000001
 40
0.0
 40
0.0
 40
0.0
 40
0.0
 40
80.0
 40
80.0
 40
80.0
 40
80.0
 10
865.5050536610504
 20
1074.515798321539
 30
0.0
 10
865.5295307246253
 20
1074.502447186692
 30
0.0
 10
865.5762596965878
 20
1074.493546464082
 30
0.0
 10
865.645240576938
 20
1074.489096051846
 30
0.0
  0
SPLINE
  5
7A4C
330
1F
100
AcDbEntity
  8
AM_VIS
100
AcDbSpline
210
0.0
220
0.0
230
1.0
 70
     8
 71
     3
 72
     8
 73
     4
 74
     0
 42
0.0000000001
 43
0.0000000001
 40
0.0
 40
0.0
 40
0.0
 40
0.0
 40
80.0
 40
80.0
 40
80.0
 40
80.0
 10
865.4249468519715
 20
1074.655985237427
 30
0.0
 10
865.4249468519715
 20
1074.584779201889
 30
0.0
 10
865.4516491216643
 20
1074.538050229927
 30
0.0
 10
865.5050536610504
 20
1074.515798321539
 30
0.0
  0
SPLINE
  5
7A4D
330
1F
100
AcDbEntity
  8
AM_VIS
100
AcDbSpline
210
0.0
220
0.0
230
1.0
 70
     8
 71
     3
 72
     8
 73
     4
 74
     0
 42
0.0000000001
 43
0.0000000001
 40
0.0
 40
0.0
 40
0.0
 40
0.0
 40
80.0
 40
80.0
 40
80.0
 40
80.0
 10
865.4516491216643
 20
1074.802847720738
 30
0.0
 10
865.4338475745822
 20
1074.758343903963
 30
0.0
 10
865.4249468519715
 20
1074.709389776813
 30
0.0
 10
865.4249468519715
 20
1074.655985237427
 30
0.0
  0
LINE
  5
7A4E
330
1F
100
AcDbEntity
  8
AM_VIS
100
AcDbLine
 10
865.6185383072452
 20
1075.226746252113
 30
0.0
 11
865.4516491216643
 21
1074.802847720738
 31
0.0
  0
LINE
  5
7A4F
330
1F
100
AcDbEntity
  8
AM_VIS
100
AcDbLine
 10
866.5531177464975
 20
1075.226746252113
 30
0.0
 11
865.6185383072452
 21
1075.226746252113
 31
0.0
  0
LINE
  5
7A50
330
1F
100
AcDbEntity
  8
AM_VIS
100
AcDbLine
 10
866.6732779601156
 20
1074.896305664663
 30
0.0
 11
866.5531177464975
 21
1075.226746252113
 31
0.0
  0
SPLINE
  5
7A51
330
1F
100
AcDbEntity
  8
AM_VIS
100
AcDbSpline
210
0.0
220
0.0
230
1.0
 70
     8
 71
     3
 72
     8
 73
     4
 74
     0
 42
0.0000000001
 43
0.0000000001
 40
0.0
 40
0.0
 40
0.0
 40
0.0
 40
80.0
 40
80.0
 40
80.0
 40
80.0
 10
866.7300202832132
 20
1074.655985237427
 30
0.0
 10
866.7300202832132
 20
1074.711614932
 30
0.0
 10
866.7111061585371
 20
1074.791721741079
 30
0.0
 10
866.6732779601156
 20
1074.896305664663
 30
0.0
  0
SPLINE
  5
7A52
330
1F
100
AcDbEntity
  8
AM_VIS
100
AcDbSpline
210
0.0
220
0.0
230
1.0
 70
     8
 71
     3
 72
     8
 73
     4
 74
     0
 42
0.0000000001
 43
0.0000000001
 40
0.0
 40
0.0
 40
0.0
 40
0.0
 40
80.0
 40
80.0
 40
80.0
 40
80.0
 10
866.6465756904228
 20
1074.515798321539
 30
0.0
 10
866.702205384996
 20
1074.540275436045
 30
0.0
 10
866.7300202832132
 20
1074.587004408007
 30
0.0
 10
866.7300202832132
 20
1074.655985237427
 30
0.0
  0
SPLINE
  5
7A53
330
1F
100
AcDbEntity
  8
AM_VIS
100
AcDbSpline
210
0.0
220
0.0
230
1.0
 70
     8
 71
     3
 72
     8
 73
     4
 74
     0
 42
0.0000000001
 43
0.0000000001
 40
0.0
 40
0.0
 40
0.0
 40
0.0
 40
80.0
 40
80.0
 40
80.0
 40
80.0
 10
866.462997586284
 20
1074.489096051846
 30
0.0
 10
866.5497799627857
 20
1074.493546464082
 30
0.0
 10
866.6109726471885
 20
1074.502447186692
 30
0.0
 10
866.6465756904228
 20
1074.515798321539
 30
0.0
  0
LINE
  5
7A54
330
1F
100
AcDbEntity
  8
AM_VIS
100
AcDbLine
 10
866.462997586284
 20
1074.422340377614
 30
0.0
 11
866.462997586284
 21
1074.489096051846
 31
0.0
  0
SPLINE
  5
7A55
330
1F
100
AcDbEntity
  8
AM_VIS
100
AcDbSpline
210
0.0
220
0.0
230
1.0
 70
     8
 71
     3
 72
     8
 73
     4
 74
     0
 42
0.0000000001
 43
0.0000000001
 40
0.0
 40
0.0
 40
0.0
 40
0.0
 40
80.0
 40
80.0
 40
80.0
 40
80.0
 10
903.4656012389902
 20
1096.149786029787
 30
0.0
 10
903.4656012908204
 20
1095.884840429444
 30
0.0
 10
903.6082643342986
 20
1095.703680974601
 30
0.0
 10
903.893590369425
 20
1095.606307768918
 30
0.0
  0
SPLINE
  5
7A56
330
1F
100
AcDbEntity
  8
AM_VIS
100
AcDbSpline
210
0.0
220
0.0
230
1.0
 70
     8
 71
     3
 72
     8
 73
     4
 74
     0
 42
0.0000000001
 43
0.0000000001
 40
0.0
 40
0.0
 40
0.0
 40
0.0
 40
80.0
 40
80.0
 40
80.0
 40
80.0
 10
904.1891066737727
 20
1096.71024798631
 30
0.0
 10
903.7067697690812
 20
1096.710247934479
 30
0.0
 10
903.4656012908204
 20
1096.523427334135
 30
0.0
 10
903.4656012389902
 20
1096.149786029787
 30
0.0
  0
SPLINE
  5
7A57
330
1F
100
AcDbEntity
  8
AM_VIS
100
AcDbSpline
210
0.0
220
0.0
230
1.0
 70
     8
 71
     3
 72
     8
 73
     4
 74
     0
 42
0.0000000001
 43
0.0000000001
 40
0.0
 40
0.0
 40
0.0
 40
0.0
 40
80.0
 40
80.0
 40
80.0
 40
80.0
 10
904.4031012389902
 20
1096.689867551527
 30
0.0
 10
904.3600759112248
 20
1096.703454456219
 30
0.0
 10
904.2887443894855
 20
1096.710247934479
 30
0.0
 10
904.1891066737727
 20
1096.71024798631
 30
0.0
  0
SPLINE
  5
7A58
330
1F
100
AcDbEntity
  8
AM_VIS
100
AcDbSpline
210
0.0
220
0.0
230
1.0
 70
     8
 71
     3
 72
     8
 73
     4
 74
     0
 42
0.0000000001
 43
0.0000000001
 40
0.0
 40
0.0
 40
0.0
 40
0.0
 40
80.0
 40
80.0
 40
80.0
 40
80.0
 10
904.511796891164
 20
1096.530220812396
 30
0.0
 10
904.5117969429943
 20
1096.609478093327
 30
0.0
 10
904.4755650416595
 20
1096.662693638483
 30
0.0
 10
904.4031012389902
 20
1096.689867551527
 30
0.0
  0
LINE
  5
7A59
330
1F
100
AcDbEntity
  8
AM_VIS
100
AcDbLine
 10
904.511796891164
 20
1095.551959942831
 30
0.0
 11
904.511796891164
 21
1096.530220812396
 31
0.0
  0
SPLINE
  5
7A5A
330
1F
100
AcDbEntity
  8
AM_VIS
100
AcDbSpline
210
0.0
220
0.0
230
1.0
 70
     8
 71
     3
 72
     8
 73
     4
 74
     0
 42
0.0000000001
 43
0.0000000001
 40
0.0
 40
0.0
 40
0.0
 40
0.0
 40
80.0
 40
80.0
 40
80.0
 40
80.0
 10
903.893590369425
 20
1095.606307768918
 30
0.0
 10
904.0000215633986
 20
1095.570075919414
 30
0.0
 10
904.2060903694251
 20
1095.551959942831
 30
0.0
 10
904.511796891164
 20
1095.551959942831
 30
0.0
  0
SPLINE
  5
7A5B
330
1F
100
AcDbEntity
  8
AM_VIS
100
AcDbSpline
210
0.0
220
0.0
230
1.0
 70
     8
 71
     3
 72
     8
 73
     4
 74
     0
 42
0.0000000001
 43
0.0000000001
 40
0.0
 40
0.0
 40
0.0
 40
0.0
 40
80.0
 40
80.0
 40
80.0
 40
80.0
 10
903.5335360215988
 20
1094.974514290657
 30
0.0
 10
903.5335360215988
 20
1094.614459942831
 30
0.0
 10
903.7781012389903
 20
1094.434432768918
 30
0.0
 10
904.2672316737728
 20
1094.434432768918
 30
0.0
  0
SPLINE
  5
7A5C
330
1F
100
AcDbEntity
  8
AM_VIS
100
AcDbSpline
210
0.0
220
0.0
230
1.0
 70
     8
 71
     3
 72
     8
 73
     4
 74
     0
 42
0.0000000001
 43
0.0000000001
 40
0.0
 40
0.0
 40
0.0
 40
0.0
 40
80.0
 40
80.0
 40
80.0
 40
80.0
 10
903.7916881955121
 20
1095.371932768918
 30
0.0
 10
903.6195867807901
 20
1095.30852700637
 30
0.0
 10
903.5335360215988
 20
1095.176054180283
 30
0.0
 10
903.5335360215988
 20
1094.974514290657
 30
0.0
  0
SPLINE
  5
7A5D
330
1F
100
AcDbEntity
  8
AM_VIS
100
AcDbSpline
210
0.0
220
0.0
230
1.0
 70
     8
 71
     3
 72
     8
 73
     4
 74
     0
 42
0.0000000001
 43
0.0000000001
 40
0.0
 40
0.0
 40
0.0
 40
0.0
 40
80.0
 40
80.0
 40
80.0
 40
80.0
 10
904.127965369425
 20
1095.409296899353
 30
0.0
 10
903.9739798794553
 20
1095.407032441153
 30
0.0
 10
903.861887488151
 20
1095.394577713731
 30
0.0
 10
903.7916881955121
 20
1095.371932768918
 30
0.0
  0
LINE
  5
7A5E
330
1F
100
AcDbEntity
  8
AM_VIS
100
AcDbLine
 10
904.511796891164
 20
1095.412693638483
 30
0.0
 11
904.127965369425
 21
1095.409296899353
 31
0.0
  0
LINE
  5
7A5F
330
1F
100
AcDbEntity
  8
AM_VIS
100
AcDbLine
 10
904.511796891164
 20
1094.532938203701
 30
0.0
 11
904.511796891164
 21
1095.412693638483
 31
0.0
  0
SPLINE
  5
7A60
330
1F
100
AcDbEntity
  8
AM_VIS
100
AcDbSpline
210
0.0
220
0.0
230
1.0
 70
     8
 71
     3
 72
     8
 73
     4
 74
     0
 42
0.0000000001
 43
0.0000000001
 40
0.0
 40
0.0
 40
0.0
 40
0.0
 40
80.0
 40
80.0
 40
80.0
 40
80.0
 10
904.4982099346423
 20
1094.461606681962
 30
0.0
 10
904.5072679229335
 20
1094.472929180283
 30
0.0
 10
904.5117969429943
 20
1094.496706354196
 30
0.0
 10
904.511796891164
 20
1094.532938203701
 30
0.0
  0
SPLINE
  5
7A61
330
1F
100
AcDbEntity
  8
AM_VIS
100
AcDbSpline
210
0.0
220
0.0
230
1.0
 70
     8
 71
     3
 72
     8
 73
     4
 74
     0
 42
0.0000000001
 43
0.0000000001
 40
0.0
 40
0.0
 40
0.0
 40
0.0
 40
80.0
 40
80.0
 40
80.0
 40
80.0
 10
904.4234816737727
 20
1094.437829508049
 30
0.0
 10
904.464242543338
 20
1094.442358528109
 30
0.0
 10
904.4891519981813
 20
1094.45028423547
 30
0.0
 10
904.4982099346423
 20
1094.461606681962
 30
0.0
  0
SPLINE
  5
7A62
330
1F
100
AcDbEntity
  8
AM_VIS
100
AcDbSpline
210
0.0
220
0.0
230
1.0
 70
     8
 71
     3
 72
     8
 73
     4
 74
     0
 42
0.0000000001
 43
0.0000000001
 40
0.0
 40
0.0
 40
0.0
 40
0.0
 40
80.0
 40
80.0
 40
80.0
 40
80.0
 10
904.2672316737728
 20
1094.434432768918
 30
0.0
 10
904.3623404212551
 20
1094.434432768918
 30
0.0
 10
904.4144237373117
 20
1094.435565049848
 30
0.0
 10
904.4234816737727
 20
1094.437829508049
 30
0.0
  0
SPLINE
  5
7A63
330
1F
100
AcDbEntity
  8
AM_VIS
100
AcDbSpline
210
0.0
220
0.0
230
1.0
 70
     8
 71
     3
 72
     8
 73
     4
 74
     0
 42
0.0000000001
 43
0.0000000001
 40
0.0
 40
0.0
 40
0.0
 40
0.0
 40
80.0
 40
80.0
 40
80.0
 40
80.0
 10
903.2040523259468
 20
1096.16337298631
 30
0.0
 10
903.2040523259468
 20
1096.308300539818
 30
0.0
 10
903.2448131955121
 20
1096.436244397674
 30
0.0
 10
903.3263349346423
 20
1096.547204508048
 30
0.0
  0
SPLINE
  5
7A64
330
1F
100
AcDbEntity
  8
AM_VIS
100
AcDbSpline
210
0.0
220
0.0
230
1.0
 70
     8
 71
     3
 72
     8
 73
     4
 74
     0
 42
0.0000000001
 43
0.0000000001
 40
0.0
 40
0.0
 40
0.0
 40
0.0
 40
80.0
 40
80.0
 40
80.0
 40
80.0
 10
903.7475305868163
 20
1095.517992551527
 30
0.0
 10
903.3852117807901
 20
1095.604043310718
 30
0.0
 10
903.2040523259468
 20
1095.819170105035
 30
0.0
 10
903.2040523259468
 20
1096.16337298631
 30
0.0
  0
LINE
  5
7A65
330
1F
100
AcDbEntity
  8
AM_VIS
100
AcDbLine
 10
903.8052751520337
 20
1095.504405595005
 30
0.0
 11
903.7475305868163
 21
1095.517992551527
 31
0.0
  0
SPLINE
  5
7A66
330
1F
100
AcDbEntity
  8
AM_VIS
100
AcDbSpline
210
0.0
220
0.0
230
1.0
 70
     8
 71
     3
 72
     8
 73
     4
 74
     0
 42
0.0000000001
 43
0.0000000001
 40
0.0
 40
0.0
 40
0.0
 40
0.0
 40
80.0
 40
80.0
 40
80.0
 40
80.0
 10
903.3127479781205
 20
1094.947340377614
 30
0.0
 10
903.3127479781205
 20
1095.22813749634
 30
0.0
 10
903.4769237373119
 20
1095.413825919413
 30
0.0
 10
903.8052751520337
 20
1095.504405595005
 30
0.0
  0
SPLINE
  5
7A67
330
1F
100
AcDbEntity
  8
AM_VIS
100
AcDbSpline
210
0.0
220
0.0
230
1.0
 70
     8
 71
     3
 72
     8
 73
     4
 74
     0
 42
0.0000000001
 43
0.0000000001
 40
0.0
 40
0.0
 40
0.0
 40
0.0
 40
80.0
 40
80.0
 40
80.0
 40
80.0
 10
904.1721229781206
 20
1094.322340377614
 30
0.0
 10
903.5992063460072
 20
1094.322340377614
 30
0.0
 10
903.3127479781205
 20
1094.5306737455
 30
0.0
 10
903.3127479781205
 20
1094.947340377614
 30
0.0
  0
LINE
  5
7A68
330
1F
100
AcDbEntity
  8
AM_VIS
100
AcDbLine
 10
905.0858458042075
 20
1094.322340377614
 30
0.0
 11
904.1721229781206
 21
1094.322340377614
 31
0.0
  0
LINE
  5
7A69
330
1F
100
AcDbEntity
  8
AM_VIS
100
AcDbLine
 10
905.0858458042075
 20
1094.390275160223
 30
0.0
 11
905.0858458042075
 21
1094.322340377614
 31
0.0
  0
SPLINE
  5
7A6A
330
1F
100
AcDbEntity
  8
AM_VIS
100
AcDbSpline
210
0.0
220
0.0
230
1.0
 70
     8
 71
     3
 72
     8
 73
     4
 74
     0
 42
0.0000000001
 43
0.0000000001
 40
0.0
 40
0.0
 40
0.0
 40
0.0
 40
80.0
 40
80.0
 40
80.0
 40
80.0
 10
904.8005197172511
 20
1094.45141646457
 30
0.0
 10
904.8435450968465
 20
1094.419713583296
 30
0.0
 10
904.9386537924988
 20
1094.399333148514
 30
0.0
 10
905.0858458042075
 20
1094.390275160223
 30
0.0
  0
SPLINE
  5
7A6B
330
1F
100
AcDbEntity
  8
AM_VIS
100
AcDbSpline
210
0.0
220
0.0
230
1.0
 70
     8
 71
     3
 72
     8
 73
     4
 74
     0
 42
0.0000000001
 43
0.0000000001
 40
0.0
 40
0.0
 40
0.0
 40
0.0
 40
80.0
 40
80.0
 40
80.0
 40
80.0
 10
904.7223947172509
 20
1094.716362116744
 30
0.0
 10
904.7223947172509
 20
1094.580492551527
 30
0.0
 10
904.7484364011946
 20
1094.492177334136
 30
0.0
 10
904.8005197172511
 20
1094.45141646457
 30
0.0
  0
LINE
  5
7A6C
330
1F
100
AcDbEntity
  8
AM_VIS
100
AcDbLine
 10
904.7223947172509
 20
1096.373970812396
 30
0.0
 11
904.7223947172509
 21
1094.716362116744
 31
0.0
  0
SPLINE
  5
7A6D
330
1F
100
AcDbEntity
  8
AM_VIS
100
AcDbSpline
210
0.0
220
0.0
230
1.0
 70
     8
 71
     3
 72
     8
 73
     4
 74
     0
 42
0.0000000001
 43
0.0000000001
 40
0.0
 40
0.0
 40
0.0
 40
0.0
 40
80.0
 40
80.0
 40
80.0
 40
80.0
 10
904.7971229781206
 20
1096.662693638483
 30
0.0
 10
904.7473041720943
 20
1096.610610322427
 30
0.0
 10
904.7223947172509
 20
1096.514369397674
 30
0.0
 10
904.7223947172509
 20
1096.373970812396
 30
0.0
  0
SPLINE
  5
7A6E
330
1F
100
AcDbEntity
  8
AM_VIS
100
AcDbSpline
210
0.0
220
0.0
230
1.0
 70
     8
 71
     3
 72
     8
 73
     4
 74
     0
 42
0.0000000001
 43
0.0000000001
 40
0.0
 40
0.0
 40
0.0
 40
0.0
 40
80.0
 40
80.0
 40
80.0
 40
80.0
 10
905.0858458042075
 20
1096.754405595005
 30
0.0
 10
904.9454472707596
 20
1096.745347606714
 30
0.0
 10
904.8492063460074
 20
1096.71477695454
 30
0.0
 10
904.7971229781206
 20
1096.662693638483
 30
0.0
  0
LINE
  5
7A6F
330
1F
100
AcDbEntity
  8
AM_VIS
100
AcDbLine
 10
905.0858458042075
 20
1096.822340377614
 30
0.0
 11
905.0858458042075
 21
1096.754405595005
 31
0.0
  0
LINE
  5
7A70
330
1F
100
AcDbEntity
  8
AM_VIS
100
AcDbLine
 10
903.9886990650771
 20
1096.822340377614
 30
0.0
 11
905.0858458042075
 21
1096.822340377614
 31
0.0
  0
SPLINE
  5
7A71
330
1F
100
AcDbEntity
  8
AM_VIS
100
AcDbSpline
210
0.0
220
0.0
230
1.0
 70
     8
 71
     3
 72
     8
 73
     4
 74
     0
 42
0.0000000001
 43
0.0000000001
 40
0.0
 40
0.0
 40
0.0
 40
0.0
 40
80.0
 40
80.0
 40
80.0
 40
80.0
 10
903.3263349346423
 20
1096.547204508048
 30
0.0
 10
903.4599400416595
 20
1096.730628421092
 30
0.0
 10
903.6807280851379
 20
1096.822340377614
 30
0.0
 10
903.9886990650771
 20
1096.822340377614
 30
0.0
  0
LINE
  5
7A72
330
1F
100
AcDbEntity
  8
AM_HID
100
AcDbLine
 10
904.0242853485583
 20
1096.822340377614
 30
0.0
 11
904.0242853485583
 21
1096.805695903579
 31
0.0
  0
SPLINE
  5
7A73
330
1F
100
AcDbEntity
  8
AM_VIS
100
AcDbSpline
210
0.0
220
0.0
230
1.0
 70
     8
 71
     3
 72
     8
 73
     4
 74
     0
 42
0.0000000001
 43
0.0000000001
 40
0.0
 40
0.0
 40
0.0
 40
0.0
 40
80.0
 40
80.0
 40
80.0
 40
80.0
 10
880.626782825727
 20
940.6376541776729
 30
0.0
 10
880.6267827738968
 20
941.013559940221
 30
0.0
 10
880.3652338608532
 20
941.2015128733251
 30
0.0
 10
879.8421360865965
 20
941.2015128733251
 30
0.0
  0
SPLINE
  5
7A74
330
1F
100
AcDbEntity
  8
AM_VIS
100
AcDbSpline
210
0.0
220
0.0
230
1.0
 70
     8
 71
     3
 72
     8
 73
     4
 74
     0
 42
0.0000000001
 43
0.0000000001
 40
0.0
 40
0.0
 40
0.0
 40
0.0
 40
80.0
 40
80.0
 40
80.0
 40
80.0
 10
879.9508317387703
 20
940.0432248298468
 30
0.0
 10
880.401465762188
 20
940.0432248298468
 30
0.0
 10
880.6267827738968
 20
940.2413679285121
 30
0.0
 10
880.626782825727
 20
940.6376541776729
 30
0.0
  0
SPLINE
  5
7A75
330
1F
100
AcDbEntity
  8
AM_VIS
100
AcDbSpline
210
0.0
220
0.0
230
1.0
 70
     8
 71
     3
 72
     8
 73
     4
 74
     0
 42
0.0000000001
 43
0.0000000001
 40
0.0
 40
0.0
 40
0.0
 40
0.0
 40
80.0
 40
80.0
 40
80.0
 40
80.0
 10
879.6824893474662
 20
940.0568117863686
 30
0.0
 10
879.7572175565056
 20
940.0477537980775
 30
0.0
 10
879.846665054827
 20
940.0432248298468
 30
0.0
 10
879.9508317387703
 20
940.0432248298468
 30
0.0
  0
LINE
  5
7A76
330
1F
100
AcDbEntity
  8
AM_VIS
100
AcDbLine
 10
879.6824893474662
 20
941.0452628733251
 30
0.0
 11
879.6824893474662
 21
940.0568117863686
 31
0.0
  0
SPLINE
  5
7A77
330
1F
100
AcDbEntity
  8
AM_VIS
100
AcDbSpline
210
0.0
220
0.0
230
1.0
 70
     8
 71
     3
 72
     8
 73
     4
 74
     0
 42
0.0000000001
 43
0.0000000001
 40
0.0
 40
0.0
 40
0.0
 40
0.0
 40
80.0
 40
80.0
 40
80.0
 40
80.0
 10
879.7164567387703
 20
941.1811324385425
 30
0.0
 10
879.6938117939575
 20
941.1584874937295
 30
0.0
 10
879.6824893474662
 20
941.1131976559339
 30
0.0
 10
879.6824893474662
 20
941.0452628733251
 30
0.0
  0
SPLINE
  5
7A78
330
1F
100
AcDbEntity
  8
AM_VIS
100
AcDbSpline
210
0.0
220
0.0
230
1.0
 70
     8
 71
     3
 72
     8
 73
     4
 74
     0
 42
0.0000000001
 43
0.0000000001
 40
0.0
 40
0.0
 40
0.0
 40
0.0
 40
80.0
 40
80.0
 40
80.0
 40
80.0
 10
879.8421360865965
 20
941.2015128733251
 30
0.0
 10
879.7764657621881
 20
941.2015128733251
 30
0.0
 10
879.7345726635228
 20
941.1947193950641
 30
0.0
 10
879.7164567387703
 20
941.1811324385425
 30
0.0
  0
SPLINE
  5
7A79
330
1F
100
AcDbEntity
  8
AM_VIS
100
AcDbSpline
210
0.0
220
0.0
230
1.0
 70
     8
 71
     3
 72
     8
 73
     4
 74
     0
 42
0.0000000001
 43
0.0000000001
 40
0.0
 40
0.0
 40
0.0
 40
0.0
 40
80.0
 40
80.0
 40
80.0
 40
80.0
 10
880.8645545648573
 20
940.6444476559338
 30
0.0
 10
880.8645545648573
 20
940.4429077663079
 30
0.0
 10
880.8011487504794
 20
940.2764675489166
 30
0.0
 10
880.6743371735532
 20
940.1451270037599
 30
0.0
  0
SPLINE
  5
7A7A
330
1F
100
AcDbEntity
  8
AM_VIS
100
AcDbSpline
210
0.0
220
0.0
230
1.0
 70
     8
 71
     3
 72
     8
 73
     4
 74
     0
 42
0.0000000001
 43
0.0000000001
 40
0.0
 40
0.0
 40
0.0
 40
0.0
 40
80.0
 40
80.0
 40
80.0
 40
80.0
 10
880.6064023909444
 20
941.16075200376
 30
0.0
 10
880.7785038056662
 20
941.0407338532644
 30
0.0
 10
880.8645545648573
 20
940.8686324385424
 30
0.0
 10
880.8645545648573
 20
940.6444476559338
 30
0.0
  0
SPLINE
  5
7A7B
330
1F
100
AcDbEntity
  8
AM_VIS
100
AcDbSpline
210
0.0
220
0.0
230
1.0
 70
     8
 71
     3
 72
     8
 73
     4
 74
     0
 42
0.0000000001
 43
0.0000000001
 40
0.0
 40
0.0
 40
0.0
 40
0.0
 40
80.0
 40
80.0
 40
80.0
 40
80.0
 10
880.0085763039879
 20
941.3170020037599
 30
0.0
 10
880.2554059795793
 20
941.3170020037599
 30
0.0
 10
880.4546813591748
 20
941.2649186358732
 30
0.0
 10
880.6064023909444
 20
941.16075200376
 30
0.0
  0
LINE
  5
7A7C
330
1F
100
AcDbEntity
  8
AM_VIS
100
AcDbLine
 10
879.1458045648573
 20
941.3170020037599
 30
0.0
 11
880.0085763039879
 21
941.3170020037599
 31
0.0
  0
LINE
  5
7A7D
330
1F
100
AcDbEntity
  8
AM_VIS
100
AcDbLine
 10
879.1458045648573
 20
941.2490672211513
 30
0.0
 11
879.1458045648573
 21
941.3170020037599
 31
0.0
  0
SPLINE
  5
7A7E
330
1F
100
AcDbEntity
  8
AM_VIS
100
AcDbSpline
210
0.0
220
0.0
230
1.0
 70
     8
 71
     3
 72
     8
 73
     4
 74
     0
 42
0.0000000001
 43
0.0000000001
 40
0.0
 40
0.0
 40
0.0
 40
0.0
 40
80.0
 40
80.0
 40
80.0
 40
80.0
 10
879.4039567387704
 20
941.1641487428903
 30
0.0
 10
879.3631958692053
 20
941.2049096124556
 30
0.0
 10
879.277145110014
 20
941.2332157545991
 30
0.0
 10
879.1458045648573
 20
941.2490672211513
 30
0.0
  0
SPLINE
  5
7A7F
330
1F
100
AcDbEntity
  8
AM_VIS
100
AcDbSpline
210
0.0
220
0.0
230
1.0
 70
     8
 71
     3
 72
     8
 73
     4
 74
     0
 42
0.0000000001
 43
0.0000000001
 40
0.0
 40
0.0
 40
0.0
 40
0.0
 40
80.0
 40
80.0
 40
80.0
 40
80.0
 10
879.4684947822487
 20
940.8958063515859
 30
0.0
 10
879.4684947822487
 20
941.0316759168033
 30
0.0
 10
879.4469820665359
 20
941.1211233632949
 30
0.0
 10
879.4039567387704
 20
941.1641487428903
 30
0.0
  0
LINE
  5
7A80
330
1F
100
AcDbEntity
  8
AM_VIS
100
AcDbLine
 10
879.4684947822487
 20
939.3095291776729
 30
0.0
 11
879.4684947822487
 21
940.8958063515859
 31
0.0
  0
SPLINE
  5
7A81
330
1F
100
AcDbEntity
  8
AM_VIS
100
AcDbSpline
210
0.0
220
0.0
230
1.0
 70
     8
 71
     3
 72
     8
 73
     4
 74
     0
 42
0.0000000001
 43
0.0000000001
 40
0.0
 40
0.0
 40
0.0
 40
0.0
 40
80.0
 40
80.0
 40
80.0
 40
80.0
 10
879.4107502170314
 20
939.0004259168033
 30
0.0
 10
879.4492465765664
 20
939.0547737428903
 30
0.0
 10
879.4684947822487
 20
939.1578081459034
 30
0.0
 10
879.4684947822487
 20
939.3095291776729
 30
0.0
  0
SPLINE
  5
7A82
330
1F
100
AcDbEntity
  8
AM_VIS
100
AcDbSpline
210
0.0
220
0.0
230
1.0
 70
     8
 71
     3
 72
     8
 73
     4
 74
     0
 42
0.0000000001
 43
0.0000000001
 40
0.0
 40
0.0
 40
0.0
 40
0.0
 40
80.0
 40
80.0
 40
80.0
 40
80.0
 10
879.1458045648573
 20
938.8849367863686
 30
0.0
 10
879.2794096200445
 20
938.8985237428903
 30
0.0
 10
879.3677248374358
 20
938.9370201542554
 30
0.0
 10
879.4107502170314
 20
939.0004259168033
 30
0.0
  0
LINE
  5
7A83
330
1F
100
AcDbEntity
  8
AM_VIS
100
AcDbLine
 10
879.1458045648573
 20
938.81700200376
 30
0.0
 11
879.1458045648573
 21
938.8849367863686
 31
0.0
  0
LINE
  5
7A84
330
1F
100
AcDbEntity
  8
AM_VIS
100
AcDbLine
 10
880.0391469561619
 20
938.81700200376
 30
0.0
 11
879.1458045648573
 21
938.81700200376
 31
0.0
  0
LINE
  5
7A85
330
1F
100
AcDbEntity
  8
AM_VIS
100
AcDbLine
 10
880.0391469561619
 20
938.8849367863686
 30
0.0
 11
880.0391469561619
 21
938.81700200376
 31
0.0
  0
SPLINE
  5
7A86
330
1F
100
AcDbEntity
  8
AM_VIS
100
AcDbSpline
210
0.0
220
0.0
230
1.0
 70
     8
 71
     3
 72
     8
 73
     4
 74
     0
 42
0.0000000001
 43
0.0000000001
 40
0.0
 40
0.0
 40
0.0
 40
0.0
 40
80.0
 40
80.0
 40
80.0
 40
80.0
 10
879.7674078257271
 20
938.9698552646294
 30
0.0
 10
879.8149621735531
 20
938.9223009686334
 30
0.0
 10
879.9055418491446
 20
938.8939947746598
 30
0.0
 10
880.0391469561619
 20
938.8849367863686
 30
0.0
  0
SPLINE
  5
7A87
330
1F
100
AcDbEntity
  8
AM_VIS
100
AcDbSpline
210
0.0
220
0.0
230
1.0
 70
     8
 71
     3
 72
     8
 73
     4
 74
     0
 42
0.0000000001
 43
0.0000000001
 40
0.0
 40
0.0
 40
0.0
 40
0.0
 40
80.0
 40
80.0
 40
80.0
 40
80.0
 10
879.6824893474662
 20
939.2619748298468
 30
0.0
 10
879.6824893474662
 20
939.1238407545992
 30
0.0
 10
879.7107954896096
 20
939.0264675489166
 30
0.0
 10
879.7674078257271
 20
938.9698552646294
 30
0.0
  0
LINE
  5
7A88
330
1F
100
AcDbEntity
  8
AM_VIS
100
AcDbLine
 10
879.6824893474662
 20
939.9345291776729
 30
0.0
 11
879.6824893474662
 21
939.2619748298468
 31
0.0
  0
LINE
  5
7A89
330
1F
100
AcDbEntity
  8
AM_VIS
100
AcDbLine
 10
879.6824505106471
 20
939.9325284255262
 30
0.0
 11
879.9745918685303
 21
939.9268576376371
 31
0.0
  0
SPLINE
  5
7A8A
330
1F
100
AcDbEntity
  8
AM_VIS
100
AcDbSpline
210
0.0
220
0.0
230
1.0
 70
     8
 71
     3
 72
     8
 73
     4
 74
     0
 42
0.0000000001
 43
0.0000000001
 40
0.0
 40
0.0
 40
0.0
 40
0.0
 40
80.0
 40
80.0
 40
80.0
 40
80.0
 10
880.6743371735532
 20
940.1451270037599
 30
0.0
 10
880.5339385882751
 20
940.0001994502513
 30
0.0
 10
880.3006958173751
 20
939.9277356994121
 30
0.0
 10
879.9746089126836
 20
939.9277356994121
 30
0.0
  0
LINE
  5
7A8B
330
1F
100
AcDbEntity
  8
AM_VIS
100
AcDbLine
 10
868.1845545648727
 20
918.91700200376
 30
0.0
 11
867.3055438696856
 21
918.91700200376
 31
0.0
  0
LINE
  5
7A8C
330
1F
100
AcDbEntity
  8
AM_VIS
100
AcDbLine
 10
868.1845545648727
 20
918.9838469235461
 30
0.0
 11
868.1845545648727
 21
918.91700200376
 31
0.0
  0
SPLINE
  5
7A8D
330
1F
100
AcDbEntity
  8
AM_VIS
100
AcDbSpline
210
0.0
220
0.0
230
1.0
 70
     8
 71
     3
 72
     8
 73
     4
 74
     0
 42
0.0000000001
 43
0.0000000001
 40
0.0
 40
0.0
 40
0.0
 40
0.0
 40
80.0
 40
80.0
 40
80.0
 40
80.0
 10
867.9171748857283
 20
919.0373228593749
 30
0.0
 10
867.9706508215572
 20
919.0016722694879
 30
0.0
 10
868.0597773472729
 20
918.9838469235461
 30
0.0
 10
868.1845545648727
 20
918.9838469235461
 30
0.0
  0
SPLINE
  5
7A8E
330
1F
100
AcDbEntity
  8
AM_VIS
100
AcDbSpline
210
0.0
220
0.0
230
1.0
 70
     8
 71
     3
 72
     8
 73
     4
 74
     0
 42
0.0000000001
 43
0.0000000001
 40
0.0
 40
0.0
 40
0.0
 40
0.0
 40
80.0
 40
80.0
 40
80.0
 40
80.0
 10
867.8369609819849
 20
919.2411998647225
 30
0.0
 10
867.8369609819849
 20
919.1453887960296
 30
0.0
 10
867.8636989498995
 20
919.0774298622452
 30
0.0
 10
867.9171748857283
 20
919.0373228593749
 30
0.0
  0
LINE
  5
7A8F
330
1F
100
AcDbEntity
  8
AM_VIS
100
AcDbLine
 10
867.8369609819849
 20
921.4170020037599
 30
0.0
 11
867.8369609819849
 21
919.2411998647225
 31
0.0
  0
LINE
  5
7A90
330
1F
100
AcDbEntity
  8
AM_VIS
100
AcDbLine
 10
867.2721214097926
 20
921.1462800786263
 30
0.0
 11
867.8369609819849
 21
921.4170020037599
 31
0.0
  0
LINE
  5
7A91
330
1F
100
AcDbEntity
  8
AM_VIS
100
AcDbLine
 10
867.2721214097926
 20
921.0928041427974
 30
0.0
 11
867.2721214097926
 21
921.1462800786263
 31
0.0
  0
SPLINE
  5
7A92
330
1F
100
AcDbEntity
  8
AM_VIS
100
AcDbSpline
210
0.0
220
0.0
230
1.0
 70
     8
 71
     3
 72
     8
 73
     4
 74
     0
 42
0.0000000001
 43
0.0000000001
 40
0.0
 40
0.0
 40
0.0
 40
0.0
 40
80.0
 40
80.0
 40
80.0
 40
80.0
 10
867.5127631210225
 20
921.1529645706049
 30
0.0
 10
867.4548308232088
 20
921.1529645706049
 30
0.0
 10
867.3746169194656
 20
921.1329110946691
 30
0.0
 10
867.2721214097926
 20
921.0928041427974
 30
0.0
  0
SPLINE
  5
7A93
330
1F
100
AcDbEntity
  8
AM_VIS
100
AcDbSpline
210
0.0
220
0.0
230
1.0
 70
     8
 71
     3
 72
     8
 73
     4
 74
     0
 42
0.0000000001
 43
0.0000000001
 40
0.0
 40
0.0
 40
0.0
 40
0.0
 40
80.0
 40
80.0
 40
80.0
 40
80.0
 10
867.649795206584
 20
920.9624565492145
 30
0.0
 10
867.649795206584
 20
921.0894618968081
 30
0.0
 10
867.6041178277305
 20
921.1529645706049
 30
0.0
 10
867.5127631210225
 20
921.1529645706049
 30
0.0
  0
LINE
  5
7A94
330
1F
100
AcDbEntity
  8
AM_VIS
100
AcDbLine
 10
867.649795206584
 20
919.3047025385194
 30
0.0
 11
867.649795206584
 21
920.9624565492145
 31
0.0
  0
SPLINE
  5
7A95
330
1F
100
AcDbEntity
  8
AM_VIS
100
AcDbSpline
210
0.0
220
0.0
230
1.0
 70
     8
 71
     3
 72
     8
 73
     4
 74
     0
 42
0.0000000001
 43
0.0000000001
 40
0.0
 40
0.0
 40
0.0
 40
0.0
 40
80.0
 40
80.0
 40
80.0
 40
80.0
 10
867.5495278269048
 20
919.0373228593749
 30
0.0
 10
867.616372746691
 20
919.0841143542238
 30
0.0
 10
867.649795206584
 20
919.1732408289409
 30
0.0
 10
867.649795206584
 20
919.3047025385194
 30
0.0
  0
SPLINE
  5
7A96
330
1F
100
AcDbEntity
  8
AM_VIS
100
AcDbSpline
210
0.0
220
0.0
230
1.0
 70
     8
 71
     3
 72
     8
 73
     4
 74
     0
 42
0.0000000001
 43
0.0000000001
 40
0.0
 40
0.0
 40
0.0
 40
0.0
 40
80.0
 40
80.0
 40
80.0
 40
80.0
 10
867.3055438696856
 20
918.9838469235461
 30
0.0
 10
867.4236365443082
 20
918.9883032855307
 30
0.0
 10
867.5049645130483
 20
919.0061285804743
 30
0.0
 10
867.5495278269048
 20
919.0373228593749
 30
0.0
  0
LINE
  5
7A97
330
1F
100
AcDbEntity
  8
AM_VIS
100
AcDbLine
 10
867.3055438696856
 20
918.91700200376
 30
0.0
 11
867.3055438696856
 21
918.9838469235461
 31
0.0
  0
SPLINE
  5
7A98
330
1F
100
AcDbEntity
  8
AM_VIS
100
AcDbSpline
210
0.0
220
0.0
230
1.0
 70
     8
 71
     3
 72
     8
 73
     4
 74
     0
 42
0.0000000001
 43
0.0000000001
 40
0.0
 40
0.0
 40
0.0
 40
0.0
 40
80.0
 40
80.0
 40
80.0
 40
80.0
 10
866.2911722119316
 20
920.7385260679311
 30
0.0
 10
866.2911721609329
 20
920.97025510619
 30
0.0
 10
866.18867665126
 20
921.1251124866949
 30
0.0
 10
865.9836855809155
 20
921.2030982604444
 30
0.0
  0
SPLINE
  5
7A99
330
1F
100
AcDbEntity
  8
AM_VIS
100
AcDbSpline
210
0.0
220
0.0
230
1.0
 70
     8
 71
     3
 72
     8
 73
     4
 74
     0
 42
0.0000000001
 43
0.0000000001
 40
0.0
 40
0.0
 40
0.0
 40
0.0
 40
80.0
 40
80.0
 40
80.0
 40
80.0
 10
865.9402363830546
 20
920.2572426454711
 30
0.0
 10
866.1741935513074
 20
920.3396846792083
 30
0.0
 10
866.2911721609329
 20
920.5001124866949
 30
0.0
 10
866.2911722119316
 20
920.7385260679311
 30
0.0
  0
SPLINE
  5
7A9A
330
1F
100
AcDbEntity
  8
AM_VIS
100
AcDbSpline
210
0.0
220
0.0
230
1.0
 70
     8
 71
     3
 72
     8
 73
     4
 74
     0
 42
0.0000000001
 43
0.0000000001
 40
0.0
 40
0.0
 40
0.0
 40
0.0
 40
80.0
 40
80.0
 40
80.0
 40
80.0
 10
865.3586855809155
 20
920.1870554796958
 30
0.0
 10
865.6238370790674
 20
920.1892836096895
 30
0.0
 10
865.8176873464471
 20
920.2126793316146
 30
0.0
 10
865.9402363830546
 20
920.2572426454711
 30
0.0
  0
LINE
  5
7A9B
330
1F
100
AcDbEntity
  8
AM_VIS
100
AcDbLine
 10
865.3586855809155
 20
921.1028308807653
 30
0.0
 11
865.3586855809155
 21
920.1870554796958
 31
0.0
  0
SPLINE
  5
7A9C
330
1F
100
AcDbEntity
  8
AM_VIS
100
AcDbSpline
210
0.0
220
0.0
230
1.0
 70
     8
 71
     3
 72
     8
 73
     4
 74
     0
 42
0.0000000001
 43
0.0000000001
 40
0.0
 40
0.0
 40
0.0
 40
0.0
 40
80.0
 40
80.0
 40
80.0
 40
80.0
 10
865.4121615167444
 20
921.2398629663267
 30
0.0
 10
865.3765108758589
 20
921.2175813093985
 30
0.0
 10
865.3586855809155
 20
921.1719039305451
 30
0.0
 10
865.3586855809155
 20
921.1028308807653
 30
0.0
  0
SPLINE
  5
7A9D
330
1F
100
AcDbEntity
  8
AM_VIS
100
AcDbSpline
210
0.0
220
0.0
230
1.0
 70
     8
 71
     3
 72
     8
 73
     4
 74
     0
 42
0.0000000001
 43
0.0000000001
 40
0.0
 40
0.0
 40
0.0
 40
0.0
 40
80.0
 40
80.0
 40
80.0
 40
80.0
 10
865.5792738162096
 20
921.2632586882518
 30
0.0
 10
865.4901472394952
 20
921.258802326267
 30
0.0
 10
865.4344431226739
 20
921.2510037692917
 30
0.0
 10
865.4121615167444
 20
921.2398629663267
 30
0.0
  0
SPLINE
  5
7A9E
330
1F
100
AcDbEntity
  8
AM_VIS
100
AcDbSpline
210
0.0
220
0.0
230
1.0
 70
     8
 71
     3
 72
     8
 73
     4
 74
     0
 42
0.0000000001
 43
0.0000000001
 40
0.0
 40
0.0
 40
0.0
 40
0.0
 40
80.0
 40
80.0
 40
80.0
 40
80.0
 10
865.9836855809155
 20
921.2030982604444
 30
0.0
 10
865.8678210362868
 20
921.2521178342884
 30
0.0
 10
865.7330171317175
 20
921.2721713102242
 30
0.0
 10
865.5792738162096
 20
921.2632586882518
 30
0.0
  0
LINE
  5
7A9F
330
1F
100
AcDbEntity
  8
AM_VIS
100
AcDbLine
 10
866.8927764900063
 20
918.91700200376
 30
0.0
 11
866.4315465434825
 21
918.91700200376
 31
0.0
  0
LINE
  5
7AA0
330
1F
100
AcDbEntity
  8
AM_VIS
100
AcDbLine
 10
866.8927764900063
 20
918.9838469235461
 30
0.0
 11
866.8927764900063
 21
918.91700200376
 31
0.0
  0
SPLINE
  5
7AA1
330
1F
100
AcDbEntity
  8
AM_VIS
100
AcDbSpline
210
0.0
220
0.0
230
1.0
 70
     8
 71
     3
 72
     8
 73
     4
 74
     0
 42
0.0000000001
 43
0.0000000001
 40
0.0
 40
0.0
 40
0.0
 40
0.0
 40
80.0
 40
80.0
 40
80.0
 40
80.0
 10
866.5786053670117
 20
919.1175367631181
 30
0.0
 10
866.6231686298697
 20
919.0484637133383
 30
0.0
 10
866.7278923205349
 20
919.0039003994819
 30
0.0
 10
866.8927764900063
 20
918.9838469235461
 30
0.0
  0
LINE
  5
7AA2
330
1F
100
AcDbEntity
  8
AM_VIS
100
AcDbLine
 10
865.9034716771722
 20
920.1202105599096
 30
0.0
 11
866.5786053670117
 21
919.1175367631181
 31
0.0
  0
SPLINE
  5
7AA3
330
1F
100
AcDbEntity
  8
AM_VIS
100
AcDbSpline
210
0.0
220
0.0
230
1.0
 70
     8
 71
     3
 72
     8
 73
     4
 74
     0
 42
0.0000000001
 43
0.0000000001
 40
0.0
 40
0.0
 40
0.0
 40
0.0
 40
80.0
 40
80.0
 40
80.0
 40
80.0
 10
866.2878299659421
 20
920.2572426454711
 30
0.0
 10
866.1987033892279
 20
920.1970822176637
 30
0.0
 10
866.0705839766373
 20
920.1514048388103
 30
0.0
 10
865.9034716771722
 20
920.1202105599096
 30
0.0
  0
SPLINE
  5
7AA4
330
1F
100
AcDbEntity
  8
AM_VIS
100
AcDbSpline
210
0.0
220
0.0
230
1.0
 70
     8
 71
     3
 72
     8
 73
     4
 74
     0
 42
0.0000000001
 43
0.0000000001
 40
0.0
 40
0.0
 40
0.0
 40
0.0
 40
80.0
 40
80.0
 40
80.0
 40
80.0
 10
866.5251294311829
 20
920.7318415759525
 30
0.0
 10
866.5251294311829
 20
920.5201659626307
 30
0.0
 10
866.4460295924364
 20
920.3619663361365
 30
0.0
 10
866.2878299659421
 20
920.2572426454711
 30
0.0
  0
SPLINE
  5
7AA5
330
1F
100
AcDbEntity
  8
AM_VIS
100
AcDbSpline
210
0.0
220
0.0
230
1.0
 70
     8
 71
     3
 72
     8
 73
     4
 74
     0
 42
0.0000000001
 43
0.0000000001
 40
0.0
 40
0.0
 40
0.0
 40
0.0
 40
80.0
 40
80.0
 40
80.0
 40
80.0
 10
866.2276695381347
 20
921.2699431802304
 30
0.0
 10
866.4259761165006
 20
921.1629913085728
 30
0.0
 10
866.5251294311829
 20
920.9836240901472
 30
0.0
 10
866.5251294311829
 20
920.7318415759525
 30
0.0
  0
SPLINE
  5
7AA6
330
1F
100
AcDbEntity
  8
AM_VIS
100
AcDbSpline
210
0.0
220
0.0
230
1.0
 70
     8
 71
     3
 72
     8
 73
     4
 74
     0
 42
0.0000000001
 43
0.0000000001
 40
0.0
 40
0.0
 40
0.0
 40
0.0
 40
80.0
 40
80.0
 40
80.0
 40
80.0
 10
865.7163059017712
 20
921.3768950518883
 30
0.0
 10
865.9235251531081
 20
921.3768950518883
 30
0.0
 10
866.0939796985626
 20
921.3412444110028
 30
0.0
 10
866.2276695381347
 20
921.2699431802304
 30
0.0
  0
LINE
  5
7AA7
330
1F
100
AcDbEntity
  8
AM_VIS
100
AcDbLine
 10
864.827268468616
 20
921.3768950518883
 30
0.0
 11
865.7163059017712
 21
921.3768950518883
 31
0.0
  0
LINE
  5
7AA8
330
1F
100
AcDbEntity
  8
AM_VIS
100
AcDbLine
 10
864.827268468616
 20
921.3100501321022
 30
0.0
 11
864.827268468616
 21
921.3768950518883
 31
0.0
  0
SPLINE
  5
7AA9
330
1F
100
AcDbEntity
  8
AM_VIS
100
AcDbSpline
210
0.0
220
0.0
230
1.0
 70
     8
 71
     3
 72
     8
 73
     4
 74
     0
 42
0.0000000001
 43
0.0000000001
 40
0.0
 40
0.0
 40
0.0
 40
0.0
 40
80.0
 40
80.0
 40
80.0
 40
80.0
 10
865.0745946718245
 20
921.2231517363802
 30
0.0
 10
865.0344877199529
 20
921.2677149992382
 30
0.0
 10
864.9520456352172
 20
921.296681148145
 30
0.0
 10
864.827268468616
 20
921.3100501321022
 30
0.0
  0
SPLINE
  5
7AAA
330
1F
100
AcDbEntity
  8
AM_VIS
100
AcDbSpline
210
0.0
220
0.0
230
1.0
 70
     8
 71
     3
 72
     8
 73
     4
 74
     0
 42
0.0000000001
 43
0.0000000001
 40
0.0
 40
0.0
 40
0.0
 40
0.0
 40
80.0
 40
80.0
 40
80.0
 40
80.0
 10
865.1481240835892
 20
920.9323763353108
 30
0.0
 10
865.1481240325907
 20
921.0727506668616
 30
0.0
 10
865.1236142456687
 20
921.1696758005514
 30
0.0
 10
865.0745946718245
 20
921.2231517363802
 30
0.0
  0
LINE
  5
7AAB
330
1F
100
AcDbEntity
  8
AM_VIS
100
AcDbLine
 10
865.1481240835892
 20
919.4016276722091
 30
0.0
 11
865.1481240835892
 21
920.9323763353108
 31
0.0
  0
SPLINE
  5
7AAC
330
1F
100
AcDbEntity
  8
AM_VIS
100
AcDbSpline
210
0.0
220
0.0
230
1.0
 70
     8
 71
     3
 72
     8
 73
     4
 74
     0
 42
0.0000000001
 43
0.0000000001
 40
0.0
 40
0.0
 40
0.0
 40
0.0
 40
80.0
 40
80.0
 40
80.0
 40
80.0
 10
865.0846214097926
 20
919.0907987952037
 30
0.0
 10
865.1269564916578
 20
919.1465028610265
 30
0.0
 10
865.1481240325907
 20
919.2501124866948
 30
0.0
 10
865.1481240835892
 20
919.4016276722091
 30
0.0
  0
SPLINE
  5
7AAD
330
1F
100
AcDbEntity
  8
AM_VIS
100
AcDbSpline
210
0.0
220
0.0
230
1.0
 70
     8
 71
     3
 72
     8
 73
     4
 74
     0
 42
0.0000000001
 43
0.0000000001
 40
0.0
 40
0.0
 40
0.0
 40
0.0
 40
80.0
 40
80.0
 40
80.0
 40
80.0
 10
864.827268468616
 20
918.9838469235461
 30
0.0
 10
864.9565019462034
 20
918.9972159075033
 30
0.0
 10
865.0422862769286
 20
919.0328665483887
 30
0.0
 10
865.0846214097926
 20
919.0907987952037
 30
0.0
  0
LINE
  5
7AAE
330
1F
100
AcDbEntity
  8
AM_VIS
100
AcDbLine
 10
864.827268468616
 20
918.91700200376
 30
0.0
 11
864.827268468616
 21
918.9838469235461
 31
0.0
  0
LINE
  5
7AAF
330
1F
100
AcDbEntity
  8
AM_VIS
100
AcDbLine
 10
865.6962524258354
 20
918.91700200376
 30
0.0
 11
864.827268468616
 21
918.91700200376
 31
0.0
  0
LINE
  5
7AB0
330
1F
100
AcDbEntity
  8
AM_VIS
100
AcDbLine
 10
865.6962524258354
 20
918.9838469235461
 30
0.0
 11
865.6962524258354
 21
918.91700200376
 31
0.0
  0
SPLINE
  5
7AB1
330
1F
100
AcDbEntity
  8
AM_VIS
100
AcDbSpline
210
0.0
220
0.0
230
1.0
 70
     8
 71
     3
 72
     8
 73
     4
 74
     0
 42
0.0000000001
 43
0.0000000001
 40
0.0
 40
0.0
 40
0.0
 40
0.0
 40
80.0
 40
80.0
 40
80.0
 40
80.0
 10
865.4322149926802
 20
919.0774298112465
 30
0.0
 10
865.4790063855319
 20
919.0261820564101
 30
0.0
 10
865.5670188972491
 20
918.9949877775093
 30
0.0
 10
865.6962524258354
 20
918.9838469235461
 30
0.0
  0
SPLINE
  5
7AB2
330
1F
100
AcDbEntity
  8
AM_VIS
100
AcDbSpline
210
0.0
220
0.0
230
1.0
 70
     8
 71
     3
 72
     8
 73
     4
 74
     0
 42
0.0000000001
 43
0.0000000001
 40
0.0
 40
0.0
 40
0.0
 40
0.0
 40
80.0
 40
80.0
 40
80.0
 40
80.0
 10
865.3586855809155
 20
919.3548362283589
 30
0.0
 10
865.3586855809155
 20
919.2233745187804
 30
0.0
 10
865.3831953678375
 20
919.1309057470753
 30
0.0
 10
865.4322149926802
 20
919.0774298112465
 30
0.0
  0
LINE
  5
7AB3
330
1F
100
AcDbEntity
  8
AM_VIS
100
AcDbLine
 10
865.3586855809155
 20
920.07007687007
 30
0.0
 11
865.3586855809155
 21
919.3548362283589
 31
0.0
  0
LINE
  5
7AB4
330
1F
100
AcDbEntity
  8
AM_VIS
100
AcDbLine
 10
865.6394342440171
 20
920.0834458540272
 30
0.0
 11
865.3586855809155
 21
920.07007687007
 31
0.0
  0
LINE
  5
7AB5
330
1F
100
AcDbEntity
  8
AM_VIS
100
AcDbLine
 10
866.4315465434825
 20
918.91700200376
 30
0.0
 11
865.6394342440171
 21
920.0834458540272
 31
0.0
  0
LINE
  5
7AB6
330
1F
100
AcDbEntity
  8
AM_VIS
100
AcDbLine
 10
905.309554564822
 20
919.4030206455707
 30
0.0
 11
905.136452034862
 21
918.9170020037598
 31
0.0
  0
LINE
  5
7AB7
330
1F
100
AcDbEntity
  8
AM_VIS
100
AcDbLine
 10
905.2429766686834
 20
919.4030206455707
 30
0.0
 11
905.309554564822
 21
919.4030206455707
 31
0.0
  0
SPLINE
  5
7AB8
330
1F
100
AcDbEntity
  8
AM_VIS
100
AcDbSpline
210
0.0
220
0.0
230
1.0
 70
     8
 71
     3
 72
     8
 73
     4
 74
     0
 42
0.0000000001
 43
0.0000000001
 40
0.0
 40
0.0
 40
0.0
 40
0.0
 40
80.0
 40
80.0
 40
80.0
 40
80.0
 10
905.0898475075651
 20
919.1633402194723
 30
0.0
 10
905.127574965112
 20
919.1966291167465
 30
0.0
 10
905.1786180018863
 20
919.2765226429077
 30
0.0
 10
905.2429766686834
 20
919.4030206455707
 30
0.0
  0
SPLINE
  5
7AB9
330
1F
100
AcDbEntity
  8
AM_VIS
100
AcDbSpline
210
0.0
220
0.0
230
1.0
 70
     8
 71
     3
 72
     8
 73
     4
 74
     0
 42
0.0000000001
 43
0.0000000001
 40
0.0
 40
0.0
 40
0.0
 40
0.0
 40
80.0
 40
80.0
 40
80.0
 40
80.0
 10
904.9200738724119
 20
919.1000912181406
 30
0.0
 10
904.9933095581643
 20
919.1000912181406
 30
0.0
 10
905.0499007698819
 20
919.1211742016529
 30
0.0
 10
905.0898475075651
 20
919.1633402194723
 30
0.0
  0
LINE
  5
7ABA
330
1F
100
AcDbEntity
  8
AM_VIS
100
AcDbLine
 10
904.1744014356609
 20
919.1000912181406
 30
0.0
 11
904.9200738724119
 21
919.1000912181406
 31
0.0
  0
LINE
  5
7ABB
330
1F
100
AcDbEntity
  8
AM_VIS
100
AcDbLine
 10
904.7969047645558
 20
919.8590792341194
 30
0.0
 11
904.1744014356609
 21
919.1000912181406
 31
0.0
  0
SPLINE
  5
7ABC
330
1F
100
AcDbEntity
  8
AM_VIS
100
AcDbSpline
210
0.0
220
0.0
230
1.0
 70
     8
 71
     3
 72
     8
 73
     4
 74
     0
 42
0.0000000001
 43
0.0000000001
 40
0.0
 40
0.0
 40
0.0
 40
0.0
 40
80.0
 40
80.0
 40
80.0
 40
80.0
 10
905.1464387192828
 20
920.7578808319889
 30
0.0
 10
905.1464387192828
 20
920.4405261598656
 30
0.0
 10
905.0299274010404
 20
920.1409256272423
 30
0.0
 10
904.7969047645558
 20
919.8590792341194
 30
0.0
  0
SPLINE
  5
7ABD
330
1F
100
AcDbEntity
  8
AM_VIS
100
AcDbSpline
210
0.0
220
0.0
230
1.0
 70
     8
 71
     3
 72
     8
 73
     4
 74
     0
 42
0.0000000001
 43
0.0000000001
 40
0.0
 40
0.0
 40
0.0
 40
0.0
 40
80.0
 40
80.0
 40
80.0
 40
80.0
 10
904.9666783997087
 20
921.2438994737999
 30
0.0
 10
905.086518612758
 20
921.1151821910005
 30
0.0
 10
905.1464387192828
 20
920.9531759601318
 30
0.0
 10
905.1464387192828
 20
920.7578808319889
 30
0.0
  0
SPLINE
  5
7ABE
330
1F
100
AcDbEntity
  8
AM_VIS
100
AcDbSpline
210
0.0
220
0.0
230
1.0
 70
     8
 71
     3
 72
     8
 73
     4
 74
     0
 42
0.0000000001
 43
0.0000000001
 40
0.0
 40
0.0
 40
0.0
 40
0.0
 40
80.0
 40
80.0
 40
80.0
 40
80.0
 10
904.5638821280711
 20
921.4170020037599
 30
0.0
 10
904.7214497986672
 20
921.4170020037599
 30
0.0
 10
904.8557152056147
 20
921.3593011265766
 30
0.0
 10
904.9666783997087
 20
921.2438994737999
 30
0.0
  0
SPLINE
  5
7ABF
330
1F
100
AcDbEntity
  8
AM_VIS
100
AcDbSpline
210
0.0
220
0.0
230
1.0
 70
     8
 71
     3
 72
     8
 73
     4
 74
     0
 42
0.0000000001
 43
0.0000000001
 40
0.0
 40
0.0
 40
0.0
 40
0.0
 40
80.0
 40
80.0
 40
80.0
 40
80.0
 10
904.1644147512402
 20
921.2638728426414
 30
0.0
 10
904.2775971746754
 20
921.3659589161904
 30
0.0
 10
904.4107529669524
 20
921.4170020037599
 30
0.0
 10
904.5638821280711
 20
921.4170020037599
 30
0.0
  0
SPLINE
  5
7AC0
330
1F
100
AcDbEntity
  8
AM_VIS
100
AcDbSpline
210
0.0
220
0.0
230
1.0
 70
     8
 71
     3
 72
     8
 73
     4
 74
     0
 42
0.0000000001
 43
0.0000000001
 40
0.0
 40
0.0
 40
0.0
 40
0.0
 40
80.0
 40
80.0
 40
80.0
 40
80.0
 10
903.8947742718791
 20
920.7012896202712
 30
0.0
 10
903.93915951904
 20
920.9542856255975
 30
0.0
 10
904.0290396788268
 20
921.1418133494559
 30
0.0
 10
904.1644147512402
 20
921.2638728426414
 30
0.0
  0
LINE
  5
7AC1
330
1F
100
AcDbEntity
  8
AM_VIS
100
AcDbLine
 10
903.9613521680179
 20
920.6913029358505
 30
0.0
 11
903.8947742718791
 21
920.7012896202712
 31
0.0
  0
SPLINE
  5
7AC2
330
1F
100
AcDbEntity
  8
AM_VIS
100
AcDbSpline
210
0.0
220
0.0
230
1.0
 70
     8
 71
     3
 72
     8
 73
     4
 74
     0
 42
0.0000000001
 43
0.0000000001
 40
0.0
 40
0.0
 40
0.0
 40
0.0
 40
80.0
 40
80.0
 40
80.0
 40
80.0
 10
904.1078235395225
 20
921.0441657853843
 30
0.0
 10
904.081192381067
 20
920.9997804874287
 30
0.0
 10
904.0323685736339
 20
920.8821595545158
 30
0.0
 10
903.9613521680179
 20
920.6913029358505
 30
0.0
  0
SPLINE
  5
7AC3
330
1F
100
AcDbEntity
  8
AM_VIS
100
AcDbSpline
210
0.0
220
0.0
230
1.0
 70
     8
 71
     3
 72
     8
 73
     4
 74
     0
 42
0.0000000001
 43
0.0000000001
 40
0.0
 40
0.0
 40
0.0
 40
0.0
 40
80.0
 40
80.0
 40
80.0
 40
80.0
 10
904.4207396513732
 20
921.240570578993
 30
0.0
 10
904.2920223685738
 20
921.240570578993
 30
0.0
 10
904.1877170148886
 20
921.1751022975251
 30
0.0
 10
904.1078235395225
 20
921.0441657853843
 30
0.0
  0
SPLINE
  5
7AC4
330
1F
100
AcDbEntity
  8
AM_VIS
100
AcDbSpline
210
0.0
220
0.0
230
1.0
 70
     8
 71
     3
 72
     8
 73
     4
 74
     0
 42
0.0000000001
 43
0.0000000001
 40
0.0
 40
0.0
 40
0.0
 40
0.0
 40
80.0
 40
80.0
 40
80.0
 40
80.0
 10
904.8401803970458
 20
921.017534626929
 30
0.0
 10
904.7425327821793
 20
921.1662252277751
 30
0.0
 10
904.6027192002885
 20
921.240570578993
 30
0.0
 10
904.4207396513732
 20
921.240570578993
 30
0.0
  0
SPLINE
  5
7AC5
330
1F
100
AcDbEntity
  8
AM_VIS
100
AcDbSpline
210
0.0
220
0.0
230
1.0
 70
     8
 71
     3
 72
     8
 73
     4
 74
     0
 42
0.0000000001
 43
0.0000000001
 40
0.0
 40
0.0
 40
0.0
 40
0.0
 40
80.0
 40
80.0
 40
80.0
 40
80.0
 10
904.9500339256741
 20
920.6280539345188
 30
0.0
 10
904.9589109446294
 20
920.7678675164098
 30
0.0
 10
904.9222931017531
 20
920.8976944138797
 30
0.0
 10
904.8401803970458
 20
921.017534626929
 30
0.0
  0
SPLINE
  5
7AC6
330
1F
100
AcDbEntity
  8
AM_VIS
100
AcDbSpline
210
0.0
220
0.0
230
1.0
 70
     8
 71
     3
 72
     8
 73
     4
 74
     0
 42
0.0000000001
 43
0.0000000001
 40
0.0
 40
0.0
 40
0.0
 40
0.0
 40
80.0
 40
80.0
 40
80.0
 40
80.0
 10
904.4640152838633
 20
919.6393721768625
 30
0.0
 10
904.7702736061003
 20
920.0144276245792
 30
0.0
 10
904.9322797861739
 20
920.3439882104648
 30
0.0
 10
904.9500339256741
 20
920.6280539345188
 30
0.0
  0
LINE
  5
7AC7
330
1F
100
AcDbEntity
  8
AM_VIS
100
AcDbLine
 10
903.8847875874585
 20
918.9336464777946
 30
0.0
 11
904.4640152838633
 21
919.6393721768625
 31
0.0
  0
LINE
  5
7AC8
330
1F
100
AcDbEntity
  8
AM_VIS
100
AcDbLine
 10
903.8847875874585
 20
918.9170020037598
 30
0.0
 11
903.8847875874585
 21
918.9336464777946
 31
0.0
  0
LINE
  5
7AC9
330
1F
100
AcDbEntity
  8
AM_VIS
100
AcDbLine
 10
905.136452034862
 20
918.9170020037598
 30
0.0
 11
903.8847875874585
 21
918.9170020037598
 31
0.0
  0
SPLINE
  5
7ACA
330
1F
100
AcDbEntity
  8
AM_VIS
100
AcDbSpline
210
0.0
220
0.0
230
1.0
 70
     8
 71
     3
 72
     8
 73
     4
 74
     0
 42
0.0000000001
 43
0.0000000001
 40
0.0
 40
0.0
 40
0.0
 40
0.0
 40
80.0
 40
80.0
 40
80.0
 40
80.0
 10
903.1607529669525
 20
920.7312496735335
 30
0.0
 10
903.1607529161576
 20
920.9620530298819
 30
0.0
 10
903.0586668426085
 20
921.1162918056711
 30
0.0
 10
902.8544946447155
 20
921.1939660516959
 30
0.0
  0
SPLINE
  5
7ACB
330
1F
100
AcDbEntity
  8
AM_VIS
100
AcDbSpline
210
0.0
220
0.0
230
1.0
 70
     8
 71
     3
 72
     8
 73
     4
 74
     0
 42
0.0000000001
 43
0.0000000001
 40
0.0
 40
0.0
 40
0.0
 40
0.0
 40
80.0
 40
80.0
 40
80.0
 40
80.0
 10
902.8112190122255
 20
920.2518888213365
 30
0.0
 10
903.0442415979152
 20
920.334001526044
 30
0.0
 10
903.1607529161576
 20
920.4937884767764
 30
0.0
 10
903.1607529669525
 20
920.7312496735335
 30
0.0
  0
SPLINE
  5
7ACC
330
1F
100
AcDbEntity
  8
AM_VIS
100
AcDbSpline
210
0.0
220
0.0
230
1.0
 70
     8
 71
     3
 72
     8
 73
     4
 74
     0
 42
0.0000000001
 43
0.0000000001
 40
0.0
 40
0.0
 40
0.0
 40
0.0
 40
80.0
 40
80.0
 40
80.0
 40
80.0
 10
902.2319913158208
 20
920.181982030391
 30
0.0
 10
902.4960836202383
 20
920.1842012597323
 30
0.0
 10
902.68915951904
 20
920.2075035233809
 30
0.0
 10
902.8112190122255
 20
920.2518888213365
 30
0.0
  0
LINE
  5
7ACD
330
1F
100
AcDbEntity
  8
AM_VIS
100
AcDbLine
 10
902.2319913158208
 20
921.0940992074883
 30
0.0
 11
902.2319913158208
 21
920.181982030391
 31
0.0
  0
SPLINE
  5
7ACE
330
1F
100
AcDbEntity
  8
AM_VIS
100
AcDbSpline
210
0.0
220
0.0
230
1.0
 70
     8
 71
     3
 72
     8
 73
     4
 74
     0
 42
0.0000000001
 43
0.0000000001
 40
0.0
 40
0.0
 40
0.0
 40
0.0
 40
80.0
 40
80.0
 40
80.0
 40
80.0
 10
902.2852536327317
 20
921.2305838945722
 30
0.0
 10
902.2497454045261
 20
921.2083912455943
 30
0.0
 10
902.2319913158208
 20
921.1628963329681
 30
0.0
 10
902.2319913158208
 20
921.0940992074883
 30
0.0
  0
SPLINE
  5
7ACF
330
1F
100
AcDbEntity
  8
AM_VIS
100
AcDbSpline
210
0.0
220
0.0
230
1.0
 70
     8
 71
     3
 72
     8
 73
     4
 74
     0
 42
0.0000000001
 43
0.0000000001
 40
0.0
 40
0.0
 40
0.0
 40
0.0
 40
80.0
 40
80.0
 40
80.0
 40
80.0
 10
902.4516983730777
 20
921.2538861582206
 30
0.0
 10
902.3629278279614
 20
921.2494475979481
 30
0.0
 10
902.3074462309143
 20
921.2416801936635
 30
0.0
 10
902.2852536327317
 20
921.2305838945722
 30
0.0
  0
SPLINE
  5
7AD0
330
1F
100
AcDbEntity
  8
AM_VIS
100
AcDbSpline
210
0.0
220
0.0
230
1.0
 70
     8
 71
     3
 72
     8
 73
     4
 74
     0
 42
0.0000000001
 43
0.0000000001
 40
0.0
 40
0.0
 40
0.0
 40
0.0
 40
80.0
 40
80.0
 40
80.0
 40
80.0
 10
902.8544946447155
 20
921.1939660516959
 30
0.0
 10
902.7390929411437
 20
921.2427898083342
 30
0.0
 10
902.6048275341961
 20
921.2627631771759
 30
0.0
 10
902.4516983730777
 20
921.2538861582206
 30
0.0
  0
LINE
  5
7AD1
330
1F
100
AcDbEntity
  8
AM_VIS
100
AcDbLine
 10
903.7599540321989
 20
918.9170020037598
 30
0.0
 11
903.3005665488433
 21
918.9170020037598
 31
0.0
  0
LINE
  5
7AD2
330
1F
100
AcDbEntity
  8
AM_VIS
100
AcDbLine
 10
903.7599540321989
 20
918.9835798998982
 30
0.0
 11
903.7599540321989
 21
918.9170020037598
 31
0.0
  0
SPLINE
  5
7AD3
330
1F
100
AcDbEntity
  8
AM_VIS
100
AcDbSpline
210
0.0
220
0.0
230
1.0
 70
     8
 71
     3
 72
     8
 73
     4
 74
     0
 42
0.0000000001
 43
0.0000000001
 40
0.0
 40
0.0
 40
0.0
 40
0.0
 40
80.0
 40
80.0
 40
80.0
 40
80.0
 10
903.4470379203481
 20
919.1167356921752
 30
0.0
 10
903.4914231675086
 20
919.0479385666955
 30
0.0
 10
903.595728521194
 20
919.0035532687399
 30
0.0
 10
903.7599540321989
 20
918.9835798998982
 30
0.0
  0
LINE
  5
7AD4
330
1F
100
AcDbEntity
  8
AM_VIS
100
AcDbLine
 10
902.7746011693492
 20
920.1154041342526
 30
0.0
 11
903.4470379203481
 21
919.1167356921752
 31
0.0
  0
SPLINE
  5
7AD5
330
1F
100
AcDbEntity
  8
AM_VIS
100
AcDbSpline
210
0.0
220
0.0
230
1.0
 70
     8
 71
     3
 72
     8
 73
     4
 74
     0
 42
0.0000000001
 43
0.0000000001
 40
0.0
 40
0.0
 40
0.0
 40
0.0
 40
80.0
 40
80.0
 40
80.0
 40
80.0
 10
903.1574240721456
 20
920.2518888213365
 30
0.0
 10
903.0686535270293
 20
920.1919687148118
 30
0.0
 10
902.9410459096954
 20
920.1464738021856
 30
0.0
 10
902.7746011693492
 20
920.1154041342526
 30
0.0
  0
SPLINE
  5
7AD6
330
1F
100
AcDbEntity
  8
AM_VIS
100
AcDbSpline
210
0.0
220
0.0
230
1.0
 70
     8
 71
     3
 72
     8
 73
     4
 74
     0
 42
0.0000000001
 43
0.0000000001
 40
0.0
 40
0.0
 40
0.0
 40
0.0
 40
80.0
 40
80.0
 40
80.0
 40
80.0
 10
903.3937756034372
 20
920.7245918839197
 30
0.0
 10
903.3937756034372
 20
920.5137618456179
 30
0.0
 10
903.3149917427417
 20
920.3561941750217
 30
0.0
 10
903.1574240721456
 20
920.2518888213365
 30
0.0
  0
SPLINE
  5
7AD7
330
1F
100
AcDbEntity
  8
AM_VIS
100
AcDbSpline
210
0.0
220
0.0
230
1.0
 70
     8
 71
     3
 72
     8
 73
     4
 74
     0
 42
0.0000000001
 43
0.0000000001
 40
0.0
 40
0.0
 40
0.0
 40
0.0
 40
80.0
 40
80.0
 40
80.0
 40
80.0
 10
903.097503965621
 20
921.2605439478345
 30
0.0
 10
903.2950183739002
 20
921.1540193140129
 30
0.0
 10
903.3937756034372
 20
920.9753686091096
 30
0.0
 10
903.3937756034372
 20
920.7245918839197
 30
0.0
  0
SPLINE
  5
7AD8
330
1F
100
AcDbEntity
  8
AM_VIS
100
AcDbSpline
210
0.0
220
0.0
230
1.0
 70
     8
 71
     3
 72
     8
 73
     4
 74
     0
 42
0.0000000001
 43
0.0000000001
 40
0.0
 40
0.0
 40
0.0
 40
0.0
 40
80.0
 40
80.0
 40
80.0
 40
80.0
 10
902.5881830601615
 20
921.3670685816561
 30
0.0
 10
902.7945745381909
 20
921.3670685816561
 30
0.0
 10
902.964348173344
 20
921.3315603534505
 30
0.0
 10
903.097503965621
 20
921.2605439478345
 30
0.0
  0
LINE
  5
7AD9
330
1F
100
AcDbEntity
  8
AM_VIS
100
AcDbLine
 10
901.7026970415198
 20
921.3670685816561
 30
0.0
 11
902.5881830601615
 21
921.3670685816561
 31
0.0
  0
LINE
  5
7ADA
330
1F
100
AcDbEntity
  8
AM_VIS
100
AcDbLine
 10
901.7026970415198
 20
921.3004906855175
 30
0.0
 11
901.7026970415198
 21
921.3670685816561
 31
0.0
  0
SPLINE
  5
7ADB
330
1F
100
AcDbEntity
  8
AM_VIS
100
AcDbSpline
210
0.0
220
0.0
230
1.0
 70
     8
 71
     3
 72
     8
 73
     4
 74
     0
 42
0.0000000001
 43
0.0000000001
 40
0.0
 40
0.0
 40
0.0
 40
0.0
 40
80.0
 40
80.0
 40
80.0
 40
80.0
 10
901.9490352572322
 20
921.2139394205376
 30
0.0
 10
901.909088519549
 20
921.2583246676983
 30
0.0
 10
901.8269757640466
 20
921.2871751062898
 30
0.0
 10
901.7026970415198
 20
921.3004906855175
 30
0.0
  0
SPLINE
  5
7ADC
330
1F
100
AcDbEntity
  8
AM_VIS
100
AcDbSpline
210
0.0
220
0.0
230
1.0
 70
     8
 71
     3
 72
     8
 73
     4
 74
     0
 42
0.0000000001
 43
0.0000000001
 40
0.0
 40
0.0
 40
0.0
 40
0.0
 40
80.0
 40
80.0
 40
80.0
 40
80.0
 10
902.0222709429845
 20
920.9243255723352
 30
0.0
 10
902.0222708921897
 20
921.0641391542258
 30
0.0
 10
901.9978590138705
 20
921.1606771036267
 30
0.0
 10
901.9490352572322
 20
921.2139394205376
 30
0.0
  0
LINE
  5
7ADD
330
1F
100
AcDbEntity
  8
AM_VIS
100
AcDbLine
 10
902.0222709429845
 20
919.3996917507639
 30
0.0
 11
902.0222709429845
 21
920.9243255723352
 31
0.0
  0
SPLINE
  5
7ADE
330
1F
100
AcDbEntity
  8
AM_VIS
100
AcDbSpline
210
0.0
220
0.0
230
1.0
 70
     8
 71
     3
 72
     8
 73
     4
 74
     0
 42
0.0000000001
 43
0.0000000001
 40
0.0
 40
0.0
 40
0.0
 40
0.0
 40
80.0
 40
80.0
 40
80.0
 40
80.0
 10
901.959021941653
 20
919.09010453372
 30
0.0
 10
902.0011879086773
 20
919.145586079972
 30
0.0
 10
902.0222708921897
 20
919.2487818189867
 30
0.0
 10
902.0222709429845
 20
919.3996917507639
 30
0.0
  0
SPLINE
  5
7ADF
330
1F
100
AcDbEntity
  8
AM_VIS
100
AcDbSpline
210
0.0
220
0.0
230
1.0
 70
     8
 71
     3
 72
     8
 73
     4
 74
     0
 42
0.0000000001
 43
0.0000000001
 40
0.0
 40
0.0
 40
0.0
 40
0.0
 40
80.0
 40
80.0
 40
80.0
 40
80.0
 10
901.7026970415198
 20
918.9835798998982
 30
0.0
 10
901.8314142735242
 20
918.9968954791261
 30
0.0
 10
901.9168559238336
 20
919.0324037073315
 30
0.0
 10
901.959021941653
 20
919.09010453372
 30
0.0
  0
LINE
  5
7AE0
330
1F
100
AcDbEntity
  8
AM_VIS
100
AcDbLine
 10
901.7026970415198
 20
918.9170020037598
 30
0.0
 11
901.7026970415198
 21
918.9835798998982
 31
0.0
  0
LINE
  5
7AE1
330
1F
100
AcDbEntity
  8
AM_VIS
100
AcDbLine
 10
902.56820969132
 20
918.9170020037598
 30
0.0
 11
901.7026970415198
 21
918.9170020037598
 31
0.0
  0
LINE
  5
7AE2
330
1F
100
AcDbEntity
  8
AM_VIS
100
AcDbLine
 10
902.56820969132
 20
918.9835798998982
 30
0.0
 11
902.56820969132
 21
918.9170020037598
 31
0.0
  0
SPLINE
  5
7AE3
330
1F
100
AcDbEntity
  8
AM_VIS
100
AcDbSpline
210
0.0
220
0.0
230
1.0
 70
     8
 71
     3
 72
     8
 73
     4
 74
     0
 42
0.0000000001
 43
0.0000000001
 40
0.0
 40
0.0
 40
0.0
 40
0.0
 40
80.0
 40
80.0
 40
80.0
 40
80.0
 10
902.305227001573
 20
919.0767889544922
 30
0.0
 10
902.3518314780751
 20
919.0257459177177
 30
0.0
 10
902.4394924085207
 20
918.9946762497848
 30
0.0
 10
902.56820969132
 20
918.9835798998982
 30
0.0
  0
SPLINE
  5
7AE4
330
1F
100
AcDbEntity
  8
AM_VIS
100
AcDbSpline
210
0.0
220
0.0
230
1.0
 70
     8
 71
     3
 72
     8
 73
     4
 74
     0
 42
0.0000000001
 43
0.0000000001
 40
0.0
 40
0.0
 40
0.0
 40
0.0
 40
80.0
 40
80.0
 40
80.0
 40
80.0
 10
902.2319913158208
 20
919.3530872234671
 30
0.0
 10
902.2319913158208
 20
919.2221506605314
 30
0.0
 10
902.2564031941399
 20
919.1300512714031
 30
0.0
 10
902.305227001573
 20
919.0767889544922
 30
0.0
  0
LINE
  5
7AE5
330
1F
100
AcDbEntity
  8
AM_VIS
100
AcDbLine
 10
902.2319913158208
 20
920.0654707121486
 30
0.0
 11
902.2319913158208
 21
919.3530872234671
 31
0.0
  0
LINE
  5
7AE6
330
1F
100
AcDbEntity
  8
AM_VIS
100
AcDbLine
 10
902.5116184796022
 20
920.0787862913765
 30
0.0
 11
902.2319913158208
 21
920.0654707121486
 31
0.0
  0
LINE
  5
7AE7
330
1F
100
AcDbEntity
  8
AM_VIS
100
AcDbLine
 10
903.3005665488433
 20
918.9170020037598
 30
0.0
 11
902.5116184796022
 21
920.0787862913765
 31
0.0
  0
ENDSEC
  0
SECTION
  2
OBJECTS
  0
DICTIONARY
  5
C
330
0
100
AcDbDictionary
281
     1
  3
ACAD_COLOR
350
BE
  3
ACAD_GROUP
350
D
  3
ACAD_LAYOUT
350
1A
  3
ACAD_MATERIAL
350
BD
  3
ACAD_MLINESTYLE
350
17
  3
ACAD_PLOTSETTINGS
350
19
  3
ACAD_PLOTSTYLENAME
350
E
  3
ACAD_TABLESTYLE
350
11A
  3
ACDBHEADERROUNDTRIPXREC
350
7AF5
  3
AcDbVariableDictionary
350
94
  3
AcmDictionary
350
5B
  3
AMG
350
41
  3
AMGSNAPSETTINGS
350
1B8
  3
DWGPROPS
350
7AF4
  0
DICTIONARY
  5
3F9
330
2
100
AcDbDictionary
280
     1
281
     1
  3
ACAD_LAYERFILTERS
360
766B
  3
ACAD_LAYERSTATES
360
A94
  3
ACLYDICTIONARY
360
766A
  0
DICTIONARY
  5
8F
330
1F
100
AcDbDictionary
280
     1
281
     1
  3
ACAD_SORTENTS
360
7700
  0
DICTIONARY
  5
3655
330
3648
100
AcDbDictionary
280
     1
281
     1
  3
ACAD_DIMASSOC
360
3656
  0
DICTIONARY
  5
3684
330
3677
100
AcDbDictionary
280
     1
281
     1
  3
ACAD_DIMASSOC
360
3685
  0
DICTIONARY
  5
36B5
330
36A6
100
AcDbDictionary
280
     1
281
     1
  3
ACAD_DIMASSOC
360
36B6
  0
DICTIONARY
  5
36EC
330
36DF
100
AcDbDictionary
280
     1
281
     1
  3
ACAD_DIMASSOC
360
36ED
  0
DICTIONARY
  5
3712
330
3705
100
AcDbDictionary
280
     1
281
     1
  3
ACAD_DIMASSOC
360
3713
  0
DICTIONARY
  5
375E
330
3751
100
AcDbDictionary
280
     1
281
     1
  3
ACAD_DIMASSOC
360
375F
  0
DICTIONARY
  5
3784
330
3777
100
AcDbDictionary
280
     1
281
     1
  3
ACAD_DIMASSOC
360
3785
  0
DICTIONARY
  5
37AA
330
379D
100
AcDbDictionary
280
     1
281
     1
  3
ACAD_DIMASSOC
360
37AB
  0
DICTIONARY
  5
37D0
330
37C3
100
AcDbDictionary
280
     1
281
     1
  3
ACAD_DIMASSOC
360
37D1
  0
DICTIONARY
  5
37F6
330
37E9
100
AcDbDictionary
280
     1
281
     1
  3
ACAD_DIMASSOC
360
37F7
  0
DICTIONARY
  5
381C
330
380F
100
AcDbDictionary
280
     1
281
     1
  3
ACAD_DIMASSOC
360
381D
  0
DICTIONARY
  5
3842
330
3835
100
AcDbDictionary
280
     1
281
     1
  3
ACAD_DIMASSOC
360
3843
  0
DICTIONARY
  5
3868
330
385B
100
AcDbDictionary
280
     1
281
     1
  3
ACAD_DIMASSOC
360
3869
  0
DICTIONARY
  5
5712
330
5703
100
AcDbDictionary
280
     1
281
     1
  3
ACAD_DIMASSOC
360
5713
  0
DICTIONARY
  5
62F0
330
62E3
100
AcDbDictionary
280
     1
281
     1
  3
ACAD_DIMASSOC
360
62F1
  0
DICTIONARY
  5
6E63
330
6E56
100
AcDbDictionary
280
     1
281
     1
  3
ACAD_DIMASSOC
360
6E64
  0
DICTIONARY
  5
BE
102
{ACAD_REACTORS
330
C
102
}
330
C
100
AcDbDictionary
281
     1
  0
DICTIONARY
  5
D
102
{ACAD_REACTORS
330
C
102
}
330
C
100
AcDbDictionary
281
     1
  0
DICTIONARY
  5
1A
102
{ACAD_REACTORS
330
C
102
}
330
C
100
AcDbDictionary
281
     1
  3
Model
350
22
  3
配置1
350
1E
  3
配置2
350
26
  0
DICTIONARY
  5
BD
102
{ACAD_REACTORS
330
C
102
}
330
C
100
AcDbDictionary
281
     1
  0
DICTIONARY
  5
17
102
{ACAD_REACTORS
330
C
102
}
330
C
100
AcDbDictionary
281
     1
  3
Standard
350
18
  0
DICTIONARY
  5
19
102
{ACAD_REACTORS
330
C
102
}
330
C
100
AcDbDictionary
281
     1
  0
ACDBDICTIONARYWDFLT
  5
E
102
{ACAD_REACTORS
330
C
102
}
330
C
100
AcDbDictionary
281
     1
  3
Normal
350
F
100
AcDbDictionaryWithDefault
340
F
  0
DICTIONARY
  5
11A
102
{ACAD_REACTORS
330
C
102
}
330
C
100
AcDbDictionary
281
     1
  3
Standard
350
11B
  0
DICTIONARY
  5
7AF5
102
{ACAD_REACTORS
330
C
102
}
330
C
100
AcDbDictionary
281
     1
  0
DICTIONARY
  5
94
102
{ACAD_REACTORS
330
C
102
}
330
C
100
AcDbDictionary
281
     1
  3
CTABLESTYLE
350
138
  3
DIMASSOC
350
96
  3
INDEXCTL
350
95
  3
PROJECTNAME
350
790A
  0
DICTIONARY
  5
5B
102
{ACAD_REACTORS
330
C
102
}
330
C
100
AcDbDictionary
281
     1
  3
AcmBOM
350
1B5
  3
AcmStdDictionary
350
61
  3
AMDTSECTSYM_ARROWCOLOR
350
123
  0
DICTIONARY
  5
41
102
{ACAD_REACTORS
330
C
102
}
330
C
100
AcDbDictionary
281
     1
  0
DICTIONARY
  5
1B8
102
{ACAD_REACTORS
330
C
102
}
330
C
100
AcDbDictionary
281
     1
  0
XRECORD
  5
7AF4
102
{ACAD_REACTORS
330
C
102
}
330
C
100
AcDbXrecord
280
     1
  1
DWGPROPS COOKIE
  2

  3

  4

  6

  7

  8

  9

300
AmdtFileType=84
301
=
302
=
303
=
304
=
305
=
306
=
307
=
308
=
309
=
 40
0.4604938541666667
 41
2454098.708838426
 42
2454789.565238762
  1

 90
        1
  0
DICTIONARY
  5
766B
102
{ACAD_REACTORS
330
3F9
102
}
330
3F9
100
AcDbDictionary
281
     1
  0
DICTIONARY
  5
A94
102
{ACAD_REACTORS
330
3F9
102
}
330
3F9
100
AcDbDictionary
281
     1
  0
DICTIONARY
  5
766A
102
{ACAD_REACTORS
330
3F9
102
}
330
3F9
100
AcDbDictionary
281
     1
1001
ACAD
1000
<All
  0
SORTENTSTABLE
  5
7700
102
{ACAD_REACTORS
330
8F
102
}
330
8F
100
AcDbSortentsTable
330
1F
331
2C92
  5
2C92
331
2CC9
  5
2CC9
331
6329
  5
6329
331
2C9A
  5
2C9A
331
2CD1
  5
2CD1
331
62BA
  5
62BA
331
62C2
  5
62C2
331
2CA2
  5
2CA2
331
2CD9
  5
2CD9
331
2CAA
  5
2CAA
331
2B7C
  5
2B7C
331
2CE1
  5
2CE1
331
3634
  5
3634
331
2E06
  5
2E06
331
2E45
  5
2E45
331
2DBF
  5
2DBF
331
2D90
  5
2D90
331
2DC7
  5
2DC7
331
2E4D
  5
2E4D
331
2E55
  5
2E55
331
2D98
  5
2D98
331
2E5D
  5
2E5D
331
2CB2
  5
2CB2
331
2CE9
  5
2CE9
331
2CBA
  5
2CBA
331
2CF1
  5
2CF1
331
631A
  5
631A
331
627B
  5
627B
331
2CC2
  5
2CC2
331
2CF9
  5
2CF9
331
493C
  5
493C
331
6322
  5
6322
331
3835
  5
3835
331
2DA0
  5
2DA0
331
2E2E
  5
2E2E
331
2DDF
  5
2DDF
331
2DA8
  5
2DA8
331
2DB0
  5
2DB0
331
2DE7
  5
2DE7
331
2E36
  5
2E36
331
2DEF
  5
2DEF
331
2E3E
  5
2E3E
331
3625
  5
3625
331
2DFF
  5
2DFF
331
2C93
  5
2C93
331
2CCA
  5
2CCA
331
632A
  5
632A
331
62BB
  5
62BB
331
2CD2
  5
2CD2
331
2CA3
  5
2CA3
331
2CDA
  5
2CDA
331
62E3
  5
62E3
331
2CAB
  5
2CAB
331
2CE2
  5
2CE2
331
2DB8
  5
2DB8
331
3635
  5
3635
331
2E07
  5
2E07
331
2E46
  5
2E46
331
2DC0
  5
2DC0
331
2D91
  5
2D91
331
2DC8
  5
2DC8
331
2E4E
  5
2E4E
331
2E1F
  5
2E1F
331
2D99
  5
2D99
331
2E56
  5
2E56
331
2E5E
  5
2E5E
331
2CB3
  5
2CB3
331
2CEA
  5
2CEA
331
6F4A
  5
6F4A
331
2CBB
  5
2CBB
331
2CF2
  5
2CF2
331
631B
  5
631B
331
627C
  5
627C
331
2CC3
  5
2CC3
331
2CFA
  5
2CFA
331
6323
  5
6323
331
2DE0
  5
2DE0
331
2DA9
  5
2DA9
331
2E2F
  5
2E2F
331
2DB1
  5
2DB1
331
2DE8
  5
2DE8
331
2E37
  5
2E37
331
37C3
  5
37C3
331
2E3F
  5
2E3F
331
2C94
  5
2C94
331
2CCB
  5
2CCB
331
632B
  5
632B
331
62BC
  5
62BC
331
2CD3
  5
2CD3
331
2CA4
  5
2CA4
331
2CDB
  5
2CDB
331
2937
  5
2937
331
2CAC
  5
2CAC
331
2CE3
  5
2CE3
331
2E00
  5
2E00
331
2DB9
  5
2DB9
331
3636
  5
3636
331
2E08
  5
2E08
331
2DC1
  5
2DC1
331
2E47
  5
2E47
331
2DC9
  5
2DC9
331
2D92
  5
2D92
331
2E4F
  5
2E4F
331
2E57
  5
2E57
331
2D9A
  5
2D9A
331
2E20
  5
2E20
331
2CB4
  5
2CB4
331
2CEB
  5
2CEB
331
6F4B
  5
6F4B
331
380F
  5
380F
331
2CBC
  5
2CBC
331
2CF3
  5
2CF3
331
631C
  5
631C
331
627D
  5
627D
331
2CC4
  5
2CC4
331
2CFB
  5
2CFB
331
6324
  5
6324
331
2C8D
  5
2C8D
331
2DD9
  5
2DD9
331
2E30
  5
2E30
331
2DE1
  5
2DE1
331
2DAA
  5
2DAA
331
3705
  5
3705
331
2DE9
  5
2DE9
331
2DB2
  5
2DB2
331
2E38
  5
2E38
331
2C95
  5
2C95
331
2CCC
  5
2CCC
331
632C
  5
632C
331
62BD
  5
62BD
331
2C9D
  5
2C9D
331
2CD4
  5
2CD4
331
6E44
  5
6E44
331
2B77
  5
2B77
331
2CA5
  5
2CA5
331
2CDC
  5
2CDC
331
2CAD
  5
2CAD
331
2CE4
  5
2CE4
331
2E01
  5
2E01
331
2DBA
  5
2DBA
331
2E40
  5
2E40
331
3637
  5
3637
331
2E09
  5
2E09
331
2E48
  5
2E48
331
2DC2
  5
2DC2
331
36A6
  5
36A6
331
2D93
  5
2D93
331
2DCA
  5
2DCA
331
2E50
  5
2E50
331
2E21
  5
2E21
331
2E58
  5
2E58
331
2938
  5
2938
331
2CB5
  5
2CB5
331
2940
  5
2940
331
2CEC
  5
2CEC
331
2CBD
  5
2CBD
331
2CF4
  5
2CF4
331
631D
  5
631D
331
627E
  5
627E
331
2CC5
  5
2CC5
331
2CFC
  5
2CFC
331
6325
  5
6325
331
2C8E
  5
2C8E
331
2DDA
  5
2DDA
331
2DA3
  5
2DA3
331
2E29
  5
2E29
331
379D
  5
379D
331
2E31
  5
2E31
331
2DAB
  5
2DAB
331
2DE2
  5
2DE2
331
3677
  5
3677
331
2E39
  5
2E39
331
2DB3
  5
2DB3
331
2DEA
  5
2DEA
331
2DFA
  5
2DFA
331
2A00
  5
2A00
331
2C96
  5
2C96
331
2A10
  5
2A10
331
2CCD
  5
2CCD
331
632D
  5
632D
331
62BE
  5
62BE
331
2C9E
  5
2C9E
331
2CD5
  5
2CD5
331
6E45
  5
6E45
331
37E9
  5
37E9
331
2CA6
  5
2CA6
331
2B78
  5
2B78
331
2CDD
  5
2CDD
331
2CAE
  5
2CAE
331
2CE5
  5
2CE5
331
7702
  5
7702
331
2E02
  5
2E02
331
2E41
  5
2E41
331
2DBB
  5
2DBB
331
2E0A
  5
2E0A
331
2DC3
  5
2DC3
331
2E49
  5
2E49
331
3648
  5
3648
331
2E51
  5
2E51
331
2D94
  5
2D94
331
2E59
  5
2E59
331
2D9C
  5
2D9C
331
36DF
  5
36DF
331
2B80
  5
2B80
331
2939
  5
2939
331
2CB6
  5
2CB6
331
2CED
  5
2CED
331
6277
  5
6277
331
4938
  5
4938
331
2CBE
  5
2CBE
331
2CF5
  5
2CF5
331
631E
  5
631E
331
627F
  5
627F
331
743D
  5
743D
331
2CC6
  5
2CC6
331
29F9
  5
29F9
331
2CFD
  5
2CFD
331
6326
  5
6326
331
2C8F
  5
2C8F
331
62B7
  5
62B7
331
76C3
  5
76C3
331
2E2A
  5
2E2A
331
2DA4
  5
2DA4
331
2DDB
  5
2DDB
331
2E32
  5
2E32
331
2DE3
  5
2DE3
331
2DAC
  5
2DAC
331
2DEB
  5
2DEB
331
2DB4
  5
2DB4
331
2E3A
  5
2E3A
331
2DFB
  5
2DFB
331
2C97
  5
2C97
331
2CCE
  5
2CCE
331
632E
  5
632E
331
62BF
  5
62BF
331
2C9F
  5
2C9F
331
2CD6
  5
2CD6
331
2CA7
  5
2CA7
331
2B79
  5
2B79
331
2CDE
  5
2CDE
331
6E56
  5
6E56
331
2CE6
  5
2CE6
331
7703
  5
7703
331
2E03
  5
2E03
331
2D85
  5
2D85
331
2DBC
  5
2DBC
331
2E42
  5
2E42
331
2E4A
  5
2E4A
331
2D8D
  5
2D8D
331
2DC4
  5
2DC4
331
2E52
  5
2E52
331
2D95
  5
2D95
331
3777
  5
3777
331
2E5A
  5
2E5A
331
2D9D
  5
2D9D
331
293A
  5
293A
331
46C9
  5
46C9
331
2CB7
  5
2CB7
331
2B89
  5
2B89
331
2CEE
  5
2CEE
331
6278
  5
6278
331
4939
  5
4939
331
2CBF
  5
2CBF
331
2CF6
  5
2CF6
331
631F
  5
631F
331
743E
  5
743E
331
29FA
  5
29FA
331
2CC7
  5
2CC7
331
2CFE
  5
2CFE
331
6327
  5
6327
331
76C4
  5
76C4
331
2DDC
  5
2DDC
331
2DA5
  5
2DA5
331
2E33
  5
2E33
331
2DAD
  5
2DAD
331
2DE4
  5
2DE4
331
2E3B
  5
2E3B
331
2DB5
  5
2DB5
331
2DEC
  5
2DEC
331
2DFC
  5
2DFC
331
3622
  5
3622
331
2C90
  5
2C90
331
62B8
  5
62B8
331
2C98
  5
2C98
331
2CCF
  5
2CCF
331
632F
  5
632F
331
62C0
  5
62C0
331
2CD7
  5
2CD7
331
2CA0
  5
2CA0
331
2CDF
  5
2CDF
331
2CA8
  5
2CA8
331
2B7A
  5
2B7A
331
2CE7
  5
2CE7
331
7704
  5
7704
331
2E04
  5
2E04
331
2E43
  5
2E43
331
2DBD
  5
2DBD
331
2D8E
  5
2D8E
331
2DC5
  5
2DC5
331
2E4B
  5
2E4B
331
2DCD
  5
2DCD
331
2D96
  5
2D96
331
2E53
  5
2E53
331
2E5B
  5
2E5B
331
2D9E
  5
2D9E
331
293B
  5
293B
331
2CB0
  5
2CB0
331
46CA
  5
46CA
331
2CEF
  5
2CEF
331
2CB8
  5
2CB8
331
6318
  5
6318
331
6279
  5
6279
331
2CF7
  5
2CF7
331
2CC0
  5
2CC0
331
6320
  5
6320
331
29FB
  5
29FB
331
76C5
  5
76C5
331
2DDD
  5
2DDD
331
2E34
  5
2E34
331
2DE5
  5
2DE5
331
2DAE
  5
2DAE
331
2DED
  5
2DED
331
2DB6
  5
2DB6
331
2E3C
  5
2E3C
331
3751
  5
3751
331
2DFD
  5
2DFD
331
3623
  5
3623
331
2C91
  5
2C91
331
2CC8
  5
2CC8
331
6328
  5
6328
331
62B9
  5
62B9
331
2C99
  5
2C99
331
2CD0
  5
2CD0
331
62C1
  5
62C1
331
385B
  5
385B
331
2CD8
  5
2CD8
331
2CA1
  5
2CA1
331
2CE0
  5
2CE0
331
2CA9
  5
2CA9
331
2B7B
  5
2B7B
331
7705
  5
7705
331
2E05
  5
2E05
331
2DBE
  5
2DBE
331
2E44
  5
2E44
331
2E4C
  5
2E4C
331
2D8F
  5
2D8F
331
2DC6
  5
2DC6
331
2DCE
  5
2DCE
331
2D97
  5
2D97
331
2E54
  5
2E54
331
2E5C
  5
2E5C
331
2D9F
  5
2D9F
331
2CE8
  5
2CE8
331
2CB1
  5
2CB1
331
2CF0
  5
2CF0
331
2CB9
  5
2CB9
331
493B
  5
493B
331
2CF8
  5
2CF8
331
294C
  5
294C
331
2CC1
  5
2CC1
331
627A
  5
627A
331
6319
  5
6319
331
6321
  5
6321
331
29FC
  5
29FC
331
5703
  5
5703
331
76C6
  5
76C6
331
2DDE
  5
2DDE
331
2DA7
  5
2DA7
331
2E2D
  5
2E2D
331
2E35
  5
2E35
331
2DAF
  5
2DAF
331
2DE6
  5
2DE6
331
2E3D
  5
2E3D
331
2DEE
  5
2DEE
331
2DB7
  5
2DB7
331
2DFE
  5
2DFE
331
3624
  5
3624
  0
DIMASSOC
  5
3656
102
{ACAD_REACTORS
330
3655
102
}
330
3655
100
AcDbDimAssoc
330
3648
 90
        3
 70
     0
 71
     0
  1
AcDbOsnapPointRef
 72
    13
331
2DFE
 73
     0
 91
        0
 40
0.0
 10
0.0
 20
0.0
 30
2.000000000000000E+50
 75
     0
  1
AcDbOsnapPointRef
 72
     1
331
3625
 73
     0
 91
        0
 40
0.0
 10
0.0
 20
0.0
 30
2.000000000000000E+50
 75
     0
  0
DIMASSOC
  5
3685
102
{ACAD_REACTORS
330
3684
102
}
330
3684
100
AcDbDimAssoc
330
3677
 90
        3
 70
     0
 71
     0
  1
AcDbOsnapPointRef
 72
     1
331
3625
 73
     0
 91
        0
 40
0.0
 10
0.0
 20
0.0
 30
2.000000000000000E+50
 75
     0
  1
AcDbOsnapPointRef
 72
     1
331
3637
 73
     0
 91
        0
 40
0.0
 10
0.0
 20
0.0
 30
2.000000000000000E+50
 75
     0
  0
DIMASSOC
  5
36B6
102
{ACAD_REACTORS
330
36B5
102
}
330
36B5
100
AcDbDimAssoc
330
36A6
 90
        3
 70
     0
 71
     0
  1
AcDbOsnapPointRef
 72
     1
331
2DFE
 73
     0
 91
        0
 40
0.0
 10
0.0
 20
0.0
 30
2.000000000000000E+50
 75
     0
  1
AcDbOsnapPointRef
 72
     1
331
3624
 73
     0
 91
        0
 40
0.0
 10
0.0
 20
0.0
 30
2.000000000000000E+50
 75
     0
  0
DIMASSOC
  5
36ED
102
{ACAD_REACTORS
330
36EC
102
}
330
36EC
100
AcDbDimAssoc
330
36DF
 90
        3
 70
     0
 71
     0
  1
AcDbOsnapPointRef
 72
     1
331
2DB1
 73
     0
 91
        0
 40
0.0
 10
0.0
 20
0.0
 30
2.000000000000000E+50
 75
     0
  1
AcDbOsnapPointRef
 72
     1
331
2DB5
 73
     0
 91
        0
 40
0.0
 10
0.0
 20
0.0
 30
2.000000000000000E+50
 75
     0
  0
DIMASSOC
  5
3713
102
{ACAD_REACTORS
330
3712
102
}
330
3712
100
AcDbDimAssoc
330
3705
 90
        3
 70
     0
 71
     0
  1
AcDbOsnapPointRef
 72
    13
331
2E29
 73
     0
 91
        0
 40
0.0
 10
0.0
 20
0.0
 30
2.000000000000000E+50
 75
     0
  1
AcDbOsnapPointRef
 72
     1
331
2E2A
 73
     0
 91
        0
 40
0.0
 10
0.0
 20
0.0
 30
2.000000000000000E+50
 75
     0
  0
DIMASSOC
  5
375F
102
{ACAD_REACTORS
330
375E
102
}
330
375E
100
AcDbDimAssoc
330
3751
 90
        3
 70
     0
 71
     0
  1
AcDbOsnapPointRef
 72
    13
331
2E5A
 73
     0
 91
        0
 40
0.0
 10
0.0
 20
0.0
 30
2.000000000000000E+50
 75
     0
  1
AcDbOsnapPointRef
 72
     1
331
2DC2
 73
     0
 91
        0
 40
0.0
 10
0.0
 20
0.0
 30
2.000000000000000E+50
 75
     0
  0
DIMASSOC
  5
3785
102
{ACAD_REACTORS
330
3784
102
}
330
3784
100
AcDbDimAssoc
330
3777
 90
        3
 70
     0
 71
     0
  1
AcDbOsnapPointRef
 72
     1
331
2DC2
 73
     0
 91
        0
 40
0.0
 10
0.0
 20
0.0
 30
2.000000000000000E+50
 75
     0
  1
AcDbOsnapPointRef
 72
     1
331
2DBE
 73
     0
 91
        0
 40
0.0
 10
0.0
 20
0.0
 30
2.000000000000000E+50
 75
     0
  0
DIMASSOC
  5
37AB
102
{ACAD_REACTORS
330
37AA
102
}
330
37AA
100
AcDbDimAssoc
330
379D
 90
        3
 70
     0
 71
     0
  1
AcDbOsnapPointRef
 72
     1
331
2DBE
 73
     0
 91
        0
 40
0.0
 10
0.0
 20
0.0
 30
2.000000000000000E+50
 75
     0
  1
AcDbOsnapPointRef
 72
     1
331
2DBA
 73
     0
 91
        0
 40
0.0
 10
0.0
 20
0.0
 30
2.000000000000000E+50
 75
     0
  0
DIMASSOC
  5
37D1
102
{ACAD_REACTORS
330
37D0
102
}
330
37D0
100
AcDbDimAssoc
330
37C3
 90
        3
 70
     0
 71
     0
  1
AcDbOsnapPointRef
 72
     6
331
2E21
 73
     0
 91
        0
 40
0.9999999999999998
 10
0.0
 20
0.0
 30
0.0
332
2E2A
 74
     0
 92
        0
 75
     0
  1
AcDbOsnapPointRef
 72
     1
331
2DAE
 73
     0
 91
        0
 40
0.0
 10
0.0
 20
0.0
 30
2.000000000000000E+50
 75
     0
  0
DIMASSOC
  5
37F7
102
{ACAD_REACTORS
330
37F6
102
}
330
37F6
100
AcDbDimAssoc
330
37E9
 90
        3
 70
     0
 71
     0
  1
AcDbOsnapPointRef
 72
     1
331
2DAE
 73
     0
 91
        0
 40
0.0
 10
0.0
 20
0.0
 30
2.000000000000000E+50
 75
     0
  1
AcDbOsnapPointRef
 72
     1
331
2DAA
 73
     0
 91
        0
 40
0.0
 10
0.0
 20
0.0
 30
2.000000000000000E+50
 75
     0
  0
DIMASSOC
  5
381D
102
{ACAD_REACTORS
330
381C
102
}
330
381C
100
AcDbDimAssoc
330
380F
 90
        3
 70
     0
 71
     0
  1
AcDbOsnapPointRef
 72
     1
331
2DB0
 73
     0
 91
        0
 40
0.0
 10
0.0
 20
0.0
 30
2.000000000000000E+50
 75
     0
  1
AcDbOsnapPointRef
 72
     1
331
2DB4
 73
     0
 91
        0
 40
0.0
 10
0.0
 20
0.0
 30
2.000000000000000E+50
 75
     0
  0
DIMASSOC
  5
3843
102
{ACAD_REACTORS
330
3842
102
}
330
3842
100
AcDbDimAssoc
330
3835
 90
        3
 70
     0
 71
     0
  1
AcDbOsnapPointRef
 72
     6
331
2E21
 73
     0
 91
        0
 40
0.0
 10
0.0
 20
0.0
 30
0.0
332
2E29
 74
     0
 92
        0
 75
     0
  1
AcDbOsnapPointRef
 72
     1
331
2DB0
 73
     0
 91
        0
 40
0.0
 10
0.0
 20
0.0
 30
2.000000000000000E+50
 75
     0
  0
DIMASSOC
  5
3869
102
{ACAD_REACTORS
330
3868
102
}
330
3868
100
AcDbDimAssoc
330
385B
 90
        3
 70
     0
 71
     0
  1
AcDbOsnapPointRef
 72
     1
331
2DFE
 73
     0
 91
        0
 40
0.0
 10
0.0
 20
0.0
 30
2.000000000000000E+50
 75
     0
  1
AcDbOsnapPointRef
 72
    13
331
2E0A
 73
     0
 91
        0
 40
0.0
 10
0.0
 20
0.0
 30
2.000000000000000E+50
 75
     0
  0
DIMASSOC
  5
5713
102
{ACAD_REACTORS
330
5712
102
}
330
5712
100
AcDbDimAssoc
330
5703
 90
        2
 70
     0
 71
     0
  1
AcDbOsnapPointRef
 72
     1
331
2CBE
 73
     0
 91
        0
 40
0.0
 10
0.0
 20
0.0
 30
2.000000000000000E+50
 75
     0
  0
DIMASSOC
  5
62F1
102
{ACAD_REACTORS
330
62F0
102
}
330
62F0
100
AcDbDimAssoc
330
62E3
 90
        3
 70
     0
 71
     0
  1
AcDbOsnapPointRef
 72
     1
331
62BB
 73
     0
 91
        0
 40
0.0
 10
0.0
 20
0.0
 30
2.000000000000000E+50
 75
     0
  1
AcDbOsnapPointRef
 72
     1
331
627C
 73
     0
 91
        0
 40
0.0
 10
0.0
 20
0.0
 30
2.000000000000000E+50
 75
     0
  0
DIMASSOC
  5
6E64
102
{ACAD_REACTORS
330
6E63
102
}
330
6E63
100
AcDbDimAssoc
330
6E56
 90
        3
 70
     0
 71
     0
  1
AcDbOsnapPointRef
 72
     1
331
2E0A
 73
     0
 91
        0
 40
0.0
 10
0.0
 20
0.0
 30
2.000000000000000E+50
 75
     0
  1
AcDbOsnapPointRef
 72
    13
331
627C
 73
     0
 91
        0
 40
0.0
 10
0.0
 20
0.0
 30
2.000000000000000E+50
 75
     0
  0
LAYOUT
  5
22
102
{ACAD_XDICTIONARY
360
7AF8
102
}
102
{ACAD_REACTORS
330
1A
102
}
330
1A
100
AcDbPlotSettings
  1

  2
\\RD\EPSON Stylus C63 Series單色
  4
A4
  6

 40
3.757083177566528
 41
3.757076978683471
 42
3.757080078125
 43
3.757080078125
 44
209.9733276367187
 45
296.9683227539062
 46
0.0
 47
0.0
 48
0.0
 49
0.0
140
0.0
141
0.0
142
1.0
143
0.3405120737814363
 70
 11952
 72
     1
 73
     0
 74
     0
  7
單色出圖.ctb
 75
     0
147
2.936753428137963
148
-2047.07469463503
149
-1261.649717473083
100
AcDbLayout
  1
Model
 70
     1
 71
     0
 10
0.0
 20
0.0
 11
12.0
 21
9.0
 12
0.0
 22
0.0
 32
0.0
 14
0.0
 24
0.0
 34
0.0
 15
0.0
 25
0.0
 35
0.0
146
0.0
 13
0.0
 23
0.0
 33
0.0
 16
1.0
 26
0.0
 36
0.0
 17
0.0
 27
1.0
 37
0.0
 76
     0
330
1F
1001
ACAD_PSEXT
1000
\\RD\EPSON Stylus C63 Series單色
1000
EPSON Stylus C63 Series
1000
\\RD
1000

1070
     0
  0
LAYOUT
  5
1E
102
{ACAD_XDICTIONARY
360
7AF6
102
}
102
{ACAD_REACTORS
330
1A
102
}
330
1A
100
AcDbPlotSettings
  1

  2

  4

  6

 40
0.0
 41
0.0
 42
0.0
 43
0.0
 44
0.0
 45
0.0
 46
0.0
 47
0.0
 48
0.0
 49
0.0
140
0.0
141
0.0
142
1.0
143
1.0
 70
   688
 72
     0
 73
     0
 74
     5
  7
單色出圖.ctb
 75
    16
147
1.0
148
0.0
149
0.0
100
AcDbLayout
  1
配置1
 70
     1
 71
     1
 10
0.0
 20
0.0
 11
420.0
 21
297.0
 12
0.0
 22
0.0
 32
0.0
 14
1.000000000000000E+20
 24
1.000000000000000E+20
 34
1.000000000000000E+20
 15
-1.000000000000000E+20
 25
-1.000000000000000E+20
 35
-1.000000000000000E+20
146
0.0
 13
0.0
 23
0.0
 33
0.0
 16
1.0
 26
0.0
 36
0.0
 17
0.0
 27
1.0
 37
0.0
 76
     0
330
1B
  0
LAYOUT
  5
26
102
{ACAD_XDICTIONARY
360
7AFA
102
}
102
{ACAD_REACTORS
330
1A
102
}
330
1A
100
AcDbPlotSettings
  1

  2

  4

  6

 40
0.0
 41
0.0
 42
0.0
 43
0.0
 44
0.0
 45
0.0
 46
0.0
 47
0.0
 48
0.0
 49
0.0
140
0.0
141
0.0
142
1.0
143
1.0
 70
   688
 72
     0
 73
     0
 74
     5
  7
單色出圖.ctb
 75
    16
147
1.0
148
0.0
149
0.0
100
AcDbLayout
  1
配置2
 70
     1
 71
     2
 10
0.0
 20
0.0
 11
12.0
 21
9.0
 12
0.0
 22
0.0
 32
0.0
 14
0.0
 24
0.0
 34
0.0
 15
0.0
 25
0.0
 35
0.0
146
0.0
 13
0.0
 23
0.0
 33
0.0
 16
1.0
 26
0.0
 36
0.0
 17
0.0
 27
1.0
 37
0.0
 76
     0
330
23
  0
MLINESTYLE
  5
18
102
{ACAD_REACTORS
330
17
102
}
330
17
100
AcDbMlineStyle
  2
STANDARD
 70
     0
  3

 62
   256
 51
90.0
 52
90.0
 71
     2
 49
0.5
 62
   256
  6
BYLAYER
 49
-0.5
 62
   256
  6
BYLAYER
  0
ACDBPLACEHOLDER
  5
F
102
{ACAD_REACTORS
330
E
102
}
330
E
  0
TABLESTYLE
  5
11B
102
{ACAD_REACTORS
330
11A
102
}
330
11A
100
AcDbTableStyle
  3
Standard
 70
     0
 71
     0
 40
1.5
 41
1.5
280
     0
281
     0
  7
STANDARD
140
4.5
170
     2
 62
     0
 63
     7
283
     0
274
    -2
284
     1
 64
     0
275
    -2
285
     1
 65
     0
276
    -2
286
     1
 66
     0
277
    -2
287
     1
 67
     0
278
    -2
288
     1
 68
     0
279
    -2
289
     1
 69
     0
  7
STANDARD
140
6.0
170
     5
 62
     0
 63
     7
283
     0
274
    -2
284
     1
 64
     0
275
    -2
285
     1
 65
     0
276
    -2
286
     1
 66
     0
277
    -2
287
     1
 67
     0
278
    -2
288
     1
 68
     0
279
    -2
289
     1
 69
     0
  7
STANDARD
140
4.5
170
     5
 62
     0
 63
     7
283
     0
274
    -2
284
     1
 64
     0
275
    -2
285
     1
 65
     0
276
    -2
286
     1
 66
     0
277
    -2
287
     1
 67
     0
278
    -2
288
     1
 68
     0
279
    -2
289
     1
 69
     0
  0
DICTIONARYVAR
  5
138
102
{ACAD_REACTORS
330
94
102
}
330
94
100
DictionaryVariables
280
     0
  1
STANDARD
  0
DICTIONARYVAR
  5
96
102
{ACAD_REACTORS
330
94
102
}
330
94
100
DictionaryVariables
280
     0
  1
2
  0
DICTIONARYVAR
  5
95
102
{ACAD_REACTORS
330
94
102
}
330
94
100
DictionaryVariables
280
     0
  1
0
  0
DICTIONARYVAR
  5
790A
102
{ACAD_REACTORS
330
94
102
}
330
94
100
DictionaryVariables
280
     0
  1

  0
DICTIONARY
  5
1B5
102
{ACAD_REACTORS
330
5B
102
}
330
5B
100
AcDbDictionary
281
     1
  0
DICTIONARY
  5
61
102
{ACAD_REACTORS
330
5B
102
}
330
5B
100
AcDbDictionary
281
     1
  0
XRECORD
  5
123
102
{ACAD_REACTORS
330
5B
102
}
330
5B
100
AcDbXrecord
280
     1
 90
-1023410169
  0
DICTIONARY
  5
7AF8
330
22
100
AcDbDictionary
280
     1
281
     1
  3
ACAD_XREC_ROUNDTRIP
360
7AF9
  0
DICTIONARY
  5
7AF6
330
1E
100
AcDbDictionary
280
     1
281
     1
  3
ACAD_XREC_ROUNDTRIP
360
7AF7
  0
DICTIONARY
  5
7AFA
330
26
100
AcDbDictionary
280
     1
281
     1
  3
ACAD_XREC_ROUNDTRIP
360
7AFB
  0
XRECORD
  5
7AF9
102
{ACAD_REACTORS
330
7AF8
102
}
330
7AF8
100
AcDbXrecord
280
     1
102
SHADEPLOT
 70
     0
102
SHADEPLOTRESLEVEL
 70
     2
102
SHADEPLOTCUSTOMDPI
 70
   300
  0
XRECORD
  5
7AF7
102
{ACAD_REACTORS
330
7AF6
102
}
330
7AF6
100
AcDbXrecord
280
     1
102
SHADEPLOT
 70
     0
102
SHADEPLOTRESLEVEL
 70
     2
102
SHADEPLOTCUSTOMDPI
 70
   300
  0
XRECORD
  5
7AFB
102
{ACAD_REACTORS
330
7AFA
102
}
330
7AFA
100
AcDbXrecord
280
     1
102
SHADEPLOT
 70
     0
102
SHADEPLOTRESLEVEL
 70
     2
102
SHADEPLOTCUSTOMDPI
 70
   300
  0
ENDSEC
  0
EOF
