  0
SECTION
  2
HEADER
  9
$ACADVER
  1
AC1015
  9
$ACADMAINTVER
 70
    20
  9
$DWGCODEPAGE
  3
ANSI_950
  9
$INSBASE
 10
0.0
 20
0.0
 30
0.0
  9
$EXTMIN
 10
192.8973932024046
 20
131.9253651796091
 30
-0.0097559307547499
  9
$EXTMAX
 10
436.8687989410191
 20
405.4834934734538
 30
159.8582443745227
  9
$LIMMIN
 10
0.0
 20
0.0
  9
$LIMMAX
 10
420.0
 20
297.0
  9
$ORTHOMODE
 70
     1
  9
$REGENMODE
 70
     1
  9
$FILLMODE
 70
     1
  9
$QTEXTMODE
 70
     0
  9
$MIRRTEXT
 70
     1
  9
$LTSCALE
 40
1.0
  9
$ATTMODE
 70
     1
  9
$TEXTSIZE
 40
3.0
  9
$TRACEWID
 40
1.0
  9
$TEXTSTYLE
  7
STANDARD
  9
$CLAYER
  8
0
  9
$CELTYPE
  6
ByLayer
  9
$CECOLOR
 62
   256
  9
$CELTSCALE
 40
1.0
  9
$DISPSILH
 70
     0
  9
$DIMSCALE
 40
1.0
  9
$DIMASZ
 40
3.0
  9
$DIMEXO
 40
1.5
  9
$DIMDLI
 40
8.0
  9
$DIMRND
 40
0.0
  9
$DIMDLE
 40
0.0
  9
$DIMEXE
 40
1.5
  9
$DIMTP
 40
0.1
  9
$DIMTM
 40
0.1
  9
$DIMTXT
 40
3.5
  9
$DIMCEN
 40
0.0
  9
$DIMTSZ
 40
0.0
  9
$DIMTOL
 70
     0
  9
$DIMLIM
 70
     0
  9
$DIMTIH
 70
     0
  9
$DIMTOH
 70
     0
  9
$DIMSE1
 70
     0
  9
$DIMSE2
 70
     0
  9
$DIMTAD
 70
     1
  9
$DIMZIN
 70
     8
  9
$DIMBLK
  1

  9
$DIMASO
 70
     1
  9
$DIMSHO
 70
     1
  9
$DIMPOST
  1

  9
$DIMAPOST
  1
"
  9
$DIMALT
 70
     0
  9
$DIMALTD
 70
     2
  9
$DIMALTF
 40
0.0393701
  9
$DIMLFAC
 40
1.0
  9
$DIMTOFL
 70
     1
  9
$DIMTVP
 40
0.0
  9
$DIMTIX
 70
     0
  9
$DIMSOXD
 70
     0
  9
$DIMSAH
 70
     0
  9
$DIMBLK1
  1

  9
$DIMBLK2
  1

  9
$DIMSTYLE
  2
AM_ISO
  9
$DIMCLRD
 70
   256
  9
$DIMCLRE
 70
   256
  9
$DIMCLRT
 70
   256
  9
$DIMTFAC
 40
0.6
  9
$DIMGAP
 40
1.0
  9
$DIMJUST
 70
     0
  9
$DIMSD1
 70
     0
  9
$DIMSD2
 70
     0
  9
$DIMTOLJ
 70
     0
  9
$DIMTZIN
 70
     8
  9
$DIMALTZ
 70
     0
  9
$DIMALTTZ
 70
     0
  9
$DIMUPT
 70
     0
  9
$DIMDEC
 70
     2
  9
$DIMTDEC
 70
     8
  9
$DIMALTU
 70
     2
  9
$DIMALTTD
 70
     2
  9
$DIMTXSTY
  7
STANDARD
  9
$DIMAUNIT
 70
     0
  9
$DIMADEC
 70
     0
  9
$DIMALTRND
 40
0.0
  9
$DIMAZIN
 70
     2
  9
$DIMDSEP
 70
    46
  9
$DIMATFIT
 70
     3
  9
$DIMFRAC
 70
     0
  9
$DIMLDRBLK
  1

  9
$DIMLUNIT
 70
     2
  9
$DIMLWD
 70
    -1
  9
$DIMLWE
 70
    -1
  9
$DIMTMOVE
 70
     0
  9
$LUNITS
 70
     2
  9
$LUPREC
 70
     2
  9
$SKETCHINC
 40
1.0
  9
$FILLETRAD
 40
2.5
  9
$AUNITS
 70
     0
  9
$AUPREC
 70
     0
  9
$MENU
  1
.
  9
$ELEVATION
 40
0.0
  9
$PELEVATION
 40
0.0
  9
$THICKNESS
 40
0.0
  9
$LIMCHECK
 70
     0
  9
$CHAMFERA
 40
2.5
  9
$CHAMFERB
 40
2.5
  9
$CHAMFERC
 40
20.0
  9
$CHAMFERD
 40
0.0
  9
$SKPOLY
 70
     0
  9
$TDCREATE
 40
2454377.547735452
  9
$TDUCREATE
 40
2454377.214402118
  9
$TDUPDATE
 40
2454377.557467257
  9
$TDUUPDATE
 40
2454377.224133924
  9
$TDINDWG
 40
0.0094077315
  9
$TDUSRTIMER
 40
0.0094077315
  9
$USRTIMER
 70
     1
  9
$ANGBASE
 50
0.0
  9
$ANGDIR
 70
     0
  9
$PDMODE
 70
     0
  9
$PDSIZE
 40
0.0
  9
$PLINEWID
 40
0.0
  9
$SPLFRAME
 70
     0
  9
$SPLINETYPE
 70
     6
  9
$SPLINESEGS
 70
     8
  9
$HANDSEED
  5
136D
  9
$SURFTAB1
 70
     6
  9
$SURFTAB2
 70
     6
  9
$SURFTYPE
 70
     6
  9
$SURFU
 70
     6
  9
$SURFV
 70
     6
  9
$UCSBASE
  2

  9
$UCSNAME
  2

  9
$UCSORG
 10
0.0
 20
0.0
 30
0.0
  9
$UCSXDIR
 10
1.0
 20
0.0
 30
0.0
  9
$UCSYDIR
 10
0.0
 20
1.0
 30
0.0
  9
$UCSORTHOREF
  2

  9
$UCSORTHOVIEW
 70
     0
  9
$UCSORGTOP
 10
0.0
 20
0.0
 30
0.0
  9
$UCSORGBOTTOM
 10
0.0
 20
0.0
 30
0.0
  9
$UCSORGLEFT
 10
0.0
 20
0.0
 30
0.0
  9
$UCSORGRIGHT
 10
0.0
 20
0.0
 30
0.0
  9
$UCSORGFRONT
 10
0.0
 20
0.0
 30
0.0
  9
$UCSORGBACK
 10
0.0
 20
0.0
 30
0.0
  9
$PUCSBASE
  2

  9
$PUCSNAME
  2

  9
$PUCSORG
 10
0.0
 20
0.0
 30
0.0
  9
$PUCSXDIR
 10
1.0
 20
0.0
 30
0.0
  9
$PUCSYDIR
 10
0.0
 20
1.0
 30
0.0
  9
$PUCSORTHOREF
  2

  9
$PUCSORTHOVIEW
 70
     0
  9
$PUCSORGTOP
 10
0.0
 20
0.0
 30
0.0
  9
$PUCSORGBOTTOM
 10
0.0
 20
0.0
 30
0.0
  9
$PUCSORGLEFT
 10
0.0
 20
0.0
 30
0.0
  9
$PUCSORGRIGHT
 10
0.0
 20
0.0
 30
0.0
  9
$PUCSORGFRONT
 10
0.0
 20
0.0
 30
0.0
  9
$PUCSORGBACK
 10
0.0
 20
0.0
 30
0.0
  9
$USERI1
 70
     0
  9
$USERI2
 70
     0
  9
$USERI3
 70
     0
  9
$USERI4
 70
     0
  9
$USERI5
 70
     0
  9
$USERR1
 40
0.0
  9
$USERR2
 40
0.0
  9
$USERR3
 40
0.0
  9
$USERR4
 40
0.0
  9
$USERR5
 40
0.0
  9
$WORLDVIEW
 70
     1
  9
$SHADEDGE
 70
     3
  9
$SHADEDIF
 70
    70
  9
$TILEMODE
 70
     1
  9
$MAXACTVP
 70
    64
  9
$PINSBASE
 10
0.0
 20
0.0
 30
0.0
  9
$PLIMCHECK
 70
     0
  9
$PEXTMIN
 10
1.000000000000000E+20
 20
1.000000000000000E+20
 30
1.000000000000000E+20
  9
$PEXTMAX
 10
-1.000000000000000E+20
 20
-1.000000000000000E+20
 30
-1.000000000000000E+20
  9
$PLIMMIN
 10
0.0
 20
0.0
  9
$PLIMMAX
 10
420.0
 20
297.0
  9
$UNITMODE
 70
     0
  9
$VISRETAIN
 70
     1
  9
$PLINEGEN
 70
     0
  9
$PSLTSCALE
 70
     1
  9
$TREEDEPTH
 70
  3020
  9
$CMLSTYLE
  2
Standard
  9
$CMLJUST
 70
     0
  9
$CMLSCALE
 40
20.0
  9
$PROXYGRAPHICS
 70
     1
  9
$MEASUREMENT
 70
     1
  9
$CELWEIGHT
370
    -1
  9
$ENDCAPS
280
     0
  9
$JOINSTYLE
280
     0
  9
$LWDISPLAY
290
     0
  9
$INSUNITS
 70
     4
  9
$HYPERLINKBASE
  1

  9
$STYLESHEET
  1
彩色出圖.ctb
  9
$XEDIT
290
     1
  9
$CEPSNTYPE
380
     0
  9
$PSTYLEMODE
290
     1
  9
$FINGERPRINTGUID
  2
{88E0CF0B-DC25-42CB-8684-0A1959EEF669}
  9
$VERSIONGUID
  2
{D4C086C8-7F81-425E-A3F3-38FE90A8CD63}
  9
$EXTNAMES
290
     1
  9
$PSVPSCALE
 40
0.0
  9
$OLESTARTUP
290
     0
  0
ENDSEC
  0
SECTION
  2
CLASSES
  0
CLASS
  1
ACDBDICTIONARYWDFLT
  2
AcDbDictionaryWithDefault
  3
ObjectDBX Classes
 90
        0
280
     0
281
     0
  0
CLASS
  1
ACDBPLACEHOLDER
  2
AcDbPlaceHolder
  3
ObjectDBX Classes
 90
        0
280
     0
281
     0
  0
CLASS
  1
LAYOUT
  2
AcDbLayout
  3
ObjectDBX Classes
 90
        0
280
     0
281
     0
  0
CLASS
  1
ACME_DOCUMENT
  2
AcMeDbDoc
  3
AcMeServices
 90
        0
280
     0
281
     0
  0
CLASS
  1
AMGSETTINGSOBJ
  2
AmgSettingsObj
  3
"AcadM|Product Description: AutoCAD Mechanical 2000|Company: Autodesk"
 90
        0
280
     0
281
     0
  0
CLASS
  1
ACMESCOPE
  2
AcMeScope
  3
AcMeServices
 90
        0
280
     0
281
     0
  0
CLASS
  1
ACMECOMMANDHISTORY
  2
AcMeCommandHistory
  3
AcMeServices
 90
        0
280
     0
281
     0
  0
CLASS
  1
ACIMSYSVARMAN
  2
AcImSysVarManager
  3
AcMeServices
 90
        0
280
     0
281
     0
  0
CLASS
  1
ACIMREALSYSVAR
  2
AcImRealSysVar
  3
AcMeServices
 90
        0
280
     0
281
     0
  0
CLASS
  1
ACIMINTSYSVAR
  2
AcImIntSysVar
  3
AcMeServices
 90
        0
280
     0
281
     0
  0
CLASS
  1
ACMEDRAWINGMAN
  2
AcMeDrawingMan
  3
AcMeServices
 90
        0
280
     0
281
     0
  0
CLASS
  1
ACMEVIEW
  2
AcMeView
  3
AcMeServices
 90
        0
280
     0
281
     0
  0
CLASS
  1
ACDBENTITYCACHE
  2
AcMeEntityCache
  3
AcMeServices
 90
        0
280
     0
281
     0
  0
CLASS
  1
GSMANAGER
  2
AcMeGSManager
  3
AcMeServices
 90
        0
280
     0
281
     0
  0
CLASS
  1
AMDTINTERNALREACTOR
  2
AmdtInternalReactor
  3
AcMeServices
 90
        0
280
     0
281
     0
  0
CLASS
  1
ACMESTATEMGR
  2
AcMeStateMgr
  3
AcMeServices
 90
        0
280
     0
281
     0
  0
CLASS
  1
ACGREFMASTER
  2
AcGrefMaster
  3
AcAttribServices
 90
        0
280
     0
281
     0
  0
CLASS
  1
ACME_DATABASE
  2
AcMeDbDatabase
  3
AcMeServices
 90
        0
280
     0
281
     0
  0
CLASS
  1
ACRFINSADJUSTERMGR
  2
AcRfInsAdjusterMgr
  3
AcMeServices
 90
        0
280
     0
281
     0
  0
CLASS
  1
ACGREFACADMASTER
  2
AcGrefacadMaster
  3
AcGrefServices
 90
        0
280
     0
281
     0
  0
CLASS
  1
AMIMASTER
  2
AmiMaster
  3
AmiServices
 90
        0
280
     0
281
     0
  0
CLASS
  1
ACMDATADICTIONARY
  2
AcmDataDictionary
  3
"AcmSymBB|Product Description: AutoCAD Mechanical 2004 DX|Company: Autodesk"
 90
        0
280
     0
281
     0
  0
CLASS
  1
ACMDATAENTRYBLOCK
  2
AcmDataEntryBlock
  3
"AcmSymBB|Product Description: AutoCAD Mechanical 2004 DX|Company: Autodesk"
 90
        0
280
     0
281
     0
  0
CLASS
  1
ACIMSTRSYSVAR
  2
AcImStrSysVar
  3
AcMeServices
 90
        0
280
     0
281
     0
  0
CLASS
  1
ACMSTANDARDISO
  2
AcmStandardISO
  3
"Amdt_StdImp|Product Description: AutoCAD Mechanical 2004 DX|Company: Autodesk"
 90
        0
280
     0
281
     0
  0
CLASS
  1
AMGOBJPROPCFG
  2
AmgObjPropCfg
  3
"AmgLay|Product Description: AutoCAD Mechanical 2000|Company: Autodesk"
 90
        1
280
     0
281
     0
  0
CLASS
  1
AMDTEDGESTANDARDISO
  2
AmdtEdgeStdISO
  3
"Amdt_StdImp|Product Description: AutoCAD Mechanical 2004 DX|Company: Autodesk"
 90
        0
280
     0
281
     0
  0
CLASS
  1
ACMSURFSTANDARDISO
  2
AcmSurfTextStdISO
  3
"Amdt_StdImp|Product Description: AutoCAD Mechanical 2004 DX|Company: Autodesk"
 90
        0
280
     0
281
     0
  0
CLASS
  1
ACMFCFSTANDARDISO
  2
AcmFCFStdISO
  3
"Amdt_StdImp|Product Description: AutoCAD Mechanical 2004 DX|Company: Autodesk"
 90
        0
280
     0
281
     0
  0
CLASS
  1
ACMWELDSTANDARDISO
  2
AcmWeldingStdISO
  3
"Amdt_StdImp|Product Description: AutoCAD Mechanical 2004 DX|Company: Autodesk"
 90
        0
280
     0
281
     0
  0
CLASS
  1
ACMIDSTANDARDISO
  2
AcmIdStdISO
  3
"Amdt_StdImp|Product Description: AutoCAD Mechanical 2004 DX|Company: Autodesk"
 90
        0
280
     0
281
     0
  0
CLASS
  1
ACMDATUMSTANDARDISO
  2
AcmDatumStdISO
  3
"Amdt_StdImp|Product Description: AutoCAD Mechanical 2004 DX|Company: Autodesk"
 90
        0
280
     0
281
     0
  0
CLASS
  1
ACMBOMSTANDARDISO
  2
AcmBOMStdISO
  3
"Amdt_StdImp|Product Description: AutoCAD Mechanical 2004 DX|Company: Autodesk"
 90
        0
280
     0
281
     0
  0
CLASS
  1
ACMDETAILSTANDARDISO
  2
AmdtDetailSymStdISO
  3
"Amdt_StdImp|Product Description: AutoCAD Mechanical 2004 DX|Company: Autodesk"
 90
        0
280
     0
281
     0
  0
CLASS
  1
ACMSECTIONSTANDARDISO
  2
AmdtSectionSymStdISO
  3
"Amdt_StdImp|Product Description: AutoCAD Mechanical 2004 DX|Company: Autodesk"
 90
        0
280
     0
281
     0
  0
CLASS
  1
ACMCENTERLINESTANDARDISO
  2
AmdtCenterLineStdISO
  3
"Amdt_StdImp|Product Description: AutoCAD Mechanical 2004 DX|Company: Autodesk"
 90
        0
280
     0
281
     0
  0
CLASS
  1
ACMNOTESTANDARDISO
  2
AmdtNoteStdISO
  3
"Amdt_StdImp|Product Description: AutoCAD Mechanical 2004 DX|Company: Autodesk"
 90
        0
280
     0
281
     0
  0
CLASS
  1
ACAMGLAYSTD
  2
AcAmgLayStd
  3
"AcAmgLayStd|Product Description: AutoCAD Mechanical 2000|Company: Autodesk"
 90
        0
280
     0
281
     0
  0
CLASS
  1
ACAMGDIMSTD
  2
AcAmgDimStd
  3
"AcAmgDimStd|Product Description: AutoCAD Mechanical 2000|Company: Autodesk"
 90
        0
280
     0
281
     0
  0
CLASS
  1
ACAMGHOLECHARTSTDISO
  2
AcAmgHoleChartStdISO
  3
ACMSYMBB_MODULE_NAME
 90
        0
280
     0
281
     0
  0
CLASS
  1
ACAMGTITLESTD
  2
AcAmgTitleStd
  3
"TITLEAPP"
 90
        0
280
     0
281
     0
  0
CLASS
  1
LAYER_INDEX
  2
AcDbLayerIndex
  3
ObjectDBX Classes
 90
    32768
280
     0
281
     0
  0
CLASS
  1
IDBUFFER
  2
AcDbIdBuffer
  3
ObjectDBX Classes
 90
    32768
280
     0
281
     0
  0
CLASS
  1
DICTIONARYVAR
  2
AcDbDictionaryVar
  3
ObjectDBX Classes
 90
        0
280
     0
281
     0
  0
CLASS
  1
AM_DRAWING_MGR
  2
AcDmDwgMgr
  3
AcMechDwgViewMgmt
 90
        0
280
     0
281
     0
  0
CLASS
  1
AM_DWG_DOCUMENT
  2
AcDmDwgDocument
  3
AcMechDwgViewMgmt
 90
        0
280
     0
281
     0
  0
CLASS
  1
AM_DWG_SHEET
  2
AcDmSheet
  3
AcMechDwgViewMgmt
 90
        0
280
     0
281
     0
  0
CLASS
  1
AM_VIEWDIMPARMAP
  2
AcDmViewDimParMap
  3
AcMechDwgViewMgmt
 90
        0
280
     0
281
     0
  0
CLASS
  1
AM_DWGMGR_NAME
  2
AcDmDwgMgrName
  3
AcMechDwgViewMgmt
 90
        0
280
     0
281
     0
  0
CLASS
  1
AMDTMENUSTATEMGR
  2
AmdtMenuStateMgr
  3
McadcomServices
 90
        0
280
     0
281
     0
  0
CLASS
  1
AMDTMCOMMENUSTATE
  2
AmdtMcomMenuState
  3
McadcomServices
 90
        0
280
     0
281
     0
  0
CLASS
  1
MAPIAMMOUDLE
  2
MApiAmModule
  3
MApiAmServices
 90
        0
280
     0
281
     0
  0
CLASS
  1
AMDTADMENUSTATE
  2
AmdtAdMenuState
  3
DesignerServices
 90
        0
280
     0
281
     0
  0
CLASS
  1
ADAPPL
  2
AcAdAppl
  3
DesignerServices
 90
        0
280
     0
281
     0
  0
CLASS
  1
DEPMGR
  2
AcAdDepMgr
  3
DesignerServices
 90
        0
280
     0
281
     0
  0
CLASS
  1
PARAMMGR
  2
AcAdParamMgr
  3
DesignerServices
 90
        0
280
     0
281
     0
  0
CLASS
  1
PARAMSCOPE
  2
AcAdParamScope
  3
DesignerServices
 90
        0
280
     0
281
     0
  0
CLASS
  1
NAMEDAPPL
  2
AcAdNamedAppl
  3
DesignerServices
 90
        0
280
     0
281
     0
  0
CLASS
  1
AMDTDMMENUSTATE
  2
AmdtDmMenuState
  3
AcMechDwgViewMgmt
 90
        0
280
     0
281
     0
  0
CLASS
  1
AMDTAMMENUSTATE
  2
AmdtAmMenuState
  3
DesignerAssemblies
 90
        0
280
     0
281
     0
  0
CLASS
  1
ACAMPROJECT
  2
AcAmProject
  3
DesignerAssemblies
 90
        0
280
     0
281
     0
  0
CLASS
  1
ACAMGRCOMPDEF
  2
AcAmGrCompDef
  3
DesignerAssemblies
 90
        0
280
     0
281
     0
  0
CLASS
  1
ACCMCONTEXT
  2
AcCmContext
  3
DesignerAssemblies
 90
        0
280
     0
281
     0
  0
CLASS
  1
ACAMCOMPDEF
  2
AcAmCompDef
  3
DesignerAssemblies
 90
        0
280
     0
281
     0
  0
CLASS
  1
ACAMCOMPDEFMGR
  2
AcAmCompDefMgr
  3
DesignerAssemblies
 90
        0
280
     0
281
     0
  0
CLASS
  1
AMCONTEXTMGR
  2
AcAmContextMgr
  3
DesignerAssemblies
 90
        0
280
     0
281
     0
  0
CLASS
  1
ACAMCONTEXTMODELER
  2
AcAmContextModeler
  3
DesignerAssemblies
 90
        0
280
     0
281
     0
  0
CLASS
  1
ACMTHREADLINESTANDARDISO
  2
AmdtThreadLineStdISO
  3
"Amdt_StdImp|Product Description: AutoCAD Mechanical 2004 DX|Company: Autodesk"
 90
        0
280
     0
281
     0
  0
CLASS
  1
CATALOGSTATE
  2
AcAmCatalogState
  3
DesignerAssemblies
 90
        0
280
     0
281
     0
  0
CLASS
  1
ACAMGRCOMPDEFSET
  2
AcAmGrCompDefSet
  3
DesignerAssemblies
 90
        0
280
     0
281
     0
  0
CLASS
  1
AMDTBROWSERDBTAB
  2
AmdtBrowserDbTab
  3
McadcomServices
 90
        0
280
     0
281
     0
  0
CLASS
  1
CBROWSERAPPOBJECT
  2
CBrowserAppObject
  3
McadcomServices
 90
        0
280
     0
281
     0
  0
CLASS
  1
DM_PLACEHOLDER
  2
AcDmSelsetPlaceholder
  3
AcMechDwgViewMgmt
 90
        0
280
     0
281
     0
  0
CLASS
  1
TABLESTYLE
  2
AcDbTableStyle
  3
ObjectDBX Classes
 90
     2047
280
     0
281
     0
  0
CLASS
  1
VAACXREFPANELOBJECT
  2
VaAcXREFPanelObject
  3
VAAC_ADDIN
 90
    32768
280
     0
281
     0
  0
CLASS
  1
VAACIMAGEINVENTORY
  2
VaAcImageInventory
  3
VAAC_ADDIN
 90
    32768
280
     0
281
     0
  0
CLASS
  1
AMDTNOTETEMPLATEDB
  2
AmdtNoteTemplateDB
  3
AMDT_STDIMP_MODULE_NAME
 90
        0
280
     0
281
     0
  0
CLASS
  1
ACMBOM
  2
AcmBom
  3
"AcmSymBB|Product Description: AutoCAD Mechanical 2004 DX|Company: Autodesk"
 90
    32768
280
     0
281
     0
  0
CLASS
  1
AMDTFORMULAUPDATEDISPATCHER
  2
AmdtFormulaUpdateDispatcher
  3
AcMeServices
 90
    32768
280
     0
281
     0
  0
CLASS
  1
ACMPARTLIST
  2
AcmPartList
  3
"AcmSymBB|Product Description: AutoCAD Mechanical 2004 DX|Company: Autodesk"
 90
    33791
280
     0
281
     1
  0
CLASS
  1
ACAMGFILTERDAT
  2
AcAmgFilterDat
  3
"AcadM|Product Description: AutoCAD Mechanical 2000|Company: Autodesk"
 90
        0
280
     0
281
     0
  0
CLASS
  1
DIMASSOC
  2
AcDbDimAssoc
  3
"AcDbDimAssoc|Product Desc:     AcDim ARX App For Dimension|Company:          Autodesk, Inc.|WEB Address:      www.autodesk.com"
 90
    32768
280
     0
281
     0
  0
CLASS
  1
SORTENTSTABLE
  2
AcDbSortentsTable
  3
ObjectDBX Classes
 90
    32768
280
     0
281
     0
  0
CLASS
  1
AMDTNOTE
  2
AmdtNote
  3
"AcmSymBB|Product Description: AutoCAD Mechanical 2004 DX|Company: Autodesk"
 90
     1023
280
     0
281
     1
  0
CLASS
  1
ACRFATTGENMGR
  2
AcRfAttGeneralMgr
  3
AcAttribServices
 90
        0
280
     0
281
     0
  0
ENDSEC
  0
SECTION
  2
TABLES
  0
TABLE
  2
VPORT
  5
8
330
0
100
AcDbSymbolTable
 70
     3
  0
VPORT
  5
1364
330
8
100
AcDbSymbolTableRecord
100
AcDbViewportTableRecord
  2
*Active
 70
     0
 10
0.0
 20
0.0
 11
1.0
 21
1.0
 12
314.8734861623655
 22
268.6962287427621
 13
0.0
 23
0.0
 14
2.5
 24
2.5
 15
10.0
 25
10.0
 16
0.0
 26
0.0
 36
1.0
 17
0.0
 27
0.0
 37
0.0
 40
275.7767791425472
 41
1.421195652173913
 42
50.0
 43
0.0
 44
0.0
 50
0.0
 51
0.0
 71
     0
 72
   100
 73
     1
 74
     3
 75
     0
 76
     0
 77
     0
 78
     0
281
     0
 65
     1
110
0.0
120
0.0
130
0.0
111
1.0
121
0.0
131
0.0
112
0.0
122
1.0
132
0.0
 79
     0
146
0.0
  0
ENDTAB
  0
TABLE
  2
LTYPE
  5
5
330
0
100
AcDbSymbolTable
 70
    14
  0
LTYPE
  5
14
330
5
100
AcDbSymbolTableRecord
100
AcDbLinetypeTableRecord
  2
ByBlock
 70
     0
  3

 72
    65
 73
     0
 40
0.0
  0
LTYPE
  5
15
330
5
100
AcDbSymbolTableRecord
100
AcDbLinetypeTableRecord
  2
ByLayer
 70
     0
  3

 72
    65
 73
     0
 40
0.0
  0
LTYPE
  5
16
330
5
100
AcDbSymbolTableRecord
100
AcDbLinetypeTableRecord
  2
Continuous
 70
     0
  3
Solid line
 72
    65
 73
     0
 40
0.0
  0
LTYPE
  5
64
330
5
100
AcDbSymbolTableRecord
100
AcDbLinetypeTableRecord
  2
AM_ISO02W050
 70
     0
  3
__ __ __ __ __ __ __ __ __ __ __ __ __ __ __
 72
    65
 73
     2
 40
7.5
 49
6.0
 74
     0
 49
-1.5
 74
     0
  0
LTYPE
  5
65
330
5
100
AcDbSymbolTableRecord
100
AcDbLinetypeTableRecord
  2
AM_ISO08W050
 70
     0
  3
____ . ____ . ____ . ____ . ____ . ____ . ____
 72
    65
 73
     4
 40
18.0
 49
12.0
 74
     0
 49
-1.5
 74
     0
 49
3.0
 74
     0
 49
-1.5
 74
     0
  0
LTYPE
  5
66
330
5
100
AcDbSymbolTableRecord
100
AcDbLinetypeTableRecord
  2
AM_ISO09W050
 70
     0
  3
_____ . . _____ . . _____ . . ____ .. ____
 72
    65
 73
     6
 40
22.5
 49
12.0
 74
     0
 49
-1.5
 74
     0
 49
3.0
 74
     0
 49
-1.5
 74
     0
 49
3.0
 74
     0
 49
-1.5
 74
     0
  0
LTYPE
  5
67
330
5
100
AcDbSymbolTableRecord
100
AcDbLinetypeTableRecord
  2
Amconstr
 70
     0
  3
_______________________
 72
    65
 73
     2
 40
9999.0
 49
9999.0
 74
     0
 49
0.0
 74
     0
  0
LTYPE
  5
68
330
5
100
AcDbSymbolTableRecord
100
AcDbLinetypeTableRecord
  2
AM_ISO08W050x2
 70
     0
  3
__ . __ . __ . __ . __ . __
 72
    65
 73
     4
 40
9.0
 49
6.0
 74
     0
 49
-0.75
 74
     0
 49
1.5
 74
     0
 49
-0.75
 74
     0
  0
LTYPE
  5
69
330
5
100
AcDbSymbolTableRecord
100
AcDbLinetypeTableRecord
  2
AM_ISO02W050x2
 70
     0
  3
 _ _ _ _ _ _ _ _ _ _ _ _
 72
    65
 73
     2
 40
3.75
 49
3.0
 74
     0
 49
-0.75
 74
     0
  0
LTYPE
  5
6C
330
5
100
AcDbSymbolTableRecord
100
AcDbLinetypeTableRecord
  2
Amzigzag
 70
     0
  3
/\/-/\/-/\/-/\/-/\/-/\/
 72
    65
 73
     2
 40
11.0001
 49
0.0001
 74
     4
 75
   135
340
6B
 46
0.04
 50
0.0
 44
0.0
 45
0.0
 49
-11.0
 74
     0
  0
LTYPE
  5
7A
330
5
100
AcDbSymbolTableRecord
100
AcDbLinetypeTableRecord
  2
ACISOWELD
 70
     0
  3
_ _ _ _ _
 72
    65
 73
     2
 40
2.0
 49
2.0
 74
     0
 49
-1.0
 74
     0
  0
LTYPE
  5
7B
330
5
100
AcDbSymbolTableRecord
100
AcDbLinetypeTableRecord
  2
ACISOTGB
 70
     0
  3
__ . . __ . .
 72
    65
 73
     6
 40
9.0
 49
4.0
 74
     0
 49
-1.0
 74
     0
 49
1.0
 74
     0
 49
-1.0
 74
     0
 49
1.0
 74
     0
 49
-1.0
 74
     0
  0
LTYPE
  5
7C
330
5
100
AcDbSymbolTableRecord
100
AcDbLinetypeTableRecord
  2
ACISOTGL
 70
     0
  3
_ _ _ _ _
 72
    65
 73
     2
 40
3.0
 49
2.0
 74
     0
 49
-1.0
 74
     0
  0
LTYPE
  5
7E
330
5
100
AcDbSymbolTableRecord
100
AcDbLinetypeTableRecord
  2
CENTER
 70
     0
  3
__ . __
 72
    65
 73
     4
 40
7.0
 49
4.0
 74
     0
 49
-1.0
 74
     0
 49
1.0
 74
     0
 49
-1.0
 74
     0
  0
LTYPE
  5
D8
330
5
100
AcDbSymbolTableRecord
100
AcDbLinetypeTableRecord
  2
HIDDEN
 70
     0
  3
Hidden __ __ __ __ __ __ __ __ __ __ __ __ __ _
 72
    65
 73
     2
 40
9.524999999999998
 49
6.349999999999999
 74
     0
 49
-3.174999999999999
 74
     0
  0
LTYPE
  5
D9
330
5
100
AcDbSymbolTableRecord
100
AcDbLinetypeTableRecord
  2
PHANTOM2
 70
     0
  3
Phantom (.5x) ___ _ _ ___ _ _ ___ _ _ ___ _ _
 72
    65
 73
     6
 40
31.75
 49
15.875
 74
     0
 49
-3.174999999999999
 74
     0
 49
3.174999999999999
 74
     0
 49
-3.174999999999999
 74
     0
 49
3.174999999999999
 74
     0
 49
-3.174999999999999
 74
     0
  0
ENDTAB
  0
TABLE
  2
LAYER
  5
2
102
{ACAD_XDICTIONARY
360
3F9
102
}
330
0
100
AcDbSymbolTable
 70
     8
  0
LAYER
  5
10
330
2
100
AcDbSymbolTableRecord
100
AcDbLayerTableRecord
  2
0
 70
     0
 62
     7
  6
Continuous
370
    -3
390
F
  0
LAYER
  5
ACA
330
2
100
AcDbSymbolTableRecord
100
AcDbLayerTableRecord
  2
底
 70
     0
 62
     6
  6
Continuous
370
    -3
390
F
1001
AcAecLayerStandard
1000

1000

  0
LAYER
  5
ACB
330
2
100
AcDbSymbolTableRecord
100
AcDbLayerTableRecord
  2
LOGO
 70
     0
 62
     7
  6
Continuous
370
    -3
390
F
  0
LAYER
  5
CCA
330
2
100
AcDbSymbolTableRecord
100
AcDbLayerTableRecord
  2
AM_VIS
 70
     0
 62
     7
  6
Continuous
370
    50
390
F
  0
LAYER
  5
CCB
330
2
100
AcDbSymbolTableRecord
100
AcDbLayerTableRecord
  2
Defpoints
 70
     0
 62
     7
  6
Continuous
290
     0
370
    -3
390
F
  0
LAYER
  5
CCC
330
2
100
AcDbSymbolTableRecord
100
AcDbLayerTableRecord
  2
AM_7
 70
     0
 62
     1
  6
CENTER
370
    25
390
F
  0
LAYER
  5
CCD
330
2
100
AcDbSymbolTableRecord
100
AcDbLayerTableRecord
  2
AM_5
 70
     0
 62
     5
  6
Continuous
370
    50
390
F
  0
LAYER
  5
CCE
330
2
100
AcDbSymbolTableRecord
100
AcDbLayerTableRecord
  2
AM_4
 70
     0
 62
     3
  6
Continuous
370
    25
390
F
  0
ENDTAB
  0
TABLE
  2
STYLE
  5
3
330
0
100
AcDbSymbolTable
 70
     6
  0
STYLE
  5
11
330
3
100
AcDbSymbolTableRecord
100
AcDbTextStyleTableRecord
  2
STANDARD
 70
     0
 40
0.0
 41
1.0
 50
0.0
 71
     0
 42
3.0
  3
ISOCP.SHX
  4
CHINESET.SHX
  0
STYLE
  5
6B
330
3
100
AcDbSymbolTableRecord
100
AcDbTextStyleTableRecord
  2

 70
     1
 40
0.0
 41
1.0
 50
0.0
 71
     0
 42
2.5
  3
ltypeshp.shx
  4

  0
STYLE
  5
6D
330
3
100
AcDbSymbolTableRecord
100
AcDbTextStyleTableRecord
  2
ACISOTS
 70
     0
 40
1.0
 41
1.0
 50
0.0
 71
     0
 42
1.0
  3
isocp.shx
  4
chineset.shx
  0
STYLE
  5
79
330
3
100
AcDbSymbolTableRecord
100
AcDbTextStyleTableRecord
  2
ACISOGDT
 70
     0
 40
0.0
 41
1.0
 50
0.0
 71
     0
 42
2.5
  3
amgdt.shx
  4
chineset.shx
  0
STYLE
  5
ACC
330
3
100
AcDbSymbolTableRecord
100
AcDbTextStyleTableRecord
  2
CHINESET
 70
     0
 40
0.0
 41
1.0
 50
0.0
 71
     0
 42
3.0
  3
simplex.shx
  4
CHINESET.SHX
  0
ENDTAB
  0
TABLE
  2
VIEW
  5
6
330
0
100
AcDbSymbolTable
 70
     0
  0
ENDTAB
  0
TABLE
  2
UCS
  5
7
330
0
100
AcDbSymbolTable
 70
     0
  0
ENDTAB
  0
TABLE
  2
APPID
  5
9
330
0
100
AcDbSymbolTable
 70
    21
  0
APPID
  5
12
330
9
100
AcDbSymbolTableRecord
100
AcDbRegAppTableRecord
  2
ACAD
 70
     0
  0
APPID
  5
46
330
9
100
AcDbSymbolTableRecord
100
AcDbRegAppTableRecord
  2
MCAD_NO_VIS
 70
     0
  0
APPID
  5
47
330
9
100
AcDbSymbolTableRecord
100
AcDbRegAppTableRecord
  2
ACAD_TEMP_GRAPHIC
 70
     0
  0
APPID
  5
58
330
9
100
AcDbSymbolTableRecord
100
AcDbRegAppTableRecord
  2
ACATTRIBSERVICES
 70
     0
  0
APPID
  5
EE
330
9
100
AcDbSymbolTableRecord
100
AcDbRegAppTableRecord
  2
AD_DRAW
 70
     0
  0
APPID
  5
10C
330
9
100
AcDbSymbolTableRecord
100
AcDbRegAppTableRecord
  2
DESIGNERASSEMBLIES
 70
     0
  0
APPID
  5
111
330
9
100
AcDbSymbolTableRecord
100
AcDbRegAppTableRecord
  2
ACADM_DIM_EDIT
 70
     0
  0
APPID
  5
112
330
9
100
AcDbSymbolTableRecord
100
AcDbRegAppTableRecord
  2
AMDT_DM_ADJ
 70
     0
  0
APPID
  5
22C
330
9
100
AcDbSymbolTableRecord
100
AcDbRegAppTableRecord
  2
ACAD_DSTYLE_DIMTEXT_FILL
 70
     0
  0
APPID
  5
452
330
9
100
AcDbSymbolTableRecord
100
AcDbRegAppTableRecord
  2
GENIUS_GENOENT_13
 70
     0
  0
APPID
  5
453
330
9
100
AcDbSymbolTableRecord
100
AcDbRegAppTableRecord
  2
GENIUS_GENOBJ-N-CRS_13
 70
     0
  0
APPID
  5
454
330
9
100
AcDbSymbolTableRecord
100
AcDbRegAppTableRecord
  2
GENIUS_GENOLIS_13
 70
     0
  0
APPID
  5
455
330
9
100
AcDbSymbolTableRecord
100
AcDbRegAppTableRecord
  2
GENIUS_GENODEF_13
 70
     0
  0
APPID
  5
456
330
9
100
AcDbSymbolTableRecord
100
AcDbRegAppTableRecord
  2
GENIUS_GENOREF_13
 70
     0
  0
APPID
  5
6F3
330
9
100
AcDbSymbolTableRecord
100
AcDbRegAppTableRecord
  2
ACAD_PSEXT
 70
     0
  0
APPID
  5
808
330
9
100
AcDbSymbolTableRecord
100
AcDbRegAppTableRecord
  2
GENIUS_GENDTOL_13
 70
     0
  0
APPID
  5
ACD
330
9
100
AcDbSymbolTableRecord
100
AcDbRegAppTableRecord
  2
GENIUS_GENREC_14
 70
     0
  0
APPID
  5
ACE
330
9
100
AcDbSymbolTableRecord
100
AcDbRegAppTableRecord
  2
GENIUS_GENOBJ-N-REC_13
 70
     0
  0
APPID
  5
ACF
330
9
100
AcDbSymbolTableRecord
100
AcDbRegAppTableRecord
  2
AcAecLayerStandard
 70
     0
  0
APPID
  5
CCF
330
9
100
AcDbSymbolTableRecord
100
AcDbRegAppTableRecord
  2
GENIUS_GENOBJ-N-CEN_13
 70
     0
  0
APPID
  5
CD0
330
9
100
AcDbSymbolTableRecord
100
AcDbRegAppTableRecord
  2
GENIUS_GENCEN_19
 70
     0
  0
ENDTAB
  0
TABLE
  2
DIMSTYLE
  5
A
330
0
100
AcDbSymbolTable
 70
     9
100
AcDbDimStyleTable
 71
     3
340
81
340
8B
340
86
  0
DIMSTYLE
105
81
330
A
100
AcDbSymbolTableRecord
100
AcDbDimStyleTableRecord
  2
AM_ISO
 70
     0
  4
"
 41
3.0
 42
1.5
 43
8.0
 44
1.5
 47
0.1
 48
0.1
 73
     0
 74
     0
 77
     1
 78
     8
 79
     2
140
3.5
141
0.0
143
0.0393701
146
0.6
147
1.0
172
     1
176
   256
177
   256
178
   256
271
     2
272
     2
283
     0
284
     8
340
11
371
    -1
372
    -1
  0
DIMSTYLE
105
82
330
A
100
AcDbSymbolTableRecord
100
AcDbDimStyleTableRecord
  2
AM_ISO$3
 70
     0
  4
"
 41
3.0
 42
1.5
 43
8.0
 44
1.5
 47
0.1
 48
0.1
 73
     0
 77
     1
 78
     8
 79
     2
140
3.5
141
0.0
143
0.0393701
146
0.6
147
1.0
176
   256
177
   256
178
   256
271
     2
272
     2
283
     0
284
     8
288
     1
289
     0
340
11
371
    -1
372
    -1
  0
DIMSTYLE
105
83
330
A
100
AcDbSymbolTableRecord
100
AcDbDimStyleTableRecord
  2
AM_ISO$4
 70
     0
  4
"
 41
3.0
 42
1.5
 43
8.0
 44
1.5
 47
0.1
 48
0.1
 73
     0
 77
     1
 78
     8
 79
     2
140
3.5
141
0.0
143
0.0393701
146
0.6
147
1.0
176
   256
177
   256
178
   256
271
     2
272
     2
283
     0
284
     8
288
     1
289
     0
340
11
371
    -1
372
    -1
  0
DIMSTYLE
105
84
330
A
100
AcDbSymbolTableRecord
100
AcDbDimStyleTableRecord
  2
AM_ISO$6
 70
     0
  4
"
 41
3.0
 42
1.5
 43
8.0
 44
1.5
 47
0.1
 48
0.1
 73
     0
 74
     0
 78
     8
 79
     2
140
3.5
141
0.0
143
0.0393701
146
0.6
147
1.0
172
     1
176
   256
177
   256
178
   256
271
     2
272
     2
283
     0
284
     8
340
11
371
    -1
372
    -1
  0
DIMSTYLE
105
85
330
A
100
AcDbSymbolTableRecord
100
AcDbDimStyleTableRecord
  2
AM_ISO$7
 70
     0
  4
"
 41
3.0
 42
1.5
 43
8.0
 44
1.5
 47
0.1
 48
0.1
 73
     0
 74
     0
 77
     1
 78
     8
 79
     2
140
5.0
141
0.0
143
0.0393701
146
0.6
147
1.0
172
     1
176
   256
177
   256
178
   256
271
     2
272
     2
283
     0
284
     8
340
11
371
    -1
372
    -1
  0
DIMSTYLE
105
86
330
A
100
AcDbSymbolTableRecord
100
AcDbDimStyleTableRecord
  2
AM_ISO$SF
 70
     0
  4
"
 41
2.5
 42
1.0
 43
10.0
 44
1.0
 47
0.1
 48
0.1
 73
     0
 74
     0
 75
     1
 76
     1
 77
     1
 78
     8
 79
     2
140
3.5
141
0.0
143
0.0393701
146
0.71
147
1.5
172
     1
176
   256
177
   256
178
     2
271
     2
272
     3
274
     4
283
     0
284
     8
340
11
371
    -1
372
    -1
  0
DIMSTYLE
105
8B
330
A
100
AcDbSymbolTableRecord
100
AcDbDimStyleTableRecord
  2
AM_ISO$SH
 70
     0
  4
"
 41
2.5
 42
1.0
 43
10.0
 44
1.0
 47
0.1
 48
0.1
 73
     0
 74
     0
 75
     1
 76
     1
 77
     1
 78
     8
 79
     2
140
3.5
141
0.0
143
0.0393701
144
2.0
146
0.71
147
1.5
172
     1
173
     1
176
   256
177
   256
178
     2
271
     2
272
     3
274
     4
283
     0
284
     8
340
11
343
87
371
    -1
372
    -1
  0
DIMSTYLE
105
40B
102
{ACAD_REACTORS
330
1022
330
1023
330
1024
330
1025
330
1026
330
1027
330
1028
330
1029
330
102A
330
102B
330
102C
330
102D
330
1044
330
1045
330
1046
330
1103
330
114C
102
}
330
A
100
AcDbSymbolTableRecord
100
AcDbDimStyleTableRecord
  2
AM_ISO$0
 70
     0
  4
"
 41
3.0
 42
1.5
 43
8.0
 44
1.5
 47
0.1
 48
0.1
 73
     0
 74
     0
 77
     1
 78
     8
 79
     2
140
3.5
141
0.0
143
0.0393701
146
0.6
147
1.0
172
     1
176
   256
177
   256
178
   256
271
     2
272
     2
283
     0
284
     8
340
11
371
    -1
372
    -1
  0
ENDTAB
  0
TABLE
  2
BLOCK_RECORD
  5
1
330
0
100
AcDbSymbolTable
 70
    43
  0
BLOCK_RECORD
  5
1F
102
{ACAD_XDICTIONARY
360
8F
102
}
330
1
100
AcDbSymbolTableRecord
100
AcDbBlockTableRecord
  2
*Model_Space
340
22
  0
BLOCK_RECORD
  5
1B
330
1
100
AcDbSymbolTableRecord
100
AcDbBlockTableRecord
  2
*Paper_Space
340
1E
  0
BLOCK_RECORD
  5
23
330
1
100
AcDbSymbolTableRecord
100
AcDbBlockTableRecord
  2
*Paper_Space0
340
26
  0
BLOCK_RECORD
  5
87
330
1
100
AcDbSymbolTableRecord
100
AcDbBlockTableRecord
  2
GENAXEH
340
0
  0
BLOCK_RECORD
  5
115D
330
1
100
AcDbSymbolTableRecord
100
AcDbBlockTableRecord
  2
*D20
340
0
  0
BLOCK_RECORD
  5
1169
330
1
100
AcDbSymbolTableRecord
100
AcDbBlockTableRecord
  2
*D21
340
0
  0
BLOCK_RECORD
  5
1175
330
1
100
AcDbSymbolTableRecord
100
AcDbBlockTableRecord
  2
*D22
340
0
  0
BLOCK_RECORD
  5
1181
330
1
100
AcDbSymbolTableRecord
100
AcDbBlockTableRecord
  2
*D23
340
0
  0
BLOCK_RECORD
  5
118D
330
1
100
AcDbSymbolTableRecord
100
AcDbBlockTableRecord
  2
*D24
340
0
  0
BLOCK_RECORD
  5
119B
330
1
100
AcDbSymbolTableRecord
100
AcDbBlockTableRecord
  2
*D25
340
0
  0
BLOCK_RECORD
  5
11A7
330
1
100
AcDbSymbolTableRecord
100
AcDbBlockTableRecord
  2
*D26
340
0
  0
BLOCK_RECORD
  5
11B3
330
1
100
AcDbSymbolTableRecord
100
AcDbBlockTableRecord
  2
*D27
340
0
  0
BLOCK_RECORD
  5
11C1
330
1
100
AcDbSymbolTableRecord
100
AcDbBlockTableRecord
  2
*D28
340
0
  0
BLOCK_RECORD
  5
11CD
330
1
100
AcDbSymbolTableRecord
100
AcDbBlockTableRecord
  2
*D29
340
0
  0
BLOCK_RECORD
  5
11D9
330
1
100
AcDbSymbolTableRecord
100
AcDbBlockTableRecord
  2
*D30
340
0
  0
BLOCK_RECORD
  5
11E5
330
1
100
AcDbSymbolTableRecord
100
AcDbBlockTableRecord
  2
*D31
340
0
  0
BLOCK_RECORD
  5
11F1
330
1
100
AcDbSymbolTableRecord
100
AcDbBlockTableRecord
  2
*D32
340
0
  0
BLOCK_RECORD
  5
11FD
330
1
100
AcDbSymbolTableRecord
100
AcDbBlockTableRecord
  2
*D33
340
0
  0
BLOCK_RECORD
  5
1209
330
1
100
AcDbSymbolTableRecord
100
AcDbBlockTableRecord
  2
*D34
340
0
  0
BLOCK_RECORD
  5
1215
330
1
100
AcDbSymbolTableRecord
100
AcDbBlockTableRecord
  2
*D35
340
0
  0
BLOCK_RECORD
  5
1223
330
1
100
AcDbSymbolTableRecord
100
AcDbBlockTableRecord
  2
*D36
340
0
  0
BLOCK_RECORD
  5
133A
330
1
100
AcDbSymbolTableRecord
100
AcDbBlockTableRecord
  2
*S38
340
0
  0
BLOCK_RECORD
  5
1342
330
1
100
AcDbSymbolTableRecord
100
AcDbBlockTableRecord
  2
*S39
340
0
  0
BLOCK_RECORD
  5
134A
330
1
100
AcDbSymbolTableRecord
100
AcDbBlockTableRecord
  2
*S40
340
0
  0
BLOCK_RECORD
  5
1352
330
1
100
AcDbSymbolTableRecord
100
AcDbBlockTableRecord
  2
*S41
340
0
  0
BLOCK_RECORD
  5
135A
330
1
100
AcDbSymbolTableRecord
100
AcDbBlockTableRecord
  2
*S42
340
0
  0
ENDTAB
  0
ENDSEC
  0
SECTION
  2
BLOCKS
  0
BLOCK
  5
20
330
1F
100
AcDbEntity
  8
0
100
AcDbBlockBegin
  2
*Model_Space
 70
     0
 10
0.0
 20
0.0
 30
0.0
  3
*Model_Space
  1

  0
ENDBLK
  5
21
330
1F
100
AcDbEntity
  8
0
100
AcDbBlockEnd
  0
BLOCK
  5
1C
330
1B
100
AcDbEntity
 67
     1
  8
0
100
AcDbBlockBegin
  2
*Paper_Space
 70
     0
 10
0.0
 20
0.0
 30
0.0
  3
*Paper_Space
  1

  0
ENDBLK
  5
1D
330
1B
100
AcDbEntity
 67
     1
  8
0
100
AcDbBlockEnd
  0
BLOCK
  5
24
330
23
100
AcDbEntity
  8
0
100
AcDbBlockBegin
  2
*Paper_Space0
 70
     0
 10
0.0
 20
0.0
 30
0.0
  3
*Paper_Space0
  1

  0
ENDBLK
  5
25
330
23
100
AcDbEntity
  8
0
100
AcDbBlockEnd
  0
BLOCK
  5
89
330
87
100
AcDbEntity
  8
0
100
AcDbBlockBegin
  2
GENAXEH
 70
     0
 10
0.0
 20
0.0
 30
0.0
  3
GENAXEH
  1

  0
LINE
  5
88
330
87
100
AcDbEntity
  8
0
100
AcDbLine
 10
-1.0
 20
0.0
 30
0.0
 11
1.0
 21
0.0
 31
0.0
  0
ENDBLK
  5
8A
330
87
100
AcDbEntity
  8
0
100
AcDbBlockEnd
  0
BLOCK
  5
1167
330
115D
100
AcDbEntity
  8
0
100
AcDbBlockBegin
  2
*D20
 70
     1
 10
0.0
 20
0.0
 30
0.0
  3
*D20
  1

  0
LINE
  5
122F
330
115D
100
AcDbEntity
  8
AM_5
100
AcDbLine
 10
265.2068022100719
 20
349.7037082296651
 30
0.0
 11
221.706802210072
 21
349.7037082296651
 31
0.0
  0
LINE
  5
1230
330
115D
100
AcDbEntity
  8
AM_5
100
AcDbLine
 10
303.206802210072
 20
332.7037082296651
 30
0.0
 11
221.706802210072
 21
332.7037082296651
 31
0.0
  0
LINE
  5
1231
330
115D
100
AcDbEntity
  8
AM_5
100
AcDbLine
 10
223.806802210072
 20
345.5037082296652
 30
0.0
 11
223.806802210072
 21
336.9037082296651
 31
0.0
  0
SOLID
  5
1232
330
115D
100
AcDbEntity
  8
AM_5
100
AcDbTrace
 10
223.106802210072
 20
345.5037082296652
 30
0.0
 11
224.506802210072
 21
345.5037082296652
 31
0.0
 12
223.806802210072
 22
349.7037082296651
 32
0.0
 13
223.806802210072
 23
349.7037082296651
 33
0.0
  0
SOLID
  5
1233
330
115D
100
AcDbEntity
  8
AM_5
100
AcDbTrace
 10
223.106802210072
 20
336.9037082296651
 30
0.0
 11
224.506802210072
 21
336.9037082296651
 31
0.0
 12
223.806802210072
 22
332.7037082296651
 32
0.0
 13
223.806802210072
 23
332.7037082296651
 33
0.0
  0
MTEXT
  5
1234
330
115D
100
AcDbEntity
  8
AM_5
100
AcDbMText
 10
219.9568022100719
 20
341.2037082296652
 30
0.0
 40
4.899999999999999
 41
0.0
 71
     5
 72
     1
  1
17
 11
0.0000000000000001
 21
1.0
 31
0.0
 73
     1
 44
1.0
1001
ACAD
1000
MTEXTBEGIN
1070
    73
1070
     1
1070
    44
1040
1.0
1070
    74
1070
     0
1000
MTEXTEND
  0
POINT
  5
1235
330
115D
100
AcDbEntity
  8
Defpoints
 62
     0
100
AcDbPoint
 10
267.306802210072
 20
349.7037082296651
 30
0.0
  0
POINT
  5
1236
330
115D
100
AcDbEntity
  8
Defpoints
 62
     0
100
AcDbPoint
 10
305.306802210072
 20
332.7037082296651
 30
0.0
  0
POINT
  5
1237
330
115D
100
AcDbEntity
  8
Defpoints
 62
     0
100
AcDbPoint
 10
223.806802210072
 20
332.7037082296651
 30
0.0
  0
ENDBLK
  5
1168
330
115D
100
AcDbEntity
  8
0
100
AcDbBlockEnd
  0
BLOCK
  5
1173
330
1169
100
AcDbEntity
  8
0
100
AcDbBlockBegin
  2
*D21
 70
     1
 10
0.0
 20
0.0
 30
0.0
  3
*D21
  1

  0
LINE
  5
1238
330
1169
100
AcDbEntity
  8
AM_5
100
AcDbLine
 10
243.7068022100721
 20
352.353708229665
 30
0.0
 11
211.706802210072
 21
352.353708229665
 31
0.0
  0
LINE
  5
1239
330
1169
100
AcDbEntity
  8
AM_5
100
AcDbLine
 10
243.706802210072
 20
330.0537082296651
 30
0.0
 11
211.706802210072
 21
330.0537082296651
 31
0.0
  0
LINE
  5
123A
330
1169
100
AcDbEntity
  8
AM_5
100
AcDbLine
 10
213.806802210072
 20
348.153708229665
 30
0.0
 11
213.806802210072
 21
334.253708229665
 31
0.0
  0
SOLID
  5
123B
330
1169
100
AcDbEntity
  8
AM_5
100
AcDbTrace
 10
213.106802210072
 20
348.153708229665
 30
0.0
 11
214.506802210072
 21
348.153708229665
 31
0.0
 12
213.806802210072
 22
352.353708229665
 32
0.0
 13
213.806802210072
 23
352.353708229665
 33
0.0
  0
SOLID
  5
123C
330
1169
100
AcDbEntity
  8
AM_5
100
AcDbTrace
 10
213.106802210072
 20
334.253708229665
 30
0.0
 11
214.506802210072
 21
334.253708229665
 31
0.0
 12
213.806802210072
 22
330.0537082296651
 32
0.0
 13
213.806802210072
 23
330.0537082296651
 33
0.0
  0
MTEXT
  5
123D
330
1169
100
AcDbEntity
  8
AM_5
100
AcDbMText
 10
209.9563199266073
 20
341.2037082296651
 30
0.0
 40
4.899999999999999
 41
0.0
 71
     5
 72
     1
  1
22.3
 11
0.0000000000000001
 21
1.0
 31
0.0
 73
     1
 44
1.0
1001
ACAD
1000
MTEXTBEGIN
1070
    73
1070
     1
1070
    44
1040
1.0
1070
    74
1070
     0
1000
MTEXTEND
  0
POINT
  5
123E
330
1169
100
AcDbEntity
  8
Defpoints
 62
     0
100
AcDbPoint
 10
245.8068022100721
 20
352.353708229665
 30
0.0
  0
POINT
  5
123F
330
1169
100
AcDbEntity
  8
Defpoints
 62
     0
100
AcDbPoint
 10
245.806802210072
 20
330.0537082296651
 30
0.0
  0
POINT
  5
1240
330
1169
100
AcDbEntity
  8
Defpoints
 62
     0
100
AcDbPoint
 10
213.806802210072
 20
330.0537082296651
 30
0.0
  0
ENDBLK
  5
1174
330
1169
100
AcDbEntity
  8
0
100
AcDbBlockEnd
  0
BLOCK
  5
117F
330
1175
100
AcDbEntity
  8
0
100
AcDbBlockBegin
  2
*D22
 70
     1
 10
0.0
 20
0.0
 30
0.0
  3
*D22
  1

  0
LINE
  5
1241
330
1175
100
AcDbEntity
  8
AM_5
100
AcDbLine
 10
245.8068022100721
 20
354.453708229665
 30
0.0
 11
245.8068022100721
 21
364.2182117177577
 31
0.0
  0
LINE
  5
1242
330
1175
100
AcDbEntity
  8
AM_5
100
AcDbLine
 10
272.3068022100719
 20
356.8037082296652
 30
0.0
 11
272.3068022100719
 21
364.2182117177577
 31
0.0
  0
LINE
  5
1243
330
1175
100
AcDbEntity
  8
AM_5
100
AcDbLine
 10
250.006802210072
 20
362.1182117177577
 30
0.0
 11
268.106802210072
 21
362.1182117177577
 31
0.0
  0
SOLID
  5
1244
330
1175
100
AcDbEntity
  8
AM_5
100
AcDbTrace
 10
250.006802210072
 20
362.8182117177577
 30
0.0
 11
250.006802210072
 21
361.4182117177577
 31
0.0
 12
245.8068022100721
 22
362.1182117177577
 32
0.0
 13
245.8068022100721
 23
362.1182117177577
 33
0.0
  0
SOLID
  5
1245
330
1175
100
AcDbEntity
  8
AM_5
100
AcDbTrace
 10
268.106802210072
 20
362.8182117177577
 30
0.0
 11
268.106802210072
 21
361.4182117177577
 31
0.0
 12
272.3068022100719
 22
362.1182117177577
 32
0.0
 13
272.3068022100719
 23
362.1182117177577
 33
0.0
  0
MTEXT
  5
1246
330
1175
100
AcDbEntity
  8
AM_5
100
AcDbMText
 10
259.056802210072
 20
365.9686940012223
 30
0.0
 40
4.899999999999999
 41
0.0
 71
     5
 72
     1
  1
26.5
 73
     1
 44
1.0
1001
ACAD
1000
MTEXTBEGIN
1070
    73
1070
     1
1070
    44
1040
1.0
1070
    74
1070
     0
1000
MTEXTEND
  0
POINT
  5
1247
330
1175
100
AcDbEntity
  8
Defpoints
 62
     0
100
AcDbPoint
 10
245.8068022100721
 20
352.353708229665
 30
0.0
  0
POINT
  5
1248
330
1175
100
AcDbEntity
  8
Defpoints
 62
     0
100
AcDbPoint
 10
272.3068022100719
 20
354.7037082296652
 30
0.0
  0
POINT
  5
1249
330
1175
100
AcDbEntity
  8
Defpoints
 62
     0
100
AcDbPoint
 10
272.3068022100719
 20
362.1182117177577
 30
0.0
  0
ENDBLK
  5
1180
330
1175
100
AcDbEntity
  8
0
100
AcDbBlockEnd
  0
BLOCK
  5
118B
330
1181
100
AcDbEntity
  8
0
100
AcDbBlockBegin
  2
*D23
 70
     1
 10
0.0
 20
0.0
 30
0.0
  3
*D23
  1

  0
LINE
  5
124A
330
1181
100
AcDbEntity
  8
AM_5
100
AcDbLine
 10
272.3068022100719
 20
356.8037082296652
 30
0.0
 11
272.3068022100719
 21
364.2182117177577
 31
0.0
  0
LINE
  5
124B
330
1181
100
AcDbEntity
  8
AM_5
100
AcDbLine
 10
310.306802210072
 20
339.8037082296652
 30
0.0
 11
310.306802210072
 21
364.2182117177577
 31
0.0
  0
LINE
  5
124C
330
1181
100
AcDbEntity
  8
AM_5
100
AcDbLine
 10
276.506802210072
 20
362.1182117177577
 30
0.0
 11
306.106802210072
 21
362.1182117177577
 31
0.0
  0
SOLID
  5
124D
330
1181
100
AcDbEntity
  8
AM_5
100
AcDbTrace
 10
276.506802210072
 20
362.8182117177577
 30
0.0
 11
276.506802210072
 21
361.4182117177577
 31
0.0
 12
272.3068022100719
 22
362.1182117177577
 32
0.0
 13
272.3068022100719
 23
362.1182117177577
 33
0.0
  0
SOLID
  5
124E
330
1181
100
AcDbEntity
  8
AM_5
100
AcDbTrace
 10
306.106802210072
 20
362.8182117177577
 30
0.0
 11
306.106802210072
 21
361.4182117177577
 31
0.0
 12
310.306802210072
 22
362.1182117177577
 32
0.0
 13
310.306802210072
 23
362.1182117177577
 33
0.0
  0
MTEXT
  5
124F
330
1181
100
AcDbEntity
  8
AM_5
100
AcDbMText
 10
291.306802210072
 20
365.9682117177577
 30
0.0
 40
4.899999999999999
 41
0.0
 71
     5
 72
     1
  1
38
 73
     1
 44
1.0
1001
ACAD
1000
MTEXTBEGIN
1070
    73
1070
     1
1070
    44
1040
1.0
1070
    74
1070
     0
1000
MTEXTEND
  0
POINT
  5
1250
330
1181
100
AcDbEntity
  8
Defpoints
 62
     0
100
AcDbPoint
 10
272.3068022100719
 20
354.7037082296652
 30
0.0
  0
POINT
  5
1251
330
1181
100
AcDbEntity
  8
Defpoints
 62
     0
100
AcDbPoint
 10
310.306802210072
 20
337.7037082296652
 30
0.0
  0
POINT
  5
1252
330
1181
100
AcDbEntity
  8
Defpoints
 62
     0
100
AcDbPoint
 10
310.306802210072
 20
362.1182117177577
 30
0.0
  0
ENDBLK
  5
118C
330
1181
100
AcDbEntity
  8
0
100
AcDbBlockEnd
  0
BLOCK
  5
1199
330
118D
100
AcDbEntity
  8
0
100
AcDbBlockBegin
  2
*D24
 70
     1
 10
0.0
 20
0.0
 30
0.0
  3
*D24
  1

  0
LINE
  5
1253
330
118D
100
AcDbEntity
  8
AM_5
100
AcDbLine
 10
270.0068022100719
 20
342.7037082296652
 30
0.0
 11
231.706802210072
 21
342.7037082296652
 31
0.0
  0
LINE
  5
1254
330
118D
100
AcDbEntity
  8
AM_5
100
AcDbLine
 10
291.0568022100719
 20
339.7037082296652
 30
0.0
 11
231.706802210072
 21
339.7037082296652
 31
0.0
  0
LINE
  5
1255
330
118D
100
AcDbEntity
  8
AM_5
100
AcDbLine
 10
233.806802210072
 20
346.9037082296651
 30
0.0
 11
233.806802210072
 21
351.1037082296651
 31
0.0
  0
LINE
  5
1256
330
118D
100
AcDbEntity
  8
AM_5
100
AcDbLine
 10
233.806802210072
 20
335.5037082296651
 30
0.0
 11
233.806802210072
 21
331.3037082296652
 31
0.0
  0
LINE
  5
1257
330
118D
100
AcDbEntity
  8
AM_5
100
AcDbLine
 10
233.806802210072
 20
342.7037082296652
 30
0.0
 11
233.806802210072
 21
339.7037082296652
 31
0.0
  0
SOLID
  5
1258
330
118D
100
AcDbEntity
  8
AM_5
100
AcDbTrace
 10
233.106802210072
 20
346.9037082296651
 30
0.0
 11
234.506802210072
 21
346.9037082296651
 31
0.0
 12
233.806802210072
 22
342.7037082296652
 32
0.0
 13
233.806802210072
 23
342.7037082296652
 33
0.0
  0
SOLID
  5
1259
330
118D
100
AcDbEntity
  8
AM_5
100
AcDbTrace
 10
233.106802210072
 20
335.5037082296651
 30
0.0
 11
234.506802210072
 21
335.5037082296651
 31
0.0
 12
233.806802210072
 22
339.7037082296652
 32
0.0
 13
233.806802210072
 23
339.7037082296652
 33
0.0
  0
MTEXT
  5
125A
330
118D
100
AcDbEntity
  8
AM_5
100
AcDbMText
 10
229.956802210072
 20
341.2037082296652
 30
0.0
 40
4.899999999999999
 41
0.0
 71
     5
 72
     1
  1
3
 11
0.0000000000000001
 21
1.0
 31
0.0
 73
     1
 44
1.0
1001
ACAD
1000
MTEXTBEGIN
1070
    73
1070
     1
1070
    44
1040
1.0
1070
    74
1070
     0
1000
MTEXTEND
  0
POINT
  5
125B
330
118D
100
AcDbEntity
  8
Defpoints
 62
     0
100
AcDbPoint
 10
272.1068022100719
 20
342.7037082296652
 30
0.0
  0
POINT
  5
125C
330
118D
100
AcDbEntity
  8
Defpoints
 62
     0
100
AcDbPoint
 10
293.156802210072
 20
339.7037082296652
 30
0.0
  0
POINT
  5
125D
330
118D
100
AcDbEntity
  8
Defpoints
 62
     0
100
AcDbPoint
 10
233.806802210072
 20
339.7037082296652
 30
0.0
  0
ENDBLK
  5
119A
330
118D
100
AcDbEntity
  8
0
100
AcDbBlockEnd
  0
BLOCK
  5
11A5
330
119B
100
AcDbEntity
  8
0
100
AcDbBlockBegin
  2
*D25
 70
     1
 10
0.0
 20
0.0
 30
0.0
  3
*D25
  1

  0
LINE
  5
125E
330
119B
100
AcDbEntity
  8
AM_5
100
AcDbLine
 10
245.8068022100723
 20
251.5406187018621
 30
0.0
 11
245.8068022100723
 21
239.4375489466876
 31
0.0
  0
LINE
  5
125F
330
119B
100
AcDbEntity
  8
AM_5
100
AcDbLine
 10
281.306802210072
 20
252.8375489466876
 30
0.0
 11
281.306802210072
 21
239.4375489466876
 31
0.0
  0
LINE
  5
1260
330
119B
100
AcDbEntity
  8
AM_5
100
AcDbLine
 10
250.0068022100723
 20
241.5375489466876
 30
0.0
 11
277.106802210072
 21
241.5375489466876
 31
0.0
  0
SOLID
  5
1261
330
119B
100
AcDbEntity
  8
AM_5
100
AcDbTrace
 10
250.0068022100723
 20
242.2375489466876
 30
0.0
 11
250.0068022100723
 21
240.8375489466876
 31
0.0
 12
245.8068022100723
 22
241.5375489466876
 32
0.0
 13
245.8068022100723
 23
241.5375489466876
 33
0.0
  0
SOLID
  5
1262
330
119B
100
AcDbEntity
  8
AM_5
100
AcDbTrace
 10
277.106802210072
 20
242.2375489466876
 30
0.0
 11
277.106802210072
 21
240.8375489466876
 31
0.0
 12
281.306802210072
 22
241.5375489466876
 32
0.0
 13
281.306802210072
 23
241.5375489466876
 33
0.0
  0
MTEXT
  5
1263
330
119B
100
AcDbEntity
  8
AM_5
100
AcDbMText
 10
263.5568022100721
 20
245.3875489466876
 30
0.0
 40
4.899999999999999
 41
0.0
 71
     5
 72
     1
  1
35.5
 73
     1
 44
1.0
1001
ACAD
1000
MTEXTBEGIN
1070
    73
1070
     1
1070
    44
1040
1.0
1070
    74
1070
     0
1000
MTEXTEND
  0
POINT
  5
1264
330
119B
100
AcDbEntity
  8
Defpoints
 62
     0
100
AcDbPoint
 10
245.8068022100723
 20
253.6406187018621
 30
0.0
  0
POINT
  5
1265
330
119B
100
AcDbEntity
  8
Defpoints
 62
     0
100
AcDbPoint
 10
281.306802210072
 20
254.9375489466876
 30
0.0
  0
POINT
  5
1266
330
119B
100
AcDbEntity
  8
Defpoints
 62
     0
100
AcDbPoint
 10
281.306802210072
 20
241.5375489466876
 30
0.0
  0
ENDBLK
  5
11A6
330
119B
100
AcDbEntity
  8
0
100
AcDbBlockEnd
  0
BLOCK
  5
11B1
330
11A7
100
AcDbEntity
  8
0
100
AcDbBlockBegin
  2
*D26
 70
     1
 10
0.0
 20
0.0
 30
0.0
  3
*D26
  1

  0
LINE
  5
1267
330
11A7
100
AcDbEntity
  8
AM_5
100
AcDbLine
 10
281.306802210072
 20
252.8375489466876
 30
0.0
 11
281.306802210072
 21
239.4375489466876
 31
0.0
  0
LINE
  5
1268
330
11A7
100
AcDbEntity
  8
AM_5
100
AcDbLine
 10
301.306802210072
 20
252.8375489466876
 30
0.0
 11
301.306802210072
 21
239.4375489466876
 31
0.0
  0
LINE
  5
1269
330
11A7
100
AcDbEntity
  8
AM_5
100
AcDbLine
 10
285.506802210072
 20
241.5375489466876
 30
0.0
 11
297.106802210072
 21
241.5375489466876
 31
0.0
  0
SOLID
  5
126A
330
11A7
100
AcDbEntity
  8
AM_5
100
AcDbTrace
 10
285.506802210072
 20
242.2375489466876
 30
0.0
 11
285.506802210072
 21
240.8375489466876
 31
0.0
 12
281.306802210072
 22
241.5375489466876
 32
0.0
 13
281.306802210072
 23
241.5375489466876
 33
0.0
  0
SOLID
  5
126B
330
11A7
100
AcDbEntity
  8
AM_5
100
AcDbTrace
 10
297.106802210072
 20
242.2375489466876
 30
0.0
 11
297.106802210072
 21
240.8375489466876
 31
0.0
 12
301.306802210072
 22
241.5375489466876
 32
0.0
 13
301.306802210072
 23
241.5375489466876
 33
0.0
  0
MTEXT
  5
126C
330
11A7
100
AcDbEntity
  8
AM_5
100
AcDbMText
 10
291.306802210072
 20
245.3880312301522
 30
0.0
 40
4.899999999999999
 41
0.0
 71
     5
 72
     1
  1
20
 73
     1
 44
1.0
1001
ACAD
1000
MTEXTBEGIN
1070
    73
1070
     1
1070
    44
1040
1.0
1070
    74
1070
     0
1000
MTEXTEND
  0
POINT
  5
126D
330
11A7
100
AcDbEntity
  8
Defpoints
 62
     0
100
AcDbPoint
 10
281.306802210072
 20
254.9375489466876
 30
0.0
  0
POINT
  5
126E
330
11A7
100
AcDbEntity
  8
Defpoints
 62
     0
100
AcDbPoint
 10
301.306802210072
 20
254.9375489466876
 30
0.0
  0
POINT
  5
126F
330
11A7
100
AcDbEntity
  8
Defpoints
 62
     0
100
AcDbPoint
 10
301.306802210072
 20
241.5375489466876
 30
0.0
  0
ENDBLK
  5
11B2
330
11A7
100
AcDbEntity
  8
0
100
AcDbBlockEnd
  0
BLOCK
  5
11BF
330
11B3
100
AcDbEntity
  8
0
100
AcDbBlockBegin
  2
*D27
 70
     1
 10
0.0
 20
0.0
 30
0.0
  3
*D27
  1

  0
LINE
  5
1270
330
11B3
100
AcDbEntity
  8
AM_5
100
AcDbLine
 10
243.7068022100723
 20
253.6406187018621
 30
0.0
 11
231.7068022100721
 21
253.6406187018621
 31
0.0
  0
LINE
  5
1271
330
11B3
100
AcDbEntity
  8
AM_5
100
AcDbLine
 10
273.5037323446285
 20
260.640618812131
 30
0.0
 11
231.7068022100721
 21
260.640618812131
 31
0.0
  0
LINE
  5
1272
330
11B3
100
AcDbEntity
  8
AM_5
100
AcDbLine
 10
233.8068022100721
 20
249.4406187018621
 30
0.0
 11
233.8068022100721
 21
245.2406187018621
 31
0.0
  0
LINE
  5
1273
330
11B3
100
AcDbEntity
  8
AM_5
100
AcDbLine
 10
233.8068022100721
 20
264.840618812131
 30
0.0
 11
233.8068022100721
 21
269.040618812131
 31
0.0
  0
LINE
  5
1274
330
11B3
100
AcDbEntity
  8
AM_5
100
AcDbLine
 10
233.8068022100721
 20
253.6406187018621
 30
0.0
 11
233.8068022100721
 21
260.640618812131
 31
0.0
  0
SOLID
  5
1275
330
11B3
100
AcDbEntity
  8
AM_5
100
AcDbTrace
 10
233.1068022100721
 20
249.4406187018621
 30
0.0
 11
234.5068022100721
 21
249.4406187018621
 31
0.0
 12
233.8068022100721
 22
253.6406187018621
 32
0.0
 13
233.8068022100721
 23
253.6406187018621
 33
0.0
  0
SOLID
  5
1276
330
11B3
100
AcDbEntity
  8
AM_5
100
AcDbTrace
 10
233.1068022100721
 20
264.840618812131
 30
0.0
 11
234.5068022100721
 21
264.840618812131
 31
0.0
 12
233.8068022100721
 22
260.640618812131
 32
0.0
 13
233.8068022100721
 23
260.640618812131
 33
0.0
  0
MTEXT
  5
1277
330
11B3
100
AcDbEntity
  8
AM_5
100
AcDbMText
 10
229.9568022100721
 20
257.1406187569966
 30
0.0
 40
4.899999999999999
 41
0.0
 71
     5
 72
     1
  1
7
 11
0.0000000000000001
 21
1.0
 31
0.0
 73
     1
 44
1.0
1001
ACAD
1000
MTEXTBEGIN
1070
    73
1070
     1
1070
    44
1040
1.0
1070
    74
1070
     0
1000
MTEXTEND
  0
POINT
  5
1278
330
11B3
100
AcDbEntity
  8
Defpoints
 62
     0
100
AcDbPoint
 10
245.8068022100723
 20
253.6406187018621
 30
0.0
  0
POINT
  5
1279
330
11B3
100
AcDbEntity
  8
Defpoints
 62
     0
100
AcDbPoint
 10
275.6037323446285
 20
260.640618812131
 30
0.0
  0
POINT
  5
127A
330
11B3
100
AcDbEntity
  8
Defpoints
 62
     0
100
AcDbPoint
 10
233.8068022100721
 20
260.640618812131
 30
0.0
  0
ENDBLK
  5
11C0
330
11B3
100
AcDbEntity
  8
0
100
AcDbBlockEnd
  0
BLOCK
  5
11CB
330
11C1
100
AcDbEntity
  8
0
100
AcDbBlockBegin
  2
*D28
 70
     1
 10
0.0
 20
0.0
 30
0.0
  3
*D28
  1

  0
LINE
  5
127B
330
11C1
100
AcDbEntity
  8
AM_5
100
AcDbLine
 10
243.7068022100723
 20
253.6406187018621
 30
0.0
 11
221.7068022100721
 21
253.6406187018621
 31
0.0
  0
LINE
  5
127C
330
11C1
100
AcDbEntity
  8
AM_5
100
AcDbLine
 10
243.706802210072
 20
288.6406188121307
 30
0.0
 11
221.7068022100721
 21
288.6406188121307
 31
0.0
  0
LINE
  5
127D
330
11C1
100
AcDbEntity
  8
AM_5
100
AcDbLine
 10
223.8068022100721
 20
257.8406187018621
 30
0.0
 11
223.8068022100721
 21
284.4406188121307
 31
0.0
  0
SOLID
  5
127E
330
11C1
100
AcDbEntity
  8
AM_5
100
AcDbTrace
 10
223.1068022100721
 20
257.8406187018621
 30
0.0
 11
224.5068022100721
 21
257.8406187018621
 31
0.0
 12
223.8068022100721
 22
253.6406187018621
 32
0.0
 13
223.8068022100721
 23
253.6406187018621
 33
0.0
  0
SOLID
  5
127F
330
11C1
100
AcDbEntity
  8
AM_5
100
AcDbTrace
 10
223.1068022100721
 20
284.4406188121307
 30
0.0
 11
224.5068022100721
 21
284.4406188121307
 31
0.0
 12
223.8068022100721
 22
288.6406188121307
 32
0.0
 13
223.8068022100721
 23
288.6406188121307
 33
0.0
  0
MTEXT
  5
1280
330
11C1
100
AcDbEntity
  8
AM_5
100
AcDbMText
 10
219.956802210072
 20
271.1406187569965
 30
0.0
 40
4.899999999999999
 41
0.0
 71
     5
 72
     1
  1
35
 11
0.0000000000000001
 21
1.0
 31
0.0
 73
     1
 44
1.0
1001
ACAD
1000
MTEXTBEGIN
1070
    73
1070
     1
1070
    44
1040
1.0
1070
    74
1070
     0
1000
MTEXTEND
  0
POINT
  5
1281
330
11C1
100
AcDbEntity
  8
Defpoints
 62
     0
100
AcDbPoint
 10
245.8068022100723
 20
253.6406187018621
 30
0.0
  0
POINT
  5
1282
330
11C1
100
AcDbEntity
  8
Defpoints
 62
     0
100
AcDbPoint
 10
245.806802210072
 20
288.6406188121307
 30
0.0
  0
POINT
  5
1283
330
11C1
100
AcDbEntity
  8
Defpoints
 62
     0
100
AcDbPoint
 10
223.8068022100721
 20
288.6406188121307
 30
0.0
  0
ENDBLK
  5
11CC
330
11C1
100
AcDbEntity
  8
0
100
AcDbBlockEnd
  0
BLOCK
  5
11D7
330
11CD
100
AcDbEntity
  8
0
100
AcDbBlockBegin
  2
*D29
 70
     1
 10
0.0
 20
0.0
 30
0.0
  3
*D29
  1

  0
LINE
  5
1284
330
11CD
100
AcDbEntity
  8
AM_5
100
AcDbLine
 10
245.806802210072
 20
290.7406188121307
 30
0.0
 11
245.806802210072
 21
301.4650968330229
 31
0.0
  0
LINE
  5
1285
330
11CD
100
AcDbEntity
  8
AM_5
100
AcDbLine
 10
357.8068022100719
 20
290.7406188121309
 30
0.0
 11
357.8068022100719
 21
301.4650968330229
 31
0.0
  0
LINE
  5
1286
330
11CD
100
AcDbEntity
  8
AM_5
100
AcDbLine
 10
250.006802210072
 20
299.3650968330229
 30
0.0
 11
353.606802210072
 21
299.3650968330229
 31
0.0
  0
SOLID
  5
1287
330
11CD
100
AcDbEntity
  8
AM_5
100
AcDbTrace
 10
250.006802210072
 20
300.0650968330229
 30
0.0
 11
250.006802210072
 21
298.6650968330229
 31
0.0
 12
245.806802210072
 22
299.3650968330229
 32
0.0
 13
245.806802210072
 23
299.3650968330229
 33
0.0
  0
SOLID
  5
1288
330
11CD
100
AcDbEntity
  8
AM_5
100
AcDbTrace
 10
353.606802210072
 20
300.0650968330229
 30
0.0
 11
353.606802210072
 21
298.6650968330229
 31
0.0
 12
357.8068022100719
 22
299.3650968330229
 32
0.0
 13
357.8068022100719
 23
299.3650968330229
 33
0.0
  0
MTEXT
  5
1289
330
11CD
100
AcDbEntity
  8
AM_5
100
AcDbMText
 10
301.806802210072
 20
303.2155791164874
 30
0.0
 40
4.899999999999999
 41
0.0
 71
     5
 72
     1
  1
112
 73
     1
 44
1.0
1001
ACAD
1000
MTEXTBEGIN
1070
    73
1070
     1
1070
    44
1040
1.0
1070
    74
1070
     0
1000
MTEXTEND
  0
POINT
  5
128A
330
11CD
100
AcDbEntity
  8
Defpoints
 62
     0
100
AcDbPoint
 10
245.806802210072
 20
288.6406188121307
 30
0.0
  0
POINT
  5
128B
330
11CD
100
AcDbEntity
  8
Defpoints
 62
     0
100
AcDbPoint
 10
357.8068022100719
 20
288.6406188121309
 30
0.0
  0
POINT
  5
128C
330
11CD
100
AcDbEntity
  8
Defpoints
 62
     0
100
AcDbPoint
 10
357.8068022100719
 20
299.3650968330229
 30
0.0
  0
ENDBLK
  5
11D8
330
11CD
100
AcDbEntity
  8
0
100
AcDbBlockEnd
  0
BLOCK
  5
11E3
330
11D9
100
AcDbEntity
  8
0
100
AcDbBlockBegin
  2
*D30
 70
     1
 10
0.0
 20
0.0
 30
0.0
  3
*D30
  1

  0
LINE
  5
128D
330
11D9
100
AcDbEntity
  8
AM_5
100
AcDbLine
 10
245.806802210072
 20
327.9537081636395
 30
0.0
 11
245.806802210072
 21
315.9537082296651
 31
0.0
  0
LINE
  5
128E
330
11D9
100
AcDbEntity
  8
AM_5
100
AcDbLine
 10
280.8068022100719
 20
331.9037082296651
 30
0.0
 11
280.8068022100719
 21
315.9537082296651
 31
0.0
  0
LINE
  5
128F
330
11D9
100
AcDbEntity
  8
AM_5
100
AcDbLine
 10
250.006802210072
 20
318.0537082296652
 30
0.0
 11
276.606802210072
 21
318.0537082296652
 31
0.0
  0
SOLID
  5
1290
330
11D9
100
AcDbEntity
  8
AM_5
100
AcDbTrace
 10
250.006802210072
 20
318.7537082296652
 30
0.0
 11
250.006802210072
 21
317.3537082296652
 31
0.0
 12
245.806802210072
 22
318.0537082296652
 32
0.0
 13
245.806802210072
 23
318.0537082296652
 33
0.0
  0
SOLID
  5
1291
330
11D9
100
AcDbEntity
  8
AM_5
100
AcDbTrace
 10
276.606802210072
 20
318.7537082296652
 30
0.0
 11
276.606802210072
 21
317.3537082296652
 31
0.0
 12
280.8068022100719
 22
318.0537082296652
 32
0.0
 13
280.8068022100719
 23
318.0537082296652
 33
0.0
  0
MTEXT
  5
1292
330
11D9
100
AcDbEntity
  8
AM_5
100
AcDbMText
 10
263.306802210072
 20
321.9037082296652
 30
0.0
 40
4.899999999999999
 41
0.0
 71
     5
 72
     1
  1
35
 73
     1
 44
1.0
1001
ACAD
1000
MTEXTBEGIN
1070
    73
1070
     1
1070
    44
1040
1.0
1070
    74
1070
     0
1000
MTEXTEND
  0
POINT
  5
1293
330
11D9
100
AcDbEntity
  8
Defpoints
 62
     0
100
AcDbPoint
 10
245.806802210072
 20
330.0537081636395
 30
0.0
  0
POINT
  5
1294
330
11D9
100
AcDbEntity
  8
Defpoints
 62
     0
100
AcDbPoint
 10
280.8068022100719
 20
334.0037082296651
 30
0.0
  0
POINT
  5
1295
330
11D9
100
AcDbEntity
  8
Defpoints
 62
     0
100
AcDbPoint
 10
280.8068022100719
 20
318.0537082296652
 30
0.0
  0
ENDBLK
  5
11E4
330
11D9
100
AcDbEntity
  8
0
100
AcDbBlockEnd
  0
BLOCK
  5
11EF
330
11E5
100
AcDbEntity
  8
0
100
AcDbBlockBegin
  2
*D31
 70
     1
 10
0.0
 20
0.0
 30
0.0
  3
*D31
  1

  0
LINE
  5
1296
330
11E5
100
AcDbEntity
  8
AM_5
100
AcDbLine
 10
280.8068022100719
 20
331.9037082296651
 30
0.0
 11
280.8068022100719
 21
315.9537082296651
 31
0.0
  0
LINE
  5
1297
330
11E5
100
AcDbEntity
  8
AM_5
100
AcDbLine
 10
301.806802210072
 20
328.9537082296651
 30
0.0
 11
301.806802210072
 21
315.9537082296651
 31
0.0
  0
LINE
  5
1298
330
11E5
100
AcDbEntity
  8
AM_5
100
AcDbLine
 10
285.006802210072
 20
318.0537082296652
 30
0.0
 11
297.606802210072
 21
318.0537082296652
 31
0.0
  0
SOLID
  5
1299
330
11E5
100
AcDbEntity
  8
AM_5
100
AcDbTrace
 10
285.006802210072
 20
318.7537082296652
 30
0.0
 11
285.006802210072
 21
317.3537082296652
 31
0.0
 12
280.8068022100719
 22
318.0537082296652
 32
0.0
 13
280.8068022100719
 23
318.0537082296652
 33
0.0
  0
SOLID
  5
129A
330
11E5
100
AcDbEntity
  8
AM_5
100
AcDbTrace
 10
297.606802210072
 20
318.7537082296652
 30
0.0
 11
297.606802210072
 21
317.3537082296652
 31
0.0
 12
301.806802210072
 22
318.0537082296652
 32
0.0
 13
301.806802210072
 23
318.0537082296652
 33
0.0
  0
MTEXT
  5
129B
330
11E5
100
AcDbEntity
  8
AM_5
100
AcDbMText
 10
291.306802210072
 20
321.9041905131297
 30
0.0
 40
4.899999999999999
 41
0.0
 71
     5
 72
     1
  1
21
 73
     1
 44
1.0
1001
ACAD
1000
MTEXTBEGIN
1070
    73
1070
     1
1070
    44
1040
1.0
1070
    74
1070
     0
1000
MTEXTEND
  0
POINT
  5
129C
330
11E5
100
AcDbEntity
  8
Defpoints
 62
     0
100
AcDbPoint
 10
280.8068022100719
 20
334.0037082296651
 30
0.0
  0
POINT
  5
129D
330
11E5
100
AcDbEntity
  8
Defpoints
 62
     0
100
AcDbPoint
 10
301.806802210072
 20
331.0537082296652
 30
0.0
  0
POINT
  5
129E
330
11E5
100
AcDbEntity
  8
Defpoints
 62
     0
100
AcDbPoint
 10
301.806802210072
 20
318.0537082296652
 30
0.0
  0
ENDBLK
  5
11F0
330
11E5
100
AcDbEntity
  8
0
100
AcDbBlockEnd
  0
BLOCK
  5
11FB
330
11F1
100
AcDbEntity
  8
0
100
AcDbBlockBegin
  2
*D32
 70
     1
 10
0.0
 20
0.0
 30
0.0
  3
*D32
  1

  0
LINE
  5
129F
330
11F1
100
AcDbEntity
  8
AM_5
100
AcDbLine
 10
245.8068022100718
 20
200.9940053600775
 30
0.0
 11
245.8068022100718
 21
188.9940053600777
 31
0.0
  0
LINE
  5
12A0
330
11F1
100
AcDbEntity
  8
AM_5
100
AcDbLine
 10
273.306802210072
 20
204.8940053600778
 30
0.0
 11
273.306802210072
 21
188.9940053600777
 31
0.0
  0
LINE
  5
12A1
330
11F1
100
AcDbEntity
  8
AM_5
100
AcDbLine
 10
250.0068022100718
 20
191.0940053600777
 30
0.0
 11
269.106802210072
 21
191.0940053600777
 31
0.0
  0
SOLID
  5
12A2
330
11F1
100
AcDbEntity
  8
AM_5
100
AcDbTrace
 10
250.0068022100718
 20
191.7940053600777
 30
0.0
 11
250.0068022100718
 21
190.3940053600777
 31
0.0
 12
245.8068022100718
 22
191.0940053600777
 32
0.0
 13
245.8068022100718
 23
191.0940053600777
 33
0.0
  0
SOLID
  5
12A3
330
11F1
100
AcDbEntity
  8
AM_5
100
AcDbTrace
 10
269.106802210072
 20
191.7940053600777
 30
0.0
 11
269.106802210072
 21
190.3940053600777
 31
0.0
 12
273.306802210072
 22
191.0940053600777
 32
0.0
 13
273.306802210072
 23
191.0940053600777
 33
0.0
  0
MTEXT
  5
12A4
330
11F1
100
AcDbEntity
  8
AM_5
100
AcDbMText
 10
259.5568022100719
 20
194.9444876435422
 30
0.0
 40
4.899999999999999
 41
0.0
 71
     5
 72
     1
  1
27.5
 73
     1
 44
1.0
1001
ACAD
1000
MTEXTBEGIN
1070
    73
1070
     1
1070
    44
1040
1.0
1070
    74
1070
     0
1000
MTEXTEND
  0
POINT
  5
12A5
330
11F1
100
AcDbEntity
  8
Defpoints
 62
     0
100
AcDbPoint
 10
245.8068022100718
 20
203.0940053600775
 30
0.0
  0
POINT
  5
12A6
330
11F1
100
AcDbEntity
  8
Defpoints
 62
     0
100
AcDbPoint
 10
273.306802210072
 20
206.9940053600778
 30
0.0
  0
POINT
  5
12A7
330
11F1
100
AcDbEntity
  8
Defpoints
 62
     0
100
AcDbPoint
 10
273.306802210072
 20
191.0940053600777
 30
0.0
  0
ENDBLK
  5
11FC
330
11F1
100
AcDbEntity
  8
0
100
AcDbBlockEnd
  0
BLOCK
  5
1207
330
11FD
100
AcDbEntity
  8
0
100
AcDbBlockBegin
  2
*D33
 70
     1
 10
0.0
 20
0.0
 30
0.0
  3
*D33
  1

  0
LINE
  5
12A8
330
11FD
100
AcDbEntity
  8
AM_5
100
AcDbLine
 10
273.306802210072
 20
204.8940053600778
 30
0.0
 11
273.306802210072
 21
188.9940053600777
 31
0.0
  0
LINE
  5
12A9
330
11FD
100
AcDbEntity
  8
AM_5
100
AcDbLine
 10
291.306802210072
 20
203.4440053600779
 30
0.0
 11
291.306802210072
 21
188.9940053600777
 31
0.0
  0
LINE
  5
12AA
330
11FD
100
AcDbEntity
  8
AM_5
100
AcDbLine
 10
277.506802210072
 20
191.0940053600777
 30
0.0
 11
287.106802210072
 21
191.0940053600777
 31
0.0
  0
SOLID
  5
12AB
330
11FD
100
AcDbEntity
  8
AM_5
100
AcDbTrace
 10
277.506802210072
 20
191.7940053600777
 30
0.0
 11
277.506802210072
 21
190.3940053600777
 31
0.0
 12
273.306802210072
 22
191.0940053600777
 32
0.0
 13
273.306802210072
 23
191.0940053600777
 33
0.0
  0
SOLID
  5
12AC
330
11FD
100
AcDbEntity
  8
AM_5
100
AcDbTrace
 10
287.106802210072
 20
191.7940053600777
 30
0.0
 11
287.106802210072
 21
190.3940053600777
 31
0.0
 12
291.306802210072
 22
191.0940053600777
 32
0.0
 13
291.306802210072
 23
191.0940053600777
 33
0.0
  0
MTEXT
  5
12AD
330
11FD
100
AcDbEntity
  8
AM_5
100
AcDbMText
 10
282.306802210072
 20
194.9440053600777
 30
0.0
 40
4.899999999999999
 41
0.0
 71
     5
 72
     1
  1
18
 73
     1
 44
1.0
1001
ACAD
1000
MTEXTBEGIN
1070
    73
1070
     1
1070
    44
1040
1.0
1070
    74
1070
     0
1000
MTEXTEND
  0
POINT
  5
12AE
330
11FD
100
AcDbEntity
  8
Defpoints
 62
     0
100
AcDbPoint
 10
273.306802210072
 20
206.9940053600778
 30
0.0
  0
POINT
  5
12AF
330
11FD
100
AcDbEntity
  8
Defpoints
 62
     0
100
AcDbPoint
 10
291.306802210072
 20
205.5440053600779
 30
0.0
  0
POINT
  5
12B0
330
11FD
100
AcDbEntity
  8
Defpoints
 62
     0
100
AcDbPoint
 10
291.306802210072
 20
191.0940053600777
 30
0.0
  0
ENDBLK
  5
1208
330
11FD
100
AcDbEntity
  8
0
100
AcDbBlockEnd
  0
BLOCK
  5
1213
330
1209
100
AcDbEntity
  8
0
100
AcDbBlockBegin
  2
*D34
 70
     1
 10
0.0
 20
0.0
 30
0.0
  3
*D34
  1

  0
LINE
  5
12B1
330
1209
100
AcDbEntity
  8
AM_5
100
AcDbLine
 10
291.306802210072
 20
203.4440053600779
 30
0.0
 11
291.306802210072
 21
188.9940053600778
 31
0.0
  0
LINE
  5
12B2
330
1209
100
AcDbEntity
  8
AM_5
100
AcDbLine
 10
309.306802210072
 20
205.1440053600778
 30
0.0
 11
309.306802210072
 21
188.9940053600778
 31
0.0
  0
LINE
  5
12B3
330
1209
100
AcDbEntity
  8
AM_5
100
AcDbLine
 10
295.506802210072
 20
191.0940053600778
 30
0.0
 11
305.106802210072
 21
191.0940053600778
 31
0.0
  0
SOLID
  5
12B4
330
1209
100
AcDbEntity
  8
AM_5
100
AcDbTrace
 10
295.506802210072
 20
191.7940053600778
 30
0.0
 11
295.506802210072
 21
190.3940053600778
 31
0.0
 12
291.306802210072
 22
191.0940053600778
 32
0.0
 13
291.306802210072
 23
191.0940053600778
 33
0.0
  0
SOLID
  5
12B5
330
1209
100
AcDbEntity
  8
AM_5
100
AcDbTrace
 10
305.106802210072
 20
191.7940053600778
 30
0.0
 11
305.106802210072
 21
190.3940053600778
 31
0.0
 12
309.306802210072
 22
191.0940053600778
 32
0.0
 13
309.306802210072
 23
191.0940053600778
 33
0.0
  0
MTEXT
  5
12B6
330
1209
100
AcDbEntity
  8
AM_5
100
AcDbMText
 10
300.306802210072
 20
194.9440053600778
 30
0.0
 40
4.899999999999999
 41
0.0
 71
     5
 72
     1
  1
18
 73
     1
 44
1.0
1001
ACAD
1000
MTEXTBEGIN
1070
    73
1070
     1
1070
    44
1040
1.0
1070
    74
1070
     0
1000
MTEXTEND
  0
POINT
  5
12B7
330
1209
100
AcDbEntity
  8
Defpoints
 62
     0
100
AcDbPoint
 10
291.306802210072
 20
205.5440053600779
 30
0.0
  0
POINT
  5
12B8
330
1209
100
AcDbEntity
  8
Defpoints
 62
     0
100
AcDbPoint
 10
309.306802210072
 20
207.2440053600778
 30
0.0
  0
POINT
  5
12B9
330
1209
100
AcDbEntity
  8
Defpoints
 62
     0
100
AcDbPoint
 10
309.306802210072
 20
191.0940053600778
 30
0.0
  0
ENDBLK
  5
1214
330
1209
100
AcDbEntity
  8
0
100
AcDbBlockEnd
  0
BLOCK
  5
1221
330
1215
100
AcDbEntity
  8
0
100
AcDbBlockBegin
  2
*D35
 70
     1
 10
0.0
 20
0.0
 30
0.0
  3
*D35
  1

  0
LINE
  5
12BA
330
1215
100
AcDbEntity
  8
AM_5
100
AcDbLine
 10
359.906802210072
 20
288.6406188121309
 30
0.0
 11
371.906802210072
 21
288.6406188121309
 31
0.0
  0
LINE
  5
12BB
330
1215
100
AcDbEntity
  8
AM_5
100
AcDbLine
 10
315.406802210072
 20
285.6406188121308
 30
0.0
 11
371.906802210072
 21
285.6406188121308
 31
0.0
  0
LINE
  5
12BC
330
1215
100
AcDbEntity
  8
AM_5
100
AcDbLine
 10
369.806802210072
 20
281.4406188121308
 30
0.0
 11
369.806802210072
 21
277.2406188121308
 31
0.0
  0
LINE
  5
12BD
330
1215
100
AcDbEntity
  8
AM_5
100
AcDbLine
 10
369.806802210072
 20
292.8406188121309
 30
0.0
 11
369.806802210072
 21
302.0035834576938
 31
0.0
  0
LINE
  5
12BE
330
1215
100
AcDbEntity
  8
AM_5
100
AcDbLine
 10
369.806802210072
 20
285.6406188121308
 30
0.0
 11
369.806802210072
 21
288.6406188121309
 31
0.0
  0
SOLID
  5
12BF
330
1215
100
AcDbEntity
  8
AM_5
100
AcDbTrace
 10
369.106802210072
 20
281.4406188121308
 30
0.0
 11
370.506802210072
 21
281.4406188121308
 31
0.0
 12
369.806802210072
 22
285.6406188121308
 32
0.0
 13
369.806802210072
 23
285.6406188121308
 33
0.0
  0
SOLID
  5
12C0
330
1215
100
AcDbEntity
  8
AM_5
100
AcDbTrace
 10
369.106802210072
 20
292.8406188121309
 30
0.0
 11
370.506802210072
 21
292.8406188121309
 31
0.0
 12
369.806802210072
 22
288.6406188121309
 32
0.0
 13
369.806802210072
 23
288.6406188121309
 33
0.0
  0
MTEXT
  5
12C1
330
1215
100
AcDbEntity
  8
AM_5
100
AcDbMText
 10
365.956802210072
 20
299.5221011349124
 30
0.0
 40
4.899999999999999
 41
0.0
 71
     5
 72
     1
  1
3
 11
0.0000000000000001
 21
1.0
 31
0.0
 73
     1
 44
1.0
1001
ACAD
1000
MTEXTBEGIN
1070
    73
1070
     1
1070
    44
1040
1.0
1070
    74
1070
     0
1000
MTEXTEND
  0
POINT
  5
12C2
330
1215
100
AcDbEntity
  8
Defpoints
 62
     0
100
AcDbPoint
 10
357.8068022100719
 20
288.6406188121309
 30
0.0
  0
POINT
  5
12C3
330
1215
100
AcDbEntity
  8
Defpoints
 62
     0
100
AcDbPoint
 10
313.306802210072
 20
285.6406188121308
 30
0.0
  0
POINT
  5
12C4
330
1215
100
AcDbEntity
  8
Defpoints
 62
     0
100
AcDbPoint
 10
369.806802210072
 20
285.6406188121308
 30
0.0
  0
ENDBLK
  5
1222
330
1215
100
AcDbEntity
  8
0
100
AcDbBlockEnd
  0
BLOCK
  5
122D
330
1223
100
AcDbEntity
  8
0
100
AcDbBlockBegin
  2
*D36
 70
     1
 10
0.0
 20
0.0
 30
0.0
  3
*D36
  1

  0
LINE
  5
12C5
330
1223
100
AcDbEntity
  8
AM_5
100
AcDbLine
 10
378.8406562844999
 20
253.6406188121309
 30
0.0
 11
370.3099382932316
 21
253.6406188121309
 31
0.0
  0
LINE
  5
12C6
330
1223
100
AcDbEntity
  8
AM_5
100
AcDbLine
 10
383.1406562844999
 20
271.1406188121309
 30
0.0
 11
370.3099382932316
 21
271.1406188121309
 31
0.0
  0
LINE
  5
12C7
330
1223
100
AcDbEntity
  8
AM_5
100
AcDbLine
 10
372.4099382932317
 20
257.8406188121309
 30
0.0
 11
372.4099382932317
 21
266.940618812131
 31
0.0
  0
SOLID
  5
12C8
330
1223
100
AcDbEntity
  8
AM_5
100
AcDbTrace
 10
371.7099382932317
 20
257.8406188121309
 30
0.0
 11
373.1099382932317
 21
257.8406188121309
 31
0.0
 12
372.4099382932317
 22
253.6406188121309
 32
0.0
 13
372.4099382932317
 23
253.6406188121309
 33
0.0
  0
SOLID
  5
12C9
330
1223
100
AcDbEntity
  8
AM_5
100
AcDbTrace
 10
371.7099382932317
 20
266.940618812131
 30
0.0
 11
373.1099382932317
 21
266.940618812131
 31
0.0
 12
372.4099382932317
 22
271.1406188121309
 32
0.0
 13
372.4099382932317
 23
271.1406188121309
 33
0.0
  0
MTEXT
  5
12CA
330
1223
100
AcDbEntity
  8
AM_5
100
AcDbMText
 10
368.5599382932316
 20
262.390618812131
 30
0.0
 40
4.899999999999999
 41
0.0
 71
     5
 72
     1
  1
17.5
 11
0.0000000000000001
 21
1.0
 31
0.0
 73
     1
 44
1.0
1001
ACAD
1000
MTEXTBEGIN
1070
    73
1070
     1
1070
    44
1040
1.0
1070
    74
1070
     0
1000
MTEXTEND
  0
POINT
  5
12CB
330
1223
100
AcDbEntity
  8
Defpoints
 62
     0
100
AcDbPoint
 10
380.9406562845
 20
253.6406188121309
 30
0.0
  0
POINT
  5
12CC
330
1223
100
AcDbEntity
  8
Defpoints
 62
     0
100
AcDbPoint
 10
385.2406562844999
 20
271.1406188121308
 30
0.0
  0
POINT
  5
12CD
330
1223
100
AcDbEntity
  8
Defpoints
 62
     0
100
AcDbPoint
 10
372.4099382932317
 20
271.1406188121309
 30
0.0
  0
ENDBLK
  5
122E
330
1223
100
AcDbEntity
  8
0
100
AcDbBlockEnd
  0
BLOCK
  5
133F
330
133A
100
AcDbEntity
  8
0
100
AcDbBlockBegin
  2
*S38
 70
     1
 10
0.0
 20
0.0
 30
0.0
  3
*S38
  1

  0
LINE
  5
133B
330
133A
100
AcDbEntity
  8
AM_5
 62
     5
100
AcDbLine
 10
355.1006684328588
 20
317.8760601566391
 30
0.0
 11
321.6019078451782
 21
317.8760601566391
 31
0.0
  0
LINE
  5
133C
330
133A
100
AcDbEntity
  8
AM_5
 62
     5
100
AcDbLine
 10
321.6019078451782
 20
317.8760601566391
 30
0.0
 11
314.2762025253925
 21
327.6486066432799
 31
0.0
  0
TRACE
  5
133D
330
133A
100
AcDbEntity
  8
AM_5
 62
     5
370
    35
100
AcDbTrace
 10
314.7923742194103
 20
328.0355397451033
 30
0.0
 11
313.7600308313748
 21
327.2616735414567
 31
0.0
 12
311.3371538127556
 22
331.5693199284804
 32
0.0
 13
311.3371538127556
 23
331.5693199284804
 33
0.0
  0
MTEXT
  5
133E
330
133A
100
AcDbEntity
  8
AM_5
 62
     5
100
AcDbMText
 10
355.1006684328588
 20
325.5234411596349
 30
0.0
 40
4.899999999999999
 41
0.0
 71
     7
 72
     5
  1

  7
ACISOTS
 73
     1
 44
1.0
1001
ACAD
1000
MTEXTBEGIN
1070
    73
1070
     1
1070
    44
1040
1.0
1070
    74
1070
     0
1000
MTEXTEND
  0
ENDBLK
  5
1340
330
133A
100
AcDbEntity
  8
0
100
AcDbBlockEnd
  0
BLOCK
  5
1347
330
1342
100
AcDbEntity
  8
0
100
AcDbBlockBegin
  2
*S39
 70
     1
 10
0.0
 20
0.0
 30
0.0
  3
*S39
  1

  0
LINE
  5
1343
330
1342
100
AcDbEntity
  8
AM_5
 62
     5
100
AcDbLine
 10
346.3294266655037
 20
361.3306481561553
 30
0.0
 11
321.0787080069722
 21
361.3306481561553
 31
0.0
  0
LINE
  5
1344
330
1342
100
AcDbEntity
  8
AM_5
 62
     5
100
AcDbLine
 10
321.0787080069722
 20
361.3306481561553
 30
0.0
 11
310.0077172899168
 21
347.4794070308997
 31
0.0
  0
TRACE
  5
1345
330
1342
100
AcDbEntity
  8
AM_5
 62
     5
370
    35
100
AcDbTrace
 10
309.5038035245439
 20
347.8821741597217
 30
0.0
 11
310.5116310552896
 21
347.0766399020778
 31
0.0
 12
306.9483972010473
 22
343.6518019580323
 32
0.0
 13
306.9483972010473
 23
343.6518019580323
 33
0.0
  0
MTEXT
  5
1346
330
1342
100
AcDbEntity
  8
AM_5
 62
     5
100
AcDbMText
 10
346.3294266655037
 20
368.7376196868383
 30
0.0
 40
4.899999999999999
 41
0.0
 71
     7
 72
     5
  1

  7
ACISOTS
 73
     1
 44
1.0
1001
ACAD
1000
MTEXTBEGIN
1070
    73
1070
     1
1070
    44
1040
1.0
1070
    74
1070
     0
1000
MTEXTEND
  0
ENDBLK
  5
1348
330
1342
100
AcDbEntity
  8
0
100
AcDbBlockEnd
  0
BLOCK
  5
134F
330
134A
100
AcDbEntity
  8
0
100
AcDbBlockBegin
  2
*S40
 70
     1
 10
0.0
 20
0.0
 30
0.0
  3
*S40
  1

  0
LINE
  5
134B
330
134A
100
AcDbEntity
  8
AM_5
 62
     5
100
AcDbLine
 10
348.9001033514239
 20
241.8892163219239
 30
0.0
 11
315.4013427637433
 21
241.8892163219239
 31
0.0
  0
LINE
  5
134C
330
134A
100
AcDbEntity
  8
AM_5
 62
     5
100
AcDbLine
 10
315.4013427637433
 20
241.8892163219239
 30
0.0
 11
305.586433206046
 21
255.4746850352701
 31
0.0
  0
TRACE
  5
134D
330
134A
100
AcDbEntity
  8
AM_5
 62
     5
370
    35
100
AcDbTrace
 10
306.1093419933096
 20
255.8524638636793
 30
0.0
 11
305.0635244187824
 21
255.096906206861
 31
0.0
 12
302.7169181036536
 22
259.4465716244292
 32
0.0
 13
302.7169181036536
 23
259.4465716244292
 33
0.0
  0
MTEXT
  5
134E
330
134A
100
AcDbEntity
  8
AM_5
 62
     5
100
AcDbMText
 10
348.9001033514239
 20
249.5365973249196
 30
0.0
 40
4.899999999999999
 41
0.0
 71
     7
 72
     5
  1

  7
ACISOTS
 73
     1
 44
1.0
1001
ACAD
1000
MTEXTBEGIN
1070
    73
1070
     1
1070
    44
1040
1.0
1070
    74
1070
     0
1000
MTEXTEND
  0
ENDBLK
  5
1350
330
134A
100
AcDbEntity
  8
0
100
AcDbBlockEnd
  0
BLOCK
  5
1357
330
1352
100
AcDbEntity
  8
0
100
AcDbBlockBegin
  2
*S41
 70
     1
 10
0.0
 20
0.0
 30
0.0
  3
*S41
  1

  0
LINE
  5
1353
330
1352
100
AcDbEntity
  8
AM_5
 62
     5
100
AcDbLine
 10
350.5285675325335
 20
190.0948483871223
 30
0.0
 11
325.2108212762991
 21
190.0948483871223
 31
0.0
  0
LINE
  5
1354
330
1352
100
AcDbEntity
  8
AM_5
 62
     5
100
AcDbLine
 10
325.2108212762991
 20
190.0948483871223
 30
0.0
 11
315.5292284963805
 21
206.7298818916197
 31
0.0
  0
TRACE
  5
1355
330
1352
100
AcDbEntity
  8
AM_5
 62
     5
370
    35
100
AcDbTrace
 10
316.0867731026416
 20
207.0543729624072
 30
0.0
 11
314.9716838901193
 21
206.4053908208322
 31
0.0
 12
313.0644740999067
 22
210.9648536465506
 32
0.0
 13
313.0644740999067
 23
210.9648536465506
 33
0.0
  0
MTEXT
  5
1356
330
1352
100
AcDbEntity
  8
AM_5
 62
     5
100
AcDbMText
 10
350.5285675325335
 20
198.376266310805
 30
0.0
 40
4.899999999999999
 41
0.0
 71
     7
 72
     5
  1

  7
ACISOTS
 73
     1
 44
1.0
1001
ACAD
1000
MTEXTBEGIN
1070
    73
1070
     1
1070
    44
1040
1.0
1070
    74
1070
     0
1000
MTEXTEND
  0
ENDBLK
  5
1358
330
1352
100
AcDbEntity
  8
0
100
AcDbBlockEnd
  0
BLOCK
  5
135F
330
135A
100
AcDbEntity
  8
0
100
AcDbBlockBegin
  2
*S42
 70
     1
 10
0.0
 20
0.0
 30
0.0
  3
*S42
  1

  0
LINE
  5
135B
330
135A
100
AcDbEntity
  8
AM_5
 62
     5
100
AcDbLine
 10
424.7670205888836
 20
296.2820719152928
 30
0.0
 11
399.6587589084917
 21
296.2820719152928
 31
0.0
  0
LINE
  5
135C
330
135A
100
AcDbEntity
  8
AM_5
 62
     5
100
AcDbLine
 10
399.6587589084917
 20
296.2820719152928
 30
0.0
 11
395.9531245563743
 21
279.8928632865779
 31
0.0
  0
TRACE
  5
135D
330
135A
100
AcDbEntity
  8
AM_5
 62
     5
370
    35
100
AcDbTrace
 10
395.3239102545156
 20
280.0351299563503
 30
0.0
 11
396.582338858233
 21
279.7505966168056
 31
0.0
 12
394.8725019095259
 22
275.1135061441248
 32
0.0
 13
394.8725019095259
 23
275.1135061441248
 33
0.0
  0
MTEXT
  5
135E
330
135A
100
AcDbEntity
  8
AM_5
 62
     5
100
AcDbMText
 10
424.7670205888836
 20
306.4383326960728
 30
0.0
 40
4.899999999999999
 41
0.0
 71
     7
 72
     5
  1

  7
ACISOTS
 73
     1
 44
1.0
1001
ACAD
1000
MTEXTBEGIN
1070
    73
1070
     1
1070
    44
1040
1.0
1070
    74
1070
     0
1000
MTEXTEND
  0
ENDBLK
  5
1360
330
135A
100
AcDbEntity
  8
0
100
AcDbBlockEnd
  0
ENDSEC
  0
SECTION
  2
ENTITIES
  0
LINE
  5
B67
330
1F
100
AcDbEntity
  8
LOGO
 62
     4
100
AcDbLine
 10
436.842133771989
 20
156.3339833479617
 30
0.0
 11
192.906133771989
 21
156.3339833479617
 31
0.0
  0
LWPOLYLINE
  5
B68
330
1F
100
AcDbEntity
  8
LOGO
 62
     4
100
AcDbPolyline
 90
        4
 70
     1
 43
0.0
 10
192.9061337719891
 20
156.3339833479617
 10
436.842133771989
 20
156.3339833479617
 10
436.842133771989
 20
405.4587439698988
 10
192.9061337719891
 20
405.4587439698988
1001
GENIUS_GENREC_14
1002
{
1000
PYDIR
1011
192.9061337719891
1021
405.4587439698988
1031
0.0
1002
}
1002
{
1000
PXDIR
1011
436.842133771989
1021
156.3339833479617
1031
0.0
1002
}
1002
{
1000
PORI
1011
192.9061337719891
1021
156.3339833479617
1031
0.0
1002
}
1002
{
1000
PINS
1011
192.9061337719891
1021
156.3339833479617
1031
0.0
1002
}
1002
{
1000
PINS2
1011
436.842133771989
1021
405.4587439698988
1031
0.0
1002
}
1002
{
1000
C
1070
     1
1002
}
1001
GENIUS_GENODEF_13
1002
{
1000
HIER
1070
     0
1002
}
1002
{
1000
MANEDIT
1070
     0
1002
}
1002
{
1000
NOSEL
1070
     0
1002
}
1002
{
1000
BEHIND
1070
     0
1002
}
1002
{
1000
OTHER
1070
     0
1002
}
1002
{
1000
REACTOR
1002
}
1001
GENIUS_GENOBJ-N-REC_13
1002
{
1000
OWNER
1000
GEN
1002
}
  0
LWPOLYLINE
  5
B69
330
1F
100
AcDbEntity
  8
LOGO
 62
     4
100
AcDbPolyline
 90
        4
 70
     1
 43
0.0
 10
192.9061337719891
 20
156.3339833479617
 10
436.842133771989
 20
156.3339833479617
 10
436.842133771989
 20
131.943915452939
 10
192.9061337719891
 20
131.943915452939
1001
GENIUS_GENREC_14
1002
{
1000
PYDIR
1011
192.9061337719891
1021
131.943915452939
1031
0.0
1002
}
1002
{
1000
PXDIR
1011
436.842133771989
1021
156.3339833479617
1031
0.0
1002
}
1002
{
1000
PORI
1011
192.9061337719891
1021
156.3339833479617
1031
0.0
1002
}
1002
{
1000
PINS
1011
192.9061337719891
1021
156.3339833479617
1031
0.0
1002
}
1002
{
1000
PINS2
1011
436.842133771989
1021
131.943915452939
1031
0.0
1002
}
1002
{
1000
C
1070
     1
1002
}
1001
GENIUS_GENOBJ-N-REC_13
1002
{
1000
OWNER
1000
GEN
1002
}
1001
GENIUS_GENODEF_13
1002
{
1000
HIER
1070
     0
1002
}
1002
{
1000
MANEDIT
1070
     0
1002
}
1002
{
1000
NOSEL
1070
     0
1002
}
1002
{
1000
BEHIND
1070
     0
1002
}
1002
{
1000
OTHER
1070
     0
1002
}
1002
{
1000
REACTOR
1002
}
  0
TEXT
  5
B6A
330
1F
100
AcDbEntity
  8
LOGO
 62
     7
100
AcDbText
 10
247.9772921046044
 20
145.6491096356223
 30
0.0
 40
3.252009052669683
  1
Order example:
 41
0.8
  7
CHINESET
100
AcDbText
  0
TEXT
  5
B6B
330
1F
100
AcDbEntity
  8
LOGO
 62
     7
100
AcDbText
 10
248.5607294216743
 20
150.2272650447149
 30
0.0
 40
4.878013579004523
  1
訂購代號：
  7
CHINESET
100
AcDbText
  0
LINE
  5
B6C
330
1F
100
AcDbEntity
  8
LOGO
 62
     4
100
AcDbLine
 10
246.5642831410389
 20
131.943915452939
 30
0.0
 11
246.5642831410389
 21
156.3339833479617
 31
0.0
  0
TEXT
  5
B6D
330
1F
100
AcDbEntity
  8
LOGO
  6
Continuous
100
AcDbText
 10
201.6671557953575
 20
136.7353074830944
 30
0.0
 40
3.658510184253393
  1
金器工業股份有限公司
  7
CHINESET
100
AcDbText
  0
TEXT
  5
B6E
330
1F
100
AcDbEntity
  8
LOGO
  6
Continuous
100
AcDbText
 10
194.9471963874301
 20
133.0760805176832
 30
0.0
 40
2.439006789502261
  1
MINDMAN INDUSTRIAL CO., LTD.
 41
0.85
  7
CHINESET
100
AcDbText
  0
LINE
  5
B6F
330
1F
100
AcDbEntity
  8
LOGO
 62
     4
100
AcDbLine
 10
246.5642831410389
 20
151.4559697689575
 30
0.0
 11
210.7921835616722
 21
151.4559697689575
 31
0.0
  0
LINE
  5
B70
330
1F
100
AcDbEntity
  8
LOGO
 62
     4
100
AcDbLine
 10
246.5642831410389
 20
146.5779561899527
 30
0.0
 11
210.7921835616722
 21
146.5779561899527
 31
0.0
  0
LINE
  5
B71
330
1F
100
AcDbEntity
  8
LOGO
 62
     4
100
AcDbLine
 10
246.5642831410389
 20
141.6999426109486
 30
0.0
 11
192.906133771989
 21
141.6999426109486
 31
0.0
  0
LINE
  5
B72
330
1F
100
AcDbEntity
  8
LOGO
 62
     4
100
AcDbLine
 10
210.7921835616722
 20
141.6999426109486
 30
0.0
 11
210.7921835616722
 21
156.3339833479617
 31
0.0
  0
TEXT
  5
B73
330
1F
100
AcDbEntity
  8
LOGO
100
AcDbText
 10
235.240725206787
 20
142.919446005699
 30
0.0
 40
2.439006789502261
  1
mm
  7
CHINESET
 72
     1
 11
238.2604478985517
 21
144.1389494004502
 31
0.0
100
AcDbText
 73
     2
  0
TEXT
  5
B74
330
1F
100
AcDbEntity
  8
LOGO
100
AcDbText
 10
233.9631502218096
 20
152.6754731637081
 30
0.0
 40
2.439006789502261
  1
1 : 1
  7
CHINESET
 72
     1
 11
238.2604478985517
 21
153.8949765584592
 31
0.0
100
AcDbText
 73
     2
  0
LINE
  5
B75
330
1F
100
AcDbEntity
  8
LOGO
 62
     4
100
AcDbLine
 10
230.3042378776902
 20
141.6999426109486
 30
0.0
 11
230.3042378776902
 21
156.3339833479617
 31
0.0
  0
TEXT
  5
B76
330
1F
100
AcDbEntity
  8
LOGO
100
AcDbText
 10
212.8032753206948
 20
152.6766734623249
 30
159.8484869550175
 40
2.439006789502261
  1
比例 Scale:
 41
0.9
  7
CHINESET
 72
     4
 11
220.5482107196813
 21
153.8949765584592
 31
159.8484869550175
100
AcDbText
  0
TEXT
  5
B77
330
1F
100
AcDbEntity
  8
LOGO
100
AcDbText
 10
212.6628146618351
 20
147.8317681201697
 30
159.8484869550175
 40
2.439006789502261
  1
投影  View:
 41
0.9
  7
CHINESET
 72
     4
 11
220.5482107196813
 21
149.016962979455
 31
159.8484869550175
100
AcDbText
  0
TEXT
  5
B78
330
1F
100
AcDbEntity
  8
LOGO
100
AcDbText
 10
212.9012711292016
 20
142.919446005699
 30
159.8484869550175
 40
2.439006789502261
  1
單位  Unit:
 41
0.9
  7
CHINESET
 72
     4
 11
220.5482107196813
 21
144.1389494004502
 31
159.8484869550175
100
AcDbText
  0
SOLID
  5
B79
330
1F
100
AcDbEntity
  8
LOGO
 62
     5
100
AcDbTrace
 10
195.4366424591792
 20
145.7544442332171
 30
0.0
 11
196.4912049954218
 21
145.7544442332165
 31
0.0
 12
200.8912762673306
 22
155.754606214828
 32
0.0
 13
201.9458388035737
 23
155.7546062148276
 33
0.0
  0
SOLID
  5
B7A
330
1F
100
AcDbEntity
  8
LOGO
 62
     5
100
AcDbTrace
 10
196.927575700075
 20
145.7544442332171
 30
0.0
 11
197.9821382363176
 21
145.7544442332171
 31
0.0
 12
201.9458388035737
 22
154.9545932562988
 32
0.0
 13
200.8912762673306
 23
151.0878639567426
 33
0.0
  0
SOLID
  5
B7B
330
1F
100
AcDbEntity
  8
LOGO
 62
     2
100
AcDbTrace
 10
196.4912049954218
 20
145.7544442332165
 30
0.0
 11
196.927575700075
 21
145.7544442332171
 31
0.0
 12
201.9458388035737
 22
155.7546062148276
 32
0.0
 13
202.3822095082263
 23
155.7546062148276
 33
0.0
  0
SOLID
  5
B7C
330
1F
100
AcDbEntity
  8
LOGO
 62
     5
100
AcDbTrace
 10
193.7459201031705
 20
142.1180216944499
 30
0.0
 11
194.1095623570476
 21
142.1180216944499
 31
0.0
 12
195.1336072476156
 22
143.9362329638328
 32
0.0
 13
195.4972495014919
 23
143.9362329638328
 33
0.0
  0
SOLID
  5
B7D
330
1F
100
AcDbEntity
  8
LOGO
 62
     5
100
AcDbTrace
 10
195.1336072476156
 20
143.9362329638328
 30
0.0
 11
195.4972495014919
 21
143.9362329638328
 31
0.0
 12
195.1336072476156
 22
142.1180216944499
 32
0.0
 13
195.4972495014919
 23
142.1180216944499
 33
0.0
  0
SOLID
  5
B7E
330
1F
100
AcDbEntity
  8
LOGO
 62
     5
100
AcDbTrace
 10
195.1336072476156
 20
142.1180216944499
 30
0.0
 11
195.4972495014919
 21
142.1180216944499
 31
0.0
 12
196.5212943920613
 22
143.9362329638328
 32
0.0
 13
196.8849366459379
 23
143.9362329638328
 33
0.0
  0
SOLID
  5
B7F
330
1F
100
AcDbEntity
  8
LOGO
 62
     5
100
AcDbTrace
 10
196.5212943920613
 20
143.9362329638328
 30
0.0
 11
196.8849366459379
 21
143.9362329638328
 31
0.0
 12
196.5212943920613
 22
142.1180216944499
 32
0.0
 13
196.8849366459379
 23
142.1180216944499
 33
0.0
  0
POLYLINE
  5
B80
330
1F
100
AcDbEntity
  8
LOGO
 62
     5
100
AcDb2dPolyline
 66
     1
 10
0.0
 20
0.0
 30
0.0
 40
0.3642250138990044
 41
0.3642250138990044
  0
VERTEX
  5
B81
330
B80
100
AcDbEntity
  8
LOGO
 62
     5
100
AcDbVertex
100
AcDb2dVertex
 10
208.7104588657154
 20
143.2089484560799
 30
0.0
 42
1.0
  0
VERTEX
  5
B82
330
B80
100
AcDbEntity
  8
LOGO
 62
     5
100
AcDbVertex
100
AcDb2dVertex
 10
207.6177838240182
 20
143.2089484560799
 30
0.0
 42
1.0
  0
SEQEND
  5
B83
330
B80
100
AcDbEntity
  8
LOGO
 62
     5
  0
POLYLINE
  5
B84
330
1F
100
AcDbEntity
  8
LOGO
 62
     5
100
AcDb2dPolyline
 66
     1
 10
0.0
 20
0.0
 30
0.0
 70
     1
  0
VERTEX
  5
B85
330
B84
100
AcDbEntity
  8
LOGO
 62
     5
100
AcDbVertex
100
AcDb2dVertex
 10
205.5580427682327
 20
143.0271273291409
 30
0.0
 42
1.000000057330635
  0
VERTEX
  5
B86
330
B84
100
AcDbEntity
  8
LOGO
 62
     5
100
AcDbVertex
100
AcDb2dVertex
 10
206.6489695298632
 20
143.0271273291409
 30
0.0
 42
1.000000057330635
  0
SEQEND
  5
B87
330
B84
100
AcDbEntity
  8
LOGO
 62
     5
  0
CIRCLE
  5
B88
330
1F
100
AcDbEntity
  8
LOGO
 62
     5
100
AcDbCircle
 10
206.1035061490488
 20
143.0271273291409
 30
0.0
 40
0.5454633808151491
  0
POLYLINE
  5
B89
330
1F
100
AcDbEntity
  8
LOGO
 62
     5
100
AcDb2dPolyline
 66
     1
 10
0.0
 20
0.0
 30
0.0
 70
     1
 40
0.3642250138990044
 41
0.3642250138990044
  0
VERTEX
  5
B8A
330
B89
100
AcDbEntity
  8
LOGO
 62
     5
100
AcDbVertex
100
AcDb2dVertex
 10
205.3750561212503
 20
143.0271273291409
 30
0.0
 42
1.0
  0
VERTEX
  5
B8B
330
B89
100
AcDbEntity
  8
LOGO
 62
     5
100
AcDbVertex
100
AcDb2dVertex
 10
206.8319561768462
 20
143.0271273291409
 30
0.0
 42
1.0
  0
SEQEND
  5
B8C
330
B89
100
AcDbEntity
  8
LOGO
 62
     5
  0
LINE
  5
B8D
330
1F
100
AcDbEntity
  8
LOGO
100
AcDbLine
 10
208.8914058526196
 20
142.1180216944499
 30
0.0
 11
208.8914058526196
 21
143.2089484560799
 31
0.0
  0
SOLID
  5
B8E
330
1F
100
AcDbEntity
  8
LOGO
 62
     5
100
AcDbTrace
 10
206.6489331656393
 20
143.9362329638328
 30
0.0
 11
207.0125754195153
 21
143.9362329638328
 31
0.0
 12
206.6489331656393
 22
142.1180216944499
 32
0.0
 13
207.0125754195153
 23
142.1180216944499
 33
0.0
  0
SOLID
  5
B8F
330
1F
100
AcDbEntity
  8
LOGO
 62
     5
100
AcDbTrace
 10
207.4368368371128
 20
142.1180216944499
 30
0.0
 11
207.8004790909898
 21
142.1180216944499
 31
0.0
 12
207.4368368371128
 22
143.9362329638328
 32
0.0
 13
207.8004790909898
 23
143.9362329638328
 33
0.0
  0
SOLID
  5
B90
330
1F
100
AcDbEntity
  8
LOGO
 62
     5
100
AcDbTrace
 10
208.5277635987436
 20
143.2089484560799
 30
0.0
 11
208.8914058526196
 21
143.2089484560799
 31
0.0
 12
208.5277635987436
 22
142.1180216944499
 32
0.0
 13
208.8914058526196
 23
142.1180216944499
 33
0.0
  0
SOLID
  5
B91
330
1F
100
AcDbEntity
  8
LOGO
 62
     5
100
AcDbTrace
 10
207.400472611725
 20
154.9545932562988
 30
0.0
 11
206.3459100754829
 21
151.0878639567426
 31
0.0
 12
207.400472611725
 22
145.7544442332165
 32
0.0
 13
206.3459100754829
 23
145.7544442332165
 33
0.0
  0
SOLID
  5
B92
330
1F
100
AcDbEntity
  8
LOGO
 62
     5
100
AcDbTrace
 10
207.8368433163777
 20
145.7544442332165
 30
0.0
 11
208.8914058526196
 21
145.7544442332165
 31
0.0
 12
207.8368433163777
 22
155.7546062148276
 32
0.0
 13
208.8914058526196
 23
155.754606214828
 33
0.0
  0
SOLID
  5
B93
330
1F
100
AcDbEntity
  8
LOGO
 62
     2
100
AcDbTrace
 10
207.400472611725
 20
155.754606214828
 30
0.0
 11
207.8368433163777
 21
155.7546062148276
 31
0.0
 12
207.400472611725
 22
145.7544442332165
 32
0.0
 13
207.8368433163777
 23
145.7544442332165
 33
0.0
  0
POLYLINE
  5
B94
330
1F
100
AcDbEntity
  8
LOGO
 62
     5
100
AcDb2dPolyline
 66
     1
 10
0.0
 20
0.0
 30
0.0
 40
0.3642250138990044
 41
0.3642250138990044
  0
VERTEX
  5
B95
330
B94
100
AcDbEntity
  8
LOGO
 62
     5
100
AcDbVertex
100
AcDb2dVertex
 10
203.4982289839983
 20
143.2089484560799
 30
0.0
 42
1.0
  0
VERTEX
  5
B96
330
B94
100
AcDbEntity
  8
LOGO
 62
     5
100
AcDbVertex
100
AcDb2dVertex
 10
202.405553942301
 20
143.2089484560799
 30
0.0
 42
1.0
  0
SEQEND
  5
B97
330
B94
100
AcDbEntity
  8
LOGO
 62
     5
  0
POLYLINE
  5
B98
330
1F
100
AcDbEntity
  8
LOGO
 62
     5
100
AcDb2dPolyline
 66
     1
 10
0.0
 20
0.0
 30
0.0
 40
0.3642250138990044
 41
0.3642250138990044
  0
VERTEX
  5
B99
330
B98
100
AcDbEntity
  8
LOGO
 62
     5
100
AcDbVertex
100
AcDb2dVertex
 10
204.5891557456275
 20
143.2089484560799
 30
0.0
 42
1.0
  0
VERTEX
  5
B9A
330
B98
100
AcDbEntity
  8
LOGO
 62
     5
100
AcDbVertex
100
AcDb2dVertex
 10
203.4964807039308
 20
143.2089484560799
 30
0.0
 42
1.0
  0
SEQEND
  5
B9B
330
B98
100
AcDbEntity
  8
LOGO
 62
     5
  0
POLYLINE
  5
B9C
330
1F
100
AcDbEntity
  8
LOGO
 62
     5
100
AcDb2dPolyline
 66
     1
 10
0.0
 20
0.0
 30
0.0
 40
0.3642250138990044
 41
0.3642250138990044
  0
VERTEX
  5
B9D
330
B9C
100
AcDbEntity
  8
LOGO
 62
     5
100
AcDbVertex
100
AcDb2dVertex
 10
199.3769258639103
 20
143.2089484560799
 30
0.0
 42
1.0
  0
VERTEX
  5
B9E
330
B9C
100
AcDbEntity
  8
LOGO
 62
     5
100
AcDbVertex
100
AcDb2dVertex
 10
198.2842508222137
 20
143.2089484560799
 30
0.0
 42
1.0
  0
SEQEND
  5
B9F
330
B9C
100
AcDbEntity
  8
LOGO
 62
     5
  0
SOLID
  5
BA0
330
1F
100
AcDbEntity
  8
LOGO
 62
     5
100
AcDbTrace
 10
198.1033038353088
 20
143.9362329638328
 30
0.0
 11
198.4669460891847
 21
143.9362329638328
 31
0.0
 12
198.1033038353088
 22
142.1180216944499
 32
0.0
 13
198.4669460891847
 23
142.1180216944499
 33
0.0
  0
SOLID
  5
BA1
330
1F
100
AcDbEntity
  8
LOGO
 62
     5
100
AcDbTrace
 10
199.1942305969392
 20
143.2089484560799
 30
0.0
 11
199.5578728508163
 21
143.2089484560799
 31
0.0
 12
199.1942305969392
 22
142.1180216944499
 32
0.0
 13
199.5578728508163
 23
142.1180216944499
 33
0.0
  0
POLYLINE
  5
BA2
330
1F
100
AcDbEntity
  8
LOGO
 62
     5
100
AcDb2dPolyline
 66
     1
 10
0.0
 20
0.0
 30
0.0
 70
     1
 40
0.3642250138990044
 41
0.3642250138990044
  0
VERTEX
  5
BA3
330
BA2
100
AcDbEntity
  8
LOGO
 62
     5
100
AcDbVertex
100
AcDb2dVertex
 10
200.1628262395326
 20
143.0271273291409
 30
0.0
 42
1.0
  0
VERTEX
  5
BA4
330
BA2
100
AcDbEntity
  8
LOGO
 62
     5
100
AcDbVertex
100
AcDb2dVertex
 10
201.619726295129
 20
143.0271273291409
 30
0.0
 42
1.0
  0
SEQEND
  5
BA5
330
BA2
100
AcDbEntity
  8
LOGO
 62
     5
  0
SOLID
  5
BA6
330
1F
100
AcDbEntity
  8
LOGO
 62
     5
100
AcDbTrace
 10
201.436703283921
 20
144.4816963446486
 30
0.0
 11
201.8003455377976
 21
144.4816963446486
 31
0.0
 12
201.436703283921
 22
142.1180216944499
 32
0.0
 13
201.8003455377976
 23
142.1180216944499
 33
0.0
  0
SOLID
  5
BA7
330
1F
100
AcDbEntity
  8
LOGO
 62
     5
100
AcDbTrace
 10
202.2246069553966
 20
143.9362329638328
 30
0.0
 11
202.5882492092727
 21
143.9362329638328
 31
0.0
 12
202.2246069553966
 22
142.1180216944499
 32
0.0
 13
202.5882492092727
 23
142.1180216944499
 33
0.0
  0
SOLID
  5
BA8
330
1F
100
AcDbEntity
  8
LOGO
 62
     5
100
AcDbTrace
 10
203.3155337170259
 20
143.2089484560799
 30
0.0
 11
203.679175970903
 21
143.2089484560799
 31
0.0
 12
203.3155337170259
 22
142.1180216944499
 32
0.0
 13
203.679175970903
 23
142.1180216944499
 33
0.0
  0
SOLID
  5
BA9
330
1F
100
AcDbEntity
  8
LOGO
 62
     5
100
AcDbTrace
 10
204.4064604786563
 20
143.2089484560799
 30
0.0
 11
204.7701027325328
 21
143.2089484560799
 31
0.0
 12
204.4064604786563
 22
142.1180216944491
 32
0.0
 13
204.7701027325328
 23
142.1180216944491
 33
0.0
  0
SOLID
  5
BAA
330
1F
100
AcDbEntity
  8
LOGO
 62
     5
100
AcDbTrace
 10
197.3154001638337
 20
144.190782541547
 30
0.0
 11
197.6790424177114
 21
144.190782541547
 31
0.0
 12
197.3154001638337
 22
144.4816963446486
 32
0.0
 13
197.6790424177114
 23
144.4816963446486
 33
0.0
  0
SOLID
  5
BAB
330
1F
100
AcDbEntity
  8
LOGO
 62
     5
100
AcDbTrace
 10
197.3154001638337
 20
143.9362329638328
 30
0.0
 11
197.6790424177114
 21
143.9362329638328
 31
0.0
 12
197.3154001638337
 22
142.1180216944491
 32
0.0
 13
197.6790424177114
 23
142.1180216944499
 33
0.0
  0
SOLID
  5
BAC
330
1F
100
AcDbEntity
  8
LOGO
 62
     5
100
AcDbTrace
 10
200.8912762673306
 20
145.7544442332171
 30
0.0
 11
201.9458388035737
 21
145.7544442332171
 31
0.0
 12
200.8912762673306
 22
151.0878639567426
 32
0.0
 13
201.9458388035737
 23
154.9545932562988
 33
0.0
  0
SOLID
  5
BAD
330
1F
100
AcDbEntity
  8
LOGO
 62
     5
100
AcDbTrace
 10
202.3822095082263
 20
155.7546062148276
 30
0.0
 11
203.4367720444685
 21
155.754606214828
 31
0.0
 12
202.3822095082263
 22
146.554457191746
 32
0.0
 13
203.4367720444685
 23
150.4211864913023
 33
0.0
  0
SOLID
  5
BAE
330
1F
100
AcDbEntity
  8
LOGO
 62
     2
100
AcDbTrace
 10
201.9458388035737
 20
155.7546062148276
 30
0.0
 11
202.3822095082263
 21
155.7546062148276
 31
0.0
 12
201.9458388035737
 22
145.7544442332171
 32
0.0
 13
202.3822095082263
 23
145.7544442332171
 33
0.0
  0
SOLID
  5
BAF
330
1F
100
AcDbEntity
  8
LOGO
 62
     5
100
AcDbTrace
 10
202.3822095082263
 20
146.554457191746
 30
0.0
 11
203.4367720444685
 21
150.4211864913023
 31
0.0
 12
207.400472611725
 22
155.754606214828
 32
0.0
 13
206.3459100754829
 23
155.754606214828
 33
0.0
  0
SOLID
  5
BB0
330
1F
100
AcDbEntity
  8
LOGO
 62
     5
100
AcDbTrace
 10
202.3822095082263
 20
145.7544442332171
 30
0.0
 11
203.4367720444685
 21
145.7544442332171
 31
0.0
 12
207.400472611725
 22
154.9545932562988
 32
0.0
 13
206.3459100754829
 23
151.0878639567426
 33
0.0
  0
SOLID
  5
BB1
330
1F
100
AcDbEntity
  8
LOGO
 62
     2
100
AcDbTrace
 10
201.9458388035737
 20
145.7544442332171
 30
0.0
 11
202.3822095082263
 21
145.7544442332171
 31
0.0
 12
207.400472611725
 22
155.754606214828
 32
0.0
 13
207.8368433163777
 23
155.7546062148276
 33
0.0
  0
LINE
  5
BB2
330
1F
100
AcDbEntity
  8
LOGO
 62
     4
100
AcDbLine
 10
291.6782236291467
 20
142.9194460057
 30
0.0
 11
291.6782236291467
 21
133.9764211108573
 31
0.0
  0
LINE
  5
BB3
330
1F
100
AcDbEntity
  8
LOGO
 62
     4
100
AcDbLine
 10
280.1117390444769
 20
142.9194460057
 30
0.0
 11
280.1117390444769
 21
133.9764211108573
 31
0.0
  0
LINE
  5
BB4
330
1F
100
AcDbEntity
  8
LOGO
 62
     4
100
AcDbLine
 10
291.6782236291467
 20
133.9764211108573
 30
0.0
 11
280.1117390444769
 21
133.9764211108573
 31
0.0
  0
LINE
  5
BB5
330
1F
100
AcDbEntity
  8
LOGO
 62
     4
100
AcDbLine
 10
299.4626929084924
 20
153.8949765584592
 30
0.0
 11
280.1117390444769
 21
153.8949765584592
 31
0.0
  0
LINE
  5
BB6
330
1F
100
AcDbEntity
  8
LOGO
 62
     4
100
AcDbLine
 10
299.4626929084924
 20
146.5779561899527
 30
0.0
 11
280.1117390444769
 21
146.5779561899527
 31
0.0
  0
LINE
  5
BB7
330
1F
100
AcDbEntity
  8
LOGO
 62
     4
100
AcDbLine
 10
280.1117390444769
 20
153.8949765584592
 30
0.0
 11
280.1117390444769
 21
146.5779561899527
 31
0.0
  0
LINE
  5
BB8
330
1F
100
AcDbEntity
  8
LOGO
 62
     4
100
AcDbLine
 10
299.4626929084924
 20
153.8949765584592
 30
0.0
 11
299.4626929084924
 21
146.5779561899527
 31
0.0
  0
LINE
  5
BB9
330
1F
100
AcDbEntity
  8
LOGO
 62
     4
100
AcDbLine
 10
289.0901276369985
 20
146.5779561899527
 30
0.0
 11
289.0901276369985
 21
142.9194460057
 31
0.0
  0
TEXT
  5
BBA
330
1F
100
AcDbEntity
  8
LOGO
  6
Continuous
 62
     7
100
AcDbText
 10
281.4118589691462
 20
148.1053734943962
 30
0.0
 40
4.268880000000001
  1
MVAA
  7
CHINESET
100
AcDbText
  0
LINE
  5
BBB
330
1F
100
AcDbEntity
  8
LOGO
 62
     4
100
AcDbLine
 10
291.6782236291467
 20
142.9194460057
 30
0.0
 11
280.1117390444769
 21
142.9194460057
 31
0.0
  0
TEXT
  5
BBC
330
1F
100
AcDbEntity
  8
LOGO
  6
Continuous
100
AcDbText
 10
282.214101346577
 20
135.2387101106395
 30
159.8484869550175
 40
1.829519999999999
  1
Model
 41
0.8
  7
CHINESET
100
AcDbText
  0
TEXT
  5
BBD
330
1F
100
AcDbEntity
  8
LOGO
100
AcDbText
 10
281.727142596614
 20
138.6302459009389
 30
159.8484869550175
 40
3.0492
  1
型號
  7
CHINESET
100
AcDbText
  0
LINE
  5
BBE
330
1F
100
AcDbEntity
  8
LOGO
  6
Continuous
 62
     7
100
AcDbLine
 10
300.2405526480055
 20
150.2105483316982
 30
0.0
 11
303.4714818565281
 21
150.2105483316982
 31
0.0
  0
LINE
  5
BBF
330
1F
100
AcDbEntity
  8
LOGO
 62
     4
100
AcDbLine
 10
308.3986921457362
 20
142.9194460057
 30
0.0
 11
308.3986921457362
 21
133.9764211108573
 31
0.0
  0
LINE
  5
BC0
330
1F
100
AcDbEntity
  8
LOGO
 62
     4
100
AcDbLine
 10
293.5836696576405
 20
142.9194460057
 30
0.0
 11
293.5836696576405
 21
133.9764211108573
 31
0.0
  0
LINE
  5
BC1
330
1F
100
AcDbEntity
  8
LOGO
 62
     4
100
AcDbLine
 10
308.3986921457362
 20
133.9764211108573
 30
0.0
 11
293.5836696576405
 21
133.9764211108573
 31
0.0
  0
LINE
  5
BC2
330
1F
100
AcDbEntity
  8
LOGO
 62
     4
100
AcDbLine
 10
313.2674262650512
 20
153.8949765584592
 30
0.0
 11
304.4906697093745
 21
153.8949765584592
 31
0.0
  0
LINE
  5
BC3
330
1F
100
AcDbEntity
  8
LOGO
 62
     4
100
AcDbLine
 10
313.2674262650512
 20
146.5779561899527
 30
0.0
 11
304.4906697093745
 21
146.5779561899527
 31
0.0
  0
LINE
  5
BC4
330
1F
100
AcDbEntity
  8
LOGO
 62
     4
100
AcDbLine
 10
304.4906697093745
 20
153.8949765584592
 30
0.0
 11
304.4906697093745
 21
146.5779561899527
 31
0.0
  0
LINE
  5
BC5
330
1F
100
AcDbEntity
  8
LOGO
 62
     4
100
AcDbLine
 10
313.2674262650512
 20
153.8949765584592
 30
0.0
 11
313.2674262650512
 21
146.5779561899527
 31
0.0
  0
LINE
  5
BC6
330
1F
100
AcDbEntity
  8
LOGO
 62
     4
100
AcDbLine
 10
308.879047987213
 20
146.5779561899527
 30
0.0
 11
308.879047987213
 21
144.7487010978264
 31
0.0
  0
TEXT
  5
BC7
330
1F
100
AcDbEntity
  8
LOGO
  6
Continuous
 62
     7
100
AcDbText
 10
305.6801012785957
 20
148.1053734943962
 30
0.0
 40
4.268880000000001
  1
220
  7
CHINESET
100
AcDbText
  0
LINE
  5
BC8
330
1F
100
AcDbEntity
  8
LOGO
 62
     4
100
AcDbLine
 10
308.3986921457362
 20
142.9194460057
 30
0.0
 11
293.5836696576405
 21
142.9194460057
 31
0.0
  0
LINE
  5
BC9
330
1F
100
AcDbEntity
  8
LOGO
  6
Continuous
 62
     7
100
AcDbLine
 10
318.2150703649188
 20
150.2105483316982
 30
0.0
 11
321.4459995734415
 21
150.2105483316982
 31
0.0
  0
LINE
  5
BCA
330
1F
100
AcDbEntity
  8
LOGO
 62
     4
100
AcDbLine
 10
322.5968149356834
 20
142.9194460057
 30
0.0
 11
322.5968149356834
 21
133.9764211108573
 31
0.0
  0
LINE
  5
BCB
330
1F
100
AcDbEntity
  8
LOGO
 62
     4
100
AcDbLine
 10
310.3826805418995
 20
142.9194460057
 30
0.0
 11
310.3826805418995
 21
133.9764211108573
 31
0.0
  0
LINE
  5
BCC
330
1F
100
AcDbEntity
  8
LOGO
 62
     4
100
AcDbLine
 10
322.5968149356834
 20
133.9764211108573
 30
0.0
 11
310.3826805418995
 21
133.9764211108573
 31
0.0
  0
LINE
  5
BCD
330
1F
100
AcDbEntity
  8
LOGO
 62
     4
100
AcDbLine
 10
327.6594172285748
 20
153.8949765584592
 30
0.0
 11
322.4651874262879
 21
153.8949765584592
 31
0.0
  0
LINE
  5
BCE
330
1F
100
AcDbEntity
  8
LOGO
 62
     4
100
AcDbLine
 10
327.6594172285748
 20
146.5779561899527
 30
0.0
 11
322.4651874262879
 21
146.5779561899527
 31
0.0
  0
LINE
  5
BCF
330
1F
100
AcDbEntity
  8
LOGO
 62
     4
100
AcDbLine
 10
322.4651874262879
 20
153.8949765584592
 30
0.0
 11
322.4651874262879
 21
146.5779561899527
 31
0.0
  0
LINE
  5
BD0
330
1F
100
AcDbEntity
  8
LOGO
 62
     4
100
AcDbLine
 10
327.6594172285748
 20
153.8949765584592
 30
0.0
 11
327.6594172285748
 21
146.5779561899527
 31
0.0
  0
LINE
  5
BD1
330
1F
100
AcDbEntity
  8
LOGO
 62
     4
100
AcDbLine
 10
325.0623023274313
 20
146.5779561899527
 30
0.0
 11
325.0623023274313
 21
144.7487010978264
 31
0.0
  0
TEXT
  5
BD2
330
1F
100
AcDbEntity
  8
LOGO
  6
Continuous
 62
     7
100
AcDbText
 10
323.4390632716369
 20
148.1053734943962
 30
0.0
 40
4.268880000000001
  1
4
  7
CHINESET
100
AcDbText
  0
LINE
  5
BD3
330
1F
100
AcDbEntity
  8
LOGO
 62
     4
100
AcDbLine
 10
322.5968149356834
 20
142.9194460057
 30
0.0
 11
310.3826805418995
 21
142.9194460057
 31
0.0
  0
LINE
  5
BD4
330
1F
100
AcDbEntity
  8
LOGO
 62
     4
100
AcDbLine
 10
347.597041175396
 20
142.9194460057
 30
0.0
 11
347.597041175396
 21
133.9764211108573
 31
0.0
  0
LINE
  5
BD5
330
1F
100
AcDbEntity
  8
LOGO
 62
     4
100
AcDbLine
 10
325.073888587348
 20
142.9194460057
 30
0.0
 11
325.073888587348
 21
133.9764211108573
 31
0.0
  0
LINE
  5
BD6
330
1F
100
AcDbEntity
  8
LOGO
 62
     4
100
AcDbLine
 10
347.597041175396
 20
133.9764211108573
 30
0.0
 11
325.073888587348
 21
133.9764211108573
 31
0.0
  0
LINE
  5
BD7
330
1F
100
AcDbEntity
  8
LOGO
 62
     4
100
AcDbLine
 10
338.7453711500307
 20
153.8949765584592
 30
0.0
 11
329.0917106701878
 21
153.8949765584592
 31
0.0
  0
LINE
  5
BD8
330
1F
100
AcDbEntity
  8
LOGO
 62
     4
100
AcDbLine
 10
338.7453711500307
 20
146.5779561899527
 30
0.0
 11
329.0917106701878
 21
146.5779561899527
 31
0.0
  0
LINE
  5
BD9
330
1F
100
AcDbEntity
  8
LOGO
 62
     4
100
AcDbLine
 10
329.0917106701878
 20
153.8949765584592
 30
0.0
 11
329.0917106701878
 21
146.5779561899527
 31
0.0
  0
LINE
  5
BDA
330
1F
100
AcDbEntity
  8
LOGO
 62
     4
100
AcDbLine
 10
338.7453711500307
 20
153.8949765584592
 30
0.0
 11
338.7453711500307
 21
146.5779561899527
 31
0.0
  0
LINE
  5
BDB
330
1F
100
AcDbEntity
  8
LOGO
 62
     4
100
AcDbLine
 10
333.9185409101094
 20
146.5779561899527
 30
0.0
 11
333.9185409101094
 21
142.9194460057
 31
0.0
  0
TEXT
  5
BDC
330
1F
100
AcDbEntity
  8
LOGO
  6
Continuous
 62
     7
100
AcDbText
 10
330.1234835915541
 20
148.1053734943962
 30
0.0
 40
4.268880000000001
  1
A2
  7
CHINESET
100
AcDbText
  0
LINE
  5
BDD
330
1F
100
AcDbEntity
  8
LOGO
 62
     4
100
AcDbLine
 10
347.597041175396
 20
142.9194460057
 30
0.0
 11
325.073888587348
 21
142.9194460057
 31
0.0
  0
TEXT
  5
BDE
330
1F
100
AcDbEntity
  8
LOGO
  6
Continuous
100
AcDbText
 10
294.7460836670267
 20
135.2387101106395
 30
159.8484869550175
 40
1.829519999999999
  1
Body width
 41
0.8
  7
CHINESET
100
AcDbText
  0
TEXT
  5
BDF
330
1F
100
AcDbEntity
  8
LOGO
100
AcDbText
 10
294.7288489549755
 20
138.6302459009389
 30
159.8484869550175
 40
3.0492
  1
本體寬度
  7
CHINESET
100
AcDbText
  0
TEXT
  5
BE0
330
1F
100
AcDbEntity
  8
LOGO
  6
Continuous
100
AcDbText
 10
312.8308076966667
 20
135.2387101106395
 30
159.8484869550175
 40
1.829519999999999
  1
4 Way
 41
0.8
  7
CHINESET
100
AcDbText
  0
TEXT
  5
BE1
330
1F
100
AcDbEntity
  8
LOGO
100
AcDbText
 10
312.004050928823
 20
138.6302459009389
 30
159.8484869550175
 40
3.0492
  1
4方向
  7
CHINESET
100
AcDbText
  0
TEXT
  5
BE2
330
1F
100
AcDbEntity
  8
LOGO
  6
Continuous
100
AcDbText
 10
326.4004140835504
 20
135.2387101106395
 30
159.8484869550175
 40
1.829519999999999
  1
Double air operate
 41
0.8
  7
CHINESET
100
AcDbText
  0
TEXT
  5
BE3
330
1F
100
AcDbEntity
  8
LOGO
100
AcDbText
 10
326.4725696526183
 20
138.6302459009389
 30
159.8484869550175
 40
3.0492
  1
複動氣壓引導
  7
CHINESET
100
AcDbText
  0
TEXT
  5
BE4
330
1F
100
AcDbEntity
  8
LOGO
100
AcDbText
 10
247.6943600709599
 20
133.2414574383489
 30
0.0
 40
2.439359999999999
  1
10710030
 41
0.7
  7
CHINESET
 72
     1
 11
253.6301360709599
 21
133.2414574383489
 31
0.0
100
AcDbText
  0
LINE
  5
BE5
330
1F
100
AcDbEntity
  8
LOGO
 62
     4
100
AcDbLine
 10
261.2004431410379
 20
136.8219290319442
 30
0.0
 11
261.2004431410388
 21
131.9439154529396
 31
0.0
  0
LINE
  5
BE6
330
1F
100
AcDbEntity
  8
LOGO
 62
     4
100
AcDbLine
 10
261.2004431410379
 20
136.8219290319442
 30
0.0
 11
246.5642831410389
 21
136.8219290319442
 31
0.0
  0
CIRCLE
  5
BE7
330
1F
100
AcDbEntity
  8
LOGO
  6
Continuous
100
AcDbCircle
 10
234.8203640146005
 20
149.022180032826
 30
0.0
 40
1.416144749733467
  0
CIRCLE
  5
BE8
330
1F
100
AcDbEntity
  8
LOGO
  6
Continuous
100
AcDbCircle
 10
234.8203640146005
 20
149.022180032826
 30
0.0
 40
0.8297354591420555
  0
LINE
  5
BE9
330
1F
100
AcDbEntity
  8
LOGO
100
AcDbLine
 10
243.7195819444134
 20
147.6060352830922
 30
0.0
 11
243.7195819444134
 21
150.4383247825598
 31
0.0
  0
LINE
  5
BEA
330
1F
100
AcDbEntity
  8
LOGO
100
AcDbLine
 10
239.2800494445867
 20
148.1924445736842
 30
0.0
 11
239.2800494445867
 21
149.8519154919684
 31
0.0
  0
LINE
  5
BEB
330
1F
100
AcDbEntity
  8
LOGO
  6
Continuous
100
AcDbLine
 10
239.2800494445867
 20
149.8519154919684
 30
0.0
 11
243.7195819444134
 21
150.4383247825598
 31
0.0
  0
LINE
  5
BEC
330
1F
100
AcDbEntity
  8
LOGO
  6
Continuous
100
AcDbLine
 10
239.2800494445867
 20
148.1924445736842
 30
0.0
 11
243.7195819444134
 21
147.6060352830922
 31
0.0
  0
LINE
  5
BED
330
1F
100
AcDbEntity
  8
LOGO
  6
AM_ISO08W050x2
 48
0.3
100
AcDbLine
 10
232.8681872719951
 20
149.022180032826
 30
0.0
 11
236.7725407572059
 21
149.022180032826
 31
0.0
1001
GENIUS_GENOREF_13
1005
BF6
  0
LINE
  5
BEE
330
1F
100
AcDbEntity
  8
LOGO
  6
AM_ISO08W050x2
 48
0.3
100
AcDbLine
 10
234.8203640146005
 20
147.0700032902204
 30
0.0
 11
234.8203640146005
 21
150.9743567754314
 31
0.0
1001
GENIUS_GENOREF_13
1005
BF5
  0
LINE
  5
BEF
330
1F
100
AcDbEntity
  8
LOGO
  6
CENTER
 48
0.5
100
AcDbLine
 10
238.9250102408289
 20
149.022180032826
 30
0.0
 11
244.1666284956383
 21
149.022180032826
 31
0.0
1001
GENIUS_GENOREF_13
1005
BF4
  0
LINE
  5
BF0
330
1F
100
AcDbEntity
  8
LOGO
 62
     4
100
AcDbLine
 10
308.879047987213
 20
144.7487010978264
 30
0.0
 11
300.991180901688
 21
144.7487010978264
 31
0.0
  0
LINE
  5
BF1
330
1F
100
AcDbEntity
  8
LOGO
 62
     4
100
AcDbLine
 10
300.991180901688
 20
142.9194460057
 30
0.0
 11
300.991180901688
 21
144.7487010978264
 31
0.0
  0
LINE
  5
BF2
330
1F
100
AcDbEntity
  8
LOGO
 62
     4
100
AcDbLine
 10
325.0623023274313
 20
144.7487010978264
 30
0.0
 11
316.4897477387917
 21
144.7487010978264
 31
0.0
  0
LINE
  5
BF3
330
1F
100
AcDbEntity
  8
LOGO
 62
     4
100
AcDbLine
 10
316.4897477387917
 20
142.9194460057
 30
0.0
 11
316.4897477387917
 21
144.7487010978264
 31
0.0
  0
POINT
  5
BF4
330
1F
100
AcDbEntity
  8
0
 60
     1
100
AcDbPoint
 10
-1127.3830167689
 20
-923.8825896443225
 30
0.0
1001
GENIUS_GENOBJ-N-CRS_13
1002
{
1000
OWNER
1000
GEN
1002
}
1001
GENIUS_GENOLIS_13
1002
{
1000
ENT
1005
0
1005
0
1005
0
1005
BEF
1002
}
1001
GENIUS_GENOENT_13
1002
{
1000
MYREF
1005
BF4
1002
}
1002
{
1000
GRP
1005
0
1002
}
1001
GENIUS_GENODEF_13
1002
{
1000
HIER
1070
    10
1002
}
1002
{
1000
MANEDIT
1070
     1
1002
}
1002
{
1000
NOSEL
1070
     0
1002
}
1002
{
1000
BEHIND
1070
     0
1002
}
1002
{
1000
OTHER
1070
     0
1002
}
1002
{
1000
REACTOR
1002
}
  0
POINT
  5
BF5
330
1F
100
AcDbEntity
  8
0
 60
     1
100
AcDbPoint
 10
-1138.707601991755
 20
-915.0070031656863
 30
0.0
1001
GENIUS_GENOBJ-N-CRS_13
1002
{
1000
OWNER
1000
GEN
1002
}
1001
GENIUS_GENOLIS_13
1002
{
1000
ENT
1005
0
1005
0
1005
0
1005
BEE
1002
}
1001
GENIUS_GENOENT_13
1002
{
1000
MYREF
1005
BF5
1002
}
1002
{
1000
GRP
1005
0
1002
}
1001
GENIUS_GENODEF_13
1002
{
1000
HIER
1070
    10
1002
}
1002
{
1000
MANEDIT
1070
     1
1002
}
1002
{
1000
NOSEL
1070
     0
1002
}
1002
{
1000
BEHIND
1070
     0
1002
}
1002
{
1000
OTHER
1070
     0
1002
}
1002
{
1000
REACTOR
1002
}
  0
POINT
  5
BF6
330
1F
100
AcDbEntity
  8
0
 60
     1
100
AcDbPoint
 10
-1132.348928293918
 20
-923.8825896443225
 30
0.0
1001
GENIUS_GENOBJ-N-CRS_13
1002
{
1000
OWNER
1000
GEN
1002
}
1001
GENIUS_GENOLIS_13
1002
{
1000
ENT
1005
0
1005
0
1005
0
1005
BED
1002
}
1001
GENIUS_GENOENT_13
1002
{
1000
MYREF
1005
BF6
1002
}
1002
{
1000
GRP
1005
0
1002
}
1001
GENIUS_GENODEF_13
1002
{
1000
HIER
1070
    10
1002
}
1002
{
1000
MANEDIT
1070
     1
1002
}
1002
{
1000
NOSEL
1070
     0
1002
}
1002
{
1000
BEHIND
1070
     0
1002
}
1002
{
1000
OTHER
1070
     0
1002
}
1002
{
1000
REACTOR
1002
}
  0
LINE
  5
F1A
330
1F
100
AcDbEntity
  8
AM_VIS
100
AcDbLine
 10
275.7068022100721
 20
217.4291689218841
 30
0.0
 11
275.7068022100721
 21
211.0588417982706
 31
0.0
  0
LINE
  5
F1B
330
1F
100
AcDbEntity
  8
AM_VIS
100
AcDbLine
 10
266.306802210072
 20
225.3940053600775
 30
0.0
 11
266.306802210072
 21
216.7440053600775
 31
0.0
  0
LINE
  5
F1C
330
1F
100
AcDbEntity
  8
AM_VIS
100
AcDbLine
 10
266.306802210072
 20
211.7440053600775
 30
0.0
 11
266.306802210072
 21
203.0940053600775
 31
0.0
  0
LINE
  5
F1D
330
1F
100
AcDbEntity
  8
AM_VIS
100
AcDbLine
 10
305.456802210072
 20
213.2034444942641
 30
0.0
 11
305.456802210072
 21
215.2845662258905
 31
0.0
  0
LINE
  5
F1E
330
1F
100
AcDbEntity
  8
AM_VIS
100
AcDbLine
 10
297.9270363449044
 20
223.3940053600774
 30
0.0
 11
305.3190672532003
 21
223.3940053600774
 31
0.0
  0
LINE
  5
F1F
330
1F
100
AcDbEntity
  8
AM_VIS
100
AcDbLine
 10
309.8068022100719
 20
205.0940053600773
 30
0.0
 11
297.9270363449043
 21
205.0940053600773
 31
0.0
  0
LINE
  5
F20
330
1F
100
AcDbEntity
  8
AM_VIS
100
AcDbLine
 10
309.306802210072
 20
207.2440053600773
 30
0.0
 11
309.8068022100719
 21
207.2440053600773
 31
0.0
  0
LINE
  5
F21
330
1F
100
AcDbEntity
  8
AM_VIS
100
AcDbLine
 10
284.6865680752396
 20
205.0940053600773
 30
0.0
 11
277.2945371669436
 21
205.0940053600773
 31
0.0
  0
LINE
  5
F22
330
1F
100
AcDbEntity
  8
AM_VIS
100
AcDbLine
 10
272.806802210072
 20
223.3940053600774
 30
0.0
 11
284.6865680752396
 21
223.3940053600774
 31
0.0
  0
LINE
  5
F23
330
1F
100
AcDbEntity
  8
AM_VIS
100
AcDbLine
 10
273.306802210072
 20
221.2440053600773
 30
0.0
 11
272.806802210072
 21
221.2440053600773
 31
0.0
  0
LINE
  5
F24
330
1F
100
AcDbEntity
  8
AM_VIS
100
AcDbLine
 10
301.7074601332867
 20
215.7440053600773
 30
0.0
 11
301.5048412372575
 21
215.7440053600773
 31
0.0
  0
LINE
  5
F25
330
1F
100
AcDbEntity
  8
AM_VIS
100
AcDbLine
 10
301.5048412372575
 20
212.7440053600773
 30
0.0
 11
301.7074601332867
 21
212.7440053600773
 31
0.0
  0
LINE
  5
F26
330
1F
100
AcDbEntity
  8
AM_VIS
100
AcDbLine
 10
280.9061442868573
 20
212.7440053600773
 30
0.0
 11
281.1087631828864
 21
212.7440053600773
 31
0.0
  0
LINE
  5
F27
330
1F
100
AcDbEntity
  8
AM_VIS
100
AcDbLine
 10
281.1087631828864
 20
215.7440053600772
 30
0.0
 11
280.9061442868573
 21
215.7440053600772
 31
0.0
  0
LINE
  5
F28
330
1F
100
AcDbEntity
  8
AM_VIS
100
AcDbLine
 10
293.556802210072
 20
214.2440053600773
 30
0.0
 11
293.556802210072
 21
209.3123389410777
 31
0.0
  0
LINE
  5
F29
330
1F
100
AcDbEntity
  8
AM_VIS
100
AcDbLine
 10
337.306802210072
 20
225.3940053600774
 30
0.0
 11
266.306802210072
 21
225.3940053600774
 31
0.0
  0
LINE
  5
F2A
330
1F
100
AcDbEntity
  8
AM_VIS
100
AcDbLine
 10
266.306802210072
 20
203.0940053600773
 30
0.0
 11
337.306802210072
 21
203.0940053600773
 31
0.0
  0
LINE
  5
F2B
330
1F
100
AcDbEntity
  8
AM_VIS
100
AcDbLine
 10
273.156802210072
 20
210.2586864373985
 30
0.0
 11
273.156802210072
 21
211.7440053600773
 31
0.0
  0
LINE
  5
F2C
330
1F
100
AcDbEntity
  8
AM_VIS
100
AcDbLine
 10
273.156802210072
 20
216.7440053600774
 30
0.0
 11
273.156802210072
 21
218.2293242827561
 31
0.0
  0
ARC
  5
F2D
330
1F
100
AcDbEntity
  8
AM_VIS
100
AcDbCircle
 10
309.541578520917
 20
214.2440053600774
 30
0.0
 40
36.47056274847199
100
AcDbArc
 50
176.0693816181813
 51
183.9306183818187
  0
LINE
  5
F2E
330
1F
100
AcDbEntity
  8
AM_VIS
100
AcDbLine
 10
309.456802210072
 20
218.2293242827561
 30
0.0
 11
309.456802210072
 21
216.7440053600774
 31
0.0
  0
LINE
  5
F2F
330
1F
100
AcDbEntity
  8
AM_VIS
100
AcDbLine
 10
309.456802210072
 20
211.7440053600773
 30
0.0
 11
309.456802210072
 21
210.2586864373985
 31
0.0
  0
ARC
  5
F30
330
1F
100
AcDbEntity
  8
AM_VIS
100
AcDbCircle
 10
273.0720258992269
 20
214.2440053600773
 30
0.0
 40
36.47056274847199
100
AcDbArc
 50
356.0693816181813
 51
3.930618381818695
  0
LINE
  5
F31
330
1F
100
AcDbEntity
  8
AM_VIS
100
AcDbLine
 10
293.556802210072
 20
219.175671779077
 30
0.0
 11
293.556802210072
 21
214.2440053600773
 31
0.0
  0
ARC
  5
F32
330
1F
100
AcDbEntity
  8
AM_VIS
100
AcDbCircle
 10
290.6357096915069
 20
215.2524067670508
 30
0.0
 40
4.229061029297184
100
AcDbArc
 50
111.922187542578
 51
127.5754886427657
  0
ARC
  5
F33
330
1F
100
AcDbEntity
  8
AM_VIS
100
AcDbCircle
 10
291.9778947286381
 20
215.2524067670531
 30
0.0
 40
4.229061029294741
100
AcDbArc
 50
52.42451135722966
 51
68.07781245742565
  0
LINE
  5
F34
330
1F
100
AcDbEntity
  8
AM_VIS
100
AcDbLine
 10
289.0568022100719
 20
209.3123389410777
 30
0.0
 11
289.0568022100719
 21
214.2440053600773
 31
0.0
  0
LINE
  5
F35
330
1F
100
AcDbEntity
  8
AM_VIS
100
AcDbLine
 10
289.0568022100719
 20
214.2440053600773
 30
0.0
 11
289.0568022100719
 21
219.175671779077
 31
0.0
  0
ARC
  5
F36
330
1F
100
AcDbEntity
  8
AM_VIS
100
AcDbCircle
 10
291.977894728642
 20
213.2356039530947
 30
0.0
 40
4.229061029286823
100
AcDbArc
 50
291.9221875425605
 51
307.5754886427866
  0
LINE
  5
F37
330
1F
100
AcDbEntity
  8
AM_VIS
100
AcDbLine
 10
271.806802210072
 20
222.2440053600773
 30
0.0
 11
271.806802210072
 21
222.3940053600774
 31
0.0
  0
LINE
  5
F38
330
1F
100
AcDbEntity
  8
AM_VIS
100
AcDbLine
 10
266.306802210072
 20
224.8940053600774
 30
0.0
 11
266.306802210072
 21
203.5940053600773
 31
0.0
  0
LINE
  5
F39
330
1F
100
AcDbEntity
  8
AM_VIS
100
AcDbLine
 10
310.806802210072
 20
206.2440053600773
 30
0.0
 11
310.806802210072
 21
206.0940053600773
 31
0.0
  0
LINE
  5
F3A
330
1F
100
AcDbEntity
  8
AM_VIS
100
AcDbLine
 10
337.306802210072
 20
203.5940053600773
 30
0.0
 11
337.306802210072
 21
224.8940053600774
 31
0.0
  0
ARC
  5
F3B
330
1F
100
AcDbEntity
  8
AM_VIS
100
AcDbCircle
 10
273.306802210072
 20
214.2440053600773
 30
0.0
 40
3.98814078430813
100
AcDbArc
 50
114.4391511387345
 51
245.5608488612655
  0
ARC
  5
F3C
330
1F
100
AcDbEntity
  8
AM_VIS
100
AcDbCircle
 10
309.306802210072
 20
214.2440053600773
 30
0.0
 40
3.98814078430813
100
AcDbArc
 50
294.4391511387345
 51
65.56084886126548
  0
ARC
  5
F3D
330
1F
100
AcDbEntity
  8
AM_VIS
100
AcDbCircle
 10
309.306802210072
 20
214.2440053600773
 30
0.0
 40
3.98814078430813
100
AcDbArc
 50
164.8757108018935
 51
195.1242891981065
  0
ARC
  5
F3E
330
1F
100
AcDbEntity
  8
AM_VIS
100
AcDbCircle
 10
273.306802210072
 20
214.2440053600773
 30
0.0
 40
3.98814078430813
100
AcDbArc
 50
344.8757108018935
 51
15.12428919810649
  0
ARC
  5
F3F
330
1F
100
AcDbEntity
  8
AM_VIS
100
AcDbCircle
 10
309.306802210072
 20
214.2440053600773
 30
0.0
 40
3.98814078430813
100
AcDbArc
 50
65.56084886126548
 51
164.8757108018935
  0
ARC
  5
F40
330
1F
100
AcDbEntity
  8
AM_VIS
100
AcDbCircle
 10
273.306802210072
 20
214.2440053600773
 30
0.0
 40
3.98814078430813
100
AcDbArc
 50
245.5608488612655
 51
344.8757108018935
  0
ARC
  5
F41
330
1F
100
AcDbEntity
  8
AM_VIS
100
AcDbCircle
 10
305.5222189598735
 20
221.2921916248066
 30
0.0
 40
1.0
100
AcDbArc
 50
298.2339511367408
 51
16.87967440363548
  0
ARC
  5
F42
330
1F
100
AcDbEntity
  8
AM_VIS
100
AcDbCircle
 10
310.306802210072
 20
222.7440053600773
 30
0.0
 40
4.0
100
AcDbArc
 50
184.0139872180559
 51
196.8796744036355
  0
ARC
  5
F43
330
1F
100
AcDbEntity
  8
AM_VIS
100
AcDbCircle
 10
305.3190672532003
 20
222.3940053600774
 30
0.0
 40
1.0
100
AcDbArc
 50
4.013987218055889
 51
90.0
  0
ARC
  5
F44
330
1F
100
AcDbEntity
  8
AM_VIS
100
AcDbCircle
 10
297.9270363449044
 20
222.3940053600774
 30
0.0
 40
0.9999999999999998
100
AcDbArc
 50
90.0
 51
230.913090264759
  0
ARC
  5
F45
330
1F
100
AcDbEntity
  8
AM_VIS
100
AcDbCircle
 10
291.306802210072
 20
214.2440053600774
 30
0.0
 40
9.5
100
AcDbArc
 50
13.77414699802693
 51
50.91309026475897
  0
CIRCLE
  5
F46
330
1F
100
AcDbEntity
  8
AM_VIS
100
AcDbCircle
 10
291.306802210072
 20
214.2440053600773
 30
0.0
 40
6.700000000000001
  0
CIRCLE
  5
F47
330
1F
100
AcDbEntity
  8
AM_VIS
100
AcDbCircle
 10
273.306802210072
 20
214.2440053600773
 30
0.0
 40
5.25
  0
CIRCLE
  5
F48
330
1F
100
AcDbEntity
  8
AM_VIS
100
AcDbCircle
 10
309.306802210072
 20
214.2440053600773
 30
0.0
 40
5.250000000000001
  0
ARC
  5
F49
330
1F
100
AcDbEntity
  8
AM_VIS
100
AcDbCircle
 10
297.9270363449043
 20
206.0940053600773
 30
0.0
 40
0.9999999999999998
100
AcDbArc
 50
129.086909735241
 51
270.0
  0
ARC
  5
F4A
330
1F
100
AcDbEntity
  8
AM_VIS
100
AcDbCircle
 10
309.8068022100719
 20
206.2440053600773
 30
0.0
 40
0.9999999999999998
100
AcDbArc
 50
0.0
 51
90.0
  0
ARC
  5
F4B
330
1F
100
AcDbEntity
  8
AM_VIS
100
AcDbCircle
 10
277.0913854602704
 20
207.1958190953481
 30
0.0
 40
1.0
100
AcDbArc
 50
118.2339511367407
 51
196.8796744036355
  0
ARC
  5
F4C
330
1F
100
AcDbEntity
  8
AM_VIS
100
AcDbCircle
 10
272.3068022100719
 20
205.7440053600773
 30
0.0
 40
4.0
100
AcDbArc
 50
4.013987218055889
 51
16.87967440363548
  0
ARC
  5
F4D
330
1F
100
AcDbEntity
  8
AM_VIS
100
AcDbCircle
 10
277.2945371669436
 20
206.0940053600773
 30
0.0
 40
0.9999999999999998
100
AcDbArc
 50
184.0139872180559
 51
270.0
  0
ARC
  5
F4E
330
1F
100
AcDbEntity
  8
AM_VIS
100
AcDbCircle
 10
284.6865680752396
 20
206.0940053600773
 30
0.0
 40
1.0
100
AcDbArc
 50
270.0
 51
50.91309026475897
  0
ARC
  5
F4F
330
1F
100
AcDbEntity
  8
AM_VIS
100
AcDbCircle
 10
284.6865680752396
 20
222.3940053600774
 30
0.0
 40
0.9999999999999998
100
AcDbArc
 50
309.086909735241
 51
90.0
  0
ARC
  5
F50
330
1F
100
AcDbEntity
  8
AM_VIS
100
AcDbCircle
 10
272.806802210072
 20
222.2440053600773
 30
0.0
 40
0.9999999999999998
100
AcDbArc
 50
180.0
 51
270.0
  0
ARC
  5
F51
330
1F
100
AcDbEntity
  8
AM_VIS
100
AcDbCircle
 10
309.306802210072
 20
214.2440053600773
 30
0.0
 40
7.0
100
AcDbArc
 50
198.2099568642828
 51
270.0
  0
ARC
  5
F52
330
1F
100
AcDbEntity
  8
AM_VIS
100
AcDbCircle
 10
309.306802210072
 20
214.2440053600773
 30
0.0
 40
7.0
100
AcDbArc
 50
118.2339511367407
 51
161.7900431357172
  0
ARC
  5
F53
330
1F
100
AcDbEntity
  8
AM_VIS
100
AcDbCircle
 10
301.7074601332867
 20
216.7440053600773
 30
0.0
 40
1.0
100
AcDbArc
 50
270.0
 51
341.7900431357172
  0
ARC
  5
F54
330
1F
100
AcDbEntity
  8
AM_VIS
100
AcDbCircle
 10
301.5048412372575
 20
216.7440053600773
 30
0.0
 40
0.9999999999999998
100
AcDbArc
 50
193.7741469980269
 51
270.0
  0
ARC
  5
F55
330
1F
100
AcDbEntity
  8
AM_VIS
100
AcDbCircle
 10
291.306802210072
 20
214.2440053600774
 30
0.0
 40
9.5
100
AcDbArc
 50
309.086909735241
 51
346.2258530019731
  0
ARC
  5
F56
330
1F
100
AcDbEntity
  8
AM_VIS
100
AcDbCircle
 10
301.5048412372575
 20
211.7440053600773
 30
0.0
 40
1.0
100
AcDbArc
 50
90.0
 51
166.225853001973
  0
ARC
  5
F57
330
1F
100
AcDbEntity
  8
AM_VIS
100
AcDbCircle
 10
301.7074601332867
 20
211.7440053600773
 30
0.0
 40
1.0
100
AcDbArc
 50
18.20995686428278
 51
90.0
  0
ARC
  5
F58
330
1F
100
AcDbEntity
  8
AM_VIS
100
AcDbCircle
 10
291.306802210072
 20
214.2440053600774
 30
0.0
 40
9.5
100
AcDbArc
 50
193.7741469980269
 51
230.913090264759
  0
ARC
  5
F59
330
1F
100
AcDbEntity
  8
AM_VIS
100
AcDbCircle
 10
273.306802210072
 20
214.2440053600773
 30
0.0
 40
7.0
100
AcDbArc
 50
18.20995686428278
 51
90.0
  0
ARC
  5
F5A
330
1F
100
AcDbEntity
  8
AM_VIS
100
AcDbCircle
 10
273.306802210072
 20
214.2440053600773
 30
0.0
 40
7.0
100
AcDbArc
 50
298.2339511367408
 51
341.7900431357172
  0
ARC
  5
F5B
330
1F
100
AcDbEntity
  8
AM_VIS
100
AcDbCircle
 10
280.9061442868573
 20
211.7440053600773
 30
0.0
 40
1.0
100
AcDbArc
 50
90.0
 51
161.7900431357172
  0
ARC
  5
F5C
330
1F
100
AcDbEntity
  8
AM_VIS
100
AcDbCircle
 10
281.1087631828864
 20
211.7440053600773
 30
0.0
 40
0.9999999999999998
100
AcDbArc
 50
13.77414699802693
 51
90.0
  0
ARC
  5
F5D
330
1F
100
AcDbEntity
  8
AM_VIS
100
AcDbCircle
 10
291.306802210072
 20
214.2440053600774
 30
0.0
 40
9.5
100
AcDbArc
 50
129.086909735241
 51
166.225853001973
  0
ARC
  5
F5E
330
1F
100
AcDbEntity
  8
AM_VIS
100
AcDbCircle
 10
281.1087631828864
 20
216.7440053600773
 30
0.0
 40
0.9999999999999998
100
AcDbArc
 50
270.0
 51
346.2258530019731
  0
ARC
  5
F5F
330
1F
100
AcDbEntity
  8
AM_VIS
100
AcDbCircle
 10
280.9061442868573
 20
216.7440053600773
 30
0.0
 40
0.9999999999999998
100
AcDbArc
 50
198.2099568642828
 51
270.0
  0
ARC
  5
F60
330
1F
100
AcDbEntity
  8
AM_VIS
100
AcDbCircle
 10
291.306802210072
 20
214.2440053600773
 30
0.0
 40
5.438140784308131
100
AcDbArc
 50
126.7003983555961
 51
233.2996016444039
  0
ARC
  5
F61
330
1F
100
AcDbEntity
  8
AM_VIS
100
AcDbCircle
 10
291.306802210072
 20
214.2440053600773
 30
0.0
 40
5.438140784308131
100
AcDbArc
 50
306.7003983555961
 51
53.2996016444039
  0
CIRCLE
  5
F62
330
1F
100
AcDbEntity
  8
AM_VIS
100
AcDbCircle
 10
310.306802210072
 20
222.7440053600773
 30
0.0
 40
1.6
  0
ARC
  5
F63
330
1F
100
AcDbEntity
  8
AM_VIS
100
AcDbCircle
 10
273.306802210072
 20
214.2440053600773
 30
0.0
 40
3.98814078430813
100
AcDbArc
 50
15.12428919810649
 51
114.4391511387345
  0
ARC
  5
F64
330
1F
100
AcDbEntity
  8
AM_VIS
100
AcDbCircle
 10
309.306802210072
 20
214.2440053600773
 30
0.0
 40
3.98814078430813
100
AcDbArc
 50
195.1242891981065
 51
294.4391511387345
  0
ARC
  5
F65
330
1F
100
AcDbEntity
  8
AM_VIS
100
AcDbCircle
 10
291.306802210072
 20
214.2440053600773
 30
0.0
 40
5.438140784308131
100
AcDbArc
 50
53.2996016444039
 51
126.7003983555961
  0
ARC
  5
F66
330
1F
100
AcDbEntity
  8
AM_VIS
100
AcDbCircle
 10
291.306802210072
 20
214.2440053600773
 30
0.0
 40
5.438140784308131
100
AcDbArc
 50
233.2996016444039
 51
306.7003983555961
  0
ARC
  5
F67
330
1F
100
AcDbEntity
  8
AM_VIS
100
AcDbCircle
 10
272.806802210072
 20
222.3940053600774
 30
0.0
 40
0.9999999999999998
100
AcDbArc
 50
90.0
 51
180.0
  0
CIRCLE
  5
F68
330
1F
100
AcDbEntity
  8
AM_VIS
100
AcDbCircle
 10
272.3068022100719
 20
205.7440053600773
 30
0.0
 40
1.6
  0
ARC
  5
F69
330
1F
100
AcDbEntity
  8
AM_VIS
100
AcDbCircle
 10
309.8068022100719
 20
206.0940053600773
 30
0.0
 40
0.9999999999999998
100
AcDbArc
 50
270.0
 51
0.0
  0
ARC
  5
F6A
330
1F
100
AcDbEntity
  8
AM_VIS
100
AcDbCircle
 10
301.306802210072
 20
260.6406188121308
 30
0.0
 40
4.703069865443481
100
AcDbArc
 50
0.0
 51
180.0
  0
ARC
  5
F6B
330
1F
100
AcDbEntity
  8
AM_VIS
100
AcDbCircle
 10
291.306802210072
 20
284.1406188121307
 30
0.0
 40
4.203069865443484
100
AcDbArc
 50
180.0
 51
0.0
  0
ARC
  5
F6C
330
1F
100
AcDbEntity
  8
AM_VIS
100
AcDbCircle
 10
281.306802210072
 20
260.6406188121308
 30
0.0
 40
4.703069865443481
100
AcDbArc
 50
0.0
 51
180.0
  0
LINE
  5
F6D
330
1F
100
AcDbEntity
  8
AM_VIS
100
AcDbLine
 10
313.306802210072
 20
288.1406188121308
 30
0.0
 11
313.306802210072
 21
288.6406188121308
 31
0.0
  0
LINE
  5
F6E
330
1F
100
AcDbEntity
  8
AM_VIS
100
AcDbLine
 10
307.306802210072
 20
288.6406188121308
 30
0.0
 11
307.306802210072
 21
288.1406188121308
 31
0.0
  0
LINE
  5
F6F
330
1F
100
AcDbEntity
  8
AM_VIS
100
AcDbLine
 10
307.306802210072
 20
288.6406188121308
 30
0.0
 11
313.306802210072
 21
288.6406188121308
 31
0.0
  0
CIRCLE
  5
F70
330
1F
100
AcDbEntity
  8
AM_VIS
100
AcDbCircle
 10
291.306802210072
 20
284.1406188121308
 30
0.0
 40
1.399999999999999
  0
LINE
  5
F71
330
1F
100
AcDbEntity
  8
AM_VIS
100
AcDbLine
 10
337.306802210072
 20
330.0537082296652
 30
0.0
 11
337.306802210072
 21
352.3537082296652
 31
0.0
  0
LINE
  5
F72
330
1F
100
AcDbEntity
  8
AM_VIS
100
AcDbLine
 10
266.306802210072
 20
352.3537082296649
 30
0.0
 11
266.306802210072
 21
330.053708229665
 31
0.0
  0
LINE
  5
F73
330
1F
100
AcDbEntity
  8
AM_VIS
100
AcDbLine
 10
281.056802210072
 20
341.2037082296651
 30
0.0
 11
281.056802210072
 21
348.1360995253981
 31
0.0
  0
LINE
  5
F74
330
1F
100
AcDbEntity
  8
AM_VIS
100
AcDbLine
 10
301.5568022100719
 20
345.1360995253981
 30
0.0
 11
301.5568022100719
 21
334.2713169339321
 31
0.0
  0
LINE
  5
F75
330
1F
100
AcDbEntity
  8
AM_VIS
100
AcDbLine
 10
313.306802210072
 20
330.0537082296651
 30
0.0
 11
337.306802210072
 21
330.0537082296651
 31
0.0
  0
LINE
  5
F76
330
1F
100
AcDbEntity
  8
AM_VIS
100
AcDbLine
 10
266.306802210072
 20
330.0537082296651
 30
0.0
 11
307.306802210072
 21
330.0537082296651
 31
0.0
  0
LINE
  5
F77
330
1F
100
AcDbEntity
  8
AM_VIS
100
AcDbLine
 10
300.9897954781536
 20
333.0537082296651
 30
0.0
 11
302.6238089419903
 21
333.0537082296651
 31
0.0
  0
LINE
  5
F78
330
1F
100
AcDbEntity
  8
AM_VIS
100
AcDbLine
 10
298.306802210072
 20
349.3537082296651
 30
0.0
 11
298.306802210072
 21
349.1905412101703
 31
0.0
  0
LINE
  5
F79
330
1F
100
AcDbEntity
  8
AM_VIS
100
AcDbLine
 10
288.9325329464427
 20
350.3537082296651
 30
0.0
 11
297.3068022100719
 21
350.3537082296651
 31
0.0
  0
LINE
  5
F7A
330
1F
100
AcDbEntity
  8
AM_VIS
100
AcDbLine
 10
284.306802210072
 20
333.0537082296651
 30
0.0
 11
284.306802210072
 21
333.21687524916
 31
0.0
  0
LINE
  5
F7B
330
1F
100
AcDbEntity
  8
AM_VIS
100
AcDbLine
 10
293.6810714737012
 20
332.0537082296651
 30
0.0
 11
285.306802210072
 21
332.0537082296651
 31
0.0
  0
LINE
  5
F7C
330
1F
100
AcDbEntity
  8
AM_VIS
100
AcDbLine
 10
314.806802210072
 20
349.3537082296651
 30
0.0
 11
314.806802210072
 21
338.7658860561562
 31
0.0
  0
LINE
  5
F7D
330
1F
100
AcDbEntity
  8
AM_VIS
100
AcDbLine
 10
306.306802210072
 20
350.3537082296651
 30
0.0
 11
313.806802210072
 21
350.3537082296651
 31
0.0
  0
LINE
  5
F7E
330
1F
100
AcDbEntity
  8
AM_VIS
100
AcDbLine
 10
305.306802210072
 20
349.1905412101703
 30
0.0
 11
305.306802210072
 21
349.353708229665
 31
0.0
  0
LINE
  5
F7F
330
1F
100
AcDbEntity
  8
AM_VIS
100
AcDbLine
 10
267.806802210072
 20
333.0537082296651
 30
0.0
 11
267.806802210072
 21
343.6415304031741
 31
0.0
  0
LINE
  5
F80
330
1F
100
AcDbEntity
  8
AM_VIS
100
AcDbLine
 10
276.306802210072
 20
332.0537082296651
 30
0.0
 11
268.806802210072
 21
332.0537082296651
 31
0.0
  0
LINE
  5
F81
330
1F
100
AcDbEntity
  8
AM_VIS
100
AcDbLine
 10
277.306802210072
 20
333.21687524916
 30
0.0
 11
277.306802210072
 21
333.0537082296651
 31
0.0
  0
LINE
  5
F82
330
1F
100
AcDbEntity
  8
AM_VIS
100
AcDbLine
 10
269.306802210072
 20
349.7037082296651
 30
0.0
 11
269.306802210072
 21
351.8537082296651
 31
0.0
  0
LINE
  5
F83
330
1F
100
AcDbEntity
  8
AM_VIS
100
AcDbLine
 10
275.306802210072
 20
351.853708229665
 30
0.0
 11
275.306802210072
 21
349.7037082296651
 31
0.0
  0
LINE
  5
F84
330
1F
100
AcDbEntity
  8
AM_VIS
100
AcDbLine
 10
313.306802210072
 20
332.7037082296651
 30
0.0
 11
313.306802210072
 21
330.553708229665
 31
0.0
  0
LINE
  5
F85
330
1F
100
AcDbEntity
  8
AM_VIS
100
AcDbLine
 10
307.306802210072
 20
330.553708229665
 30
0.0
 11
307.306802210072
 21
332.7037082296651
 31
0.0
  0
LINE
  5
F86
330
1F
100
AcDbEntity
  8
AM_VIS
100
AcDbLine
 10
281.6238089419904
 20
349.3537082296651
 30
0.0
 11
279.9897954781535
 21
349.3537082296651
 31
0.0
  0
LINE
  5
F87
330
1F
100
AcDbEntity
  8
AM_VIS
100
AcDbLine
 10
337.306802210072
 20
352.3537082296651
 30
0.0
 11
275.306802210072
 21
352.3537082296651
 31
0.0
  0
LINE
  5
F88
330
1F
100
AcDbEntity
  8
AM_VIS
100
AcDbLine
 10
269.306802210072
 20
352.3537082296651
 30
0.0
 11
275.306802210072
 21
352.3537082296651
 31
0.0
  0
LINE
  5
F89
330
1F
100
AcDbEntity
  8
AM_VIS
100
AcDbLine
 10
269.306802210072
 20
352.3537082296651
 30
0.0
 11
266.306802210072
 21
352.3537082296651
 31
0.0
  0
LINE
  5
F8A
330
1F
100
AcDbEntity
  8
AM_VIS
100
AcDbLine
 10
281.056802210072
 20
337.2713169339321
 30
0.0
 11
281.056802210072
 21
341.2037082296651
 31
0.0
  0
LINE
  5
F8B
330
1F
100
AcDbEntity
  8
AM_VIS
100
AcDbLine
 10
284.5568022100719
 20
346.6420930749989
 30
0.0
 11
284.5568022100719
 21
341.2037082296651
 31
0.0
  0
LINE
  5
F8C
330
1F
100
AcDbEntity
  8
AM_VIS
100
AcDbLine
 10
284.5568022100719
 20
341.2037082296651
 30
0.0
 11
284.5568022100719
 21
338.7653233843312
 31
0.0
  0
LINE
  5
F8D
330
1F
100
AcDbEntity
  8
AM_VIS
100
AcDbLine
 10
298.056802210072
 20
335.7653233843312
 30
0.0
 11
298.056802210072
 21
341.2037082296651
 31
0.0
  0
LINE
  5
F8E
330
1F
100
AcDbEntity
  8
AM_VIS
100
AcDbLine
 10
298.056802210072
 20
341.2037082296651
 30
0.0
 11
298.056802210072
 21
343.6420930749989
 31
0.0
  0
ARC
  5
F8F
330
1F
100
AcDbEntity
  8
AM_VIS
100
AcDbCircle
 10
272.3071277715235
 20
349.7056408077905
 30
0.0
 40
1.601937555339153
100
AcDbArc
 50
251.8005826102302
 51
269.0749225435611
  0
ARC
  5
F90
330
1F
100
AcDbEntity
  8
AM_VIS
100
AcDbCircle
 10
272.3074792441352
 20
349.7043031936168
 30
0.0
 40
1.600776805259722
100
AcDbArc
 50
190.8430357585051
 51
251.7736787954839
  0
LINE
  5
F91
330
1F
100
AcDbEntity
  8
AM_VIS
100
AcDbLine
 10
266.306802210072
 20
351.8537082296651
 30
0.0
 11
266.306802210072
 21
330.553708229665
 31
0.0
  0
LINE
  5
F92
330
1F
100
AcDbEntity
  8
AM_VIS
100
AcDbLine
 10
313.306802210072
 20
330.0537082296651
 30
0.0
 11
307.306802210072
 21
330.0537082296651
 31
0.0
  0
ARC
  5
F93
330
1F
100
AcDbEntity
  8
AM_VIS
100
AcDbCircle
 10
310.3064766486201
 20
332.7017756515382
 30
0.0
 40
1.601937555340761
100
AcDbArc
 50
71.80058261024048
 51
89.07492254355458
  0
ARC
  5
F94
330
1F
100
AcDbEntity
  8
AM_VIS
100
AcDbCircle
 10
310.3061251760088
 20
332.7031132657134
 30
0.0
 40
1.600776805259647
100
AcDbArc
 50
10.84303575846554
 51
71.77367879548032
  0
LINE
  5
F95
330
1F
100
AcDbEntity
  8
AM_VIS
100
AcDbLine
 10
275.306802210072
 20
351.8537082296651
 30
0.0
 11
275.306802210072
 21
352.3537082296651
 31
0.0
  0
ARC
  5
F96
330
1F
100
AcDbEntity
  8
AM_VIS
100
AcDbCircle
 10
301.806802210072
 20
339.7037082296652
 30
0.0
 40
5.438140784308131
100
AcDbArc
 50
277.9272015741499
 51
82.07279842585007
  0
ARC
  5
F97
330
1F
100
AcDbEntity
  8
AM_VIS
100
AcDbCircle
 10
280.8068022100719
 20
342.7037082296652
 30
0.0
 40
5.438140784308131
100
AcDbArc
 50
330.8632713522549
 51
29.13672864774517
  0
ARC
  5
F98
330
1F
100
AcDbEntity
  8
AM_VIS
100
AcDbCircle
 10
280.8068022100719
 20
342.7037082296652
 30
0.0
 40
5.438140784308131
100
AcDbArc
 50
97.92720157414992
 51
262.0727984258466
  0
ARC
  5
F99
330
1F
100
AcDbEntity
  8
AM_VIS
100
AcDbCircle
 10
280.8068022100719
 20
342.7037082296652
 30
0.0
 40
5.438140784308131
100
AcDbArc
 50
29.13672864774517
 51
97.92720157414992
  0
ARC
  5
F9A
330
1F
100
AcDbEntity
  8
AM_VIS
100
AcDbCircle
 10
301.806802210072
 20
339.7037082296652
 30
0.0
 40
5.438140784308131
100
AcDbArc
 50
150.8632713522548
 51
209.1367286477451
  0
ARC
  5
F9B
330
1F
100
AcDbEntity
  8
AM_VIS
100
AcDbCircle
 10
301.806802210072
 20
339.7037082296652
 30
0.0
 40
5.438140784308131
100
AcDbArc
 50
209.1367286477451
 51
277.9272015741499
  0
LINE
  5
F9C
330
1F
100
AcDbEntity
  8
AM_VIS
100
AcDbLine
 10
313.306802210072
 20
330.0537082296651
 30
0.0
 11
313.306802210072
 21
330.553708229665
 31
0.0
  0
LINE
  5
F9D
330
1F
100
AcDbEntity
  8
AM_VIS
100
AcDbLine
 10
307.306802210072
 20
330.553708229665
 30
0.0
 11
307.306802210072
 21
330.0537082296651
 31
0.0
  0
ARC
  5
F9E
330
1F
100
AcDbEntity
  8
AM_VIS
100
AcDbCircle
 10
301.806802210072
 20
339.7037082296652
 30
0.0
 40
6.700000000000001
100
AcDbArc
 50
277.0041539781052
 51
262.9958460218916
  0
ARC
  5
F9F
330
1F
100
AcDbEntity
  8
AM_VIS
100
AcDbCircle
 10
297.3068022100719
 20
349.1905412101703
 30
0.0
 40
1.0
100
AcDbArc
 50
295.3769335251536
 51
0.0
  0
ARC
  5
FA0
330
1F
100
AcDbEntity
  8
AM_VIS
100
AcDbCircle
 10
297.3068022100719
 20
349.3537082296651
 30
0.0
 40
0.9999999999999998
100
AcDbArc
 50
0.0
 51
90.0
  0
ARC
  5
FA1
330
1F
100
AcDbEntity
  8
AM_VIS
100
AcDbCircle
 10
288.9325329464427
 20
349.3537082296651
 30
0.0
 40
0.9999999999999998
100
AcDbArc
 50
90.0
 51
219.2964802391869
  0
ARC
  5
FA2
330
1F
100
AcDbEntity
  8
AM_VIS
100
AcDbCircle
 10
280.8068022100719
 20
342.7037082296652
 30
0.0
 40
9.5
100
AcDbArc
 50
295.3769335251536
 51
39.29648023918689
  0
ARC
  5
FA3
330
1F
100
AcDbEntity
  8
AM_VIS
100
AcDbCircle
 10
285.306802210072
 20
333.21687524916
 30
0.0
 40
1.0
100
AcDbArc
 50
115.3769335251536
 51
180.0
  0
ARC
  5
FA4
330
1F
100
AcDbEntity
  8
AM_VIS
100
AcDbCircle
 10
285.306802210072
 20
333.0537082296651
 30
0.0
 40
0.9999999999999998
100
AcDbArc
 50
180.0
 51
270.0
  0
ARC
  5
FA5
330
1F
100
AcDbEntity
  8
AM_VIS
100
AcDbCircle
 10
293.6810714737012
 20
333.0537082296651
 30
0.0
 40
1.0
100
AcDbArc
 50
270.0
 51
39.29648023918689
  0
ARC
  5
FA6
330
1F
100
AcDbEntity
  8
AM_VIS
100
AcDbCircle
 10
301.806802210072
 20
339.7037082296652
 30
0.0
 40
9.5
100
AcDbArc
 50
115.3769335251536
 51
219.2964802391869
  0
ARC
  5
FA7
330
1F
100
AcDbEntity
  8
AM_VIS
100
AcDbCircle
 10
306.306802210072
 20
349.1905412101703
 30
0.0
 40
0.9999999999999998
100
AcDbArc
 50
180.0
 51
244.6230664748464
  0
ARC
  5
FA8
330
1F
100
AcDbEntity
  8
AM_VIS
100
AcDbCircle
 10
301.806802210072
 20
339.7037082296652
 30
0.0
 40
9.5
100
AcDbArc
 50
358.4140782474201
 51
64.62306647484641
  0
ARC
  5
FA9
330
1F
100
AcDbEntity
  8
AM_VIS
100
AcDbCircle
 10
312.3027801382441
 20
339.4131099995884
 30
0.0
 40
1.0
100
AcDbArc
 50
178.41407824742
 51
253.4328004540148
  0
ARC
  5
FAA
330
1F
100
AcDbEntity
  8
AM_VIS
100
AcDbCircle
 10
310.306802210072
 20
332.7037082296651
 30
0.0
 40
6.0
100
AcDbArc
 50
59.99999999999946
 51
73.43280045401115
  0
ARC
  5
FAB
330
1F
100
AcDbEntity
  8
AM_VIS
100
AcDbCircle
 10
313.806802210072
 20
338.7658860561562
 30
0.0
 40
1.0
100
AcDbArc
 50
239.9999999999995
 51
0.0
  0
ARC
  5
FAC
330
1F
100
AcDbEntity
  8
AM_VIS
100
AcDbCircle
 10
313.806802210072
 20
349.3537082296651
 30
0.0
 40
0.9999999999999998
100
AcDbArc
 50
0.0
 51
90.0
  0
ARC
  5
FAD
330
1F
100
AcDbEntity
  8
AM_VIS
100
AcDbCircle
 10
306.306802210072
 20
349.3537082296651
 30
0.0
 40
0.9999999999999998
100
AcDbArc
 50
90.0
 51
180.0
  0
ARC
  5
FAE
330
1F
100
AcDbEntity
  8
AM_VIS
100
AcDbCircle
 10
276.306802210072
 20
333.21687524916
 30
0.0
 40
0.9999999999999998
100
AcDbArc
 50
0.0
 51
64.62306647484641
  0
ARC
  5
FAF
330
1F
100
AcDbEntity
  8
AM_VIS
100
AcDbCircle
 10
280.8068022100719
 20
342.7037082296652
 30
0.0
 40
9.5
100
AcDbArc
 50
178.41407824742
 51
244.6230664748464
  0
ARC
  5
FB0
330
1F
100
AcDbEntity
  8
AM_VIS
100
AcDbCircle
 10
270.3108242818998
 20
342.9943064597418
 30
0.0
 40
1.0
100
AcDbArc
 50
358.4140782474201
 51
73.43280045401474
  0
ARC
  5
FB1
330
1F
100
AcDbEntity
  8
AM_VIS
100
AcDbCircle
 10
272.3068022100719
 20
349.7037082296651
 30
0.0
 40
6.0
100
AcDbArc
 50
239.9999999999995
 51
253.4328004540148
  0
ARC
  5
FB2
330
1F
100
AcDbEntity
  8
AM_VIS
100
AcDbCircle
 10
268.806802210072
 20
343.641530403174
 30
0.0
 40
1.0
100
AcDbArc
 50
59.99999999999946
 51
180.0
  0
ARC
  5
FB3
330
1F
100
AcDbEntity
  8
AM_VIS
100
AcDbCircle
 10
268.806802210072
 20
333.0537082296651
 30
0.0
 40
0.9999999999999998
100
AcDbArc
 50
180.0
 51
270.0
  0
ARC
  5
FB4
330
1F
100
AcDbEntity
  8
AM_VIS
100
AcDbCircle
 10
276.306802210072
 20
333.0537082296651
 30
0.0
 40
0.9999999999999998
100
AcDbArc
 50
270.0
 51
0.0
  0
ARC
  5
FB5
330
1F
100
AcDbEntity
  8
AM_VIS
100
AcDbCircle
 10
310.306802210072
 20
332.7037082296651
 30
0.0
 40
3.0
100
AcDbArc
 50
0.0
 51
180.0
  0
ARC
  5
FB6
330
1F
100
AcDbEntity
  8
AM_VIS
100
AcDbCircle
 10
280.8068022100719
 20
342.7037082296652
 30
0.0
 40
6.700000000000001
100
AcDbArc
 50
97.00415397810841
 51
82.9958460218916
  0
LINE
  5
FB7
330
1F
100
AcDbEntity
  8
AM_VIS
100
AcDbLine
 10
269.306802210072
 20
352.3537082296651
 30
0.0
 11
269.306802210072
 21
351.8537082296651
 31
0.0
  0
ARC
  5
FB8
330
1F
100
AcDbEntity
  8
AM_VIS
100
AcDbCircle
 10
280.8068022100719
 20
342.7037082296652
 30
0.0
 40
5.438140784308131
100
AcDbArc
 50
262.0727984258466
 51
330.8632713522549
  0
ARC
  5
FB9
330
1F
100
AcDbEntity
  8
AM_VIS
100
AcDbCircle
 10
301.806802210072
 20
339.7037082296652
 30
0.0
 40
5.438140784308131
100
AcDbArc
 50
82.07279842585007
 51
150.8632713522548
  0
ARC
  5
FBA
330
1F
100
AcDbEntity
  8
AM_VIS
100
AcDbCircle
 10
272.3068022100719
 20
349.7037082296651
 30
0.0
 40
1.6
100
AcDbArc
 50
269.0854620180761
 51
190.826671418271
  0
ARC
  5
FBB
330
1F
100
AcDbEntity
  8
AM_VIS
100
AcDbCircle
 10
272.3068022100719
 20
349.7037082296651
 30
0.0
 40
3.0
100
AcDbArc
 50
180.0
 51
0.0
  0
ARC
  5
FBC
330
1F
100
AcDbEntity
  8
AM_VIS
100
AcDbCircle
 10
310.306802210072
 20
332.7037082296651
 30
0.0
 40
1.6
100
AcDbArc
 50
89.08546201807613
 51
10.82667141823465
  0
LINE
  5
FBD
330
1F
100
AcDbEntity
  8
AM_VIS
100
AcDbLine
 10
337.306802210072
 20
203.0940053600772
 30
0.0
 11
337.306802210072
 21
211.7440053600773
 31
0.0
  0
LINE
  5
FBE
330
1F
100
AcDbEntity
  8
AM_VIS
100
AcDbLine
 10
337.306802210072
 20
216.7440053600773
 30
0.0
 11
337.306802210072
 21
225.3940053600772
 31
0.0
  0
LINE
  5
FBF
330
1F
100
AcDbEntity
  8
AM_VIS
100
AcDbLine
 10
337.306802210072
 20
273.6406188121309
 30
0.0
 11
337.306802210072
 21
288.6406188121309
 31
0.0
  0
LINE
  5
FC0
330
1F
100
AcDbEntity
  8
AM_VIS
100
AcDbLine
 10
337.306802210072
 20
253.6406188121309
 30
0.0
 11
337.306802210072
 21
268.6406188121309
 31
0.0
  0
LINE
  5
FC1
330
1F
100
AcDbEntity
  8
AM_VIS
100
AcDbLine
 10
266.306802210072
 20
288.6406188121309
 30
0.0
 11
266.306802210072
 21
253.6406188121309
 31
0.0
  0
LINE
  5
FC2
330
1F
100
AcDbEntity
  8
AM_VIS
100
AcDbLine
 10
266.306802210072
 20
253.6406188121308
 30
0.0
 11
337.306802210072
 21
253.6406188121308
 31
0.0
  0
ELLIPSE
  5
FC3
330
1F
100
AcDbEntity
  8
AM_VIS
100
AcDbEllipse
 10
270.702805827209
 20
284.1406188121308
 30
0.0
 11
-0.0000000000000004
 21
3.0
 31
0.0
210
0.0
220
0.0
230
1.0
 40
0.5773502691896272
 41
1.570796326794894
 42
2.748190021579697
  0
LINE
  5
FC4
330
1F
100
AcDbEntity
  8
AM_VIS
100
AcDbLine
 10
268.97075501964
 20
284.1406188121308
 30
0.0
 11
268.97075501964
 21
285.9766660025627
 31
0.0
  0
LINE
  5
FC5
330
1F
100
AcDbEntity
  8
AM_VIS
100
AcDbLine
 10
268.3068022100719
 20
286.6406188121308
 30
0.0
 11
268.97075501964
 21
285.9766660025627
 31
0.0
  0
LINE
  5
FC6
330
1F
100
AcDbEntity
  8
AM_VIS
100
AcDbLine
 10
298.3387335833
 20
277.2406188121308
 30
0.0
 11
305.2748708368439
 21
277.2406188121308
 31
0.0
  0
LINE
  5
FC7
330
1F
100
AcDbEntity
  8
AM_VIS
100
AcDbLine
 10
305.2748708368439
 20
281.408568004562
 30
0.0
 11
305.2748708368439
 21
277.2406188121308
 31
0.0
  0
LINE
  5
FC8
330
1F
100
AcDbEntity
  8
AM_VIS
100
AcDbLine
 10
275.306802210072
 20
258.8726696196997
 30
0.0
 11
275.306802210072
 21
281.3406188121307
 31
0.0
  0
LINE
  5
FC9
330
1F
100
AcDbEntity
  8
AM_VIS
100
AcDbLine
 10
275.306802210072
 20
281.3406188121307
 30
0.0
 11
270.3068022100719
 21
281.3406188121307
 31
0.0
  0
LINE
  5
FCA
330
1F
100
AcDbEntity
  8
AM_VIS
100
AcDbLine
 10
270.0388530176408
 20
281.3697886116313
 30
0.0
 11
270.0388530176408
 21
258.8726696196996
 31
0.0
  0
LINE
  5
FCB
330
1F
100
AcDbEntity
  8
AM_VIS
100
AcDbLine
 10
288.1463756101017
 20
281.3697886116313
 30
0.0
 11
270.0388530176408
 21
281.3697886116313
 31
0.0
  0
LINE
  5
FCC
330
1F
100
AcDbEntity
  8
AM_VIS
100
AcDbLine
 10
298.3387335833
 20
277.2406188121308
 30
0.0
 11
298.3387335833
 21
281.3697886116313
 31
0.0
  0
LINE
  5
FCD
330
1F
100
AcDbEntity
  8
AM_VIS
100
AcDbLine
 10
308.7455527104723
 20
281.4085680045619
 30
0.0
 11
308.7455527104723
 21
258.8726696196996
 31
0.0
  0
LINE
  5
FCE
330
1F
100
AcDbEntity
  8
AM_VIS
100
AcDbLine
 10
311.8680517096716
 20
258.8726696196996
 30
0.0
 11
311.8680517096716
 21
281.4085680045619
 31
0.0
  0
LINE
  5
FCF
330
1F
100
AcDbEntity
  8
AM_VIS
100
AcDbLine
 10
312.5747514025031
 20
258.8726696196996
 30
0.0
 11
312.5747514025031
 21
281.4085680045619
 31
0.0
  0
LINE
  5
FD0
330
1F
100
AcDbEntity
  8
AM_VIS
100
AcDbLine
 10
298.3387335833
 20
281.3697886116313
 30
0.0
 11
294.4672288100422
 21
281.3697886116313
 31
0.0
  0
LINE
  5
FD1
330
1F
100
AcDbEntity
  8
AM_VIS
100
AcDbLine
 10
303.460397695507
 20
281.7585734823783
 30
0.0
 11
305.0985554157969
 21
281.4114267661667
 31
0.0
  0
ARC
  5
FD2
330
1F
100
AcDbEntity
  8
AM_VIS
100
AcDbCircle
 10
301.7259679319382
 20
270.4957984414916
 30
0.0
 40
11.38933794181594
100
AcDbArc
 50
81.24716392690968
 51
107.3017462255459
  0
LINE
  5
FD3
330
1F
100
AcDbEntity
  8
AM_VIS
100
AcDbLine
 10
305.0979496073993
 20
281.4085680045619
 30
0.0
 11
305.4357177535233
 21
281.4085680045619
 31
0.0
  0
LINE
  5
FD4
330
1F
100
AcDbEntity
  8
AM_VIS
100
AcDbLine
 10
296.6037323446285
 20
260.6406188121308
 30
0.0
 11
296.6037323446285
 21
255.408568004562
 31
0.0
  0
LINE
  5
FD5
330
1F
100
AcDbEntity
  8
AM_VIS
100
AcDbLine
 10
306.0098720755154
 20
258.8726696196996
 30
0.0
 11
306.0098720755154
 21
260.6406188121308
 31
0.0
  0
LINE
  5
FD6
330
1F
100
AcDbEntity
  8
AM_VIS
100
AcDbLine
 10
314.306802210072
 20
258.8726696196996
 30
0.0
 11
306.0098720755154
 21
258.8726696196996
 31
0.0
  0
LINE
  5
FD7
330
1F
100
AcDbEntity
  8
AM_VIS
100
AcDbLine
 10
314.306802210072
 20
281.4085680045619
 30
0.0
 11
314.306802210072
 21
258.8726696196996
 31
0.0
  0
LINE
  5
FD8
330
1F
100
AcDbEntity
  8
AM_VIS
100
AcDbLine
 10
307.1162032868305
 20
281.4085680045619
 30
0.0
 11
314.306802210072
 21
281.4085680045619
 31
0.0
  0
LINE
  5
FD9
330
1F
100
AcDbEntity
  8
AM_VIS
100
AcDbLine
 10
295.5098720755154
 20
286.6406188121308
 30
0.0
 11
304.806802210072
 21
286.6406188121308
 31
0.0
  0
LINE
  5
FDA
330
1F
100
AcDbEntity
  8
AM_VIS
100
AcDbLine
 10
295.5098720755154
 20
284.1406188121307
 30
0.0
 11
295.5098720755154
 21
286.6406188121308
 31
0.0
  0
LINE
  5
FDB
330
1F
100
AcDbEntity
  8
AM_VIS
100
AcDbLine
 10
287.1037323446285
 20
286.6406188121308
 30
0.0
 11
287.1037323446285
 21
284.1406188121307
 31
0.0
  0
LINE
  5
FDC
330
1F
100
AcDbEntity
  8
AM_VIS
100
AcDbLine
 10
268.3068022100719
 20
286.6406188121308
 30
0.0
 11
287.1037323446285
 21
286.6406188121308
 31
0.0
  0
LINE
  5
FDD
330
1F
100
AcDbEntity
  8
AM_VIS
100
AcDbLine
 10
268.3068022100719
 20
255.408568004562
 30
0.0
 11
268.3068022100719
 21
286.6406188121308
 31
0.0
  0
LINE
  5
FDE
330
1F
100
AcDbEntity
  8
AM_VIS
100
AcDbLine
 10
276.6037323446285
 20
260.6406188121308
 30
0.0
 11
276.6037323446285
 21
255.408568004562
 31
0.0
  0
LINE
  5
FDF
330
1F
100
AcDbEntity
  8
AM_VIS
100
AcDbLine
 10
286.0098720755154
 20
255.408568004562
 30
0.0
 11
286.0098720755154
 21
260.6406188121308
 31
0.0
  0
LINE
  5
FE0
330
1F
100
AcDbEntity
  8
AM_VIS
100
AcDbLine
 10
307.306802210072
 20
285.6406188121308
 30
0.0
 11
307.306802210072
 21
288.1406188121307
 31
0.0
  0
LINE
  5
FE1
330
1F
100
AcDbEntity
  8
AM_VIS
100
AcDbLine
 10
313.306802210072
 20
288.1406188121307
 30
0.0
 11
313.306802210072
 21
285.6406188121308
 31
0.0
  0
LINE
  5
FE2
330
1F
100
AcDbEntity
  8
AM_VIS
100
AcDbLine
 10
304.806802210072
 20
286.6406188121308
 30
0.0
 11
304.806802210072
 21
283.4085680045619
 31
0.0
  0
ELLIPSE
  5
FE3
330
1F
100
AcDbEntity
  8
AM_VIS
100
AcDbEllipse
 10
307.1162032868305
 20
283.4085680045619
 30
0.0
 11
-2.309401076758502
 21
-0.0000000000000005
 31
0.0
210
0.0
220
0.0
230
1.0
 40
0.8660254037844387
 41
0.0000000000000002
 42
1.570796326794896
  0
LINE
  5
FE4
330
1F
100
AcDbEntity
  8
AM_VIS
100
AcDbLine
 10
305.4357177535234
 20
281.4085680045619
 30
0.0
 11
307.1162032868305
 21
281.4085680045619
 31
0.0
  0
LINE
  5
FE5
330
1F
100
AcDbEntity
  8
AM_VIS
100
AcDbLine
 10
269.1728276138564
 20
258.0066442159152
 30
0.0
 11
270.0388530176408
 21
258.8726696196996
 31
0.0
  0
LINE
  5
FE6
330
1F
100
AcDbEntity
  8
AM_VIS
100
AcDbLine
 10
270.0388530176408
 20
258.8726696196996
 30
0.0
 11
270.3068022100719
 21
258.8726696196996
 31
0.0
  0
LINE
  5
FE7
330
1F
100
AcDbEntity
  8
AM_VIS
100
AcDbLine
 10
270.3068022100719
 20
258.8726696196997
 30
0.0
 11
270.3068022100719
 21
258.8406188121308
 31
0.0
  0
LINE
  5
FE8
330
1F
100
AcDbEntity
  8
AM_VIS
100
AcDbLine
 10
270.3068022100719
 20
258.8406188121307
 30
0.0
 11
275.306802210072
 21
258.8406188121307
 31
0.0
  0
LINE
  5
FE9
330
1F
100
AcDbEntity
  8
AM_VIS
100
AcDbLine
 10
275.306802210072
 20
258.8406188121308
 30
0.0
 11
275.306802210072
 21
258.8726696196997
 31
0.0
  0
LINE
  5
FEA
330
1F
100
AcDbEntity
  8
AM_VIS
100
AcDbLine
 10
275.306802210072
 20
258.8726696196996
 30
0.0
 11
276.0747514025031
 21
258.8726696196996
 31
0.0
  0
LINE
  5
FEB
330
1F
100
AcDbEntity
  8
AM_VIS
100
AcDbLine
 10
276.3392418735658
 20
258.0066442159152
 30
0.0
 11
276.0747514025031
 21
258.8726696196997
 31
0.0
  0
ELLIPSE
  5
FEC
330
1F
100
AcDbEntity
  8
AM_VIS
100
AcDbEllipse
 10
270.0388530176408
 20
255.408568004562
 30
0.0
 11
-0.0000000000000005
 21
3.0
 31
0.0
210
0.0
220
0.0
230
1.0
 40
0.5773502691896273
 41
0.5235987755982984
 42
1.570796326794896
  0
ELLIPSE
  5
FED
330
1F
100
AcDbEntity
  8
AM_VIS
100
AcDbEllipse
 10
276.0747514025031
 20
255.408568004562
 30
0.0
 11
-0.0000000000000006
 21
-3.0
 31
0.0
210
0.0
220
0.0
230
1.0
 40
0.1763269807084651
 41
1.570796326794899
 42
2.617993877991497
  0
LINE
  5
FEE
330
1F
100
AcDbEntity
  8
AM_VIS
100
AcDbLine
 10
286.5388530176408
 20
258.8726696196996
 30
0.0
 11
286.2743625465781
 21
258.0066442159152
 31
0.0
  0
LINE
  5
FEF
330
1F
100
AcDbEntity
  8
AM_VIS
100
AcDbLine
 10
286.5388530176408
 20
258.8726696196996
 30
0.0
 11
296.0747514025031
 21
258.8726696196996
 31
0.0
  0
LINE
  5
FF0
330
1F
100
AcDbEntity
  8
AM_VIS
100
AcDbLine
 10
296.3392418735658
 20
258.0066442159152
 30
0.0
 11
296.0747514025031
 21
258.8726696196997
 31
0.0
  0
ELLIPSE
  5
FF1
330
1F
100
AcDbEntity
  8
AM_VIS
100
AcDbEllipse
 10
286.5388530176408
 20
255.408568004562
 30
0.0
 11
-0.0000000000000004
 21
3.0
 31
0.0
210
0.0
220
0.0
230
1.0
 40
0.1763269807084645
 41
0.5235987755982992
 42
1.570796326794896
  0
ELLIPSE
  5
FF2
330
1F
100
AcDbEntity
  8
AM_VIS
100
AcDbEllipse
 10
296.0747514025031
 20
255.408568004562
 30
0.0
 11
-0.000000000000001
 21
-3.0
 31
0.0
210
0.0
220
0.0
230
1.0
 40
0.1763269807084647
 41
1.5707963267949
 42
2.617993877991498
  0
LINE
  5
FF3
330
1F
100
AcDbEntity
  8
AM_VIS
100
AcDbLine
 10
337.306802210072
 20
288.6406188121308
 30
0.0
 11
313.306802210072
 21
288.6406188121308
 31
0.0
  0
LINE
  5
FF4
330
1F
100
AcDbEntity
  8
AM_VIS
100
AcDbLine
 10
307.306802210072
 20
288.6406188121308
 30
0.0
 11
266.306802210072
 21
288.6406188121308
 31
0.0
  0
LINE
  5
FF5
330
1F
100
AcDbEntity
  8
AM_VIS
100
AcDbLine
 10
266.306802210072
 20
288.1406188121308
 30
0.0
 11
266.306802210072
 21
254.1406188121308
 31
0.0
  0
LINE
  5
FF6
330
1F
100
AcDbEntity
  8
AM_VIS
100
AcDbLine
 10
313.306802210072
 20
285.6406188121308
 30
0.0
 11
307.306802210072
 21
285.6406188121308
 31
0.0
  0
LINE
  5
FF7
330
1F
100
AcDbEntity
  8
AM_VIS
100
AcDbLine
 10
337.306802210072
 20
254.1406188121308
 30
0.0
 11
337.306802210072
 21
288.1406188121307
 31
0.0
  0
CIRCLE
  5
FF8
330
1F
100
AcDbEntity
  8
AM_VIS
100
AcDbCircle
 10
301.306802210072
 20
260.6406188121308
 30
0.0
 40
2.1
  0
CIRCLE
  5
FF9
330
1F
100
AcDbEntity
  8
AM_VIS
100
AcDbCircle
 10
281.306802210072
 20
260.6406188121308
 30
0.0
 40
2.1
  0
LINE
  5
FFA
330
1F
100
AcDbEntity
  8
AM_7
100
AcDbLine
 10
241.952964588914
 20
341.2037082296651
 30
0.0
 11
361.5018173298156
 21
341.2037082296651
 31
0.0
  0
LINE
  5
FFB
330
1F
100
AcDbEntity
  8
AM_VIS
100
AcDbLine
 10
316.306802210072
 20
330.0537082296652
 30
0.0
 11
316.306802210072
 21
352.3537082296652
 31
0.0
  0
LINE
  5
FFC
330
1F
100
AcDbEntity
  8
AM_VIS
100
AcDbLine
 10
316.306802210072
 20
273.6406188121309
 30
0.0
 11
316.306802210072
 21
288.6406188121309
 31
0.0
  0
LINE
  5
FFD
330
1F
100
AcDbEntity
  8
AM_VIS
100
AcDbLine
 10
316.306802210072
 20
253.6406188121309
 30
0.0
 11
316.306802210072
 21
268.6406188121309
 31
0.0
  0
LINE
  5
FFE
330
1F
100
AcDbEntity
  8
AM_VIS
100
AcDbLine
 10
316.306802210072
 20
254.1406188121308
 30
0.0
 11
316.306802210072
 21
288.1406188121307
 31
0.0
  0
LINE
  5
FFF
330
1F
100
AcDbEntity
  8
AM_VIS
100
AcDbLine
 10
316.306802210072
 20
203.0940053600773
 30
0.0
 11
316.306802210072
 21
225.3940053600774
 31
0.0
  0
TEXT
  5
1000
330
1F
100
AcDbEntity
  8
0
100
AcDbText
 10
311.954648288711
 20
338.9533234939601
 30
0.0
 40
3.0
  1
B
100
AcDbText
  0
TEXT
  5
1001
330
1F
100
AcDbEntity
  8
0
100
AcDbText
 10
268.2842714189999
 20
340.3107856927851
 30
0.0
 40
3.0
  1
A
100
AcDbText
  0
TEXT
  5
1002
330
1F
100
AcDbEntity
  8
0
100
AcDbText
 10
301.0705744504314
 20
220.1541968797151
 30
0.0
 40
3.0
  1
R2
100
AcDbText
  0
TEXT
  5
1003
330
1F
100
AcDbEntity
  8
0
100
AcDbText
 10
277.0279065193547
 20
220.1738902252659
 30
0.0
 40
3.0
  1
R1
100
AcDbText
  0
TEXT
  5
1004
330
1F
100
AcDbEntity
  8
0
100
AcDbText
 10
298.7411358477427
 20
205.184735302108
 30
0.0
 40
3.0
  1
P
100
AcDbText
  0
LINE
  5
1005
330
1F
100
AcDbEntity
  8
AM_7
  6
AM_ISO08W050x2
100
AcDbLine
 10
273.306802210072
 20
214.2440053600773
 30
0.0
 11
280.556802210072
 21
214.2440053600773
 31
0.0
1001
GENIUS_GENOREF_13
1005
115C
  0
LINE
  5
1006
330
1F
100
AcDbEntity
  8
AM_7
  6
AM_ISO08W050x2
100
AcDbLine
 10
273.306802210072
 20
214.2440053600773
 30
0.0
 11
273.306802210072
 21
221.4940053600773
 31
0.0
1001
GENIUS_GENOREF_13
1005
115C
  0
LINE
  5
1007
330
1F
100
AcDbEntity
  8
AM_7
  6
AM_ISO08W050x2
100
AcDbLine
 10
273.306802210072
 20
214.2440053600773
 30
0.0
 11
266.0568022100719
 21
214.2440053600773
 31
0.0
1001
GENIUS_GENOREF_13
1005
115C
  0
LINE
  5
1008
330
1F
100
AcDbEntity
  8
AM_7
  6
AM_ISO08W050x2
100
AcDbLine
 10
273.306802210072
 20
214.2440053600773
 30
0.0
 11
273.306802210072
 21
206.9940053600773
 31
0.0
1001
GENIUS_GENOREF_13
1005
115C
  0
LINE
  5
1009
330
1F
100
AcDbEntity
  8
AM_7
100
AcDbLine
 10
291.306802210072
 20
214.2440053600773
 30
0.0
 11
300.006802210072
 21
214.2440053600773
 31
0.0
1001
GENIUS_GENOREF_13
1005
115B
  0
LINE
  5
100A
330
1F
100
AcDbEntity
  8
AM_7
100
AcDbLine
 10
291.306802210072
 20
214.2440053600773
 30
0.0
 11
291.306802210072
 21
222.9440053600773
 31
0.0
1001
GENIUS_GENOREF_13
1005
115B
  0
LINE
  5
100B
330
1F
100
AcDbEntity
  8
AM_7
100
AcDbLine
 10
291.306802210072
 20
214.2440053600773
 30
0.0
 11
282.6068022100719
 21
214.2440053600773
 31
0.0
1001
GENIUS_GENOREF_13
1005
115B
  0
LINE
  5
100C
330
1F
100
AcDbEntity
  8
AM_7
100
AcDbLine
 10
291.306802210072
 20
214.2440053600773
 30
0.0
 11
291.306802210072
 21
205.5440053600773
 31
0.0
1001
GENIUS_GENOREF_13
1005
115B
  0
LINE
  5
100D
330
1F
100
AcDbEntity
  8
AM_7
  6
AM_ISO08W050x2
100
AcDbLine
 10
309.306802210072
 20
214.2440053600773
 30
0.0
 11
316.556802210072
 21
214.2440053600773
 31
0.0
1001
GENIUS_GENOREF_13
1005
115A
  0
LINE
  5
100E
330
1F
100
AcDbEntity
  8
AM_7
  6
AM_ISO08W050x2
100
AcDbLine
 10
309.306802210072
 20
214.2440053600773
 30
0.0
 11
309.306802210072
 21
221.4940053600773
 31
0.0
1001
GENIUS_GENOREF_13
1005
115A
  0
LINE
  5
100F
330
1F
100
AcDbEntity
  8
AM_7
  6
AM_ISO08W050x2
100
AcDbLine
 10
309.306802210072
 20
214.2440053600773
 30
0.0
 11
302.056802210072
 21
214.2440053600773
 31
0.0
1001
GENIUS_GENOREF_13
1005
115A
  0
LINE
  5
1010
330
1F
100
AcDbEntity
  8
AM_7
  6
AM_ISO08W050x2
100
AcDbLine
 10
309.306802210072
 20
214.2440053600773
 30
0.0
 11
309.306802210072
 21
206.9940053600773
 31
0.0
1001
GENIUS_GENOREF_13
1005
115A
  0
LINE
  5
1011
330
1F
100
AcDbEntity
  8
AM_7
100
AcDbLine
 10
301.306802210072
 20
260.6406188121308
 30
0.0
 11
307.0098720755154
 21
260.6406188121308
 31
0.0
1001
GENIUS_GENOREF_13
1005
1158
  0
LINE
  5
1012
330
1F
100
AcDbEntity
  8
AM_7
100
AcDbLine
 10
301.306802210072
 20
260.6406188121308
 30
0.0
 11
301.306802210072
 21
266.3436886775743
 31
0.0
1001
GENIUS_GENOREF_13
1005
1158
  0
LINE
  5
1013
330
1F
100
AcDbEntity
  8
AM_7
100
AcDbLine
 10
301.306802210072
 20
260.6406188121308
 30
0.0
 11
295.6037323446285
 21
260.6406188121308
 31
0.0
1001
GENIUS_GENOREF_13
1005
1158
  0
LINE
  5
1014
330
1F
100
AcDbEntity
  8
AM_7
100
AcDbLine
 10
301.306802210072
 20
260.6406188121308
 30
0.0
 11
301.306802210072
 21
254.9375489466874
 31
0.0
1001
GENIUS_GENOREF_13
1005
1158
  0
LINE
  5
1015
330
1F
100
AcDbEntity
  8
AM_7
100
AcDbLine
 10
281.306802210072
 20
260.6406188121308
 30
0.0
 11
287.0098720755154
 21
260.6406188121308
 31
0.0
1001
GENIUS_GENOREF_13
1005
1157
  0
LINE
  5
1016
330
1F
100
AcDbEntity
  8
AM_7
100
AcDbLine
 10
281.306802210072
 20
260.6406188121308
 30
0.0
 11
281.306802210072
 21
266.3436886775743
 31
0.0
1001
GENIUS_GENOREF_13
1005
1157
  0
LINE
  5
1017
330
1F
100
AcDbEntity
  8
AM_7
100
AcDbLine
 10
281.306802210072
 20
260.6406188121308
 30
0.0
 11
275.6037323446285
 21
260.6406188121308
 31
0.0
1001
GENIUS_GENOREF_13
1005
1157
  0
LINE
  5
1018
330
1F
100
AcDbEntity
  8
AM_7
100
AcDbLine
 10
281.306802210072
 20
260.6406188121308
 30
0.0
 11
281.306802210072
 21
254.9375489466874
 31
0.0
1001
GENIUS_GENOREF_13
1005
1157
  0
LINE
  5
1019
330
1F
100
AcDbEntity
  8
AM_7
  6
AM_ISO08W050x2
100
AcDbLine
 10
310.306802210072
 20
222.7440053600773
 30
0.0
 11
312.906802210072
 21
222.7440053600773
 31
0.0
1001
GENIUS_GENOREF_13
1005
1156
  0
LINE
  5
101A
330
1F
100
AcDbEntity
  8
AM_7
  6
AM_ISO08W050x2
100
AcDbLine
 10
310.306802210072
 20
222.7440053600773
 30
0.0
 11
310.306802210072
 21
225.3440053600773
 31
0.0
1001
GENIUS_GENOREF_13
1005
1156
  0
LINE
  5
101B
330
1F
100
AcDbEntity
  8
AM_7
  6
AM_ISO08W050x2
100
AcDbLine
 10
310.306802210072
 20
222.7440053600773
 30
0.0
 11
307.706802210072
 21
222.7440053600773
 31
0.0
1001
GENIUS_GENOREF_13
1005
1156
  0
LINE
  5
101C
330
1F
100
AcDbEntity
  8
AM_7
  6
AM_ISO08W050x2
100
AcDbLine
 10
310.306802210072
 20
222.7440053600773
 30
0.0
 11
310.306802210072
 21
220.1440053600773
 31
0.0
1001
GENIUS_GENOREF_13
1005
1156
  0
LINE
  5
101D
330
1F
100
AcDbEntity
  8
AM_7
  6
AM_ISO08W050x2
100
AcDbLine
 10
272.3068022100719
 20
205.7440053600773
 30
0.0
 11
274.906802210072
 21
205.7440053600773
 31
0.0
1001
GENIUS_GENOREF_13
1005
1155
  0
LINE
  5
101E
330
1F
100
AcDbEntity
  8
AM_7
  6
AM_ISO08W050x2
100
AcDbLine
 10
272.3068022100719
 20
205.7440053600773
 30
0.0
 11
272.3068022100719
 21
208.3440053600774
 31
0.0
1001
GENIUS_GENOREF_13
1005
1155
  0
LINE
  5
101F
330
1F
100
AcDbEntity
  8
AM_7
  6
AM_ISO08W050x2
100
AcDbLine
 10
272.3068022100719
 20
205.7440053600773
 30
0.0
 11
269.7068022100719
 21
205.7440053600773
 31
0.0
1001
GENIUS_GENOREF_13
1005
1155
  0
LINE
  5
1020
330
1F
100
AcDbEntity
  8
AM_7
  6
AM_ISO08W050x2
100
AcDbLine
 10
272.3068022100719
 20
205.7440053600773
 30
0.0
 11
272.3068022100719
 21
203.1440053600773
 31
0.0
1001
GENIUS_GENOREF_13
1005
1155
  0
LINE
  5
1021
330
1F
100
AcDbEntity
  8
AM_7
100
AcDbLine
 10
241.2999569702126
 20
214.2440053600778
 30
0.0
 11
361.4389413613352
 21
214.2440053600778
 31
0.0
1001
GENIUS_GENODEF_13
1002
{
1000
HIER
1070
     0
1002
}
1002
{
1000
MANEDIT
1070
     0
1002
}
1002
{
1000
NOSEL
1070
     0
1002
}
1002
{
1000
BEHIND
1070
     0
1002
}
1002
{
1000
OTHER
1070
     0
1002
}
1002
{
1000
REACTOR
1002
}
1001
GENIUS_GENOBJ-N-CEN_13
1002
{
1000
OWNER
1000
GEN
1002
}
1001
GENIUS_GENCEN_19
1002
{
1040
2.0
1002
}
  0
DIMENSION
  5
1022
330
1F
100
AcDbEntity
  8
AM_5
100
AcDbDimension
  2
*D20
 10
223.806802210072
 20
332.7037082296651
 30
0.0
 11
219.9568022100719
 21
341.2037082296652
 31
0.0
 70
    32
 71
     5
 42
17.0
  3
AM_ISO$0
100
AcDbAlignedDimension
 13
267.306802210072
 23
349.7037082296651
 33
0.0
 14
305.306802210072
 24
332.7037082296651
 34
0.0
 50
90.0
100
AcDbRotatedDimension
1001
ACAD
1000
DSTYLE
1002
{
1070
    40
1040
1.399999999999999
1070
   272
1070
     8
1002
}
  0
DIMENSION
  5
1023
330
1F
100
AcDbEntity
  8
AM_5
100
AcDbDimension
  2
*D21
 10
213.806802210072
 20
330.0537082296651
 30
0.0
 11
209.9563199266073
 21
341.2037082296651
 31
0.0
 70
    32
 71
     5
 42
22.29999999999995
  3
AM_ISO$0
100
AcDbAlignedDimension
 13
245.8068022100721
 23
352.353708229665
 33
0.0
 14
245.806802210072
 24
330.0537082296651
 34
0.0
 50
90.0
100
AcDbRotatedDimension
1001
ACAD
1000
DSTYLE
1002
{
1070
    40
1040
1.399999999999999
1070
   272
1070
     8
1002
}
  0
DIMENSION
  5
1024
330
1F
100
AcDbEntity
  8
AM_5
100
AcDbDimension
  2
*D22
 10
272.3068022100719
 20
362.1182117177577
 30
0.0
 11
259.056802210072
 21
365.9686940012223
 31
0.0
 70
    32
 71
     5
 42
26.49999999999989
  3
AM_ISO$0
100
AcDbAlignedDimension
 13
245.8068022100721
 23
352.353708229665
 33
0.0
 14
272.3068022100719
 24
354.7037082296652
 34
0.0
100
AcDbRotatedDimension
1001
ACAD
1000
DSTYLE
1002
{
1070
    40
1040
1.399999999999999
1070
   272
1070
     8
1002
}
  0
DIMENSION
  5
1025
330
1F
100
AcDbEntity
  8
AM_5
100
AcDbDimension
  2
*D23
 10
310.306802210072
 20
362.1182117177577
 30
0.0
 11
291.306802210072
 21
365.9682117177577
 31
0.0
 70
    32
 71
     5
 42
38.0
  3
AM_ISO$0
100
AcDbAlignedDimension
 13
272.3068022100719
 23
354.7037082296652
 33
0.0
 14
310.306802210072
 24
337.7037082296652
 34
0.0
100
AcDbRotatedDimension
1001
ACAD
1000
DSTYLE
1002
{
1070
    40
1040
1.399999999999999
1070
   272
1070
     8
1002
}
  0
DIMENSION
  5
1026
330
1F
100
AcDbEntity
  8
AM_5
100
AcDbDimension
  2
*D24
 10
233.806802210072
 20
339.7037082296652
 30
0.0
 11
233.806802210072
 21
341.2037082296652
 31
0.0
 70
   160
 71
     5
 42
3.0
  3
AM_ISO$0
100
AcDbAlignedDimension
 13
272.1068022100719
 23
342.7037082296652
 33
0.0
 14
293.156802210072
 24
339.7037082296652
 34
0.0
 50
90.0
100
AcDbRotatedDimension
1001
ACAD
1000
DSTYLE
1002
{
1070
    40
1040
1.399999999999999
1070
   272
1070
     8
1002
}
  0
DIMENSION
  5
1027
330
1F
100
AcDbEntity
  8
AM_5
100
AcDbDimension
  2
*D25
 10
281.306802210072
 20
241.5375489466876
 30
0.0
 11
263.5568022100721
 21
245.3875489466876
 31
0.0
 70
    32
 71
     5
 42
35.49999999999966
  3
AM_ISO$0
100
AcDbAlignedDimension
 13
245.8068022100723
 23
253.6406187018621
 33
0.0
 14
281.306802210072
 24
254.9375489466876
 34
0.0
100
AcDbRotatedDimension
1001
ACAD
1000
DSTYLE
1002
{
1070
    40
1040
1.399999999999999
1070
   272
1070
     8
1002
}
  0
DIMENSION
  5
1028
330
1F
100
AcDbEntity
  8
AM_5
100
AcDbDimension
  2
*D26
 10
301.306802210072
 20
241.5375489466876
 30
0.0
 11
291.306802210072
 21
245.3880312301522
 31
0.0
 70
    32
 71
     5
 42
20.0
  3
AM_ISO$0
100
AcDbAlignedDimension
 13
281.306802210072
 23
254.9375489466876
 33
0.0
 14
301.306802210072
 24
254.9375489466876
 34
0.0
100
AcDbRotatedDimension
1001
ACAD
1000
DSTYLE
1002
{
1070
    40
1040
1.399999999999999
1070
   272
1070
     8
1002
}
  0
DIMENSION
  5
1029
330
1F
100
AcDbEntity
  8
AM_5
100
AcDbDimension
  2
*D27
 10
233.8068022100721
 20
260.640618812131
 30
0.0
 11
229.9568022100721
 21
257.1406187569966
 31
0.0
 70
    32
 71
     5
 42
7.000000110268956
  3
AM_ISO$0
100
AcDbAlignedDimension
 13
245.8068022100723
 23
253.6406187018621
 33
0.0
 14
275.6037323446285
 24
260.640618812131
 34
0.0
 50
90.0
100
AcDbRotatedDimension
1001
ACAD
1000
DSTYLE
1002
{
1070
    40
1040
1.399999999999999
1070
   272
1070
     8
1002
}
  0
DIMENSION
  5
102A
330
1F
100
AcDbEntity
  8
AM_5
100
AcDbDimension
  2
*D28
 10
223.8068022100721
 20
288.6406188121307
 30
0.0
 11
219.956802210072
 21
271.1406187569965
 31
0.0
 70
    32
 71
     5
 42
35.00000011026862
  3
AM_ISO$0
100
AcDbAlignedDimension
 13
245.8068022100723
 23
253.6406187018621
 33
0.0
 14
245.806802210072
 24
288.6406188121307
 34
0.0
 50
90.0
100
AcDbRotatedDimension
1001
ACAD
1000
DSTYLE
1002
{
1070
    40
1040
1.399999999999999
1070
   272
1070
     8
1002
}
  0
DIMENSION
  5
102B
330
1F
100
AcDbEntity
  8
AM_5
100
AcDbDimension
  2
*D29
 10
357.8068022100719
 20
299.3650968330229
 30
0.0
 11
301.806802210072
 21
303.2155791164874
 31
0.0
 70
    32
 71
     5
 42
112.0
  3
AM_ISO$0
100
AcDbAlignedDimension
 13
245.806802210072
 23
288.6406188121307
 33
0.0
 14
357.8068022100719
 24
288.6406188121309
 34
0.0
100
AcDbRotatedDimension
1001
ACAD
1000
DSTYLE
1002
{
1070
    40
1040
1.399999999999999
1070
   272
1070
     8
1002
}
  0
DIMENSION
  5
102C
330
1F
100
AcDbEntity
  8
AM_5
100
AcDbDimension
  2
*D30
 10
280.8068022100719
 20
318.0537082296652
 30
0.0
 11
263.306802210072
 21
321.9037082296652
 31
0.0
 70
    32
 71
     5
 42
35.0
  3
AM_ISO$0
100
AcDbAlignedDimension
 13
245.806802210072
 23
330.0537081636395
 33
0.0
 14
280.8068022100719
 24
334.0037082296651
 34
0.0
100
AcDbRotatedDimension
1001
ACAD
1000
DSTYLE
1002
{
1070
    40
1040
1.399999999999999
1070
   272
1070
     8
1002
}
  0
DIMENSION
  5
102D
330
1F
100
AcDbEntity
  8
AM_5
100
AcDbDimension
  2
*D31
 10
301.806802210072
 20
318.0537082296652
 30
0.0
 11
291.306802210072
 21
321.9041905131297
 31
0.0
 70
    32
 71
     5
 42
21.0
  3
AM_ISO$0
100
AcDbAlignedDimension
 13
280.8068022100719
 23
334.0037082296651
 33
0.0
 14
301.806802210072
 24
331.0537082296652
 34
0.0
100
AcDbRotatedDimension
1001
ACAD
1000
DSTYLE
1002
{
1070
    40
1040
1.399999999999999
1070
   272
1070
     8
1002
}
  0
INSERT
  5
102E
330
1F
100
AcDbEntity
  8
AM_5
100
AcDbBlockReference
  2
*S38
 10
0.0
 20
0.0
 30
0.0
  0
TEXT
  5
102F
330
1F
100
AcDbEntity
  8
AM_5
100
AcDbText
 10
322.8302958507285
 20
319.4133096047455
 30
0.0
 40
4.9
  1
2-%%c3.2thru
100
AcDbText
  0
INSERT
  5
1030
330
1F
100
AcDbEntity
  8
AM_5
100
AcDbBlockReference
  2
*S39
 10
0.0
 20
0.0
 30
0.0
  0
TEXT
  5
1031
330
1F
100
AcDbEntity
  8
AM_5
100
AcDbText
 10
322.3070960125225
 20
362.8678976042617
 30
0.0
 40
4.9
  1
3-PT1/4
100
AcDbText
  0
INSERT
  5
1032
330
1F
100
AcDbEntity
  8
AM_5
100
AcDbBlockReference
  2
*S40
 10
0.0
 20
0.0
 30
0.0
  0
TEXT
  5
1033
330
1F
100
AcDbEntity
  8
AM_5
100
AcDbText
 10
316.6297307692936
 20
243.4264657700302
 30
0.0
 40
4.9
  1
2-%%c4.2thru
100
AcDbText
  0
LINE
  5
1034
330
1F
100
AcDbEntity
  8
AM_7
100
AcDbLine
 10
280.8061251760088
 20
342.7031132657136
 30
0.0
 11
289.5061251760087
 21
342.7031132657136
 31
0.0
1001
GENIUS_GENOREF_13
1005
1154
  0
LINE
  5
1035
330
1F
100
AcDbEntity
  8
AM_7
100
AcDbLine
 10
280.8061251760088
 20
342.7031132657136
 30
0.0
 11
280.8061251760088
 21
351.4031132657136
 31
0.0
1001
GENIUS_GENOREF_13
1005
1154
  0
LINE
  5
1036
330
1F
100
AcDbEntity
  8
AM_7
100
AcDbLine
 10
280.8061251760088
 20
342.7031132657136
 30
0.0
 11
272.1061251760088
 21
342.7031132657136
 31
0.0
1001
GENIUS_GENOREF_13
1005
1154
  0
LINE
  5
1037
330
1F
100
AcDbEntity
  8
AM_7
100
AcDbLine
 10
280.8061251760088
 20
342.7031132657136
 30
0.0
 11
280.8061251760088
 21
334.0031132657135
 31
0.0
1001
GENIUS_GENOREF_13
1005
1154
  0
LINE
  5
1038
330
1F
100
AcDbEntity
  8
AM_7
100
AcDbLine
 10
301.8061251760088
 20
339.7031132657136
 30
0.0
 11
310.4561251760088
 21
339.7031132657136
 31
0.0
1001
GENIUS_GENOREF_13
1005
1153
  0
LINE
  5
1039
330
1F
100
AcDbEntity
  8
AM_7
100
AcDbLine
 10
301.8061251760088
 20
339.7031132657136
 30
0.0
 11
301.8061251760088
 21
348.3531132657136
 31
0.0
1001
GENIUS_GENOREF_13
1005
1153
  0
LINE
  5
103A
330
1F
100
AcDbEntity
  8
AM_7
100
AcDbLine
 10
301.8061251760088
 20
339.7031132657136
 30
0.0
 11
293.1561251760088
 21
339.7031132657136
 31
0.0
1001
GENIUS_GENOREF_13
1005
1153
  0
LINE
  5
103B
330
1F
100
AcDbEntity
  8
AM_7
100
AcDbLine
 10
301.8061251760088
 20
339.7031132657136
 30
0.0
 11
301.8061251760088
 21
331.0531132657136
 31
0.0
1001
GENIUS_GENOREF_13
1005
1153
  0
LINE
  5
103C
330
1F
100
AcDbEntity
  8
AM_7
  6
AM_ISO08W050x2
100
AcDbLine
 10
310.3061251760088
 20
332.7031132657136
 30
0.0
 11
315.3061251760088
 21
332.7031132657136
 31
0.0
1001
GENIUS_GENOREF_13
1005
1152
  0
LINE
  5
103D
330
1F
100
AcDbEntity
  8
AM_7
  6
AM_ISO08W050x2
100
AcDbLine
 10
310.3061251760088
 20
332.7031132657136
 30
0.0
 11
310.3061251760088
 21
337.7031132657136
 31
0.0
1001
GENIUS_GENOREF_13
1005
1152
  0
LINE
  5
103E
330
1F
100
AcDbEntity
  8
AM_7
  6
AM_ISO08W050x2
100
AcDbLine
 10
310.3061251760088
 20
332.7031132657136
 30
0.0
 11
305.3061251760088
 21
332.7031132657136
 31
0.0
1001
GENIUS_GENOREF_13
1005
1152
  0
LINE
  5
103F
330
1F
100
AcDbEntity
  8
AM_7
  6
AM_ISO08W050x2
100
AcDbLine
 10
310.3061251760088
 20
332.7031132657136
 30
0.0
 11
310.3061251760088
 21
327.7031132657136
 31
0.0
1001
GENIUS_GENOREF_13
1005
1152
  0
LINE
  5
1040
330
1F
100
AcDbEntity
  8
AM_7
  6
AM_ISO08W050x2
100
AcDbLine
 10
272.3061251760088
 20
349.7031132657136
 30
0.0
 11
277.3061251760088
 21
349.7031132657136
 31
0.0
1001
GENIUS_GENOREF_13
1005
1151
  0
LINE
  5
1041
330
1F
100
AcDbEntity
  8
AM_7
  6
AM_ISO08W050x2
100
AcDbLine
 10
272.3061251760088
 20
349.7031132657136
 30
0.0
 11
272.3061251760088
 21
354.7031132657135
 31
0.0
1001
GENIUS_GENOREF_13
1005
1151
  0
LINE
  5
1042
330
1F
100
AcDbEntity
  8
AM_7
  6
AM_ISO08W050x2
100
AcDbLine
 10
272.3061251760088
 20
349.7031132657136
 30
0.0
 11
267.3061251760088
 21
349.7031132657136
 31
0.0
1001
GENIUS_GENOREF_13
1005
1151
  0
LINE
  5
1043
330
1F
100
AcDbEntity
  8
AM_7
  6
AM_ISO08W050x2
100
AcDbLine
 10
272.3061251760088
 20
349.7031132657136
 30
0.0
 11
272.3061251760088
 21
344.7031132657136
 31
0.0
1001
GENIUS_GENOREF_13
1005
1151
  0
DIMENSION
  5
1044
330
1F
100
AcDbEntity
  8
AM_5
100
AcDbDimension
  2
*D32
 10
273.306802210072
 20
191.0940053600777
 30
0.0
 11
259.5568022100719
 21
194.9444876435422
 31
0.0
 70
    32
 71
     5
 42
27.50000000000011
  3
AM_ISO$0
100
AcDbAlignedDimension
 13
245.8068022100718
 23
203.0940053600775
 33
0.0
 14
273.306802210072
 24
206.9940053600778
 34
0.0
100
AcDbRotatedDimension
1001
ACAD
1000
DSTYLE
1002
{
1070
    40
1040
1.399999999999999
1070
   272
1070
     8
1002
}
  0
DIMENSION
  5
1045
330
1F
100
AcDbEntity
  8
AM_5
100
AcDbDimension
  2
*D33
 10
291.306802210072
 20
191.0940053600777
 30
0.0
 11
282.306802210072
 21
194.9440053600777
 31
0.0
 70
    32
 71
     5
 42
18.0
  3
AM_ISO$0
100
AcDbAlignedDimension
 13
273.306802210072
 23
206.9940053600778
 33
0.0
 14
291.306802210072
 24
205.5440053600779
 34
0.0
100
AcDbRotatedDimension
1001
ACAD
1000
DSTYLE
1002
{
1070
    40
1040
1.399999999999999
1070
   272
1070
     8
1002
}
  0
DIMENSION
  5
1046
330
1F
100
AcDbEntity
  8
AM_5
100
AcDbDimension
  2
*D34
 10
309.306802210072
 20
191.0940053600778
 30
0.0
 11
300.306802210072
 21
194.9440053600778
 31
0.0
 70
    32
 71
     5
 42
18.0
  3
AM_ISO$0
100
AcDbAlignedDimension
 13
291.306802210072
 23
205.5440053600779
 33
0.0
 14
309.306802210072
 24
207.2440053600778
 34
0.0
100
AcDbRotatedDimension
1001
ACAD
1000
DSTYLE
1002
{
1070
    40
1040
1.399999999999999
1070
   272
1070
     8
1002
}
  0
INSERT
  5
1047
330
1F
100
AcDbEntity
  8
AM_5
100
AcDbBlockReference
  2
*S41
 10
0.0
 20
0.0
 30
0.0
  0
TEXT
  5
1048
330
1F
100
AcDbEntity
  8
AM_5
100
AcDbText
 10
326.4392092818495
 20
191.6320978352286
 30
0.0
 40
4.9
  1
2-PT1/8
100
AcDbText
  0
LINE
  5
104F
330
1F
100
AcDbEntity
  8
AM_VIS
100
AcDbLine
 10
357.8068022100719
 20
253.6406188121309
 30
0.0
 11
357.8068022100719
 21
281.8906188121309
 31
0.0
  0
LINE
  5
1050
330
1F
100
AcDbEntity
  8
AM_VIS
100
AcDbLine
 10
337.306802210072
 20
288.6406188121309
 30
0.0
 11
353.306802210072
 21
288.6406188121309
 31
0.0
  0
LINE
  5
1051
330
1F
100
AcDbEntity
  8
AM_VIS
100
AcDbLine
 10
353.306802210072
 20
281.8906188121309
 30
0.0
 11
353.306802210072
 21
288.6406188121309
 31
0.0
  0
LINE
  5
1052
330
1F
100
AcDbEntity
  8
AM_VIS
100
AcDbLine
 10
357.8068022100719
 20
281.8906188121309
 30
0.0
 11
353.306802210072
 21
281.8906188121309
 31
0.0
  0
LINE
  5
1053
330
1F
100
AcDbEntity
  8
AM_VIS
100
AcDbLine
 10
353.306802210072
 20
288.6406188121309
 30
0.0
 11
357.8068022100719
 21
288.6406188121309
 31
0.0
  0
LINE
  5
1054
330
1F
100
AcDbEntity
  8
AM_VIS
100
AcDbLine
 10
357.8068022100719
 20
288.6406188121309
 30
0.0
 11
357.8068022100719
 21
285.1406188121309
 31
0.0
  0
LINE
  5
1055
330
1F
100
AcDbEntity
  8
AM_VIS
100
AcDbLine
 10
337.306802210072
 20
253.6406188121309
 30
0.0
 11
357.8068022100719
 21
253.6406188121309
 31
0.0
  0
LINE
  5
1056
330
1F
100
AcDbEntity
  8
AM_VIS
100
AcDbLine
 10
357.8068022100719
 20
285.1406188121309
 30
0.0
 11
357.8068022100719
 21
281.8906188121309
 31
0.0
  0
LINE
  5
1057
330
1F
100
AcDbEntity
  8
AM_VIS
100
AcDbLine
 10
354.006802210072
 20
282.2060036222602
 30
0.0
 11
354.006802210072
 21
282.1906883371145
 31
0.0
  0
ELLIPSE
  5
1058
330
1F
100
AcDbEntity
  8
AM_VIS
100
AcDbEllipse
 10
353.6914490487955
 20
285.1406188121309
 30
0.0
 11
-8.104961503426029
 21
0.1089539743919708
 31
0.0
210
0.0
220
0.0
230
0.9999999999999998
 40
0.3637262537983058
 41
1.560238403929566
 42
1.614603828665305
  0
ELLIPSE
  5
1059
330
1F
100
AcDbEntity
  8
AM_VIS
100
AcDbEllipse
 10
352.9221553713484
 20
285.1406188121309
 30
0.0
 11
-8.104961503425865
 21
0.1089539743919718
 31
0.0000000000000001
210
0.0
220
0.0
230
1.0
 40
0.3637262537983131
 41
1.623161273363804
 42
1.709911947427355
  0
LINE
  5
105A
330
1F
100
AcDbEntity
  8
AM_VIS
100
AcDbLine
 10
354.006802210072
 20
288.0906188121309
 30
0.0
 11
353.3068022100721
 21
288.0906188121309
 31
0.0
  0
LINE
  5
105B
330
1F
100
AcDbEntity
  8
AM_VIS
100
AcDbLine
 10
354.0068022100719
 20
282.1906188121309
 30
0.0
 11
353.9511916722023
 21
282.1906188121309
 31
0.0
  0
LINE
  5
105C
330
1F
100
AcDbEntity
  8
AM_VIS
100
AcDbLine
 10
354.006802210072
 20
288.0906188121309
 30
0.0
 11
354.006802210072
 21
282.2060036222602
 31
0.0
  0
LINE
  5
105D
330
1F
100
AcDbEntity
  8
AM_VIS
100
AcDbLine
 10
354.006802210072
 20
282.1906883371145
 30
0.0
 11
354.006802210072
 21
282.1906188121309
 31
0.0
  0
LINE
  5
105E
330
1F
100
AcDbEntity
  8
AM_VIS
100
AcDbLine
 10
354.994969611601
 20
287.8541653668314
 30
0.0
 11
354.006802210072
 21
287.9406188121309
 31
0.0
  0
LINE
  5
105F
330
1F
100
AcDbEntity
  8
AM_VIS
100
AcDbLine
 10
354.994969611601
 20
282.4270722574304
 30
0.0
 11
354.0068022100721
 21
282.3406188121309
 31
0.0
  0
LINE
  5
1060
330
1F
100
AcDbEntity
  8
AM_VIS
100
AcDbLine
 10
356.394034659036
 20
285.3931188121309
 30
0.0
 11
356.1711429118346
 21
285.3931188121309
 31
0.0
  0
ELLIPSE
  5
1061
330
1F
100
AcDbEntity
  8
AM_VIS
100
AcDbEllipse
 10
352.5140640024631
 20
285.140618812131
 30
0.0
 11
0.000000000000004
 21
-4.670872363904178
 31
0.0
210
0.0
220
0.0
230
1.0
 40
0.784100683845831
 41
1.5167115385569
 42
1.624881115032907
  0
LINE
  5
1062
330
1F
100
AcDbEntity
  8
AM_VIS
100
AcDbLine
 10
356.1711429118346
 20
284.8881188121309
 30
0.0
 11
356.394034659036
 21
284.8881188121309
 31
0.0
  0
ARC
  5
1063
330
1F
100
AcDbEntity
  8
AM_VIS
100
AcDbCircle
 10
351.406802210072
 20
285.140618812131
 30
0.0
 40
4.993620304949037
100
AcDbArc
 50
2.898369404383685
 51
17.42964136185129
  0
LINE
  5
1064
330
1F
100
AcDbEntity
  8
AM_VIS
100
AcDbLine
 10
356.1711429118344
 20
283.6448576588949
 30
0.0
 11
356.1764982171568
 21
283.640618812131
 31
0.0
  0
LINE
  5
1065
330
1F
100
AcDbEntity
  8
AM_VIS
100
AcDbLine
 10
356.1764982171568
 20
286.640618812131
 30
0.0
 11
356.1711429118344
 21
286.636379965367
 31
0.0
  0
ARC
  5
1066
330
1F
100
AcDbEntity
  8
AM_VIS
100
AcDbCircle
 10
351.406802210072
 20
285.140618812131
 30
0.0
 40
4.993620304949037
100
AcDbArc
 50
342.5703586381487
 51
357.1016305956196
  0
ARC
  5
1067
330
1F
100
AcDbEntity
  8
AM_VIS
100
AcDbCircle
 10
354.8903827203038
 20
286.6587317291212
 30
0.0
 40
1.199999999999999
100
AcDbArc
 50
23.54713723707629
 51
85.00000000000026
  0
ARC
  5
1068
330
1F
100
AcDbEntity
  8
AM_VIS
100
AcDbCircle
 10
354.8903827203038
 20
283.6225058951406
 30
0.0
 40
1.2
100
AcDbArc
 50
274.9999999999997
 51
336.4528627629201
  0
ARC
  5
1069
330
1F
100
AcDbEntity
  8
AM_VIS
100
AcDbCircle
 10
351.406802210072
 20
285.140618812131
 30
0.0
 40
5.000000000000031
100
AcDbArc
 50
17.45760312372274
 51
23.54713723707993
  0
ARC
  5
106A
330
1F
100
AcDbEntity
  8
AM_VIS
100
AcDbCircle
 10
351.406802210072
 20
285.140618812131
 30
0.0
 40
5.000000000000031
100
AcDbArc
 50
336.4528627629237
 51
342.5423968762772
  0
LINE
  5
106B
330
1F
100
AcDbEntity
  8
AM_VIS
100
AcDbLine
 10
337.7068022100719
 20
212.2440053600773
 30
0.0
 11
337.306802210072
 21
212.2440053600774
 31
0.0
  0
LINE
  5
106C
330
1F
100
AcDbEntity
  8
AM_VIS
100
AcDbLine
 10
337.7068022100719
 20
216.2440053600773
 30
0.0
 11
337.7068022100719
 21
212.2440053600773
 31
0.0
  0
LINE
  5
106D
330
1F
100
AcDbEntity
  8
AM_VIS
100
AcDbLine
 10
337.306802210072
 20
216.2440053600773
 30
0.0
 11
337.7068022100719
 21
216.2440053600773
 31
0.0
  0
LINE
  5
106E
330
1F
100
AcDbEntity
  8
AM_VIS
100
AcDbLine
 10
337.306802210072
 20
225.3940053600774
 30
0.0
 11
357.8068022100719
 21
225.3940053600774
 31
0.0
  0
LINE
  5
106F
330
1F
100
AcDbEntity
  8
AM_VIS
100
AcDbLine
 10
357.8068022100719
 20
210.4940053600774
 30
0.0
 11
357.8068022100719
 21
225.3940053600773
 31
0.0
  0
LINE
  5
1070
330
1F
100
AcDbEntity
  8
AM_VIS
100
AcDbLine
 10
337.306802210072
 20
203.0940053600773
 30
0.0
 11
353.306802210072
 21
203.0940053600773
 31
0.0
  0
LINE
  5
1071
330
1F
100
AcDbEntity
  8
AM_VIS
100
AcDbLine
 10
353.306802210072
 20
203.0940053600775
 30
0.0
 11
353.306802210072
 21
210.4940053600774
 31
0.0
  0
LINE
  5
1072
330
1F
100
AcDbEntity
  8
AM_VIS
100
AcDbLine
 10
357.8068022100719
 20
207.2440053600775
 30
0.0
 11
357.8068022100719
 21
203.0940053600775
 31
0.0
  0
LINE
  5
1073
330
1F
100
AcDbEntity
  8
AM_VIS
100
AcDbLine
 10
357.8068022100719
 20
203.0940053600773
 30
0.0
 11
353.306802210072
 21
203.0940053600773
 31
0.0
  0
LINE
  5
1074
330
1F
100
AcDbEntity
  8
AM_VIS
100
AcDbLine
 10
353.306802210072
 20
210.4940053600774
 30
0.0
 11
357.8068022100719
 21
210.4940053600775
 31
0.0
  0
LINE
  5
1075
330
1F
100
AcDbEntity
  8
AM_VIS
100
AcDbLine
 10
357.8068022100719
 20
210.4940053600774
 30
0.0
 11
357.8068022100719
 21
207.2440053600775
 31
0.0
  0
ELLIPSE
  5
1076
330
1F
100
AcDbEntity
  8
AM_VIS
100
AcDbEllipse
 10
353.6914490487955
 20
207.2440053600775
 30
0.0
 11
-4.258560093873128
 21
-1.54937914216823
 31
0.0
210
0.0
220
0.0
230
1.0
 40
0.0103007928811845
 41
1.476602792923988
 42
1.641167556128448
  0
LINE
  5
1077
330
1F
100
AcDbEntity
  8
AM_VIS
100
AcDbLine
 10
354.0068022100719
 20
207.2690694561282
 30
0.0
 11
354.0068022100719
 21
207.2642585714235
 31
0.0
  0
ELLIPSE
  5
1078
330
1F
100
AcDbEntity
  8
AM_VIS
100
AcDbEllipse
 10
353.6914490487955
 20
207.2440053600775
 30
0.0
 11
-8.105001468984248
 21
-2.948818367352405
 31
0.0
210
0.0
220
0.0
230
1.0
 40
0.0103007928811845
 41
1.519573178354325
 42
1.605966652490857
  0
ELLIPSE
  5
1079
330
1F
100
AcDbEntity
  8
AM_VIS
100
AcDbEllipse
 10
352.9221553713483
 20
207.2440053600775
 30
0.0
 11
-8.105001468984088
 21
-2.948818367352406
 31
0.0
210
0.0
220
0.0
230
1.0
 40
0.0103007928811846
 41
1.61452409718954
 42
1.70127477125309
  0
LINE
  5
107A
330
1F
100
AcDbEntity
  8
AM_VIS
100
AcDbLine
 10
354.0068022100719
 20
210.1940053600774
 30
0.0
 11
353.3068022100719
 21
210.1940053600774
 31
0.0
  0
LINE
  5
107B
330
1F
100
AcDbEntity
  8
AM_VIS
100
AcDbLine
 10
354.0068022100719
 20
204.2940053600775
 30
0.0
 11
353.3068022100719
 21
204.2940053600775
 31
0.0
  0
LINE
  5
107C
330
1F
100
AcDbEntity
  8
AM_VIS
100
AcDbLine
 10
354.0068022100719
 20
210.1940053600775
 30
0.0
 11
354.0068022100719
 21
207.5448935243182
 31
0.0
  0
LINE
  5
107D
330
1F
100
AcDbEntity
  8
AM_VIS
100
AcDbLine
 10
354.0068022100719
 20
207.2642585714236
 30
0.0
 11
354.0068022100719
 21
204.2940053600775
 31
0.0
  0
LINE
  5
107E
330
1F
100
AcDbEntity
  8
AM_VIS
100
AcDbLine
 10
354.9949696116008
 20
209.9575519147778
 30
0.0
 11
354.0068022100719
 21
210.0440053600773
 31
0.0
  0
LINE
  5
107F
330
1F
100
AcDbEntity
  8
AM_VIS
100
AcDbLine
 10
354.9949696116008
 20
204.5304588053769
 30
0.0
 11
354.0068022100719
 21
204.4440053600772
 31
0.0
  0
LINE
  5
1080
330
1F
100
AcDbEntity
  8
AM_VIS
100
AcDbLine
 10
354.0068022100719
 20
207.2690694561282
 30
0.0
 11
354.0068022100719
 21
207.5448935243183
 31
0.0
  0
LINE
  5
1081
330
1F
100
AcDbEntity
  8
AM_VIS
100
AcDbLine
 10
353.3135272100719
 20
207.0570468798333
 30
0.0
 11
353.3135272100719
 21
207.2919515907559
 31
0.0
  0
LINE
  5
1082
330
1F
100
AcDbEntity
  8
AM_VIS
100
AcDbLine
 10
356.1764982171568
 20
208.7440053600768
 30
0.0
 11
356.1711429118344
 21
208.7397665133129
 31
0.0
  0
ARC
  5
1083
330
1F
100
AcDbEntity
  8
AM_VIS
100
AcDbCircle
 10
351.406802210072
 20
207.2440053600772
 30
0.0
 40
4.993620304949137
100
AcDbArc
 50
2.898369404403202
 51
17.42964136184458
  0
ARC
  5
1084
330
1F
100
AcDbEntity
  8
AM_VIS
100
AcDbCircle
 10
351.406802210072
 20
207.2440053600772
 30
0.0
 40
4.993620304949137
100
AcDbArc
 50
342.5703586381384
 51
357.1016305956391
  0
LINE
  5
1085
330
1F
100
AcDbEntity
  8
AM_VIS
100
AcDbLine
 10
356.1711429118342
 20
205.7482442068407
 30
0.0
 11
356.1764982171566
 21
205.7440053600768
 31
0.0
  0
ELLIPSE
  5
1086
330
1F
100
AcDbEntity
  8
AM_VIS
100
AcDbEllipse
 10
352.5140640024637
 20
207.2440053600773
 30
0.0
 11
0.0000000000000523
 21
-4.670872363903959
 31
0.0
210
0.0
220
0.0
230
1.0
 40
0.7841006838456942
 41
1.516711538557323
 42
1.62488111503334
  0
LINE
  5
1087
330
1F
100
AcDbEntity
  8
AM_VIS
100
AcDbLine
 10
356.1711429118344
 20
206.9915053600793
 30
0.0
 11
356.3940346590361
 21
206.9915053600794
 31
0.0
  0
LINE
  5
1088
330
1F
100
AcDbEntity
  8
AM_VIS
100
AcDbLine
 10
356.3940346590359
 20
207.4965053600794
 30
0.0
 11
356.1711429118343
 21
207.4965053600794
 31
0.0
  0
ARC
  5
1089
330
1F
100
AcDbEntity
  8
AM_VIS
100
AcDbCircle
 10
354.8903827203037
 20
208.7621182770677
 30
0.0
 40
1.199999999999999
100
AcDbArc
 50
23.54713723707993
 51
85.00000000000026
  0
ARC
  5
108A
330
1F
100
AcDbEntity
  8
AM_VIS
100
AcDbCircle
 10
354.8903827203037
 20
205.7258924430869
 30
0.0
 40
1.199999999999999
100
AcDbArc
 50
274.9999999999997
 51
336.4528627629201
  0
ARC
  5
108B
330
1F
100
AcDbEntity
  8
AM_VIS
100
AcDbCircle
 10
351.406802210072
 20
207.2440053600772
 30
0.0
 40
5.000000000000031
100
AcDbArc
 50
336.4528627629201
 51
342.5423968762706
  0
ARC
  5
108C
330
1F
100
AcDbEntity
  8
AM_VIS
100
AcDbCircle
 10
351.406802210072
 20
207.2440053600772
 30
0.0
 40
5.000000000000031
100
AcDbArc
 50
17.45760312371604
 51
23.54713723707629
  0
LINE
  5
108D
330
1F
100
AcDbEntity
  8
AM_VIS
100
AcDbLine
 10
337.7068022100719
 20
339.2037082296653
 30
0.0
 11
337.306802210072
 21
339.2037082296653
 31
0.0
  0
LINE
  5
108E
330
1F
100
AcDbEntity
  8
AM_VIS
100
AcDbLine
 10
337.7068022100719
 20
343.2037082296653
 30
0.0
 11
337.7068022100719
 21
339.2037082296653
 31
0.0
  0
LINE
  5
108F
330
1F
100
AcDbEntity
  8
AM_VIS
100
AcDbLine
 10
337.306802210072
 20
343.2037082296653
 30
0.0
 11
337.7068022100719
 21
343.2037082296653
 31
0.0
  0
LINE
  5
1090
330
1F
100
AcDbEntity
  8
AM_VIS
100
AcDbLine
 10
357.8068022100719
 20
337.4537082296653
 30
0.0
 11
357.8068022100719
 21
352.3537082296652
 31
0.0
  0
LINE
  5
1091
330
1F
100
AcDbEntity
  8
AM_VIS
100
AcDbLine
 10
337.306802210072
 20
330.0537082296653
 30
0.0
 11
353.306802210072
 21
330.0537082296653
 31
0.0
  0
LINE
  5
1092
330
1F
100
AcDbEntity
  8
AM_VIS
100
AcDbLine
 10
353.306802210072
 20
330.0537082296653
 30
0.0
 11
353.306802210072
 21
337.4537082296651
 31
0.0
  0
LINE
  5
1093
330
1F
100
AcDbEntity
  8
AM_VIS
100
AcDbLine
 10
357.8068022100719
 20
334.2037082296652
 30
0.0
 11
357.8068022100719
 21
330.0537082296653
 31
0.0
  0
LINE
  5
1094
330
1F
100
AcDbEntity
  8
AM_VIS
100
AcDbLine
 10
357.8068022100719
 20
330.0537082296653
 30
0.0
 11
353.306802210072
 21
330.0537082296653
 31
0.0
  0
LINE
  5
1095
330
1F
100
AcDbEntity
  8
AM_VIS
100
AcDbLine
 10
353.306802210072
 20
337.4537082296653
 30
0.0
 11
357.8068022100719
 21
337.4537082296653
 31
0.0
  0
LINE
  5
1096
330
1F
100
AcDbEntity
  8
AM_VIS
100
AcDbLine
 10
337.306802210072
 20
352.3537082296652
 30
0.0
 11
357.8068022100719
 21
352.3537082296652
 31
0.0
  0
LINE
  5
1097
330
1F
100
AcDbEntity
  8
AM_VIS
100
AcDbLine
 10
357.8068022100719
 20
337.4537082296653
 30
0.0
 11
357.8068022100719
 21
334.2037082296652
 31
0.0
  0
LINE
  5
1098
330
1F
100
AcDbEntity
  8
AM_VIS
100
AcDbLine
 10
354.006802210072
 20
337.1537082296652
 30
0.0
 11
353.3068022100721
 21
337.1537082296652
 31
0.0
  0
LINE
  5
1099
330
1F
100
AcDbEntity
  8
AM_VIS
100
AcDbLine
 10
354.006802210072
 20
331.2537082296652
 30
0.0
 11
353.3068022100721
 21
331.2537082296652
 31
0.0
  0
LINE
  5
109A
330
1F
100
AcDbEntity
  8
AM_VIS
100
AcDbLine
 10
354.006802210072
 20
337.1537082296651
 30
0.0
 11
354.006802210072
 21
331.2537082296651
 31
0.0
  0
LINE
  5
109B
330
1F
100
AcDbEntity
  8
AM_VIS
100
AcDbLine
 10
354.994969611601
 20
336.9172547843657
 30
0.0
 11
354.0068022100721
 21
337.0037082296653
 31
0.0
  0
LINE
  5
109C
330
1F
100
AcDbEntity
  8
AM_VIS
100
AcDbLine
 10
354.994969611601
 20
331.4901616749647
 30
0.0
 11
354.006802210072
 21
331.4037082296652
 31
0.0
  0
ARC
  5
109D
330
1F
100
AcDbEntity
  8
AM_VIS
100
AcDbCircle
 10
351.406802210072
 20
334.2037082296654
 30
0.0
 40
4.993620304949137
100
AcDbArc
 50
342.5703586381554
 51
357.1016305955968
  0
LINE
  5
109E
330
1F
100
AcDbEntity
  8
AM_VIS
100
AcDbLine
 10
356.1711429118346
 20
332.7079470764297
 30
0.0
 11
356.176498217157
 21
332.7037082296659
 31
0.0
  0
LINE
  5
109F
330
1F
100
AcDbEntity
  8
AM_VIS
100
AcDbLine
 10
356.1764982171567
 20
335.7037082296658
 30
0.0
 11
356.1711429118343
 21
335.6994693829019
 31
0.0
  0
ARC
  5
10A0
330
1F
100
AcDbEntity
  8
AM_VIS
100
AcDbCircle
 10
351.406802210072
 20
334.2037082296654
 30
0.0
 40
4.993620304949137
100
AcDbArc
 50
2.898369404360834
 51
17.42964136186158
  0
LINE
  5
10A1
330
1F
100
AcDbEntity
  8
AM_VIS
100
AcDbLine
 10
356.1711429118344
 20
333.9512082296633
 30
0.0
 11
356.394034659036
 21
333.9512082296633
 31
0.0
  0
LINE
  5
10A2
330
1F
100
AcDbEntity
  8
AM_VIS
100
AcDbLine
 10
356.3940346590363
 20
334.4562082296631
 30
0.0
 11
356.1711429118346
 21
334.4562082296631
 31
0.0
  0
ELLIPSE
  5
10A3
330
1F
100
AcDbEntity
  8
AM_VIS
100
AcDbEllipse
 10
352.5140640024638
 20
334.2037082296652
 30
0.0
 11
-0.0000000000000512
 21
-4.67087236390396
 31
0.0
210
0.0
220
0.0
230
1.0
 40
0.7841006838456897
 41
1.516711538556453
 42
1.62488111503247
  0
ARC
  5
10A4
330
1F
100
AcDbEntity
  8
AM_VIS
100
AcDbCircle
 10
354.8903827203038
 20
335.7218211466557
 30
0.0
 40
1.199999999999999
100
AcDbArc
 50
23.54713723707993
 51
85.00000000000026
  0
ARC
  5
10A5
330
1F
100
AcDbEntity
  8
AM_VIS
100
AcDbCircle
 10
354.8903827203038
 20
332.6855953126749
 30
0.0
 40
1.199999999999999
100
AcDbArc
 50
274.9999999999997
 51
336.4528627629201
  0
ARC
  5
10A6
330
1F
100
AcDbEntity
  8
AM_VIS
100
AcDbCircle
 10
351.406802210072
 20
334.2037082296654
 30
0.0
 40
5.000000000000031
100
AcDbArc
 50
17.45760312372945
 51
23.54713723707993
  0
ARC
  5
10A7
330
1F
100
AcDbEntity
  8
AM_VIS
100
AcDbCircle
 10
351.406802210072
 20
334.2037082296654
 30
0.0
 40
5.00000000000003
100
AcDbArc
 50
336.4528627629237
 51
342.5423968762839
  0
LINE
  5
10A8
330
1F
100
AcDbEntity
  8
AM_VIS
100
AcDbLine
 10
265.9068022100722
 20
339.2037077582787
 30
0.0
 11
266.3068022100722
 21
339.2037077582787
 31
0.0
  0
LINE
  5
10A9
330
1F
100
AcDbEntity
  8
AM_VIS
100
AcDbLine
 10
265.9068022100723
 20
343.2037077582787
 30
0.0
 11
266.3068022100723
 21
343.2037077582787
 31
0.0
  0
LINE
  5
10AA
330
1F
100
AcDbEntity
  8
AM_VIS
100
AcDbLine
 10
265.906802210072
 20
343.2037081636396
 30
0.0
 11
266.306802210072
 21
343.2037081636396
 31
0.0
  0
LINE
  5
10AB
330
1F
100
AcDbEntity
  8
AM_VIS
100
AcDbLine
 10
265.906802210072
 20
339.2037081636396
 30
0.0
 11
265.906802210072
 21
343.2037081636396
 31
0.0
  0
LINE
  5
10AC
330
1F
100
AcDbEntity
  8
AM_VIS
100
AcDbLine
 10
266.306802210072
 20
339.2037081636396
 30
0.0
 11
265.906802210072
 21
339.2037081636396
 31
0.0
  0
LINE
  5
10AD
330
1F
100
AcDbEntity
  8
AM_VIS
100
AcDbLine
 10
245.806802210072
 20
344.9537081636396
 30
0.0
 11
245.806802210072
 21
330.0537081636395
 31
0.0
  0
LINE
  5
10AE
330
1F
100
AcDbEntity
  8
AM_VIS
100
AcDbLine
 10
266.306802210072
 20
352.3537081636397
 30
0.0
 11
250.306802210072
 21
352.3537081636396
 31
0.0
  0
LINE
  5
10AF
330
1F
100
AcDbEntity
  8
AM_VIS
100
AcDbLine
 10
250.306802210072
 20
352.3537081636396
 30
0.0
 11
250.306802210072
 21
344.9537081636396
 31
0.0
  0
LINE
  5
10B0
330
1F
100
AcDbEntity
  8
AM_VIS
100
AcDbLine
 10
245.8068022100721
 20
348.2037080630568
 30
0.0
 11
245.8068022100721
 21
352.3537080630567
 31
0.0
  0
LINE
  5
10B1
330
1F
100
AcDbEntity
  8
AM_VIS
100
AcDbLine
 10
245.8068022100721
 20
352.3537080630567
 30
0.0
 11
250.3068022100721
 21
352.3537080630567
 31
0.0
  0
LINE
  5
10B2
330
1F
100
AcDbEntity
  8
AM_VIS
100
AcDbLine
 10
250.306802210072
 20
344.9537081636396
 30
0.0
 11
245.806802210072
 21
344.9537081636396
 31
0.0
  0
LINE
  5
10B3
330
1F
100
AcDbEntity
  8
AM_VIS
100
AcDbLine
 10
266.3068022100721
 20
330.0537081636396
 30
0.0
 11
245.8068022100721
 21
330.0537081636396
 31
0.0
  0
LINE
  5
10B4
330
1F
100
AcDbEntity
  8
AM_VIS
100
AcDbLine
 10
245.8068022100721
 20
344.9537081114855
 30
0.0
 11
245.8068022100721
 21
348.2037080630568
 31
0.0
  0
LINE
  5
10B5
330
1F
100
AcDbEntity
  8
AM_VIS
100
AcDbLine
 10
248.618634808543
 20
345.4901616749646
 30
0.0
 11
249.6068022100719
 21
345.4037082296651
 31
0.0
  0
LINE
  5
10B6
330
1F
100
AcDbEntity
  8
AM_VIS
100
AcDbLine
 10
248.618634808543
 20
350.9172547843656
 30
0.0
 11
249.6068022100719
 21
351.0037082296651
 31
0.0
  0
LINE
  5
10B7
330
1F
100
AcDbEntity
  8
AM_VIS
100
AcDbLine
 10
247.219569761108
 20
347.9512082334277
 30
0.0
 11
247.4424615083094
 21
347.9512082519538
 31
0.0
  0
ELLIPSE
  5
10B8
330
1F
100
AcDbEntity
  8
AM_VIS
100
AcDbEllipse
 10
251.099540417681
 20
348.2037082088199
 30
0.0
 11
0.0000000879335669
 21
-4.670872363904177
 31
0.0
210
0.0
220
0.0
230
0.9999999999999998
 40
0.784100683845834
 41
4.658304168137091
 42
4.766473744613103
  0
LINE
  5
10B9
330
1F
100
AcDbEntity
  8
AM_VIS
100
AcDbLine
 10
247.4424615083094
 20
348.4562082519536
 30
0.0
 11
247.219569761108
 21
348.4562082334277
 31
0.0
  0
ARC
  5
10BA
330
1F
100
AcDbEntity
  8
AM_VIS
100
AcDbCircle
 10
252.2068022100719
 20
348.2037082334277
 30
0.0
 40
4.993620304949036
100
AcDbArc
 50
182.8983694043837
 51
197.4296413618548
  0
LINE
  5
10BB
330
1F
100
AcDbEntity
  8
AM_VIS
100
AcDbLine
 10
247.4424615083096
 20
349.6994693866637
 30
0.0
 11
247.4371062029872
 21
349.7037082296651
 31
0.0
  0
LINE
  5
10BC
330
1F
100
AcDbEntity
  8
AM_VIS
100
AcDbLine
 10
247.4371062029872
 20
346.7037082296652
 30
0.0
 11
247.4424615083096
 21
346.7079470801916
 31
0.0
  0
ARC
  5
10BD
330
1F
100
AcDbEntity
  8
AM_VIS
100
AcDbCircle
 10
252.2068022100719
 20
348.2037082334277
 30
0.0
 40
4.993620304949036
100
AcDbArc
 50
162.5703586381487
 51
177.1016305956196
  0
ARC
  5
10BE
330
1F
100
AcDbEntity
  8
AM_VIS
100
AcDbCircle
 10
248.7232216998402
 20
346.6855953126747
 30
0.0
 40
1.199999999999999
100
AcDbArc
 50
203.5471372370799
 51
265.0000000000003
  0
ARC
  5
10BF
330
1F
100
AcDbEntity
  8
AM_VIS
100
AcDbCircle
 10
248.7232216998402
 20
349.7218211466554
 30
0.0
 40
1.199999999999999
100
AcDbArc
 50
94.99999999999975
 51
156.4528627629237
  0
ARC
  5
10C0
330
1F
100
AcDbEntity
  8
AM_VIS
100
AcDbCircle
 10
252.2068022100719
 20
348.2037082296652
 30
0.0
 40
5.000000000000031
100
AcDbArc
 50
197.4576031237227
 51
203.5471372370799
  0
ARC
  5
10C1
330
1F
100
AcDbEntity
  8
AM_VIS
100
AcDbCircle
 10
252.2068022100719
 20
348.2037082296652
 30
0.0
 40
5.000000000000031
100
AcDbArc
 50
156.4528627629237
 51
162.5423968762808
  0
LINE
  5
10C2
330
1F
100
AcDbEntity
  8
AM_VIS
100
AcDbLine
 10
249.6068022100724
 20
345.253708229665
 30
0.0
 11
250.3068022100723
 21
345.253708229665
 31
0.0
  0
LINE
  5
10C3
330
1F
100
AcDbEntity
  8
AM_VIS
100
AcDbLine
 10
249.6068022100721
 20
351.153708229665
 30
0.0
 11
250.3068022100722
 21
351.153708229665
 31
0.0
  0
LINE
  5
10C4
330
1F
100
AcDbEntity
  8
AM_VIS
100
AcDbLine
 10
249.6068022100723
 20
345.253708229665
 30
0.0
 11
249.6068022100721
 21
351.153708229665
 31
0.0
  0
LINE
  5
10C5
330
1F
100
AcDbEntity
  8
AM_VIS
100
AcDbLine
 10
245.806802210072
 20
288.6406188121307
 30
0.0
 11
245.8068022100722
 21
260.3906188121307
 31
0.0
  0
LINE
  5
10C6
330
1F
100
AcDbEntity
  8
AM_VIS
100
AcDbLine
 10
266.3068022100719
 20
288.6406188121309
 30
0.0
 11
245.8068022100718
 21
288.6406188121307
 31
0.0
  0
LINE
  5
10C7
330
1F
100
AcDbEntity
  8
AM_VIS
100
AcDbLine
 10
266.3068022100723
 20
253.6406188121309
 30
0.0
 11
250.3068022100723
 21
253.6406188121307
 31
0.0
  0
LINE
  5
10C8
330
1F
100
AcDbEntity
  8
AM_VIS
100
AcDbLine
 10
250.3068022100722
 20
260.3906188121307
 30
0.0
 11
250.3068022100723
 21
253.6406188121307
 31
0.0
  0
LINE
  5
10C9
330
1F
100
AcDbEntity
  8
AM_VIS
100
AcDbLine
 10
245.8068022100723
 20
260.3906188121307
 30
0.0
 11
250.3068022100722
 21
260.3906188121307
 31
0.0
  0
LINE
  5
10CA
330
1F
100
AcDbEntity
  8
AM_VIS
100
AcDbLine
 10
250.3068022100723
 20
253.6406187018621
 30
0.0
 11
245.8068022100723
 21
253.6406187018621
 31
0.0
  0
LINE
  5
10CB
330
1F
100
AcDbEntity
  8
AM_VIS
100
AcDbLine
 10
245.8068022100723
 20
253.6406187018621
 30
0.0
 11
245.8068022100723
 21
257.140618701862
 31
0.0
  0
LINE
  5
10CC
330
1F
100
AcDbEntity
  8
AM_VIS
100
AcDbLine
 10
245.8068022100722
 20
257.1406187018621
 30
0.0
 11
245.8068022100722
 21
260.3906187502909
 31
0.0
  0
ELLIPSE
  5
10CD
330
1F
100
AcDbEntity
  8
AM_VIS
100
AcDbEllipse
 10
249.9221553713486
 20
257.1406187502907
 30
0.0
 11
8.104961503426034
 21
0.1089539743919846
 31
0.0
210
0.0
220
0.0
230
1.0
 40
0.3637262537983055
 41
4.675447027821179
 42
4.754974952650812
  0
ELLIPSE
  5
10CE
330
1F
100
AcDbEntity
  8
AM_VIS
100
AcDbEllipse
 10
250.6914490487958
 20
257.1406187502907
 30
0.0
 11
8.104961503425872
 21
0.1089539743919853
 31
0.0
210
0.0
220
0.0
230
1.0
 40
0.3637262537983128
 41
4.627947152392344
 42
4.660024033815781
  0
LINE
  5
10CF
330
1F
100
AcDbEntity
  8
AM_VIS
100
AcDbLine
 10
249.6068022100723
 20
254.1906187502907
 30
0.0
 11
249.6624127479417
 21
254.1906187502907
 31
0.0
  0
LINE
  5
10D0
330
1F
100
AcDbEntity
  8
AM_VIS
100
AcDbLine
 10
249.6068022100721
 20
260.0906187502907
 30
0.0
 11
250.3068022100721
 21
260.0906187502907
 31
0.0
  0
LINE
  5
10D1
330
1F
100
AcDbEntity
  8
AM_VIS
100
AcDbLine
 10
249.6068022100723
 20
254.1906187502907
 30
0.0
 11
249.6068022100721
 21
260.0906187502907
 31
0.0
  0
LINE
  5
10D2
330
1F
100
AcDbEntity
  8
AM_VIS
100
AcDbLine
 10
248.618634808543
 20
254.4270723769811
 30
0.0
 11
249.6068022100719
 21
254.3406189316816
 31
0.0
  0
LINE
  5
10D3
330
1F
100
AcDbEntity
  8
AM_VIS
100
AcDbLine
 10
248.6186348085429
 20
259.854165486382
 30
0.0
 11
249.6068022100718
 21
259.9406189316816
 31
0.0
  0
ARC
  5
10D4
330
1F
100
AcDbEntity
  8
AM_VIS
100
AcDbCircle
 10
252.2068022100718
 20
257.1406189354441
 30
0.0
 40
4.993620304949137
100
AcDbArc
 50
162.5703586405828
 51
177.1016305980229
  0
LINE
  5
10D5
330
1F
100
AcDbEntity
  8
AM_VIS
100
AcDbLine
 10
247.4424615083093
 20
258.6363800886796
 30
0.0
 11
247.4371062029869
 21
258.6406189316809
 31
0.0
  0
LINE
  5
10D6
330
1F
100
AcDbEntity
  8
AM_VIS
100
AcDbLine
 10
247.4371062029872
 20
255.6406189316809
 30
0.0
 11
247.4424615083095
 21
255.6448577822074
 31
0.0
  0
ARC
  5
10D7
330
1F
100
AcDbEntity
  8
AM_VIS
100
AcDbCircle
 10
252.2068022100718
 20
257.1406189354441
 30
0.0
 40
4.993620304949137
100
AcDbArc
 50
182.898369406787
 51
197.4296413642884
  0
LINE
  5
10D8
330
1F
100
AcDbEntity
  8
AM_VIS
100
AcDbLine
 10
247.4424615083095
 20
257.3931189539721
 30
0.0
 11
247.2195697611078
 21
257.393118935446
 31
0.0
  0
LINE
  5
10D9
330
1F
100
AcDbEntity
  8
AM_VIS
100
AcDbLine
 10
247.2195697611077
 20
256.8881189354461
 30
0.0
 11
247.4424615083093
 21
256.8881189539721
 31
0.0
  0
ELLIPSE
  5
10DA
330
1F
100
AcDbEntity
  8
AM_VIS
100
AcDbEllipse
 10
251.09954041768
 20
257.1406189108363
 30
0.0
 11
-0.0000000001984578
 21
-4.670872363903961
 31
0.0
210
0.0
220
0.0
230
1.0
 40
0.7841006838456785
 41
4.658304192200461
 42
4.766473768676473
  0
ARC
  5
10DB
330
1F
100
AcDbEntity
  8
AM_VIS
100
AcDbCircle
 10
248.7232216998401
 20
255.6225060146912
 30
0.0
 40
1.199999999999999
100
AcDbArc
 50
203.5471372370763
 51
265.0000000000003
  0
ARC
  5
10DC
330
1F
100
AcDbEntity
  8
AM_VIS
100
AcDbCircle
 10
248.72322169984
 20
258.6587318486719
 30
0.0
 40
1.199999999999999
100
AcDbArc
 50
94.99999999999975
 51
156.4528627629201
  0
ARC
  5
10DD
330
1F
100
AcDbEntity
  8
AM_VIS
100
AcDbCircle
 10
252.2068022100718
 20
257.1406189316816
 30
0.0
 40
5.00000000000003
100
AcDbArc
 50
197.4576031237294
 51
203.5471372370799
  0
ARC
  5
10DE
330
1F
100
AcDbEntity
  8
AM_VIS
100
AcDbCircle
 10
252.2068022100718
 20
257.1406189316816
 30
0.0
 40
5.000000000000031
100
AcDbArc
 50
156.4528627629237
 51
162.5423968762839
  0
LINE
  5
10DF
330
1F
100
AcDbEntity
  8
AM_VIS
100
AcDbLine
 10
265.9068022100716
 20
212.2440049547166
 30
0.0
 11
266.3068022100716
 21
212.2440049547166
 31
0.0
  0
LINE
  5
10E0
330
1F
100
AcDbEntity
  8
AM_VIS
100
AcDbLine
 10
265.9068022100716
 20
216.2440049547166
 30
0.0
 11
266.3068022100716
 21
216.2440049547166
 31
0.0
  0
LINE
  5
10E1
330
1F
100
AcDbEntity
  8
AM_VIS
100
AcDbLine
 10
265.9068022100719
 20
216.2440053600775
 30
0.0
 11
266.306802210072
 21
216.2440053600775
 31
0.0
  0
LINE
  5
10E2
330
1F
100
AcDbEntity
  8
AM_VIS
100
AcDbLine
 10
265.906802210072
 20
212.2440053600775
 30
0.0
 11
265.906802210072
 21
216.2440053600775
 31
0.0
  0
LINE
  5
10E3
330
1F
100
AcDbEntity
  8
AM_VIS
100
AcDbLine
 10
266.306802210072
 20
212.2440053600775
 30
0.0
 11
265.9068022100719
 21
212.2440053600775
 31
0.0
  0
LINE
  5
10E4
330
1F
100
AcDbEntity
  8
AM_VIS
100
AcDbLine
 10
266.306802210072
 20
203.0940053600775
 30
0.0
 11
245.8068022100718
 21
203.0940053600775
 31
0.0
  0
LINE
  5
10E5
330
1F
100
AcDbEntity
  8
AM_VIS
100
AcDbLine
 10
245.806802210072
 20
217.9940053600774
 30
0.0
 11
245.806802210072
 21
203.0940053600776
 31
0.0
  0
LINE
  5
10E6
330
1F
100
AcDbEntity
  8
AM_VIS
100
AcDbLine
 10
266.306802210072
 20
225.3940053600775
 30
0.0
 11
250.306802210072
 21
225.3940053600775
 31
0.0
  0
LINE
  5
10E7
330
1F
100
AcDbEntity
  8
AM_VIS
100
AcDbLine
 10
250.306802210072
 20
225.3940053600775
 30
0.0
 11
250.306802210072
 21
217.9940053600774
 31
0.0
  0
LINE
  5
10E8
330
1F
100
AcDbEntity
  8
AM_VIS
100
AcDbLine
 10
245.8068022100718
 20
221.2440052594946
 30
0.0
 11
245.8068022100718
 21
225.3940052594945
 31
0.0
  0
LINE
  5
10E9
330
1F
100
AcDbEntity
  8
AM_VIS
100
AcDbLine
 10
245.806802210072
 20
225.3940052594947
 30
0.0
 11
250.3068022100718
 21
225.3940052594947
 31
0.0
  0
LINE
  5
10EA
330
1F
100
AcDbEntity
  8
AM_VIS
100
AcDbLine
 10
250.306802210072
 20
217.9940053600774
 30
0.0
 11
245.806802210072
 21
217.9940053600774
 31
0.0
  0
LINE
  5
10EB
330
1F
100
AcDbEntity
  8
AM_VIS
100
AcDbLine
 10
245.8068022100718
 20
217.9940053079233
 30
0.0
 11
245.8068022100718
 21
221.2440052594946
 31
0.0
  0
ELLIPSE
  5
10EC
330
1F
100
AcDbEntity
  8
AM_VIS
100
AcDbEllipse
 10
249.9221553713482
 20
221.2440053079233
 30
0.0
 11
4.258560093873133
 21
1.54937914216822
 31
0.0
210
0.0
220
0.0
230
1.0
 40
0.0103007928811843
 41
1.476602792923526
 42
1.641167556127987
  0
LINE
  5
10ED
330
1F
100
AcDbEntity
  8
AM_VIS
100
AcDbLine
 10
249.6068022100719
 20
221.2189412059012
 30
0.0
 11
249.6068022100719
 21
221.2237520965773
 31
0.0
  0
ELLIPSE
  5
10EE
330
1F
100
AcDbEntity
  8
AM_VIS
100
AcDbEllipse
 10
249.9221553713482
 20
221.2440053079233
 30
0.0
 11
8.105001468984257
 21
2.948818367352383
 31
0.0
210
0.0
220
0.0
230
1.0
 40
0.0103007928811843
 41
1.519573178354195
 42
1.605966652490727
  0
ELLIPSE
  5
10EF
330
1F
100
AcDbEntity
  8
AM_VIS
100
AcDbEllipse
 10
250.6914490487954
 20
221.2440053079233
 30
0.0
 11
8.105001468984095
 21
2.948818367352384
 31
0.0
210
0.0
220
0.0
230
1.0
 40
0.0103007928811844
 41
1.614524097189439
 42
1.70127477125299
  0
LINE
  5
10F0
330
1F
100
AcDbEntity
  8
AM_VIS
100
AcDbLine
 10
249.6068022100718
 20
218.2940053079234
 30
0.0
 11
250.3068022100717
 21
218.2940053079233
 31
0.0
  0
LINE
  5
10F1
330
1F
100
AcDbEntity
  8
AM_VIS
100
AcDbLine
 10
249.6068022100719
 20
224.1940053079233
 30
0.0
 11
250.3068022100718
 21
224.1940053079233
 31
0.0
  0
LINE
  5
10F2
330
1F
100
AcDbEntity
  8
AM_VIS
100
AcDbLine
 10
249.6068022100718
 20
218.2940053079234
 30
0.0
 11
249.6068022100719
 21
220.9431171436826
 31
0.0
  0
LINE
  5
10F3
330
1F
100
AcDbEntity
  8
AM_VIS
100
AcDbLine
 10
249.6068022100719
 20
221.2237520965773
 30
0.0
 11
249.6068022100718
 21
224.1940053079233
 31
0.0
  0
LINE
  5
10F4
330
1F
100
AcDbEntity
  8
AM_VIS
100
AcDbLine
 10
248.6186348085424
 20
218.530459288635
 30
0.0
 11
249.6068022100713
 21
218.4440058433354
 31
0.0
  0
LINE
  5
10F5
330
1F
100
AcDbEntity
  8
AM_VIS
100
AcDbLine
 10
248.6186348085425
 20
223.9575523980359
 30
0.0
 11
249.6068022100715
 21
224.0440058433355
 31
0.0
  0
LINE
  5
10F6
330
1F
100
AcDbEntity
  8
AM_VIS
100
AcDbLine
 10
249.6068022100716
 20
221.2189412059012
 30
0.0
 11
249.6068022100715
 21
220.9431171436825
 31
0.0
  0
LINE
  5
10F7
330
1F
100
AcDbEntity
  8
AM_VIS
100
AcDbLine
 10
250.3000772100715
 20
221.4309637881674
 30
0.0
 11
250.3000772100715
 21
221.1960590772447
 31
0.0
  0
LINE
  5
10F8
330
1F
100
AcDbEntity
  8
AM_VIS
100
AcDbLine
 10
247.2195697611073
 20
220.9915058470981
 30
0.0
 11
247.4424615083092
 21
220.9915058656241
 31
0.0
  0
ELLIPSE
  5
10F9
330
1F
100
AcDbEntity
  8
AM_VIS
100
AcDbEllipse
 10
251.0995404176795
 20
221.2440058224902
 30
0.0
 11
0.0000000879334522
 21
-4.670872363903898
 31
0.0
210
0.0
220
0.0
230
0.9999999999999998
 40
0.7841006838455927
 41
4.658304168137085
 42
4.766473744613104
  0
LINE
  5
10FA
330
1F
100
AcDbEntity
  8
AM_VIS
100
AcDbLine
 10
247.4424615083093
 20
221.4965058656241
 30
0.0
 11
247.2195697611073
 21
221.4965058470981
 31
0.0
  0
LINE
  5
10FB
330
1F
100
AcDbEntity
  8
AM_VIS
100
AcDbLine
 10
247.4371062029867
 20
219.7440058433355
 30
0.0
 11
247.442461508309
 21
219.7482446938618
 31
0.0
  0
ARC
  5
10FC
330
1F
100
AcDbEntity
  8
AM_VIS
100
AcDbCircle
 10
252.2068022100715
 20
221.2440058470979
 30
0.0
 40
4.993620304949238
100
AcDbArc
 50
162.5703586381451
 51
177.1016305956163
  0
ARC
  5
10FD
330
1F
100
AcDbEntity
  8
AM_VIS
100
AcDbCircle
 10
252.2068022100715
 20
221.2440058470979
 30
0.0
 40
4.993620304949238
100
AcDbArc
 50
182.8983694043803
 51
197.4296413618512
  0
LINE
  5
10FE
330
1F
100
AcDbEntity
  8
AM_VIS
100
AcDbLine
 10
247.442461508309
 20
222.7397670003343
 30
0.0
 11
247.4371062029868
 21
222.7440058433355
 31
0.0
  0
ARC
  5
10FF
330
1F
100
AcDbEntity
  8
AM_VIS
100
AcDbCircle
 10
248.7232216998397
 20
219.7258929263452
 30
0.0
 40
1.199999999999999
100
AcDbArc
 50
203.5471372370763
 51
265.0000000000003
  0
ARC
  5
1100
330
1F
100
AcDbEntity
  8
AM_VIS
100
AcDbCircle
 10
248.7232216998398
 20
222.7621187603258
 30
0.0
 40
1.199999999999999
100
AcDbArc
 50
94.99999999999975
 51
156.4528627629201
  0
ARC
  5
1101
330
1F
100
AcDbEntity
  8
AM_VIS
100
AcDbCircle
 10
252.2068022100715
 20
221.2440058433354
 30
0.0
 40
5.000000000000031
100
AcDbArc
 50
156.4528627629201
 51
162.5423968762736
  0
ARC
  5
1102
330
1F
100
AcDbEntity
  8
AM_VIS
100
AcDbCircle
 10
252.2068022100715
 20
221.2440058433354
 30
0.0
 40
5.000000000000031
100
AcDbArc
 50
197.4576031237191
 51
203.5471372370763
  0
DIMENSION
  5
1103
330
1F
100
AcDbEntity
  8
AM_5
100
AcDbDimension
  2
*D35
 10
369.806802210072
 20
285.6406188121308
 30
0.0
 11
369.806802210072
 21
299.5221011349124
 31
0.0
 70
   160
 71
     5
 42
3.000000000000113
  3
AM_ISO$0
100
AcDbAlignedDimension
 13
357.8068022100719
 23
288.6406188121309
 33
0.0
 14
313.306802210072
 24
285.6406188121308
 34
0.0
 50
90.0
100
AcDbRotatedDimension
1001
ACAD
1000
DSTYLE
1002
{
1070
    40
1040
1.399999999999999
1070
   272
1070
     8
1002
}
  0
LINE
  5
1104
330
1F
100
AcDbEntity
  8
AM_VIS
100
AcDbLine
 10
388.3406562844999
 20
288.6406188121309
 30
0.0
 11
403.2406562844998
 21
288.6406188121309
 31
0.0
  0
LINE
  5
1105
330
1F
100
AcDbEntity
  8
AM_VIS
100
AcDbLine
 10
380.9406562845
 20
253.6406188121309
 30
0.0
 11
380.9406562845
 21
281.8906188121309
 31
0.0
  0
LINE
  5
1106
330
1F
100
AcDbEntity
  8
AM_VIS
100
AcDbLine
 10
380.9406562844998
 20
281.8906188121309
 30
0.0
 11
380.9406562844998
 21
288.6406188121309
 31
0.0
  0
LINE
  5
1107
330
1F
100
AcDbEntity
  8
AM_VIS
100
AcDbLine
 10
380.9406562844998
 20
288.6406188121309
 30
0.0
 11
388.3406562844999
 21
288.6406188121309
 31
0.0
  0
LINE
  5
1108
330
1F
100
AcDbEntity
  8
AM_VIS
100
AcDbLine
 10
385.0906562844999
 20
281.8906188121309
 30
0.0
 11
380.9406562844998
 21
281.8906188121309
 31
0.0
  0
LINE
  5
1109
330
1F
100
AcDbEntity
  8
AM_VIS
100
AcDbLine
 10
388.3406562844999
 20
288.6406188121309
 30
0.0
 11
388.3406562844999
 21
285.1406188121309
 31
0.0
  0
LINE
  5
110A
330
1F
100
AcDbEntity
  8
AM_VIS
100
AcDbLine
 10
395.8406562844997
 20
253.6406188121309
 30
0.0
 11
380.9406562845
 21
253.6406188121309
 31
0.0
  0
LINE
  5
110B
330
1F
100
AcDbEntity
  8
AM_VIS
100
AcDbLine
 10
403.2406562844998
 20
288.6406188121309
 30
0.0
 11
403.2406562844998
 21
260.390618812131
 31
0.0
  0
LINE
  5
110C
330
1F
100
AcDbEntity
  8
AM_VIS
100
AcDbLine
 10
403.2406562844998
 20
260.390618812131
 30
0.0
 11
403.2406562844998
 21
253.640618812131
 31
0.0
  0
LINE
  5
110D
330
1F
100
AcDbEntity
  8
AM_VIS
100
AcDbLine
 10
403.2406562844998
 20
253.6406188121309
 30
0.0
 11
395.8406562844997
 21
253.6406188121309
 31
0.0
  0
LINE
  5
110E
330
1F
100
AcDbEntity
  8
AM_VIS
100
AcDbLine
 10
399.0906562844997
 20
260.3906188121309
 30
0.0
 11
403.2406562844998
 21
260.390618812131
 31
0.0
  0
LINE
  5
110F
330
1F
100
AcDbEntity
  8
AM_VIS
100
AcDbLine
 10
395.8406562844997
 20
253.6406188121309
 30
0.0
 11
395.8406562844997
 21
257.1406188121309
 31
0.0
  0
ARC
  5
1110
330
1F
100
AcDbEntity
  8
AM_VIS
100
AcDbCircle
 10
385.0906562844999
 20
285.1406188121309
 30
0.0
 40
3.249999999999999
100
AcDbArc
 50
270.0
 51
0.0
  0
ARC
  5
1111
330
1F
100
AcDbEntity
  8
AM_VIS
100
AcDbCircle
 10
399.0906562844997
 20
257.1406188121309
 30
0.0
 40
3.249999999999999
100
AcDbArc
 50
90.0
 51
180.0
  0
LINE
  5
1112
330
1F
100
AcDbEntity
  8
AM_VIS
100
AcDbLine
 10
385.0906562844999
 20
284.8881188121309
 30
0.0
 11
385.0906562844999
 21
285.140618812131
 31
0.0
  0
LINE
  5
1113
330
1F
100
AcDbEntity
  8
AM_VIS
100
AcDbLine
 10
385.0906562844999
 20
285.140618812131
 30
0.0
 11
385.0906562844999
 21
285.3931188121309
 31
0.0
  0
LINE
  5
1114
330
1F
100
AcDbEntity
  8
AM_VIS
100
AcDbLine
 10
385.0906562844999
 20
285.140618812131
 30
0.0
 11
384.8381562844994
 21
284.8881188121303
 31
0.0
  0
LINE
  5
1115
330
1F
100
AcDbEntity
  8
AM_VIS
100
AcDbLine
 10
385.3431562844995
 20
284.8881188121316
 30
0.0
 11
385.0906562845001
 21
285.140618812131
 31
0.0
  0
LINE
  5
1116
330
1F
100
AcDbEntity
  8
AM_VIS
100
AcDbLine
 10
384.8381562844978
 20
284.8881188121309
 30
0.0
 11
385.3431562844979
 21
284.8881188121309
 31
0.0
  0
LINE
  5
1117
330
1F
100
AcDbEntity
  8
AM_VIS
100
AcDbLine
 10
385.3431562844979
 20
285.3931188121309
 30
0.0
 11
385.3431562844979
 21
284.8881188121309
 31
0.0
  0
LINE
  5
1118
330
1F
100
AcDbEntity
  8
AM_VIS
100
AcDbLine
 10
384.8381562844978
 20
285.140618812131
 30
0.0
 11
385.0906562845001
 21
285.140618812131
 31
0.0
  0
LINE
  5
1119
330
1F
100
AcDbEntity
  8
AM_VIS
100
AcDbLine
 10
384.8381562844994
 20
285.3931188121315
 30
0.0
 11
385.0906562844999
 21
285.1406188121309
 31
0.0
  0
LINE
  5
111A
330
1F
100
AcDbEntity
  8
AM_VIS
100
AcDbLine
 10
385.3431562844979
 20
285.3931188121309
 30
0.0
 11
384.8381562844978
 21
285.3931188121309
 31
0.0
  0
LINE
  5
111B
330
1F
100
AcDbEntity
  8
AM_VIS
100
AcDbLine
 10
385.0906562845001
 20
285.140618812131
 30
0.0
 11
385.3431562844979
 21
285.140618812131
 31
0.0
  0
LINE
  5
111C
330
1F
100
AcDbEntity
  8
AM_VIS
100
AcDbLine
 10
385.0906562845001
 20
285.140618812131
 30
0.0
 11
385.3431562844995
 21
285.3931188121304
 31
0.0
  0
LINE
  5
111D
330
1F
100
AcDbEntity
  8
AM_VIS
100
AcDbLine
 10
384.8381562844978
 20
284.8881188121309
 30
0.0
 11
384.8381562844978
 21
285.3931188121309
 31
0.0
  0
LINE
  5
111E
330
1F
100
AcDbEntity
  8
AM_VIS
100
AcDbLine
 10
384.8381562844978
 20
285.3931188121309
 30
0.0
 11
383.5948951312643
 21
285.3931188121309
 31
0.0
  0
ELLIPSE
  5
111F
330
1F
100
AcDbEntity
  8
AM_VIS
100
AcDbEllipse
 10
386.4895568110664
 20
285.140618812131
 30
0.0
 11
0.0000000000000117
 21
-4.670872363904178
 31
0.0
210
0.0
220
0.0
230
1.0
 40
0.6206336420083113
 41
4.658304192146678
 42
4.766473768622685
  0
LINE
  5
1120
330
1F
100
AcDbEntity
  8
AM_VIS
100
AcDbLine
 10
383.5948951312643
 20
284.8881188121309
 30
0.0
 11
384.8381562844978
 21
284.8881188121309
 31
0.0
  0
LINE
  5
1121
330
1F
100
AcDbEntity
  8
AM_VIS
100
AcDbLine
 10
385.3431562844979
 20
284.8881188121309
 30
0.0
 11
386.5864174377365
 21
284.8881188121309
 31
0.0
  0
ELLIPSE
  5
1122
330
1F
100
AcDbEntity
  8
AM_VIS
100
AcDbEllipse
 10
383.6917557579335
 20
285.140618812131
 30
0.0
 11
0.0000000000000106
 21
4.6708723639039
 31
0.0
210
0.0
220
0.0
230
1.0
 40
0.6206336420085938
 41
4.658304192146689
 42
4.766473768622702
  0
LINE
  5
1123
330
1F
100
AcDbEntity
  8
AM_VIS
100
AcDbLine
 10
386.5864174377365
 20
285.3931188121309
 30
0.0
 11
385.3431562844979
 21
285.3931188121309
 31
0.0
  0
LINE
  5
1124
330
1F
100
AcDbEntity
  8
AM_VIS
100
AcDbLine
 10
384.8381562844978
 20
286.636379965367
 30
0.0
 11
384.8381562844978
 21
285.3931188121309
 31
0.0
  0
ELLIPSE
  5
1125
330
1F
100
AcDbEntity
  8
AM_VIS
100
AcDbEllipse
 10
385.0906562844999
 20
286.5395193386974
 30
0.0
 11
4.670872363903959
 21
0.0000000000000417
 31
0.0
210
0.0
220
0.0
230
1.0
 40
0.620633642008484
 41
4.658304192146233
 42
4.76647376862225
  0
LINE
  5
1126
330
1F
100
AcDbEntity
  8
AM_VIS
100
AcDbLine
 10
385.3431562844979
 20
285.3931188121309
 30
0.0
 11
385.3431562844979
 21
286.6363799653671
 31
0.0
  0
LINE
  5
1127
330
1F
100
AcDbEntity
  8
AM_VIS
100
AcDbLine
 10
385.3431562844979
 20
283.6448576588948
 30
0.0
 11
385.3431562844979
 21
284.8881188121309
 31
0.0
  0
ELLIPSE
  5
1128
330
1F
100
AcDbEntity
  8
AM_VIS
100
AcDbEllipse
 10
385.0906562844999
 20
283.7417182855645
 30
0.0
 11
-4.67087236390396
 21
0.0000000000000406
 31
0.0
210
0.0
220
0.0
230
1.0
 40
0.6206336420084897
 41
4.658304192147127
 42
4.766473768623145
  0
LINE
  5
1129
330
1F
100
AcDbEntity
  8
AM_VIS
100
AcDbLine
 10
384.8381562844978
 20
284.8881188121309
 30
0.0
 11
384.8381562844978
 21
283.6448576588949
 31
0.0
  0
LINE
  5
112A
330
1F
100
AcDbEntity
  8
AM_VIS
100
AcDbLine
 10
399.0906562844999
 20
256.8881188121309
 30
0.0
 11
399.0906562844999
 21
257.140618812131
 31
0.0
  0
LINE
  5
112B
330
1F
100
AcDbEntity
  8
AM_VIS
100
AcDbLine
 10
399.0906562844999
 20
257.140618812131
 30
0.0
 11
399.0906562844999
 21
257.393118812131
 31
0.0
  0
LINE
  5
112C
330
1F
100
AcDbEntity
  8
AM_VIS
100
AcDbLine
 10
399.0906562844999
 20
257.1406188121311
 30
0.0
 11
398.8381562844994
 21
256.8881188121305
 31
0.0
  0
LINE
  5
112D
330
1F
100
AcDbEntity
  8
AM_VIS
100
AcDbLine
 10
399.3431562844995
 20
256.8881188121316
 30
0.0
 11
399.0906562845001
 21
257.140618812131
 31
0.0
  0
LINE
  5
112E
330
1F
100
AcDbEntity
  8
AM_VIS
100
AcDbLine
 10
398.8381562844978
 20
256.8881188121309
 30
0.0
 11
399.3431562844979
 21
256.8881188121309
 31
0.0
  0
LINE
  5
112F
330
1F
100
AcDbEntity
  8
AM_VIS
100
AcDbLine
 10
399.3431562844979
 20
257.3931188121309
 30
0.0
 11
399.3431562844979
 21
256.8881188121309
 31
0.0
  0
LINE
  5
1130
330
1F
100
AcDbEntity
  8
AM_VIS
100
AcDbLine
 10
398.8381562844978
 20
257.140618812131
 30
0.0
 11
399.0906562845001
 21
257.140618812131
 31
0.0
  0
LINE
  5
1131
330
1F
100
AcDbEntity
  8
AM_VIS
100
AcDbLine
 10
398.8381562844994
 20
257.3931188121315
 30
0.0
 11
399.0906562844999
 21
257.1406188121309
 31
0.0
  0
LINE
  5
1132
330
1F
100
AcDbEntity
  8
AM_VIS
100
AcDbLine
 10
399.3431562844979
 20
257.393118812131
 30
0.0
 11
398.8381562844978
 21
257.393118812131
 31
0.0
  0
LINE
  5
1133
330
1F
100
AcDbEntity
  8
AM_VIS
100
AcDbLine
 10
399.0906562845001
 20
257.140618812131
 30
0.0
 11
399.3431562844979
 21
257.140618812131
 31
0.0
  0
LINE
  5
1134
330
1F
100
AcDbEntity
  8
AM_VIS
100
AcDbLine
 10
399.0906562845001
 20
257.140618812131
 30
0.0
 11
399.3431562844995
 21
257.3931188121303
 31
0.0
  0
LINE
  5
1135
330
1F
100
AcDbEntity
  8
AM_VIS
100
AcDbLine
 10
398.8381562844978
 20
256.8881188121309
 30
0.0
 11
398.8381562844978
 21
257.3931188121309
 31
0.0
  0
LINE
  5
1136
330
1F
100
AcDbEntity
  8
AM_VIS
100
AcDbLine
 10
398.8381562844978
 20
257.393118812131
 30
0.0
 11
397.5948951312643
 21
257.393118812131
 31
0.0
  0
ELLIPSE
  5
1137
330
1F
100
AcDbEntity
  8
AM_VIS
100
AcDbEllipse
 10
400.4895568110663
 20
257.140618812131
 30
0.0
 11
0.0000000000000117
 21
-4.670872363904178
 31
0.0
210
0.0
220
0.0
230
1.0
 40
0.6206336420083113
 41
4.65830419214668
 42
4.766473768622687
  0
LINE
  5
1138
330
1F
100
AcDbEntity
  8
AM_VIS
100
AcDbLine
 10
397.5948951312643
 20
256.8881188121309
 30
0.0
 11
398.8381562844978
 21
256.8881188121309
 31
0.0
  0
LINE
  5
1139
330
1F
100
AcDbEntity
  8
AM_VIS
100
AcDbLine
 10
399.3431562844979
 20
256.8881188121309
 30
0.0
 11
400.5864174377364
 21
256.8881188121309
 31
0.0
  0
ELLIPSE
  5
113A
330
1F
100
AcDbEntity
  8
AM_VIS
100
AcDbEllipse
 10
397.6917557579335
 20
257.140618812131
 30
0.0
 11
0.0000000000000106
 21
4.6708723639039
 31
0.0
210
0.0
220
0.0
230
1.0
 40
0.6206336420085938
 41
4.658304192146689
 42
4.766473768622702
  0
LINE
  5
113B
330
1F
100
AcDbEntity
  8
AM_VIS
100
AcDbLine
 10
400.5864174377364
 20
257.393118812131
 30
0.0
 11
399.3431562844979
 21
257.393118812131
 31
0.0
  0
LINE
  5
113C
330
1F
100
AcDbEntity
  8
AM_VIS
100
AcDbLine
 10
398.8381562844978
 20
258.6363799653671
 30
0.0
 11
398.8381562844978
 21
257.393118812131
 31
0.0
  0
ELLIPSE
  5
113D
330
1F
100
AcDbEntity
  8
AM_VIS
100
AcDbEllipse
 10
399.0906562844999
 20
258.5395193386974
 30
0.0
 11
4.670872363903959
 21
0.0000000000000417
 31
0.0
210
0.0
220
0.0
230
1.0
 40
0.620633642008484
 41
4.658304192146231
 42
4.766473768622248
  0
LINE
  5
113E
330
1F
100
AcDbEntity
  8
AM_VIS
100
AcDbLine
 10
399.3431562844979
 20
257.393118812131
 30
0.0
 11
399.3431562844979
 21
258.6363799653672
 31
0.0
  0
LINE
  5
113F
330
1F
100
AcDbEntity
  8
AM_VIS
100
AcDbLine
 10
399.3431562844979
 20
255.6448576588948
 30
0.0
 11
399.3431562844979
 21
256.8881188121309
 31
0.0
  0
ELLIPSE
  5
1140
330
1F
100
AcDbEntity
  8
AM_VIS
100
AcDbEllipse
 10
399.0906562844999
 20
255.7417182855644
 30
0.0
 11
-4.67087236390396
 21
0.0000000000000406
 31
0.0
210
0.0
220
0.0
230
1.0
 40
0.6206336420084897
 41
4.65830419214713
 42
4.766473768623146
  0
LINE
  5
1141
330
1F
100
AcDbEntity
  8
AM_VIS
100
AcDbLine
 10
398.8381562844978
 20
256.8881188121309
 30
0.0
 11
398.8381562844978
 21
255.6448576588949
 31
0.0
  0
ARC
  5
1142
330
1F
100
AcDbEntity
  8
AM_4
100
AcDbCircle
 10
392.0906562844998
 20
271.1406188121308
 30
0.0
 40
4.849999999999999
100
AcDbArc
 50
279.9999999999986
 51
189.9999999999986
  0
CIRCLE
  5
1143
330
1F
100
AcDbEntity
  8
AM_VIS
100
AcDbCircle
 10
392.0906562844998
 20
271.1406188121308
 30
0.0
 40
4.049999999999999
  0
LINE
  5
1144
330
1F
100
AcDbEntity
  8
AM_7
  6
AM_ISO08W050x2
100
AcDbLine
 10
392.0906562844998
 20
271.1406188121308
 30
0.0
 11
398.9406562845002
 21
271.1406188121308
 31
0.0
1001
GENIUS_GENOREF_13
1005
1159
  0
LINE
  5
1145
330
1F
100
AcDbEntity
  8
AM_7
  6
AM_ISO08W050x2
100
AcDbLine
 10
392.0906562844998
 20
271.1406188121308
 30
0.0
 11
392.0906562844998
 21
277.9906188121308
 31
0.0
1001
GENIUS_GENOREF_13
1005
1159
  0
LINE
  5
1146
330
1F
100
AcDbEntity
  8
AM_7
  6
AM_ISO08W050x2
100
AcDbLine
 10
392.0906562844998
 20
271.1406188121308
 30
0.0
 11
385.2406562844999
 21
271.1406188121308
 31
0.0
1001
GENIUS_GENOREF_13
1005
1159
  0
LINE
  5
1147
330
1F
100
AcDbEntity
  8
AM_7
  6
AM_ISO08W050x2
100
AcDbLine
 10
392.0906562844998
 20
271.1406188121308
 30
0.0
 11
392.0906562844998
 21
264.2906188121307
 31
0.0
1001
GENIUS_GENOREF_13
1005
1159
  0
CIRCLE
  5
1148
330
1F
100
AcDbEntity
  8
AM_VIS
100
AcDbCircle
 10
385.0906562845001
 20
285.140618812131
 30
0.0
 40
3.0
  0
CIRCLE
  5
1149
330
1F
100
AcDbEntity
  8
AM_VIS
100
AcDbCircle
 10
399.0906562845001
 20
257.140618812131
 30
0.0
 40
3.0
  0
INSERT
  5
114A
330
1F
100
AcDbEntity
  8
AM_5
100
AcDbBlockReference
  2
*S42
 10
0.0
 20
0.0
 30
0.0
  0
TEXT
  5
114B
330
1F
100
AcDbEntity
  8
AM_5
100
AcDbText
 10
400.8871469140419
 20
297.8193213633991
 30
0.0
 40
4.9
  1
2-PT1/8
100
AcDbText
  0
DIMENSION
  5
114C
330
1F
100
AcDbEntity
  8
AM_5
100
AcDbDimension
  2
*D36
 10
372.4099382932317
 20
271.1406188121309
 30
0.0
 11
368.5599382932316
 21
262.390618812131
 31
0.0
 70
    32
 71
     5
 42
17.50000000000003
  3
AM_ISO$0
100
AcDbAlignedDimension
 13
380.9406562845
 23
253.6406188121309
 33
0.0
 14
385.2406562844999
 24
271.1406188121308
 34
0.0
 50
90.0
100
AcDbRotatedDimension
1001
ACAD
1000
DSTYLE
1002
{
1070
    40
1040
1.399999999999999
1070
   272
1070
     8
1002
}
  0
POINT
  5
1151
330
1F
100
AcDbEntity
  8
0
 60
     1
100
AcDbPoint
 10
291.8150073547516
 20
-184.8790955119171
 30
0.0
1001
GENIUS_GENOENT_13
1002
{
1000
MYREF
1005
1151
1002
}
1002
{
1000
GRP
1005
0
1002
}
1001
GENIUS_GENOBJ-N-CRS_13
1002
{
1000
OWNER
1000
GEN
1002
}
1001
GENIUS_GENOLIS_13
1002
{
1000
ENT
1005
1043
1005
1042
1005
1041
1005
1040
1002
}
1001
GENIUS_GENODEF_13
1002
{
1000
HIER
1070
    10
1002
}
1002
{
1000
MANEDIT
1070
     0
1002
}
1002
{
1000
NOSEL
1070
     0
1002
}
1002
{
1000
BEHIND
1070
     0
1002
}
1002
{
1000
OTHER
1070
     0
1002
}
1002
{
1000
REACTOR
1002
}
  0
POINT
  5
1152
330
1F
100
AcDbEntity
  8
0
 60
     1
100
AcDbPoint
 10
291.8150073547516
 20
-184.8790955119171
 30
0.0
1001
GENIUS_GENOBJ-N-CRS_13
1002
{
1000
OWNER
1000
GEN
1002
}
1001
GENIUS_GENOENT_13
1002
{
1000
MYREF
1005
1152
1002
}
1002
{
1000
GRP
1005
0
1002
}
1001
GENIUS_GENOLIS_13
1002
{
1000
ENT
1005
103F
1005
103E
1005
103D
1005
103C
1002
}
1001
GENIUS_GENODEF_13
1002
{
1000
HIER
1070
    10
1002
}
1002
{
1000
MANEDIT
1070
     0
1002
}
1002
{
1000
NOSEL
1070
     0
1002
}
1002
{
1000
BEHIND
1070
     0
1002
}
1002
{
1000
OTHER
1070
     0
1002
}
1002
{
1000
REACTOR
1002
}
  0
POINT
  5
1153
330
1F
100
AcDbEntity
  8
0
 60
     1
100
AcDbPoint
 10
291.8150073547516
 20
-184.8790955119171
 30
0.0
1001
GENIUS_GENODEF_13
1002
{
1000
HIER
1070
    10
1002
}
1002
{
1000
MANEDIT
1070
     0
1002
}
1002
{
1000
NOSEL
1070
     0
1002
}
1002
{
1000
BEHIND
1070
     0
1002
}
1002
{
1000
OTHER
1070
     0
1002
}
1002
{
1000
REACTOR
1002
}
1001
GENIUS_GENOENT_13
1002
{
1000
MYREF
1005
1153
1002
}
1002
{
1000
GRP
1005
0
1002
}
1001
GENIUS_GENOLIS_13
1002
{
1000
ENT
1005
103B
1005
103A
1005
1039
1005
1038
1002
}
1001
GENIUS_GENOBJ-N-CRS_13
1002
{
1000
OWNER
1000
GEN
1002
}
  0
POINT
  5
1154
330
1F
100
AcDbEntity
  8
0
 60
     1
100
AcDbPoint
 10
291.8150073547516
 20
-184.8790955119171
 30
0.0
1001
GENIUS_GENOENT_13
1002
{
1000
MYREF
1005
1154
1002
}
1002
{
1000
GRP
1005
0
1002
}
1001
GENIUS_GENODEF_13
1002
{
1000
HIER
1070
    10
1002
}
1002
{
1000
MANEDIT
1070
     0
1002
}
1002
{
1000
NOSEL
1070
     0
1002
}
1002
{
1000
BEHIND
1070
     0
1002
}
1002
{
1000
OTHER
1070
     0
1002
}
1002
{
1000
REACTOR
1002
}
1001
GENIUS_GENOLIS_13
1002
{
1000
ENT
1005
1037
1005
1036
1005
1035
1005
1034
1002
}
1001
GENIUS_GENOBJ-N-CRS_13
1002
{
1000
OWNER
1000
GEN
1002
}
  0
POINT
  5
1155
330
1F
100
AcDbEntity
  8
0
 60
     1
100
AcDbPoint
 10
-242.3335002745444
 20
-184.8785005479657
 30
0.0
1001
GENIUS_GENOLIS_13
1002
{
1000
ENT
1005
1020
1005
101F
1005
101E
1005
101D
1002
}
1001
GENIUS_GENOENT_13
1002
{
1000
MYREF
1005
1155
1002
}
1002
{
1000
GRP
1005
0
1002
}
1001
GENIUS_GENOBJ-N-CRS_13
1002
{
1000
OWNER
1000
GEN
1002
}
1001
GENIUS_GENODEF_13
1002
{
1000
HIER
1070
    10
1002
}
1002
{
1000
MANEDIT
1070
     0
1002
}
1002
{
1000
NOSEL
1070
     0
1002
}
1002
{
1000
BEHIND
1070
     0
1002
}
1002
{
1000
OTHER
1070
     0
1002
}
1002
{
1000
REACTOR
1002
}
  0
POINT
  5
1156
330
1F
100
AcDbEntity
  8
0
 60
     1
100
AcDbPoint
 10
-242.3335002745444
 20
-184.8785005479657
 30
0.0
1001
GENIUS_GENODEF_13
1002
{
1000
HIER
1070
    10
1002
}
1002
{
1000
MANEDIT
1070
     0
1002
}
1002
{
1000
NOSEL
1070
     0
1002
}
1002
{
1000
BEHIND
1070
     0
1002
}
1002
{
1000
OTHER
1070
     0
1002
}
1002
{
1000
REACTOR
1002
}
1001
GENIUS_GENOLIS_13
1002
{
1000
ENT
1005
101C
1005
101B
1005
101A
1005
1019
1002
}
1001
GENIUS_GENOENT_13
1002
{
1000
MYREF
1005
1156
1002
}
1002
{
1000
GRP
1005
0
1002
}
1001
GENIUS_GENOBJ-N-CRS_13
1002
{
1000
OWNER
1000
GEN
1002
}
  0
POINT
  5
1157
330
1F
100
AcDbEntity
  8
0
 60
     1
100
AcDbPoint
 10
-188.5681463745336
 20
-466.7862484381743
 30
0.0
1001
GENIUS_GENOLIS_13
1002
{
1000
ENT
1005
1018
1005
1017
1005
1016
1005
1015
1002
}
1001
GENIUS_GENOENT_13
1002
{
1000
MYREF
1005
1157
1002
}
1002
{
1000
GRP
1005
0
1002
}
1001
GENIUS_GENOBJ-N-CRS_13
1002
{
1000
OWNER
1000
GEN
1002
}
1001
GENIUS_GENODEF_13
1002
{
1000
HIER
1070
    10
1002
}
1002
{
1000
MANEDIT
1070
     0
1002
}
1002
{
1000
NOSEL
1070
     0
1002
}
1002
{
1000
BEHIND
1070
     0
1002
}
1002
{
1000
OTHER
1070
     0
1002
}
1002
{
1000
REACTOR
1002
}
  0
POINT
  5
1158
330
1F
100
AcDbEntity
  8
0
 60
     1
100
AcDbPoint
 10
-188.5681463745336
 20
-466.7862484381743
 30
0.0
1001
GENIUS_GENOENT_13
1002
{
1000
MYREF
1005
1158
1002
}
1002
{
1000
GRP
1005
0
1002
}
1001
GENIUS_GENOLIS_13
1002
{
1000
ENT
1005
1014
1005
1013
1005
1012
1005
1011
1002
}
1001
GENIUS_GENOBJ-N-CRS_13
1002
{
1000
OWNER
1000
GEN
1002
}
1001
GENIUS_GENODEF_13
1002
{
1000
HIER
1070
    10
1002
}
1002
{
1000
MANEDIT
1070
     0
1002
}
1002
{
1000
NOSEL
1070
     0
1002
}
1002
{
1000
BEHIND
1070
     0
1002
}
1002
{
1000
OTHER
1070
     0
1002
}
1002
{
1000
REACTOR
1002
}
  0
POINT
  5
1159
330
1F
100
AcDbEntity
  8
0
 60
     1
100
AcDbPoint
 10
576.7320810189994
 20
-305.4592010520085
 30
0.0
1001
GENIUS_GENOLIS_13
1002
{
1000
ENT
1005
1147
1005
1146
1005
1145
1005
1144
1002
}
1001
GENIUS_GENODEF_13
1002
{
1000
HIER
1070
    10
1002
}
1002
{
1000
MANEDIT
1070
     0
1002
}
1002
{
1000
NOSEL
1070
     0
1002
}
1002
{
1000
BEHIND
1070
     0
1002
}
1002
{
1000
OTHER
1070
     0
1002
}
1002
{
1000
REACTOR
1002
}
1001
GENIUS_GENOBJ-N-CRS_13
1002
{
1000
OWNER
1000
GEN
1002
}
1001
GENIUS_GENOENT_13
1002
{
1000
MYREF
1005
1159
1002
}
1002
{
1000
GRP
1005
0
1002
}
  0
POINT
  5
115A
330
1F
100
AcDbEntity
  8
0
 60
     1
100
AcDbPoint
 10
-242.3335002745444
 20
-184.8785005479657
 30
0.0
1001
GENIUS_GENOLIS_13
1002
{
1000
ENT
1005
1010
1005
100F
1005
100E
1005
100D
1002
}
1001
GENIUS_GENOENT_13
1002
{
1000
MYREF
1005
115A
1002
}
1002
{
1000
GRP
1005
0
1002
}
1001
GENIUS_GENOBJ-N-CRS_13
1002
{
1000
OWNER
1000
GEN
1002
}
1001
GENIUS_GENODEF_13
1002
{
1000
HIER
1070
    10
1002
}
1002
{
1000
MANEDIT
1070
     0
1002
}
1002
{
1000
NOSEL
1070
     0
1002
}
1002
{
1000
BEHIND
1070
     0
1002
}
1002
{
1000
OTHER
1070
     0
1002
}
1002
{
1000
REACTOR
1002
}
  0
POINT
  5
115B
330
1F
100
AcDbEntity
  8
0
 60
     1
100
AcDbPoint
 10
-242.3335002745444
 20
-184.8785005479657
 30
0.0
1001
GENIUS_GENOLIS_13
1002
{
1000
ENT
1005
100C
1005
100B
1005
100A
1005
1009
1002
}
1001
GENIUS_GENOENT_13
1002
{
1000
MYREF
1005
115B
1002
}
1002
{
1000
GRP
1005
0
1002
}
1001
GENIUS_GENOBJ-N-CRS_13
1002
{
1000
OWNER
1000
GEN
1002
}
1001
GENIUS_GENODEF_13
1002
{
1000
HIER
1070
    10
1002
}
1002
{
1000
MANEDIT
1070
     0
1002
}
1002
{
1000
NOSEL
1070
     0
1002
}
1002
{
1000
BEHIND
1070
     0
1002
}
1002
{
1000
OTHER
1070
     0
1002
}
1002
{
1000
REACTOR
1002
}
  0
POINT
  5
115C
330
1F
100
AcDbEntity
  8
0
 60
     1
100
AcDbPoint
 10
-242.3335002745444
 20
-184.8785005479657
 30
0.0
1001
GENIUS_GENODEF_13
1002
{
1000
HIER
1070
    10
1002
}
1002
{
1000
MANEDIT
1070
     0
1002
}
1002
{
1000
NOSEL
1070
     0
1002
}
1002
{
1000
BEHIND
1070
     0
1002
}
1002
{
1000
OTHER
1070
     0
1002
}
1002
{
1000
REACTOR
1002
}
1001
GENIUS_GENOLIS_13
1002
{
1000
ENT
1005
1008
1005
1007
1005
1006
1005
1005
1002
}
1001
GENIUS_GENOENT_13
1002
{
1000
MYREF
1005
115C
1002
}
1002
{
1000
GRP
1005
0
1002
}
1001
GENIUS_GENOBJ-N-CRS_13
1002
{
1000
OWNER
1000
GEN
1002
}
  0
LINE
  5
12CF
330
1F
100
AcDbEntity
  8
LOGO
 62
     4
100
AcDbLine
 10
371.65845574703
 20
142.9194460057
 30
0.0
 11
371.65845574703
 21
133.9764211108573
 31
0.0
  0
LINE
  5
12D0
330
1F
100
AcDbEntity
  8
LOGO
 62
     4
100
AcDbLine
 10
350.0725553045813
 20
142.9194460057
 30
0.0
 11
350.0725553045813
 21
133.9764211108573
 31
0.0
  0
LINE
  5
12D1
330
1F
100
AcDbEntity
  8
LOGO
 62
     4
100
AcDbLine
 10
371.65845574703
 20
133.9764211108573
 30
0.0
 11
350.0725553045813
 21
133.9764211108573
 31
0.0
  0
LINE
  5
12D2
330
1F
100
AcDbEntity
  8
LOGO
 62
     4
100
AcDbLine
 10
364.7308055620855
 20
153.8949765584592
 30
0.0
 11
340.3469805617385
 21
153.8949765584592
 31
0.0
  0
LINE
  5
12D3
330
1F
100
AcDbEntity
  8
LOGO
 62
     4
100
AcDbLine
 10
364.7308055620855
 20
146.5779561899527
 30
0.0
 11
340.3469805617385
 21
146.5779561899527
 31
0.0
  0
LINE
  5
12D4
330
1F
100
AcDbEntity
  8
LOGO
 62
     4
100
AcDbLine
 10
340.3469805617385
 20
153.8949765584592
 30
0.0
 11
340.3469805617385
 21
146.5779561899527
 31
0.0
  0
LINE
  5
12D5
330
1F
100
AcDbEntity
  8
LOGO
 62
     4
100
AcDbLine
 10
364.7308055620855
 20
153.8949765584592
 30
0.0
 11
364.7308055620855
 21
146.5779561899527
 31
0.0
  0
LINE
  5
12D6
330
1F
100
AcDbEntity
  8
LOGO
 62
     4
100
AcDbLine
 10
359.9391973406083
 20
146.5779561899527
 30
0.0
 11
359.9391973406083
 21
142.9194460057
 31
0.0
  0
TEXT
  5
12D7
330
1F
100
AcDbEntity
  8
LOGO
  6
Continuous
 62
     7
100
AcDbText
 10
342.074026551712
 20
148.1053734943962
 30
0.0
 40
4.268880000000001
  1
C/P/R
  7
CHINESET
100
AcDbText
  0
LINE
  5
12D8
330
1F
100
AcDbEntity
  8
LOGO
 62
     4
100
AcDbLine
 10
371.65845574703
 20
142.9194460057
 30
0.0
 11
350.0725553045813
 21
142.9194460057
 31
0.0
  0
TEXT
  5
12D9
330
1F
100
AcDbEntity
  8
LOGO
  6
Continuous
100
AcDbText
 10
354.6482212705098
 20
135.2387101106395
 30
159.8484869550175
 40
1.829519999999999
  1
Center type
 41
0.8
  7
CHINESET
100
AcDbText
  0
TEXT
  5
12DA
330
1F
100
AcDbEntity
  8
LOGO
100
AcDbText
 10
351.4712363698516
 20
138.6302459009389
 30
159.8484869550175
 40
3.0492
  1
中間位置型式
  7
CHINESET
100
AcDbText
  0
ENDSEC
  0
SECTION
  2
OBJECTS
  0
DICTIONARY
  5
C
330
0
100
AcDbDictionary
281
     1
  3
ACAD_COLOR
350
BE
  3
ACAD_GROUP
350
D
  3
ACAD_LAYOUT
350
1A
  3
ACAD_MATERIAL
350
BD
  3
ACAD_MLINESTYLE
350
17
  3
ACAD_PLOTSETTINGS
350
19
  3
ACAD_PLOTSTYLENAME
350
E
  3
ACAD_TABLESTYLE
350
11A
  3
ACDBHEADERROUNDTRIPXREC
350
1366
  3
AcDbVariableDictionary
350
94
  3
AcmDictionary
350
5B
  3
AMG
350
41
  3
AMGSNAPSETTINGS
350
1B8
  3
DWGPROPS
350
1365
  0
DICTIONARY
  5
3F9
330
2
100
AcDbDictionary
280
     1
281
     1
  3
ACAD_LAYERFILTERS
360
5B7
  3
ACAD_LAYERSTATES
360
AD0
  3
ACLYDICTIONARY
360
5B6
  0
DICTIONARY
  5
8F
330
1F
100
AcDbDictionary
280
     1
281
     1
  0
DICTIONARY
  5
BE
102
{ACAD_REACTORS
330
C
102
}
330
C
100
AcDbDictionary
281
     1
  0
DICTIONARY
  5
D
102
{ACAD_REACTORS
330
C
102
}
330
C
100
AcDbDictionary
281
     1
  0
DICTIONARY
  5
1A
102
{ACAD_REACTORS
330
C
102
}
330
C
100
AcDbDictionary
281
     1
  3
Model
350
22
  3
配置1
350
1E
  3
配置2
350
26
  0
DICTIONARY
  5
BD
102
{ACAD_REACTORS
330
C
102
}
330
C
100
AcDbDictionary
281
     1
  0
DICTIONARY
  5
17
102
{ACAD_REACTORS
330
C
102
}
330
C
100
AcDbDictionary
281
     1
  3
Standard
350
18
  0
DICTIONARY
  5
19
102
{ACAD_REACTORS
330
C
102
}
330
C
100
AcDbDictionary
281
     1
  0
ACDBDICTIONARYWDFLT
  5
E
102
{ACAD_REACTORS
330
C
102
}
330
C
100
AcDbDictionary
281
     1
  3
Normal
350
F
100
AcDbDictionaryWithDefault
340
F
  0
DICTIONARY
  5
11A
102
{ACAD_REACTORS
330
C
102
}
330
C
100
AcDbDictionary
281
     1
  3
Standard
350
11B
  0
DICTIONARY
  5
1366
102
{ACAD_REACTORS
330
C
102
}
330
C
100
AcDbDictionary
281
     1
  0
DICTIONARY
  5
94
102
{ACAD_REACTORS
330
C
102
}
330
C
100
AcDbDictionary
281
     1
  3
CTABLESTYLE
350
138
  3
DIMASSOC
350
96
  3
INDEXCTL
350
95
  3
PROJECTNAME
350
1363
  0
DICTIONARY
  5
5B
102
{ACAD_REACTORS
330
C
102
}
330
C
100
AcDbDictionary
281
     1
  3
AcmBOM
350
1B5
  3
AcmStdDictionary
350
61
  3
AMDTSECTSYM_ARROWCOLOR
350
123
  0
DICTIONARY
  5
41
102
{ACAD_REACTORS
330
C
102
}
330
C
100
AcDbDictionary
281
     1
  0
DICTIONARY
  5
1B8
102
{ACAD_REACTORS
330
C
102
}
330
C
100
AcDbDictionary
281
     1
  0
XRECORD
  5
1365
102
{ACAD_REACTORS
330
C
102
}
330
C
100
AcDbXrecord
280
     1
  1
DWGPROPS COOKIE
  2

  3

  4

  6

  7

  8

  9

300
AmdtFileType=84
301
=
302
=
303
=
304
=
305
=
306
=
307
=
308
=
309
=
 40
0.0094073726851852
 41
2454377.547735452
 42
2454377.557467257
  1

 90
        1
  0
DICTIONARY
  5
5B7
102
{ACAD_REACTORS
330
3F9
102
}
330
3F9
100
AcDbDictionary
281
     1
  0
DICTIONARY
  5
AD0
102
{ACAD_REACTORS
330
3F9
102
}
330
3F9
100
AcDbDictionary
281
     1
  0
DICTIONARY
  5
5B6
102
{ACAD_REACTORS
330
3F9
102
}
330
3F9
100
AcDbDictionary
281
     1
1001
ACAD
1000
<All
  0
LAYOUT
  5
22
102
{ACAD_XDICTIONARY
360
1369
102
}
102
{ACAD_REACTORS
330
1A
102
}
330
1A
100
AcDbPlotSettings
  1

  2
\\RD\EPSON Stylus C63 Series單色
  4
A4
  6

 40
3.757083177566528
 41
3.757076978683471
 42
3.757080078125
 43
3.757080078125
 44
209.9733276367187
 45
296.9683227539062
 46
0.0
 47
0.0
 48
0.0
 49
0.0
140
0.0
141
0.0
142
1.0
143
0.3405120737814363
 70
 11952
 72
     1
 73
     0
 74
     0
  7
單色出圖.ctb
 75
     0
147
2.936753428137963
148
-2047.07469463503
149
-1261.649717473083
100
AcDbLayout
  1
Model
 70
     1
 71
     0
 10
0.0
 20
0.0
 11
12.0
 21
9.0
 12
0.0
 22
0.0
 32
0.0
 14
0.0
 24
0.0
 34
0.0
 15
0.0
 25
0.0
 35
0.0
146
0.0
 13
0.0
 23
0.0
 33
0.0
 16
1.0
 26
0.0
 36
0.0
 17
0.0
 27
1.0
 37
0.0
 76
     0
330
1F
1001
ACAD_PSEXT
1000
\\RD\EPSON Stylus C63 Series單色
1000
EPSON Stylus C63 Series
1000
\\RD
1000

1070
     0
  0
LAYOUT
  5
1E
102
{ACAD_XDICTIONARY
360
1367
102
}
102
{ACAD_REACTORS
330
1A
102
}
330
1A
100
AcDbPlotSettings
  1

  2

  4

  6

 40
0.0
 41
0.0
 42
0.0
 43
0.0
 44
0.0
 45
0.0
 46
0.0
 47
0.0
 48
0.0
 49
0.0
140
0.0
141
0.0
142
1.0
143
1.0
 70
   688
 72
     0
 73
     0
 74
     5
  7
單色出圖.ctb
 75
    16
147
1.0
148
0.0
149
0.0
100
AcDbLayout
  1
配置1
 70
     1
 71
     1
 10
0.0
 20
0.0
 11
420.0
 21
297.0
 12
0.0
 22
0.0
 32
0.0
 14
1.000000000000000E+20
 24
1.000000000000000E+20
 34
1.000000000000000E+20
 15
-1.000000000000000E+20
 25
-1.000000000000000E+20
 35
-1.000000000000000E+20
146
0.0
 13
0.0
 23
0.0
 33
0.0
 16
1.0
 26
0.0
 36
0.0
 17
0.0
 27
1.0
 37
0.0
 76
     0
330
1B
  0
LAYOUT
  5
26
102
{ACAD_XDICTIONARY
360
136B
102
}
102
{ACAD_REACTORS
330
1A
102
}
330
1A
100
AcDbPlotSettings
  1

  2

  4

  6

 40
0.0
 41
0.0
 42
0.0
 43
0.0
 44
0.0
 45
0.0
 46
0.0
 47
0.0
 48
0.0
 49
0.0
140
0.0
141
0.0
142
1.0
143
1.0
 70
   688
 72
     0
 73
     0
 74
     5
  7
單色出圖.ctb
 75
    16
147
1.0
148
0.0
149
0.0
100
AcDbLayout
  1
配置2
 70
     1
 71
     2
 10
0.0
 20
0.0
 11
12.0
 21
9.0
 12
0.0
 22
0.0
 32
0.0
 14
0.0
 24
0.0
 34
0.0
 15
0.0
 25
0.0
 35
0.0
146
0.0
 13
0.0
 23
0.0
 33
0.0
 16
1.0
 26
0.0
 36
0.0
 17
0.0
 27
1.0
 37
0.0
 76
     0
330
23
  0
MLINESTYLE
  5
18
102
{ACAD_REACTORS
330
17
102
}
330
17
100
AcDbMlineStyle
  2
STANDARD
 70
     0
  3

 62
   256
 51
90.0
 52
90.0
 71
     2
 49
0.5
 62
   256
  6
BYLAYER
 49
-0.5
 62
   256
  6
BYLAYER
  0
ACDBPLACEHOLDER
  5
F
102
{ACAD_REACTORS
330
E
102
}
330
E
  0
TABLESTYLE
  5
11B
102
{ACAD_REACTORS
330
11A
102
}
330
11A
100
AcDbTableStyle
  3
Standard
 70
     0
 71
     0
 40
1.5
 41
1.5
280
     0
281
     0
  7
STANDARD
140
4.5
170
     2
 62
     0
 63
     7
283
     0
274
    -2
284
     1
 64
     0
275
    -2
285
     1
 65
     0
276
    -2
286
     1
 66
     0
277
    -2
287
     1
 67
     0
278
    -2
288
     1
 68
     0
279
    -2
289
     1
 69
     0
  7
STANDARD
140
6.0
170
     5
 62
     0
 63
     7
283
     0
274
    -2
284
     1
 64
     0
275
    -2
285
     1
 65
     0
276
    -2
286
     1
 66
     0
277
    -2
287
     1
 67
     0
278
    -2
288
     1
 68
     0
279
    -2
289
     1
 69
     0
  7
STANDARD
140
4.5
170
     5
 62
     0
 63
     7
283
     0
274
    -2
284
     1
 64
     0
275
    -2
285
     1
 65
     0
276
    -2
286
     1
 66
     0
277
    -2
287
     1
 67
     0
278
    -2
288
     1
 68
     0
279
    -2
289
     1
 69
     0
  0
DICTIONARYVAR
  5
138
102
{ACAD_REACTORS
330
94
102
}
330
94
100
DictionaryVariables
280
     0
  1
STANDARD
  0
DICTIONARYVAR
  5
96
102
{ACAD_REACTORS
330
94
102
}
330
94
100
DictionaryVariables
280
     0
  1
2
  0
DICTIONARYVAR
  5
95
102
{ACAD_REACTORS
330
94
102
}
330
94
100
DictionaryVariables
280
     0
  1
0
  0
DICTIONARYVAR
  5
1363
102
{ACAD_REACTORS
330
94
102
}
330
94
100
DictionaryVariables
280
     0
  1

  0
DICTIONARY
  5
1B5
102
{ACAD_REACTORS
330
5B
102
}
330
5B
100
AcDbDictionary
281
     1
  0
DICTIONARY
  5
61
102
{ACAD_REACTORS
330
5B
102
}
330
5B
100
AcDbDictionary
281
     1
  0
XRECORD
  5
123
102
{ACAD_REACTORS
330
5B
102
}
330
5B
100
AcDbXrecord
280
     1
 90
-1023410169
  0
DICTIONARY
  5
1369
330
22
100
AcDbDictionary
280
     1
281
     1
  3
ACAD_XREC_ROUNDTRIP
360
136A
  0
DICTIONARY
  5
1367
330
1E
100
AcDbDictionary
280
     1
281
     1
  3
ACAD_XREC_ROUNDTRIP
360
1368
  0
DICTIONARY
  5
136B
330
26
100
AcDbDictionary
280
     1
281
     1
  3
ACAD_XREC_ROUNDTRIP
360
136C
  0
XRECORD
  5
136A
102
{ACAD_REACTORS
330
1369
102
}
330
1369
100
AcDbXrecord
280
     1
102
SHADEPLOT
 70
     0
102
SHADEPLOTRESLEVEL
 70
     2
102
SHADEPLOTCUSTOMDPI
 70
   300
  0
XRECORD
  5
1368
102
{ACAD_REACTORS
330
1367
102
}
330
1367
100
AcDbXrecord
280
     1
102
SHADEPLOT
 70
     0
102
SHADEPLOTRESLEVEL
 70
     2
102
SHADEPLOTCUSTOMDPI
 70
   300
  0
XRECORD
  5
136C
102
{ACAD_REACTORS
330
136B
102
}
330
136B
100
AcDbXrecord
280
     1
102
SHADEPLOT
 70
     0
102
SHADEPLOTRESLEVEL
 70
     2
102
SHADEPLOTCUSTOMDPI
 70
   300
  0
ENDSEC
  0
EOF
