  0
SECTION
  2
HEADER
  9
$ACADVER
  1
AC1015
  9
$ACADMAINTVER
 70
    20
  9
$DWGCODEPAGE
  3
ANSI_950
  9
$INSBASE
 10
0.0
 20
0.0
 30
0.0
  9
$EXTMIN
 10
218.7853384297916
 20
317.271611458501
 30
-0.0097559307547499
  9
$EXTMAX
 10
462.7589171287517
 20
590.7924998655435
 30
159.8582443745227
  9
$LIMMIN
 10
0.0
 20
0.0
  9
$LIMMAX
 10
420.0
 20
297.0
  9
$ORTHOMODE
 70
     1
  9
$REGENMODE
 70
     1
  9
$FILLMODE
 70
     1
  9
$QTEXTMODE
 70
     0
  9
$MIRRTEXT
 70
     1
  9
$LTSCALE
 40
3.0
  9
$ATTMODE
 70
     1
  9
$TEXTSIZE
 40
3.5
  9
$TRACEWID
 40
1.0
  9
$TEXTSTYLE
  7
STANDARD
  9
$CLAYER
  8
底
  9
$CELTYPE
  6
ByLayer
  9
$CECOLOR
 62
   256
  9
$CELTSCALE
 40
1.0
  9
$DISPSILH
 70
     0
  9
$DIMSCALE
 40
1.0
  9
$DIMASZ
 40
3.0
  9
$DIMEXO
 40
1.0
  9
$DIMDLI
 40
10.0
  9
$DIMRND
 40
0.0
  9
$DIMDLE
 40
0.0
  9
$DIMEXE
 40
1.5
  9
$DIMTP
 40
0.1
  9
$DIMTM
 40
0.1
  9
$DIMTXT
 40
3.5
  9
$DIMCEN
 40
0.0
  9
$DIMTSZ
 40
0.0
  9
$DIMTOL
 70
     0
  9
$DIMLIM
 70
     0
  9
$DIMTIH
 70
     0
  9
$DIMTOH
 70
     0
  9
$DIMSE1
 70
     0
  9
$DIMSE2
 70
     0
  9
$DIMTAD
 70
     1
  9
$DIMZIN
 70
     8
  9
$DIMBLK
  1

  9
$DIMASO
 70
     1
  9
$DIMSHO
 70
     1
  9
$DIMPOST
  1

  9
$DIMAPOST
  1
"
  9
$DIMALT
 70
     0
  9
$DIMALTD
 70
     2
  9
$DIMALTF
 40
0.0393701
  9
$DIMLFAC
 40
1.0
  9
$DIMTOFL
 70
     1
  9
$DIMTVP
 40
0.0
  9
$DIMTIX
 70
     0
  9
$DIMSOXD
 70
     0
  9
$DIMSAH
 70
     0
  9
$DIMBLK1
  1

  9
$DIMBLK2
  1

  9
$DIMSTYLE
  2
AM_ISO
  9
$DIMCLRD
 70
   256
  9
$DIMCLRE
 70
   256
  9
$DIMCLRT
 70
   256
  9
$DIMTFAC
 40
0.6
  9
$DIMGAP
 40
1.0
  9
$DIMJUST
 70
     0
  9
$DIMSD1
 70
     0
  9
$DIMSD2
 70
     0
  9
$DIMTOLJ
 70
     0
  9
$DIMTZIN
 70
     8
  9
$DIMALTZ
 70
     0
  9
$DIMALTTZ
 70
     0
  9
$DIMUPT
 70
     0
  9
$DIMDEC
 70
     2
  9
$DIMTDEC
 70
     8
  9
$DIMALTU
 70
     2
  9
$DIMALTTD
 70
     2
  9
$DIMTXSTY
  7
STANDARD
  9
$DIMAUNIT
 70
     0
  9
$DIMADEC
 70
     0
  9
$DIMALTRND
 40
0.0
  9
$DIMAZIN
 70
     2
  9
$DIMDSEP
 70
    46
  9
$DIMATFIT
 70
     3
  9
$DIMFRAC
 70
     0
  9
$DIMLDRBLK
  1

  9
$DIMLUNIT
 70
     2
  9
$DIMLWD
 70
    -1
  9
$DIMLWE
 70
    -1
  9
$DIMTMOVE
 70
     0
  9
$LUNITS
 70
     2
  9
$LUPREC
 70
     2
  9
$SKETCHINC
 40
1.0
  9
$FILLETRAD
 40
2.5
  9
$AUNITS
 70
     0
  9
$AUPREC
 70
     0
  9
$MENU
  1
.
  9
$ELEVATION
 40
0.0
  9
$PELEVATION
 40
0.0
  9
$THICKNESS
 40
0.0
  9
$LIMCHECK
 70
     0
  9
$CHAMFERA
 40
2.5
  9
$CHAMFERB
 40
2.5
  9
$CHAMFERC
 40
20.0
  9
$CHAMFERD
 40
0.0
  9
$SKPOLY
 70
     0
  9
$TDCREATE
 40
2454362.463208368
  9
$TDUCREATE
 40
2454362.129875035
  9
$TDUPDATE
 40
2454377.557194907
  9
$TDUUPDATE
 40
2454377.223861574
  9
$TDINDWG
 40
0.5144618056
  9
$TDUSRTIMER
 40
0.5144618056
  9
$USRTIMER
 70
     1
  9
$ANGBASE
 50
0.0
  9
$ANGDIR
 70
     0
  9
$PDMODE
 70
     0
  9
$PDSIZE
 40
0.0
  9
$PLINEWID
 40
0.0
  9
$SPLFRAME
 70
     0
  9
$SPLINETYPE
 70
     6
  9
$SPLINESEGS
 70
     8
  9
$HANDSEED
  5
99E6
  9
$SURFTAB1
 70
     6
  9
$SURFTAB2
 70
     6
  9
$SURFTYPE
 70
     6
  9
$SURFU
 70
     6
  9
$SURFV
 70
     6
  9
$UCSBASE
  2

  9
$UCSNAME
  2

  9
$UCSORG
 10
0.0
 20
0.0
 30
0.0
  9
$UCSXDIR
 10
1.0
 20
0.0
 30
0.0
  9
$UCSYDIR
 10
0.0
 20
1.0
 30
0.0
  9
$UCSORTHOREF
  2

  9
$UCSORTHOVIEW
 70
     0
  9
$UCSORGTOP
 10
0.0
 20
0.0
 30
0.0
  9
$UCSORGBOTTOM
 10
0.0
 20
0.0
 30
0.0
  9
$UCSORGLEFT
 10
0.0
 20
0.0
 30
0.0
  9
$UCSORGRIGHT
 10
0.0
 20
0.0
 30
0.0
  9
$UCSORGFRONT
 10
0.0
 20
0.0
 30
0.0
  9
$UCSORGBACK
 10
0.0
 20
0.0
 30
0.0
  9
$PUCSBASE
  2

  9
$PUCSNAME
  2

  9
$PUCSORG
 10
0.0
 20
0.0
 30
0.0
  9
$PUCSXDIR
 10
1.0
 20
0.0
 30
0.0
  9
$PUCSYDIR
 10
0.0
 20
1.0
 30
0.0
  9
$PUCSORTHOREF
  2

  9
$PUCSORTHOVIEW
 70
     0
  9
$PUCSORGTOP
 10
0.0
 20
0.0
 30
0.0
  9
$PUCSORGBOTTOM
 10
0.0
 20
0.0
 30
0.0
  9
$PUCSORGLEFT
 10
0.0
 20
0.0
 30
0.0
  9
$PUCSORGRIGHT
 10
0.0
 20
0.0
 30
0.0
  9
$PUCSORGFRONT
 10
0.0
 20
0.0
 30
0.0
  9
$PUCSORGBACK
 10
0.0
 20
0.0
 30
0.0
  9
$USERI1
 70
     0
  9
$USERI2
 70
     0
  9
$USERI3
 70
     0
  9
$USERI4
 70
     0
  9
$USERI5
 70
     0
  9
$USERR1
 40
0.0
  9
$USERR2
 40
0.0
  9
$USERR3
 40
0.0
  9
$USERR4
 40
0.0
  9
$USERR5
 40
0.0
  9
$WORLDVIEW
 70
     1
  9
$SHADEDGE
 70
     3
  9
$SHADEDIF
 70
    70
  9
$TILEMODE
 70
     1
  9
$MAXACTVP
 70
    64
  9
$PINSBASE
 10
0.0
 20
0.0
 30
0.0
  9
$PLIMCHECK
 70
     0
  9
$PEXTMIN
 10
1.000000000000000E+20
 20
1.000000000000000E+20
 30
1.000000000000000E+20
  9
$PEXTMAX
 10
-1.000000000000000E+20
 20
-1.000000000000000E+20
 30
-1.000000000000000E+20
  9
$PLIMMIN
 10
0.0
 20
0.0
  9
$PLIMMAX
 10
420.0
 20
297.0
  9
$UNITMODE
 70
     0
  9
$VISRETAIN
 70
     1
  9
$PLINEGEN
 70
     0
  9
$PSLTSCALE
 70
     1
  9
$TREEDEPTH
 70
  3020
  9
$CMLSTYLE
  2
Standard
  9
$CMLJUST
 70
     0
  9
$CMLSCALE
 40
20.0
  9
$PROXYGRAPHICS
 70
     1
  9
$MEASUREMENT
 70
     1
  9
$CELWEIGHT
370
    -1
  9
$ENDCAPS
280
     0
  9
$JOINSTYLE
280
     0
  9
$LWDISPLAY
290
     0
  9
$INSUNITS
 70
     4
  9
$HYPERLINKBASE
  1

  9
$STYLESHEET
  1
彩色出圖.ctb
  9
$XEDIT
290
     1
  9
$CEPSNTYPE
380
     0
  9
$PSTYLEMODE
290
     1
  9
$FINGERPRINTGUID
  2
{EA57E289-2BBF-42BB-A20C-9A5EC18F521C}
  9
$VERSIONGUID
  2
{C0FAD802-1BDE-41C0-900A-8F7C032A2FF4}
  9
$EXTNAMES
290
     1
  9
$PSVPSCALE
 40
0.0
  9
$OLESTARTUP
290
     0
  0
ENDSEC
  0
SECTION
  2
CLASSES
  0
CLASS
  1
ACDBDICTIONARYWDFLT
  2
AcDbDictionaryWithDefault
  3
ObjectDBX Classes
 90
        0
280
     0
281
     0
  0
CLASS
  1
ACDBPLACEHOLDER
  2
AcDbPlaceHolder
  3
ObjectDBX Classes
 90
        0
280
     0
281
     0
  0
CLASS
  1
LAYOUT
  2
AcDbLayout
  3
ObjectDBX Classes
 90
        0
280
     0
281
     0
  0
CLASS
  1
ACME_DOCUMENT
  2
AcMeDbDoc
  3
AcMeServices
 90
        0
280
     0
281
     0
  0
CLASS
  1
AMGSETTINGSOBJ
  2
AmgSettingsObj
  3
"AcadM|Product Description: AutoCAD Mechanical 2000|Company: Autodesk"
 90
        0
280
     0
281
     0
  0
CLASS
  1
ACMESCOPE
  2
AcMeScope
  3
AcMeServices
 90
        0
280
     0
281
     0
  0
CLASS
  1
ACMECOMMANDHISTORY
  2
AcMeCommandHistory
  3
AcMeServices
 90
        0
280
     0
281
     0
  0
CLASS
  1
ACIMSYSVARMAN
  2
AcImSysVarManager
  3
AcMeServices
 90
        0
280
     0
281
     0
  0
CLASS
  1
ACIMREALSYSVAR
  2
AcImRealSysVar
  3
AcMeServices
 90
        0
280
     0
281
     0
  0
CLASS
  1
ACIMINTSYSVAR
  2
AcImIntSysVar
  3
AcMeServices
 90
        0
280
     0
281
     0
  0
CLASS
  1
ACMEDRAWINGMAN
  2
AcMeDrawingMan
  3
AcMeServices
 90
        0
280
     0
281
     0
  0
CLASS
  1
ACMEVIEW
  2
AcMeView
  3
AcMeServices
 90
        0
280
     0
281
     0
  0
CLASS
  1
ACDBENTITYCACHE
  2
AcMeEntityCache
  3
AcMeServices
 90
        0
280
     0
281
     0
  0
CLASS
  1
GSMANAGER
  2
AcMeGSManager
  3
AcMeServices
 90
        0
280
     0
281
     0
  0
CLASS
  1
AMDTINTERNALREACTOR
  2
AmdtInternalReactor
  3
AcMeServices
 90
        0
280
     0
281
     0
  0
CLASS
  1
ACMESTATEMGR
  2
AcMeStateMgr
  3
AcMeServices
 90
        0
280
     0
281
     0
  0
CLASS
  1
ACGREFMASTER
  2
AcGrefMaster
  3
AcAttribServices
 90
        0
280
     0
281
     0
  0
CLASS
  1
ACME_DATABASE
  2
AcMeDbDatabase
  3
AcMeServices
 90
        0
280
     0
281
     0
  0
CLASS
  1
ACRFINSADJUSTERMGR
  2
AcRfInsAdjusterMgr
  3
AcMeServices
 90
        0
280
     0
281
     0
  0
CLASS
  1
ACGREFACADMASTER
  2
AcGrefacadMaster
  3
AcGrefServices
 90
        0
280
     0
281
     0
  0
CLASS
  1
AMIMASTER
  2
AmiMaster
  3
AmiServices
 90
        0
280
     0
281
     0
  0
CLASS
  1
ACMDATADICTIONARY
  2
AcmDataDictionary
  3
"AcmSymBB|Product Description: AutoCAD Mechanical 2004 DX|Company: Autodesk"
 90
        0
280
     0
281
     0
  0
CLASS
  1
ACMDATAENTRYBLOCK
  2
AcmDataEntryBlock
  3
"AcmSymBB|Product Description: AutoCAD Mechanical 2004 DX|Company: Autodesk"
 90
        0
280
     0
281
     0
  0
CLASS
  1
ACIMSTRSYSVAR
  2
AcImStrSysVar
  3
AcMeServices
 90
        0
280
     0
281
     0
  0
CLASS
  1
ACMSTANDARDISO
  2
AcmStandardISO
  3
"Amdt_StdImp|Product Description: AutoCAD Mechanical 2004 DX|Company: Autodesk"
 90
        0
280
     0
281
     0
  0
CLASS
  1
AMGOBJPROPCFG
  2
AmgObjPropCfg
  3
"AmgLay|Product Description: AutoCAD Mechanical 2000|Company: Autodesk"
 90
        1
280
     0
281
     0
  0
CLASS
  1
AMDTEDGESTANDARDISO
  2
AmdtEdgeStdISO
  3
"Amdt_StdImp|Product Description: AutoCAD Mechanical 2004 DX|Company: Autodesk"
 90
        0
280
     0
281
     0
  0
CLASS
  1
ACMSURFSTANDARDISO
  2
AcmSurfTextStdISO
  3
"Amdt_StdImp|Product Description: AutoCAD Mechanical 2004 DX|Company: Autodesk"
 90
        0
280
     0
281
     0
  0
CLASS
  1
ACMFCFSTANDARDISO
  2
AcmFCFStdISO
  3
"Amdt_StdImp|Product Description: AutoCAD Mechanical 2004 DX|Company: Autodesk"
 90
        0
280
     0
281
     0
  0
CLASS
  1
ACMWELDSTANDARDISO
  2
AcmWeldingStdISO
  3
"Amdt_StdImp|Product Description: AutoCAD Mechanical 2004 DX|Company: Autodesk"
 90
        0
280
     0
281
     0
  0
CLASS
  1
ACMIDSTANDARDISO
  2
AcmIdStdISO
  3
"Amdt_StdImp|Product Description: AutoCAD Mechanical 2004 DX|Company: Autodesk"
 90
        0
280
     0
281
     0
  0
CLASS
  1
ACMDATUMSTANDARDISO
  2
AcmDatumStdISO
  3
"Amdt_StdImp|Product Description: AutoCAD Mechanical 2004 DX|Company: Autodesk"
 90
        0
280
     0
281
     0
  0
CLASS
  1
ACMBOMSTANDARDISO
  2
AcmBOMStdISO
  3
"Amdt_StdImp|Product Description: AutoCAD Mechanical 2004 DX|Company: Autodesk"
 90
        0
280
     0
281
     0
  0
CLASS
  1
ACMDETAILSTANDARDISO
  2
AmdtDetailSymStdISO
  3
"Amdt_StdImp|Product Description: AutoCAD Mechanical 2004 DX|Company: Autodesk"
 90
        0
280
     0
281
     0
  0
CLASS
  1
ACMSECTIONSTANDARDISO
  2
AmdtSectionSymStdISO
  3
"Amdt_StdImp|Product Description: AutoCAD Mechanical 2004 DX|Company: Autodesk"
 90
        0
280
     0
281
     0
  0
CLASS
  1
ACMCENTERLINESTANDARDISO
  2
AmdtCenterLineStdISO
  3
"Amdt_StdImp|Product Description: AutoCAD Mechanical 2004 DX|Company: Autodesk"
 90
        0
280
     0
281
     0
  0
CLASS
  1
ACMNOTESTANDARDISO
  2
AmdtNoteStdISO
  3
"Amdt_StdImp|Product Description: AutoCAD Mechanical 2004 DX|Company: Autodesk"
 90
        0
280
     0
281
     0
  0
CLASS
  1
ACAMGLAYSTD
  2
AcAmgLayStd
  3
"AcAmgLayStd|Product Description: AutoCAD Mechanical 2000|Company: Autodesk"
 90
        0
280
     0
281
     0
  0
CLASS
  1
ACAMGDIMSTD
  2
AcAmgDimStd
  3
"AcAmgDimStd|Product Description: AutoCAD Mechanical 2000|Company: Autodesk"
 90
        0
280
     0
281
     0
  0
CLASS
  1
ACAMGHOLECHARTSTDISO
  2
AcAmgHoleChartStdISO
  3
ACMSYMBB_MODULE_NAME
 90
        0
280
     0
281
     0
  0
CLASS
  1
ACAMGTITLESTD
  2
AcAmgTitleStd
  3
"TITLEAPP"
 90
        0
280
     0
281
     0
  0
CLASS
  1
LAYER_INDEX
  2
AcDbLayerIndex
  3
ObjectDBX Classes
 90
    32768
280
     0
281
     0
  0
CLASS
  1
IDBUFFER
  2
AcDbIdBuffer
  3
ObjectDBX Classes
 90
    32768
280
     0
281
     0
  0
CLASS
  1
DICTIONARYVAR
  2
AcDbDictionaryVar
  3
ObjectDBX Classes
 90
        0
280
     0
281
     0
  0
CLASS
  1
AM_DRAWING_MGR
  2
AcDmDwgMgr
  3
AcMechDwgViewMgmt
 90
        0
280
     0
281
     0
  0
CLASS
  1
AM_DWG_DOCUMENT
  2
AcDmDwgDocument
  3
AcMechDwgViewMgmt
 90
        0
280
     0
281
     0
  0
CLASS
  1
AM_DWG_SHEET
  2
AcDmSheet
  3
AcMechDwgViewMgmt
 90
        0
280
     0
281
     0
  0
CLASS
  1
AM_VIEWDIMPARMAP
  2
AcDmViewDimParMap
  3
AcMechDwgViewMgmt
 90
        0
280
     0
281
     0
  0
CLASS
  1
AM_DWGMGR_NAME
  2
AcDmDwgMgrName
  3
AcMechDwgViewMgmt
 90
        0
280
     0
281
     0
  0
CLASS
  1
AMDTMENUSTATEMGR
  2
AmdtMenuStateMgr
  3
McadcomServices
 90
        0
280
     0
281
     0
  0
CLASS
  1
AMDTMCOMMENUSTATE
  2
AmdtMcomMenuState
  3
McadcomServices
 90
        0
280
     0
281
     0
  0
CLASS
  1
MAPIAMMOUDLE
  2
MApiAmModule
  3
MApiAmServices
 90
        0
280
     0
281
     0
  0
CLASS
  1
AMDTADMENUSTATE
  2
AmdtAdMenuState
  3
DesignerServices
 90
        0
280
     0
281
     0
  0
CLASS
  1
ADAPPL
  2
AcAdAppl
  3
DesignerServices
 90
        0
280
     0
281
     0
  0
CLASS
  1
DEPMGR
  2
AcAdDepMgr
  3
DesignerServices
 90
        0
280
     0
281
     0
  0
CLASS
  1
PARAMMGR
  2
AcAdParamMgr
  3
DesignerServices
 90
        0
280
     0
281
     0
  0
CLASS
  1
PARAMSCOPE
  2
AcAdParamScope
  3
DesignerServices
 90
        0
280
     0
281
     0
  0
CLASS
  1
NAMEDAPPL
  2
AcAdNamedAppl
  3
DesignerServices
 90
        0
280
     0
281
     0
  0
CLASS
  1
AMDTDMMENUSTATE
  2
AmdtDmMenuState
  3
AcMechDwgViewMgmt
 90
        0
280
     0
281
     0
  0
CLASS
  1
AMDTAMMENUSTATE
  2
AmdtAmMenuState
  3
DesignerAssemblies
 90
        0
280
     0
281
     0
  0
CLASS
  1
ACAMPROJECT
  2
AcAmProject
  3
DesignerAssemblies
 90
        0
280
     0
281
     0
  0
CLASS
  1
ACAMGRCOMPDEF
  2
AcAmGrCompDef
  3
DesignerAssemblies
 90
        0
280
     0
281
     0
  0
CLASS
  1
ACCMCONTEXT
  2
AcCmContext
  3
DesignerAssemblies
 90
        0
280
     0
281
     0
  0
CLASS
  1
ACAMCOMPDEF
  2
AcAmCompDef
  3
DesignerAssemblies
 90
        0
280
     0
281
     0
  0
CLASS
  1
ACAMCOMPDEFMGR
  2
AcAmCompDefMgr
  3
DesignerAssemblies
 90
        0
280
     0
281
     0
  0
CLASS
  1
AMCONTEXTMGR
  2
AcAmContextMgr
  3
DesignerAssemblies
 90
        0
280
     0
281
     0
  0
CLASS
  1
ACAMCONTEXTMODELER
  2
AcAmContextModeler
  3
DesignerAssemblies
 90
        0
280
     0
281
     0
  0
CLASS
  1
ACMTHREADLINESTANDARDISO
  2
AmdtThreadLineStdISO
  3
"Amdt_StdImp|Product Description: AutoCAD Mechanical 2004 DX|Company: Autodesk"
 90
        0
280
     0
281
     0
  0
CLASS
  1
CATALOGSTATE
  2
AcAmCatalogState
  3
DesignerAssemblies
 90
        0
280
     0
281
     0
  0
CLASS
  1
ACAMGRCOMPDEFSET
  2
AcAmGrCompDefSet
  3
DesignerAssemblies
 90
        0
280
     0
281
     0
  0
CLASS
  1
AMDTBROWSERDBTAB
  2
AmdtBrowserDbTab
  3
McadcomServices
 90
        0
280
     0
281
     0
  0
CLASS
  1
CBROWSERAPPOBJECT
  2
CBrowserAppObject
  3
McadcomServices
 90
        0
280
     0
281
     0
  0
CLASS
  1
DM_PLACEHOLDER
  2
AcDmSelsetPlaceholder
  3
AcMechDwgViewMgmt
 90
        0
280
     0
281
     0
  0
CLASS
  1
TABLESTYLE
  2
AcDbTableStyle
  3
ObjectDBX Classes
 90
     2047
280
     0
281
     0
  0
CLASS
  1
VAACXREFPANELOBJECT
  2
VaAcXREFPanelObject
  3
VAAC_ADDIN
 90
    32768
280
     0
281
     0
  0
CLASS
  1
VAACIMAGEINVENTORY
  2
VaAcImageInventory
  3
VAAC_ADDIN
 90
    32768
280
     0
281
     0
  0
CLASS
  1
AMDTNOTETEMPLATEDB
  2
AmdtNoteTemplateDB
  3
AMDT_STDIMP_MODULE_NAME
 90
        0
280
     0
281
     0
  0
CLASS
  1
ACMBOM
  2
AcmBom
  3
"AcmSymBB|Product Description: AutoCAD Mechanical 2004 DX|Company: Autodesk"
 90
    32768
280
     0
281
     0
  0
CLASS
  1
AMDTFORMULAUPDATEDISPATCHER
  2
AmdtFormulaUpdateDispatcher
  3
AcMeServices
 90
    32768
280
     0
281
     0
  0
CLASS
  1
ACMPARTLIST
  2
AcmPartList
  3
"AcmSymBB|Product Description: AutoCAD Mechanical 2004 DX|Company: Autodesk"
 90
    33791
280
     0
281
     1
  0
CLASS
  1
ACAMGFILTERDAT
  2
AcAmgFilterDat
  3
"AcadM|Product Description: AutoCAD Mechanical 2000|Company: Autodesk"
 90
        0
280
     0
281
     0
  0
CLASS
  1
DIMASSOC
  2
AcDbDimAssoc
  3
"AcDbDimAssoc|Product Desc:     AcDim ARX App For Dimension|Company:          Autodesk, Inc.|WEB Address:      www.autodesk.com"
 90
    32768
280
     0
281
     0
  0
CLASS
  1
SORTENTSTABLE
  2
AcDbSortentsTable
  3
ObjectDBX Classes
 90
        0
280
     0
281
     0
  0
CLASS
  1
STDPART2D
  2
AmgStdPart
  3
"AmgStdPart|Product Description: AutoCAD Mechanical 2000|Company: Autodesk"
 90
    33791
280
     0
281
     1
  0
CLASS
  1
ACAMSTDPCOMPDEF
  2
AcAmStdpCompDef
  3
DesignerAssemblies
 90
    32768
280
     0
281
     0
  0
CLASS
  1
ACRFATTGENMGR
  2
AcRfAttGeneralMgr
  3
AcAttribServices
 90
        0
280
     0
281
     0
  0
CLASS
  1
ACRFOBJATTMGR
  2
AcRfObjAttGroupMgr
  3
AcAttribServices
 90
    32768
280
     0
281
     0
  0
CLASS
  1
ACRFMCADAPIATTHOLDER
  2
AcRfMCADAPIAttHolder
  3
AcAttribServices
 90
    32768
280
     0
281
     0
  0
CLASS
  1
AMDTSYSATTR
  2
AmdtSystemAttribute
  3
AcAttribServices
 90
    32768
280
     0
281
     0
  0
CLASS
  1
ACAMCOMP
  2
AcAmComp
  3
DesignerAssemblies
 90
    32768
280
     0
281
     0
  0
CLASS
  1
AC_AM_STDP_VIEW_DEF
  2
AcAmStdpViewDef
  3
DesignerAssemblies
 90
    32768
280
     0
281
     0
  0
CLASS
  1
AC_AM_MVD_DEP_MGR
  2
AcAmMVDdepMgr
  3
DesignerAssemblies
 90
        0
280
     0
281
     0
  0
CLASS
  1
AC_AM_MASTER_VIEW_DEF
  2
AcAmMasterViewDef
  3
DesignerAssemblies
 90
        0
280
     0
281
     0
  0
CLASS
  1
AC_AM_DIRTY_NODES
  2
AcAmDirtyNodes
  3
DesignerAssemblies
 90
        0
280
     0
281
     0
  0
CLASS
  1
AC_AM_MAPPER_CACHE
  2
AcAmMapperCache
  3
DesignerAssemblies
 90
        0
280
     0
281
     0
  0
CLASS
  1
ACAMMVDBACKUPOBJECT
  2
AcAmMVDBackupObject
  3
DesignerAssemblies
 90
        0
280
     0
281
     0
  0
CLASS
  1
AC_AM_COMP_VIEW_INST
  2
AcAmCompView
  3
DesignerAssemblies
 90
    32768
280
     0
281
     0
  0
CLASS
  1
AC_AM_2D_XREF_MGR
  2
AcAmXrefMgr2d
  3
DesignerAssemblies
 90
        0
280
     0
281
     0
  0
CLASS
  1
AMDTNOTE
  2
AmdtNote
  3
"AcmSymBB|Product Description: AutoCAD Mechanical 2004 DX|Company: Autodesk"
 90
     1023
280
     0
281
     1
  0
ENDSEC
  0
SECTION
  2
TABLES
  0
TABLE
  2
VPORT
  5
8
330
0
100
AcDbSymbolTable
 70
     3
  0
VPORT
  5
99DD
330
8
100
AcDbSymbolTableRecord
100
AcDbViewportTableRecord
  2
*Active
 70
     0
 10
0.0
 20
0.0
 11
1.0
 21
1.0
 12
340.7652568017336
 22
454.0200447768199
 13
0.0
 23
0.0
 14
2.5
 24
2.5
 15
10.0
 25
10.0
 16
0.0
 26
0.0
 36
1.0
 17
0.0
 27
0.0
 37
0.0
 40
275.8842201505355
 41
1.421195652173913
 42
50.0
 43
0.0
 44
0.0
 50
0.0
 51
0.0
 71
     0
 72
   100
 73
     1
 74
     3
 75
     0
 76
     0
 77
     0
 78
     0
281
     0
 65
     1
110
0.0
120
0.0
130
0.0
111
1.0
121
0.0
131
0.0
112
0.0
122
1.0
132
0.0
 79
     0
146
0.0
  0
ENDTAB
  0
TABLE
  2
LTYPE
  5
5
330
0
100
AcDbSymbolTable
 70
    14
  0
LTYPE
  5
14
330
5
100
AcDbSymbolTableRecord
100
AcDbLinetypeTableRecord
  2
ByBlock
 70
     0
  3

 72
    65
 73
     0
 40
0.0
  0
LTYPE
  5
15
330
5
100
AcDbSymbolTableRecord
100
AcDbLinetypeTableRecord
  2
ByLayer
 70
     0
  3

 72
    65
 73
     0
 40
0.0
  0
LTYPE
  5
16
330
5
100
AcDbSymbolTableRecord
100
AcDbLinetypeTableRecord
  2
Continuous
 70
     0
  3
Solid line
 72
    65
 73
     0
 40
0.0
  0
LTYPE
  5
64
330
5
100
AcDbSymbolTableRecord
100
AcDbLinetypeTableRecord
  2
AM_ISO02W050
 70
     0
  3
__ __ __ __ __ __ __ __ __ __ __ __ __ __ __
 72
    65
 73
     2
 40
7.5
 49
6.0
 74
     0
 49
-1.5
 74
     0
  0
LTYPE
  5
65
330
5
100
AcDbSymbolTableRecord
100
AcDbLinetypeTableRecord
  2
AM_ISO08W050
 70
     0
  3
____ . ____ . ____ . ____ . ____ . ____ . ____
 72
    65
 73
     4
 40
18.0
 49
12.0
 74
     0
 49
-1.5
 74
     0
 49
3.0
 74
     0
 49
-1.5
 74
     0
  0
LTYPE
  5
66
330
5
100
AcDbSymbolTableRecord
100
AcDbLinetypeTableRecord
  2
AM_ISO09W050
 70
     0
  3
_____ . . _____ . . _____ . . ____ .. ____
 72
    65
 73
     6
 40
22.5
 49
12.0
 74
     0
 49
-1.5
 74
     0
 49
3.0
 74
     0
 49
-1.5
 74
     0
 49
3.0
 74
     0
 49
-1.5
 74
     0
  0
LTYPE
  5
67
330
5
100
AcDbSymbolTableRecord
100
AcDbLinetypeTableRecord
  2
Amconstr
 70
     0
  3
_______________________
 72
    65
 73
     2
 40
9999.0
 49
9999.0
 74
     0
 49
0.0
 74
     0
  0
LTYPE
  5
68
330
5
100
AcDbSymbolTableRecord
100
AcDbLinetypeTableRecord
  2
AM_ISO08W050x2
 70
     0
  3
__ . __ . __ . __ . __ . __
 72
    65
 73
     4
 40
9.0
 49
6.0
 74
     0
 49
-0.75
 74
     0
 49
1.5
 74
     0
 49
-0.75
 74
     0
  0
LTYPE
  5
69
330
5
100
AcDbSymbolTableRecord
100
AcDbLinetypeTableRecord
  2
AM_ISO02W050x2
 70
     0
  3
 _ _ _ _ _ _ _ _ _ _ _ _
 72
    65
 73
     2
 40
3.75
 49
3.0
 74
     0
 49
-0.75
 74
     0
  0
LTYPE
  5
6C
330
5
100
AcDbSymbolTableRecord
100
AcDbLinetypeTableRecord
  2
Amzigzag
 70
     0
  3
/\/-/\/-/\/-/\/-/\/-/\/
 72
    65
 73
     2
 40
11.0001
 49
0.0001
 74
     4
 75
   135
340
6B
 46
0.04
 50
0.0
 44
0.0
 45
0.0
 49
-11.0
 74
     0
  0
LTYPE
  5
7A
330
5
100
AcDbSymbolTableRecord
100
AcDbLinetypeTableRecord
  2
ACISOWELD
 70
     0
  3
_ _ _ _ _
 72
    65
 73
     2
 40
2.0
 49
2.0
 74
     0
 49
-1.0
 74
     0
  0
LTYPE
  5
7B
330
5
100
AcDbSymbolTableRecord
100
AcDbLinetypeTableRecord
  2
ACISOTGB
 70
     0
  3
__ . . __ . .
 72
    65
 73
     6
 40
9.0
 49
4.0
 74
     0
 49
-1.0
 74
     0
 49
1.0
 74
     0
 49
-1.0
 74
     0
 49
1.0
 74
     0
 49
-1.0
 74
     0
  0
LTYPE
  5
7C
330
5
100
AcDbSymbolTableRecord
100
AcDbLinetypeTableRecord
  2
ACISOTGL
 70
     0
  3
_ _ _ _ _
 72
    65
 73
     2
 40
3.0
 49
2.0
 74
     0
 49
-1.0
 74
     0
  0
LTYPE
  5
7E
330
5
100
AcDbSymbolTableRecord
100
AcDbLinetypeTableRecord
  2
CENTER
 70
     0
  3
__ . __
 72
    65
 73
     4
 40
7.0
 49
4.0
 74
     0
 49
-1.0
 74
     0
 49
1.0
 74
     0
 49
-1.0
 74
     0
  0
LTYPE
  5
D8
330
5
100
AcDbSymbolTableRecord
100
AcDbLinetypeTableRecord
  2
HIDDEN
 70
     0
  3
Hidden __ __ __ __ __ __ __ __ __ __ __ __ __ _
 72
    65
 73
     2
 40
9.524999999999998
 49
6.349999999999999
 74
     0
 49
-3.174999999999999
 74
     0
  0
LTYPE
  5
D9
330
5
100
AcDbSymbolTableRecord
100
AcDbLinetypeTableRecord
  2
PHANTOM2
 70
     0
  3
Phantom (.5x) ___ _ _ ___ _ _ ___ _ _ ___ _ _
 72
    65
 73
     6
 40
31.75
 49
15.875
 74
     0
 49
-3.174999999999999
 74
     0
 49
3.174999999999999
 74
     0
 49
-3.174999999999999
 74
     0
 49
3.174999999999999
 74
     0
 49
-3.174999999999999
 74
     0
  0
ENDTAB
  0
TABLE
  2
LAYER
  5
2
102
{ACAD_XDICTIONARY
360
3F9
102
}
330
0
100
AcDbSymbolTable
 70
     8
  0
LAYER
  5
10
330
2
100
AcDbSymbolTableRecord
100
AcDbLayerTableRecord
  2
0
 70
     0
 62
     7
  6
Continuous
370
    -3
390
F
  0
LAYER
  5
AAC
330
2
100
AcDbSymbolTableRecord
100
AcDbLayerTableRecord
  2
AM_VIS
 70
     0
 62
     7
  6
Continuous
370
    50
390
F
  0
LAYER
  5
1898
330
2
100
AcDbSymbolTableRecord
100
AcDbLayerTableRecord
  2
Defpoints
 70
     0
 62
     7
  6
Continuous
290
     0
370
    -3
390
F
  0
LAYER
  5
1899
330
2
100
AcDbSymbolTableRecord
100
AcDbLayerTableRecord
  2
AM_7
 70
     0
 62
     1
  6
CENTER
370
    25
390
F
  0
LAYER
  5
1ECC
330
2
100
AcDbSymbolTableRecord
100
AcDbLayerTableRecord
  2
AM_5
 70
     0
 62
     5
  6
Continuous
370
    50
390
F
  0
LAYER
  5
53A9
330
2
100
AcDbSymbolTableRecord
100
AcDbLayerTableRecord
  2
底
 70
     0
 62
     6
  6
Continuous
370
    -3
390
F
1001
AcAecLayerStandard
1000

1000

  0
LAYER
  5
54DC
330
2
100
AcDbSymbolTableRecord
100
AcDbLayerTableRecord
  2
AM_4
 70
     0
 62
     3
  6
Continuous
370
    25
390
F
  0
LAYER
  5
982A
330
2
100
AcDbSymbolTableRecord
100
AcDbLayerTableRecord
  2
LOGO
 70
     0
 62
     7
  6
Continuous
370
    -3
390
F
  0
ENDTAB
  0
TABLE
  2
STYLE
  5
3
330
0
100
AcDbSymbolTable
 70
     6
  0
STYLE
  5
11
330
3
100
AcDbSymbolTableRecord
100
AcDbTextStyleTableRecord
  2
STANDARD
 70
     0
 40
0.0
 41
1.0
 50
0.0
 71
     0
 42
3.5
  3
ISOCP.SHX
  4
CHINESET.SHX
  0
STYLE
  5
6B
330
3
100
AcDbSymbolTableRecord
100
AcDbTextStyleTableRecord
  2

 70
     1
 40
0.0
 41
1.0
 50
0.0
 71
     0
 42
2.5
  3
ltypeshp.shx
  4

  0
STYLE
  5
6D
330
3
100
AcDbSymbolTableRecord
100
AcDbTextStyleTableRecord
  2
ACISOTS
 70
     0
 40
1.0
 41
1.0
 50
0.0
 71
     0
 42
1.0
  3
isocp.shx
  4
chineset.shx
  0
STYLE
  5
79
330
3
100
AcDbSymbolTableRecord
100
AcDbTextStyleTableRecord
  2
ACISOGDT
 70
     0
 40
0.0
 41
1.0
 50
0.0
 71
     0
 42
2.5
  3
amgdt.shx
  4
chineset.shx
  0
STYLE
  5
982B
330
3
100
AcDbSymbolTableRecord
100
AcDbTextStyleTableRecord
  2
CHINESET
 70
     0
 40
0.0
 41
1.0
 50
0.0
 71
     0
 42
3.0
  3
simplex.shx
  4
CHINESET.SHX
  0
ENDTAB
  0
TABLE
  2
VIEW
  5
6
330
0
100
AcDbSymbolTable
 70
     0
  0
ENDTAB
  0
TABLE
  2
UCS
  5
7
330
0
100
AcDbSymbolTable
 70
     0
  0
ENDTAB
  0
TABLE
  2
APPID
  5
9
330
0
100
AcDbSymbolTable
 70
    30
  0
APPID
  5
12
330
9
100
AcDbSymbolTableRecord
100
AcDbRegAppTableRecord
  2
ACAD
 70
     0
  0
APPID
  5
46
330
9
100
AcDbSymbolTableRecord
100
AcDbRegAppTableRecord
  2
MCAD_NO_VIS
 70
     0
  0
APPID
  5
47
330
9
100
AcDbSymbolTableRecord
100
AcDbRegAppTableRecord
  2
ACAD_TEMP_GRAPHIC
 70
     0
  0
APPID
  5
58
330
9
100
AcDbSymbolTableRecord
100
AcDbRegAppTableRecord
  2
ACATTRIBSERVICES
 70
     0
  0
APPID
  5
EE
330
9
100
AcDbSymbolTableRecord
100
AcDbRegAppTableRecord
  2
AD_DRAW
 70
     0
  0
APPID
  5
10C
330
9
100
AcDbSymbolTableRecord
100
AcDbRegAppTableRecord
  2
DESIGNERASSEMBLIES
 70
     0
  0
APPID
  5
111
330
9
100
AcDbSymbolTableRecord
100
AcDbRegAppTableRecord
  2
ACADM_DIM_EDIT
 70
     0
  0
APPID
  5
112
330
9
100
AcDbSymbolTableRecord
100
AcDbRegAppTableRecord
  2
AMDT_DM_ADJ
 70
     0
  0
APPID
  5
22C
330
9
100
AcDbSymbolTableRecord
100
AcDbRegAppTableRecord
  2
ACAD_DSTYLE_DIMTEXT_FILL
 70
     0
  0
APPID
  5
452
330
9
100
AcDbSymbolTableRecord
100
AcDbRegAppTableRecord
  2
GENIUS_GENOENT_13
 70
     0
  0
APPID
  5
453
330
9
100
AcDbSymbolTableRecord
100
AcDbRegAppTableRecord
  2
GENIUS_GENOBJ-N-CRS_13
 70
     0
  0
APPID
  5
454
330
9
100
AcDbSymbolTableRecord
100
AcDbRegAppTableRecord
  2
GENIUS_GENOLIS_13
 70
     0
  0
APPID
  5
455
330
9
100
AcDbSymbolTableRecord
100
AcDbRegAppTableRecord
  2
GENIUS_GENODEF_13
 70
     0
  0
APPID
  5
456
330
9
100
AcDbSymbolTableRecord
100
AcDbRegAppTableRecord
  2
GENIUS_GENOREF_13
 70
     0
  0
APPID
  5
6F3
330
9
100
AcDbSymbolTableRecord
100
AcDbRegAppTableRecord
  2
ACAD_PSEXT
 70
     0
  0
APPID
  5
808
330
9
100
AcDbSymbolTableRecord
100
AcDbRegAppTableRecord
  2
GENIUS_GENDTOL_13
 70
     0
  0
APPID
  5
2D22
330
9
100
AcDbSymbolTableRecord
100
AcDbRegAppTableRecord
  2
GEVID1190101457
 70
     0
  0
APPID
  5
2D23
330
9
100
AcDbSymbolTableRecord
100
AcDbRegAppTableRecord
  2
GEVDC
 70
     0
  0
APPID
  5
2D3B
330
9
100
AcDbSymbolTableRecord
100
AcDbRegAppTableRecord
  2
AMG_2DHIDE
 70
     0
  0
APPID
  5
2D3C
330
9
100
AcDbSymbolTableRecord
100
AcDbRegAppTableRecord
  2
AMG_2DSTRUCT_BTR
 70
     0
  0
APPID
  5
2D4D
330
9
100
AcDbSymbolTableRecord
100
AcDbRegAppTableRecord
  2
ACADM_2DVIEW_IGN_NOTIFY
 70
     0
  0
APPID
  5
2D9C
330
9
100
AcDbSymbolTableRecord
100
AcDbRegAppTableRecord
  2
GEVID1190101458
 70
     0
  0
APPID
  5
2D9D
330
9
100
AcDbSymbolTableRecord
100
AcDbRegAppTableRecord
  2
GEVRADREF
 70
     0
  0
APPID
  5
3588
330
9
100
AcDbSymbolTableRecord
100
AcDbRegAppTableRecord
  2
GENIUS_GENOBJ-N-HTC_13
 70
     0
  0
APPID
  5
3589
330
9
100
AcDbSymbolTableRecord
100
AcDbRegAppTableRecord
  2
GENIUS_GENHATCH_13
 70
     0
  0
APPID
  5
3DC1
330
9
100
AcDbSymbolTableRecord
100
AcDbRegAppTableRecord
  2
GENIUS_GENOBJ-N-CEN_13
 70
     0
  0
APPID
  5
3DC2
330
9
100
AcDbSymbolTableRecord
100
AcDbRegAppTableRecord
  2
GENIUS_GENCEN_19
 70
     0
  0
APPID
  5
4F0C
330
9
100
AcDbSymbolTableRecord
100
AcDbRegAppTableRecord
  2
GENIUS_GENREC_14
 70
     0
  0
APPID
  5
4F0D
330
9
100
AcDbSymbolTableRecord
100
AcDbRegAppTableRecord
  2
GENIUS_GENOBJ-N-REC_13
 70
     0
  0
APPID
  5
53AA
330
9
100
AcDbSymbolTableRecord
100
AcDbRegAppTableRecord
  2
AcAecLayerStandard
 70
     0
  0
ENDTAB
  0
TABLE
  2
DIMSTYLE
  5
A
330
0
100
AcDbSymbolTable
 70
     9
100
AcDbDimStyleTable
 71
     3
340
81
340
8B
340
86
  0
DIMSTYLE
105
81
330
A
100
AcDbSymbolTableRecord
100
AcDbDimStyleTableRecord
  2
AM_ISO
 70
     0
  4
"
 41
3.0
 42
1.0
 43
10.0
 44
1.5
 47
0.1
 48
0.1
 73
     0
 74
     0
 77
     1
 78
     8
 79
     2
140
3.5
141
0.0
143
0.0393701
146
0.6
147
1.0
172
     1
176
   256
177
   256
178
   256
271
     2
272
     2
283
     0
284
     8
340
11
371
    -1
372
    -1
  0
DIMSTYLE
105
82
330
A
100
AcDbSymbolTableRecord
100
AcDbDimStyleTableRecord
  2
AM_ISO$3
 70
     0
  4
"
 41
3.0
 42
1.0
 43
10.0
 44
1.5
 47
0.1
 48
0.1
 73
     0
 77
     1
 78
     8
 79
     2
140
3.5
141
0.0
143
0.0393701
146
0.6
147
1.0
176
   256
177
   256
178
   256
271
     2
272
     2
283
     0
284
     8
288
     1
289
     0
340
11
371
    -1
372
    -1
  0
DIMSTYLE
105
83
330
A
100
AcDbSymbolTableRecord
100
AcDbDimStyleTableRecord
  2
AM_ISO$4
 70
     0
  4
"
 41
3.0
 42
1.0
 43
10.0
 44
1.5
 47
0.1
 48
0.1
 73
     0
 77
     1
 78
     8
 79
     2
140
3.5
141
0.0
143
0.0393701
146
0.6
147
1.0
176
   256
177
   256
178
   256
271
     2
272
     2
283
     0
284
     8
288
     1
289
     0
340
11
371
    -1
372
    -1
  0
DIMSTYLE
105
84
330
A
100
AcDbSymbolTableRecord
100
AcDbDimStyleTableRecord
  2
AM_ISO$6
 70
     0
  4
"
 41
3.0
 42
1.0
 43
10.0
 44
1.5
 47
0.1
 48
0.1
 73
     0
 74
     0
 78
     8
 79
     2
140
3.5
141
0.0
143
0.0393701
146
0.6
147
1.0
172
     1
176
   256
177
   256
178
   256
271
     2
272
     2
283
     0
284
     8
340
11
371
    -1
372
    -1
  0
DIMSTYLE
105
85
330
A
100
AcDbSymbolTableRecord
100
AcDbDimStyleTableRecord
  2
AM_ISO$7
 70
     0
  4
"
 41
3.0
 42
1.0
 43
10.0
 44
1.5
 47
0.1
 48
0.1
 73
     0
 74
     0
 77
     1
 78
     8
 79
     2
140
5.0
141
0.0
143
0.0393701
146
0.6
147
1.0
172
     1
176
   256
177
   256
178
   256
271
     2
272
     2
283
     0
284
     8
340
11
371
    -1
372
    -1
  0
DIMSTYLE
105
86
330
A
100
AcDbSymbolTableRecord
100
AcDbDimStyleTableRecord
  2
AM_ISO$SF
 70
     0
  4
"
 41
2.5
 42
1.0
 43
10.0
 44
1.0
 47
0.1
 48
0.1
 73
     0
 74
     0
 75
     1
 76
     1
 77
     1
 78
     8
 79
     2
140
3.5
141
0.0
143
0.0393701
146
0.71
147
1.5
172
     1
176
   256
177
   256
178
     2
271
     2
272
     3
274
     4
283
     0
284
     8
340
11
371
    -1
372
    -1
  0
DIMSTYLE
105
8B
330
A
100
AcDbSymbolTableRecord
100
AcDbDimStyleTableRecord
  2
AM_ISO$SH
 70
     0
  4
"
 41
2.5
 42
1.0
 43
10.0
 44
1.0
 47
0.1
 48
0.1
 73
     0
 74
     0
 75
     1
 76
     1
 77
     1
 78
     8
 79
     2
140
3.5
141
0.0
143
0.0393701
144
2.0
146
0.71
147
1.5
172
     1
173
     1
176
   256
177
   256
178
     2
271
     2
272
     3
274
     4
283
     0
284
     8
340
11
343
87
371
    -1
372
    -1
  0
DIMSTYLE
105
40B
102
{ACAD_REACTORS
330
3E60
330
3E5D
330
3E6F
330
3E6C
330
3E69
330
3E66
330
3E7B
330
3E78
330
3E57
330
3E54
330
3E51
330
3E4E
330
3E5A
330
3E63
330
67B5
330
6961
330
6B64
102
}
330
A
100
AcDbSymbolTableRecord
100
AcDbDimStyleTableRecord
  2
AM_ISO$0
 70
     0
  4
"
 41
3.0
 42
1.0
 43
10.0
 44
1.5
 47
0.1
 48
0.1
 73
     0
 74
     0
 77
     1
 78
     8
 79
     2
140
3.5
141
0.0
143
0.0393701
146
0.6
147
1.0
172
     1
176
   256
177
   256
178
   256
271
     2
272
     2
283
     0
284
     8
340
11
371
    -1
372
    -1
  0
ENDTAB
  0
TABLE
  2
BLOCK_RECORD
  5
1
330
0
100
AcDbSymbolTable
 70
    28
  0
BLOCK_RECORD
  5
1F
102
{ACAD_XDICTIONARY
360
8F
102
}
330
1
100
AcDbSymbolTableRecord
100
AcDbBlockTableRecord
  2
*Model_Space
340
22
  0
BLOCK_RECORD
  5
1B
330
1
100
AcDbSymbolTableRecord
100
AcDbBlockTableRecord
  2
*Paper_Space
340
1E
  0
BLOCK_RECORD
  5
23
330
1
100
AcDbSymbolTableRecord
100
AcDbBlockTableRecord
  2
*Paper_Space0
340
26
  0
BLOCK_RECORD
  5
87
330
1
100
AcDbSymbolTableRecord
100
AcDbBlockTableRecord
  2
GENAXEH
340
0
  0
BLOCK_RECORD
  5
2D50
330
1
100
AcDbSymbolTableRecord
100
AcDbBlockTableRecord
  2
*U4
340
0
  0
BLOCK_RECORD
  5
3E92
330
1
100
AcDbSymbolTableRecord
100
AcDbBlockTableRecord
  2
*D5
340
0
  0
BLOCK_RECORD
  5
3E9E
330
1
100
AcDbSymbolTableRecord
100
AcDbBlockTableRecord
  2
*D6
340
0
  0
BLOCK_RECORD
  5
3EAA
330
1
100
AcDbSymbolTableRecord
100
AcDbBlockTableRecord
  2
*D7
340
0
  0
BLOCK_RECORD
  5
3EB6
330
1
100
AcDbSymbolTableRecord
100
AcDbBlockTableRecord
  2
*D8
340
0
  0
BLOCK_RECORD
  5
3EC2
330
1
100
AcDbSymbolTableRecord
100
AcDbBlockTableRecord
  2
*D9
340
0
  0
BLOCK_RECORD
  5
3ED0
330
1
100
AcDbSymbolTableRecord
100
AcDbBlockTableRecord
  2
*D10
340
0
  0
BLOCK_RECORD
  5
3EDC
330
1
100
AcDbSymbolTableRecord
100
AcDbBlockTableRecord
  2
*D11
340
0
  0
BLOCK_RECORD
  5
3EE8
330
1
100
AcDbSymbolTableRecord
100
AcDbBlockTableRecord
  2
*D12
340
0
  0
BLOCK_RECORD
  5
3EF6
330
1
100
AcDbSymbolTableRecord
100
AcDbBlockTableRecord
  2
*D13
340
0
  0
BLOCK_RECORD
  5
3F02
330
1
100
AcDbSymbolTableRecord
100
AcDbBlockTableRecord
  2
*D14
340
0
  0
BLOCK_RECORD
  5
3F0E
330
1
100
AcDbSymbolTableRecord
100
AcDbBlockTableRecord
  2
*D15
340
0
  0
BLOCK_RECORD
  5
3F1A
330
1
100
AcDbSymbolTableRecord
100
AcDbBlockTableRecord
  2
*D16
340
0
  0
BLOCK_RECORD
  5
3F3E
330
1
100
AcDbSymbolTableRecord
100
AcDbBlockTableRecord
  2
*D17
340
0
  0
BLOCK_RECORD
  5
3F4A
330
1
100
AcDbSymbolTableRecord
100
AcDbBlockTableRecord
  2
*D18
340
0
  0
BLOCK_RECORD
  5
67B8
330
1
100
AcDbSymbolTableRecord
100
AcDbBlockTableRecord
  2
*D19
340
0
  0
BLOCK_RECORD
  5
6962
330
1
100
AcDbSymbolTableRecord
100
AcDbBlockTableRecord
  2
*D20
340
0
  0
BLOCK_RECORD
  5
6B67
330
1
100
AcDbSymbolTableRecord
100
AcDbBlockTableRecord
  2
*D21
340
0
  0
BLOCK_RECORD
  5
99B3
330
1
100
AcDbSymbolTableRecord
100
AcDbBlockTableRecord
  2
*S23
340
0
  0
BLOCK_RECORD
  5
99BB
330
1
100
AcDbSymbolTableRecord
100
AcDbBlockTableRecord
  2
*S24
340
0
  0
BLOCK_RECORD
  5
99C3
330
1
100
AcDbSymbolTableRecord
100
AcDbBlockTableRecord
  2
*S25
340
0
  0
BLOCK_RECORD
  5
99CB
330
1
100
AcDbSymbolTableRecord
100
AcDbBlockTableRecord
  2
*S26
340
0
  0
BLOCK_RECORD
  5
99D3
330
1
100
AcDbSymbolTableRecord
100
AcDbBlockTableRecord
  2
*S27
340
0
  0
ENDTAB
  0
ENDSEC
  0
SECTION
  2
BLOCKS
  0
BLOCK
  5
20
330
1F
100
AcDbEntity
  8
0
100
AcDbBlockBegin
  2
*Model_Space
 70
     0
 10
0.0
 20
0.0
 30
0.0
  3
*Model_Space
  1

  0
ENDBLK
  5
21
330
1F
100
AcDbEntity
  8
0
100
AcDbBlockEnd
  0
BLOCK
  5
1C
330
1B
100
AcDbEntity
 67
     1
  8
0
100
AcDbBlockBegin
  2
*Paper_Space
 70
     0
 10
0.0
 20
0.0
 30
0.0
  3
*Paper_Space
  1

  0
ENDBLK
  5
1D
330
1B
100
AcDbEntity
 67
     1
  8
0
100
AcDbBlockEnd
  0
BLOCK
  5
24
330
23
100
AcDbEntity
  8
0
100
AcDbBlockBegin
  2
*Paper_Space0
 70
     0
 10
0.0
 20
0.0
 30
0.0
  3
*Paper_Space0
  1

  0
ENDBLK
  5
25
330
23
100
AcDbEntity
  8
0
100
AcDbBlockEnd
  0
BLOCK
  5
89
330
87
100
AcDbEntity
  8
0
100
AcDbBlockBegin
  2
GENAXEH
 70
     0
 10
0.0
 20
0.0
 30
0.0
  3
GENAXEH
  1

  0
LINE
  5
88
330
87
100
AcDbEntity
  8
0
100
AcDbLine
 10
-1.0
 20
0.0
 30
0.0
 11
1.0
 21
0.0
 31
0.0
  0
ENDBLK
  5
8A
330
87
100
AcDbEntity
  8
0
100
AcDbBlockEnd
  0
BLOCK
  5
2D51
330
2D50
100
AcDbEntity
  8
0
100
AcDbBlockBegin
  2
*U4
 70
     1
 10
0.0
 20
0.0
 30
0.0
  3
*U4
  1

  0
ENDBLK
  5
2D52
330
2D50
100
AcDbEntity
  8
0
100
AcDbBlockEnd
  0
BLOCK
  5
3E9C
330
3E92
100
AcDbEntity
  8
0
100
AcDbBlockBegin
  2
*D5
 70
     1
 10
0.0
 20
0.0
 30
0.0
  3
*D5
  1

  0
LINE
  5
8F3C
330
3E92
100
AcDbEntity
  8
AM_5
100
AcDbLine
 10
307.6520496387812
 20
534.5822087776305
 30
0.0
 11
263.452049638781
 21
534.5822087776305
 31
0.0
  0
LINE
  5
8F3D
330
3E92
100
AcDbEntity
  8
AM_5
100
AcDbLine
 10
345.6520496387812
 20
517.5822087776305
 30
0.0
 11
263.452049638781
 21
517.5822087776305
 31
0.0
  0
LINE
  5
8F3E
330
3E92
100
AcDbEntity
  8
AM_5
100
AcDbLine
 10
265.552049638781
 20
530.3822087776304
 30
0.0
 11
265.552049638781
 21
521.7822087776305
 31
0.0
  0
SOLID
  5
8F3F
330
3E92
100
AcDbEntity
  8
AM_5
100
AcDbTrace
 10
264.852049638781
 20
530.3822087776304
 30
0.0
 11
266.252049638781
 21
530.3822087776304
 31
0.0
 12
265.552049638781
 22
534.5822087776305
 32
0.0
 13
265.552049638781
 23
534.5822087776305
 33
0.0
  0
SOLID
  5
8F40
330
3E92
100
AcDbEntity
  8
AM_5
100
AcDbTrace
 10
264.852049638781
 20
521.7822087776305
 30
0.0
 11
266.252049638781
 21
521.7822087776305
 31
0.0
 12
265.552049638781
 22
517.5822087776305
 32
0.0
 13
265.552049638781
 23
517.5822087776305
 33
0.0
  0
MTEXT
  5
8F41
330
3E92
100
AcDbEntity
  8
AM_5
100
AcDbMText
 10
261.7020496387809
 20
526.0822087776306
 30
0.0
 40
4.899999999999999
 41
0.0
 71
     5
 72
     1
  1
17
 11
0.0000000000000001
 21
1.0
 31
0.0
 73
     1
 44
1.0
1001
ACAD
1000
MTEXTBEGIN
1070
    73
1070
     1
1070
    44
1040
1.0
1070
    74
1070
     0
1000
MTEXTEND
  0
POINT
  5
8F42
330
3E92
100
AcDbEntity
  8
Defpoints
 62
     0
100
AcDbPoint
 10
309.0520496387812
 20
534.5822087776305
 30
0.0
  0
POINT
  5
8F43
330
3E92
100
AcDbEntity
  8
Defpoints
 62
     0
100
AcDbPoint
 10
347.0520496387812
 20
517.5822087776305
 30
0.0
  0
POINT
  5
8F44
330
3E92
100
AcDbEntity
  8
Defpoints
 62
     0
100
AcDbPoint
 10
265.552049638781
 20
517.5822087776305
 30
0.0
  0
ENDBLK
  5
3E9D
330
3E92
100
AcDbEntity
  8
0
100
AcDbBlockEnd
  0
BLOCK
  5
3EA8
330
3E9E
100
AcDbEntity
  8
0
100
AcDbBlockBegin
  2
*D6
 70
     1
 10
0.0
 20
0.0
 30
0.0
  3
*D6
  1

  0
LINE
  5
8F45
330
3E9E
100
AcDbEntity
  8
AM_5
100
AcDbLine
 10
286.1520496387811
 20
537.2322086110222
 30
0.0
 11
253.452049638781
 21
537.2322086110223
 31
0.0
  0
LINE
  5
8F46
330
3E9E
100
AcDbEntity
  8
AM_5
100
AcDbLine
 10
286.1520496387811
 20
514.932208711605
 30
0.0
 11
253.452049638781
 21
514.932208711605
 31
0.0
  0
LINE
  5
8F47
330
3E9E
100
AcDbEntity
  8
AM_5
100
AcDbLine
 10
255.552049638781
 20
533.0322086110222
 30
0.0
 11
255.552049638781
 21
519.1322087116051
 31
0.0
  0
SOLID
  5
8F48
330
3E9E
100
AcDbEntity
  8
AM_5
100
AcDbTrace
 10
254.8520496387811
 20
533.0322086110222
 30
0.0
 11
256.252049638781
 21
533.0322086110221
 31
0.0
 12
255.552049638781
 22
537.2322086110223
 32
0.0
 13
255.552049638781
 23
537.2322086110223
 33
0.0
  0
SOLID
  5
8F49
330
3E9E
100
AcDbEntity
  8
AM_5
100
AcDbTrace
 10
254.8520496387811
 20
519.1322087116051
 30
0.0
 11
256.252049638781
 21
519.1322087116049
 31
0.0
 12
255.552049638781
 22
514.932208711605
 32
0.0
 13
255.552049638781
 23
514.932208711605
 33
0.0
  0
MTEXT
  5
8F4A
330
3E9E
100
AcDbEntity
  8
AM_5
100
AcDbMText
 10
251.7015673553164
 20
526.0822086613136
 30
0.0
 40
4.899999999999999
 41
0.0
 71
     5
 72
     1
  1
22.3
 11
0.0000000000000001
 21
1.0
 31
0.0
 73
     1
 44
1.0
1001
ACAD
1000
MTEXTBEGIN
1070
    73
1070
     1
1070
    44
1040
1.0
1070
    74
1070
     0
1000
MTEXTEND
  0
POINT
  5
8F4B
330
3E9E
100
AcDbEntity
  8
Defpoints
 62
     0
100
AcDbPoint
 10
287.5520496387811
 20
537.2322086110222
 30
0.0
  0
POINT
  5
8F4C
330
3E9E
100
AcDbEntity
  8
Defpoints
 62
     0
100
AcDbPoint
 10
287.552049638781
 20
514.932208711605
 30
0.0
  0
POINT
  5
8F4D
330
3E9E
100
AcDbEntity
  8
Defpoints
 62
     0
100
AcDbPoint
 10
255.552049638781
 20
514.932208711605
 30
0.0
  0
ENDBLK
  5
3EA9
330
3E9E
100
AcDbEntity
  8
0
100
AcDbBlockEnd
  0
BLOCK
  5
3EB4
330
3EAA
100
AcDbEntity
  8
0
100
AcDbBlockBegin
  2
*D7
 70
     1
 10
0.0
 20
0.0
 30
0.0
  3
*D7
  1

  0
LINE
  5
8F4E
330
3EAA
100
AcDbEntity
  8
AM_5
100
AcDbLine
 10
287.5520496387811
 20
538.6322087776303
 30
0.0
 11
287.5520496387811
 21
549.0967122657231
 31
0.0
  0
LINE
  5
8F4F
330
3EAA
100
AcDbEntity
  8
AM_5
100
AcDbLine
 10
314.0520496387812
 20
540.9822087776304
 30
0.0
 11
314.0520496387812
 21
549.0967122657231
 31
0.0
  0
LINE
  5
8F50
330
3EAA
100
AcDbEntity
  8
AM_5
100
AcDbLine
 10
291.7520496387811
 20
546.996712265723
 30
0.0
 11
309.8520496387812
 21
546.996712265723
 31
0.0
  0
SOLID
  5
8F51
330
3EAA
100
AcDbEntity
  8
AM_5
100
AcDbTrace
 10
291.7520496387811
 20
547.6967122657231
 30
0.0
 11
291.7520496387811
 21
546.296712265723
 31
0.0
 12
287.5520496387811
 22
546.996712265723
 32
0.0
 13
287.5520496387811
 23
546.996712265723
 33
0.0
  0
SOLID
  5
8F52
330
3EAA
100
AcDbEntity
  8
AM_5
100
AcDbTrace
 10
309.8520496387812
 20
547.6967122657231
 30
0.0
 11
309.8520496387812
 21
546.296712265723
 31
0.0
 12
314.0520496387812
 22
546.996712265723
 32
0.0
 13
314.0520496387812
 23
546.996712265723
 33
0.0
  0
MTEXT
  5
8F53
330
3EAA
100
AcDbEntity
  8
AM_5
100
AcDbMText
 10
300.8020496387812
 20
550.8471945491876
 30
0.0
 40
4.899999999999999
 41
0.0
 71
     5
 72
     1
  1
26.5
 73
     1
 44
1.0
1001
ACAD
1000
MTEXTBEGIN
1070
    73
1070
     1
1070
    44
1040
1.0
1070
    74
1070
     0
1000
MTEXTEND
  0
POINT
  5
8F54
330
3EAA
100
AcDbEntity
  8
Defpoints
 62
     0
100
AcDbPoint
 10
287.5520496387811
 20
537.2322087776304
 30
0.0
  0
POINT
  5
8F55
330
3EAA
100
AcDbEntity
  8
Defpoints
 62
     0
100
AcDbPoint
 10
314.0520496387812
 20
539.5822087776305
 30
0.0
  0
POINT
  5
8F56
330
3EAA
100
AcDbEntity
  8
Defpoints
 62
     0
100
AcDbPoint
 10
314.0520496387812
 20
546.996712265723
 30
0.0
  0
ENDBLK
  5
3EB5
330
3EAA
100
AcDbEntity
  8
0
100
AcDbBlockEnd
  0
BLOCK
  5
3EC0
330
3EB6
100
AcDbEntity
  8
0
100
AcDbBlockBegin
  2
*D8
 70
     1
 10
0.0
 20
0.0
 30
0.0
  3
*D8
  1

  0
LINE
  5
8F57
330
3EB6
100
AcDbEntity
  8
AM_5
100
AcDbLine
 10
314.0520496387812
 20
540.9822087776304
 30
0.0
 11
314.0520496387812
 21
549.0967122657231
 31
0.0
  0
LINE
  5
8F58
330
3EB6
100
AcDbEntity
  8
AM_5
100
AcDbLine
 10
352.0520496387812
 20
523.9822087776304
 30
0.0
 11
352.0520496387812
 21
549.0967122657231
 31
0.0
  0
LINE
  5
8F59
330
3EB6
100
AcDbEntity
  8
AM_5
100
AcDbLine
 10
318.2520496387812
 20
546.996712265723
 30
0.0
 11
347.8520496387812
 21
546.996712265723
 31
0.0
  0
SOLID
  5
8F5A
330
3EB6
100
AcDbEntity
  8
AM_5
100
AcDbTrace
 10
318.2520496387812
 20
547.6967122657231
 30
0.0
 11
318.2520496387812
 21
546.296712265723
 31
0.0
 12
314.0520496387812
 22
546.996712265723
 32
0.0
 13
314.0520496387812
 23
546.996712265723
 33
0.0
  0
SOLID
  5
8F5B
330
3EB6
100
AcDbEntity
  8
AM_5
100
AcDbTrace
 10
347.8520496387812
 20
547.6967122657231
 30
0.0
 11
347.8520496387812
 21
546.296712265723
 31
0.0
 12
352.0520496387812
 22
546.996712265723
 32
0.0
 13
352.0520496387812
 23
546.996712265723
 33
0.0
  0
MTEXT
  5
8F5C
330
3EB6
100
AcDbEntity
  8
AM_5
100
AcDbMText
 10
333.0520496387813
 20
550.8467122657231
 30
0.0
 40
4.899999999999999
 41
0.0
 71
     5
 72
     1
  1
38
 73
     1
 44
1.0
1001
ACAD
1000
MTEXTBEGIN
1070
    73
1070
     1
1070
    44
1040
1.0
1070
    74
1070
     0
1000
MTEXTEND
  0
POINT
  5
8F5D
330
3EB6
100
AcDbEntity
  8
Defpoints
 62
     0
100
AcDbPoint
 10
314.0520496387812
 20
539.5822087776305
 30
0.0
  0
POINT
  5
8F5E
330
3EB6
100
AcDbEntity
  8
Defpoints
 62
     0
100
AcDbPoint
 10
352.0520496387812
 20
522.5822087776305
 30
0.0
  0
POINT
  5
8F5F
330
3EB6
100
AcDbEntity
  8
Defpoints
 62
     0
100
AcDbPoint
 10
352.0520496387812
 20
546.996712265723
 30
0.0
  0
ENDBLK
  5
3EC1
330
3EB6
100
AcDbEntity
  8
0
100
AcDbBlockEnd
  0
BLOCK
  5
3ECE
330
3EC2
100
AcDbEntity
  8
0
100
AcDbBlockBegin
  2
*D9
 70
     1
 10
0.0
 20
0.0
 30
0.0
  3
*D9
  1

  0
LINE
  5
8F60
330
3EC2
100
AcDbEntity
  8
AM_5
100
AcDbLine
 10
312.4520496387812
 20
527.5822087776305
 30
0.0
 11
273.452049638781
 21
527.5822087776305
 31
0.0
  0
LINE
  5
8F61
330
3EC2
100
AcDbEntity
  8
AM_5
100
AcDbLine
 10
333.5020496387813
 20
524.5822087776304
 30
0.0
 11
273.452049638781
 21
524.5822087776304
 31
0.0
  0
LINE
  5
8F62
330
3EC2
100
AcDbEntity
  8
AM_5
100
AcDbLine
 10
275.5520496387811
 20
531.7822087776305
 30
0.0
 11
275.5520496387811
 21
535.9822087776304
 31
0.0
  0
LINE
  5
8F63
330
3EC2
100
AcDbEntity
  8
AM_5
100
AcDbLine
 10
275.5520496387811
 20
520.3822087776305
 30
0.0
 11
275.5520496387811
 21
516.1822087776305
 31
0.0
  0
LINE
  5
8F64
330
3EC2
100
AcDbEntity
  8
AM_5
100
AcDbLine
 10
275.5520496387811
 20
527.5822087776305
 30
0.0
 11
275.5520496387811
 21
524.5822087776304
 31
0.0
  0
SOLID
  5
8F65
330
3EC2
100
AcDbEntity
  8
AM_5
100
AcDbTrace
 10
274.8520496387811
 20
531.7822087776305
 30
0.0
 11
276.2520496387811
 21
531.7822087776305
 31
0.0
 12
275.5520496387811
 22
527.5822087776305
 32
0.0
 13
275.5520496387811
 23
527.5822087776305
 33
0.0
  0
SOLID
  5
8F66
330
3EC2
100
AcDbEntity
  8
AM_5
100
AcDbTrace
 10
274.8520496387811
 20
520.3822087776305
 30
0.0
 11
276.2520496387811
 21
520.3822087776305
 31
0.0
 12
275.5520496387811
 22
524.5822087776304
 32
0.0
 13
275.5520496387811
 23
524.5822087776304
 33
0.0
  0
MTEXT
  5
8F67
330
3EC2
100
AcDbEntity
  8
AM_5
100
AcDbMText
 10
271.702049638781
 20
526.0822087776306
 30
0.0
 40
4.899999999999999
 41
0.0
 71
     5
 72
     1
  1
3
 11
0.0000000000000001
 21
1.0
 31
0.0
 73
     1
 44
1.0
1001
ACAD
1000
MTEXTBEGIN
1070
    73
1070
     1
1070
    44
1040
1.0
1070
    74
1070
     0
1000
MTEXTEND
  0
POINT
  5
8F68
330
3EC2
100
AcDbEntity
  8
Defpoints
 62
     0
100
AcDbPoint
 10
313.8520496387812
 20
527.5822087776305
 30
0.0
  0
POINT
  5
8F69
330
3EC2
100
AcDbEntity
  8
Defpoints
 62
     0
100
AcDbPoint
 10
334.9020496387812
 20
524.5822087776304
 30
0.0
  0
POINT
  5
8F6A
330
3EC2
100
AcDbEntity
  8
Defpoints
 62
     0
100
AcDbPoint
 10
275.5520496387811
 20
524.5822087776304
 30
0.0
  0
ENDBLK
  5
3ECF
330
3EC2
100
AcDbEntity
  8
0
100
AcDbBlockEnd
  0
BLOCK
  5
3EDA
330
3ED0
100
AcDbEntity
  8
0
100
AcDbBlockBegin
  2
*D10
 70
     1
 10
0.0
 20
0.0
 30
0.0
  3
*D10
  1

  0
LINE
  5
8B88
330
3ED0
100
AcDbEntity
  8
AM_5
100
AcDbLine
 10
287.5520496387816
 20
437.1191192498277
 30
0.0
 11
287.5520496387816
 21
424.4191193600963
 31
0.0
  0
LINE
  5
8B89
330
3ED0
100
AcDbEntity
  8
AM_5
100
AcDbLine
 10
323.0520496387812
 20
438.4160494946529
 30
0.0
 11
323.0520496387812
 21
424.4191193600963
 31
0.0
  0
LINE
  5
8B8A
330
3ED0
100
AcDbEntity
  8
AM_5
100
AcDbLine
 10
291.7520496387815
 20
426.5191193600964
 30
0.0
 11
318.8520496387813
 21
426.5191193600964
 31
0.0
  0
SOLID
  5
8B8B
330
3ED0
100
AcDbEntity
  8
AM_5
100
AcDbTrace
 10
291.7520496387815
 20
427.2191193600963
 30
0.0
 11
291.7520496387815
 21
425.8191193600963
 31
0.0
 12
287.5520496387816
 22
426.5191193600964
 32
0.0
 13
287.5520496387816
 23
426.5191193600964
 33
0.0
  0
SOLID
  5
8B8C
330
3ED0
100
AcDbEntity
  8
AM_5
100
AcDbTrace
 10
318.8520496387813
 20
427.2191193600963
 30
0.0
 11
318.8520496387813
 21
425.8191193600963
 31
0.0
 12
323.0520496387812
 22
426.5191193600964
 32
0.0
 13
323.0520496387812
 23
426.5191193600964
 33
0.0
  0
MTEXT
  5
8B8D
330
3ED0
100
AcDbEntity
  8
AM_5
100
AcDbMText
 10
305.3020496387814
 20
430.3691193600964
 30
0.0
 40
4.899999999999999
 41
0.0
 71
     5
 72
     1
  1
35.5
 73
     1
 44
1.0
1001
ACAD
1000
MTEXTBEGIN
1070
    73
1070
     1
1070
    44
1040
1.0
1070
    74
1070
     0
1000
MTEXTEND
  0
POINT
  5
8B8E
330
3ED0
100
AcDbEntity
  8
Defpoints
 62
     0
100
AcDbPoint
 10
287.5520496387816
 20
438.5191192498276
 30
0.0
  0
POINT
  5
8B8F
330
3ED0
100
AcDbEntity
  8
Defpoints
 62
     0
100
AcDbPoint
 10
323.0520496387812
 20
439.8160494946529
 30
0.0
  0
POINT
  5
8B90
330
3ED0
100
AcDbEntity
  8
Defpoints
 62
     0
100
AcDbPoint
 10
323.0520496387812
 20
426.5191193600964
 30
0.0
  0
ENDBLK
  5
3EDB
330
3ED0
100
AcDbEntity
  8
0
100
AcDbBlockEnd
  0
BLOCK
  5
3EE6
330
3EDC
100
AcDbEntity
  8
0
100
AcDbBlockBegin
  2
*D11
 70
     1
 10
0.0
 20
0.0
 30
0.0
  3
*D11
  1

  0
LINE
  5
8B91
330
3EDC
100
AcDbEntity
  8
AM_5
100
AcDbLine
 10
323.0520496387812
 20
438.4160494946529
 30
0.0
 11
323.0520496387812
 21
424.4191193600964
 31
0.0
  0
LINE
  5
8B92
330
3EDC
100
AcDbEntity
  8
AM_5
100
AcDbLine
 10
343.0520496387812
 20
438.4160494946529
 30
0.0
 11
343.0520496387812
 21
424.4191193600964
 31
0.0
  0
LINE
  5
8B93
330
3EDC
100
AcDbEntity
  8
AM_5
100
AcDbLine
 10
327.2520496387812
 20
426.5191193600964
 30
0.0
 11
338.8520496387812
 21
426.5191193600964
 31
0.0
  0
SOLID
  5
8B94
330
3EDC
100
AcDbEntity
  8
AM_5
100
AcDbTrace
 10
327.2520496387812
 20
427.2191193600964
 30
0.0
 11
327.2520496387812
 21
425.8191193600964
 31
0.0
 12
323.0520496387812
 22
426.5191193600964
 32
0.0
 13
323.0520496387812
 23
426.5191193600964
 33
0.0
  0
SOLID
  5
8B95
330
3EDC
100
AcDbEntity
  8
AM_5
100
AcDbTrace
 10
338.8520496387812
 20
427.2191193600964
 30
0.0
 11
338.8520496387812
 21
425.8191193600964
 31
0.0
 12
343.0520496387812
 22
426.5191193600964
 32
0.0
 13
343.0520496387812
 23
426.5191193600964
 33
0.0
  0
MTEXT
  5
8B96
330
3EDC
100
AcDbEntity
  8
AM_5
100
AcDbMText
 10
333.0520496387813
 20
430.3696016435609
 30
0.0
 40
4.899999999999999
 41
0.0
 71
     5
 72
     1
  1
20
 73
     1
 44
1.0
1001
ACAD
1000
MTEXTBEGIN
1070
    73
1070
     1
1070
    44
1040
1.0
1070
    74
1070
     0
1000
MTEXTEND
  0
POINT
  5
8B97
330
3EDC
100
AcDbEntity
  8
Defpoints
 62
     0
100
AcDbPoint
 10
323.0520496387812
 20
439.8160494946529
 30
0.0
  0
POINT
  5
8B98
330
3EDC
100
AcDbEntity
  8
Defpoints
 62
     0
100
AcDbPoint
 10
343.0520496387812
 20
439.8160494946529
 30
0.0
  0
POINT
  5
8B99
330
3EDC
100
AcDbEntity
  8
Defpoints
 62
     0
100
AcDbPoint
 10
343.0520496387812
 20
426.5191193600964
 30
0.0
  0
ENDBLK
  5
3EE7
330
3EDC
100
AcDbEntity
  8
0
100
AcDbBlockEnd
  0
BLOCK
  5
3EF4
330
3EE8
100
AcDbEntity
  8
0
100
AcDbBlockBegin
  2
*D12
 70
     1
 10
0.0
 20
0.0
 30
0.0
  3
*D12
  1

  0
LINE
  5
8B9A
330
3EE8
100
AcDbEntity
  8
AM_5
100
AcDbLine
 10
286.1520496387816
 20
438.5191192498276
 30
0.0
 11
273.4520496387813
 21
438.5191192498276
 31
0.0
  0
LINE
  5
8B9B
330
3EE8
100
AcDbEntity
  8
AM_5
100
AcDbLine
 10
315.9489797733378
 20
445.5191193600963
 30
0.0
 11
273.4520496387813
 21
445.5191193600963
 31
0.0
  0
LINE
  5
8B9C
330
3EE8
100
AcDbEntity
  8
AM_5
100
AcDbLine
 10
275.5520496387813
 20
434.3191192498276
 30
0.0
 11
275.5520496387813
 21
430.1191192498277
 31
0.0
  0
LINE
  5
8B9D
330
3EE8
100
AcDbEntity
  8
AM_5
100
AcDbLine
 10
275.5520496387813
 20
449.7191193600963
 30
0.0
 11
275.5520496387813
 21
453.9191193600963
 31
0.0
  0
LINE
  5
8B9E
330
3EE8
100
AcDbEntity
  8
AM_5
100
AcDbLine
 10
275.5520496387813
 20
438.5191192498276
 30
0.0
 11
275.5520496387813
 21
445.5191193600963
 31
0.0
  0
SOLID
  5
8B9F
330
3EE8
100
AcDbEntity
  8
AM_5
100
AcDbTrace
 10
274.8520496387814
 20
434.3191192498276
 30
0.0
 11
276.2520496387813
 21
434.3191192498276
 31
0.0
 12
275.5520496387813
 22
438.5191192498276
 32
0.0
 13
275.5520496387813
 23
438.5191192498276
 33
0.0
  0
SOLID
  5
8BA0
330
3EE8
100
AcDbEntity
  8
AM_5
100
AcDbTrace
 10
274.8520496387814
 20
449.7191193600963
 30
0.0
 11
276.2520496387813
 21
449.7191193600963
 31
0.0
 12
275.5520496387813
 22
445.5191193600963
 32
0.0
 13
275.5520496387813
 23
445.5191193600963
 33
0.0
  0
MTEXT
  5
8BA1
330
3EE8
100
AcDbEntity
  8
AM_5
100
AcDbMText
 10
271.7020496387812
 20
442.019119304962
 30
0.0
 40
4.899999999999999
 41
0.0
 71
     5
 72
     1
  1
7
 11
0.0000000000000001
 21
1.0
 31
0.0
 73
     1
 44
1.0
1001
ACAD
1000
MTEXTBEGIN
1070
    73
1070
     1
1070
    44
1040
1.0
1070
    74
1070
     0
1000
MTEXTEND
  0
POINT
  5
8BA2
330
3EE8
100
AcDbEntity
  8
Defpoints
 62
     0
100
AcDbPoint
 10
287.5520496387816
 20
438.5191192498276
 30
0.0
  0
POINT
  5
8BA3
330
3EE8
100
AcDbEntity
  8
Defpoints
 62
     0
100
AcDbPoint
 10
317.3489797733378
 20
445.5191193600963
 30
0.0
  0
POINT
  5
8BA4
330
3EE8
100
AcDbEntity
  8
Defpoints
 62
     0
100
AcDbPoint
 10
275.5520496387813
 20
445.5191193600963
 30
0.0
  0
ENDBLK
  5
3EF5
330
3EE8
100
AcDbEntity
  8
0
100
AcDbBlockEnd
  0
BLOCK
  5
3F00
330
3EF6
100
AcDbEntity
  8
0
100
AcDbBlockBegin
  2
*D13
 70
     1
 10
0.0
 20
0.0
 30
0.0
  3
*D13
  1

  0
LINE
  5
9049
330
3EF6
100
AcDbEntity
  8
AM_5
100
AcDbLine
 10
287.5520496387811
 20
386.5725059080429
 30
0.0
 11
287.5520496387811
 21
373.8725059080426
 31
0.0
  0
LINE
  5
904A
330
3EF6
100
AcDbEntity
  8
AM_5
100
AcDbLine
 10
315.0520496387812
 20
390.4725059080427
 30
0.0
 11
315.0520496387812
 21
373.8725059080426
 31
0.0
  0
LINE
  5
904B
330
3EF6
100
AcDbEntity
  8
AM_5
100
AcDbLine
 10
291.7520496387811
 20
375.9725059080426
 30
0.0
 11
310.8520496387813
 21
375.9725059080426
 31
0.0
  0
SOLID
  5
904C
330
3EF6
100
AcDbEntity
  8
AM_5
100
AcDbTrace
 10
291.7520496387811
 20
376.6725059080426
 30
0.0
 11
291.7520496387811
 21
375.2725059080426
 31
0.0
 12
287.5520496387811
 22
375.9725059080426
 32
0.0
 13
287.5520496387811
 23
375.9725059080426
 33
0.0
  0
SOLID
  5
904D
330
3EF6
100
AcDbEntity
  8
AM_5
100
AcDbTrace
 10
310.8520496387813
 20
376.6725059080426
 30
0.0
 11
310.8520496387813
 21
375.2725059080426
 31
0.0
 12
315.0520496387812
 22
375.9725059080426
 32
0.0
 13
315.0520496387812
 23
375.9725059080426
 33
0.0
  0
MTEXT
  5
904E
330
3EF6
100
AcDbEntity
  8
AM_5
100
AcDbMText
 10
301.3020496387812
 20
379.8229881915071
 30
0.0
 40
4.899999999999999
 41
0.0
 71
     5
 72
     1
  1
27.5
 73
     1
 44
1.0
1001
ACAD
1000
MTEXTBEGIN
1070
    73
1070
     1
1070
    44
1040
1.0
1070
    74
1070
     0
1000
MTEXTEND
  0
POINT
  5
904F
330
3EF6
100
AcDbEntity
  8
Defpoints
 62
     0
100
AcDbPoint
 10
287.5520496387811
 20
387.9725059080429
 30
0.0
  0
POINT
  5
9050
330
3EF6
100
AcDbEntity
  8
Defpoints
 62
     0
100
AcDbPoint
 10
315.0520496387812
 20
391.8725059080427
 30
0.0
  0
POINT
  5
9051
330
3EF6
100
AcDbEntity
  8
Defpoints
 62
     0
100
AcDbPoint
 10
315.0520496387812
 20
375.9725059080426
 30
0.0
  0
ENDBLK
  5
3F01
330
3EF6
100
AcDbEntity
  8
0
100
AcDbBlockEnd
  0
BLOCK
  5
3F0C
330
3F02
100
AcDbEntity
  8
0
100
AcDbBlockBegin
  2
*D14
 70
     1
 10
0.0
 20
0.0
 30
0.0
  3
*D14
  1

  0
LINE
  5
9052
330
3F02
100
AcDbEntity
  8
AM_5
100
AcDbLine
 10
315.0520496387812
 20
390.4725059080427
 30
0.0
 11
315.0520496387812
 21
373.8725059080426
 31
0.0
  0
LINE
  5
9053
330
3F02
100
AcDbEntity
  8
AM_5
100
AcDbLine
 10
333.0520496387813
 20
389.0225059080428
 30
0.0
 11
333.0520496387813
 21
373.8725059080426
 31
0.0
  0
LINE
  5
9054
330
3F02
100
AcDbEntity
  8
AM_5
100
AcDbLine
 10
319.2520496387812
 20
375.9725059080427
 30
0.0
 11
328.8520496387812
 21
375.9725059080427
 31
0.0
  0
SOLID
  5
9055
330
3F02
100
AcDbEntity
  8
AM_5
100
AcDbTrace
 10
319.2520496387812
 20
376.6725059080426
 30
0.0
 11
319.2520496387812
 21
375.2725059080427
 31
0.0
 12
315.0520496387812
 22
375.9725059080427
 32
0.0
 13
315.0520496387812
 23
375.9725059080427
 33
0.0
  0
SOLID
  5
9056
330
3F02
100
AcDbEntity
  8
AM_5
100
AcDbTrace
 10
328.8520496387812
 20
376.6725059080426
 30
0.0
 11
328.8520496387812
 21
375.2725059080427
 31
0.0
 12
333.0520496387813
 22
375.9725059080427
 32
0.0
 13
333.0520496387813
 23
375.9725059080427
 33
0.0
  0
MTEXT
  5
9057
330
3F02
100
AcDbEntity
  8
AM_5
100
AcDbMText
 10
324.0520496387812
 20
379.8225059080427
 30
0.0
 40
4.899999999999999
 41
0.0
 71
     5
 72
     1
  1
18
 73
     1
 44
1.0
1001
ACAD
1000
MTEXTBEGIN
1070
    73
1070
     1
1070
    44
1040
1.0
1070
    74
1070
     0
1000
MTEXTEND
  0
POINT
  5
9058
330
3F02
100
AcDbEntity
  8
Defpoints
 62
     0
100
AcDbPoint
 10
315.0520496387812
 20
391.8725059080427
 30
0.0
  0
POINT
  5
9059
330
3F02
100
AcDbEntity
  8
Defpoints
 62
     0
100
AcDbPoint
 10
333.0520496387813
 20
390.4225059080428
 30
0.0
  0
POINT
  5
905A
330
3F02
100
AcDbEntity
  8
Defpoints
 62
     0
100
AcDbPoint
 10
333.0520496387813
 20
375.9725059080427
 30
0.0
  0
ENDBLK
  5
3F0D
330
3F02
100
AcDbEntity
  8
0
100
AcDbBlockEnd
  0
BLOCK
  5
3F18
330
3F0E
100
AcDbEntity
  8
0
100
AcDbBlockBegin
  2
*D15
 70
     1
 10
0.0
 20
0.0
 30
0.0
  3
*D15
  1

  0
LINE
  5
905B
330
3F0E
100
AcDbEntity
  8
AM_5
100
AcDbLine
 10
333.0520496387813
 20
389.0225059080428
 30
0.0
 11
333.0520496387813
 21
373.8725059080427
 31
0.0
  0
LINE
  5
905C
330
3F0E
100
AcDbEntity
  8
AM_5
100
AcDbLine
 10
351.0520496387812
 20
390.7225059080427
 30
0.0
 11
351.0520496387812
 21
373.8725059080427
 31
0.0
  0
LINE
  5
905D
330
3F0E
100
AcDbEntity
  8
AM_5
100
AcDbLine
 10
337.2520496387812
 20
375.9725059080427
 30
0.0
 11
346.8520496387812
 21
375.9725059080427
 31
0.0
  0
SOLID
  5
905E
330
3F0E
100
AcDbEntity
  8
AM_5
100
AcDbTrace
 10
337.2520496387812
 20
376.6725059080427
 30
0.0
 11
337.2520496387812
 21
375.2725059080427
 31
0.0
 12
333.0520496387813
 22
375.9725059080427
 32
0.0
 13
333.0520496387813
 23
375.9725059080427
 33
0.0
  0
SOLID
  5
905F
330
3F0E
100
AcDbEntity
  8
AM_5
100
AcDbTrace
 10
346.8520496387812
 20
376.6725059080427
 30
0.0
 11
346.8520496387812
 21
375.2725059080427
 31
0.0
 12
351.0520496387812
 22
375.9725059080427
 32
0.0
 13
351.0520496387812
 23
375.9725059080427
 33
0.0
  0
MTEXT
  5
9060
330
3F0E
100
AcDbEntity
  8
AM_5
100
AcDbMText
 10
342.0520496387812
 20
379.8225059080427
 30
0.0
 40
4.899999999999999
 41
0.0
 71
     5
 72
     1
  1
18
 73
     1
 44
1.0
1001
ACAD
1000
MTEXTBEGIN
1070
    73
1070
     1
1070
    44
1040
1.0
1070
    74
1070
     0
1000
MTEXTEND
  0
POINT
  5
9061
330
3F0E
100
AcDbEntity
  8
Defpoints
 62
     0
100
AcDbPoint
 10
333.0520496387813
 20
390.4225059080428
 30
0.0
  0
POINT
  5
9062
330
3F0E
100
AcDbEntity
  8
Defpoints
 62
     0
100
AcDbPoint
 10
351.0520496387812
 20
392.1225059080427
 30
0.0
  0
POINT
  5
9063
330
3F0E
100
AcDbEntity
  8
Defpoints
 62
     0
100
AcDbPoint
 10
351.0520496387812
 20
375.9725059080427
 30
0.0
  0
ENDBLK
  5
3F19
330
3F0E
100
AcDbEntity
  8
0
100
AcDbBlockEnd
  0
BLOCK
  5
3F24
330
3F1A
100
AcDbEntity
  8
0
100
AcDbBlockBegin
  2
*D16
 70
     1
 10
0.0
 20
0.0
 30
0.0
  3
*D16
  1

  0
LINE
  5
970C
330
3F1A
100
AcDbEntity
  8
AM_5
100
AcDbLine
 10
286.1520496387816
 20
438.5191192498276
 30
0.0
 11
263.4520496387813
 21
438.5191192498276
 31
0.0
  0
LINE
  5
970D
330
3F1A
100
AcDbEntity
  8
AM_5
100
AcDbLine
 10
286.1520496387811
 20
473.5191193600963
 30
0.0
 11
263.4520496387813
 21
473.5191193600963
 31
0.0
  0
LINE
  5
970E
330
3F1A
100
AcDbEntity
  8
AM_5
100
AcDbLine
 10
265.5520496387814
 20
442.7191192498276
 30
0.0
 11
265.5520496387814
 21
469.3191193600963
 31
0.0
  0
SOLID
  5
970F
330
3F1A
100
AcDbEntity
  8
AM_5
100
AcDbTrace
 10
264.8520496387813
 20
442.7191192498276
 30
0.0
 11
266.2520496387813
 21
442.7191192498276
 31
0.0
 12
265.5520496387814
 22
438.5191192498276
 32
0.0
 13
265.5520496387814
 23
438.5191192498276
 33
0.0
  0
SOLID
  5
9710
330
3F1A
100
AcDbEntity
  8
AM_5
100
AcDbTrace
 10
264.8520496387813
 20
469.3191193600963
 30
0.0
 11
266.2520496387813
 21
469.3191193600963
 31
0.0
 12
265.5520496387814
 22
473.5191193600963
 32
0.0
 13
265.5520496387814
 23
473.5191193600963
 33
0.0
  0
MTEXT
  5
9711
330
3F1A
100
AcDbEntity
  8
AM_5
100
AcDbMText
 10
261.7020496387812
 20
456.019119304962
 30
0.0
 40
4.899999999999999
 41
0.0
 71
     5
 72
     1
  1
35
 11
0.0000000000000001
 21
1.0
 31
0.0
 73
     1
 44
1.0
1001
ACAD
1000
MTEXTBEGIN
1070
    73
1070
     1
1070
    44
1040
1.0
1070
    74
1070
     0
1000
MTEXTEND
  0
POINT
  5
9712
330
3F1A
100
AcDbEntity
  8
Defpoints
 62
     0
100
AcDbPoint
 10
287.5520496387816
 20
438.5191192498276
 30
0.0
  0
POINT
  5
9713
330
3F1A
100
AcDbEntity
  8
Defpoints
 62
     0
100
AcDbPoint
 10
287.5520496387811
 20
473.5191193600963
 30
0.0
  0
POINT
  5
9714
330
3F1A
100
AcDbEntity
  8
Defpoints
 62
     0
100
AcDbPoint
 10
265.5520496387814
 20
473.5191193600963
 30
0.0
  0
ENDBLK
  5
3F25
330
3F1A
100
AcDbEntity
  8
0
100
AcDbBlockEnd
  0
BLOCK
  5
3F48
330
3F3E
100
AcDbEntity
  8
0
100
AcDbBlockBegin
  2
*D17
 70
     1
 10
0.0
 20
0.0
 30
0.0
  3
*D17
  1

  0
LINE
  5
8F6B
330
3F3E
100
AcDbEntity
  8
AM_5
100
AcDbLine
 10
287.552049638781
 20
513.532208711605
 30
0.0
 11
287.552049638781
 21
500.8322087776305
 31
0.0
  0
LINE
  5
8F6C
330
3F3E
100
AcDbEntity
  8
AM_5
100
AcDbLine
 10
322.5520496387812
 20
517.4822087776305
 30
0.0
 11
322.5520496387812
 21
500.8322087776305
 31
0.0
  0
LINE
  5
8F6D
330
3F3E
100
AcDbEntity
  8
AM_5
100
AcDbLine
 10
291.752049638781
 20
502.9322087776305
 30
0.0
 11
318.3520496387812
 21
502.9322087776305
 31
0.0
  0
SOLID
  5
8F6E
330
3F3E
100
AcDbEntity
  8
AM_5
100
AcDbTrace
 10
291.752049638781
 20
503.6322087776305
 30
0.0
 11
291.752049638781
 21
502.2322087776305
 31
0.0
 12
287.552049638781
 22
502.9322087776305
 32
0.0
 13
287.552049638781
 23
502.9322087776305
 33
0.0
  0
SOLID
  5
8F6F
330
3F3E
100
AcDbEntity
  8
AM_5
100
AcDbTrace
 10
318.3520496387812
 20
503.6322087776305
 30
0.0
 11
318.3520496387812
 21
502.2322087776305
 31
0.0
 12
322.5520496387812
 22
502.9322087776305
 32
0.0
 13
322.5520496387812
 23
502.9322087776305
 33
0.0
  0
MTEXT
  5
8F70
330
3F3E
100
AcDbEntity
  8
AM_5
100
AcDbMText
 10
305.0520496387811
 20
506.7822087776305
 30
0.0
 40
4.899999999999999
 41
0.0
 71
     5
 72
     1
  1
35
 73
     1
 44
1.0
1001
ACAD
1000
MTEXTBEGIN
1070
    73
1070
     1
1070
    44
1040
1.0
1070
    74
1070
     0
1000
MTEXTEND
  0
POINT
  5
8F71
330
3F3E
100
AcDbEntity
  8
Defpoints
 62
     0
100
AcDbPoint
 10
287.552049638781
 20
514.932208711605
 30
0.0
  0
POINT
  5
8F72
330
3F3E
100
AcDbEntity
  8
Defpoints
 62
     0
100
AcDbPoint
 10
322.5520496387812
 20
518.8822087776304
 30
0.0
  0
POINT
  5
8F73
330
3F3E
100
AcDbEntity
  8
Defpoints
 62
     0
100
AcDbPoint
 10
322.5520496387812
 20
502.9322087776305
 30
0.0
  0
ENDBLK
  5
3F49
330
3F3E
100
AcDbEntity
  8
0
100
AcDbBlockEnd
  0
BLOCK
  5
3F54
330
3F4A
100
AcDbEntity
  8
0
100
AcDbBlockBegin
  2
*D18
 70
     1
 10
0.0
 20
0.0
 30
0.0
  3
*D18
  1

  0
LINE
  5
8F74
330
3F4A
100
AcDbEntity
  8
AM_5
100
AcDbLine
 10
322.5520496387812
 20
517.4822087776305
 30
0.0
 11
322.5520496387812
 21
500.8322087776305
 31
0.0
  0
LINE
  5
8F75
330
3F4A
100
AcDbEntity
  8
AM_5
100
AcDbLine
 10
343.5520496387812
 20
514.5322087776305
 30
0.0
 11
343.5520496387812
 21
500.8322087776305
 31
0.0
  0
LINE
  5
8F76
330
3F4A
100
AcDbEntity
  8
AM_5
100
AcDbLine
 10
326.7520496387812
 20
502.9322087776305
 30
0.0
 11
339.3520496387812
 21
502.9322087776305
 31
0.0
  0
SOLID
  5
8F77
330
3F4A
100
AcDbEntity
  8
AM_5
100
AcDbTrace
 10
326.7520496387812
 20
503.6322087776305
 30
0.0
 11
326.7520496387812
 21
502.2322087776305
 31
0.0
 12
322.5520496387812
 22
502.9322087776305
 32
0.0
 13
322.5520496387812
 23
502.9322087776305
 33
0.0
  0
SOLID
  5
8F78
330
3F4A
100
AcDbEntity
  8
AM_5
100
AcDbTrace
 10
339.3520496387812
 20
503.6322087776305
 30
0.0
 11
339.3520496387812
 21
502.2322087776305
 31
0.0
 12
343.5520496387812
 22
502.9322087776305
 32
0.0
 13
343.5520496387812
 23
502.9322087776305
 33
0.0
  0
MTEXT
  5
8F79
330
3F4A
100
AcDbEntity
  8
AM_5
100
AcDbMText
 10
333.0520496387813
 20
506.7826910610951
 30
0.0
 40
4.899999999999999
 41
0.0
 71
     5
 72
     1
  1
21
 73
     1
 44
1.0
1001
ACAD
1000
MTEXTBEGIN
1070
    73
1070
     1
1070
    44
1040
1.0
1070
    74
1070
     0
1000
MTEXTEND
  0
POINT
  5
8F7A
330
3F4A
100
AcDbEntity
  8
Defpoints
 62
     0
100
AcDbPoint
 10
322.5520496387812
 20
518.8822087776304
 30
0.0
  0
POINT
  5
8F7B
330
3F4A
100
AcDbEntity
  8
Defpoints
 62
     0
100
AcDbPoint
 10
343.5520496387812
 20
515.9322087776305
 30
0.0
  0
POINT
  5
8F7C
330
3F4A
100
AcDbEntity
  8
Defpoints
 62
     0
100
AcDbPoint
 10
343.5520496387812
 20
502.9322087776305
 30
0.0
  0
ENDBLK
  5
3F55
330
3F4A
100
AcDbEntity
  8
0
100
AcDbBlockEnd
  0
BLOCK
  5
67C4
330
67B8
100
AcDbEntity
  8
0
100
AcDbBlockBegin
  2
*D19
 70
     1
 10
0.0
 20
0.0
 30
0.0
  3
*D19
  1

  0
LINE
  5
8C1E
330
67B8
100
AcDbEntity
  8
AM_5
100
AcDbLine
 10
379.9520496387812
 20
473.5191193600964
 30
0.0
 11
392.6520496387813
 21
473.5191193600964
 31
0.0
  0
LINE
  5
8C1F
330
67B8
100
AcDbEntity
  8
AM_5
100
AcDbLine
 10
356.4520496387813
 20
470.5191193600963
 30
0.0
 11
392.6520496387813
 21
470.5191193600962
 31
0.0
  0
LINE
  5
8C20
330
67B8
100
AcDbEntity
  8
AM_5
100
AcDbLine
 10
390.5520496387813
 20
466.3191193600963
 30
0.0
 11
390.5520496387813
 21
462.1191193600963
 31
0.0
  0
LINE
  5
8C21
330
67B8
100
AcDbEntity
  8
AM_5
100
AcDbLine
 10
390.5520496387813
 20
477.7191193600964
 30
0.0
 11
390.5520496387813
 21
486.8820840056592
 31
0.0
  0
LINE
  5
8C22
330
67B8
100
AcDbEntity
  8
AM_5
100
AcDbLine
 10
390.5520496387813
 20
470.5191193600962
 30
0.0
 11
390.5520496387813
 21
473.5191193600964
 31
0.0
  0
SOLID
  5
8C23
330
67B8
100
AcDbEntity
  8
AM_5
100
AcDbTrace
 10
389.8520496387813
 20
466.3191193600963
 30
0.0
 11
391.2520496387813
 21
466.3191193600963
 31
0.0
 12
390.5520496387813
 22
470.5191193600962
 32
0.0
 13
390.5520496387813
 23
470.5191193600962
 33
0.0
  0
SOLID
  5
8C24
330
67B8
100
AcDbEntity
  8
AM_5
100
AcDbTrace
 10
389.8520496387813
 20
477.7191193600964
 30
0.0
 11
391.2520496387813
 21
477.7191193600964
 31
0.0
 12
390.5520496387813
 22
473.5191193600964
 32
0.0
 13
390.5520496387813
 23
473.5191193600964
 33
0.0
  0
MTEXT
  5
8C25
330
67B8
100
AcDbEntity
  8
AM_5
100
AcDbMText
 10
386.7020496387812
 20
484.400601682878
 30
0.0
 40
4.899999999999999
 41
0.0
 71
     5
 72
     1
  1
3
 11
0.0000000000000001
 21
1.0
 31
0.0
 73
     1
 44
1.0
1001
ACAD
1000
MTEXTBEGIN
1070
    73
1070
     1
1070
    44
1040
1.0
1070
    74
1070
     0
1000
MTEXTEND
  0
POINT
  5
8C26
330
67B8
100
AcDbEntity
  8
Defpoints
 62
     0
100
AcDbPoint
 10
378.5520496387812
 20
473.5191193600964
 30
0.0
  0
POINT
  5
8C27
330
67B8
100
AcDbEntity
  8
Defpoints
 62
     0
100
AcDbPoint
 10
355.0520496387814
 20
470.5191193600963
 30
0.0
  0
POINT
  5
8C28
330
67B8
100
AcDbEntity
  8
Defpoints
 62
     0
100
AcDbPoint
 10
390.5520496387813
 20
470.5191193600962
 30
0.0
  0
ENDBLK
  5
67C5
330
67B8
100
AcDbEntity
  8
0
100
AcDbBlockEnd
  0
BLOCK
  5
696C
330
6962
100
AcDbEntity
  8
0
100
AcDbBlockBegin
  2
*D20
 70
     1
 10
0.0
 20
0.0
 30
0.0
  3
*D20
  1

  0
LINE
  5
969E
330
6962
100
AcDbEntity
  8
AM_5
100
AcDbLine
 10
287.5520496387811
 20
474.9191193600962
 30
0.0
 11
287.5520496387811
 21
485.9935973809886
 31
0.0
  0
LINE
  5
969F
330
6962
100
AcDbEntity
  8
AM_5
100
AcDbLine
 10
378.5520496387812
 20
474.9191193600965
 30
0.0
 11
378.5520496387812
 21
485.9935973809886
 31
0.0
  0
LINE
  5
96A0
330
6962
100
AcDbEntity
  8
AM_5
100
AcDbLine
 10
291.7520496387811
 20
483.8935973809886
 30
0.0
 11
374.3520496387812
 21
483.8935973809886
 31
0.0
  0
SOLID
  5
96A1
330
6962
100
AcDbEntity
  8
AM_5
100
AcDbTrace
 10
291.7520496387811
 20
484.5935973809885
 30
0.0
 11
291.7520496387811
 21
483.1935973809885
 31
0.0
 12
287.5520496387811
 22
483.8935973809886
 32
0.0
 13
287.5520496387811
 23
483.8935973809886
 33
0.0
  0
SOLID
  5
96A2
330
6962
100
AcDbEntity
  8
AM_5
100
AcDbTrace
 10
374.3520496387812
 20
484.5935973809885
 30
0.0
 11
374.3520496387812
 21
483.1935973809885
 31
0.0
 12
378.5520496387812
 22
483.8935973809886
 32
0.0
 13
378.5520496387812
 23
483.8935973809886
 33
0.0
  0
MTEXT
  5
96A3
330
6962
100
AcDbEntity
  8
AM_5
100
AcDbMText
 10
333.0520496387812
 20
487.7435973809886
 30
0.0
 40
4.899999999999999
 41
0.0
 71
     5
 72
     1
  1
91
 73
     1
 44
1.0
1001
ACAD
1000
MTEXTBEGIN
1070
    73
1070
     1
1070
    44
1040
1.0
1070
    74
1070
     0
1000
MTEXTEND
  0
POINT
  5
96A4
330
6962
100
AcDbEntity
  8
Defpoints
 62
     0
100
AcDbPoint
 10
287.5520496387811
 20
473.5191193600963
 30
0.0
  0
POINT
  5
96A5
330
6962
100
AcDbEntity
  8
Defpoints
 62
     0
100
AcDbPoint
 10
378.5520496387812
 20
473.5191193600964
 30
0.0
  0
POINT
  5
96A6
330
6962
100
AcDbEntity
  8
Defpoints
 62
     0
100
AcDbPoint
 10
378.5520496387812
 20
483.8935973809886
 30
0.0
  0
ENDBLK
  5
696D
330
6962
100
AcDbEntity
  8
0
100
AcDbBlockEnd
  0
BLOCK
  5
6B71
330
6B67
100
AcDbEntity
  8
0
100
AcDbBlockBegin
  2
*D21
 70
     1
 10
0.0
 20
0.0
 30
0.0
  3
*D21
  1

  0
LINE
  5
8C46
330
6B67
100
AcDbEntity
  8
AM_5
100
AcDbLine
 10
400.2859037132092
 20
438.5191193600965
 30
0.0
 11
391.0551857219409
 21
438.5191193600965
 31
0.0
  0
LINE
  5
8C47
330
6B67
100
AcDbEntity
  8
AM_5
100
AcDbLine
 10
404.5859037132092
 20
456.0191193600965
 30
0.0
 11
391.0551857219409
 21
456.0191193600965
 31
0.0
  0
LINE
  5
8C48
330
6B67
100
AcDbEntity
  8
AM_5
100
AcDbLine
 10
393.1551857219409
 20
442.7191193600965
 30
0.0
 11
393.1551857219409
 21
451.8191193600965
 31
0.0
  0
SOLID
  5
8C49
330
6B67
100
AcDbEntity
  8
AM_5
100
AcDbTrace
 10
392.455185721941
 20
442.7191193600965
 30
0.0
 11
393.8551857219409
 21
442.7191193600965
 31
0.0
 12
393.1551857219409
 22
438.5191193600965
 32
0.0
 13
393.1551857219409
 23
438.5191193600965
 33
0.0
  0
SOLID
  5
8C4A
330
6B67
100
AcDbEntity
  8
AM_5
100
AcDbTrace
 10
392.455185721941
 20
451.8191193600965
 30
0.0
 11
393.8551857219409
 21
451.8191193600965
 31
0.0
 12
393.1551857219409
 22
456.0191193600965
 32
0.0
 13
393.1551857219409
 23
456.0191193600965
 33
0.0
  0
MTEXT
  5
8C4B
330
6B67
100
AcDbEntity
  8
AM_5
100
AcDbMText
 10
389.3051857219408
 20
447.2691193600966
 30
0.0
 40
4.899999999999999
 41
0.0
 71
     5
 72
     1
  1
17.5
 11
0.0000000000000001
 21
1.0
 31
0.0
 73
     1
 44
1.0
1001
ACAD
1000
MTEXTBEGIN
1070
    73
1070
     1
1070
    44
1040
1.0
1070
    74
1070
     0
1000
MTEXTEND
  0
POINT
  5
8C4C
330
6B67
100
AcDbEntity
  8
Defpoints
 62
     0
100
AcDbPoint
 10
401.6859037132092
 20
438.5191193600965
 30
0.0
  0
POINT
  5
8C4D
330
6B67
100
AcDbEntity
  8
Defpoints
 62
     0
100
AcDbPoint
 10
405.9859037132091
 20
456.0191193600965
 30
0.0
  0
POINT
  5
8C4E
330
6B67
100
AcDbEntity
  8
Defpoints
 62
     0
100
AcDbPoint
 10
393.1551857219409
 20
456.0191193600965
 30
0.0
  0
ENDBLK
  5
6B72
330
6B67
100
AcDbEntity
  8
0
100
AcDbBlockEnd
  0
BLOCK
  5
99B8
330
99B3
100
AcDbEntity
  8
0
100
AcDbBlockBegin
  2
*S23
 70
     1
 10
0.0
 20
0.0
 30
0.0
  3
*S23
  1

  0
LINE
  5
99B4
330
99B3
100
AcDbEntity
  8
AM_5
 62
     5
100
AcDbLine
 10
396.8459158615681
 20
502.7545607046045
 30
0.0
 11
363.3471552738874
 21
502.7545607046045
 31
0.0
  0
LINE
  5
99B5
330
99B3
100
AcDbEntity
  8
AM_5
 62
     5
100
AcDbLine
 10
363.3471552738874
 20
502.7545607046045
 30
0.0
 11
356.0214499541018
 21
512.5271071912453
 31
0.0
  0
TRACE
  5
99B6
330
99B3
100
AcDbEntity
  8
AM_5
 62
     5
370
    35
100
AcDbTrace
 10
356.5376216481195
 20
512.9140402930686
 30
0.0
 11
355.5052782600841
 21
512.140174089422
 31
0.0
 12
353.0824012414648
 22
516.4478204764456
 32
0.0
 13
353.0824012414648
 23
516.4478204764456
 33
0.0
  0
MTEXT
  5
99B7
330
99B3
100
AcDbEntity
  8
AM_5
 62
     5
100
AcDbMText
 10
396.8459158615681
 20
510.4019417076002
 30
0.0
 40
4.899999999999999
 41
0.0
 71
     7
 72
     5
  1

  7
ACISOTS
 73
     1
 44
1.0
1001
ACAD
1000
MTEXTBEGIN
1070
    73
1070
     1
1070
    44
1040
1.0
1070
    74
1070
     0
1000
MTEXTEND
  0
ENDBLK
  5
99B9
330
99B3
100
AcDbEntity
  8
0
100
AcDbBlockEnd
  0
BLOCK
  5
99C0
330
99BB
100
AcDbEntity
  8
0
100
AcDbBlockBegin
  2
*S24
 70
     1
 10
0.0
 20
0.0
 30
0.0
  3
*S24
  1

  0
LINE
  5
99BC
330
99BB
100
AcDbEntity
  8
AM_5
 62
     5
100
AcDbLine
 10
388.0746740942129
 20
546.2091487041207
 30
0.0
 11
362.8239554356814
 21
546.2091487041207
 31
0.0
  0
LINE
  5
99BD
330
99BB
100
AcDbEntity
  8
AM_5
 62
     5
100
AcDbLine
 10
362.8239554356814
 20
546.2091487041207
 30
0.0
 11
351.752964718626
 21
532.3579075788651
 31
0.0
  0
TRACE
  5
99BE
330
99BB
100
AcDbEntity
  8
AM_5
 62
     5
370
    35
100
AcDbTrace
 10
351.2490509532532
 20
532.7606747076869
 30
0.0
 11
352.2568784839989
 21
531.9551404500431
 31
0.0
 12
348.6936446297566
 22
528.5303025059977
 32
0.0
 13
348.6936446297566
 23
528.5303025059977
 33
0.0
  0
MTEXT
  5
99BF
330
99BB
100
AcDbEntity
  8
AM_5
 62
     5
100
AcDbMText
 10
388.0746740942129
 20
553.6161202348036
 30
0.0
 40
4.899999999999999
 41
0.0
 71
     7
 72
     5
  1

  7
ACISOTS
 73
     1
 44
1.0
1001
ACAD
1000
MTEXTBEGIN
1070
    73
1070
     1
1070
    44
1040
1.0
1070
    74
1070
     0
1000
MTEXTEND
  0
ENDBLK
  5
99C1
330
99BB
100
AcDbEntity
  8
0
100
AcDbBlockEnd
  0
BLOCK
  5
99C8
330
99C3
100
AcDbEntity
  8
0
100
AcDbBlockBegin
  2
*S25
 70
     1
 10
0.0
 20
0.0
 30
0.0
  3
*S25
  1

  0
LINE
  5
99C4
330
99C3
100
AcDbEntity
  8
AM_5
 62
     5
100
AcDbLine
 10
390.6453507801332
 20
426.7677168698892
 30
0.0
 11
357.1465901924526
 21
426.7677168698892
 31
0.0
  0
LINE
  5
99C5
330
99C3
100
AcDbEntity
  8
AM_5
 62
     5
100
AcDbLine
 10
357.1465901924526
 20
426.7677168698892
 30
0.0
 11
347.3316806347553
 21
440.3531855832355
 31
0.0
  0
TRACE
  5
99C6
330
99C3
100
AcDbEntity
  8
AM_5
 62
     5
370
    35
100
AcDbTrace
 10
347.8545894220189
 20
440.7309644116446
 30
0.0
 11
346.8087718474917
 21
439.9754067548263
 31
0.0
 12
344.4621655323629
 22
444.3250721723946
 32
0.0
 13
344.4621655323629
 23
444.3250721723946
 33
0.0
  0
MTEXT
  5
99C7
330
99C3
100
AcDbEntity
  8
AM_5
 62
     5
100
AcDbMText
 10
390.6453507801332
 20
434.4150978728849
 30
0.0
 40
4.899999999999999
 41
0.0
 71
     7
 72
     5
  1

  7
ACISOTS
 73
     1
 44
1.0
1001
ACAD
1000
MTEXTBEGIN
1070
    73
1070
     1
1070
    44
1040
1.0
1070
    74
1070
     0
1000
MTEXTEND
  0
ENDBLK
  5
99C9
330
99C3
100
AcDbEntity
  8
0
100
AcDbBlockEnd
  0
BLOCK
  5
99D0
330
99CB
100
AcDbEntity
  8
0
100
AcDbBlockBegin
  2
*S26
 70
     1
 10
0.0
 20
0.0
 30
0.0
  3
*S26
  1

  0
LINE
  5
99CC
330
99CB
100
AcDbEntity
  8
AM_5
 62
     5
100
AcDbLine
 10
392.2738149612428
 20
374.9733489350872
 30
0.0
 11
366.9560687050084
 21
374.9733489350872
 31
0.0
  0
LINE
  5
99CD
330
99CB
100
AcDbEntity
  8
AM_5
 62
     5
100
AcDbLine
 10
366.9560687050084
 20
374.9733489350872
 30
0.0
 11
357.2744759250897
 21
391.6083824395846
 31
0.0
  0
TRACE
  5
99CE
330
99CB
100
AcDbEntity
  8
AM_5
 62
     5
370
    35
100
AcDbTrace
 10
357.8320205313509
 20
391.9328735103721
 30
0.0
 11
356.7169313188286
 21
391.2838913687971
 31
0.0
 12
354.8097215286159
 22
395.8433541945155
 32
0.0
 13
354.8097215286159
 23
395.8433541945155
 33
0.0
  0
MTEXT
  5
99CF
330
99CB
100
AcDbEntity
  8
AM_5
 62
     5
100
AcDbMText
 10
392.2738149612428
 20
383.2547668587699
 30
0.0
 40
4.899999999999999
 41
0.0
 71
     7
 72
     5
  1

  7
ACISOTS
 73
     1
 44
1.0
1001
ACAD
1000
MTEXTBEGIN
1070
    73
1070
     1
1070
    44
1040
1.0
1070
    74
1070
     0
1000
MTEXTEND
  0
ENDBLK
  5
99D1
330
99CB
100
AcDbEntity
  8
0
100
AcDbBlockEnd
  0
BLOCK
  5
99D8
330
99D3
100
AcDbEntity
  8
0
100
AcDbBlockBegin
  2
*S27
 70
     1
 10
0.0
 20
0.0
 30
0.0
  3
*S27
  1

  0
LINE
  5
99D4
330
99D3
100
AcDbEntity
  8
AM_5
 62
     5
100
AcDbLine
 10
438.7826254595252
 20
481.1605724632584
 30
0.0
 11
420.4040063372009
 21
481.1605724632584
 31
0.0
  0
LINE
  5
99D5
330
99D3
100
AcDbEntity
  8
AM_5
 62
     5
100
AcDbLine
 10
420.4040063372009
 20
481.1605724632584
 30
0.0
 11
416.6983719850835
 21
464.7713638345435
 31
0.0
  0
TRACE
  5
99D6
330
99D3
100
AcDbEntity
  8
AM_5
 62
     5
370
    35
100
AcDbTrace
 10
416.0691576832248
 20
464.913630504316
 30
0.0
 11
417.3275862869422
 21
464.6290971647712
 31
0.0
 12
415.6177493382351
 22
459.9920066920904
 32
0.0
 13
415.6177493382351
 23
459.9920066920904
 33
0.0
  0
MTEXT
  5
99D7
330
99D3
100
AcDbEntity
  8
AM_5
 62
     5
100
AcDbMText
 10
438.7826254595252
 20
491.3168332440384
 30
0.0
 40
4.899999999999999
 41
0.0
 71
     7
 72
     5
  1

  7
ACISOTS
 73
     1
 44
1.0
1001
ACAD
1000
MTEXTBEGIN
1070
    73
1070
     1
1070
    44
1040
1.0
1070
    74
1070
     0
1000
MTEXTEND
  0
ENDBLK
  5
99D9
330
99D3
100
AcDbEntity
  8
0
100
AcDbBlockEnd
  0
ENDSEC
  0
SECTION
  2
ENTITIES
  0
LINE
  5
1327
330
1F
100
AcDbEntity
  8
AM_VIS
100
AcDbLine
 10
317.4520496387813
 20
402.3076694698493
 30
0.0
 11
317.4520496387813
 21
395.937342346236
 31
0.0
  0
LINE
  5
1339
330
1F
100
AcDbEntity
  8
AM_VIS
100
AcDbLine
 10
308.0520496387813
 20
410.2725059080428
 30
0.0
 11
308.0520496387813
 21
401.6225059080428
 31
0.0
  0
LINE
  5
133F
330
1F
100
AcDbEntity
  8
AM_VIS
100
AcDbLine
 10
308.0520496387813
 20
396.6225059080429
 30
0.0
 11
308.0520496387813
 21
387.9725059080429
 31
0.0
  0
LINE
  5
138B
330
1F
100
AcDbEntity
  8
AM_VIS
100
AcDbLine
 10
347.2020496387812
 20
398.0819450422295
 30
0.0
 11
347.2020496387812
 21
400.1630667738558
 31
0.0
  0
LINE
  5
138D
330
1F
100
AcDbEntity
  8
AM_VIS
100
AcDbLine
 10
339.6722837736137
 20
408.2725059080427
 30
0.0
 11
347.0643146819095
 21
408.2725059080427
 31
0.0
  0
LINE
  5
138E
330
1F
100
AcDbEntity
  8
AM_VIS
100
AcDbLine
 10
351.5520496387812
 20
389.9725059080426
 30
0.0
 11
339.6722837736136
 21
389.9725059080426
 31
0.0
  0
LINE
  5
138F
330
1F
100
AcDbEntity
  8
AM_VIS
100
AcDbLine
 10
351.0520496387812
 20
392.1225059080427
 30
0.0
 11
351.5520496387812
 21
392.1225059080427
 31
0.0
  0
LINE
  5
1390
330
1F
100
AcDbEntity
  8
AM_VIS
100
AcDbLine
 10
326.4318155039489
 20
389.9725059080426
 30
0.0
 11
319.0397845956529
 21
389.9725059080426
 31
0.0
  0
LINE
  5
1391
330
1F
100
AcDbEntity
  8
AM_VIS
100
AcDbLine
 10
314.5520496387812
 20
408.2725059080427
 30
0.0
 11
326.4318155039489
 21
408.2725059080427
 31
0.0
  0
LINE
  5
1392
330
1F
100
AcDbEntity
  8
AM_VIS
100
AcDbLine
 10
315.0520496387812
 20
406.1225059080427
 30
0.0
 11
314.5520496387812
 21
406.1225059080427
 31
0.0
  0
LINE
  5
1393
330
1F
100
AcDbEntity
  8
AM_VIS
100
AcDbLine
 10
343.4527075619959
 20
400.6225059080426
 30
0.0
 11
343.2500886659668
 21
400.6225059080426
 31
0.0
  0
LINE
  5
1394
330
1F
100
AcDbEntity
  8
AM_VIS
100
AcDbLine
 10
343.2500886659668
 20
397.6225059080427
 30
0.0
 11
343.4527075619959
 21
397.6225059080427
 31
0.0
  0
LINE
  5
1395
330
1F
100
AcDbEntity
  8
AM_VIS
100
AcDbLine
 10
322.6513917155665
 20
397.6225059080426
 30
0.0
 11
322.8540106115957
 21
397.6225059080426
 31
0.0
  0
LINE
  5
1396
330
1F
100
AcDbEntity
  8
AM_VIS
100
AcDbLine
 10
322.8540106115957
 20
400.6225059080426
 30
0.0
 11
322.6513917155665
 21
400.6225059080426
 31
0.0
  0
LINE
  5
1397
330
1F
100
AcDbEntity
  8
AM_VIS
100
AcDbLine
 10
335.3020496387812
 20
399.1225059080427
 30
0.0
 11
335.3020496387812
 21
394.190839489043
 31
0.0
  0
LINE
  5
1398
330
1F
100
AcDbEntity
  8
AM_VIS
100
AcDbLine
 10
358.0520496387813
 20
410.2725059080427
 30
0.0
 11
308.0520496387813
 21
410.2725059080427
 31
0.0
  0
LINE
  5
140E
330
1F
100
AcDbEntity
  8
AM_VIS
100
AcDbLine
 10
308.0520496387813
 20
387.9725059080426
 30
0.0
 11
358.0520496387813
 21
387.9725059080426
 31
0.0
  0
LINE
  5
1412
330
1F
100
AcDbEntity
  8
AM_VIS
100
AcDbLine
 10
314.9020496387813
 20
395.1371869853639
 30
0.0
 11
314.9020496387813
 21
396.6225059080426
 31
0.0
  0
LINE
  5
1413
330
1F
100
AcDbEntity
  8
AM_VIS
100
AcDbLine
 10
314.9020496387813
 20
401.6225059080427
 30
0.0
 11
314.9020496387813
 21
403.1078248307214
 31
0.0
  0
ARC
  5
1415
330
1F
100
AcDbEntity
  8
AM_VIS
100
AcDbCircle
 10
351.2868259496263
 20
399.1225059080428
 30
0.0
 40
36.47056274847199
100
AcDbArc
 50
176.0693816181822
 51
183.9306183818177
  0
LINE
  5
1417
330
1F
100
AcDbEntity
  8
AM_VIS
100
AcDbLine
 10
351.2020496387812
 20
403.1078248307214
 30
0.0
 11
351.2020496387812
 21
401.6225059080427
 31
0.0
  0
LINE
  5
1418
330
1F
100
AcDbEntity
  8
AM_VIS
100
AcDbLine
 10
351.2020496387812
 20
396.6225059080426
 30
0.0
 11
351.2020496387812
 21
395.1371869853639
 31
0.0
  0
ARC
  5
141A
330
1F
100
AcDbEntity
  8
AM_VIS
100
AcDbCircle
 10
314.8172733279362
 20
399.1225059080427
 30
0.0
 40
36.47056274847199
100
AcDbArc
 50
356.0693816181823
 51
3.93061838181777
  0
LINE
  5
141C
330
1F
100
AcDbEntity
  8
AM_VIS
100
AcDbLine
 10
335.3020496387812
 20
404.0541723270423
 30
0.0
 11
335.3020496387812
 21
399.1225059080427
 31
0.0
  0
ARC
  5
141E
330
1F
100
AcDbEntity
  8
AM_VIS
100
AcDbCircle
 10
332.3809571202162
 20
400.1309073150162
 30
0.0
 40
4.229061029297184
100
AcDbArc
 50
111.9221875425792
 51
127.5754886427645
  0
ARC
  5
141F
330
1F
100
AcDbEntity
  8
AM_VIS
100
AcDbCircle
 10
333.7231421573474
 20
400.1309073150184
 30
0.0
 40
4.229061029294741
100
AcDbArc
 50
52.42451135722916
 51
68.07781245742413
  0
LINE
  5
1420
330
1F
100
AcDbEntity
  8
AM_VIS
100
AcDbLine
 10
330.8020496387812
 20
394.190839489043
 30
0.0
 11
330.8020496387812
 21
399.1225059080427
 31
0.0
  0
LINE
  5
1421
330
1F
100
AcDbEntity
  8
AM_VIS
100
AcDbLine
 10
330.8020496387812
 20
399.1225059080427
 30
0.0
 11
330.8020496387812
 21
404.0541723270423
 31
0.0
  0
ARC
  5
1423
330
1F
100
AcDbEntity
  8
AM_VIS
100
AcDbCircle
 10
332.3809571202144
 20
398.1141045010657
 30
0.0
 40
4.229061029293172
100
AcDbArc
 50
232.4245113572269
 51
248.0778124574278
  0
LINE
  5
1432
330
1F
100
AcDbEntity
  8
AM_VIS
100
AcDbLine
 10
313.5520496387812
 20
407.1225059080426
 30
0.0
 11
313.5520496387812
 21
407.2725059080426
 31
0.0
  0
LINE
  5
1434
330
1F
100
AcDbEntity
  8
AM_VIS
100
AcDbLine
 10
308.0520496387813
 20
409.7725059080427
 30
0.0
 11
308.0520496387813
 21
388.4725059080427
 31
0.0
  0
LINE
  5
1435
330
1F
100
AcDbEntity
  8
AM_VIS
100
AcDbLine
 10
352.5520496387812
 20
391.1225059080427
 30
0.0
 11
352.5520496387812
 21
390.9725059080427
 31
0.0
  0
LINE
  5
1437
330
1F
100
AcDbEntity
  8
AM_VIS
100
AcDbLine
 10
358.0520496387813
 20
388.4725059080427
 30
0.0
 11
358.0520496387813
 21
409.7725059080427
 31
0.0
  0
ARC
  5
1438
330
1F
100
AcDbEntity
  8
AM_VIS
100
AcDbCircle
 10
315.0520496387812
 20
399.1225059080427
 30
0.0
 40
3.98814078430813
100
AcDbArc
 50
114.4391511387341
 51
245.5608488612658
  0
ARC
  5
143B
330
1F
100
AcDbEntity
  8
AM_VIS
100
AcDbCircle
 10
351.0520496387812
 20
399.1225059080427
 30
0.0
 40
3.98814078430813
100
AcDbArc
 50
294.4391511387342
 51
65.56084886126583
  0
ARC
  5
143C
330
1F
100
AcDbEntity
  8
AM_VIS
100
AcDbCircle
 10
351.0520496387812
 20
399.1225059080427
 30
0.0
 40
3.98814078430813
100
AcDbArc
 50
164.8757108018919
 51
195.124289198108
  0
ARC
  5
143D
330
1F
100
AcDbEntity
  8
AM_VIS
100
AcDbCircle
 10
315.0520496387812
 20
399.1225059080427
 30
0.0
 40
3.98814078430813
100
AcDbArc
 50
344.875710801892
 51
15.12428919810806
  0
ARC
  5
143E
330
1F
100
AcDbEntity
  8
AM_VIS
100
AcDbCircle
 10
351.0520496387812
 20
399.1225059080427
 30
0.0
 40
3.98814078430813
100
AcDbArc
 50
65.56084886126583
 51
164.8757108018919
  0
ARC
  5
143F
330
1F
100
AcDbEntity
  8
AM_VIS
100
AcDbCircle
 10
315.0520496387812
 20
399.1225059080427
 30
0.0
 40
3.98814078430813
100
AcDbArc
 50
245.5608488612658
 51
344.875710801892
  0
ARC
  5
1440
330
1F
100
AcDbEntity
  8
AM_VIS
100
AcDbCircle
 10
347.2674663885828
 20
406.1706921727719
 30
0.0
 40
1.0
100
AcDbArc
 50
298.2339511367389
 51
16.87967440363704
  0
ARC
  5
1441
330
1F
100
AcDbEntity
  8
AM_VIS
100
AcDbCircle
 10
352.0520496387812
 20
407.6225059080426
 30
0.0
 40
4.0
100
AcDbArc
 50
184.0139872180559
 51
196.879674403637
  0
ARC
  5
1442
330
1F
100
AcDbEntity
  8
AM_VIS
100
AcDbCircle
 10
347.0643146819095
 20
407.2725059080426
 30
0.0
 40
1.0
100
AcDbArc
 50
4.013987218055889
 51
90.0
  0
ARC
  5
1443
330
1F
100
AcDbEntity
  8
AM_VIS
100
AcDbCircle
 10
339.6722837736137
 20
407.2725059080426
 30
0.0
 40
0.9999999999999998
100
AcDbArc
 50
90.0
 51
230.9130902647584
  0
ARC
  5
1444
330
1F
100
AcDbEntity
  8
AM_VIS
100
AcDbCircle
 10
333.0520496387813
 20
399.1225059080428
 30
0.0
 40
9.5
100
AcDbArc
 50
13.77414699802693
 51
50.91309026475845
  0
CIRCLE
  5
1445
330
1F
100
AcDbEntity
  8
AM_VIS
100
AcDbCircle
 10
333.0520496387813
 20
399.1225059080427
 30
0.0
 40
6.700000000000001
  0
CIRCLE
  5
1446
330
1F
100
AcDbEntity
  8
AM_VIS
100
AcDbCircle
 10
315.0520496387812
 20
399.1225059080427
 30
0.0
 40
5.25
  0
CIRCLE
  5
1447
330
1F
100
AcDbEntity
  8
AM_VIS
100
AcDbCircle
 10
351.0520496387812
 20
399.1225059080427
 30
0.0
 40
5.250000000000001
  0
ARC
  5
1448
330
1F
100
AcDbEntity
  8
AM_VIS
100
AcDbCircle
 10
339.6722837736136
 20
390.9725059080427
 30
0.0
 40
0.9999999999999998
100
AcDbArc
 50
129.0869097352415
 51
270.0
  0
ARC
  5
1449
330
1F
100
AcDbEntity
  8
AM_VIS
100
AcDbCircle
 10
351.5520496387812
 20
391.1225059080427
 30
0.0
 40
0.9999999999999998
100
AcDbArc
 50
0.0
 51
90.0
  0
ARC
  5
144A
330
1F
100
AcDbEntity
  8
AM_VIS
100
AcDbCircle
 10
318.8366328889797
 20
392.0743196433134
 30
0.0
 40
1.0
100
AcDbArc
 50
118.233951136739
 51
196.879674403637
  0
ARC
  5
144B
330
1F
100
AcDbEntity
  8
AM_VIS
100
AcDbCircle
 10
314.0520496387812
 20
390.6225059080427
 30
0.0
 40
4.0
100
AcDbArc
 50
4.013987218055889
 51
16.87967440363704
  0
ARC
  5
144C
330
1F
100
AcDbEntity
  8
AM_VIS
100
AcDbCircle
 10
319.0397845956529
 20
390.9725059080427
 30
0.0
 40
0.9999999999999998
100
AcDbArc
 50
184.0139872180559
 51
270.0
  0
ARC
  5
144D
330
1F
100
AcDbEntity
  8
AM_VIS
100
AcDbCircle
 10
326.4318155039489
 20
390.9725059080427
 30
0.0
 40
1.0
100
AcDbArc
 50
270.0
 51
50.91309026475845
  0
ARC
  5
144E
330
1F
100
AcDbEntity
  8
AM_VIS
100
AcDbCircle
 10
326.4318155039489
 20
407.2725059080426
 30
0.0
 40
0.9999999999999998
100
AcDbArc
 50
309.086909735241
 51
90.0
  0
ARC
  5
144F
330
1F
100
AcDbEntity
  8
AM_VIS
100
AcDbCircle
 10
314.5520496387812
 20
407.1225059080426
 30
0.0
 40
0.9999999999999998
100
AcDbArc
 50
180.0
 51
270.0
  0
ARC
  5
1450
330
1F
100
AcDbEntity
  8
AM_VIS
100
AcDbCircle
 10
351.0520496387812
 20
399.1225059080427
 30
0.0
 40
7.0
100
AcDbArc
 50
198.2099568642828
 51
270.0
  0
ARC
  5
1451
330
1F
100
AcDbEntity
  8
AM_VIS
100
AcDbCircle
 10
351.0520496387812
 20
399.1225059080427
 30
0.0
 40
7.0
100
AcDbArc
 50
118.2339511367404
 51
161.7900431357172
  0
ARC
  5
1452
330
1F
100
AcDbEntity
  8
AM_VIS
100
AcDbCircle
 10
343.4527075619959
 20
401.6225059080427
 30
0.0
 40
1.0
100
AcDbArc
 50
270.0
 51
341.7900431357172
  0
ARC
  5
1453
330
1F
100
AcDbEntity
  8
AM_VIS
100
AcDbCircle
 10
343.2500886659668
 20
401.6225059080427
 30
0.0
 40
0.9999999999999998
100
AcDbArc
 50
193.7741469980269
 51
270.0
  0
ARC
  5
1454
330
1F
100
AcDbEntity
  8
AM_VIS
100
AcDbCircle
 10
333.0520496387813
 20
399.1225059080428
 30
0.0
 40
9.5
100
AcDbArc
 50
309.0869097352415
 51
346.2258530019731
  0
ARC
  5
1455
330
1F
100
AcDbEntity
  8
AM_VIS
100
AcDbCircle
 10
343.2500886659668
 20
396.6225059080427
 30
0.0
 40
1.0
100
AcDbArc
 50
90.0
 51
166.225853001973
  0
ARC
  5
1456
330
1F
100
AcDbEntity
  8
AM_VIS
100
AcDbCircle
 10
343.4527075619959
 20
396.6225059080427
 30
0.0
 40
1.0
100
AcDbArc
 50
18.20995686428278
 51
90.0
  0
ARC
  5
1457
330
1F
100
AcDbEntity
  8
AM_VIS
100
AcDbCircle
 10
333.0520496387813
 20
399.1225059080428
 30
0.0
 40
9.5
100
AcDbArc
 50
193.7741469980269
 51
230.9130902647584
  0
ARC
  5
1458
330
1F
100
AcDbEntity
  8
AM_VIS
100
AcDbCircle
 10
315.0520496387812
 20
399.1225059080427
 30
0.0
 40
7.0
100
AcDbArc
 50
18.20995686428278
 51
90.0
  0
ARC
  5
1459
330
1F
100
AcDbEntity
  8
AM_VIS
100
AcDbCircle
 10
315.0520496387812
 20
399.1225059080427
 30
0.0
 40
7.0
100
AcDbArc
 50
298.2339511367404
 51
341.7900431357172
  0
ARC
  5
145A
330
1F
100
AcDbEntity
  8
AM_VIS
100
AcDbCircle
 10
322.6513917155665
 20
396.6225059080426
 30
0.0
 40
1.0
100
AcDbArc
 50
90.0
 51
161.7900431357172
  0
ARC
  5
145B
330
1F
100
AcDbEntity
  8
AM_VIS
100
AcDbCircle
 10
322.8540106115957
 20
396.6225059080426
 30
0.0
 40
0.9999999999999998
100
AcDbArc
 50
13.77414699802693
 51
90.0
  0
ARC
  5
145C
330
1F
100
AcDbEntity
  8
AM_VIS
100
AcDbCircle
 10
333.0520496387813
 20
399.1225059080428
 30
0.0
 40
9.5
100
AcDbArc
 50
129.0869097352415
 51
166.225853001973
  0
ARC
  5
145D
330
1F
100
AcDbEntity
  8
AM_VIS
100
AcDbCircle
 10
322.8540106115957
 20
401.6225059080426
 30
0.0
 40
0.9999999999999998
100
AcDbArc
 50
270.0
 51
346.2258530019731
  0
ARC
  5
145E
330
1F
100
AcDbEntity
  8
AM_VIS
100
AcDbCircle
 10
322.6513917155665
 20
401.6225059080426
 30
0.0
 40
0.9999999999999998
100
AcDbArc
 50
198.2099568642828
 51
270.0
  0
ARC
  5
1460
330
1F
100
AcDbEntity
  8
AM_VIS
100
AcDbCircle
 10
333.0520496387813
 20
399.1225059080427
 30
0.0
 40
5.438140784308131
100
AcDbArc
 50
126.7003983555956
 51
233.2996016444043
  0
ARC
  5
1461
330
1F
100
AcDbEntity
  8
AM_VIS
100
AcDbCircle
 10
333.0520496387813
 20
399.1225059080427
 30
0.0
 40
5.438140784308131
100
AcDbArc
 50
306.7003983555956
 51
53.29960164440439
  0
CIRCLE
  5
1462
330
1F
100
AcDbEntity
  8
AM_VIS
100
AcDbCircle
 10
352.0520496387812
 20
407.6225059080426
 30
0.0
 40
1.6
  0
ARC
  5
1464
330
1F
100
AcDbEntity
  8
AM_VIS
100
AcDbCircle
 10
315.0520496387812
 20
399.1225059080427
 30
0.0
 40
3.98814078430813
100
AcDbArc
 50
15.12428919810806
 51
114.4391511387341
  0
ARC
  5
1465
330
1F
100
AcDbEntity
  8
AM_VIS
100
AcDbCircle
 10
351.0520496387812
 20
399.1225059080427
 30
0.0
 40
3.98814078430813
100
AcDbArc
 50
195.124289198108
 51
294.4391511387342
  0
ARC
  5
1467
330
1F
100
AcDbEntity
  8
AM_VIS
100
AcDbCircle
 10
333.0520496387813
 20
399.1225059080427
 30
0.0
 40
5.438140784308131
100
AcDbArc
 50
53.29960164440439
 51
126.7003983555956
  0
ARC
  5
1468
330
1F
100
AcDbEntity
  8
AM_VIS
100
AcDbCircle
 10
333.0520496387813
 20
399.1225059080427
 30
0.0
 40
5.438140784308131
100
AcDbArc
 50
233.2996016444043
 51
306.7003983555956
  0
ARC
  5
1469
330
1F
100
AcDbEntity
  8
AM_VIS
100
AcDbCircle
 10
314.5520496387812
 20
407.2725059080426
 30
0.0
 40
0.9999999999999998
100
AcDbArc
 50
90.0
 51
180.0
  0
CIRCLE
  5
146A
330
1F
100
AcDbEntity
  8
AM_VIS
100
AcDbCircle
 10
314.0520496387812
 20
390.6225059080427
 30
0.0
 40
1.6
  0
ARC
  5
146B
330
1F
100
AcDbEntity
  8
AM_VIS
100
AcDbCircle
 10
351.5520496387812
 20
390.9725059080427
 30
0.0
 40
0.9999999999999998
100
AcDbArc
 50
270.0
 51
0.0
  0
ARC
  5
1494
330
1F
100
AcDbEntity
  8
AM_VIS
100
AcDbCircle
 10
343.0520496387812
 20
445.5191193600963
 30
0.0
 40
4.703069865443481
100
AcDbArc
 50
0.0
 51
180.0
  0
ARC
  5
1495
330
1F
100
AcDbEntity
  8
AM_VIS
100
AcDbCircle
 10
333.0520496387813
 20
469.0191193600963
 30
0.0
 40
4.203069865443484
100
AcDbArc
 50
180.0
 51
0.0
  0
ARC
  5
1496
330
1F
100
AcDbEntity
  8
AM_VIS
100
AcDbCircle
 10
323.0520496387812
 20
445.5191193600963
 30
0.0
 40
4.703069865443481
100
AcDbArc
 50
0.0
 51
180.0
  0
LINE
  5
1497
330
1F
100
AcDbEntity
  8
AM_VIS
100
AcDbLine
 10
355.0520496387812
 20
473.0191193600964
 30
0.0
 11
355.0520496387812
 21
473.5191193600964
 31
0.0
  0
LINE
  5
1498
330
1F
100
AcDbEntity
  8
AM_VIS
100
AcDbLine
 10
349.0520496387812
 20
473.5191193600964
 30
0.0
 11
349.0520496387812
 21
473.0191193600964
 31
0.0
  0
LINE
  5
1499
330
1F
100
AcDbEntity
  8
AM_VIS
100
AcDbLine
 10
349.0520496387812
 20
473.5191193600964
 30
0.0
 11
355.0520496387812
 21
473.5191193600964
 31
0.0
  0
CIRCLE
  5
149A
330
1F
100
AcDbEntity
  8
AM_VIS
100
AcDbCircle
 10
333.0520496387813
 20
469.0191193600964
 30
0.0
 40
1.399999999999999
  0
LINE
  5
14DA
330
1F
100
AcDbEntity
  8
AM_VIS
100
AcDbLine
 10
358.0520496387813
 20
514.9322087776306
 30
0.0
 11
358.0520496387813
 21
537.2322087776305
 31
0.0
  0
LINE
  5
1556
330
1F
100
AcDbEntity
  8
AM_VIS
100
AcDbLine
 10
308.0520496387813
 20
537.2322087776304
 30
0.0
 11
308.0520496387813
 21
514.9322087776304
 31
0.0
  0
LINE
  5
1588
330
1F
100
AcDbEntity
  8
AM_VIS
100
AcDbLine
 10
322.8020496387812
 20
526.0822087776305
 30
0.0
 11
322.8020496387812
 21
533.0146000733635
 31
0.0
  0
LINE
  5
1589
330
1F
100
AcDbEntity
  8
AM_VIS
100
AcDbLine
 10
343.3020496387812
 20
530.0146000733636
 30
0.0
 11
343.3020496387812
 21
519.1498174818975
 31
0.0
  0
LINE
  5
15CD
330
1F
100
AcDbEntity
  8
AM_VIS
100
AcDbLine
 10
355.0520496387812
 20
514.9322087776305
 30
0.0
 11
358.0520496387813
 21
514.9322087776305
 31
0.0
  0
LINE
  5
15CE
330
1F
100
AcDbEntity
  8
AM_VIS
100
AcDbLine
 10
308.0520496387813
 20
514.9322087776305
 30
0.0
 11
349.0520496387812
 21
514.9322087776305
 31
0.0
  0
LINE
  5
15CF
330
1F
100
AcDbEntity
  8
AM_VIS
100
AcDbLine
 10
342.7350429068629
 20
517.9322087776305
 30
0.0
 11
344.3690563706996
 21
517.9322087776305
 31
0.0
  0
LINE
  5
15D0
330
1F
100
AcDbEntity
  8
AM_VIS
100
AcDbLine
 10
340.0520496387812
 20
534.2322087776306
 30
0.0
 11
340.0520496387812
 21
534.0690417581356
 31
0.0
  0
LINE
  5
15D1
330
1F
100
AcDbEntity
  8
AM_VIS
100
AcDbLine
 10
330.677780375152
 20
535.2322087776306
 30
0.0
 11
339.0520496387812
 21
535.2322087776306
 31
0.0
  0
LINE
  5
15D2
330
1F
100
AcDbEntity
  8
AM_VIS
100
AcDbLine
 10
326.0520496387812
 20
517.9322087776305
 30
0.0
 11
326.0520496387812
 21
518.0953757971253
 31
0.0
  0
LINE
  5
15D3
330
1F
100
AcDbEntity
  8
AM_VIS
100
AcDbLine
 10
335.4263189024105
 20
516.9322087776305
 30
0.0
 11
327.0520496387812
 21
516.9322087776305
 31
0.0
  0
LINE
  5
15D4
330
1F
100
AcDbEntity
  8
AM_VIS
100
AcDbLine
 10
356.5520496387812
 20
534.2322087776306
 30
0.0
 11
356.5520496387812
 21
523.6443866041216
 31
0.0
  0
LINE
  5
15D5
330
1F
100
AcDbEntity
  8
AM_VIS
100
AcDbLine
 10
348.0520496387812
 20
535.2322087776306
 30
0.0
 11
355.5520496387812
 21
535.2322087776306
 31
0.0
  0
LINE
  5
15D6
330
1F
100
AcDbEntity
  8
AM_VIS
100
AcDbLine
 10
347.0520496387812
 20
534.0690417581356
 30
0.0
 11
347.0520496387812
 21
534.2322087776306
 31
0.0
  0
LINE
  5
15D7
330
1F
100
AcDbEntity
  8
AM_VIS
100
AcDbLine
 10
309.5520496387812
 20
517.9322087776305
 30
0.0
 11
309.5520496387812
 21
528.5200309511394
 31
0.0
  0
LINE
  5
15D8
330
1F
100
AcDbEntity
  8
AM_VIS
100
AcDbLine
 10
318.0520496387812
 20
516.9322087776305
 30
0.0
 11
310.5520496387812
 21
516.9322087776305
 31
0.0
  0
LINE
  5
15D9
330
1F
100
AcDbEntity
  8
AM_VIS
100
AcDbLine
 10
319.0520496387812
 20
518.0953757971253
 30
0.0
 11
319.0520496387812
 21
517.9322087776305
 31
0.0
  0
LINE
  5
15DA
330
1F
100
AcDbEntity
  8
AM_VIS
100
AcDbLine
 10
311.0520496387812
 20
534.5822087776305
 30
0.0
 11
311.0520496387812
 21
536.7322087776305
 31
0.0
  0
LINE
  5
15DB
330
1F
100
AcDbEntity
  8
AM_VIS
100
AcDbLine
 10
317.0520496387812
 20
536.7322087776305
 30
0.0
 11
317.0520496387812
 21
534.5822087776305
 31
0.0
  0
LINE
  5
15DC
330
1F
100
AcDbEntity
  8
AM_VIS
100
AcDbLine
 10
355.0520496387812
 20
517.5822087776305
 30
0.0
 11
355.0520496387812
 21
515.4322087776305
 31
0.0
  0
LINE
  5
15DD
330
1F
100
AcDbEntity
  8
AM_VIS
100
AcDbLine
 10
349.0520496387812
 20
515.4322087776305
 30
0.0
 11
349.0520496387812
 21
517.5822087776305
 31
0.0
  0
LINE
  5
15DE
330
1F
100
AcDbEntity
  8
AM_VIS
100
AcDbLine
 10
323.3690563706997
 20
534.2322087776306
 30
0.0
 11
321.7350429068627
 21
534.2322087776306
 31
0.0
  0
LINE
  5
15DF
330
1F
100
AcDbEntity
  8
AM_VIS
100
AcDbLine
 10
358.0520496387813
 20
537.2322087776305
 30
0.0
 11
317.0520496387812
 21
537.2322087776305
 31
0.0
  0
LINE
  5
15E0
330
1F
100
AcDbEntity
  8
AM_VIS
100
AcDbLine
 10
311.0520496387812
 20
537.2322087776305
 30
0.0
 11
317.0520496387812
 21
537.2322087776305
 31
0.0
  0
LINE
  5
15E1
330
1F
100
AcDbEntity
  8
AM_VIS
100
AcDbLine
 10
311.0520496387812
 20
537.2322087776305
 30
0.0
 11
308.0520496387813
 21
537.2322087776305
 31
0.0
  0
LINE
  5
15E2
330
1F
100
AcDbEntity
  8
AM_VIS
100
AcDbLine
 10
322.8020496387812
 20
522.1498174818975
 30
0.0
 11
322.8020496387812
 21
526.0822087776305
 31
0.0
  0
LINE
  5
15E3
330
1F
100
AcDbEntity
  8
AM_VIS
100
AcDbLine
 10
326.3020496387812
 20
531.5205936229644
 30
0.0
 11
326.3020496387812
 21
526.0822087776305
 31
0.0
  0
LINE
  5
15E4
330
1F
100
AcDbEntity
  8
AM_VIS
100
AcDbLine
 10
326.3020496387812
 20
526.0822087776305
 30
0.0
 11
326.3020496387812
 21
523.6438239322967
 31
0.0
  0
LINE
  5
15E7
330
1F
100
AcDbEntity
  8
AM_VIS
100
AcDbLine
 10
339.8020496387812
 20
520.6438239322968
 30
0.0
 11
339.8020496387812
 21
526.0822087776306
 31
0.0
  0
LINE
  5
15E8
330
1F
100
AcDbEntity
  8
AM_VIS
100
AcDbLine
 10
339.8020496387812
 20
526.0822087776306
 30
0.0
 11
339.8020496387812
 21
528.5205936229645
 31
0.0
  0
ARC
  5
15EA
330
1F
100
AcDbEntity
  8
AM_VIS
100
AcDbCircle
 10
314.0523752002327
 20
534.5841413557559
 30
0.0
 40
1.601937555339153
100
AcDbArc
 50
251.8005826102299
 51
269.0749225435627
  0
ARC
  5
15ED
330
1F
100
AcDbEntity
  8
AM_VIS
100
AcDbCircle
 10
314.0527266728444
 20
534.5828037415823
 30
0.0
 40
1.600776805259722
100
AcDbArc
 50
190.8430357585051
 51
251.7736787954821
  0
LINE
  5
15EF
330
1F
100
AcDbEntity
  8
AM_VIS
100
AcDbLine
 10
308.0520496387813
 20
536.7322087776305
 30
0.0
 11
308.0520496387813
 21
515.4322087776305
 31
0.0
  0
LINE
  5
15F0
330
1F
100
AcDbEntity
  8
AM_VIS
100
AcDbLine
 10
355.0520496387812
 20
514.9322087776305
 30
0.0
 11
349.0520496387812
 21
514.9322087776305
 31
0.0
  0
ARC
  5
15F2
330
1F
100
AcDbEntity
  8
AM_VIS
100
AcDbCircle
 10
352.0517240773294
 20
517.5802761995035
 30
0.0
 40
1.601937555340761
100
AcDbArc
 50
71.80058261023868
 51
89.07492254355458
  0
ARC
  5
15F5
330
1F
100
AcDbEntity
  8
AM_VIS
100
AcDbCircle
 10
352.051372604718
 20
517.5816138136789
 30
0.0
 40
1.600776805259647
100
AcDbArc
 50
10.84303575846474
 51
71.77367879548185
  0
LINE
  5
15F6
330
1F
100
AcDbEntity
  8
AM_VIS
100
AcDbLine
 10
358.0520496387813
 20
515.4322087776305
 30
0.0
 11
358.0520496387813
 21
536.7322087776305
 31
0.0
  0
LINE
  5
15F7
330
1F
100
AcDbEntity
  8
AM_VIS
100
AcDbLine
 10
317.0520496387812
 20
536.7322087776305
 30
0.0
 11
317.0520496387812
 21
537.2322087776305
 31
0.0
  0
ARC
  5
15F8
330
1F
100
AcDbEntity
  8
AM_VIS
100
AcDbCircle
 10
343.5520496387812
 20
524.5822087776304
 30
0.0
 40
5.438140784308131
100
AcDbArc
 50
277.9272015741516
 51
82.07279842584833
  0
ARC
  5
15F9
330
1F
100
AcDbEntity
  8
AM_VIS
100
AcDbCircle
 10
322.5520496387812
 20
527.5822087776305
 30
0.0
 40
5.438140784308131
100
AcDbArc
 50
330.8632713522541
 51
29.13672864774588
  0
ARC
  5
15FB
330
1F
100
AcDbEntity
  8
AM_VIS
100
AcDbCircle
 10
322.5520496387812
 20
527.5822087776305
 30
0.0
 40
5.438140784308131
100
AcDbArc
 50
97.92720157415168
 51
262.0727984258484
  0
ARC
  5
15FC
330
1F
100
AcDbEntity
  8
AM_VIS
100
AcDbCircle
 10
322.5520496387812
 20
527.5822087776305
 30
0.0
 40
5.438140784308131
100
AcDbArc
 50
29.13672864774588
 51
97.92720157415168
  0
ARC
  5
15FD
330
1F
100
AcDbEntity
  8
AM_VIS
100
AcDbCircle
 10
343.5520496387812
 20
524.5822087776304
 30
0.0
 40
5.438140784308131
100
AcDbArc
 50
150.8632713522541
 51
209.1367286477459
  0
ARC
  5
15FE
330
1F
100
AcDbEntity
  8
AM_VIS
100
AcDbCircle
 10
343.5520496387812
 20
524.5822087776304
 30
0.0
 40
5.438140784308131
100
AcDbArc
 50
209.1367286477459
 51
277.9272015741516
  0
LINE
  5
1600
330
1F
100
AcDbEntity
  8
AM_VIS
100
AcDbLine
 10
355.0520496387812
 20
514.9322087776305
 30
0.0
 11
355.0520496387812
 21
515.4322087776305
 31
0.0
  0
LINE
  5
1601
330
1F
100
AcDbEntity
  8
AM_VIS
100
AcDbLine
 10
349.0520496387812
 20
515.4322087776305
 30
0.0
 11
349.0520496387812
 21
514.9322087776305
 31
0.0
  0
ARC
  5
1602
330
1F
100
AcDbEntity
  8
AM_VIS
100
AcDbCircle
 10
343.5520496387812
 20
524.5822087776304
 30
0.0
 40
6.700000000000001
100
AcDbArc
 50
277.0041539781068
 51
262.9958460218915
  0
ARC
  5
1603
330
1F
100
AcDbEntity
  8
AM_VIS
100
AcDbCircle
 10
339.0520496387812
 20
534.0690417581356
 30
0.0
 40
1.0
100
AcDbArc
 50
295.3769335251532
 51
0.0
  0
ARC
  5
1604
330
1F
100
AcDbEntity
  8
AM_VIS
100
AcDbCircle
 10
339.0520496387812
 20
534.2322087776306
 30
0.0
 40
0.9999999999999998
100
AcDbArc
 50
0.0
 51
90.0
  0
ARC
  5
1605
330
1F
100
AcDbEntity
  8
AM_VIS
100
AcDbCircle
 10
330.677780375152
 20
534.2322087776306
 30
0.0
 40
0.9999999999999998
100
AcDbArc
 50
90.0
 51
219.2964802391875
  0
ARC
  5
1606
330
1F
100
AcDbEntity
  8
AM_VIS
100
AcDbCircle
 10
322.5520496387812
 20
527.5822087776305
 30
0.0
 40
9.5
100
AcDbArc
 50
295.3769335251518
 51
39.29648023918689
  0
ARC
  5
1607
330
1F
100
AcDbEntity
  8
AM_VIS
100
AcDbCircle
 10
327.0520496387812
 20
518.0953757971253
 30
0.0
 40
1.0
100
AcDbArc
 50
115.3769335251532
 51
180.0
  0
ARC
  5
1608
330
1F
100
AcDbEntity
  8
AM_VIS
100
AcDbCircle
 10
327.0520496387812
 20
517.9322087776305
 30
0.0
 40
0.9999999999999998
100
AcDbArc
 50
180.0
 51
270.0
  0
ARC
  5
1609
330
1F
100
AcDbEntity
  8
AM_VIS
100
AcDbCircle
 10
335.4263189024105
 20
517.9322087776305
 30
0.0
 40
1.0
100
AcDbArc
 50
270.0
 51
39.29648023918751
  0
ARC
  5
160A
330
1F
100
AcDbEntity
  8
AM_VIS
100
AcDbCircle
 10
343.5520496387812
 20
524.5822087776304
 30
0.0
 40
9.5
100
AcDbArc
 50
115.3769335251532
 51
219.2964802391875
  0
ARC
  5
160B
330
1F
100
AcDbEntity
  8
AM_VIS
100
AcDbCircle
 10
348.0520496387812
 20
534.0690417581356
 30
0.0
 40
0.9999999999999998
100
AcDbArc
 50
180.0
 51
244.6230664748468
  0
ARC
  5
160C
330
1F
100
AcDbEntity
  8
AM_VIS
100
AcDbCircle
 10
343.5520496387812
 20
524.5822087776304
 30
0.0
 40
9.5
100
AcDbArc
 50
358.4140782474216
 51
64.62306647484822
  0
ARC
  5
160D
330
1F
100
AcDbEntity
  8
AM_VIS
100
AcDbCircle
 10
354.0480275669533
 20
524.2916105475538
 30
0.0
 40
1.0
100
AcDbArc
 50
178.4140782474216
 51
253.4328004540148
  0
ARC
  5
160E
330
1F
100
AcDbEntity
  8
AM_VIS
100
AcDbCircle
 10
352.0520496387812
 20
517.5822087776305
 30
0.0
 40
6.0
100
AcDbArc
 50
59.99999999999986
 51
73.43280045401295
  0
ARC
  5
160F
330
1F
100
AcDbEntity
  8
AM_VIS
100
AcDbCircle
 10
355.5520496387812
 20
523.6443866041216
 30
0.0
 40
1.0
100
AcDbArc
 50
239.9999999999998
 51
0.0
  0
ARC
  5
1610
330
1F
100
AcDbEntity
  8
AM_VIS
100
AcDbCircle
 10
355.5520496387812
 20
534.2322087776306
 30
0.0
 40
0.9999999999999998
100
AcDbArc
 50
0.0
 51
90.0
  0
ARC
  5
1611
330
1F
100
AcDbEntity
  8
AM_VIS
100
AcDbCircle
 10
348.0520496387812
 20
534.2322087776306
 30
0.0
 40
0.9999999999999998
100
AcDbArc
 50
90.0
 51
180.0
  0
ARC
  5
1612
330
1F
100
AcDbEntity
  8
AM_VIS
100
AcDbCircle
 10
318.0520496387812
 20
518.0953757971253
 30
0.0
 40
0.9999999999999998
100
AcDbArc
 50
0.0
 51
64.62306647484675
  0
ARC
  5
1613
330
1F
100
AcDbEntity
  8
AM_VIS
100
AcDbCircle
 10
322.5520496387812
 20
527.5822087776305
 30
0.0
 40
9.5
100
AcDbArc
 50
178.4140782474216
 51
244.6230664748482
  0
ARC
  5
1614
330
1F
100
AcDbEntity
  8
AM_VIS
100
AcDbCircle
 10
312.0560717106091
 20
527.8728070077072
 30
0.0
 40
1.0
100
AcDbArc
 50
358.4140782474216
 51
73.43280045401474
  0
ARC
  5
1615
330
1F
100
AcDbEntity
  8
AM_VIS
100
AcDbCircle
 10
314.0520496387812
 20
534.5822087776305
 30
0.0
 40
6.0
100
AcDbArc
 50
239.9999999999998
 51
253.4328004540145
  0
ARC
  5
1616
330
1F
100
AcDbEntity
  8
AM_VIS
100
AcDbCircle
 10
310.5520496387812
 20
528.5200309511394
 30
0.0
 40
1.0
100
AcDbArc
 50
59.99999999999986
 51
180.0
  0
ARC
  5
1617
330
1F
100
AcDbEntity
  8
AM_VIS
100
AcDbCircle
 10
310.5520496387812
 20
517.9322087776305
 30
0.0
 40
0.9999999999999998
100
AcDbArc
 50
180.0
 51
270.0
  0
ARC
  5
1618
330
1F
100
AcDbEntity
  8
AM_VIS
100
AcDbCircle
 10
318.0520496387812
 20
517.9322087776305
 30
0.0
 40
0.9999999999999998
100
AcDbArc
 50
270.0
 51
0.0
  0
ARC
  5
1619
330
1F
100
AcDbEntity
  8
AM_VIS
100
AcDbCircle
 10
352.0520496387812
 20
517.5822087776305
 30
0.0
 40
3.0
100
AcDbArc
 50
0.0
 51
180.0
  0
ARC
  5
161A
330
1F
100
AcDbEntity
  8
AM_VIS
100
AcDbCircle
 10
322.5520496387812
 20
527.5822087776305
 30
0.0
 40
6.700000000000001
100
AcDbArc
 50
97.00415397810848
 51
82.99584602189151
  0
LINE
  5
161B
330
1F
100
AcDbEntity
  8
AM_VIS
100
AcDbLine
 10
311.0520496387812
 20
537.2322087776305
 30
0.0
 11
311.0520496387812
 21
536.7322087776305
 31
0.0
  0
ARC
  5
161C
330
1F
100
AcDbEntity
  8
AM_VIS
100
AcDbCircle
 10
322.5520496387812
 20
527.5822087776305
 30
0.0
 40
5.438140784308131
100
AcDbArc
 50
262.0727984258484
 51
330.8632713522541
  0
ARC
  5
161D
330
1F
100
AcDbEntity
  8
AM_VIS
100
AcDbCircle
 10
343.5520496387812
 20
524.5822087776304
 30
0.0
 40
5.438140784308131
100
AcDbArc
 50
82.07279842584833
 51
150.8632713522541
  0
ARC
  5
161E
330
1F
100
AcDbEntity
  8
AM_VIS
100
AcDbCircle
 10
314.0520496387812
 20
534.5822087776305
 30
0.0
 40
1.6
100
AcDbArc
 50
269.0854620180762
 51
190.826671418271
  0
ARC
  5
161F
330
1F
100
AcDbEntity
  8
AM_VIS
100
AcDbCircle
 10
314.0520496387812
 20
534.5822087776305
 30
0.0
 40
3.0
100
AcDbArc
 50
180.0
 51
0.0
  0
ARC
  5
1621
330
1F
100
AcDbEntity
  8
AM_VIS
100
AcDbCircle
 10
352.0520496387812
 20
517.5822087776305
 30
0.0
 40
1.6
100
AcDbArc
 50
89.08546201807615
 51
10.82667141823385
  0
LINE
  5
1655
330
1F
100
AcDbEntity
  8
AM_VIS
100
AcDbLine
 10
358.0520496387813
 20
387.9725059080426
 30
0.0
 11
358.0520496387813
 21
396.6225059080426
 31
0.0
  0
LINE
  5
165B
330
1F
100
AcDbEntity
  8
AM_VIS
100
AcDbLine
 10
358.0520496387813
 20
401.6225059080426
 30
0.0
 11
358.0520496387813
 21
410.2725059080426
 31
0.0
  0
LINE
  5
169B
330
1F
100
AcDbEntity
  8
AM_VIS
100
AcDbLine
 10
358.0520496387813
 20
458.5191193600964
 30
0.0
 11
358.0520496387813
 21
473.5191193600964
 31
0.0
  0
LINE
  5
169E
330
1F
100
AcDbEntity
  8
AM_VIS
100
AcDbLine
 10
358.0520496387813
 20
458.5191193600964
 30
0.0
 11
358.5520496387812
 21
458.5191193600964
 31
0.0
  0
LINE
  5
169F
330
1F
100
AcDbEntity
  8
AM_VIS
100
AcDbLine
 10
358.5520496387812
 20
453.5191193600964
 30
0.0
 11
358.0520496387813
 21
453.5191193600964
 31
0.0
  0
LINE
  5
16A0
330
1F
100
AcDbEntity
  8
AM_VIS
100
AcDbLine
 10
358.5520496387812
 20
458.5191193600964
 30
0.0
 11
358.5520496387812
 21
453.5191193600964
 31
0.0
  0
LINE
  5
16A2
330
1F
100
AcDbEntity
  8
AM_VIS
100
AcDbLine
 10
358.0520496387813
 20
438.5191193600964
 30
0.0
 11
358.0520496387813
 21
453.5191193600964
 31
0.0
  0
LINE
  5
16A3
330
1F
100
AcDbEntity
  8
AM_VIS
100
AcDbLine
 10
358.5520187774412
 20
453.5191193600964
 30
0.0
 11
358.5520187774412
 21
458.5191193600965
 31
0.0
  0
LINE
  5
172F
330
1F
100
AcDbEntity
  8
AM_VIS
100
AcDbLine
 10
308.0520496387813
 20
473.5191193600964
 30
0.0
 11
308.0520496387813
 21
438.5191193600965
 31
0.0
  0
LINE
  5
17CB
330
1F
100
AcDbEntity
  8
AM_VIS
100
AcDbLine
 10
308.0520496387813
 20
438.5191193600964
 30
0.0
 11
358.0520496387813
 21
438.5191193600964
 31
0.0
  0
ELLIPSE
  5
17CC
330
1F
100
AcDbEntity
  8
AM_VIS
100
AcDbEllipse
 10
312.4480532559183
 20
469.0191193600964
 30
0.0
 11
-0.0000000000000004
 21
3.0
 31
0.0
210
0.0
220
0.0
230
1.0
 40
0.5773502691896272
 41
1.570796326794894
 42
2.748190021579697
  0
LINE
  5
17D1
330
1F
100
AcDbEntity
  8
AM_VIS
100
AcDbLine
 10
310.7160024483493
 20
469.0191193600964
 30
0.0
 11
310.7160024483493
 21
470.8551665505282
 31
0.0
  0
LINE
  5
17D3
330
1F
100
AcDbEntity
  8
AM_VIS
100
AcDbLine
 10
310.0520496387812
 20
471.5191193600964
 30
0.0
 11
310.7160024483493
 21
470.8551665505283
 31
0.0
  0
LINE
  5
17D8
330
1F
100
AcDbEntity
  8
AM_VIS
100
AcDbLine
 10
340.0839810120093
 20
462.1191193600963
 30
0.0
 11
347.0201182655531
 21
462.1191193600963
 31
0.0
  0
LINE
  5
17D9
330
1F
100
AcDbEntity
  8
AM_VIS
100
AcDbLine
 10
347.0201182655531
 20
466.2870685525275
 30
0.0
 11
347.0201182655531
 21
462.1191193600963
 31
0.0
  0
LINE
  5
17DD
330
1F
100
AcDbEntity
  8
AM_VIS
100
AcDbLine
 10
317.0520496387812
 20
443.7511701676653
 30
0.0
 11
317.0520496387812
 21
466.2191193600963
 31
0.0
  0
LINE
  5
17DE
330
1F
100
AcDbEntity
  8
AM_VIS
100
AcDbLine
 10
317.0520496387812
 20
466.2191193600963
 30
0.0
 11
312.0520496387812
 21
466.2191193600963
 31
0.0
  0
LINE
  5
17E0
330
1F
100
AcDbEntity
  8
AM_VIS
100
AcDbLine
 10
311.78410044635
 20
466.2482891595969
 30
0.0
 11
311.78410044635
 21
443.7511701676652
 31
0.0
  0
LINE
  5
17E1
330
1F
100
AcDbEntity
  8
AM_VIS
100
AcDbLine
 10
329.891623038811
 20
466.2482891595969
 30
0.0
 11
311.78410044635
 21
466.2482891595969
 31
0.0
  0
LINE
  5
17E2
330
1F
100
AcDbEntity
  8
AM_VIS
100
AcDbLine
 10
340.0839810120093
 20
462.1191193600963
 30
0.0
 11
340.0839810120093
 21
466.2482891595969
 31
0.0
  0
LINE
  5
17E3
330
1F
100
AcDbEntity
  8
AM_VIS
100
AcDbLine
 10
350.4908001391816
 20
466.2870685525275
 30
0.0
 11
350.4908001391816
 21
443.7511701676652
 31
0.0
  0
LINE
  5
17E4
330
1F
100
AcDbEntity
  8
AM_VIS
100
AcDbLine
 10
353.6132991383809
 20
443.7511701676652
 30
0.0
 11
353.6132991383809
 21
466.2870685525275
 31
0.0
  0
LINE
  5
17E5
330
1F
100
AcDbEntity
  8
AM_VIS
100
AcDbLine
 10
354.3199988312124
 20
443.7511701676652
 30
0.0
 11
354.3199988312124
 21
466.2870685525275
 31
0.0
  0
LINE
  5
17E6
330
1F
100
AcDbEntity
  8
AM_VIS
100
AcDbLine
 10
340.0839810120093
 20
466.2482891595969
 30
0.0
 11
336.2124762387515
 21
466.2482891595969
 31
0.0
  0
LINE
  5
17E8
330
1F
100
AcDbEntity
  8
AM_VIS
100
AcDbLine
 10
345.2056451242163
 20
466.6370740303439
 30
0.0
 11
346.8438028445062
 21
466.2899273141323
 31
0.0
  0
ARC
  5
17E9
330
1F
100
AcDbEntity
  8
AM_VIS
100
AcDbCircle
 10
343.4712153606474
 20
455.3742989894572
 30
0.0
 40
11.38933794181594
100
AcDbArc
 50
81.24716392690809
 51
107.3017462255477
  0
LINE
  5
17EB
330
1F
100
AcDbEntity
  8
AM_VIS
100
AcDbLine
 10
346.8431970361085
 20
466.2870685525275
 30
0.0
 11
347.1809651822325
 21
466.2870685525275
 31
0.0
  0
LINE
  5
17EC
330
1F
100
AcDbEntity
  8
AM_VIS
100
AcDbLine
 10
338.3489797733377
 20
445.5191193600963
 30
0.0
 11
338.3489797733377
 21
440.2870685525275
 31
0.0
  0
LINE
  5
17ED
330
1F
100
AcDbEntity
  8
AM_VIS
100
AcDbLine
 10
347.7551195042247
 20
443.7511701676652
 30
0.0
 11
347.7551195042247
 21
445.5191193600963
 31
0.0
  0
LINE
  5
17EE
330
1F
100
AcDbEntity
  8
AM_VIS
100
AcDbLine
 10
356.0520496387812
 20
443.7511701676652
 30
0.0
 11
347.7551195042247
 21
443.7511701676652
 31
0.0
  0
LINE
  5
17EF
330
1F
100
AcDbEntity
  8
AM_VIS
100
AcDbLine
 10
356.0520496387812
 20
466.2870685525275
 30
0.0
 11
356.0520496387812
 21
443.7511701676652
 31
0.0
  0
LINE
  5
17F0
330
1F
100
AcDbEntity
  8
AM_VIS
100
AcDbLine
 10
348.8614507155397
 20
466.2870685525275
 30
0.0
 11
356.0520496387812
 21
466.2870685525275
 31
0.0
  0
LINE
  5
17F1
330
1F
100
AcDbEntity
  8
AM_VIS
100
AcDbLine
 10
337.2551195042247
 20
471.5191193600964
 30
0.0
 11
346.5520496387812
 21
471.5191193600964
 31
0.0
  0
LINE
  5
17F2
330
1F
100
AcDbEntity
  8
AM_VIS
100
AcDbLine
 10
337.2551195042247
 20
469.0191193600963
 30
0.0
 11
337.2551195042247
 21
471.5191193600964
 31
0.0
  0
LINE
  5
17F3
330
1F
100
AcDbEntity
  8
AM_VIS
100
AcDbLine
 10
328.8489797733378
 20
471.5191193600964
 30
0.0
 11
328.8489797733378
 21
469.0191193600963
 31
0.0
  0
LINE
  5
17F4
330
1F
100
AcDbEntity
  8
AM_VIS
100
AcDbLine
 10
310.0520496387812
 20
471.5191193600964
 30
0.0
 11
328.8489797733378
 21
471.5191193600964
 31
0.0
  0
LINE
  5
17F5
330
1F
100
AcDbEntity
  8
AM_VIS
100
AcDbLine
 10
310.0520496387812
 20
440.2870685525275
 30
0.0
 11
310.0520496387812
 21
471.5191193600964
 31
0.0
  0
LINE
  5
17F6
330
1F
100
AcDbEntity
  8
AM_VIS
100
AcDbLine
 10
318.3489797733378
 20
445.5191193600963
 30
0.0
 11
318.3489797733378
 21
440.2870685525275
 31
0.0
  0
LINE
  5
17F7
330
1F
100
AcDbEntity
  8
AM_VIS
100
AcDbLine
 10
327.7551195042247
 20
440.2870685525275
 30
0.0
 11
327.7551195042247
 21
445.5191193600963
 31
0.0
  0
LINE
  5
17F8
330
1F
100
AcDbEntity
  8
AM_VIS
100
AcDbLine
 10
349.0520496387812
 20
470.5191193600963
 30
0.0
 11
349.0520496387812
 21
473.0191193600963
 31
0.0
  0
LINE
  5
17F9
330
1F
100
AcDbEntity
  8
AM_VIS
100
AcDbLine
 10
355.0520496387812
 20
473.0191193600963
 30
0.0
 11
355.0520496387812
 21
470.5191193600963
 31
0.0
  0
LINE
  5
17FD
330
1F
100
AcDbEntity
  8
AM_VIS
100
AcDbLine
 10
346.5520496387812
 20
471.5191193600964
 30
0.0
 11
346.5520496387812
 21
468.2870685525275
 31
0.0
  0
ELLIPSE
  5
17FE
330
1F
100
AcDbEntity
  8
AM_VIS
100
AcDbEllipse
 10
348.8614507155397
 20
468.2870685525275
 30
0.0
 11
-2.309401076758502
 21
-0.0000000000000005
 31
0.0
210
0.0
220
0.0
230
1.0
 40
0.8660254037844387
 41
0.0000000000000002
 42
1.570796326794896
  0
LINE
  5
17FF
330
1F
100
AcDbEntity
  8
AM_VIS
100
AcDbLine
 10
347.1809651822326
 20
466.2870685525275
 30
0.0
 11
348.8614507155397
 21
466.2870685525275
 31
0.0
  0
LINE
  5
1801
330
1F
100
AcDbEntity
  8
AM_VIS
100
AcDbLine
 10
310.9180750425657
 20
442.8851447638808
 30
0.0
 11
311.78410044635
 21
443.7511701676652
 31
0.0
  0
LINE
  5
1802
330
1F
100
AcDbEntity
  8
AM_VIS
100
AcDbLine
 10
311.78410044635
 20
443.7511701676652
 30
0.0
 11
312.0520496387812
 21
443.7511701676652
 31
0.0
  0
LINE
  5
1803
330
1F
100
AcDbEntity
  8
AM_VIS
100
AcDbLine
 10
312.0520496387812
 20
443.7511701676653
 30
0.0
 11
312.0520496387812
 21
443.7191193600964
 31
0.0
  0
LINE
  5
1804
330
1F
100
AcDbEntity
  8
AM_VIS
100
AcDbLine
 10
312.0520496387812
 20
443.7191193600963
 30
0.0
 11
317.0520496387812
 21
443.7191193600963
 31
0.0
  0
LINE
  5
1805
330
1F
100
AcDbEntity
  8
AM_VIS
100
AcDbLine
 10
317.0520496387812
 20
443.7191193600964
 30
0.0
 11
317.0520496387812
 21
443.7511701676653
 31
0.0
  0
LINE
  5
1806
330
1F
100
AcDbEntity
  8
AM_VIS
100
AcDbLine
 10
317.0520496387812
 20
443.7511701676652
 30
0.0
 11
317.8199988312124
 21
443.7511701676652
 31
0.0
  0
LINE
  5
1807
330
1F
100
AcDbEntity
  8
AM_VIS
100
AcDbLine
 10
318.0844893022751
 20
442.8851447638808
 30
0.0
 11
317.8199988312124
 21
443.7511701676653
 31
0.0
  0
ELLIPSE
  5
1808
330
1F
100
AcDbEntity
  8
AM_VIS
100
AcDbEllipse
 10
311.78410044635
 20
440.2870685525275
 30
0.0
 11
-0.0000000000000005
 21
3.0
 31
0.0
210
0.0
220
0.0
230
1.0
 40
0.5773502691896273
 41
0.5235987755982984
 42
1.570796326794896
  0
ELLIPSE
  5
1809
330
1F
100
AcDbEntity
  8
AM_VIS
100
AcDbEllipse
 10
317.8199988312124
 20
440.2870685525275
 30
0.0
 11
-0.0000000000000006
 21
-3.0
 31
0.0
210
0.0
220
0.0
230
1.0
 40
0.1763269807084651
 41
1.570796326794899
 42
2.617993877991497
  0
LINE
  5
180A
330
1F
100
AcDbEntity
  8
AM_VIS
100
AcDbLine
 10
328.2841004463501
 20
443.7511701676652
 30
0.0
 11
328.0196099752874
 21
442.8851447638808
 31
0.0
  0
LINE
  5
180B
330
1F
100
AcDbEntity
  8
AM_VIS
100
AcDbLine
 10
328.2841004463501
 20
443.7511701676652
 30
0.0
 11
337.8199988312124
 21
443.7511701676652
 31
0.0
  0
LINE
  5
180C
330
1F
100
AcDbEntity
  8
AM_VIS
100
AcDbLine
 10
338.0844893022751
 20
442.8851447638808
 30
0.0
 11
337.8199988312124
 21
443.7511701676653
 31
0.0
  0
ELLIPSE
  5
180D
330
1F
100
AcDbEntity
  8
AM_VIS
100
AcDbEllipse
 10
328.2841004463501
 20
440.2870685525275
 30
0.0
 11
-0.0000000000000004
 21
3.0
 31
0.0
210
0.0
220
0.0
230
1.0
 40
0.1763269807084645
 41
0.5235987755982992
 42
1.570796326794896
  0
ELLIPSE
  5
180E
330
1F
100
AcDbEntity
  8
AM_VIS
100
AcDbEllipse
 10
337.8199988312124
 20
440.2870685525275
 30
0.0
 11
-0.000000000000001
 21
-3.0
 31
0.0
210
0.0
220
0.0
230
1.0
 40
0.1763269807084647
 41
1.5707963267949
 42
2.617993877991498
  0
LINE
  5
180F
330
1F
100
AcDbEntity
  8
AM_VIS
100
AcDbLine
 10
358.0520496387813
 20
473.5191193600964
 30
0.0
 11
355.0520496387812
 21
473.5191193600964
 31
0.0
  0
LINE
  5
1810
330
1F
100
AcDbEntity
  8
AM_VIS
100
AcDbLine
 10
349.0520496387812
 20
473.5191193600964
 30
0.0
 11
308.0520496387813
 21
473.5191193600964
 31
0.0
  0
LINE
  5
1811
330
1F
100
AcDbEntity
  8
AM_VIS
100
AcDbLine
 10
308.0520496387813
 20
473.0191193600964
 30
0.0
 11
308.0520496387813
 21
439.0191193600964
 31
0.0
  0
LINE
  5
1812
330
1F
100
AcDbEntity
  8
AM_VIS
100
AcDbLine
 10
355.0520496387812
 20
470.5191193600963
 30
0.0
 11
349.0520496387812
 21
470.5191193600963
 31
0.0
  0
LINE
  5
1814
330
1F
100
AcDbEntity
  8
AM_VIS
100
AcDbLine
 10
358.0520496387813
 20
439.0191193600964
 30
0.0
 11
358.0520496387813
 21
473.0191193600963
 31
0.0
  0
CIRCLE
  5
1815
330
1F
100
AcDbEntity
  8
AM_VIS
100
AcDbCircle
 10
343.0520496387812
 20
445.5191193600963
 30
0.0
 40
2.1
  0
CIRCLE
  5
1816
330
1F
100
AcDbEntity
  8
AM_VIS
100
AcDbCircle
 10
323.0520496387812
 20
445.5191193600963
 30
0.0
 40
2.1
  0
LINE
  5
1A56
330
1F
100
AcDbEntity
  8
AM_7
100
AcDbLine
 10
284.8428546650546
 20
526.0822087776306
 30
0.0
 11
383.824060870187
 21
526.0822087776306
 31
0.0
  0
TEXT
  5
343C
330
1F
100
AcDbEntity
  8
0
100
AcDbText
 10
353.6998957174203
 20
523.8318240419255
 30
0.0
 40
3.0
  1
B
100
AcDbText
  0
TEXT
  5
343D
330
1F
100
AcDbEntity
  8
0
100
AcDbText
 10
310.0295188477091
 20
525.1892862407506
 30
0.0
 40
3.0
  1
A
100
AcDbText
  0
TEXT
  5
3440
330
1F
100
AcDbEntity
  8
0
100
AcDbText
 10
342.8158218791407
 20
405.0326974276804
 30
0.0
 40
3.0
  1
R2
100
AcDbText
  0
TEXT
  5
3441
330
1F
100
AcDbEntity
  8
0
100
AcDbText
 10
318.773153948064
 20
405.0523907732313
 30
0.0
 40
3.0
  1
R1
100
AcDbText
  0
TEXT
  5
3442
330
1F
100
AcDbEntity
  8
0
100
AcDbText
 10
340.486383276452
 20
390.0632358500734
 30
0.0
 40
3.0
  1
P
100
AcDbText
  0
DIMENSION
  5
3E4E
330
1F
100
AcDbEntity
  8
AM_5
100
AcDbDimension
  2
*D5
 10
265.552049638781
 20
517.5822087776305
 30
0.0
 11
261.7020496387809
 21
526.0822087776306
 31
0.0
 70
    32
 71
     5
 42
17.0
  3
AM_ISO$0
100
AcDbAlignedDimension
 13
309.0520496387812
 23
534.5822087776305
 33
0.0
 14
347.0520496387812
 24
517.5822087776305
 34
0.0
 50
90.0
100
AcDbRotatedDimension
1001
ACAD
1000
DSTYLE
1002
{
1070
    40
1040
1.399999999999999
1070
   272
1070
     8
1002
}
  0
DIMENSION
  5
3E51
330
1F
100
AcDbEntity
  8
AM_5
100
AcDbDimension
  2
*D6
 10
255.552049638781
 20
514.932208711605
 30
0.0
 11
251.7015673553164
 21
526.0822086613136
 31
0.0
 70
    32
 71
     5
 42
22.29999989941723
  3
AM_ISO$0
100
AcDbAlignedDimension
 13
287.5520496387811
 23
537.2322086110222
 33
0.0
 14
287.552049638781
 24
514.932208711605
 34
0.0
 50
90.0
100
AcDbRotatedDimension
1001
ACAD
1000
DSTYLE
1002
{
1070
    40
1040
1.399999999999999
1070
   272
1070
     8
1002
}
  0
DIMENSION
  5
3E54
330
1F
100
AcDbEntity
  8
AM_5
100
AcDbDimension
  2
*D7
 10
314.0520496387812
 20
546.996712265723
 30
0.0
 11
300.8020496387812
 21
550.8471945491876
 31
0.0
 70
    32
 71
     5
 42
26.50000000000011
  3
AM_ISO$0
100
AcDbAlignedDimension
 13
287.5520496387811
 23
537.2322087776304
 33
0.0
 14
314.0520496387812
 24
539.5822087776305
 34
0.0
100
AcDbRotatedDimension
1001
ACAD
1000
DSTYLE
1002
{
1070
    40
1040
1.399999999999999
1070
   272
1070
     8
1002
}
  0
DIMENSION
  5
3E57
330
1F
100
AcDbEntity
  8
AM_5
100
AcDbDimension
  2
*D8
 10
352.0520496387812
 20
546.996712265723
 30
0.0
 11
333.0520496387813
 21
550.8467122657231
 31
0.0
 70
    32
 71
     5
 42
38.0
  3
AM_ISO$0
100
AcDbAlignedDimension
 13
314.0520496387812
 23
539.5822087776305
 33
0.0
 14
352.0520496387812
 24
522.5822087776305
 34
0.0
100
AcDbRotatedDimension
1001
ACAD
1000
DSTYLE
1002
{
1070
    40
1040
1.399999999999999
1070
   272
1070
     8
1002
}
  0
DIMENSION
  5
3E5A
330
1F
100
AcDbEntity
  8
AM_5
100
AcDbDimension
  2
*D9
 10
275.5520496387811
 20
524.5822087776304
 30
0.0
 11
275.552049638781
 21
526.0822087776306
 31
0.0
 70
   160
 71
     5
 42
3.0
  3
AM_ISO$0
100
AcDbAlignedDimension
 13
313.8520496387812
 23
527.5822087776305
 33
0.0
 14
334.9020496387812
 24
524.5822087776304
 34
0.0
 50
90.0
100
AcDbRotatedDimension
1001
ACAD
1000
DSTYLE
1002
{
1070
    40
1040
1.399999999999999
1070
   272
1070
     8
1002
}
  0
DIMENSION
  5
3E5D
330
1F
100
AcDbEntity
  8
AM_5
100
AcDbDimension
  2
*D10
 10
323.0520496387812
 20
426.5191193600964
 30
0.0
 11
305.3020496387814
 21
430.3691193600964
 31
0.0
 70
    32
 71
     5
 42
35.49999999999966
  3
AM_ISO$0
100
AcDbAlignedDimension
 13
287.5520496387816
 23
438.5191192498276
 33
0.0
 14
323.0520496387812
 24
439.8160494946529
 34
0.0
100
AcDbRotatedDimension
1001
ACAD
1000
DSTYLE
1002
{
1070
    40
1040
1.399999999999999
1070
   272
1070
     8
1002
}
  0
DIMENSION
  5
3E60
330
1F
100
AcDbEntity
  8
AM_5
100
AcDbDimension
  2
*D11
 10
343.0520496387812
 20
426.5191193600964
 30
0.0
 11
333.0520496387813
 21
430.3696016435609
 31
0.0
 70
    32
 71
     5
 42
20.0
  3
AM_ISO$0
100
AcDbAlignedDimension
 13
323.0520496387812
 23
439.8160494946529
 33
0.0
 14
343.0520496387812
 24
439.8160494946529
 34
0.0
100
AcDbRotatedDimension
1001
ACAD
1000
DSTYLE
1002
{
1070
    40
1040
1.399999999999999
1070
   272
1070
     8
1002
}
  0
DIMENSION
  5
3E63
330
1F
100
AcDbEntity
  8
AM_5
100
AcDbDimension
  2
*D12
 10
275.5520496387813
 20
445.5191193600963
 30
0.0
 11
271.7020496387812
 21
442.019119304962
 31
0.0
 70
    32
 71
     5
 42
7.000000110268729
  3
AM_ISO$0
100
AcDbAlignedDimension
 13
287.5520496387816
 23
438.5191192498276
 33
0.0
 14
317.3489797733378
 24
445.5191193600963
 34
0.0
 50
90.0
100
AcDbRotatedDimension
1001
ACAD
1000
DSTYLE
1002
{
1070
    40
1040
1.399999999999999
1070
   272
1070
     8
1002
}
  0
DIMENSION
  5
3E66
330
1F
100
AcDbEntity
  8
AM_5
100
AcDbDimension
  2
*D13
 10
315.0520496387812
 20
375.9725059080426
 30
0.0
 11
301.3020496387812
 21
379.8229881915071
 31
0.0
 70
    32
 71
     5
 42
27.50000000000011
  3
AM_ISO$0
100
AcDbAlignedDimension
 13
287.5520496387811
 23
387.9725059080429
 33
0.0
 14
315.0520496387812
 24
391.8725059080427
 34
0.0
100
AcDbRotatedDimension
1001
ACAD
1000
DSTYLE
1002
{
1070
    40
1040
1.399999999999999
1070
   272
1070
     8
1002
}
  0
DIMENSION
  5
3E69
330
1F
100
AcDbEntity
  8
AM_5
100
AcDbDimension
  2
*D14
 10
333.0520496387813
 20
375.9725059080427
 30
0.0
 11
324.0520496387812
 21
379.8225059080427
 31
0.0
 70
    32
 71
     5
 42
18.0
  3
AM_ISO$0
100
AcDbAlignedDimension
 13
315.0520496387812
 23
391.8725059080427
 33
0.0
 14
333.0520496387813
 24
390.4225059080428
 34
0.0
100
AcDbRotatedDimension
1001
ACAD
1000
DSTYLE
1002
{
1070
    40
1040
1.399999999999999
1070
   272
1070
     8
1002
}
  0
DIMENSION
  5
3E6C
330
1F
100
AcDbEntity
  8
AM_5
100
AcDbDimension
  2
*D15
 10
351.0520496387812
 20
375.9725059080427
 30
0.0
 11
342.0520496387812
 21
379.8225059080427
 31
0.0
 70
    32
 71
     5
 42
18.0
  3
AM_ISO$0
100
AcDbAlignedDimension
 13
333.0520496387813
 23
390.4225059080428
 33
0.0
 14
351.0520496387812
 24
392.1225059080427
 34
0.0
100
AcDbRotatedDimension
1001
ACAD
1000
DSTYLE
1002
{
1070
    40
1040
1.399999999999999
1070
   272
1070
     8
1002
}
  0
DIMENSION
  5
3E6F
330
1F
100
AcDbEntity
  8
AM_5
100
AcDbDimension
  2
*D16
 10
265.5520496387814
 20
473.5191193600963
 30
0.0
 11
261.7020496387812
 21
456.019119304962
 31
0.0
 70
    32
 71
     5
 42
35.00000011026862
  3
AM_ISO$0
100
AcDbAlignedDimension
 13
287.5520496387816
 23
438.5191192498276
 33
0.0
 14
287.5520496387811
 24
473.5191193600963
 34
0.0
 50
90.0
100
AcDbRotatedDimension
1001
ACAD
1000
DSTYLE
1002
{
1070
    40
1040
1.399999999999999
1070
   272
1070
     8
1002
}
  0
DIMENSION
  5
3E78
330
1F
100
AcDbEntity
  8
AM_5
100
AcDbDimension
  2
*D17
 10
322.5520496387812
 20
502.9322087776305
 30
0.0
 11
305.0520496387811
 21
506.7822087776305
 31
0.0
 70
    32
 71
     5
 42
35.00000000000023
  3
AM_ISO$0
100
AcDbAlignedDimension
 13
287.552049638781
 23
514.932208711605
 33
0.0
 14
322.5520496387812
 24
518.8822087776304
 34
0.0
100
AcDbRotatedDimension
1001
ACAD
1000
DSTYLE
1002
{
1070
    40
1040
1.399999999999999
1070
   272
1070
     8
1002
}
  0
DIMENSION
  5
3E7B
330
1F
100
AcDbEntity
  8
AM_5
100
AcDbDimension
  2
*D18
 10
343.5520496387812
 20
502.9322087776305
 30
0.0
 11
333.0520496387813
 21
506.7826910610951
 31
0.0
 70
    32
 71
     5
 42
21.0
  3
AM_ISO$0
100
AcDbAlignedDimension
 13
322.5520496387812
 23
518.8822087776304
 33
0.0
 14
343.5520496387812
 24
515.9322087776305
 34
0.0
100
AcDbRotatedDimension
1001
ACAD
1000
DSTYLE
1002
{
1070
    40
1040
1.399999999999999
1070
   272
1070
     8
1002
}
  0
INSERT
  5
3E7E
330
1F
100
AcDbEntity
  8
AM_5
100
AcDbBlockReference
  2
*S23
 10
0.0
 20
0.0
 30
0.0
  0
TEXT
  5
3E7F
330
1F
100
AcDbEntity
  8
AM_5
100
AcDbText
 10
364.5755432794377
 20
504.2918101527107
 30
0.0
 40
4.9
  1
2-%%c3.2thru
100
AcDbText
  0
INSERT
  5
3E80
330
1F
100
AcDbEntity
  8
AM_5
100
AcDbBlockReference
  2
*S24
 10
0.0
 20
0.0
 30
0.0
  0
TEXT
  5
3E81
330
1F
100
AcDbEntity
  8
AM_5
100
AcDbText
 10
364.0523434412318
 20
547.7463981522269
 30
0.0
 40
4.9
  1
3-PT1/4
100
AcDbText
  0
INSERT
  5
3E82
330
1F
100
AcDbEntity
  8
AM_5
100
AcDbBlockReference
  2
*S25
 10
0.0
 20
0.0
 30
0.0
  0
TEXT
  5
3E83
330
1F
100
AcDbEntity
  8
AM_5
100
AcDbText
 10
358.3749781980028
 20
428.3049663179955
 30
0.0
 40
4.9
  1
2-%%c4.2thru
100
AcDbText
  0
INSERT
  5
3E84
330
1F
100
AcDbEntity
  8
AM_5
100
AcDbBlockReference
  2
*S26
 10
0.0
 20
0.0
 30
0.0
  0
TEXT
  5
3E85
330
1F
100
AcDbEntity
  8
AM_5
100
AcDbText
 10
368.1844567105587
 20
376.5105983831935
 30
0.0
 40
4.9
  1
2-PT1/8
100
AcDbText
  0
LINE
  5
4016
330
1F
100
AcDbEntity
  8
AM_7
100
AcDbLine
 10
322.551372604718
 20
527.5816138136788
 30
0.0
 11
331.251372604718
 21
527.5816138136788
 31
0.0
1001
GENIUS_GENOREF_13
1005
4044
  0
LINE
  5
4017
330
1F
100
AcDbEntity
  8
AM_7
100
AcDbLine
 10
322.551372604718
 20
527.5816138136788
 30
0.0
 11
322.551372604718
 21
536.2816138136789
 31
0.0
1001
GENIUS_GENOREF_13
1005
4044
  0
LINE
  5
4018
330
1F
100
AcDbEntity
  8
AM_7
100
AcDbLine
 10
322.551372604718
 20
527.5816138136788
 30
0.0
 11
313.8513726047181
 21
527.5816138136788
 31
0.0
1001
GENIUS_GENOREF_13
1005
4044
  0
LINE
  5
4019
330
1F
100
AcDbEntity
  8
AM_7
100
AcDbLine
 10
322.551372604718
 20
527.5816138136788
 30
0.0
 11
322.551372604718
 21
518.8816138136789
 31
0.0
1001
GENIUS_GENOREF_13
1005
4044
  0
LINE
  5
401A
330
1F
100
AcDbEntity
  8
AM_7
100
AcDbLine
 10
343.551372604718
 20
524.5816138136789
 30
0.0
 11
352.201372604718
 21
524.5816138136789
 31
0.0
1001
GENIUS_GENOREF_13
1005
4043
  0
LINE
  5
401B
330
1F
100
AcDbEntity
  8
AM_7
100
AcDbLine
 10
343.551372604718
 20
524.5816138136789
 30
0.0
 11
343.551372604718
 21
533.2316138136788
 31
0.0
1001
GENIUS_GENOREF_13
1005
4043
  0
LINE
  5
401C
330
1F
100
AcDbEntity
  8
AM_7
100
AcDbLine
 10
343.551372604718
 20
524.5816138136789
 30
0.0
 11
334.9013726047181
 21
524.5816138136789
 31
0.0
1001
GENIUS_GENOREF_13
1005
4043
  0
LINE
  5
401D
330
1F
100
AcDbEntity
  8
AM_7
100
AcDbLine
 10
343.551372604718
 20
524.5816138136789
 30
0.0
 11
343.551372604718
 21
515.9316138136789
 31
0.0
1001
GENIUS_GENOREF_13
1005
4043
  0
LINE
  5
401E
330
1F
100
AcDbEntity
  8
AM_7
  6
AM_ISO08W050x2
100
AcDbLine
 10
352.051372604718
 20
517.5816138136789
 30
0.0
 11
357.0513726047181
 21
517.5816138136789
 31
0.0
1001
GENIUS_GENOREF_13
1005
4042
  0
LINE
  5
401F
330
1F
100
AcDbEntity
  8
AM_7
  6
AM_ISO08W050x2
100
AcDbLine
 10
352.051372604718
 20
517.5816138136789
 30
0.0
 11
352.051372604718
 21
522.5816138136789
 31
0.0
1001
GENIUS_GENOREF_13
1005
4042
  0
LINE
  5
4020
330
1F
100
AcDbEntity
  8
AM_7
  6
AM_ISO08W050x2
100
AcDbLine
 10
352.051372604718
 20
517.5816138136789
 30
0.0
 11
347.0513726047181
 21
517.5816138136789
 31
0.0
1001
GENIUS_GENOREF_13
1005
4042
  0
LINE
  5
4021
330
1F
100
AcDbEntity
  8
AM_7
  6
AM_ISO08W050x2
100
AcDbLine
 10
352.051372604718
 20
517.5816138136789
 30
0.0
 11
352.051372604718
 21
512.5816138136789
 31
0.0
1001
GENIUS_GENOREF_13
1005
4042
  0
LINE
  5
4022
330
1F
100
AcDbEntity
  8
AM_7
  6
AM_ISO08W050x2
100
AcDbLine
 10
314.051372604718
 20
534.5816138136789
 30
0.0
 11
319.051372604718
 21
534.5816138136789
 31
0.0
1001
GENIUS_GENOREF_13
1005
4041
  0
LINE
  5
4023
330
1F
100
AcDbEntity
  8
AM_7
  6
AM_ISO08W050x2
100
AcDbLine
 10
314.051372604718
 20
534.5816138136789
 30
0.0
 11
314.051372604718
 21
539.5816138136789
 31
0.0
1001
GENIUS_GENOREF_13
1005
4041
  0
LINE
  5
4024
330
1F
100
AcDbEntity
  8
AM_7
  6
AM_ISO08W050x2
100
AcDbLine
 10
314.051372604718
 20
534.5816138136789
 30
0.0
 11
309.0513726047181
 21
534.5816138136789
 31
0.0
1001
GENIUS_GENOREF_13
1005
4041
  0
LINE
  5
4025
330
1F
100
AcDbEntity
  8
AM_7
  6
AM_ISO08W050x2
100
AcDbLine
 10
314.051372604718
 20
534.5816138136789
 30
0.0
 11
314.051372604718
 21
529.5816138136789
 31
0.0
1001
GENIUS_GENOREF_13
1005
4041
  0
LINE
  5
4026
330
1F
100
AcDbEntity
  8
AM_7
100
AcDbLine
 10
333.051372604718
 20
399.1219109440912
 30
0.0
 11
333.051372604718
 21
407.8219109440911
 31
0.0
  0
LINE
  5
4027
330
1F
100
AcDbEntity
  8
AM_7
100
AcDbLine
 10
333.051372604718
 20
399.1219109440912
 30
0.0
 11
333.051372604718
 21
390.4219109440912
 31
0.0
  0
LINE
  5
4028
330
1F
100
AcDbEntity
  8
AM_7
  6
AM_ISO08W050x2
100
AcDbLine
 10
351.0513726047181
 20
399.1219109440911
 30
0.0
 11
351.0513726047181
 21
406.3719109440911
 31
0.0
  0
LINE
  5
4029
330
1F
100
AcDbEntity
  8
AM_7
  6
AM_ISO08W050x2
100
AcDbLine
 10
315.051372604718
 20
399.1219109440911
 30
0.0
 11
315.051372604718
 21
406.3719109440911
 31
0.0
  0
LINE
  5
402A
330
1F
100
AcDbEntity
  8
AM_7
  6
AM_ISO08W050x2
100
AcDbLine
 10
315.051372604718
 20
399.1219109440911
 30
0.0
 11
307.801372604718
 21
399.1219109440911
 31
0.0
  0
LINE
  5
402B
330
1F
100
AcDbEntity
  8
AM_7
  6
AM_ISO08W050x2
100
AcDbLine
 10
315.051372604718
 20
399.1219109440911
 30
0.0
 11
315.051372604718
 21
391.8719109440911
 31
0.0
  0
LINE
  5
402C
330
1F
100
AcDbEntity
  8
AM_7
  6
AM_ISO08W050x2
100
AcDbLine
 10
314.051372604718
 20
390.6219109440911
 30
0.0
 11
317.651372604718
 21
390.6219109440911
 31
0.0
1001
GENIUS_GENOREF_13
1005
4040
  0
LINE
  5
402D
330
1F
100
AcDbEntity
  8
AM_7
  6
AM_ISO08W050x2
100
AcDbLine
 10
314.051372604718
 20
390.6219109440911
 30
0.0
 11
314.051372604718
 21
394.2219109440911
 31
0.0
1001
GENIUS_GENOREF_13
1005
4040
  0
LINE
  5
402E
330
1F
100
AcDbEntity
  8
AM_7
  6
AM_ISO08W050x2
100
AcDbLine
 10
314.051372604718
 20
390.6219109440911
 30
0.0
 11
310.451372604718
 21
390.6219109440911
 31
0.0
1001
GENIUS_GENOREF_13
1005
4040
  0
LINE
  5
402F
330
1F
100
AcDbEntity
  8
AM_7
  6
AM_ISO08W050x2
100
AcDbLine
 10
314.051372604718
 20
390.6219109440911
 30
0.0
 11
314.051372604718
 21
387.0219109440911
 31
0.0
1001
GENIUS_GENOREF_13
1005
4040
  0
LINE
  5
4030
330
1F
100
AcDbEntity
  8
AM_7
  6
AM_ISO08W050x2
100
AcDbLine
 10
352.051372604718
 20
407.6219109440911
 30
0.0
 11
355.6513726047181
 21
407.6219109440911
 31
0.0
1001
GENIUS_GENOREF_13
1005
403F
  0
LINE
  5
4031
330
1F
100
AcDbEntity
  8
AM_7
  6
AM_ISO08W050x2
100
AcDbLine
 10
352.051372604718
 20
407.6219109440911
 30
0.0
 11
352.051372604718
 21
411.2219109440911
 31
0.0
1001
GENIUS_GENOREF_13
1005
403F
  0
LINE
  5
4032
330
1F
100
AcDbEntity
  8
AM_7
  6
AM_ISO08W050x2
100
AcDbLine
 10
352.051372604718
 20
407.6219109440911
 30
0.0
 11
348.451372604718
 21
407.6219109440911
 31
0.0
1001
GENIUS_GENOREF_13
1005
403F
  0
LINE
  5
4033
330
1F
100
AcDbEntity
  8
AM_7
  6
AM_ISO08W050x2
100
AcDbLine
 10
352.051372604718
 20
407.6219109440911
 30
0.0
 11
352.051372604718
 21
404.0219109440911
 31
0.0
1001
GENIUS_GENOREF_13
1005
403F
  0
LINE
  5
4034
330
1F
100
AcDbEntity
  8
AM_7
100
AcDbLine
 10
343.051372604718
 20
445.5185243961448
 30
0.0
 11
348.7544424701615
 21
445.5185243961448
 31
0.0
1001
GENIUS_GENOREF_13
1005
403E
  0
LINE
  5
4035
330
1F
100
AcDbEntity
  8
AM_7
100
AcDbLine
 10
343.051372604718
 20
445.5185243961448
 30
0.0
 11
343.051372604718
 21
451.2215942615882
 31
0.0
1001
GENIUS_GENOREF_13
1005
403E
  0
LINE
  5
4036
330
1F
100
AcDbEntity
  8
AM_7
100
AcDbLine
 10
343.051372604718
 20
445.5185243961448
 30
0.0
 11
337.3483027392746
 21
445.5185243961448
 31
0.0
1001
GENIUS_GENOREF_13
1005
403E
  0
LINE
  5
4037
330
1F
100
AcDbEntity
  8
AM_7
100
AcDbLine
 10
343.051372604718
 20
445.5185243961448
 30
0.0
 11
343.051372604718
 21
439.8154545307013
 31
0.0
1001
GENIUS_GENOREF_13
1005
403E
  0
LINE
  5
4038
330
1F
100
AcDbEntity
  8
AM_7
100
AcDbLine
 10
323.051372604718
 20
445.5185243961448
 30
0.0
 11
328.7544424701615
 21
445.5185243961448
 31
0.0
1001
GENIUS_GENOREF_13
1005
403D
  0
LINE
  5
4039
330
1F
100
AcDbEntity
  8
AM_7
100
AcDbLine
 10
323.051372604718
 20
445.5185243961448
 30
0.0
 11
323.051372604718
 21
451.2215942615882
 31
0.0
1001
GENIUS_GENOREF_13
1005
403D
  0
LINE
  5
403A
330
1F
100
AcDbEntity
  8
AM_7
100
AcDbLine
 10
323.051372604718
 20
445.5185243961448
 30
0.0
 11
317.3483027392746
 21
445.5185243961448
 31
0.0
1001
GENIUS_GENOREF_13
1005
403D
  0
LINE
  5
403B
330
1F
100
AcDbEntity
  8
AM_7
100
AcDbLine
 10
323.051372604718
 20
445.5185243961448
 30
0.0
 11
323.051372604718
 21
439.8154545307013
 31
0.0
1001
GENIUS_GENOREF_13
1005
403D
  0
LINE
  5
403C
330
1F
100
AcDbEntity
  8
AM_7
100
AcDbLine
 10
284.2795162012773
 20
399.1219109440911
 30
0.0
 11
382.2151559379256
 21
399.1219109440911
 31
0.0
1001
GENIUS_GENODEF_13
1002
{
1000
HIER
1070
     0
1002
}
1002
{
1000
MANEDIT
1070
     0
1002
}
1002
{
1000
NOSEL
1070
     0
1002
}
1002
{
1000
BEHIND
1070
     0
1002
}
1002
{
1000
OTHER
1070
     0
1002
}
1002
{
1000
REACTOR
1002
}
1001
GENIUS_GENOBJ-N-CEN_13
1002
{
1000
OWNER
1000
GEN
1002
}
1001
GENIUS_GENCEN_19
1002
{
1040
1.0
1002
}
  0
POINT
  5
403D
330
1F
100
AcDbEntity
  8
0
 60
     1
100
AcDbPoint
 10
241.2192756783073
 20
-0.0005949639515848
 30
0.0
1001
GENIUS_GENOLIS_13
1002
{
1000
ENT
1005
403B
1005
403A
1005
4039
1005
4038
1002
}
1001
GENIUS_GENOENT_13
1002
{
1000
MYREF
1005
403D
1002
}
1002
{
1000
GRP
1005
0
1002
}
1001
GENIUS_GENOBJ-N-CRS_13
1002
{
1000
OWNER
1000
GEN
1002
}
1001
GENIUS_GENODEF_13
1002
{
1000
HIER
1070
    10
1002
}
1002
{
1000
MANEDIT
1070
     0
1002
}
1002
{
1000
NOSEL
1070
     0
1002
}
1002
{
1000
BEHIND
1070
     0
1002
}
1002
{
1000
OTHER
1070
     0
1002
}
1002
{
1000
REACTOR
1002
}
  0
POINT
  5
403E
330
1F
100
AcDbEntity
  8
0
 60
     1
100
AcDbPoint
 10
241.2192756783073
 20
-0.0005949639515848
 30
0.0
1001
GENIUS_GENOENT_13
1002
{
1000
MYREF
1005
403E
1002
}
1002
{
1000
GRP
1005
0
1002
}
1001
GENIUS_GENOLIS_13
1002
{
1000
ENT
1005
4037
1005
4036
1005
4035
1005
4034
1002
}
1001
GENIUS_GENOBJ-N-CRS_13
1002
{
1000
OWNER
1000
GEN
1002
}
1001
GENIUS_GENODEF_13
1002
{
1000
HIER
1070
    10
1002
}
1002
{
1000
MANEDIT
1070
     0
1002
}
1002
{
1000
NOSEL
1070
     0
1002
}
1002
{
1000
BEHIND
1070
     0
1002
}
1002
{
1000
OTHER
1070
     0
1002
}
1002
{
1000
REACTOR
1002
}
  0
POINT
  5
403F
330
1F
100
AcDbEntity
  8
0
 60
     1
100
AcDbPoint
 10
241.2192756783073
 20
-0.0005949639515848
 30
0.0
1001
GENIUS_GENOENT_13
1002
{
1000
MYREF
1005
403F
1002
}
1002
{
1000
GRP
1005
0
1002
}
1001
GENIUS_GENOLIS_13
1002
{
1000
ENT
1005
4033
1005
4032
1005
4031
1005
4030
1002
}
1001
GENIUS_GENOBJ-N-CRS_13
1002
{
1000
OWNER
1000
GEN
1002
}
1001
GENIUS_GENODEF_13
1002
{
1000
HIER
1070
    10
1002
}
1002
{
1000
MANEDIT
1070
     0
1002
}
1002
{
1000
NOSEL
1070
     0
1002
}
1002
{
1000
BEHIND
1070
     0
1002
}
1002
{
1000
OTHER
1070
     0
1002
}
1002
{
1000
REACTOR
1002
}
  0
POINT
  5
4040
330
1F
100
AcDbEntity
  8
0
 60
     1
100
AcDbPoint
 10
241.2192756783073
 20
-0.0005949639515848
 30
0.0
1001
GENIUS_GENODEF_13
1002
{
1000
HIER
1070
    10
1002
}
1002
{
1000
MANEDIT
1070
     0
1002
}
1002
{
1000
NOSEL
1070
     0
1002
}
1002
{
1000
BEHIND
1070
     0
1002
}
1002
{
1000
OTHER
1070
     0
1002
}
1002
{
1000
REACTOR
1002
}
1001
GENIUS_GENOLIS_13
1002
{
1000
ENT
1005
402F
1005
402E
1005
402D
1005
402C
1002
}
1001
GENIUS_GENOBJ-N-CRS_13
1002
{
1000
OWNER
1000
GEN
1002
}
1001
GENIUS_GENOENT_13
1002
{
1000
MYREF
1005
4040
1002
}
1002
{
1000
GRP
1005
0
1002
}
  0
POINT
  5
4041
330
1F
100
AcDbEntity
  8
0
 60
     1
100
AcDbPoint
 10
241.2192756783073
 20
-0.0005949639515848
 30
0.0
1001
GENIUS_GENOENT_13
1002
{
1000
MYREF
1005
4041
1002
}
1002
{
1000
GRP
1005
0
1002
}
1001
GENIUS_GENOBJ-N-CRS_13
1002
{
1000
OWNER
1000
GEN
1002
}
1001
GENIUS_GENOLIS_13
1002
{
1000
ENT
1005
4025
1005
4024
1005
4023
1005
4022
1002
}
1001
GENIUS_GENODEF_13
1002
{
1000
HIER
1070
    10
1002
}
1002
{
1000
MANEDIT
1070
     0
1002
}
1002
{
1000
NOSEL
1070
     0
1002
}
1002
{
1000
BEHIND
1070
     0
1002
}
1002
{
1000
OTHER
1070
     0
1002
}
1002
{
1000
REACTOR
1002
}
  0
POINT
  5
4042
330
1F
100
AcDbEntity
  8
0
 60
     1
100
AcDbPoint
 10
241.2192756783073
 20
-0.0005949639515848
 30
0.0
1001
GENIUS_GENOBJ-N-CRS_13
1002
{
1000
OWNER
1000
GEN
1002
}
1001
GENIUS_GENOENT_13
1002
{
1000
MYREF
1005
4042
1002
}
1002
{
1000
GRP
1005
0
1002
}
1001
GENIUS_GENOLIS_13
1002
{
1000
ENT
1005
4021
1005
4020
1005
401F
1005
401E
1002
}
1001
GENIUS_GENODEF_13
1002
{
1000
HIER
1070
    10
1002
}
1002
{
1000
MANEDIT
1070
     0
1002
}
1002
{
1000
NOSEL
1070
     0
1002
}
1002
{
1000
BEHIND
1070
     0
1002
}
1002
{
1000
OTHER
1070
     0
1002
}
1002
{
1000
REACTOR
1002
}
  0
POINT
  5
4043
330
1F
100
AcDbEntity
  8
0
 60
     1
100
AcDbPoint
 10
241.2192756783073
 20
-0.0005949639515848
 30
0.0
1001
GENIUS_GENODEF_13
1002
{
1000
HIER
1070
    10
1002
}
1002
{
1000
MANEDIT
1070
     0
1002
}
1002
{
1000
NOSEL
1070
     0
1002
}
1002
{
1000
BEHIND
1070
     0
1002
}
1002
{
1000
OTHER
1070
     0
1002
}
1002
{
1000
REACTOR
1002
}
1001
GENIUS_GENOENT_13
1002
{
1000
MYREF
1005
4043
1002
}
1002
{
1000
GRP
1005
0
1002
}
1001
GENIUS_GENOLIS_13
1002
{
1000
ENT
1005
401D
1005
401C
1005
401B
1005
401A
1002
}
1001
GENIUS_GENOBJ-N-CRS_13
1002
{
1000
OWNER
1000
GEN
1002
}
  0
POINT
  5
4044
330
1F
100
AcDbEntity
  8
0
 60
     1
100
AcDbPoint
 10
241.2192756783073
 20
-0.0005949639515848
 30
0.0
1001
GENIUS_GENOENT_13
1002
{
1000
MYREF
1005
4044
1002
}
1002
{
1000
GRP
1005
0
1002
}
1001
GENIUS_GENODEF_13
1002
{
1000
HIER
1070
    10
1002
}
1002
{
1000
MANEDIT
1070
     0
1002
}
1002
{
1000
NOSEL
1070
     0
1002
}
1002
{
1000
BEHIND
1070
     0
1002
}
1002
{
1000
OTHER
1070
     0
1002
}
1002
{
1000
REACTOR
1002
}
1001
GENIUS_GENOLIS_13
1002
{
1000
ENT
1005
4019
1005
4018
1005
4017
1005
4016
1002
}
1001
GENIUS_GENOBJ-N-CRS_13
1002
{
1000
OWNER
1000
GEN
1002
}
  0
LINE
  5
63D1
330
1F
100
AcDbEntity
  8
AM_VIS
100
AcDbLine
 10
378.5520496387812
 20
522.3322087776306
 30
0.0
 11
378.5520496387812
 21
537.2322087776305
 31
0.0
  0
LINE
  5
63D2
330
1F
100
AcDbEntity
  8
AM_VIS
100
AcDbLine
 10
358.0520496387813
 20
514.9322087776306
 30
0.0
 11
374.0520496387812
 21
514.9322087776306
 31
0.0
  0
LINE
  5
63D3
330
1F
100
AcDbEntity
  8
AM_VIS
100
AcDbLine
 10
374.0520496387812
 20
514.9322087776306
 30
0.0
 11
374.0520496387812
 21
522.3322087776304
 31
0.0
  0
LINE
  5
63D4
330
1F
100
AcDbEntity
  8
AM_VIS
100
AcDbLine
 10
378.5520496387812
 20
519.0822087776306
 30
0.0
 11
378.5520496387812
 21
514.9322087776306
 31
0.0
  0
LINE
  5
63D5
330
1F
100
AcDbEntity
  8
AM_VIS
100
AcDbLine
 10
378.5520496387812
 20
514.9322087776306
 30
0.0
 11
374.0520496387812
 21
514.9322087776306
 31
0.0
  0
LINE
  5
63D6
330
1F
100
AcDbEntity
  8
AM_VIS
100
AcDbLine
 10
374.0520496387812
 20
522.3322087776306
 30
0.0
 11
378.5520496387812
 21
522.3322087776306
 31
0.0
  0
LINE
  5
63D7
330
1F
100
AcDbEntity
  8
AM_VIS
100
AcDbLine
 10
358.0520496387813
 20
537.2322087776305
 30
0.0
 11
378.5520496387812
 21
537.2322087776305
 31
0.0
  0
LINE
  5
63D8
330
1F
100
AcDbEntity
  8
AM_VIS
100
AcDbLine
 10
378.5520496387812
 20
522.3322087776306
 30
0.0
 11
378.5520496387812
 21
519.0822087776306
 31
0.0
  0
LINE
  5
63D9
330
1F
100
AcDbEntity
  8
AM_VIS
100
AcDbLine
 10
374.7520496387813
 20
522.0322087776305
 30
0.0
 11
374.0520496387814
 21
522.0322087776305
 31
0.0
  0
LINE
  5
63DA
330
1F
100
AcDbEntity
  8
AM_VIS
100
AcDbLine
 10
374.7520496387813
 20
516.1322087776305
 30
0.0
 11
374.0520496387814
 21
516.1322087776305
 31
0.0
  0
LINE
  5
63DB
330
1F
100
AcDbEntity
  8
AM_VIS
100
AcDbLine
 10
374.7520496387813
 20
522.0322087776304
 30
0.0
 11
374.7520496387813
 21
516.1322087776304
 31
0.0
  0
LINE
  5
63DC
330
1F
100
AcDbEntity
  8
AM_VIS
100
AcDbLine
 10
375.7402170403103
 20
521.795755332331
 30
0.0
 11
374.7520496387814
 21
521.8822087776307
 31
0.0
  0
LINE
  5
63DD
330
1F
100
AcDbEntity
  8
AM_VIS
100
AcDbLine
 10
375.7402170403103
 20
516.3686622229301
 30
0.0
 11
374.7520496387813
 21
516.2822087776305
 31
0.0
  0
ARC
  5
63DE
330
1F
100
AcDbEntity
  8
AM_VIS
100
AcDbCircle
 10
372.1520496387813
 20
519.0822087776307
 30
0.0
 40
4.993620304949137
100
AcDbArc
 50
342.5703586381554
 51
357.1016305955968
  0
LINE
  5
63DF
330
1F
100
AcDbEntity
  8
AM_VIS
100
AcDbLine
 10
376.9163903405439
 20
517.586447624395
 30
0.0
 11
376.9217456458663
 21
517.5822087776311
 31
0.0
  0
LINE
  5
63E0
330
1F
100
AcDbEntity
  8
AM_VIS
100
AcDbLine
 10
376.921745645866
 20
520.5822087776311
 30
0.0
 11
376.9163903405436
 21
520.5779699308672
 31
0.0
  0
ARC
  5
63E1
330
1F
100
AcDbEntity
  8
AM_VIS
100
AcDbCircle
 10
372.1520496387813
 20
519.0822087776307
 30
0.0
 40
4.993620304949137
100
AcDbArc
 50
2.898369404360916
 51
17.42964136186207
  0
LINE
  5
63E2
330
1F
100
AcDbEntity
  8
AM_VIS
100
AcDbLine
 10
376.9163903405437
 20
518.8297087776286
 30
0.0
 11
377.1392820877453
 21
518.8297087776286
 31
0.0
  0
LINE
  5
63E3
330
1F
100
AcDbEntity
  8
AM_VIS
100
AcDbLine
 10
377.1392820877455
 20
519.3347087776285
 30
0.0
 11
376.9163903405439
 21
519.3347087776285
 31
0.0
  0
ELLIPSE
  5
63E4
330
1F
100
AcDbEntity
  8
AM_VIS
100
AcDbEllipse
 10
373.259311431173
 20
519.0822087776306
 30
0.0
 11
-0.0000000000000512
 21
-4.67087236390396
 31
0.0
210
0.0
220
0.0
230
1.0
 40
0.7841006838456897
 41
1.516711538556453
 42
1.62488111503247
  0
ARC
  5
63E5
330
1F
100
AcDbEntity
  8
AM_VIS
100
AcDbCircle
 10
375.6356301490131
 20
520.600321694621
 30
0.0
 40
1.199999999999999
100
AcDbArc
 50
23.54713723707863
 51
85.00000000000026
  0
ARC
  5
63E6
330
1F
100
AcDbEntity
  8
AM_VIS
100
AcDbCircle
 10
375.6356301490131
 20
517.5640958606402
 30
0.0
 40
1.199999999999999
100
AcDbArc
 50
274.9999999999997
 51
336.4528627629214
  0
ARC
  5
63E7
330
1F
100
AcDbEntity
  8
AM_VIS
100
AcDbCircle
 10
372.1520496387813
 20
519.0822087776307
 30
0.0
 40
5.000000000000031
100
AcDbArc
 50
17.45760312372945
 51
23.54713723707863
  0
ARC
  5
63E8
330
1F
100
AcDbEntity
  8
AM_VIS
100
AcDbCircle
 10
372.1520496387813
 20
519.0822087776307
 30
0.0
 40
5.00000000000003
100
AcDbArc
 50
336.4528627629243
 51
342.5423968762849
  0
LINE
  5
63E9
330
1F
100
AcDbEntity
  8
AM_VIS
100
AcDbLine
 10
287.552049638781
 20
529.8322087116051
 30
0.0
 11
287.552049638781
 21
514.932208711605
 31
0.0
  0
LINE
  5
63EA
330
1F
100
AcDbEntity
  8
AM_VIS
100
AcDbLine
 10
308.052049638781
 20
537.2322087116051
 30
0.0
 11
292.052049638781
 21
537.232208711605
 31
0.0
  0
LINE
  5
63EB
330
1F
100
AcDbEntity
  8
AM_VIS
100
AcDbLine
 10
292.052049638781
 20
537.232208711605
 30
0.0
 11
292.052049638781
 21
529.8322087116051
 31
0.0
  0
LINE
  5
63EC
330
1F
100
AcDbEntity
  8
AM_VIS
100
AcDbLine
 10
287.5520496387811
 20
533.0822086110222
 30
0.0
 11
287.5520496387811
 21
537.2322086110222
 31
0.0
  0
LINE
  5
63ED
330
1F
100
AcDbEntity
  8
AM_VIS
100
AcDbLine
 10
287.5520496387811
 20
537.2322086110222
 30
0.0
 11
292.0520496387811
 21
537.2322086110222
 31
0.0
  0
LINE
  5
63EE
330
1F
100
AcDbEntity
  8
AM_VIS
100
AcDbLine
 10
292.052049638781
 20
529.8322087116051
 30
0.0
 11
287.552049638781
 21
529.8322087116051
 31
0.0
  0
LINE
  5
63EF
330
1F
100
AcDbEntity
  8
AM_VIS
100
AcDbLine
 10
308.0520496387811
 20
514.932208711605
 30
0.0
 11
287.5520496387811
 21
514.932208711605
 31
0.0
  0
LINE
  5
63F0
330
1F
100
AcDbEntity
  8
AM_VIS
100
AcDbLine
 10
287.5520496387811
 20
529.8322086594509
 30
0.0
 11
287.5520496387811
 21
533.0822086110222
 31
0.0
  0
LINE
  5
63F1
330
1F
100
AcDbEntity
  8
AM_VIS
100
AcDbLine
 10
290.363882237252
 20
530.36866222293
 30
0.0
 11
291.352049638781
 21
530.2822087776305
 31
0.0
  0
LINE
  5
63F2
330
1F
100
AcDbEntity
  8
AM_VIS
100
AcDbLine
 10
290.363882237252
 20
535.795755332331
 30
0.0
 11
291.352049638781
 21
535.8822087776306
 31
0.0
  0
LINE
  5
63F3
330
1F
100
AcDbEntity
  8
AM_VIS
100
AcDbLine
 10
288.9648171898171
 20
532.8297087813931
 30
0.0
 11
289.1877089370185
 21
532.8297087999191
 31
0.0
  0
ELLIPSE
  5
63F4
330
1F
100
AcDbEntity
  8
AM_VIS
100
AcDbEllipse
 10
292.84478784639
 20
533.0822087567853
 30
0.0
 11
0.0000000879335669
 21
-4.670872363904177
 31
0.0
210
0.0
220
0.0
230
0.9999999999999998
 40
0.7841006838458336
 41
4.658304168137091
 42
4.766473744613103
  0
LINE
  5
63F5
330
1F
100
AcDbEntity
  8
AM_VIS
100
AcDbLine
 10
289.1877089370185
 20
533.334708799919
 30
0.0
 11
288.9648171898171
 21
533.3347087813931
 31
0.0
  0
ARC
  5
63F6
330
1F
100
AcDbEntity
  8
AM_VIS
100
AcDbCircle
 10
293.952049638781
 20
533.0822087813932
 30
0.0
 40
4.993620304949036
100
AcDbArc
 50
182.8983694043836
 51
197.4296413618539
  0
LINE
  5
63F7
330
1F
100
AcDbEntity
  8
AM_VIS
100
AcDbLine
 10
289.1877089370187
 20
534.5779699346292
 30
0.0
 11
289.1823536316963
 21
534.5822087776306
 31
0.0
  0
LINE
  5
63F8
330
1F
100
AcDbEntity
  8
AM_VIS
100
AcDbLine
 10
289.1823536316963
 20
531.5822087776306
 30
0.0
 11
289.1877089370187
 21
531.586447628157
 31
0.0
  0
ARC
  5
63F9
330
1F
100
AcDbEntity
  8
AM_VIS
100
AcDbCircle
 10
293.952049638781
 20
533.0822087813932
 30
0.0
 40
4.993620304949036
100
AcDbArc
 50
162.5703586381492
 51
177.1016305956195
  0
ARC
  5
63FA
330
1F
100
AcDbEntity
  8
AM_VIS
100
AcDbCircle
 10
290.4684691285492
 20
531.5640958606402
 30
0.0
 40
1.199999999999999
100
AcDbArc
 50
203.5471372370812
 51
265.0000000000003
  0
ARC
  5
63FB
330
1F
100
AcDbEntity
  8
AM_VIS
100
AcDbCircle
 10
290.4684691285492
 20
534.6003216946209
 30
0.0
 40
1.199999999999999
100
AcDbArc
 50
94.99999999999975
 51
156.4528627629243
  0
ARC
  5
63FC
330
1F
100
AcDbEntity
  8
AM_VIS
100
AcDbCircle
 10
293.952049638781
 20
533.0822087776306
 30
0.0
 40
5.000000000000031
100
AcDbArc
 50
197.4576031237232
 51
203.5471372370812
  0
ARC
  5
63FD
330
1F
100
AcDbEntity
  8
AM_VIS
100
AcDbCircle
 10
293.952049638781
 20
533.0822087776306
 30
0.0
 40
5.000000000000031
100
AcDbArc
 50
156.4528627629243
 51
162.5423968762798
  0
LINE
  5
63FE
330
1F
100
AcDbEntity
  8
AM_VIS
100
AcDbLine
 10
291.3520496387814
 20
530.1322087776305
 30
0.0
 11
292.0520496387813
 21
530.1322087776305
 31
0.0
  0
LINE
  5
63FF
330
1F
100
AcDbEntity
  8
AM_VIS
100
AcDbLine
 10
291.3520496387812
 20
536.0322087776304
 30
0.0
 11
292.0520496387812
 21
536.0322087776304
 31
0.0
  0
LINE
  5
6400
330
1F
100
AcDbEntity
  8
AM_VIS
100
AcDbLine
 10
291.3520496387813
 20
530.1322087776305
 30
0.0
 11
291.3520496387812
 21
536.0322087776304
 31
0.0
  0
LINE
  5
6401
330
1F
100
AcDbEntity
  8
AM_VIS
100
AcDbLine
 10
378.5520496387812
 20
438.5191193600965
 30
0.0
 11
378.5520496387812
 21
466.7691193600965
 31
0.0
  0
LINE
  5
6402
330
1F
100
AcDbEntity
  8
AM_VIS
100
AcDbLine
 10
358.0520496387813
 20
473.5191193600964
 30
0.0
 11
374.0520496387812
 21
473.5191193600964
 31
0.0
  0
LINE
  5
6403
330
1F
100
AcDbEntity
  8
AM_VIS
100
AcDbLine
 10
374.0520496387812
 20
466.7691193600965
 30
0.0
 11
374.0520496387812
 21
473.5191193600964
 31
0.0
  0
LINE
  5
6404
330
1F
100
AcDbEntity
  8
AM_VIS
100
AcDbLine
 10
378.5520496387812
 20
466.7691193600965
 30
0.0
 11
374.0520496387812
 21
466.7691193600965
 31
0.0
  0
LINE
  5
6405
330
1F
100
AcDbEntity
  8
AM_VIS
100
AcDbLine
 10
374.0520496387812
 20
473.5191193600964
 30
0.0
 11
378.5520496387812
 21
473.5191193600964
 31
0.0
  0
LINE
  5
6406
330
1F
100
AcDbEntity
  8
AM_VIS
100
AcDbLine
 10
378.5520496387812
 20
473.5191193600964
 30
0.0
 11
378.5520496387812
 21
470.0191193600964
 31
0.0
  0
LINE
  5
6407
330
1F
100
AcDbEntity
  8
AM_VIS
100
AcDbLine
 10
358.0520496387813
 20
438.5191193600965
 30
0.0
 11
378.5520496387812
 21
438.5191193600965
 31
0.0
  0
LINE
  5
6408
330
1F
100
AcDbEntity
  8
AM_VIS
100
AcDbLine
 10
378.5520496387812
 20
470.0191193600964
 30
0.0
 11
378.5520496387812
 21
466.7691193600965
 31
0.0
  0
LINE
  5
6409
330
1F
100
AcDbEntity
  8
AM_VIS
100
AcDbLine
 10
374.7520496387813
 20
467.0845041702258
 30
0.0
 11
374.7520496387813
 21
467.0691888850801
 31
0.0
  0
ELLIPSE
  5
640A
330
1F
100
AcDbEntity
  8
AM_VIS
100
AcDbEllipse
 10
374.4366964775048
 20
470.0191193600964
 30
0.0
 11
-8.104961503426029
 21
0.1089539743919708
 31
0.0
210
0.0
220
0.0
230
0.9999999999999998
 40
0.3637262537983058
 41
1.560238403929566
 42
1.614603828665305
  0
ELLIPSE
  5
640B
330
1F
100
AcDbEntity
  8
AM_VIS
100
AcDbEllipse
 10
373.6674028000576
 20
470.0191193600964
 30
0.0
 11
-8.104961503425865
 21
0.1089539743919718
 31
0.0000000000000001
210
0.0
220
0.0
230
1.0
 40
0.3637262537983131
 41
1.623161273363804
 42
1.709911947427355
  0
LINE
  5
640C
330
1F
100
AcDbEntity
  8
AM_VIS
100
AcDbLine
 10
374.7520496387813
 20
472.9691193600965
 30
0.0
 11
374.0520496387814
 21
472.9691193600965
 31
0.0
  0
LINE
  5
640D
330
1F
100
AcDbEntity
  8
AM_VIS
100
AcDbLine
 10
374.7520496387811
 20
467.0691193600966
 30
0.0
 11
374.6964391009115
 21
467.0691193600966
 31
0.0
  0
LINE
  5
640E
330
1F
100
AcDbEntity
  8
AM_VIS
100
AcDbLine
 10
374.7520496387813
 20
472.9691193600965
 30
0.0
 11
374.7520496387813
 21
467.0845041702258
 31
0.0
  0
LINE
  5
640F
330
1F
100
AcDbEntity
  8
AM_VIS
100
AcDbLine
 10
374.7520496387813
 20
467.0691888850801
 30
0.0
 11
374.7520496387813
 21
467.0691193600966
 31
0.0
  0
LINE
  5
6410
330
1F
100
AcDbEntity
  8
AM_VIS
100
AcDbLine
 10
375.7402170403103
 20
472.732665914797
 30
0.0
 11
374.7520496387813
 21
472.8191193600966
 31
0.0
  0
LINE
  5
6411
330
1F
100
AcDbEntity
  8
AM_VIS
100
AcDbLine
 10
375.7402170403103
 20
467.305572805396
 30
0.0
 11
374.7520496387814
 21
467.2191193600965
 31
0.0
  0
LINE
  5
6412
330
1F
100
AcDbEntity
  8
AM_VIS
100
AcDbLine
 10
377.1392820877453
 20
470.2716193600966
 30
0.0
 11
376.9163903405439
 21
470.2716193600966
 31
0.0
  0
ELLIPSE
  5
6413
330
1F
100
AcDbEntity
  8
AM_VIS
100
AcDbEllipse
 10
373.2593114311724
 20
470.0191193600966
 30
0.0
 11
0.000000000000004
 21
-4.670872363904178
 31
0.0
210
0.0
220
0.0
230
1.0
 40
0.784100683845831
 41
1.5167115385569
 42
1.624881115032907
  0
LINE
  5
6414
330
1F
100
AcDbEntity
  8
AM_VIS
100
AcDbLine
 10
376.9163903405439
 20
469.7666193600965
 30
0.0
 11
377.1392820877453
 21
469.7666193600965
 31
0.0
  0
ARC
  5
6415
330
1F
100
AcDbEntity
  8
AM_VIS
100
AcDbCircle
 10
372.1520496387813
 20
470.0191193600966
 30
0.0
 40
4.993620304949037
100
AcDbArc
 50
2.898369404383685
 51
17.4296413618508
  0
LINE
  5
6416
330
1F
100
AcDbEntity
  8
AM_VIS
100
AcDbLine
 10
376.9163903405437
 20
468.5233582068605
 30
0.0
 11
376.921745645866
 21
468.5191193600966
 31
0.0
  0
LINE
  5
6417
330
1F
100
AcDbEntity
  8
AM_VIS
100
AcDbLine
 10
376.921745645866
 20
471.5191193600966
 30
0.0
 11
376.9163903405437
 21
471.5148805133326
 31
0.0
  0
ARC
  5
6418
330
1F
100
AcDbEntity
  8
AM_VIS
100
AcDbCircle
 10
372.1520496387813
 20
470.0191193600966
 30
0.0
 40
4.993620304949037
100
AcDbArc
 50
342.5703586381492
 51
357.1016305956196
  0
ARC
  5
6419
330
1F
100
AcDbEntity
  8
AM_VIS
100
AcDbCircle
 10
375.6356301490131
 20
471.5372322770869
 30
0.0
 40
1.199999999999999
100
AcDbArc
 50
23.54713723707564
 51
85.00000000000026
  0
ARC
  5
641A
330
1F
100
AcDbEntity
  8
AM_VIS
100
AcDbCircle
 10
375.6356301490131
 20
468.5010064431062
 30
0.0
 40
1.2
100
AcDbArc
 50
274.9999999999997
 51
336.4528627629214
  0
ARC
  5
641B
330
1F
100
AcDbEntity
  8
AM_VIS
100
AcDbCircle
 10
372.1520496387813
 20
470.0191193600966
 30
0.0
 40
5.000000000000031
100
AcDbArc
 50
17.45760312372323
 51
23.54713723707863
  0
ARC
  5
641C
330
1F
100
AcDbEntity
  8
AM_VIS
100
AcDbCircle
 10
372.1520496387813
 20
470.0191193600966
 30
0.0
 40
5.000000000000031
100
AcDbArc
 50
336.4528627629243
 51
342.5423968762768
  0
LINE
  5
6499
330
1F
100
AcDbEntity
  8
AM_VIS
100
AcDbLine
 10
358.4520496387812
 20
397.1225059080426
 30
0.0
 11
358.0520496387813
 21
397.1225059080426
 31
0.0
  0
LINE
  5
649A
330
1F
100
AcDbEntity
  8
AM_VIS
100
AcDbLine
 10
358.4520496387812
 20
401.1225059080425
 30
0.0
 11
358.4520496387812
 21
397.1225059080426
 31
0.0
  0
LINE
  5
649B
330
1F
100
AcDbEntity
  8
AM_VIS
100
AcDbLine
 10
358.0520496387813
 20
401.1225059080425
 30
0.0
 11
358.4520496387812
 21
401.1225059080425
 31
0.0
  0
LINE
  5
649C
330
1F
100
AcDbEntity
  8
AM_VIS
100
AcDbLine
 10
358.0520496387813
 20
410.2725059080426
 30
0.0
 11
378.5520496387812
 21
410.2725059080426
 31
0.0
  0
LINE
  5
649D
330
1F
100
AcDbEntity
  8
AM_VIS
100
AcDbLine
 10
378.5520496387812
 20
395.3725059080427
 30
0.0
 11
378.5520496387812
 21
410.2725059080425
 31
0.0
  0
LINE
  5
649E
330
1F
100
AcDbEntity
  8
AM_VIS
100
AcDbLine
 10
358.0520496387813
 20
387.9725059080426
 30
0.0
 11
374.0520496387812
 21
387.9725059080426
 31
0.0
  0
LINE
  5
649F
330
1F
100
AcDbEntity
  8
AM_VIS
100
AcDbLine
 10
374.0520496387812
 20
387.9725059080427
 30
0.0
 11
374.0520496387812
 21
395.3725059080427
 31
0.0
  0
LINE
  5
64A0
330
1F
100
AcDbEntity
  8
AM_VIS
100
AcDbLine
 10
378.5520496387812
 20
392.1225059080427
 30
0.0
 11
378.5520496387812
 21
387.9725059080428
 31
0.0
  0
LINE
  5
64A1
330
1F
100
AcDbEntity
  8
AM_VIS
100
AcDbLine
 10
378.5520496387812
 20
387.9725059080426
 30
0.0
 11
374.0520496387812
 21
387.9725059080426
 31
0.0
  0
LINE
  5
64A2
330
1F
100
AcDbEntity
  8
AM_VIS
100
AcDbLine
 10
374.0520496387812
 20
395.3725059080427
 30
0.0
 11
378.5520496387812
 21
395.3725059080428
 31
0.0
  0
LINE
  5
64A3
330
1F
100
AcDbEntity
  8
AM_VIS
100
AcDbLine
 10
378.5520496387812
 20
395.3725059080427
 30
0.0
 11
378.5520496387812
 21
392.1225059080427
 31
0.0
  0
ELLIPSE
  5
64A4
330
1F
100
AcDbEntity
  8
AM_VIS
100
AcDbEllipse
 10
374.4366964775048
 20
392.1225059080427
 30
0.0
 11
-4.258560093873128
 21
-1.54937914216823
 31
0.0
210
0.0
220
0.0
230
1.0
 40
0.0103007928811845
 41
1.476602792923988
 42
1.641167556128448
  0
LINE
  5
64A5
330
1F
100
AcDbEntity
  8
AM_VIS
100
AcDbLine
 10
374.7520496387811
 20
392.1475700040934
 30
0.0
 11
374.7520496387811
 21
392.1427591193888
 31
0.0
  0
ELLIPSE
  5
64A6
330
1F
100
AcDbEntity
  8
AM_VIS
100
AcDbEllipse
 10
374.4366964775048
 20
392.1225059080427
 30
0.0
 11
-8.105001468984248
 21
-2.948818367352405
 31
0.0
210
0.0
220
0.0
230
1.0
 40
0.0103007928811845
 41
1.519573178354325
 42
1.605966652490857
  0
ELLIPSE
  5
64A7
330
1F
100
AcDbEntity
  8
AM_VIS
100
AcDbEllipse
 10
373.6674028000575
 20
392.1225059080427
 30
0.0
 11
-8.105001468984088
 21
-2.948818367352406
 31
0.0
210
0.0
220
0.0
230
1.0
 40
0.0103007928811846
 41
1.61452409718954
 42
1.70127477125309
  0
LINE
  5
64A8
330
1F
100
AcDbEntity
  8
AM_VIS
100
AcDbLine
 10
374.7520496387811
 20
395.0725059080427
 30
0.0
 11
374.0520496387811
 21
395.0725059080427
 31
0.0
  0
LINE
  5
64A9
330
1F
100
AcDbEntity
  8
AM_VIS
100
AcDbLine
 10
374.7520496387811
 20
389.1725059080428
 30
0.0
 11
374.0520496387811
 21
389.1725059080428
 31
0.0
  0
LINE
  5
64AA
330
1F
100
AcDbEntity
  8
AM_VIS
100
AcDbLine
 10
374.7520496387811
 20
395.0725059080427
 30
0.0
 11
374.7520496387811
 21
392.4233940722834
 31
0.0
  0
LINE
  5
64AB
330
1F
100
AcDbEntity
  8
AM_VIS
100
AcDbLine
 10
374.7520496387811
 20
392.1427591193888
 30
0.0
 11
374.7520496387811
 21
389.1725059080428
 31
0.0
  0
LINE
  5
64AC
330
1F
100
AcDbEntity
  8
AM_VIS
100
AcDbLine
 10
375.7402170403101
 20
394.836052462743
 30
0.0
 11
374.7520496387811
 21
394.9225059080426
 31
0.0
  0
LINE
  5
64AD
330
1F
100
AcDbEntity
  8
AM_VIS
100
AcDbLine
 10
375.7402170403101
 20
389.4089593533421
 30
0.0
 11
374.7520496387811
 21
389.3225059080425
 31
0.0
  0
LINE
  5
64AE
330
1F
100
AcDbEntity
  8
AM_VIS
100
AcDbLine
 10
374.7520496387811
 20
392.1475700040934
 30
0.0
 11
374.7520496387811
 21
392.4233940722835
 31
0.0
  0
LINE
  5
64AF
330
1F
100
AcDbEntity
  8
AM_VIS
100
AcDbLine
 10
374.0587746387812
 20
391.9355474277986
 30
0.0
 11
374.0587746387812
 21
392.1704521387212
 31
0.0
  0
LINE
  5
64B0
330
1F
100
AcDbEntity
  8
AM_VIS
100
AcDbLine
 10
376.921745645866
 20
393.622505908042
 30
0.0
 11
376.9163903405437
 21
393.6182670612782
 31
0.0
  0
ARC
  5
64B1
330
1F
100
AcDbEntity
  8
AM_VIS
100
AcDbCircle
 10
372.1520496387813
 20
392.1225059080425
 30
0.0
 40
4.993620304949137
100
AcDbArc
 50
2.898369404403202
 51
17.42964136184458
  0
ARC
  5
64B2
330
1F
100
AcDbEntity
  8
AM_VIS
100
AcDbCircle
 10
372.1520496387813
 20
392.1225059080425
 30
0.0
 40
4.993620304949137
100
AcDbArc
 50
342.5703586381379
 51
357.1016305956391
  0
LINE
  5
64B3
330
1F
100
AcDbEntity
  8
AM_VIS
100
AcDbLine
 10
376.9163903405435
 20
390.6267447548059
 30
0.0
 11
376.9217456458658
 21
390.6225059080421
 31
0.0
  0
ELLIPSE
  5
64B4
330
1F
100
AcDbEntity
  8
AM_VIS
100
AcDbEllipse
 10
373.2593114311729
 20
392.1225059080425
 30
0.0
 11
0.0000000000000523
 21
-4.670872363903959
 31
0.0
210
0.0
220
0.0
230
1.0
 40
0.7841006838456942
 41
1.516711538557323
 42
1.62488111503334
  0
LINE
  5
64B5
330
1F
100
AcDbEntity
  8
AM_VIS
100
AcDbLine
 10
376.9163903405437
 20
391.8700059080446
 30
0.0
 11
377.1392820877454
 21
391.8700059080446
 31
0.0
  0
LINE
  5
64B6
330
1F
100
AcDbEntity
  8
AM_VIS
100
AcDbLine
 10
377.1392820877452
 20
392.3750059080446
 30
0.0
 11
376.9163903405436
 21
392.3750059080446
 31
0.0
  0
ARC
  5
64B7
330
1F
100
AcDbEntity
  8
AM_VIS
100
AcDbCircle
 10
375.635630149013
 20
393.6406188250329
 30
0.0
 40
1.199999999999999
100
AcDbArc
 50
23.54713723707863
 51
85.00000000000026
  0
ARC
  5
64B8
330
1F
100
AcDbEntity
  8
AM_VIS
100
AcDbCircle
 10
375.635630149013
 20
390.6043929910522
 30
0.0
 40
1.199999999999999
100
AcDbArc
 50
274.9999999999997
 51
336.4528627629214
  0
ARC
  5
64B9
330
1F
100
AcDbEntity
  8
AM_VIS
100
AcDbCircle
 10
372.1520496387813
 20
392.1225059080425
 30
0.0
 40
5.000000000000031
100
AcDbArc
 50
336.4528627629214
 51
342.5423968762706
  0
ARC
  5
64BA
330
1F
100
AcDbEntity
  8
AM_VIS
100
AcDbCircle
 10
372.1520496387813
 20
392.1225059080425
 30
0.0
 40
5.000000000000031
100
AcDbArc
 50
17.45760312371507
 51
23.54713723707564
  0
LINE
  5
6510
330
1F
100
AcDbEntity
  8
AM_VIS
100
AcDbLine
 10
287.5520496387812
 20
473.5191193600963
 30
0.0
 11
287.5520496387815
 21
445.2691193600962
 31
0.0
  0
LINE
  5
6511
330
1F
100
AcDbEntity
  8
AM_VIS
100
AcDbLine
 10
308.0520496387811
 20
473.5191193600964
 30
0.0
 11
287.5520496387811
 21
473.5191193600963
 31
0.0
  0
LINE
  5
6512
330
1F
100
AcDbEntity
  8
AM_VIS
100
AcDbLine
 10
308.0520496387816
 20
438.5191193600965
 30
0.0
 11
292.0520496387815
 21
438.5191193600962
 31
0.0
  0
LINE
  5
6513
330
1F
100
AcDbEntity
  8
AM_VIS
100
AcDbLine
 10
292.0520496387815
 20
445.2691193600962
 30
0.0
 11
292.0520496387815
 21
438.5191193600962
 31
0.0
  0
LINE
  5
6514
330
1F
100
AcDbEntity
  8
AM_VIS
100
AcDbLine
 10
287.5520496387816
 20
445.2691193600962
 30
0.0
 11
292.0520496387815
 21
445.2691193600962
 31
0.0
  0
LINE
  5
6515
330
1F
100
AcDbEntity
  8
AM_VIS
100
AcDbLine
 10
292.0520496387815
 20
438.5191192498276
 30
0.0
 11
287.5520496387816
 21
438.5191192498276
 31
0.0
  0
LINE
  5
6516
330
1F
100
AcDbEntity
  8
AM_VIS
100
AcDbLine
 10
287.5520496387816
 20
438.5191192498276
 30
0.0
 11
287.5520496387816
 21
442.0191192498275
 31
0.0
  0
LINE
  5
6517
330
1F
100
AcDbEntity
  8
AM_VIS
100
AcDbLine
 10
287.5520496387815
 20
442.0191192498276
 30
0.0
 11
287.5520496387815
 21
445.2691192982564
 31
0.0
  0
ELLIPSE
  5
6518
330
1F
100
AcDbEntity
  8
AM_VIS
100
AcDbEllipse
 10
291.6674028000579
 20
442.0191192982563
 30
0.0
 11
8.104961503426034
 21
0.1089539743919846
 31
0.0
210
0.0
220
0.0
230
1.0
 40
0.3637262537983055
 41
4.675447027821179
 42
4.754974952650812
  0
ELLIPSE
  5
6519
330
1F
100
AcDbEntity
  8
AM_VIS
100
AcDbEllipse
 10
292.436696477505
 20
442.0191192982563
 30
0.0
 11
8.104961503425872
 21
0.1089539743919853
 31
0.0
210
0.0
220
0.0
230
1.0
 40
0.3637262537983128
 41
4.627947152392344
 42
4.660024033815781
  0
LINE
  5
651A
330
1F
100
AcDbEntity
  8
AM_VIS
100
AcDbLine
 10
291.3520496387815
 20
439.0691192982562
 30
0.0
 11
291.407660176651
 21
439.0691192982562
 31
0.0
  0
LINE
  5
651B
330
1F
100
AcDbEntity
  8
AM_VIS
100
AcDbLine
 10
291.3520496387814
 20
444.9691192982562
 30
0.0
 11
292.0520496387813
 21
444.9691192982562
 31
0.0
  0
LINE
  5
651C
330
1F
100
AcDbEntity
  8
AM_VIS
100
AcDbLine
 10
291.3520496387815
 20
439.0691192982562
 30
0.0
 11
291.3520496387814
 21
444.9691192982562
 31
0.0
  0
LINE
  5
651D
330
1F
100
AcDbEntity
  8
AM_VIS
100
AcDbLine
 10
290.3638822372522
 20
439.3055729249466
 30
0.0
 11
291.3520496387812
 21
439.2191194796471
 31
0.0
  0
LINE
  5
651E
330
1F
100
AcDbEntity
  8
AM_VIS
100
AcDbLine
 10
290.3638822372522
 20
444.7326660343476
 30
0.0
 11
291.352049638781
 21
444.8191194796471
 31
0.0
  0
ARC
  5
651F
330
1F
100
AcDbEntity
  8
AM_VIS
100
AcDbCircle
 10
293.9520496387811
 20
442.0191194834096
 30
0.0
 40
4.993620304949137
100
AcDbArc
 50
162.5703586405832
 51
177.1016305980231
  0
LINE
  5
6520
330
1F
100
AcDbEntity
  8
AM_VIS
100
AcDbLine
 10
289.1877089370185
 20
443.5148806366452
 30
0.0
 11
289.1823536316962
 21
443.5191194796465
 31
0.0
  0
LINE
  5
6521
330
1F
100
AcDbEntity
  8
AM_VIS
100
AcDbLine
 10
289.1823536316965
 20
440.5191194796465
 30
0.0
 11
289.1877089370188
 21
440.5233583301729
 31
0.0
  0
ARC
  5
6522
330
1F
100
AcDbEntity
  8
AM_VIS
100
AcDbCircle
 10
293.9520496387811
 20
442.0191194834096
 30
0.0
 40
4.993620304949137
100
AcDbArc
 50
182.8983694067872
 51
197.429641364288
  0
LINE
  5
6523
330
1F
100
AcDbEntity
  8
AM_VIS
100
AcDbLine
 10
289.1877089370188
 20
442.2716195019376
 30
0.0
 11
288.9648171898171
 21
442.2716194834116
 31
0.0
  0
LINE
  5
6524
330
1F
100
AcDbEntity
  8
AM_VIS
100
AcDbLine
 10
288.9648171898169
 20
441.7666194834116
 30
0.0
 11
289.1877089370185
 21
441.7666195019377
 31
0.0
  0
ELLIPSE
  5
6525
330
1F
100
AcDbEntity
  8
AM_VIS
100
AcDbEllipse
 10
292.8447878463893
 20
442.0191194588019
 30
0.0
 11
-0.0000000001984578
 21
-4.670872363903961
 31
0.0
210
0.0
220
0.0
230
1.0
 40
0.7841006838456785
 41
4.658304192200461
 42
4.766473768676473
  0
ARC
  5
6526
330
1F
100
AcDbEntity
  8
AM_VIS
100
AcDbCircle
 10
290.4684691285494
 20
440.5010065626568
 30
0.0
 40
1.199999999999999
100
AcDbArc
 50
203.5471372370757
 51
265.0000000000003
  0
ARC
  5
6527
330
1F
100
AcDbEntity
  8
AM_VIS
100
AcDbCircle
 10
290.4684691285492
 20
443.5372323966374
 30
0.0
 40
1.199999999999999
100
AcDbArc
 50
94.99999999999975
 51
156.4528627629213
  0
ARC
  5
6528
330
1F
100
AcDbEntity
  8
AM_VIS
100
AcDbCircle
 10
293.9520496387811
 20
442.0191194796472
 30
0.0
 40
5.00000000000003
100
AcDbArc
 50
197.4576031237294
 51
203.5471372370786
  0
ARC
  5
6529
330
1F
100
AcDbEntity
  8
AM_VIS
100
AcDbCircle
 10
293.9520496387811
 20
442.0191194796472
 30
0.0
 40
5.000000000000031
100
AcDbArc
 50
156.4528627629243
 51
162.5423968762849
  0
LINE
  5
6544
330
1F
100
AcDbEntity
  8
AM_VIS
100
AcDbLine
 10
307.6520496387809
 20
397.122505502682
 30
0.0
 11
308.0520496387809
 21
397.122505502682
 31
0.0
  0
LINE
  5
6545
330
1F
100
AcDbEntity
  8
AM_VIS
100
AcDbLine
 10
307.6520496387809
 20
401.122505502682
 30
0.0
 11
308.0520496387809
 21
401.122505502682
 31
0.0
  0
LINE
  5
6546
330
1F
100
AcDbEntity
  8
AM_VIS
100
AcDbLine
 10
307.6520496387811
 20
401.1225059080429
 30
0.0
 11
308.0520496387813
 21
401.1225059080428
 31
0.0
  0
LINE
  5
6547
330
1F
100
AcDbEntity
  8
AM_VIS
100
AcDbLine
 10
307.6520496387812
 20
397.1225059080428
 30
0.0
 11
307.6520496387812
 21
401.1225059080428
 31
0.0
  0
LINE
  5
6548
330
1F
100
AcDbEntity
  8
AM_VIS
100
AcDbLine
 10
308.0520496387813
 20
397.1225059080428
 30
0.0
 11
307.6520496387811
 21
397.1225059080428
 31
0.0
  0
LINE
  5
6549
330
1F
100
AcDbEntity
  8
AM_VIS
100
AcDbLine
 10
308.0520496387813
 20
387.9725059080428
 30
0.0
 11
287.5520496387811
 21
387.9725059080429
 31
0.0
  0
LINE
  5
654A
330
1F
100
AcDbEntity
  8
AM_VIS
100
AcDbLine
 10
287.5520496387812
 20
402.8725059080428
 30
0.0
 11
287.5520496387812
 21
387.9725059080429
 31
0.0
  0
LINE
  5
654B
330
1F
100
AcDbEntity
  8
AM_VIS
100
AcDbLine
 10
308.0520496387813
 20
410.2725059080428
 30
0.0
 11
292.0520496387812
 21
410.2725059080428
 31
0.0
  0
LINE
  5
654C
330
1F
100
AcDbEntity
  8
AM_VIS
100
AcDbLine
 10
292.0520496387812
 20
410.2725059080428
 30
0.0
 11
292.0520496387812
 21
402.8725059080428
 31
0.0
  0
LINE
  5
654D
330
1F
100
AcDbEntity
  8
AM_VIS
100
AcDbLine
 10
287.5520496387811
 20
406.1225058074598
 30
0.0
 11
287.5520496387811
 21
410.2725058074598
 31
0.0
  0
LINE
  5
654E
330
1F
100
AcDbEntity
  8
AM_VIS
100
AcDbLine
 10
287.5520496387812
 20
410.27250580746
 30
0.0
 11
292.0520496387811
 21
410.27250580746
 31
0.0
  0
LINE
  5
654F
330
1F
100
AcDbEntity
  8
AM_VIS
100
AcDbLine
 10
292.0520496387812
 20
402.8725059080427
 30
0.0
 11
287.5520496387812
 21
402.8725059080427
 31
0.0
  0
LINE
  5
6550
330
1F
100
AcDbEntity
  8
AM_VIS
100
AcDbLine
 10
287.5520496387811
 20
402.8725058558887
 30
0.0
 11
287.5520496387811
 21
406.1225058074598
 31
0.0
  0
ELLIPSE
  5
6551
330
1F
100
AcDbEntity
  8
AM_VIS
100
AcDbEllipse
 10
291.6674028000575
 20
406.1225058558886
 30
0.0
 11
4.258560093873133
 21
1.54937914216822
 31
0.0
210
0.0
220
0.0
230
1.0
 40
0.0103007928811843
 41
1.476602792923526
 42
1.641167556127987
  0
LINE
  5
6552
330
1F
100
AcDbEntity
  8
AM_VIS
100
AcDbLine
 10
291.3520496387812
 20
406.0974417538664
 30
0.0
 11
291.3520496387812
 21
406.1022526445426
 31
0.0
  0
ELLIPSE
  5
6553
330
1F
100
AcDbEntity
  8
AM_VIS
100
AcDbEllipse
 10
291.6674028000575
 20
406.1225058558886
 30
0.0
 11
8.105001468984257
 21
2.948818367352383
 31
0.0
210
0.0
220
0.0
230
0.9999999999999998
 40
0.0103007928811843
 41
1.519573178354195
 42
1.605966652490727
  0
ELLIPSE
  5
6554
330
1F
100
AcDbEntity
  8
AM_VIS
100
AcDbEllipse
 10
292.4366964775047
 20
406.1225058558886
 30
0.0
 11
8.105001468984095
 21
2.948818367352384
 31
0.0
210
0.0
220
0.0
230
1.0
 40
0.0103007928811844
 41
1.614524097189439
 42
1.70127477125299
  0
LINE
  5
6555
330
1F
100
AcDbEntity
  8
AM_VIS
100
AcDbLine
 10
291.352049638781
 20
403.1725058558887
 30
0.0
 11
292.052049638781
 21
403.1725058558887
 31
0.0
  0
LINE
  5
6556
330
1F
100
AcDbEntity
  8
AM_VIS
100
AcDbLine
 10
291.3520496387812
 20
409.0725058558887
 30
0.0
 11
292.0520496387811
 21
409.0725058558886
 31
0.0
  0
LINE
  5
6557
330
1F
100
AcDbEntity
  8
AM_VIS
100
AcDbLine
 10
291.352049638781
 20
403.1725058558887
 30
0.0
 11
291.3520496387812
 21
405.8216176916479
 31
0.0
  0
LINE
  5
6558
330
1F
100
AcDbEntity
  8
AM_VIS
100
AcDbLine
 10
291.3520496387812
 20
406.1022526445426
 30
0.0
 11
291.352049638781
 21
409.0725058558886
 31
0.0
  0
LINE
  5
6559
330
1F
100
AcDbEntity
  8
AM_VIS
100
AcDbLine
 10
290.3638822372517
 20
403.4089598366003
 30
0.0
 11
291.3520496387806
 21
403.3225063913007
 31
0.0
  0
LINE
  5
655A
330
1F
100
AcDbEntity
  8
AM_VIS
100
AcDbLine
 10
290.3638822372518
 20
408.8360529460013
 30
0.0
 11
291.3520496387807
 21
408.9225063913008
 31
0.0
  0
LINE
  5
655B
330
1F
100
AcDbEntity
  8
AM_VIS
100
AcDbLine
 10
291.3520496387808
 20
406.0974417538664
 30
0.0
 11
291.3520496387807
 21
405.8216176916479
 31
0.0
  0
LINE
  5
655C
330
1F
100
AcDbEntity
  8
AM_VIS
100
AcDbLine
 10
292.0453246387808
 20
406.3094643361327
 30
0.0
 11
292.0453246387807
 21
406.07455962521
 31
0.0
  0
LINE
  5
655D
330
1F
100
AcDbEntity
  8
AM_VIS
100
AcDbLine
 10
288.9648171898166
 20
405.8700063950634
 30
0.0
 11
289.1877089370185
 21
405.8700064135894
 31
0.0
  0
ELLIPSE
  5
655E
330
1F
100
AcDbEntity
  8
AM_VIS
100
AcDbEllipse
 10
292.8447878463887
 20
406.1225063704555
 30
0.0
 11
0.0000000879334522
 21
-4.670872363903898
 31
0.0
210
0.0
220
0.0
230
0.9999999999999998
 40
0.7841006838455924
 41
4.658304168137085
 42
4.766473744613104
  0
LINE
  5
655F
330
1F
100
AcDbEntity
  8
AM_VIS
100
AcDbLine
 10
289.1877089370185
 20
406.3750064135894
 30
0.0
 11
288.9648171898166
 21
406.3750063950634
 31
0.0
  0
LINE
  5
6560
330
1F
100
AcDbEntity
  8
AM_VIS
100
AcDbLine
 10
289.1823536316959
 20
404.6225063913008
 30
0.0
 11
289.1877089370182
 21
404.6267452418272
 31
0.0
  0
ARC
  5
6561
330
1F
100
AcDbEntity
  8
AM_VIS
100
AcDbCircle
 10
293.9520496387808
 20
406.1225063950632
 30
0.0
 40
4.993620304949238
100
AcDbArc
 50
162.5703586381461
 51
177.1016305956163
  0
ARC
  5
6562
330
1F
100
AcDbEntity
  8
AM_VIS
100
AcDbCircle
 10
293.9520496387808
 20
406.1225063950632
 30
0.0
 40
4.993620304949238
100
AcDbArc
 50
182.8983694043804
 51
197.4296413618508
  0
LINE
  5
6563
330
1F
100
AcDbEntity
  8
AM_VIS
100
AcDbLine
 10
289.1877089370182
 20
407.6182675482995
 30
0.0
 11
289.1823536316961
 21
407.6225063913009
 31
0.0
  0
ARC
  5
6564
330
1F
100
AcDbEntity
  8
AM_VIS
100
AcDbCircle
 10
290.4684691285489
 20
404.6043934743105
 30
0.0
 40
1.199999999999999
100
AcDbArc
 50
203.5471372370757
 51
265.0000000000003
  0
ARC
  5
6565
330
1F
100
AcDbEntity
  8
AM_VIS
100
AcDbCircle
 10
290.468469128549
 20
407.6406193082911
 30
0.0
 40
1.199999999999999
100
AcDbArc
 50
94.99999999999975
 51
156.4528627629187
  0
ARC
  5
6566
330
1F
100
AcDbEntity
  8
AM_VIS
100
AcDbCircle
 10
293.9520496387808
 20
406.1225063913007
 30
0.0
 40
5.000000000000031
100
AcDbArc
 50
156.4528627629187
 51
162.5423968762736
  0
ARC
  5
6567
330
1F
100
AcDbEntity
  8
AM_VIS
100
AcDbCircle
 10
293.9520496387808
 20
406.1225063913007
 30
0.0
 40
5.000000000000031
100
AcDbArc
 50
197.4576031237201
 51
203.5471372370757
  0
DIMENSION
  5
67B5
330
1F
100
AcDbEntity
  8
AM_5
100
AcDbDimension
  2
*D19
 10
390.5520496387813
 20
470.5191193600962
 30
0.0
 11
390.5520496387812
 21
484.400601682878
 31
0.0
 70
   160
 71
     5
 42
3.00000000000017
  3
AM_ISO$0
100
AcDbAlignedDimension
 13
378.5520496387812
 23
473.5191193600964
 33
0.0
 14
355.0520496387814
 24
470.5191193600963
 34
0.0
 50
90.0
100
AcDbRotatedDimension
1001
ACAD
1000
DSTYLE
1002
{
1070
    40
1040
1.399999999999999
1070
   272
1070
     8
1002
}
  0
DIMENSION
  5
6961
330
1F
100
AcDbEntity
  8
AM_5
100
AcDbDimension
  2
*D20
 10
378.5520496387812
 20
483.8935973809886
 30
0.0
 11
333.0520496387812
 21
487.7435973809886
 31
0.0
 70
    32
 71
     5
 42
91.00000000000012
  3
AM_ISO$0
100
AcDbAlignedDimension
 13
287.5520496387811
 23
473.5191193600963
 33
0.0
 14
378.5520496387812
 24
473.5191193600964
 34
0.0
100
AcDbRotatedDimension
1001
ACAD
1000
DSTYLE
1002
{
1070
    40
1040
1.399999999999999
1070
   272
1070
     8
1002
}
  0
LINE
  5
6AAB
330
1F
100
AcDbEntity
  8
AM_VIS
100
AcDbLine
 10
409.0859037132092
 20
473.5191193600964
 30
0.0
 11
423.985903713209
 21
473.5191193600964
 31
0.0
  0
LINE
  5
6AAC
330
1F
100
AcDbEntity
  8
AM_VIS
100
AcDbLine
 10
401.6859037132092
 20
438.5191193600965
 30
0.0
 11
401.6859037132092
 21
466.7691193600965
 31
0.0
  0
LINE
  5
6AAD
330
1F
100
AcDbEntity
  8
AM_VIS
100
AcDbLine
 10
401.6859037132091
 20
466.7691193600965
 30
0.0
 11
401.6859037132091
 21
473.5191193600964
 31
0.0
  0
LINE
  5
6AAE
330
1F
100
AcDbEntity
  8
AM_VIS
100
AcDbLine
 10
401.6859037132091
 20
473.5191193600964
 30
0.0
 11
409.0859037132092
 21
473.5191193600964
 31
0.0
  0
LINE
  5
6AAF
330
1F
100
AcDbEntity
  8
AM_VIS
100
AcDbLine
 10
405.8359037132091
 20
466.7691193600965
 30
0.0
 11
401.6859037132091
 21
466.7691193600965
 31
0.0
  0
LINE
  5
6AB0
330
1F
100
AcDbEntity
  8
AM_VIS
100
AcDbLine
 10
409.0859037132092
 20
473.5191193600964
 30
0.0
 11
409.0859037132092
 21
470.0191193600964
 31
0.0
  0
LINE
  5
6AB1
330
1F
100
AcDbEntity
  8
AM_VIS
100
AcDbLine
 10
416.5859037132089
 20
438.5191193600965
 30
0.0
 11
401.6859037132092
 21
438.5191193600965
 31
0.0
  0
LINE
  5
6AB2
330
1F
100
AcDbEntity
  8
AM_VIS
100
AcDbLine
 10
423.985903713209
 20
473.5191193600964
 30
0.0
 11
423.985903713209
 21
445.2691193600966
 31
0.0
  0
LINE
  5
6AB3
330
1F
100
AcDbEntity
  8
AM_VIS
100
AcDbLine
 10
423.985903713209
 20
445.2691193600966
 30
0.0
 11
423.985903713209
 21
438.5191193600966
 31
0.0
  0
LINE
  5
6AB4
330
1F
100
AcDbEntity
  8
AM_VIS
100
AcDbLine
 10
423.985903713209
 20
438.5191193600965
 30
0.0
 11
416.5859037132089
 21
438.5191193600965
 31
0.0
  0
LINE
  5
6AB5
330
1F
100
AcDbEntity
  8
AM_VIS
100
AcDbLine
 10
419.8359037132089
 20
445.2691193600965
 30
0.0
 11
423.985903713209
 21
445.2691193600966
 31
0.0
  0
LINE
  5
6AB6
330
1F
100
AcDbEntity
  8
AM_VIS
100
AcDbLine
 10
416.5859037132089
 20
438.5191193600965
 30
0.0
 11
416.5859037132089
 21
442.0191193600965
 31
0.0
  0
ARC
  5
6AB7
330
1F
100
AcDbEntity
  8
AM_VIS
100
AcDbCircle
 10
405.8359037132091
 20
470.0191193600964
 30
0.0
 40
3.249999999999999
100
AcDbArc
 50
270.0
 51
0.0
  0
ARC
  5
6AB8
330
1F
100
AcDbEntity
  8
AM_VIS
100
AcDbCircle
 10
419.8359037132089
 20
442.0191193600965
 30
0.0
 40
3.249999999999999
100
AcDbArc
 50
90.0
 51
180.0
  0
LINE
  5
6AB9
330
1F
100
AcDbEntity
  8
AM_VIS
100
AcDbLine
 10
405.8359037132091
 20
469.7666193600965
 30
0.0
 11
405.8359037132091
 21
470.0191193600966
 31
0.0
  0
LINE
  5
6ABA
330
1F
100
AcDbEntity
  8
AM_VIS
100
AcDbLine
 10
405.8359037132091
 20
470.0191193600966
 30
0.0
 11
405.8359037132091
 21
470.2716193600966
 31
0.0
  0
LINE
  5
6ABB
330
1F
100
AcDbEntity
  8
AM_VIS
100
AcDbLine
 10
405.8359037132091
 20
470.0191193600966
 30
0.0
 11
405.5834037132086
 21
469.766619360096
 31
0.0
  0
LINE
  5
6ABC
330
1F
100
AcDbEntity
  8
AM_VIS
100
AcDbLine
 10
406.0884037132088
 20
469.7666193600972
 30
0.0
 11
405.8359037132094
 21
470.0191193600966
 31
0.0
  0
LINE
  5
6ABD
330
1F
100
AcDbEntity
  8
AM_VIS
100
AcDbLine
 10
405.583403713207
 20
469.7666193600965
 30
0.0
 11
406.0884037132072
 21
469.7666193600965
 31
0.0
  0
LINE
  5
6ABE
330
1F
100
AcDbEntity
  8
AM_VIS
100
AcDbLine
 10
406.0884037132072
 20
470.2716193600966
 30
0.0
 11
406.0884037132072
 21
469.7666193600965
 31
0.0
  0
LINE
  5
6ABF
330
1F
100
AcDbEntity
  8
AM_VIS
100
AcDbLine
 10
405.583403713207
 20
470.0191193600966
 30
0.0
 11
405.8359037132094
 21
470.0191193600966
 31
0.0
  0
LINE
  5
6AC0
330
1F
100
AcDbEntity
  8
AM_VIS
100
AcDbLine
 10
405.5834037132086
 20
470.2716193600971
 30
0.0
 11
405.8359037132091
 21
470.0191193600964
 31
0.0
  0
LINE
  5
6AC1
330
1F
100
AcDbEntity
  8
AM_VIS
100
AcDbLine
 10
406.0884037132072
 20
470.2716193600966
 30
0.0
 11
405.583403713207
 21
470.2716193600966
 31
0.0
  0
LINE
  5
6AC2
330
1F
100
AcDbEntity
  8
AM_VIS
100
AcDbLine
 10
405.8359037132094
 20
470.0191193600966
 30
0.0
 11
406.0884037132072
 21
470.0191193600966
 31
0.0
  0
LINE
  5
6AC3
330
1F
100
AcDbEntity
  8
AM_VIS
100
AcDbLine
 10
405.8359037132094
 20
470.0191193600966
 30
0.0
 11
406.0884037132088
 21
470.2716193600959
 31
0.0
  0
LINE
  5
6AC4
330
1F
100
AcDbEntity
  8
AM_VIS
100
AcDbLine
 10
405.583403713207
 20
469.7666193600965
 30
0.0
 11
405.583403713207
 21
470.2716193600966
 31
0.0
  0
LINE
  5
6AC5
330
1F
100
AcDbEntity
  8
AM_VIS
100
AcDbLine
 10
405.583403713207
 20
470.2716193600966
 30
0.0
 11
404.3401425599735
 21
470.2716193600966
 31
0.0
  0
ELLIPSE
  5
6AC6
330
1F
100
AcDbEntity
  8
AM_VIS
100
AcDbEllipse
 10
407.2348042397756
 20
470.0191193600966
 30
0.0
 11
0.0000000000000117
 21
-4.670872363904178
 31
0.0
210
0.0
220
0.0
230
1.0
 40
0.6206336420083113
 41
4.658304192146678
 42
4.766473768622685
  0
LINE
  5
6AC7
330
1F
100
AcDbEntity
  8
AM_VIS
100
AcDbLine
 10
404.3401425599735
 20
469.7666193600965
 30
0.0
 11
405.583403713207
 21
469.7666193600965
 31
0.0
  0
LINE
  5
6AC8
330
1F
100
AcDbEntity
  8
AM_VIS
100
AcDbLine
 10
406.0884037132072
 20
469.7666193600965
 30
0.0
 11
407.3316648664457
 21
469.7666193600965
 31
0.0
  0
ELLIPSE
  5
6AC9
330
1F
100
AcDbEntity
  8
AM_VIS
100
AcDbEllipse
 10
404.4370031866427
 20
470.0191193600966
 30
0.0
 11
0.0000000000000106
 21
4.6708723639039
 31
0.0
210
0.0
220
0.0
230
1.0
 40
0.6206336420085938
 41
4.658304192146689
 42
4.766473768622702
  0
LINE
  5
6ACA
330
1F
100
AcDbEntity
  8
AM_VIS
100
AcDbLine
 10
407.3316648664457
 20
470.2716193600966
 30
0.0
 11
406.0884037132072
 21
470.2716193600966
 31
0.0
  0
LINE
  5
6ACB
330
1F
100
AcDbEntity
  8
AM_VIS
100
AcDbLine
 10
405.583403713207
 20
471.5148805133326
 30
0.0
 11
405.583403713207
 21
470.2716193600966
 31
0.0
  0
ELLIPSE
  5
6ACC
330
1F
100
AcDbEntity
  8
AM_VIS
100
AcDbEllipse
 10
405.8359037132091
 20
471.418019886663
 30
0.0
 11
4.670872363903959
 21
0.0000000000000417
 31
0.0
210
0.0
220
0.0
230
1.0
 40
0.620633642008484
 41
4.658304192146233
 42
4.76647376862225
  0
LINE
  5
6ACD
330
1F
100
AcDbEntity
  8
AM_VIS
100
AcDbLine
 10
406.0884037132072
 20
470.2716193600966
 30
0.0
 11
406.0884037132072
 21
471.5148805133327
 31
0.0
  0
LINE
  5
6ACE
330
1F
100
AcDbEntity
  8
AM_VIS
100
AcDbLine
 10
406.0884037132072
 20
468.5233582068604
 30
0.0
 11
406.0884037132072
 21
469.7666193600965
 31
0.0
  0
ELLIPSE
  5
6ACF
330
1F
100
AcDbEntity
  8
AM_VIS
100
AcDbEllipse
 10
405.8359037132091
 20
468.62021883353
 30
0.0
 11
-4.67087236390396
 21
0.0000000000000406
 31
0.0
210
0.0
220
0.0
230
1.0
 40
0.6206336420084897
 41
4.658304192147127
 42
4.766473768623145
  0
LINE
  5
6AD0
330
1F
100
AcDbEntity
  8
AM_VIS
100
AcDbLine
 10
405.583403713207
 20
469.7666193600965
 30
0.0
 11
405.583403713207
 21
468.5233582068605
 31
0.0
  0
LINE
  5
6AD1
330
1F
100
AcDbEntity
  8
AM_VIS
100
AcDbLine
 10
419.8359037132092
 20
441.7666193600966
 30
0.0
 11
419.8359037132092
 21
442.0191193600966
 31
0.0
  0
LINE
  5
6AD2
330
1F
100
AcDbEntity
  8
AM_VIS
100
AcDbLine
 10
419.8359037132092
 20
442.0191193600966
 30
0.0
 11
419.8359037132092
 21
442.2716193600966
 31
0.0
  0
LINE
  5
6AD3
330
1F
100
AcDbEntity
  8
AM_VIS
100
AcDbLine
 10
419.8359037132092
 20
442.0191193600967
 30
0.0
 11
419.5834037132086
 21
441.7666193600961
 31
0.0
  0
LINE
  5
6AD4
330
1F
100
AcDbEntity
  8
AM_VIS
100
AcDbLine
 10
420.0884037132087
 20
441.7666193600972
 30
0.0
 11
419.8359037132093
 21
442.0191193600966
 31
0.0
  0
LINE
  5
6AD5
330
1F
100
AcDbEntity
  8
AM_VIS
100
AcDbLine
 10
419.5834037132071
 20
441.7666193600966
 30
0.0
 11
420.0884037132071
 21
441.7666193600966
 31
0.0
  0
LINE
  5
6AD6
330
1F
100
AcDbEntity
  8
AM_VIS
100
AcDbLine
 10
420.0884037132071
 20
442.2716193600965
 30
0.0
 11
420.0884037132071
 21
441.7666193600966
 31
0.0
  0
LINE
  5
6AD7
330
1F
100
AcDbEntity
  8
AM_VIS
100
AcDbLine
 10
419.5834037132071
 20
442.0191193600966
 30
0.0
 11
419.8359037132093
 21
442.0191193600966
 31
0.0
  0
LINE
  5
6AD8
330
1F
100
AcDbEntity
  8
AM_VIS
100
AcDbLine
 10
419.5834037132086
 20
442.2716193600971
 30
0.0
 11
419.8359037132092
 21
442.0191193600965
 31
0.0
  0
LINE
  5
6AD9
330
1F
100
AcDbEntity
  8
AM_VIS
100
AcDbLine
 10
420.0884037132071
 20
442.2716193600966
 30
0.0
 11
419.5834037132071
 21
442.2716193600966
 31
0.0
  0
LINE
  5
6ADA
330
1F
100
AcDbEntity
  8
AM_VIS
100
AcDbLine
 10
419.8359037132093
 20
442.0191193600966
 30
0.0
 11
420.0884037132071
 21
442.0191193600966
 31
0.0
  0
LINE
  5
6ADB
330
1F
100
AcDbEntity
  8
AM_VIS
100
AcDbLine
 10
419.8359037132093
 20
442.0191193600966
 30
0.0
 11
420.0884037132087
 21
442.271619360096
 31
0.0
  0
LINE
  5
6ADC
330
1F
100
AcDbEntity
  8
AM_VIS
100
AcDbLine
 10
419.5834037132071
 20
441.7666193600966
 30
0.0
 11
419.5834037132071
 21
442.2716193600965
 31
0.0
  0
LINE
  5
6ADD
330
1F
100
AcDbEntity
  8
AM_VIS
100
AcDbLine
 10
419.5834037132071
 20
442.2716193600966
 30
0.0
 11
418.3401425599734
 21
442.2716193600966
 31
0.0
  0
ELLIPSE
  5
6ADE
330
1F
100
AcDbEntity
  8
AM_VIS
100
AcDbEllipse
 10
421.2348042397755
 20
442.0191193600966
 30
0.0
 11
0.0000000000000117
 21
-4.670872363904178
 31
0.0
210
0.0
220
0.0
230
1.0
 40
0.6206336420083113
 41
4.65830419214668
 42
4.766473768622687
  0
LINE
  5
6ADF
330
1F
100
AcDbEntity
  8
AM_VIS
100
AcDbLine
 10
418.3401425599734
 20
441.7666193600966
 30
0.0
 11
419.5834037132071
 21
441.7666193600966
 31
0.0
  0
LINE
  5
6AE0
330
1F
100
AcDbEntity
  8
AM_VIS
100
AcDbLine
 10
420.0884037132071
 20
441.7666193600966
 30
0.0
 11
421.3316648664457
 21
441.7666193600966
 31
0.0
  0
ELLIPSE
  5
6AE1
330
1F
100
AcDbEntity
  8
AM_VIS
100
AcDbEllipse
 10
418.4370031866427
 20
442.0191193600966
 30
0.0
 11
0.0000000000000106
 21
4.6708723639039
 31
0.0
210
0.0
220
0.0
230
1.0
 40
0.6206336420085938
 41
4.658304192146689
 42
4.766473768622702
  0
LINE
  5
6AE2
330
1F
100
AcDbEntity
  8
AM_VIS
100
AcDbLine
 10
421.3316648664457
 20
442.2716193600966
 30
0.0
 11
420.0884037132071
 21
442.2716193600966
 31
0.0
  0
LINE
  5
6AE3
330
1F
100
AcDbEntity
  8
AM_VIS
100
AcDbLine
 10
419.5834037132071
 20
443.5148805133327
 30
0.0
 11
419.5834037132071
 21
442.2716193600966
 31
0.0
  0
ELLIPSE
  5
6AE4
330
1F
100
AcDbEntity
  8
AM_VIS
100
AcDbEllipse
 10
419.8359037132092
 20
443.418019886663
 30
0.0
 11
4.670872363903959
 21
0.0000000000000417
 31
0.0
210
0.0
220
0.0
230
1.0
 40
0.620633642008484
 41
4.658304192146231
 42
4.766473768622248
  0
LINE
  5
6AE5
330
1F
100
AcDbEntity
  8
AM_VIS
100
AcDbLine
 10
420.0884037132071
 20
442.2716193600966
 30
0.0
 11
420.0884037132071
 21
443.5148805133328
 31
0.0
  0
LINE
  5
6AE6
330
1F
100
AcDbEntity
  8
AM_VIS
100
AcDbLine
 10
420.0884037132071
 20
440.5233582068603
 30
0.0
 11
420.0884037132071
 21
441.7666193600966
 31
0.0
  0
ELLIPSE
  5
6AE7
330
1F
100
AcDbEntity
  8
AM_VIS
100
AcDbEllipse
 10
419.8359037132092
 20
440.62021883353
 30
0.0
 11
-4.67087236390396
 21
0.0000000000000406
 31
0.0
210
0.0
220
0.0
230
1.0
 40
0.6206336420084897
 41
4.65830419214713
 42
4.766473768623146
  0
LINE
  5
6AE8
330
1F
100
AcDbEntity
  8
AM_VIS
100
AcDbLine
 10
419.5834037132071
 20
441.7666193600966
 30
0.0
 11
419.5834037132071
 21
440.5233582068604
 31
0.0
  0
ARC
  5
6AE9
330
1F
100
AcDbEntity
  8
AM_4
100
AcDbCircle
 10
412.835903713209
 20
456.0191193600964
 30
0.0
 40
4.849999999999999
100
AcDbArc
 50
279.9999999999986
 51
189.9999999999986
  0
CIRCLE
  5
6AEA
330
1F
100
AcDbEntity
  8
AM_VIS
100
AcDbCircle
 10
412.835903713209
 20
456.0191193600965
 30
0.0
 40
4.049999999999999
  0
LINE
  5
6AEB
330
1F
100
AcDbEntity
  8
AM_7
  6
AM_ISO08W050x2
100
AcDbLine
 10
412.835903713209
 20
456.0191193600965
 30
0.0
 11
419.6859037132094
 21
456.0191193600965
 31
0.0
1001
GENIUS_GENOREF_13
1005
6AF6
  0
LINE
  5
6AEC
330
1F
100
AcDbEntity
  8
AM_7
  6
AM_ISO08W050x2
100
AcDbLine
 10
412.835903713209
 20
456.0191193600965
 30
0.0
 11
412.835903713209
 21
462.8691193600964
 31
0.0
1001
GENIUS_GENOREF_13
1005
6AF6
  0
LINE
  5
6AED
330
1F
100
AcDbEntity
  8
AM_7
  6
AM_ISO08W050x2
100
AcDbLine
 10
412.835903713209
 20
456.0191193600965
 30
0.0
 11
405.9859037132091
 21
456.0191193600965
 31
0.0
1001
GENIUS_GENOREF_13
1005
6AF6
  0
LINE
  5
6AEE
330
1F
100
AcDbEntity
  8
AM_7
  6
AM_ISO08W050x2
100
AcDbLine
 10
412.835903713209
 20
456.0191193600965
 30
0.0
 11
412.835903713209
 21
449.1691193600964
 31
0.0
1001
GENIUS_GENOREF_13
1005
6AF6
  0
CIRCLE
  5
6AEF
330
1F
100
AcDbEntity
  8
AM_VIS
100
AcDbCircle
 10
405.8359037132094
 20
470.0191193600966
 30
0.0
 40
3.0
  0
CIRCLE
  5
6AF0
330
1F
100
AcDbEntity
  8
AM_VIS
100
AcDbCircle
 10
419.8359037132093
 20
442.0191193600966
 30
0.0
 40
3.0
  0
INSERT
  5
6AF1
330
1F
100
AcDbEntity
  8
AM_5
100
AcDbBlockReference
  2
*S27
 10
0.0
 20
0.0
 30
0.0
  0
TEXT
  5
6AF2
330
1F
100
AcDbEntity
  8
AM_5
100
AcDbText
 10
421.6323943427512
 20
482.6978219113647
 30
0.0
 40
4.9
  1
PT1/8
100
AcDbText
  0
POINT
  5
6AF6
330
1F
100
AcDbEntity
  8
0
 60
     1
100
AcDbPoint
 10
1006.060592662219
 20
181.1069762205511
 30
0.0
1001
GENIUS_GENOLIS_13
1002
{
1000
ENT
1005
6AEE
1005
6AED
1005
6AEC
1005
6AEB
1002
}
1001
GENIUS_GENODEF_13
1002
{
1000
HIER
1070
    10
1002
}
1002
{
1000
MANEDIT
1070
     0
1002
}
1002
{
1000
NOSEL
1070
     0
1002
}
1002
{
1000
BEHIND
1070
     0
1002
}
1002
{
1000
OTHER
1070
     0
1002
}
1002
{
1000
REACTOR
1002
}
1001
GENIUS_GENOBJ-N-CRS_13
1002
{
1000
OWNER
1000
GEN
1002
}
1001
GENIUS_GENOENT_13
1002
{
1000
MYREF
1005
6AF6
1002
}
1002
{
1000
GRP
1005
0
1002
}
  0
DIMENSION
  5
6B64
330
1F
100
AcDbEntity
  8
AM_5
100
AcDbDimension
  2
*D21
 10
393.1551857219409
 20
456.0191193600965
 30
0.0
 11
389.3051857219408
 21
447.2691193600966
 31
0.0
 70
    32
 71
     5
 42
17.5
  3
AM_ISO$0
100
AcDbAlignedDimension
 13
401.6859037132092
 23
438.5191193600965
 33
0.0
 14
405.9859037132091
 24
456.0191193600965
 34
0.0
 50
90.0
100
AcDbRotatedDimension
1001
ACAD
1000
DSTYLE
1002
{
1070
    40
1040
1.399999999999999
1070
   272
1070
     8
1002
}
  0
LINE
  5
98C2
330
1F
100
AcDbEntity
  8
LOGO
 62
     4
100
AcDbLine
 10
462.7494793294943
 20
341.6648364156658
 30
0.0
 11
218.8134793294943
 21
341.6648364156658
 31
0.0
  0
LWPOLYLINE
  5
98C3
330
1F
100
AcDbEntity
  8
LOGO
 62
     4
100
AcDbPolyline
 90
        4
 70
     1
 43
0.0
 10
218.8134793294944
 20
341.6648364156658
 10
462.7494793294943
 20
341.6648364156658
 10
462.7494793294943
 20
590.7895970376029
 10
218.8134793294944
 20
590.7895970376029
1001
GENIUS_GENREC_14
1002
{
1000
PYDIR
1011
218.8134793294944
1021
590.7895970376029
1031
0.0
1002
}
1002
{
1000
PXDIR
1011
462.7494793294943
1021
341.6648364156658
1031
0.0
1002
}
1002
{
1000
PORI
1011
218.8134793294944
1021
341.6648364156658
1031
0.0
1002
}
1002
{
1000
PINS
1011
218.8134793294944
1021
341.6648364156658
1031
0.0
1002
}
1002
{
1000
PINS2
1011
462.7494793294943
1021
590.7895970376029
1031
0.0
1002
}
1002
{
1000
C
1070
     1
1002
}
1001
GENIUS_GENODEF_13
1002
{
1000
HIER
1070
     0
1002
}
1002
{
1000
MANEDIT
1070
     0
1002
}
1002
{
1000
NOSEL
1070
     0
1002
}
1002
{
1000
BEHIND
1070
     0
1002
}
1002
{
1000
OTHER
1070
     0
1002
}
1002
{
1000
REACTOR
1002
}
1001
GENIUS_GENOBJ-N-REC_13
1002
{
1000
OWNER
1000
GEN
1002
}
  0
LWPOLYLINE
  5
98C4
330
1F
100
AcDbEntity
  8
LOGO
 62
     4
100
AcDbPolyline
 90
        4
 70
     1
 43
0.0
 10
218.8134793294944
 20
341.6648364156658
 10
462.7494793294943
 20
341.6648364156658
 10
462.7494793294943
 20
317.2747685206431
 10
218.8134793294944
 20
317.2747685206431
1001
GENIUS_GENREC_14
1002
{
1000
PYDIR
1011
218.8134793294944
1021
317.2747685206431
1031
0.0
1002
}
1002
{
1000
PXDIR
1011
462.7494793294943
1021
341.6648364156658
1031
0.0
1002
}
1002
{
1000
PORI
1011
218.8134793294944
1021
341.6648364156658
1031
0.0
1002
}
1002
{
1000
PINS
1011
218.8134793294944
1021
341.6648364156658
1031
0.0
1002
}
1002
{
1000
PINS2
1011
462.7494793294943
1021
317.2747685206431
1031
0.0
1002
}
1002
{
1000
C
1070
     1
1002
}
1001
GENIUS_GENOBJ-N-REC_13
1002
{
1000
OWNER
1000
GEN
1002
}
1001
GENIUS_GENODEF_13
1002
{
1000
HIER
1070
     0
1002
}
1002
{
1000
MANEDIT
1070
     0
1002
}
1002
{
1000
NOSEL
1070
     0
1002
}
1002
{
1000
BEHIND
1070
     0
1002
}
1002
{
1000
OTHER
1070
     0
1002
}
1002
{
1000
REACTOR
1002
}
  0
TEXT
  5
98C5
330
1F
100
AcDbEntity
  8
LOGO
 62
     7
100
AcDbText
 10
273.8846376621097
 20
330.9799627033263
 30
0.0
 40
3.252009052669683
  1
Order example:
 41
0.8
  7
CHINESET
100
AcDbText
  0
TEXT
  5
98C6
330
1F
100
AcDbEntity
  8
LOGO
 62
     7
100
AcDbText
 10
274.4680749791795
 20
335.558118112419
 30
0.0
 40
4.878013579004523
  1
訂購代號：
  7
CHINESET
100
AcDbText
  0
LINE
  5
98C7
330
1F
100
AcDbEntity
  8
LOGO
 62
     4
100
AcDbLine
 10
272.4716286985441
 20
317.2747685206431
 30
0.0
 11
272.4716286985441
 21
341.6648364156658
 31
0.0
  0
TEXT
  5
98C8
330
1F
100
AcDbEntity
  8
LOGO
  6
Continuous
100
AcDbText
 10
227.5745013528627
 20
322.0661605507985
 30
0.0
 40
3.658510184253393
  1
金器工業股份有限公司
  7
CHINESET
100
AcDbText
  0
TEXT
  5
98C9
330
1F
100
AcDbEntity
  8
LOGO
  6
Continuous
100
AcDbText
 10
220.8545419449354
 20
318.4069335853873
 30
0.0
 40
2.439006789502261
  1
MINDMAN INDUSTRIAL CO., LTD.
 41
0.85
  7
CHINESET
100
AcDbText
  0
LINE
  5
98CA
330
1F
100
AcDbEntity
  8
LOGO
 62
     4
100
AcDbLine
 10
272.4716286985441
 20
336.7868228366616
 30
0.0
 11
236.6995291191774
 21
336.7868228366616
 31
0.0
  0
LINE
  5
98CB
330
1F
100
AcDbEntity
  8
LOGO
 62
     4
100
AcDbLine
 10
272.4716286985441
 20
331.9088092576568
 30
0.0
 11
236.6995291191774
 21
331.9088092576568
 31
0.0
  0
LINE
  5
98CC
330
1F
100
AcDbEntity
  8
LOGO
 62
     4
100
AcDbLine
 10
272.4716286985441
 20
327.0307956786528
 30
0.0
 11
218.8134793294943
 21
327.0307956786528
 31
0.0
  0
LINE
  5
98CD
330
1F
100
AcDbEntity
  8
LOGO
 62
     4
100
AcDbLine
 10
236.6995291191774
 20
327.0307956786528
 30
0.0
 11
236.6995291191774
 21
341.6648364156658
 31
0.0
  0
TEXT
  5
98CE
330
1F
100
AcDbEntity
  8
LOGO
100
AcDbText
 10
261.1480707642922
 20
328.2502990734031
 30
0.0
 40
2.439006789502261
  1
mm
  7
CHINESET
 72
     1
 11
264.1677934560568
 21
329.4698024681543
 31
0.0
100
AcDbText
 73
     2
  0
TEXT
  5
98CF
330
1F
100
AcDbEntity
  8
LOGO
100
AcDbText
 10
259.8704957793148
 20
338.0063262314122
 30
0.0
 40
2.439006789502261
  1
1 : 1
  7
CHINESET
 72
     1
 11
264.1677934560568
 21
339.2258296261633
 31
0.0
100
AcDbText
 73
     2
  0
LINE
  5
98D0
330
1F
100
AcDbEntity
  8
LOGO
 62
     4
100
AcDbLine
 10
256.2115834351954
 20
327.0307956786528
 30
0.0
 11
256.2115834351954
 21
341.6648364156658
 31
0.0
  0
TEXT
  5
98D1
330
1F
100
AcDbEntity
  8
LOGO
100
AcDbText
 10
238.7106208782
 20
338.0075265300291
 30
159.8484869550175
 40
2.439006789502261
  1
比例 Scale:
 41
0.9
  7
CHINESET
 72
     4
 11
246.4555562771865
 21
339.2258296261633
 31
159.8484869550175
100
AcDbText
  0
TEXT
  5
98D2
330
1F
100
AcDbEntity
  8
LOGO
100
AcDbText
 10
238.5701602193403
 20
333.1626211878738
 30
159.8484869550175
 40
2.439006789502261
  1
投影  View:
 41
0.9
  7
CHINESET
 72
     4
 11
246.4555562771865
 21
334.3478160471591
 31
159.8484869550175
100
AcDbText
  0
TEXT
  5
98D3
330
1F
100
AcDbEntity
  8
LOGO
100
AcDbText
 10
238.8086166867068
 20
328.2502990734031
 30
159.8484869550175
 40
2.439006789502261
  1
單位  Unit:
 41
0.9
  7
CHINESET
 72
     4
 11
246.4555562771865
 21
329.4698024681543
 31
159.8484869550175
100
AcDbText
  0
SOLID
  5
98D4
330
1F
100
AcDbEntity
  8
LOGO
 62
     5
100
AcDbTrace
 10
221.3439880166844
 20
331.0852973009212
 30
0.0
 11
222.3985505529271
 21
331.0852973009206
 31
0.0
 12
226.7986218248358
 22
341.0854592825321
 32
0.0
 13
227.8531843610789
 23
341.0854592825317
 33
0.0
  0
SOLID
  5
98D5
330
1F
100
AcDbEntity
  8
LOGO
 62
     5
100
AcDbTrace
 10
222.8349212575803
 20
331.0852973009212
 30
0.0
 11
223.8894837938228
 21
331.0852973009212
 31
0.0
 12
227.8531843610789
 22
340.2854463240029
 32
0.0
 13
226.7986218248358
 23
336.4187170244467
 33
0.0
  0
SOLID
  5
98D6
330
1F
100
AcDbEntity
  8
LOGO
 62
     2
100
AcDbTrace
 10
222.3985505529271
 20
331.0852973009206
 30
0.0
 11
222.8349212575803
 21
331.0852973009212
 31
0.0
 12
227.8531843610789
 22
341.0854592825317
 32
0.0
 13
228.2895550657315
 23
341.0854592825317
 33
0.0
  0
SOLID
  5
98D7
330
1F
100
AcDbEntity
  8
LOGO
 62
     5
100
AcDbTrace
 10
219.6532656606757
 20
327.448874762154
 30
0.0
 11
220.0169079145528
 21
327.448874762154
 31
0.0
 12
221.0409528051208
 22
329.2670860315369
 32
0.0
 13
221.4045950589971
 23
329.2670860315369
 33
0.0
  0
SOLID
  5
98D8
330
1F
100
AcDbEntity
  8
LOGO
 62
     5
100
AcDbTrace
 10
221.0409528051208
 20
329.2670860315369
 30
0.0
 11
221.4045950589971
 21
329.2670860315369
 31
0.0
 12
221.0409528051208
 22
327.448874762154
 32
0.0
 13
221.4045950589971
 23
327.448874762154
 33
0.0
  0
SOLID
  5
98D9
330
1F
100
AcDbEntity
  8
LOGO
 62
     5
100
AcDbTrace
 10
221.0409528051208
 20
327.448874762154
 30
0.0
 11
221.4045950589971
 21
327.448874762154
 31
0.0
 12
222.4286399495666
 22
329.2670860315369
 32
0.0
 13
222.7922822034432
 23
329.2670860315369
 33
0.0
  0
SOLID
  5
98DA
330
1F
100
AcDbEntity
  8
LOGO
 62
     5
100
AcDbTrace
 10
222.4286399495666
 20
329.2670860315369
 30
0.0
 11
222.7922822034432
 21
329.2670860315369
 31
0.0
 12
222.4286399495666
 22
327.448874762154
 32
0.0
 13
222.7922822034432
 23
327.448874762154
 33
0.0
  0
POLYLINE
  5
98DB
330
1F
100
AcDbEntity
  8
LOGO
 62
     5
100
AcDb2dPolyline
 66
     1
 10
0.0
 20
0.0
 30
0.0
 40
0.3642250138990044
 41
0.3642250138990044
  0
VERTEX
  5
98DC
330
98DB
100
AcDbEntity
  8
LOGO
 62
     5
100
AcDbVertex
100
AcDb2dVertex
 10
234.6178044232206
 20
328.5398015237841
 30
0.0
 42
1.0
  0
VERTEX
  5
98DD
330
98DB
100
AcDbEntity
  8
LOGO
 62
     5
100
AcDbVertex
100
AcDb2dVertex
 10
233.5251293815233
 20
328.5398015237841
 30
0.0
 42
1.0
  0
SEQEND
  5
98DE
330
98DB
100
AcDbEntity
  8
LOGO
 62
     5
  0
POLYLINE
  5
98DF
330
1F
100
AcDbEntity
  8
LOGO
 62
     5
100
AcDb2dPolyline
 66
     1
 10
0.0
 20
0.0
 30
0.0
 70
     1
  0
VERTEX
  5
98E0
330
98DF
100
AcDbEntity
  8
LOGO
 62
     5
100
AcDbVertex
100
AcDb2dVertex
 10
231.4653883257379
 20
328.357980396845
 30
0.0
 42
1.000000057330635
  0
VERTEX
  5
98E1
330
98DF
100
AcDbEntity
  8
LOGO
 62
     5
100
AcDbVertex
100
AcDb2dVertex
 10
232.5563150873684
 20
328.357980396845
 30
0.0
 42
1.000000057330635
  0
SEQEND
  5
98E2
330
98DF
100
AcDbEntity
  8
LOGO
 62
     5
  0
CIRCLE
  5
98E3
330
1F
100
AcDbEntity
  8
LOGO
 62
     5
100
AcDbCircle
 10
232.010851706554
 20
328.357980396845
 30
0.0
 40
0.5454633808151491
  0
POLYLINE
  5
98E4
330
1F
100
AcDbEntity
  8
LOGO
 62
     5
100
AcDb2dPolyline
 66
     1
 10
0.0
 20
0.0
 30
0.0
 70
     1
 40
0.3642250138990044
 41
0.3642250138990044
  0
VERTEX
  5
98E5
330
98E4
100
AcDbEntity
  8
LOGO
 62
     5
100
AcDbVertex
100
AcDb2dVertex
 10
231.2824016787555
 20
328.357980396845
 30
0.0
 42
1.0
  0
VERTEX
  5
98E6
330
98E4
100
AcDbEntity
  8
LOGO
 62
     5
100
AcDbVertex
100
AcDb2dVertex
 10
232.7393017343514
 20
328.357980396845
 30
0.0
 42
1.0
  0
SEQEND
  5
98E7
330
98E4
100
AcDbEntity
  8
LOGO
 62
     5
  0
LINE
  5
98E8
330
1F
100
AcDbEntity
  8
LOGO
100
AcDbLine
 10
234.7987514101248
 20
327.448874762154
 30
0.0
 11
234.7987514101248
 21
328.5398015237841
 31
0.0
  0
SOLID
  5
98E9
330
1F
100
AcDbEntity
  8
LOGO
 62
     5
100
AcDbTrace
 10
232.5562787231445
 20
329.2670860315369
 30
0.0
 11
232.9199209770205
 21
329.2670860315369
 31
0.0
 12
232.5562787231445
 22
327.448874762154
 32
0.0
 13
232.9199209770205
 23
327.448874762154
 33
0.0
  0
SOLID
  5
98EA
330
1F
100
AcDbEntity
  8
LOGO
 62
     5
100
AcDbTrace
 10
233.344182394618
 20
327.448874762154
 30
0.0
 11
233.707824648495
 21
327.448874762154
 31
0.0
 12
233.344182394618
 22
329.2670860315369
 32
0.0
 13
233.707824648495
 23
329.2670860315369
 33
0.0
  0
SOLID
  5
98EB
330
1F
100
AcDbEntity
  8
LOGO
 62
     5
100
AcDbTrace
 10
234.4351091562488
 20
328.5398015237841
 30
0.0
 11
234.7987514101248
 21
328.5398015237841
 31
0.0
 12
234.4351091562488
 22
327.448874762154
 32
0.0
 13
234.7987514101248
 23
327.448874762154
 33
0.0
  0
SOLID
  5
98EC
330
1F
100
AcDbEntity
  8
LOGO
 62
     5
100
AcDbTrace
 10
233.3078181692302
 20
340.2854463240029
 30
0.0
 11
232.2532556329881
 21
336.4187170244467
 31
0.0
 12
233.3078181692302
 22
331.0852973009206
 32
0.0
 13
232.2532556329881
 23
331.0852973009206
 33
0.0
  0
SOLID
  5
98ED
330
1F
100
AcDbEntity
  8
LOGO
 62
     5
100
AcDbTrace
 10
233.7441888738829
 20
331.0852973009206
 30
0.0
 11
234.7987514101248
 21
331.0852973009206
 31
0.0
 12
233.7441888738829
 22
341.0854592825317
 32
0.0
 13
234.7987514101248
 23
341.0854592825321
 33
0.0
  0
SOLID
  5
98EE
330
1F
100
AcDbEntity
  8
LOGO
 62
     2
100
AcDbTrace
 10
233.3078181692302
 20
341.0854592825321
 30
0.0
 11
233.7441888738829
 21
341.0854592825317
 31
0.0
 12
233.3078181692302
 22
331.0852973009206
 32
0.0
 13
233.7441888738829
 23
331.0852973009206
 33
0.0
  0
POLYLINE
  5
98EF
330
1F
100
AcDbEntity
  8
LOGO
 62
     5
100
AcDb2dPolyline
 66
     1
 10
0.0
 20
0.0
 30
0.0
 40
0.3642250138990044
 41
0.3642250138990044
  0
VERTEX
  5
98F0
330
98EF
100
AcDbEntity
  8
LOGO
 62
     5
100
AcDbVertex
100
AcDb2dVertex
 10
229.4055745415035
 20
328.5398015237841
 30
0.0
 42
1.0
  0
VERTEX
  5
98F1
330
98EF
100
AcDbEntity
  8
LOGO
 62
     5
100
AcDbVertex
100
AcDb2dVertex
 10
228.3128994998062
 20
328.5398015237841
 30
0.0
 42
1.0
  0
SEQEND
  5
98F2
330
98EF
100
AcDbEntity
  8
LOGO
 62
     5
  0
POLYLINE
  5
98F3
330
1F
100
AcDbEntity
  8
LOGO
 62
     5
100
AcDb2dPolyline
 66
     1
 10
0.0
 20
0.0
 30
0.0
 40
0.3642250138990044
 41
0.3642250138990044
  0
VERTEX
  5
98F4
330
98F3
100
AcDbEntity
  8
LOGO
 62
     5
100
AcDbVertex
100
AcDb2dVertex
 10
230.4965013031327
 20
328.5398015237841
 30
0.0
 42
1.0
  0
VERTEX
  5
98F5
330
98F3
100
AcDbEntity
  8
LOGO
 62
     5
100
AcDbVertex
100
AcDb2dVertex
 10
229.403826261436
 20
328.5398015237841
 30
0.0
 42
1.0
  0
SEQEND
  5
98F6
330
98F3
100
AcDbEntity
  8
LOGO
 62
     5
  0
POLYLINE
  5
98F7
330
1F
100
AcDbEntity
  8
LOGO
 62
     5
100
AcDb2dPolyline
 66
     1
 10
0.0
 20
0.0
 30
0.0
 40
0.3642250138990044
 41
0.3642250138990044
  0
VERTEX
  5
98F8
330
98F7
100
AcDbEntity
  8
LOGO
 62
     5
100
AcDbVertex
100
AcDb2dVertex
 10
225.2842714214155
 20
328.5398015237841
 30
0.0
 42
1.0
  0
VERTEX
  5
98F9
330
98F7
100
AcDbEntity
  8
LOGO
 62
     5
100
AcDbVertex
100
AcDb2dVertex
 10
224.1915963797189
 20
328.5398015237841
 30
0.0
 42
1.0
  0
SEQEND
  5
98FA
330
98F7
100
AcDbEntity
  8
LOGO
 62
     5
  0
SOLID
  5
98FB
330
1F
100
AcDbEntity
  8
LOGO
 62
     5
100
AcDbTrace
 10
224.010649392814
 20
329.2670860315369
 30
0.0
 11
224.3742916466899
 21
329.2670860315369
 31
0.0
 12
224.010649392814
 22
327.448874762154
 32
0.0
 13
224.3742916466899
 23
327.448874762154
 33
0.0
  0
SOLID
  5
98FC
330
1F
100
AcDbEntity
  8
LOGO
 62
     5
100
AcDbTrace
 10
225.1015761544444
 20
328.5398015237841
 30
0.0
 11
225.4652184083216
 21
328.5398015237841
 31
0.0
 12
225.1015761544444
 22
327.448874762154
 32
0.0
 13
225.4652184083216
 23
327.448874762154
 33
0.0
  0
POLYLINE
  5
98FD
330
1F
100
AcDbEntity
  8
LOGO
 62
     5
100
AcDb2dPolyline
 66
     1
 10
0.0
 20
0.0
 30
0.0
 70
     1
 40
0.3642250138990044
 41
0.3642250138990044
  0
VERTEX
  5
98FE
330
98FD
100
AcDbEntity
  8
LOGO
 62
     5
100
AcDbVertex
100
AcDb2dVertex
 10
226.0701717970378
 20
328.357980396845
 30
0.0
 42
1.0
  0
VERTEX
  5
98FF
330
98FD
100
AcDbEntity
  8
LOGO
 62
     5
100
AcDbVertex
100
AcDb2dVertex
 10
227.5270718526342
 20
328.357980396845
 30
0.0
 42
1.0
  0
SEQEND
  5
9900
330
98FD
100
AcDbEntity
  8
LOGO
 62
     5
  0
SOLID
  5
9901
330
1F
100
AcDbEntity
  8
LOGO
 62
     5
100
AcDbTrace
 10
227.3440488414262
 20
329.8125494123527
 30
0.0
 11
227.7076910953028
 21
329.8125494123527
 31
0.0
 12
227.3440488414262
 22
327.448874762154
 32
0.0
 13
227.7076910953028
 23
327.448874762154
 33
0.0
  0
SOLID
  5
9902
330
1F
100
AcDbEntity
  8
LOGO
 62
     5
100
AcDbTrace
 10
228.1319525129017
 20
329.2670860315369
 30
0.0
 11
228.4955947667779
 21
329.2670860315369
 31
0.0
 12
228.1319525129017
 22
327.448874762154
 32
0.0
 13
228.4955947667779
 23
327.448874762154
 33
0.0
  0
SOLID
  5
9903
330
1F
100
AcDbEntity
  8
LOGO
 62
     5
100
AcDbTrace
 10
229.2228792745311
 20
328.5398015237841
 30
0.0
 11
229.5865215284082
 21
328.5398015237841
 31
0.0
 12
229.2228792745311
 22
327.448874762154
 32
0.0
 13
229.5865215284082
 23
327.448874762154
 33
0.0
  0
SOLID
  5
9904
330
1F
100
AcDbEntity
  8
LOGO
 62
     5
100
AcDbTrace
 10
230.3138060361615
 20
328.5398015237841
 30
0.0
 11
230.677448290038
 21
328.5398015237841
 31
0.0
 12
230.3138060361615
 22
327.4488747621532
 32
0.0
 13
230.677448290038
 23
327.4488747621532
 33
0.0
  0
SOLID
  5
9905
330
1F
100
AcDbEntity
  8
LOGO
 62
     5
100
AcDbTrace
 10
223.2227457213389
 20
329.5216356092511
 30
0.0
 11
223.5863879752167
 21
329.5216356092511
 31
0.0
 12
223.2227457213389
 22
329.8125494123527
 32
0.0
 13
223.5863879752167
 23
329.8125494123527
 33
0.0
  0
SOLID
  5
9906
330
1F
100
AcDbEntity
  8
LOGO
 62
     5
100
AcDbTrace
 10
223.2227457213389
 20
329.2670860315369
 30
0.0
 11
223.5863879752167
 21
329.2670860315369
 31
0.0
 12
223.2227457213389
 22
327.4488747621532
 32
0.0
 13
223.5863879752167
 23
327.448874762154
 33
0.0
  0
SOLID
  5
9907
330
1F
100
AcDbEntity
  8
LOGO
 62
     5
100
AcDbTrace
 10
226.7986218248358
 20
331.0852973009212
 30
0.0
 11
227.8531843610789
 21
331.0852973009212
 31
0.0
 12
226.7986218248358
 22
336.4187170244467
 32
0.0
 13
227.8531843610789
 23
340.2854463240029
 33
0.0
  0
SOLID
  5
9908
330
1F
100
AcDbEntity
  8
LOGO
 62
     5
100
AcDbTrace
 10
228.2895550657315
 20
341.0854592825317
 30
0.0
 11
229.3441176019737
 21
341.0854592825321
 31
0.0
 12
228.2895550657315
 22
331.8853102594501
 32
0.0
 13
229.3441176019737
 23
335.7520395590065
 33
0.0
  0
SOLID
  5
9909
330
1F
100
AcDbEntity
  8
LOGO
 62
     2
100
AcDbTrace
 10
227.8531843610789
 20
341.0854592825317
 30
0.0
 11
228.2895550657315
 21
341.0854592825317
 31
0.0
 12
227.8531843610789
 22
331.0852973009212
 32
0.0
 13
228.2895550657315
 23
331.0852973009212
 33
0.0
  0
SOLID
  5
990A
330
1F
100
AcDbEntity
  8
LOGO
 62
     5
100
AcDbTrace
 10
228.2895550657315
 20
331.8853102594501
 30
0.0
 11
229.3441176019737
 21
335.7520395590065
 31
0.0
 12
233.3078181692302
 22
341.0854592825321
 32
0.0
 13
232.2532556329881
 23
341.0854592825321
 33
0.0
  0
SOLID
  5
990B
330
1F
100
AcDbEntity
  8
LOGO
 62
     5
100
AcDbTrace
 10
228.2895550657315
 20
331.0852973009212
 30
0.0
 11
229.3441176019737
 21
331.0852973009212
 31
0.0
 12
233.3078181692302
 22
340.2854463240029
 32
0.0
 13
232.2532556329881
 23
336.4187170244467
 33
0.0
  0
SOLID
  5
990C
330
1F
100
AcDbEntity
  8
LOGO
 62
     2
100
AcDbTrace
 10
227.8531843610789
 20
331.0852973009212
 30
0.0
 11
228.2895550657315
 21
331.0852973009212
 31
0.0
 12
233.3078181692302
 22
341.0854592825321
 32
0.0
 13
233.7441888738829
 23
341.0854592825317
 33
0.0
  0
LINE
  5
990D
330
1F
100
AcDbEntity
  8
LOGO
 62
     4
100
AcDbLine
 10
317.5855691866519
 20
328.2502990734041
 30
0.0
 11
317.5855691866519
 21
319.3072741785615
 31
0.0
  0
LINE
  5
990E
330
1F
100
AcDbEntity
  8
LOGO
 62
     4
100
AcDbLine
 10
306.0190846019821
 20
328.2502990734041
 30
0.0
 11
306.0190846019821
 21
319.3072741785615
 31
0.0
  0
LINE
  5
990F
330
1F
100
AcDbEntity
  8
LOGO
 62
     4
100
AcDbLine
 10
317.5855691866519
 20
319.3072741785615
 30
0.0
 11
306.0190846019821
 21
319.3072741785615
 31
0.0
  0
LINE
  5
9910
330
1F
100
AcDbEntity
  8
LOGO
 62
     4
100
AcDbLine
 10
325.3700384659976
 20
339.2258296261633
 30
0.0
 11
306.0190846019821
 21
339.2258296261633
 31
0.0
  0
LINE
  5
9911
330
1F
100
AcDbEntity
  8
LOGO
 62
     4
100
AcDbLine
 10
325.3700384659976
 20
331.9088092576568
 30
0.0
 11
306.0190846019821
 21
331.9088092576568
 31
0.0
  0
LINE
  5
9912
330
1F
100
AcDbEntity
  8
LOGO
 62
     4
100
AcDbLine
 10
306.0190846019821
 20
339.2258296261633
 30
0.0
 11
306.0190846019821
 21
331.9088092576568
 31
0.0
  0
LINE
  5
9913
330
1F
100
AcDbEntity
  8
LOGO
 62
     4
100
AcDbLine
 10
325.3700384659976
 20
339.2258296261633
 30
0.0
 11
325.3700384659976
 21
331.9088092576568
 31
0.0
  0
LINE
  5
9914
330
1F
100
AcDbEntity
  8
LOGO
 62
     4
100
AcDbLine
 10
314.9974731945038
 20
331.9088092576568
 30
0.0
 11
314.9974731945038
 21
328.2502990734041
 31
0.0
  0
TEXT
  5
9915
330
1F
100
AcDbEntity
  8
LOGO
  6
Continuous
 62
     7
100
AcDbText
 10
307.3192045266515
 20
333.4362265621003
 30
0.0
 40
4.268880000000001
  1
MVAA
  7
CHINESET
100
AcDbText
  0
LINE
  5
9916
330
1F
100
AcDbEntity
  8
LOGO
 62
     4
100
AcDbLine
 10
317.5855691866519
 20
328.2502990734041
 30
0.0
 11
306.0190846019821
 21
328.2502990734041
 31
0.0
  0
TEXT
  5
9917
330
1F
100
AcDbEntity
  8
LOGO
  6
Continuous
100
AcDbText
 10
308.1214469040822
 20
320.5695631783436
 30
159.8484869550175
 40
1.829519999999999
  1
Model
 41
0.8
  7
CHINESET
100
AcDbText
  0
TEXT
  5
9918
330
1F
100
AcDbEntity
  8
LOGO
100
AcDbText
 10
307.6344881541193
 20
323.961098968643
 30
159.8484869550175
 40
3.0492
  1
型號
  7
CHINESET
100
AcDbText
  0
LINE
  5
9919
330
1F
100
AcDbEntity
  8
LOGO
  6
Continuous
 62
     7
100
AcDbLine
 10
326.1478982055107
 20
335.5414013994023
 30
0.0
 11
329.3788274140333
 21
335.5414013994023
 31
0.0
  0
LINE
  5
991A
330
1F
100
AcDbEntity
  8
LOGO
 62
     4
100
AcDbLine
 10
334.3060377032414
 20
328.2502990734041
 30
0.0
 11
334.3060377032414
 21
319.3072741785615
 31
0.0
  0
LINE
  5
991B
330
1F
100
AcDbEntity
  8
LOGO
 62
     4
100
AcDbLine
 10
319.4910152151457
 20
328.2502990734041
 30
0.0
 11
319.4910152151457
 21
319.3072741785615
 31
0.0
  0
LINE
  5
991C
330
1F
100
AcDbEntity
  8
LOGO
 62
     4
100
AcDbLine
 10
334.3060377032414
 20
319.3072741785615
 30
0.0
 11
319.4910152151457
 21
319.3072741785615
 31
0.0
  0
LINE
  5
991D
330
1F
100
AcDbEntity
  8
LOGO
 62
     4
100
AcDbLine
 10
339.1747718225564
 20
339.2258296261633
 30
0.0
 11
330.3980152668797
 21
339.2258296261633
 31
0.0
  0
LINE
  5
991E
330
1F
100
AcDbEntity
  8
LOGO
 62
     4
100
AcDbLine
 10
339.1747718225564
 20
331.9088092576568
 30
0.0
 11
330.3980152668797
 21
331.9088092576568
 31
0.0
  0
LINE
  5
991F
330
1F
100
AcDbEntity
  8
LOGO
 62
     4
100
AcDbLine
 10
330.3980152668797
 20
339.2258296261633
 30
0.0
 11
330.3980152668797
 21
331.9088092576568
 31
0.0
  0
LINE
  5
9920
330
1F
100
AcDbEntity
  8
LOGO
 62
     4
100
AcDbLine
 10
339.1747718225564
 20
339.2258296261633
 30
0.0
 11
339.1747718225564
 21
331.9088092576568
 31
0.0
  0
LINE
  5
9921
330
1F
100
AcDbEntity
  8
LOGO
 62
     4
100
AcDbLine
 10
334.7863935447182
 20
331.9088092576568
 30
0.0
 11
334.7863935447182
 21
330.0795541655304
 31
0.0
  0
TEXT
  5
9922
330
1F
100
AcDbEntity
  8
LOGO
  6
Continuous
 62
     7
100
AcDbText
 10
331.5874468361009
 20
333.4362265621003
 30
0.0
 40
4.268880000000001
  1
220
  7
CHINESET
100
AcDbText
  0
LINE
  5
9923
330
1F
100
AcDbEntity
  8
LOGO
 62
     4
100
AcDbLine
 10
334.3060377032414
 20
328.2502990734041
 30
0.0
 11
319.4910152151457
 21
328.2502990734041
 31
0.0
  0
LINE
  5
9924
330
1F
100
AcDbEntity
  8
LOGO
  6
Continuous
 62
     7
100
AcDbLine
 10
344.122415922424
 20
335.5414013994023
 30
0.0
 11
347.3533451309468
 21
335.5414013994023
 31
0.0
  0
LINE
  5
9925
330
1F
100
AcDbEntity
  8
LOGO
 62
     4
100
AcDbLine
 10
348.5041604931886
 20
328.2502990734041
 30
0.0
 11
348.5041604931886
 21
319.3072741785615
 31
0.0
  0
LINE
  5
9926
330
1F
100
AcDbEntity
  8
LOGO
 62
     4
100
AcDbLine
 10
336.2900260994047
 20
328.2502990734041
 30
0.0
 11
336.2900260994047
 21
319.3072741785615
 31
0.0
  0
LINE
  5
9927
330
1F
100
AcDbEntity
  8
LOGO
 62
     4
100
AcDbLine
 10
348.5041604931886
 20
319.3072741785615
 30
0.0
 11
336.2900260994047
 21
319.3072741785615
 31
0.0
  0
LINE
  5
9928
330
1F
100
AcDbEntity
  8
LOGO
 62
     4
100
AcDbLine
 10
353.5667627860799
 20
339.2258296261633
 30
0.0
 11
348.3725329837931
 21
339.2258296261633
 31
0.0
  0
LINE
  5
9929
330
1F
100
AcDbEntity
  8
LOGO
 62
     4
100
AcDbLine
 10
353.5667627860799
 20
331.9088092576568
 30
0.0
 11
348.3725329837931
 21
331.9088092576568
 31
0.0
  0
LINE
  5
992A
330
1F
100
AcDbEntity
  8
LOGO
 62
     4
100
AcDbLine
 10
348.3725329837931
 20
339.2258296261633
 30
0.0
 11
348.3725329837931
 21
331.9088092576568
 31
0.0
  0
LINE
  5
992B
330
1F
100
AcDbEntity
  8
LOGO
 62
     4
100
AcDbLine
 10
353.5667627860799
 20
339.2258296261633
 30
0.0
 11
353.5667627860799
 21
331.9088092576568
 31
0.0
  0
LINE
  5
992C
330
1F
100
AcDbEntity
  8
LOGO
 62
     4
100
AcDbLine
 10
350.9696478849365
 20
331.9088092576568
 30
0.0
 11
350.9696478849365
 21
330.0795541655304
 31
0.0
  0
TEXT
  5
992D
330
1F
100
AcDbEntity
  8
LOGO
  6
Continuous
 62
     7
100
AcDbText
 10
349.3464088291421
 20
333.4362265621003
 30
0.0
 40
4.268880000000001
  1
4
  7
CHINESET
100
AcDbText
  0
LINE
  5
992E
330
1F
100
AcDbEntity
  8
LOGO
 62
     4
100
AcDbLine
 10
348.5041604931886
 20
328.2502990734041
 30
0.0
 11
336.2900260994047
 21
328.2502990734041
 31
0.0
  0
LINE
  5
992F
330
1F
100
AcDbEntity
  8
LOGO
 62
     4
100
AcDbLine
 10
373.5043867329013
 20
328.2502990734041
 30
0.0
 11
373.5043867329013
 21
319.3072741785615
 31
0.0
  0
LINE
  5
9930
330
1F
100
AcDbEntity
  8
LOGO
 62
     4
100
AcDbLine
 10
350.9812341448533
 20
328.2502990734041
 30
0.0
 11
350.9812341448533
 21
319.3072741785615
 31
0.0
  0
LINE
  5
9931
330
1F
100
AcDbEntity
  8
LOGO
 62
     4
100
AcDbLine
 10
373.5043867329013
 20
319.3072741785615
 30
0.0
 11
350.9812341448533
 21
319.3072741785615
 31
0.0
  0
LINE
  5
9932
330
1F
100
AcDbEntity
  8
LOGO
 62
     4
100
AcDbLine
 10
364.6527167075359
 20
339.2258296261633
 30
0.0
 11
354.999056227693
 21
339.2258296261633
 31
0.0
  0
LINE
  5
9933
330
1F
100
AcDbEntity
  8
LOGO
 62
     4
100
AcDbLine
 10
364.6527167075359
 20
331.9088092576568
 30
0.0
 11
354.999056227693
 21
331.9088092576568
 31
0.0
  0
LINE
  5
9934
330
1F
100
AcDbEntity
  8
LOGO
 62
     4
100
AcDbLine
 10
354.999056227693
 20
339.2258296261633
 30
0.0
 11
354.999056227693
 21
331.9088092576568
 31
0.0
  0
LINE
  5
9935
330
1F
100
AcDbEntity
  8
LOGO
 62
     4
100
AcDbLine
 10
364.6527167075359
 20
339.2258296261633
 30
0.0
 11
364.6527167075359
 21
331.9088092576568
 31
0.0
  0
LINE
  5
9936
330
1F
100
AcDbEntity
  8
LOGO
 62
     4
100
AcDbLine
 10
359.8258864676146
 20
331.9088092576568
 30
0.0
 11
359.8258864676146
 21
328.2502990734041
 31
0.0
  0
TEXT
  5
9937
330
1F
100
AcDbEntity
  8
LOGO
  6
Continuous
 62
     7
100
AcDbText
 10
356.7261022176665
 20
333.4362265621003
 30
0.0
 40
4.268880000000001
  1
A2
  7
CHINESET
100
AcDbText
  0
LINE
  5
9938
330
1F
100
AcDbEntity
  8
LOGO
 62
     4
100
AcDbLine
 10
373.5043867329013
 20
328.2502990734041
 30
0.0
 11
350.9812341448533
 21
328.2502990734041
 31
0.0
  0
TEXT
  5
9939
330
1F
100
AcDbEntity
  8
LOGO
  6
Continuous
100
AcDbText
 10
320.6534292245319
 20
320.5695631783436
 30
159.8484869550175
 40
1.829519999999999
  1
Body width
 41
0.8
  7
CHINESET
100
AcDbText
  0
TEXT
  5
993A
330
1F
100
AcDbEntity
  8
LOGO
100
AcDbText
 10
320.6361945124807
 20
323.961098968643
 30
159.8484869550175
 40
3.0492
  1
本體寬度
  7
CHINESET
100
AcDbText
  0
TEXT
  5
993B
330
1F
100
AcDbEntity
  8
LOGO
  6
Continuous
100
AcDbText
 10
338.738153254172
 20
320.5695631783436
 30
159.8484869550175
 40
1.829519999999999
  1
4 Way
 41
0.8
  7
CHINESET
100
AcDbText
  0
TEXT
  5
993C
330
1F
100
AcDbEntity
  8
LOGO
100
AcDbText
 10
337.9113964863281
 20
323.961098968643
 30
159.8484869550175
 40
3.0492
  1
4方向
  7
CHINESET
100
AcDbText
  0
TEXT
  5
993D
330
1F
100
AcDbEntity
  8
LOGO
  6
Continuous
100
AcDbText
 10
352.3077596410555
 20
320.5695631783436
 30
159.8484869550175
 40
1.829519999999999
  1
Double air operate
 41
0.8
  7
CHINESET
100
AcDbText
  0
TEXT
  5
993E
330
1F
100
AcDbEntity
  8
LOGO
100
AcDbText
 10
352.3799152101235
 20
323.961098968643
 30
159.8484869550175
 40
3.0492
  1
複動氣壓引導
  7
CHINESET
100
AcDbText
  0
TEXT
  5
993F
330
1F
100
AcDbEntity
  8
LOGO
100
AcDbText
 10
273.6017056284651
 20
318.572310506053
 30
0.0
 40
2.439359999999999
  1
10710030
 41
0.7
  7
CHINESET
 72
     1
 11
279.5374816284651
 21
318.572310506053
 31
0.0
100
AcDbText
  0
LINE
  5
9940
330
1F
100
AcDbEntity
  8
LOGO
 62
     4
100
AcDbLine
 10
287.1077886985431
 20
322.1527820996483
 30
0.0
 11
287.107788698544
 21
317.2747685206437
 31
0.0
  0
LINE
  5
9941
330
1F
100
AcDbEntity
  8
LOGO
 62
     4
100
AcDbLine
 10
287.1077886985431
 20
322.1527820996483
 30
0.0
 11
272.4716286985441
 21
322.1527820996483
 31
0.0
  0
CIRCLE
  5
9942
330
1F
100
AcDbEntity
  8
LOGO
  6
Continuous
100
AcDbCircle
 10
260.7277095721057
 20
334.3530331005301
 30
0.0
 40
1.416144749733467
  0
CIRCLE
  5
9943
330
1F
100
AcDbEntity
  8
LOGO
  6
Continuous
100
AcDbCircle
 10
260.7277095721057
 20
334.3530331005301
 30
0.0
 40
0.8297354591420555
  0
LINE
  5
9944
330
1F
100
AcDbEntity
  8
LOGO
100
AcDbLine
 10
269.6269275019187
 20
332.9368883507963
 30
0.0
 11
269.6269275019187
 21
335.7691778502639
 31
0.0
  0
LINE
  5
9945
330
1F
100
AcDbEntity
  8
LOGO
100
AcDbLine
 10
265.1873950020919
 20
333.5232976413883
 30
0.0
 11
265.1873950020919
 21
335.1827685596725
 31
0.0
  0
LINE
  5
9946
330
1F
100
AcDbEntity
  8
LOGO
  6
Continuous
100
AcDbLine
 10
265.1873950020919
 20
335.1827685596725
 30
0.0
 11
269.6269275019187
 21
335.7691778502639
 31
0.0
  0
LINE
  5
9947
330
1F
100
AcDbEntity
  8
LOGO
  6
Continuous
100
AcDbLine
 10
265.1873950020919
 20
333.5232976413883
 30
0.0
 11
269.6269275019187
 21
332.9368883507963
 31
0.0
  0
LINE
  5
9948
330
1F
100
AcDbEntity
  8
LOGO
  6
AM_ISO08W050x2
 48
0.3
100
AcDbLine
 10
258.7755328295003
 20
334.3530331005301
 30
0.0
 11
262.6798863147111
 21
334.3530331005301
 31
0.0
1001
GENIUS_GENOREF_13
1005
9951
  0
LINE
  5
9949
330
1F
100
AcDbEntity
  8
LOGO
  6
AM_ISO08W050x2
 48
0.3
100
AcDbLine
 10
260.7277095721057
 20
332.4008563579245
 30
0.0
 11
260.7277095721057
 21
336.3052098431355
 31
0.0
1001
GENIUS_GENOREF_13
1005
9950
  0
LINE
  5
994A
330
1F
100
AcDbEntity
  8
LOGO
  6
CENTER
 48
0.5
100
AcDbLine
 10
264.8323557983341
 20
334.3530331005301
 30
0.0
 11
270.0739740531435
 21
334.3530331005301
 31
0.0
1001
GENIUS_GENOREF_13
1005
994F
  0
LINE
  5
994B
330
1F
100
AcDbEntity
  8
LOGO
 62
     4
100
AcDbLine
 10
334.7863935447182
 20
330.0795541655304
 30
0.0
 11
326.8985264591933
 21
330.0795541655304
 31
0.0
  0
LINE
  5
994C
330
1F
100
AcDbEntity
  8
LOGO
 62
     4
100
AcDbLine
 10
326.8985264591933
 20
328.2502990734041
 30
0.0
 11
326.8985264591933
 21
330.0795541655304
 31
0.0
  0
LINE
  5
994D
330
1F
100
AcDbEntity
  8
LOGO
 62
     4
100
AcDbLine
 10
350.9696478849365
 20
330.0795541655304
 30
0.0
 11
342.3970932962969
 21
330.0795541655304
 31
0.0
  0
LINE
  5
994E
330
1F
100
AcDbEntity
  8
LOGO
 62
     4
100
AcDbLine
 10
342.3970932962969
 20
328.2502990734041
 30
0.0
 11
342.3970932962969
 21
330.0795541655304
 31
0.0
  0
POINT
  5
994F
330
1F
100
AcDbEntity
  8
0
 60
     1
100
AcDbPoint
 10
-1084.215319733916
 20
-738.5517365766183
 30
0.0
1001
GENIUS_GENOBJ-N-CRS_13
1002
{
1000
OWNER
1000
GEN
1002
}
1001
GENIUS_GENOLIS_13
1002
{
1000
ENT
1005
0
1005
0
1005
0
1005
994A
1002
}
1001
GENIUS_GENOENT_13
1002
{
1000
MYREF
1005
994F
1002
}
1002
{
1000
GRP
1005
0
1002
}
1001
GENIUS_GENODEF_13
1002
{
1000
HIER
1070
    10
1002
}
1002
{
1000
MANEDIT
1070
     1
1002
}
1002
{
1000
NOSEL
1070
     0
1002
}
1002
{
1000
BEHIND
1070
     0
1002
}
1002
{
1000
OTHER
1070
     0
1002
}
1002
{
1000
REACTOR
1002
}
  0
POINT
  5
9950
330
1F
100
AcDbEntity
  8
0
 60
     1
100
AcDbPoint
 10
-1095.539904956771
 20
-729.6761500979821
 30
0.0
1001
GENIUS_GENOBJ-N-CRS_13
1002
{
1000
OWNER
1000
GEN
1002
}
1001
GENIUS_GENOLIS_13
1002
{
1000
ENT
1005
0
1005
0
1005
0
1005
9949
1002
}
1001
GENIUS_GENOENT_13
1002
{
1000
MYREF
1005
9950
1002
}
1002
{
1000
GRP
1005
0
1002
}
1001
GENIUS_GENODEF_13
1002
{
1000
HIER
1070
    10
1002
}
1002
{
1000
MANEDIT
1070
     1
1002
}
1002
{
1000
NOSEL
1070
     0
1002
}
1002
{
1000
BEHIND
1070
     0
1002
}
1002
{
1000
OTHER
1070
     0
1002
}
1002
{
1000
REACTOR
1002
}
  0
POINT
  5
9951
330
1F
100
AcDbEntity
  8
0
 60
     1
100
AcDbPoint
 10
-1089.181231258934
 20
-738.5517365766183
 30
0.0
1001
GENIUS_GENOBJ-N-CRS_13
1002
{
1000
OWNER
1000
GEN
1002
}
1001
GENIUS_GENOLIS_13
1002
{
1000
ENT
1005
0
1005
0
1005
0
1005
9948
1002
}
1001
GENIUS_GENOENT_13
1002
{
1000
MYREF
1005
9951
1002
}
1002
{
1000
GRP
1005
0
1002
}
1001
GENIUS_GENODEF_13
1002
{
1000
HIER
1070
    10
1002
}
1002
{
1000
MANEDIT
1070
     1
1002
}
1002
{
1000
NOSEL
1070
     0
1002
}
1002
{
1000
BEHIND
1070
     0
1002
}
1002
{
1000
OTHER
1070
     0
1002
}
1002
{
1000
REACTOR
1002
}
  0
ENDSEC
  0
SECTION
  2
OBJECTS
  0
DICTIONARY
  5
C
330
0
100
AcDbDictionary
281
     1
  3
ACAD_COLOR
350
BE
  3
ACAD_GROUP
350
D
  3
ACAD_LAYOUT
350
1A
  3
ACAD_MATERIAL
350
BD
  3
ACAD_MLINESTYLE
350
17
  3
ACAD_PLOTSETTINGS
350
19
  3
ACAD_PLOTSTYLENAME
350
E
  3
ACAD_TABLESTYLE
350
11A
  3
ACDBHEADERROUNDTRIPXREC
350
99DF
  3
AcDbVariableDictionary
350
94
  3
AcmDictionary
350
5B
  3
AMG
350
41
  3
AMGSNAPSETTINGS
350
1B8
  3
DWGPROPS
350
99DE
  0
DICTIONARY
  5
3F9
330
2
100
AcDbDictionary
280
     1
281
     1
  3
ACAD_LAYERFILTERS
360
9741
  3
ACAD_LAYERSTATES
360
AB0
  3
ACLYDICTIONARY
360
9740
  0
DICTIONARY
  5
8F
330
1F
100
AcDbDictionary
280
     1
281
     1
  3
ACAD_SORTENTS
360
2D66
  0
DICTIONARY
  5
BE
102
{ACAD_REACTORS
330
C
102
}
330
C
100
AcDbDictionary
281
     1
  0
DICTIONARY
  5
D
102
{ACAD_REACTORS
330
C
102
}
330
C
100
AcDbDictionary
281
     1
  0
DICTIONARY
  5
1A
102
{ACAD_REACTORS
330
C
102
}
330
C
100
AcDbDictionary
281
     1
  3
Model
350
22
  3
配置1
350
1E
  3
配置2
350
26
  0
DICTIONARY
  5
BD
102
{ACAD_REACTORS
330
C
102
}
330
C
100
AcDbDictionary
281
     1
  0
DICTIONARY
  5
17
102
{ACAD_REACTORS
330
C
102
}
330
C
100
AcDbDictionary
281
     1
  3
Standard
350
18
  0
DICTIONARY
  5
19
102
{ACAD_REACTORS
330
C
102
}
330
C
100
AcDbDictionary
281
     1
  0
ACDBDICTIONARYWDFLT
  5
E
102
{ACAD_REACTORS
330
C
102
}
330
C
100
AcDbDictionary
281
     1
  3
Normal
350
F
100
AcDbDictionaryWithDefault
340
F
  0
DICTIONARY
  5
11A
102
{ACAD_REACTORS
330
C
102
}
330
C
100
AcDbDictionary
281
     1
  3
Standard
350
11B
  0
DICTIONARY
  5
99DF
102
{ACAD_REACTORS
330
C
102
}
330
C
100
AcDbDictionary
281
     1
  0
DICTIONARY
  5
94
102
{ACAD_REACTORS
330
C
102
}
330
C
100
AcDbDictionary
281
     1
  3
CTABLESTYLE
350
138
  3
DIMASSOC
350
96
  3
INDEXCTL
350
95
  3
PROJECTNAME
350
99DC
  0
DICTIONARY
  5
5B
102
{ACAD_REACTORS
330
C
102
}
330
C
100
AcDbDictionary
281
     1
  3
AcmBOM
350
1B5
  3
AcmStdDictionary
350
61
  3
AMDTSECTSYM_ARROWCOLOR
350
123
  0
DICTIONARY
  5
41
102
{ACAD_REACTORS
330
C
102
}
330
C
100
AcDbDictionary
281
     1
  0
DICTIONARY
  5
1B8
102
{ACAD_REACTORS
330
C
102
}
330
C
100
AcDbDictionary
281
     1
  0
XRECORD
  5
99DE
102
{ACAD_REACTORS
330
C
102
}
330
C
100
AcDbXrecord
280
     1
  1
DWGPROPS COOKIE
  2

  3

  4

  6

  7

  8

  9

300
AmdtFileType=84
301
=
302
=
303
=
304
=
305
=
306
=
307
=
308
=
309
=
 40
0.5144614467592593
 41
2454362.463208368
 42
2454377.557194907
  1

 90
        1
  0
DICTIONARY
  5
9741
102
{ACAD_REACTORS
330
3F9
102
}
330
3F9
100
AcDbDictionary
281
     1
  0
DICTIONARY
  5
AB0
102
{ACAD_REACTORS
330
3F9
102
}
330
3F9
100
AcDbDictionary
281
     1
  0
DICTIONARY
  5
9740
102
{ACAD_REACTORS
330
3F9
102
}
330
3F9
100
AcDbDictionary
281
     1
1001
ACAD
1000
<All
  0
SORTENTSTABLE
  5
2D66
102
{ACAD_REACTORS
330
8F
102
}
330
8F
100
AcDbSortentsTable
330
1F
331
1801
  5
1801
331
1613
  5
1613
331
1339
  5
1339
331
15DE
  5
15DE
331
1809
  5
1809
331
161B
  5
161B
331
1438
  5
1438
331
1497
  5
1497
331
1440
  5
1440
331
1811
  5
1811
331
1391
  5
1391
331
17E2
  5
17E2
331
1448
  5
1448
331
15F6
  5
15F6
331
165B
  5
165B
331
1450
  5
1450
331
15FE
  5
15FE
331
17F2
  5
17F2
331
169B
  5
169B
331
1458
  5
1458
331
1606
  5
1606
331
16A3
  5
16A3
331
1460
  5
1460
331
160E
  5
160E
331
15CF
  5
15CF
331
1421
  5
1421
331
15D7
  5
15D7
331
1802
  5
1802
331
17CB
  5
17CB
331
1614
  5
1614
331
1468
  5
1468
331
180A
  5
180A
331
17D3
  5
17D3
331
161C
  5
161C
331
15DF
  5
15DF
331
15E7
  5
15E7
331
1498
  5
1498
331
1441
  5
1441
331
1812
  5
1812
331
1392
  5
1392
331
15EF
  5
15EF
331
17E3
  5
17E3
331
1449
  5
1449
331
15F7
  5
15F7
331
17EB
  5
17EB
331
1451
  5
1451
331
1588
  5
1588
331
1459
  5
1459
331
17F3
  5
17F3
331
1412
  5
1412
331
1607
  5
1607
331
1461
  5
1461
331
141A
  5
141A
331
160F
  5
160F
331
15D0
  5
15D0
331
15D8
  5
15D8
331
1469
  5
1469
331
1803
  5
1803
331
17CC
  5
17CC
331
1615
  5
1615
331
1432
  5
1432
331
15E0
  5
15E0
331
180B
  5
180B
331
161D
  5
161D
331
138B
  5
138B
331
15E8
  5
15E8
331
1499
  5
1499
331
1442
  5
1442
331
1393
  5
1393
331
15F0
  5
15F0
331
17E4
  5
17E4
331
1655
  5
1655
331
144A
  5
144A
331
15F8
  5
15F8
331
17EC
  5
17EC
331
1452
  5
1452
331
1600
  5
1600
331
1589
  5
1589
331
145A
  5
145A
331
17F4
  5
17F4
331
1413
  5
1413
331
1608
  5
1608
331
1462
  5
1462
331
15D1
  5
15D1
331
1423
  5
1423
331
15D9
  5
15D9
331
1804
  5
1804
331
1616
  5
1616
331
146A
  5
146A
331
15E1
  5
15E1
331
180C
  5
180C
331
161E
  5
161E
331
143B
  5
143B
331
149A
  5
149A
331
1443
  5
1443
331
1814
  5
1814
331
17DD
  5
17DD
331
1394
  5
1394
331
14DA
  5
14DA
331
17E5
  5
17E5
331
144B
  5
144B
331
15F9
  5
15F9
331
17ED
  5
17ED
331
1453
  5
1453
331
1601
  5
1601
331
17F5
  5
17F5
331
169E
  5
169E
331
145B
  5
145B
331
1609
  5
1609
331
17FD
  5
17FD
331
141C
  5
141C
331
15D2
  5
15D2
331
15DA
  5
15DA
331
146B
  5
146B
331
1805
  5
1805
331
1617
  5
1617
331
1434
  5
1434
331
15E2
  5
15E2
331
143C
  5
143C
331
180D
  5
180D
331
161F
  5
161F
331
138D
  5
138D
331
15EA
  5
15EA
331
1444
  5
1444
331
1815
  5
1815
331
17DE
  5
17DE
331
1395
  5
1395
331
15F2
  5
15F2
331
17E6
  5
17E6
331
144C
  5
144C
331
17EE
  5
17EE
331
1454
  5
1454
331
1602
  5
1602
331
145C
  5
145C
331
17F6
  5
17F6
331
169F
  5
169F
331
1415
  5
1415
331
160A
  5
160A
331
17FE
  5
17FE
331
1464
  5
1464
331
172F
  5
172F
331
15D3
  5
15D3
331
1610
  5
1610
331
15DB
  5
15DB
331
1806
  5
1806
331
1618
  5
1618
331
1435
  5
1435
331
15E3
  5
15E3
331
1494
  5
1494
331
143D
  5
143D
331
180E
  5
180E
331
138E
  5
138E
331
1445
  5
1445
331
1816
  5
1816
331
1396
  5
1396
331
144D
  5
144D
331
15FB
  5
15FB
331
1455
  5
1455
331
140E
  5
140E
331
1A56
  5
1A56
331
17EF
  5
17EF
331
1603
  5
1603
331
145D
  5
145D
331
17F7
  5
17F7
331
16A0
  5
16A0
331
160B
  5
160B
331
1465
  5
1465
331
141E
  5
141E
331
1327
  5
1327
331
17FF
  5
17FF
331
15D4
  5
15D4
331
1611
  5
1611
331
15DC
  5
15DC
331
133F
  5
133F
331
1807
  5
1807
331
1619
  5
1619
331
15E4
  5
15E4
331
1495
  5
1495
331
143E
  5
143E
331
138F
  5
138F
331
180F
  5
180F
331
17D8
  5
17D8
331
1621
  5
1621
331
1446
  5
1446
331
1397
  5
1397
331
17E0
  5
17E0
331
144E
  5
144E
331
17E8
  5
17E8
331
15FC
  5
15FC
331
1456
  5
1456
331
17F0
  5
17F0
331
1604
  5
1604
331
145E
  5
145E
331
1417
  5
1417
331
17F8
  5
17F8
331
160C
  5
160C
331
15CD
  5
15CD
331
141F
  5
141F
331
15D5
  5
15D5
331
1612
  5
1612
331
15DD
  5
15DD
331
1437
  5
1437
331
1808
  5
1808
331
17D1
  5
17D1
331
161A
  5
161A
331
1496
  5
1496
331
143F
  5
143F
331
1390
  5
1390
331
1810
  5
1810
331
17D9
  5
17D9
331
15ED
  5
15ED
331
1447
  5
1447
331
1398
  5
1398
331
17E1
  5
17E1
331
15F5
  5
15F5
331
144F
  5
144F
331
17E9
  5
17E9
331
15FD
  5
15FD
331
1556
  5
1556
331
17F1
  5
17F1
331
1457
  5
1457
331
1605
  5
1605
331
17F9
  5
17F9
331
16A2
  5
16A2
331
1418
  5
1418
331
160D
  5
160D
331
15CE
  5
15CE
331
1467
  5
1467
331
1420
  5
1420
331
15D6
  5
15D6
  0
LAYOUT
  5
22
102
{ACAD_XDICTIONARY
360
99E2
102
}
102
{ACAD_REACTORS
330
1A
102
}
330
1A
100
AcDbPlotSettings
  1

  2
\\RD\EPSON Stylus C63 Series單色
  4
A4
  6

 40
3.757083177566528
 41
3.757076978683471
 42
3.757080078125
 43
3.757080078125
 44
209.9733276367187
 45
296.9683227539062
 46
0.0
 47
0.0
 48
0.0
 49
0.0
140
0.0
141
0.0
142
1.0
143
0.3405120737814363
 70
 11952
 72
     1
 73
     0
 74
     0
  7
單色出圖.ctb
 75
     0
147
2.936753428137963
148
-2047.07469463503
149
-1261.649717473083
100
AcDbLayout
  1
Model
 70
     1
 71
     0
 10
0.0
 20
0.0
 11
12.0
 21
9.0
 12
0.0
 22
0.0
 32
0.0
 14
0.0
 24
0.0
 34
0.0
 15
0.0
 25
0.0
 35
0.0
146
0.0
 13
0.0
 23
0.0
 33
0.0
 16
1.0
 26
0.0
 36
0.0
 17
0.0
 27
1.0
 37
0.0
 76
     0
330
1F
1001
ACAD_PSEXT
1000
\\RD\EPSON Stylus C63 Series單色
1000
EPSON Stylus C63 Series
1000
\\RD
1000

1070
     0
  0
LAYOUT
  5
1E
102
{ACAD_XDICTIONARY
360
99E0
102
}
102
{ACAD_REACTORS
330
1A
102
}
330
1A
100
AcDbPlotSettings
  1

  2

  4

  6

 40
0.0
 41
0.0
 42
0.0
 43
0.0
 44
0.0
 45
0.0
 46
0.0
 47
0.0
 48
0.0
 49
0.0
140
0.0
141
0.0
142
1.0
143
1.0
 70
   688
 72
     0
 73
     0
 74
     5
  7
單色出圖.ctb
 75
    16
147
1.0
148
0.0
149
0.0
100
AcDbLayout
  1
配置1
 70
     1
 71
     1
 10
0.0
 20
0.0
 11
420.0
 21
297.0
 12
0.0
 22
0.0
 32
0.0
 14
1.000000000000000E+20
 24
1.000000000000000E+20
 34
1.000000000000000E+20
 15
-1.000000000000000E+20
 25
-1.000000000000000E+20
 35
-1.000000000000000E+20
146
0.0
 13
0.0
 23
0.0
 33
0.0
 16
1.0
 26
0.0
 36
0.0
 17
0.0
 27
1.0
 37
0.0
 76
     0
330
1B
  0
LAYOUT
  5
26
102
{ACAD_XDICTIONARY
360
99E4
102
}
102
{ACAD_REACTORS
330
1A
102
}
330
1A
100
AcDbPlotSettings
  1

  2

  4

  6

 40
0.0
 41
0.0
 42
0.0
 43
0.0
 44
0.0
 45
0.0
 46
0.0
 47
0.0
 48
0.0
 49
0.0
140
0.0
141
0.0
142
1.0
143
1.0
 70
   688
 72
     0
 73
     0
 74
     5
  7
單色出圖.ctb
 75
    16
147
1.0
148
0.0
149
0.0
100
AcDbLayout
  1
配置2
 70
     1
 71
     2
 10
0.0
 20
0.0
 11
12.0
 21
9.0
 12
0.0
 22
0.0
 32
0.0
 14
0.0
 24
0.0
 34
0.0
 15
0.0
 25
0.0
 35
0.0
146
0.0
 13
0.0
 23
0.0
 33
0.0
 16
1.0
 26
0.0
 36
0.0
 17
0.0
 27
1.0
 37
0.0
 76
     0
330
23
  0
MLINESTYLE
  5
18
102
{ACAD_REACTORS
330
17
102
}
330
17
100
AcDbMlineStyle
  2
STANDARD
 70
     0
  3

 62
   256
 51
90.0
 52
90.0
 71
     2
 49
0.5
 62
   256
  6
BYLAYER
 49
-0.5
 62
   256
  6
BYLAYER
  0
ACDBPLACEHOLDER
  5
F
102
{ACAD_REACTORS
330
E
102
}
330
E
  0
TABLESTYLE
  5
11B
102
{ACAD_REACTORS
330
11A
102
}
330
11A
100
AcDbTableStyle
  3
Standard
 70
     0
 71
     0
 40
1.5
 41
1.5
280
     0
281
     0
  7
STANDARD
140
4.5
170
     2
 62
     0
 63
     7
283
     0
274
    -2
284
     1
 64
     0
275
    -2
285
     1
 65
     0
276
    -2
286
     1
 66
     0
277
    -2
287
     1
 67
     0
278
    -2
288
     1
 68
     0
279
    -2
289
     1
 69
     0
  7
STANDARD
140
6.0
170
     5
 62
     0
 63
     7
283
     0
274
    -2
284
     1
 64
     0
275
    -2
285
     1
 65
     0
276
    -2
286
     1
 66
     0
277
    -2
287
     1
 67
     0
278
    -2
288
     1
 68
     0
279
    -2
289
     1
 69
     0
  7
STANDARD
140
4.5
170
     5
 62
     0
 63
     7
283
     0
274
    -2
284
     1
 64
     0
275
    -2
285
     1
 65
     0
276
    -2
286
     1
 66
     0
277
    -2
287
     1
 67
     0
278
    -2
288
     1
 68
     0
279
    -2
289
     1
 69
     0
  0
DICTIONARYVAR
  5
138
102
{ACAD_REACTORS
330
94
102
}
330
94
100
DictionaryVariables
280
     0
  1
STANDARD
  0
DICTIONARYVAR
  5
96
102
{ACAD_REACTORS
330
94
102
}
330
94
100
DictionaryVariables
280
     0
  1
2
  0
DICTIONARYVAR
  5
95
102
{ACAD_REACTORS
330
94
102
}
330
94
100
DictionaryVariables
280
     0
  1
0
  0
DICTIONARYVAR
  5
99DC
102
{ACAD_REACTORS
330
94
102
}
330
94
100
DictionaryVariables
280
     0
  1

  0
DICTIONARY
  5
1B5
102
{ACAD_REACTORS
330
5B
102
}
330
5B
100
AcDbDictionary
281
     1
  0
DICTIONARY
  5
61
102
{ACAD_REACTORS
330
5B
102
}
330
5B
100
AcDbDictionary
281
     1
  0
XRECORD
  5
123
102
{ACAD_REACTORS
330
5B
102
}
330
5B
100
AcDbXrecord
280
     1
 90
-1023410169
  0
DICTIONARY
  5
99E2
330
22
100
AcDbDictionary
280
     1
281
     1
  3
ACAD_XREC_ROUNDTRIP
360
99E3
  0
DICTIONARY
  5
99E0
330
1E
100
AcDbDictionary
280
     1
281
     1
  3
ACAD_XREC_ROUNDTRIP
360
99E1
  0
DICTIONARY
  5
99E4
330
26
100
AcDbDictionary
280
     1
281
     1
  3
ACAD_XREC_ROUNDTRIP
360
99E5
  0
XRECORD
  5
99E3
102
{ACAD_REACTORS
330
99E2
102
}
330
99E2
100
AcDbXrecord
280
     1
102
SHADEPLOT
 70
     0
102
SHADEPLOTRESLEVEL
 70
     2
102
SHADEPLOTCUSTOMDPI
 70
   300
  0
XRECORD
  5
99E1
102
{ACAD_REACTORS
330
99E0
102
}
330
99E0
100
AcDbXrecord
280
     1
102
SHADEPLOT
 70
     0
102
SHADEPLOTRESLEVEL
 70
     2
102
SHADEPLOTCUSTOMDPI
 70
   300
  0
XRECORD
  5
99E5
102
{ACAD_REACTORS
330
99E4
102
}
330
99E4
100
AcDbXrecord
280
     1
102
SHADEPLOT
 70
     0
102
SHADEPLOTRESLEVEL
 70
     2
102
SHADEPLOTCUSTOMDPI
 70
   300
  0
ENDSEC
  0
EOF
