  0
SECTION
  2
HEADER
  9
$ACADVER
  1
AC1015
  9
$ACADMAINTVER
 70
    20
  9
$DWGCODEPAGE
  3
ANSI_950
  9
$INSBASE
 10
0.0
 20
0.0
 30
0.0
  9
$EXTMIN
 10
477.5417983656216
 20
38.78217948360657
 30
-0.0088772009577838
  9
$EXTMAX
 10
721.5810367651561
 20
312.3256862003362
 30
159.8534690085382
  9
$LIMMIN
 10
0.0
 20
0.0
  9
$LIMMAX
 10
420.0
 20
297.0
  9
$ORTHOMODE
 70
     1
  9
$REGENMODE
 70
     1
  9
$FILLMODE
 70
     1
  9
$QTEXTMODE
 70
     0
  9
$MIRRTEXT
 70
     1
  9
$LTSCALE
 40
3.0
  9
$ATTMODE
 70
     1
  9
$TEXTSIZE
 40
3.5
  9
$TRACEWID
 40
1.0
  9
$TEXTSTYLE
  7
STANDARD
  9
$CLAYER
  8
底
  9
$CELTYPE
  6
ByLayer
  9
$CECOLOR
 62
   256
  9
$CELTSCALE
 40
1.0
  9
$DISPSILH
 70
     0
  9
$DIMSCALE
 40
1.0
  9
$DIMASZ
 40
3.0
  9
$DIMEXO
 40
1.0
  9
$DIMDLI
 40
10.0
  9
$DIMRND
 40
0.0
  9
$DIMDLE
 40
0.0
  9
$DIMEXE
 40
1.5
  9
$DIMTP
 40
0.1
  9
$DIMTM
 40
0.1
  9
$DIMTXT
 40
3.5
  9
$DIMCEN
 40
0.0
  9
$DIMTSZ
 40
0.0
  9
$DIMTOL
 70
     0
  9
$DIMLIM
 70
     0
  9
$DIMTIH
 70
     0
  9
$DIMTOH
 70
     0
  9
$DIMSE1
 70
     0
  9
$DIMSE2
 70
     0
  9
$DIMTAD
 70
     1
  9
$DIMZIN
 70
     8
  9
$DIMBLK
  1

  9
$DIMASO
 70
     1
  9
$DIMSHO
 70
     1
  9
$DIMPOST
  1

  9
$DIMAPOST
  1
"
  9
$DIMALT
 70
     0
  9
$DIMALTD
 70
     2
  9
$DIMALTF
 40
0.0393701
  9
$DIMLFAC
 40
1.0
  9
$DIMTOFL
 70
     1
  9
$DIMTVP
 40
0.0
  9
$DIMTIX
 70
     0
  9
$DIMSOXD
 70
     0
  9
$DIMSAH
 70
     0
  9
$DIMBLK1
  1

  9
$DIMBLK2
  1

  9
$DIMSTYLE
  2
AM_ISO
  9
$DIMCLRD
 70
   256
  9
$DIMCLRE
 70
   256
  9
$DIMCLRT
 70
   256
  9
$DIMTFAC
 40
0.6
  9
$DIMGAP
 40
1.0
  9
$DIMJUST
 70
     0
  9
$DIMSD1
 70
     0
  9
$DIMSD2
 70
     0
  9
$DIMTOLJ
 70
     0
  9
$DIMTZIN
 70
     8
  9
$DIMALTZ
 70
     0
  9
$DIMALTTZ
 70
     0
  9
$DIMUPT
 70
     0
  9
$DIMDEC
 70
     2
  9
$DIMTDEC
 70
     8
  9
$DIMALTU
 70
     2
  9
$DIMALTTD
 70
     2
  9
$DIMTXSTY
  7
STANDARD
  9
$DIMAUNIT
 70
     0
  9
$DIMADEC
 70
     0
  9
$DIMALTRND
 40
0.0
  9
$DIMAZIN
 70
     2
  9
$DIMDSEP
 70
    46
  9
$DIMATFIT
 70
     3
  9
$DIMFRAC
 70
     0
  9
$DIMLDRBLK
  1

  9
$DIMLUNIT
 70
     2
  9
$DIMLWD
 70
    -1
  9
$DIMLWE
 70
    -1
  9
$DIMTMOVE
 70
     0
  9
$LUNITS
 70
     2
  9
$LUPREC
 70
     2
  9
$SKETCHINC
 40
1.0
  9
$FILLETRAD
 40
2.5
  9
$AUNITS
 70
     0
  9
$AUPREC
 70
     0
  9
$MENU
  1
.
  9
$ELEVATION
 40
0.0
  9
$PELEVATION
 40
0.0
  9
$THICKNESS
 40
0.0
  9
$LIMCHECK
 70
     0
  9
$CHAMFERA
 40
2.5
  9
$CHAMFERB
 40
2.5
  9
$CHAMFERC
 40
20.0
  9
$CHAMFERD
 40
0.0
  9
$SKPOLY
 70
     0
  9
$TDCREATE
 40
2454362.463208368
  9
$TDUCREATE
 40
2454362.129875035
  9
$TDUPDATE
 40
2454377.556887107
  9
$TDUUPDATE
 40
2454377.223553773
  9
$TDINDWG
 40
0.5145428472
  9
$TDUSRTIMER
 40
0.5145428472
  9
$USRTIMER
 70
     1
  9
$ANGBASE
 50
0.0
  9
$ANGDIR
 70
     0
  9
$PDMODE
 70
     0
  9
$PDSIZE
 40
0.0
  9
$PLINEWID
 40
0.0
  9
$SPLFRAME
 70
     0
  9
$SPLINETYPE
 70
     6
  9
$SPLINESEGS
 70
     8
  9
$HANDSEED
  5
9E55
  9
$SURFTAB1
 70
     6
  9
$SURFTAB2
 70
     6
  9
$SURFTYPE
 70
     6
  9
$SURFU
 70
     6
  9
$SURFV
 70
     6
  9
$UCSBASE
  2

  9
$UCSNAME
  2

  9
$UCSORG
 10
0.0
 20
0.0
 30
0.0
  9
$UCSXDIR
 10
1.0
 20
0.0
 30
0.0
  9
$UCSYDIR
 10
0.0
 20
1.0
 30
0.0
  9
$UCSORTHOREF
  2

  9
$UCSORTHOVIEW
 70
     0
  9
$UCSORGTOP
 10
0.0
 20
0.0
 30
0.0
  9
$UCSORGBOTTOM
 10
0.0
 20
0.0
 30
0.0
  9
$UCSORGLEFT
 10
0.0
 20
0.0
 30
0.0
  9
$UCSORGRIGHT
 10
0.0
 20
0.0
 30
0.0
  9
$UCSORGFRONT
 10
0.0
 20
0.0
 30
0.0
  9
$UCSORGBACK
 10
0.0
 20
0.0
 30
0.0
  9
$PUCSBASE
  2

  9
$PUCSNAME
  2

  9
$PUCSORG
 10
0.0
 20
0.0
 30
0.0
  9
$PUCSXDIR
 10
1.0
 20
0.0
 30
0.0
  9
$PUCSYDIR
 10
0.0
 20
1.0
 30
0.0
  9
$PUCSORTHOREF
  2

  9
$PUCSORTHOVIEW
 70
     0
  9
$PUCSORGTOP
 10
0.0
 20
0.0
 30
0.0
  9
$PUCSORGBOTTOM
 10
0.0
 20
0.0
 30
0.0
  9
$PUCSORGLEFT
 10
0.0
 20
0.0
 30
0.0
  9
$PUCSORGRIGHT
 10
0.0
 20
0.0
 30
0.0
  9
$PUCSORGFRONT
 10
0.0
 20
0.0
 30
0.0
  9
$PUCSORGBACK
 10
0.0
 20
0.0
 30
0.0
  9
$USERI1
 70
     0
  9
$USERI2
 70
     0
  9
$USERI3
 70
     0
  9
$USERI4
 70
     0
  9
$USERI5
 70
     0
  9
$USERR1
 40
0.0
  9
$USERR2
 40
0.0
  9
$USERR3
 40
0.0
  9
$USERR4
 40
0.0
  9
$USERR5
 40
0.0
  9
$WORLDVIEW
 70
     1
  9
$SHADEDGE
 70
     3
  9
$SHADEDIF
 70
    70
  9
$TILEMODE
 70
     1
  9
$MAXACTVP
 70
    64
  9
$PINSBASE
 10
0.0
 20
0.0
 30
0.0
  9
$PLIMCHECK
 70
     0
  9
$PEXTMIN
 10
1.000000000000000E+20
 20
1.000000000000000E+20
 30
1.000000000000000E+20
  9
$PEXTMAX
 10
-1.000000000000000E+20
 20
-1.000000000000000E+20
 30
-1.000000000000000E+20
  9
$PLIMMIN
 10
0.0
 20
0.0
  9
$PLIMMAX
 10
420.0
 20
297.0
  9
$UNITMODE
 70
     0
  9
$VISRETAIN
 70
     1
  9
$PLINEGEN
 70
     0
  9
$PSLTSCALE
 70
     1
  9
$TREEDEPTH
 70
  3020
  9
$CMLSTYLE
  2
Standard
  9
$CMLJUST
 70
     0
  9
$CMLSCALE
 40
20.0
  9
$PROXYGRAPHICS
 70
     1
  9
$MEASUREMENT
 70
     1
  9
$CELWEIGHT
370
    -1
  9
$ENDCAPS
280
     0
  9
$JOINSTYLE
280
     0
  9
$LWDISPLAY
290
     0
  9
$INSUNITS
 70
     4
  9
$HYPERLINKBASE
  1

  9
$STYLESHEET
  1
彩色出圖.ctb
  9
$XEDIT
290
     1
  9
$CEPSNTYPE
380
     0
  9
$PSTYLEMODE
290
     1
  9
$FINGERPRINTGUID
  2
{EA57E289-2BBF-42BB-A20C-9A5EC18F521C}
  9
$VERSIONGUID
  2
{88B1AFC9-78FD-4148-BDA5-6E8C62AE819F}
  9
$EXTNAMES
290
     1
  9
$PSVPSCALE
 40
0.0
  9
$OLESTARTUP
290
     0
  0
ENDSEC
  0
SECTION
  2
CLASSES
  0
CLASS
  1
ACDBDICTIONARYWDFLT
  2
AcDbDictionaryWithDefault
  3
ObjectDBX Classes
 90
        0
280
     0
281
     0
  0
CLASS
  1
ACDBPLACEHOLDER
  2
AcDbPlaceHolder
  3
ObjectDBX Classes
 90
        0
280
     0
281
     0
  0
CLASS
  1
LAYOUT
  2
AcDbLayout
  3
ObjectDBX Classes
 90
        0
280
     0
281
     0
  0
CLASS
  1
ACME_DOCUMENT
  2
AcMeDbDoc
  3
AcMeServices
 90
        0
280
     0
281
     0
  0
CLASS
  1
AMGSETTINGSOBJ
  2
AmgSettingsObj
  3
"AcadM|Product Description: AutoCAD Mechanical 2000|Company: Autodesk"
 90
        0
280
     0
281
     0
  0
CLASS
  1
ACMESCOPE
  2
AcMeScope
  3
AcMeServices
 90
        0
280
     0
281
     0
  0
CLASS
  1
ACMECOMMANDHISTORY
  2
AcMeCommandHistory
  3
AcMeServices
 90
        0
280
     0
281
     0
  0
CLASS
  1
ACIMSYSVARMAN
  2
AcImSysVarManager
  3
AcMeServices
 90
        0
280
     0
281
     0
  0
CLASS
  1
ACIMREALSYSVAR
  2
AcImRealSysVar
  3
AcMeServices
 90
        0
280
     0
281
     0
  0
CLASS
  1
ACIMINTSYSVAR
  2
AcImIntSysVar
  3
AcMeServices
 90
        0
280
     0
281
     0
  0
CLASS
  1
ACMEDRAWINGMAN
  2
AcMeDrawingMan
  3
AcMeServices
 90
        0
280
     0
281
     0
  0
CLASS
  1
ACMEVIEW
  2
AcMeView
  3
AcMeServices
 90
        0
280
     0
281
     0
  0
CLASS
  1
ACDBENTITYCACHE
  2
AcMeEntityCache
  3
AcMeServices
 90
        0
280
     0
281
     0
  0
CLASS
  1
GSMANAGER
  2
AcMeGSManager
  3
AcMeServices
 90
        0
280
     0
281
     0
  0
CLASS
  1
AMDTINTERNALREACTOR
  2
AmdtInternalReactor
  3
AcMeServices
 90
        0
280
     0
281
     0
  0
CLASS
  1
ACMESTATEMGR
  2
AcMeStateMgr
  3
AcMeServices
 90
        0
280
     0
281
     0
  0
CLASS
  1
ACGREFMASTER
  2
AcGrefMaster
  3
AcAttribServices
 90
        0
280
     0
281
     0
  0
CLASS
  1
ACME_DATABASE
  2
AcMeDbDatabase
  3
AcMeServices
 90
        0
280
     0
281
     0
  0
CLASS
  1
ACRFINSADJUSTERMGR
  2
AcRfInsAdjusterMgr
  3
AcMeServices
 90
        0
280
     0
281
     0
  0
CLASS
  1
ACGREFACADMASTER
  2
AcGrefacadMaster
  3
AcGrefServices
 90
        0
280
     0
281
     0
  0
CLASS
  1
AMIMASTER
  2
AmiMaster
  3
AmiServices
 90
        0
280
     0
281
     0
  0
CLASS
  1
ACMDATADICTIONARY
  2
AcmDataDictionary
  3
"AcmSymBB|Product Description: AutoCAD Mechanical 2004 DX|Company: Autodesk"
 90
        0
280
     0
281
     0
  0
CLASS
  1
ACMDATAENTRYBLOCK
  2
AcmDataEntryBlock
  3
"AcmSymBB|Product Description: AutoCAD Mechanical 2004 DX|Company: Autodesk"
 90
        0
280
     0
281
     0
  0
CLASS
  1
ACIMSTRSYSVAR
  2
AcImStrSysVar
  3
AcMeServices
 90
        0
280
     0
281
     0
  0
CLASS
  1
ACMSTANDARDISO
  2
AcmStandardISO
  3
"Amdt_StdImp|Product Description: AutoCAD Mechanical 2004 DX|Company: Autodesk"
 90
        0
280
     0
281
     0
  0
CLASS
  1
AMGOBJPROPCFG
  2
AmgObjPropCfg
  3
"AmgLay|Product Description: AutoCAD Mechanical 2000|Company: Autodesk"
 90
        1
280
     0
281
     0
  0
CLASS
  1
AMDTEDGESTANDARDISO
  2
AmdtEdgeStdISO
  3
"Amdt_StdImp|Product Description: AutoCAD Mechanical 2004 DX|Company: Autodesk"
 90
        0
280
     0
281
     0
  0
CLASS
  1
ACMSURFSTANDARDISO
  2
AcmSurfTextStdISO
  3
"Amdt_StdImp|Product Description: AutoCAD Mechanical 2004 DX|Company: Autodesk"
 90
        0
280
     0
281
     0
  0
CLASS
  1
ACMFCFSTANDARDISO
  2
AcmFCFStdISO
  3
"Amdt_StdImp|Product Description: AutoCAD Mechanical 2004 DX|Company: Autodesk"
 90
        0
280
     0
281
     0
  0
CLASS
  1
ACMWELDSTANDARDISO
  2
AcmWeldingStdISO
  3
"Amdt_StdImp|Product Description: AutoCAD Mechanical 2004 DX|Company: Autodesk"
 90
        0
280
     0
281
     0
  0
CLASS
  1
ACMIDSTANDARDISO
  2
AcmIdStdISO
  3
"Amdt_StdImp|Product Description: AutoCAD Mechanical 2004 DX|Company: Autodesk"
 90
        0
280
     0
281
     0
  0
CLASS
  1
ACMDATUMSTANDARDISO
  2
AcmDatumStdISO
  3
"Amdt_StdImp|Product Description: AutoCAD Mechanical 2004 DX|Company: Autodesk"
 90
        0
280
     0
281
     0
  0
CLASS
  1
ACMBOMSTANDARDISO
  2
AcmBOMStdISO
  3
"Amdt_StdImp|Product Description: AutoCAD Mechanical 2004 DX|Company: Autodesk"
 90
        0
280
     0
281
     0
  0
CLASS
  1
ACMDETAILSTANDARDISO
  2
AmdtDetailSymStdISO
  3
"Amdt_StdImp|Product Description: AutoCAD Mechanical 2004 DX|Company: Autodesk"
 90
        0
280
     0
281
     0
  0
CLASS
  1
ACMSECTIONSTANDARDISO
  2
AmdtSectionSymStdISO
  3
"Amdt_StdImp|Product Description: AutoCAD Mechanical 2004 DX|Company: Autodesk"
 90
        0
280
     0
281
     0
  0
CLASS
  1
ACMCENTERLINESTANDARDISO
  2
AmdtCenterLineStdISO
  3
"Amdt_StdImp|Product Description: AutoCAD Mechanical 2004 DX|Company: Autodesk"
 90
        0
280
     0
281
     0
  0
CLASS
  1
ACMNOTESTANDARDISO
  2
AmdtNoteStdISO
  3
"Amdt_StdImp|Product Description: AutoCAD Mechanical 2004 DX|Company: Autodesk"
 90
        0
280
     0
281
     0
  0
CLASS
  1
ACAMGLAYSTD
  2
AcAmgLayStd
  3
"AcAmgLayStd|Product Description: AutoCAD Mechanical 2000|Company: Autodesk"
 90
        0
280
     0
281
     0
  0
CLASS
  1
ACAMGDIMSTD
  2
AcAmgDimStd
  3
"AcAmgDimStd|Product Description: AutoCAD Mechanical 2000|Company: Autodesk"
 90
        0
280
     0
281
     0
  0
CLASS
  1
ACAMGHOLECHARTSTDISO
  2
AcAmgHoleChartStdISO
  3
ACMSYMBB_MODULE_NAME
 90
        0
280
     0
281
     0
  0
CLASS
  1
ACAMGTITLESTD
  2
AcAmgTitleStd
  3
"TITLEAPP"
 90
        0
280
     0
281
     0
  0
CLASS
  1
LAYER_INDEX
  2
AcDbLayerIndex
  3
ObjectDBX Classes
 90
    32768
280
     0
281
     0
  0
CLASS
  1
IDBUFFER
  2
AcDbIdBuffer
  3
ObjectDBX Classes
 90
    32768
280
     0
281
     0
  0
CLASS
  1
DICTIONARYVAR
  2
AcDbDictionaryVar
  3
ObjectDBX Classes
 90
        0
280
     0
281
     0
  0
CLASS
  1
AM_DRAWING_MGR
  2
AcDmDwgMgr
  3
AcMechDwgViewMgmt
 90
        0
280
     0
281
     0
  0
CLASS
  1
AM_DWG_DOCUMENT
  2
AcDmDwgDocument
  3
AcMechDwgViewMgmt
 90
        0
280
     0
281
     0
  0
CLASS
  1
AM_DWG_SHEET
  2
AcDmSheet
  3
AcMechDwgViewMgmt
 90
        0
280
     0
281
     0
  0
CLASS
  1
AM_VIEWDIMPARMAP
  2
AcDmViewDimParMap
  3
AcMechDwgViewMgmt
 90
        0
280
     0
281
     0
  0
CLASS
  1
AM_DWGMGR_NAME
  2
AcDmDwgMgrName
  3
AcMechDwgViewMgmt
 90
        0
280
     0
281
     0
  0
CLASS
  1
AMDTMENUSTATEMGR
  2
AmdtMenuStateMgr
  3
McadcomServices
 90
        0
280
     0
281
     0
  0
CLASS
  1
AMDTMCOMMENUSTATE
  2
AmdtMcomMenuState
  3
McadcomServices
 90
        0
280
     0
281
     0
  0
CLASS
  1
MAPIAMMOUDLE
  2
MApiAmModule
  3
MApiAmServices
 90
        0
280
     0
281
     0
  0
CLASS
  1
AMDTADMENUSTATE
  2
AmdtAdMenuState
  3
DesignerServices
 90
        0
280
     0
281
     0
  0
CLASS
  1
ADAPPL
  2
AcAdAppl
  3
DesignerServices
 90
        0
280
     0
281
     0
  0
CLASS
  1
DEPMGR
  2
AcAdDepMgr
  3
DesignerServices
 90
        0
280
     0
281
     0
  0
CLASS
  1
PARAMMGR
  2
AcAdParamMgr
  3
DesignerServices
 90
        0
280
     0
281
     0
  0
CLASS
  1
PARAMSCOPE
  2
AcAdParamScope
  3
DesignerServices
 90
        0
280
     0
281
     0
  0
CLASS
  1
NAMEDAPPL
  2
AcAdNamedAppl
  3
DesignerServices
 90
        0
280
     0
281
     0
  0
CLASS
  1
AMDTDMMENUSTATE
  2
AmdtDmMenuState
  3
AcMechDwgViewMgmt
 90
        0
280
     0
281
     0
  0
CLASS
  1
AMDTAMMENUSTATE
  2
AmdtAmMenuState
  3
DesignerAssemblies
 90
        0
280
     0
281
     0
  0
CLASS
  1
ACAMPROJECT
  2
AcAmProject
  3
DesignerAssemblies
 90
        0
280
     0
281
     0
  0
CLASS
  1
ACAMGRCOMPDEF
  2
AcAmGrCompDef
  3
DesignerAssemblies
 90
        0
280
     0
281
     0
  0
CLASS
  1
ACCMCONTEXT
  2
AcCmContext
  3
DesignerAssemblies
 90
        0
280
     0
281
     0
  0
CLASS
  1
ACAMCOMPDEF
  2
AcAmCompDef
  3
DesignerAssemblies
 90
        0
280
     0
281
     0
  0
CLASS
  1
ACAMCOMPDEFMGR
  2
AcAmCompDefMgr
  3
DesignerAssemblies
 90
        0
280
     0
281
     0
  0
CLASS
  1
AMCONTEXTMGR
  2
AcAmContextMgr
  3
DesignerAssemblies
 90
        0
280
     0
281
     0
  0
CLASS
  1
ACAMCONTEXTMODELER
  2
AcAmContextModeler
  3
DesignerAssemblies
 90
        0
280
     0
281
     0
  0
CLASS
  1
ACMTHREADLINESTANDARDISO
  2
AmdtThreadLineStdISO
  3
"Amdt_StdImp|Product Description: AutoCAD Mechanical 2004 DX|Company: Autodesk"
 90
        0
280
     0
281
     0
  0
CLASS
  1
CATALOGSTATE
  2
AcAmCatalogState
  3
DesignerAssemblies
 90
        0
280
     0
281
     0
  0
CLASS
  1
ACAMGRCOMPDEFSET
  2
AcAmGrCompDefSet
  3
DesignerAssemblies
 90
        0
280
     0
281
     0
  0
CLASS
  1
AMDTBROWSERDBTAB
  2
AmdtBrowserDbTab
  3
McadcomServices
 90
        0
280
     0
281
     0
  0
CLASS
  1
CBROWSERAPPOBJECT
  2
CBrowserAppObject
  3
McadcomServices
 90
        0
280
     0
281
     0
  0
CLASS
  1
DM_PLACEHOLDER
  2
AcDmSelsetPlaceholder
  3
AcMechDwgViewMgmt
 90
        0
280
     0
281
     0
  0
CLASS
  1
TABLESTYLE
  2
AcDbTableStyle
  3
ObjectDBX Classes
 90
     2047
280
     0
281
     0
  0
CLASS
  1
VAACXREFPANELOBJECT
  2
VaAcXREFPanelObject
  3
VAAC_ADDIN
 90
    32768
280
     0
281
     0
  0
CLASS
  1
VAACIMAGEINVENTORY
  2
VaAcImageInventory
  3
VAAC_ADDIN
 90
    32768
280
     0
281
     0
  0
CLASS
  1
AMDTNOTETEMPLATEDB
  2
AmdtNoteTemplateDB
  3
AMDT_STDIMP_MODULE_NAME
 90
        0
280
     0
281
     0
  0
CLASS
  1
ACMBOM
  2
AcmBom
  3
"AcmSymBB|Product Description: AutoCAD Mechanical 2004 DX|Company: Autodesk"
 90
    32768
280
     0
281
     0
  0
CLASS
  1
AMDTFORMULAUPDATEDISPATCHER
  2
AmdtFormulaUpdateDispatcher
  3
AcMeServices
 90
        0
280
     0
281
     0
  0
CLASS
  1
ACMPARTLIST
  2
AcmPartList
  3
"AcmSymBB|Product Description: AutoCAD Mechanical 2004 DX|Company: Autodesk"
 90
    33791
280
     0
281
     1
  0
CLASS
  1
ACAMGFILTERDAT
  2
AcAmgFilterDat
  3
"AcadM|Product Description: AutoCAD Mechanical 2000|Company: Autodesk"
 90
        0
280
     0
281
     0
  0
CLASS
  1
DIMASSOC
  2
AcDbDimAssoc
  3
"AcDbDimAssoc|Product Desc:     AcDim ARX App For Dimension|Company:          Autodesk, Inc.|WEB Address:      www.autodesk.com"
 90
        0
280
     0
281
     0
  0
CLASS
  1
SORTENTSTABLE
  2
AcDbSortentsTable
  3
ObjectDBX Classes
 90
        0
280
     0
281
     0
  0
CLASS
  1
STDPART2D
  2
AmgStdPart
  3
"AmgStdPart|Product Description: AutoCAD Mechanical 2000|Company: Autodesk"
 90
    33791
280
     0
281
     1
  0
CLASS
  1
ACAMSTDPCOMPDEF
  2
AcAmStdpCompDef
  3
DesignerAssemblies
 90
    32768
280
     0
281
     0
  0
CLASS
  1
ACRFATTGENMGR
  2
AcRfAttGeneralMgr
  3
AcAttribServices
 90
        0
280
     0
281
     0
  0
CLASS
  1
ACRFOBJATTMGR
  2
AcRfObjAttGroupMgr
  3
AcAttribServices
 90
    32768
280
     0
281
     0
  0
CLASS
  1
ACRFMCADAPIATTHOLDER
  2
AcRfMCADAPIAttHolder
  3
AcAttribServices
 90
    32768
280
     0
281
     0
  0
CLASS
  1
AMDTSYSATTR
  2
AmdtSystemAttribute
  3
AcAttribServices
 90
    32768
280
     0
281
     0
  0
CLASS
  1
ACAMCOMP
  2
AcAmComp
  3
DesignerAssemblies
 90
    32768
280
     0
281
     0
  0
CLASS
  1
AC_AM_STDP_VIEW_DEF
  2
AcAmStdpViewDef
  3
DesignerAssemblies
 90
    32768
280
     0
281
     0
  0
CLASS
  1
AC_AM_MVD_DEP_MGR
  2
AcAmMVDdepMgr
  3
DesignerAssemblies
 90
        0
280
     0
281
     0
  0
CLASS
  1
AC_AM_MASTER_VIEW_DEF
  2
AcAmMasterViewDef
  3
DesignerAssemblies
 90
        0
280
     0
281
     0
  0
CLASS
  1
AC_AM_DIRTY_NODES
  2
AcAmDirtyNodes
  3
DesignerAssemblies
 90
        0
280
     0
281
     0
  0
CLASS
  1
AC_AM_MAPPER_CACHE
  2
AcAmMapperCache
  3
DesignerAssemblies
 90
        0
280
     0
281
     0
  0
CLASS
  1
ACAMMVDBACKUPOBJECT
  2
AcAmMVDBackupObject
  3
DesignerAssemblies
 90
        0
280
     0
281
     0
  0
CLASS
  1
AC_AM_COMP_VIEW_INST
  2
AcAmCompView
  3
DesignerAssemblies
 90
    32768
280
     0
281
     0
  0
CLASS
  1
AC_AM_2D_XREF_MGR
  2
AcAmXrefMgr2d
  3
DesignerAssemblies
 90
        0
280
     0
281
     0
  0
CLASS
  1
AMDTNOTE
  2
AmdtNote
  3
"AcmSymBB|Product Description: AutoCAD Mechanical 2004 DX|Company: Autodesk"
 90
     1023
280
     0
281
     1
  0
ENDSEC
  0
SECTION
  2
TABLES
  0
TABLE
  2
VPORT
  5
8
330
0
100
AcDbSymbolTable
 70
     3
  0
VPORT
  5
9E4C
330
8
100
AcDbSymbolTableRecord
100
AcDbViewportTableRecord
  2
*Active
 70
     0
 10
0.0
 20
0.0
 11
1.0
 21
1.0
 12
599.5599677489317
 22
175.5463277144601
 13
0.0
 23
0.0
 14
2.5
 24
2.5
 15
10.0
 25
10.0
 16
0.0
 26
0.0
 36
1.0
 17
0.0
 27
0.0
 37
0.0
 40
275.8124215069249
 41
1.421195652173913
 42
50.0
 43
0.0
 44
0.0
 50
0.0
 51
0.0
 71
     0
 72
   100
 73
     1
 74
     3
 75
     0
 76
     0
 77
     0
 78
     0
281
     0
 65
     1
110
0.0
120
0.0
130
0.0
111
1.0
121
0.0
131
0.0
112
0.0
122
1.0
132
0.0
 79
     0
146
0.0
  0
ENDTAB
  0
TABLE
  2
LTYPE
  5
5
330
0
100
AcDbSymbolTable
 70
    14
  0
LTYPE
  5
14
330
5
100
AcDbSymbolTableRecord
100
AcDbLinetypeTableRecord
  2
ByBlock
 70
     0
  3

 72
    65
 73
     0
 40
0.0
  0
LTYPE
  5
15
330
5
100
AcDbSymbolTableRecord
100
AcDbLinetypeTableRecord
  2
ByLayer
 70
     0
  3

 72
    65
 73
     0
 40
0.0
  0
LTYPE
  5
16
330
5
100
AcDbSymbolTableRecord
100
AcDbLinetypeTableRecord
  2
Continuous
 70
     0
  3
Solid line
 72
    65
 73
     0
 40
0.0
  0
LTYPE
  5
64
330
5
100
AcDbSymbolTableRecord
100
AcDbLinetypeTableRecord
  2
AM_ISO02W050
 70
     0
  3
__ __ __ __ __ __ __ __ __ __ __ __ __ __ __
 72
    65
 73
     2
 40
7.5
 49
6.0
 74
     0
 49
-1.5
 74
     0
  0
LTYPE
  5
65
330
5
100
AcDbSymbolTableRecord
100
AcDbLinetypeTableRecord
  2
AM_ISO08W050
 70
     0
  3
____ . ____ . ____ . ____ . ____ . ____ . ____
 72
    65
 73
     4
 40
18.0
 49
12.0
 74
     0
 49
-1.5
 74
     0
 49
3.0
 74
     0
 49
-1.5
 74
     0
  0
LTYPE
  5
66
330
5
100
AcDbSymbolTableRecord
100
AcDbLinetypeTableRecord
  2
AM_ISO09W050
 70
     0
  3
_____ . . _____ . . _____ . . ____ .. ____
 72
    65
 73
     6
 40
22.5
 49
12.0
 74
     0
 49
-1.5
 74
     0
 49
3.0
 74
     0
 49
-1.5
 74
     0
 49
3.0
 74
     0
 49
-1.5
 74
     0
  0
LTYPE
  5
67
330
5
100
AcDbSymbolTableRecord
100
AcDbLinetypeTableRecord
  2
Amconstr
 70
     0
  3
_______________________
 72
    65
 73
     2
 40
9999.0
 49
9999.0
 74
     0
 49
0.0
 74
     0
  0
LTYPE
  5
68
330
5
100
AcDbSymbolTableRecord
100
AcDbLinetypeTableRecord
  2
AM_ISO08W050x2
 70
     0
  3
__ . __ . __ . __ . __ . __
 72
    65
 73
     4
 40
9.0
 49
6.0
 74
     0
 49
-0.75
 74
     0
 49
1.5
 74
     0
 49
-0.75
 74
     0
  0
LTYPE
  5
69
330
5
100
AcDbSymbolTableRecord
100
AcDbLinetypeTableRecord
  2
AM_ISO02W050x2
 70
     0
  3
 _ _ _ _ _ _ _ _ _ _ _ _
 72
    65
 73
     2
 40
3.75
 49
3.0
 74
     0
 49
-0.75
 74
     0
  0
LTYPE
  5
6C
330
5
100
AcDbSymbolTableRecord
100
AcDbLinetypeTableRecord
  2
Amzigzag
 70
     0
  3
/\/-/\/-/\/-/\/-/\/-/\/
 72
    65
 73
     2
 40
11.0001
 49
0.0001
 74
     4
 75
   135
340
6B
 46
0.04
 50
0.0
 44
0.0
 45
0.0
 49
-11.0
 74
     0
  0
LTYPE
  5
7A
330
5
100
AcDbSymbolTableRecord
100
AcDbLinetypeTableRecord
  2
ACISOWELD
 70
     0
  3
_ _ _ _ _
 72
    65
 73
     2
 40
2.0
 49
2.0
 74
     0
 49
-1.0
 74
     0
  0
LTYPE
  5
7B
330
5
100
AcDbSymbolTableRecord
100
AcDbLinetypeTableRecord
  2
ACISOTGB
 70
     0
  3
__ . . __ . .
 72
    65
 73
     6
 40
9.0
 49
4.0
 74
     0
 49
-1.0
 74
     0
 49
1.0
 74
     0
 49
-1.0
 74
     0
 49
1.0
 74
     0
 49
-1.0
 74
     0
  0
LTYPE
  5
7C
330
5
100
AcDbSymbolTableRecord
100
AcDbLinetypeTableRecord
  2
ACISOTGL
 70
     0
  3
_ _ _ _ _
 72
    65
 73
     2
 40
3.0
 49
2.0
 74
     0
 49
-1.0
 74
     0
  0
LTYPE
  5
7E
330
5
100
AcDbSymbolTableRecord
100
AcDbLinetypeTableRecord
  2
CENTER
 70
     0
  3
__ . __
 72
    65
 73
     4
 40
7.0
 49
4.0
 74
     0
 49
-1.0
 74
     0
 49
1.0
 74
     0
 49
-1.0
 74
     0
  0
LTYPE
  5
D8
330
5
100
AcDbSymbolTableRecord
100
AcDbLinetypeTableRecord
  2
HIDDEN
 70
     0
  3
Hidden __ __ __ __ __ __ __ __ __ __ __ __ __ _
 72
    65
 73
     2
 40
9.524999999999998
 49
6.349999999999999
 74
     0
 49
-3.174999999999999
 74
     0
  0
LTYPE
  5
D9
330
5
100
AcDbSymbolTableRecord
100
AcDbLinetypeTableRecord
  2
PHANTOM2
 70
     0
  3
Phantom (.5x) ___ _ _ ___ _ _ ___ _ _ ___ _ _
 72
    65
 73
     6
 40
31.75
 49
15.875
 74
     0
 49
-3.174999999999999
 74
     0
 49
3.174999999999999
 74
     0
 49
-3.174999999999999
 74
     0
 49
3.174999999999999
 74
     0
 49
-3.174999999999999
 74
     0
  0
ENDTAB
  0
TABLE
  2
LAYER
  5
2
102
{ACAD_XDICTIONARY
360
3F9
102
}
330
0
100
AcDbSymbolTable
 70
    11
  0
LAYER
  5
10
330
2
100
AcDbSymbolTableRecord
100
AcDbLayerTableRecord
  2
0
 70
     0
 62
     7
  6
Continuous
370
    -3
390
F
  0
LAYER
  5
AAC
330
2
100
AcDbSymbolTableRecord
100
AcDbLayerTableRecord
  2
AM_VIS
 70
     0
 62
     7
  6
Continuous
370
    50
390
F
  0
LAYER
  5
1898
330
2
100
AcDbSymbolTableRecord
100
AcDbLayerTableRecord
  2
Defpoints
 70
     0
 62
     7
  6
Continuous
290
     0
370
    -3
390
F
  0
LAYER
  5
1899
330
2
100
AcDbSymbolTableRecord
100
AcDbLayerTableRecord
  2
AM_7
 70
     0
 62
     1
  6
CENTER
370
    25
390
F
  0
LAYER
  5
1ECC
330
2
100
AcDbSymbolTableRecord
100
AcDbLayerTableRecord
  2
AM_5
 70
     0
 62
     5
  6
Continuous
370
    50
390
F
  0
LAYER
  5
2D25
330
2
100
AcDbSymbolTableRecord
100
AcDbLayerTableRecord
  2
AM_0N
 70
     0
 62
     7
  6
Continuous
370
    50
390
F
  0
LAYER
  5
3582
330
2
100
AcDbSymbolTableRecord
100
AcDbLayerTableRecord
  2
M_0
 70
     0
 62
     7
  6
Continuous
370
    -3
390
F
  0
LAYER
  5
3583
330
2
100
AcDbSymbolTableRecord
100
AcDbLayerTableRecord
  2
AM_8
 70
     0
 62
     1
  6
Continuous
370
    25
390
F
  0
LAYER
  5
53A9
330
2
100
AcDbSymbolTableRecord
100
AcDbLayerTableRecord
  2
底
 70
     0
 62
     6
  6
Continuous
370
    -3
390
F
1001
AcAecLayerStandard
1000

1000

  0
LAYER
  5
54DC
330
2
100
AcDbSymbolTableRecord
100
AcDbLayerTableRecord
  2
AM_4
 70
     0
 62
     3
  6
Continuous
370
    25
390
F
  0
LAYER
  5
9B51
330
2
100
AcDbSymbolTableRecord
100
AcDbLayerTableRecord
  2
LOGO
 70
     0
 62
     7
  6
Continuous
370
    -3
390
F
  0
ENDTAB
  0
TABLE
  2
STYLE
  5
3
330
0
100
AcDbSymbolTable
 70
     9
  0
STYLE
  5
11
330
3
100
AcDbSymbolTableRecord
100
AcDbTextStyleTableRecord
  2
STANDARD
 70
     0
 40
0.0
 41
1.0
 50
0.0
 71
     0
 42
3.5
  3
ISOCP.SHX
  4
CHINESET.SHX
  0
STYLE
  5
6B
330
3
100
AcDbSymbolTableRecord
100
AcDbTextStyleTableRecord
  2

 70
     1
 40
0.0
 41
1.0
 50
0.0
 71
     0
 42
2.5
  3
ltypeshp.shx
  4

  0
STYLE
  5
6D
330
3
100
AcDbSymbolTableRecord
100
AcDbTextStyleTableRecord
  2
ACISOTS
 70
     0
 40
1.0
 41
1.0
 50
0.0
 71
     0
 42
1.0
  3
isocp.shx
  4
chineset.shx
  0
STYLE
  5
79
330
3
100
AcDbSymbolTableRecord
100
AcDbTextStyleTableRecord
  2
ACISOGDT
 70
     0
 40
0.0
 41
1.0
 50
0.0
 71
     0
 42
2.5
  3
amgdt.shx
  4
chineset.shx
  0
STYLE
  5
3585
330
3
100
AcDbSymbolTableRecord
100
AcDbTextStyleTableRecord
  2
ROMAND
 70
     0
 40
0.0
 41
1.0
 50
0.0
 71
     0
 42
6.0
  3
romand.shx
  4
chineset.shx
  0
STYLE
  5
3586
330
3
100
AcDbSymbolTableRecord
100
AcDbTextStyleTableRecord
  2
DAYUS
 70
     0
 40
0.0
 41
1.0
 50
0.0
 71
     0
 42
2.5
  3
simplex
  4
dayus
  0
STYLE
  5
3587
330
3
100
AcDbSymbolTableRecord
100
AcDbTextStyleTableRecord
  2
新細明體
 70
     0
 40
0.0
 41
1.0
 50
0.0
 71
     0
 42
2.5
  3
PMingLiU.ttf
  4

1001
ACAD
1000
PMingLiU
1071
    34834
  0
STYLE
  5
9B52
330
3
100
AcDbSymbolTableRecord
100
AcDbTextStyleTableRecord
  2
CHINESET
 70
     0
 40
0.0
 41
1.0
 50
0.0
 71
     0
 42
3.0
  3
simplex.shx
  4
CHINESET.SHX
  0
ENDTAB
  0
TABLE
  2
VIEW
  5
6
330
0
100
AcDbSymbolTable
 70
     0
  0
ENDTAB
  0
TABLE
  2
UCS
  5
7
330
0
100
AcDbSymbolTable
 70
     0
  0
ENDTAB
  0
TABLE
  2
APPID
  5
9
330
0
100
AcDbSymbolTable
 70
    30
  0
APPID
  5
12
330
9
100
AcDbSymbolTableRecord
100
AcDbRegAppTableRecord
  2
ACAD
 70
     0
  0
APPID
  5
46
330
9
100
AcDbSymbolTableRecord
100
AcDbRegAppTableRecord
  2
MCAD_NO_VIS
 70
     0
  0
APPID
  5
47
330
9
100
AcDbSymbolTableRecord
100
AcDbRegAppTableRecord
  2
ACAD_TEMP_GRAPHIC
 70
     0
  0
APPID
  5
58
330
9
100
AcDbSymbolTableRecord
100
AcDbRegAppTableRecord
  2
ACATTRIBSERVICES
 70
     0
  0
APPID
  5
EE
330
9
100
AcDbSymbolTableRecord
100
AcDbRegAppTableRecord
  2
AD_DRAW
 70
     0
  0
APPID
  5
10C
330
9
100
AcDbSymbolTableRecord
100
AcDbRegAppTableRecord
  2
DESIGNERASSEMBLIES
 70
     0
  0
APPID
  5
111
330
9
100
AcDbSymbolTableRecord
100
AcDbRegAppTableRecord
  2
ACADM_DIM_EDIT
 70
     0
  0
APPID
  5
112
330
9
100
AcDbSymbolTableRecord
100
AcDbRegAppTableRecord
  2
AMDT_DM_ADJ
 70
     0
  0
APPID
  5
22C
330
9
100
AcDbSymbolTableRecord
100
AcDbRegAppTableRecord
  2
ACAD_DSTYLE_DIMTEXT_FILL
 70
     0
  0
APPID
  5
452
330
9
100
AcDbSymbolTableRecord
100
AcDbRegAppTableRecord
  2
GENIUS_GENOENT_13
 70
     0
  0
APPID
  5
453
330
9
100
AcDbSymbolTableRecord
100
AcDbRegAppTableRecord
  2
GENIUS_GENOBJ-N-CRS_13
 70
     0
  0
APPID
  5
454
330
9
100
AcDbSymbolTableRecord
100
AcDbRegAppTableRecord
  2
GENIUS_GENOLIS_13
 70
     0
  0
APPID
  5
455
330
9
100
AcDbSymbolTableRecord
100
AcDbRegAppTableRecord
  2
GENIUS_GENODEF_13
 70
     0
  0
APPID
  5
456
330
9
100
AcDbSymbolTableRecord
100
AcDbRegAppTableRecord
  2
GENIUS_GENOREF_13
 70
     0
  0
APPID
  5
6F3
330
9
100
AcDbSymbolTableRecord
100
AcDbRegAppTableRecord
  2
ACAD_PSEXT
 70
     0
  0
APPID
  5
808
330
9
100
AcDbSymbolTableRecord
100
AcDbRegAppTableRecord
  2
GENIUS_GENDTOL_13
 70
     0
  0
APPID
  5
2D22
330
9
100
AcDbSymbolTableRecord
100
AcDbRegAppTableRecord
  2
GEVID1190101457
 70
     0
  0
APPID
  5
2D23
330
9
100
AcDbSymbolTableRecord
100
AcDbRegAppTableRecord
  2
GEVDC
 70
     0
  0
APPID
  5
2D3B
330
9
100
AcDbSymbolTableRecord
100
AcDbRegAppTableRecord
  2
AMG_2DHIDE
 70
     0
  0
APPID
  5
2D3C
330
9
100
AcDbSymbolTableRecord
100
AcDbRegAppTableRecord
  2
AMG_2DSTRUCT_BTR
 70
     0
  0
APPID
  5
2D4D
330
9
100
AcDbSymbolTableRecord
100
AcDbRegAppTableRecord
  2
ACADM_2DVIEW_IGN_NOTIFY
 70
     0
  0
APPID
  5
2D9C
330
9
100
AcDbSymbolTableRecord
100
AcDbRegAppTableRecord
  2
GEVID1190101458
 70
     0
  0
APPID
  5
2D9D
330
9
100
AcDbSymbolTableRecord
100
AcDbRegAppTableRecord
  2
GEVRADREF
 70
     0
  0
APPID
  5
3588
330
9
100
AcDbSymbolTableRecord
100
AcDbRegAppTableRecord
  2
GENIUS_GENOBJ-N-HTC_13
 70
     0
  0
APPID
  5
3589
330
9
100
AcDbSymbolTableRecord
100
AcDbRegAppTableRecord
  2
GENIUS_GENHATCH_13
 70
     0
  0
APPID
  5
3DC1
330
9
100
AcDbSymbolTableRecord
100
AcDbRegAppTableRecord
  2
GENIUS_GENOBJ-N-CEN_13
 70
     0
  0
APPID
  5
3DC2
330
9
100
AcDbSymbolTableRecord
100
AcDbRegAppTableRecord
  2
GENIUS_GENCEN_19
 70
     0
  0
APPID
  5
4F0C
330
9
100
AcDbSymbolTableRecord
100
AcDbRegAppTableRecord
  2
GENIUS_GENREC_14
 70
     0
  0
APPID
  5
4F0D
330
9
100
AcDbSymbolTableRecord
100
AcDbRegAppTableRecord
  2
GENIUS_GENOBJ-N-REC_13
 70
     0
  0
APPID
  5
53AA
330
9
100
AcDbSymbolTableRecord
100
AcDbRegAppTableRecord
  2
AcAecLayerStandard
 70
     0
  0
ENDTAB
  0
TABLE
  2
DIMSTYLE
  5
A
330
0
100
AcDbSymbolTable
 70
     9
100
AcDbDimStyleTable
 71
     3
340
81
340
8B
340
86
  0
DIMSTYLE
105
81
330
A
100
AcDbSymbolTableRecord
100
AcDbDimStyleTableRecord
  2
AM_ISO
 70
     0
  4
"
 41
3.0
 42
1.0
 43
10.0
 44
1.5
 47
0.1
 48
0.1
 73
     0
 74
     0
 77
     1
 78
     8
 79
     2
140
3.5
141
0.0
143
0.0393701
146
0.6
147
1.0
172
     1
176
   256
177
   256
178
   256
271
     2
272
     2
283
     0
284
     8
340
11
371
    -1
372
    -1
  0
DIMSTYLE
105
82
330
A
100
AcDbSymbolTableRecord
100
AcDbDimStyleTableRecord
  2
AM_ISO$3
 70
     0
  4
"
 41
3.0
 42
1.0
 43
10.0
 44
1.5
 47
0.1
 48
0.1
 73
     0
 77
     1
 78
     8
 79
     2
140
3.5
141
0.0
143
0.0393701
146
0.6
147
1.0
176
   256
177
   256
178
   256
271
     2
272
     2
283
     0
284
     8
288
     1
289
     0
340
11
371
    -1
372
    -1
  0
DIMSTYLE
105
83
330
A
100
AcDbSymbolTableRecord
100
AcDbDimStyleTableRecord
  2
AM_ISO$4
 70
     0
  4
"
 41
3.0
 42
1.0
 43
10.0
 44
1.5
 47
0.1
 48
0.1
 73
     0
 77
     1
 78
     8
 79
     2
140
3.5
141
0.0
143
0.0393701
146
0.6
147
1.0
176
   256
177
   256
178
   256
271
     2
272
     2
283
     0
284
     8
288
     1
289
     0
340
11
371
    -1
372
    -1
  0
DIMSTYLE
105
84
330
A
100
AcDbSymbolTableRecord
100
AcDbDimStyleTableRecord
  2
AM_ISO$6
 70
     0
  4
"
 41
3.0
 42
1.0
 43
10.0
 44
1.5
 47
0.1
 48
0.1
 73
     0
 74
     0
 78
     8
 79
     2
140
3.5
141
0.0
143
0.0393701
146
0.6
147
1.0
172
     1
176
   256
177
   256
178
   256
271
     2
272
     2
283
     0
284
     8
340
11
371
    -1
372
    -1
  0
DIMSTYLE
105
85
330
A
100
AcDbSymbolTableRecord
100
AcDbDimStyleTableRecord
  2
AM_ISO$7
 70
     0
  4
"
 41
3.0
 42
1.0
 43
10.0
 44
1.5
 47
0.1
 48
0.1
 73
     0
 74
     0
 77
     1
 78
     8
 79
     2
140
5.0
141
0.0
143
0.0393701
146
0.6
147
1.0
172
     1
176
   256
177
   256
178
   256
271
     2
272
     2
283
     0
284
     8
340
11
371
    -1
372
    -1
  0
DIMSTYLE
105
86
330
A
100
AcDbSymbolTableRecord
100
AcDbDimStyleTableRecord
  2
AM_ISO$SF
 70
     0
  4
"
 41
2.5
 42
1.0
 43
10.0
 44
1.0
 47
0.1
 48
0.1
 73
     0
 74
     0
 75
     1
 76
     1
 77
     1
 78
     8
 79
     2
140
3.5
141
0.0
143
0.0393701
146
0.71
147
1.5
172
     1
176
   256
177
   256
178
     2
271
     2
272
     3
274
     4
283
     0
284
     8
340
11
371
    -1
372
    -1
  0
DIMSTYLE
105
8B
330
A
100
AcDbSymbolTableRecord
100
AcDbDimStyleTableRecord
  2
AM_ISO$SH
 70
     0
  4
"
 41
2.5
 42
1.0
 43
10.0
 44
1.0
 47
0.1
 48
0.1
 73
     0
 74
     0
 75
     1
 76
     1
 77
     1
 78
     8
 79
     2
140
3.5
141
0.0
143
0.0393701
144
2.0
146
0.71
147
1.5
172
     1
173
     1
176
   256
177
   256
178
     2
271
     2
272
     3
274
     4
283
     0
284
     8
340
11
343
87
371
    -1
372
    -1
  0
DIMSTYLE
105
40B
102
{ACAD_REACTORS
330
370A
330
36E4
330
3730
330
36BA
330
3694
330
39E6
330
39C0
330
399A
330
3853
330
382D
330
394A
330
3879
330
38FE
330
38D8
330
38A3
330
5435
330
6A78
102
}
330
A
100
AcDbSymbolTableRecord
100
AcDbDimStyleTableRecord
  2
AM_ISO$0
 70
     0
  4
"
 41
3.0
 42
1.0
 43
10.0
 44
1.5
 47
0.1
 48
0.1
 73
     0
 74
     0
 77
     1
 78
     8
 79
     2
140
3.5
141
0.0
143
0.0393701
146
0.6
147
1.0
172
     1
176
   256
177
   256
178
   256
271
     2
272
     2
283
     0
284
     8
340
11
371
    -1
372
    -1
  0
ENDTAB
  0
TABLE
  2
BLOCK_RECORD
  5
1
330
0
100
AcDbSymbolTable
 70
    32
  0
BLOCK_RECORD
  5
1F
102
{ACAD_XDICTIONARY
360
8F
102
}
330
1
100
AcDbSymbolTableRecord
100
AcDbBlockTableRecord
  2
*Model_Space
340
22
  0
BLOCK_RECORD
  5
1B
330
1
100
AcDbSymbolTableRecord
100
AcDbBlockTableRecord
  2
*Paper_Space
340
1E
  0
BLOCK_RECORD
  5
23
330
1
100
AcDbSymbolTableRecord
100
AcDbBlockTableRecord
  2
*Paper_Space0
340
26
  0
BLOCK_RECORD
  5
87
330
1
100
AcDbSymbolTableRecord
100
AcDbBlockTableRecord
  2
GENAXEH
340
0
  0
BLOCK_RECORD
  5
2D50
330
1
100
AcDbSymbolTableRecord
100
AcDbBlockTableRecord
  2
*U4
340
0
  0
BLOCK_RECORD
  5
3480
330
1
100
AcDbSymbolTableRecord
100
AcDbBlockTableRecord
  2
A$C09F21E84
340
0
  0
BLOCK_RECORD
  5
34E3
330
1
100
AcDbSymbolTableRecord
100
AcDbBlockTableRecord
  2
A$C0AED3F82
340
0
  0
BLOCK_RECORD
  5
3508
330
1
100
AcDbSymbolTableRecord
100
AcDbBlockTableRecord
  2
A$C3F2B26CD
340
0
102
{BLKREFS
331
3580
102
}
  0
BLOCK_RECORD
  5
357E
330
1
100
AcDbSymbolTableRecord
100
AcDbBlockTableRecord
  2
A$C1730210C
340
0
  0
BLOCK_RECORD
  5
3695
330
1
100
AcDbSymbolTableRecord
100
AcDbBlockTableRecord
  2
*D9
340
0
  0
BLOCK_RECORD
  5
36BB
330
1
100
AcDbSymbolTableRecord
100
AcDbBlockTableRecord
  2
*D10
340
0
  0
BLOCK_RECORD
  5
36E5
330
1
100
AcDbSymbolTableRecord
100
AcDbBlockTableRecord
  2
*D11
340
0
  0
BLOCK_RECORD
  5
370B
330
1
100
AcDbSymbolTableRecord
100
AcDbBlockTableRecord
  2
*D12
340
0
  0
BLOCK_RECORD
  5
3731
330
1
100
AcDbSymbolTableRecord
100
AcDbBlockTableRecord
  2
*D13
340
0
  0
BLOCK_RECORD
  5
382E
330
1
100
AcDbSymbolTableRecord
100
AcDbBlockTableRecord
  2
*D14
340
0
  0
BLOCK_RECORD
  5
3854
330
1
100
AcDbSymbolTableRecord
100
AcDbBlockTableRecord
  2
*D15
340
0
  0
BLOCK_RECORD
  5
387A
330
1
100
AcDbSymbolTableRecord
100
AcDbBlockTableRecord
  2
*D16
340
0
  0
BLOCK_RECORD
  5
38A4
330
1
100
AcDbSymbolTableRecord
100
AcDbBlockTableRecord
  2
*D17
340
0
  0
BLOCK_RECORD
  5
38D9
330
1
100
AcDbSymbolTableRecord
100
AcDbBlockTableRecord
  2
*D18
340
0
  0
BLOCK_RECORD
  5
38FF
330
1
100
AcDbSymbolTableRecord
100
AcDbBlockTableRecord
  2
*D19
340
0
  0
BLOCK_RECORD
  5
394B
330
1
100
AcDbSymbolTableRecord
100
AcDbBlockTableRecord
  2
*D20
340
0
  0
BLOCK_RECORD
  5
399B
330
1
100
AcDbSymbolTableRecord
100
AcDbBlockTableRecord
  2
*D21
340
0
  0
BLOCK_RECORD
  5
39C1
330
1
100
AcDbSymbolTableRecord
100
AcDbBlockTableRecord
  2
*D22
340
0
  0
BLOCK_RECORD
  5
39E7
330
1
100
AcDbSymbolTableRecord
100
AcDbBlockTableRecord
  2
*D23
340
0
  0
BLOCK_RECORD
  5
5436
330
1
100
AcDbSymbolTableRecord
100
AcDbBlockTableRecord
  2
*D24
340
0
  0
BLOCK_RECORD
  5
6A79
330
1
100
AcDbSymbolTableRecord
100
AcDbBlockTableRecord
  2
*D25
340
0
  0
BLOCK_RECORD
  5
9E22
330
1
100
AcDbSymbolTableRecord
100
AcDbBlockTableRecord
  2
*S27
340
0
  0
BLOCK_RECORD
  5
9E2A
330
1
100
AcDbSymbolTableRecord
100
AcDbBlockTableRecord
  2
*S28
340
0
  0
BLOCK_RECORD
  5
9E32
330
1
100
AcDbSymbolTableRecord
100
AcDbBlockTableRecord
  2
*S29
340
0
  0
BLOCK_RECORD
  5
9E3A
330
1
100
AcDbSymbolTableRecord
100
AcDbBlockTableRecord
  2
*S30
340
0
  0
BLOCK_RECORD
  5
9E42
330
1
100
AcDbSymbolTableRecord
100
AcDbBlockTableRecord
  2
*S31
340
0
  0
ENDTAB
  0
ENDSEC
  0
SECTION
  2
BLOCKS
  0
BLOCK
  5
20
330
1F
100
AcDbEntity
  8
0
100
AcDbBlockBegin
  2
*Model_Space
 70
     0
 10
0.0
 20
0.0
 30
0.0
  3
*Model_Space
  1

  0
ENDBLK
  5
21
330
1F
100
AcDbEntity
  8
0
100
AcDbBlockEnd
  0
BLOCK
  5
1C
330
1B
100
AcDbEntity
 67
     1
  8
0
100
AcDbBlockBegin
  2
*Paper_Space
 70
     0
 10
0.0
 20
0.0
 30
0.0
  3
*Paper_Space
  1

  0
ENDBLK
  5
1D
330
1B
100
AcDbEntity
 67
     1
  8
0
100
AcDbBlockEnd
  0
BLOCK
  5
24
330
23
100
AcDbEntity
  8
0
100
AcDbBlockBegin
  2
*Paper_Space0
 70
     0
 10
0.0
 20
0.0
 30
0.0
  3
*Paper_Space0
  1

  0
ENDBLK
  5
25
330
23
100
AcDbEntity
  8
0
100
AcDbBlockEnd
  0
BLOCK
  5
89
330
87
100
AcDbEntity
  8
0
100
AcDbBlockBegin
  2
GENAXEH
 70
     0
 10
0.0
 20
0.0
 30
0.0
  3
GENAXEH
  1

  0
LINE
  5
88
330
87
100
AcDbEntity
  8
0
100
AcDbLine
 10
-1.0
 20
0.0
 30
0.0
 11
1.0
 21
0.0
 31
0.0
  0
ENDBLK
  5
8A
330
87
100
AcDbEntity
  8
0
100
AcDbBlockEnd
  0
BLOCK
  5
2D51
330
2D50
100
AcDbEntity
  8
0
100
AcDbBlockBegin
  2
*U4
 70
     1
 10
0.0
 20
0.0
 30
0.0
  3
*U4
  1

  0
ENDBLK
  5
2D52
330
2D50
100
AcDbEntity
  8
0
100
AcDbBlockEnd
  0
BLOCK
  5
3481
330
3480
100
AcDbEntity
  8
0
100
AcDbBlockBegin
  2
A$C09F21E84
 70
     0
 10
0.0
 20
0.0
 30
0.0
  3
A$C09F21E84
  1

  0
LWPOLYLINE
  5
3482
330
3480
100
AcDbEntity
  8
M_0
 62
     5
100
AcDbPolyline
 90
        2
 70
     0
 43
0.999999
 10
12.48259795562535
 20
2.999997438803148
 42
-1.0
 10
15.48259495562524
 20
2.999997438803148
 42
-0.0000000000000001
  0
ARC
  5
3483
330
3480
100
AcDbEntity
  8
M_0
 62
     5
100
AcDbCircle
 10
13.9825964556253
 20
2.999997438803177
 30
0.0
 40
1.999997999999999
100
AcDbArc
 50
0.0
 51
120.0000000000009
  0
ARC
  5
3484
330
3480
100
AcDbEntity
  8
M_0
 62
     5
100
AcDbCircle
 10
13.9825964556253
 20
2.999997438803177
 30
0.0
 40
0.999999
100
AcDbArc
 50
0.0
 51
180.0
  0
LINE
  5
3485
330
3480
100
AcDbEntity
  8
M_0
 62
     5
100
AcDbLine
 10
9.815900622325216
 20
5.69999473880307
 30
0.0
 11
9.815900622325216
 21
6.499993938803157
 31
0.0
  0
LINE
  5
3486
330
3480
100
AcDbEntity
  8
M_0
 62
     5
100
AcDbLine
 10
10.8158996223251
 20
5.69999473880307
 30
0.0
 11
10.8158996223251
 21
6.499993938803157
 31
0.0
  0
SOLID
  5
3487
330
3480
100
AcDbEntity
  8
M_0
 62
     5
100
AcDbTrace
 10
10.8158996223251
 20
6.499993938803157
 30
0.0
 11
10.8158996223251
 21
5.69999473880307
 31
0.0
 12
9.815900622325216
 22
6.499993938803157
 32
0.0
 13
9.815900622325216
 23
5.69999473880307
 33
0.0
  0
SOLID
  5
3488
330
3480
100
AcDbEntity
  8
M_0
 62
     5
100
AcDbTrace
 10
7.632147306527485
 20
4.999995438803154
 30
0.0
 11
7.632147306527485
 21
3.689750937042731
 31
0.0
 12
3.816073288825236
 22
0.0000004388031698
 32
0.0
 13
4.816072288825125
 23
0.0000004388031698
 33
0.0
  0
LINE
  5
3489
330
3480
100
AcDbEntity
  8
M_0
 62
     5
100
AcDbLine
 10
4.816072288825125
 20
0.0000004388031698
 30
0.0
 11
7.632147306527485
 21
3.689750937042731
 31
0.0
  0
LINE
  5
348A
330
3480
100
AcDbEntity
  8
M_0
 62
     5
100
AcDbLine
 10
4.816072288825125
 20
1.310244940563507
 30
0.0
 11
7.632147306527485
 21
4.999995438803154
 31
0.0
  0
SOLID
  5
348B
330
3480
100
AcDbEntity
  8
M_0
 62
     5
100
AcDbTrace
 10
4.816072288825125
 20
4.999995438803239
 30
0.0
 11
4.816072288825125
 21
1.310244940563507
 31
0.0
 12
3.816073288825236
 22
4.999995438803239
 32
0.0
 13
3.816073288825236
 23
0.0000004388031698
 33
0.0
  0
LINE
  5
348C
330
3480
100
AcDbEntity
  8
M_0
 62
     5
100
AcDbLine
 10
3.816073288825236
 20
0.0000004388031698
 30
0.0
 11
3.816073288825236
 21
3.689750937042731
 31
0.0
  0
LINE
  5
348D
330
3480
100
AcDbEntity
  8
M_0
 62
     5
100
AcDbLine
 10
4.816072288825125
 20
4.999995438803239
 30
0.0
 11
4.816072288825125
 21
1.310244940563507
 31
0.0
  0
LINE
  5
348E
330
3480
100
AcDbEntity
  8
M_0
 62
     5
100
AcDbLine
 10
3.816073288825236
 20
0.0000004388031698
 30
0.0
 11
4.816072288825125
 21
0.0000004388031698
 31
0.0
  0
LINE
  5
348F
330
3480
100
AcDbEntity
  8
M_0
 62
     5
100
AcDbLine
 10
3.816073288825236
 20
4.999995438803239
 30
0.0
 11
4.816072288825125
 21
4.999995438803239
 31
0.0
  0
LINE
  5
3490
330
3480
100
AcDbEntity
  8
M_0
 62
     5
100
AcDbLine
 10
-0.0000007288765573
 20
0.0000004388031698
 30
0.0
 11
0.9999982711233315
 21
0.0000004388031698
 31
0.0
  0
LINE
  5
3491
330
3480
100
AcDbEntity
  8
M_0
 62
     5
100
AcDbLine
 10
0.9999982711233315
 20
0.0000004388031698
 30
0.0
 11
3.816073288825236
 21
3.689750937042731
 31
0.0
  0
LINE
  5
3492
330
3480
100
AcDbEntity
  8
M_0
 62
     5
100
AcDbLine
 10
-0.0000007288765573
 20
0.0000004388031698
 30
0.0
 11
3.816073288825236
 21
4.999995438803154
 31
0.0
  0
SOLID
  5
3493
330
3480
100
AcDbEntity
  8
M_0
 62
     5
100
AcDbTrace
 10
3.816073288825236
 20
4.999995438803239
 30
0.0
 11
3.816073288825236
 21
3.689750937042731
 31
0.0
 12
-0.0000007288765573
 22
0.0000004388031698
 32
0.0
 13
0.9999982711233315
 23
0.0000004388031698
 33
0.0
  0
LWPOLYLINE
  5
3494
330
3480
100
AcDbEntity
  8
M_0
 62
     5
100
AcDbPolyline
 90
        2
 70
     0
 43
0.999999
 10
12.48259795562535
 20
0.0000004388032835
 10
12.48259795562535
 20
4.999995438803267
  0
LINE
  5
3495
330
3480
100
AcDbEntity
  8
M_0
 62
     5
100
AcDbLine
 10
9.815900622325216
 20
0.0000004388030277
 30
0.0
 11
9.815900622325216
 21
4.999995438803154
 31
0.0
  0
LINE
  5
3496
330
3480
100
AcDbEntity
  8
M_0
 62
     5
100
AcDbLine
 10
10.8158996223251
 20
0.0000004388030277
 30
0.0
 11
10.8158996223251
 21
4.999995438803154
 31
0.0
  0
LINE
  5
3497
330
3480
100
AcDbEntity
  8
M_0
 62
     5
100
AcDbLine
 10
11.98259845562529
 20
0.0000004388031698
 30
0.0
 11
11.98259845562529
 21
4.999995438803239
 31
0.0
  0
SOLID
  5
3498
330
3480
100
AcDbEntity
  8
M_0
 62
     5
100
AcDbTrace
 10
10.8158996223251
 20
4.999995438803154
 30
0.0
 11
10.8158996223251
 21
0.0000004388031698
 31
0.0
 12
9.815900622325216
 22
4.999995438803154
 32
0.0
 13
9.815900622325216
 23
0.0000004388031698
 33
0.0
  0
LINE
  5
3499
330
3480
100
AcDbEntity
  8
M_0
 62
     5
100
AcDbLine
 10
12.98259745562541
 20
0.0000004388031698
 30
0.0
 11
12.98259745562541
 21
2.999997438803177
 31
0.0
  0
LINE
  5
349A
330
3480
100
AcDbEntity
  8
M_0
 62
     5
100
AcDbLine
 10
11.98259845562529
 20
0.0000004388032551
 30
0.0
 11
12.98259745562541
 21
0.0000004388032551
 31
0.0
  0
LINE
  5
349B
330
3480
100
AcDbEntity
  8
M_0
 62
     5
100
AcDbLine
 10
9.815900622325216
 20
0.0000004388031698
 30
0.0
 11
10.8158996223251
 21
0.0000004388031698
 31
0.0
  0
LINE
  5
349C
330
3480
100
AcDbEntity
  8
M_0
 62
     5
100
AcDbLine
 10
11.98259845562529
 20
4.999995438803239
 30
0.0
 11
12.98259745562541
 21
4.999995438803239
 31
0.0
  0
LINE
  5
349D
330
3480
100
AcDbEntity
  8
M_0
 62
     5
100
AcDbLine
 10
12.98259745562541
 20
2.999997438803177
 30
0.0
 11
11.98259845562529
 21
2.999997438803177
 31
0.0
  0
LINE
  5
349E
330
3480
100
AcDbEntity
  8
M_0
 62
     5
100
AcDbLine
 10
9.815900622325216
 20
4.999995438803154
 30
0.0
 11
10.8158996223251
 21
4.999995438803154
 31
0.0
  0
LINE
  5
349F
330
3480
100
AcDbEntity
  8
M_0
 62
     5
100
AcDbLine
 10
9.815900622325216
 20
5.69999473880307
 30
0.0
 11
10.8158996223251
 21
5.69999473880307
 31
0.0
  0
LINE
  5
34A0
330
3480
100
AcDbEntity
  8
M_0
 62
     5
100
AcDbLine
 10
12.98259745562541
 20
4.732046514320984
 30
0.0
 11
12.98259745562541
 21
4.999995438803239
 31
0.0
  0
LINE
  5
34A1
330
3480
100
AcDbEntity
  8
M_0
 62
     5
100
AcDbLine
 10
7.632147306527485
 20
0.0000004388031698
 30
0.0
 11
7.632147306527485
 21
3.689750937042731
 31
0.0
  0
LINE
  5
34A2
330
3480
100
AcDbEntity
  8
M_0
 62
     5
100
AcDbLine
 10
8.632146306527602
 20
0.0000004388031698
 30
0.0
 11
8.632146306527602
 21
4.999995438803154
 31
0.0
  0
SOLID
  5
34A3
330
3480
100
AcDbEntity
  8
M_0
 62
     5
100
AcDbTrace
 10
8.632146306527602
 20
4.999995438803154
 30
0.0
 11
8.632146306527602
 21
0.0000004388031698
 31
0.0
 12
7.632147306527485
 22
4.999995438803154
 32
0.0
 13
7.632147306527485
 23
0.0000004388031698
 33
0.0
  0
LINE
  5
34A4
330
3480
100
AcDbEntity
  8
M_0
 62
     5
100
AcDbLine
 10
7.632147306527485
 20
0.0000004388031698
 30
0.0
 11
8.632146306527602
 21
0.0000004388031698
 31
0.0
  0
LINE
  5
34A5
330
3480
100
AcDbEntity
  8
M_0
 62
     5
100
AcDbLine
 10
7.632147306527485
 20
4.999995438803154
 30
0.0
 11
8.632146306527602
 21
4.999995438803154
 31
0.0
  0
LINE
  5
34A6
330
3480
100
AcDbEntity
  8
M_0
 62
     5
100
AcDbLine
 10
9.815900622325216
 20
6.499993938803157
 30
0.0
 11
10.8158996223251
 21
6.499993938803157
 31
0.0
  0
ARC
  5
34A7
330
3480
100
AcDbEntity
  8
M_0
 62
     5
100
AcDbCircle
 10
33.98277645542544
 20
2.499997938803176
 30
0.0
 40
2.4999975
100
AcDbArc
 50
53.13296708943612
 51
306.8670329105639
  0
LWPOLYLINE
  5
34A8
330
3480
100
AcDbEntity
  8
M_0
 62
     5
100
AcDbPolyline
 90
        2
 70
     1
 43
0.999999
 10
31.98277845542566
 20
2.499997938803147
 42
1.0
 10
35.98277445542567
 20
2.499997938803147
 42
1.0
  0
CIRCLE
  5
34A9
330
3480
100
AcDbEntity
  8
M_0
 62
     5
100
AcDbCircle
 10
33.98277645542544
 20
2.499997938803176
 30
0.0
 40
1.4999985
  0
LINE
  5
34AA
330
3480
100
AcDbEntity
  8
M_0
 62
     5
100
AcDbLine
 10
22.14928828892562
 20
0.0000004388031698
 30
0.0
 11
22.14928828892562
 21
6.499993938803157
 31
0.0
  0
LWPOLYLINE
  5
34AB
330
3480
100
AcDbEntity
  8
M_0
 62
     5
100
AcDbPolyline
 90
        2
 70
     0
 43
0.999999
 10
21.64928878892533
 20
0.0000004388031698
 10
21.64928878892533
 20
6.499993938803157
  0
LINE
  5
34AC
330
3480
100
AcDbEntity
  8
M_0
 62
     5
100
AcDbLine
 10
21.14928928892573
 20
4.500070934823241
 30
0.0
 11
21.14928928892573
 21
6.499993938803157
 31
0.0
  0
LWPOLYLINE
  5
34AD
330
3480
100
AcDbEntity
  8
M_0
 62
     5
100
AcDbPolyline
 90
        2
 70
     0
 43
0.999999
 10
23.81598662222541
 20
0.0000004388031698
 10
23.81598662222541
 20
4.999995438803154
  0
LINE
  5
34AE
330
3480
100
AcDbEntity
  8
M_0
 62
     5
100
AcDbLine
 10
23.31598712222558
 20
0.0000004388031698
 30
0.0
 11
24.31598612222547
 21
0.0000004388031698
 31
0.0
  0
LINE
  5
34AF
330
3480
100
AcDbEntity
  8
M_0
 62
     5
100
AcDbLine
 10
23.31598712222558
 20
4.999995438803154
 30
0.0
 11
24.31598612222547
 21
4.999995438803154
 31
0.0
  0
LINE
  5
34B0
330
3480
100
AcDbEntity
  8
M_0
 62
     5
100
AcDbLine
 10
23.31598712222558
 20
2.999997438803006
 30
0.0
 11
24.31598612222547
 21
2.999997438803006
 31
0.0
  0
LWPOLYLINE
  5
34B1
330
3480
100
AcDbEntity
  8
M_0
 62
     5
100
AcDbPolyline
 90
        2
 70
     0
 43
0.999999
 10
26.8159836222253
 20
2.999997438803035
 42
1.0
 10
23.81598662222541
 20
2.999997438803035
 42
1.0
  0
LINE
  5
34B2
330
3480
100
AcDbEntity
  8
M_0
 62
     5
100
AcDbLine
 10
23.31598712222558
 20
0.0000004388031698
 30
0.0
 11
23.31598712222558
 21
4.999995438803154
 31
0.0
  0
ARC
  5
34B3
330
3480
100
AcDbEntity
  8
M_0
 62
     5
100
AcDbCircle
 10
19.64939078882526
 20
2.499997938803176
 30
0.0
 40
2.4999975
100
AcDbArc
 50
53.13296708943612
 51
306.8670329105639
  0
LWPOLYLINE
  5
34B4
330
3480
100
AcDbEntity
  8
M_0
 62
     5
100
AcDbPolyline
 90
        2
 70
     1
 43
0.999999
 10
17.64939278882548
 20
2.499997938803147
 42
1.0
 10
21.64938878882549
 20
2.499997938803147
 42
1.0
  0
CIRCLE
  5
34B5
330
3480
100
AcDbEntity
  8
M_0
 62
     5
100
AcDbCircle
 10
19.64939078882526
 20
2.499997938803176
 30
0.0
 40
1.4999985
  0
LINE
  5
34B6
330
3480
100
AcDbEntity
  8
M_0
 62
     5
100
AcDbLine
 10
21.14928928892573
 20
0.0000004388031698
 30
0.0
 11
21.14928928892573
 21
0.4999249427829966
 31
0.0
  0
LINE
  5
34B7
330
3480
100
AcDbEntity
  8
M_0
 62
     5
100
AcDbLine
 10
21.14928928892573
 20
0.0000004388031698
 30
0.0
 11
22.14928828892562
 21
0.0000004388031698
 31
0.0
  0
LINE
  5
34B8
330
3480
100
AcDbEntity
  8
M_0
 62
     5
100
AcDbLine
 10
14.98259545562541
 20
0.0000004388031698
 30
0.0
 11
14.98259545562541
 21
2.999997438803177
 31
0.0
  0
LINE
  5
34B9
330
3480
100
AcDbEntity
  8
M_0
 62
     5
100
AcDbLine
 10
15.9825944556253
 20
0.0000004388031698
 30
0.0
 11
15.9825944556253
 21
2.999997438803177
 31
0.0
  0
LWPOLYLINE
  5
34BA
330
3480
100
AcDbEntity
  8
M_0
 62
     5
100
AcDbPolyline
 90
        2
 70
     0
 43
0.999999
 10
15.48259495562524
 20
2.999997438803148
 10
15.48259495562524
 20
0.0000004388031698
  0
LINE
  5
34BB
330
3480
100
AcDbEntity
  8
M_0
 62
     5
100
AcDbLine
 10
14.98259545562541
 20
0.0000004388031698
 30
0.0
 11
15.9825944556253
 21
0.0000004388031698
 31
0.0
  0
LINE
  5
34BC
330
3480
100
AcDbEntity
  8
M_0
 62
     5
100
AcDbLine
 10
15.9825944556253
 20
2.999997438803177
 30
0.0
 11
14.98259545562541
 21
2.999997438803177
 31
0.0
  0
LINE
  5
34BD
330
3480
100
AcDbEntity
  8
M_0
 62
     5
100
AcDbLine
 10
30.31598012222548
 20
0.0000004388030277
 30
0.0
 11
30.31598012222548
 21
2.999997438803006
 31
0.0
  0
LINE
  5
34BE
330
3480
100
AcDbEntity
  8
M_0
 62
     5
100
AcDbLine
 10
29.31598112222537
 20
0.0000004388030277
 30
0.0
 11
29.31598112222537
 21
2.999997438803006
 31
0.0
  0
LWPOLYLINE
  5
34BF
330
3480
100
AcDbEntity
  8
M_0
 62
     5
100
AcDbPolyline
 90
        2
 70
     0
 43
0.999999
 10
29.81598062222543
 20
0.0000004388030561
 10
29.81598062222543
 20
2.999997438803035
  0
LWPOLYLINE
  5
34C0
330
3480
100
AcDbEntity
  8
M_0
 62
     5
100
AcDbPolyline
 90
        2
 70
     0
 43
0.999999
 10
26.8159836222253
 20
0.0000004388031698
 10
26.8159836222253
 20
2.999997438803035
  0
LINE
  5
34C1
330
3480
100
AcDbEntity
  8
M_0
 62
     5
100
AcDbLine
 10
26.31598412222547
 20
0.0000004388031698
 30
0.0
 11
26.31598412222547
 21
2.999997438803006
 31
0.0
  0
LINE
  5
34C2
330
3480
100
AcDbEntity
  8
M_0
 62
     5
100
AcDbLine
 10
27.31598312222536
 20
0.0000004388031698
 30
0.0
 11
27.31598312222536
 21
2.999997438803006
 31
0.0
  0
LINE
  5
34C3
330
3480
100
AcDbEntity
  8
M_0
 62
     5
100
AcDbLine
 10
24.31598612222547
 20
0.0000004388031698
 30
0.0
 11
24.31598612222547
 21
2.999997438803006
 31
0.0
  0
LINE
  5
34C4
330
3480
100
AcDbEntity
  8
M_0
 62
     5
100
AcDbLine
 10
29.31598112222537
 20
0.0000004388030277
 30
0.0
 11
30.31598012222548
 21
0.0000004388030277
 31
0.0
  0
LINE
  5
34C5
330
3480
100
AcDbEntity
  8
M_0
 62
     5
100
AcDbLine
 10
26.31598412222547
 20
0.0000004388031698
 30
0.0
 11
27.31598312222536
 21
0.0000004388031698
 31
0.0
  0
LINE
  5
34C6
330
3480
100
AcDbEntity
  8
M_0
 62
     5
100
AcDbLine
 10
29.31598112222537
 20
2.999997438803006
 30
0.0
 11
30.31598012222548
 21
2.999997438803006
 31
0.0
  0
LINE
  5
34C7
330
3480
100
AcDbEntity
  8
M_0
 62
     5
100
AcDbLine
 10
26.31598412222547
 20
2.999997438803006
 30
0.0
 11
27.31598312222536
 21
2.999997438803006
 31
0.0
  0
LINE
  5
34C8
330
3480
100
AcDbEntity
  8
M_0
 62
     5
100
AcDbLine
 10
24.31598612222547
 20
4.732046514320813
 30
0.0
 11
24.31598612222547
 21
4.999995438803154
 31
0.0
  0
ARC
  5
34C9
330
3480
100
AcDbEntity
  8
M_0
 62
     5
100
AcDbCircle
 10
25.31598512222536
 20
2.999997438803006
 30
0.0
 40
1.999997999999999
100
AcDbArc
 50
41.40962210927096
 51
120.0000000000009
  0
ARC
  5
34CA
330
3480
100
AcDbEntity
  8
M_0
 62
     5
100
AcDbCircle
 10
25.31598512222536
 20
2.999997438803006
 30
0.0
 40
0.999999
100
AcDbArc
 50
0.0
 51
180.0
  0
ARC
  5
34CB
330
3480
100
AcDbEntity
  8
M_0
 62
     5
100
AcDbCircle
 10
28.31598212222548
 20
2.999997438803006
 30
0.0
 40
1.999997999999999
100
AcDbArc
 50
0.0
 51
138.590377890729
  0
ARC
  5
34CC
330
3480
100
AcDbEntity
  8
M_0
 62
     5
100
AcDbCircle
 10
28.31598212222548
 20
2.999997438803006
 30
0.0
 40
0.999999
100
AcDbArc
 50
0.0
 51
180.0
  0
LWPOLYLINE
  5
34CD
330
3480
100
AcDbEntity
  8
M_0
 62
     5
100
AcDbPolyline
 90
        2
 70
     0
 43
0.999999
 10
29.81598062222543
 20
2.999997438803035
 42
1.0
 10
26.8159836222253
 20
2.999997438803035
 42
1.0
  0
LINE
  5
34CE
330
3480
100
AcDbEntity
  8
M_0
 62
     5
100
AcDbLine
 10
21.14928928892573
 20
6.499993938803157
 30
0.0
 11
22.14928828892562
 21
6.499993938803157
 31
0.0
  0
ARC
  5
34CF
330
3480
100
AcDbEntity
  8
M_0
 62
     5
100
AcDbCircle
 10
39.64937078882531
 20
2.999997438803177
 30
0.0
 40
1.999997999999999
100
AcDbArc
 50
0.0
 51
120.0000000000009
  0
LINE
  5
34D0
330
3480
100
AcDbEntity
  8
M_0
 62
     5
100
AcDbLine
 10
41.64936878882531
 20
0.0000004388031698
 30
0.0
 11
41.64936878882531
 21
2.999997438803177
 31
0.0
  0
LINE
  5
34D1
330
3480
100
AcDbEntity
  8
M_0
 62
     5
100
AcDbLine
 10
40.6493697888252
 20
0.0000004388031698
 30
0.0
 11
40.6493697888252
 21
2.999997438803177
 31
0.0
  0
LWPOLYLINE
  5
34D2
330
3480
100
AcDbEntity
  8
M_0
 62
     5
100
AcDbPolyline
 90
        2
 70
     0
 43
0.999999
 10
41.14936928882571
 20
2.999997438803148
 10
41.14936928882571
 20
0.0000004388031698
  0
LINE
  5
34D3
330
3480
100
AcDbEntity
  8
M_0
 62
     5
100
AcDbLine
 10
38.64937178882519
 20
0.0000004388031698
 30
0.0
 11
38.64937178882519
 21
2.999997438803177
 31
0.0
  0
LINE
  5
34D4
330
3480
100
AcDbEntity
  8
M_0
 62
     5
100
AcDbLine
 10
40.6493697888252
 20
0.0000004388031698
 30
0.0
 11
41.64936878882531
 21
0.0000004388031698
 31
0.0
  0
LINE
  5
34D5
330
3480
100
AcDbEntity
  8
M_0
 62
     5
100
AcDbLine
 10
38.64937178882519
 20
4.732046514320984
 30
0.0
 11
38.64937178882519
 21
4.999995438803239
 31
0.0
  0
ARC
  5
34D6
330
3480
100
AcDbEntity
  8
M_0
 62
     5
100
AcDbCircle
 10
39.64937078882531
 20
2.999997438803177
 30
0.0
 40
0.999999
100
AcDbArc
 50
0.0
 51
180.0
  0
LWPOLYLINE
  5
34D7
330
3480
100
AcDbEntity
  8
M_0
 62
     5
100
AcDbPolyline
 90
        2
 70
     0
 43
0.999999
 10
35.98267445552483
 20
0.0000004388031698
 10
35.98267445552483
 20
4.999995438803267
  0
LINE
  5
34D8
330
3480
100
AcDbEntity
  8
M_0
 62
     5
100
AcDbLine
 10
37.64937278882531
 20
0.0000004388031698
 30
0.0
 11
37.64937278882531
 21
4.999995438803239
 31
0.0
  0
LINE
  5
34D9
330
3480
100
AcDbEntity
  8
M_0
 62
     5
100
AcDbLine
 10
36.48267395552512
 20
0.0000004388031698
 30
0.0
 11
36.48267395552512
 21
4.999995438803239
 31
0.0
  0
LINE
  5
34DA
330
3480
100
AcDbEntity
  8
M_0
 62
     5
100
AcDbLine
 10
35.48267495552523
 20
0.0000004388031698
 30
0.0
 11
36.48267395552512
 21
0.0000004388031698
 31
0.0
  0
LINE
  5
34DB
330
3480
100
AcDbEntity
  8
M_0
 62
     5
100
AcDbLine
 10
35.48267495552523
 20
0.0000004388031698
 30
0.0
 11
35.48267495552523
 21
0.4999249427829966
 31
0.0
  0
LINE
  5
34DC
330
3480
100
AcDbEntity
  8
M_0
 62
     5
100
AcDbLine
 10
35.48267495552523
 20
4.999995438803239
 30
0.0
 11
36.48267395552512
 21
4.999995438803239
 31
0.0
  0
LINE
  5
34DD
330
3480
100
AcDbEntity
  8
M_0
 62
     5
100
AcDbLine
 10
35.48267495552523
 20
4.500070934823241
 30
0.0
 11
35.48267495552523
 21
4.999995438803239
 31
0.0
  0
LWPOLYLINE
  5
34DE
330
3480
100
AcDbEntity
  8
M_0
 62
     5
100
AcDbPolyline
 90
        2
 70
     0
 43
0.999999
 10
38.14937228882559
 20
0.0000004388032835
 10
38.14937228882559
 20
4.999995438803267
  0
LINE
  5
34DF
330
3480
100
AcDbEntity
  8
M_0
 62
     5
100
AcDbLine
 10
37.64937278882531
 20
0.0000004388032551
 30
0.0
 11
38.64937178882519
 21
0.0000004388032551
 31
0.0
  0
LINE
  5
34E0
330
3480
100
AcDbEntity
  8
M_0
 62
     5
100
AcDbLine
 10
37.64937278882531
 20
4.999995438803239
 30
0.0
 11
38.64937178882519
 21
4.999995438803239
 31
0.0
  0
LWPOLYLINE
  5
34E1
330
3480
100
AcDbEntity
  8
M_0
 62
     5
100
AcDbPolyline
 90
        2
 70
     0
 43
0.999999
 10
38.14937228882559
 20
2.999997438803148
 42
-1.0
 10
41.14936928882571
 20
2.999997438803148
 42
-0.0000000000000001
  0
ENDBLK
  5
34E2
330
3480
100
AcDbEntity
  8
0
100
AcDbBlockEnd
  0
BLOCK
  5
34E4
330
34E3
100
AcDbEntity
  8
0
100
AcDbBlockBegin
  2
A$C0AED3F82
 70
     0
 10
0.0
 20
0.0
 30
0.0
  3
A$C0AED3F82
  1

  0
LINE
  5
34E5
330
34E3
100
AcDbEntity
  8
M_0
 62
     5
100
AcDbLine
 10
11.09998897711853
 20
8.249992188803162
 30
0.0
 11
11.09998897711853
 21
0.0000004388031698
 31
0.0
  0
LINE
  5
34E6
330
34E3
100
AcDbEntity
  8
M_0
 62
     5
100
AcDbLine
 10
9.869990207118689
 20
7.589992848803149
 30
0.0
 11
9.869990207118689
 21
0.0000004388031698
 31
0.0
  0
LINE
  5
34E7
330
34E3
100
AcDbEntity
  8
M_0
 62
     5
100
AcDbLine
 10
10.22998984711853
 20
8.249992188803162
 30
0.0
 11
10.22998984711853
 21
0.0000004388031698
 31
0.0
  0
SOLID
  5
34E8
330
34E3
100
AcDbEntity
  8
M_0
 62
     5
100
AcDbTrace
 10
5.369994707118848
 20
7.589992848803149
 30
0.0
 11
4.499995577118625
 21
4.399996038803095
 31
0.0
 12
5.369994707118848
 22
0.0000004388031698
 32
0.0
 13
4.499995577118625
 23
0.0000004388031698
 33
0.0
  0
LINE
  5
34E9
330
34E3
100
AcDbEntity
  8
M_0
 62
     5
100
AcDbLine
 10
5.369994707118848
 20
7.589992848803149
 30
0.0
 11
5.369994707118848
 21
0.0000004388031698
 31
0.0
  0
LINE
  5
34EA
330
34E3
100
AcDbEntity
  8
M_0
 62
     5
100
AcDbLine
 10
5.729994347118463
 20
8.249992188803162
 30
0.0
 11
5.729994347118463
 21
0.6599997788030976
 31
0.0
  0
SOLID
  5
34EB
330
34E3
100
AcDbEntity
  8
M_0
 62
     5
100
AcDbTrace
 10
6.599993477118459
 20
8.249992188803162
 30
0.0
 11
6.599993477118459
 21
3.849996588803151
 31
0.0
 12
5.729994347118463
 22
8.249992188803162
 32
0.0
 13
5.729994347118463
 23
0.6599997788030976
 33
0.0
  0
LINE
  5
34EC
330
34E3
100
AcDbEntity
  8
M_0
 62
     5
100
AcDbLine
 10
1.229998847118395
 20
0.0000004388031698
 30
0.0
 11
5.369994707118848
 21
7.589992848803149
 31
0.0
  0
SOLID
  5
34ED
330
34E3
100
AcDbEntity
  8
M_0
 62
     5
100
AcDbTrace
 10
5.369994707118848
 20
7.589992848803149
 30
0.0
 11
4.499995577118625
 21
4.399996038803095
 31
0.0
 12
1.229998847118395
 22
0.0000004388031698
 32
0.0
 13
2.099997977118619
 23
0.0000004388031698
 33
0.0
  0
SOLID
  5
34EE
330
34E3
100
AcDbEntity
  8
M_0
 62
     5
100
AcDbTrace
 10
9.869990207118689
 20
7.589992848803149
 30
0.0
 11
8.999991077118693
 21
4.399996038803095
 31
0.0
 12
9.869990207118689
 22
0.0000004388031698
 32
0.0
 13
8.999991077118693
 23
0.0000004388031698
 33
0.0
  0
LINE
  5
34EF
330
34E3
100
AcDbEntity
  8
M_0
 62
     5
100
AcDbLine
 10
5.729994347118463
 20
0.0000004388031698
 30
0.0
 11
9.869990207118689
 21
7.589992848803149
 31
0.0
  0
LINE
  5
34F0
330
34E3
100
AcDbEntity
  8
M_0
 62
     5
100
AcDbLine
 10
5.729994347118463
 20
0.6599997788030976
 30
0.0
 11
9.869990207118689
 21
8.249992188803162
 31
0.0
  0
SOLID
  5
34F1
330
34E3
100
AcDbEntity
  8
M_0
 62
     5
100
AcDbTrace
 10
8.999991077118693
 20
8.249992188803162
 30
0.0
 11
6.599993477118459
 21
3.849996588803151
 31
0.0
 12
9.869990207118689
 22
8.249992188803162
 32
0.0
 13
5.729994347118463
 23
0.6599997788030976
 33
0.0
  0
SOLID
  5
34F2
330
34E3
100
AcDbEntity
  8
M_0
 62
     5
100
AcDbTrace
 10
9.869990207118689
 20
7.589992848803149
 30
0.0
 11
8.999991077118693
 21
4.399996038803095
 31
0.0
 12
5.729994347118463
 22
0.0000004388031698
 32
0.0
 13
6.599993477118459
 23
0.0000004388031698
 33
0.0
  0
LINE
  5
34F3
330
34E3
100
AcDbEntity
  8
M_0
 62
     5
100
AcDbLine
 10
0.8699992071187807
 20
0.0000004388031698
 30
0.0
 11
5.369994707118848
 21
8.249992188803162
 31
0.0
  0
SOLID
  5
34F4
330
34E3
100
AcDbEntity
  8
M_0
 62
     5
100
AcDbTrace
 10
5.369994707118848
 20
8.249992188803162
 30
0.0
 11
4.499995577118625
 21
8.249992188803162
 31
0.0
 12
0.8699992071187807
 22
0.0000004388031698
 32
0.0
 13
0.0000000771185569
 23
0.0000004388031698
 33
0.0
  0
LINE
  5
34F5
330
34E3
100
AcDbEntity
  8
M_0
 62
     5
100
AcDbLine
 10
0.0000000771185569
 20
0.0000004388031698
 30
0.0
 11
4.499995577118625
 21
8.249992188803162
 31
0.0
  0
SOLID
  5
34F6
330
34E3
100
AcDbEntity
  8
M_0
 62
     5
100
AcDbTrace
 10
11.09998897711853
 20
8.249992188803162
 30
0.0
 11
11.09998897711853
 21
0.0000004388031698
 31
0.0
 12
10.22998984711853
 22
8.249992188803162
 32
0.0
 13
10.22998984711853
 23
0.0000004388031698
 33
0.0
  0
LINE
  5
34F7
330
34E3
100
AcDbEntity
  8
M_0
 62
     5
100
AcDbLine
 10
6.599993477118459
 20
8.249992188803162
 30
0.0
 11
6.599993477118459
 21
3.849996588803151
 31
0.0
  0
LINE
  5
34F8
330
34E3
100
AcDbEntity
  8
M_0
 62
     5
100
AcDbLine
 10
6.599993477118459
 20
3.849996588803151
 30
0.0
 11
8.999991077118693
 21
8.249992188803162
 31
0.0
  0
LINE
  5
34F9
330
34E3
100
AcDbEntity
  8
M_0
 62
     5
100
AcDbLine
 10
6.599993477118459
 20
0.0000004388031698
 30
0.0
 11
8.999991077118693
 21
4.399996038803095
 31
0.0
  0
LINE
  5
34FA
330
34E3
100
AcDbEntity
  8
M_0
 62
     5
100
AcDbLine
 10
5.729994347118463
 20
0.0000004388031698
 30
0.0
 11
6.599993477118459
 21
0.0000004388031698
 31
0.0
  0
LINE
  5
34FB
330
34E3
100
AcDbEntity
  8
M_0
 62
     5
100
AcDbLine
 10
2.099997977118619
 20
0.0000004388031698
 30
0.0
 11
4.499995577118625
 21
4.399996038803095
 31
0.0
  0
LINE
  5
34FC
330
34E3
100
AcDbEntity
  8
M_0
 62
     5
100
AcDbLine
 10
4.499995577118625
 20
4.399996038803095
 30
0.0
 11
4.499995577118625
 21
0.0000004388031698
 31
0.0
  0
LINE
  5
34FD
330
34E3
100
AcDbEntity
  8
M_0
 62
     5
100
AcDbLine
 10
1.229998847118395
 20
0.0000004388031698
 30
0.0
 11
2.099997977118619
 21
0.0000004388031698
 31
0.0
  0
LINE
  5
34FE
330
34E3
100
AcDbEntity
  8
M_0
 62
     5
100
AcDbLine
 10
0.0000000771185569
 20
0.0000004388031698
 30
0.0
 11
0.8699992071187807
 21
0.0000004388031698
 31
0.0
  0
LINE
  5
34FF
330
34E3
100
AcDbEntity
  8
M_0
 62
     5
100
AcDbLine
 10
4.499995577118625
 20
0.0000004388031698
 30
0.0
 11
5.369994707118848
 21
0.0000004388031698
 31
0.0
  0
LINE
  5
3500
330
34E3
100
AcDbEntity
  8
M_0
 62
     5
100
AcDbLine
 10
8.999991077118693
 20
4.399996038803095
 30
0.0
 11
8.999991077118693
 21
0.0000004388031698
 31
0.0
  0
LINE
  5
3501
330
34E3
100
AcDbEntity
  8
M_0
 62
     5
100
AcDbLine
 10
8.999991077118693
 20
0.0000004388031698
 30
0.0
 11
9.869990207118689
 21
0.0000004388031698
 31
0.0
  0
LINE
  5
3502
330
34E3
100
AcDbEntity
  8
M_0
 62
     5
100
AcDbLine
 10
10.22998984711853
 20
0.0000004388031698
 30
0.0
 11
11.09998897711853
 21
0.0000004388031698
 31
0.0
  0
LINE
  5
3503
330
34E3
100
AcDbEntity
  8
M_0
 62
     5
100
AcDbLine
 10
5.729994347118463
 20
8.249992188803162
 30
0.0
 11
6.599993477118459
 21
8.249992188803162
 31
0.0
  0
LINE
  5
3504
330
34E3
100
AcDbEntity
  8
M_0
 62
     5
100
AcDbLine
 10
4.499995577118625
 20
8.249992188803162
 30
0.0
 11
5.369994707118848
 21
8.249992188803162
 31
0.0
  0
LINE
  5
3505
330
34E3
100
AcDbEntity
  8
M_0
 62
     5
100
AcDbLine
 10
8.999991077118693
 20
8.249992188803162
 30
0.0
 11
9.869990207118689
 21
8.249992188803162
 31
0.0
  0
LINE
  5
3506
330
34E3
100
AcDbEntity
  8
M_0
 62
     5
100
AcDbLine
 10
10.22998984711853
 20
8.249992188803162
 30
0.0
 11
11.09998897711853
 21
8.249992188803162
 31
0.0
  0
ENDBLK
  5
3507
330
34E3
100
AcDbEntity
  8
0
100
AcDbBlockEnd
  0
BLOCK
  5
3509
330
3508
100
AcDbEntity
  8
0
100
AcDbBlockBegin
  2
A$C3F2B26CD
 70
     0
 10
0.0
 20
0.0
 30
0.0
  3
A$C3F2B26CD
  1

  0
LINE
  5
350A
330
3508
100
AcDbEntity
  8
M_0
 62
     5
100
AcDbLine
 10
-8.950000000000045
 20
13.75
 30
0.0
 11
-7.5
 21
13.75000000000005
 31
0.0
  0
LWPOLYLINE
  5
350B
330
3508
100
AcDbEntity
  8
M_0
 62
     5
100
AcDbPolyline
 90
        2
 70
     0
 43
0.5
 10
-7.416699999999991
 20
-2.74191022050968
 42
1.0
 10
-8.916699999999991
 20
-2.74191022050968
 42
1.0
  0
LINE
  5
350C
330
3508
100
AcDbEntity
  8
M_0
 62
     5
100
AcDbLine
 10
-9.166699999999991
 20
-1.741910220509623
 30
0.0
 11
-8.666699999999991
 21
-1.741910220509623
 31
0.0
  0
LINE
  5
350D
330
3508
100
AcDbEntity
  8
M_0
 62
     5
100
AcDbLine
 10
-9.166699999999991
 20
-2.74191022050968
 30
0.0
 11
-8.666699999999991
 21
-2.74191022050968
 31
0.0
  0
LINE
  5
350E
330
3508
100
AcDbEntity
  8
M_0
 62
     5
100
AcDbLine
 10
-8.950000000000045
 20
0.0000000000000568
 30
0.0
 11
-7.5
 21
0.0000000000000568
 31
0.0
  0
LINE
  5
350F
330
3508
100
AcDbEntity
  8
M_0
 62
     5
100
AcDbLine
 10
-9.166699999999991
 20
-4.241910220509623
 30
0.0
 11
-8.666699999999991
 21
-4.241910220509623
 31
0.0
  0
LWPOLYLINE
  5
3510
330
3508
100
AcDbEntity
  8
M_0
 62
     5
100
AcDbPolyline
 90
        2
 70
     0
 43
0.5
 10
-8.916699999999991
 20
-4.241910220509623
 10
-8.916699999999991
 20
-1.741910220509623
  0
SOLID
  5
3511
330
3508
100
AcDbEntity
  8
M_0
 62
     5
100
AcDbTrace
 10
-2.049999999999954
 20
12.65000000000009
 30
0.0
 11
-3.5
 21
7.333333333333371
 31
0.0
 12
-8.950000000000045
 22
0.0
 32
0.0
 13
-7.5
 23
0.0000000000000568
 33
0.0
  0
SOLID
  5
3512
330
3508
100
AcDbEntity
  8
M_0
 62
     5
100
AcDbTrace
 10
-3.5
 20
13.75000000000005
 30
0.0
 11
-7.5
 21
6.416666666666742
 31
0.0
 12
-2.049999999999954
 22
13.75000000000005
 32
0.0
 13
-8.950000000000045
 23
1.100000000000022
 33
0.0
  0
SOLID
  5
3513
330
3508
100
AcDbEntity
  8
M_0
 62
     5
100
AcDbTrace
 10
-7.5
 20
13.75000000000005
 30
0.0
 11
-7.5
 21
6.416666666666742
 31
0.0
 12
-8.950000000000045
 22
13.75
 32
0.0
 13
-8.950000000000045
 23
1.100000000000022
 33
0.0
  0
LINE
  5
3514
330
3508
100
AcDbEntity
  8
M_0
 62
     5
100
AcDbLine
 10
-8.950000000000045
 20
1.100000000000022
 30
0.0
 11
-2.049999999999954
 21
13.75000000000005
 31
0.0
  0
LINE
  5
3515
330
3508
100
AcDbEntity
  8
M_0
 62
     5
100
AcDbLine
 10
-8.950000000000045
 20
0.0000000000000568
 30
0.0
 11
-2.049999999999954
 21
12.65000000000009
 31
0.0
  0
SOLID
  5
3516
330
3508
100
AcDbEntity
  8
M_0
 62
     5
100
AcDbTrace
 10
-9.549999999999954
 20
12.65000000000003
 30
0.0
 11
-11.0
 21
7.333333333333371
 31
0.0
 12
-9.549999999999954
 22
0.0
 32
0.0
 13
-11.0
 23
0.0000000000000568
 33
0.0
  0
SOLID
  5
3517
330
3508
100
AcDbEntity
  8
M_0
 62
     5
100
AcDbTrace
 10
-9.549999999999954
 20
12.65000000000009
 30
0.0
 11
-11.0
 21
7.333333333333371
 31
0.0
 12
-16.45000000000004
 22
0.0000000000000568
 32
0.0
 13
-15.0
 23
0.0000000000000568
 33
0.0
  0
SOLID
  5
3518
330
3508
100
AcDbEntity
  8
M_0
 62
     5
100
AcDbTrace
 10
-9.549999999999954
 20
13.75
 30
0.0
 11
-11.0
 21
13.75
 31
0.0
 12
-17.04999999999995
 22
0.0
 32
0.0
 13
-18.5
 23
0.0000000000000568
 33
0.0
  0
LINE
  5
3519
330
3508
100
AcDbEntity
  8
M_0
 62
     5
100
AcDbLine
 10
-16.45000000000004
 20
0.0000000000000568
 30
0.0
 11
-9.549999999999954
 21
12.65000000000003
 31
0.0
  0
LINE
  5
351A
330
3508
100
AcDbEntity
  8
M_0
 62
     5
100
AcDbLine
 10
-17.04999999999995
 20
0.0
 30
0.0
 11
-9.549999999999954
 21
13.75
 31
0.0
  0
LINE
  5
351B
330
3508
100
AcDbEntity
  8
M_0
 62
     5
100
AcDbLine
 10
-18.5
 20
0.0000000000000568
 30
0.0
 11
-11.0
 21
13.75000000000005
 31
0.0
  0
LINE
  5
351C
330
3508
100
AcDbEntity
  8
M_0
 62
     5
100
AcDbLine
 10
-8.950000000000045
 20
13.75
 30
0.0
 11
-8.950000000000045
 21
1.100000000000022
 31
0.0
  0
LINE
  5
351D
330
3508
100
AcDbEntity
  8
M_0
 62
     5
100
AcDbLine
 10
-9.549999999999954
 20
12.65000000000003
 30
0.0
 11
-9.549999999999954
 21
0.0000000000000568
 31
0.0
  0
LINE
  5
351E
330
3508
100
AcDbEntity
  8
M_0
 62
     5
100
AcDbLine
 10
-17.00862774977668
 20
-1.741910220509623
 30
0.0
 11
-16.50862774977668
 21
-1.741910220509623
 31
0.0
  0
SOLID
  5
351F
330
3508
100
AcDbEntity
  8
M_0
 62
     5
100
AcDbTrace
 10
-16.50862774977668
 20
-1.741910220509623
 30
0.0
 11
-16.50862774977668
 21
-4.241910220509623
 31
0.0
 12
-17.00862774977668
 22
-1.741910220509623
 32
0.0
 13
-17.00862774977668
 23
-4.241910220509623
 33
0.0
  0
LINE
  5
3520
330
3508
100
AcDbEntity
  8
M_0
 62
     5
100
AcDbLine
 10
-18.91666666666674
 20
-1.741910220509566
 30
0.0
 11
-18.41666666666674
 21
-1.741910220509566
 31
0.0
  0
LINE
  5
3521
330
3508
100
AcDbEntity
  8
M_0
 62
     5
100
AcDbLine
 10
-18.5
 20
0.0000000000000568
 30
0.0
 11
-17.04999999999995
 21
0.0
 31
0.0
  0
SOLID
  5
3522
330
3508
100
AcDbEntity
  8
M_0
 62
     5
100
AcDbTrace
 10
-17.00862774977668
 20
-1.741910220509623
 30
0.0
 11
-17.00862774977668
 21
-2.397033126512724
 31
0.0
 12
-18.91666666666674
 22
-4.241910220509623
 32
0.0
 13
-18.41666666666674
 23
-4.241910220509623
 33
0.0
  0
SOLID
  5
3523
330
3508
100
AcDbEntity
  8
M_0
 62
     5
100
AcDbTrace
 10
-18.41666666666674
 20
-1.741910220509566
 30
0.0
 11
-18.41666666666674
 21
-3.586787314506523
 31
0.0
 12
-18.91666666666674
 22
-1.741910220509566
 32
0.0
 13
-18.91666666666674
 23
-4.241910220509623
 33
0.0
  0
SOLID
  5
3524
330
3508
100
AcDbEntity
  8
M_0
 62
     5
100
AcDbTrace
 10
-18.91666666666674
 20
-1.741910220509566
 30
0.0
 11
-18.91666666666674
 21
-2.397033126512724
 31
0.0
 12
-20.82470558355658
 22
-4.241910220509623
 32
0.0
 13
-20.32470558355658
 23
-4.241910220509623
 33
0.0
  0
LINE
  5
3525
330
3508
100
AcDbEntity
  8
M_0
 62
     5
100
AcDbLine
 10
-20.82470558355658
 20
-4.241910220509623
 30
0.0
 11
-18.91666666666674
 21
-1.741910220509623
 31
0.0
  0
LINE
  5
3526
330
3508
100
AcDbEntity
  8
M_0
 62
     5
100
AcDbLine
 10
-18.41666666666674
 20
-3.586787314506523
 30
0.0
 11
-17.00862774977668
 21
-1.741910220509623
 31
0.0
  0
LINE
  5
3527
330
3508
100
AcDbEntity
  8
M_0
 62
     5
100
AcDbLine
 10
-18.41666666666674
 20
-1.741910220509566
 30
0.0
 11
-18.41666666666674
 21
-3.586787314506523
 31
0.0
  0
LINE
  5
3528
330
3508
100
AcDbEntity
  8
M_0
 62
     5
100
AcDbLine
 10
-11.0
 20
7.333333333333371
 30
0.0
 11
-11.0
 21
0.0
 31
0.0
  0
LINE
  5
3529
330
3508
100
AcDbEntity
  8
M_0
 62
     5
100
AcDbLine
 10
-15.0
 20
0.0000000000000568
 30
0.0
 11
-11.0
 21
7.333333333333371
 31
0.0
  0
LWPOLYLINE
  5
352A
330
3508
100
AcDbEntity
  8
M_0
 62
     5
100
AcDbPolyline
 90
        2
 70
     0
 43
0.5
 10
-13.08339999999998
 20
-4.241910220509566
 10
-13.08339999999998
 20
-2.741910220509623
  0
LINE
  5
352B
330
3508
100
AcDbEntity
  8
M_0
 62
     5
100
AcDbLine
 10
-13.33339999999998
 20
-2.741910220509623
 30
0.0
 11
-12.83339999999998
 21
-2.741910220509623
 31
0.0
  0
ARC
  5
352C
330
3508
100
AcDbEntity
  8
M_0
 62
     5
100
AcDbCircle
 10
-13.83339999999998
 20
-2.741910220509623
 30
0.0
 40
1.0
100
AcDbArc
 50
0.0
 51
120.0000000000033
  0
LWPOLYLINE
  5
352D
330
3508
100
AcDbEntity
  8
M_0
 62
     5
100
AcDbPolyline
 90
        2
 70
     0
 43
0.5
 10
-14.58339999999998
 20
-2.741910220509623
 42
-1.0
 10
-13.08339999999998
 20
-2.741910220509623
 42
-0.0000000000000001
  0
LINE
  5
352E
330
3508
100
AcDbEntity
  8
M_0
 62
     5
100
AcDbLine
 10
-14.33339999999998
 20
-1.875884816725317
 30
0.0
 11
-14.33339999999998
 21
-1.741910220509566
 31
0.0
  0
SOLID
  5
352F
330
3508
100
AcDbEntity
  8
M_0
 62
     5
100
AcDbTrace
 10
-15.41675000000009
 20
-0.9919102205096237
 30
0.0
 11
-15.41675000000009
 21
-1.391910220509657
 31
0.0
 12
-15.91675000000009
 22
-0.9919102205096237
 32
0.0
 13
-15.91675000000009
 23
-1.391910220509657
 33
0.0
  0
LINE
  5
3530
330
3508
100
AcDbEntity
  8
M_0
 62
     5
100
AcDbLine
 10
-15.91675000000009
 20
-1.391910220509657
 30
0.0
 11
-15.41675000000009
 21
-1.391910220509657
 31
0.0
  0
LINE
  5
3531
330
3508
100
AcDbEntity
  8
M_0
 62
     5
100
AcDbLine
 10
-15.41675000000009
 20
-1.391910220509657
 30
0.0
 11
-15.41675000000009
 21
-0.9919102205096237
 31
0.0
  0
LINE
  5
3532
330
3508
100
AcDbEntity
  8
M_0
 62
     5
100
AcDbLine
 10
-15.91675000000009
 20
-1.391910220509657
 30
0.0
 11
-15.91675000000009
 21
-0.9919102205096237
 31
0.0
  0
LINE
  5
3533
330
3508
100
AcDbEntity
  8
M_0
 62
     5
100
AcDbLine
 10
-15.91675000000009
 20
-0.9919102205096237
 30
0.0
 11
-15.41675000000009
 21
-0.9919102205096237
 31
0.0
  0
LINE
  5
3534
330
3508
100
AcDbEntity
  8
M_0
 62
     5
100
AcDbLine
 10
-15.91675000000009
 20
-1.741910220509623
 30
0.0
 11
-15.41675000000009
 21
-1.741910220509623
 31
0.0
  0
LINE
  5
3535
330
3508
100
AcDbEntity
  8
M_0
 62
     5
100
AcDbLine
 10
-16.45000000000004
 20
0.0000000000000568
 30
0.0
 11
-15.0
 21
0.0000000000000568
 31
0.0
  0
SOLID
  5
3536
330
3508
100
AcDbEntity
  8
M_0
 62
     5
100
AcDbTrace
 10
-15.41675000000009
 20
-1.741910220509623
 30
0.0
 11
-15.41675000000009
 21
-4.241910220509623
 31
0.0
 12
-15.91675000000009
 22
-1.741910220509623
 32
0.0
 13
-15.91675000000009
 23
-4.241910220509623
 33
0.0
  0
LINE
  5
3537
330
3508
100
AcDbEntity
  8
M_0
 62
     5
100
AcDbLine
 10
-14.83339999999998
 20
-4.241910220509623
 30
0.0
 11
-14.83339999999998
 21
-1.741910220509566
 31
0.0
  0
LINE
  5
3538
330
3508
100
AcDbEntity
  8
M_0
 62
     5
100
AcDbLine
 10
-15.41675000000009
 20
-4.24191022050968
 30
0.0
 11
-15.41675000000009
 21
-1.741910220509623
 31
0.0
  0
LINE
  5
3539
330
3508
100
AcDbEntity
  8
M_0
 62
     5
100
AcDbLine
 10
-15.91675000000009
 20
-4.24191022050968
 30
0.0
 11
-15.91675000000009
 21
-1.741910220509623
 31
0.0
  0
LINE
  5
353A
330
3508
100
AcDbEntity
  8
M_0
 62
     5
100
AcDbLine
 10
-16.50862774977668
 20
-4.241910220509623
 30
0.0
 11
-16.50862774977668
 21
-1.741910220509623
 31
0.0
  0
LINE
  5
353B
330
3508
100
AcDbEntity
  8
M_0
 62
     5
100
AcDbLine
 10
-14.83339999999998
 20
-1.741910220509566
 30
0.0
 11
-14.33339999999998
 21
-1.741910220509566
 31
0.0
  0
LWPOLYLINE
  5
353C
330
3508
100
AcDbEntity
  8
M_0
 62
     5
100
AcDbPolyline
 90
        2
 70
     0
 43
0.5
 10
-14.58339999999998
 20
-4.241910220509566
 10
-14.58339999999998
 20
-1.741910220509566
  0
LINE
  5
353D
330
3508
100
AcDbEntity
  8
M_0
 62
     5
100
AcDbLine
 10
-10.25004999999987
 20
-0.9919102205096237
 30
0.0
 11
-9.750049999999873
 21
-0.9919102205096237
 31
0.0
  0
LINE
  5
353E
330
3508
100
AcDbEntity
  8
M_0
 62
     5
100
AcDbLine
 10
-10.25004999999987
 20
-1.991872722462062
 30
0.0
 11
-10.25004999999987
 21
-0.9919102205096237
 31
0.0
  0
LINE
  5
353F
330
3508
100
AcDbEntity
  8
M_0
 62
     5
100
AcDbLine
 10
-11.0
 20
0.0000000000000568
 30
0.0
 11
-9.549999999999954
 21
0.0000000000000568
 31
0.0
  0
LINE
  5
3540
330
3508
100
AcDbEntity
  8
M_0
 62
     5
100
AcDbLine
 10
-10.25004999999987
 20
-4.241910220509623
 30
0.0
 11
-9.750049999999873
 21
-4.241910220509623
 31
0.0
  0
LINE
  5
3541
330
3508
100
AcDbEntity
  8
M_0
 62
     5
100
AcDbLine
 10
-10.25004999999987
 20
-4.241910220509623
 30
0.0
 11
-10.25004999999987
 21
-3.991947718557184
 31
0.0
  0
CIRCLE
  5
3542
330
3508
100
AcDbEntity
  8
M_0
 62
     5
100
AcDbCircle
 10
-11.0
 20
-2.991910220509623
 30
0.0
 40
0.75
  0
LWPOLYLINE
  5
3543
330
3508
100
AcDbEntity
  8
M_0
 62
     5
100
AcDbPolyline
 90
        2
 70
     0
 43
0.5
 10
-10.00004999999987
 20
-4.241910220509623
 10
-10.00004999999987
 20
-0.9919102205096237
  0
LWPOLYLINE
  5
3544
330
3508
100
AcDbEntity
  8
M_0
 62
     5
100
AcDbPolyline
 90
        2
 70
     1
 43
0.5
 10
-12.0
 20
-2.991910220509623
 42
1.0
 10
-10.0
 20
-2.991910220509623
 42
1.0
  0
ARC
  5
3545
330
3508
100
AcDbEntity
  8
M_0
 62
     5
100
AcDbCircle
 10
-11.0
 20
-2.991910220509623
 30
0.0
 40
1.25
100
AcDbArc
 50
53.1329670894371
 51
306.8670329105629
  0
LINE
  5
3546
330
3508
100
AcDbEntity
  8
M_0
 62
     5
100
AcDbLine
 10
-9.750049999999873
 20
-4.241910220509623
 30
0.0
 11
-9.750049999999873
 21
-0.9919102205096237
 31
0.0
  0
LINE
  5
3547
330
3508
100
AcDbEntity
  8
M_0
 62
     5
100
AcDbLine
 10
-9.166699999999991
 20
-4.241910220509623
 30
0.0
 11
-9.166699999999991
 21
-1.741910220509623
 31
0.0
  0
LINE
  5
3548
330
3508
100
AcDbEntity
  8
M_0
 62
     5
100
AcDbLine
 10
-11.0
 20
13.75000000000005
 30
0.0
 11
-9.549999999999954
 21
13.75
 31
0.0
  0
SOLID
  5
3549
330
3508
100
AcDbEntity
  8
M_0
 62
     5
100
AcDbTrace
 10
0.0
 20
13.75
 30
0.0
 11
0.0
 21
0.0
 31
0.0
 12
-1.450000000000045
 22
13.75
 32
0.0
 13
-1.450000000000045
 23
0.0000000000000568
 33
0.0
  0
SOLID
  5
354A
330
3508
100
AcDbEntity
  8
M_0
 62
     5
100
AcDbTrace
 10
-2.049999999999954
 20
12.65000000000009
 30
0.0
 11
-3.5
 21
7.333333333333371
 31
0.0
 12
-2.049999999999954
 22
0.0
 32
0.0
 13
-3.5
 23
0.0000000000000568
 33
0.0
  0
LINE
  5
354B
330
3508
100
AcDbEntity
  8
M_0
 62
     5
100
AcDbLine
 10
0.0
 20
13.75000000000005
 30
0.0
 11
0.0
 21
0.0
 31
0.0
  0
LINE
  5
354C
330
3508
100
AcDbEntity
  8
M_0
 62
     5
100
AcDbLine
 10
-1.450000000000045
 20
13.75
 30
0.0
 11
-1.450000000000045
 21
0.0
 31
0.0
  0
LINE
  5
354D
330
3508
100
AcDbEntity
  8
M_0
 62
     5
100
AcDbLine
 10
-7.5
 20
6.416666666666742
 30
0.0
 11
-3.5
 21
13.75000000000005
 31
0.0
  0
LINE
  5
354E
330
3508
100
AcDbEntity
  8
M_0
 62
     5
100
AcDbLine
 10
-2.049999999999954
 20
12.65000000000009
 30
0.0
 11
-2.049999999999954
 21
0.0
 31
0.0
  0
LINE
  5
354F
330
3508
100
AcDbEntity
  8
M_0
 62
     5
100
AcDbLine
 10
-7.5
 20
13.75000000000005
 30
0.0
 11
-7.5
 21
6.416666666666742
 31
0.0
  0
ARC
  5
3550
330
3508
100
AcDbEntity
  8
M_0
 62
     5
100
AcDbCircle
 10
-1.0
 20
-2.741910220509623
 30
0.0
 40
0.5
100
AcDbArc
 50
0.0
 51
180.0
  0
LWPOLYLINE
  5
3551
330
3508
100
AcDbEntity
  8
M_0
 62
     5
100
AcDbPolyline
 90
        2
 70
     0
 43
0.5
 10
-1.75
 20
-2.741910220509623
 42
-1.0
 10
-0.25
 20
-2.741910220509623
 42
-0.0000000000000001
  0
ARC
  5
3552
330
3508
100
AcDbEntity
  8
M_0
 62
     5
100
AcDbCircle
 10
-1.0
 20
-2.741910220509623
 30
0.0
 40
1.0
100
AcDbArc
 50
0.0
 51
120.0000000000033
  0
LINE
  5
3553
330
3508
100
AcDbEntity
  8
M_0
 62
     5
100
AcDbLine
 10
-1.450000000000045
 20
0.0
 30
0.0
 11
0.0
 21
0.0
 31
0.0
  0
LINE
  5
3554
330
3508
100
AcDbEntity
  8
M_0
 62
     5
100
AcDbLine
 10
-3.5
 20
7.333333333333371
 30
0.0
 11
-3.5
 21
0.0
 31
0.0
  0
LINE
  5
3555
330
3508
100
AcDbEntity
  8
M_0
 62
     5
100
AcDbLine
 10
-7.5
 20
0.0000000000000568
 30
0.0
 11
-3.5
 21
7.333333333333371
 31
0.0
  0
LWPOLYLINE
  5
3556
330
3508
100
AcDbEntity
  8
M_0
 62
     5
100
AcDbPolyline
 90
        2
 70
     1
 43
0.5
 10
-4.833300000000008
 20
-2.991910220509623
 42
1.0
 10
-2.833300000000008
 20
-2.991910220509623
 42
1.0
  0
ARC
  5
3557
330
3508
100
AcDbEntity
  8
M_0
 62
     5
100
AcDbCircle
 10
-3.833300000000008
 20
-2.991910220509623
 30
0.0
 40
1.25
100
AcDbArc
 50
53.1329670894371
 51
306.8670329105629
  0
LINE
  5
3558
330
3508
100
AcDbEntity
  8
M_0
 62
     5
100
AcDbLine
 10
-6.166699999999991
 20
-2.74191022050968
 30
0.0
 11
-5.666699999999991
 21
-2.74191022050968
 31
0.0
  0
LINE
  5
3559
330
3508
100
AcDbEntity
  8
M_0
 62
     5
100
AcDbLine
 10
-6.166699999999991
 20
-4.24191022050968
 30
0.0
 11
-5.666699999999991
 21
-4.24191022050968
 31
0.0
  0
LWPOLYLINE
  5
355A
330
3508
100
AcDbEntity
  8
M_0
 62
     5
100
AcDbPolyline
 90
        2
 70
     0
 43
0.5
 10
-5.916699999999991
 20
-4.24191022050968
 10
-5.916699999999991
 20
-2.74191022050968
  0
LINE
  5
355B
330
3508
100
AcDbEntity
  8
M_0
 62
     5
100
AcDbLine
 10
-6.166699999999991
 20
-4.24191022050968
 30
0.0
 11
-6.166699999999991
 21
-2.74191022050968
 31
0.0
  0
LINE
  5
355C
330
3508
100
AcDbEntity
  8
M_0
 62
     5
100
AcDbLine
 10
-5.666699999999991
 20
-4.24191022050968
 30
0.0
 11
-5.666699999999991
 21
-2.74191022050968
 31
0.0
  0
ARC
  5
355D
330
3508
100
AcDbEntity
  8
M_0
 62
     5
100
AcDbCircle
 10
-8.166699999999991
 20
-2.74191022050968
 30
0.0
 40
1.0
100
AcDbArc
 50
41.40962210926974
 51
120.0000000000033
  0
LINE
  5
355E
330
3508
100
AcDbEntity
  8
M_0
 62
     5
100
AcDbLine
 10
-7.666699999999991
 20
-2.74191022050968
 30
0.0
 11
-7.166699999999991
 21
-2.74191022050968
 31
0.0
  0
LINE
  5
355F
330
3508
100
AcDbEntity
  8
M_0
 62
     5
100
AcDbLine
 10
-8.666699999999991
 20
-1.875884816725374
 30
0.0
 11
-8.666699999999991
 21
-1.741910220509623
 31
0.0
  0
ARC
  5
3560
330
3508
100
AcDbEntity
  8
M_0
 62
     5
100
AcDbCircle
 10
-8.166699999999991
 20
-2.74191022050968
 30
0.0
 40
0.5
100
AcDbArc
 50
0.0
 51
180.0
  0
LINE
  5
3561
330
3508
100
AcDbEntity
  8
M_0
 62
     5
100
AcDbLine
 10
-7.666699999999991
 20
-4.241910220509623
 30
0.0
 11
-7.166699999999991
 21
-4.241910220509623
 31
0.0
  0
LWPOLYLINE
  5
3562
330
3508
100
AcDbEntity
  8
M_0
 62
     5
100
AcDbPolyline
 90
        2
 70
     0
 43
0.5
 10
-7.416699999999991
 20
-4.241910220509623
 10
-7.416699999999991
 20
-2.74191022050968
  0
LINE
  5
3563
330
3508
100
AcDbEntity
  8
M_0
 62
     5
100
AcDbLine
 10
-7.666699999999991
 20
-4.241910220509623
 30
0.0
 11
-7.666699999999991
 21
-2.74191022050968
 31
0.0
  0
LINE
  5
3564
330
3508
100
AcDbEntity
  8
M_0
 62
     5
100
AcDbLine
 10
-8.666699999999991
 20
-4.241910220509623
 30
0.0
 11
-8.666699999999991
 21
-2.74191022050968
 31
0.0
  0
LINE
  5
3565
330
3508
100
AcDbEntity
  8
M_0
 62
     5
100
AcDbLine
 10
-7.166699999999991
 20
-4.241910220509623
 30
0.0
 11
-7.166699999999991
 21
-2.74191022050968
 31
0.0
  0
LWPOLYLINE
  5
3566
330
3508
100
AcDbEntity
  8
M_0
 62
     5
100
AcDbPolyline
 90
        2
 70
     0
 43
0.5
 10
-5.916699999999991
 20
-2.74191022050968
 42
1.0
 10
-7.416699999999991
 20
-2.74191022050968
 42
1.0
  0
ARC
  5
3567
330
3508
100
AcDbEntity
  8
M_0
 62
     5
100
AcDbCircle
 10
-6.666699999999991
 20
-2.74191022050968
 30
0.0
 40
0.5
100
AcDbArc
 50
0.0
 51
180.0
  0
ARC
  5
3568
330
3508
100
AcDbEntity
  8
M_0
 62
     5
100
AcDbCircle
 10
-6.666699999999991
 20
-2.74191022050968
 30
0.0
 40
1.0
100
AcDbArc
 50
0.0
 51
138.5903778907278
  0
LINE
  5
3569
330
3508
100
AcDbEntity
  8
M_0
 62
     5
100
AcDbLine
 10
-2.0
 20
-1.741910220509566
 30
0.0
 11
-1.5
 21
-1.741910220509566
 31
0.0
  0
LINE
  5
356A
330
3508
100
AcDbEntity
  8
M_0
 62
     5
100
AcDbLine
 10
-1.5
 20
-1.875884816725317
 30
0.0
 11
-1.5
 21
-1.741910220509566
 31
0.0
  0
LINE
  5
356B
330
3508
100
AcDbEntity
  8
M_0
 62
     5
100
AcDbLine
 10
-3.083350000000109
 20
-1.991872722462062
 30
0.0
 11
-3.083350000000109
 21
-1.741910220509566
 31
0.0
  0
LINE
  5
356C
330
3508
100
AcDbEntity
  8
M_0
 62
     5
100
AcDbLine
 10
-3.083350000000109
 20
-1.741910220509566
 30
0.0
 11
-2.583350000000109
 21
-1.741910220509566
 31
0.0
  0
LINE
  5
356D
330
3508
100
AcDbEntity
  8
M_0
 62
     5
100
AcDbLine
 10
-3.5
 20
0.0000000000000568
 30
0.0
 11
-2.049999999999954
 21
0.0
 31
0.0
  0
LINE
  5
356E
330
3508
100
AcDbEntity
  8
M_0
 62
     5
100
AcDbLine
 10
-2.0
 20
-4.241910220509566
 30
0.0
 11
-1.5
 21
-4.241910220509566
 31
0.0
  0
LINE
  5
356F
330
3508
100
AcDbEntity
  8
M_0
 62
     5
100
AcDbLine
 10
-3.083350000000109
 20
-4.241910220509623
 30
0.0
 11
-3.083350000000109
 21
-3.991947718557184
 31
0.0
  0
LINE
  5
3570
330
3508
100
AcDbEntity
  8
M_0
 62
     5
100
AcDbLine
 10
-3.083350000000109
 20
-4.241910220509623
 30
0.0
 11
-2.583350000000109
 21
-4.241910220509623
 31
0.0
  0
CIRCLE
  5
3571
330
3508
100
AcDbEntity
  8
M_0
 62
     5
100
AcDbCircle
 10
-3.833300000000008
 20
-2.991910220509623
 30
0.0
 40
0.75
  0
LINE
  5
3572
330
3508
100
AcDbEntity
  8
M_0
 62
     5
100
AcDbLine
 10
-1.5
 20
-4.241910220509623
 30
0.0
 11
-1.5
 21
-2.741910220509623
 31
0.0
  0
LWPOLYLINE
  5
3573
330
3508
100
AcDbEntity
  8
M_0
 62
     5
100
AcDbPolyline
 90
        2
 70
     0
 43
0.5
 10
-1.75
 20
-4.241910220509566
 10
-1.75
 20
-1.741910220509566
  0
LINE
  5
3574
330
3508
100
AcDbEntity
  8
M_0
 62
     5
100
AcDbLine
 10
-2.583350000000109
 20
-4.241910220509623
 30
0.0
 11
-2.583350000000109
 21
-1.741910220509566
 31
0.0
  0
LINE
  5
3575
330
3508
100
AcDbEntity
  8
M_0
 62
     5
100
AcDbLine
 10
-2.0
 20
-4.241910220509623
 30
0.0
 11
-2.0
 21
-1.741910220509566
 31
0.0
  0
LWPOLYLINE
  5
3576
330
3508
100
AcDbEntity
  8
M_0
 62
     5
100
AcDbPolyline
 90
        2
 70
     0
 43
0.5
 10
-2.833350000000109
 20
-4.241910220509623
 10
-2.833350000000109
 20
-1.741910220509566
  0
LINE
  5
3577
330
3508
100
AcDbEntity
  8
M_0
 62
     5
100
AcDbLine
 10
-0.5
 20
-4.241910220509623
 30
0.0
 11
0.0
 21
-4.241910220509623
 31
0.0
  0
LWPOLYLINE
  5
3578
330
3508
100
AcDbEntity
  8
M_0
 62
     5
100
AcDbPolyline
 90
        2
 70
     0
 43
0.5
 10
-0.25
 20
-2.741910220509623
 10
-0.25
 20
-4.241910220509623
  0
LINE
  5
3579
330
3508
100
AcDbEntity
  8
M_0
 62
     5
100
AcDbLine
 10
-0.5
 20
-4.241910220509623
 30
0.0
 11
-0.5
 21
-2.741910220509623
 31
0.0
  0
LINE
  5
357A
330
3508
100
AcDbEntity
  8
M_0
 62
     5
100
AcDbLine
 10
0.0
 20
-4.241910220509623
 30
0.0
 11
0.0
 21
-2.741910220509623
 31
0.0
  0
LINE
  5
357B
330
3508
100
AcDbEntity
  8
M_0
 62
     5
100
AcDbLine
 10
-1.450000000000045
 20
13.75
 30
0.0
 11
0.0
 21
13.75000000000005
 31
0.0
  0
LINE
  5
357C
330
3508
100
AcDbEntity
  8
M_0
 62
     5
100
AcDbLine
 10
-3.5
 20
13.75000000000005
 30
0.0
 11
-2.049999999999954
 21
13.75000000000005
 31
0.0
  0
ENDBLK
  5
357D
330
3508
100
AcDbEntity
  8
0
100
AcDbBlockEnd
  0
BLOCK
  5
357F
330
357E
100
AcDbEntity
  8
0
100
AcDbBlockBegin
  2
A$C1730210C
 70
     0
 10
0.0
 20
0.0
 30
0.0
  3
A$C1730210C
  1

  0
INSERT
  5
3580
330
357E
100
AcDbEntity
  8
M_0
100
AcDbBlockReference
  2
A$C3F2B26CD
 10
41.64936870834731
 20
8.483811380151109
 30
0.0
 41
1.999998000000005
 42
1.999998000000005
 43
1.999997999999999
  0
ENDBLK
  5
3581
330
357E
100
AcDbEntity
  8
0
100
AcDbBlockEnd
  0
BLOCK
  5
369F
330
3695
100
AcDbEntity
  8
0
100
AcDbBlockBegin
  2
*D9
 70
     1
 10
0.0
 20
0.0
 30
0.0
  3
*D9
  1

  0
LINE
  5
9A7E
330
3695
100
AcDbEntity
  8
AM_5
100
AcDbLine
 10
541.4603556874361
 20
256.0942281433427
 30
0.0
 11
510.7603556874361
 21
256.0942281433427
 31
0.0
  0
LINE
  5
9A7F
330
3695
100
AcDbEntity
  8
AM_5
100
AcDbLine
 10
579.4603556874362
 20
239.0942281433427
 30
0.0
 11
510.7603556874361
 21
239.0942281433427
 31
0.0
  0
LINE
  5
9A80
330
3695
100
AcDbEntity
  8
AM_5
100
AcDbLine
 10
512.8603556874361
 20
251.8942281433427
 30
0.0
 11
512.8603556874361
 21
243.2942281433427
 31
0.0
  0
SOLID
  5
9A81
330
3695
100
AcDbEntity
  8
AM_5
100
AcDbTrace
 10
512.1603556874361
 20
251.8942281433427
 30
0.0
 11
513.5603556874362
 21
251.8942281433427
 31
0.0
 12
512.8603556874362
 22
256.0942281433427
 32
0.0
 13
512.8603556874362
 23
256.0942281433427
 33
0.0
  0
SOLID
  5
9A82
330
3695
100
AcDbEntity
  8
AM_5
100
AcDbTrace
 10
512.1603556874361
 20
243.2942281433427
 30
0.0
 11
513.5603556874362
 21
243.2942281433427
 31
0.0
 12
512.8603556874361
 22
239.0942281433427
 32
0.0
 13
512.8603556874361
 23
239.0942281433427
 33
0.0
  0
MTEXT
  5
9A83
330
3695
100
AcDbEntity
  8
AM_5
100
AcDbMText
 10
509.010355687436
 20
247.5942281433427
 30
0.0
 40
4.899999999999999
 41
0.0
 71
     5
 72
     1
  1
17
 11
0.0000000000000001
 21
1.0
 31
0.0
 73
     1
 44
1.0
1001
ACAD
1000
MTEXTBEGIN
1070
    73
1070
     1
1070
    44
1040
1.0
1070
    74
1070
     0
1000
MTEXTEND
  0
POINT
  5
9A84
330
3695
100
AcDbEntity
  8
Defpoints
 62
     0
100
AcDbPoint
 10
542.8603556874361
 20
256.0942281433427
 30
0.0
  0
POINT
  5
9A85
330
3695
100
AcDbEntity
  8
Defpoints
 62
     0
100
AcDbPoint
 10
580.8603556874361
 20
239.0942281433427
 30
0.0
  0
POINT
  5
9A86
330
3695
100
AcDbEntity
  8
Defpoints
 62
     0
100
AcDbPoint
 10
512.8603556874361
 20
239.0942281433427
 30
0.0
  0
ENDBLK
  5
36A0
330
3695
100
AcDbEntity
  8
0
100
AcDbBlockEnd
  0
BLOCK
  5
36C5
330
36BB
100
AcDbEntity
  8
0
100
AcDbBlockBegin
  2
*D10
 70
     1
 10
0.0
 20
0.0
 30
0.0
  3
*D10
  1

  0
LINE
  5
9A87
330
36BB
100
AcDbEntity
  8
AM_5
100
AcDbLine
 10
534.4603556874361
 20
258.7442281433425
 30
0.0
 11
500.7603556874361
 21
258.7442281433425
 31
0.0
  0
LINE
  5
9A88
330
36BB
100
AcDbEntity
  8
AM_5
100
AcDbLine
 10
534.4603556874361
 20
236.4442281433426
 30
0.0
 11
500.7603556874361
 21
236.4442281433426
 31
0.0
  0
LINE
  5
9A89
330
36BB
100
AcDbEntity
  8
AM_5
100
AcDbLine
 10
502.8603556874361
 20
254.5442281433425
 30
0.0
 11
502.8603556874361
 21
240.6442281433426
 31
0.0
  0
SOLID
  5
9A8A
330
36BB
100
AcDbEntity
  8
AM_5
100
AcDbTrace
 10
502.1603556874361
 20
254.5442281433425
 30
0.0
 11
503.5603556874361
 21
254.5442281433425
 31
0.0
 12
502.8603556874361
 22
258.7442281433425
 32
0.0
 13
502.8603556874361
 23
258.7442281433425
 33
0.0
  0
SOLID
  5
9A8B
330
36BB
100
AcDbEntity
  8
AM_5
100
AcDbTrace
 10
502.1603556874361
 20
240.6442281433426
 30
0.0
 11
503.5603556874361
 21
240.6442281433426
 31
0.0
 12
502.8603556874361
 22
236.4442281433426
 32
0.0
 13
502.8603556874361
 23
236.4442281433426
 33
0.0
  0
MTEXT
  5
9A8C
330
36BB
100
AcDbEntity
  8
AM_5
100
AcDbMText
 10
499.0098734039715
 20
247.5942281433426
 30
0.0
 40
4.899999999999999
 41
0.0
 71
     5
 72
     1
  1
22.3
 11
0.0000000000000001
 21
1.0
 31
0.0
 73
     1
 44
1.0
1001
ACAD
1000
MTEXTBEGIN
1070
    73
1070
     1
1070
    44
1040
1.0
1070
    74
1070
     0
1000
MTEXTEND
  0
POINT
  5
9A8D
330
36BB
100
AcDbEntity
  8
Defpoints
 62
     0
100
AcDbPoint
 10
535.8603556874361
 20
258.7442281433425
 30
0.0
  0
POINT
  5
9A8E
330
36BB
100
AcDbEntity
  8
Defpoints
 62
     0
100
AcDbPoint
 10
535.8603556874361
 20
236.4442281433426
 30
0.0
  0
POINT
  5
9A8F
330
36BB
100
AcDbEntity
  8
Defpoints
 62
     0
100
AcDbPoint
 10
502.8603556874361
 20
236.4442281433426
 30
0.0
  0
ENDBLK
  5
36C6
330
36BB
100
AcDbEntity
  8
0
100
AcDbBlockEnd
  0
BLOCK
  5
36EF
330
36E5
100
AcDbEntity
  8
0
100
AcDbBlockBegin
  2
*D11
 70
     1
 10
0.0
 20
0.0
 30
0.0
  3
*D11
  1

  0
LINE
  5
9A90
330
36E5
100
AcDbEntity
  8
AM_5
100
AcDbLine
 10
534.8603556874361
 20
259.1442281433425
 30
0.0
 11
534.8603556874361
 21
270.6087316314353
 31
0.0
  0
LINE
  5
9A91
330
36E5
100
AcDbEntity
  8
AM_5
100
AcDbLine
 10
547.8603556874361
 20
262.4942281433426
 30
0.0
 11
547.8603556874361
 21
270.6087316314353
 31
0.0
  0
LINE
  5
9A92
330
36E5
100
AcDbEntity
  8
AM_5
100
AcDbLine
 10
539.0603556874362
 20
268.5087316314352
 30
0.0
 11
543.660355687436
 21
268.5087316314352
 31
0.0
  0
SOLID
  5
9A93
330
36E5
100
AcDbEntity
  8
AM_5
100
AcDbTrace
 10
539.0603556874362
 20
269.2087316314352
 30
0.0
 11
539.0603556874362
 21
267.8087316314353
 31
0.0
 12
534.8603556874361
 22
268.5087316314352
 32
0.0
 13
534.8603556874361
 23
268.5087316314352
 33
0.0
  0
SOLID
  5
9A94
330
36E5
100
AcDbEntity
  8
AM_5
100
AcDbTrace
 10
543.660355687436
 20
269.2087316314352
 30
0.0
 11
543.660355687436
 21
267.8087316314353
 31
0.0
 12
547.8603556874361
 22
268.5087316314352
 32
0.0
 13
547.8603556874361
 23
268.5087316314352
 33
0.0
  0
MTEXT
  5
9A95
330
36E5
100
AcDbEntity
  8
AM_5
100
AcDbMText
 10
541.3603556874361
 20
272.3587316314353
 30
0.0
 40
4.899999999999999
 41
0.0
 71
     5
 72
     1
  1
13
 73
     1
 44
1.0
1001
ACAD
1000
MTEXTBEGIN
1070
    73
1070
     1
1070
    44
1040
1.0
1070
    74
1070
     0
1000
MTEXTEND
  0
POINT
  5
9A96
330
36E5
100
AcDbEntity
  8
Defpoints
 62
     0
100
AcDbPoint
 10
534.8603556874361
 20
257.7442281433425
 30
0.0
  0
POINT
  5
9A97
330
36E5
100
AcDbEntity
  8
Defpoints
 62
     0
100
AcDbPoint
 10
547.8603556874361
 20
261.0942281433427
 30
0.0
  0
POINT
  5
9A98
330
36E5
100
AcDbEntity
  8
Defpoints
 62
     0
100
AcDbPoint
 10
547.8603556874361
 20
268.5087316314352
 30
0.0
  0
ENDBLK
  5
36F0
330
36E5
100
AcDbEntity
  8
0
100
AcDbBlockEnd
  0
BLOCK
  5
3715
330
370B
100
AcDbEntity
  8
0
100
AcDbBlockBegin
  2
*D12
 70
     1
 10
0.0
 20
0.0
 30
0.0
  3
*D12
  1

  0
LINE
  5
9A99
330
370B
100
AcDbEntity
  8
AM_5
100
AcDbLine
 10
547.8603556874361
 20
262.4942281433426
 30
0.0
 11
547.8603556874361
 21
270.6087316314353
 31
0.0
  0
LINE
  5
9A9A
330
370B
100
AcDbEntity
  8
AM_5
100
AcDbLine
 10
585.8603556874361
 20
245.4942281433427
 30
0.0
 11
585.8603556874361
 21
270.6087316314353
 31
0.0
  0
LINE
  5
9A9B
330
370B
100
AcDbEntity
  8
AM_5
100
AcDbLine
 10
552.0603556874362
 20
268.5087316314352
 30
0.0
 11
581.6603556874361
 21
268.5087316314352
 31
0.0
  0
SOLID
  5
9A9C
330
370B
100
AcDbEntity
  8
AM_5
100
AcDbTrace
 10
552.0603556874362
 20
269.2087316314352
 30
0.0
 11
552.0603556874362
 21
267.8087316314353
 31
0.0
 12
547.8603556874361
 22
268.5087316314352
 32
0.0
 13
547.8603556874361
 23
268.5087316314352
 33
0.0
  0
SOLID
  5
9A9D
330
370B
100
AcDbEntity
  8
AM_5
100
AcDbTrace
 10
581.6603556874361
 20
269.2087316314352
 30
0.0
 11
581.6603556874361
 21
267.8087316314353
 31
0.0
 12
585.8603556874361
 22
268.5087316314352
 32
0.0
 13
585.8603556874361
 23
268.5087316314352
 33
0.0
  0
MTEXT
  5
9A9E
330
370B
100
AcDbEntity
  8
AM_5
100
AcDbMText
 10
566.8603556874361
 20
272.3587316314353
 30
0.0
 40
4.899999999999999
 41
0.0
 71
     5
 72
     1
  1
38
 73
     1
 44
1.0
1001
ACAD
1000
MTEXTBEGIN
1070
    73
1070
     1
1070
    44
1040
1.0
1070
    74
1070
     0
1000
MTEXTEND
  0
POINT
  5
9A9F
330
370B
100
AcDbEntity
  8
Defpoints
 62
     0
100
AcDbPoint
 10
547.8603556874361
 20
261.0942281433427
 30
0.0
  0
POINT
  5
9AA0
330
370B
100
AcDbEntity
  8
Defpoints
 62
     0
100
AcDbPoint
 10
585.8603556874361
 20
244.0942281433426
 30
0.0
  0
POINT
  5
9AA1
330
370B
100
AcDbEntity
  8
Defpoints
 62
     0
100
AcDbPoint
 10
585.8603556874361
 20
268.5087316314352
 30
0.0
  0
ENDBLK
  5
3716
330
370B
100
AcDbEntity
  8
0
100
AcDbBlockEnd
  0
BLOCK
  5
373D
330
3731
100
AcDbEntity
  8
0
100
AcDbBlockBegin
  2
*D13
 70
     1
 10
0.0
 20
0.0
 30
0.0
  3
*D13
  1

  0
LINE
  5
9AA2
330
3731
100
AcDbEntity
  8
AM_5
100
AcDbLine
 10
563.6603556874361
 20
249.0942281433427
 30
0.0
 11
520.7603556874361
 21
249.0942281433427
 31
0.0
  0
LINE
  5
9AA3
330
3731
100
AcDbEntity
  8
AM_5
100
AcDbLine
 10
584.6103556874361
 20
246.0942281433426
 30
0.0
 11
520.7603556874361
 21
246.0942281433427
 31
0.0
  0
LINE
  5
9AA4
330
3731
100
AcDbEntity
  8
AM_5
100
AcDbLine
 10
522.8603556874361
 20
253.2942281433427
 30
0.0
 11
522.8603556874362
 21
257.4942281433426
 31
0.0
  0
LINE
  5
9AA5
330
3731
100
AcDbEntity
  8
AM_5
100
AcDbLine
 10
522.8603556874361
 20
241.8942281433427
 30
0.0
 11
522.8603556874361
 21
237.6942281433427
 31
0.0
  0
LINE
  5
9AA6
330
3731
100
AcDbEntity
  8
AM_5
100
AcDbLine
 10
522.8603556874361
 20
249.0942281433427
 30
0.0
 11
522.8603556874361
 21
246.0942281433427
 31
0.0
  0
SOLID
  5
9AA7
330
3731
100
AcDbEntity
  8
AM_5
100
AcDbTrace
 10
522.160355687436
 20
253.2942281433427
 30
0.0
 11
523.5603556874361
 21
253.2942281433427
 31
0.0
 12
522.8603556874361
 22
249.0942281433427
 32
0.0
 13
522.8603556874361
 23
249.0942281433427
 33
0.0
  0
SOLID
  5
9AA8
330
3731
100
AcDbEntity
  8
AM_5
100
AcDbTrace
 10
522.160355687436
 20
241.8942281433427
 30
0.0
 11
523.5603556874361
 21
241.8942281433427
 31
0.0
 12
522.8603556874361
 22
246.0942281433427
 32
0.0
 13
522.8603556874361
 23
246.0942281433427
 33
0.0
  0
MTEXT
  5
9AA9
330
3731
100
AcDbEntity
  8
AM_5
100
AcDbMText
 10
519.0103556874361
 20
247.5942281433427
 30
0.0
 40
4.899999999999999
 41
0.0
 71
     5
 72
     1
  1
3
 11
0.0000000000000001
 21
1.0
 31
0.0
 73
     1
 44
1.0
1001
ACAD
1000
MTEXTBEGIN
1070
    73
1070
     1
1070
    44
1040
1.0
1070
    74
1070
     0
1000
MTEXTEND
  0
POINT
  5
9AAA
330
3731
100
AcDbEntity
  8
Defpoints
 62
     0
100
AcDbPoint
 10
565.0603556874361
 20
249.0942281433427
 30
0.0
  0
POINT
  5
9AAB
330
3731
100
AcDbEntity
  8
Defpoints
 62
     0
100
AcDbPoint
 10
586.0103556874361
 20
246.0942281433426
 30
0.0
  0
POINT
  5
9AAC
330
3731
100
AcDbEntity
  8
Defpoints
 62
     0
100
AcDbPoint
 10
522.8603556874361
 20
246.0942281433427
 30
0.0
  0
ENDBLK
  5
373E
330
3731
100
AcDbEntity
  8
0
100
AcDbBlockEnd
  0
BLOCK
  5
3838
330
382E
100
AcDbEntity
  8
0
100
AcDbBlockBegin
  2
*D14
 70
     1
 10
0.0
 20
0.0
 30
0.0
  3
*D14
  1

  0
LINE
  5
9AAD
330
382E
100
AcDbEntity
  8
AM_5
100
AcDbLine
 10
534.8603556874361
 20
159.6311387258085
 30
0.0
 11
534.8603556874361
 21
145.9311387258085
 31
0.0
  0
LINE
  5
9AAE
330
382E
100
AcDbEntity
  8
AM_5
100
AcDbLine
 10
556.8603556874361
 20
159.928068860365
 30
0.0
 11
556.8603556874361
 21
145.9311387258085
 31
0.0
  0
LINE
  5
9AAF
330
382E
100
AcDbEntity
  8
AM_5
100
AcDbLine
 10
539.0603556874362
 20
148.0311387258085
 30
0.0
 11
552.6603556874361
 21
148.0311387258085
 31
0.0
  0
SOLID
  5
9AB0
330
382E
100
AcDbEntity
  8
AM_5
100
AcDbTrace
 10
539.0603556874362
 20
148.7311387258085
 30
0.0
 11
539.0603556874362
 21
147.3311387258085
 31
0.0
 12
534.8603556874361
 22
148.0311387258085
 32
0.0
 13
534.8603556874361
 23
148.0311387258085
 33
0.0
  0
SOLID
  5
9AB1
330
382E
100
AcDbEntity
  8
AM_5
100
AcDbTrace
 10
552.6603556874361
 20
148.7311387258085
 30
0.0
 11
552.6603556874361
 21
147.3311387258085
 31
0.0
 12
556.8603556874361
 22
148.0311387258085
 32
0.0
 13
556.8603556874361
 23
148.0311387258085
 33
0.0
  0
MTEXT
  5
9AB2
330
382E
100
AcDbEntity
  8
AM_5
100
AcDbMText
 10
545.8603556874361
 20
151.8816210092731
 30
0.0
 40
4.899999999999999
 41
0.0
 71
     5
 72
     1
  1
22
 73
     1
 44
1.0
1001
ACAD
1000
MTEXTBEGIN
1070
    73
1070
     1
1070
    44
1040
1.0
1070
    74
1070
     0
1000
MTEXTEND
  0
POINT
  5
9AB3
330
382E
100
AcDbEntity
  8
Defpoints
 62
     0
100
AcDbPoint
 10
534.8603556874361
 20
161.0311387258085
 30
0.0
  0
POINT
  5
9AB4
330
382E
100
AcDbEntity
  8
Defpoints
 62
     0
100
AcDbPoint
 10
556.8603556874361
 20
161.3280688603651
 30
0.0
  0
POINT
  5
9AB5
330
382E
100
AcDbEntity
  8
Defpoints
 62
     0
100
AcDbPoint
 10
556.8603556874361
 20
148.0311387258085
 30
0.0
  0
ENDBLK
  5
3839
330
382E
100
AcDbEntity
  8
0
100
AcDbBlockEnd
  0
BLOCK
  5
385E
330
3854
100
AcDbEntity
  8
0
100
AcDbBlockBegin
  2
*D15
 70
     1
 10
0.0
 20
0.0
 30
0.0
  3
*D15
  1

  0
LINE
  5
9AB6
330
3854
100
AcDbEntity
  8
AM_5
100
AcDbLine
 10
556.8603556874361
 20
159.928068860365
 30
0.0
 11
556.8603556874361
 21
145.9311387258086
 31
0.0
  0
LINE
  5
9AB7
330
3854
100
AcDbEntity
  8
AM_5
100
AcDbLine
 10
576.8603556874361
 20
159.928068860365
 30
0.0
 11
576.8603556874361
 21
145.9311387258086
 31
0.0
  0
LINE
  5
9AB8
330
3854
100
AcDbEntity
  8
AM_5
100
AcDbLine
 10
561.0603556874361
 20
148.0311387258086
 30
0.0
 11
572.660355687436
 21
148.0311387258086
 31
0.0
  0
SOLID
  5
9AB9
330
3854
100
AcDbEntity
  8
AM_5
100
AcDbTrace
 10
561.0603556874361
 20
148.7311387258086
 30
0.0
 11
561.0603556874361
 21
147.3311387258086
 31
0.0
 12
556.8603556874361
 22
148.0311387258086
 32
0.0
 13
556.8603556874361
 23
148.0311387258086
 33
0.0
  0
SOLID
  5
9ABA
330
3854
100
AcDbEntity
  8
AM_5
100
AcDbTrace
 10
572.660355687436
 20
148.7311387258086
 30
0.0
 11
572.660355687436
 21
147.3311387258086
 31
0.0
 12
576.8603556874361
 22
148.0311387258086
 32
0.0
 13
576.8603556874361
 23
148.0311387258086
 33
0.0
  0
MTEXT
  5
9ABB
330
3854
100
AcDbEntity
  8
AM_5
100
AcDbMText
 10
566.8603556874361
 20
151.8816210092731
 30
0.0
 40
4.899999999999999
 41
0.0
 71
     5
 72
     1
  1
20
 73
     1
 44
1.0
1001
ACAD
1000
MTEXTBEGIN
1070
    73
1070
     1
1070
    44
1040
1.0
1070
    74
1070
     0
1000
MTEXTEND
  0
POINT
  5
9ABC
330
3854
100
AcDbEntity
  8
Defpoints
 62
     0
100
AcDbPoint
 10
556.8603556874361
 20
161.3280688603651
 30
0.0
  0
POINT
  5
9ABD
330
3854
100
AcDbEntity
  8
Defpoints
 62
     0
100
AcDbPoint
 10
576.8603556874361
 20
161.3280688603651
 30
0.0
  0
POINT
  5
9ABE
330
3854
100
AcDbEntity
  8
Defpoints
 62
     0
100
AcDbPoint
 10
576.8603556874361
 20
148.0311387258086
 30
0.0
  0
ENDBLK
  5
385F
330
3854
100
AcDbEntity
  8
0
100
AcDbBlockEnd
  0
BLOCK
  5
3886
330
387A
100
AcDbEntity
  8
0
100
AcDbBlockBegin
  2
*D16
 70
     1
 10
0.0
 20
0.0
 30
0.0
  3
*D16
  1

  0
LINE
  5
9ABF
330
387A
100
AcDbEntity
  8
AM_5
100
AcDbLine
 10
534.4603556874361
 20
160.0311387258085
 30
0.0
 11
520.7603556874361
 21
160.0311387258085
 31
0.0
  0
LINE
  5
9AC0
330
387A
100
AcDbEntity
  8
AM_5
100
AcDbLine
 10
549.7572858219927
 20
167.0311387258085
 30
0.0
 11
520.7603556874361
 21
167.0311387258085
 31
0.0
  0
LINE
  5
9AC1
330
387A
100
AcDbEntity
  8
AM_5
100
AcDbLine
 10
522.8603556874361
 20
155.8311387258085
 30
0.0
 11
522.8603556874361
 21
151.6311387258085
 31
0.0
  0
LINE
  5
9AC2
330
387A
100
AcDbEntity
  8
AM_5
100
AcDbLine
 10
522.8603556874361
 20
171.2311387258085
 30
0.0
 11
522.8603556874361
 21
175.4311387258085
 31
0.0
  0
LINE
  5
9AC3
330
387A
100
AcDbEntity
  8
AM_5
100
AcDbLine
 10
522.8603556874361
 20
160.0311387258085
 30
0.0
 11
522.8603556874361
 21
167.0311387258085
 31
0.0
  0
SOLID
  5
9AC4
330
387A
100
AcDbEntity
  8
AM_5
100
AcDbTrace
 10
522.160355687436
 20
155.8311387258085
 30
0.0
 11
523.5603556874361
 21
155.8311387258085
 31
0.0
 12
522.8603556874361
 22
160.0311387258085
 32
0.0
 13
522.8603556874361
 23
160.0311387258085
 33
0.0
  0
SOLID
  5
9AC5
330
387A
100
AcDbEntity
  8
AM_5
100
AcDbTrace
 10
522.160355687436
 20
171.2311387258085
 30
0.0
 11
523.5603556874361
 21
171.2311387258085
 31
0.0
 12
522.8603556874361
 22
167.0311387258085
 32
0.0
 13
522.8603556874361
 23
167.0311387258085
 33
0.0
  0
MTEXT
  5
9AC6
330
387A
100
AcDbEntity
  8
AM_5
100
AcDbMText
 10
519.0103556874361
 20
163.5311387258086
 30
0.0
 40
4.899999999999999
 41
0.0
 71
     5
 72
     1
  1
7
 11
0.0000000000000001
 21
1.0
 31
0.0
 73
     1
 44
1.0
1001
ACAD
1000
MTEXTBEGIN
1070
    73
1070
     1
1070
    44
1040
1.0
1070
    74
1070
     0
1000
MTEXTEND
  0
POINT
  5
9AC7
330
387A
100
AcDbEntity
  8
Defpoints
 62
     0
100
AcDbPoint
 10
535.8603556874361
 20
160.0311387258085
 30
0.0
  0
POINT
  5
9AC8
330
387A
100
AcDbEntity
  8
Defpoints
 62
     0
100
AcDbPoint
 10
551.1572858219927
 20
167.0311387258085
 30
0.0
  0
POINT
  5
9AC9
330
387A
100
AcDbEntity
  8
Defpoints
 62
     0
100
AcDbPoint
 10
522.8603556874361
 20
167.0311387258085
 30
0.0
  0
ENDBLK
  5
3887
330
387A
100
AcDbEntity
  8
0
100
AcDbBlockEnd
  0
BLOCK
  5
38AE
330
38A4
100
AcDbEntity
  8
0
100
AcDbBlockBegin
  2
*D17
 70
     1
 10
0.0
 20
0.0
 30
0.0
  3
*D17
  1

  0
LINE
  5
9ACA
330
38A4
100
AcDbEntity
  8
AM_5
100
AcDbLine
 10
534.8603556874361
 20
109.0845252737548
 30
0.0
 11
534.8603556874361
 21
95.38452527375474
 31
0.0
  0
LINE
  5
9ACB
330
38A4
100
AcDbEntity
  8
AM_5
100
AcDbLine
 10
548.8603556874361
 20
111.9845252737548
 30
0.0
 11
548.8603556874361
 21
95.38452527375474
 31
0.0
  0
LINE
  5
9ACC
330
38A4
100
AcDbEntity
  8
AM_5
100
AcDbLine
 10
539.0603556874362
 20
97.48452527375475
 30
0.0
 11
544.6603556874361
 21
97.48452527375475
 31
0.0
  0
SOLID
  5
9ACD
330
38A4
100
AcDbEntity
  8
AM_5
100
AcDbTrace
 10
539.0603556874362
 20
98.18452527375475
 30
0.0
 11
539.0603556874362
 21
96.78452527375474
 31
0.0
 12
534.8603556874361
 22
97.48452527375475
 32
0.0
 13
534.8603556874361
 23
97.48452527375475
 33
0.0
  0
SOLID
  5
9ACE
330
38A4
100
AcDbEntity
  8
AM_5
100
AcDbTrace
 10
544.6603556874361
 20
98.18452527375475
 30
0.0
 11
544.6603556874361
 21
96.78452527375474
 31
0.0
 12
548.8603556874361
 22
97.48452527375475
 32
0.0
 13
548.8603556874361
 23
97.48452527375475
 33
0.0
  0
MTEXT
  5
9ACF
330
38A4
100
AcDbEntity
  8
AM_5
100
AcDbMText
 10
541.8603556874361
 20
101.3345252737547
 30
0.0
 40
4.899999999999999
 41
0.0
 71
     5
 72
     1
  1
14
 73
     1
 44
1.0
1001
ACAD
1000
MTEXTBEGIN
1070
    73
1070
     1
1070
    44
1040
1.0
1070
    74
1070
     0
1000
MTEXTEND
  0
POINT
  5
9AD0
330
38A4
100
AcDbEntity
  8
Defpoints
 62
     0
100
AcDbPoint
 10
534.8603556874361
 20
110.4845252737548
 30
0.0
  0
POINT
  5
9AD1
330
38A4
100
AcDbEntity
  8
Defpoints
 62
     0
100
AcDbPoint
 10
548.8603556874361
 20
113.3845252737548
 30
0.0
  0
POINT
  5
9AD2
330
38A4
100
AcDbEntity
  8
Defpoints
 62
     0
100
AcDbPoint
 10
548.8603556874361
 20
97.48452527375475
 30
0.0
  0
ENDBLK
  5
38AF
330
38A4
100
AcDbEntity
  8
0
100
AcDbBlockEnd
  0
BLOCK
  5
38E3
330
38D9
100
AcDbEntity
  8
0
100
AcDbBlockBegin
  2
*D18
 70
     1
 10
0.0
 20
0.0
 30
0.0
  3
*D18
  1

  0
LINE
  5
9AD3
330
38D9
100
AcDbEntity
  8
AM_5
100
AcDbLine
 10
548.8603556874361
 20
111.9845252737548
 30
0.0
 11
548.8603556874361
 21
95.38452527375481
 31
0.0
  0
LINE
  5
9AD4
330
38D9
100
AcDbEntity
  8
AM_5
100
AcDbLine
 10
566.8603556874361
 20
110.5345252737549
 30
0.0
 11
566.8603556874361
 21
95.38452527375481
 31
0.0
  0
LINE
  5
9AD5
330
38D9
100
AcDbEntity
  8
AM_5
100
AcDbLine
 10
553.0603556874361
 20
97.4845252737548
 30
0.0
 11
562.6603556874361
 21
97.4845252737548
 31
0.0
  0
SOLID
  5
9AD6
330
38D9
100
AcDbEntity
  8
AM_5
100
AcDbTrace
 10
553.0603556874361
 20
98.1845252737548
 30
0.0
 11
553.0603556874361
 21
96.7845252737548
 31
0.0
 12
548.8603556874361
 22
97.4845252737548
 32
0.0
 13
548.8603556874361
 23
97.4845252737548
 33
0.0
  0
SOLID
  5
9AD7
330
38D9
100
AcDbEntity
  8
AM_5
100
AcDbTrace
 10
562.6603556874361
 20
98.1845252737548
 30
0.0
 11
562.6603556874361
 21
96.7845252737548
 31
0.0
 12
566.8603556874361
 22
97.4845252737548
 32
0.0
 13
566.8603556874361
 23
97.4845252737548
 33
0.0
  0
MTEXT
  5
9AD8
330
38D9
100
AcDbEntity
  8
AM_5
100
AcDbMText
 10
557.8603556874361
 20
101.3345252737548
 30
0.0
 40
4.899999999999999
 41
0.0
 71
     5
 72
     1
  1
18
 73
     1
 44
1.0
1001
ACAD
1000
MTEXTBEGIN
1070
    73
1070
     1
1070
    44
1040
1.0
1070
    74
1070
     0
1000
MTEXTEND
  0
POINT
  5
9AD9
330
38D9
100
AcDbEntity
  8
Defpoints
 62
     0
100
AcDbPoint
 10
548.8603556874361
 20
113.3845252737548
 30
0.0
  0
POINT
  5
9ADA
330
38D9
100
AcDbEntity
  8
Defpoints
 62
     0
100
AcDbPoint
 10
566.8603556874361
 20
111.9345252737549
 30
0.0
  0
POINT
  5
9ADB
330
38D9
100
AcDbEntity
  8
Defpoints
 62
     0
100
AcDbPoint
 10
566.8603556874361
 20
97.4845252737548
 30
0.0
  0
ENDBLK
  5
38E4
330
38D9
100
AcDbEntity
  8
0
100
AcDbBlockEnd
  0
BLOCK
  5
3909
330
38FF
100
AcDbEntity
  8
0
100
AcDbBlockBegin
  2
*D19
 70
     1
 10
0.0
 20
0.0
 30
0.0
  3
*D19
  1

  0
LINE
  5
9ADC
330
38FF
100
AcDbEntity
  8
AM_5
100
AcDbLine
 10
566.8603556874361
 20
110.5345252737549
 30
0.0
 11
566.8603556874361
 21
95.38452527375486
 31
0.0
  0
LINE
  5
9ADD
330
38FF
100
AcDbEntity
  8
AM_5
100
AcDbLine
 10
584.8603556874361
 20
112.2345252737548
 30
0.0
 11
584.8603556874361
 21
95.38452527375486
 31
0.0
  0
LINE
  5
9ADE
330
38FF
100
AcDbEntity
  8
AM_5
100
AcDbLine
 10
571.0603556874361
 20
97.48452527375485
 30
0.0
 11
580.660355687436
 21
97.48452527375485
 31
0.0
  0
SOLID
  5
9ADF
330
38FF
100
AcDbEntity
  8
AM_5
100
AcDbTrace
 10
571.0603556874361
 20
98.18452527375486
 30
0.0
 11
571.0603556874361
 21
96.78452527375485
 31
0.0
 12
566.8603556874361
 22
97.48452527375485
 32
0.0
 13
566.8603556874361
 23
97.48452527375485
 33
0.0
  0
SOLID
  5
9AE0
330
38FF
100
AcDbEntity
  8
AM_5
100
AcDbTrace
 10
580.660355687436
 20
98.18452527375486
 30
0.0
 11
580.660355687436
 21
96.78452527375485
 31
0.0
 12
584.8603556874361
 22
97.48452527375485
 32
0.0
 13
584.8603556874361
 23
97.48452527375485
 33
0.0
  0
MTEXT
  5
9AE1
330
38FF
100
AcDbEntity
  8
AM_5
100
AcDbMText
 10
575.8603556874361
 20
101.3345252737548
 30
0.0
 40
4.899999999999999
 41
0.0
 71
     5
 72
     1
  1
18
 73
     1
 44
1.0
1001
ACAD
1000
MTEXTBEGIN
1070
    73
1070
     1
1070
    44
1040
1.0
1070
    74
1070
     0
1000
MTEXTEND
  0
POINT
  5
9AE2
330
38FF
100
AcDbEntity
  8
Defpoints
 62
     0
100
AcDbPoint
 10
566.8603556874361
 20
111.9345252737549
 30
0.0
  0
POINT
  5
9AE3
330
38FF
100
AcDbEntity
  8
Defpoints
 62
     0
100
AcDbPoint
 10
584.8603556874361
 20
113.6345252737548
 30
0.0
  0
POINT
  5
9AE4
330
38FF
100
AcDbEntity
  8
Defpoints
 62
     0
100
AcDbPoint
 10
584.8603556874361
 20
97.48452527375485
 30
0.0
  0
ENDBLK
  5
390A
330
38FF
100
AcDbEntity
  8
0
100
AcDbBlockEnd
  0
BLOCK
  5
3955
330
394B
100
AcDbEntity
  8
0
100
AcDbBlockBegin
  2
*D20
 70
     1
 10
0.0
 20
0.0
 30
0.0
  3
*D20
  1

  0
LINE
  5
9AE5
330
394B
100
AcDbEntity
  8
AM_5
100
AcDbLine
 10
534.4603556874361
 20
160.0311387258085
 30
0.0
 11
510.7603556874361
 21
160.0311387258085
 31
0.0
  0
LINE
  5
9AE6
330
394B
100
AcDbEntity
  8
AM_5
100
AcDbLine
 10
534.4603556874361
 20
195.0311387258085
 30
0.0
 11
510.7603556874361
 21
195.0311387258085
 31
0.0
  0
LINE
  5
9AE7
330
394B
100
AcDbEntity
  8
AM_5
100
AcDbLine
 10
512.8603556874361
 20
164.2311387258085
 30
0.0
 11
512.8603556874361
 21
190.8311387258086
 31
0.0
  0
SOLID
  5
9AE8
330
394B
100
AcDbEntity
  8
AM_5
100
AcDbTrace
 10
512.1603556874361
 20
164.2311387258085
 30
0.0
 11
513.5603556874362
 21
164.2311387258085
 31
0.0
 12
512.8603556874361
 22
160.0311387258085
 32
0.0
 13
512.8603556874361
 23
160.0311387258085
 33
0.0
  0
SOLID
  5
9AE9
330
394B
100
AcDbEntity
  8
AM_5
100
AcDbTrace
 10
512.1603556874361
 20
190.8311387258086
 30
0.0
 11
513.5603556874362
 21
190.8311387258086
 31
0.0
 12
512.8603556874361
 22
195.0311387258085
 32
0.0
 13
512.8603556874361
 23
195.0311387258085
 33
0.0
  0
MTEXT
  5
9AEA
330
394B
100
AcDbEntity
  8
AM_5
100
AcDbMText
 10
509.010355687436
 20
177.5311387258086
 30
0.0
 40
4.899999999999999
 41
0.0
 71
     5
 72
     1
  1
35
 11
0.0000000000000001
 21
1.0
 31
0.0
 73
     1
 44
1.0
1001
ACAD
1000
MTEXTBEGIN
1070
    73
1070
     1
1070
    44
1040
1.0
1070
    74
1070
     0
1000
MTEXTEND
  0
POINT
  5
9AEB
330
394B
100
AcDbEntity
  8
Defpoints
 62
     0
100
AcDbPoint
 10
535.8603556874361
 20
160.0311387258085
 30
0.0
  0
POINT
  5
9AEC
330
394B
100
AcDbEntity
  8
Defpoints
 62
     0
100
AcDbPoint
 10
535.8603556874361
 20
195.0311387258085
 30
0.0
  0
POINT
  5
9AED
330
394B
100
AcDbEntity
  8
Defpoints
 62
     0
100
AcDbPoint
 10
512.8603556874361
 20
195.0311387258085
 30
0.0
  0
ENDBLK
  5
3956
330
394B
100
AcDbEntity
  8
0
100
AcDbBlockEnd
  0
BLOCK
  5
39A5
330
399B
100
AcDbEntity
  8
0
100
AcDbBlockBegin
  2
*D21
 70
     1
 10
0.0
 20
0.0
 30
0.0
  3
*D21
  1

  0
LINE
  5
9AEE
330
399B
100
AcDbEntity
  8
AM_5
100
AcDbLine
 10
534.8603556874361
 20
195.4311387258085
 30
0.0
 11
534.8603556874361
 21
206.1311387258085
 31
0.0
  0
LINE
  5
9AEF
330
399B
100
AcDbEntity
  8
AM_5
100
AcDbLine
 10
612.360355687436
 20
196.4311387258086
 30
0.0
 11
612.360355687436
 21
206.1311387258085
 31
0.0
  0
LINE
  5
9AF0
330
399B
100
AcDbEntity
  8
AM_5
100
AcDbLine
 10
539.0603556874362
 20
204.0311387258085
 30
0.0
 11
608.160355687436
 21
204.0311387258085
 31
0.0
  0
SOLID
  5
9AF1
330
399B
100
AcDbEntity
  8
AM_5
100
AcDbTrace
 10
539.0603556874362
 20
204.7311387258085
 30
0.0
 11
539.0603556874362
 21
203.3311387258085
 31
0.0
 12
534.8603556874361
 22
204.0311387258085
 32
0.0
 13
534.8603556874361
 23
204.0311387258085
 33
0.0
  0
SOLID
  5
9AF2
330
399B
100
AcDbEntity
  8
AM_5
100
AcDbTrace
 10
608.160355687436
 20
204.7311387258085
 30
0.0
 11
608.160355687436
 21
203.3311387258085
 31
0.0
 12
612.360355687436
 22
204.0311387258085
 32
0.0
 13
612.360355687436
 23
204.0311387258085
 33
0.0
  0
MTEXT
  5
9AF3
330
399B
100
AcDbEntity
  8
AM_5
100
AcDbMText
 10
573.6103556874361
 20
207.8811387258085
 30
0.0
 40
4.899999999999999
 41
0.0
 71
     5
 72
     1
  1
77.5
 73
     1
 44
1.0
1001
ACAD
1000
MTEXTBEGIN
1070
    73
1070
     1
1070
    44
1040
1.0
1070
    74
1070
     0
1000
MTEXTEND
  0
POINT
  5
9AF4
330
399B
100
AcDbEntity
  8
Defpoints
 62
     0
100
AcDbPoint
 10
534.8603556874361
 20
194.0311387258085
 30
0.0
  0
POINT
  5
9AF5
330
399B
100
AcDbEntity
  8
Defpoints
 62
     0
100
AcDbPoint
 10
612.360355687436
 20
195.0311387258086
 30
0.0
  0
POINT
  5
9AF6
330
399B
100
AcDbEntity
  8
Defpoints
 62
     0
100
AcDbPoint
 10
612.360355687436
 20
204.0311387258085
 30
0.0
  0
ENDBLK
  5
39A6
330
399B
100
AcDbEntity
  8
0
100
AcDbBlockEnd
  0
BLOCK
  5
39CB
330
39C1
100
AcDbEntity
  8
0
100
AcDbBlockBegin
  2
*D22
 70
     1
 10
0.0
 20
0.0
 30
0.0
  3
*D22
  1

  0
LINE
  5
9AF7
330
39C1
100
AcDbEntity
  8
AM_5
100
AcDbLine
 10
534.8603556874361
 20
236.0442281433426
 30
0.0
 11
534.8603556874361
 21
222.3442281433427
 31
0.0
  0
LINE
  5
9AF8
330
39C1
100
AcDbEntity
  8
AM_5
100
AcDbLine
 10
556.3603556874361
 20
238.9942281433426
 30
0.0
 11
556.3603556874361
 21
222.3442281433427
 31
0.0
  0
LINE
  5
9AF9
330
39C1
100
AcDbEntity
  8
AM_5
100
AcDbLine
 10
539.0603556874362
 20
224.4442281433427
 30
0.0
 11
552.160355687436
 21
224.4442281433427
 31
0.0
  0
SOLID
  5
9AFA
330
39C1
100
AcDbEntity
  8
AM_5
100
AcDbTrace
 10
539.0603556874362
 20
225.1442281433427
 30
0.0
 11
539.0603556874362
 21
223.7442281433427
 31
0.0
 12
534.8603556874361
 22
224.4442281433427
 32
0.0
 13
534.8603556874361
 23
224.4442281433427
 33
0.0
  0
SOLID
  5
9AFB
330
39C1
100
AcDbEntity
  8
AM_5
100
AcDbTrace
 10
552.160355687436
 20
225.1442281433427
 30
0.0
 11
552.160355687436
 21
223.7442281433427
 31
0.0
 12
556.3603556874361
 22
224.4442281433427
 32
0.0
 13
556.3603556874361
 23
224.4442281433427
 33
0.0
  0
MTEXT
  5
9AFC
330
39C1
100
AcDbEntity
  8
AM_5
100
AcDbMText
 10
545.6103556874361
 20
228.2947104268072
 30
0.0
 40
4.899999999999999
 41
0.0
 71
     5
 72
     1
  1
21.5
 73
     1
 44
1.0
1001
ACAD
1000
MTEXTBEGIN
1070
    73
1070
     1
1070
    44
1040
1.0
1070
    74
1070
     0
1000
MTEXTEND
  0
POINT
  5
9AFD
330
39C1
100
AcDbEntity
  8
Defpoints
 62
     0
100
AcDbPoint
 10
534.8603556874361
 20
237.4442281433426
 30
0.0
  0
POINT
  5
9AFE
330
39C1
100
AcDbEntity
  8
Defpoints
 62
     0
100
AcDbPoint
 10
556.3603556874361
 20
240.3942281433426
 30
0.0
  0
POINT
  5
9AFF
330
39C1
100
AcDbEntity
  8
Defpoints
 62
     0
100
AcDbPoint
 10
556.3603556874361
 20
224.4442281433427
 30
0.0
  0
ENDBLK
  5
39CC
330
39C1
100
AcDbEntity
  8
0
100
AcDbBlockEnd
  0
BLOCK
  5
39F1
330
39E7
100
AcDbEntity
  8
0
100
AcDbBlockBegin
  2
*D23
 70
     1
 10
0.0
 20
0.0
 30
0.0
  3
*D23
  1

  0
LINE
  5
9B00
330
39E7
100
AcDbEntity
  8
AM_5
100
AcDbLine
 10
556.3603556874361
 20
238.9942281433426
 30
0.0
 11
556.3603556874361
 21
222.3442281433427
 31
0.0
  0
LINE
  5
9B01
330
39E7
100
AcDbEntity
  8
AM_5
100
AcDbLine
 10
577.3603556874361
 20
236.0442281433427
 30
0.0
 11
577.3603556874361
 21
222.3442281433427
 31
0.0
  0
LINE
  5
9B02
330
39E7
100
AcDbEntity
  8
AM_5
100
AcDbLine
 10
560.5603556874362
 20
224.4442281433427
 30
0.0
 11
573.160355687436
 21
224.4442281433427
 31
0.0
  0
SOLID
  5
9B03
330
39E7
100
AcDbEntity
  8
AM_5
100
AcDbTrace
 10
560.5603556874362
 20
225.1442281433427
 30
0.0
 11
560.5603556874362
 21
223.7442281433427
 31
0.0
 12
556.3603556874361
 22
224.4442281433427
 32
0.0
 13
556.3603556874361
 23
224.4442281433427
 33
0.0
  0
SOLID
  5
9B04
330
39E7
100
AcDbEntity
  8
AM_5
100
AcDbTrace
 10
573.160355687436
 20
225.1442281433427
 30
0.0
 11
573.160355687436
 21
223.7442281433427
 31
0.0
 12
577.3603556874361
 22
224.4442281433427
 32
0.0
 13
577.3603556874361
 23
224.4442281433427
 33
0.0
  0
MTEXT
  5
9B05
330
39E7
100
AcDbEntity
  8
AM_5
100
AcDbMText
 10
566.8603556874361
 20
228.2947104268072
 30
0.0
 40
4.899999999999999
 41
0.0
 71
     5
 72
     1
  1
21
 73
     1
 44
1.0
1001
ACAD
1000
MTEXTBEGIN
1070
    73
1070
     1
1070
    44
1040
1.0
1070
    74
1070
     0
1000
MTEXTEND
  0
POINT
  5
9B06
330
39E7
100
AcDbEntity
  8
Defpoints
 62
     0
100
AcDbPoint
 10
556.3603556874361
 20
240.3942281433426
 30
0.0
  0
POINT
  5
9B07
330
39E7
100
AcDbEntity
  8
Defpoints
 62
     0
100
AcDbPoint
 10
577.3603556874361
 20
237.4442281433427
 30
0.0
  0
POINT
  5
9B08
330
39E7
100
AcDbEntity
  8
Defpoints
 62
     0
100
AcDbPoint
 10
577.3603556874361
 20
224.4442281433427
 30
0.0
  0
ENDBLK
  5
39F2
330
39E7
100
AcDbEntity
  8
0
100
AcDbBlockEnd
  0
BLOCK
  5
5442
330
5436
100
AcDbEntity
  8
0
100
AcDbBlockBegin
  2
*D24
 70
     1
 10
0.0
 20
0.0
 30
0.0
  3
*D24
  1

  0
LINE
  5
9B09
330
5436
100
AcDbEntity
  8
AM_5
100
AcDbLine
 10
613.760355687436
 20
195.0311387258086
 30
0.0
 11
626.4603556874359
 21
195.0311387258086
 31
0.0
  0
LINE
  5
9B0A
330
5436
100
AcDbEntity
  8
AM_5
100
AcDbLine
 10
590.260355687436
 20
192.0311387258085
 30
0.0
 11
626.4603556874359
 21
192.0311387258085
 31
0.0
  0
LINE
  5
9B0B
330
5436
100
AcDbEntity
  8
AM_5
100
AcDbLine
 10
624.3603556874359
 20
187.8311387258085
 30
0.0
 11
624.3603556874359
 21
183.6311387258085
 31
0.0
  0
LINE
  5
9B0C
330
5436
100
AcDbEntity
  8
AM_5
100
AcDbLine
 10
624.3603556874359
 20
199.2311387258086
 30
0.0
 11
624.3603556874359
 21
208.3941033713715
 31
0.0
  0
LINE
  5
9B0D
330
5436
100
AcDbEntity
  8
AM_5
100
AcDbLine
 10
624.3603556874359
 20
192.0311387258085
 30
0.0
 11
624.3603556874359
 21
195.0311387258086
 31
0.0
  0
SOLID
  5
9B0E
330
5436
100
AcDbEntity
  8
AM_5
100
AcDbTrace
 10
623.6603556874358
 20
187.8311387258085
 30
0.0
 11
625.0603556874359
 21
187.8311387258085
 31
0.0
 12
624.3603556874359
 22
192.0311387258085
 32
0.0
 13
624.3603556874359
 23
192.0311387258085
 33
0.0
  0
SOLID
  5
9B0F
330
5436
100
AcDbEntity
  8
AM_5
100
AcDbTrace
 10
623.6603556874358
 20
199.2311387258086
 30
0.0
 11
625.0603556874359
 21
199.2311387258086
 31
0.0
 12
624.3603556874359
 22
195.0311387258086
 32
0.0
 13
624.3603556874359
 23
195.0311387258086
 33
0.0
  0
MTEXT
  5
9B10
330
5436
100
AcDbEntity
  8
AM_5
100
AcDbMText
 10
620.5103556874359
 20
205.9126210485902
 30
0.0
 40
4.899999999999999
 41
0.0
 71
     5
 72
     1
  1
3
 11
0.0000000000000001
 21
1.0
 31
0.0
 73
     1
 44
1.0
1001
ACAD
1000
MTEXTBEGIN
1070
    73
1070
     1
1070
    44
1040
1.0
1070
    74
1070
     0
1000
MTEXTEND
  0
POINT
  5
9B11
330
5436
100
AcDbEntity
  8
Defpoints
 62
     0
100
AcDbPoint
 10
612.360355687436
 20
195.0311387258086
 30
0.0
  0
POINT
  5
9B12
330
5436
100
AcDbEntity
  8
Defpoints
 62
     0
100
AcDbPoint
 10
588.8603556874361
 20
192.0311387258085
 30
0.0
  0
POINT
  5
9B13
330
5436
100
AcDbEntity
  8
Defpoints
 62
     0
100
AcDbPoint
 10
624.3603556874359
 20
192.0311387258085
 30
0.0
  0
ENDBLK
  5
5443
330
5436
100
AcDbEntity
  8
0
100
AcDbBlockEnd
  0
BLOCK
  5
6A83
330
6A79
100
AcDbEntity
  8
0
100
AcDbBlockBegin
  2
*D25
 70
     1
 10
0.0
 20
0.0
 30
0.0
  3
*D25
  1

  0
LINE
  5
9DB7
330
6A79
100
AcDbEntity
  8
AM_5
100
AcDbLine
 10
643.9057865533164
 20
160.0311387258086
 30
0.0
 11
634.675068562048
 21
160.0311387258086
 31
0.0
  0
LINE
  5
9DB8
330
6A79
100
AcDbEntity
  8
AM_5
100
AcDbLine
 10
648.2057865533163
 20
177.5311387258086
 30
0.0
 11
634.675068562048
 21
177.5311387258086
 31
0.0
  0
LINE
  5
9DB9
330
6A79
100
AcDbEntity
  8
AM_5
100
AcDbLine
 10
636.7750685620481
 20
164.2311387258086
 30
0.0
 11
636.7750685620481
 21
173.3311387258086
 31
0.0
  0
SOLID
  5
9DBA
330
6A79
100
AcDbEntity
  8
AM_5
100
AcDbTrace
 10
636.075068562048
 20
164.2311387258086
 30
0.0
 11
637.4750685620481
 21
164.2311387258086
 31
0.0
 12
636.7750685620481
 22
160.0311387258086
 32
0.0
 13
636.7750685620481
 23
160.0311387258086
 33
0.0
  0
SOLID
  5
9DBB
330
6A79
100
AcDbEntity
  8
AM_5
100
AcDbTrace
 10
636.075068562048
 20
173.3311387258086
 30
0.0
 11
637.4750685620481
 21
173.3311387258086
 31
0.0
 12
636.7750685620481
 22
177.5311387258086
 32
0.0
 13
636.7750685620481
 23
177.5311387258086
 33
0.0
  0
MTEXT
  5
9DBC
330
6A79
100
AcDbEntity
  8
AM_5
100
AcDbMText
 10
632.925068562048
 20
168.7811387258087
 30
0.0
 40
4.899999999999999
 41
0.0
 71
     5
 72
     1
  1
17.5
 11
0.0000000000000001
 21
1.0
 31
0.0
 73
     1
 44
1.0
1001
ACAD
1000
MTEXTBEGIN
1070
    73
1070
     1
1070
    44
1040
1.0
1070
    74
1070
     0
1000
MTEXTEND
  0
POINT
  5
9DBD
330
6A79
100
AcDbEntity
  8
Defpoints
 62
     0
100
AcDbPoint
 10
645.3057865533163
 20
160.0311387258086
 30
0.0
  0
POINT
  5
9DBE
330
6A79
100
AcDbEntity
  8
Defpoints
 62
     0
100
AcDbPoint
 10
649.6057865533162
 20
177.5311387258086
 30
0.0
  0
POINT
  5
9DBF
330
6A79
100
AcDbEntity
  8
Defpoints
 62
     0
100
AcDbPoint
 10
636.7750685620481
 20
177.5311387258086
 30
0.0
  0
ENDBLK
  5
6A84
330
6A79
100
AcDbEntity
  8
0
100
AcDbBlockEnd
  0
BLOCK
  5
9E27
330
9E22
100
AcDbEntity
  8
0
100
AcDbBlockBegin
  2
*S27
 70
     1
 10
0.0
 20
0.0
 30
0.0
  3
*S27
  1

  0
LINE
  5
9E23
330
9E22
100
AcDbEntity
  8
AM_5
 62
     5
100
AcDbLine
 10
630.654221910223
 20
224.2665800703167
 30
0.0
 11
597.1554613225423
 21
224.2665800703167
 31
0.0
  0
LINE
  5
9E24
330
9E22
100
AcDbEntity
  8
AM_5
 62
     5
100
AcDbLine
 10
597.1554613225423
 20
224.2665800703167
 30
0.0
 11
589.8297560027567
 21
234.0391265569575
 31
0.0
  0
TRACE
  5
9E25
330
9E22
100
AcDbEntity
  8
AM_5
 62
     5
370
    35
100
AcDbTrace
 10
590.3459276967744
 20
234.4260596587808
 30
0.0
 11
589.313584308739
 21
233.6521934551342
 31
0.0
 12
586.8907072901197
 22
237.9598398421578
 32
0.0
 13
586.8907072901197
 23
237.9598398421578
 33
0.0
  0
MTEXT
  5
9E26
330
9E22
100
AcDbEntity
  8
AM_5
 62
     5
100
AcDbMText
 10
630.654221910223
 20
231.9139610733124
 30
0.0
 40
4.899999999999999
 41
0.0
 71
     7
 72
     5
  1

  7
ACISOTS
 73
     1
 44
1.0
1001
ACAD
1000
MTEXTBEGIN
1070
    73
1070
     1
1070
    44
1040
1.0
1070
    74
1070
     0
1000
MTEXTEND
  0
ENDBLK
  5
9E28
330
9E22
100
AcDbEntity
  8
0
100
AcDbBlockEnd
  0
BLOCK
  5
9E2F
330
9E2A
100
AcDbEntity
  8
0
100
AcDbBlockBegin
  2
*S28
 70
     1
 10
0.0
 20
0.0
 30
0.0
  3
*S28
  1

  0
LINE
  5
9E2B
330
9E2A
100
AcDbEntity
  8
AM_5
 62
     5
100
AcDbLine
 10
621.8829801428678
 20
267.7211680698329
 30
0.0
 11
596.6322614843363
 21
267.7211680698329
 31
0.0
  0
LINE
  5
9E2C
330
9E2A
100
AcDbEntity
  8
AM_5
 62
     5
100
AcDbLine
 10
596.6322614843363
 20
267.7211680698329
 30
0.0
 11
585.5612707672809
 21
253.8699269445772
 31
0.0
  0
TRACE
  5
9E2D
330
9E2A
100
AcDbEntity
  8
AM_5
 62
     5
370
    35
100
AcDbTrace
 10
585.057357001908
 20
254.2726940733992
 30
0.0
 11
586.0651845326538
 21
253.4671598157553
 31
0.0
 12
582.5019506784115
 22
250.0423218717099
 32
0.0
 13
582.5019506784115
 23
250.0423218717099
 33
0.0
  0
MTEXT
  5
9E2E
330
9E2A
100
AcDbEntity
  8
AM_5
 62
     5
100
AcDbMText
 10
621.8829801428678
 20
275.1281396005158
 30
0.0
 40
4.899999999999999
 41
0.0
 71
     7
 72
     5
  1

  7
ACISOTS
 73
     1
 44
1.0
1001
ACAD
1000
MTEXTBEGIN
1070
    73
1070
     1
1070
    44
1040
1.0
1070
    74
1070
     0
1000
MTEXTEND
  0
ENDBLK
  5
9E30
330
9E2A
100
AcDbEntity
  8
0
100
AcDbBlockEnd
  0
BLOCK
  5
9E37
330
9E32
100
AcDbEntity
  8
0
100
AcDbBlockBegin
  2
*S29
 70
     1
 10
0.0
 20
0.0
 30
0.0
  3
*S29
  1

  0
LINE
  5
9E33
330
9E32
100
AcDbEntity
  8
AM_5
 62
     5
100
AcDbLine
 10
624.453656828788
 20
148.2797362356014
 30
0.0
 11
590.9548962411074
 21
148.2797362356014
 31
0.0
  0
LINE
  5
9E34
330
9E32
100
AcDbEntity
  8
AM_5
 62
     5
100
AcDbLine
 10
590.9548962411074
 20
148.2797362356014
 30
0.0
 11
581.1399866834102
 21
161.8652049489476
 31
0.0
  0
TRACE
  5
9E35
330
9E32
100
AcDbEntity
  8
AM_5
 62
     5
370
    35
100
AcDbTrace
 10
581.6628954706738
 20
162.2429837773568
 30
0.0
 11
580.6170778961465
 21
161.4874261205384
 31
0.0
 12
578.2704715810178
 22
165.8370915381067
 32
0.0
 13
578.2704715810178
 23
165.8370915381067
 33
0.0
  0
MTEXT
  5
9E36
330
9E32
100
AcDbEntity
  8
AM_5
 62
     5
100
AcDbMText
 10
624.453656828788
 20
155.9271172385971
 30
0.0
 40
4.899999999999999
 41
0.0
 71
     7
 72
     5
  1

  7
ACISOTS
 73
     1
 44
1.0
1001
ACAD
1000
MTEXTBEGIN
1070
    73
1070
     1
1070
    44
1040
1.0
1070
    74
1070
     0
1000
MTEXTEND
  0
ENDBLK
  5
9E38
330
9E32
100
AcDbEntity
  8
0
100
AcDbBlockEnd
  0
BLOCK
  5
9E3F
330
9E3A
100
AcDbEntity
  8
0
100
AcDbBlockBegin
  2
*S30
 70
     1
 10
0.0
 20
0.0
 30
0.0
  3
*S30
  1

  0
LINE
  5
9E3B
330
9E3A
100
AcDbEntity
  8
AM_5
 62
     5
100
AcDbLine
 10
626.696547600764
 20
96.48536830079933
 30
0.0
 11
600.7643747536633
 21
96.48536830079933
 31
0.0
  0
LINE
  5
9E3C
330
9E3A
100
AcDbEntity
  8
AM_5
 62
     5
100
AcDbLine
 10
600.7643747536633
 20
96.48536830079933
 30
0.0
 11
591.0827819737447
 21
113.1204018052967
 31
0.0
  0
TRACE
  5
9E3D
330
9E3A
100
AcDbEntity
  8
AM_5
 62
     5
370
    35
100
AcDbTrace
 10
591.6403265800057
 20
113.4448928760842
 30
0.0
 11
590.5252373674835
 21
112.7959107345092
 31
0.0
 12
588.6180275772708
 22
117.3553735602277
 32
0.0
 13
588.6180275772708
 23
117.3553735602277
 33
0.0
  0
MTEXT
  5
9E3E
330
9E3A
100
AcDbEntity
  8
AM_5
 62
     5
100
AcDbMText
 10
626.696547600764
 20
104.7667862244821
 30
0.0
 40
4.899999999999999
 41
0.0
 71
     7
 72
     5
  1

  7
ACISOTS
 73
     1
 44
1.0
1001
ACAD
1000
MTEXTBEGIN
1070
    73
1070
     1
1070
    44
1040
1.0
1070
    74
1070
     0
1000
MTEXTEND
  0
ENDBLK
  5
9E40
330
9E3A
100
AcDbEntity
  8
0
100
AcDbBlockEnd
  0
BLOCK
  5
9E47
330
9E42
100
AcDbEntity
  8
0
100
AcDbBlockBegin
  2
*S31
 70
     1
 10
0.0
 20
0.0
 30
0.0
  3
*S31
  1

  0
LINE
  5
9E43
330
9E42
100
AcDbEntity
  8
AM_5
 62
     5
100
AcDbLine
 10
682.4025082996325
 20
202.6725918289705
 30
0.0
 11
664.0238891773081
 21
202.6725918289705
 31
0.0
  0
LINE
  5
9E44
330
9E42
100
AcDbEntity
  8
AM_5
 62
     5
100
AcDbLine
 10
664.0238891773081
 20
202.6725918289705
 30
0.0
 11
660.3182548251907
 21
186.2833832002557
 31
0.0
  0
TRACE
  5
9E45
330
9E42
100
AcDbEntity
  8
AM_5
 62
     5
370
    35
100
AcDbTrace
 10
659.6890405233319
 20
186.4256498700281
 30
0.0
 11
660.9474691270494
 21
186.1411165304834
 31
0.0
 12
659.2376321783423
 22
181.5040260578025
 32
0.0
 13
659.2376321783423
 23
181.5040260578025
 33
0.0
  0
MTEXT
  5
9E46
330
9E42
100
AcDbEntity
  8
AM_5
 62
     5
100
AcDbMText
 10
682.4025082996325
 20
212.8288526097506
 30
0.0
 40
4.899999999999999
 41
0.0
 71
     7
 72
     5
  1

  7
ACISOTS
 73
     1
 44
1.0
1001
ACAD
1000
MTEXTBEGIN
1070
    73
1070
     1
1070
    44
1040
1.0
1070
    74
1070
     0
1000
MTEXTEND
  0
ENDBLK
  5
9E48
330
9E42
100
AcDbEntity
  8
0
100
AcDbBlockEnd
  0
ENDSEC
  0
SECTION
  2
ENTITIES
  0
LINE
  5
2716
330
1F
100
AcDbEntity
  8
AM_VIS
100
AcDbLine
 10
551.2603556874362
 20
123.8196888355616
 30
0.0
 11
551.2603556874362
 21
117.4493617119481
 31
0.0
  0
LINE
  5
2718
330
1F
100
AcDbEntity
  8
AM_VIS
100
AcDbLine
 10
541.8603556874361
 20
131.784525273755
 30
0.0
 11
541.8603556874361
 21
123.134525273755
 31
0.0
  0
LINE
  5
271E
330
1F
100
AcDbEntity
  8
AM_VIS
100
AcDbLine
 10
541.8603556874361
 20
118.134525273755
 30
0.0
 11
541.8603556874361
 21
109.484525273755
 31
0.0
  0
LINE
  5
276A
330
1F
100
AcDbEntity
  8
AM_VIS
100
AcDbLine
 10
581.0103556874359
 20
119.5939644079416
 30
0.0
 11
581.0103556874359
 21
121.675086139568
 31
0.0
  0
LINE
  5
276B
330
1F
100
AcDbEntity
  8
AM_VIS
100
AcDbLine
 10
573.4805898222685
 20
129.7845252737548
 30
0.0
 11
580.8726207305644
 21
129.7845252737548
 31
0.0
  0
LINE
  5
276C
330
1F
100
AcDbEntity
  8
AM_VIS
100
AcDbLine
 10
585.3603556874361
 20
111.4845252737548
 30
0.0
 11
573.4805898222685
 21
111.4845252737548
 31
0.0
  0
LINE
  5
276D
330
1F
100
AcDbEntity
  8
AM_VIS
100
AcDbLine
 10
584.8603556874361
 20
113.6345252737548
 30
0.0
 11
585.3603556874361
 21
113.6345252737548
 31
0.0
  0
LINE
  5
276E
330
1F
100
AcDbEntity
  8
AM_VIS
100
AcDbLine
 10
560.2401215526038
 20
111.4845252737548
 30
0.0
 11
552.8480906443077
 21
111.4845252737548
 31
0.0
  0
LINE
  5
276F
330
1F
100
AcDbEntity
  8
AM_VIS
100
AcDbLine
 10
548.3603556874361
 20
129.7845252737548
 30
0.0
 11
560.2401215526038
 21
129.7845252737548
 31
0.0
  0
LINE
  5
2770
330
1F
100
AcDbEntity
  8
AM_VIS
100
AcDbLine
 10
548.8603556874361
 20
127.6345252737548
 30
0.0
 11
548.3603556874361
 21
127.6345252737548
 31
0.0
  0
LINE
  5
2771
330
1F
100
AcDbEntity
  8
AM_VIS
100
AcDbLine
 10
577.2610136106509
 20
122.1345252737548
 30
0.0
 11
577.0583947146217
 21
122.1345252737548
 31
0.0
  0
LINE
  5
2772
330
1F
100
AcDbEntity
  8
AM_VIS
100
AcDbLine
 10
577.0583947146217
 20
119.1345252737548
 30
0.0
 11
577.2610136106509
 21
119.1345252737548
 31
0.0
  0
LINE
  5
2773
330
1F
100
AcDbEntity
  8
AM_VIS
100
AcDbLine
 10
556.4596977642213
 20
119.1345252737548
 30
0.0
 11
556.6623166602505
 21
119.1345252737548
 31
0.0
  0
LINE
  5
2774
330
1F
100
AcDbEntity
  8
AM_VIS
100
AcDbLine
 10
556.6623166602505
 20
122.1345252737547
 30
0.0
 11
556.4596977642213
 21
122.1345252737547
 31
0.0
  0
LINE
  5
2775
330
1F
100
AcDbEntity
  8
AM_VIS
100
AcDbLine
 10
569.1103556874361
 20
120.6345252737548
 30
0.0
 11
569.1103556874361
 21
115.7028588547551
 31
0.0
  0
LINE
  5
2776
330
1F
100
AcDbEntity
  8
AM_VIS
100
AcDbLine
 10
591.8603556874361
 20
131.7845252737548
 30
0.0
 11
541.8603556874361
 21
131.7845252737548
 31
0.0
  0
LINE
  5
27EC
330
1F
100
AcDbEntity
  8
AM_VIS
100
AcDbLine
 10
541.8603556874361
 20
109.4845252737548
 30
0.0
 11
591.8603556874361
 21
109.4845252737548
 31
0.0
  0
LINE
  5
27ED
330
1F
100
AcDbEntity
  8
AM_VIS
100
AcDbLine
 10
548.7103556874362
 20
116.649206351076
 30
0.0
 11
548.7103556874362
 21
118.1345252737548
 31
0.0
  0
LINE
  5
27EE
330
1F
100
AcDbEntity
  8
AM_VIS
100
AcDbLine
 10
548.7103556874362
 20
123.1345252737549
 30
0.0
 11
548.7103556874362
 21
124.6198441964336
 31
0.0
  0
ARC
  5
27EF
330
1F
100
AcDbEntity
  8
AM_VIS
100
AcDbCircle
 10
585.0951319982812
 20
120.6345252737549
 30
0.0
 40
36.47056274847199
100
AcDbArc
 50
176.0693816181822
 51
183.9306183818177
  0
LINE
  5
27F0
330
1F
100
AcDbEntity
  8
AM_VIS
100
AcDbLine
 10
585.0103556874359
 20
124.6198441964336
 30
0.0
 11
585.0103556874359
 21
123.1345252737549
 31
0.0
  0
LINE
  5
27F1
330
1F
100
AcDbEntity
  8
AM_VIS
100
AcDbLine
 10
585.0103556874359
 20
118.1345252737548
 30
0.0
 11
585.0103556874359
 21
116.649206351076
 31
0.0
  0
ARC
  5
27F2
330
1F
100
AcDbEntity
  8
AM_VIS
100
AcDbCircle
 10
548.625579376591
 20
120.6345252737548
 30
0.0
 40
36.47056274847199
100
AcDbArc
 50
356.0693816181823
 51
3.93061838181777
  0
LINE
  5
27F3
330
1F
100
AcDbEntity
  8
AM_VIS
100
AcDbLine
 10
569.1103556874361
 20
125.5661916927545
 30
0.0
 11
569.1103556874361
 21
120.6345252737548
 31
0.0
  0
ARC
  5
27F4
330
1F
100
AcDbEntity
  8
AM_VIS
100
AcDbCircle
 10
566.1892631688711
 20
121.6429266807283
 30
0.0
 40
4.229061029297184
100
AcDbArc
 50
111.9221875425792
 51
127.5754886427645
  0
ARC
  5
27F5
330
1F
100
AcDbEntity
  8
AM_VIS
100
AcDbCircle
 10
567.5314482060023
 20
121.6429266807306
 30
0.0
 40
4.229061029294741
100
AcDbArc
 50
52.42451135722916
 51
68.07781245742413
  0
LINE
  5
27F6
330
1F
100
AcDbEntity
  8
AM_VIS
100
AcDbLine
 10
564.6103556874361
 20
115.7028588547551
 30
0.0
 11
564.6103556874361
 21
120.6345252737548
 31
0.0
  0
LINE
  5
27F7
330
1F
100
AcDbEntity
  8
AM_VIS
100
AcDbLine
 10
564.6103556874361
 20
120.6345252737548
 30
0.0
 11
564.6103556874361
 21
125.5661916927545
 31
0.0
  0
LINE
  5
27FB
330
1F
100
AcDbEntity
  8
AM_VIS
100
AcDbLine
 10
547.3603556874361
 20
128.6345252737548
 30
0.0
 11
547.3603556874361
 21
128.7845252737549
 31
0.0
  0
LINE
  5
27FD
330
1F
100
AcDbEntity
  8
AM_VIS
100
AcDbLine
 10
541.8603556874361
 20
131.2845252737548
 30
0.0
 11
541.8603556874361
 21
109.9845252737548
 31
0.0
  0
LINE
  5
27FE
330
1F
100
AcDbEntity
  8
AM_VIS
100
AcDbLine
 10
586.3603556874361
 20
112.6345252737548
 30
0.0
 11
586.3603556874361
 21
112.4845252737548
 31
0.0
  0
LINE
  5
27FF
330
1F
100
AcDbEntity
  8
AM_VIS
100
AcDbLine
 10
591.8603556874361
 20
109.9845252737548
 30
0.0
 11
591.8603556874361
 21
131.2845252737548
 31
0.0
  0
ARC
  5
2800
330
1F
100
AcDbEntity
  8
AM_VIS
100
AcDbCircle
 10
548.8603556874361
 20
120.6345252737548
 30
0.0
 40
3.98814078430813
100
AcDbArc
 50
114.4391511387341
 51
245.5608488612658
  0
ARC
  5
2801
330
1F
100
AcDbEntity
  8
AM_VIS
100
AcDbCircle
 10
584.8603556874361
 20
120.6345252737548
 30
0.0
 40
3.98814078430813
100
AcDbArc
 50
294.4391511387342
 51
65.56084886126583
  0
ARC
  5
2802
330
1F
100
AcDbEntity
  8
AM_VIS
100
AcDbCircle
 10
584.8603556874361
 20
120.6345252737548
 30
0.0
 40
3.98814078430813
100
AcDbArc
 50
164.8757108018919
 51
195.124289198108
  0
ARC
  5
2803
330
1F
100
AcDbEntity
  8
AM_VIS
100
AcDbCircle
 10
548.8603556874361
 20
120.6345252737548
 30
0.0
 40
3.98814078430813
100
AcDbArc
 50
344.875710801892
 51
15.12428919810806
  0
ARC
  5
2804
330
1F
100
AcDbEntity
  8
AM_VIS
100
AcDbCircle
 10
584.8603556874361
 20
120.6345252737548
 30
0.0
 40
3.98814078430813
100
AcDbArc
 50
65.56084886126583
 51
164.8757108018919
  0
ARC
  5
2805
330
1F
100
AcDbEntity
  8
AM_VIS
100
AcDbCircle
 10
548.8603556874361
 20
120.6345252737548
 30
0.0
 40
3.98814078430813
100
AcDbArc
 50
245.5608488612658
 51
344.875710801892
  0
ARC
  5
2806
330
1F
100
AcDbEntity
  8
AM_VIS
100
AcDbCircle
 10
581.0757724372376
 20
127.682711538484
 30
0.0
 40
1.0
100
AcDbArc
 50
298.2339511367389
 51
16.87967440363704
  0
ARC
  5
2807
330
1F
100
AcDbEntity
  8
AM_VIS
100
AcDbCircle
 10
585.8603556874361
 20
129.1345252737548
 30
0.0
 40
4.0
100
AcDbArc
 50
184.0139872180559
 51
196.879674403637
  0
ARC
  5
2808
330
1F
100
AcDbEntity
  8
AM_VIS
100
AcDbCircle
 10
580.8726207305644
 20
128.7845252737549
 30
0.0
 40
1.0
100
AcDbArc
 50
4.013987218055889
 51
90.0
  0
ARC
  5
2809
330
1F
100
AcDbEntity
  8
AM_VIS
100
AcDbCircle
 10
573.4805898222685
 20
128.7845252737549
 30
0.0
 40
0.9999999999999998
100
AcDbArc
 50
90.0
 51
230.9130902647584
  0
ARC
  5
280A
330
1F
100
AcDbEntity
  8
AM_VIS
100
AcDbCircle
 10
566.8603556874361
 20
120.6345252737549
 30
0.0
 40
9.5
100
AcDbArc
 50
13.77414699802693
 51
50.91309026475845
  0
CIRCLE
  5
280B
330
1F
100
AcDbEntity
  8
AM_VIS
100
AcDbCircle
 10
566.8603556874361
 20
120.6345252737548
 30
0.0
 40
6.700000000000001
  0
CIRCLE
  5
280C
330
1F
100
AcDbEntity
  8
AM_VIS
100
AcDbCircle
 10
548.8603556874361
 20
120.6345252737548
 30
0.0
 40
5.25
  0
CIRCLE
  5
280D
330
1F
100
AcDbEntity
  8
AM_VIS
100
AcDbCircle
 10
584.8603556874361
 20
120.6345252737548
 30
0.0
 40
5.250000000000001
  0
ARC
  5
280E
330
1F
100
AcDbEntity
  8
AM_VIS
100
AcDbCircle
 10
573.4805898222685
 20
112.4845252737548
 30
0.0
 40
0.9999999999999998
100
AcDbArc
 50
129.0869097352415
 51
270.0
  0
ARC
  5
280F
330
1F
100
AcDbEntity
  8
AM_VIS
100
AcDbCircle
 10
585.3603556874361
 20
112.6345252737548
 30
0.0
 40
0.9999999999999998
100
AcDbArc
 50
0.0
 51
90.0
  0
ARC
  5
2810
330
1F
100
AcDbEntity
  8
AM_VIS
100
AcDbCircle
 10
552.6449389376345
 20
113.5863390090256
 30
0.0
 40
1.0
100
AcDbArc
 50
118.233951136739
 51
196.879674403637
  0
ARC
  5
2811
330
1F
100
AcDbEntity
  8
AM_VIS
100
AcDbCircle
 10
547.8603556874361
 20
112.1345252737548
 30
0.0
 40
4.0
100
AcDbArc
 50
4.013987218055889
 51
16.87967440363704
  0
ARC
  5
2812
330
1F
100
AcDbEntity
  8
AM_VIS
100
AcDbCircle
 10
552.8480906443077
 20
112.4845252737548
 30
0.0
 40
0.9999999999999998
100
AcDbArc
 50
184.0139872180559
 51
270.0
  0
ARC
  5
2813
330
1F
100
AcDbEntity
  8
AM_VIS
100
AcDbCircle
 10
560.2401215526038
 20
112.4845252737548
 30
0.0
 40
1.0
100
AcDbArc
 50
270.0
 51
50.91309026475845
  0
ARC
  5
2814
330
1F
100
AcDbEntity
  8
AM_VIS
100
AcDbCircle
 10
560.2401215526038
 20
128.7845252737549
 30
0.0
 40
0.9999999999999998
100
AcDbArc
 50
309.086909735241
 51
90.0
  0
ARC
  5
2815
330
1F
100
AcDbEntity
  8
AM_VIS
100
AcDbCircle
 10
548.3603556874361
 20
128.6345252737548
 30
0.0
 40
0.9999999999999998
100
AcDbArc
 50
180.0
 51
270.0
  0
ARC
  5
2816
102
{ACAD_REACTORS
330
390C
102
}
330
1F
100
AcDbEntity
  8
AM_VIS
100
AcDbCircle
 10
584.8603556874361
 20
120.6345252737548
 30
0.0
 40
7.0
100
AcDbArc
 50
198.2099568642828
 51
270.0
  0
ARC
  5
2817
330
1F
100
AcDbEntity
  8
AM_VIS
100
AcDbCircle
 10
584.8603556874361
 20
120.6345252737548
 30
0.0
 40
7.0
100
AcDbArc
 50
118.2339511367404
 51
161.7900431357172
  0
ARC
  5
2818
330
1F
100
AcDbEntity
  8
AM_VIS
100
AcDbCircle
 10
577.2610136106509
 20
123.1345252737548
 30
0.0
 40
1.0
100
AcDbArc
 50
270.0
 51
341.7900431357172
  0
ARC
  5
2819
330
1F
100
AcDbEntity
  8
AM_VIS
100
AcDbCircle
 10
577.0583947146217
 20
123.1345252737548
 30
0.0
 40
0.9999999999999998
100
AcDbArc
 50
193.7741469980269
 51
270.0
  0
ARC
  5
281A
330
1F
100
AcDbEntity
  8
AM_VIS
100
AcDbCircle
 10
566.8603556874361
 20
120.6345252737549
 30
0.0
 40
9.5
100
AcDbArc
 50
309.0869097352415
 51
346.2258530019731
  0
ARC
  5
281B
330
1F
100
AcDbEntity
  8
AM_VIS
100
AcDbCircle
 10
577.0583947146217
 20
118.1345252737548
 30
0.0
 40
1.0
100
AcDbArc
 50
90.0
 51
166.225853001973
  0
ARC
  5
281C
330
1F
100
AcDbEntity
  8
AM_VIS
100
AcDbCircle
 10
577.2610136106509
 20
118.1345252737548
 30
0.0
 40
1.0
100
AcDbArc
 50
18.20995686428278
 51
90.0
  0
ARC
  5
281D
330
1F
100
AcDbEntity
  8
AM_VIS
100
AcDbCircle
 10
566.8603556874361
 20
120.6345252737549
 30
0.0
 40
9.5
100
AcDbArc
 50
193.7741469980269
 51
230.9130902647584
  0
ARC
  5
281E
330
1F
100
AcDbEntity
  8
AM_VIS
100
AcDbCircle
 10
548.8603556874361
 20
120.6345252737548
 30
0.0
 40
7.0
100
AcDbArc
 50
18.20995686428278
 51
90.0
  0
ARC
  5
281F
330
1F
100
AcDbEntity
  8
AM_VIS
100
AcDbCircle
 10
548.8603556874361
 20
120.6345252737548
 30
0.0
 40
7.0
100
AcDbArc
 50
298.2339511367404
 51
341.7900431357172
  0
ARC
  5
2820
330
1F
100
AcDbEntity
  8
AM_VIS
100
AcDbCircle
 10
556.4596977642213
 20
118.1345252737548
 30
0.0
 40
1.0
100
AcDbArc
 50
90.0
 51
161.7900431357172
  0
ARC
  5
2821
330
1F
100
AcDbEntity
  8
AM_VIS
100
AcDbCircle
 10
556.6623166602505
 20
118.1345252737548
 30
0.0
 40
0.9999999999999998
100
AcDbArc
 50
13.77414699802693
 51
90.0
  0
ARC
  5
2822
330
1F
100
AcDbEntity
  8
AM_VIS
100
AcDbCircle
 10
566.8603556874361
 20
120.6345252737549
 30
0.0
 40
9.5
100
AcDbArc
 50
129.0869097352415
 51
166.225853001973
  0
ARC
  5
2823
330
1F
100
AcDbEntity
  8
AM_VIS
100
AcDbCircle
 10
556.6623166602505
 20
123.1345252737547
 30
0.0
 40
0.9999999999999998
100
AcDbArc
 50
270.0
 51
346.2258530019731
  0
ARC
  5
2824
330
1F
100
AcDbEntity
  8
AM_VIS
100
AcDbCircle
 10
556.4596977642213
 20
123.1345252737547
 30
0.0
 40
0.9999999999999998
100
AcDbArc
 50
198.2099568642828
 51
270.0
  0
ARC
  5
2825
330
1F
100
AcDbEntity
  8
AM_VIS
100
AcDbCircle
 10
566.8603556874361
 20
120.6345252737548
 30
0.0
 40
5.438140784308131
100
AcDbArc
 50
126.7003983555956
 51
233.2996016444043
  0
ARC
  5
2826
330
1F
100
AcDbEntity
  8
AM_VIS
100
AcDbCircle
 10
566.8603556874361
 20
120.6345252737548
 30
0.0
 40
5.438140784308131
100
AcDbArc
 50
306.7003983555956
 51
53.29960164440439
  0
CIRCLE
  5
2827
330
1F
100
AcDbEntity
  8
AM_VIS
100
AcDbCircle
 10
585.8603556874361
 20
129.1345252737548
 30
0.0
 40
1.6
  0
ARC
  5
2828
330
1F
100
AcDbEntity
  8
AM_VIS
100
AcDbCircle
 10
548.8603556874361
 20
120.6345252737548
 30
0.0
 40
3.98814078430813
100
AcDbArc
 50
15.12428919810806
 51
114.4391511387341
  0
ARC
  5
2829
330
1F
100
AcDbEntity
  8
AM_VIS
100
AcDbCircle
 10
584.8603556874361
 20
120.6345252737548
 30
0.0
 40
3.98814078430813
100
AcDbArc
 50
195.124289198108
 51
294.4391511387342
  0
ARC
  5
282A
330
1F
100
AcDbEntity
  8
AM_VIS
100
AcDbCircle
 10
566.8603556874361
 20
120.6345252737548
 30
0.0
 40
5.438140784308131
100
AcDbArc
 50
53.29960164440439
 51
126.7003983555956
  0
ARC
  5
282B
330
1F
100
AcDbEntity
  8
AM_VIS
100
AcDbCircle
 10
566.8603556874361
 20
120.6345252737548
 30
0.0
 40
5.438140784308131
100
AcDbArc
 50
233.2996016444043
 51
306.7003983555956
  0
ARC
  5
282C
330
1F
100
AcDbEntity
  8
AM_VIS
100
AcDbCircle
 10
548.3603556874361
 20
128.7845252737549
 30
0.0
 40
0.9999999999999998
100
AcDbArc
 50
90.0
 51
180.0
  0
CIRCLE
  5
282D
330
1F
100
AcDbEntity
  8
AM_VIS
100
AcDbCircle
 10
547.8603556874361
 20
112.1345252737548
 30
0.0
 40
1.6
  0
ARC
  5
282E
330
1F
100
AcDbEntity
  8
AM_VIS
100
AcDbCircle
 10
585.3603556874361
 20
112.4845252737548
 30
0.0
 40
0.9999999999999998
100
AcDbArc
 50
270.0
 51
0.0
  0
ARC
  5
2847
330
1F
100
AcDbEntity
  8
AM_VIS
100
AcDbCircle
 10
576.8603556874361
 20
167.0311387258085
 30
0.0
 40
4.703069865443481
100
AcDbArc
 50
0.0
 51
180.0
  0
ARC
  5
2848
330
1F
100
AcDbEntity
  8
AM_VIS
100
AcDbCircle
 10
566.8603556874361
 20
190.5311387258084
 30
0.0
 40
4.203069865443484
100
AcDbArc
 50
180.0
 51
0.0
  0
ARC
  5
2849
330
1F
100
AcDbEntity
  8
AM_VIS
100
AcDbCircle
 10
556.8603556874361
 20
167.0311387258085
 30
0.0
 40
4.703069865443481
100
AcDbArc
 50
0.0
 51
180.0
  0
LINE
  5
284A
330
1F
100
AcDbEntity
  8
AM_VIS
100
AcDbLine
 10
588.8603556874361
 20
194.5311387258085
 30
0.0
 11
588.8603556874361
 21
195.0311387258085
 31
0.0
  0
LINE
  5
284B
330
1F
100
AcDbEntity
  8
AM_VIS
100
AcDbLine
 10
582.8603556874361
 20
195.0311387258085
 30
0.0
 11
582.8603556874361
 21
194.5311387258085
 31
0.0
  0
LINE
  5
284C
330
1F
100
AcDbEntity
  8
AM_VIS
100
AcDbLine
 10
582.8603556874361
 20
195.0311387258085
 30
0.0
 11
588.8603556874361
 21
195.0311387258085
 31
0.0
  0
CIRCLE
  5
284D
330
1F
100
AcDbEntity
  8
AM_VIS
100
AcDbCircle
 10
566.8603556874361
 20
190.5311387258085
 30
0.0
 40
1.399999999999999
  0
LINE
  5
284F
330
1F
100
AcDbEntity
  8
AM_VIS
100
AcDbLine
 10
591.8603556874361
 20
236.4442281433428
 30
0.0
 11
591.8603556874361
 21
258.7442281433427
 31
0.0
  0
LINE
  5
2861
330
1F
100
AcDbEntity
  8
AM_VIS
100
AcDbLine
 10
541.8603556874361
 20
258.7442281433425
 30
0.0
 11
541.8603556874361
 21
236.4442281433426
 31
0.0
  0
LINE
  5
2874
330
1F
100
AcDbEntity
  8
AM_VIS
100
AcDbLine
 10
556.6103556874361
 20
247.5942281433427
 30
0.0
 11
556.6103556874361
 21
254.5266194390757
 31
0.0
  0
LINE
  5
2875
330
1F
100
AcDbEntity
  8
AM_VIS
100
AcDbLine
 10
577.1103556874361
 20
251.5266194390757
 30
0.0
 11
577.1103556874361
 21
240.6618368476097
 31
0.0
  0
LINE
  5
28AF
330
1F
100
AcDbEntity
  8
AM_VIS
100
AcDbLine
 10
588.8603556874361
 20
236.4442281433427
 30
0.0
 11
591.8603556874361
 21
236.4442281433427
 31
0.0
  0
LINE
  5
28B0
330
1F
100
AcDbEntity
  8
AM_VIS
100
AcDbLine
 10
541.8603556874361
 20
236.4442281433427
 30
0.0
 11
582.8603556874361
 21
236.4442281433427
 31
0.0
  0
LINE
  5
28B1
330
1F
100
AcDbEntity
  8
AM_VIS
100
AcDbLine
 10
576.5433489555177
 20
239.4442281433427
 30
0.0
 11
578.1773624193545
 21
239.4442281433427
 31
0.0
  0
LINE
  5
28B2
330
1F
100
AcDbEntity
  8
AM_VIS
100
AcDbLine
 10
573.8603556874361
 20
255.7442281433428
 30
0.0
 11
573.8603556874361
 21
255.5810611238478
 31
0.0
  0
LINE
  5
28B3
330
1F
100
AcDbEntity
  8
AM_VIS
100
AcDbLine
 10
564.4860864238069
 20
256.7442281433427
 30
0.0
 11
572.8603556874361
 21
256.7442281433427
 31
0.0
  0
LINE
  5
28B4
330
1F
100
AcDbEntity
  8
AM_VIS
100
AcDbLine
 10
559.8603556874361
 20
239.4442281433427
 30
0.0
 11
559.8603556874361
 21
239.6073951628375
 31
0.0
  0
LINE
  5
28B5
330
1F
100
AcDbEntity
  8
AM_VIS
100
AcDbLine
 10
569.2346249510653
 20
238.4442281433427
 30
0.0
 11
560.8603556874361
 21
238.4442281433427
 31
0.0
  0
LINE
  5
28B6
330
1F
100
AcDbEntity
  8
AM_VIS
100
AcDbLine
 10
590.3603556874361
 20
255.7442281433428
 30
0.0
 11
590.3603556874361
 21
245.1564059698337
 31
0.0
  0
LINE
  5
28B7
330
1F
100
AcDbEntity
  8
AM_VIS
100
AcDbLine
 10
581.8603556874361
 20
256.7442281433427
 30
0.0
 11
589.3603556874361
 21
256.7442281433427
 31
0.0
  0
LINE
  5
28B8
330
1F
100
AcDbEntity
  8
AM_VIS
100
AcDbLine
 10
580.8603556874361
 20
255.5810611238478
 30
0.0
 11
580.8603556874361
 21
255.7442281433428
 31
0.0
  0
LINE
  5
28B9
330
1F
100
AcDbEntity
  8
AM_VIS
100
AcDbLine
 10
543.3603556874361
 20
239.4442281433427
 30
0.0
 11
543.3603556874361
 21
250.0320503168516
 31
0.0
  0
LINE
  5
28BA
330
1F
100
AcDbEntity
  8
AM_VIS
100
AcDbLine
 10
551.8603556874361
 20
238.4442281433427
 30
0.0
 11
544.3603556874361
 21
238.4442281433427
 31
0.0
  0
LINE
  5
28BB
330
1F
100
AcDbEntity
  8
AM_VIS
100
AcDbLine
 10
552.8603556874361
 20
239.6073951628375
 30
0.0
 11
552.8603556874361
 21
239.4442281433427
 31
0.0
  0
LINE
  5
28BC
330
1F
100
AcDbEntity
  8
AM_VIS
100
AcDbLine
 10
544.8603556874361
 20
256.0942281433427
 30
0.0
 11
544.8603556874361
 21
258.2442281433428
 31
0.0
  0
LINE
  5
28BD
330
1F
100
AcDbEntity
  8
AM_VIS
100
AcDbLine
 10
550.8603556874361
 20
258.2442281433428
 30
0.0
 11
550.8603556874361
 21
256.0942281433427
 31
0.0
  0
LINE
  5
28BE
330
1F
100
AcDbEntity
  8
AM_VIS
100
AcDbLine
 10
588.8603556874361
 20
239.0942281433427
 30
0.0
 11
588.8603556874361
 21
236.9442281433427
 31
0.0
  0
LINE
  5
28BF
330
1F
100
AcDbEntity
  8
AM_VIS
100
AcDbLine
 10
582.8603556874361
 20
236.9442281433427
 30
0.0
 11
582.8603556874361
 21
239.0942281433427
 31
0.0
  0
LINE
  5
28C0
330
1F
100
AcDbEntity
  8
AM_VIS
100
AcDbLine
 10
557.1773624193546
 20
255.7442281433428
 30
0.0
 11
555.5433489555176
 21
255.7442281433428
 31
0.0
  0
LINE
  5
28C1
330
1F
100
AcDbEntity
  8
AM_VIS
100
AcDbLine
 10
591.8603556874361
 20
258.7442281433427
 30
0.0
 11
550.8603556874361
 21
258.7442281433427
 31
0.0
  0
LINE
  5
28C2
330
1F
100
AcDbEntity
  8
AM_VIS
100
AcDbLine
 10
544.8603556874361
 20
258.7442281433427
 30
0.0
 11
550.8603556874361
 21
258.7442281433427
 31
0.0
  0
LINE
  5
28C3
330
1F
100
AcDbEntity
  8
AM_VIS
100
AcDbLine
 10
544.8603556874361
 20
258.7442281433427
 30
0.0
 11
541.8603556874361
 21
258.7442281433427
 31
0.0
  0
LINE
  5
28C4
330
1F
100
AcDbEntity
  8
AM_VIS
100
AcDbLine
 10
556.6103556874361
 20
243.6618368476097
 30
0.0
 11
556.6103556874361
 21
247.5942281433427
 31
0.0
  0
LINE
  5
28C5
330
1F
100
AcDbEntity
  8
AM_VIS
100
AcDbLine
 10
560.1103556874361
 20
253.0326129886766
 30
0.0
 11
560.1103556874361
 21
247.5942281433427
 31
0.0
  0
LINE
  5
28C6
330
1F
100
AcDbEntity
  8
AM_VIS
100
AcDbLine
 10
560.1103556874361
 20
247.5942281433427
 30
0.0
 11
560.1103556874361
 21
245.1558432980089
 31
0.0
  0
LINE
  5
28C7
330
1F
100
AcDbEntity
  8
AM_VIS
100
AcDbLine
 10
573.6103556874361
 20
242.1558432980089
 30
0.0
 11
573.6103556874361
 21
247.5942281433428
 31
0.0
  0
LINE
  5
28C8
330
1F
100
AcDbEntity
  8
AM_VIS
100
AcDbLine
 10
573.6103556874361
 20
247.5942281433428
 30
0.0
 11
573.6103556874361
 21
250.0326129886766
 31
0.0
  0
ARC
  5
28C9
330
1F
100
AcDbEntity
  8
AM_VIS
100
AcDbCircle
 10
547.8606812488876
 20
256.0961607214681
 30
0.0
 40
1.601937555339153
100
AcDbArc
 50
251.8005826102299
 51
269.0749225435627
  0
ARC
  5
28CA
330
1F
100
AcDbEntity
  8
AM_VIS
100
AcDbCircle
 10
547.8610327214993
 20
256.0948231072945
 30
0.0
 40
1.600776805259722
100
AcDbArc
 50
190.8430357585051
 51
251.7736787954821
  0
LINE
  5
28CB
330
1F
100
AcDbEntity
  8
AM_VIS
100
AcDbLine
 10
541.8603556874361
 20
258.2442281433428
 30
0.0
 11
541.8603556874361
 21
236.9442281433427
 31
0.0
  0
LINE
  5
28CC
330
1F
100
AcDbEntity
  8
AM_VIS
100
AcDbLine
 10
588.8603556874361
 20
236.4442281433427
 30
0.0
 11
582.8603556874361
 21
236.4442281433427
 31
0.0
  0
ARC
  5
28CD
330
1F
100
AcDbEntity
  8
AM_VIS
100
AcDbCircle
 10
585.8600301259842
 20
239.0922955652158
 30
0.0
 40
1.601937555340761
100
AcDbArc
 50
71.80058261023868
 51
89.07492254355458
  0
ARC
  5
28CE
330
1F
100
AcDbEntity
  8
AM_VIS
100
AcDbCircle
 10
585.859678653373
 20
239.0936331793911
 30
0.0
 40
1.600776805259647
100
AcDbArc
 50
10.84303575846474
 51
71.77367879548185
  0
LINE
  5
28CF
330
1F
100
AcDbEntity
  8
AM_VIS
100
AcDbLine
 10
591.8603556874361
 20
236.9442281433427
 30
0.0
 11
591.8603556874361
 21
258.2442281433428
 31
0.0
  0
LINE
  5
28D0
330
1F
100
AcDbEntity
  8
AM_VIS
100
AcDbLine
 10
550.8603556874361
 20
258.2442281433428
 30
0.0
 11
550.8603556874361
 21
258.7442281433427
 31
0.0
  0
ARC
  5
28D1
330
1F
100
AcDbEntity
  8
AM_VIS
100
AcDbCircle
 10
577.3603556874361
 20
246.0942281433426
 30
0.0
 40
5.438140784308131
100
AcDbArc
 50
277.9272015741516
 51
82.07279842584833
  0
ARC
  5
28D2
330
1F
100
AcDbEntity
  8
AM_VIS
100
AcDbCircle
 10
556.3603556874361
 20
249.0942281433427
 30
0.0
 40
5.438140784308131
100
AcDbArc
 50
330.8632713522541
 51
29.13672864774588
  0
ARC
  5
28D3
330
1F
100
AcDbEntity
  8
AM_VIS
100
AcDbCircle
 10
556.3603556874361
 20
249.0942281433427
 30
0.0
 40
5.438140784308131
100
AcDbArc
 50
97.92720157415168
 51
262.0727984258484
  0
ARC
  5
28D4
330
1F
100
AcDbEntity
  8
AM_VIS
100
AcDbCircle
 10
556.3603556874361
 20
249.0942281433427
 30
0.0
 40
5.438140784308131
100
AcDbArc
 50
29.13672864774588
 51
97.92720157415168
  0
ARC
  5
28D5
330
1F
100
AcDbEntity
  8
AM_VIS
100
AcDbCircle
 10
577.3603556874361
 20
246.0942281433426
 30
0.0
 40
5.438140784308131
100
AcDbArc
 50
150.8632713522541
 51
209.1367286477459
  0
ARC
  5
28D6
330
1F
100
AcDbEntity
  8
AM_VIS
100
AcDbCircle
 10
577.3603556874361
 20
246.0942281433426
 30
0.0
 40
5.438140784308131
100
AcDbArc
 50
209.1367286477459
 51
277.9272015741516
  0
LINE
  5
28D7
330
1F
100
AcDbEntity
  8
AM_VIS
100
AcDbLine
 10
588.8603556874361
 20
236.4442281433427
 30
0.0
 11
588.8603556874361
 21
236.9442281433427
 31
0.0
  0
LINE
  5
28D8
330
1F
100
AcDbEntity
  8
AM_VIS
100
AcDbLine
 10
582.8603556874361
 20
236.9442281433427
 30
0.0
 11
582.8603556874361
 21
236.4442281433427
 31
0.0
  0
ARC
  5
28D9
330
1F
100
AcDbEntity
  8
AM_VIS
100
AcDbCircle
 10
577.3603556874361
 20
246.0942281433426
 30
0.0
 40
6.700000000000001
100
AcDbArc
 50
277.0041539781068
 51
262.9958460218915
  0
ARC
  5
28DA
330
1F
100
AcDbEntity
  8
AM_VIS
100
AcDbCircle
 10
572.8603556874361
 20
255.5810611238478
 30
0.0
 40
1.0
100
AcDbArc
 50
295.3769335251532
 51
0.0
  0
ARC
  5
28DB
330
1F
100
AcDbEntity
  8
AM_VIS
100
AcDbCircle
 10
572.8603556874361
 20
255.7442281433428
 30
0.0
 40
0.9999999999999998
100
AcDbArc
 50
0.0
 51
90.0
  0
ARC
  5
28DC
330
1F
100
AcDbEntity
  8
AM_VIS
100
AcDbCircle
 10
564.4860864238069
 20
255.7442281433428
 30
0.0
 40
0.9999999999999998
100
AcDbArc
 50
90.0
 51
219.2964802391875
  0
ARC
  5
28DD
330
1F
100
AcDbEntity
  8
AM_VIS
100
AcDbCircle
 10
556.3603556874361
 20
249.0942281433427
 30
0.0
 40
9.5
100
AcDbArc
 50
295.3769335251518
 51
39.29648023918689
  0
ARC
  5
28DE
330
1F
100
AcDbEntity
  8
AM_VIS
100
AcDbCircle
 10
560.8603556874361
 20
239.6073951628375
 30
0.0
 40
1.0
100
AcDbArc
 50
115.3769335251532
 51
180.0
  0
ARC
  5
28DF
330
1F
100
AcDbEntity
  8
AM_VIS
100
AcDbCircle
 10
560.8603556874361
 20
239.4442281433427
 30
0.0
 40
0.9999999999999998
100
AcDbArc
 50
180.0
 51
270.0
  0
ARC
  5
28E0
330
1F
100
AcDbEntity
  8
AM_VIS
100
AcDbCircle
 10
569.2346249510653
 20
239.4442281433427
 30
0.0
 40
1.0
100
AcDbArc
 50
270.0
 51
39.29648023918751
  0
ARC
  5
28E1
330
1F
100
AcDbEntity
  8
AM_VIS
100
AcDbCircle
 10
577.3603556874361
 20
246.0942281433426
 30
0.0
 40
9.5
100
AcDbArc
 50
115.3769335251532
 51
219.2964802391875
  0
ARC
  5
28E2
330
1F
100
AcDbEntity
  8
AM_VIS
100
AcDbCircle
 10
581.8603556874361
 20
255.5810611238478
 30
0.0
 40
0.9999999999999998
100
AcDbArc
 50
180.0
 51
244.6230664748468
  0
ARC
  5
28E3
330
1F
100
AcDbEntity
  8
AM_VIS
100
AcDbCircle
 10
577.3603556874361
 20
246.0942281433426
 30
0.0
 40
9.5
100
AcDbArc
 50
358.4140782474216
 51
64.62306647484822
  0
ARC
  5
28E4
330
1F
100
AcDbEntity
  8
AM_VIS
100
AcDbCircle
 10
587.8563336156083
 20
245.803629913266
 30
0.0
 40
1.0
100
AcDbArc
 50
178.4140782474216
 51
253.4328004540148
  0
ARC
  5
28E5
330
1F
100
AcDbEntity
  8
AM_VIS
100
AcDbCircle
 10
585.8603556874361
 20
239.0942281433427
 30
0.0
 40
6.0
100
AcDbArc
 50
59.99999999999986
 51
73.43280045401295
  0
ARC
  5
28E6
330
1F
100
AcDbEntity
  8
AM_VIS
100
AcDbCircle
 10
589.3603556874361
 20
245.1564059698338
 30
0.0
 40
1.0
100
AcDbArc
 50
239.9999999999998
 51
0.0
  0
ARC
  5
28E7
330
1F
100
AcDbEntity
  8
AM_VIS
100
AcDbCircle
 10
589.3603556874361
 20
255.7442281433428
 30
0.0
 40
0.9999999999999998
100
AcDbArc
 50
0.0
 51
90.0
  0
ARC
  5
28E8
330
1F
100
AcDbEntity
  8
AM_VIS
100
AcDbCircle
 10
581.8603556874361
 20
255.7442281433428
 30
0.0
 40
0.9999999999999998
100
AcDbArc
 50
90.0
 51
180.0
  0
ARC
  5
28E9
330
1F
100
AcDbEntity
  8
AM_VIS
100
AcDbCircle
 10
551.8603556874361
 20
239.6073951628375
 30
0.0
 40
0.9999999999999998
100
AcDbArc
 50
0.0
 51
64.62306647484675
  0
ARC
  5
28EA
330
1F
100
AcDbEntity
  8
AM_VIS
100
AcDbCircle
 10
556.3603556874361
 20
249.0942281433427
 30
0.0
 40
9.5
100
AcDbArc
 50
178.4140782474216
 51
244.6230664748482
  0
ARC
  5
28EB
330
1F
100
AcDbEntity
  8
AM_VIS
100
AcDbCircle
 10
545.864377759264
 20
249.3848263734194
 30
0.0
 40
1.0
100
AcDbArc
 50
358.4140782474216
 51
73.43280045401474
  0
ARC
  5
28EC
330
1F
100
AcDbEntity
  8
AM_VIS
100
AcDbCircle
 10
547.8603556874361
 20
256.0942281433427
 30
0.0
 40
6.0
100
AcDbArc
 50
239.9999999999998
 51
253.4328004540145
  0
ARC
  5
28ED
330
1F
100
AcDbEntity
  8
AM_VIS
100
AcDbCircle
 10
544.3603556874361
 20
250.0320503168516
 30
0.0
 40
1.0
100
AcDbArc
 50
59.99999999999986
 51
180.0
  0
ARC
  5
28EE
330
1F
100
AcDbEntity
  8
AM_VIS
100
AcDbCircle
 10
544.3603556874361
 20
239.4442281433427
 30
0.0
 40
0.9999999999999998
100
AcDbArc
 50
180.0
 51
270.0
  0
ARC
  5
28EF
330
1F
100
AcDbEntity
  8
AM_VIS
100
AcDbCircle
 10
551.8603556874361
 20
239.4442281433427
 30
0.0
 40
0.9999999999999998
100
AcDbArc
 50
270.0
 51
0.0
  0
ARC
  5
28F0
330
1F
100
AcDbEntity
  8
AM_VIS
100
AcDbCircle
 10
585.8603556874361
 20
239.0942281433427
 30
0.0
 40
3.0
100
AcDbArc
 50
0.0
 51
180.0
  0
ARC
  5
28F1
330
1F
100
AcDbEntity
  8
AM_VIS
100
AcDbCircle
 10
556.3603556874361
 20
249.0942281433427
 30
0.0
 40
6.700000000000001
100
AcDbArc
 50
97.00415397810848
 51
82.99584602189151
  0
LINE
  5
28F2
330
1F
100
AcDbEntity
  8
AM_VIS
100
AcDbLine
 10
544.8603556874361
 20
258.7442281433427
 30
0.0
 11
544.8603556874361
 21
258.2442281433428
 31
0.0
  0
ARC
  5
28F3
330
1F
100
AcDbEntity
  8
AM_VIS
100
AcDbCircle
 10
556.3603556874361
 20
249.0942281433427
 30
0.0
 40
5.438140784308131
100
AcDbArc
 50
262.0727984258484
 51
330.8632713522541
  0
ARC
  5
28F4
330
1F
100
AcDbEntity
  8
AM_VIS
100
AcDbCircle
 10
577.3603556874361
 20
246.0942281433426
 30
0.0
 40
5.438140784308131
100
AcDbArc
 50
82.07279842584833
 51
150.8632713522541
  0
ARC
  5
28F5
330
1F
100
AcDbEntity
  8
AM_VIS
100
AcDbCircle
 10
547.8603556874361
 20
256.0942281433427
 30
0.0
 40
1.6
100
AcDbArc
 50
269.0854620180762
 51
190.826671418271
  0
ARC
  5
28F6
330
1F
100
AcDbEntity
  8
AM_VIS
100
AcDbCircle
 10
547.8603556874361
 20
256.0942281433427
 30
0.0
 40
3.0
100
AcDbArc
 50
180.0
 51
0.0
  0
ARC
  5
28F7
330
1F
100
AcDbEntity
  8
AM_VIS
100
AcDbCircle
 10
585.8603556874361
 20
239.0942281433427
 30
0.0
 40
1.6
100
AcDbArc
 50
89.08546201807615
 51
10.82667141823385
  0
LINE
  5
292A
330
1F
100
AcDbEntity
  8
AM_VIS
100
AcDbLine
 10
591.8603556874361
 20
109.4845252737547
 30
0.0
 11
591.8603556874361
 21
118.1345252737548
 31
0.0
  0
LINE
  5
2930
330
1F
100
AcDbEntity
  8
AM_VIS
100
AcDbLine
 10
591.8603556874361
 20
123.1345252737547
 30
0.0
 11
591.8603556874361
 21
131.7845252737547
 31
0.0
  0
LINE
  5
2939
330
1F
100
AcDbEntity
  8
AM_VIS
100
AcDbLine
 10
591.8603556874361
 20
180.0311387258086
 30
0.0
 11
591.8603556874361
 21
195.0311387258086
 31
0.0
  0
LINE
  5
293C
330
1F
100
AcDbEntity
  8
AM_VIS
100
AcDbLine
 10
591.8603556874361
 20
180.0311387258086
 30
0.0
 11
592.3603556874361
 21
180.0311387258086
 31
0.0
  0
LINE
  5
293D
330
1F
100
AcDbEntity
  8
AM_VIS
100
AcDbLine
 10
592.3603556874361
 20
175.0311387258086
 30
0.0
 11
591.8603556874361
 21
175.0311387258086
 31
0.0
  0
LINE
  5
293E
330
1F
100
AcDbEntity
  8
AM_VIS
100
AcDbLine
 10
592.3603556874361
 20
180.0311387258086
 30
0.0
 11
592.3603556874361
 21
175.0311387258086
 31
0.0
  0
LINE
  5
2940
330
1F
100
AcDbEntity
  8
AM_VIS
100
AcDbLine
 10
591.8603556874361
 20
160.0311387258086
 30
0.0
 11
591.8603556874361
 21
175.0311387258086
 31
0.0
  0
LINE
  5
2941
330
1F
100
AcDbEntity
  8
AM_VIS
100
AcDbLine
 10
592.3603248260961
 20
175.0311387258086
 30
0.0
 11
592.3603248260961
 21
180.0311387258086
 31
0.0
  0
LINE
  5
294E
330
1F
100
AcDbEntity
  8
AM_VIS
100
AcDbLine
 10
541.8603556874361
 20
195.0311387258086
 30
0.0
 11
541.8603556874361
 21
160.0311387258086
 31
0.0
  0
LINE
  5
295F
330
1F
100
AcDbEntity
  8
AM_VIS
100
AcDbLine
 10
541.8603556874361
 20
160.0311387258085
 30
0.0
 11
591.8603556874361
 21
160.0311387258085
 31
0.0
  0
ELLIPSE
  5
2960
330
1F
100
AcDbEntity
  8
AM_VIS
100
AcDbEllipse
 10
546.2563593045731
 20
190.5311387258085
 30
0.0
 11
-0.0000000000000004
 21
3.0
 31
0.0
210
0.0
220
0.0
230
1.0
 40
0.5773502691896272
 41
1.570796326794894
 42
2.748190021579697
  0
LINE
  5
2961
330
1F
100
AcDbEntity
  8
AM_VIS
100
AcDbLine
 10
544.5243084970043
 20
190.5311387258085
 30
0.0
 11
544.5243084970043
 21
192.3671859162404
 31
0.0
  0
LINE
  5
2962
330
1F
100
AcDbEntity
  8
AM_VIS
100
AcDbLine
 10
543.8603556874361
 20
193.0311387258085
 30
0.0
 11
544.5243084970043
 21
192.3671859162405
 31
0.0
  0
LINE
  5
2963
330
1F
100
AcDbEntity
  8
AM_VIS
100
AcDbLine
 10
573.8922870606643
 20
183.6311387258085
 30
0.0
 11
580.8284243142079
 21
183.6311387258085
 31
0.0
  0
LINE
  5
2964
330
1F
100
AcDbEntity
  8
AM_VIS
100
AcDbLine
 10
580.8284243142079
 20
187.7990879182397
 30
0.0
 11
580.8284243142079
 21
183.6311387258085
 31
0.0
  0
LINE
  5
2965
330
1F
100
AcDbEntity
  8
AM_VIS
100
AcDbLine
 10
550.8603556874361
 20
165.2631895333774
 30
0.0
 11
550.8603556874361
 21
187.7311387258085
 31
0.0
  0
LINE
  5
2966
330
1F
100
AcDbEntity
  8
AM_VIS
100
AcDbLine
 10
550.8603556874361
 20
187.7311387258085
 30
0.0
 11
545.8603556874361
 21
187.7311387258085
 31
0.0
  0
LINE
  5
2967
330
1F
100
AcDbEntity
  8
AM_VIS
100
AcDbLine
 10
545.592406495005
 20
187.760308525309
 30
0.0
 11
545.592406495005
 21
165.2631895333774
 31
0.0
  0
LINE
  5
2968
330
1F
100
AcDbEntity
  8
AM_VIS
100
AcDbLine
 10
563.6999290874659
 20
187.760308525309
 30
0.0
 11
545.592406495005
 21
187.760308525309
 31
0.0
  0
LINE
  5
2969
330
1F
100
AcDbEntity
  8
AM_VIS
100
AcDbLine
 10
573.8922870606643
 20
183.6311387258085
 30
0.0
 11
573.8922870606643
 21
187.760308525309
 31
0.0
  0
LINE
  5
296A
330
1F
100
AcDbEntity
  8
AM_VIS
100
AcDbLine
 10
584.2991061878365
 20
187.7990879182396
 30
0.0
 11
584.2991061878365
 21
165.2631895333774
 31
0.0
  0
LINE
  5
296B
330
1F
100
AcDbEntity
  8
AM_VIS
100
AcDbLine
 10
587.4216051870357
 20
165.2631895333774
 30
0.0
 11
587.4216051870357
 21
187.7990879182396
 31
0.0
  0
LINE
  5
296C
330
1F
100
AcDbEntity
  8
AM_VIS
100
AcDbLine
 10
588.1283048798673
 20
165.2631895333774
 30
0.0
 11
588.1283048798673
 21
187.7990879182396
 31
0.0
  0
LINE
  5
296D
330
1F
100
AcDbEntity
  8
AM_VIS
100
AcDbLine
 10
573.8922870606643
 20
187.760308525309
 30
0.0
 11
570.0207822874062
 21
187.760308525309
 31
0.0
  0
LINE
  5
296E
330
1F
100
AcDbEntity
  8
AM_VIS
100
AcDbLine
 10
579.0139511728711
 20
188.149093396056
 30
0.0
 11
580.652108893161
 21
187.8019466798445
 31
0.0
  0
ARC
  5
296F
330
1F
100
AcDbEntity
  8
AM_VIS
100
AcDbCircle
 10
577.2795214093023
 20
176.8863183551693
 30
0.0
 40
11.38933794181594
100
AcDbArc
 50
81.24716392690809
 51
107.3017462255477
  0
LINE
  5
2970
330
1F
100
AcDbEntity
  8
AM_VIS
100
AcDbLine
 10
580.6515030847635
 20
187.7990879182396
 30
0.0
 11
580.9892712308874
 21
187.7990879182396
 31
0.0
  0
LINE
  5
2971
330
1F
100
AcDbEntity
  8
AM_VIS
100
AcDbLine
 10
572.1572858219927
 20
167.0311387258085
 30
0.0
 11
572.1572858219927
 21
161.7990879182397
 31
0.0
  0
LINE
  5
2972
330
1F
100
AcDbEntity
  8
AM_VIS
100
AcDbLine
 10
581.5634255528796
 20
165.2631895333774
 30
0.0
 11
581.5634255528796
 21
167.0311387258085
 31
0.0
  0
LINE
  5
2973
330
1F
100
AcDbEntity
  8
AM_VIS
100
AcDbLine
 10
589.8603556874361
 20
165.2631895333774
 30
0.0
 11
581.5634255528796
 21
165.2631895333774
 31
0.0
  0
LINE
  5
2974
330
1F
100
AcDbEntity
  8
AM_VIS
100
AcDbLine
 10
589.8603556874361
 20
187.7990879182396
 30
0.0
 11
589.8603556874361
 21
165.2631895333774
 31
0.0
  0
LINE
  5
2975
330
1F
100
AcDbEntity
  8
AM_VIS
100
AcDbLine
 10
582.6697567641945
 20
187.7990879182396
 30
0.0
 11
589.8603556874361
 21
187.7990879182396
 31
0.0
  0
LINE
  5
2976
330
1F
100
AcDbEntity
  8
AM_VIS
100
AcDbLine
 10
571.0634255528796
 20
193.0311387258085
 30
0.0
 11
580.3603556874361
 21
193.0311387258085
 31
0.0
  0
LINE
  5
2977
330
1F
100
AcDbEntity
  8
AM_VIS
100
AcDbLine
 10
571.0634255528796
 20
190.5311387258084
 30
0.0
 11
571.0634255528796
 21
193.0311387258085
 31
0.0
  0
LINE
  5
2978
330
1F
100
AcDbEntity
  8
AM_VIS
100
AcDbLine
 10
562.6572858219926
 20
193.0311387258085
 30
0.0
 11
562.6572858219926
 21
190.5311387258084
 31
0.0
  0
LINE
  5
2979
330
1F
100
AcDbEntity
  8
AM_VIS
100
AcDbLine
 10
543.8603556874361
 20
193.0311387258085
 30
0.0
 11
562.6572858219926
 21
193.0311387258085
 31
0.0
  0
LINE
  5
297A
330
1F
100
AcDbEntity
  8
AM_VIS
100
AcDbLine
 10
543.8603556874361
 20
161.7990879182397
 30
0.0
 11
543.8603556874361
 21
193.0311387258085
 31
0.0
  0
LINE
  5
297B
330
1F
100
AcDbEntity
  8
AM_VIS
100
AcDbLine
 10
552.1572858219927
 20
167.0311387258085
 30
0.0
 11
552.1572858219927
 21
161.7990879182397
 31
0.0
  0
LINE
  5
297C
330
1F
100
AcDbEntity
  8
AM_VIS
100
AcDbLine
 10
561.5634255528796
 20
161.7990879182397
 30
0.0
 11
561.5634255528796
 21
167.0311387258085
 31
0.0
  0
LINE
  5
297D
330
1F
100
AcDbEntity
  8
AM_VIS
100
AcDbLine
 10
582.8603556874361
 20
192.0311387258085
 30
0.0
 11
582.8603556874361
 21
194.5311387258085
 31
0.0
  0
LINE
  5
297E
102
{ACAD_REACTORS
330
5445
102
}
330
1F
100
AcDbEntity
  8
AM_VIS
100
AcDbLine
 10
588.8603556874361
 20
194.5311387258085
 30
0.0
 11
588.8603556874361
 21
192.0311387258085
 31
0.0
  0
LINE
  5
297F
330
1F
100
AcDbEntity
  8
AM_VIS
100
AcDbLine
 10
580.3603556874361
 20
193.0311387258085
 30
0.0
 11
580.3603556874361
 21
189.7990879182396
 31
0.0
  0
ELLIPSE
  5
2980
330
1F
100
AcDbEntity
  8
AM_VIS
100
AcDbEllipse
 10
582.6697567641946
 20
189.7990879182396
 30
0.0
 11
-2.309401076758502
 21
-0.0000000000000005
 31
0.0
210
0.0
220
0.0
230
1.0
 40
0.8660254037844387
 41
0.0000000000000002
 42
1.570796326794896
  0
LINE
  5
2981
330
1F
100
AcDbEntity
  8
AM_VIS
100
AcDbLine
 10
580.9892712308874
 20
187.7990879182396
 30
0.0
 11
582.6697567641945
 21
187.7990879182396
 31
0.0
  0
LINE
  5
2982
330
1F
100
AcDbEntity
  8
AM_VIS
100
AcDbLine
 10
544.7263810912204
 20
164.3971641295929
 30
0.0
 11
545.592406495005
 21
165.2631895333774
 31
0.0
  0
LINE
  5
2983
330
1F
100
AcDbEntity
  8
AM_VIS
100
AcDbLine
 10
545.592406495005
 20
165.2631895333774
 30
0.0
 11
545.8603556874361
 21
165.2631895333774
 31
0.0
  0
LINE
  5
2984
330
1F
100
AcDbEntity
  8
AM_VIS
100
AcDbLine
 10
545.8603556874361
 20
165.2631895333774
 30
0.0
 11
545.8603556874361
 21
165.2311387258085
 31
0.0
  0
LINE
  5
2985
330
1F
100
AcDbEntity
  8
AM_VIS
100
AcDbLine
 10
545.8603556874361
 20
165.2311387258085
 30
0.0
 11
550.8603556874361
 21
165.2311387258085
 31
0.0
  0
LINE
  5
2986
330
1F
100
AcDbEntity
  8
AM_VIS
100
AcDbLine
 10
550.8603556874361
 20
165.2311387258085
 30
0.0
 11
550.8603556874361
 21
165.2631895333774
 31
0.0
  0
LINE
  5
2987
330
1F
100
AcDbEntity
  8
AM_VIS
100
AcDbLine
 10
550.8603556874361
 20
165.2631895333774
 30
0.0
 11
551.6283048798673
 21
165.2631895333774
 31
0.0
  0
LINE
  5
2988
330
1F
100
AcDbEntity
  8
AM_VIS
100
AcDbLine
 10
551.8927953509301
 20
164.3971641295929
 30
0.0
 11
551.6283048798673
 21
165.2631895333774
 31
0.0
  0
ELLIPSE
  5
2989
330
1F
100
AcDbEntity
  8
AM_VIS
100
AcDbEllipse
 10
545.592406495005
 20
161.7990879182397
 30
0.0
 11
-0.0000000000000005
 21
3.0
 31
0.0
210
0.0
220
0.0
230
1.0
 40
0.5773502691896273
 41
0.5235987755982984
 42
1.570796326794896
  0
ELLIPSE
  5
298A
330
1F
100
AcDbEntity
  8
AM_VIS
100
AcDbEllipse
 10
551.6283048798673
 20
161.7990879182397
 30
0.0
 11
-0.0000000000000006
 21
-3.0
 31
0.0
210
0.0
220
0.0
230
1.0
 40
0.1763269807084651
 41
1.570796326794899
 42
2.617993877991497
  0
LINE
  5
298B
330
1F
100
AcDbEntity
  8
AM_VIS
100
AcDbLine
 10
562.092406495005
 20
165.2631895333774
 30
0.0
 11
561.8279160239421
 21
164.3971641295929
 31
0.0
  0
LINE
  5
298C
330
1F
100
AcDbEntity
  8
AM_VIS
100
AcDbLine
 10
562.092406495005
 20
165.2631895333774
 30
0.0
 11
571.6283048798673
 21
165.2631895333774
 31
0.0
  0
LINE
  5
298D
330
1F
100
AcDbEntity
  8
AM_VIS
100
AcDbLine
 10
571.89279535093
 20
164.3971641295929
 30
0.0
 11
571.6283048798673
 21
165.2631895333774
 31
0.0
  0
ELLIPSE
  5
298E
330
1F
100
AcDbEntity
  8
AM_VIS
100
AcDbEllipse
 10
562.092406495005
 20
161.7990879182397
 30
0.0
 11
-0.0000000000000004
 21
3.0
 31
0.0
210
0.0
220
0.0
230
1.0
 40
0.1763269807084645
 41
0.5235987755982992
 42
1.570796326794896
  0
ELLIPSE
  5
298F
330
1F
100
AcDbEntity
  8
AM_VIS
100
AcDbEllipse
 10
571.6283048798673
 20
161.7990879182397
 30
0.0
 11
-0.000000000000001
 21
-3.0
 31
0.0
210
0.0
220
0.0
230
1.0
 40
0.1763269807084647
 41
1.5707963267949
 42
2.617993877991498
  0
LINE
  5
2990
330
1F
100
AcDbEntity
  8
AM_VIS
100
AcDbLine
 10
591.8603556874361
 20
195.0311387258085
 30
0.0
 11
588.8603556874361
 21
195.0311387258085
 31
0.0
  0
LINE
  5
2991
330
1F
100
AcDbEntity
  8
AM_VIS
100
AcDbLine
 10
582.8603556874361
 20
195.0311387258085
 30
0.0
 11
541.8603556874361
 21
195.0311387258085
 31
0.0
  0
LINE
  5
2992
330
1F
100
AcDbEntity
  8
AM_VIS
100
AcDbLine
 10
541.8603556874361
 20
194.5311387258085
 30
0.0
 11
541.8603556874361
 21
160.5311387258085
 31
0.0
  0
LINE
  5
2993
330
1F
100
AcDbEntity
  8
AM_VIS
100
AcDbLine
 10
588.8603556874361
 20
192.0311387258085
 30
0.0
 11
582.8603556874361
 21
192.0311387258085
 31
0.0
  0
LINE
  5
2994
330
1F
100
AcDbEntity
  8
AM_VIS
100
AcDbLine
 10
591.8603556874361
 20
160.5311387258085
 30
0.0
 11
591.8603556874361
 21
194.5311387258085
 31
0.0
  0
CIRCLE
  5
2995
330
1F
100
AcDbEntity
  8
AM_VIS
100
AcDbCircle
 10
576.8603556874361
 20
167.0311387258085
 30
0.0
 40
2.1
  0
CIRCLE
  5
2996
330
1F
100
AcDbEntity
  8
AM_VIS
100
AcDbCircle
 10
556.8603556874361
 20
167.0311387258085
 30
0.0
 40
2.1
  0
LINE
  5
299A
330
1F
100
AcDbEntity
  8
AM_7
100
AcDbLine
 10
531.8894762075879
 20
247.5942281433427
 30
0.0
 11
614.2712055970112
 21
247.5942281433427
 31
0.0
  0
LINE
  5
2C2B
330
1F
100
AcDbEntity
  8
AM_VIS
100
AcDbLine
 10
541.8603556874361
 20
195.0311387258085
 30
0.0
 11
535.8603556874361
 21
195.0311387258085
 31
0.0
  0
LINE
  5
2C2C
330
1F
100
AcDbEntity
  8
AM_VIS
100
AcDbLine
 10
534.8603556874361
 20
163.5311387258085
 30
0.0
 11
534.8603556874361
 21
161.0311387258085
 31
0.0
  0
LINE
  5
2C2D
330
1F
100
AcDbEntity
  8
AM_VIS
100
AcDbLine
 10
534.8603556874361
 20
194.0311387258085
 30
0.0
 11
534.8603556874361
 21
168.5311387258085
 31
0.0
  0
LINE
  5
2C2E
330
1F
100
AcDbEntity
  8
AM_VIS
100
AcDbLine
 10
538.3603556874361
 20
160.0311387258085
 30
0.0
 11
535.8603556874361
 21
160.0311387258085
 31
0.0
  0
LINE
  5
2C2F
330
1F
100
AcDbEntity
  8
AM_VIS
100
AcDbLine
 10
538.3603556874361
 20
160.0311387258085
 30
0.0
 11
541.8603556874361
 21
160.0311387258085
 31
0.0
  0
LINE
  5
2C30
330
1F
100
AcDbEntity
  8
AM_VIS
100
AcDbLine
 10
541.8603556874361
 20
194.0311387258085
 30
0.0
 11
541.8603556874361
 21
161.0311387258085
 31
0.0
  0
LINE
  5
2C31
330
1F
100
AcDbEntity
  8
AM_VIS
100
AcDbLine
 10
537.8603556874361
 20
166.3128928892567
 30
0.0
 11
537.8603556874361
 21
160.7493845623604
 31
0.0
  0
LINE
  5
2C32
330
1F
100
AcDbEntity
  8
AM_VIS
100
AcDbLine
 10
535.8603556874361
 20
167.5311387258085
 30
0.0
 11
536.8603556874361
 21
167.5311387258085
 31
0.0
  0
ARC
  5
2C33
102
{ACAD_REACTORS
330
383B
330
3889
330
3958
102
}
330
1F
100
AcDbEntity
  8
AM_VIS
100
AcDbCircle
 10
535.8603556874361
 20
161.0311387258085
 30
0.0
 40
0.9999999999999982
100
AcDbArc
 50
180.0
 51
270.0
  0
ARC
  5
2C34
330
1F
100
AcDbEntity
  8
AM_VIS
100
AcDbCircle
 10
535.8603556874361
 20
168.5311387258085
 30
0.0
 40
1.0
100
AcDbArc
 50
180.0
 51
270.0
  0
LINE
  5
2C35
330
1F
100
AcDbEntity
  8
AM_VIS
100
AcDbLine
 10
534.8603556874361
 20
168.5311387258085
 30
0.0
 11
534.8603556874361
 21
163.5311387258085
 31
0.0
  0
ARC
  5
2C36
102
{ACAD_REACTORS
330
3958
102
}
330
1F
100
AcDbEntity
  8
AM_VIS
100
AcDbCircle
 10
535.8603556874361
 20
194.0311387258085
 30
0.0
 40
1.0
100
AcDbArc
 50
90.0
 51
180.0
  0
ARC
  5
2C37
330
1F
100
AcDbEntity
  8
AM_VIS
100
AcDbCircle
 10
538.3603556874361
 20
160.5311387258085
 30
0.0
 40
0.5
100
AcDbArc
 50
180.0
 51
270.0
  0
LINE
  5
2C38
330
1F
100
AcDbEntity
  8
AM_VIS
100
AcDbLine
 10
541.8603556874361
 20
161.0311387258085
 30
0.0
 11
541.8603556874361
 21
160.0311387258085
 31
0.0
  0
LINE
  5
2C39
330
1F
100
AcDbEntity
  8
AM_VIS
100
AcDbLine
 10
541.8603556874361
 20
195.0311387258085
 30
0.0
 11
541.8603556874361
 21
194.0311387258085
 31
0.0
  0
LINE
  5
2C3A
330
1F
100
AcDbEntity
  8
AM_VIS
100
AcDbLine
 10
537.8603556874361
 20
160.5311387258085
 30
0.0
 11
537.8603556874361
 21
161.0311387258085
 31
0.0
  0
ARC
  5
2C3B
330
1F
100
AcDbEntity
  8
AM_VIS
100
AcDbCircle
 10
536.8603556874361
 20
166.5311387258085
 30
0.0
 40
1.0
100
AcDbArc
 50
0.0
 51
90.0
  0
LINE
  5
2C3C
330
1F
100
AcDbEntity
  8
AM_VIS
100
AcDbLine
 10
535.8603556874361
 20
258.7442281433425
 30
0.0
 11
538.3603556874361
 21
258.7442281433425
 31
0.0
  0
LINE
  5
2C3D
330
1F
100
AcDbEntity
  8
AM_VIS
100
AcDbLine
 10
541.8603556874361
 20
258.7442281433425
 30
0.0
 11
538.3603556874361
 21
258.7442281433425
 31
0.0
  0
LINE
  5
2C3E
330
1F
100
AcDbEntity
  8
AM_VIS
100
AcDbLine
 10
534.8603556874361
 20
257.7442281433425
 30
0.0
 11
534.8603556874361
 21
254.5942281433426
 31
0.0
  0
LINE
  5
2C3F
330
1F
100
AcDbEntity
  8
AM_VIS
100
AcDbLine
 10
534.8603556874361
 20
249.5942281433425
 30
0.0
 11
534.8603556874361
 21
237.4442281433426
 31
0.0
  0
LINE
  5
2C40
330
1F
100
AcDbEntity
  8
AM_VIS
100
AcDbLine
 10
535.8603556874361
 20
236.4442281433426
 30
0.0
 11
541.8603556874361
 21
236.4442281433426
 31
0.0
  0
LINE
  5
2C41
330
1F
100
AcDbEntity
  8
AM_VIS
100
AcDbLine
 10
541.8603556874361
 20
257.7442281433425
 30
0.0
 11
541.8603556874361
 21
237.4442281433426
 31
0.0
  0
LINE
  5
2C42
330
1F
100
AcDbEntity
  8
AM_VIS
100
AcDbLine
 10
536.8603556874361
 20
250.5942281433426
 30
0.0
 11
535.8603556874361
 21
250.5942281433426
 31
0.0
  0
LINE
  5
2C43
330
1F
100
AcDbEntity
  8
AM_VIS
100
AcDbLine
 10
537.8603556874361
 20
257.7442281433425
 30
0.0
 11
537.8603556874361
 21
251.5307198164463
 31
0.0
  0
ARC
  5
2C44
330
1F
100
AcDbEntity
  8
AM_VIS
100
AcDbCircle
 10
535.8603556874361
 20
249.5942281433425
 30
0.0
 40
1.0
100
AcDbArc
 50
90.0
 51
180.0
  0
LINE
  5
2C45
330
1F
100
AcDbEntity
  8
AM_VIS
100
AcDbLine
 10
534.8603556874361
 20
254.5942281433426
 30
0.0
 11
534.8603556874361
 21
249.5942281433425
 31
0.0
  0
ARC
  5
2C46
102
{ACAD_REACTORS
330
36C8
330
36F2
102
}
330
1F
100
AcDbEntity
  8
AM_VIS
100
AcDbCircle
 10
535.8603556874361
 20
257.7442281433425
 30
0.0
 40
1.0
100
AcDbArc
 50
90.0
 51
180.0
  0
ARC
  5
2C47
102
{ACAD_REACTORS
330
36C8
330
39CE
102
}
330
1F
100
AcDbEntity
  8
AM_VIS
100
AcDbCircle
 10
535.8603556874361
 20
237.4442281433426
 30
0.0
 40
1.0
100
AcDbArc
 50
180.0
 51
270.0
  0
LINE
  5
2C48
330
1F
100
AcDbEntity
  8
AM_VIS
100
AcDbLine
 10
537.8603556874361
 20
257.7442281433425
 30
0.0
 11
537.8603556874361
 21
258.2442281433425
 31
0.0
  0
ARC
  5
2C49
330
1F
100
AcDbEntity
  8
AM_VIS
100
AcDbCircle
 10
538.3603556874361
 20
258.2442281433425
 30
0.0
 40
0.5
100
AcDbArc
 50
90.0
 51
180.0
  0
LINE
  5
2C4A
330
1F
100
AcDbEntity
  8
AM_VIS
100
AcDbLine
 10
541.8603556874361
 20
237.4442281433426
 30
0.0
 11
541.8603556874361
 21
236.4442281433426
 31
0.0
  0
LINE
  5
2C4B
330
1F
100
AcDbEntity
  8
AM_VIS
100
AcDbLine
 10
541.8603556874361
 20
258.7442281433425
 30
0.0
 11
541.8603556874361
 21
257.7442281433425
 31
0.0
  0
ARC
  5
2C4C
330
1F
100
AcDbEntity
  8
AM_VIS
100
AcDbCircle
 10
536.8603556874361
 20
251.5942281433425
 30
0.0
 40
1.0
100
AcDbArc
 50
270.0
 51
0.0
  0
LINE
  5
2C80
330
1F
100
AcDbEntity
  8
AM_VIS
100
AcDbLine
 10
535.8603556874361
 20
131.7845252737548
 30
0.0
 11
538.3603556874361
 21
131.7845252737548
 31
0.0
  0
LINE
  5
2C81
330
1F
100
AcDbEntity
  8
AM_VIS
100
AcDbLine
 10
541.8603556874361
 20
131.7845252737548
 30
0.0
 11
538.3603556874361
 21
131.7845252737548
 31
0.0
  0
LINE
  5
2C82
330
1F
100
AcDbEntity
  8
AM_VIS
100
AcDbLine
 10
534.8603556874361
 20
130.7845252737548
 30
0.0
 11
534.8603556874361
 21
127.6345252737549
 31
0.0
  0
LINE
  5
2C83
330
1F
100
AcDbEntity
  8
AM_VIS
100
AcDbLine
 10
534.8603556874361
 20
122.6345252737548
 30
0.0
 11
534.8603556874361
 21
110.4845252737548
 31
0.0
  0
LINE
  5
2C84
330
1F
100
AcDbEntity
  8
AM_VIS
100
AcDbLine
 10
535.8603556874361
 20
109.4845252737548
 30
0.0
 11
541.8603556874361
 21
109.4845252737548
 31
0.0
  0
LINE
  5
2C85
330
1F
100
AcDbEntity
  8
AM_VIS
100
AcDbLine
 10
541.8603556874361
 20
130.7845252737548
 30
0.0
 11
541.8603556874361
 21
110.4845252737548
 31
0.0
  0
LINE
  5
2C86
330
1F
100
AcDbEntity
  8
AM_VIS
100
AcDbLine
 10
536.8603556874361
 20
123.6345252737548
 30
0.0
 11
535.8603556874361
 21
123.6345252737548
 31
0.0
  0
LINE
  5
2C87
330
1F
100
AcDbEntity
  8
AM_VIS
100
AcDbLine
 10
537.8603556874361
 20
130.7845252737548
 30
0.0
 11
537.8603556874361
 21
124.5710169468586
 31
0.0
  0
ARC
  5
2C88
330
1F
100
AcDbEntity
  8
AM_VIS
100
AcDbCircle
 10
535.8603556874361
 20
122.6345252737548
 30
0.0
 40
1.0
100
AcDbArc
 50
90.0
 51
180.0
  0
LINE
  5
2C89
330
1F
100
AcDbEntity
  8
AM_VIS
100
AcDbLine
 10
534.8603556874361
 20
127.6345252737548
 30
0.0
 11
534.8603556874361
 21
122.6345252737548
 31
0.0
  0
ARC
  5
2C8A
330
1F
100
AcDbEntity
  8
AM_VIS
100
AcDbCircle
 10
535.8603556874361
 20
130.7845252737548
 30
0.0
 40
1.0
100
AcDbArc
 50
90.0
 51
180.0
  0
ARC
  5
2C8B
102
{ACAD_REACTORS
330
38B1
102
}
330
1F
100
AcDbEntity
  8
AM_VIS
100
AcDbCircle
 10
535.8603556874361
 20
110.4845252737548
 30
0.0
 40
1.0
100
AcDbArc
 50
180.0
 51
270.0
  0
LINE
  5
2C8C
330
1F
100
AcDbEntity
  8
AM_VIS
100
AcDbLine
 10
537.8603556874361
 20
130.7845252737548
 30
0.0
 11
537.8603556874361
 21
131.2845252737548
 31
0.0
  0
ARC
  5
2C8D
330
1F
100
AcDbEntity
  8
AM_VIS
100
AcDbCircle
 10
538.3603556874361
 20
131.2845252737548
 30
0.0
 40
0.5
100
AcDbArc
 50
90.0
 51
180.0
  0
LINE
  5
2C8E
330
1F
100
AcDbEntity
  8
AM_VIS
100
AcDbLine
 10
541.8603556874361
 20
110.4845252737548
 30
0.0
 11
541.8603556874361
 21
109.4845252737548
 31
0.0
  0
LINE
  5
2C8F
330
1F
100
AcDbEntity
  8
AM_VIS
100
AcDbLine
 10
541.8603556874361
 20
131.7845252737548
 30
0.0
 11
541.8603556874361
 21
130.7845252737548
 31
0.0
  0
ARC
  5
2C90
330
1F
100
AcDbEntity
  8
AM_VIS
100
AcDbCircle
 10
536.8603556874361
 20
124.6345252737548
 30
0.0
 40
1.0
100
AcDbArc
 50
270.0
 51
0.0
  0
LINE
  5
2E05
330
1F
100
AcDbEntity
  8
AM_0N
100
AcDbLine
 10
536.8358368016722
 20
166.2953617379588
 30
0.0
 11
537.8603556874361
 21
166.3311387258085
 31
0.0
  0
LINE
  5
2E06
330
1F
100
AcDbEntity
  8
AM_0N
100
AcDbLine
 10
536.8358368016722
 20
160.7669157136582
 30
0.0
 11
537.8603556874361
 21
160.7311387258085
 31
0.0
  0
ARC
  5
2E07
330
1F
100
AcDbEntity
  8
AM_0N
100
AcDbCircle
 10
540.4603556874362
 20
163.5311387258085
 30
0.0
 40
5.0
100
AcDbArc
 50
153.8190153291785
 51
206.1809846708217
  0
ARC
  5
2E08
330
1F
100
AcDbEntity
  8
AM_0N
100
AcDbCircle
 10
536.8707362983748
 20
161.7663065406773
 30
0.0
 40
1.0
100
AcDbArc
 50
206.1809846708217
 51
267.9999999999999
  0
ARC
  5
2E09
330
1F
100
AcDbEntity
  8
AM_0N
100
AcDbCircle
 10
536.8707362983748
 20
165.2959709109397
 30
0.0
 40
1.0
100
AcDbArc
 50
91.99999999999997
 51
153.8190153291783
  0
LINE
  5
2E0A
330
1F
100
AcDbEntity
  8
AM_0N
100
AcDbLine
 10
537.8603556874361
 20
164.8958237258085
 30
0.0
 11
537.8603556874361
 21
166.5311387258085
 31
0.0
  0
LINE
  5
2E0B
330
1F
100
AcDbEntity
  8
AM_0N
100
AcDbLine
 10
537.8603556874361
 20
160.7311387258085
 30
0.0
 11
537.8603556874361
 21
162.1664537258085
 31
0.0
  0
LINE
  5
2E0C
330
1F
100
AcDbEntity
  8
AM_0N
100
AcDbLine
 10
537.8603556874361
 20
162.1664537258085
 30
0.0
 11
537.8603556874361
 21
164.8958237258085
 31
0.0
  0
LINE
  5
2E18
330
1F
100
AcDbEntity
  8
AM_VIS
100
AcDbLine
 10
537.8603556874361
 20
130.4595252737549
 30
0.0
 11
537.8603556874361
 21
124.8960169468586
 31
0.0
  0
LINE
  5
2E19
330
1F
100
AcDbEntity
  8
AM_VIS
100
AcDbLine
 10
537.8603556874361
 20
124.6777711103067
 30
0.0
 11
537.8603556874361
 21
125.1777711103067
 31
0.0
  0
LINE
  5
2E1A
330
1F
100
AcDbEntity
  8
AM_0N
100
AcDbLine
 10
536.8358368016722
 20
130.441994122457
 30
0.0
 11
537.8603556874361
 21
130.4777711103067
 31
0.0
  0
LINE
  5
2E1B
330
1F
100
AcDbEntity
  8
AM_0N
100
AcDbLine
 10
536.8358368016722
 20
124.9135480981564
 30
0.0
 11
537.8603556874361
 21
124.8777711103067
 31
0.0
  0
ARC
  5
2E1C
330
1F
100
AcDbEntity
  8
AM_0N
100
AcDbCircle
 10
540.4603556874362
 20
127.6777711103067
 30
0.0
 40
5.0
100
AcDbArc
 50
153.8190153291785
 51
206.1809846708217
  0
ARC
  5
2E1D
330
1F
100
AcDbEntity
  8
AM_0N
100
AcDbCircle
 10
536.8707362983748
 20
125.9129389251754
 30
0.0
 40
1.0
100
AcDbArc
 50
206.1809846708217
 51
267.9999999999999
  0
ARC
  5
2E1E
330
1F
100
AcDbEntity
  8
AM_0N
100
AcDbCircle
 10
536.8707362983748
 20
129.4426032954379
 30
0.0
 40
1.0
100
AcDbArc
 50
91.99999999999997
 51
153.8190153291783
  0
LINE
  5
2E1F
330
1F
100
AcDbEntity
  8
AM_0N
100
AcDbLine
 10
537.8603556874361
 20
129.0424561103067
 30
0.0
 11
537.8603556874361
 21
130.6777711103067
 31
0.0
  0
LINE
  5
2E20
330
1F
100
AcDbEntity
  8
AM_0N
100
AcDbLine
 10
537.8603556874361
 20
124.8777711103067
 30
0.0
 11
537.8603556874361
 21
126.3130861103067
 31
0.0
  0
LINE
  5
2E21
330
1F
100
AcDbEntity
  8
AM_0N
100
AcDbLine
 10
537.8603556874361
 20
126.3130861103067
 30
0.0
 11
537.8603556874361
 21
129.0424561103067
 31
0.0
  0
LINE
  5
2E22
330
1F
100
AcDbEntity
  8
AM_VIS
100
AcDbLine
 10
537.8603556874361
 20
257.4192281433425
 30
0.0
 11
537.8603556874361
 21
251.8557198164462
 31
0.0
  0
LINE
  5
2E23
330
1F
100
AcDbEntity
  8
AM_0N
100
AcDbLine
 10
536.8358368016722
 20
257.4016969920446
 30
0.0
 11
537.8603556874361
 21
257.4374739798943
 31
0.0
  0
LINE
  5
2E24
330
1F
100
AcDbEntity
  8
AM_0N
100
AcDbLine
 10
536.8358368016722
 20
251.8732509677441
 30
0.0
 11
537.8603556874361
 21
251.8374739798944
 31
0.0
  0
ARC
  5
2E25
330
1F
100
AcDbEntity
  8
AM_0N
100
AcDbCircle
 10
540.4603556874361
 20
254.6374739798944
 30
0.0
 40
5.0
100
AcDbArc
 50
153.8190153291785
 51
206.1809846708217
  0
ARC
  5
2E26
330
1F
100
AcDbEntity
  8
AM_0N
100
AcDbCircle
 10
536.8707362983748
 20
252.8726417947631
 30
0.0
 40
1.0
100
AcDbArc
 50
206.1809846708217
 51
267.9999999999999
  0
ARC
  5
2E27
330
1F
100
AcDbEntity
  8
AM_0N
100
AcDbCircle
 10
536.8707362983748
 20
256.4023061650255
 30
0.0
 40
1.0
100
AcDbArc
 50
91.99999999999997
 51
153.8190153291783
  0
LINE
  5
2E28
330
1F
100
AcDbEntity
  8
AM_0N
100
AcDbLine
 10
537.8603556874361
 20
251.8374739798944
 30
0.0
 11
537.8603556874361
 21
253.2727889798944
 31
0.0
  0
LINE
  5
2E29
330
1F
100
AcDbEntity
  8
AM_0N
100
AcDbLine
 10
537.8603556874361
 20
253.2727889798944
 30
0.0
 11
537.8603556874361
 21
256.0021589798944
 31
0.0
  0
TEXT
  5
3433
330
1F
100
AcDbEntity
  8
0
100
AcDbText
 10
587.5082017660751
 20
245.3438434076377
 30
0.0
 40
3.0
  1
B
100
AcDbText
  0
TEXT
  5
3434
330
1F
100
AcDbEntity
  8
0
100
AcDbText
 10
543.837824896364
 20
246.7013056064627
 30
0.0
 40
3.0
  1
A
100
AcDbText
  0
TEXT
  5
3436
330
1F
100
AcDbEntity
  8
0
100
AcDbText
 10
576.6241279277956
 20
126.5447167933926
 30
0.0
 40
3.0
  1
R2
100
AcDbText
  0
TEXT
  5
3438
330
1F
100
AcDbEntity
  8
0
100
AcDbText
 10
552.5814599967189
 20
126.5644101389434
 30
0.0
 40
3.0
  1
R1
100
AcDbText
  0
TEXT
  5
343A
330
1F
100
AcDbEntity
  8
0
100
AcDbText
 10
574.2946893251069
 20
111.5752552157855
 30
0.0
 40
3.0
  1
P
100
AcDbText
  0
LINE
  5
361B
330
1F
100
AcDbEntity
  8
AM_7
100
AcDbLine
 10
556.3603556874361
 20
249.0942281433427
 30
0.0
 11
565.0603556874361
 21
249.0942281433427
 31
0.0
1001
GENIUS_GENOREF_13
1005
361F
  0
LINE
  5
361C
330
1F
100
AcDbEntity
  8
AM_7
100
AcDbLine
 10
556.3603556874361
 20
249.0942281433427
 30
0.0
 11
556.3603556874361
 21
257.7942281433427
 31
0.0
1001
GENIUS_GENOREF_13
1005
361F
  0
LINE
  5
361D
330
1F
100
AcDbEntity
  8
AM_7
100
AcDbLine
 10
556.3603556874361
 20
249.0942281433427
 30
0.0
 11
547.660355687436
 21
249.0942281433427
 31
0.0
1001
GENIUS_GENOREF_13
1005
361F
  0
LINE
  5
361E
102
{ACAD_REACTORS
330
39CE
330
39F4
102
}
330
1F
100
AcDbEntity
  8
AM_7
100
AcDbLine
 10
556.3603556874361
 20
249.0942281433427
 30
0.0
 11
556.3603556874361
 21
240.3942281433426
 31
0.0
1001
GENIUS_GENOREF_13
1005
361F
  0
POINT
  5
361F
330
1F
100
AcDbEntity
  8
0
 60
     1
100
AcDbPoint
 10
0.0
 20
0.0
 30
0.0
1001
GENIUS_GENOENT_13
1002
{
1000
MYREF
1005
361F
1002
}
1002
{
1000
GRP
1005
0
1002
}
1001
GENIUS_GENODEF_13
1002
{
1000
HIER
1070
    10
1002
}
1002
{
1000
MANEDIT
1070
     0
1002
}
1002
{
1000
NOSEL
1070
     0
1002
}
1002
{
1000
BEHIND
1070
     0
1002
}
1002
{
1000
OTHER
1070
     0
1002
}
1002
{
1000
REACTOR
1002
}
1001
GENIUS_GENOLIS_13
1002
{
1000
ENT
1005
361E
1005
361D
1005
361C
1005
361B
1002
}
1001
GENIUS_GENOBJ-N-CRS_13
1002
{
1000
OWNER
1000
GEN
1002
}
  0
LINE
  5
362D
330
1F
100
AcDbEntity
  8
AM_7
100
AcDbLine
 10
577.3603556874361
 20
246.0942281433426
 30
0.0
 11
586.0103556874361
 21
246.0942281433426
 31
0.0
1001
GENIUS_GENOREF_13
1005
3631
  0
LINE
  5
362E
330
1F
100
AcDbEntity
  8
AM_7
100
AcDbLine
 10
577.3603556874361
 20
246.0942281433426
 30
0.0
 11
577.3603556874361
 21
254.7442281433426
 31
0.0
1001
GENIUS_GENOREF_13
1005
3631
  0
LINE
  5
362F
330
1F
100
AcDbEntity
  8
AM_7
100
AcDbLine
 10
577.3603556874361
 20
246.0942281433426
 30
0.0
 11
568.7103556874361
 21
246.0942281433426
 31
0.0
1001
GENIUS_GENOREF_13
1005
3631
  0
LINE
  5
3630
102
{ACAD_REACTORS
330
39F4
102
}
330
1F
100
AcDbEntity
  8
AM_7
100
AcDbLine
 10
577.3603556874361
 20
246.0942281433426
 30
0.0
 11
577.3603556874361
 21
237.4442281433427
 31
0.0
1001
GENIUS_GENOREF_13
1005
3631
  0
POINT
  5
3631
330
1F
100
AcDbEntity
  8
0
 60
     1
100
AcDbPoint
 10
0.0
 20
0.0
 30
0.0
1001
GENIUS_GENODEF_13
1002
{
1000
HIER
1070
    10
1002
}
1002
{
1000
MANEDIT
1070
     0
1002
}
1002
{
1000
NOSEL
1070
     0
1002
}
1002
{
1000
BEHIND
1070
     0
1002
}
1002
{
1000
OTHER
1070
     0
1002
}
1002
{
1000
REACTOR
1002
}
1001
GENIUS_GENOENT_13
1002
{
1000
MYREF
1005
3631
1002
}
1002
{
1000
GRP
1005
0
1002
}
1001
GENIUS_GENOLIS_13
1002
{
1000
ENT
1005
3630
1005
362F
1005
362E
1005
362D
1002
}
1001
GENIUS_GENOBJ-N-CRS_13
1002
{
1000
OWNER
1000
GEN
1002
}
  0
LINE
  5
363F
330
1F
100
AcDbEntity
  8
AM_7
  6
AM_ISO08W050x2
100
AcDbLine
 10
585.8603556874361
 20
239.0942281433427
 30
0.0
 11
590.8603556874361
 21
239.0942281433427
 31
0.0
1001
GENIUS_GENOREF_13
1005
3643
  0
LINE
  5
3640
102
{ACAD_REACTORS
330
3718
102
}
330
1F
100
AcDbEntity
  8
AM_7
  6
AM_ISO08W050x2
100
AcDbLine
 10
585.8603556874361
 20
239.0942281433427
 30
0.0
 11
585.8603556874361
 21
244.0942281433426
 31
0.0
1001
GENIUS_GENOREF_13
1005
3643
  0
LINE
  5
3641
102
{ACAD_REACTORS
330
36A2
102
}
330
1F
100
AcDbEntity
  8
AM_7
  6
AM_ISO08W050x2
100
AcDbLine
 10
585.8603556874361
 20
239.0942281433427
 30
0.0
 11
580.8603556874361
 21
239.0942281433427
 31
0.0
1001
GENIUS_GENOREF_13
1005
3643
  0
LINE
  5
3642
330
1F
100
AcDbEntity
  8
AM_7
  6
AM_ISO08W050x2
100
AcDbLine
 10
585.8603556874361
 20
239.0942281433427
 30
0.0
 11
585.8603556874361
 21
234.0942281433427
 31
0.0
1001
GENIUS_GENOREF_13
1005
3643
  0
POINT
  5
3643
330
1F
100
AcDbEntity
  8
0
 60
     1
100
AcDbPoint
 10
0.0
 20
0.0
 30
0.0
1001
GENIUS_GENOBJ-N-CRS_13
1002
{
1000
OWNER
1000
GEN
1002
}
1001
GENIUS_GENOENT_13
1002
{
1000
MYREF
1005
3643
1002
}
1002
{
1000
GRP
1005
0
1002
}
1001
GENIUS_GENOLIS_13
1002
{
1000
ENT
1005
3642
1005
3641
1005
3640
1005
363F
1002
}
1001
GENIUS_GENODEF_13
1002
{
1000
HIER
1070
    10
1002
}
1002
{
1000
MANEDIT
1070
     0
1002
}
1002
{
1000
NOSEL
1070
     0
1002
}
1002
{
1000
BEHIND
1070
     0
1002
}
1002
{
1000
OTHER
1070
     0
1002
}
1002
{
1000
REACTOR
1002
}
  0
LINE
  5
3651
330
1F
100
AcDbEntity
  8
AM_7
  6
AM_ISO08W050x2
100
AcDbLine
 10
547.8603556874361
 20
256.0942281433427
 30
0.0
 11
552.8603556874361
 21
256.0942281433427
 31
0.0
1001
GENIUS_GENOREF_13
1005
3655
  0
LINE
  5
3652
102
{ACAD_REACTORS
330
36F2
330
3718
102
}
330
1F
100
AcDbEntity
  8
AM_7
  6
AM_ISO08W050x2
100
AcDbLine
 10
547.8603556874361
 20
256.0942281433427
 30
0.0
 11
547.8603556874361
 21
261.0942281433427
 31
0.0
1001
GENIUS_GENOREF_13
1005
3655
  0
LINE
  5
3653
102
{ACAD_REACTORS
330
36A2
102
}
330
1F
100
AcDbEntity
  8
AM_7
  6
AM_ISO08W050x2
100
AcDbLine
 10
547.8603556874361
 20
256.0942281433427
 30
0.0
 11
542.8603556874361
 21
256.0942281433427
 31
0.0
1001
GENIUS_GENOREF_13
1005
3655
  0
LINE
  5
3654
330
1F
100
AcDbEntity
  8
AM_7
  6
AM_ISO08W050x2
100
AcDbLine
 10
547.8603556874361
 20
256.0942281433427
 30
0.0
 11
547.8603556874361
 21
251.0942281433427
 31
0.0
1001
GENIUS_GENOREF_13
1005
3655
  0
POINT
  5
3655
330
1F
100
AcDbEntity
  8
0
 60
     1
100
AcDbPoint
 10
0.0
 20
0.0
 30
0.0
1001
GENIUS_GENOENT_13
1002
{
1000
MYREF
1005
3655
1002
}
1002
{
1000
GRP
1005
0
1002
}
1001
GENIUS_GENOBJ-N-CRS_13
1002
{
1000
OWNER
1000
GEN
1002
}
1001
GENIUS_GENOLIS_13
1002
{
1000
ENT
1005
3654
1005
3653
1005
3652
1005
3651
1002
}
1001
GENIUS_GENODEF_13
1002
{
1000
HIER
1070
    10
1002
}
1002
{
1000
MANEDIT
1070
     0
1002
}
1002
{
1000
NOSEL
1070
     0
1002
}
1002
{
1000
BEHIND
1070
     0
1002
}
1002
{
1000
OTHER
1070
     0
1002
}
1002
{
1000
REACTOR
1002
}
  0
DIMENSION
  5
3694
102
{ACAD_XDICTIONARY
360
36A1
102
}
102
{ACAD_REACTORS
330
36A2
102
}
330
1F
100
AcDbEntity
  8
AM_5
100
AcDbDimension
  2
*D9
 10
512.8603556874361
 20
239.0942281433427
 30
0.0
 11
509.010355687436
 21
247.5942281433427
 31
0.0
 70
    32
 71
     5
 42
16.99999999999997
  3
AM_ISO$0
100
AcDbAlignedDimension
 13
542.8603556874361
 23
256.0942281433427
 33
0.0
 14
580.8603556874361
 24
239.0942281433427
 34
0.0
 50
90.0
100
AcDbRotatedDimension
1001
ACAD
1000
DSTYLE
1002
{
1070
    40
1040
1.399999999999999
1070
   272
1070
     8
1002
}
  0
DIMENSION
  5
36BA
102
{ACAD_XDICTIONARY
360
36C7
102
}
102
{ACAD_REACTORS
330
36C8
102
}
330
1F
100
AcDbEntity
  8
AM_5
100
AcDbDimension
  2
*D10
 10
502.8603556874361
 20
236.4442281433426
 30
0.0
 11
499.0098734039715
 21
247.5942281433426
 31
0.0
 70
    32
 71
     5
 42
22.29999999999995
  3
AM_ISO$0
100
AcDbAlignedDimension
 13
535.8603556874361
 23
258.7442281433425
 33
0.0
 14
535.8603556874361
 24
236.4442281433426
 34
0.0
 50
90.0
100
AcDbRotatedDimension
1001
ACAD
1000
DSTYLE
1002
{
1070
    40
1040
1.399999999999999
1070
   272
1070
     8
1002
}
  0
DIMENSION
  5
36E4
102
{ACAD_XDICTIONARY
360
36F1
102
}
102
{ACAD_REACTORS
330
36F2
102
}
330
1F
100
AcDbEntity
  8
AM_5
100
AcDbDimension
  2
*D11
 10
547.8603556874361
 20
268.5087316314352
 30
0.0
 11
541.3603556874361
 21
272.3587316314353
 31
0.0
 70
    32
 71
     5
 42
13.0
  3
AM_ISO$0
100
AcDbAlignedDimension
 13
534.8603556874361
 23
257.7442281433425
 33
0.0
 14
547.8603556874361
 24
261.0942281433427
 34
0.0
100
AcDbRotatedDimension
1001
ACAD
1000
DSTYLE
1002
{
1070
    40
1040
1.399999999999999
1070
   272
1070
     8
1002
}
  0
DIMENSION
  5
370A
102
{ACAD_XDICTIONARY
360
3717
102
}
102
{ACAD_REACTORS
330
3718
102
}
330
1F
100
AcDbEntity
  8
AM_5
100
AcDbDimension
  2
*D12
 10
585.8603556874361
 20
268.5087316314352
 30
0.0
 11
566.8603556874361
 21
272.3587316314353
 31
0.0
 70
    32
 71
     5
 42
38.0
  3
AM_ISO$0
100
AcDbAlignedDimension
 13
547.8603556874361
 23
261.0942281433427
 33
0.0
 14
585.8603556874361
 24
244.0942281433426
 34
0.0
100
AcDbRotatedDimension
1001
ACAD
1000
DSTYLE
1002
{
1070
    40
1040
1.399999999999999
1070
   272
1070
     8
1002
}
  0
DIMENSION
  5
3730
330
1F
100
AcDbEntity
  8
AM_5
100
AcDbDimension
  2
*D13
 10
522.8603556874361
 20
246.0942281433427
 30
0.0
 11
522.8603556874361
 21
247.5942281433427
 31
0.0
 70
   160
 71
     5
 42
2.999999999999971
  3
AM_ISO$0
100
AcDbAlignedDimension
 13
565.0603556874361
 23
249.0942281433427
 33
0.0
 14
586.0103556874361
 24
246.0942281433426
 34
0.0
 50
90.0
100
AcDbRotatedDimension
1001
ACAD
1000
DSTYLE
1002
{
1070
    40
1040
1.399999999999999
1070
   272
1070
     8
1002
}
  0
LINE
  5
3784
330
1F
100
AcDbEntity
  8
AM_7
100
AcDbLine
 10
566.8603556874361
 20
120.6345252737549
 30
0.0
 11
575.5603556874361
 21
120.6345252737549
 31
0.0
1001
GENIUS_GENOREF_13
1005
3788
  0
LINE
  5
3785
330
1F
100
AcDbEntity
  8
AM_7
100
AcDbLine
 10
566.8603556874361
 20
120.6345252737549
 30
0.0
 11
566.8603556874361
 21
129.3345252737548
 31
0.0
1001
GENIUS_GENOREF_13
1005
3788
  0
LINE
  5
3786
330
1F
100
AcDbEntity
  8
AM_7
100
AcDbLine
 10
566.8603556874361
 20
120.6345252737549
 30
0.0
 11
558.1603556874361
 21
120.6345252737549
 31
0.0
1001
GENIUS_GENOREF_13
1005
3788
  0
LINE
  5
3787
102
{ACAD_REACTORS
330
38E6
330
390C
102
}
330
1F
100
AcDbEntity
  8
AM_7
100
AcDbLine
 10
566.8603556874361
 20
120.6345252737549
 30
0.0
 11
566.8603556874361
 21
111.9345252737549
 31
0.0
1001
GENIUS_GENOREF_13
1005
3788
  0
POINT
  5
3788
330
1F
100
AcDbEntity
  8
0
 60
     1
100
AcDbPoint
 10
0.0
 20
0.0
 30
0.0
1001
GENIUS_GENOLIS_13
1002
{
1000
ENT
1005
3787
1005
3786
1005
3785
1005
3784
1002
}
1001
GENIUS_GENOBJ-N-CRS_13
1002
{
1000
OWNER
1000
GEN
1002
}
1001
GENIUS_GENOENT_13
1002
{
1000
MYREF
1005
3788
1002
}
1002
{
1000
GRP
1005
0
1002
}
1001
GENIUS_GENODEF_13
1002
{
1000
HIER
1070
    10
1002
}
1002
{
1000
MANEDIT
1070
     0
1002
}
1002
{
1000
NOSEL
1070
     0
1002
}
1002
{
1000
BEHIND
1070
     0
1002
}
1002
{
1000
OTHER
1070
     0
1002
}
1002
{
1000
REACTOR
1002
}
  0
LINE
  5
3796
330
1F
100
AcDbEntity
  8
AM_7
  6
AM_ISO08W050x2
100
AcDbLine
 10
584.8603556874361
 20
120.6345252737548
 30
0.0
 11
592.1103556874361
 21
120.6345252737548
 31
0.0
1001
GENIUS_GENOREF_13
1005
379A
  0
LINE
  5
3797
330
1F
100
AcDbEntity
  8
AM_7
  6
AM_ISO08W050x2
100
AcDbLine
 10
584.8603556874361
 20
120.6345252737548
 30
0.0
 11
584.8603556874361
 21
127.8845252737548
 31
0.0
1001
GENIUS_GENOREF_13
1005
379A
  0
LINE
  5
3798
330
1F
100
AcDbEntity
  8
AM_7
  6
AM_ISO08W050x2
100
AcDbLine
 10
584.8603556874361
 20
120.6345252737548
 30
0.0
 11
577.6103556874361
 21
120.6345252737548
 31
0.0
1001
GENIUS_GENOREF_13
1005
379A
  0
LINE
  5
3799
330
1F
100
AcDbEntity
  8
AM_7
  6
AM_ISO08W050x2
100
AcDbLine
 10
584.8603556874361
 20
120.6345252737548
 30
0.0
 11
584.8603556874361
 21
113.3845252737548
 31
0.0
1001
GENIUS_GENOREF_13
1005
379A
  0
POINT
  5
379A
330
1F
100
AcDbEntity
  8
0
 60
     1
100
AcDbPoint
 10
0.0
 20
0.0
 30
0.0
1001
GENIUS_GENOENT_13
1002
{
1000
MYREF
1005
379A
1002
}
1002
{
1000
GRP
1005
0
1002
}
1001
GENIUS_GENODEF_13
1002
{
1000
HIER
1070
    10
1002
}
1002
{
1000
MANEDIT
1070
     0
1002
}
1002
{
1000
NOSEL
1070
     0
1002
}
1002
{
1000
BEHIND
1070
     0
1002
}
1002
{
1000
OTHER
1070
     0
1002
}
1002
{
1000
REACTOR
1002
}
1001
GENIUS_GENOLIS_13
1002
{
1000
ENT
1005
3799
1005
3798
1005
3797
1005
3796
1002
}
1001
GENIUS_GENOBJ-N-CRS_13
1002
{
1000
OWNER
1000
GEN
1002
}
  0
LINE
  5
37A8
330
1F
100
AcDbEntity
  8
AM_7
  6
AM_ISO08W050x2
100
AcDbLine
 10
548.8603556874361
 20
120.6345252737548
 30
0.0
 11
556.1103556874361
 21
120.6345252737548
 31
0.0
1001
GENIUS_GENOREF_13
1005
37AC
  0
LINE
  5
37A9
330
1F
100
AcDbEntity
  8
AM_7
  6
AM_ISO08W050x2
100
AcDbLine
 10
548.8603556874361
 20
120.6345252737548
 30
0.0
 11
548.8603556874361
 21
127.8845252737548
 31
0.0
1001
GENIUS_GENOREF_13
1005
37AC
  0
LINE
  5
37AA
330
1F
100
AcDbEntity
  8
AM_7
  6
AM_ISO08W050x2
100
AcDbLine
 10
548.8603556874361
 20
120.6345252737548
 30
0.0
 11
541.6103556874361
 21
120.6345252737548
 31
0.0
1001
GENIUS_GENOREF_13
1005
37AC
  0
LINE
  5
37AB
102
{ACAD_REACTORS
330
38B1
330
38E6
102
}
330
1F
100
AcDbEntity
  8
AM_7
  6
AM_ISO08W050x2
100
AcDbLine
 10
548.8603556874361
 20
120.6345252737548
 30
0.0
 11
548.8603556874361
 21
113.3845252737548
 31
0.0
1001
GENIUS_GENOREF_13
1005
37AC
  0
POINT
  5
37AC
330
1F
100
AcDbEntity
  8
0
 60
     1
100
AcDbPoint
 10
0.0
 20
0.0
 30
0.0
1001
GENIUS_GENODEF_13
1002
{
1000
HIER
1070
    10
1002
}
1002
{
1000
MANEDIT
1070
     0
1002
}
1002
{
1000
NOSEL
1070
     0
1002
}
1002
{
1000
BEHIND
1070
     0
1002
}
1002
{
1000
OTHER
1070
     0
1002
}
1002
{
1000
REACTOR
1002
}
1001
GENIUS_GENOBJ-N-CRS_13
1002
{
1000
OWNER
1000
GEN
1002
}
1001
GENIUS_GENOENT_13
1002
{
1000
MYREF
1005
37AC
1002
}
1002
{
1000
GRP
1005
0
1002
}
1001
GENIUS_GENOLIS_13
1002
{
1000
ENT
1005
37AB
1005
37AA
1005
37A9
1005
37A8
1002
}
  0
LINE
  5
37BA
330
1F
100
AcDbEntity
  8
AM_7
  6
AM_ISO08W050x2
100
AcDbLine
 10
547.8603556874361
 20
112.1345252737548
 30
0.0
 11
551.4603556874362
 21
112.1345252737548
 31
0.0
1001
GENIUS_GENOREF_13
1005
37BE
  0
LINE
  5
37BB
330
1F
100
AcDbEntity
  8
AM_7
  6
AM_ISO08W050x2
100
AcDbLine
 10
547.8603556874361
 20
112.1345252737548
 30
0.0
 11
547.8603556874361
 21
115.7345252737548
 31
0.0
1001
GENIUS_GENOREF_13
1005
37BE
  0
LINE
  5
37BC
330
1F
100
AcDbEntity
  8
AM_7
  6
AM_ISO08W050x2
100
AcDbLine
 10
547.8603556874361
 20
112.1345252737548
 30
0.0
 11
544.260355687436
 21
112.1345252737548
 31
0.0
1001
GENIUS_GENOREF_13
1005
37BE
  0
LINE
  5
37BD
330
1F
100
AcDbEntity
  8
AM_7
  6
AM_ISO08W050x2
100
AcDbLine
 10
547.8603556874361
 20
112.1345252737548
 30
0.0
 11
547.8603556874361
 21
108.5345252737548
 31
0.0
1001
GENIUS_GENOREF_13
1005
37BE
  0
POINT
  5
37BE
330
1F
100
AcDbEntity
  8
0
 60
     1
100
AcDbPoint
 10
0.0
 20
0.0
 30
0.0
1001
GENIUS_GENODEF_13
1002
{
1000
HIER
1070
    10
1002
}
1002
{
1000
MANEDIT
1070
     0
1002
}
1002
{
1000
NOSEL
1070
     0
1002
}
1002
{
1000
BEHIND
1070
     0
1002
}
1002
{
1000
OTHER
1070
     0
1002
}
1002
{
1000
REACTOR
1002
}
1001
GENIUS_GENOLIS_13
1002
{
1000
ENT
1005
37BD
1005
37BC
1005
37BB
1005
37BA
1002
}
1001
GENIUS_GENOBJ-N-CRS_13
1002
{
1000
OWNER
1000
GEN
1002
}
1001
GENIUS_GENOENT_13
1002
{
1000
MYREF
1005
37BE
1002
}
1002
{
1000
GRP
1005
0
1002
}
  0
LINE
  5
37CC
330
1F
100
AcDbEntity
  8
AM_7
  6
AM_ISO08W050x2
100
AcDbLine
 10
585.8603556874361
 20
129.1345252737548
 30
0.0
 11
589.4603556874362
 21
129.1345252737548
 31
0.0
1001
GENIUS_GENOREF_13
1005
37D0
  0
LINE
  5
37CD
330
1F
100
AcDbEntity
  8
AM_7
  6
AM_ISO08W050x2
100
AcDbLine
 10
585.8603556874361
 20
129.1345252737548
 30
0.0
 11
585.8603556874361
 21
132.7345252737548
 31
0.0
1001
GENIUS_GENOREF_13
1005
37D0
  0
LINE
  5
37CE
330
1F
100
AcDbEntity
  8
AM_7
  6
AM_ISO08W050x2
100
AcDbLine
 10
585.8603556874361
 20
129.1345252737548
 30
0.0
 11
582.2603556874359
 21
129.1345252737548
 31
0.0
1001
GENIUS_GENOREF_13
1005
37D0
  0
LINE
  5
37CF
330
1F
100
AcDbEntity
  8
AM_7
  6
AM_ISO08W050x2
100
AcDbLine
 10
585.8603556874361
 20
129.1345252737548
 30
0.0
 11
585.8603556874361
 21
125.5345252737548
 31
0.0
1001
GENIUS_GENOREF_13
1005
37D0
  0
POINT
  5
37D0
330
1F
100
AcDbEntity
  8
0
 60
     1
100
AcDbPoint
 10
0.0
 20
0.0
 30
0.0
1001
GENIUS_GENOENT_13
1002
{
1000
MYREF
1005
37D0
1002
}
1002
{
1000
GRP
1005
0
1002
}
1001
GENIUS_GENOLIS_13
1002
{
1000
ENT
1005
37CF
1005
37CE
1005
37CD
1005
37CC
1002
}
1001
GENIUS_GENOBJ-N-CRS_13
1002
{
1000
OWNER
1000
GEN
1002
}
1001
GENIUS_GENODEF_13
1002
{
1000
HIER
1070
    10
1002
}
1002
{
1000
MANEDIT
1070
     0
1002
}
1002
{
1000
NOSEL
1070
     0
1002
}
1002
{
1000
BEHIND
1070
     0
1002
}
1002
{
1000
OTHER
1070
     0
1002
}
1002
{
1000
REACTOR
1002
}
  0
LINE
  5
3807
330
1F
100
AcDbEntity
  8
AM_7
100
AcDbLine
 10
576.8603556874361
 20
167.0311387258085
 30
0.0
 11
582.5634255528796
 21
167.0311387258085
 31
0.0
1001
GENIUS_GENOREF_13
1005
380B
  0
LINE
  5
3808
330
1F
100
AcDbEntity
  8
AM_7
100
AcDbLine
 10
576.8603556874361
 20
167.0311387258085
 30
0.0
 11
576.8603556874361
 21
172.734208591252
 31
0.0
1001
GENIUS_GENOREF_13
1005
380B
  0
LINE
  5
3809
330
1F
100
AcDbEntity
  8
AM_7
100
AcDbLine
 10
576.8603556874361
 20
167.0311387258085
 30
0.0
 11
571.1572858219926
 21
167.0311387258085
 31
0.0
1001
GENIUS_GENOREF_13
1005
380B
  0
LINE
  5
380A
102
{ACAD_REACTORS
330
3861
102
}
330
1F
100
AcDbEntity
  8
AM_7
100
AcDbLine
 10
576.8603556874361
 20
167.0311387258085
 30
0.0
 11
576.8603556874361
 21
161.3280688603651
 31
0.0
1001
GENIUS_GENOREF_13
1005
380B
  0
POINT
  5
380B
330
1F
100
AcDbEntity
  8
0
 60
     1
100
AcDbPoint
 10
0.0
 20
0.0
 30
0.0
1001
GENIUS_GENOENT_13
1002
{
1000
MYREF
1005
380B
1002
}
1002
{
1000
GRP
1005
0
1002
}
1001
GENIUS_GENOLIS_13
1002
{
1000
ENT
1005
380A
1005
3809
1005
3808
1005
3807
1002
}
1001
GENIUS_GENOBJ-N-CRS_13
1002
{
1000
OWNER
1000
GEN
1002
}
1001
GENIUS_GENODEF_13
1002
{
1000
HIER
1070
    10
1002
}
1002
{
1000
MANEDIT
1070
     0
1002
}
1002
{
1000
NOSEL
1070
     0
1002
}
1002
{
1000
BEHIND
1070
     0
1002
}
1002
{
1000
OTHER
1070
     0
1002
}
1002
{
1000
REACTOR
1002
}
  0
LINE
  5
3819
330
1F
100
AcDbEntity
  8
AM_7
100
AcDbLine
 10
556.8603556874361
 20
167.0311387258085
 30
0.0
 11
562.5634255528796
 21
167.0311387258085
 31
0.0
1001
GENIUS_GENOREF_13
1005
381D
  0
LINE
  5
381A
330
1F
100
AcDbEntity
  8
AM_7
100
AcDbLine
 10
556.8603556874361
 20
167.0311387258085
 30
0.0
 11
556.8603556874361
 21
172.734208591252
 31
0.0
1001
GENIUS_GENOREF_13
1005
381D
  0
LINE
  5
381B
102
{ACAD_REACTORS
330
3889
102
}
330
1F
100
AcDbEntity
  8
AM_7
100
AcDbLine
 10
556.8603556874361
 20
167.0311387258085
 30
0.0
 11
551.1572858219927
 21
167.0311387258085
 31
0.0
1001
GENIUS_GENOREF_13
1005
381D
  0
LINE
  5
381C
102
{ACAD_REACTORS
330
383B
330
3861
102
}
330
1F
100
AcDbEntity
  8
AM_7
100
AcDbLine
 10
556.8603556874361
 20
167.0311387258085
 30
0.0
 11
556.8603556874361
 21
161.3280688603651
 31
0.0
1001
GENIUS_GENOREF_13
1005
381D
  0
POINT
  5
381D
330
1F
100
AcDbEntity
  8
0
 60
     1
100
AcDbPoint
 10
0.0
 20
0.0
 30
0.0
1001
GENIUS_GENOLIS_13
1002
{
1000
ENT
1005
381C
1005
381B
1005
381A
1005
3819
1002
}
1001
GENIUS_GENOENT_13
1002
{
1000
MYREF
1005
381D
1002
}
1002
{
1000
GRP
1005
0
1002
}
1001
GENIUS_GENOBJ-N-CRS_13
1002
{
1000
OWNER
1000
GEN
1002
}
1001
GENIUS_GENODEF_13
1002
{
1000
HIER
1070
    10
1002
}
1002
{
1000
MANEDIT
1070
     0
1002
}
1002
{
1000
NOSEL
1070
     0
1002
}
1002
{
1000
BEHIND
1070
     0
1002
}
1002
{
1000
OTHER
1070
     0
1002
}
1002
{
1000
REACTOR
1002
}
  0
DIMENSION
  5
382D
102
{ACAD_XDICTIONARY
360
383A
102
}
102
{ACAD_REACTORS
330
383B
102
}
330
1F
100
AcDbEntity
  8
AM_5
100
AcDbDimension
  2
*D14
 10
556.8603556874361
 20
148.0311387258085
 30
0.0
 11
545.8603556874361
 21
151.8816210092731
 31
0.0
 70
    32
 71
     5
 42
22.0
  3
AM_ISO$0
100
AcDbAlignedDimension
 13
534.8603556874361
 23
161.0311387258085
 33
0.0
 14
556.8603556874361
 24
161.3280688603651
 34
0.0
100
AcDbRotatedDimension
1001
ACAD
1000
DSTYLE
1002
{
1070
    40
1040
1.399999999999999
1070
   272
1070
     8
1002
}
  0
DIMENSION
  5
3853
102
{ACAD_XDICTIONARY
360
3860
102
}
102
{ACAD_REACTORS
330
3861
102
}
330
1F
100
AcDbEntity
  8
AM_5
100
AcDbDimension
  2
*D15
 10
576.8603556874361
 20
148.0311387258086
 30
0.0
 11
566.8603556874361
 21
151.8816210092731
 31
0.0
 70
    32
 71
     5
 42
20.0
  3
AM_ISO$0
100
AcDbAlignedDimension
 13
556.8603556874361
 23
161.3280688603651
 33
0.0
 14
576.8603556874361
 24
161.3280688603651
 34
0.0
100
AcDbRotatedDimension
1001
ACAD
1000
DSTYLE
1002
{
1070
    40
1040
1.399999999999999
1070
   272
1070
     8
1002
}
  0
DIMENSION
  5
3879
102
{ACAD_XDICTIONARY
360
3888
102
}
102
{ACAD_REACTORS
330
3889
102
}
330
1F
100
AcDbEntity
  8
AM_5
100
AcDbDimension
  2
*D16
 10
522.8603556874361
 20
167.0311387258085
 30
0.0
 11
519.0103556874361
 21
163.5311387258086
 31
0.0
 70
    32
 71
     5
 42
7.0
  3
AM_ISO$0
100
AcDbAlignedDimension
 13
535.8603556874361
 23
160.0311387258085
 33
0.0
 14
551.1572858219927
 24
167.0311387258085
 34
0.0
 50
90.0
100
AcDbRotatedDimension
1001
ACAD
1000
DSTYLE
1002
{
1070
    40
1040
1.399999999999999
1070
   272
1070
     8
1002
}
  0
DIMENSION
  5
38A3
102
{ACAD_XDICTIONARY
360
38B0
102
}
102
{ACAD_REACTORS
330
38B1
102
}
330
1F
100
AcDbEntity
  8
AM_5
100
AcDbDimension
  2
*D17
 10
548.8603556874361
 20
97.48452527375475
 30
0.0
 11
541.8603556874361
 21
101.3345252737547
 31
0.0
 70
    32
 71
     5
 42
14.0
  3
AM_ISO$0
100
AcDbAlignedDimension
 13
534.8603556874361
 23
110.4845252737548
 33
0.0
 14
548.8603556874361
 24
113.3845252737548
 34
0.0
100
AcDbRotatedDimension
1001
ACAD
1000
DSTYLE
1002
{
1070
    40
1040
1.399999999999999
1070
   272
1070
     8
1002
}
  0
DIMENSION
  5
38D8
102
{ACAD_XDICTIONARY
360
38E5
102
}
102
{ACAD_REACTORS
330
38E6
102
}
330
1F
100
AcDbEntity
  8
AM_5
100
AcDbDimension
  2
*D18
 10
566.8603556874361
 20
97.4845252737548
 30
0.0
 11
557.8603556874361
 21
101.3345252737548
 31
0.0
 70
    32
 71
     5
 42
18.0
  3
AM_ISO$0
100
AcDbAlignedDimension
 13
548.8603556874361
 23
113.3845252737548
 33
0.0
 14
566.8603556874361
 24
111.9345252737549
 34
0.0
100
AcDbRotatedDimension
1001
ACAD
1000
DSTYLE
1002
{
1070
    40
1040
1.399999999999999
1070
   272
1070
     8
1002
}
  0
DIMENSION
  5
38FE
102
{ACAD_XDICTIONARY
360
390B
102
}
102
{ACAD_REACTORS
330
390C
102
}
330
1F
100
AcDbEntity
  8
AM_5
100
AcDbDimension
  2
*D19
 10
584.8603556874361
 20
97.48452527375485
 30
0.0
 11
575.8603556874361
 21
101.3345252737548
 31
0.0
 70
    32
 71
     5
 42
18.0
  3
AM_ISO$0
100
AcDbAlignedDimension
 13
566.8603556874361
 23
111.9345252737549
 33
0.0
 14
584.8603556874361
 24
113.6345252737548
 34
0.0
100
AcDbRotatedDimension
1001
ACAD
1000
DSTYLE
1002
{
1070
    40
1040
1.399999999999999
1070
   272
1070
     8
1002
}
  0
DIMENSION
  5
394A
102
{ACAD_XDICTIONARY
360
3957
102
}
102
{ACAD_REACTORS
330
3958
102
}
330
1F
100
AcDbEntity
  8
AM_5
100
AcDbDimension
  2
*D20
 10
512.8603556874361
 20
195.0311387258085
 30
0.0
 11
509.010355687436
 21
177.5311387258086
 31
0.0
 70
    32
 71
     5
 42
35.0
  3
AM_ISO$0
100
AcDbAlignedDimension
 13
535.8603556874361
 23
160.0311387258085
 33
0.0
 14
535.8603556874361
 24
195.0311387258085
 34
0.0
 50
90.0
100
AcDbRotatedDimension
1001
ACAD
1000
DSTYLE
1002
{
1070
    40
1040
1.399999999999999
1070
   272
1070
     8
1002
}
  0
DIMENSION
  5
399A
330
1F
100
AcDbEntity
  8
AM_5
100
AcDbDimension
  2
*D21
 10
612.360355687436
 20
204.0311387258085
 30
0.0
 11
573.6103556874361
 21
207.8811387258085
 31
0.0
 70
    32
 71
     5
 42
77.49999999999989
  3
AM_ISO$0
100
AcDbAlignedDimension
 13
534.8603556874361
 23
194.0311387258085
 33
0.0
 14
612.360355687436
 24
195.0311387258086
 34
0.0
100
AcDbRotatedDimension
1001
ACAD
1000
DSTYLE
1002
{
1070
    40
1040
1.399999999999999
1070
   272
1070
     8
1002
}
  0
DIMENSION
  5
39C0
102
{ACAD_XDICTIONARY
360
39CD
102
}
102
{ACAD_REACTORS
330
39CE
102
}
330
1F
100
AcDbEntity
  8
AM_5
100
AcDbDimension
  2
*D22
 10
556.3603556874361
 20
224.4442281433427
 30
0.0
 11
545.6103556874361
 21
228.2947104268072
 31
0.0
 70
    32
 71
     5
 42
21.5
  3
AM_ISO$0
100
AcDbAlignedDimension
 13
534.8603556874361
 23
237.4442281433426
 33
0.0
 14
556.3603556874361
 24
240.3942281433426
 34
0.0
100
AcDbRotatedDimension
1001
ACAD
1000
DSTYLE
1002
{
1070
    40
1040
1.399999999999999
1070
   272
1070
     8
1002
}
  0
DIMENSION
  5
39E6
102
{ACAD_XDICTIONARY
360
39F3
102
}
102
{ACAD_REACTORS
330
39F4
102
}
330
1F
100
AcDbEntity
  8
AM_5
100
AcDbDimension
  2
*D23
 10
577.3603556874361
 20
224.4442281433427
 30
0.0
 11
566.8603556874361
 21
228.2947104268072
 31
0.0
 70
    32
 71
     5
 42
21.0
  3
AM_ISO$0
100
AcDbAlignedDimension
 13
556.3603556874361
 23
240.3942281433426
 33
0.0
 14
577.3603556874361
 24
237.4442281433427
 34
0.0
100
AcDbRotatedDimension
1001
ACAD
1000
DSTYLE
1002
{
1070
    40
1040
1.399999999999999
1070
   272
1070
     8
1002
}
  0
LINE
  5
3DDC
330
1F
100
AcDbEntity
  8
AM_7
100
AcDbLine
 10
533.3603672529898
 20
120.6345252737548
 30
0.0
 11
615.8664861988011
 21
120.6345252737548
 31
0.0
1001
GENIUS_GENODEF_13
1002
{
1000
HIER
1070
     0
1002
}
1002
{
1000
MANEDIT
1070
     0
1002
}
1002
{
1000
NOSEL
1070
     0
1002
}
1002
{
1000
BEHIND
1070
     0
1002
}
1002
{
1000
OTHER
1070
     0
1002
}
1002
{
1000
REACTOR
1002
}
1001
GENIUS_GENOBJ-N-CEN_13
1002
{
1000
OWNER
1000
GEN
1002
}
1001
GENIUS_GENCEN_19
1002
{
1040
1.0
1002
}
  0
INSERT
  5
3DFE
330
1F
100
AcDbEntity
  8
AM_5
100
AcDbBlockReference
  2
*S27
 10
0.0
 20
0.0
 30
0.0
  0
TEXT
  5
3E00
330
1F
100
AcDbEntity
  8
AM_5
100
AcDbText
 10
598.3838493280926
 20
225.8038295184229
 30
0.0
 40
4.9
  1
2-%%c3.2thru
100
AcDbText
  0
INSERT
  5
3E01
330
1F
100
AcDbEntity
  8
AM_5
100
AcDbBlockReference
  2
*S28
 10
0.0
 20
0.0
 30
0.0
  0
TEXT
  5
3E02
330
1F
100
AcDbEntity
  8
AM_5
100
AcDbText
 10
597.8606494898866
 20
269.2584175179391
 30
0.0
 40
4.9
  1
3-PT1/4
100
AcDbText
  0
INSERT
  5
3E05
330
1F
100
AcDbEntity
  8
AM_5
100
AcDbBlockReference
  2
*S29
 10
0.0
 20
0.0
 30
0.0
  0
TEXT
  5
3E06
330
1F
100
AcDbEntity
  8
AM_5
100
AcDbText
 10
592.1832842466578
 20
149.8169856837077
 30
0.0
 40
4.9
  1
2-%%c4.2thru
100
AcDbText
  0
INSERT
  5
3E0A
330
1F
100
AcDbEntity
  8
AM_5
100
AcDbBlockReference
  2
*S30
 10
0.0
 20
0.0
 30
0.0
  0
TEXT
  5
3E0B
330
1F
100
AcDbEntity
  8
AM_5
100
AcDbText
 10
601.9927627592137
 20
98.02261774890565
 30
0.0
 40
4.9
  1
2-PT1/8
100
AcDbText
  0
LINE
  5
3E19
330
1F
100
AcDbEntity
  8
AM_7
  6
AM_ISO08W050x2
100
AcDbLine
 10
534.4603556874362
 20
127.6777711103067
 30
0.0
 11
539.0850139354983
 21
127.6777711103067
 31
0.0
1001
GENIUS_GENOBJ-N-CEN_13
1002
{
1000
OWNER
1000
GEN
1002
}
1001
GENIUS_GENODEF_13
1002
{
1000
HIER
1070
     0
1002
}
1002
{
1000
MANEDIT
1070
     0
1002
}
1002
{
1000
NOSEL
1070
     0
1002
}
1002
{
1000
BEHIND
1070
     0
1002
}
1002
{
1000
OTHER
1070
     0
1002
}
1002
{
1000
REACTOR
1002
}
1001
GENIUS_GENCEN_19
1002
{
1040
1.0
1002
}
  0
LINE
  5
3E33
330
1F
100
AcDbEntity
  8
AM_7
  6
AM_ISO08W050x2
100
AcDbLine
 10
534.4603556874362
 20
163.5311387258085
 30
0.0
 11
538.8603556874361
 21
163.5311387258085
 31
0.0
1001
GENIUS_GENODEF_13
1002
{
1000
HIER
1070
     0
1002
}
1002
{
1000
MANEDIT
1070
     0
1002
}
1002
{
1000
NOSEL
1070
     0
1002
}
1002
{
1000
BEHIND
1070
     0
1002
}
1002
{
1000
OTHER
1070
     0
1002
}
1002
{
1000
REACTOR
1002
}
1001
GENIUS_GENOBJ-N-CEN_13
1002
{
1000
OWNER
1000
GEN
1002
}
1001
GENIUS_GENCEN_19
1002
{
1040
1.0
1002
}
  0
LINE
  5
3E40
330
1F
100
AcDbEntity
  8
AM_7
  6
AM_ISO08W050x2
100
AcDbLine
 10
534.4603556874361
 20
254.6374739798944
 30
0.0
 11
538.8603556874361
 21
254.6374739798944
 31
0.0
1001
GENIUS_GENOBJ-N-CEN_13
1002
{
1000
OWNER
1000
GEN
1002
}
1001
GENIUS_GENODEF_13
1002
{
1000
HIER
1070
     0
1002
}
1002
{
1000
MANEDIT
1070
     0
1002
}
1002
{
1000
NOSEL
1070
     0
1002
}
1002
{
1000
BEHIND
1070
     0
1002
}
1002
{
1000
OTHER
1070
     0
1002
}
1002
{
1000
REACTOR
1002
}
1001
GENIUS_GENCEN_19
1002
{
1040
1.0
1002
}
  0
DIMENSION
  5
5435
102
{ACAD_XDICTIONARY
360
5444
102
}
102
{ACAD_REACTORS
330
5445
102
}
330
1F
100
AcDbEntity
  8
AM_5
100
AcDbDimension
  2
*D24
 10
624.3603556874359
 20
192.0311387258085
 30
0.0
 11
624.3603556874359
 21
205.9126210485902
 31
0.0
 70
   160
 71
     5
 42
3.00000000000017
  3
AM_ISO$0
100
AcDbAlignedDimension
 13
612.360355687436
 23
195.0311387258086
 33
0.0
 14
588.8603556874361
 24
192.0311387258085
 34
0.0
 50
90.0
100
AcDbRotatedDimension
1001
ACAD
1000
DSTYLE
1002
{
1070
    40
1040
1.399999999999999
1070
   272
1070
     8
1002
}
  0
LINE
  5
641D
330
1F
100
AcDbEntity
  8
AM_VIS
100
AcDbLine
 10
612.3603556874359
 20
160.0311387258086
 30
0.0
 11
612.3603556874359
 21
188.2811387258086
 31
0.0
  0
LINE
  5
641E
330
1F
100
AcDbEntity
  8
AM_VIS
100
AcDbLine
 10
591.8603556874359
 20
195.0311387258086
 30
0.0
 11
607.8603556874359
 21
195.0311387258086
 31
0.0
  0
LINE
  5
641F
330
1F
100
AcDbEntity
  8
AM_VIS
100
AcDbLine
 10
607.8603556874359
 20
188.2811387258086
 30
0.0
 11
607.8603556874359
 21
195.0311387258086
 31
0.0
  0
LINE
  5
6420
330
1F
100
AcDbEntity
  8
AM_VIS
100
AcDbLine
 10
612.3603556874359
 20
188.2811387258086
 30
0.0
 11
607.8603556874359
 21
188.2811387258086
 31
0.0
  0
LINE
  5
6421
330
1F
100
AcDbEntity
  8
AM_VIS
100
AcDbLine
 10
607.8603556874359
 20
195.0311387258086
 30
0.0
 11
612.3603556874359
 21
195.0311387258086
 31
0.0
  0
LINE
  5
6422
330
1F
100
AcDbEntity
  8
AM_VIS
100
AcDbLine
 10
612.3603556874359
 20
195.0311387258086
 30
0.0
 11
612.3603556874359
 21
191.5311387258086
 31
0.0
  0
LINE
  5
6423
330
1F
100
AcDbEntity
  8
AM_VIS
100
AcDbLine
 10
591.8603556874359
 20
160.0311387258086
 30
0.0
 11
612.3603556874359
 21
160.0311387258086
 31
0.0
  0
LINE
  5
6424
330
1F
100
AcDbEntity
  8
AM_VIS
100
AcDbLine
 10
612.3603556874359
 20
191.5311387258086
 30
0.0
 11
612.3603556874359
 21
188.2811387258086
 31
0.0
  0
LINE
  5
6425
330
1F
100
AcDbEntity
  8
AM_VIS
100
AcDbLine
 10
608.5603556874361
 20
188.596523535938
 30
0.0
 11
608.5603556874361
 21
188.5812082507923
 31
0.0
  0
ELLIPSE
  5
6426
330
1F
100
AcDbEntity
  8
AM_VIS
100
AcDbEllipse
 10
608.2450025261596
 20
191.5311387258086
 30
0.0
 11
-8.104961503426029
 21
0.1089539743919708
 31
0.0
210
0.0
220
0.0
230
0.9999999999999998
 40
0.3637262537983058
 41
1.560238403929566
 42
1.614603828665305
  0
ELLIPSE
  5
6427
330
1F
100
AcDbEntity
  8
AM_VIS
100
AcDbEllipse
 10
607.4757088487124
 20
191.5311387258086
 30
0.0
 11
-8.104961503425865
 21
0.1089539743919718
 31
0.0000000000000001
210
0.0
220
0.0
230
1.0
 40
0.3637262537983131
 41
1.623161273363804
 42
1.709911947427355
  0
LINE
  5
6428
330
1F
100
AcDbEntity
  8
AM_VIS
100
AcDbLine
 10
608.5603556874361
 20
194.4811387258087
 30
0.0
 11
607.8603556874361
 21
194.4811387258087
 31
0.0
  0
LINE
  5
6429
330
1F
100
AcDbEntity
  8
AM_VIS
100
AcDbLine
 10
608.5603556874359
 20
188.5811387258087
 30
0.0
 11
608.5047451495663
 21
188.5811387258087
 31
0.0
  0
LINE
  5
642A
330
1F
100
AcDbEntity
  8
AM_VIS
100
AcDbLine
 10
608.5603556874361
 20
194.4811387258087
 30
0.0
 11
608.5603556874361
 21
188.596523535938
 31
0.0
  0
LINE
  5
642B
330
1F
100
AcDbEntity
  8
AM_VIS
100
AcDbLine
 10
608.5603556874361
 20
188.5812082507923
 30
0.0
 11
608.5603556874361
 21
188.5811387258087
 31
0.0
  0
LINE
  5
642C
330
1F
100
AcDbEntity
  8
AM_VIS
100
AcDbLine
 10
609.5485230889651
 20
194.2446852805092
 30
0.0
 11
608.5603556874361
 21
194.3311387258087
 31
0.0
  0
LINE
  5
642D
330
1F
100
AcDbEntity
  8
AM_VIS
100
AcDbLine
 10
609.5485230889651
 20
188.8175921711082
 30
0.0
 11
608.5603556874361
 21
188.7311387258087
 31
0.0
  0
LINE
  5
642E
330
1F
100
AcDbEntity
  8
AM_VIS
100
AcDbLine
 10
610.9475881364001
 20
191.7836387258087
 30
0.0
 11
610.7246963891987
 21
191.7836387258087
 31
0.0
  0
ELLIPSE
  5
642F
330
1F
100
AcDbEntity
  8
AM_VIS
100
AcDbEllipse
 10
607.0676174798271
 20
191.5311387258087
 30
0.0
 11
0.000000000000004
 21
-4.670872363904178
 31
0.0
210
0.0
220
0.0
230
1.0
 40
0.784100683845831
 41
1.5167115385569
 42
1.624881115032907
  0
LINE
  5
6430
330
1F
100
AcDbEntity
  8
AM_VIS
100
AcDbLine
 10
610.7246963891987
 20
191.2786387258087
 30
0.0
 11
610.9475881364001
 21
191.2786387258087
 31
0.0
  0
ARC
  5
6431
330
1F
100
AcDbEntity
  8
AM_VIS
100
AcDbCircle
 10
605.960355687436
 20
191.5311387258087
 30
0.0
 40
4.993620304949037
100
AcDbArc
 50
2.898369404383685
 51
17.4296413618508
  0
LINE
  5
6432
330
1F
100
AcDbEntity
  8
AM_VIS
100
AcDbLine
 10
610.7246963891984
 20
190.0353775725726
 30
0.0
 11
610.7300516945208
 21
190.0311387258087
 31
0.0
  0
LINE
  5
6433
330
1F
100
AcDbEntity
  8
AM_VIS
100
AcDbLine
 10
610.7300516945208
 20
193.0311387258088
 30
0.0
 11
610.7246963891984
 21
193.0268998790447
 31
0.0
  0
ARC
  5
6434
330
1F
100
AcDbEntity
  8
AM_VIS
100
AcDbCircle
 10
605.960355687436
 20
191.5311387258087
 30
0.0
 40
4.993620304949037
100
AcDbArc
 50
342.5703586381492
 51
357.1016305956196
  0
ARC
  5
6435
330
1F
100
AcDbEntity
  8
AM_VIS
100
AcDbCircle
 10
609.4439361976679
 20
193.049251642799
 30
0.0
 40
1.199999999999999
100
AcDbArc
 50
23.54713723707564
 51
85.00000000000026
  0
ARC
  5
6436
330
1F
100
AcDbEntity
  8
AM_VIS
100
AcDbCircle
 10
609.4439361976679
 20
190.0130258088184
 30
0.0
 40
1.2
100
AcDbArc
 50
274.9999999999997
 51
336.4528627629214
  0
ARC
  5
6437
330
1F
100
AcDbEntity
  8
AM_VIS
100
AcDbCircle
 10
605.960355687436
 20
191.5311387258087
 30
0.0
 40
5.000000000000031
100
AcDbArc
 50
17.45760312372323
 51
23.54713723707863
  0
ARC
  5
6438
330
1F
100
AcDbEntity
  8
AM_VIS
100
AcDbCircle
 10
605.960355687436
 20
191.5311387258087
 30
0.0
 40
5.000000000000031
100
AcDbArc
 50
336.4528627629243
 51
342.5423968762768
  0
LINE
  5
6477
330
1F
100
AcDbEntity
  8
AM_VIS
100
AcDbLine
 10
592.260355687436
 20
118.6345252737548
 30
0.0
 11
591.8603556874361
 21
118.6345252737549
 31
0.0
  0
LINE
  5
6478
330
1F
100
AcDbEntity
  8
AM_VIS
100
AcDbLine
 10
592.260355687436
 20
122.6345252737548
 30
0.0
 11
592.260355687436
 21
118.6345252737548
 31
0.0
  0
LINE
  5
6479
330
1F
100
AcDbEntity
  8
AM_VIS
100
AcDbLine
 10
591.8603556874361
 20
122.6345252737548
 30
0.0
 11
592.260355687436
 21
122.6345252737548
 31
0.0
  0
LINE
  5
647A
330
1F
100
AcDbEntity
  8
AM_VIS
100
AcDbLine
 10
591.8603556874361
 20
131.7845252737548
 30
0.0
 11
612.3603556874361
 21
131.7845252737548
 31
0.0
  0
LINE
  5
647B
330
1F
100
AcDbEntity
  8
AM_VIS
100
AcDbLine
 10
612.3603556874361
 20
116.8845252737549
 30
0.0
 11
612.3603556874361
 21
131.7845252737548
 31
0.0
  0
LINE
  5
647C
330
1F
100
AcDbEntity
  8
AM_VIS
100
AcDbLine
 10
591.8603556874361
 20
109.4845252737548
 30
0.0
 11
607.8603556874361
 21
109.4845252737548
 31
0.0
  0
LINE
  5
647D
330
1F
100
AcDbEntity
  8
AM_VIS
100
AcDbLine
 10
607.8603556874361
 20
109.4845252737549
 30
0.0
 11
607.8603556874361
 21
116.8845252737549
 31
0.0
  0
LINE
  5
647E
330
1F
100
AcDbEntity
  8
AM_VIS
100
AcDbLine
 10
612.3603556874361
 20
113.634525273755
 30
0.0
 11
612.3603556874361
 21
109.484525273755
 31
0.0
  0
LINE
  5
647F
330
1F
100
AcDbEntity
  8
AM_VIS
100
AcDbLine
 10
612.3603556874361
 20
109.4845252737548
 30
0.0
 11
607.8603556874361
 21
109.4845252737548
 31
0.0
  0
LINE
  5
6480
330
1F
100
AcDbEntity
  8
AM_VIS
100
AcDbLine
 10
607.8603556874361
 20
116.8845252737549
 30
0.0
 11
612.3603556874361
 21
116.884525273755
 31
0.0
  0
LINE
  5
6481
330
1F
100
AcDbEntity
  8
AM_VIS
100
AcDbLine
 10
612.3603556874361
 20
116.8845252737549
 30
0.0
 11
612.3603556874361
 21
113.634525273755
 31
0.0
  0
ELLIPSE
  5
6482
330
1F
100
AcDbEntity
  8
AM_VIS
100
AcDbEllipse
 10
608.2450025261597
 20
113.634525273755
 30
0.0
 11
-4.258560093873128
 21
-1.54937914216823
 31
0.0
210
0.0
220
0.0
230
1.0
 40
0.0103007928811845
 41
1.476602792923988
 42
1.641167556128448
  0
LINE
  5
6483
330
1F
100
AcDbEntity
  8
AM_VIS
100
AcDbLine
 10
608.5603556874361
 20
113.6595893698057
 30
0.0
 11
608.5603556874361
 21
113.654778485101
 31
0.0
  0
ELLIPSE
  5
6484
330
1F
100
AcDbEntity
  8
AM_VIS
100
AcDbEllipse
 10
608.2450025261597
 20
113.634525273755
 30
0.0
 11
-8.105001468984248
 21
-2.948818367352405
 31
0.0
210
0.0
220
0.0
230
1.0
 40
0.0103007928811845
 41
1.519573178354325
 42
1.605966652490857
  0
ELLIPSE
  5
6485
330
1F
100
AcDbEntity
  8
AM_VIS
100
AcDbEllipse
 10
607.4757088487124
 20
113.634525273755
 30
0.0
 11
-8.105001468984088
 21
-2.948818367352406
 31
0.0
210
0.0
220
0.0
230
1.0
 40
0.0103007928811846
 41
1.61452409718954
 42
1.70127477125309
  0
LINE
  5
6486
330
1F
100
AcDbEntity
  8
AM_VIS
100
AcDbLine
 10
608.5603556874361
 20
116.5845252737549
 30
0.0
 11
607.8603556874359
 21
116.5845252737549
 31
0.0
  0
LINE
  5
6487
330
1F
100
AcDbEntity
  8
AM_VIS
100
AcDbLine
 10
608.5603556874361
 20
110.684525273755
 30
0.0
 11
607.8603556874359
 21
110.684525273755
 31
0.0
  0
LINE
  5
6488
330
1F
100
AcDbEntity
  8
AM_VIS
100
AcDbLine
 10
608.5603556874361
 20
116.584525273755
 30
0.0
 11
608.5603556874361
 21
113.9354134379957
 31
0.0
  0
LINE
  5
6489
330
1F
100
AcDbEntity
  8
AM_VIS
100
AcDbLine
 10
608.5603556874361
 20
113.6547784851011
 30
0.0
 11
608.5603556874361
 21
110.684525273755
 31
0.0
  0
LINE
  5
648A
330
1F
100
AcDbEntity
  8
AM_VIS
100
AcDbLine
 10
609.5485230889648
 20
116.3480718284553
 30
0.0
 11
608.5603556874361
 21
116.4345252737548
 31
0.0
  0
LINE
  5
648B
330
1F
100
AcDbEntity
  8
AM_VIS
100
AcDbLine
 10
609.5485230889648
 20
110.9209787190543
 30
0.0
 11
608.5603556874361
 21
110.8345252737547
 31
0.0
  0
LINE
  5
648C
330
1F
100
AcDbEntity
  8
AM_VIS
100
AcDbLine
 10
608.5603556874361
 20
113.6595893698057
 30
0.0
 11
608.5603556874361
 21
113.9354134379957
 31
0.0
  0
LINE
  5
648D
330
1F
100
AcDbEntity
  8
AM_VIS
100
AcDbLine
 10
607.867080687436
 20
113.4475667935108
 30
0.0
 11
607.867080687436
 21
113.6824715044334
 31
0.0
  0
LINE
  5
648E
330
1F
100
AcDbEntity
  8
AM_VIS
100
AcDbLine
 10
610.730051694521
 20
115.1345252737542
 30
0.0
 11
610.7246963891984
 21
115.1302864269904
 31
0.0
  0
ARC
  5
648F
330
1F
100
AcDbEntity
  8
AM_VIS
100
AcDbCircle
 10
605.9603556874362
 20
113.6345252737547
 30
0.0
 40
4.993620304949137
100
AcDbArc
 50
2.898369404403202
 51
17.42964136184458
  0
ARC
  5
6490
330
1F
100
AcDbEntity
  8
AM_VIS
100
AcDbCircle
 10
605.9603556874362
 20
113.6345252737547
 30
0.0
 40
4.993620304949137
100
AcDbArc
 50
342.5703586381379
 51
357.1016305956391
  0
LINE
  5
6491
330
1F
100
AcDbEntity
  8
AM_VIS
100
AcDbLine
 10
610.7246963891984
 20
112.1387641205181
 30
0.0
 11
610.7300516945206
 21
112.1345252737543
 31
0.0
  0
ELLIPSE
  5
6492
330
1F
100
AcDbEntity
  8
AM_VIS
100
AcDbEllipse
 10
607.0676174798278
 20
113.6345252737548
 30
0.0
 11
0.0000000000000523
 21
-4.670872363903959
 31
0.0
210
0.0
220
0.0
230
1.0
 40
0.7841006838456942
 41
1.516711538557323
 42
1.62488111503334
  0
LINE
  5
6493
330
1F
100
AcDbEntity
  8
AM_VIS
100
AcDbLine
 10
610.7246963891984
 20
113.3820252737568
 30
0.0
 11
610.9475881364003
 21
113.3820252737569
 31
0.0
  0
LINE
  5
6494
330
1F
100
AcDbEntity
  8
AM_VIS
100
AcDbLine
 10
610.9475881364001
 20
113.8870252737568
 30
0.0
 11
610.7246963891984
 21
113.8870252737568
 31
0.0
  0
ARC
  5
6495
330
1F
100
AcDbEntity
  8
AM_VIS
100
AcDbCircle
 10
609.4439361976679
 20
115.1526381907451
 30
0.0
 40
1.199999999999999
100
AcDbArc
 50
23.54713723707863
 51
85.00000000000026
  0
ARC
  5
6496
330
1F
100
AcDbEntity
  8
AM_VIS
100
AcDbCircle
 10
609.4439361976679
 20
112.1164123567644
 30
0.0
 40
1.199999999999999
100
AcDbArc
 50
274.9999999999997
 51
336.4528627629214
  0
ARC
  5
6497
330
1F
100
AcDbEntity
  8
AM_VIS
100
AcDbCircle
 10
605.9603556874362
 20
113.6345252737547
 30
0.0
 40
5.000000000000031
100
AcDbArc
 50
336.4528627629214
 51
342.5423968762706
  0
ARC
  5
6498
330
1F
100
AcDbEntity
  8
AM_VIS
100
AcDbCircle
 10
605.9603556874362
 20
113.6345252737547
 30
0.0
 40
5.000000000000031
100
AcDbArc
 50
17.45760312371507
 51
23.54713723707564
  0
LINE
  5
64BB
330
1F
100
AcDbEntity
  8
AM_VIS
100
AcDbLine
 10
592.2603556874361
 20
245.5942281433428
 30
0.0
 11
591.8603556874361
 21
245.5942281433428
 31
0.0
  0
LINE
  5
64BC
330
1F
100
AcDbEntity
  8
AM_VIS
100
AcDbLine
 10
592.2603556874361
 20
249.5942281433428
 30
0.0
 11
592.2603556874361
 21
245.5942281433428
 31
0.0
  0
LINE
  5
64BD
330
1F
100
AcDbEntity
  8
AM_VIS
100
AcDbLine
 10
591.8603556874361
 20
249.5942281433428
 30
0.0
 11
592.2603556874361
 21
249.5942281433428
 31
0.0
  0
LINE
  5
64BE
330
1F
100
AcDbEntity
  8
AM_VIS
100
AcDbLine
 10
612.3603556874361
 20
243.8442281433428
 30
0.0
 11
612.3603556874361
 21
258.7442281433427
 31
0.0
  0
LINE
  5
64BF
330
1F
100
AcDbEntity
  8
AM_VIS
100
AcDbLine
 10
591.8603556874361
 20
236.4442281433428
 30
0.0
 11
607.8603556874361
 21
236.4442281433428
 31
0.0
  0
LINE
  5
64C0
330
1F
100
AcDbEntity
  8
AM_VIS
100
AcDbLine
 10
607.8603556874361
 20
236.4442281433428
 30
0.0
 11
607.8603556874361
 21
243.8442281433427
 31
0.0
  0
LINE
  5
64C1
330
1F
100
AcDbEntity
  8
AM_VIS
100
AcDbLine
 10
612.3603556874361
 20
240.5942281433428
 30
0.0
 11
612.3603556874361
 21
236.4442281433428
 31
0.0
  0
LINE
  5
64C2
330
1F
100
AcDbEntity
  8
AM_VIS
100
AcDbLine
 10
612.3603556874361
 20
236.4442281433428
 30
0.0
 11
607.8603556874361
 21
236.4442281433428
 31
0.0
  0
LINE
  5
64C3
330
1F
100
AcDbEntity
  8
AM_VIS
100
AcDbLine
 10
607.8603556874361
 20
243.8442281433428
 30
0.0
 11
612.3603556874361
 21
243.8442281433428
 31
0.0
  0
LINE
  5
64C4
330
1F
100
AcDbEntity
  8
AM_VIS
100
AcDbLine
 10
591.8603556874361
 20
258.7442281433427
 30
0.0
 11
612.3603556874361
 21
258.7442281433427
 31
0.0
  0
LINE
  5
64C5
330
1F
100
AcDbEntity
  8
AM_VIS
100
AcDbLine
 10
612.3603556874361
 20
243.8442281433428
 30
0.0
 11
612.3603556874361
 21
240.5942281433428
 31
0.0
  0
LINE
  5
64C6
330
1F
100
AcDbEntity
  8
AM_VIS
100
AcDbLine
 10
608.5603556874361
 20
243.5442281433427
 30
0.0
 11
607.8603556874362
 21
243.5442281433427
 31
0.0
  0
LINE
  5
64C7
330
1F
100
AcDbEntity
  8
AM_VIS
100
AcDbLine
 10
608.5603556874361
 20
237.6442281433427
 30
0.0
 11
607.8603556874362
 21
237.6442281433427
 31
0.0
  0
LINE
  5
64C8
330
1F
100
AcDbEntity
  8
AM_VIS
100
AcDbLine
 10
608.5603556874361
 20
243.5442281433426
 30
0.0
 11
608.5603556874361
 21
237.6442281433426
 31
0.0
  0
LINE
  5
64C9
330
1F
100
AcDbEntity
  8
AM_VIS
100
AcDbLine
 10
609.5485230889652
 20
243.3077746980432
 30
0.0
 11
608.5603556874363
 21
243.3942281433429
 31
0.0
  0
LINE
  5
64CA
330
1F
100
AcDbEntity
  8
AM_VIS
100
AcDbLine
 10
609.5485230889652
 20
237.8806815886422
 30
0.0
 11
608.5603556874361
 21
237.7942281433427
 31
0.0
  0
ARC
  5
64CB
330
1F
100
AcDbEntity
  8
AM_VIS
100
AcDbCircle
 10
605.9603556874361
 20
240.5942281433429
 30
0.0
 40
4.993620304949137
100
AcDbArc
 50
342.5703586381554
 51
357.1016305955968
  0
LINE
  5
64CC
330
1F
100
AcDbEntity
  8
AM_VIS
100
AcDbLine
 10
610.7246963891988
 20
239.0984669901072
 30
0.0
 11
610.7300516945212
 21
239.0942281433433
 31
0.0
  0
LINE
  5
64CD
330
1F
100
AcDbEntity
  8
AM_VIS
100
AcDbLine
 10
610.7300516945208
 20
242.0942281433434
 30
0.0
 11
610.7246963891984
 21
242.0899892965794
 31
0.0
  0
ARC
  5
64CE
330
1F
100
AcDbEntity
  8
AM_VIS
100
AcDbCircle
 10
605.9603556874361
 20
240.5942281433429
 30
0.0
 40
4.993620304949137
100
AcDbArc
 50
2.898369404360916
 51
17.42964136186207
  0
LINE
  5
64CF
330
1F
100
AcDbEntity
  8
AM_VIS
100
AcDbLine
 10
610.7246963891985
 20
240.3417281433408
 30
0.0
 11
610.9475881364001
 21
240.3417281433408
 31
0.0
  0
LINE
  5
64D0
330
1F
100
AcDbEntity
  8
AM_VIS
100
AcDbLine
 10
610.9475881364004
 20
240.8467281433407
 30
0.0
 11
610.7246963891988
 21
240.8467281433407
 31
0.0
  0
ELLIPSE
  5
64D1
330
1F
100
AcDbEntity
  8
AM_VIS
100
AcDbEllipse
 10
607.0676174798279
 20
240.5942281433428
 30
0.0
 11
-0.0000000000000512
 21
-4.67087236390396
 31
0.0
210
0.0
220
0.0
230
1.0
 40
0.7841006838456897
 41
1.516711538556453
 42
1.62488111503247
  0
ARC
  5
64D2
330
1F
100
AcDbEntity
  8
AM_VIS
100
AcDbCircle
 10
609.443936197668
 20
242.1123410603332
 30
0.0
 40
1.199999999999999
100
AcDbArc
 50
23.54713723707863
 51
85.00000000000026
  0
ARC
  5
64D3
330
1F
100
AcDbEntity
  8
AM_VIS
100
AcDbCircle
 10
609.443936197668
 20
239.0761152263524
 30
0.0
 40
1.199999999999999
100
AcDbArc
 50
274.9999999999997
 51
336.4528627629214
  0
ARC
  5
64D4
330
1F
100
AcDbEntity
  8
AM_VIS
100
AcDbCircle
 10
605.9603556874361
 20
240.5942281433429
 30
0.0
 40
5.000000000000031
100
AcDbArc
 50
17.45760312372945
 51
23.54713723707863
  0
ARC
  5
64D5
330
1F
100
AcDbEntity
  8
AM_VIS
100
AcDbCircle
 10
605.9603556874361
 20
240.5942281433429
 30
0.0
 40
5.00000000000003
100
AcDbArc
 50
336.4528627629243
 51
342.5423968762849
  0
LINE
  5
6614
330
1F
100
AcDbEntity
  8
AM_VIS
100
AcDbLine
 10
652.7057865533163
 20
195.0311387258086
 30
0.0
 11
667.6057865533161
 21
195.0311387258086
 31
0.0
  0
LINE
  5
6615
330
1F
100
AcDbEntity
  8
AM_VIS
100
AcDbLine
 10
645.3057865533163
 20
160.0311387258086
 30
0.0
 11
645.3057865533163
 21
188.2811387258086
 31
0.0
  0
LINE
  5
6616
330
1F
100
AcDbEntity
  8
AM_VIS
100
AcDbLine
 10
645.3057865533162
 20
188.2811387258086
 30
0.0
 11
645.3057865533162
 21
195.0311387258086
 31
0.0
  0
LINE
  5
6617
330
1F
100
AcDbEntity
  8
AM_VIS
100
AcDbLine
 10
645.3057865533162
 20
195.0311387258086
 30
0.0
 11
652.7057865533163
 21
195.0311387258086
 31
0.0
  0
LINE
  5
6618
330
1F
100
AcDbEntity
  8
AM_VIS
100
AcDbLine
 10
649.4557865533163
 20
188.2811387258086
 30
0.0
 11
645.3057865533162
 21
188.2811387258086
 31
0.0
  0
LINE
  5
6619
330
1F
100
AcDbEntity
  8
AM_VIS
100
AcDbLine
 10
652.7057865533163
 20
195.0311387258086
 30
0.0
 11
652.7057865533163
 21
191.5311387258086
 31
0.0
  0
LINE
  5
661A
102
{ACAD_REACTORS
330
6A86
102
}
330
1F
100
AcDbEntity
  8
AM_VIS
100
AcDbLine
 10
660.205786553316
 20
160.0311387258086
 30
0.0
 11
645.3057865533163
 21
160.0311387258086
 31
0.0
  0
LINE
  5
661B
330
1F
100
AcDbEntity
  8
AM_VIS
100
AcDbLine
 10
667.6057865533161
 20
195.0311387258086
 30
0.0
 11
667.6057865533161
 21
166.7811387258088
 31
0.0
  0
LINE
  5
661C
330
1F
100
AcDbEntity
  8
AM_VIS
100
AcDbLine
 10
667.6057865533161
 20
166.7811387258088
 30
0.0
 11
667.6057865533161
 21
160.0311387258088
 31
0.0
  0
LINE
  5
661D
330
1F
100
AcDbEntity
  8
AM_VIS
100
AcDbLine
 10
667.6057865533161
 20
160.0311387258086
 30
0.0
 11
660.205786553316
 21
160.0311387258086
 31
0.0
  0
LINE
  5
661E
330
1F
100
AcDbEntity
  8
AM_VIS
100
AcDbLine
 10
663.455786553316
 20
166.7811387258086
 30
0.0
 11
667.6057865533161
 21
166.7811387258088
 31
0.0
  0
LINE
  5
661F
330
1F
100
AcDbEntity
  8
AM_VIS
100
AcDbLine
 10
660.205786553316
 20
160.0311387258086
 30
0.0
 11
660.205786553316
 21
163.5311387258086
 31
0.0
  0
ARC
  5
6620
330
1F
100
AcDbEntity
  8
AM_VIS
100
AcDbCircle
 10
649.4557865533163
 20
191.5311387258086
 30
0.0
 40
3.249999999999999
100
AcDbArc
 50
270.0
 51
0.0
  0
ARC
  5
6621
330
1F
100
AcDbEntity
  8
AM_VIS
100
AcDbCircle
 10
663.455786553316
 20
163.5311387258086
 30
0.0
 40
3.249999999999999
100
AcDbArc
 50
90.0
 51
180.0
  0
LINE
  5
6622
330
1F
100
AcDbEntity
  8
AM_VIS
100
AcDbLine
 10
649.4557865533163
 20
191.2786387258087
 30
0.0
 11
649.4557865533163
 21
191.5311387258087
 31
0.0
  0
LINE
  5
6623
330
1F
100
AcDbEntity
  8
AM_VIS
100
AcDbLine
 10
649.4557865533163
 20
191.5311387258087
 30
0.0
 11
649.4557865533163
 21
191.7836387258087
 31
0.0
  0
LINE
  5
6624
330
1F
100
AcDbEntity
  8
AM_VIS
100
AcDbLine
 10
649.4557865533163
 20
191.5311387258087
 30
0.0
 11
649.2032865533158
 21
191.2786387258081
 31
0.0
  0
LINE
  5
6625
330
1F
100
AcDbEntity
  8
AM_VIS
100
AcDbLine
 10
649.7082865533159
 20
191.2786387258094
 30
0.0
 11
649.4557865533165
 21
191.5311387258087
 31
0.0
  0
LINE
  5
6626
330
1F
100
AcDbEntity
  8
AM_VIS
100
AcDbLine
 10
649.2032865533142
 20
191.2786387258087
 30
0.0
 11
649.7082865533143
 21
191.2786387258087
 31
0.0
  0
LINE
  5
6627
330
1F
100
AcDbEntity
  8
AM_VIS
100
AcDbLine
 10
649.7082865533143
 20
191.7836387258087
 30
0.0
 11
649.7082865533143
 21
191.2786387258087
 31
0.0
  0
LINE
  5
6628
330
1F
100
AcDbEntity
  8
AM_VIS
100
AcDbLine
 10
649.2032865533142
 20
191.5311387258087
 30
0.0
 11
649.4557865533165
 21
191.5311387258087
 31
0.0
  0
LINE
  5
6629
330
1F
100
AcDbEntity
  8
AM_VIS
100
AcDbLine
 10
649.2032865533158
 20
191.7836387258093
 30
0.0
 11
649.4557865533163
 21
191.5311387258086
 31
0.0
  0
LINE
  5
662A
330
1F
100
AcDbEntity
  8
AM_VIS
100
AcDbLine
 10
649.7082865533143
 20
191.7836387258087
 30
0.0
 11
649.2032865533142
 21
191.7836387258087
 31
0.0
  0
LINE
  5
662B
330
1F
100
AcDbEntity
  8
AM_VIS
100
AcDbLine
 10
649.4557865533165
 20
191.5311387258087
 30
0.0
 11
649.7082865533143
 21
191.5311387258087
 31
0.0
  0
LINE
  5
662C
330
1F
100
AcDbEntity
  8
AM_VIS
100
AcDbLine
 10
649.4557865533165
 20
191.5311387258087
 30
0.0
 11
649.7082865533159
 21
191.7836387258081
 31
0.0
  0
LINE
  5
662D
330
1F
100
AcDbEntity
  8
AM_VIS
100
AcDbLine
 10
649.2032865533142
 20
191.2786387258087
 30
0.0
 11
649.2032865533142
 21
191.7836387258087
 31
0.0
  0
LINE
  5
662E
330
1F
100
AcDbEntity
  8
AM_VIS
100
AcDbLine
 10
649.2032865533142
 20
191.7836387258087
 30
0.0
 11
647.9600254000806
 21
191.7836387258087
 31
0.0
  0
ELLIPSE
  5
662F
330
1F
100
AcDbEntity
  8
AM_VIS
100
AcDbEllipse
 10
650.8546870798827
 20
191.5311387258087
 30
0.0
 11
0.0000000000000117
 21
-4.670872363904178
 31
0.0
210
0.0
220
0.0
230
1.0
 40
0.6206336420083113
 41
4.658304192146678
 42
4.766473768622685
  0
LINE
  5
6630
330
1F
100
AcDbEntity
  8
AM_VIS
100
AcDbLine
 10
647.9600254000806
 20
191.2786387258087
 30
0.0
 11
649.2032865533142
 21
191.2786387258087
 31
0.0
  0
LINE
  5
6631
330
1F
100
AcDbEntity
  8
AM_VIS
100
AcDbLine
 10
649.7082865533143
 20
191.2786387258087
 30
0.0
 11
650.9515477065528
 21
191.2786387258087
 31
0.0
  0
ELLIPSE
  5
6632
330
1F
100
AcDbEntity
  8
AM_VIS
100
AcDbEllipse
 10
648.0568860267498
 20
191.5311387258087
 30
0.0
 11
0.0000000000000106
 21
4.6708723639039
 31
0.0
210
0.0
220
0.0
230
1.0
 40
0.6206336420085938
 41
4.658304192146689
 42
4.766473768622702
  0
LINE
  5
6633
330
1F
100
AcDbEntity
  8
AM_VIS
100
AcDbLine
 10
650.9515477065528
 20
191.7836387258087
 30
0.0
 11
649.7082865533143
 21
191.7836387258087
 31
0.0
  0
LINE
  5
6634
330
1F
100
AcDbEntity
  8
AM_VIS
100
AcDbLine
 10
649.2032865533142
 20
193.0268998790447
 30
0.0
 11
649.2032865533142
 21
191.7836387258087
 31
0.0
  0
ELLIPSE
  5
6635
330
1F
100
AcDbEntity
  8
AM_VIS
100
AcDbEllipse
 10
649.4557865533163
 20
192.9300392523752
 30
0.0
 11
4.670872363903959
 21
0.0000000000000417
 31
0.0
210
0.0
220
0.0
230
1.0
 40
0.620633642008484
 41
4.658304192146233
 42
4.76647376862225
  0
LINE
  5
6636
330
1F
100
AcDbEntity
  8
AM_VIS
100
AcDbLine
 10
649.7082865533143
 20
191.7836387258087
 30
0.0
 11
649.7082865533143
 21
193.0268998790449
 31
0.0
  0
LINE
  5
6637
330
1F
100
AcDbEntity
  8
AM_VIS
100
AcDbLine
 10
649.7082865533143
 20
190.0353775725725
 30
0.0
 11
649.7082865533143
 21
191.2786387258087
 31
0.0
  0
ELLIPSE
  5
6638
330
1F
100
AcDbEntity
  8
AM_VIS
100
AcDbEllipse
 10
649.4557865533163
 20
190.1322381992422
 30
0.0
 11
-4.67087236390396
 21
0.0000000000000406
 31
0.0
210
0.0
220
0.0
230
1.0
 40
0.6206336420084897
 41
4.658304192147127
 42
4.766473768623145
  0
LINE
  5
6639
330
1F
100
AcDbEntity
  8
AM_VIS
100
AcDbLine
 10
649.2032865533142
 20
191.2786387258087
 30
0.0
 11
649.2032865533142
 21
190.0353775725726
 31
0.0
  0
LINE
  5
663A
330
1F
100
AcDbEntity
  8
AM_VIS
100
AcDbLine
 10
663.4557865533163
 20
163.2786387258087
 30
0.0
 11
663.4557865533163
 21
163.5311387258088
 31
0.0
  0
LINE
  5
663B
330
1F
100
AcDbEntity
  8
AM_VIS
100
AcDbLine
 10
663.4557865533163
 20
163.5311387258088
 30
0.0
 11
663.4557865533163
 21
163.7836387258088
 31
0.0
  0
LINE
  5
663C
330
1F
100
AcDbEntity
  8
AM_VIS
100
AcDbLine
 10
663.4557865533163
 20
163.5311387258089
 30
0.0
 11
663.2032865533158
 21
163.2786387258082
 31
0.0
  0
LINE
  5
663D
330
1F
100
AcDbEntity
  8
AM_VIS
100
AcDbLine
 10
663.7082865533159
 20
163.2786387258094
 30
0.0
 11
663.4557865533166
 21
163.5311387258088
 31
0.0
  0
LINE
  5
663E
330
1F
100
AcDbEntity
  8
AM_VIS
100
AcDbLine
 10
663.2032865533142
 20
163.2786387258087
 30
0.0
 11
663.7082865533143
 21
163.2786387258087
 31
0.0
  0
LINE
  5
663F
330
1F
100
AcDbEntity
  8
AM_VIS
100
AcDbLine
 10
663.7082865533143
 20
163.7836387258087
 30
0.0
 11
663.7082865533143
 21
163.2786387258087
 31
0.0
  0
LINE
  5
6640
330
1F
100
AcDbEntity
  8
AM_VIS
100
AcDbLine
 10
663.2032865533142
 20
163.5311387258088
 30
0.0
 11
663.4557865533166
 21
163.5311387258088
 31
0.0
  0
LINE
  5
6641
330
1F
100
AcDbEntity
  8
AM_VIS
100
AcDbLine
 10
663.2032865533158
 20
163.7836387258093
 30
0.0
 11
663.4557865533163
 21
163.5311387258086
 31
0.0
  0
LINE
  5
6642
330
1F
100
AcDbEntity
  8
AM_VIS
100
AcDbLine
 10
663.7082865533143
 20
163.7836387258088
 30
0.0
 11
663.2032865533142
 21
163.7836387258088
 31
0.0
  0
LINE
  5
6643
330
1F
100
AcDbEntity
  8
AM_VIS
100
AcDbLine
 10
663.4557865533166
 20
163.5311387258088
 30
0.0
 11
663.7082865533143
 21
163.5311387258088
 31
0.0
  0
LINE
  5
6644
330
1F
100
AcDbEntity
  8
AM_VIS
100
AcDbLine
 10
663.4557865533166
 20
163.5311387258088
 30
0.0
 11
663.7082865533159
 21
163.7836387258081
 31
0.0
  0
LINE
  5
6645
330
1F
100
AcDbEntity
  8
AM_VIS
100
AcDbLine
 10
663.2032865533142
 20
163.2786387258087
 30
0.0
 11
663.2032865533142
 21
163.7836387258087
 31
0.0
  0
LINE
  5
6646
330
1F
100
AcDbEntity
  8
AM_VIS
100
AcDbLine
 10
663.2032865533142
 20
163.7836387258088
 30
0.0
 11
661.9600254000807
 21
163.7836387258088
 31
0.0
  0
ELLIPSE
  5
6647
330
1F
100
AcDbEntity
  8
AM_VIS
100
AcDbEllipse
 10
664.8546870798827
 20
163.5311387258088
 30
0.0
 11
0.0000000000000117
 21
-4.670872363904178
 31
0.0
210
0.0
220
0.0
230
1.0
 40
0.6206336420083113
 41
4.65830419214668
 42
4.766473768622687
  0
LINE
  5
6648
330
1F
100
AcDbEntity
  8
AM_VIS
100
AcDbLine
 10
661.9600254000807
 20
163.2786387258087
 30
0.0
 11
663.2032865533142
 21
163.2786387258087
 31
0.0
  0
LINE
  5
6649
330
1F
100
AcDbEntity
  8
AM_VIS
100
AcDbLine
 10
663.7082865533143
 20
163.2786387258087
 30
0.0
 11
664.9515477065529
 21
163.2786387258087
 31
0.0
  0
ELLIPSE
  5
664A
330
1F
100
AcDbEntity
  8
AM_VIS
100
AcDbEllipse
 10
662.0568860267499
 20
163.5311387258088
 30
0.0
 11
0.0000000000000106
 21
4.6708723639039
 31
0.0
210
0.0
220
0.0
230
1.0
 40
0.6206336420085938
 41
4.658304192146689
 42
4.766473768622702
  0
LINE
  5
664B
330
1F
100
AcDbEntity
  8
AM_VIS
100
AcDbLine
 10
664.9515477065529
 20
163.7836387258088
 30
0.0
 11
663.7082865533143
 21
163.7836387258088
 31
0.0
  0
LINE
  5
664C
330
1F
100
AcDbEntity
  8
AM_VIS
100
AcDbLine
 10
663.2032865533142
 20
165.0268998790449
 30
0.0
 11
663.2032865533142
 21
163.7836387258088
 31
0.0
  0
ELLIPSE
  5
664D
330
1F
100
AcDbEntity
  8
AM_VIS
100
AcDbEllipse
 10
663.4557865533163
 20
164.9300392523752
 30
0.0
 11
4.670872363903959
 21
0.0000000000000417
 31
0.0
210
0.0
220
0.0
230
1.0
 40
0.620633642008484
 41
4.658304192146231
 42
4.766473768622248
  0
LINE
  5
664E
330
1F
100
AcDbEntity
  8
AM_VIS
100
AcDbLine
 10
663.7082865533143
 20
163.7836387258088
 30
0.0
 11
663.7082865533143
 21
165.026899879045
 31
0.0
  0
LINE
  5
664F
330
1F
100
AcDbEntity
  8
AM_VIS
100
AcDbLine
 10
663.7082865533143
 20
162.0353775725725
 30
0.0
 11
663.7082865533143
 21
163.2786387258087
 31
0.0
  0
ELLIPSE
  5
6650
330
1F
100
AcDbEntity
  8
AM_VIS
100
AcDbEllipse
 10
663.4557865533163
 20
162.1322381992422
 30
0.0
 11
-4.67087236390396
 21
0.0000000000000406
 31
0.0
210
0.0
220
0.0
230
1.0
 40
0.6206336420084897
 41
4.65830419214713
 42
4.766473768623146
  0
LINE
  5
6651
330
1F
100
AcDbEntity
  8
AM_VIS
100
AcDbLine
 10
663.2032865533142
 20
163.2786387258087
 30
0.0
 11
663.2032865533142
 21
162.0353775725726
 31
0.0
  0
ARC
  5
6652
330
1F
100
AcDbEntity
  8
AM_4
100
AcDbCircle
 10
656.4557865533162
 20
177.5311387258085
 30
0.0
 40
4.849999999999999
100
AcDbArc
 50
279.9999999999986
 51
189.9999999999986
  0
CIRCLE
  5
6653
330
1F
100
AcDbEntity
  8
AM_VIS
100
AcDbCircle
 10
656.4557865533162
 20
177.5311387258086
 30
0.0
 40
4.049999999999999
  0
LINE
  5
6654
330
1F
100
AcDbEntity
  8
AM_7
  6
AM_ISO08W050x2
100
AcDbLine
 10
656.4557865533162
 20
177.5311387258086
 30
0.0
 11
663.3057865533166
 21
177.5311387258086
 31
0.0
1001
GENIUS_GENOREF_13
1005
665A
  0
LINE
  5
6655
330
1F
100
AcDbEntity
  8
AM_7
  6
AM_ISO08W050x2
100
AcDbLine
 10
656.4557865533162
 20
177.5311387258086
 30
0.0
 11
656.4557865533162
 21
184.3811387258085
 31
0.0
1001
GENIUS_GENOREF_13
1005
665A
  0
LINE
  5
6656
102
{ACAD_REACTORS
330
6A86
102
}
330
1F
100
AcDbEntity
  8
AM_7
  6
AM_ISO08W050x2
100
AcDbLine
 10
656.4557865533162
 20
177.5311387258086
 30
0.0
 11
649.6057865533162
 21
177.5311387258086
 31
0.0
1001
GENIUS_GENOREF_13
1005
665A
  0
LINE
  5
6657
330
1F
100
AcDbEntity
  8
AM_7
  6
AM_ISO08W050x2
100
AcDbLine
 10
656.4557865533162
 20
177.5311387258086
 30
0.0
 11
656.4557865533162
 21
170.6811387258085
 31
0.0
1001
GENIUS_GENOREF_13
1005
665A
  0
CIRCLE
  5
6658
330
1F
100
AcDbEntity
  8
AM_VIS
100
AcDbCircle
 10
649.4557865533165
 20
191.5311387258087
 30
0.0
 40
3.0
  0
CIRCLE
  5
6659
330
1F
100
AcDbEntity
  8
AM_VIS
100
AcDbCircle
 10
663.4557865533166
 20
163.5311387258088
 30
0.0
 40
3.0
  0
POINT
  5
665A
330
1F
100
AcDbEntity
  8
0
 60
     1
100
AcDbPoint
 10
737.6103027293472
 20
181.1069762205511
 30
0.0
1001
GENIUS_GENOLIS_13
1002
{
1000
ENT
1005
6657
1005
6656
1005
6655
1005
6654
1002
}
1001
GENIUS_GENODEF_13
1002
{
1000
HIER
1070
    10
1002
}
1002
{
1000
MANEDIT
1070
     0
1002
}
1002
{
1000
NOSEL
1070
     0
1002
}
1002
{
1000
BEHIND
1070
     0
1002
}
1002
{
1000
OTHER
1070
     0
1002
}
1002
{
1000
REACTOR
1002
}
1001
GENIUS_GENOBJ-N-CRS_13
1002
{
1000
OWNER
1000
GEN
1002
}
1001
GENIUS_GENOENT_13
1002
{
1000
MYREF
1005
665A
1002
}
1002
{
1000
GRP
1005
0
1002
}
  0
INSERT
  5
67AC
330
1F
100
AcDbEntity
  8
AM_5
100
AcDbBlockReference
  2
*S31
 10
0.0
 20
0.0
 30
0.0
  0
TEXT
  5
67AD
330
1F
100
AcDbEntity
  8
AM_5
100
AcDbText
 10
665.2522771828584
 20
204.2098412770769
 30
0.0
 40
4.9
  1
PT1/8
100
AcDbText
  0
DIMENSION
  5
6A78
102
{ACAD_XDICTIONARY
360
6A85
102
}
102
{ACAD_REACTORS
330
6A86
102
}
330
1F
100
AcDbEntity
  8
AM_5
100
AcDbDimension
  2
*D25
 10
636.7750685620481
 20
177.5311387258086
 30
0.0
 11
632.925068562048
 21
168.7811387258087
 31
0.0
 70
    32
 71
     5
 42
17.5
  3
AM_ISO$0
100
AcDbAlignedDimension
 13
645.3057865533163
 23
160.0311387258086
 33
0.0
 14
649.6057865533162
 24
177.5311387258086
 34
0.0
 50
90.0
100
AcDbRotatedDimension
1001
ACAD
1000
DSTYLE
1002
{
1070
    40
1040
1.399999999999999
1070
   272
1070
     8
1002
}
  0
LINE
  5
9D1E
330
1F
100
AcDbEntity
  8
LOGO
 62
     4
100
AcDbLine
 10
721.5307508443609
 20
63.18516737399784
 30
0.0
 11
477.5947508443608
 21
63.18516737399784
 31
0.0
  0
LWPOLYLINE
  5
9D1F
330
1F
100
AcDbEntity
  8
LOGO
 62
     4
100
AcDbPolyline
 90
        4
 70
     1
 43
0.0
 10
477.5947508443609
 20
63.18516737399784
 10
721.5307508443609
 20
63.18516737399784
 10
721.5307508443609
 20
312.3099279959349
 10
477.5947508443609
 20
312.3099279959349
1001
GENIUS_GENREC_14
1002
{
1000
PYDIR
1011
477.5947508443609
1021
312.3099279959349
1031
0.0
1002
}
1002
{
1000
PXDIR
1011
721.5307508443609
1021
63.18516737399784
1031
0.0
1002
}
1002
{
1000
PORI
1011
477.5947508443609
1021
63.18516737399784
1031
0.0
1002
}
1002
{
1000
PINS
1011
477.5947508443609
1021
63.18516737399784
1031
0.0
1002
}
1002
{
1000
PINS2
1011
721.5307508443609
1021
312.3099279959349
1031
0.0
1002
}
1002
{
1000
C
1070
     1
1002
}
1001
GENIUS_GENODEF_13
1002
{
1000
HIER
1070
     0
1002
}
1002
{
1000
MANEDIT
1070
     0
1002
}
1002
{
1000
NOSEL
1070
     0
1002
}
1002
{
1000
BEHIND
1070
     0
1002
}
1002
{
1000
OTHER
1070
     0
1002
}
1002
{
1000
REACTOR
1002
}
1001
GENIUS_GENOBJ-N-REC_13
1002
{
1000
OWNER
1000
GEN
1002
}
  0
LWPOLYLINE
  5
9D20
330
1F
100
AcDbEntity
  8
LOGO
 62
     4
100
AcDbPolyline
 90
        4
 70
     1
 43
0.0
 10
477.5947508443609
 20
63.18516737399784
 10
721.5307508443609
 20
63.18516737399784
 10
721.5307508443609
 20
38.79509947897513
 10
477.5947508443609
 20
38.79509947897513
1001
GENIUS_GENREC_14
1002
{
1000
PYDIR
1011
477.5947508443609
1021
38.79509947897513
1031
0.0
1002
}
1002
{
1000
PXDIR
1011
721.5307508443609
1021
63.18516737399784
1031
0.0
1002
}
1002
{
1000
PORI
1011
477.5947508443609
1021
63.18516737399784
1031
0.0
1002
}
1002
{
1000
PINS
1011
477.5947508443609
1021
63.18516737399784
1031
0.0
1002
}
1002
{
1000
PINS2
1011
721.5307508443609
1021
38.79509947897513
1031
0.0
1002
}
1002
{
1000
C
1070
     1
1002
}
1001
GENIUS_GENOBJ-N-REC_13
1002
{
1000
OWNER
1000
GEN
1002
}
1001
GENIUS_GENODEF_13
1002
{
1000
HIER
1070
     0
1002
}
1002
{
1000
MANEDIT
1070
     0
1002
}
1002
{
1000
NOSEL
1070
     0
1002
}
1002
{
1000
BEHIND
1070
     0
1002
}
1002
{
1000
OTHER
1070
     0
1002
}
1002
{
1000
REACTOR
1002
}
  0
TEXT
  5
9D21
330
1F
100
AcDbEntity
  8
LOGO
 62
     7
100
AcDbText
 10
532.6659091769762
 20
52.50029366165839
 30
0.0
 40
3.252009052669683
  1
Order example:
 41
0.8
  7
CHINESET
100
AcDbText
  0
TEXT
  5
9D22
330
1F
100
AcDbEntity
  8
LOGO
 62
     7
100
AcDbText
 10
533.2493464940461
 20
57.07844907075098
 30
0.0
 40
4.878013579004523
  1
訂購代號：
  7
CHINESET
100
AcDbText
  0
LINE
  5
9D23
330
1F
100
AcDbEntity
  8
LOGO
 62
     4
100
AcDbLine
 10
531.2529002134107
 20
38.79509947897512
 30
0.0
 11
531.2529002134107
 21
63.18516737399784
 31
0.0
  0
TEXT
  5
9D24
330
1F
100
AcDbEntity
  8
LOGO
  6
Continuous
100
AcDbText
 10
486.3557728677293
 20
43.58649150913054
 30
0.0
 40
3.658510184253393
  1
金器工業股份有限公司
  7
CHINESET
100
AcDbText
  0
TEXT
  5
9D25
330
1F
100
AcDbEntity
  8
LOGO
  6
Continuous
100
AcDbText
 10
479.6358134598019
 20
39.92726454371929
 30
0.0
 40
2.439006789502261
  1
MINDMAN INDUSTRIAL CO., LTD.
 41
0.85
  7
CHINESET
100
AcDbText
  0
LINE
  5
9D26
330
1F
100
AcDbEntity
  8
LOGO
 62
     4
100
AcDbLine
 10
531.2529002134107
 20
58.30715379499359
 30
0.0
 11
495.480800634044
 21
58.30715379499359
 31
0.0
  0
LINE
  5
9D27
330
1F
100
AcDbEntity
  8
LOGO
 62
     4
100
AcDbLine
 10
531.2529002134107
 20
53.42914021598879
 30
0.0
 11
495.480800634044
 21
53.42914021598879
 31
0.0
  0
LINE
  5
9D28
330
1F
100
AcDbEntity
  8
LOGO
 62
     4
100
AcDbLine
 10
531.2529002134107
 20
48.55112663698474
 30
0.0
 11
477.5947508443608
 21
48.55112663698474
 31
0.0
  0
LINE
  5
9D29
330
1F
100
AcDbEntity
  8
LOGO
 62
     4
100
AcDbLine
 10
495.480800634044
 20
48.55112663698474
 30
0.0
 11
495.480800634044
 21
63.18516737399784
 31
0.0
  0
TEXT
  5
9D2A
330
1F
100
AcDbEntity
  8
LOGO
100
AcDbText
 10
519.9293422791587
 20
49.77063003173516
 30
0.0
 40
2.439006789502261
  1
mm
  7
CHINESET
 72
     1
 11
522.9490649709235
 21
50.99013342648629
 31
0.0
100
AcDbText
 73
     2
  0
TEXT
  5
9D2B
330
1F
100
AcDbEntity
  8
LOGO
100
AcDbText
 10
518.6517672941813
 20
59.52665718974421
 30
0.0
 40
2.439006789502261
  1
1 : 1
  7
CHINESET
 72
     1
 11
522.9490649709235
 21
60.74616058449534
 31
0.0
100
AcDbText
 73
     2
  0
LINE
  5
9D2C
330
1F
100
AcDbEntity
  8
LOGO
 62
     4
100
AcDbLine
 10
514.992854950062
 20
48.55112663698474
 30
0.0
 11
514.992854950062
 21
63.18516737399784
 31
0.0
  0
TEXT
  5
9D2D
330
1F
100
AcDbEntity
  8
LOGO
100
AcDbText
 10
497.4918923930666
 20
59.5278574883611
 30
159.8484869550175
 40
2.439006789502261
  1
比例 Scale:
 41
0.9
  7
CHINESET
 72
     4
 11
505.236827792053
 21
60.74616058449534
 31
159.8484869550175
100
AcDbText
  0
TEXT
  5
9D2E
330
1F
100
AcDbEntity
  8
LOGO
100
AcDbText
 10
497.3514317342069
 20
54.68295214620582
 30
159.8484869550175
 40
2.439006789502261
  1
投影  View:
 41
0.9
  7
CHINESET
 72
     4
 11
505.236827792053
 21
55.86814700549109
 31
159.8484869550175
100
AcDbText
  0
TEXT
  5
9D2F
330
1F
100
AcDbEntity
  8
LOGO
100
AcDbText
 10
497.5898882015734
 20
49.77063003173516
 30
159.8484869550175
 40
2.439006789502261
  1
單位  Unit:
 41
0.9
  7
CHINESET
 72
     4
 11
505.236827792053
 21
50.99013342648629
 31
159.8484869550175
100
AcDbText
  0
SOLID
  5
9D30
330
1F
100
AcDbEntity
  8
LOGO
 62
     5
100
AcDbTrace
 10
480.125259531551
 20
52.60562825925323
 30
0.0
 11
481.1798220677936
 21
52.60562825925266
 31
0.0
 12
485.5798933397023
 22
62.6057902408641
 32
0.0
 13
486.6344558759455
 23
62.60579024086372
 33
0.0
  0
SOLID
  5
9D31
330
1F
100
AcDbEntity
  8
LOGO
 62
     5
100
AcDbTrace
 10
481.6161927724468
 20
52.60562825925323
 30
0.0
 11
482.6707553086895
 21
52.60562825925323
 31
0.0
 12
486.6344558759455
 22
61.8057772823349
 32
0.0
 13
485.5798933397023
 23
57.9390479827787
 33
0.0
  0
SOLID
  5
9D32
330
1F
100
AcDbEntity
  8
LOGO
 62
     2
100
AcDbTrace
 10
481.1798220677936
 20
52.60562825925266
 30
0.0
 11
481.6161927724468
 21
52.60562825925323
 31
0.0
 12
486.6344558759455
 22
62.60579024086372
 32
0.0
 13
487.0708265805982
 23
62.60579024086372
 33
0.0
  0
SOLID
  5
9D33
330
1F
100
AcDbEntity
  8
LOGO
 62
     5
100
AcDbTrace
 10
478.4345371755422
 20
48.969205720486
 30
0.0
 11
478.7981794294193
 21
48.969205720486
 31
0.0
 12
479.8222243199874
 22
50.78741698986894
 32
0.0
 13
480.1858665738635
 23
50.78741698986894
 33
0.0
  0
SOLID
  5
9D34
330
1F
100
AcDbEntity
  8
LOGO
 62
     5
100
AcDbTrace
 10
479.8222243199874
 20
50.78741698986894
 30
0.0
 11
480.1858665738635
 21
50.78741698986894
 31
0.0
 12
479.8222243199874
 22
48.969205720486
 32
0.0
 13
480.1858665738635
 23
48.969205720486
 33
0.0
  0
SOLID
  5
9D35
330
1F
100
AcDbEntity
  8
LOGO
 62
     5
100
AcDbTrace
 10
479.8222243199874
 20
48.969205720486
 30
0.0
 11
480.1858665738635
 21
48.969205720486
 31
0.0
 12
481.2099114644332
 22
50.78741698986894
 32
0.0
 13
481.5735537183097
 23
50.78741698986894
 33
0.0
  0
SOLID
  5
9D36
330
1F
100
AcDbEntity
  8
LOGO
 62
     5
100
AcDbTrace
 10
481.2099114644332
 20
50.78741698986894
 30
0.0
 11
481.5735537183097
 21
50.78741698986894
 31
0.0
 12
481.2099114644332
 22
48.969205720486
 32
0.0
 13
481.5735537183097
 23
48.969205720486
 33
0.0
  0
POLYLINE
  5
9D37
330
1F
100
AcDbEntity
  8
LOGO
 62
     5
100
AcDb2dPolyline
 66
     1
 10
0.0
 20
0.0
 30
0.0
 40
0.3642250138990044
 41
0.3642250138990044
  0
VERTEX
  5
9D38
330
9D37
100
AcDbEntity
  8
LOGO
 62
     5
100
AcDbVertex
100
AcDb2dVertex
 10
493.3990759380872
 20
50.06013248211605
 30
0.0
 42
1.0
  0
VERTEX
  5
9D39
330
9D37
100
AcDbEntity
  8
LOGO
 62
     5
100
AcDbVertex
100
AcDb2dVertex
 10
492.3064008963899
 20
50.06013248211605
 30
0.0
 42
1.0
  0
SEQEND
  5
9D3A
330
9D37
100
AcDbEntity
  8
LOGO
 62
     5
  0
POLYLINE
  5
9D3B
330
1F
100
AcDbEntity
  8
LOGO
 62
     5
100
AcDb2dPolyline
 66
     1
 10
0.0
 20
0.0
 30
0.0
 70
     1
  0
VERTEX
  5
9D3C
330
9D3B
100
AcDbEntity
  8
LOGO
 62
     5
100
AcDbVertex
100
AcDb2dVertex
 10
490.2466598406045
 20
49.878311355177
 30
0.0
 42
1.000000057330635
  0
VERTEX
  5
9D3D
330
9D3B
100
AcDbEntity
  8
LOGO
 62
     5
100
AcDbVertex
100
AcDb2dVertex
 10
491.337586602235
 20
49.878311355177
 30
0.0
 42
1.000000057330635
  0
SEQEND
  5
9D3E
330
9D3B
100
AcDbEntity
  8
LOGO
 62
     5
  0
CIRCLE
  5
9D3F
330
1F
100
AcDbEntity
  8
LOGO
 62
     5
100
AcDbCircle
 10
490.7921232214206
 20
49.878311355177
 30
0.0
 40
0.5454633808151491
  0
POLYLINE
  5
9D40
330
1F
100
AcDbEntity
  8
LOGO
 62
     5
100
AcDb2dPolyline
 66
     1
 10
0.0
 20
0.0
 30
0.0
 70
     1
 40
0.3642250138990044
 41
0.3642250138990044
  0
VERTEX
  5
9D41
330
9D40
100
AcDbEntity
  8
LOGO
 62
     5
100
AcDbVertex
100
AcDb2dVertex
 10
490.0636731936221
 20
49.878311355177
 30
0.0
 42
1.0
  0
VERTEX
  5
9D42
330
9D40
100
AcDbEntity
  8
LOGO
 62
     5
100
AcDbVertex
100
AcDb2dVertex
 10
491.520573249218
 20
49.878311355177
 30
0.0
 42
1.0
  0
SEQEND
  5
9D43
330
9D40
100
AcDbEntity
  8
LOGO
 62
     5
  0
LINE
  5
9D44
330
1F
100
AcDbEntity
  8
LOGO
100
AcDbLine
 10
493.5800229249915
 20
48.969205720486
 30
0.0
 11
493.5800229249915
 21
50.06013248211605
 31
0.0
  0
SOLID
  5
9D45
330
1F
100
AcDbEntity
  8
LOGO
 62
     5
100
AcDbTrace
 10
491.3375502380111
 20
50.78741698986894
 30
0.0
 11
491.7011924918871
 21
50.78741698986894
 31
0.0
 12
491.3375502380111
 22
48.969205720486
 32
0.0
 13
491.7011924918871
 23
48.969205720486
 33
0.0
  0
SOLID
  5
9D46
330
1F
100
AcDbEntity
  8
LOGO
 62
     5
100
AcDbTrace
 10
492.1254539094845
 20
48.969205720486
 30
0.0
 11
492.4890961633616
 21
48.969205720486
 31
0.0
 12
492.1254539094845
 22
50.78741698986894
 32
0.0
 13
492.4890961633616
 23
50.78741698986894
 33
0.0
  0
SOLID
  5
9D47
330
1F
100
AcDbEntity
  8
LOGO
 62
     5
100
AcDbTrace
 10
493.2163806711153
 20
50.06013248211605
 30
0.0
 11
493.5800229249915
 21
50.06013248211605
 31
0.0
 12
493.2163806711153
 22
48.969205720486
 32
0.0
 13
493.5800229249915
 23
48.969205720486
 33
0.0
  0
SOLID
  5
9D48
330
1F
100
AcDbEntity
  8
LOGO
 62
     5
100
AcDbTrace
 10
492.0890896840968
 20
61.8057772823349
 30
0.0
 11
491.0345271478547
 21
57.9390479827787
 31
0.0
 12
492.0890896840968
 22
52.60562825925266
 32
0.0
 13
491.0345271478547
 23
52.60562825925266
 33
0.0
  0
SOLID
  5
9D49
330
1F
100
AcDbEntity
  8
LOGO
 62
     5
100
AcDbTrace
 10
492.5254603887494
 20
52.60562825925266
 30
0.0
 11
493.5800229249915
 21
52.60562825925266
 31
0.0
 12
492.5254603887494
 22
62.60579024086372
 32
0.0
 13
493.5800229249915
 23
62.6057902408641
 33
0.0
  0
SOLID
  5
9D4A
330
1F
100
AcDbEntity
  8
LOGO
 62
     2
100
AcDbTrace
 10
492.0890896840968
 20
62.6057902408641
 30
0.0
 11
492.5254603887494
 21
62.60579024086372
 31
0.0
 12
492.0890896840968
 22
52.60562825925266
 32
0.0
 13
492.5254603887494
 23
52.60562825925266
 33
0.0
  0
POLYLINE
  5
9D4B
330
1F
100
AcDbEntity
  8
LOGO
 62
     5
100
AcDb2dPolyline
 66
     1
 10
0.0
 20
0.0
 30
0.0
 40
0.3642250138990044
 41
0.3642250138990044
  0
VERTEX
  5
9D4C
330
9D4B
100
AcDbEntity
  8
LOGO
 62
     5
100
AcDbVertex
100
AcDb2dVertex
 10
488.18684605637
 20
50.06013248211605
 30
0.0
 42
1.0
  0
VERTEX
  5
9D4D
330
9D4B
100
AcDbEntity
  8
LOGO
 62
     5
100
AcDbVertex
100
AcDb2dVertex
 10
487.0941710146728
 20
50.06013248211605
 30
0.0
 42
1.0
  0
SEQEND
  5
9D4E
330
9D4B
100
AcDbEntity
  8
LOGO
 62
     5
  0
POLYLINE
  5
9D4F
330
1F
100
AcDbEntity
  8
LOGO
 62
     5
100
AcDb2dPolyline
 66
     1
 10
0.0
 20
0.0
 30
0.0
 40
0.3642250138990044
 41
0.3642250138990044
  0
VERTEX
  5
9D50
330
9D4F
100
AcDbEntity
  8
LOGO
 62
     5
100
AcDbVertex
100
AcDb2dVertex
 10
489.2777728179993
 20
50.06013248211605
 30
0.0
 42
1.0
  0
VERTEX
  5
9D51
330
9D4F
100
AcDbEntity
  8
LOGO
 62
     5
100
AcDbVertex
100
AcDb2dVertex
 10
488.1850977763027
 20
50.06013248211605
 30
0.0
 42
1.0
  0
SEQEND
  5
9D52
330
9D4F
100
AcDbEntity
  8
LOGO
 62
     5
  0
POLYLINE
  5
9D53
330
1F
100
AcDbEntity
  8
LOGO
 62
     5
100
AcDb2dPolyline
 66
     1
 10
0.0
 20
0.0
 30
0.0
 40
0.3642250138990044
 41
0.3642250138990044
  0
VERTEX
  5
9D54
330
9D53
100
AcDbEntity
  8
LOGO
 62
     5
100
AcDbVertex
100
AcDb2dVertex
 10
484.065542936282
 20
50.06013248211605
 30
0.0
 42
1.0
  0
VERTEX
  5
9D55
330
9D53
100
AcDbEntity
  8
LOGO
 62
     5
100
AcDbVertex
100
AcDb2dVertex
 10
482.9728678945855
 20
50.06013248211605
 30
0.0
 42
1.0
  0
SEQEND
  5
9D56
330
9D53
100
AcDbEntity
  8
LOGO
 62
     5
  0
SOLID
  5
9D57
330
1F
100
AcDbEntity
  8
LOGO
 62
     5
100
AcDbTrace
 10
482.7919209076806
 20
50.78741698986894
 30
0.0
 11
483.1555631615565
 21
50.78741698986894
 31
0.0
 12
482.7919209076806
 22
48.969205720486
 32
0.0
 13
483.1555631615565
 23
48.969205720486
 33
0.0
  0
SOLID
  5
9D58
330
1F
100
AcDbEntity
  8
LOGO
 62
     5
100
AcDbTrace
 10
483.882847669311
 20
50.06013248211605
 30
0.0
 11
484.2464899231881
 21
50.06013248211605
 31
0.0
 12
483.882847669311
 22
48.969205720486
 32
0.0
 13
484.2464899231881
 23
48.969205720486
 33
0.0
  0
POLYLINE
  5
9D59
330
1F
100
AcDbEntity
  8
LOGO
 62
     5
100
AcDb2dPolyline
 66
     1
 10
0.0
 20
0.0
 30
0.0
 70
     1
 40
0.3642250138990044
 41
0.3642250138990044
  0
VERTEX
  5
9D5A
330
9D59
100
AcDbEntity
  8
LOGO
 62
     5
100
AcDbVertex
100
AcDb2dVertex
 10
484.8514433119044
 20
49.878311355177
 30
0.0
 42
1.0
  0
VERTEX
  5
9D5B
330
9D59
100
AcDbEntity
  8
LOGO
 62
     5
100
AcDbVertex
100
AcDb2dVertex
 10
486.3083433675008
 20
49.878311355177
 30
0.0
 42
1.0
  0
SEQEND
  5
9D5C
330
9D59
100
AcDbEntity
  8
LOGO
 62
     5
  0
SOLID
  5
9D5D
330
1F
100
AcDbEntity
  8
LOGO
 62
     5
100
AcDbTrace
 10
486.1253203562928
 20
51.33288037068472
 30
0.0
 11
486.4889626101694
 21
51.33288037068472
 31
0.0
 12
486.1253203562928
 22
48.969205720486
 32
0.0
 13
486.4889626101694
 23
48.969205720486
 33
0.0
  0
SOLID
  5
9D5E
330
1F
100
AcDbEntity
  8
LOGO
 62
     5
100
AcDbTrace
 10
486.9132240277684
 20
50.78741698986894
 30
0.0
 11
487.2768662816445
 21
50.78741698986894
 31
0.0
 12
486.9132240277684
 22
48.969205720486
 32
0.0
 13
487.2768662816445
 23
48.969205720486
 33
0.0
  0
SOLID
  5
9D5F
330
1F
100
AcDbEntity
  8
LOGO
 62
     5
100
AcDbTrace
 10
488.0041507893976
 20
50.06013248211605
 30
0.0
 11
488.3677930432748
 21
50.06013248211605
 31
0.0
 12
488.0041507893976
 22
48.969205720486
 32
0.0
 13
488.3677930432748
 23
48.969205720486
 33
0.0
  0
SOLID
  5
9D60
330
1F
100
AcDbEntity
  8
LOGO
 62
     5
100
AcDbTrace
 10
489.0950775510281
 20
50.06013248211605
 30
0.0
 11
489.4587198049046
 21
50.06013248211605
 31
0.0
 12
489.0950775510281
 22
48.96920572048523
 32
0.0
 13
489.4587198049046
 23
48.96920572048523
 33
0.0
  0
SOLID
  5
9D61
330
1F
100
AcDbEntity
  8
LOGO
 62
     5
100
AcDbTrace
 10
482.0040172362054
 20
51.04196656758315
 30
0.0
 11
482.3676594900832
 21
51.04196656758315
 31
0.0
 12
482.0040172362054
 22
51.33288037068472
 32
0.0
 13
482.3676594900832
 23
51.33288037068472
 33
0.0
  0
SOLID
  5
9D62
330
1F
100
AcDbEntity
  8
LOGO
 62
     5
100
AcDbTrace
 10
482.0040172362054
 20
50.78741698986894
 30
0.0
 11
482.3676594900832
 21
50.78741698986894
 31
0.0
 12
482.0040172362054
 22
48.96920572048523
 32
0.0
 13
482.3676594900832
 23
48.969205720486
 33
0.0
  0
SOLID
  5
9D63
330
1F
100
AcDbEntity
  8
LOGO
 62
     5
100
AcDbTrace
 10
485.5798933397023
 20
52.60562825925323
 30
0.0
 11
486.6344558759455
 21
52.60562825925323
 31
0.0
 12
485.5798933397023
 22
57.9390479827787
 32
0.0
 13
486.6344558759455
 23
61.8057772823349
 33
0.0
  0
SOLID
  5
9D64
330
1F
100
AcDbEntity
  8
LOGO
 62
     5
100
AcDbTrace
 10
487.0708265805982
 20
62.60579024086372
 30
0.0
 11
488.1253891168403
 21
62.6057902408641
 31
0.0
 12
487.0708265805982
 22
53.40564121778206
 32
0.0
 13
488.1253891168403
 23
57.27237051733843
 33
0.0
  0
SOLID
  5
9D65
330
1F
100
AcDbEntity
  8
LOGO
 62
     2
100
AcDbTrace
 10
486.6344558759455
 20
62.60579024086372
 30
0.0
 11
487.0708265805982
 21
62.60579024086372
 31
0.0
 12
486.6344558759455
 22
52.60562825925323
 32
0.0
 13
487.0708265805982
 23
52.60562825925323
 33
0.0
  0
SOLID
  5
9D66
330
1F
100
AcDbEntity
  8
LOGO
 62
     5
100
AcDbTrace
 10
487.0708265805982
 20
53.40564121778206
 30
0.0
 11
488.1253891168403
 21
57.27237051733843
 31
0.0
 12
492.0890896840968
 22
62.6057902408641
 32
0.0
 13
491.0345271478547
 23
62.6057902408641
 33
0.0
  0
SOLID
  5
9D67
330
1F
100
AcDbEntity
  8
LOGO
 62
     5
100
AcDbTrace
 10
487.0708265805982
 20
52.60562825925323
 30
0.0
 11
488.1253891168403
 21
52.60562825925323
 31
0.0
 12
492.0890896840968
 22
61.8057772823349
 32
0.0
 13
491.0345271478547
 23
57.9390479827787
 33
0.0
  0
SOLID
  5
9D68
330
1F
100
AcDbEntity
  8
LOGO
 62
     2
100
AcDbTrace
 10
486.6344558759455
 20
52.60562825925323
 30
0.0
 11
487.0708265805982
 21
52.60562825925323
 31
0.0
 12
492.0890896840968
 22
62.6057902408641
 32
0.0
 13
492.5254603887494
 23
62.60579024086372
 33
0.0
  0
LINE
  5
9D69
330
1F
100
AcDbEntity
  8
LOGO
 62
     4
100
AcDbLine
 10
576.3668407015185
 20
49.77063003173609
 30
0.0
 11
576.3668407015185
 21
40.82760513689346
 31
0.0
  0
LINE
  5
9D6A
330
1F
100
AcDbEntity
  8
LOGO
 62
     4
100
AcDbLine
 10
564.8003561168486
 20
49.77063003173609
 30
0.0
 11
564.8003561168486
 21
40.82760513689346
 31
0.0
  0
LINE
  5
9D6B
330
1F
100
AcDbEntity
  8
LOGO
 62
     4
100
AcDbLine
 10
576.3668407015185
 20
40.82760513689346
 30
0.0
 11
564.8003561168486
 21
40.82760513689346
 31
0.0
  0
LINE
  5
9D6C
330
1F
100
AcDbEntity
  8
LOGO
 62
     4
100
AcDbLine
 10
584.1513099808642
 20
60.74616058449534
 30
0.0
 11
564.8003561168486
 21
60.74616058449534
 31
0.0
  0
LINE
  5
9D6D
330
1F
100
AcDbEntity
  8
LOGO
 62
     4
100
AcDbLine
 10
584.1513099808642
 20
53.42914021598879
 30
0.0
 11
564.8003561168486
 21
53.42914021598879
 31
0.0
  0
LINE
  5
9D6E
330
1F
100
AcDbEntity
  8
LOGO
 62
     4
100
AcDbLine
 10
564.8003561168486
 20
60.74616058449534
 30
0.0
 11
564.8003561168486
 21
53.42914021598879
 31
0.0
  0
LINE
  5
9D6F
330
1F
100
AcDbEntity
  8
LOGO
 62
     4
100
AcDbLine
 10
584.1513099808642
 20
60.74616058449534
 30
0.0
 11
584.1513099808642
 21
53.42914021598879
 31
0.0
  0
LINE
  5
9D70
330
1F
100
AcDbEntity
  8
LOGO
 62
     4
100
AcDbLine
 10
573.7787447093703
 20
53.42914021598879
 30
0.0
 11
573.7787447093703
 21
49.77063003173609
 31
0.0
  0
TEXT
  5
9D71
330
1F
100
AcDbEntity
  8
LOGO
  6
Continuous
 62
     7
100
AcDbText
 10
566.100476041518
 20
54.9565575204323
 30
0.0
 40
4.268880000000001
  1
MVAA
  7
CHINESET
100
AcDbText
  0
LINE
  5
9D72
330
1F
100
AcDbEntity
  8
LOGO
 62
     4
100
AcDbLine
 10
576.3668407015185
 20
49.77063003173609
 30
0.0
 11
564.8003561168486
 21
49.77063003173609
 31
0.0
  0
TEXT
  5
9D73
330
1F
100
AcDbEntity
  8
LOGO
  6
Continuous
100
AcDbText
 10
566.9027184189487
 20
42.08989413667558
 30
159.8484869550175
 40
1.829519999999999
  1
Model
 41
0.8
  7
CHINESET
100
AcDbText
  0
TEXT
  5
9D74
330
1F
100
AcDbEntity
  8
LOGO
100
AcDbText
 10
566.4157596689858
 20
45.48142992697499
 30
159.8484869550175
 40
3.0492
  1
型號
  7
CHINESET
100
AcDbText
  0
LINE
  5
9D75
330
1F
100
AcDbEntity
  8
LOGO
  6
Continuous
 62
     7
100
AcDbLine
 10
584.9291697203773
 20
57.06173235773431
 30
0.0
 11
588.1600989288998
 21
57.06173235773431
 31
0.0
  0
LINE
  5
9D76
330
1F
100
AcDbEntity
  8
LOGO
 62
     4
100
AcDbLine
 10
593.0873092181079
 20
49.77063003173609
 30
0.0
 11
593.0873092181079
 21
40.82760513689346
 31
0.0
  0
LINE
  5
9D77
330
1F
100
AcDbEntity
  8
LOGO
 62
     4
100
AcDbLine
 10
578.2722867300122
 20
49.77063003173609
 30
0.0
 11
578.2722867300122
 21
40.82760513689346
 31
0.0
  0
LINE
  5
9D78
330
1F
100
AcDbEntity
  8
LOGO
 62
     4
100
AcDbLine
 10
593.0873092181079
 20
40.82760513689346
 30
0.0
 11
578.2722867300122
 21
40.82760513689346
 31
0.0
  0
LINE
  5
9D79
330
1F
100
AcDbEntity
  8
LOGO
 62
     4
100
AcDbLine
 10
597.956043337423
 20
60.74616058449534
 30
0.0
 11
589.1792867817463
 21
60.74616058449534
 31
0.0
  0
LINE
  5
9D7A
330
1F
100
AcDbEntity
  8
LOGO
 62
     4
100
AcDbLine
 10
597.956043337423
 20
53.42914021598879
 30
0.0
 11
589.1792867817463
 21
53.42914021598879
 31
0.0
  0
LINE
  5
9D7B
330
1F
100
AcDbEntity
  8
LOGO
 62
     4
100
AcDbLine
 10
589.1792867817463
 20
60.74616058449534
 30
0.0
 11
589.1792867817463
 21
53.42914021598879
 31
0.0
  0
LINE
  5
9D7C
330
1F
100
AcDbEntity
  8
LOGO
 62
     4
100
AcDbLine
 10
597.956043337423
 20
60.74616058449534
 30
0.0
 11
597.956043337423
 21
53.42914021598879
 31
0.0
  0
LINE
  5
9D7D
330
1F
100
AcDbEntity
  8
LOGO
 62
     4
100
AcDbLine
 10
593.5676650595848
 20
53.42914021598879
 30
0.0
 11
593.5676650595848
 21
51.59988512386245
 31
0.0
  0
TEXT
  5
9D7E
330
1F
100
AcDbEntity
  8
LOGO
  6
Continuous
 62
     7
100
AcDbText
 10
590.3687183509674
 20
54.9565575204323
 30
0.0
 40
4.268880000000001
  1
220
  7
CHINESET
100
AcDbText
  0
LINE
  5
9D7F
330
1F
100
AcDbEntity
  8
LOGO
 62
     4
100
AcDbLine
 10
593.0873092181079
 20
49.77063003173609
 30
0.0
 11
578.2722867300122
 21
49.77063003173609
 31
0.0
  0
LINE
  5
9D80
330
1F
100
AcDbEntity
  8
LOGO
  6
Continuous
 62
     7
100
AcDbLine
 10
602.9036874372906
 20
57.06173235773431
 30
0.0
 11
606.1346166458133
 21
57.06173235773431
 31
0.0
  0
LINE
  5
9D81
330
1F
100
AcDbEntity
  8
LOGO
 62
     4
100
AcDbLine
 10
607.2854320080551
 20
49.77063003173609
 30
0.0
 11
607.2854320080551
 21
40.82760513689346
 31
0.0
  0
LINE
  5
9D82
330
1F
100
AcDbEntity
  8
LOGO
 62
     4
100
AcDbLine
 10
595.0712976142713
 20
49.77063003173609
 30
0.0
 11
595.0712976142713
 21
40.82760513689346
 31
0.0
  0
LINE
  5
9D83
330
1F
100
AcDbEntity
  8
LOGO
 62
     4
100
AcDbLine
 10
607.2854320080551
 20
40.82760513689346
 30
0.0
 11
595.0712976142713
 21
40.82760513689346
 31
0.0
  0
LINE
  5
9D84
330
1F
100
AcDbEntity
  8
LOGO
 62
     4
100
AcDbLine
 10
612.3480343009465
 20
60.74616058449534
 30
0.0
 11
607.1538044986596
 21
60.74616058449534
 31
0.0
  0
LINE
  5
9D85
330
1F
100
AcDbEntity
  8
LOGO
 62
     4
100
AcDbLine
 10
612.3480343009465
 20
53.42914021598879
 30
0.0
 11
607.1538044986596
 21
53.42914021598879
 31
0.0
  0
LINE
  5
9D86
330
1F
100
AcDbEntity
  8
LOGO
 62
     4
100
AcDbLine
 10
607.1538044986596
 20
60.74616058449534
 30
0.0
 11
607.1538044986596
 21
53.42914021598879
 31
0.0
  0
LINE
  5
9D87
330
1F
100
AcDbEntity
  8
LOGO
 62
     4
100
AcDbLine
 10
612.3480343009465
 20
60.74616058449534
 30
0.0
 11
612.3480343009465
 21
53.42914021598879
 31
0.0
  0
LINE
  5
9D88
330
1F
100
AcDbEntity
  8
LOGO
 62
     4
100
AcDbLine
 10
609.7509193998031
 20
53.42914021598879
 30
0.0
 11
609.7509193998031
 21
51.59988512386245
 31
0.0
  0
TEXT
  5
9D89
330
1F
100
AcDbEntity
  8
LOGO
  6
Continuous
 62
     7
100
AcDbText
 10
608.1276803440086
 20
54.9565575204323
 30
0.0
 40
4.268880000000001
  1
4
  7
CHINESET
100
AcDbText
  0
LINE
  5
9D8A
330
1F
100
AcDbEntity
  8
LOGO
 62
     4
100
AcDbLine
 10
607.2854320080551
 20
49.77063003173609
 30
0.0
 11
595.0712976142713
 21
49.77063003173609
 31
0.0
  0
LINE
  5
9D8B
330
1F
100
AcDbEntity
  8
LOGO
 62
     4
100
AcDbLine
 10
632.2856582477678
 20
49.77063003173609
 30
0.0
 11
632.2856582477678
 21
40.82760513689346
 31
0.0
  0
LINE
  5
9D8C
330
1F
100
AcDbEntity
  8
LOGO
 62
     4
100
AcDbLine
 10
609.7625056597198
 20
49.77063003173609
 30
0.0
 11
609.7625056597198
 21
40.82760513689346
 31
0.0
  0
LINE
  5
9D8D
330
1F
100
AcDbEntity
  8
LOGO
 62
     4
100
AcDbLine
 10
632.2856582477678
 20
40.82760513689346
 30
0.0
 11
609.7625056597198
 21
40.82760513689346
 31
0.0
  0
LINE
  5
9D8E
330
1F
100
AcDbEntity
  8
LOGO
 62
     4
100
AcDbLine
 10
623.4339882224024
 20
60.74616058449534
 30
0.0
 11
613.7803277425596
 21
60.74616058449534
 31
0.0
  0
LINE
  5
9D8F
330
1F
100
AcDbEntity
  8
LOGO
 62
     4
100
AcDbLine
 10
623.4339882224024
 20
53.42914021598879
 30
0.0
 11
613.7803277425596
 21
53.42914021598879
 31
0.0
  0
LINE
  5
9D90
330
1F
100
AcDbEntity
  8
LOGO
 62
     4
100
AcDbLine
 10
613.7803277425596
 20
60.74616058449534
 30
0.0
 11
613.7803277425596
 21
53.42914021598879
 31
0.0
  0
LINE
  5
9D91
330
1F
100
AcDbEntity
  8
LOGO
 62
     4
100
AcDbLine
 10
623.4339882224024
 20
60.74616058449534
 30
0.0
 11
623.4339882224024
 21
53.42914021598879
 31
0.0
  0
LINE
  5
9D92
330
1F
100
AcDbEntity
  8
LOGO
 62
     4
100
AcDbLine
 10
618.6071579824812
 20
53.42914021598879
 30
0.0
 11
618.6071579824812
 21
49.77063003173609
 31
0.0
  0
TEXT
  5
9D93
330
1F
100
AcDbEntity
  8
LOGO
  6
Continuous
 62
     7
100
AcDbText
 10
615.5073737325331
 20
54.9565575204323
 30
0.0
 40
4.268880000000001
  1
A1
  7
CHINESET
100
AcDbText
  0
LINE
  5
9D94
330
1F
100
AcDbEntity
  8
LOGO
 62
     4
100
AcDbLine
 10
632.2856582477678
 20
49.77063003173609
 30
0.0
 11
609.7625056597198
 21
49.77063003173609
 31
0.0
  0
TEXT
  5
9D95
330
1F
100
AcDbEntity
  8
LOGO
  6
Continuous
100
AcDbText
 10
579.4347007393985
 20
42.08989413667558
 30
159.8484869550175
 40
1.829519999999999
  1
Body width
 41
0.8
  7
CHINESET
100
AcDbText
  0
TEXT
  5
9D96
330
1F
100
AcDbEntity
  8
LOGO
100
AcDbText
 10
579.4174660273474
 20
45.48142992697499
 30
159.8484869550175
 40
3.0492
  1
本體寬度
  7
CHINESET
100
AcDbText
  0
TEXT
  5
9D97
330
1F
100
AcDbEntity
  8
LOGO
  6
Continuous
100
AcDbText
 10
597.5194247690385
 20
42.08989413667558
 30
159.8484869550175
 40
1.829519999999999
  1
4 Way
 41
0.8
  7
CHINESET
100
AcDbText
  0
TEXT
  5
9D98
330
1F
100
AcDbEntity
  8
LOGO
100
AcDbText
 10
596.6926680011948
 20
45.48142992697499
 30
159.8484869550175
 40
3.0492
  1
4方向
  7
CHINESET
100
AcDbText
  0
TEXT
  5
9D99
330
1F
100
AcDbEntity
  8
LOGO
  6
Continuous
100
AcDbText
 10
611.0890311559221
 20
42.08989413667558
 30
159.8484869550175
 40
1.829519999999999
  1
Single air operate
 41
0.8
  7
CHINESET
100
AcDbText
  0
TEXT
  5
9D9A
330
1F
100
AcDbEntity
  8
LOGO
100
AcDbText
 10
611.1611867249901
 20
45.48142992697499
 30
159.8484869550175
 40
3.0492
  1
單動氣壓引導
  7
CHINESET
100
AcDbText
  0
TEXT
  5
9D9B
330
1F
100
AcDbEntity
  8
LOGO
100
AcDbText
 10
532.3829771433317
 20
40.09264146438503
 30
0.0
 40
2.439359999999999
  1
10710030
 41
0.7
  7
CHINESET
 72
     1
 11
538.3187531433317
 21
40.09264146438503
 31
0.0
100
AcDbText
  0
LINE
  5
9D9C
330
1F
100
AcDbEntity
  8
LOGO
 62
     4
100
AcDbLine
 10
545.8890602134097
 20
43.67311305798032
 30
0.0
 11
545.8890602134106
 21
38.7950994789757
 31
0.0
  0
LINE
  5
9D9D
330
1F
100
AcDbEntity
  8
LOGO
 62
     4
100
AcDbLine
 10
545.8890602134097
 20
43.67311305798032
 30
0.0
 11
531.2529002134107
 21
43.67311305798032
 31
0.0
  0
CIRCLE
  5
9D9E
330
1F
100
AcDbEntity
  8
LOGO
  6
Continuous
100
AcDbCircle
 10
519.5089810869723
 20
55.87336405886211
 30
0.0
 40
1.416144749733467
  0
CIRCLE
  5
9D9F
330
1F
100
AcDbEntity
  8
LOGO
  6
Continuous
100
AcDbCircle
 10
519.5089810869723
 20
55.87336405886211
 30
0.0
 40
0.8297354591420555
  0
LINE
  5
9DA0
330
1F
100
AcDbEntity
  8
LOGO
100
AcDbLine
 10
528.4081990167853
 20
54.45721930912826
 30
0.0
 11
528.4081990167853
 21
57.28950880859594
 31
0.0
  0
LINE
  5
9DA1
330
1F
100
AcDbEntity
  8
LOGO
100
AcDbLine
 10
523.9686665169585
 20
55.04362859972032
 30
0.0
 11
523.9686665169585
 21
56.70309951800446
 31
0.0
  0
LINE
  5
9DA2
330
1F
100
AcDbEntity
  8
LOGO
  6
Continuous
100
AcDbLine
 10
523.9686665169585
 20
56.70309951800446
 30
0.0
 11
528.4081990167853
 21
57.28950880859594
 31
0.0
  0
LINE
  5
9DA3
330
1F
100
AcDbEntity
  8
LOGO
  6
Continuous
100
AcDbLine
 10
523.9686665169585
 20
55.04362859972032
 30
0.0
 11
528.4081990167853
 21
54.45721930912826
 31
0.0
  0
LINE
  5
9DA4
330
1F
100
AcDbEntity
  8
LOGO
  6
AM_ISO08W050x2
 48
0.3
100
AcDbLine
 10
517.5568043443669
 20
55.87336405886211
 30
0.0
 11
521.4611578295777
 21
55.87336405886211
 31
0.0
1001
GENIUS_GENOREF_13
1005
9DAD
  0
LINE
  5
9DA5
330
1F
100
AcDbEntity
  8
LOGO
  6
AM_ISO08W050x2
 48
0.3
100
AcDbLine
 10
519.5089810869723
 20
53.92118731625652
 30
0.0
 11
519.5089810869723
 21
57.82554080146749
 31
0.0
1001
GENIUS_GENOREF_13
1005
9DAC
  0
LINE
  5
9DA6
330
1F
100
AcDbEntity
  8
LOGO
  6
CENTER
 48
0.5
100
AcDbLine
 10
523.6136273132006
 20
55.87336405886211
 30
0.0
 11
528.85524556801
 21
55.87336405886211
 31
0.0
1001
GENIUS_GENOREF_13
1005
9DAB
  0
LINE
  5
9DA7
330
1F
100
AcDbEntity
  8
LOGO
 62
     4
100
AcDbLine
 10
593.5676650595848
 20
51.59988512386245
 30
0.0
 11
585.6797979740598
 21
51.59988512386245
 31
0.0
  0
LINE
  5
9DA8
330
1F
100
AcDbEntity
  8
LOGO
 62
     4
100
AcDbLine
 10
585.6797979740598
 20
49.77063003173609
 30
0.0
 11
585.6797979740598
 21
51.59988512386245
 31
0.0
  0
LINE
  5
9DA9
330
1F
100
AcDbEntity
  8
LOGO
 62
     4
100
AcDbLine
 10
609.7509193998031
 20
51.59988512386245
 30
0.0
 11
601.1783648111635
 21
51.59988512386245
 31
0.0
  0
LINE
  5
9DAA
330
1F
100
AcDbEntity
  8
LOGO
 62
     4
100
AcDbLine
 10
601.1783648111635
 20
49.77063003173609
 30
0.0
 11
601.1783648111635
 21
51.59988512386245
 31
0.0
  0
POINT
  5
9DAB
330
1F
100
AcDbEntity
  8
0
 60
     1
100
AcDbPoint
 10
-1336.070426552674
 20
-1023.246022656632
 30
0.0
1001
GENIUS_GENOBJ-N-CRS_13
1002
{
1000
OWNER
1000
GEN
1002
}
1001
GENIUS_GENOLIS_13
1002
{
1000
ENT
1005
0
1005
0
1005
0
1005
9DA6
1002
}
1001
GENIUS_GENOENT_13
1002
{
1000
MYREF
1005
9DAB
1002
}
1002
{
1000
GRP
1005
0
1002
}
1001
GENIUS_GENODEF_13
1002
{
1000
HIER
1070
    10
1002
}
1002
{
1000
MANEDIT
1070
     1
1002
}
1002
{
1000
NOSEL
1070
     0
1002
}
1002
{
1000
BEHIND
1070
     0
1002
}
1002
{
1000
OTHER
1070
     0
1002
}
1002
{
1000
REACTOR
1002
}
  0
POINT
  5
9DAC
330
1F
100
AcDbEntity
  8
0
 60
     1
100
AcDbPoint
 10
-1347.395011775528
 20
-1014.370436177995
 30
0.0
1001
GENIUS_GENOBJ-N-CRS_13
1002
{
1000
OWNER
1000
GEN
1002
}
1001
GENIUS_GENOLIS_13
1002
{
1000
ENT
1005
0
1005
0
1005
0
1005
9DA5
1002
}
1001
GENIUS_GENOENT_13
1002
{
1000
MYREF
1005
9DAC
1002
}
1002
{
1000
GRP
1005
0
1002
}
1001
GENIUS_GENODEF_13
1002
{
1000
HIER
1070
    10
1002
}
1002
{
1000
MANEDIT
1070
     1
1002
}
1002
{
1000
NOSEL
1070
     0
1002
}
1002
{
1000
BEHIND
1070
     0
1002
}
1002
{
1000
OTHER
1070
     0
1002
}
1002
{
1000
REACTOR
1002
}
  0
POINT
  5
9DAD
330
1F
100
AcDbEntity
  8
0
 60
     1
100
AcDbPoint
 10
-1341.036338077691
 20
-1023.246022656632
 30
0.0
1001
GENIUS_GENOBJ-N-CRS_13
1002
{
1000
OWNER
1000
GEN
1002
}
1001
GENIUS_GENOLIS_13
1002
{
1000
ENT
1005
0
1005
0
1005
0
1005
9DA4
1002
}
1001
GENIUS_GENOENT_13
1002
{
1000
MYREF
1005
9DAD
1002
}
1002
{
1000
GRP
1005
0
1002
}
1001
GENIUS_GENODEF_13
1002
{
1000
HIER
1070
    10
1002
}
1002
{
1000
MANEDIT
1070
     1
1002
}
1002
{
1000
NOSEL
1070
     0
1002
}
1002
{
1000
BEHIND
1070
     0
1002
}
1002
{
1000
OTHER
1070
     0
1002
}
1002
{
1000
REACTOR
1002
}
  0
ENDSEC
  0
SECTION
  2
OBJECTS
  0
DICTIONARY
  5
C
330
0
100
AcDbDictionary
281
     1
  3
ACAD_COLOR
350
BE
  3
ACAD_GROUP
350
D
  3
ACAD_LAYOUT
350
1A
  3
ACAD_MATERIAL
350
BD
  3
ACAD_MLINESTYLE
350
17
  3
ACAD_PLOTSETTINGS
350
19
  3
ACAD_PLOTSTYLENAME
350
E
  3
ACAD_TABLESTYLE
350
11A
  3
ACDBHEADERROUNDTRIPXREC
350
9E4E
  3
AcDbVariableDictionary
350
94
  3
AcmDictionary
350
5B
  3
AMG
350
41
  3
AMGSNAPSETTINGS
350
1B8
  3
DWGPROPS
350
9E4D
  0
DICTIONARY
  5
3F9
330
2
100
AcDbDictionary
280
     1
281
     1
  3
ACAD_LAYERFILTERS
360
53AE
  3
ACAD_LAYERSTATES
360
AB0
  3
ACLYDICTIONARY
360
53AD
  0
DICTIONARY
  5
8F
330
1F
100
AcDbDictionary
280
     1
281
     1
  3
ACAD_SORTENTS
360
2D66
  0
DICTIONARY
  5
36A1
330
3694
100
AcDbDictionary
280
     1
281
     1
  3
ACAD_DIMASSOC
360
36A2
  0
DICTIONARY
  5
36C7
330
36BA
100
AcDbDictionary
280
     1
281
     1
  3
ACAD_DIMASSOC
360
36C8
  0
DICTIONARY
  5
36F1
330
36E4
100
AcDbDictionary
280
     1
281
     1
  3
ACAD_DIMASSOC
360
36F2
  0
DICTIONARY
  5
3717
330
370A
100
AcDbDictionary
280
     1
281
     1
  3
ACAD_DIMASSOC
360
3718
  0
DICTIONARY
  5
383A
330
382D
100
AcDbDictionary
280
     1
281
     1
  3
ACAD_DIMASSOC
360
383B
  0
DICTIONARY
  5
3860
330
3853
100
AcDbDictionary
280
     1
281
     1
  3
ACAD_DIMASSOC
360
3861
  0
DICTIONARY
  5
3888
330
3879
100
AcDbDictionary
280
     1
281
     1
  3
ACAD_DIMASSOC
360
3889
  0
DICTIONARY
  5
38B0
330
38A3
100
AcDbDictionary
280
     1
281
     1
  3
ACAD_DIMASSOC
360
38B1
  0
DICTIONARY
  5
38E5
330
38D8
100
AcDbDictionary
280
     1
281
     1
  3
ACAD_DIMASSOC
360
38E6
  0
DICTIONARY
  5
390B
330
38FE
100
AcDbDictionary
280
     1
281
     1
  3
ACAD_DIMASSOC
360
390C
  0
DICTIONARY
  5
3957
330
394A
100
AcDbDictionary
280
     1
281
     1
  3
ACAD_DIMASSOC
360
3958
  0
DICTIONARY
  5
39CD
330
39C0
100
AcDbDictionary
280
     1
281
     1
  3
ACAD_DIMASSOC
360
39CE
  0
DICTIONARY
  5
39F3
330
39E6
100
AcDbDictionary
280
     1
281
     1
  3
ACAD_DIMASSOC
360
39F4
  0
DICTIONARY
  5
5444
330
5435
100
AcDbDictionary
280
     1
281
     1
  3
ACAD_DIMASSOC
360
5445
  0
DICTIONARY
  5
6A85
330
6A78
100
AcDbDictionary
280
     1
281
     1
  3
ACAD_DIMASSOC
360
6A86
  0
DICTIONARY
  5
BE
102
{ACAD_REACTORS
330
C
102
}
330
C
100
AcDbDictionary
281
     1
  0
DICTIONARY
  5
D
102
{ACAD_REACTORS
330
C
102
}
330
C
100
AcDbDictionary
281
     1
  0
DICTIONARY
  5
1A
102
{ACAD_REACTORS
330
C
102
}
330
C
100
AcDbDictionary
281
     1
  3
Model
350
22
  3
配置1
350
1E
  3
配置2
350
26
  0
DICTIONARY
  5
BD
102
{ACAD_REACTORS
330
C
102
}
330
C
100
AcDbDictionary
281
     1
  0
DICTIONARY
  5
17
102
{ACAD_REACTORS
330
C
102
}
330
C
100
AcDbDictionary
281
     1
  3
Standard
350
18
  0
DICTIONARY
  5
19
102
{ACAD_REACTORS
330
C
102
}
330
C
100
AcDbDictionary
281
     1
  0
ACDBDICTIONARYWDFLT
  5
E
102
{ACAD_REACTORS
330
C
102
}
330
C
100
AcDbDictionary
281
     1
  3
Normal
350
F
100
AcDbDictionaryWithDefault
340
F
  0
DICTIONARY
  5
11A
102
{ACAD_REACTORS
330
C
102
}
330
C
100
AcDbDictionary
281
     1
  3
Standard
350
11B
  0
DICTIONARY
  5
9E4E
102
{ACAD_REACTORS
330
C
102
}
330
C
100
AcDbDictionary
281
     1
  0
DICTIONARY
  5
94
102
{ACAD_REACTORS
330
C
102
}
330
C
100
AcDbDictionary
281
     1
  3
CTABLESTYLE
350
138
  3
DIMASSOC
350
96
  3
INDEXCTL
350
95
  3
PROJECTNAME
350
9E4B
  0
DICTIONARY
  5
5B
102
{ACAD_REACTORS
330
C
102
}
330
C
100
AcDbDictionary
281
     1
  3
AcmBOM
350
1B5
  3
AcmStdDictionary
350
61
  3
AMDTSECTSYM_ARROWCOLOR
350
123
  0
DICTIONARY
  5
41
102
{ACAD_REACTORS
330
C
102
}
330
C
100
AcDbDictionary
281
     1
  0
DICTIONARY
  5
1B8
102
{ACAD_REACTORS
330
C
102
}
330
C
100
AcDbDictionary
281
     1
  0
XRECORD
  5
9E4D
102
{ACAD_REACTORS
330
C
102
}
330
C
100
AcDbXrecord
280
     1
  1
DWGPROPS COOKIE
  2

  3

  4

  6

  7

  8

  9

300
AmdtFileType=84
301
=
302
=
303
=
304
=
305
=
306
=
307
=
308
=
309
=
 40
0.514542488425926
 41
2454362.463208368
 42
2454377.556887107
  1

 90
        1
  0
DICTIONARY
  5
53AE
102
{ACAD_REACTORS
330
3F9
102
}
330
3F9
100
AcDbDictionary
281
     1
  0
DICTIONARY
  5
AB0
102
{ACAD_REACTORS
330
3F9
102
}
330
3F9
100
AcDbDictionary
281
     1
  0
DICTIONARY
  5
53AD
102
{ACAD_REACTORS
330
3F9
102
}
330
3F9
100
AcDbDictionary
281
     1
1001
ACAD
1000
<All
  0
SORTENTSTABLE
  5
2D66
102
{ACAD_REACTORS
330
8F
102
}
330
8F
100
AcDbSortentsTable
330
1F
331
2C43
  5
2C43
331
2984
  5
2984
331
293D
  5
293D
331
2C4B
  5
2C4B
331
298C
  5
298C
331
2C83
  5
2C83
331
2994
  5
2994
331
2C8B
  5
2C8B
331
2800
  5
2800
331
284F
  5
284F
331
2808
  5
2808
331
28D6
  5
28D6
331
28DE
  5
28DE
331
2810
  5
2810
331
28E6
  5
28E6
331
2818
  5
2818
331
28EE
  5
28EE
331
28AF
  5
28AF
331
2C2C
  5
2C2C
331
2965
  5
2965
331
2C34
  5
2C34
331
296D
  5
296D
331
2C3C
  5
2C3C
331
2975
  5
2975
331
297D
  5
297D
331
2820
  5
2820
331
2771
  5
2771
331
28F6
  5
28F6
331
2828
  5
2828
331
28B7
  5
28B7
331
28BF
  5
28BF
331
27F1
  5
27F1
331
28C7
  5
28C7
331
28CF
  5
28CF
331
2C44
  5
2C44
331
2985
  5
2985
331
293E
  5
293E
331
2C4C
  5
2C4C
331
298D
  5
298D
331
2C84
  5
2C84
331
2995
  5
2995
331
294E
  5
294E
331
2C8C
  5
2C8C
331
2848
  5
2848
331
2801
  5
2801
331
2809
  5
2809
331
28D7
  5
28D7
331
28DF
  5
28DF
331
2811
  5
2811
331
28E7
  5
28E7
331
2819
  5
2819
331
276A
  5
276A
331
28EF
  5
28EF
331
2C2D
  5
2C2D
331
2966
  5
2966
331
2C35
  5
2C35
331
296E
  5
296E
331
2C3D
  5
2C3D
331
2976
  5
2976
331
297E
  5
297E
331
28B0
  5
28B0
331
2821
  5
2821
331
2772
  5
2772
331
28F7
  5
28F7
331
28B8
  5
28B8
331
2829
  5
2829
331
28C0
  5
28C0
331
27F2
  5
27F2
331
28C8
  5
28C8
331
2C45
  5
2C45
331
2986
  5
2986
331
298E
  5
298E
331
2C85
  5
2C85
331
2996
  5
2996
331
2C8D
  5
2C8D
331
295F
  5
295F
331
28D0
  5
28D0
331
2849
  5
2849
331
2802
  5
2802
331
28D8
  5
28D8
331
2861
  5
2861
331
280A
  5
280A
331
28E0
  5
28E0
331
2812
  5
2812
331
28E8
  5
28E8
331
281A
  5
281A
331
276B
  5
276B
331
2C2E
  5
2C2E
331
2967
  5
2967
331
2C36
  5
2C36
331
296F
  5
296F
331
2C3E
  5
2C3E
331
2977
  5
2977
331
297F
  5
297F
331
28F0
  5
28F0
331
28B1
  5
28B1
331
2822
  5
2822
331
2773
  5
2773
331
28B9
  5
28B9
331
282A
  5
282A
331
2930
  5
2930
331
28C1
  5
28C1
331
27F3
  5
27F3
331
28C9
  5
28C9
331
27FB
  5
27FB
331
2C46
  5
2C46
331
2987
  5
2987
331
2940
  5
2940
331
298F
  5
298F
331
2C86
  5
2C86
331
2C8E
  5
2C8E
331
28D1
  5
28D1
331
284A
  5
284A
331
2803
  5
2803
331
28D9
  5
28D9
331
280B
  5
280B
331
28E1
  5
28E1
331
2813
  5
2813
331
28E9
  5
28E9
331
281B
  5
281B
331
276C
  5
276C
331
2960
  5
2960
331
2C2F
  5
2C2F
331
2968
  5
2968
331
2C37
  5
2C37
331
2970
  5
2970
331
2C3F
  5
2C3F
331
2978
  5
2978
331
28F1
  5
28F1
331
28B2
  5
28B2
331
2823
  5
2823
331
2774
  5
2774
331
28BA
  5
28BA
331
282B
  5
282B
331
27EC
  5
27EC
331
28C2
  5
28C2
331
27F4
  5
27F4
331
28CA
  5
28CA
331
2980
  5
2980
331
2939
  5
2939
331
2C47
  5
2C47
331
2988
  5
2988
331
2941
  5
2941
331
2990
  5
2990
331
2C87
  5
2C87
331
2C8F
  5
2C8F
331
28D2
  5
28D2
331
284B
  5
284B
331
2804
  5
2804
331
28DA
  5
28DA
331
280C
  5
280C
331
28E2
  5
28E2
331
2814
  5
2814
331
28EA
  5
28EA
331
281C
  5
281C
331
276D
  5
276D
331
2961
  5
2961
331
2C30
  5
2C30
331
2969
  5
2969
331
2C38
  5
2C38
331
2971
  5
2971
331
2979
  5
2979
331
28F2
  5
28F2
331
28B3
  5
28B3
331
2824
  5
2824
331
2775
  5
2775
331
292A
  5
292A
331
28BB
  5
28BB
331
282C
  5
282C
331
27ED
  5
27ED
331
28C3
  5
28C3
331
27F5
  5
27F5
331
28CB
  5
28CB
331
27FD
  5
27FD
331
2981
  5
2981
331
2C40
  5
2C40
331
2C48
  5
2C48
331
2989
  5
2989
331
2C80
  5
2C80
331
2991
  5
2991
331
2C88
  5
2C88
331
28D3
  5
28D3
331
284C
  5
284C
331
2805
  5
2805
331
28DB
  5
28DB
331
280D
  5
280D
331
2716
  5
2716
331
28E3
  5
28E3
331
2874
  5
2874
331
2815
  5
2815
331
271E
  5
271E
331
28EB
  5
28EB
331
281D
  5
281D
331
276E
  5
276E
331
2962
  5
2962
331
2C90
  5
2C90
331
2C31
  5
2C31
331
296A
  5
296A
331
2C39
  5
2C39
331
2972
  5
2972
331
297A
  5
297A
331
28F3
  5
28F3
331
28B4
  5
28B4
331
2825
  5
2825
331
2776
  5
2776
331
28BC
  5
28BC
331
282D
  5
282D
331
27EE
  5
27EE
331
28C4
  5
28C4
331
27F6
  5
27F6
331
28CC
  5
28CC
331
27FE
  5
27FE
331
2C41
  5
2C41
331
2982
  5
2982
331
2C49
  5
2C49
331
298A
  5
298A
331
2C81
  5
2C81
331
2992
  5
2992
331
2C89
  5
2C89
331
299A
  5
299A
331
28D4
  5
28D4
331
284D
  5
284D
331
2806
  5
2806
331
28DC
  5
28DC
331
280E
  5
280E
331
28E4
  5
28E4
331
2875
  5
2875
331
2816
  5
2816
331
28EC
  5
28EC
331
281E
  5
281E
331
276F
  5
276F
331
2963
  5
2963
331
2C32
  5
2C32
331
296B
  5
296B
331
2C3A
  5
2C3A
331
2973
  5
2973
331
297B
  5
297B
331
28F4
  5
28F4
331
28B5
  5
28B5
331
2826
  5
2826
331
28BD
  5
28BD
331
282E
  5
282E
331
27EF
  5
27EF
331
28C5
  5
28C5
331
27F7
  5
27F7
331
28CD
  5
28CD
331
27FF
  5
27FF
331
2C42
  5
2C42
331
2983
  5
2983
331
293C
  5
293C
331
2C4A
  5
2C4A
331
298B
  5
298B
331
2C82
  5
2C82
331
2993
  5
2993
331
2C8A
  5
2C8A
331
28D5
  5
28D5
331
2807
  5
2807
331
28DD
  5
28DD
331
280F
  5
280F
331
2718
  5
2718
331
28E5
  5
28E5
331
2817
  5
2817
331
28ED
  5
28ED
331
281F
  5
281F
331
2C2B
  5
2C2B
331
2964
  5
2964
331
2C33
  5
2C33
331
296C
  5
296C
331
2C3B
  5
2C3B
331
2974
  5
2974
331
297C
  5
297C
331
2770
  5
2770
331
28B6
  5
28B6
331
2827
  5
2827
331
28F5
  5
28F5
331
28BE
  5
28BE
331
27F0
  5
27F0
331
28C6
  5
28C6
331
2847
  5
2847
331
28CE
  5
28CE
  0
DIMASSOC
  5
36A2
102
{ACAD_REACTORS
330
36A1
102
}
330
36A1
100
AcDbDimAssoc
330
3694
 90
        3
 70
     0
 71
     0
  1
AcDbOsnapPointRef
 72
     1
331
3653
 73
     0
 91
        0
 40
0.0
 10
0.0
 20
0.0
 30
2.000000000000000E+50
 75
     0
  1
AcDbOsnapPointRef
 72
     1
331
3641
 73
     0
 91
        0
 40
0.0
 10
0.0
 20
0.0
 30
2.000000000000000E+50
 75
     0
  0
DIMASSOC
  5
36C8
102
{ACAD_REACTORS
330
36C7
102
}
330
36C7
100
AcDbDimAssoc
330
36BA
 90
        3
 70
     0
 71
     0
  1
AcDbOsnapPointRef
 72
    13
331
2C46
 73
     0
 91
        0
 40
0.0
 10
0.0
 20
0.0
 30
2.000000000000000E+50
 75
     0
  1
AcDbOsnapPointRef
 72
     1
331
2C47
 73
     0
 91
        0
 40
0.0
 10
0.0
 20
0.0
 30
2.000000000000000E+50
 75
     0
  0
DIMASSOC
  5
36F2
102
{ACAD_REACTORS
330
36F1
102
}
330
36F1
100
AcDbDimAssoc
330
36E4
 90
        3
 70
     0
 71
     0
  1
AcDbOsnapPointRef
 72
     1
331
2C46
 73
     0
 91
        0
 40
0.0
 10
0.0
 20
0.0
 30
2.000000000000000E+50
 75
     0
  1
AcDbOsnapPointRef
 72
     1
331
3652
 73
     0
 91
        0
 40
0.0
 10
0.0
 20
0.0
 30
2.000000000000000E+50
 75
     0
  0
DIMASSOC
  5
3718
102
{ACAD_REACTORS
330
3717
102
}
330
3717
100
AcDbDimAssoc
330
370A
 90
        3
 70
     0
 71
     0
  1
AcDbOsnapPointRef
 72
     1
331
3652
 73
     0
 91
        0
 40
0.0
 10
0.0
 20
0.0
 30
2.000000000000000E+50
 75
     0
  1
AcDbOsnapPointRef
 72
     1
331
3640
 73
     0
 91
        0
 40
0.0
 10
0.0
 20
0.0
 30
2.000000000000000E+50
 75
     0
  0
DIMASSOC
  5
383B
102
{ACAD_REACTORS
330
383A
102
}
330
383A
100
AcDbDimAssoc
330
382D
 90
        3
 70
     0
 71
     0
  1
AcDbOsnapPointRef
 72
    13
331
2C33
 73
     0
 91
        0
 40
0.0
 10
0.0
 20
0.0
 30
2.000000000000000E+50
 75
     0
  1
AcDbOsnapPointRef
 72
     1
331
381C
 73
     0
 91
        0
 40
0.0
 10
0.0
 20
0.0
 30
2.000000000000000E+50
 75
     0
  0
DIMASSOC
  5
3861
102
{ACAD_REACTORS
330
3860
102
}
330
3860
100
AcDbDimAssoc
330
3853
 90
        3
 70
     0
 71
     0
  1
AcDbOsnapPointRef
 72
     1
331
381C
 73
     0
 91
        0
 40
0.0
 10
0.0
 20
0.0
 30
2.000000000000000E+50
 75
     0
  1
AcDbOsnapPointRef
 72
     1
331
380A
 73
     0
 91
        0
 40
0.0
 10
0.0
 20
0.0
 30
2.000000000000000E+50
 75
     0
  0
DIMASSOC
  5
3889
102
{ACAD_REACTORS
330
3888
102
}
330
3888
100
AcDbDimAssoc
330
3879
 90
        3
 70
     0
 71
     0
  1
AcDbOsnapPointRef
 72
     1
331
2C33
 73
     0
 91
        0
 40
0.0
 10
0.0
 20
0.0
 30
2.000000000000000E+50
 75
     0
  1
AcDbOsnapPointRef
 72
     1
331
381B
 73
     0
 91
        0
 40
0.0
 10
0.0
 20
0.0
 30
2.000000000000000E+50
 75
     0
  0
DIMASSOC
  5
38B1
102
{ACAD_REACTORS
330
38B0
102
}
330
38B0
100
AcDbDimAssoc
330
38A3
 90
        3
 70
     0
 71
     0
  1
AcDbOsnapPointRef
 72
    13
331
2C8B
 73
     0
 91
        0
 40
0.0
 10
0.0
 20
0.0
 30
2.000000000000000E+50
 75
     0
  1
AcDbOsnapPointRef
 72
     1
331
37AB
 73
     0
 91
        0
 40
0.0
 10
0.0
 20
0.0
 30
2.000000000000000E+50
 75
     0
  0
DIMASSOC
  5
38E6
102
{ACAD_REACTORS
330
38E5
102
}
330
38E5
100
AcDbDimAssoc
330
38D8
 90
        3
 70
     0
 71
     0
  1
AcDbOsnapPointRef
 72
     1
331
37AB
 73
     0
 91
        0
 40
0.0
 10
0.0
 20
0.0
 30
2.000000000000000E+50
 75
     0
  1
AcDbOsnapPointRef
 72
     1
331
3787
 73
     0
 91
        0
 40
0.0
 10
0.0
 20
0.0
 30
2.000000000000000E+50
 75
     0
  0
DIMASSOC
  5
390C
102
{ACAD_REACTORS
330
390B
102
}
330
390B
100
AcDbDimAssoc
330
38FE
 90
        3
 70
     0
 71
     0
  1
AcDbOsnapPointRef
 72
     1
331
3787
 73
     0
 91
        0
 40
0.0
 10
0.0
 20
0.0
 30
2.000000000000000E+50
 75
     0
  1
AcDbOsnapPointRef
 72
     1
331
2816
 73
     0
 91
        0
 40
0.0
 10
0.0
 20
0.0
 30
2.000000000000000E+50
 75
     0
  0
DIMASSOC
  5
3958
102
{ACAD_REACTORS
330
3957
102
}
330
3957
100
AcDbDimAssoc
330
394A
 90
        3
 70
     0
 71
     0
  1
AcDbOsnapPointRef
 72
     1
331
2C33
 73
     0
 91
        0
 40
0.0
 10
0.0
 20
0.0
 30
2.000000000000000E+50
 75
     0
  1
AcDbOsnapPointRef
 72
    13
331
2C36
 73
     0
 91
        0
 40
0.0
 10
0.0
 20
0.0
 30
2.000000000000000E+50
 75
     0
  0
DIMASSOC
  5
39CE
102
{ACAD_REACTORS
330
39CD
102
}
330
39CD
100
AcDbDimAssoc
330
39C0
 90
        3
 70
     0
 71
     0
  1
AcDbOsnapPointRef
 72
    13
331
2C47
 73
     0
 91
        0
 40
0.0
 10
0.0
 20
0.0
 30
2.000000000000000E+50
 75
     0
  1
AcDbOsnapPointRef
 72
     1
331
361E
 73
     0
 91
        0
 40
0.0
 10
0.0
 20
0.0
 30
2.000000000000000E+50
 75
     0
  0
DIMASSOC
  5
39F4
102
{ACAD_REACTORS
330
39F3
102
}
330
39F3
100
AcDbDimAssoc
330
39E6
 90
        3
 70
     0
 71
     0
  1
AcDbOsnapPointRef
 72
     1
331
361E
 73
     0
 91
        0
 40
0.0
 10
0.0
 20
0.0
 30
2.000000000000000E+50
 75
     0
  1
AcDbOsnapPointRef
 72
     1
331
3630
 73
     0
 91
        0
 40
0.0
 10
0.0
 20
0.0
 30
2.000000000000000E+50
 75
     0
  0
DIMASSOC
  5
5445
102
{ACAD_REACTORS
330
5444
102
}
330
5444
100
AcDbDimAssoc
330
5435
 90
        2
 70
     0
 71
     0
  1
AcDbOsnapPointRef
 72
     1
331
297E
 73
     0
 91
        0
 40
0.0
 10
0.0
 20
0.0
 30
2.000000000000000E+50
 75
     0
  0
DIMASSOC
  5
6A86
102
{ACAD_REACTORS
330
6A85
102
}
330
6A85
100
AcDbDimAssoc
330
6A78
 90
        3
 70
     0
 71
     0
  1
AcDbOsnapPointRef
 72
     1
331
661A
 73
     0
 91
        0
 40
0.0
 10
0.0
 20
0.0
 30
2.000000000000000E+50
 75
     0
  1
AcDbOsnapPointRef
 72
     1
331
6656
 73
     0
 91
        0
 40
0.0
 10
0.0
 20
0.0
 30
2.000000000000000E+50
 75
     0
  0
LAYOUT
  5
22
102
{ACAD_XDICTIONARY
360
9E51
102
}
102
{ACAD_REACTORS
330
1A
102
}
330
1A
100
AcDbPlotSettings
  1

  2
\\RD\EPSON Stylus C63 Series單色
  4
A4
  6

 40
3.757083177566528
 41
3.757076978683471
 42
3.757080078125
 43
3.757080078125
 44
209.9733276367187
 45
296.9683227539062
 46
0.0
 47
0.0
 48
0.0
 49
0.0
140
0.0
141
0.0
142
1.0
143
0.3405120737814363
 70
 11952
 72
     1
 73
     0
 74
     0
  7
單色出圖.ctb
 75
     0
147
2.936753428137963
148
-2047.07469463503
149
-1261.649717473083
100
AcDbLayout
  1
Model
 70
     1
 71
     0
 10
0.0
 20
0.0
 11
12.0
 21
9.0
 12
0.0
 22
0.0
 32
0.0
 14
0.0
 24
0.0
 34
0.0
 15
0.0
 25
0.0
 35
0.0
146
0.0
 13
0.0
 23
0.0
 33
0.0
 16
1.0
 26
0.0
 36
0.0
 17
0.0
 27
1.0
 37
0.0
 76
     0
330
1F
1001
ACAD_PSEXT
1000
\\RD\EPSON Stylus C63 Series單色
1000
EPSON Stylus C63 Series
1000
\\RD
1000

1070
     0
  0
LAYOUT
  5
1E
102
{ACAD_XDICTIONARY
360
9E4F
102
}
102
{ACAD_REACTORS
330
1A
102
}
330
1A
100
AcDbPlotSettings
  1

  2

  4

  6

 40
0.0
 41
0.0
 42
0.0
 43
0.0
 44
0.0
 45
0.0
 46
0.0
 47
0.0
 48
0.0
 49
0.0
140
0.0
141
0.0
142
1.0
143
1.0
 70
   688
 72
     0
 73
     0
 74
     5
  7
單色出圖.ctb
 75
    16
147
1.0
148
0.0
149
0.0
100
AcDbLayout
  1
配置1
 70
     1
 71
     1
 10
0.0
 20
0.0
 11
420.0
 21
297.0
 12
0.0
 22
0.0
 32
0.0
 14
1.000000000000000E+20
 24
1.000000000000000E+20
 34
1.000000000000000E+20
 15
-1.000000000000000E+20
 25
-1.000000000000000E+20
 35
-1.000000000000000E+20
146
0.0
 13
0.0
 23
0.0
 33
0.0
 16
1.0
 26
0.0
 36
0.0
 17
0.0
 27
1.0
 37
0.0
 76
     0
330
1B
  0
LAYOUT
  5
26
102
{ACAD_XDICTIONARY
360
9E53
102
}
102
{ACAD_REACTORS
330
1A
102
}
330
1A
100
AcDbPlotSettings
  1

  2

  4

  6

 40
0.0
 41
0.0
 42
0.0
 43
0.0
 44
0.0
 45
0.0
 46
0.0
 47
0.0
 48
0.0
 49
0.0
140
0.0
141
0.0
142
1.0
143
1.0
 70
   688
 72
     0
 73
     0
 74
     5
  7
單色出圖.ctb
 75
    16
147
1.0
148
0.0
149
0.0
100
AcDbLayout
  1
配置2
 70
     1
 71
     2
 10
0.0
 20
0.0
 11
12.0
 21
9.0
 12
0.0
 22
0.0
 32
0.0
 14
0.0
 24
0.0
 34
0.0
 15
0.0
 25
0.0
 35
0.0
146
0.0
 13
0.0
 23
0.0
 33
0.0
 16
1.0
 26
0.0
 36
0.0
 17
0.0
 27
1.0
 37
0.0
 76
     0
330
23
  0
MLINESTYLE
  5
18
102
{ACAD_REACTORS
330
17
102
}
330
17
100
AcDbMlineStyle
  2
STANDARD
 70
     0
  3

 62
   256
 51
90.0
 52
90.0
 71
     2
 49
0.5
 62
   256
  6
BYLAYER
 49
-0.5
 62
   256
  6
BYLAYER
  0
ACDBPLACEHOLDER
  5
F
102
{ACAD_REACTORS
330
E
102
}
330
E
  0
TABLESTYLE
  5
11B
102
{ACAD_REACTORS
330
11A
102
}
330
11A
100
AcDbTableStyle
  3
Standard
 70
     0
 71
     0
 40
1.5
 41
1.5
280
     0
281
     0
  7
STANDARD
140
4.5
170
     2
 62
     0
 63
     7
283
     0
274
    -2
284
     1
 64
     0
275
    -2
285
     1
 65
     0
276
    -2
286
     1
 66
     0
277
    -2
287
     1
 67
     0
278
    -2
288
     1
 68
     0
279
    -2
289
     1
 69
     0
  7
STANDARD
140
6.0
170
     5
 62
     0
 63
     7
283
     0
274
    -2
284
     1
 64
     0
275
    -2
285
     1
 65
     0
276
    -2
286
     1
 66
     0
277
    -2
287
     1
 67
     0
278
    -2
288
     1
 68
     0
279
    -2
289
     1
 69
     0
  7
STANDARD
140
4.5
170
     5
 62
     0
 63
     7
283
     0
274
    -2
284
     1
 64
     0
275
    -2
285
     1
 65
     0
276
    -2
286
     1
 66
     0
277
    -2
287
     1
 67
     0
278
    -2
288
     1
 68
     0
279
    -2
289
     1
 69
     0
  0
DICTIONARYVAR
  5
138
102
{ACAD_REACTORS
330
94
102
}
330
94
100
DictionaryVariables
280
     0
  1
STANDARD
  0
DICTIONARYVAR
  5
96
102
{ACAD_REACTORS
330
94
102
}
330
94
100
DictionaryVariables
280
     0
  1
2
  0
DICTIONARYVAR
  5
95
102
{ACAD_REACTORS
330
94
102
}
330
94
100
DictionaryVariables
280
     0
  1
0
  0
DICTIONARYVAR
  5
9E4B
102
{ACAD_REACTORS
330
94
102
}
330
94
100
DictionaryVariables
280
     0
  1

  0
DICTIONARY
  5
1B5
102
{ACAD_REACTORS
330
5B
102
}
330
5B
100
AcDbDictionary
281
     1
  0
DICTIONARY
  5
61
102
{ACAD_REACTORS
330
5B
102
}
330
5B
100
AcDbDictionary
281
     1
  0
XRECORD
  5
123
102
{ACAD_REACTORS
330
5B
102
}
330
5B
100
AcDbXrecord
280
     1
 90
-1023410169
  0
DICTIONARY
  5
9E51
330
22
100
AcDbDictionary
280
     1
281
     1
  3
ACAD_XREC_ROUNDTRIP
360
9E52
  0
DICTIONARY
  5
9E4F
330
1E
100
AcDbDictionary
280
     1
281
     1
  3
ACAD_XREC_ROUNDTRIP
360
9E50
  0
DICTIONARY
  5
9E53
330
26
100
AcDbDictionary
280
     1
281
     1
  3
ACAD_XREC_ROUNDTRIP
360
9E54
  0
XRECORD
  5
9E52
102
{ACAD_REACTORS
330
9E51
102
}
330
9E51
100
AcDbXrecord
280
     1
102
SHADEPLOT
 70
     0
102
SHADEPLOTRESLEVEL
 70
     2
102
SHADEPLOTCUSTOMDPI
 70
   300
  0
XRECORD
  5
9E50
102
{ACAD_REACTORS
330
9E4F
102
}
330
9E4F
100
AcDbXrecord
280
     1
102
SHADEPLOT
 70
     0
102
SHADEPLOTRESLEVEL
 70
     2
102
SHADEPLOTCUSTOMDPI
 70
   300
  0
XRECORD
  5
9E54
102
{ACAD_REACTORS
330
9E53
102
}
330
9E53
100
AcDbXrecord
280
     1
102
SHADEPLOT
 70
     0
102
SHADEPLOTRESLEVEL
 70
     2
102
SHADEPLOTCUSTOMDPI
 70
   300
  0
ENDSEC
  0
EOF
