  0
SECTION
  2
HEADER
  9
$ACADVER
  1
AC1015
  9
$ACADMAINTVER
 70
    20
  9
$DWGCODEPAGE
  3
ANSI_950
  9
$INSBASE
 10
0.0
 20
0.0
 30
0.0
  9
$EXTMIN
 10
176.0339367296942
 20
158.6449326444882
 30
-0.0092680449009777
  9
$EXTMAX
 10
395.5957040744784
 20
404.8308821393848
 30
143.8694929680211
  9
$LIMMIN
 10
0.0
 20
0.0
  9
$LIMMAX
 10
420.0
 20
297.0
  9
$ORTHOMODE
 70
     1
  9
$REGENMODE
 70
     1
  9
$FILLMODE
 70
     1
  9
$QTEXTMODE
 70
     0
  9
$MIRRTEXT
 70
     1
  9
$LTSCALE
 40
1.0
  9
$ATTMODE
 70
     1
  9
$TEXTSIZE
 40
3.0
  9
$TRACEWID
 40
1.0
  9
$TEXTSTYLE
  7
STANDARD
  9
$CLAYER
  8
0
  9
$CELTYPE
  6
ByLayer
  9
$CECOLOR
 62
   256
  9
$CELTSCALE
 40
1.0
  9
$DISPSILH
 70
     0
  9
$DIMSCALE
 40
1.0
  9
$DIMASZ
 40
3.0
  9
$DIMEXO
 40
1.5
  9
$DIMDLI
 40
8.0
  9
$DIMRND
 40
0.0
  9
$DIMDLE
 40
0.0
  9
$DIMEXE
 40
1.5
  9
$DIMTP
 40
0.1
  9
$DIMTM
 40
0.1
  9
$DIMTXT
 40
3.5
  9
$DIMCEN
 40
0.0
  9
$DIMTSZ
 40
0.0
  9
$DIMTOL
 70
     0
  9
$DIMLIM
 70
     0
  9
$DIMTIH
 70
     0
  9
$DIMTOH
 70
     0
  9
$DIMSE1
 70
     0
  9
$DIMSE2
 70
     0
  9
$DIMTAD
 70
     1
  9
$DIMZIN
 70
     8
  9
$DIMBLK
  1

  9
$DIMASO
 70
     1
  9
$DIMSHO
 70
     1
  9
$DIMPOST
  1

  9
$DIMAPOST
  1
"
  9
$DIMALT
 70
     0
  9
$DIMALTD
 70
     2
  9
$DIMALTF
 40
0.0393701
  9
$DIMLFAC
 40
1.0
  9
$DIMTOFL
 70
     1
  9
$DIMTVP
 40
0.0
  9
$DIMTIX
 70
     0
  9
$DIMSOXD
 70
     0
  9
$DIMSAH
 70
     0
  9
$DIMBLK1
  1

  9
$DIMBLK2
  1

  9
$DIMSTYLE
  2
AM_ISO
  9
$DIMCLRD
 70
   256
  9
$DIMCLRE
 70
   256
  9
$DIMCLRT
 70
   256
  9
$DIMTFAC
 40
0.6
  9
$DIMGAP
 40
1.0
  9
$DIMJUST
 70
     0
  9
$DIMSD1
 70
     0
  9
$DIMSD2
 70
     0
  9
$DIMTOLJ
 70
     0
  9
$DIMTZIN
 70
     8
  9
$DIMALTZ
 70
     0
  9
$DIMALTTZ
 70
     0
  9
$DIMUPT
 70
     0
  9
$DIMDEC
 70
     2
  9
$DIMTDEC
 70
     8
  9
$DIMALTU
 70
     2
  9
$DIMALTTD
 70
     2
  9
$DIMTXSTY
  7
STANDARD
  9
$DIMAUNIT
 70
     0
  9
$DIMADEC
 70
     0
  9
$DIMALTRND
 40
0.0
  9
$DIMAZIN
 70
     2
  9
$DIMDSEP
 70
    46
  9
$DIMATFIT
 70
     3
  9
$DIMFRAC
 70
     0
  9
$DIMLDRBLK
  1

  9
$DIMLUNIT
 70
     2
  9
$DIMLWD
 70
    -1
  9
$DIMLWE
 70
    -1
  9
$DIMTMOVE
 70
     0
  9
$LUNITS
 70
     2
  9
$LUPREC
 70
     2
  9
$SKETCHINC
 40
1.0
  9
$FILLETRAD
 40
2.5
  9
$AUNITS
 70
     0
  9
$AUPREC
 70
     0
  9
$MENU
  1
.
  9
$ELEVATION
 40
0.0
  9
$PELEVATION
 40
0.0
  9
$THICKNESS
 40
0.0
  9
$LIMCHECK
 70
     0
  9
$CHAMFERA
 40
2.5
  9
$CHAMFERB
 40
2.5
  9
$CHAMFERC
 40
20.0
  9
$CHAMFERD
 40
0.0
  9
$SKPOLY
 70
     0
  9
$TDCREATE
 40
2454377.551800127
  9
$TDUCREATE
 40
2454377.218466794
  9
$TDUPDATE
 40
2454377.556090127
  9
$TDUUPDATE
 40
2454377.222756794
  9
$TDINDWG
 40
0.0041543634
  9
$TDUSRTIMER
 40
0.0041543634
  9
$USRTIMER
 70
     1
  9
$ANGBASE
 50
0.0
  9
$ANGDIR
 70
     0
  9
$PDMODE
 70
     0
  9
$PDSIZE
 40
0.0
  9
$PLINEWID
 40
0.0
  9
$SPLFRAME
 70
     0
  9
$SPLINETYPE
 70
     6
  9
$SPLINESEGS
 70
     8
  9
$HANDSEED
  5
11D6
  9
$SURFTAB1
 70
     6
  9
$SURFTAB2
 70
     6
  9
$SURFTYPE
 70
     6
  9
$SURFU
 70
     6
  9
$SURFV
 70
     6
  9
$UCSBASE
  2

  9
$UCSNAME
  2

  9
$UCSORG
 10
0.0
 20
0.0
 30
0.0
  9
$UCSXDIR
 10
1.0
 20
0.0
 30
0.0
  9
$UCSYDIR
 10
0.0
 20
1.0
 30
0.0
  9
$UCSORTHOREF
  2

  9
$UCSORTHOVIEW
 70
     0
  9
$UCSORGTOP
 10
0.0
 20
0.0
 30
0.0
  9
$UCSORGBOTTOM
 10
0.0
 20
0.0
 30
0.0
  9
$UCSORGLEFT
 10
0.0
 20
0.0
 30
0.0
  9
$UCSORGRIGHT
 10
0.0
 20
0.0
 30
0.0
  9
$UCSORGFRONT
 10
0.0
 20
0.0
 30
0.0
  9
$UCSORGBACK
 10
0.0
 20
0.0
 30
0.0
  9
$PUCSBASE
  2

  9
$PUCSNAME
  2

  9
$PUCSORG
 10
0.0
 20
0.0
 30
0.0
  9
$PUCSXDIR
 10
1.0
 20
0.0
 30
0.0
  9
$PUCSYDIR
 10
0.0
 20
1.0
 30
0.0
  9
$PUCSORTHOREF
  2

  9
$PUCSORTHOVIEW
 70
     0
  9
$PUCSORGTOP
 10
0.0
 20
0.0
 30
0.0
  9
$PUCSORGBOTTOM
 10
0.0
 20
0.0
 30
0.0
  9
$PUCSORGLEFT
 10
0.0
 20
0.0
 30
0.0
  9
$PUCSORGRIGHT
 10
0.0
 20
0.0
 30
0.0
  9
$PUCSORGFRONT
 10
0.0
 20
0.0
 30
0.0
  9
$PUCSORGBACK
 10
0.0
 20
0.0
 30
0.0
  9
$USERI1
 70
     0
  9
$USERI2
 70
     0
  9
$USERI3
 70
     0
  9
$USERI4
 70
     0
  9
$USERI5
 70
     0
  9
$USERR1
 40
0.0
  9
$USERR2
 40
0.0
  9
$USERR3
 40
0.0
  9
$USERR4
 40
0.0
  9
$USERR5
 40
0.0
  9
$WORLDVIEW
 70
     1
  9
$SHADEDGE
 70
     3
  9
$SHADEDIF
 70
    70
  9
$TILEMODE
 70
     1
  9
$MAXACTVP
 70
    64
  9
$PINSBASE
 10
0.0
 20
0.0
 30
0.0
  9
$PLIMCHECK
 70
     0
  9
$PEXTMIN
 10
1.000000000000000E+20
 20
1.000000000000000E+20
 30
1.000000000000000E+20
  9
$PEXTMAX
 10
-1.000000000000000E+20
 20
-1.000000000000000E+20
 30
-1.000000000000000E+20
  9
$PLIMMIN
 10
0.0
 20
0.0
  9
$PLIMMAX
 10
420.0
 20
297.0
  9
$UNITMODE
 70
     0
  9
$VISRETAIN
 70
     1
  9
$PLINEGEN
 70
     0
  9
$PSLTSCALE
 70
     1
  9
$TREEDEPTH
 70
  3020
  9
$CMLSTYLE
  2
Standard
  9
$CMLJUST
 70
     0
  9
$CMLSCALE
 40
20.0
  9
$PROXYGRAPHICS
 70
     1
  9
$MEASUREMENT
 70
     1
  9
$CELWEIGHT
370
    -1
  9
$ENDCAPS
280
     0
  9
$JOINSTYLE
280
     0
  9
$LWDISPLAY
290
     0
  9
$INSUNITS
 70
     4
  9
$HYPERLINKBASE
  1

  9
$STYLESHEET
  1
彩色出圖.ctb
  9
$XEDIT
290
     1
  9
$CEPSNTYPE
380
     0
  9
$PSTYLEMODE
290
     1
  9
$FINGERPRINTGUID
  2
{46CDD8D3-9275-4930-BD07-D6AA99493C50}
  9
$VERSIONGUID
  2
{464FA59D-F129-412A-9129-F8D114FFF033}
  9
$EXTNAMES
290
     1
  9
$PSVPSCALE
 40
0.0
  9
$OLESTARTUP
290
     0
  0
ENDSEC
  0
SECTION
  2
CLASSES
  0
CLASS
  1
ACDBDICTIONARYWDFLT
  2
AcDbDictionaryWithDefault
  3
ObjectDBX Classes
 90
        0
280
     0
281
     0
  0
CLASS
  1
ACDBPLACEHOLDER
  2
AcDbPlaceHolder
  3
ObjectDBX Classes
 90
        0
280
     0
281
     0
  0
CLASS
  1
LAYOUT
  2
AcDbLayout
  3
ObjectDBX Classes
 90
        0
280
     0
281
     0
  0
CLASS
  1
ACME_DOCUMENT
  2
AcMeDbDoc
  3
AcMeServices
 90
        0
280
     0
281
     0
  0
CLASS
  1
AMGSETTINGSOBJ
  2
AmgSettingsObj
  3
"AcadM|Product Description: AutoCAD Mechanical 2000|Company: Autodesk"
 90
        0
280
     0
281
     0
  0
CLASS
  1
ACMESCOPE
  2
AcMeScope
  3
AcMeServices
 90
        0
280
     0
281
     0
  0
CLASS
  1
ACMECOMMANDHISTORY
  2
AcMeCommandHistory
  3
AcMeServices
 90
        0
280
     0
281
     0
  0
CLASS
  1
ACIMSYSVARMAN
  2
AcImSysVarManager
  3
AcMeServices
 90
        0
280
     0
281
     0
  0
CLASS
  1
ACIMREALSYSVAR
  2
AcImRealSysVar
  3
AcMeServices
 90
        0
280
     0
281
     0
  0
CLASS
  1
ACIMINTSYSVAR
  2
AcImIntSysVar
  3
AcMeServices
 90
        0
280
     0
281
     0
  0
CLASS
  1
ACMEDRAWINGMAN
  2
AcMeDrawingMan
  3
AcMeServices
 90
        0
280
     0
281
     0
  0
CLASS
  1
ACMEVIEW
  2
AcMeView
  3
AcMeServices
 90
        0
280
     0
281
     0
  0
CLASS
  1
ACDBENTITYCACHE
  2
AcMeEntityCache
  3
AcMeServices
 90
        0
280
     0
281
     0
  0
CLASS
  1
GSMANAGER
  2
AcMeGSManager
  3
AcMeServices
 90
        0
280
     0
281
     0
  0
CLASS
  1
AMDTINTERNALREACTOR
  2
AmdtInternalReactor
  3
AcMeServices
 90
        0
280
     0
281
     0
  0
CLASS
  1
ACMESTATEMGR
  2
AcMeStateMgr
  3
AcMeServices
 90
        0
280
     0
281
     0
  0
CLASS
  1
ACGREFMASTER
  2
AcGrefMaster
  3
AcAttribServices
 90
        0
280
     0
281
     0
  0
CLASS
  1
ACME_DATABASE
  2
AcMeDbDatabase
  3
AcMeServices
 90
        0
280
     0
281
     0
  0
CLASS
  1
ACRFINSADJUSTERMGR
  2
AcRfInsAdjusterMgr
  3
AcMeServices
 90
        0
280
     0
281
     0
  0
CLASS
  1
ACGREFACADMASTER
  2
AcGrefacadMaster
  3
AcGrefServices
 90
        0
280
     0
281
     0
  0
CLASS
  1
AMIMASTER
  2
AmiMaster
  3
AmiServices
 90
        0
280
     0
281
     0
  0
CLASS
  1
ACMDATADICTIONARY
  2
AcmDataDictionary
  3
"AcmSymBB|Product Description: AutoCAD Mechanical 2004 DX|Company: Autodesk"
 90
        0
280
     0
281
     0
  0
CLASS
  1
ACMDATAENTRYBLOCK
  2
AcmDataEntryBlock
  3
"AcmSymBB|Product Description: AutoCAD Mechanical 2004 DX|Company: Autodesk"
 90
        0
280
     0
281
     0
  0
CLASS
  1
ACIMSTRSYSVAR
  2
AcImStrSysVar
  3
AcMeServices
 90
        0
280
     0
281
     0
  0
CLASS
  1
ACMSTANDARDISO
  2
AcmStandardISO
  3
"Amdt_StdImp|Product Description: AutoCAD Mechanical 2004 DX|Company: Autodesk"
 90
        0
280
     0
281
     0
  0
CLASS
  1
AMGOBJPROPCFG
  2
AmgObjPropCfg
  3
"AmgLay|Product Description: AutoCAD Mechanical 2000|Company: Autodesk"
 90
        1
280
     0
281
     0
  0
CLASS
  1
AMDTEDGESTANDARDISO
  2
AmdtEdgeStdISO
  3
"Amdt_StdImp|Product Description: AutoCAD Mechanical 2004 DX|Company: Autodesk"
 90
        0
280
     0
281
     0
  0
CLASS
  1
ACMSURFSTANDARDISO
  2
AcmSurfTextStdISO
  3
"Amdt_StdImp|Product Description: AutoCAD Mechanical 2004 DX|Company: Autodesk"
 90
        0
280
     0
281
     0
  0
CLASS
  1
ACMFCFSTANDARDISO
  2
AcmFCFStdISO
  3
"Amdt_StdImp|Product Description: AutoCAD Mechanical 2004 DX|Company: Autodesk"
 90
        0
280
     0
281
     0
  0
CLASS
  1
ACMWELDSTANDARDISO
  2
AcmWeldingStdISO
  3
"Amdt_StdImp|Product Description: AutoCAD Mechanical 2004 DX|Company: Autodesk"
 90
        0
280
     0
281
     0
  0
CLASS
  1
ACMIDSTANDARDISO
  2
AcmIdStdISO
  3
"Amdt_StdImp|Product Description: AutoCAD Mechanical 2004 DX|Company: Autodesk"
 90
        0
280
     0
281
     0
  0
CLASS
  1
ACMDATUMSTANDARDISO
  2
AcmDatumStdISO
  3
"Amdt_StdImp|Product Description: AutoCAD Mechanical 2004 DX|Company: Autodesk"
 90
        0
280
     0
281
     0
  0
CLASS
  1
ACMBOMSTANDARDISO
  2
AcmBOMStdISO
  3
"Amdt_StdImp|Product Description: AutoCAD Mechanical 2004 DX|Company: Autodesk"
 90
        0
280
     0
281
     0
  0
CLASS
  1
ACMDETAILSTANDARDISO
  2
AmdtDetailSymStdISO
  3
"Amdt_StdImp|Product Description: AutoCAD Mechanical 2004 DX|Company: Autodesk"
 90
        0
280
     0
281
     0
  0
CLASS
  1
ACMSECTIONSTANDARDISO
  2
AmdtSectionSymStdISO
  3
"Amdt_StdImp|Product Description: AutoCAD Mechanical 2004 DX|Company: Autodesk"
 90
        0
280
     0
281
     0
  0
CLASS
  1
ACMCENTERLINESTANDARDISO
  2
AmdtCenterLineStdISO
  3
"Amdt_StdImp|Product Description: AutoCAD Mechanical 2004 DX|Company: Autodesk"
 90
        0
280
     0
281
     0
  0
CLASS
  1
ACMNOTESTANDARDISO
  2
AmdtNoteStdISO
  3
"Amdt_StdImp|Product Description: AutoCAD Mechanical 2004 DX|Company: Autodesk"
 90
        0
280
     0
281
     0
  0
CLASS
  1
ACAMGLAYSTD
  2
AcAmgLayStd
  3
"AcAmgLayStd|Product Description: AutoCAD Mechanical 2000|Company: Autodesk"
 90
        0
280
     0
281
     0
  0
CLASS
  1
ACAMGDIMSTD
  2
AcAmgDimStd
  3
"AcAmgDimStd|Product Description: AutoCAD Mechanical 2000|Company: Autodesk"
 90
        0
280
     0
281
     0
  0
CLASS
  1
ACAMGHOLECHARTSTDISO
  2
AcAmgHoleChartStdISO
  3
ACMSYMBB_MODULE_NAME
 90
        0
280
     0
281
     0
  0
CLASS
  1
ACAMGTITLESTD
  2
AcAmgTitleStd
  3
"TITLEAPP"
 90
        0
280
     0
281
     0
  0
CLASS
  1
LAYER_INDEX
  2
AcDbLayerIndex
  3
ObjectDBX Classes
 90
    32768
280
     0
281
     0
  0
CLASS
  1
IDBUFFER
  2
AcDbIdBuffer
  3
ObjectDBX Classes
 90
    32768
280
     0
281
     0
  0
CLASS
  1
DICTIONARYVAR
  2
AcDbDictionaryVar
  3
ObjectDBX Classes
 90
        0
280
     0
281
     0
  0
CLASS
  1
AM_DRAWING_MGR
  2
AcDmDwgMgr
  3
AcMechDwgViewMgmt
 90
        0
280
     0
281
     0
  0
CLASS
  1
AM_DWG_DOCUMENT
  2
AcDmDwgDocument
  3
AcMechDwgViewMgmt
 90
        0
280
     0
281
     0
  0
CLASS
  1
AM_DWG_SHEET
  2
AcDmSheet
  3
AcMechDwgViewMgmt
 90
        0
280
     0
281
     0
  0
CLASS
  1
AM_VIEWDIMPARMAP
  2
AcDmViewDimParMap
  3
AcMechDwgViewMgmt
 90
        0
280
     0
281
     0
  0
CLASS
  1
AM_DWGMGR_NAME
  2
AcDmDwgMgrName
  3
AcMechDwgViewMgmt
 90
        0
280
     0
281
     0
  0
CLASS
  1
AMDTMENUSTATEMGR
  2
AmdtMenuStateMgr
  3
McadcomServices
 90
        0
280
     0
281
     0
  0
CLASS
  1
AMDTMCOMMENUSTATE
  2
AmdtMcomMenuState
  3
McadcomServices
 90
        0
280
     0
281
     0
  0
CLASS
  1
MAPIAMMOUDLE
  2
MApiAmModule
  3
MApiAmServices
 90
        0
280
     0
281
     0
  0
CLASS
  1
AMDTADMENUSTATE
  2
AmdtAdMenuState
  3
DesignerServices
 90
        0
280
     0
281
     0
  0
CLASS
  1
ADAPPL
  2
AcAdAppl
  3
DesignerServices
 90
        0
280
     0
281
     0
  0
CLASS
  1
DEPMGR
  2
AcAdDepMgr
  3
DesignerServices
 90
        0
280
     0
281
     0
  0
CLASS
  1
PARAMMGR
  2
AcAdParamMgr
  3
DesignerServices
 90
        0
280
     0
281
     0
  0
CLASS
  1
PARAMSCOPE
  2
AcAdParamScope
  3
DesignerServices
 90
        0
280
     0
281
     0
  0
CLASS
  1
NAMEDAPPL
  2
AcAdNamedAppl
  3
DesignerServices
 90
        0
280
     0
281
     0
  0
CLASS
  1
AMDTDMMENUSTATE
  2
AmdtDmMenuState
  3
AcMechDwgViewMgmt
 90
        0
280
     0
281
     0
  0
CLASS
  1
AMDTAMMENUSTATE
  2
AmdtAmMenuState
  3
DesignerAssemblies
 90
        0
280
     0
281
     0
  0
CLASS
  1
ACAMPROJECT
  2
AcAmProject
  3
DesignerAssemblies
 90
        0
280
     0
281
     0
  0
CLASS
  1
ACAMGRCOMPDEF
  2
AcAmGrCompDef
  3
DesignerAssemblies
 90
        0
280
     0
281
     0
  0
CLASS
  1
ACCMCONTEXT
  2
AcCmContext
  3
DesignerAssemblies
 90
        0
280
     0
281
     0
  0
CLASS
  1
ACAMCOMPDEF
  2
AcAmCompDef
  3
DesignerAssemblies
 90
        0
280
     0
281
     0
  0
CLASS
  1
ACAMCOMPDEFMGR
  2
AcAmCompDefMgr
  3
DesignerAssemblies
 90
        0
280
     0
281
     0
  0
CLASS
  1
AMCONTEXTMGR
  2
AcAmContextMgr
  3
DesignerAssemblies
 90
        0
280
     0
281
     0
  0
CLASS
  1
ACAMCONTEXTMODELER
  2
AcAmContextModeler
  3
DesignerAssemblies
 90
        0
280
     0
281
     0
  0
CLASS
  1
ACMTHREADLINESTANDARDISO
  2
AmdtThreadLineStdISO
  3
"Amdt_StdImp|Product Description: AutoCAD Mechanical 2004 DX|Company: Autodesk"
 90
        0
280
     0
281
     0
  0
CLASS
  1
CATALOGSTATE
  2
AcAmCatalogState
  3
DesignerAssemblies
 90
        0
280
     0
281
     0
  0
CLASS
  1
ACAMGRCOMPDEFSET
  2
AcAmGrCompDefSet
  3
DesignerAssemblies
 90
        0
280
     0
281
     0
  0
CLASS
  1
AMDTBROWSERDBTAB
  2
AmdtBrowserDbTab
  3
McadcomServices
 90
        0
280
     0
281
     0
  0
CLASS
  1
CBROWSERAPPOBJECT
  2
CBrowserAppObject
  3
McadcomServices
 90
        0
280
     0
281
     0
  0
CLASS
  1
DM_PLACEHOLDER
  2
AcDmSelsetPlaceholder
  3
AcMechDwgViewMgmt
 90
        0
280
     0
281
     0
  0
CLASS
  1
TABLESTYLE
  2
AcDbTableStyle
  3
ObjectDBX Classes
 90
     2047
280
     0
281
     0
  0
CLASS
  1
VAACXREFPANELOBJECT
  2
VaAcXREFPanelObject
  3
VAAC_ADDIN
 90
    32768
280
     0
281
     0
  0
CLASS
  1
VAACIMAGEINVENTORY
  2
VaAcImageInventory
  3
VAAC_ADDIN
 90
    32768
280
     0
281
     0
  0
CLASS
  1
AMDTNOTETEMPLATEDB
  2
AmdtNoteTemplateDB
  3
AMDT_STDIMP_MODULE_NAME
 90
        0
280
     0
281
     0
  0
CLASS
  1
ACMBOM
  2
AcmBom
  3
"AcmSymBB|Product Description: AutoCAD Mechanical 2004 DX|Company: Autodesk"
 90
    32768
280
     0
281
     0
  0
CLASS
  1
AMDTFORMULAUPDATEDISPATCHER
  2
AmdtFormulaUpdateDispatcher
  3
AcMeServices
 90
    32768
280
     0
281
     0
  0
CLASS
  1
ACMPARTLIST
  2
AcmPartList
  3
"AcmSymBB|Product Description: AutoCAD Mechanical 2004 DX|Company: Autodesk"
 90
    33791
280
     0
281
     1
  0
CLASS
  1
ACAMGFILTERDAT
  2
AcAmgFilterDat
  3
"AcadM|Product Description: AutoCAD Mechanical 2000|Company: Autodesk"
 90
        0
280
     0
281
     0
  0
CLASS
  1
DIMASSOC
  2
AcDbDimAssoc
  3
"AcDbDimAssoc|Product Desc:     AcDim ARX App For Dimension|Company:          Autodesk, Inc.|WEB Address:      www.autodesk.com"
 90
    32768
280
     0
281
     0
  0
CLASS
  1
AMDTNOTE
  2
AmdtNote
  3
"AcmSymBB|Product Description: AutoCAD Mechanical 2004 DX|Company: Autodesk"
 90
     1023
280
     0
281
     1
  0
CLASS
  1
SORTENTSTABLE
  2
AcDbSortentsTable
  3
ObjectDBX Classes
 90
    32768
280
     0
281
     0
  0
CLASS
  1
ACRFATTGENMGR
  2
AcRfAttGeneralMgr
  3
AcAttribServices
 90
        0
280
     0
281
     0
  0
ENDSEC
  0
SECTION
  2
TABLES
  0
TABLE
  2
VPORT
  5
8
330
0
100
AcDbSymbolTable
 70
     3
  0
VPORT
  5
11CD
330
8
100
AcDbSymbolTableRecord
100
AcDbViewportTableRecord
  2
*Active
 70
     0
 10
0.0
 20
0.0
 11
1.0
 21
1.0
 12
315.6599046073329
 22
281.7191003330959
 13
0.0
 23
0.0
 14
2.5
 24
2.5
 15
10.0
 25
10.0
 16
0.0
 26
0.0
 36
1.0
 17
0.0
 27
0.0
 37
0.0
 40
248.2884895533154
 41
1.421195652173913
 42
50.0
 43
0.0
 44
0.0
 50
0.0
 51
0.0
 71
     0
 72
   100
 73
     1
 74
     3
 75
     0
 76
     0
 77
     0
 78
     0
281
     0
 65
     1
110
0.0
120
0.0
130
0.0
111
1.0
121
0.0
131
0.0
112
0.0
122
1.0
132
0.0
 79
     0
146
0.0
  0
ENDTAB
  0
TABLE
  2
LTYPE
  5
5
330
0
100
AcDbSymbolTable
 70
    14
  0
LTYPE
  5
14
330
5
100
AcDbSymbolTableRecord
100
AcDbLinetypeTableRecord
  2
ByBlock
 70
     0
  3

 72
    65
 73
     0
 40
0.0
  0
LTYPE
  5
15
330
5
100
AcDbSymbolTableRecord
100
AcDbLinetypeTableRecord
  2
ByLayer
 70
     0
  3

 72
    65
 73
     0
 40
0.0
  0
LTYPE
  5
16
330
5
100
AcDbSymbolTableRecord
100
AcDbLinetypeTableRecord
  2
Continuous
 70
     0
  3
Solid line
 72
    65
 73
     0
 40
0.0
  0
LTYPE
  5
64
330
5
100
AcDbSymbolTableRecord
100
AcDbLinetypeTableRecord
  2
AM_ISO02W050
 70
     0
  3
__ __ __ __ __ __ __ __ __ __ __ __ __ __ __
 72
    65
 73
     2
 40
7.5
 49
6.0
 74
     0
 49
-1.5
 74
     0
  0
LTYPE
  5
65
330
5
100
AcDbSymbolTableRecord
100
AcDbLinetypeTableRecord
  2
AM_ISO08W050
 70
     0
  3
____ . ____ . ____ . ____ . ____ . ____ . ____
 72
    65
 73
     4
 40
18.0
 49
12.0
 74
     0
 49
-1.5
 74
     0
 49
3.0
 74
     0
 49
-1.5
 74
     0
  0
LTYPE
  5
66
330
5
100
AcDbSymbolTableRecord
100
AcDbLinetypeTableRecord
  2
AM_ISO09W050
 70
     0
  3
_____ . . _____ . . _____ . . ____ .. ____
 72
    65
 73
     6
 40
22.5
 49
12.0
 74
     0
 49
-1.5
 74
     0
 49
3.0
 74
     0
 49
-1.5
 74
     0
 49
3.0
 74
     0
 49
-1.5
 74
     0
  0
LTYPE
  5
67
330
5
100
AcDbSymbolTableRecord
100
AcDbLinetypeTableRecord
  2
Amconstr
 70
     0
  3
_______________________
 72
    65
 73
     2
 40
9999.0
 49
9999.0
 74
     0
 49
0.0
 74
     0
  0
LTYPE
  5
68
330
5
100
AcDbSymbolTableRecord
100
AcDbLinetypeTableRecord
  2
AM_ISO08W050x2
 70
     0
  3
__ . __ . __ . __ . __ . __
 72
    65
 73
     4
 40
9.0
 49
6.0
 74
     0
 49
-0.75
 74
     0
 49
1.5
 74
     0
 49
-0.75
 74
     0
  0
LTYPE
  5
69
330
5
100
AcDbSymbolTableRecord
100
AcDbLinetypeTableRecord
  2
AM_ISO02W050x2
 70
     0
  3
 _ _ _ _ _ _ _ _ _ _ _ _
 72
    65
 73
     2
 40
3.75
 49
3.0
 74
     0
 49
-0.75
 74
     0
  0
LTYPE
  5
6C
330
5
100
AcDbSymbolTableRecord
100
AcDbLinetypeTableRecord
  2
Amzigzag
 70
     0
  3
/\/-/\/-/\/-/\/-/\/-/\/
 72
    65
 73
     2
 40
11.0001
 49
0.0001
 74
     4
 75
   135
340
6B
 46
0.04
 50
0.0
 44
0.0
 45
0.0
 49
-11.0
 74
     0
  0
LTYPE
  5
7A
330
5
100
AcDbSymbolTableRecord
100
AcDbLinetypeTableRecord
  2
ACISOWELD
 70
     0
  3
_ _ _ _ _
 72
    65
 73
     2
 40
2.0
 49
2.0
 74
     0
 49
-1.0
 74
     0
  0
LTYPE
  5
7B
330
5
100
AcDbSymbolTableRecord
100
AcDbLinetypeTableRecord
  2
ACISOTGB
 70
     0
  3
__ . . __ . .
 72
    65
 73
     6
 40
9.0
 49
4.0
 74
     0
 49
-1.0
 74
     0
 49
1.0
 74
     0
 49
-1.0
 74
     0
 49
1.0
 74
     0
 49
-1.0
 74
     0
  0
LTYPE
  5
7C
330
5
100
AcDbSymbolTableRecord
100
AcDbLinetypeTableRecord
  2
ACISOTGL
 70
     0
  3
_ _ _ _ _
 72
    65
 73
     2
 40
3.0
 49
2.0
 74
     0
 49
-1.0
 74
     0
  0
LTYPE
  5
7E
330
5
100
AcDbSymbolTableRecord
100
AcDbLinetypeTableRecord
  2
CENTER
 70
     0
  3
__ . __
 72
    65
 73
     4
 40
7.0
 49
4.0
 74
     0
 49
-1.0
 74
     0
 49
1.0
 74
     0
 49
-1.0
 74
     0
  0
LTYPE
  5
D8
330
5
100
AcDbSymbolTableRecord
100
AcDbLinetypeTableRecord
  2
HIDDEN
 70
     0
  3
Hidden __ __ __ __ __ __ __ __ __ __ __ __ __ _
 72
    65
 73
     2
 40
9.524999999999998
 49
6.349999999999999
 74
     0
 49
-3.174999999999999
 74
     0
  0
LTYPE
  5
D9
330
5
100
AcDbSymbolTableRecord
100
AcDbLinetypeTableRecord
  2
PHANTOM2
 70
     0
  3
Phantom (.5x) ___ _ _ ___ _ _ ___ _ _ ___ _ _
 72
    65
 73
     6
 40
31.75
 49
15.875
 74
     0
 49
-3.174999999999999
 74
     0
 49
3.174999999999999
 74
     0
 49
-3.174999999999999
 74
     0
 49
3.174999999999999
 74
     0
 49
-3.174999999999999
 74
     0
  0
ENDTAB
  0
TABLE
  2
LAYER
  5
2
102
{ACAD_XDICTIONARY
360
3F9
102
}
330
0
100
AcDbSymbolTable
 70
     7
  0
LAYER
  5
10
330
2
100
AcDbSymbolTableRecord
100
AcDbLayerTableRecord
  2
0
 70
     0
 62
     7
  6
Continuous
370
    -3
390
F
  0
LAYER
  5
ACA
330
2
100
AcDbSymbolTableRecord
100
AcDbLayerTableRecord
  2
LOGO
 70
     0
 62
     7
  6
Continuous
370
    -3
390
F
  0
LAYER
  5
CBB
330
2
100
AcDbSymbolTableRecord
100
AcDbLayerTableRecord
  2
AM_VIS
 70
     0
 62
     7
  6
Continuous
370
    50
390
F
  0
LAYER
  5
CBC
330
2
100
AcDbSymbolTableRecord
100
AcDbLayerTableRecord
  2
Defpoints
 70
     0
 62
     7
  6
Continuous
290
     0
370
    -3
390
F
  0
LAYER
  5
CBD
330
2
100
AcDbSymbolTableRecord
100
AcDbLayerTableRecord
  2
AM_7
 70
     0
 62
     1
  6
CENTER
370
    25
390
F
  0
LAYER
  5
CBE
330
2
100
AcDbSymbolTableRecord
100
AcDbLayerTableRecord
  2
AM_5
 70
     0
 62
     5
  6
Continuous
370
    50
390
F
  0
LAYER
  5
CC0
330
2
100
AcDbSymbolTableRecord
100
AcDbLayerTableRecord
  2
AM_4
 70
     0
 62
     3
  6
Continuous
370
    25
390
F
  0
ENDTAB
  0
TABLE
  2
STYLE
  5
3
330
0
100
AcDbSymbolTable
 70
     6
  0
STYLE
  5
11
330
3
100
AcDbSymbolTableRecord
100
AcDbTextStyleTableRecord
  2
STANDARD
 70
     0
 40
0.0
 41
1.0
 50
0.0
 71
     0
 42
3.0
  3
ISOCP.SHX
  4
CHINESET.SHX
  0
STYLE
  5
6B
330
3
100
AcDbSymbolTableRecord
100
AcDbTextStyleTableRecord
  2

 70
     1
 40
0.0
 41
1.0
 50
0.0
 71
     0
 42
2.5
  3
ltypeshp.shx
  4

  0
STYLE
  5
6D
330
3
100
AcDbSymbolTableRecord
100
AcDbTextStyleTableRecord
  2
ACISOTS
 70
     0
 40
1.0
 41
1.0
 50
0.0
 71
     0
 42
1.0
  3
isocp.shx
  4
chineset.shx
  0
STYLE
  5
79
330
3
100
AcDbSymbolTableRecord
100
AcDbTextStyleTableRecord
  2
ACISOGDT
 70
     0
 40
0.0
 41
1.0
 50
0.0
 71
     0
 42
2.5
  3
amgdt.shx
  4
chineset.shx
  0
STYLE
  5
ACB
330
3
100
AcDbSymbolTableRecord
100
AcDbTextStyleTableRecord
  2
CHINESET
 70
     0
 40
0.0
 41
1.0
 50
0.0
 71
     0
 42
3.0
  3
simplex.shx
  4
CHINESET.SHX
  0
ENDTAB
  0
TABLE
  2
VIEW
  5
6
330
0
100
AcDbSymbolTable
 70
     0
  0
ENDTAB
  0
TABLE
  2
UCS
  5
7
330
0
100
AcDbSymbolTable
 70
     0
  0
ENDTAB
  0
TABLE
  2
APPID
  5
9
330
0
100
AcDbSymbolTable
 70
    21
  0
APPID
  5
12
330
9
100
AcDbSymbolTableRecord
100
AcDbRegAppTableRecord
  2
ACAD
 70
     0
  0
APPID
  5
46
330
9
100
AcDbSymbolTableRecord
100
AcDbRegAppTableRecord
  2
MCAD_NO_VIS
 70
     0
  0
APPID
  5
47
330
9
100
AcDbSymbolTableRecord
100
AcDbRegAppTableRecord
  2
ACAD_TEMP_GRAPHIC
 70
     0
  0
APPID
  5
58
330
9
100
AcDbSymbolTableRecord
100
AcDbRegAppTableRecord
  2
ACATTRIBSERVICES
 70
     0
  0
APPID
  5
EE
330
9
100
AcDbSymbolTableRecord
100
AcDbRegAppTableRecord
  2
AD_DRAW
 70
     0
  0
APPID
  5
10C
330
9
100
AcDbSymbolTableRecord
100
AcDbRegAppTableRecord
  2
DESIGNERASSEMBLIES
 70
     0
  0
APPID
  5
111
330
9
100
AcDbSymbolTableRecord
100
AcDbRegAppTableRecord
  2
ACADM_DIM_EDIT
 70
     0
  0
APPID
  5
112
330
9
100
AcDbSymbolTableRecord
100
AcDbRegAppTableRecord
  2
AMDT_DM_ADJ
 70
     0
  0
APPID
  5
22C
330
9
100
AcDbSymbolTableRecord
100
AcDbRegAppTableRecord
  2
ACAD_DSTYLE_DIMTEXT_FILL
 70
     0
  0
APPID
  5
452
330
9
100
AcDbSymbolTableRecord
100
AcDbRegAppTableRecord
  2
GENIUS_GENOENT_13
 70
     0
  0
APPID
  5
453
330
9
100
AcDbSymbolTableRecord
100
AcDbRegAppTableRecord
  2
GENIUS_GENOBJ-N-CRS_13
 70
     0
  0
APPID
  5
454
330
9
100
AcDbSymbolTableRecord
100
AcDbRegAppTableRecord
  2
GENIUS_GENOLIS_13
 70
     0
  0
APPID
  5
455
330
9
100
AcDbSymbolTableRecord
100
AcDbRegAppTableRecord
  2
GENIUS_GENODEF_13
 70
     0
  0
APPID
  5
456
330
9
100
AcDbSymbolTableRecord
100
AcDbRegAppTableRecord
  2
GENIUS_GENOREF_13
 70
     0
  0
APPID
  5
6F3
330
9
100
AcDbSymbolTableRecord
100
AcDbRegAppTableRecord
  2
ACAD_PSEXT
 70
     0
  0
APPID
  5
808
330
9
100
AcDbSymbolTableRecord
100
AcDbRegAppTableRecord
  2
GENIUS_GENDTOL_13
 70
     0
  0
APPID
  5
ACC
330
9
100
AcDbSymbolTableRecord
100
AcDbRegAppTableRecord
  2
GENIUS_GENREC_14
 70
     0
  0
APPID
  5
ACD
330
9
100
AcDbSymbolTableRecord
100
AcDbRegAppTableRecord
  2
GENIUS_GENOBJ-N-REC_13
 70
     0
  0
APPID
  5
CC1
330
9
100
AcDbSymbolTableRecord
100
AcDbRegAppTableRecord
  2
GENIUS_GENOBJ-N-CEN_13
 70
     0
  0
APPID
  5
CC2
330
9
100
AcDbSymbolTableRecord
100
AcDbRegAppTableRecord
  2
GENIUS_GENCEN_19
 70
     0
  0
APPID
  5
CC3
330
9
100
AcDbSymbolTableRecord
100
AcDbRegAppTableRecord
  2
AcAecLayerStandard
 70
     0
  0
ENDTAB
  0
TABLE
  2
DIMSTYLE
  5
A
330
0
100
AcDbSymbolTable
 70
     9
100
AcDbDimStyleTable
 71
     3
340
81
340
8B
340
86
  0
DIMSTYLE
105
81
330
A
100
AcDbSymbolTableRecord
100
AcDbDimStyleTableRecord
  2
AM_ISO
 70
     0
  4
"
 41
3.0
 42
1.5
 43
8.0
 44
1.5
 47
0.1
 48
0.1
 73
     0
 74
     0
 77
     1
 78
     8
 79
     2
140
3.5
141
0.0
143
0.0393701
146
0.6
147
1.0
172
     1
176
   256
177
   256
178
   256
271
     2
272
     2
283
     0
284
     8
340
11
371
    -1
372
    -1
  0
DIMSTYLE
105
82
330
A
100
AcDbSymbolTableRecord
100
AcDbDimStyleTableRecord
  2
AM_ISO$3
 70
     0
  4
"
 41
3.0
 42
1.5
 43
8.0
 44
1.5
 47
0.1
 48
0.1
 73
     0
 77
     1
 78
     8
 79
     2
140
3.5
141
0.0
143
0.0393701
146
0.6
147
1.0
176
   256
177
   256
178
   256
271
     2
272
     2
283
     0
284
     8
288
     1
289
     0
340
11
371
    -1
372
    -1
  0
DIMSTYLE
105
83
330
A
100
AcDbSymbolTableRecord
100
AcDbDimStyleTableRecord
  2
AM_ISO$4
 70
     0
  4
"
 41
3.0
 42
1.5
 43
8.0
 44
1.5
 47
0.1
 48
0.1
 73
     0
 77
     1
 78
     8
 79
     2
140
3.5
141
0.0
143
0.0393701
146
0.6
147
1.0
176
   256
177
   256
178
   256
271
     2
272
     2
283
     0
284
     8
288
     1
289
     0
340
11
371
    -1
372
    -1
  0
DIMSTYLE
105
84
330
A
100
AcDbSymbolTableRecord
100
AcDbDimStyleTableRecord
  2
AM_ISO$6
 70
     0
  4
"
 41
3.0
 42
1.5
 43
8.0
 44
1.5
 47
0.1
 48
0.1
 73
     0
 74
     0
 78
     8
 79
     2
140
3.5
141
0.0
143
0.0393701
146
0.6
147
1.0
172
     1
176
   256
177
   256
178
   256
271
     2
272
     2
283
     0
284
     8
340
11
371
    -1
372
    -1
  0
DIMSTYLE
105
85
330
A
100
AcDbSymbolTableRecord
100
AcDbDimStyleTableRecord
  2
AM_ISO$7
 70
     0
  4
"
 41
3.0
 42
1.5
 43
8.0
 44
1.5
 47
0.1
 48
0.1
 73
     0
 74
     0
 77
     1
 78
     8
 79
     2
140
5.0
141
0.0
143
0.0393701
146
0.6
147
1.0
172
     1
176
   256
177
   256
178
   256
271
     2
272
     2
283
     0
284
     8
340
11
371
    -1
372
    -1
  0
DIMSTYLE
105
86
330
A
100
AcDbSymbolTableRecord
100
AcDbDimStyleTableRecord
  2
AM_ISO$SF
 70
     0
  4
"
 41
2.5
 42
1.0
 43
10.0
 44
1.0
 47
0.1
 48
0.1
 73
     0
 74
     0
 75
     1
 76
     1
 77
     1
 78
     8
 79
     2
140
3.5
141
0.0
143
0.0393701
146
0.71
147
1.5
172
     1
176
   256
177
   256
178
     2
271
     2
272
     3
274
     4
283
     0
284
     8
340
11
371
    -1
372
    -1
  0
DIMSTYLE
105
8B
330
A
100
AcDbSymbolTableRecord
100
AcDbDimStyleTableRecord
  2
AM_ISO$SH
 70
     0
  4
"
 41
2.5
 42
1.0
 43
10.0
 44
1.0
 47
0.1
 48
0.1
 73
     0
 74
     0
 75
     1
 76
     1
 77
     1
 78
     8
 79
     2
140
3.5
141
0.0
143
0.0393701
144
2.0
146
0.71
147
1.5
172
     1
173
     1
176
   256
177
   256
178
     2
271
     2
272
     3
274
     4
283
     0
284
     8
340
11
343
87
371
    -1
372
    -1
  0
DIMSTYLE
105
40B
102
{ACAD_REACTORS
330
FEA
330
FEB
330
FEC
330
FED
330
FEE
330
FEF
330
FF0
330
FF1
330
FF2
330
FFB
330
FFC
330
FFF
330
1000
330
1001
102
}
330
A
100
AcDbSymbolTableRecord
100
AcDbDimStyleTableRecord
  2
AM_ISO$0
 70
     0
  4
"
 41
3.0
 42
1.5
 43
8.0
 44
1.5
 47
0.1
 48
0.1
 73
     0
 74
     0
 77
     1
 78
     8
 79
     2
140
3.5
141
0.0
143
0.0393701
146
0.6
147
1.0
172
     1
176
   256
177
   256
178
   256
271
     2
272
     2
283
     0
284
     8
340
11
371
    -1
372
    -1
  0
ENDTAB
  0
TABLE
  2
BLOCK_RECORD
  5
1
330
0
100
AcDbSymbolTable
 70
    23
  0
BLOCK_RECORD
  5
1F
102
{ACAD_XDICTIONARY
360
8F
102
}
330
1
100
AcDbSymbolTableRecord
100
AcDbBlockTableRecord
  2
*Model_Space
340
22
  0
BLOCK_RECORD
  5
1B
330
1
100
AcDbSymbolTableRecord
100
AcDbBlockTableRecord
  2
*Paper_Space
340
1E
  0
BLOCK_RECORD
  5
23
330
1
100
AcDbSymbolTableRecord
100
AcDbBlockTableRecord
  2
*Paper_Space0
340
26
  0
BLOCK_RECORD
  5
87
330
1
100
AcDbSymbolTableRecord
100
AcDbBlockTableRecord
  2
GENAXEH
340
0
  0
BLOCK_RECORD
  5
1016
330
1
100
AcDbSymbolTableRecord
100
AcDbBlockTableRecord
  2
*D3
340
0
  0
BLOCK_RECORD
  5
1022
330
1
100
AcDbSymbolTableRecord
100
AcDbBlockTableRecord
  2
*D4
340
0
  0
BLOCK_RECORD
  5
102E
330
1
100
AcDbSymbolTableRecord
100
AcDbBlockTableRecord
  2
*D5
340
0
  0
BLOCK_RECORD
  5
103A
330
1
100
AcDbSymbolTableRecord
100
AcDbBlockTableRecord
  2
*D6
340
0
  0
BLOCK_RECORD
  5
1046
330
1
100
AcDbSymbolTableRecord
100
AcDbBlockTableRecord
  2
*D7
340
0
  0
BLOCK_RECORD
  5
1054
330
1
100
AcDbSymbolTableRecord
100
AcDbBlockTableRecord
  2
*D8
340
0
  0
BLOCK_RECORD
  5
1062
330
1
100
AcDbSymbolTableRecord
100
AcDbBlockTableRecord
  2
*D9
340
0
  0
BLOCK_RECORD
  5
106E
330
1
100
AcDbSymbolTableRecord
100
AcDbBlockTableRecord
  2
*D10
340
0
  0
BLOCK_RECORD
  5
107A
330
1
100
AcDbSymbolTableRecord
100
AcDbBlockTableRecord
  2
*D11
340
0
  0
BLOCK_RECORD
  5
1086
330
1
100
AcDbSymbolTableRecord
100
AcDbBlockTableRecord
  2
*D12
340
0
  0
BLOCK_RECORD
  5
1094
330
1
100
AcDbSymbolTableRecord
100
AcDbBlockTableRecord
  2
*D13
340
0
  0
BLOCK_RECORD
  5
10A0
330
1
100
AcDbSymbolTableRecord
100
AcDbBlockTableRecord
  2
*D14
340
0
  0
BLOCK_RECORD
  5
10AC
330
1
100
AcDbSymbolTableRecord
100
AcDbBlockTableRecord
  2
*D15
340
0
  0
BLOCK_RECORD
  5
10B8
330
1
100
AcDbSymbolTableRecord
100
AcDbBlockTableRecord
  2
*D16
340
0
  0
BLOCK_RECORD
  5
11A3
330
1
100
AcDbSymbolTableRecord
100
AcDbBlockTableRecord
  2
*S18
340
0
  0
BLOCK_RECORD
  5
11AB
330
1
100
AcDbSymbolTableRecord
100
AcDbBlockTableRecord
  2
*S19
340
0
  0
BLOCK_RECORD
  5
11B3
330
1
100
AcDbSymbolTableRecord
100
AcDbBlockTableRecord
  2
*S20
340
0
  0
BLOCK_RECORD
  5
11BB
330
1
100
AcDbSymbolTableRecord
100
AcDbBlockTableRecord
  2
*S21
340
0
  0
BLOCK_RECORD
  5
11C3
330
1
100
AcDbSymbolTableRecord
100
AcDbBlockTableRecord
  2
*S22
340
0
  0
ENDTAB
  0
ENDSEC
  0
SECTION
  2
BLOCKS
  0
BLOCK
  5
20
330
1F
100
AcDbEntity
  8
0
100
AcDbBlockBegin
  2
*Model_Space
 70
     0
 10
0.0
 20
0.0
 30
0.0
  3
*Model_Space
  1

  0
ENDBLK
  5
21
330
1F
100
AcDbEntity
  8
0
100
AcDbBlockEnd
  0
BLOCK
  5
1C
330
1B
100
AcDbEntity
 67
     1
  8
0
100
AcDbBlockBegin
  2
*Paper_Space
 70
     0
 10
0.0
 20
0.0
 30
0.0
  3
*Paper_Space
  1

  0
ENDBLK
  5
1D
330
1B
100
AcDbEntity
 67
     1
  8
0
100
AcDbBlockEnd
  0
BLOCK
  5
24
330
23
100
AcDbEntity
  8
0
100
AcDbBlockBegin
  2
*Paper_Space0
 70
     0
 10
0.0
 20
0.0
 30
0.0
  3
*Paper_Space0
  1

  0
ENDBLK
  5
25
330
23
100
AcDbEntity
  8
0
100
AcDbBlockEnd
  0
BLOCK
  5
89
330
87
100
AcDbEntity
  8
0
100
AcDbBlockBegin
  2
GENAXEH
 70
     0
 10
0.0
 20
0.0
 30
0.0
  3
GENAXEH
  1

  0
LINE
  5
88
330
87
100
AcDbEntity
  8
0
100
AcDbLine
 10
-1.0
 20
0.0
 30
0.0
 11
1.0
 21
0.0
 31
0.0
  0
ENDBLK
  5
8A
330
87
100
AcDbEntity
  8
0
100
AcDbBlockEnd
  0
BLOCK
  5
1020
330
1016
100
AcDbEntity
  8
0
100
AcDbBlockBegin
  2
*D3
 70
     1
 10
0.0
 20
0.0
 30
0.0
  3
*D3
  1

  0
LINE
  5
10C4
330
1016
100
AcDbEntity
  8
AM_5
100
AcDbLine
 10
244.0681618774687
 20
363.8819589187818
 30
0.0
 11
214.295275371382
 21
363.8819589187818
 31
0.0
  0
LINE
  5
10C5
330
1016
100
AcDbEntity
  8
AM_5
100
AcDbLine
 10
269.0681618774687
 20
346.8819589187818
 30
0.0
 11
214.295275371382
 21
346.8819589187818
 31
0.0
  0
LINE
  5
10C6
330
1016
100
AcDbEntity
  8
AM_5
100
AcDbLine
 10
216.395275371382
 20
359.6819589187818
 30
0.0
 11
216.395275371382
 21
351.0819589187818
 31
0.0
  0
SOLID
  5
10C7
330
1016
100
AcDbEntity
  8
AM_5
100
AcDbTrace
 10
215.695275371382
 20
359.6819589187818
 30
0.0
 11
217.095275371382
 21
359.6819589187818
 31
0.0
 12
216.395275371382
 22
363.8819589187818
 32
0.0
 13
216.395275371382
 23
363.8819589187818
 33
0.0
  0
SOLID
  5
10C8
330
1016
100
AcDbEntity
  8
AM_5
100
AcDbTrace
 10
215.695275371382
 20
351.0819589187818
 30
0.0
 11
217.095275371382
 21
351.0819589187818
 31
0.0
 12
216.395275371382
 22
346.8819589187818
 32
0.0
 13
216.395275371382
 23
346.8819589187818
 33
0.0
  0
MTEXT
  5
10C9
330
1016
100
AcDbEntity
  8
AM_5
100
AcDbMText
 10
212.5452753713819
 20
355.3819589187818
 30
0.0
 40
4.899999999999999
 41
0.0
 71
     5
 72
     1
  1
17
 11
0.0000000000000001
 21
1.0
 31
0.0
 73
     1
 44
1.0
1001
ACAD
1000
MTEXTBEGIN
1070
    73
1070
     1
1070
    44
1040
1.0
1070
    74
1070
     0
1000
MTEXTEND
  0
POINT
  5
10CA
330
1016
100
AcDbEntity
  8
Defpoints
 62
     0
100
AcDbPoint
 10
246.1681618774687
 20
363.8819589187818
 30
0.0
  0
POINT
  5
10CB
330
1016
100
AcDbEntity
  8
Defpoints
 62
     0
100
AcDbPoint
 10
271.1681618774687
 20
346.8819589187818
 30
0.0
  0
POINT
  5
10CC
330
1016
100
AcDbEntity
  8
Defpoints
 62
     0
100
AcDbPoint
 10
216.395275371382
 20
346.8819589187818
 30
0.0
  0
ENDBLK
  5
1021
330
1016
100
AcDbEntity
  8
0
100
AcDbBlockEnd
  0
BLOCK
  5
102C
330
1022
100
AcDbEntity
  8
0
100
AcDbBlockBegin
  2
*D4
 70
     1
 10
0.0
 20
0.0
 30
0.0
  3
*D4
  1

  0
LINE
  5
10CD
330
1022
100
AcDbEntity
  8
AM_5
100
AcDbLine
 10
235.5681618774687
 20
366.5319589187817
 30
0.0
 11
204.295275371382
 21
366.5319589187817
 31
0.0
  0
LINE
  5
10CE
330
1022
100
AcDbEntity
  8
AM_5
100
AcDbLine
 10
235.5681618774687
 20
344.2319589187817
 30
0.0
 11
204.295275371382
 21
344.2319589187817
 31
0.0
  0
LINE
  5
10CF
330
1022
100
AcDbEntity
  8
AM_5
100
AcDbLine
 10
206.395275371382
 20
362.3319589187818
 30
0.0
 11
206.395275371382
 21
348.4319589187817
 31
0.0
  0
SOLID
  5
10D0
330
1022
100
AcDbEntity
  8
AM_5
100
AcDbTrace
 10
205.695275371382
 20
362.3319589187818
 30
0.0
 11
207.095275371382
 21
362.3319589187818
 31
0.0
 12
206.395275371382
 22
366.5319589187817
 32
0.0
 13
206.395275371382
 23
366.5319589187817
 33
0.0
  0
SOLID
  5
10D1
330
1022
100
AcDbEntity
  8
AM_5
100
AcDbTrace
 10
205.695275371382
 20
348.4319589187817
 30
0.0
 11
207.095275371382
 21
348.4319589187817
 31
0.0
 12
206.395275371382
 22
344.2319589187817
 32
0.0
 13
206.395275371382
 23
344.2319589187817
 33
0.0
  0
MTEXT
  5
10D2
330
1022
100
AcDbEntity
  8
AM_5
100
AcDbMText
 10
202.5447930879174
 20
355.3819589187818
 30
0.0
 40
4.899999999999999
 41
0.0
 71
     5
 72
     1
  1
22.3
 11
0.0000000000000001
 21
1.0
 31
0.0
 73
     1
 44
1.0
1001
ACAD
1000
MTEXTBEGIN
1070
    73
1070
     1
1070
    44
1040
1.0
1070
    74
1070
     0
1000
MTEXTEND
  0
POINT
  5
10D3
330
1022
100
AcDbEntity
  8
Defpoints
 62
     0
100
AcDbPoint
 10
237.6681618774687
 20
366.5319589187817
 30
0.0
  0
POINT
  5
10D4
330
1022
100
AcDbEntity
  8
Defpoints
 62
     0
100
AcDbPoint
 10
237.6681618774687
 20
344.2319589187817
 30
0.0
  0
POINT
  5
10D5
330
1022
100
AcDbEntity
  8
Defpoints
 62
     0
100
AcDbPoint
 10
206.395275371382
 20
344.2319589187817
 30
0.0
  0
ENDBLK
  5
102D
330
1022
100
AcDbEntity
  8
0
100
AcDbBlockEnd
  0
BLOCK
  5
1038
330
102E
100
AcDbEntity
  8
0
100
AcDbBlockBegin
  2
*D5
 70
     1
 10
0.0
 20
0.0
 30
0.0
  3
*D5
  1

  0
LINE
  5
10D6
330
102E
100
AcDbEntity
  8
AM_5
100
AcDbLine
 10
237.6681618774687
 20
368.6319589187818
 30
0.0
 11
237.6681618774687
 21
377.9819589187818
 31
0.0
  0
LINE
  5
10D7
330
102E
100
AcDbEntity
  8
AM_5
100
AcDbLine
 10
250.1681618774687
 20
369.9819589187818
 30
0.0
 11
250.1681618774687
 21
377.9819589187818
 31
0.0
  0
LINE
  5
10D8
330
102E
100
AcDbEntity
  8
AM_5
100
AcDbLine
 10
241.8681618774687
 20
375.8819589187818
 30
0.0
 11
245.9681618774687
 21
375.8819589187818
 31
0.0
  0
SOLID
  5
10D9
330
102E
100
AcDbEntity
  8
AM_5
100
AcDbTrace
 10
241.8681618774687
 20
376.5819589187818
 30
0.0
 11
241.8681618774687
 21
375.1819589187818
 31
0.0
 12
237.6681618774687
 22
375.8819589187818
 32
0.0
 13
237.6681618774687
 23
375.8819589187818
 33
0.0
  0
SOLID
  5
10DA
330
102E
100
AcDbEntity
  8
AM_5
100
AcDbTrace
 10
245.9681618774687
 20
376.5819589187818
 30
0.0
 11
245.9681618774687
 21
375.1819589187818
 31
0.0
 12
250.1681618774687
 22
375.8819589187818
 32
0.0
 13
250.1681618774687
 23
375.8819589187818
 33
0.0
  0
MTEXT
  5
10DB
330
102E
100
AcDbEntity
  8
AM_5
100
AcDbMText
 10
243.9181618774687
 20
379.7324412022463
 30
0.0
 40
4.899999999999999
 41
0.0
 71
     5
 72
     1
  1
12.5
 73
     1
 44
1.0
1001
ACAD
1000
MTEXTBEGIN
1070
    73
1070
     1
1070
    44
1040
1.0
1070
    74
1070
     0
1000
MTEXTEND
  0
POINT
  5
10DC
330
102E
100
AcDbEntity
  8
Defpoints
 62
     0
100
AcDbPoint
 10
237.6681618774687
 20
366.5319589187817
 30
0.0
  0
POINT
  5
10DD
330
102E
100
AcDbEntity
  8
Defpoints
 62
     0
100
AcDbPoint
 10
250.1681618774687
 20
367.8819589187818
 30
0.0
  0
POINT
  5
10DE
330
102E
100
AcDbEntity
  8
Defpoints
 62
     0
100
AcDbPoint
 10
250.1681618774687
 20
375.8819589187818
 30
0.0
  0
ENDBLK
  5
1039
330
102E
100
AcDbEntity
  8
0
100
AcDbBlockEnd
  0
BLOCK
  5
1044
330
103A
100
AcDbEntity
  8
0
100
AcDbBlockBegin
  2
*D6
 70
     1
 10
0.0
 20
0.0
 30
0.0
  3
*D6
  1

  0
LINE
  5
10DF
330
103A
100
AcDbEntity
  8
AM_5
100
AcDbLine
 10
250.1681618774687
 20
369.9819589187818
 30
0.0
 11
250.1681618774687
 21
377.9819589187818
 31
0.0
  0
LINE
  5
10E0
330
103A
100
AcDbEntity
  8
AM_5
100
AcDbLine
 10
275.6681618774687
 20
353.9819589187812
 30
0.0
 11
275.6681618774687
 21
377.9819589187818
 31
0.0
  0
LINE
  5
10E1
330
103A
100
AcDbEntity
  8
AM_5
100
AcDbLine
 10
254.3681618774687
 20
375.8819589187818
 30
0.0
 11
271.4681618774687
 21
375.8819589187818
 31
0.0
  0
SOLID
  5
10E2
330
103A
100
AcDbEntity
  8
AM_5
100
AcDbTrace
 10
254.3681618774687
 20
376.5819589187818
 30
0.0
 11
254.3681618774687
 21
375.1819589187818
 31
0.0
 12
250.1681618774687
 22
375.8819589187818
 32
0.0
 13
250.1681618774687
 23
375.8819589187818
 33
0.0
  0
SOLID
  5
10E3
330
103A
100
AcDbEntity
  8
AM_5
100
AcDbTrace
 10
271.4681618774687
 20
376.5819589187818
 30
0.0
 11
271.4681618774687
 21
375.1819589187818
 31
0.0
 12
275.6681618774687
 22
375.8819589187818
 32
0.0
 13
275.6681618774687
 23
375.8819589187818
 33
0.0
  0
MTEXT
  5
10E4
330
103A
100
AcDbEntity
  8
AM_5
100
AcDbMText
 10
262.9181618774687
 20
379.7324412022463
 30
0.0
 40
4.899999999999999
 41
0.0
 71
     5
 72
     1
  1
25.5
 73
     1
 44
1.0
1001
ACAD
1000
MTEXTBEGIN
1070
    73
1070
     1
1070
    44
1040
1.0
1070
    74
1070
     0
1000
MTEXTEND
  0
POINT
  5
10E5
330
103A
100
AcDbEntity
  8
Defpoints
 62
     0
100
AcDbPoint
 10
250.1681618774687
 20
367.8819589187818
 30
0.0
  0
POINT
  5
10E6
330
103A
100
AcDbEntity
  8
Defpoints
 62
     0
100
AcDbPoint
 10
275.6681618774687
 20
351.8819589187812
 30
0.0
  0
POINT
  5
10E7
330
103A
100
AcDbEntity
  8
Defpoints
 62
     0
100
AcDbPoint
 10
275.6681618774687
 20
375.8819589187818
 30
0.0
  0
ENDBLK
  5
1045
330
103A
100
AcDbEntity
  8
0
100
AcDbBlockEnd
  0
BLOCK
  5
1052
330
1046
100
AcDbEntity
  8
0
100
AcDbBlockBegin
  2
*D7
 70
     1
 10
0.0
 20
0.0
 30
0.0
  3
*D7
  1

  0
LINE
  5
10E8
330
1046
100
AcDbEntity
  8
AM_5
100
AcDbLine
 10
232.6904962631946
 20
355.3819589187818
 30
0.0
 11
224.2952753713822
 21
355.3819589187818
 31
0.0
  0
LINE
  5
10E9
330
1046
100
AcDbEntity
  8
AM_5
100
AcDbLine
 10
252.8681618774687
 20
353.3819589187818
 30
0.0
 11
224.2952753713822
 21
353.3819589187818
 31
0.0
  0
LINE
  5
10EA
330
1046
100
AcDbEntity
  8
AM_5
100
AcDbLine
 10
226.3952753713822
 20
359.5819589187818
 30
0.0
 11
226.3952753713822
 21
363.7819589187818
 31
0.0
  0
LINE
  5
10EB
330
1046
100
AcDbEntity
  8
AM_5
100
AcDbLine
 10
226.3952753713822
 20
349.1819589187818
 30
0.0
 11
226.3952753713822
 21
344.9819589187818
 31
0.0
  0
LINE
  5
10EC
330
1046
100
AcDbEntity
  8
AM_5
100
AcDbLine
 10
226.3952753713822
 20
355.3819589187818
 30
0.0
 11
226.3952753713822
 21
353.3819589187818
 31
0.0
  0
SOLID
  5
10ED
330
1046
100
AcDbEntity
  8
AM_5
100
AcDbTrace
 10
225.6952753713822
 20
359.5819589187818
 30
0.0
 11
227.0952753713822
 21
359.5819589187818
 31
0.0
 12
226.3952753713822
 22
355.3819589187818
 32
0.0
 13
226.3952753713822
 23
355.3819589187818
 33
0.0
  0
SOLID
  5
10EE
330
1046
100
AcDbEntity
  8
AM_5
100
AcDbTrace
 10
225.6952753713822
 20
349.1819589187818
 30
0.0
 11
227.0952753713822
 21
349.1819589187818
 31
0.0
 12
226.3952753713822
 22
353.3819589187818
 32
0.0
 13
226.3952753713822
 23
353.3819589187818
 33
0.0
  0
MTEXT
  5
10EF
330
1046
100
AcDbEntity
  8
AM_5
100
AcDbMText
 10
222.5447930879175
 20
354.3819589187819
 30
0.0
 40
4.899999999999999
 41
0.0
 71
     5
 72
     1
  1
2
 11
0.0000000000000001
 21
1.0
 31
0.0
 73
     1
 44
1.0
1001
ACAD
1000
MTEXTBEGIN
1070
    73
1070
     1
1070
    44
1040
1.0
1070
    74
1070
     0
1000
MTEXTEND
  0
POINT
  5
10F0
330
1046
100
AcDbEntity
  8
Defpoints
 62
     0
100
AcDbPoint
 10
234.7904962631947
 20
355.3819589187818
 30
0.0
  0
POINT
  5
10F1
330
1046
100
AcDbEntity
  8
Defpoints
 62
     0
100
AcDbPoint
 10
254.9681618774687
 20
353.3819589187818
 30
0.0
  0
POINT
  5
10F2
330
1046
100
AcDbEntity
  8
Defpoints
 62
     0
100
AcDbPoint
 10
226.3952753713822
 20
353.3819589187818
 30
0.0
  0
ENDBLK
  5
1053
330
1046
100
AcDbEntity
  8
0
100
AcDbBlockEnd
  0
BLOCK
  5
1060
330
1054
100
AcDbEntity
  8
0
100
AcDbBlockBegin
  2
*D8
 70
     1
 10
0.0
 20
0.0
 30
0.0
  3
*D8
  1

  0
LINE
  5
10F3
330
1054
100
AcDbEntity
  8
AM_5
100
AcDbLine
 10
244.9681618774688
 20
294.3188695012473
 30
0.0
 11
224.295275371382
 21
294.3188695012473
 31
0.0
  0
LINE
  5
10F4
330
1054
100
AcDbEntity
  8
AM_5
100
AcDbLine
 10
235.5681618774687
 20
302.8188695012474
 30
0.0
 11
224.295275371382
 21
302.8188695012474
 31
0.0
  0
LINE
  5
10F5
330
1054
100
AcDbEntity
  8
AM_5
100
AcDbLine
 10
226.395275371382
 20
290.1188695012473
 30
0.0
 11
226.395275371382
 21
285.9188695012473
 31
0.0
  0
LINE
  5
10F6
330
1054
100
AcDbEntity
  8
AM_5
100
AcDbLine
 10
226.395275371382
 20
307.0188695012474
 30
0.0
 11
226.395275371382
 21
311.2188695012473
 31
0.0
  0
LINE
  5
10F7
330
1054
100
AcDbEntity
  8
AM_5
100
AcDbLine
 10
226.395275371382
 20
294.3188695012473
 30
0.0
 11
226.395275371382
 21
302.8188695012474
 31
0.0
  0
SOLID
  5
10F8
330
1054
100
AcDbEntity
  8
AM_5
100
AcDbTrace
 10
225.6952753713821
 20
290.1188695012473
 30
0.0
 11
227.095275371382
 21
290.1188695012473
 31
0.0
 12
226.395275371382
 22
294.3188695012473
 32
0.0
 13
226.395275371382
 23
294.3188695012473
 33
0.0
  0
SOLID
  5
10F9
330
1054
100
AcDbEntity
  8
AM_5
100
AcDbTrace
 10
225.6952753713821
 20
307.0188695012474
 30
0.0
 11
227.095275371382
 21
307.0188695012474
 31
0.0
 12
226.395275371382
 22
302.8188695012474
 32
0.0
 13
226.395275371382
 23
302.8188695012474
 33
0.0
  0
MTEXT
  5
10FA
330
1054
100
AcDbEntity
  8
AM_5
100
AcDbMText
 10
222.545275371382
 20
298.5688695012474
 30
0.0
 40
4.899999999999999
 41
0.0
 71
     5
 72
     1
  1
8.5
 11
0.0000000000000001
 21
1.0
 31
0.0
 73
     1
 44
1.0
1001
ACAD
1000
MTEXTBEGIN
1070
    73
1070
     1
1070
    44
1040
1.0
1070
    74
1070
     0
1000
MTEXTEND
  0
POINT
  5
10FB
330
1054
100
AcDbEntity
  8
Defpoints
 62
     0
100
AcDbPoint
 10
247.0681618774688
 20
294.3188695012473
 30
0.0
  0
POINT
  5
10FC
330
1054
100
AcDbEntity
  8
Defpoints
 62
     0
100
AcDbPoint
 10
237.6681618774687
 20
302.8188695012474
 30
0.0
  0
POINT
  5
10FD
330
1054
100
AcDbEntity
  8
Defpoints
 62
     0
100
AcDbPoint
 10
226.395275371382
 20
302.8188695012474
 30
0.0
  0
ENDBLK
  5
1061
330
1054
100
AcDbEntity
  8
0
100
AcDbBlockEnd
  0
BLOCK
  5
106C
330
1062
100
AcDbEntity
  8
0
100
AcDbBlockBegin
  2
*D9
 70
     1
 10
0.0
 20
0.0
 30
0.0
  3
*D9
  1

  0
LINE
  5
10FE
330
1062
100
AcDbEntity
  8
AM_5
100
AcDbLine
 10
236.6681618774687
 20
216.172256049194
 30
0.0
 11
236.6681618774687
 21
203.1722560491934
 31
0.0
  0
LINE
  5
10FF
330
1062
100
AcDbEntity
  8
AM_5
100
AcDbLine
 10
253.6681618774687
 20
218.6222560491938
 30
0.0
 11
253.6681618774687
 21
203.1722560491934
 31
0.0
  0
LINE
  5
1100
330
1062
100
AcDbEntity
  8
AM_5
100
AcDbLine
 10
240.8681618774687
 20
205.2722560491933
 30
0.0
 11
249.4681618774687
 21
205.2722560491933
 31
0.0
  0
SOLID
  5
1101
330
1062
100
AcDbEntity
  8
AM_5
100
AcDbTrace
 10
240.8681618774687
 20
205.9722560491934
 30
0.0
 11
240.8681618774687
 21
204.5722560491934
 31
0.0
 12
236.6681618774687
 22
205.2722560491933
 32
0.0
 13
236.6681618774687
 23
205.2722560491933
 33
0.0
  0
SOLID
  5
1102
330
1062
100
AcDbEntity
  8
AM_5
100
AcDbTrace
 10
249.4681618774687
 20
205.9722560491934
 30
0.0
 11
249.4681618774687
 21
204.5722560491934
 31
0.0
 12
253.6681618774687
 22
205.2722560491933
 32
0.0
 13
253.6681618774687
 23
205.2722560491933
 33
0.0
  0
MTEXT
  5
1103
330
1062
100
AcDbEntity
  8
AM_5
100
AcDbMText
 10
245.1681618774687
 20
209.1222560491933
 30
0.0
 40
4.899999999999999
 41
0.0
 71
     5
 72
     1
  1
17
 73
     1
 44
1.0
1001
ACAD
1000
MTEXTBEGIN
1070
    73
1070
     1
1070
    44
1040
1.0
1070
    74
1070
     0
1000
MTEXTEND
  0
POINT
  5
1104
330
1062
100
AcDbEntity
  8
Defpoints
 62
     0
100
AcDbPoint
 10
236.6681618774687
 20
218.272256049194
 30
0.0
  0
POINT
  5
1105
330
1062
100
AcDbEntity
  8
Defpoints
 62
     0
100
AcDbPoint
 10
253.6681618774687
 20
220.7222560491938
 30
0.0
  0
POINT
  5
1106
330
1062
100
AcDbEntity
  8
Defpoints
 62
     0
100
AcDbPoint
 10
253.6681618774687
 20
205.2722560491933
 30
0.0
  0
ENDBLK
  5
106D
330
1062
100
AcDbEntity
  8
0
100
AcDbBlockEnd
  0
BLOCK
  5
1078
330
106E
100
AcDbEntity
  8
0
100
AcDbBlockBegin
  2
*D10
 70
     1
 10
0.0
 20
0.0
 30
0.0
  3
*D10
  1

  0
LINE
  5
1107
330
106E
100
AcDbEntity
  8
AM_5
100
AcDbLine
 10
253.6681618774687
 20
218.6222560491938
 30
0.0
 11
253.6681618774687
 21
203.1722560491934
 31
0.0
  0
LINE
  5
1108
330
106E
100
AcDbEntity
  8
AM_5
100
AcDbLine
 10
271.6681618774687
 20
218.6222560491938
 30
0.0
 11
271.6681618774687
 21
203.1722560491934
 31
0.0
  0
LINE
  5
1109
330
106E
100
AcDbEntity
  8
AM_5
100
AcDbLine
 10
257.8681618774687
 20
205.2722560491934
 30
0.0
 11
267.4681618774688
 21
205.2722560491934
 31
0.0
  0
SOLID
  5
110A
330
106E
100
AcDbEntity
  8
AM_5
100
AcDbTrace
 10
257.8681618774687
 20
205.9722560491934
 30
0.0
 11
257.8681618774687
 21
204.5722560491934
 31
0.0
 12
253.6681618774687
 22
205.2722560491934
 32
0.0
 13
253.6681618774687
 23
205.2722560491934
 33
0.0
  0
SOLID
  5
110B
330
106E
100
AcDbEntity
  8
AM_5
100
AcDbTrace
 10
267.4681618774688
 20
205.9722560491934
 30
0.0
 11
267.4681618774688
 21
204.5722560491934
 31
0.0
 12
271.6681618774687
 22
205.2722560491934
 32
0.0
 13
271.6681618774687
 23
205.2722560491934
 33
0.0
  0
MTEXT
  5
110C
330
106E
100
AcDbEntity
  8
AM_5
100
AcDbMText
 10
262.6681618774687
 20
209.1222560491934
 30
0.0
 40
4.899999999999999
 41
0.0
 71
     5
 72
     1
  1
18
 73
     1
 44
1.0
1001
ACAD
1000
MTEXTBEGIN
1070
    73
1070
     1
1070
    44
1040
1.0
1070
    74
1070
     0
1000
MTEXTEND
  0
POINT
  5
110D
330
106E
100
AcDbEntity
  8
Defpoints
 62
     0
100
AcDbPoint
 10
253.6681618774687
 20
220.7222560491938
 30
0.0
  0
POINT
  5
110E
330
106E
100
AcDbEntity
  8
Defpoints
 62
     0
100
AcDbPoint
 10
271.6681618774687
 20
220.7222560491938
 30
0.0
  0
POINT
  5
110F
330
106E
100
AcDbEntity
  8
Defpoints
 62
     0
100
AcDbPoint
 10
271.6681618774687
 20
205.2722560491934
 30
0.0
  0
ENDBLK
  5
1079
330
106E
100
AcDbEntity
  8
0
100
AcDbBlockEnd
  0
BLOCK
  5
1084
330
107A
100
AcDbEntity
  8
0
100
AcDbBlockBegin
  2
*D11
 70
     1
 10
0.0
 20
0.0
 30
0.0
  3
*D11
  1

  0
LINE
  5
1110
330
107A
100
AcDbEntity
  8
AM_5
100
AcDbLine
 10
236.6681618774687
 20
343.1319589187816
 30
0.0
 11
236.6681618774687
 21
330.1319589187812
 31
0.0
  0
LINE
  5
1111
330
107A
100
AcDbEntity
  8
AM_5
100
AcDbLine
 10
262.6681618774687
 20
343.5819589187817
 30
0.0
 11
262.6681618774687
 21
330.1319589187812
 31
0.0
  0
LINE
  5
1112
330
107A
100
AcDbEntity
  8
AM_5
100
AcDbLine
 10
240.8681618774687
 20
332.2319589187813
 30
0.0
 11
258.4681618774687
 21
332.2319589187813
 31
0.0
  0
SOLID
  5
1113
330
107A
100
AcDbEntity
  8
AM_5
100
AcDbTrace
 10
240.8681618774687
 20
332.9319589187812
 30
0.0
 11
240.8681618774687
 21
331.5319589187812
 31
0.0
 12
236.6681618774687
 22
332.2319589187813
 32
0.0
 13
236.6681618774687
 23
332.2319589187813
 33
0.0
  0
SOLID
  5
1114
330
107A
100
AcDbEntity
  8
AM_5
100
AcDbTrace
 10
258.4681618774687
 20
332.9319589187812
 30
0.0
 11
258.4681618774687
 21
331.5319589187812
 31
0.0
 12
262.6681618774687
 22
332.2319589187813
 32
0.0
 13
262.6681618774687
 23
332.2319589187813
 33
0.0
  0
MTEXT
  5
1115
330
107A
100
AcDbEntity
  8
AM_5
100
AcDbMText
 10
249.6681618774687
 20
336.0824412022458
 30
0.0
 40
4.899999999999999
 41
0.0
 71
     5
 72
     1
  1
26
 73
     1
 44
1.0
1001
ACAD
1000
MTEXTBEGIN
1070
    73
1070
     1
1070
    44
1040
1.0
1070
    74
1070
     0
1000
MTEXTEND
  0
POINT
  5
1116
330
107A
100
AcDbEntity
  8
Defpoints
 62
     0
100
AcDbPoint
 10
236.6681618774687
 20
345.2319589187817
 30
0.0
  0
POINT
  5
1117
330
107A
100
AcDbEntity
  8
Defpoints
 62
     0
100
AcDbPoint
 10
262.6681618774687
 20
345.6819589187817
 30
0.0
  0
POINT
  5
1118
330
107A
100
AcDbEntity
  8
Defpoints
 62
     0
100
AcDbPoint
 10
262.6681618774687
 20
332.2319589187813
 30
0.0
  0
ENDBLK
  5
1085
330
107A
100
AcDbEntity
  8
0
100
AcDbBlockEnd
  0
BLOCK
  5
1092
330
1086
100
AcDbEntity
  8
0
100
AcDbBlockBegin
  2
*D12
 70
     1
 10
0.0
 20
0.0
 30
0.0
  3
*D12
  1

  0
LINE
  5
1119
330
1086
100
AcDbEntity
  8
AM_5
100
AcDbLine
 10
304.2681618774687
 20
302.8188695012472
 30
0.0
 11
316.2681618774687
 21
302.8188695012472
 31
0.0
  0
LINE
  5
111A
330
1086
100
AcDbEntity
  8
AM_5
100
AcDbLine
 10
280.7681618774688
 20
299.8188695012471
 30
0.0
 11
316.2681618774687
 21
299.8188695012471
 31
0.0
  0
LINE
  5
111B
330
1086
100
AcDbEntity
  8
AM_5
100
AcDbLine
 10
314.1681618774687
 20
307.0188695012472
 30
0.0
 11
314.1681618774687
 21
311.2188695012472
 31
0.0
  0
LINE
  5
111C
330
1086
100
AcDbEntity
  8
AM_5
100
AcDbLine
 10
314.1681618774687
 20
295.6188695012471
 30
0.0
 11
314.1681618774687
 21
286.4559048556842
 31
0.0
  0
LINE
  5
111D
330
1086
100
AcDbEntity
  8
AM_5
100
AcDbLine
 10
314.1681618774687
 20
302.8188695012472
 30
0.0
 11
314.1681618774687
 21
299.8188695012471
 31
0.0
  0
SOLID
  5
111E
330
1086
100
AcDbEntity
  8
AM_5
100
AcDbTrace
 10
313.4681618774687
 20
307.0188695012472
 30
0.0
 11
314.8681618774686
 21
307.0188695012472
 31
0.0
 12
314.1681618774687
 22
302.8188695012472
 32
0.0
 13
314.1681618774687
 23
302.8188695012472
 33
0.0
  0
SOLID
  5
111F
330
1086
100
AcDbEntity
  8
AM_5
100
AcDbTrace
 10
313.4681618774687
 20
295.6188695012471
 30
0.0
 11
314.8681618774686
 21
295.6188695012471
 31
0.0
 12
314.1681618774687
 22
299.8188695012471
 32
0.0
 13
314.1681618774687
 23
299.8188695012471
 33
0.0
  0
MTEXT
  5
1120
330
1086
100
AcDbEntity
  8
AM_5
100
AcDbMText
 10
310.3181618774686
 20
288.9373871784656
 30
0.0
 40
4.899999999999999
 41
0.0
 71
     5
 72
     1
  1
3
 11
0.0000000000000001
 21
1.0
 31
0.0
 73
     1
 44
1.0
1001
ACAD
1000
MTEXTBEGIN
1070
    73
1070
     1
1070
    44
1040
1.0
1070
    74
1070
     0
1000
MTEXTEND
  0
POINT
  5
1121
330
1086
100
AcDbEntity
  8
Defpoints
 62
     0
100
AcDbPoint
 10
302.1681618774687
 20
302.8188695012472
 30
0.0
  0
POINT
  5
1122
330
1086
100
AcDbEntity
  8
Defpoints
 62
     0
100
AcDbPoint
 10
278.6681618774689
 20
299.8188695012471
 30
0.0
  0
POINT
  5
1123
330
1086
100
AcDbEntity
  8
Defpoints
 62
     0
100
AcDbPoint
 10
314.1681618774687
 20
299.8188695012471
 30
0.0
  0
ENDBLK
  5
1093
330
1086
100
AcDbEntity
  8
0
100
AcDbBlockEnd
  0
BLOCK
  5
109E
330
1094
100
AcDbEntity
  8
0
100
AcDbBlockBegin
  2
*D13
 70
     1
 10
0.0
 20
0.0
 30
0.0
  3
*D13
  1

  0
LINE
  5
1124
330
1094
100
AcDbEntity
  8
AM_5
100
AcDbLine
 10
250.1681618774687
 20
299.5188695012473
 30
0.0
 11
250.1681618774687
 21
313.918869501247
 31
0.0
  0
LINE
  5
1125
330
1094
100
AcDbEntity
  8
AM_5
100
AcDbLine
 10
275.1681618774687
 20
299.5188695012473
 30
0.0
 11
275.1681618774687
 21
313.918869501247
 31
0.0
  0
LINE
  5
1126
330
1094
100
AcDbEntity
  8
AM_5
100
AcDbLine
 10
254.3681618774687
 20
311.8188695012471
 30
0.0
 11
270.9681618774687
 21
311.8188695012471
 31
0.0
  0
SOLID
  5
1127
330
1094
100
AcDbEntity
  8
AM_5
100
AcDbTrace
 10
254.3681618774687
 20
312.518869501247
 30
0.0
 11
254.3681618774687
 21
311.118869501247
 31
0.0
 12
250.1681618774687
 22
311.8188695012471
 32
0.0
 13
250.1681618774687
 23
311.8188695012471
 33
0.0
  0
SOLID
  5
1128
330
1094
100
AcDbEntity
  8
AM_5
100
AcDbTrace
 10
270.9681618774687
 20
312.518869501247
 30
0.0
 11
270.9681618774687
 21
311.118869501247
 31
0.0
 12
275.1681618774687
 22
311.8188695012471
 32
0.0
 13
275.1681618774687
 23
311.8188695012471
 33
0.0
  0
MTEXT
  5
1129
330
1094
100
AcDbEntity
  8
AM_5
100
AcDbMText
 10
262.6681618774687
 20
315.6693517847116
 30
0.0
 40
4.899999999999999
 41
0.0
 71
     5
 72
     1
  1
25
 73
     1
 44
1.0
1001
ACAD
1000
MTEXTBEGIN
1070
    73
1070
     1
1070
    44
1040
1.0
1070
    74
1070
     0
1000
MTEXTEND
  0
POINT
  5
112A
330
1094
100
AcDbEntity
  8
Defpoints
 62
     0
100
AcDbPoint
 10
250.1681618774687
 20
297.4188695012472
 30
0.0
  0
POINT
  5
112B
330
1094
100
AcDbEntity
  8
Defpoints
 62
     0
100
AcDbPoint
 10
275.1681618774687
 20
297.4188695012472
 30
0.0
  0
POINT
  5
112C
330
1094
100
AcDbEntity
  8
Defpoints
 62
     0
100
AcDbPoint
 10
275.1681618774687
 20
311.8188695012471
 30
0.0
  0
ENDBLK
  5
109F
330
1094
100
AcDbEntity
  8
0
100
AcDbBlockEnd
  0
BLOCK
  5
10AA
330
10A0
100
AcDbEntity
  8
0
100
AcDbBlockBegin
  2
*D14
 70
     1
 10
0.0
 20
0.0
 30
0.0
  3
*D14
  1

  0
LINE
  5
112D
330
10A0
100
AcDbEntity
  8
AM_5
100
AcDbLine
 10
348.4665492570004
 20
267.8188695012472
 30
0.0
 11
360.4665492570003
 21
267.8188695012472
 31
0.0
  0
LINE
  5
112E
330
10A0
100
AcDbEntity
  8
AM_5
100
AcDbLine
 10
344.1665492570008
 20
285.3188695012472
 30
0.0
 11
360.4665492570003
 21
285.3188695012472
 31
0.0
  0
LINE
  5
112F
330
10A0
100
AcDbEntity
  8
AM_5
100
AcDbLine
 10
358.3665492570003
 20
272.0188695012473
 30
0.0
 11
358.3665492570003
 21
281.1188695012472
 31
0.0
  0
SOLID
  5
1130
330
10A0
100
AcDbEntity
  8
AM_5
100
AcDbTrace
 10
357.6665492570003
 20
272.0188695012473
 30
0.0
 11
359.0665492570003
 21
272.0188695012473
 31
0.0
 12
358.3665492570003
 22
267.8188695012472
 32
0.0
 13
358.3665492570003
 23
267.8188695012472
 33
0.0
  0
SOLID
  5
1131
330
10A0
100
AcDbEntity
  8
AM_5
100
AcDbTrace
 10
357.6665492570003
 20
281.1188695012472
 30
0.0
 11
359.0665492570003
 21
281.1188695012472
 31
0.0
 12
358.3665492570003
 22
285.3188695012472
 32
0.0
 13
358.3665492570003
 23
285.3188695012472
 33
0.0
  0
MTEXT
  5
1132
330
10A0
100
AcDbEntity
  8
AM_5
100
AcDbMText
 10
354.5165492570002
 20
276.5688695012473
 30
0.0
 40
4.899999999999999
 41
0.0
 71
     5
 72
     1
  1
17.5
 11
0.0000000000000001
 21
1.0
 31
0.0
 73
     1
 44
1.0
1001
ACAD
1000
MTEXTBEGIN
1070
    73
1070
     1
1070
    44
1040
1.0
1070
    74
1070
     0
1000
MTEXTEND
  0
POINT
  5
1133
330
10A0
100
AcDbEntity
  8
Defpoints
 62
     0
100
AcDbPoint
 10
346.3665492570003
 20
267.8188695012472
 30
0.0
  0
POINT
  5
1134
330
10A0
100
AcDbEntity
  8
Defpoints
 62
     0
100
AcDbPoint
 10
342.0665492570008
 20
285.3188695012472
 30
0.0
  0
POINT
  5
1135
330
10A0
100
AcDbEntity
  8
Defpoints
 62
     0
100
AcDbPoint
 10
358.3665492570003
 20
285.3188695012472
 30
0.0
  0
ENDBLK
  5
10AB
330
10A0
100
AcDbEntity
  8
0
100
AcDbBlockEnd
  0
BLOCK
  5
10B6
330
10AC
100
AcDbEntity
  8
0
100
AcDbBlockBegin
  2
*D15
 70
     1
 10
0.0
 20
0.0
 30
0.0
  3
*D15
  1

  0
LINE
  5
1136
330
10AC
100
AcDbEntity
  8
AM_5
100
AcDbLine
 10
236.6681618774687
 20
303.9188695012474
 30
0.0
 11
236.6681618774687
 21
313.918869501247
 31
0.0
  0
LINE
  5
1137
330
10AC
100
AcDbEntity
  8
AM_5
100
AcDbLine
 10
250.1681618774687
 20
299.5188695012473
 30
0.0
 11
250.1681618774687
 21
313.918869501247
 31
0.0
  0
LINE
  5
1138
330
10AC
100
AcDbEntity
  8
AM_5
100
AcDbLine
 10
240.8681618774687
 20
311.8188695012471
 30
0.0
 11
245.9681618774687
 21
311.8188695012471
 31
0.0
  0
SOLID
  5
1139
330
10AC
100
AcDbEntity
  8
AM_5
100
AcDbTrace
 10
240.8681618774687
 20
312.518869501247
 30
0.0
 11
240.8681618774687
 21
311.118869501247
 31
0.0
 12
236.6681618774687
 22
311.8188695012471
 32
0.0
 13
236.6681618774687
 23
311.8188695012471
 33
0.0
  0
SOLID
  5
113A
330
10AC
100
AcDbEntity
  8
AM_5
100
AcDbTrace
 10
245.9681618774687
 20
312.518869501247
 30
0.0
 11
245.9681618774687
 21
311.118869501247
 31
0.0
 12
250.1681618774687
 22
311.8188695012471
 32
0.0
 13
250.1681618774687
 23
311.8188695012471
 33
0.0
  0
MTEXT
  5
113B
330
10AC
100
AcDbEntity
  8
AM_5
100
AcDbMText
 10
243.4181618774687
 20
315.6688695012471
 30
0.0
 40
4.899999999999999
 41
0.0
 71
     5
 72
     1
  1
13.5
 73
     1
 44
1.0
1001
ACAD
1000
MTEXTBEGIN
1070
    73
1070
     1
1070
    44
1040
1.0
1070
    74
1070
     0
1000
MTEXTEND
  0
POINT
  5
113C
330
10AC
100
AcDbEntity
  8
Defpoints
 62
     0
100
AcDbPoint
 10
236.6681618774687
 20
301.8188695012474
 30
0.0
  0
POINT
  5
113D
330
10AC
100
AcDbEntity
  8
Defpoints
 62
     0
100
AcDbPoint
 10
250.1681618774687
 20
297.4188695012472
 30
0.0
  0
POINT
  5
113E
330
10AC
100
AcDbEntity
  8
Defpoints
 62
     0
100
AcDbPoint
 10
250.1681618774687
 20
311.8188695012471
 30
0.0
  0
ENDBLK
  5
10B7
330
10AC
100
AcDbEntity
  8
0
100
AcDbBlockEnd
  0
BLOCK
  5
10C2
330
10B8
100
AcDbEntity
  8
0
100
AcDbBlockBegin
  2
*D16
 70
     1
 10
0.0
 20
0.0
 30
0.0
  3
*D16
  1

  0
LINE
  5
113F
330
10B8
100
AcDbEntity
  8
AM_5
100
AcDbLine
 10
236.6681618774687
 20
266.7188695012473
 30
0.0
 11
236.6681618774687
 21
253.7188695012469
 31
0.0
  0
LINE
  5
1140
330
10B8
100
AcDbEntity
  8
AM_5
100
AcDbLine
 10
302.1681618774687
 20
265.7188695012472
 30
0.0
 11
302.1681618774687
 21
253.7188695012469
 31
0.0
  0
LINE
  5
1141
330
10B8
100
AcDbEntity
  8
AM_5
100
AcDbLine
 10
240.8681618774687
 20
255.8188695012469
 30
0.0
 11
297.9681618774687
 21
255.8188695012469
 31
0.0
  0
SOLID
  5
1142
330
10B8
100
AcDbEntity
  8
AM_5
100
AcDbTrace
 10
240.8681618774687
 20
256.5188695012468
 30
0.0
 11
240.8681618774687
 21
255.1188695012469
 31
0.0
 12
236.6681618774687
 22
255.8188695012469
 32
0.0
 13
236.6681618774687
 23
255.8188695012469
 33
0.0
  0
SOLID
  5
1143
330
10B8
100
AcDbEntity
  8
AM_5
100
AcDbTrace
 10
297.9681618774687
 20
256.5188695012468
 30
0.0
 11
297.9681618774687
 21
255.1188695012469
 31
0.0
 12
302.1681618774687
 22
255.8188695012469
 32
0.0
 13
302.1681618774687
 23
255.8188695012469
 33
0.0
  0
MTEXT
  5
1144
330
10B8
100
AcDbEntity
  8
AM_5
100
AcDbMText
 10
269.4181618774687
 20
259.6688695012469
 30
0.0
 40
4.899999999999999
 41
0.0
 71
     5
 72
     1
  1
65.5
 73
     1
 44
1.0
1001
ACAD
1000
MTEXTBEGIN
1070
    73
1070
     1
1070
    44
1040
1.0
1070
    74
1070
     0
1000
MTEXTEND
  0
POINT
  5
1145
330
10B8
100
AcDbEntity
  8
Defpoints
 62
     0
100
AcDbPoint
 10
236.6681618774687
 20
268.8188695012473
 30
0.0
  0
POINT
  5
1146
330
10B8
100
AcDbEntity
  8
Defpoints
 62
     0
100
AcDbPoint
 10
302.1681618774687
 20
267.8188695012472
 30
0.0
  0
POINT
  5
1147
330
10B8
100
AcDbEntity
  8
Defpoints
 62
     0
100
AcDbPoint
 10
302.1681618774687
 20
255.8188695012469
 30
0.0
  0
ENDBLK
  5
10C3
330
10B8
100
AcDbEntity
  8
0
100
AcDbBlockEnd
  0
BLOCK
  5
11A8
330
11A3
100
AcDbEntity
  8
0
100
AcDbBlockBegin
  2
*S18
 70
     1
 10
0.0
 20
0.0
 30
0.0
  3
*S18
  1

  0
LINE
  5
11A4
330
11A3
100
AcDbEntity
  8
AM_5
 62
     5
100
AcDbLine
 10
320.4620281002556
 20
332.0543108457552
 30
0.0
 11
286.9632675125749
 21
332.0543108457552
 31
0.0
  0
LINE
  5
11A5
330
11A3
100
AcDbEntity
  8
AM_5
 62
     5
100
AcDbLine
 10
286.9632675125749
 20
332.0543108457552
 30
0.0
 11
279.6375621927893
 21
341.826857332396
 31
0.0
  0
TRACE
  5
11A6
330
11A3
100
AcDbEntity
  8
AM_5
 62
     5
370
    35
100
AcDbTrace
 10
280.153733886807
 20
342.2137904342193
 30
0.0
 11
279.1213904987716
 21
341.4399242305727
 31
0.0
 12
276.6985134801523
 22
345.7475706175964
 32
0.0
 13
276.6985134801523
 23
345.7475706175964
 33
0.0
  0
MTEXT
  5
11A7
330
11A3
100
AcDbEntity
  8
AM_5
 62
     5
100
AcDbMText
 10
320.4620281002556
 20
339.7016918487509
 30
0.0
 40
4.899999999999999
 41
0.0
 71
     7
 72
     5
  1

  7
ACISOTS
 73
     1
 44
1.0
1001
ACAD
1000
MTEXTBEGIN
1070
    73
1070
     1
1070
    44
1040
1.0
1070
    74
1070
     0
1000
MTEXTEND
  0
ENDBLK
  5
11A9
330
11A3
100
AcDbEntity
  8
0
100
AcDbBlockEnd
  0
BLOCK
  5
11B0
330
11AB
100
AcDbEntity
  8
0
100
AcDbBlockBegin
  2
*S19
 70
     1
 10
0.0
 20
0.0
 30
0.0
  3
*S19
  1

  0
LINE
  5
11AC
330
11AB
100
AcDbEntity
  8
AM_5
 62
     5
100
AcDbLine
 10
305.2907190041596
 20
375.5088988452714
 30
0.0
 11
285.4489031726416
 21
375.5088988452714
 31
0.0
  0
LINE
  5
11AD
330
11AB
100
AcDbEntity
  8
AM_5
 62
     5
100
AcDbLine
 10
285.4489031726416
 20
375.5088988452714
 30
0.0
 11
270.3981832568703
 21
361.5155526458474
 31
0.0
  0
TRACE
  5
11AE
330
11AB
100
AcDbEntity
  8
AM_5
 62
     5
370
    35
100
AcDbTrace
 10
269.9589282430721
 20
361.9879989135276
 30
0.0
 11
270.8374382706684
 21
361.0431063781673
 31
0.0
 12
266.8095975600859
 22
358.1790795533687
 32
0.0
 13
266.8095975600859
 23
358.1790795533687
 33
0.0
  0
MTEXT
  5
11AF
330
11AB
100
AcDbEntity
  8
AM_5
 62
     5
100
AcDbMText
 10
305.2907190041596
 20
382.9158703759544
 30
0.0
 40
4.899999999999999
 41
0.0
 71
     7
 72
     5
  1

  7
ACISOTS
 73
     1
 44
1.0
1001
ACAD
1000
MTEXTBEGIN
1070
    73
1070
     1
1070
    44
1040
1.0
1070
    74
1070
     0
1000
MTEXTEND
  0
ENDBLK
  5
11B1
330
11AB
100
AcDbEntity
  8
0
100
AcDbBlockEnd
  0
BLOCK
  5
11B8
330
11B3
100
AcDbEntity
  8
0
100
AcDbBlockBegin
  2
*S20
 70
     1
 10
0.0
 20
0.0
 30
0.0
  3
*S20
  1

  0
LINE
  5
11B4
330
11B3
100
AcDbEntity
  8
AM_5
 62
     5
100
AcDbLine
 10
316.9440211618032
 20
313.8620958924868
 30
0.0
 11
283.4452605741226
 21
313.8620958924868
 31
0.0
  0
LINE
  5
11B5
330
11B3
100
AcDbEntity
  8
AM_5
 62
     5
100
AcDbLine
 10
283.4452605741226
 20
313.8620958924868
 30
0.0
 11
278.0992724541397
 21
300.2441391439823
 31
0.0
  0
TRACE
  5
11B6
330
11B3
100
AcDbEntity
  8
AM_5
 62
     5
370
    35
100
AcDbTrace
 10
277.4987883786126
 20
300.4798705971873
 30
0.0
 11
278.6997565296667
 21
300.0084076907774
 31
0.0
 12
276.3087142909708
 22
295.6830097373211
 32
0.0
 13
276.3087142909708
 23
295.6830097373211
 33
0.0
  0
MTEXT
  5
11B7
330
11B3
100
AcDbEntity
  8
AM_5
 62
     5
100
AcDbMText
 10
316.9440211618032
 20
321.5094768954826
 30
0.0
 40
4.899999999999999
 41
0.0
 71
     7
 72
     5
  1

  7
ACISOTS
 73
     1
 44
1.0
1001
ACAD
1000
MTEXTBEGIN
1070
    73
1070
     1
1070
    44
1040
1.0
1070
    74
1070
     0
1000
MTEXTEND
  0
ENDBLK
  5
11B9
330
11B3
100
AcDbEntity
  8
0
100
AcDbBlockEnd
  0
BLOCK
  5
11C0
330
11BB
100
AcDbEntity
  8
0
100
AcDbBlockBegin
  2
*S21
 70
     1
 10
0.0
 20
0.0
 30
0.0
  3
*S21
  1

  0
LINE
  5
11BC
330
11BB
100
AcDbEntity
  8
AM_5
 62
     5
100
AcDbLine
 10
314.4827005725578
 20
204.2730990762379
 30
0.0
 11
289.1649543163235
 21
204.2730990762379
 31
0.0
  0
LINE
  5
11BD
330
11BB
100
AcDbEntity
  8
AM_5
 62
     5
100
AcDbLine
 10
289.1649543163235
 20
204.2730990762379
 30
0.0
 11
279.4833615364048
 21
220.9081325807353
 31
0.0
  0
TRACE
  5
11BE
330
11BB
100
AcDbEntity
  8
AM_5
 62
     5
370
    35
100
AcDbTrace
 10
280.0409061426659
 20
221.2326236515228
 30
0.0
 11
278.9258169301437
 21
220.5836415099478
 31
0.0
 12
277.018607139931
 22
225.1431043356662
 32
0.0
 13
277.018607139931
 23
225.1431043356662
 33
0.0
  0
MTEXT
  5
11BF
330
11BB
100
AcDbEntity
  8
AM_5
 62
     5
100
AcDbMText
 10
314.4827005725578
 20
212.5545169999206
 30
0.0
 40
4.899999999999999
 41
0.0
 71
     7
 72
     5
  1

  7
ACISOTS
 73
     1
 44
1.0
1001
ACAD
1000
MTEXTBEGIN
1070
    73
1070
     1
1070
    44
1040
1.0
1070
    74
1070
     0
1000
MTEXTEND
  0
ENDBLK
  5
11C1
330
11BB
100
AcDbEntity
  8
0
100
AcDbBlockEnd
  0
BLOCK
  5
11C8
330
11C3
100
AcDbEntity
  8
0
100
AcDbBlockBegin
  2
*S22
 70
     1
 10
0.0
 20
0.0
 30
0.0
  3
*S22
  1

  0
LINE
  5
11C4
330
11C3
100
AcDbEntity
  8
AM_5
 62
     5
100
AcDbLine
 10
360.6711189632139
 20
310.4603226044091
 30
0.0
 11
342.2924998408895
 21
310.4603226044091
 31
0.0
  0
LINE
  5
11C5
330
11C3
100
AcDbEntity
  8
AM_5
 62
     5
100
AcDbLine
 10
342.2924998408895
 20
310.4603226044091
 30
0.0
 11
338.5868654887721
 21
294.0711139756943
 31
0.0
  0
TRACE
  5
11C6
330
11C3
100
AcDbEntity
  8
AM_5
 62
     5
370
    35
100
AcDbTrace
 10
337.9576511869134
 20
294.2133806454667
 30
0.0
 11
339.2160797906308
 21
293.928847305922
 31
0.0
 12
337.5062428419237
 22
289.2917568332411
 32
0.0
 13
337.5062428419237
 23
289.2917568332411
 33
0.0
  0
MTEXT
  5
11C7
330
11C3
100
AcDbEntity
  8
AM_5
 62
     5
100
AcDbMText
 10
360.6711189632139
 20
320.6165833851891
 30
0.0
 40
4.899999999999999
 41
0.0
 71
     7
 72
     5
  1

  7
ACISOTS
 73
     1
 44
1.0
1001
ACAD
1000
MTEXTBEGIN
1070
    73
1070
     1
1070
    44
1040
1.0
1070
    74
1070
     0
1000
MTEXTEND
  0
ENDBLK
  5
11C9
330
11C3
100
AcDbEntity
  8
0
100
AcDbBlockEnd
  0
ENDSEC
  0
SECTION
  2
ENTITIES
  0
LINE
  5
B70
330
1F
100
AcDbEntity
  8
LOGO
 62
     4
100
AcDbLine
 10
395.5861010608293
 20
180.5960179624436
 30
0.0
 11
176.0437010608292
 21
180.5960179624436
 31
0.0
  0
LWPOLYLINE
  5
B71
330
1F
100
AcDbEntity
  8
LOGO
 62
     4
100
AcDbPolyline
 90
        4
 70
     1
 43
0.0
 10
176.0437010608293
 20
180.5960179624436
 10
395.5861010608293
 20
180.5960179624436
 10
395.5861010608293
 20
404.808302522187
 10
176.0437010608293
 20
404.808302522187
1001
GENIUS_GENREC_14
1002
{
1000
PYDIR
1011
176.0437010608293
1021
404.808302522187
1031
0.0
1002
}
1002
{
1000
PXDIR
1011
395.5861010608293
1021
180.5960179624436
1031
0.0
1002
}
1002
{
1000
PORI
1011
176.0437010608293
1021
180.5960179624436
1031
0.0
1002
}
1002
{
1000
PINS
1011
176.0437010608293
1021
180.5960179624436
1031
0.0
1002
}
1002
{
1000
PINS2
1011
395.5861010608293
1021
404.808302522187
1031
0.0
1002
}
1002
{
1000
C
1070
     1
1002
}
1001
GENIUS_GENODEF_13
1002
{
1000
HIER
1070
     0
1002
}
1002
{
1000
MANEDIT
1070
     0
1002
}
1002
{
1000
NOSEL
1070
     0
1002
}
1002
{
1000
BEHIND
1070
     0
1002
}
1002
{
1000
OTHER
1070
     0
1002
}
1002
{
1000
REACTOR
1002
}
1001
GENIUS_GENOBJ-N-REC_13
1002
{
1000
OWNER
1000
GEN
1002
}
  0
LWPOLYLINE
  5
B72
330
1F
100
AcDbEntity
  8
LOGO
 62
     4
100
AcDbPolyline
 90
        4
 70
     1
 43
0.0
 10
176.0437010608293
 20
180.5960179624436
 10
395.5861010608293
 20
180.5960179624436
 10
395.5861010608293
 20
158.6449568569232
 10
176.0437010608293
 20
158.6449568569232
1001
GENIUS_GENREC_14
1002
{
1000
PYDIR
1011
176.0437010608293
1021
158.6449568569232
1031
0.0
1002
}
1002
{
1000
PXDIR
1011
395.5861010608293
1021
180.5960179624436
1031
0.0
1002
}
1002
{
1000
PORI
1011
176.0437010608293
1021
180.5960179624436
1031
0.0
1002
}
1002
{
1000
PINS
1011
176.0437010608293
1021
180.5960179624436
1031
0.0
1002
}
1002
{
1000
PINS2
1011
395.5861010608293
1021
158.6449568569232
1031
0.0
1002
}
1002
{
1000
C
1070
     1
1002
}
1001
GENIUS_GENOBJ-N-REC_13
1002
{
1000
OWNER
1000
GEN
1002
}
1001
GENIUS_GENODEF_13
1002
{
1000
HIER
1070
     0
1002
}
1002
{
1000
MANEDIT
1070
     0
1002
}
1002
{
1000
NOSEL
1070
     0
1002
}
1002
{
1000
BEHIND
1070
     0
1002
}
1002
{
1000
OTHER
1070
     0
1002
}
1002
{
1000
REACTOR
1002
}
  0
TEXT
  5
B73
330
1F
100
AcDbEntity
  8
LOGO
 62
     7
100
AcDbText
 10
225.6077435601831
 20
170.9796316213381
 30
0.0
 40
2.926808147402715
  1
Order example:
 41
0.8
  7
CHINESET
100
AcDbText
  0
TEXT
  5
B74
330
1F
100
AcDbEntity
  8
LOGO
 62
     7
100
AcDbText
 10
226.132837145546
 20
175.0999714895215
 30
0.0
 40
4.390212221104071
  1
訂購代號：
  7
CHINESET
100
AcDbText
  0
LINE
  5
B75
330
1F
100
AcDbEntity
  8
LOGO
 62
     4
100
AcDbLine
 10
224.3360354929741
 20
158.6449568569231
 30
0.0
 11
224.3360354929741
 21
180.5960179624436
 31
0.0
  0
TEXT
  5
B76
330
1F
100
AcDbEntity
  8
LOGO
  6
Continuous
100
AcDbText
 10
183.9286208818608
 20
162.957209684063
 30
0.0
 40
3.292659165828054
  1
金器工業股份有限公司
  7
CHINESET
100
AcDbText
  0
TEXT
  5
B77
330
1F
100
AcDbEntity
  8
LOGO
  6
Continuous
100
AcDbText
 10
177.8806574147262
 20
159.6639054151929
 30
0.0
 40
2.195106110552035
  1
MINDMAN INDUSTRIAL CO., LTD.
 41
0.85
  7
CHINESET
100
AcDbText
  0
LINE
  5
B78
330
1F
100
AcDbEntity
  8
LOGO
 62
     4
100
AcDbLine
 10
224.3360354929741
 20
176.2058057413398
 30
0.0
 11
192.1411458715441
 21
176.2058057413398
 31
0.0
  0
LINE
  5
B79
330
1F
100
AcDbEntity
  8
LOGO
 62
     4
100
AcDbLine
 10
224.3360354929741
 20
171.8155935202354
 30
0.0
 11
192.1411458715441
 21
171.8155935202354
 31
0.0
  0
LINE
  5
B7A
330
1F
100
AcDbEntity
  8
LOGO
 62
     4
100
AcDbLine
 10
224.3360354929741
 20
167.4253812991318
 30
0.0
 11
176.0437010608292
 21
167.4253812991318
 31
0.0
  0
LINE
  5
B7B
330
1F
100
AcDbEntity
  8
LOGO
 62
     4
100
AcDbLine
 10
192.1411458715441
 20
167.4253812991318
 30
0.0
 11
192.1411458715441
 21
180.5960179624436
 31
0.0
  0
TEXT
  5
B7C
330
1F
100
AcDbEntity
  8
LOGO
100
AcDbText
 10
214.1448333521474
 20
168.5229343544072
 30
0.0
 40
2.195106110552035
  1
mm
  7
CHINESET
 72
     1
 11
216.8625837747356
 21
169.6204874096832
 31
0.0
100
AcDbText
 73
     2
  0
TEXT
  5
B7D
330
1F
100
AcDbEntity
  8
LOGO
100
AcDbText
 10
212.9950158656677
 20
177.3033587966153
 30
0.0
 40
2.195106110552035
  1
1 : 1
  7
CHINESET
 72
     1
 11
216.8625837747356
 21
178.4009118518913
 31
0.0
100
AcDbText
 73
     2
  0
LINE
  5
B7E
330
1F
100
AcDbEntity
  8
LOGO
 62
     4
100
AcDbLine
 10
209.7019947559603
 20
167.4253812991318
 30
0.0
 11
209.7019947559603
 21
180.5960179624436
 31
0.0
  0
TEXT
  5
B7F
330
1F
100
AcDbEntity
  8
LOGO
100
AcDbText
 10
193.9511284546644
 20
177.3044390653705
 30
143.8636382595158
 40
2.195106110552035
  1
比例 Scale:
 41
0.9
  7
CHINESET
 72
     4
 11
200.9215703137522
 21
178.4009118518913
 31
143.8636382595158
100
AcDbText
  0
TEXT
  5
B80
330
1F
100
AcDbEntity
  8
LOGO
100
AcDbText
 10
193.8247138616907
 20
172.9440242574308
 30
143.8636382595158
 40
2.195106110552035
  1
投影  View:
 41
0.9
  7
CHINESET
 72
     4
 11
200.9215703137522
 21
174.0106996307875
 31
143.8636382595158
100
AcDbText
  0
TEXT
  5
B81
330
1F
100
AcDbEntity
  8
LOGO
100
AcDbText
 10
194.0393246823205
 20
168.5229343544072
 30
143.8636382595158
 40
2.195106110552035
  1
單位  Unit:
 41
0.9
  7
CHINESET
 72
     4
 11
200.9215703137522
 21
169.6204874096832
 31
143.8636382595158
100
AcDbText
  0
SOLID
  5
B82
330
1F
100
AcDbEntity
  8
LOGO
 62
     5
100
AcDbTrace
 10
178.3211588793003
 20
171.0744327591735
 30
0.0
 11
179.2702651619187
 21
171.0744327591729
 31
0.0
 12
183.2303293066366
 22
180.0745785426233
 32
0.0
 13
184.1794355892553
 23
180.0745785426228
 33
0.0
  0
SOLID
  5
B83
330
1F
100
AcDbEntity
  8
LOGO
 62
     5
100
AcDbTrace
 10
179.6629987961066
 20
171.0744327591735
 30
0.0
 11
180.6121050787249
 21
171.0744327591735
 31
0.0
 12
184.1794355892553
 22
179.354566879947
 32
0.0
 13
183.2303293066366
 23
175.8745105103463
 33
0.0
  0
SOLID
  5
B84
330
1F
100
AcDbEntity
  8
LOGO
 62
     2
100
AcDbTrace
 10
179.2702651619187
 20
171.0744327591729
 30
0.0
 11
179.6629987961066
 21
171.0744327591735
 31
0.0
 12
184.1794355892553
 22
180.0745785426228
 32
0.0
 13
184.5721692234427
 23
180.0745785426228
 33
0.0
  0
SOLID
  5
B85
330
1F
100
AcDbEntity
  8
LOGO
 62
     5
100
AcDbTrace
 10
176.7995087588925
 20
167.8016524742829
 30
0.0
 11
177.1267867873819
 21
167.8016524742829
 31
0.0
 12
178.0484271888931
 22
169.4380426167276
 32
0.0
 13
178.3757052173817
 23
169.4380426167276
 33
0.0
  0
SOLID
  5
B86
330
1F
100
AcDbEntity
  8
LOGO
 62
     5
100
AcDbTrace
 10
178.0484271888931
 20
169.4380426167276
 30
0.0
 11
178.3757052173817
 21
169.4380426167276
 31
0.0
 12
178.0484271888931
 22
167.8016524742829
 32
0.0
 13
178.3757052173817
 23
167.8016524742829
 33
0.0
  0
SOLID
  5
B87
330
1F
100
AcDbEntity
  8
LOGO
 62
     5
100
AcDbTrace
 10
178.0484271888931
 20
167.8016524742829
 30
0.0
 11
178.3757052173817
 21
167.8016524742829
 31
0.0
 12
179.2973456188943
 22
169.4380426167276
 32
0.0
 13
179.6246236473832
 23
169.4380426167276
 33
0.0
  0
SOLID
  5
B88
330
1F
100
AcDbEntity
  8
LOGO
 62
     5
100
AcDbTrace
 10
179.2973456188943
 20
169.4380426167276
 30
0.0
 11
179.6246236473832
 21
169.4380426167276
 31
0.0
 12
179.2973456188943
 22
167.8016524742829
 32
0.0
 13
179.6246236473832
 23
167.8016524742829
 33
0.0
  0
POLYLINE
  5
B89
330
1F
100
AcDbEntity
  8
LOGO
 62
     5
100
AcDb2dPolyline
 66
     1
 10
0.0
 20
0.0
 30
0.0
 40
0.327802512509104
 41
0.327802512509104
  0
VERTEX
  5
B8A
330
B89
100
AcDbEntity
  8
LOGO
 62
     5
100
AcDbVertex
100
AcDb2dVertex
 10
190.2675936451829
 20
168.78348655975
 30
0.0
 42
1.0
  0
VERTEX
  5
B8B
330
B89
100
AcDbEntity
  8
LOGO
 62
     5
100
AcDbVertex
100
AcDb2dVertex
 10
189.2841861076554
 20
168.78348655975
 30
0.0
 42
1.0
  0
SEQEND
  5
B8C
330
B89
100
AcDbEntity
  8
LOGO
 62
     5
  0
POLYLINE
  5
B8D
330
1F
100
AcDbEntity
  8
LOGO
 62
     5
100
AcDb2dPolyline
 66
     1
 10
0.0
 20
0.0
 30
0.0
 70
     1
  0
VERTEX
  5
B8E
330
B8D
100
AcDbEntity
  8
LOGO
 62
     5
100
AcDbVertex
100
AcDb2dVertex
 10
187.4304191574485
 20
168.6198475455048
 30
0.0
 42
1.000000057330635
  0
VERTEX
  5
B8F
330
B8D
100
AcDbEntity
  8
LOGO
 62
     5
100
AcDbVertex
100
AcDb2dVertex
 10
188.4122532429159
 20
168.6198475455048
 30
0.0
 42
1.000000057330635
  0
SEQEND
  5
B90
330
B8D
100
AcDbEntity
  8
LOGO
 62
     5
  0
CIRCLE
  5
B91
330
1F
100
AcDbEntity
  8
LOGO
 62
     5
100
AcDbCircle
 10
187.921336200183
 20
168.6198475455048
 30
0.0
 40
0.4909170427336342
  0
POLYLINE
  5
B92
330
1F
100
AcDbEntity
  8
LOGO
 62
     5
100
AcDb2dPolyline
 66
     1
 10
0.0
 20
0.0
 30
0.0
 70
     1
 40
0.327802512509104
 41
0.327802512509104
  0
VERTEX
  5
B93
330
B92
100
AcDbEntity
  8
LOGO
 62
     5
100
AcDbVertex
100
AcDb2dVertex
 10
187.2657311751643
 20
168.6198475455048
 30
0.0
 42
1.0
  0
VERTEX
  5
B94
330
B92
100
AcDbEntity
  8
LOGO
 62
     5
100
AcDbVertex
100
AcDb2dVertex
 10
188.5769412252007
 20
168.6198475455048
 30
0.0
 42
1.0
  0
SEQEND
  5
B95
330
B92
100
AcDbEntity
  8
LOGO
 62
     5
  0
LINE
  5
B96
330
1F
100
AcDbEntity
  8
LOGO
100
AcDbLine
 10
190.4304459333967
 20
167.8016524742829
 30
0.0
 11
190.4304459333967
 21
168.78348655975
 31
0.0
  0
SOLID
  5
B97
330
1F
100
AcDbEntity
  8
LOGO
 62
     5
100
AcDbTrace
 10
188.4122205151144
 20
169.4380426167276
 30
0.0
 11
188.7394985436028
 21
169.4380426167276
 31
0.0
 12
188.4122205151144
 22
167.8016524742829
 32
0.0
 13
188.7394985436028
 23
167.8016524742829
 33
0.0
  0
SOLID
  5
B98
330
1F
100
AcDbEntity
  8
LOGO
 62
     5
100
AcDbTrace
 10
189.1213338194405
 20
167.8016524742829
 30
0.0
 11
189.4486118479299
 21
167.8016524742829
 31
0.0
 12
189.1213338194405
 22
169.4380426167276
 32
0.0
 13
189.4486118479299
 23
169.4380426167276
 33
0.0
  0
SOLID
  5
B99
330
1F
100
AcDbEntity
  8
LOGO
 62
     5
100
AcDbTrace
 10
190.1031679049083
 20
168.78348655975
 30
0.0
 11
190.4304459333967
 21
168.78348655975
 31
0.0
 12
190.1031679049083
 22
167.8016524742829
 32
0.0
 13
190.4304459333967
 23
167.8016524742829
 33
0.0
  0
SOLID
  5
B9A
330
1F
100
AcDbEntity
  8
LOGO
 62
     5
100
AcDbTrace
 10
189.0886060165916
 20
179.354566879947
 30
0.0
 11
188.1394997339737
 21
175.8745105103463
 31
0.0
 12
189.0886060165916
 22
171.0744327591729
 32
0.0
 13
188.1394997339737
 23
171.0744327591729
 33
0.0
  0
SOLID
  5
B9B
330
1F
100
AcDbEntity
  8
LOGO
 62
     5
100
AcDbTrace
 10
189.481339650779
 20
171.0744327591729
 30
0.0
 11
190.4304459333967
 21
171.0744327591729
 31
0.0
 12
189.481339650779
 22
180.0745785426228
 32
0.0
 13
190.4304459333967
 23
180.0745785426233
 33
0.0
  0
SOLID
  5
B9C
330
1F
100
AcDbEntity
  8
LOGO
 62
     2
100
AcDbTrace
 10
189.0886060165916
 20
180.0745785426233
 30
0.0
 11
189.481339650779
 21
180.0745785426228
 31
0.0
 12
189.0886060165916
 22
171.0744327591729
 32
0.0
 13
189.481339650779
 23
171.0744327591729
 33
0.0
  0
POLYLINE
  5
B9D
330
1F
100
AcDbEntity
  8
LOGO
 62
     5
100
AcDb2dPolyline
 66
     1
 10
0.0
 20
0.0
 30
0.0
 40
0.327802512509104
 41
0.327802512509104
  0
VERTEX
  5
B9E
330
B9D
100
AcDbEntity
  8
LOGO
 62
     5
100
AcDbVertex
100
AcDb2dVertex
 10
185.5765867516375
 20
168.78348655975
 30
0.0
 42
1.0
  0
VERTEX
  5
B9F
330
B9D
100
AcDbEntity
  8
LOGO
 62
     5
100
AcDbVertex
100
AcDb2dVertex
 10
184.59317921411
 20
168.78348655975
 30
0.0
 42
1.0
  0
SEQEND
  5
BA0
330
B9D
100
AcDbEntity
  8
LOGO
 62
     5
  0
POLYLINE
  5
BA1
330
1F
100
AcDbEntity
  8
LOGO
 62
     5
100
AcDb2dPolyline
 66
     1
 10
0.0
 20
0.0
 30
0.0
 40
0.327802512509104
 41
0.327802512509104
  0
VERTEX
  5
BA2
330
BA1
100
AcDbEntity
  8
LOGO
 62
     5
100
AcDbVertex
100
AcDb2dVertex
 10
186.5584208371038
 20
168.78348655975
 30
0.0
 42
1.0
  0
VERTEX
  5
BA3
330
BA1
100
AcDbEntity
  8
LOGO
 62
     5
100
AcDbVertex
100
AcDb2dVertex
 10
185.5750132995769
 20
168.78348655975
 30
0.0
 42
1.0
  0
SEQEND
  5
BA4
330
BA1
100
AcDbEntity
  8
LOGO
 62
     5
  0
POLYLINE
  5
BA5
330
1F
100
AcDbEntity
  8
LOGO
 62
     5
100
AcDb2dPolyline
 66
     1
 10
0.0
 20
0.0
 30
0.0
 40
0.327802512509104
 41
0.327802512509104
  0
VERTEX
  5
BA6
330
BA5
100
AcDbEntity
  8
LOGO
 62
     5
100
AcDbVertex
100
AcDb2dVertex
 10
181.8674139435583
 20
168.78348655975
 30
0.0
 42
1.0
  0
VERTEX
  5
BA7
330
BA5
100
AcDbEntity
  8
LOGO
 62
     5
100
AcDbVertex
100
AcDb2dVertex
 10
180.8840064060314
 20
168.78348655975
 30
0.0
 42
1.0
  0
SEQEND
  5
BA8
330
BA5
100
AcDbEntity
  8
LOGO
 62
     5
  0
SOLID
  5
BA9
330
1F
100
AcDbEntity
  8
LOGO
 62
     5
100
AcDbTrace
 10
180.721154117817
 20
169.4380426167276
 30
0.0
 11
181.0484321463053
 21
169.4380426167276
 31
0.0
 12
180.721154117817
 22
167.8016524742829
 32
0.0
 13
181.0484321463053
 23
167.8016524742829
 33
0.0
  0
SOLID
  5
BAA
330
1F
100
AcDbEntity
  8
LOGO
 62
     5
100
AcDbTrace
 10
181.7029882032843
 20
168.78348655975
 30
0.0
 11
182.0302662317738
 21
168.78348655975
 31
0.0
 12
181.7029882032843
 22
167.8016524742829
 32
0.0
 13
182.0302662317738
 23
167.8016524742829
 33
0.0
  0
POLYLINE
  5
BAB
330
1F
100
AcDbEntity
  8
LOGO
 62
     5
100
AcDb2dPolyline
 66
     1
 10
0.0
 20
0.0
 30
0.0
 70
     1
 40
0.327802512509104
 41
0.327802512509104
  0
VERTEX
  5
BAC
330
BAB
100
AcDbEntity
  8
LOGO
 62
     5
100
AcDbVertex
100
AcDb2dVertex
 10
182.5747242816184
 20
168.6198475455048
 30
0.0
 42
1.0
  0
VERTEX
  5
BAD
330
BAB
100
AcDbEntity
  8
LOGO
 62
     5
100
AcDbVertex
100
AcDb2dVertex
 10
183.8859343316552
 20
168.6198475455048
 30
0.0
 42
1.0
  0
SEQEND
  5
BAE
330
BAB
100
AcDbEntity
  8
LOGO
 62
     5
  0
SOLID
  5
BAF
330
1F
100
AcDbEntity
  8
LOGO
 62
     5
100
AcDbTrace
 10
183.721213621568
 20
169.9289596594618
 30
0.0
 11
184.0484916500569
 21
169.9289596594618
 31
0.0
 12
183.721213621568
 22
167.8016524742829
 32
0.0
 13
184.0484916500569
 23
167.8016524742829
 33
0.0
  0
SOLID
  5
BB0
330
1F
100
AcDbEntity
  8
LOGO
 62
     5
100
AcDbTrace
 10
184.430326925896
 20
169.4380426167276
 30
0.0
 11
184.7576049543845
 21
169.4380426167276
 31
0.0
 12
184.430326925896
 22
167.8016524742829
 32
0.0
 13
184.7576049543845
 23
167.8016524742829
 33
0.0
  0
SOLID
  5
BB1
330
1F
100
AcDbEntity
  8
LOGO
 62
     5
100
AcDbTrace
 10
185.4121610113624
 20
168.78348655975
 30
0.0
 11
185.7394390398518
 21
168.78348655975
 31
0.0
 12
185.4121610113624
 22
167.8016524742829
 32
0.0
 13
185.7394390398518
 23
167.8016524742829
 33
0.0
  0
SOLID
  5
BB2
330
1F
100
AcDbEntity
  8
LOGO
 62
     5
100
AcDbTrace
 10
186.3939950968297
 20
168.78348655975
 30
0.0
 11
186.7212731253186
 21
168.78348655975
 31
0.0
 12
186.3939950968297
 22
167.8016524742822
 32
0.0
 13
186.7212731253186
 23
167.8016524742822
 33
0.0
  0
SOLID
  5
BB3
330
1F
100
AcDbEntity
  8
LOGO
 62
     5
100
AcDbTrace
 10
180.0120408134894
 20
169.6671372366703
 30
0.0
 11
180.3393188419794
 21
169.6671372366703
 31
0.0
 12
180.0120408134894
 22
169.9289596594618
 32
0.0
 13
180.3393188419794
 23
169.9289596594618
 33
0.0
  0
SOLID
  5
BB4
330
1F
100
AcDbEntity
  8
LOGO
 62
     5
100
AcDbTrace
 10
180.0120408134894
 20
169.4380426167276
 30
0.0
 11
180.3393188419794
 21
169.4380426167276
 31
0.0
 12
180.0120408134894
 22
167.8016524742822
 32
0.0
 13
180.3393188419794
 23
167.8016524742829
 33
0.0
  0
SOLID
  5
BB5
330
1F
100
AcDbEntity
  8
LOGO
 62
     5
100
AcDbTrace
 10
183.2303293066366
 20
171.0744327591735
 30
0.0
 11
184.1794355892553
 21
171.0744327591735
 31
0.0
 12
183.2303293066366
 22
175.8745105103463
 32
0.0
 13
184.1794355892553
 23
179.354566879947
 33
0.0
  0
SOLID
  5
BB6
330
1F
100
AcDbEntity
  8
LOGO
 62
     5
100
AcDbTrace
 10
184.5721692234427
 20
180.0745785426228
 30
0.0
 11
185.5212755060607
 21
180.0745785426233
 31
0.0
 12
184.5721692234427
 22
171.7944444218494
 32
0.0
 13
185.5212755060607
 23
175.2745007914502
 33
0.0
  0
SOLID
  5
BB7
330
1F
100
AcDbEntity
  8
LOGO
 62
     2
100
AcDbTrace
 10
184.1794355892553
 20
180.0745785426228
 30
0.0
 11
184.5721692234427
 21
180.0745785426228
 31
0.0
 12
184.1794355892553
 22
171.0744327591735
 32
0.0
 13
184.5721692234427
 23
171.0744327591735
 33
0.0
  0
SOLID
  5
BB8
330
1F
100
AcDbEntity
  8
LOGO
 62
     5
100
AcDbTrace
 10
184.5721692234427
 20
171.7944444218494
 30
0.0
 11
185.5212755060607
 21
175.2745007914502
 31
0.0
 12
189.0886060165916
 22
180.0745785426233
 32
0.0
 13
188.1394997339737
 23
180.0745785426233
 33
0.0
  0
SOLID
  5
BB9
330
1F
100
AcDbEntity
  8
LOGO
 62
     5
100
AcDbTrace
 10
184.5721692234427
 20
171.0744327591735
 30
0.0
 11
185.5212755060607
 21
171.0744327591735
 31
0.0
 12
189.0886060165916
 22
179.354566879947
 32
0.0
 13
188.1394997339737
 23
175.8745105103463
 33
0.0
  0
SOLID
  5
BBA
330
1F
100
AcDbEntity
  8
LOGO
 62
     2
100
AcDbTrace
 10
184.1794355892553
 20
171.0744327591735
 30
0.0
 11
184.5721692234427
 21
171.0744327591735
 31
0.0
 12
189.0886060165916
 22
180.0745785426233
 32
0.0
 13
189.481339650779
 23
180.0745785426228
 33
0.0
  0
LINE
  5
BBB
330
1F
100
AcDbEntity
  8
LOGO
 62
     4
100
AcDbLine
 10
264.9385819322711
 20
168.522934354408
 30
0.0
 11
264.9385819322711
 21
160.4742119490496
 31
0.0
  0
LINE
  5
BBC
330
1F
100
AcDbEntity
  8
LOGO
 62
     4
100
AcDbLine
 10
254.5287458060683
 20
168.522934354408
 30
0.0
 11
254.5287458060683
 21
160.4742119490496
 31
0.0
  0
LINE
  5
BBD
330
1F
100
AcDbEntity
  8
LOGO
 62
     4
100
AcDbLine
 10
264.9385819322711
 20
160.4742119490496
 30
0.0
 11
254.5287458060683
 21
160.4742119490496
 31
0.0
  0
LINE
  5
BBE
330
1F
100
AcDbEntity
  8
LOGO
 62
     4
100
AcDbLine
 10
271.9446042836822
 20
178.4009118518913
 30
0.0
 11
254.5287458060683
 21
178.4009118518913
 31
0.0
  0
LINE
  5
BBF
330
1F
100
AcDbEntity
  8
LOGO
 62
     4
100
AcDbLine
 10
271.9446042836822
 20
171.8155935202354
 30
0.0
 11
254.5287458060683
 21
171.8155935202354
 31
0.0
  0
LINE
  5
BC0
330
1F
100
AcDbEntity
  8
LOGO
 62
     4
100
AcDbLine
 10
254.5287458060683
 20
178.4009118518913
 30
0.0
 11
254.5287458060683
 21
171.8155935202354
 31
0.0
  0
LINE
  5
BC1
330
1F
100
AcDbEntity
  8
LOGO
 62
     4
100
AcDbLine
 10
271.9446042836822
 20
178.4009118518913
 30
0.0
 11
271.9446042836822
 21
171.8155935202354
 31
0.0
  0
LINE
  5
BC2
330
1F
100
AcDbEntity
  8
LOGO
 62
     4
100
AcDbLine
 10
262.6092955393378
 20
171.8155935202354
 30
0.0
 11
262.6092955393378
 21
168.522934354408
 31
0.0
  0
TEXT
  5
BC3
330
1F
100
AcDbEntity
  8
LOGO
  6
Continuous
 62
     7
100
AcDbText
 10
255.6988537382707
 20
173.1902690942346
 30
0.0
 40
3.841992000000001
  1
MVAA
  7
CHINESET
100
AcDbText
  0
LINE
  5
BC4
330
1F
100
AcDbEntity
  8
LOGO
 62
     4
100
AcDbLine
 10
264.9385819322711
 20
168.522934354408
 30
0.0
 11
254.5287458060683
 21
168.522934354408
 31
0.0
  0
TEXT
  5
BC5
330
1F
100
AcDbEntity
  8
LOGO
  6
Continuous
100
AcDbText
 10
256.4208718779584
 20
161.6102720488536
 30
143.8636382595158
 40
1.646567999999999
  1
Model
 41
0.8
  7
CHINESET
100
AcDbText
  0
TEXT
  5
BC6
330
1F
100
AcDbEntity
  8
LOGO
100
AcDbText
 10
255.9826090029917
 20
164.662654260123
 30
143.8636382595158
 40
2.74428
  1
型號
  7
CHINESET
100
AcDbText
  0
LINE
  5
BC7
330
1F
100
AcDbEntity
  8
LOGO
  6
Continuous
 62
     7
100
AcDbLine
 10
272.6446780492441
 20
175.0849264478064
 30
0.0
 11
275.5525143369143
 21
175.0849264478064
 31
0.0
  0
LINE
  5
BC8
330
1F
100
AcDbEntity
  8
LOGO
 62
     4
100
AcDbLine
 10
279.9870035972016
 20
168.522934354408
 30
0.0
 11
279.9870035972016
 21
160.4742119490496
 31
0.0
  0
LINE
  5
BC9
330
1F
100
AcDbEntity
  8
LOGO
 62
     4
100
AcDbLine
 10
266.6534833579155
 20
168.522934354408
 30
0.0
 11
266.6534833579155
 21
160.4742119490496
 31
0.0
  0
LINE
  5
BCA
330
1F
100
AcDbEntity
  8
LOGO
 62
     4
100
AcDbLine
 10
279.9870035972016
 20
160.4742119490496
 30
0.0
 11
266.6534833579155
 21
160.4742119490496
 31
0.0
  0
LINE
  5
BCB
330
1F
100
AcDbEntity
  8
LOGO
 62
     4
100
AcDbLine
 10
284.3688643045852
 20
178.4009118518913
 30
0.0
 11
276.4697834044762
 21
178.4009118518913
 31
0.0
  0
LINE
  5
BCC
330
1F
100
AcDbEntity
  8
LOGO
 62
     4
100
AcDbLine
 10
284.3688643045852
 20
171.8155935202354
 30
0.0
 11
276.4697834044762
 21
171.8155935202354
 31
0.0
  0
LINE
  5
BCD
330
1F
100
AcDbEntity
  8
LOGO
 62
     4
100
AcDbLine
 10
276.4697834044762
 20
178.4009118518913
 30
0.0
 11
276.4697834044762
 21
171.8155935202354
 31
0.0
  0
LINE
  5
BCE
330
1F
100
AcDbEntity
  8
LOGO
 62
     4
100
AcDbLine
 10
284.3688643045852
 20
178.4009118518913
 30
0.0
 11
284.3688643045852
 21
171.8155935202354
 31
0.0
  0
LINE
  5
BCF
330
1F
100
AcDbEntity
  8
LOGO
 62
     4
100
AcDbLine
 10
280.4193238545308
 20
171.8155935202354
 30
0.0
 11
280.4193238545308
 21
170.1692639373217
 31
0.0
  0
TEXT
  5
BD0
330
1F
100
AcDbEntity
  8
LOGO
  6
Continuous
 62
     7
100
AcDbText
 10
277.5402718167752
 20
173.1902690942346
 30
0.0
 40
3.841992000000001
  1
220
  7
CHINESET
100
AcDbText
  0
LINE
  5
BD1
330
1F
100
AcDbEntity
  8
LOGO
 62
     4
100
AcDbLine
 10
279.9870035972016
 20
168.522934354408
 30
0.0
 11
266.6534833579155
 21
168.522934354408
 31
0.0
  0
LINE
  5
BD2
330
1F
100
AcDbEntity
  8
LOGO
  6
Continuous
 62
     7
100
AcDbLine
 10
288.821743994466
 20
175.0849264478064
 30
0.0
 11
291.7295802821365
 21
175.0849264478064
 31
0.0
  0
LINE
  5
BD3
330
1F
100
AcDbEntity
  8
LOGO
 62
     4
100
AcDbLine
 10
292.7653141081541
 20
168.522934354408
 30
0.0
 11
292.7653141081541
 21
160.4742119490496
 31
0.0
  0
LINE
  5
BD4
330
1F
100
AcDbEntity
  8
LOGO
 62
     4
100
AcDbLine
 10
281.7725931537486
 20
168.522934354408
 30
0.0
 11
281.7725931537486
 21
160.4742119490496
 31
0.0
  0
LINE
  5
BD5
330
1F
100
AcDbEntity
  8
LOGO
 62
     4
100
AcDbLine
 10
292.7653141081541
 20
160.4742119490496
 30
0.0
 11
281.7725931537486
 21
160.4742119490496
 31
0.0
  0
LINE
  5
BD6
330
1F
100
AcDbEntity
  8
LOGO
 62
     4
100
AcDbLine
 10
297.3216561717564
 20
178.4009118518913
 30
0.0
 11
292.6468493496983
 21
178.4009118518913
 31
0.0
  0
LINE
  5
BD7
330
1F
100
AcDbEntity
  8
LOGO
 62
     4
100
AcDbLine
 10
297.3216561717564
 20
171.8155935202354
 30
0.0
 11
292.6468493496983
 21
171.8155935202354
 31
0.0
  0
LINE
  5
BD8
330
1F
100
AcDbEntity
  8
LOGO
 62
     4
100
AcDbLine
 10
292.6468493496983
 20
178.4009118518913
 30
0.0
 11
292.6468493496983
 21
171.8155935202354
 31
0.0
  0
LINE
  5
BD9
330
1F
100
AcDbEntity
  8
LOGO
 62
     4
100
AcDbLine
 10
297.3216561717564
 20
178.4009118518913
 30
0.0
 11
297.3216561717564
 21
171.8155935202354
 31
0.0
  0
LINE
  5
BDA
330
1F
100
AcDbEntity
  8
LOGO
 62
     4
100
AcDbLine
 10
294.9842527607273
 20
171.8155935202354
 30
0.0
 11
294.9842527607273
 21
170.1692639373217
 31
0.0
  0
TEXT
  5
BDB
330
1F
100
AcDbEntity
  8
LOGO
  6
Continuous
 62
     7
100
AcDbText
 10
293.5233376105123
 20
173.1902690942346
 30
0.0
 40
3.841992000000001
  1
3
  7
CHINESET
100
AcDbText
  0
LINE
  5
BDC
330
1F
100
AcDbEntity
  8
LOGO
 62
     4
100
AcDbLine
 10
292.7653141081541
 20
168.522934354408
 30
0.0
 11
281.7725931537486
 21
168.522934354408
 31
0.0
  0
LINE
  5
BDD
330
1F
100
AcDbEntity
  8
LOGO
 62
     4
100
AcDbLine
 10
315.2655177238955
 20
168.522934354408
 30
0.0
 11
315.2655177238955
 21
160.4742119490496
 31
0.0
  0
LINE
  5
BDE
330
1F
100
AcDbEntity
  8
LOGO
 62
     4
100
AcDbLine
 10
294.9946803946523
 20
168.522934354408
 30
0.0
 11
294.9946803946523
 21
160.4742119490496
 31
0.0
  0
LINE
  5
BDF
330
1F
100
AcDbEntity
  8
LOGO
 62
     4
100
AcDbLine
 10
315.2655177238955
 20
160.4742119490496
 30
0.0
 11
294.9946803946523
 21
160.4742119490496
 31
0.0
  0
LINE
  5
BE0
330
1F
100
AcDbEntity
  8
LOGO
 62
     4
100
AcDbLine
 10
307.2990147010667
 20
178.4009118518913
 30
0.0
 11
298.6107202692081
 21
178.4009118518913
 31
0.0
  0
LINE
  5
BE1
330
1F
100
AcDbEntity
  8
LOGO
 62
     4
100
AcDbLine
 10
307.2990147010667
 20
171.8155935202354
 30
0.0
 11
298.6107202692081
 21
171.8155935202354
 31
0.0
  0
LINE
  5
BE2
330
1F
100
AcDbEntity
  8
LOGO
 62
     4
100
AcDbLine
 10
298.6107202692081
 20
178.4009118518913
 30
0.0
 11
298.6107202692081
 21
171.8155935202354
 31
0.0
  0
LINE
  5
BE3
330
1F
100
AcDbEntity
  8
LOGO
 62
     4
100
AcDbLine
 10
307.2990147010667
 20
178.4009118518913
 30
0.0
 11
307.2990147010667
 21
171.8155935202354
 31
0.0
  0
LINE
  5
BE4
330
1F
100
AcDbEntity
  8
LOGO
 62
     4
100
AcDbLine
 10
302.9548674851376
 20
171.8155935202354
 30
0.0
 11
302.9548674851376
 21
168.522934354408
 31
0.0
  0
TEXT
  5
BE5
330
1F
100
AcDbEntity
  8
LOGO
  6
Continuous
 62
     7
100
AcDbText
 10
299.5393158984378
 20
173.1902690942346
 30
0.0
 40
3.841992000000001
  1
A1
  7
CHINESET
100
AcDbText
  0
LINE
  5
BE6
330
1F
100
AcDbEntity
  8
LOGO
 62
     4
100
AcDbLine
 10
315.2655177238955
 20
168.522934354408
 30
0.0
 11
294.9946803946523
 21
168.522934354408
 31
0.0
  0
TEXT
  5
BE7
330
1F
100
AcDbEntity
  8
LOGO
  6
Continuous
100
AcDbText
 10
267.6996559663631
 20
161.6102720488536
 30
143.8636382595158
 40
1.646567999999999
  1
Body width
 41
0.8
  7
CHINESET
100
AcDbText
  0
TEXT
  5
BE8
330
1F
100
AcDbEntity
  8
LOGO
100
AcDbText
 10
267.6841447255171
 20
164.662654260123
 30
143.8636382595158
 40
2.74428
  1
本體寬度
  7
CHINESET
100
AcDbText
  0
TEXT
  5
BE9
330
1F
100
AcDbEntity
  8
LOGO
  6
Continuous
100
AcDbText
 10
283.9759075930392
 20
161.6102720488536
 30
143.8636382595158
 40
1.646567999999999
  1
3 Way
 41
0.8
  7
CHINESET
100
AcDbText
  0
TEXT
  5
BEA
330
1F
100
AcDbEntity
  8
LOGO
100
AcDbText
 10
283.2318265019797
 20
164.662654260123
 30
143.8636382595158
 40
2.74428
  1
3方向
  7
CHINESET
100
AcDbText
  0
TEXT
  5
BEB
330
1F
100
AcDbEntity
  8
LOGO
  6
Continuous
100
AcDbText
 10
296.1885533412344
 20
161.6102720488536
 30
143.8636382595158
 40
1.646567999999999
  1
Single air operate
 41
0.8
  7
CHINESET
100
AcDbText
  0
TEXT
  5
BEC
330
1F
100
AcDbEntity
  8
LOGO
100
AcDbText
 10
296.2534933533956
 20
164.662654260123
 30
143.8636382595158
 40
2.74428
  1
單動氣壓引導
  7
CHINESET
100
AcDbText
  0
TEXT
  5
BED
330
1F
100
AcDbEntity
  8
LOGO
100
AcDbText
 10
225.353104729903
 20
159.812744643792
 30
0.0
 40
2.195424
  1
10710030
 41
0.7
  7
CHINESET
 72
     1
 11
230.695303129903
 21
159.812744643792
 31
0.0
100
AcDbText
  0
LINE
  5
BEE
330
1F
100
AcDbEntity
  8
LOGO
 62
     4
100
AcDbLine
 10
237.5085794929732
 20
163.0351690780278
 30
0.0
 11
237.5085794929741
 21
158.6449568569237
 31
0.0
  0
LINE
  5
BEF
330
1F
100
AcDbEntity
  8
LOGO
 62
     4
100
AcDbLine
 10
237.5085794929732
 20
163.0351690780278
 30
0.0
 11
224.3360354929741
 21
163.0351690780278
 31
0.0
  0
CIRCLE
  5
BF0
330
1F
100
AcDbEntity
  8
LOGO
  6
Continuous
100
AcDbCircle
 10
213.7665082791796
 20
174.0153949788214
 30
0.0
 40
1.274530274760121
  0
CIRCLE
  5
BF1
330
1F
100
AcDbEntity
  8
LOGO
  6
Continuous
100
AcDbCircle
 10
213.7665082791796
 20
174.0153949788214
 30
0.0
 40
0.74676191322785
  0
LINE
  5
BF2
330
1F
100
AcDbEntity
  8
LOGO
100
AcDbLine
 10
221.7758044160112
 20
172.740864704061
 30
0.0
 11
221.7758044160112
 21
175.2899252535819
 31
0.0
  0
LINE
  5
BF3
330
1F
100
AcDbEntity
  8
LOGO
100
AcDbLine
 10
217.7802251661671
 20
173.2686330655938
 30
0.0
 11
217.7802251661671
 21
174.7621568920495
 31
0.0
  0
LINE
  5
BF4
330
1F
100
AcDbEntity
  8
LOGO
  6
Continuous
100
AcDbLine
 10
217.7802251661671
 20
174.7621568920495
 30
0.0
 11
221.7758044160112
 21
175.2899252535819
 31
0.0
  0
LINE
  5
BF5
330
1F
100
AcDbEntity
  8
LOGO
  6
Continuous
100
AcDbLine
 10
217.7802251661671
 20
173.2686330655938
 30
0.0
 11
221.7758044160112
 21
172.740864704061
 31
0.0
  0
LINE
  5
BF6
330
1F
100
AcDbEntity
  8
LOGO
  6
AM_ISO08W050x2
 48
0.3
100
AcDbLine
 10
212.0095492108347
 20
174.0153949788214
 30
0.0
 11
215.5234673475244
 21
174.0153949788214
 31
0.0
1001
GENIUS_GENOREF_13
1005
C0B
  0
LINE
  5
BF7
330
1F
100
AcDbEntity
  8
LOGO
  6
AM_ISO08W050x2
 48
0.3
100
AcDbLine
 10
213.7665082791796
 20
172.2584359104764
 30
0.0
 11
213.7665082791796
 21
175.7723540471663
 31
0.0
1001
GENIUS_GENOREF_13
1005
C0A
  0
LINE
  5
BF8
330
1F
100
AcDbEntity
  8
LOGO
  6
CENTER
 48
0.5
100
AcDbLine
 10
217.4606898827851
 20
174.0153949788214
 30
0.0
 11
222.1781463121136
 21
174.0153949788214
 31
0.0
1001
GENIUS_GENOREF_13
1005
C09
  0
LINE
  5
BF9
330
1F
100
AcDbEntity
  8
LOGO
 62
     4
100
AcDbLine
 10
280.4193238545308
 20
170.1692639373217
 30
0.0
 11
273.3202434775583
 21
170.1692639373217
 31
0.0
  0
LINE
  5
BFA
330
1F
100
AcDbEntity
  8
LOGO
 62
     4
100
AcDbLine
 10
273.3202434775583
 20
168.522934354408
 30
0.0
 11
273.3202434775583
 21
170.1692639373217
 31
0.0
  0
LINE
  5
BFB
330
1F
100
AcDbEntity
  8
LOGO
 62
     4
100
AcDbLine
 10
294.9842527607273
 20
170.1692639373217
 30
0.0
 11
287.2689536309517
 21
170.1692639373217
 31
0.0
  0
LINE
  5
BFC
330
1F
100
AcDbEntity
  8
LOGO
 62
     4
100
AcDbLine
 10
287.2689536309517
 20
168.522934354408
 30
0.0
 11
287.2689536309517
 21
170.1692639373217
 31
0.0
  0
POINT
  5
C09
330
1F
100
AcDbEntity
  8
0
 60
     1
100
AcDbPoint
 10
-1145.349796383169
 20
-925.059497499876
 30
0.0
1001
GENIUS_GENOBJ-N-CRS_13
1002
{
1000
OWNER
1000
GEN
1002
}
1001
GENIUS_GENOLIS_13
1002
{
1000
ENT
1005
0
1005
0
1005
0
1005
BF8
1002
}
1001
GENIUS_GENOENT_13
1002
{
1000
MYREF
1005
C09
1002
}
1002
{
1000
GRP
1005
0
1002
}
1001
GENIUS_GENODEF_13
1002
{
1000
HIER
1070
    10
1002
}
1002
{
1000
MANEDIT
1070
     1
1002
}
1002
{
1000
NOSEL
1070
     0
1002
}
1002
{
1000
BEHIND
1070
     0
1002
}
1002
{
1000
OTHER
1070
     0
1002
}
1002
{
1000
REACTOR
1002
}
  0
POINT
  5
C0A
330
1F
100
AcDbEntity
  8
0
 60
     1
100
AcDbPoint
 10
-1156.674381606024
 20
-916.1839110212397
 30
0.0
1001
GENIUS_GENOBJ-N-CRS_13
1002
{
1000
OWNER
1000
GEN
1002
}
1001
GENIUS_GENOLIS_13
1002
{
1000
ENT
1005
0
1005
0
1005
0
1005
BF7
1002
}
1001
GENIUS_GENOENT_13
1002
{
1000
MYREF
1005
C0A
1002
}
1002
{
1000
GRP
1005
0
1002
}
1001
GENIUS_GENODEF_13
1002
{
1000
HIER
1070
    10
1002
}
1002
{
1000
MANEDIT
1070
     1
1002
}
1002
{
1000
NOSEL
1070
     0
1002
}
1002
{
1000
BEHIND
1070
     0
1002
}
1002
{
1000
OTHER
1070
     0
1002
}
1002
{
1000
REACTOR
1002
}
  0
POINT
  5
C0B
330
1F
100
AcDbEntity
  8
0
 60
     1
100
AcDbPoint
 10
-1150.315707908187
 20
-925.059497499876
 30
0.0
1001
GENIUS_GENOBJ-N-CRS_13
1002
{
1000
OWNER
1000
GEN
1002
}
1001
GENIUS_GENOLIS_13
1002
{
1000
ENT
1005
0
1005
0
1005
0
1005
BF6
1002
}
1001
GENIUS_GENOENT_13
1002
{
1000
MYREF
1005
C0B
1002
}
1002
{
1000
GRP
1005
0
1002
}
1001
GENIUS_GENODEF_13
1002
{
1000
HIER
1070
    10
1002
}
1002
{
1000
MANEDIT
1070
     1
1002
}
1002
{
1000
NOSEL
1070
     0
1002
}
1002
{
1000
BEHIND
1070
     0
1002
}
1002
{
1000
OTHER
1070
     0
1002
}
1002
{
1000
REACTOR
1002
}
  0
LINE
  5
E70
330
1F
100
AcDbEntity
  8
AM_VIS
100
AcDbLine
 10
342.2165492570002
 20
271.3188695012472
 30
0.0
 11
341.9640492570022
 21
271.3188695012472
 31
0.0
  0
LINE
  5
E71
330
1F
100
AcDbEntity
  8
AM_VIS
100
AcDbLine
 10
342.2165492570002
 20
271.3188695012472
 30
0.0
 11
341.9640492570009
 21
271.0663695012478
 31
0.0
  0
LINE
  5
E72
330
1F
100
AcDbEntity
  8
AM_VIS
100
AcDbLine
 10
342.4690492570021
 20
271.5713695012472
 30
0.0
 11
342.4690492570021
 21
271.0663695012472
 31
0.0
  0
LINE
  5
E73
330
1F
100
AcDbEntity
  8
AM_VIS
100
AcDbLine
 10
342.4690492570021
 20
271.0663695012472
 30
0.0
 11
343.7123104102363
 21
271.0663695012472
 31
0.0
  0
ELLIPSE
  5
E74
330
1F
100
AcDbEntity
  8
AM_VIS
100
AcDbEllipse
 10
340.8176487304338
 20
271.3188695012472
 30
0.0
 11
0.000000000000017
 21
4.670872363903953
 31
0.0
210
0.0
220
0.0
230
1.0
 40
0.6206336420084752
 41
4.658304192146682
 42
4.766473768622696
  0
LINE
  5
E75
330
1F
100
AcDbEntity
  8
AM_VIS
100
AcDbLine
 10
343.7123104102363
 20
271.5713695012472
 30
0.0
 11
342.4690492570021
 21
271.5713695012472
 31
0.0
  0
LINE
  5
E76
330
1F
100
AcDbEntity
  8
AM_VIS
100
AcDbLine
 10
341.9640492570022
 20
271.5713695012472
 30
0.0
 11
340.7207881037641
 21
271.5713695012472
 31
0.0
  0
ELLIPSE
  5
E77
330
1F
100
AcDbEntity
  8
AM_VIS
100
AcDbEllipse
 10
343.6154497835669
 20
271.3188695012472
 30
0.0
 11
-0.0000000000000174
 21
-4.670872363903953
 31
0.0
210
0.0
220
0.0
230
1.0
 40
0.6206336420084755
 41
4.658304192146682
 42
4.766473768622696
  0
LINE
  5
E78
330
1F
100
AcDbEntity
  8
AM_VIS
100
AcDbLine
 10
340.7207881037641
 20
271.0663695012473
 30
0.0
 11
341.9640492570022
 21
271.0663695012473
 31
0.0
  0
LINE
  5
E79
330
1F
100
AcDbEntity
  8
AM_VIS
100
AcDbLine
 10
342.4690492570021
 20
269.8231083480112
 30
0.0
 11
342.4690492570021
 21
271.0663695012472
 31
0.0
  0
ELLIPSE
  5
E7A
330
1F
100
AcDbEntity
  8
AM_VIS
100
AcDbEllipse
 10
342.2165492570002
 20
269.9199689746807
 30
0.0
 11
-4.670872363903926
 21
0.000000000000018
 31
0.0
210
0.0
220
0.0
230
1.0
 40
0.6206336420084869
 41
4.658304192146256
 42
4.766473768622269
  0
LINE
  5
E7B
330
1F
100
AcDbEntity
  8
AM_VIS
100
AcDbLine
 10
341.9640492570022
 20
271.0663695012472
 30
0.0
 11
341.9640492570022
 21
269.823108348011
 31
0.0
  0
LINE
  5
E7C
330
1F
100
AcDbEntity
  8
AM_VIS
100
AcDbLine
 10
341.9640492570022
 20
272.8146306544835
 30
0.0
 11
341.9640492570022
 21
271.5713695012472
 31
0.0
  0
ELLIPSE
  5
E7D
330
1F
100
AcDbEntity
  8
AM_VIS
100
AcDbEllipse
 10
342.2165492570002
 20
272.7177700278137
 30
0.0
 11
4.670872363903926
 21
-0.0000000000000163
 31
0.0
210
0.0
220
0.0
230
1.0
 40
0.6206336420084869
 41
4.658304192147109
 42
4.766473768623122
  0
LINE
  5
E7E
330
1F
100
AcDbEntity
  8
AM_VIS
100
AcDbLine
 10
342.4690492570021
 20
271.5713695012472
 30
0.0
 11
342.4690492570021
 21
272.8146306544833
 31
0.0
  0
LINE
  5
E7F
330
1F
100
AcDbEntity
  8
AM_VIS
100
AcDbLine
 10
331.4665492570004
 20
302.8188695012472
 30
0.0
 11
346.3665492570003
 21
302.8188695012472
 31
0.0
  0
LINE
  5
E80
330
1F
100
AcDbEntity
  8
AM_VIS
100
AcDbLine
 10
324.0665492570004
 20
267.8188695012472
 30
0.0
 11
324.0665492570004
 21
296.0688695012472
 31
0.0
  0
LINE
  5
E81
330
1F
100
AcDbEntity
  8
AM_VIS
100
AcDbLine
 10
324.0665492570004
 20
296.0688695012472
 30
0.0
 11
324.0665492570004
 21
302.8188695012472
 31
0.0
  0
LINE
  5
E82
330
1F
100
AcDbEntity
  8
AM_VIS
100
AcDbLine
 10
324.0665492570004
 20
302.8188695012472
 30
0.0
 11
331.4665492570004
 21
302.8188695012472
 31
0.0
  0
LINE
  5
E83
330
1F
100
AcDbEntity
  8
AM_VIS
100
AcDbLine
 10
328.2165492570005
 20
296.0688695012472
 30
0.0
 11
324.0665492570004
 21
296.0688695012472
 31
0.0
  0
LINE
  5
E84
330
1F
100
AcDbEntity
  8
AM_VIS
100
AcDbLine
 10
331.4665492570004
 20
302.8188695012472
 30
0.0
 11
331.4665492570004
 21
299.3188695012472
 31
0.0
  0
LINE
  5
E85
330
1F
100
AcDbEntity
  8
AM_VIS
100
AcDbLine
 10
338.9665492570002
 20
267.8188695012472
 30
0.0
 11
324.0665492570004
 21
267.8188695012472
 31
0.0
  0
LINE
  5
E86
330
1F
100
AcDbEntity
  8
AM_VIS
100
AcDbLine
 10
346.3665492570003
 20
302.8188695012472
 30
0.0
 11
346.3665492570003
 21
274.5688695012473
 31
0.0
  0
LINE
  5
E87
330
1F
100
AcDbEntity
  8
AM_VIS
100
AcDbLine
 10
346.3665492570003
 20
274.5688695012473
 30
0.0
 11
346.3665492570003
 21
267.8188695012472
 31
0.0
  0
LINE
  5
E88
330
1F
100
AcDbEntity
  8
AM_VIS
100
AcDbLine
 10
346.3665492570003
 20
267.8188695012472
 30
0.0
 11
338.9665492570002
 21
267.8188695012472
 31
0.0
  0
LINE
  5
E89
330
1F
100
AcDbEntity
  8
AM_VIS
100
AcDbLine
 10
342.2165492570002
 20
274.5688695012472
 30
0.0
 11
346.3665492570003
 21
274.5688695012473
 31
0.0
  0
LINE
  5
E8A
330
1F
100
AcDbEntity
  8
AM_VIS
100
AcDbLine
 10
338.9665492570002
 20
267.8188695012472
 30
0.0
 11
338.9665492570002
 21
271.3188695012472
 31
0.0
  0
ARC
  5
E8B
330
1F
100
AcDbEntity
  8
AM_VIS
100
AcDbCircle
 10
328.2165492570005
 20
299.3188695012472
 30
0.0
 40
3.25
100
AcDbArc
 50
270.0
 51
0.0
  0
ARC
  5
E8C
330
1F
100
AcDbEntity
  8
AM_VIS
100
AcDbCircle
 10
342.2165492570002
 20
271.3188695012472
 30
0.0
 40
3.25
100
AcDbArc
 50
90.0
 51
180.0
  0
LINE
  5
E8D
330
1F
100
AcDbEntity
  8
AM_VIS
100
AcDbLine
 10
243.6681618774687
 20
267.8188695012474
 30
0.0
 11
243.6681618774687
 21
302.8188695012474
 31
0.0
  0
LINE
  5
E8E
330
1F
100
AcDbEntity
  8
AM_VIS
100
AcDbLine
 10
299.3563292789977
 20
302.0324160559476
 30
0.0
 11
298.3681618774688
 21
302.1188695012472
 31
0.0
  0
LINE
  5
E8F
330
1F
100
AcDbEntity
  8
AM_VIS
100
AcDbLine
 10
299.3563292789977
 20
296.6053229465468
 30
0.0
 11
298.3681618774688
 21
296.5188695012472
 31
0.0
  0
LINE
  5
E90
330
1F
100
AcDbEntity
  8
AM_VIS
100
AcDbLine
 10
300.7553943264329
 20
299.5713695012473
 30
0.0
 11
300.532502579231
 21
299.5713695012473
 31
0.0
  0
ELLIPSE
  5
E91
330
1F
100
AcDbEntity
  8
AM_VIS
100
AcDbEllipse
 10
296.8754236698603
 20
299.3188695012472
 30
0.0
 11
0.0
 21
-4.670872363903953
 31
0.0
210
0.0
220
0.0
230
1.0
 40
0.7841006838457007
 41
1.516711538556886
 42
1.624881115032899
  0
LINE
  5
E92
330
1F
100
AcDbEntity
  8
AM_VIS
100
AcDbLine
 10
300.532502579231
 20
299.0663695012472
 30
0.0
 11
300.7553943264329
 21
299.0663695012472
 31
0.0
  0
LINE
  5
E93
330
1F
100
AcDbEntity
  8
AM_VIS
100
AcDbLine
 10
300.5378578845534
 20
300.8188695012472
 30
0.0
 11
300.5325025792313
 21
300.8146306544834
 31
0.0
  0
ARC
  5
E94
330
1F
100
AcDbEntity
  8
AM_VIS
100
AcDbCircle
 10
295.7681618774686
 20
299.3188695012472
 30
0.0
 40
4.993620304949203
100
AcDbArc
 50
342.5703586381472
 51
357.101630595618
  0
ARC
  5
E95
330
1F
100
AcDbEntity
  8
AM_VIS
100
AcDbCircle
 10
295.7681618774686
 20
299.3188695012472
 30
0.0
 40
4.993620304949203
100
AcDbArc
 50
2.898369404381977
 51
17.42964136185284
  0
LINE
  5
E96
330
1F
100
AcDbEntity
  8
AM_VIS
100
AcDbLine
 10
300.5325025792313
 20
297.8231083480111
 30
0.0
 11
300.5378578845534
 21
297.8188695012473
 31
0.0
  0
ARC
  5
E97
330
1F
100
AcDbEntity
  8
AM_VIS
100
AcDbCircle
 10
299.2517423877007
 20
300.8369824182375
 30
0.0
 40
1.2
100
AcDbArc
 50
23.54713723707629
 51
85.00000000000026
  0
ARC
  5
E98
330
1F
100
AcDbEntity
  8
AM_VIS
100
AcDbCircle
 10
299.2517423877007
 20
297.8007565842569
 30
0.0
 40
1.199999999999999
100
AcDbArc
 50
274.9999999999997
 51
336.4528627629237
  0
ARC
  5
E99
330
1F
100
AcDbEntity
  8
AM_VIS
100
AcDbCircle
 10
295.7681618774686
 20
299.3188695012472
 30
0.0
 40
5.0
100
AcDbArc
 50
336.4528627629237
 51
342.5423968762772
  0
ARC
  5
E9A
330
1F
100
AcDbEntity
  8
AM_VIS
100
AcDbCircle
 10
295.7681618774686
 20
299.3188695012472
 30
0.0
 40
5.0
100
AcDbArc
 50
17.45760312372119
 51
23.54713723707629
  0
ELLIPSE
  5
E9B
330
1F
100
AcDbEntity
  8
AM_VIS
100
AcDbEllipse
 10
298.0528087161924
 20
299.3188695012472
 30
0.0
 11
-8.105058387392032
 21
0.0000000000000108
 31
0.0
210
0.0
220
0.0
230
1.0
 40
0.3639702342661606
 41
4.71238898038469
 42
4.759864439802202
  0
LINE
  5
E9C
330
1F
100
AcDbEntity
  8
AM_VIS
100
AcDbLine
 10
298.3681618774688
 20
302.2688695012472
 30
0.0
 11
298.0528087161924
 21
302.2688695012472
 31
0.0
  0
LINE
  5
E9D
330
1F
100
AcDbEntity
  8
AM_VIS
100
AcDbLine
 10
298.3681618774688
 20
296.3688695012473
 30
0.0
 11
297.6681618774687
 21
296.3688695012473
 31
0.0
  0
LINE
  5
E9E
330
1F
100
AcDbEntity
  8
AM_VIS
100
AcDbLine
 10
298.3681618774688
 20
302.2688695012472
 30
0.0
 11
298.3681618774688
 21
296.3688695012473
 31
0.0
  0
LINE
  5
E9F
330
1F
100
AcDbEntity
  8
AM_VIS
100
AcDbLine
 10
302.1681618774687
 20
267.8188695012472
 30
0.0
 11
302.1681618774687
 21
296.0688695012472
 31
0.0
  0
LINE
  5
EA0
330
1F
100
AcDbEntity
  8
AM_VIS
100
AcDbLine
 10
281.6681618774687
 20
302.8188695012472
 30
0.0
 11
281.6681618774687
 21
267.8188695012472
 31
0.0
  0
LINE
  5
EA1
330
1F
100
AcDbEntity
  8
AM_VIS
100
AcDbLine
 10
281.6681618774687
 20
302.8188695012472
 30
0.0
 11
297.6681618774687
 21
302.8188695012472
 31
0.0
  0
LINE
  5
EA2
330
1F
100
AcDbEntity
  8
AM_VIS
100
AcDbLine
 10
297.6681618774687
 20
296.0688695012472
 30
0.0
 11
297.6681618774687
 21
302.8188695012472
 31
0.0
  0
LINE
  5
EA3
330
1F
100
AcDbEntity
  8
AM_VIS
100
AcDbLine
 10
302.1681618774687
 20
296.0688695012472
 30
0.0
 11
297.6681618774687
 21
296.0688695012472
 31
0.0
  0
LINE
  5
EA4
330
1F
100
AcDbEntity
  8
AM_VIS
100
AcDbLine
 10
297.6681618774687
 20
302.8188695012472
 30
0.0
 11
302.1681618774687
 21
302.8188695012472
 31
0.0
  0
LINE
  5
EA5
330
1F
100
AcDbEntity
  8
AM_VIS
100
AcDbLine
 10
302.1681618774687
 20
302.8188695012472
 30
0.0
 11
302.1681618774687
 21
299.3188695012472
 31
0.0
  0
LINE
  5
EA6
330
1F
100
AcDbEntity
  8
AM_VIS
100
AcDbLine
 10
281.6681618774687
 20
267.8188695012472
 30
0.0
 11
302.1681618774687
 21
267.8188695012472
 31
0.0
  0
LINE
  5
EA7
330
1F
100
AcDbEntity
  8
AM_VIS
100
AcDbLine
 10
302.1681618774687
 20
299.3188695012472
 30
0.0
 11
302.1681618774687
 21
296.0688695012472
 31
0.0
  0
LINE
  5
EA8
330
1F
100
AcDbEntity
  8
AM_VIS
100
AcDbLine
 10
278.1681618774687
 20
299.8188695012473
 30
0.0
 11
272.1681618774687
 21
299.8188695012473
 31
0.0
  0
LINE
  5
EA9
330
1F
100
AcDbEntity
  8
AM_VIS
100
AcDbLine
 10
278.1681618774687
 20
301.8188695012473
 30
0.0
 11
278.1681618774687
 21
299.8188695012473
 31
0.0
  0
LINE
  5
EAA
330
1F
100
AcDbEntity
  8
AM_VIS
100
AcDbLine
 10
272.1681618774687
 20
299.8188695012473
 30
0.0
 11
272.1681618774687
 21
301.8188695012473
 31
0.0
  0
LINE
  5
EAB
330
1F
100
AcDbEntity
  8
AM_VIS
100
AcDbLine
 10
281.6681618774687
 20
302.8188695012473
 30
0.0
 11
278.1681618774687
 21
302.8188695012473
 31
0.0
  0
LINE
  5
EAC
330
1F
100
AcDbEntity
  8
AM_VIS
100
AcDbLine
 10
272.1681618774687
 20
302.8188695012473
 30
0.0
 11
243.6681618774687
 21
302.8188695012473
 31
0.0
  0
CIRCLE
  5
EAD
330
1F
100
AcDbEntity
  8
AM_VIS
100
AcDbCircle
 10
254.1681618774687
 20
298.3188695012472
 30
0.0
 40
1.050000000000016
  0
LINE
  5
EAE
330
1F
100
AcDbEntity
  8
AM_VIS
100
AcDbLine
 10
243.6681618774687
 20
301.8188695012473
 30
0.0
 11
243.6681618774687
 21
268.8188695012473
 31
0.0
  0
LINE
  5
EAF
330
1F
100
AcDbEntity
  8
AM_VIS
100
AcDbLine
 10
281.6681618774687
 20
268.8188695012473
 30
0.0
 11
281.6681618774687
 21
301.8188695012473
 31
0.0
  0
LINE
  5
EB0
330
1F
100
AcDbEntity
  8
AM_VIS
100
AcDbLine
 10
243.6681618774687
 20
267.8188695012473
 30
0.0
 11
281.6681618774687
 21
267.8188695012473
 31
0.0
  0
LINE
  5
EB1
330
1F
100
AcDbEntity
  8
AM_VIS
100
AcDbLine
 10
278.1681618774687
 20
301.8188695012473
 30
0.0
 11
278.1681618774687
 21
302.8188695012473
 31
0.0
  0
CIRCLE
  5
EB2
330
1F
100
AcDbEntity
  8
AM_VIS
100
AcDbCircle
 10
275.1681618774687
 20
294.3188695012473
 30
0.0
 40
2.1
  0
CIRCLE
  5
EB3
330
1F
100
AcDbEntity
  8
AM_VIS
100
AcDbCircle
 10
250.1681618774687
 20
294.3188695012473
 30
0.0
 40
2.1
  0
LINE
  5
EB4
330
1F
100
AcDbEntity
  8
AM_VIS
100
AcDbLine
 10
272.1681618774687
 20
302.8188695012473
 30
0.0
 11
272.1681618774687
 21
301.8188695012473
 31
0.0
  0
LINE
  5
EB5
330
1F
100
AcDbEntity
  8
AM_VIS
100
AcDbLine
 10
272.1681618774687
 20
302.8188695012473
 30
0.0
 11
278.1681618774687
 21
302.8188695012473
 31
0.0
  0
CIRCLE
  5
EB6
330
1F
100
AcDbEntity
  8
AM_VIS
100
AcDbCircle
 10
254.1681618774687
 20
298.3188695012473
 30
0.0
 40
1.05
  0
LINE
  5
EB7
330
1F
100
AcDbEntity
  8
AM_VIS
100
AcDbLine
 10
243.6681618774687
 20
357.3819589187818
 30
0.0
 11
243.6681618774687
 21
366.5319589187817
 31
0.0
  0
LINE
  5
EB8
330
1F
100
AcDbEntity
  8
AM_VIS
100
AcDbLine
 10
243.6681618774687
 20
344.2319589187818
 30
0.0
 11
243.6681618774687
 21
353.3819589187818
 31
0.0
  0
LINE
  5
EB9
330
1F
100
AcDbEntity
  8
AM_VIS
100
AcDbLine
 10
299.3563292789977
 20
351.0955054734822
 30
0.0
 11
298.3681618774688
 21
351.1819589187819
 31
0.0
  0
LINE
  5
EBA
330
1F
100
AcDbEntity
  8
AM_VIS
100
AcDbLine
 10
299.3563292789977
 20
345.6684123640815
 30
0.0
 11
298.3681618774688
 21
345.5819589187818
 31
0.0
  0
LINE
  5
EBB
330
1F
100
AcDbEntity
  8
AM_VIS
100
AcDbLine
 10
298.3681618774688
 20
348.4967380827682
 30
0.0
 11
298.3681618774688
 21
348.7767380827682
 31
0.0
  0
LINE
  5
EBC
330
1F
100
AcDbEntity
  8
AM_VIS
100
AcDbLine
 10
297.6748868774687
 20
348.2444066186072
 30
0.0
 11
297.6748868774687
 21
348.5244066186072
 31
0.0
  0
LINE
  5
EBD
330
1F
100
AcDbEntity
  8
AM_VIS
100
AcDbLine
 10
300.5378578845534
 20
349.8819589187818
 30
0.0
 11
300.532502579231
 21
349.8777200720179
 31
0.0
  0
ARC
  5
EBE
330
1F
100
AcDbEntity
  8
AM_VIS
100
AcDbCircle
 10
295.7681618774686
 20
348.3819589187818
 30
0.0
 40
4.993620304949105
100
AcDbArc
 50
2.898369404404828
 51
17.42964136185284
  0
ARC
  5
EBF
330
1F
100
AcDbEntity
  8
AM_VIS
100
AcDbCircle
 10
295.7681618774686
 20
348.3819589187818
 30
0.0
 40
4.993620304949105
100
AcDbArc
 50
342.5703586381472
 51
357.1016305956408
  0
LINE
  5
EC0
330
1F
100
AcDbEntity
  8
AM_VIS
100
AcDbLine
 10
300.532502579231
 20
346.8861977655457
 30
0.0
 11
300.5378578845534
 21
346.8819589187818
 31
0.0
  0
ELLIPSE
  5
EC1
330
1F
100
AcDbEntity
  8
AM_VIS
100
AcDbEllipse
 10
296.8754236698605
 20
348.3819589187818
 30
0.0
 11
0.0
 21
-4.670872363903926
 31
0.0
210
0.0
220
0.0
230
1.0
 40
0.7841006838456919
 41
1.516711538557312
 42
1.624881115033326
  0
LINE
  5
EC2
330
1F
100
AcDbEntity
  8
AM_VIS
100
AcDbLine
 10
300.5325025792313
 20
348.1294589187838
 30
0.0
 11
300.7553943264329
 21
348.1294589187838
 31
0.0
  0
LINE
  5
EC3
330
1F
100
AcDbEntity
  8
AM_VIS
100
AcDbLine
 10
300.7553943264327
 20
348.6344589187837
 30
0.0
 11
300.532502579231
 21
348.6344589187837
 31
0.0
  0
ARC
  5
EC4
330
1F
100
AcDbEntity
  8
AM_VIS
100
AcDbCircle
 10
299.2517423877007
 20
349.900071835772
 30
0.0
 40
1.2
100
AcDbArc
 50
23.54713723707629
 51
85.00000000000026
  0
ARC
  5
EC5
330
1F
100
AcDbEntity
  8
AM_VIS
100
AcDbCircle
 10
299.2517423877007
 20
346.8638460017915
 30
0.0
 40
1.199999999999999
100
AcDbArc
 50
274.9999999999997
 51
336.4528627629237
  0
ARC
  5
EC6
330
1F
100
AcDbEntity
  8
AM_VIS
100
AcDbCircle
 10
295.7681618774686
 20
348.3819589187818
 30
0.0
 40
5.0
100
AcDbArc
 50
336.4528627629237
 51
342.5423968762772
  0
ARC
  5
EC7
330
1F
100
AcDbEntity
  8
AM_VIS
100
AcDbCircle
 10
295.7681618774686
 20
348.3819589187818
 30
0.0
 40
5.0
100
AcDbArc
 50
17.45760312372119
 51
23.54713723707629
  0
LINE
  5
EC8
330
1F
100
AcDbEntity
  8
AM_VIS
100
AcDbLine
 10
297.6681618774687
 20
348.2419589187819
 30
0.0
 11
298.3681618774688
 21
348.4967380827682
 31
0.0
  0
LINE
  5
EC9
330
1F
100
AcDbEntity
  8
AM_VIS
100
AcDbLine
 10
298.3681618774688
 20
348.7767380827682
 30
0.0
 11
297.6681618774687
 21
348.5219589187817
 31
0.0
  0
LINE
  5
ECA
330
1F
100
AcDbEntity
  8
AM_VIS
100
AcDbLine
 10
298.3681618774688
 20
351.3319589187818
 30
0.0
 11
297.6681618774687
 21
351.3319589187818
 31
0.0
  0
LINE
  5
ECB
330
1F
100
AcDbEntity
  8
AM_VIS
100
AcDbLine
 10
298.3681618774688
 20
345.4319589187818
 30
0.0
 11
297.6681618774687
 21
345.4319589187818
 31
0.0
  0
LINE
  5
ECC
330
1F
100
AcDbEntity
  8
AM_VIS
100
AcDbLine
 10
298.3681618774688
 20
351.3319589187818
 30
0.0
 11
298.3681618774688
 21
348.7767380827682
 31
0.0
  0
LINE
  5
ECD
330
1F
100
AcDbEntity
  8
AM_VIS
100
AcDbLine
 10
298.3681618774688
 20
348.4967380827682
 30
0.0
 11
298.3681618774688
 21
345.4319589187818
 31
0.0
  0
LINE
  5
ECE
330
1F
100
AcDbEntity
  8
AM_VIS
100
AcDbLine
 10
281.6681618774687
 20
353.3819589187818
 30
0.0
 11
281.6681618774687
 21
344.2319589187818
 31
0.0
  0
LINE
  5
ECF
330
1F
100
AcDbEntity
  8
AM_VIS
100
AcDbLine
 10
282.0681618774688
 20
353.3819589187818
 30
0.0
 11
281.6681618774687
 21
353.3819589187818
 31
0.0
  0
LINE
  5
ED0
330
1F
100
AcDbEntity
  8
AM_VIS
100
AcDbLine
 10
282.0681618774688
 20
357.3819589187818
 30
0.0
 11
282.0681618774688
 21
353.3819589187818
 31
0.0
  0
LINE
  5
ED1
330
1F
100
AcDbEntity
  8
AM_VIS
100
AcDbLine
 10
281.6681618774687
 20
357.3819589187818
 30
0.0
 11
282.0681618774688
 21
357.3819589187818
 31
0.0
  0
LINE
  5
ED2
330
1F
100
AcDbEntity
  8
AM_VIS
100
AcDbLine
 10
281.6681618774687
 20
366.5319589187819
 30
0.0
 11
281.6681618774687
 21
357.3819589187818
 31
0.0
  0
LINE
  5
ED3
330
1F
100
AcDbEntity
  8
AM_VIS
100
AcDbLine
 10
302.1681618774687
 20
351.6319589187818
 30
0.0
 11
302.1681618774687
 21
366.5319589187819
 31
0.0
  0
LINE
  5
ED4
330
1F
100
AcDbEntity
  8
AM_VIS
100
AcDbLine
 10
281.6681618774687
 20
344.2319589187818
 30
0.0
 11
297.6681618774687
 21
344.2319589187818
 31
0.0
  0
LINE
  5
ED5
330
1F
100
AcDbEntity
  8
AM_VIS
100
AcDbLine
 10
297.6681618774687
 20
344.2319589187818
 30
0.0
 11
297.6681618774687
 21
351.6319589187818
 31
0.0
  0
LINE
  5
ED6
330
1F
100
AcDbEntity
  8
AM_VIS
100
AcDbLine
 10
302.1681618774687
 20
348.3819589187818
 30
0.0
 11
302.1681618774687
 21
344.2319589187818
 31
0.0
  0
LINE
  5
ED7
330
1F
100
AcDbEntity
  8
AM_VIS
100
AcDbLine
 10
302.1681618774687
 20
344.2319589187818
 30
0.0
 11
297.6681618774687
 21
344.2319589187818
 31
0.0
  0
LINE
  5
ED8
330
1F
100
AcDbEntity
  8
AM_VIS
100
AcDbLine
 10
297.6681618774687
 20
351.6319589187818
 30
0.0
 11
302.1681618774687
 21
351.6319589187818
 31
0.0
  0
LINE
  5
ED9
330
1F
100
AcDbEntity
  8
AM_VIS
100
AcDbLine
 10
281.6681618774687
 20
366.5319589187819
 30
0.0
 11
302.1681618774687
 21
366.5319589187819
 31
0.0
  0
LINE
  5
EDA
330
1F
100
AcDbEntity
  8
AM_VIS
100
AcDbLine
 10
302.1681618774687
 20
351.6319589187818
 30
0.0
 11
302.1681618774687
 21
348.3819589187818
 31
0.0
  0
CIRCLE
  5
EDB
330
1F
100
AcDbEntity
  8
AM_VIS
100
AcDbCircle
 10
250.1681618774687
 20
363.8819589187818
 30
0.0
 40
1.60000000000004
  0
CIRCLE
  5
EDC
330
1F
100
AcDbEntity
  8
AM_VIS
100
AcDbCircle
 10
275.1681618774687
 20
346.8819589187818
 30
0.0
 40
1.600000000000041
  0
LINE
  5
EDD
330
1F
100
AcDbEntity
  8
AM_VIS
100
AcDbLine
 10
278.1681618774687
 20
344.2319589187818
 30
0.0
 11
272.1681618774687
 21
344.2319589187818
 31
0.0
  0
LINE
  5
EDE
330
1F
100
AcDbEntity
  8
AM_VIS
100
AcDbLine
 10
278.1681618774687
 20
344.2319589187818
 30
0.0
 11
281.6681618774687
 21
344.2319589187818
 31
0.0
  0
LINE
  5
EDF
330
1F
100
AcDbEntity
  8
AM_VIS
100
AcDbLine
 10
243.6681618774687
 20
344.2319589187818
 30
0.0
 11
272.1681618774687
 21
344.2319589187818
 31
0.0
  0
LINE
  5
EE0
330
1F
100
AcDbEntity
  8
AM_VIS
100
AcDbLine
 10
281.6681618774687
 20
366.5319589187817
 30
0.0
 11
253.1681618774687
 21
366.5319589187819
 31
0.0
  0
LINE
  5
EE1
330
1F
100
AcDbEntity
  8
AM_VIS
100
AcDbLine
 10
247.1681618774687
 20
366.5319589187819
 30
0.0
 11
243.6681618774687
 21
366.5319589187819
 31
0.0
  0
LINE
  5
EE2
330
1F
100
AcDbEntity
  8
AM_VIS
100
AcDbLine
 10
247.1681618774687
 20
363.8819589187818
 30
0.0
 11
247.1681618774687
 21
365.5319589187819
 31
0.0
  0
LINE
  5
EE3
330
1F
100
AcDbEntity
  8
AM_VIS
100
AcDbLine
 10
253.1681618774687
 20
365.5319589187819
 30
0.0
 11
253.1681618774687
 21
363.8819589187818
 31
0.0
  0
LINE
  5
EE4
330
1F
100
AcDbEntity
  8
AM_VIS
100
AcDbLine
 10
278.1681618774687
 20
346.8819589187818
 30
0.0
 11
278.1681618774687
 21
345.2319589187818
 31
0.0
  0
LINE
  5
EE5
330
1F
100
AcDbEntity
  8
AM_VIS
100
AcDbLine
 10
272.1681618774687
 20
345.2319589187818
 30
0.0
 11
272.1681618774687
 21
346.8819589187818
 31
0.0
  0
LINE
  5
EE6
330
1F
100
AcDbEntity
  8
AM_VIS
100
AcDbLine
 10
260.4181618774687
 20
350.3819589187818
 30
0.0
 11
260.4181618774687
 21
356.3819589187818
 31
0.0
  0
LINE
  5
EE7
330
1F
100
AcDbEntity
  8
AM_VIS
100
AcDbLine
 10
264.9181618774687
 20
356.3819589187818
 30
0.0
 11
264.9181618774687
 21
350.3819589187818
 31
0.0
  0
LINE
  5
EE8
330
1F
100
AcDbEntity
  8
AM_VIS
100
AcDbLine
 10
247.1681618774687
 20
366.5319589187819
 30
0.0
 11
253.1681618774687
 21
366.5319589187819
 31
0.0
  0
LINE
  5
EE9
330
1F
100
AcDbEntity
  8
AM_VIS
100
AcDbLine
 10
243.6681618774687
 20
365.5319589187819
 30
0.0
 11
243.6681618774687
 21
345.2319589187818
 31
0.0
  0
LINE
  5
EEA
330
1F
100
AcDbEntity
  8
AM_VIS
100
AcDbLine
 10
281.6681618774687
 20
345.2319589187818
 30
0.0
 11
281.6681618774687
 21
365.5319589187819
 31
0.0
  0
CIRCLE
  5
EEB
330
1F
100
AcDbEntity
  8
AM_VIS
100
AcDbCircle
 10
275.1681618774687
 20
346.8819589187818
 30
0.0
 40
1.6
  0
LINE
  5
EEC
330
1F
100
AcDbEntity
  8
AM_VIS
100
AcDbLine
 10
278.1681618774687
 20
344.2319589187818
 30
0.0
 11
278.1681618774687
 21
345.2319589187818
 31
0.0
  0
LINE
  5
EED
330
1F
100
AcDbEntity
  8
AM_VIS
100
AcDbLine
 10
272.1681618774687
 20
345.2319589187818
 30
0.0
 11
272.1681618774687
 21
344.2319589187818
 31
0.0
  0
LINE
  5
EEE
330
1F
100
AcDbEntity
  8
AM_VIS
100
AcDbLine
 10
253.1681618774687
 20
365.5319589187819
 30
0.0
 11
253.1681618774687
 21
366.5319589187819
 31
0.0
  0
LINE
  5
EEF
330
1F
100
AcDbEntity
  8
AM_VIS
100
AcDbLine
 10
247.1681618774687
 20
366.5319589187819
 30
0.0
 11
247.1681618774687
 21
365.5319589187819
 31
0.0
  0
ARC
  5
EF0
330
1F
100
AcDbEntity
  8
AM_VIS
100
AcDbCircle
 10
250.1681618774687
 20
363.8819589187818
 30
0.0
 40
3.0
100
AcDbArc
 50
180.0
 51
0.0
  0
ARC
  5
EF1
330
1F
100
AcDbEntity
  8
AM_VIS
100
AcDbCircle
 10
275.1681618774687
 20
346.8819589187818
 30
0.0
 40
3.0
100
AcDbArc
 50
0.0
 51
180.0
  0
CIRCLE
  5
EF2
330
1F
100
AcDbEntity
  8
AM_VIS
100
AcDbCircle
 10
262.6681618774687
 20
353.3819589187818
 30
0.0
 40
6.699999999999999
  0
CIRCLE
  5
EF3
330
1F
100
AcDbEntity
  8
AM_VIS
100
AcDbCircle
 10
262.6681618774687
 20
353.3819589187818
 30
0.0
 40
5.449999999999999
  0
ARC
  5
EF4
330
1F
100
AcDbEntity
  8
AM_VIS
100
AcDbCircle
 10
262.6681618774687
 20
350.3819589187818
 30
0.0
 40
2.249999999999996
100
AcDbArc
 50
180.0
 51
0.0
  0
ARC
  5
EF5
330
1F
100
AcDbEntity
  8
AM_VIS
100
AcDbCircle
 10
262.6681618774687
 20
356.3819589187818
 30
0.0
 40
2.25
100
AcDbArc
 50
0.0
 51
180.0
  0
CIRCLE
  5
EF6
330
1F
100
AcDbEntity
  8
AM_VIS
100
AcDbCircle
 10
250.1681618774687
 20
363.8819589187818
 30
0.0
 40
1.6
  0
LINE
  5
EF7
330
1F
100
AcDbEntity
  8
AM_VIS
100
AcDbLine
 10
243.6681618774687
 20
230.422256049194
 30
0.0
 11
243.6681618774687
 21
239.572256049194
 31
0.0
  0
LINE
  5
EF8
330
1F
100
AcDbEntity
  8
AM_VIS
100
AcDbLine
 10
243.6681618774687
 20
217.272256049194
 30
0.0
 11
243.6681618774687
 21
226.422256049194
 31
0.0
  0
LINE
  5
EF9
330
1F
100
AcDbEntity
  8
AM_VIS
100
AcDbLine
 10
299.3563292789977
 20
224.1358026038942
 30
0.0
 11
298.3681618774688
 21
224.2222560491939
 31
0.0
  0
LINE
  5
EFA
330
1F
100
AcDbEntity
  8
AM_VIS
100
AcDbLine
 10
299.3563292789977
 20
218.7087094944935
 30
0.0
 11
298.3681618774688
 21
218.6222560491938
 31
0.0
  0
LINE
  5
EFB
330
1F
100
AcDbEntity
  8
AM_VIS
100
AcDbLine
 10
298.3681618774688
 20
221.2822560491939
 30
0.0
 11
298.3681618774688
 21
221.5622560491938
 31
0.0
  0
LINE
  5
EFC
330
1F
100
AcDbEntity
  8
AM_VIS
100
AcDbLine
 10
297.6748868774687
 20
221.029924585033
 30
0.0
 11
297.6748868774687
 21
221.309924585033
 31
0.0
  0
ARC
  5
EFD
330
1F
100
AcDbEntity
  8
AM_VIS
100
AcDbCircle
 10
295.7681618774686
 20
221.4222560491938
 30
0.0
 40
4.993620304949105
100
AcDbArc
 50
342.5703586381472
 51
357.1016305955952
  0
LINE
  5
EFE
330
1F
100
AcDbEntity
  8
AM_VIS
100
AcDbLine
 10
300.532502579231
 20
219.9264948959577
 30
0.0
 11
300.5378578845534
 21
219.9222560491938
 31
0.0
  0
LINE
  5
EFF
330
1F
100
AcDbEntity
  8
AM_VIS
100
AcDbLine
 10
300.5378578845534
 20
222.9222560491938
 30
0.0
 11
300.532502579231
 21
222.91801720243
 31
0.0
  0
ARC
  5
F00
330
1F
100
AcDbEntity
  8
AM_VIS
100
AcDbCircle
 10
295.7681618774686
 20
221.4222560491938
 30
0.0
 40
4.993620304949105
100
AcDbArc
 50
2.898369404359208
 51
17.42964136185284
  0
LINE
  5
F01
330
1F
100
AcDbEntity
  8
AM_VIS
100
AcDbLine
 10
300.532502579231
 20
221.1697560491919
 30
0.0
 11
300.7553943264327
 21
221.1697560491919
 31
0.0
  0
LINE
  5
F02
330
1F
100
AcDbEntity
  8
AM_VIS
100
AcDbLine
 10
300.7553943264329
 20
221.6747560491919
 30
0.0
 11
300.5325025792313
 21
221.6747560491919
 31
0.0
  0
ELLIPSE
  5
F03
330
1F
100
AcDbEntity
  8
AM_VIS
100
AcDbEllipse
 10
296.8754236698605
 20
221.4222560491938
 30
0.0
 11
0.0
 21
-4.670872363903926
 31
0.0
210
0.0
220
0.0
230
1.0
 40
0.7841006838456919
 41
1.516711538556459
 42
1.624881115032473
  0
ARC
  5
F04
330
1F
100
AcDbEntity
  8
AM_VIS
100
AcDbCircle
 10
299.2517423877007
 20
222.9403689661841
 30
0.0
 40
1.2
100
AcDbArc
 50
23.54713723707629
 51
85.00000000000026
  0
ARC
  5
F05
330
1F
100
AcDbEntity
  8
AM_VIS
100
AcDbCircle
 10
299.2517423877007
 20
219.9041431322036
 30
0.0
 40
1.199999999999999
100
AcDbArc
 50
274.9999999999997
 51
336.4528627629237
  0
ARC
  5
F06
330
1F
100
AcDbEntity
  8
AM_VIS
100
AcDbCircle
 10
295.7681618774686
 20
221.4222560491938
 30
0.0
 40
5.0
100
AcDbArc
 50
17.45760312372119
 51
23.54713723707629
  0
ARC
  5
F07
330
1F
100
AcDbEntity
  8
AM_VIS
100
AcDbCircle
 10
295.7681618774686
 20
221.4222560491938
 30
0.0
 40
5.0
100
AcDbArc
 50
336.4528627629237
 51
342.5423968762772
  0
LINE
  5
F08
330
1F
100
AcDbEntity
  8
AM_VIS
100
AcDbLine
 10
298.3681618774688
 20
221.5622560491938
 30
0.0
 11
297.6681618774687
 21
221.3074768852075
 31
0.0
  0
LINE
  5
F09
330
1F
100
AcDbEntity
  8
AM_VIS
100
AcDbLine
 10
297.6681618774687
 20
221.0274768852075
 30
0.0
 11
298.3681618774688
 21
221.2822560491939
 31
0.0
  0
LINE
  5
F0A
330
1F
100
AcDbEntity
  8
AM_VIS
100
AcDbLine
 10
297.6681618774687
 20
218.4722560491938
 30
0.0
 11
298.3681618774688
 21
218.4722560491938
 31
0.0
  0
LINE
  5
F0B
330
1F
100
AcDbEntity
  8
AM_VIS
100
AcDbLine
 10
297.6681618774687
 20
224.3722560491938
 30
0.0
 11
298.3681618774688
 21
224.3722560491938
 31
0.0
  0
LINE
  5
F0C
330
1F
100
AcDbEntity
  8
AM_VIS
100
AcDbLine
 10
298.3681618774688
 20
218.4722560491938
 30
0.0
 11
298.3681618774688
 21
221.2822560491939
 31
0.0
  0
LINE
  5
F0D
330
1F
100
AcDbEntity
  8
AM_VIS
100
AcDbLine
 10
298.3681618774688
 20
221.5622560491938
 30
0.0
 11
298.3681618774688
 21
224.3722560491938
 31
0.0
  0
LINE
  5
F0E
330
1F
100
AcDbEntity
  8
AM_VIS
100
AcDbLine
 10
281.6681618774687
 20
226.4222560491937
 30
0.0
 11
281.6681618774687
 21
217.2722560491937
 31
0.0
  0
LINE
  5
F0F
330
1F
100
AcDbEntity
  8
AM_VIS
100
AcDbLine
 10
282.0681618774688
 20
226.4222560491937
 30
0.0
 11
281.6681618774687
 21
226.4222560491937
 31
0.0
  0
LINE
  5
F10
330
1F
100
AcDbEntity
  8
AM_VIS
100
AcDbLine
 10
282.0681618774688
 20
230.4222560491937
 30
0.0
 11
282.0681618774688
 21
226.4222560491937
 31
0.0
  0
LINE
  5
F11
330
1F
100
AcDbEntity
  8
AM_VIS
100
AcDbLine
 10
281.6681618774687
 20
230.4222560491937
 30
0.0
 11
282.0681618774688
 21
230.4222560491937
 31
0.0
  0
LINE
  5
F12
330
1F
100
AcDbEntity
  8
AM_VIS
100
AcDbLine
 10
281.6681618774687
 20
239.5722560491937
 30
0.0
 11
281.6681618774687
 21
230.4222560491937
 31
0.0
  0
LINE
  5
F13
330
1F
100
AcDbEntity
  8
AM_VIS
100
AcDbLine
 10
281.6681618774687
 20
239.5722560491937
 30
0.0
 11
302.1681618774687
 21
239.5722560491937
 31
0.0
  0
LINE
  5
F14
330
1F
100
AcDbEntity
  8
AM_VIS
100
AcDbLine
 10
302.1681618774687
 20
224.6722560491938
 30
0.0
 11
302.1681618774687
 21
239.5722560491937
 31
0.0
  0
LINE
  5
F15
330
1F
100
AcDbEntity
  8
AM_VIS
100
AcDbLine
 10
281.6681618774687
 20
217.2722560491937
 30
0.0
 11
297.6681618774687
 21
217.2722560491937
 31
0.0
  0
LINE
  5
F16
330
1F
100
AcDbEntity
  8
AM_VIS
100
AcDbLine
 10
297.6681618774687
 20
217.2722560491938
 30
0.0
 11
297.6681618774687
 21
224.6722560491938
 31
0.0
  0
LINE
  5
F17
330
1F
100
AcDbEntity
  8
AM_VIS
100
AcDbLine
 10
302.1681618774687
 20
221.4222560491938
 30
0.0
 11
302.1681618774687
 21
217.2722560491938
 31
0.0
  0
LINE
  5
F18
330
1F
100
AcDbEntity
  8
AM_VIS
100
AcDbLine
 10
302.1681618774687
 20
217.2722560491937
 30
0.0
 11
297.6681618774687
 21
217.2722560491937
 31
0.0
  0
LINE
  5
F19
330
1F
100
AcDbEntity
  8
AM_VIS
100
AcDbLine
 10
297.6681618774687
 20
224.6722560491938
 30
0.0
 11
302.1681618774687
 21
224.6722560491938
 31
0.0
  0
LINE
  5
F1A
330
1F
100
AcDbEntity
  8
AM_VIS
100
AcDbLine
 10
302.1681618774687
 20
224.6722560491938
 30
0.0
 11
302.1681618774687
 21
221.4222560491938
 31
0.0
  0
LINE
  5
F1B
330
1F
100
AcDbEntity
  8
AM_VIS
100
AcDbLine
 10
256.1181618774688
 20
231.4222560491938
 30
0.0
 11
256.1181618774688
 21
225.4222560491939
 31
0.0
  0
LINE
  5
F1C
330
1F
100
AcDbEntity
  8
AM_VIS
100
AcDbLine
 10
251.6181618774687
 20
225.4222560491939
 30
0.0
 11
251.6181618774687
 21
231.4222560491938
 31
0.0
  0
CIRCLE
  5
F1D
330
1F
100
AcDbEntity
  8
AM_VIS
100
AcDbCircle
 10
250.1681618774687
 20
219.9222560491937
 30
0.0
 40
1.600000000000042
  0
CIRCLE
  5
F1E
330
1F
100
AcDbEntity
  8
AM_VIS
100
AcDbCircle
 10
275.1681618774687
 20
236.9222560491937
 30
0.0
 40
1.600000000000044
  0
LINE
  5
F1F
330
1F
100
AcDbEntity
  8
AM_VIS
100
AcDbLine
 10
281.6681618774687
 20
239.5722560491939
 30
0.0
 11
243.6681618774687
 21
239.5722560491938
 31
0.0
  0
LINE
  5
F20
330
1F
100
AcDbEntity
  8
AM_VIS
100
AcDbLine
 10
243.6681618774687
 20
217.2722560491938
 30
0.0
 11
281.6681618774687
 21
217.2722560491938
 31
0.0
  0
LINE
  5
F21
330
1F
100
AcDbEntity
  8
AM_VIS
100
AcDbLine
 10
273.7181618774687
 20
225.4222560491939
 30
0.0
 11
273.7181618774687
 21
231.4222560491938
 31
0.0
  0
LINE
  5
F22
330
1F
100
AcDbEntity
  8
AM_VIS
100
AcDbLine
 10
269.2181618774687
 20
231.4222560491938
 30
0.0
 11
269.2181618774687
 21
225.4222560491939
 31
0.0
  0
LINE
  5
F23
330
1F
100
AcDbEntity
  8
AM_VIS
100
AcDbLine
 10
243.6681618774687
 20
238.5722560491938
 30
0.0
 11
243.6681618774687
 21
218.2722560491939
 31
0.0
  0
LINE
  5
F24
330
1F
100
AcDbEntity
  8
AM_VIS
100
AcDbLine
 10
281.6681618774687
 20
218.2722560491939
 30
0.0
 11
281.6681618774687
 21
238.5722560491938
 31
0.0
  0
CIRCLE
  5
F25
330
1F
100
AcDbEntity
  8
AM_VIS
100
AcDbCircle
 10
253.6681618774687
 20
228.4222560491938
 30
0.0
 40
5.449999999999999
  0
ARC
  5
F26
330
1F
100
AcDbEntity
  8
AM_VIS
100
AcDbCircle
 10
253.8681618774688
 20
225.4222560491939
 30
0.0
 40
2.25
100
AcDbArc
 50
180.0
 51
0.0
  0
ARC
  5
F27
330
1F
100
AcDbEntity
  8
AM_VIS
100
AcDbCircle
 10
253.8681618774688
 20
231.4222560491938
 30
0.0
 40
2.25
100
AcDbArc
 50
0.0
 51
180.0
  0
ARC
  5
F28
330
1F
100
AcDbEntity
  8
AM_VIS
100
AcDbCircle
 10
271.4681618774687
 20
225.4222560491939
 30
0.0
 40
2.25
100
AcDbArc
 50
180.0
 51
0.0
  0
ARC
  5
F29
330
1F
100
AcDbEntity
  8
AM_VIS
100
AcDbCircle
 10
271.4681618774687
 20
231.4222560491938
 30
0.0
 40
2.250000000000001
100
AcDbArc
 50
0.0
 51
180.0
  0
CIRCLE
  5
F2A
330
1F
100
AcDbEntity
  8
AM_VIS
100
AcDbCircle
 10
275.1681618774687
 20
236.9222560491938
 30
0.0
 40
1.6
  0
CIRCLE
  5
F2B
330
1F
100
AcDbEntity
  8
AM_VIS
100
AcDbCircle
 10
250.1681618774687
 20
219.9222560491938
 30
0.0
 40
1.6
  0
CIRCLE
  5
F2C
330
1F
100
AcDbEntity
  8
AM_VIS
100
AcDbCircle
 10
253.6681618774687
 20
228.4222560491938
 30
0.0
 40
6.699999999999999
  0
CIRCLE
  5
F2D
330
1F
100
AcDbEntity
  8
AM_VIS
100
AcDbCircle
 10
271.6681618774687
 20
228.4222560491938
 30
0.0
 40
6.699999999999999
  0
CIRCLE
  5
F2E
330
1F
100
AcDbEntity
  8
AM_VIS
100
AcDbCircle
 10
271.6681618774687
 20
228.4222560491938
 30
0.0
 40
5.449999999999999
  0
LINE
  5
F2F
330
1F
100
AcDbEntity
  8
AM_VIS
100
AcDbLine
 10
328.2165492570005
 20
299.5713695012473
 30
0.0
 11
328.2165492570005
 21
299.3188695012472
 31
0.0
  0
LINE
  5
F30
330
1F
100
AcDbEntity
  8
AM_VIS
100
AcDbLine
 10
328.2165492570005
 20
299.3188695012472
 30
0.0
 11
328.2165492570005
 21
299.0663695012472
 31
0.0
  0
LINE
  5
F31
330
1F
100
AcDbEntity
  8
AM_VIS
100
AcDbLine
 10
328.2165492570005
 20
299.3188695012472
 30
0.0
 11
328.469049257001
 21
299.5713695012477
 31
0.0
  0
LINE
  5
F32
330
1F
100
AcDbEntity
  8
AM_VIS
100
AcDbLine
 10
327.9640492570011
 20
299.5713695012467
 30
0.0
 11
328.2165492570005
 21
299.3188695012472
 31
0.0
  0
LINE
  5
F33
330
1F
100
AcDbEntity
  8
AM_VIS
100
AcDbLine
 10
328.4690492570025
 20
299.5713695012473
 30
0.0
 11
327.9640492570024
 21
299.5713695012473
 31
0.0
  0
LINE
  5
F34
330
1F
100
AcDbEntity
  8
AM_VIS
100
AcDbLine
 10
327.9640492570024
 20
299.0663695012472
 30
0.0
 11
327.9640492570024
 21
299.5713695012473
 31
0.0
  0
LINE
  5
F35
330
1F
100
AcDbEntity
  8
AM_VIS
100
AcDbLine
 10
328.4690492570023
 20
299.3188695012472
 30
0.0
 11
328.2165492570005
 21
299.3188695012472
 31
0.0
  0
LINE
  5
F36
330
1F
100
AcDbEntity
  8
AM_VIS
100
AcDbLine
 10
328.469049257001
 20
299.0663695012467
 30
0.0
 11
328.2165492570005
 21
299.3188695012472
 31
0.0
  0
LINE
  5
F37
330
1F
100
AcDbEntity
  8
AM_VIS
100
AcDbLine
 10
327.9640492570024
 20
299.0663695012472
 30
0.0
 11
328.4690492570023
 21
299.0663695012472
 31
0.0
  0
LINE
  5
F38
330
1F
100
AcDbEntity
  8
AM_VIS
100
AcDbLine
 10
328.2165492570005
 20
299.3188695012472
 30
0.0
 11
327.9640492570024
 21
299.3188695012472
 31
0.0
  0
LINE
  5
F39
330
1F
100
AcDbEntity
  8
AM_VIS
100
AcDbLine
 10
328.2165492570005
 20
299.3188695012472
 30
0.0
 11
327.9640492570008
 21
299.0663695012478
 31
0.0
  0
LINE
  5
F3A
330
1F
100
AcDbEntity
  8
AM_VIS
100
AcDbLine
 10
328.4690492570023
 20
299.5713695012473
 30
0.0
 11
328.4690492570023
 21
299.0663695012472
 31
0.0
  0
LINE
  5
F3B
330
1F
100
AcDbEntity
  8
AM_VIS
100
AcDbLine
 10
328.4690492570023
 20
299.0663695012472
 30
0.0
 11
329.7123104102366
 21
299.0663695012472
 31
0.0
  0
ELLIPSE
  5
F3C
330
1F
100
AcDbEntity
  8
AM_VIS
100
AcDbEllipse
 10
326.817648730434
 20
299.3188695012472
 30
0.0
 11
0.000000000000017
 21
4.670872363903953
 31
0.0
210
0.0
220
0.0
230
1.0
 40
0.6206336420084752
 41
4.658304192146683
 42
4.766473768622695
  0
LINE
  5
F3D
330
1F
100
AcDbEntity
  8
AM_VIS
100
AcDbLine
 10
329.7123104102366
 20
299.5713695012473
 30
0.0
 11
328.4690492570023
 21
299.5713695012473
 31
0.0
  0
LINE
  5
F3E
330
1F
100
AcDbEntity
  8
AM_VIS
100
AcDbLine
 10
327.9640492570024
 20
299.5713695012473
 30
0.0
 11
326.7207881037643
 21
299.5713695012473
 31
0.0
  0
ELLIPSE
  5
F3F
330
1F
100
AcDbEntity
  8
AM_VIS
100
AcDbEllipse
 10
329.6154497835669
 20
299.3188695012472
 30
0.0
 11
-0.0000000000000174
 21
-4.670872363903953
 31
0.0
210
0.0
220
0.0
230
1.0
 40
0.6206336420084755
 41
4.658304192146683
 42
4.766473768622695
  0
LINE
  5
F40
330
1F
100
AcDbEntity
  8
AM_VIS
100
AcDbLine
 10
326.7207881037643
 20
299.0663695012472
 30
0.0
 11
327.9640492570024
 21
299.0663695012472
 31
0.0
  0
LINE
  5
F41
330
1F
100
AcDbEntity
  8
AM_VIS
100
AcDbLine
 10
328.4690492570023
 20
297.8231083480112
 30
0.0
 11
328.4690492570023
 21
299.0663695012472
 31
0.0
  0
ELLIPSE
  5
F42
330
1F
100
AcDbEntity
  8
AM_VIS
100
AcDbEllipse
 10
328.2165492570005
 20
297.9199689746807
 30
0.0
 11
-4.670872363903926
 21
0.000000000000018
 31
0.0
210
0.0
220
0.0
230
1.0
 40
0.6206336420084869
 41
4.658304192146256
 42
4.766473768622269
  0
LINE
  5
F43
330
1F
100
AcDbEntity
  8
AM_VIS
100
AcDbLine
 10
327.9640492570024
 20
299.0663695012472
 30
0.0
 11
327.9640492570024
 21
297.8231083480111
 31
0.0
  0
LINE
  5
F44
330
1F
100
AcDbEntity
  8
AM_VIS
100
AcDbLine
 10
327.9640492570024
 20
300.8146306544834
 30
0.0
 11
327.9640492570024
 21
299.5713695012473
 31
0.0
  0
ELLIPSE
  5
F45
330
1F
100
AcDbEntity
  8
AM_VIS
100
AcDbEllipse
 10
328.2165492570005
 20
300.7177700278138
 30
0.0
 11
4.670872363903926
 21
-0.0000000000000163
 31
0.0
210
0.0
220
0.0
230
1.0
 40
0.6206336420084869
 41
4.658304192147109
 42
4.766473768623122
  0
LINE
  5
F46
330
1F
100
AcDbEntity
  8
AM_VIS
100
AcDbLine
 10
328.4690492570023
 20
299.5713695012473
 30
0.0
 11
328.4690492570023
 21
300.8146306544833
 31
0.0
  0
LINE
  5
F47
330
1F
100
AcDbEntity
  8
AM_VIS
100
AcDbLine
 10
342.2165492570002
 20
271.5713695012472
 30
0.0
 11
342.2165492570002
 21
271.3188695012472
 31
0.0
  0
LINE
  5
F48
330
1F
100
AcDbEntity
  8
AM_VIS
100
AcDbLine
 10
342.2165492570002
 20
271.3188695012472
 30
0.0
 11
342.2165492570002
 21
271.0663695012473
 31
0.0
  0
LINE
  5
F49
330
1F
100
AcDbEntity
  8
AM_VIS
100
AcDbLine
 10
342.2165492570002
 20
271.3188695012472
 30
0.0
 11
342.469049257001
 21
271.5713695012477
 31
0.0
  0
LINE
  5
F4A
330
1F
100
AcDbEntity
  8
AM_VIS
100
AcDbLine
 10
341.9640492570009
 20
271.5713695012466
 30
0.0
 11
342.2165492570002
 21
271.3188695012472
 31
0.0
  0
LINE
  5
F4B
330
1F
100
AcDbEntity
  8
AM_VIS
100
AcDbLine
 10
342.4690492570023
 20
271.5713695012472
 30
0.0
 11
341.9640492570022
 21
271.5713695012472
 31
0.0
  0
LINE
  5
F4C
330
1F
100
AcDbEntity
  8
AM_VIS
100
AcDbLine
 10
341.9640492570022
 20
271.0663695012472
 30
0.0
 11
341.9640492570022
 21
271.5713695012472
 31
0.0
  0
LINE
  5
F4D
330
1F
100
AcDbEntity
  8
AM_VIS
100
AcDbLine
 10
342.4690492570023
 20
271.3188695012472
 30
0.0
 11
342.2165492570002
 21
271.3188695012472
 31
0.0
  0
LINE
  5
F4E
330
1F
100
AcDbEntity
  8
AM_VIS
100
AcDbLine
 10
342.469049257001
 20
271.0663695012467
 30
0.0
 11
342.2165492570002
 21
271.3188695012472
 31
0.0
  0
LINE
  5
F4F
330
1F
100
AcDbEntity
  8
AM_VIS
100
AcDbLine
 10
341.9640492570022
 20
271.0663695012472
 30
0.0
 11
342.4690492570023
 21
271.0663695012472
 31
0.0
  0
ARC
  5
F50
330
1F
100
AcDbEntity
  8
AM_4
100
AcDbCircle
 10
335.2165492570005
 20
285.3188695012471
 30
0.0
 40
4.849999999999999
100
AcDbArc
 50
279.9999999999986
 51
189.9999999999986
  0
CIRCLE
  5
F51
330
1F
100
AcDbEntity
  8
AM_VIS
100
AcDbCircle
 10
335.2165492570005
 20
285.3188695012472
 30
0.0
 40
4.049999999999999
  0
LINE
  5
F52
330
1F
100
AcDbEntity
  8
AM_7
  6
AM_ISO08W050x2
100
AcDbLine
 10
335.2165492570005
 20
285.3188695012472
 30
0.0
 11
342.0665492570008
 21
285.3188695012472
 31
0.0
1001
GENIUS_GENOREF_13
1005
1015
  0
LINE
  5
F53
330
1F
100
AcDbEntity
  8
AM_7
  6
AM_ISO08W050x2
100
AcDbLine
 10
335.2165492570005
 20
285.3188695012472
 30
0.0
 11
335.2165492570005
 21
292.1688695012471
 31
0.0
1001
GENIUS_GENOREF_13
1005
1015
  0
LINE
  5
F54
330
1F
100
AcDbEntity
  8
AM_7
  6
AM_ISO08W050x2
100
AcDbLine
 10
335.2165492570005
 20
285.3188695012472
 30
0.0
 11
328.3665492570005
 21
285.3188695012472
 31
0.0
1001
GENIUS_GENOREF_13
1005
1015
  0
LINE
  5
F55
330
1F
100
AcDbEntity
  8
AM_7
  6
AM_ISO08W050x2
100
AcDbLine
 10
335.2165492570005
 20
285.3188695012472
 30
0.0
 11
335.2165492570005
 21
278.4688695012471
 31
0.0
1001
GENIUS_GENOREF_13
1005
1015
  0
CIRCLE
  5
F56
330
1F
100
AcDbEntity
  8
AM_VIS
100
AcDbCircle
 10
328.2165492570005
 20
299.3188695012472
 30
0.0
 40
3.0
  0
CIRCLE
  5
F57
330
1F
100
AcDbEntity
  8
AM_VIS
100
AcDbCircle
 10
342.2165492570002
 20
271.3188695012472
 30
0.0
 40
3.0
  0
LINE
  5
F58
330
1F
100
AcDbEntity
  8
AM_VIS
100
AcDbLine
 10
237.6681618774687
 20
239.572256049194
 30
0.0
 11
240.1681618774687
 21
239.572256049194
 31
0.0
  0
LINE
  5
F59
330
1F
100
AcDbEntity
  8
AM_VIS
100
AcDbLine
 10
243.6681618774687
 20
239.572256049194
 30
0.0
 11
240.1681618774687
 21
239.572256049194
 31
0.0
  0
LINE
  5
F5A
330
1F
100
AcDbEntity
  8
AM_VIS
100
AcDbLine
 10
236.6681618774687
 20
238.572256049194
 30
0.0
 11
236.6681618774687
 21
236.3540280170059
 31
0.0
  0
LINE
  5
F5B
330
1F
100
AcDbEntity
  8
AM_VIS
100
AcDbLine
 10
236.6681618774687
 20
235.771256049192
 30
0.0
 11
236.6681618774687
 21
235.422256049194
 31
0.0
  0
LINE
  5
F5C
330
1F
100
AcDbEntity
  8
AM_VIS
100
AcDbLine
 10
236.6681618774687
 20
230.422256049194
 30
0.0
 11
236.6681618774687
 21
218.272256049194
 31
0.0
  0
LINE
  5
F5D
330
1F
100
AcDbEntity
  8
AM_VIS
100
AcDbLine
 10
237.6681618774687
 20
217.272256049194
 30
0.0
 11
243.6681618774687
 21
217.272256049194
 31
0.0
  0
LINE
  5
F5E
330
1F
100
AcDbEntity
  8
AM_VIS
100
AcDbLine
 10
238.6681618774687
 20
231.422256049194
 30
0.0
 11
237.6681618774687
 21
231.422256049194
 31
0.0
  0
LINE
  5
F5F
330
1F
100
AcDbEntity
  8
AM_VIS
100
AcDbLine
 10
239.6681618774687
 20
238.572256049194
 30
0.0
 11
239.6681618774687
 21
232.3587477222976
 31
0.0
  0
ARC
  5
F60
330
1F
100
AcDbEntity
  8
AM_VIS
100
AcDbCircle
 10
237.6681618774687
 20
230.422256049194
 30
0.0
 40
1.0
100
AcDbArc
 50
90.0
 51
180.0
  0
LINE
  5
F61
330
1F
100
AcDbEntity
  8
AM_VIS
100
AcDbLine
 10
236.6681618774687
 20
235.422256049194
 30
0.0
 11
236.6681618774687
 21
235.073256049192
 31
0.0
  0
LINE
  5
F62
330
1F
100
AcDbEntity
  8
AM_VIS
100
AcDbLine
 10
236.6681618774687
 20
234.4904840813821
 30
0.0
 11
236.6681618774687
 21
230.422256049194
 31
0.0
  0
ARC
  5
F63
330
1F
100
AcDbEntity
  8
AM_VIS
100
AcDbCircle
 10
237.6681618774687
 20
238.572256049194
 30
0.0
 40
1.0
100
AcDbArc
 50
90.0
 51
180.0
  0
ARC
  5
F64
330
1F
100
AcDbEntity
  8
AM_VIS
100
AcDbCircle
 10
237.6681618774687
 20
218.272256049194
 30
0.0
 40
1.0
100
AcDbArc
 50
180.0
 51
270.0
  0
LINE
  5
F65
330
1F
100
AcDbEntity
  8
AM_VIS
100
AcDbLine
 10
239.6681618774687
 20
238.572256049194
 30
0.0
 11
239.6681618774687
 21
239.072256049194
 31
0.0
  0
ARC
  5
F66
330
1F
100
AcDbEntity
  8
AM_VIS
100
AcDbCircle
 10
240.1681618774687
 20
239.072256049194
 30
0.0
 40
0.5
100
AcDbArc
 50
90.0
 51
180.0
  0
ARC
  5
F67
330
1F
100
AcDbEntity
  8
AM_VIS
100
AcDbCircle
 10
238.6681618774687
 20
232.422256049194
 30
0.0
 40
1.0
100
AcDbArc
 50
270.0
 51
0.0
  0
LINE
  5
F68
330
1F
100
AcDbEntity
  8
AM_VIS
100
AcDbLine
 10
237.9799944759398
 20
232.7087094944937
 30
0.0
 11
238.9681618774689
 21
232.622256049194
 31
0.0
  0
LINE
  5
F69
330
1F
100
AcDbEntity
  8
AM_VIS
100
AcDbLine
 10
237.9799944759398
 20
238.1358026038944
 30
0.0
 11
238.9681618774689
 21
238.222256049194
 31
0.0
  0
ARC
  5
F6A
330
1F
100
AcDbEntity
  8
AM_VIS
100
AcDbCircle
 10
241.5681618774688
 20
235.422256049194
 30
0.0
 40
4.987805028266441
100
AcDbArc
 50
163.1891285876383
 51
171.2190096199778
  0
LINE
  5
F6B
330
1F
100
AcDbEntity
  8
AM_VIS
100
AcDbLine
 10
236.7935124984522
 20
236.8647962765206
 30
0.0
 11
236.7830286504834
 21
236.872256049194
 31
0.0
  0
LINE
  5
F6C
330
1F
100
AcDbEntity
  8
AM_VIS
100
AcDbLine
 10
236.7830286504834
 20
233.972256049194
 30
0.0
 11
236.7935124984522
 21
233.9797158218674
 31
0.0
  0
ELLIPSE
  5
F6D
330
1F
100
AcDbEntity
  8
AM_VIS
100
AcDbEllipse
 10
240.6447236615218
 20
235.422256049194
 30
0.0
 11
0.0
 21
-4.739516250631768
 31
0.0
210
0.0
220
0.0
230
1.0
 40
0.8147867433778023
 41
4.638686064266501
 42
4.786091896503723
  0
LINE
  5
F6E
330
1F
100
AcDbEntity
  8
AM_VIS
100
AcDbLine
 10
236.7935124984519
 20
235.771256049192
 30
0.0
 11
236.6388184891462
 21
235.771256049192
 31
0.0
  0
LINE
  5
F6F
330
1F
100
AcDbEntity
  8
AM_VIS
100
AcDbLine
 10
236.6388184891462
 20
235.073256049192
 30
0.0
 11
236.7935124984522
 21
235.073256049192
 31
0.0
  0
ARC
  5
F70
330
1F
100
AcDbEntity
  8
AM_VIS
100
AcDbCircle
 10
241.5681618774688
 20
235.422256049194
 30
0.0
 40
4.987805028266441
100
AcDbArc
 50
188.7809903800205
 51
196.8108714123617
  0
LINE
  5
F71
330
1F
100
AcDbEntity
  8
AM_VIS
100
AcDbLine
 10
236.6388184891462
 20
234.6608279435924
 30
0.0
 11
236.6388184891462
 21
235.073256049192
 31
0.0
  0
LINE
  5
F72
330
1F
100
AcDbEntity
  8
AM_VIS
100
AcDbLine
 10
236.6388184891462
 20
235.771256049192
 30
0.0
 11
236.6388184891462
 21
236.1836841547956
 31
0.0
  0
ARC
  5
F73
330
1F
100
AcDbEntity
  8
AM_VIS
100
AcDbCircle
 10
238.084581367237
 20
233.9041431322037
 30
0.0
 40
1.199999999999999
100
AcDbArc
 50
203.5471372370763
 51
265.0000000000003
  0
ARC
  5
F74
330
1F
100
AcDbEntity
  8
AM_VIS
100
AcDbCircle
 10
238.084581367237
 20
236.9403689661843
 30
0.0
 40
1.199999999999999
100
AcDbArc
 50
94.99999999999975
 51
156.4528627629237
  0
ARC
  5
F75
330
1F
100
AcDbEntity
  8
AM_VIS
100
AcDbCircle
 10
241.5681618774688
 20
235.422256049194
 30
0.0
 40
5.0
100
AcDbArc
 50
196.8579560224981
 51
203.5471372370763
  0
ARC
  5
F76
330
1F
100
AcDbEntity
  8
AM_VIS
100
AcDbCircle
 10
241.5681618774688
 20
235.422256049194
 30
0.0
 40
5.0
100
AcDbArc
 50
156.4528627629237
 51
163.1420439775034
  0
LINE
  5
F77
330
1F
100
AcDbEntity
  8
AM_VIS
100
AcDbLine
 10
239.6681618774687
 20
238.372256049194
 30
0.0
 11
238.9681618774689
 21
238.372256049194
 31
0.0
  0
LINE
  5
F78
330
1F
100
AcDbEntity
  8
AM_VIS
100
AcDbLine
 10
239.6681618774687
 20
232.472256049194
 30
0.0
 11
238.9681618774689
 21
232.472256049194
 31
0.0
  0
LINE
  5
F79
330
1F
100
AcDbEntity
  8
AM_VIS
100
AcDbLine
 10
238.9681618774689
 20
238.372256049194
 30
0.0
 11
238.9681618774689
 21
232.472256049194
 31
0.0
  0
LINE
  5
F7A
330
1F
100
AcDbEntity
  8
AM_VIS
100
AcDbLine
 10
240.1681618774687
 20
267.8188695012474
 30
0.0
 11
243.6681618774687
 21
267.8188695012474
 31
0.0
  0
LINE
  5
F7B
330
1F
100
AcDbEntity
  8
AM_VIS
100
AcDbLine
 10
237.6681618774687
 20
275.3188695012474
 30
0.0
 11
238.6681618774687
 21
275.3188695012474
 31
0.0
  0
LINE
  5
F7C
330
1F
100
AcDbEntity
  8
AM_VIS
100
AcDbLine
 10
236.6681618774687
 20
271.3188695012473
 30
0.0
 11
236.6681618774687
 21
270.9698695012473
 31
0.0
  0
LINE
  5
F7D
330
1F
100
AcDbEntity
  8
AM_VIS
100
AcDbLine
 10
236.6681618774687
 20
270.3870975334354
 30
0.0
 11
236.6681618774687
 21
268.8188695012473
 31
0.0
  0
LINE
  5
F7E
330
1F
100
AcDbEntity
  8
AM_VIS
100
AcDbLine
 10
236.6681618774687
 20
301.8188695012474
 30
0.0
 11
236.6681618774687
 21
276.3188695012474
 31
0.0
  0
LINE
  5
F7F
330
1F
100
AcDbEntity
  8
AM_VIS
100
AcDbLine
 10
243.6681618774687
 20
302.8188695012474
 30
0.0
 11
237.6681618774687
 21
302.8188695012474
 31
0.0
  0
LINE
  5
F80
330
1F
100
AcDbEntity
  8
AM_VIS
100
AcDbLine
 10
239.6681618774687
 20
274.3823778281436
 30
0.0
 11
239.6681618774687
 21
268.8188695012474
 31
0.0
  0
LINE
  5
F81
330
1F
100
AcDbEntity
  8
AM_VIS
100
AcDbLine
 10
240.1681618774687
 20
267.8188695012473
 30
0.0
 11
237.6681618774687
 21
267.8188695012473
 31
0.0
  0
LINE
  5
F82
330
1F
100
AcDbEntity
  8
AM_VIS
100
AcDbLine
 10
236.6681618774687
 20
276.3188695012473
 30
0.0
 11
236.6681618774687
 21
272.2506414690592
 31
0.0
  0
LINE
  5
F83
330
1F
100
AcDbEntity
  8
AM_VIS
100
AcDbLine
 10
236.6681618774687
 20
271.6678695012473
 30
0.0
 11
236.6681618774687
 21
271.3188695012473
 31
0.0
  0
ARC
  5
F84
330
1F
100
AcDbEntity
  8
AM_VIS
100
AcDbCircle
 10
237.6681618774687
 20
276.3188695012474
 30
0.0
 40
1.0
100
AcDbArc
 50
180.0
 51
270.0
  0
ARC
  5
F85
330
1F
100
AcDbEntity
  8
AM_VIS
100
AcDbCircle
 10
237.6681618774687
 20
301.8188695012474
 30
0.0
 40
1.0
100
AcDbArc
 50
90.0
 51
180.0
  0
ARC
  5
F86
330
1F
100
AcDbEntity
  8
AM_VIS
100
AcDbCircle
 10
237.6681618774687
 20
268.8188695012473
 30
0.0
 40
1.0
100
AcDbArc
 50
180.0
 51
270.0
  0
LINE
  5
F87
330
1F
100
AcDbEntity
  8
AM_VIS
100
AcDbLine
 10
239.6681618774687
 20
268.3188695012474
 30
0.0
 11
239.6681618774687
 21
268.8188695012474
 31
0.0
  0
ARC
  5
F88
330
1F
100
AcDbEntity
  8
AM_VIS
100
AcDbCircle
 10
240.1681618774687
 20
268.3188695012474
 30
0.0
 40
0.5
100
AcDbArc
 50
180.0
 51
270.0
  0
ARC
  5
F89
330
1F
100
AcDbEntity
  8
AM_VIS
100
AcDbCircle
 10
238.6681618774687
 20
274.3188695012474
 30
0.0
 40
1.0
100
AcDbArc
 50
0.0
 51
90.0
  0
LINE
  5
F8A
330
1F
100
AcDbEntity
  8
AM_VIS
100
AcDbLine
 10
237.9799944759398
 20
268.6053229465469
 30
0.0
 11
238.9681618774689
 21
268.5188695012473
 31
0.0
  0
LINE
  5
F8B
330
1F
100
AcDbEntity
  8
AM_VIS
100
AcDbLine
 10
237.9799944759398
 20
274.0324160559477
 30
0.0
 11
238.9681618774689
 21
274.1188695012473
 31
0.0
  0
LINE
  5
F8C
330
1F
100
AcDbEntity
  8
AM_VIS
100
AcDbLine
 10
236.6388184891462
 20
270.9698695012473
 30
0.0
 11
236.7935124984522
 21
270.9698695012473
 31
0.0
  0
ELLIPSE
  5
F8D
330
1F
100
AcDbEntity
  8
AM_VIS
100
AcDbEllipse
 10
240.6447236615218
 20
271.3188695012473
 30
0.0
 11
0.0
 21
-4.73951625063177
 31
0.0
210
0.0
220
0.0
230
1.0
 40
0.8147867433778053
 41
4.638686064266082
 42
4.786091896503304
  0
LINE
  5
F8E
330
1F
100
AcDbEntity
  8
AM_VIS
100
AcDbLine
 10
236.7830286504834
 20
269.8688695012473
 30
0.0
 11
236.7935124984519
 21
269.8763292739207
 31
0.0
  0
ARC
  5
F8F
330
1F
100
AcDbEntity
  8
AM_VIS
100
AcDbCircle
 10
241.5681618774688
 20
271.3188695012474
 30
0.0
 40
4.987805028266581
100
AcDbArc
 50
163.1891285876367
 51
171.2190096199679
  0
ARC
  5
F90
330
1F
100
AcDbEntity
  8
AM_VIS
100
AcDbCircle
 10
241.5681618774688
 20
271.3188695012474
 30
0.0
 40
4.987805028266581
100
AcDbArc
 50
188.780990380032
 51
196.8108714123632
  0
LINE
  5
F91
330
1F
100
AcDbEntity
  8
AM_VIS
100
AcDbLine
 10
236.7935124984519
 20
272.7614097285741
 30
0.0
 11
236.7830286504834
 21
272.7688695012473
 31
0.0
  0
LINE
  5
F92
330
1F
100
AcDbEntity
  8
AM_VIS
100
AcDbLine
 10
236.7935124984519
 20
271.6678695012474
 30
0.0
 11
236.6388184891462
 21
271.6678695012474
 31
0.0
  0
LINE
  5
F93
330
1F
100
AcDbEntity
  8
AM_VIS
100
AcDbLine
 10
236.6388184891462
 20
270.5574413956449
 30
0.0
 11
236.6388184891462
 21
270.9698695012473
 31
0.0
  0
LINE
  5
F94
330
1F
100
AcDbEntity
  8
AM_VIS
100
AcDbLine
 10
236.6388184891462
 20
271.6678695012473
 30
0.0
 11
236.6388184891462
 21
272.0802976068498
 31
0.0
  0
ARC
  5
F95
330
1F
100
AcDbEntity
  8
AM_VIS
100
AcDbCircle
 10
238.084581367237
 20
269.8007565842571
 30
0.0
 40
1.199999999999999
100
AcDbArc
 50
203.5471372370763
 51
265.0000000000003
  0
ARC
  5
F96
330
1F
100
AcDbEntity
  8
AM_VIS
100
AcDbCircle
 10
238.084581367237
 20
272.8369824182376
 30
0.0
 40
1.199999999999999
100
AcDbArc
 50
94.99999999999975
 51
156.4528627629237
  0
ARC
  5
F97
330
1F
100
AcDbEntity
  8
AM_VIS
100
AcDbCircle
 10
241.5681618774688
 20
271.3188695012473
 30
0.0
 40
5.0
100
AcDbArc
 50
156.4528627629237
 51
163.1420439775034
  0
ARC
  5
F98
330
1F
100
AcDbEntity
  8
AM_VIS
100
AcDbCircle
 10
241.5681618774688
 20
271.3188695012473
 30
0.0
 40
5.0
100
AcDbArc
 50
196.8579560224966
 51
203.5471372370763
  0
ELLIPSE
  5
F99
330
1F
100
AcDbEntity
  8
AM_VIS
100
AcDbEllipse
 10
239.3528087161924
 20
271.3188695012473
 30
0.0
 11
-8.105058387392032
 21
0.0000000000000044
 31
0.0
210
0.0
220
0.0
230
1.0
 40
0.3639702342661606
 41
4.712388980384686
 42
4.7598644398022
  0
LINE
  5
F9A
330
1F
100
AcDbEntity
  8
AM_VIS
100
AcDbLine
 10
239.6681618774687
 20
274.2688695012473
 30
0.0
 11
239.3528087161924
 21
274.2688695012473
 31
0.0
  0
LINE
  5
F9B
330
1F
100
AcDbEntity
  8
AM_VIS
100
AcDbLine
 10
239.6681618774687
 20
268.3688695012473
 30
0.0
 11
238.9681618774689
 21
268.3688695012473
 31
0.0
  0
LINE
  5
F9C
330
1F
100
AcDbEntity
  8
AM_VIS
100
AcDbLine
 10
238.9681618774689
 20
274.2655455947465
 30
0.0
 11
238.9681618774689
 21
268.3688695012473
 31
0.0
  0
LINE
  5
F9D
330
1F
100
AcDbEntity
  8
AM_VIS
100
AcDbLine
 10
237.6681618774687
 20
344.2319589187817
 30
0.0
 11
243.6681618774687
 21
344.2319589187817
 31
0.0
  0
LINE
  5
F9E
330
1F
100
AcDbEntity
  8
AM_VIS
100
AcDbLine
 10
238.6681618774687
 20
358.3819589187818
 30
0.0
 11
237.6681618774687
 21
358.3819589187818
 31
0.0
  0
LINE
  5
F9F
330
1F
100
AcDbEntity
  8
AM_VIS
100
AcDbLine
 10
236.6681618774687
 20
357.3819589187818
 30
0.0
 11
236.6681618774687
 21
345.2319589187818
 31
0.0
  0
LINE
  5
FA0
330
1F
100
AcDbEntity
  8
AM_VIS
100
AcDbLine
 10
236.6681618774687
 20
365.5319589187818
 30
0.0
 11
236.6681618774687
 21
363.3137308865938
 31
0.0
  0
LINE
  5
FA1
330
1F
100
AcDbEntity
  8
AM_VIS
100
AcDbLine
 10
236.6681618774687
 20
362.7309589187837
 30
0.0
 11
236.6681618774687
 21
362.3819589187818
 31
0.0
  0
LINE
  5
FA2
330
1F
100
AcDbEntity
  8
AM_VIS
100
AcDbLine
 10
243.6681618774687
 20
366.5319589187819
 30
0.0
 11
240.1681618774687
 21
366.5319589187819
 31
0.0
  0
LINE
  5
FA3
330
1F
100
AcDbEntity
  8
AM_VIS
100
AcDbLine
 10
239.6681618774687
 20
365.5319589187819
 30
0.0
 11
239.6681618774687
 21
359.3184505918856
 31
0.0
  0
LINE
  5
FA4
330
1F
100
AcDbEntity
  8
AM_VIS
100
AcDbLine
 10
237.6681618774687
 20
366.5319589187817
 30
0.0
 11
240.1681618774687
 21
366.5319589187817
 31
0.0
  0
ARC
  5
FA5
330
1F
100
AcDbEntity
  8
AM_VIS
100
AcDbCircle
 10
237.6681618774687
 20
345.2319589187817
 30
0.0
 40
1.0
100
AcDbArc
 50
180.0
 51
270.0
  0
LINE
  5
FA6
330
1F
100
AcDbEntity
  8
AM_VIS
100
AcDbLine
 10
236.6681618774687
 20
362.3819589187818
 30
0.0
 11
236.6681618774687
 21
362.0329589187837
 31
0.0
  0
LINE
  5
FA7
330
1F
100
AcDbEntity
  8
AM_VIS
100
AcDbLine
 10
236.6681618774687
 20
361.4501869509698
 30
0.0
 11
236.6681618774687
 21
357.3819589187818
 31
0.0
  0
ARC
  5
FA8
330
1F
100
AcDbEntity
  8
AM_VIS
100
AcDbCircle
 10
237.6681618774687
 20
357.3819589187818
 30
0.0
 40
1.0
100
AcDbArc
 50
90.0
 51
180.0
  0
ARC
  5
FA9
330
1F
100
AcDbEntity
  8
AM_VIS
100
AcDbCircle
 10
237.6681618774687
 20
365.5319589187818
 30
0.0
 40
1.0
100
AcDbArc
 50
90.0
 51
180.0
  0
LINE
  5
FAA
330
1F
100
AcDbEntity
  8
AM_VIS
100
AcDbLine
 10
239.6681618774687
 20
365.5319589187819
 30
0.0
 11
239.6681618774687
 21
366.0319589187819
 31
0.0
  0
ARC
  5
FAB
330
1F
100
AcDbEntity
  8
AM_VIS
100
AcDbCircle
 10
240.1681618774687
 20
366.0319589187819
 30
0.0
 40
0.5
100
AcDbArc
 50
90.0
 51
180.0
  0
ARC
  5
FAC
330
1F
100
AcDbEntity
  8
AM_VIS
100
AcDbCircle
 10
238.6681618774687
 20
359.3819589187818
 30
0.0
 40
1.0
100
AcDbArc
 50
270.0
 51
0.0
  0
LINE
  5
FAD
330
1F
100
AcDbEntity
  8
AM_VIS
100
AcDbLine
 10
237.9799944759398
 20
359.6684123640815
 30
0.0
 11
238.9681618774687
 21
359.5819589187817
 31
0.0
  0
LINE
  5
FAE
330
1F
100
AcDbEntity
  8
AM_VIS
100
AcDbLine
 10
237.9799944759398
 20
365.0955054734821
 30
0.0
 11
238.9681618774689
 21
365.1819589187817
 31
0.0
  0
LINE
  5
FAF
330
1F
100
AcDbEntity
  8
AM_VIS
100
AcDbLine
 10
238.9681618774689
 20
362.5219589187817
 30
0.0
 11
238.9681618774689
 21
362.2419589187817
 31
0.0
  0
LINE
  5
FB0
330
1F
100
AcDbEntity
  8
AM_VIS
100
AcDbLine
 10
239.6614368774688
 20
362.7742903829426
 30
0.0
 11
239.6614368774688
 21
362.4942903829427
 31
0.0
  0
LINE
  5
FB1
330
1F
100
AcDbEntity
  8
AM_VIS
100
AcDbLine
 10
236.7830286504834
 20
360.9319589187817
 30
0.0
 11
236.7935124984522
 21
360.9394186914552
 31
0.0
  0
ARC
  5
FB2
330
1F
100
AcDbEntity
  8
AM_VIS
100
AcDbCircle
 10
241.5681618774688
 20
362.3819589187818
 30
0.0
 40
4.987805028266441
100
AcDbArc
 50
163.1891285876383
 51
171.2190096199795
  0
LINE
  5
FB3
330
1F
100
AcDbEntity
  8
AM_VIS
100
AcDbLine
 10
236.7935124984522
 20
363.8244991461084
 30
0.0
 11
236.7830286504834
 21
363.8319589187818
 31
0.0
  0
LINE
  5
FB4
330
1F
100
AcDbEntity
  8
AM_VIS
100
AcDbLine
 10
236.7935124984522
 20
362.7309589187837
 30
0.0
 11
236.6388184891462
 21
362.7309589187837
 31
0.0
  0
LINE
  5
FB5
330
1F
100
AcDbEntity
  8
AM_VIS
100
AcDbLine
 10
236.6388184891462
 20
362.0329589187837
 30
0.0
 11
236.7935124984519
 21
362.0329589187837
 31
0.0
  0
ELLIPSE
  5
FB6
330
1F
100
AcDbEntity
  8
AM_VIS
100
AcDbEllipse
 10
240.6447236615218
 20
362.3819589187818
 30
0.0
 11
0.0
 21
-4.739516250631768
 31
0.0
210
0.0
220
0.0
230
1.0
 40
0.814786743377803
 41
4.638686064265663
 42
4.786091896502886
  0
ARC
  5
FB7
330
1F
100
AcDbEntity
  8
AM_VIS
100
AcDbCircle
 10
241.5681618774688
 20
362.3819589187818
 30
0.0
 40
4.987805028266441
100
AcDbArc
 50
188.7809903800221
 51
196.8108714123617
  0
LINE
  5
FB8
330
1F
100
AcDbEntity
  8
AM_VIS
100
AcDbLine
 10
236.6388184891462
 20
361.6205308131801
 30
0.0
 11
236.6388184891462
 21
362.0329589187837
 31
0.0
  0
LINE
  5
FB9
330
1F
100
AcDbEntity
  8
AM_VIS
100
AcDbLine
 10
236.6388184891462
 20
362.7309589187837
 30
0.0
 11
236.6388184891462
 21
363.1433870243832
 31
0.0
  0
ARC
  5
FBA
330
1F
100
AcDbEntity
  8
AM_VIS
100
AcDbCircle
 10
238.084581367237
 20
360.8638460017915
 30
0.0
 40
1.199999999999999
100
AcDbArc
 50
203.5471372370763
 51
265.0000000000003
  0
ARC
  5
FBB
330
1F
100
AcDbEntity
  8
AM_VIS
100
AcDbCircle
 10
238.084581367237
 20
363.9000718357721
 30
0.0
 40
1.199999999999999
100
AcDbArc
 50
94.99999999999975
 51
156.4528627629237
  0
ARC
  5
FBC
330
1F
100
AcDbEntity
  8
AM_VIS
100
AcDbCircle
 10
241.5681618774688
 20
362.3819589187818
 30
0.0
 40
5.0
100
AcDbArc
 50
156.4528627629237
 51
163.1420439775034
  0
ARC
  5
FBD
330
1F
100
AcDbEntity
  8
AM_VIS
100
AcDbCircle
 10
241.5681618774688
 20
362.3819589187818
 30
0.0
 40
5.0
100
AcDbArc
 50
196.8579560224966
 51
203.5471372370763
  0
LINE
  5
FBE
330
1F
100
AcDbEntity
  8
AM_VIS
100
AcDbLine
 10
238.9681618774689
 20
362.2419589187817
 30
0.0
 11
239.6681618774687
 21
362.496738082768
 31
0.0
  0
LINE
  5
FBF
330
1F
100
AcDbEntity
  8
AM_VIS
100
AcDbLine
 10
239.6681618774687
 20
362.776738082768
 30
0.0
 11
238.9681618774689
 21
362.5219589187817
 31
0.0
  0
LINE
  5
FC0
330
1F
100
AcDbEntity
  8
AM_VIS
100
AcDbLine
 10
239.6681618774687
 20
365.3319589187817
 30
0.0
 11
238.9681618774689
 21
365.3319589187817
 31
0.0
  0
LINE
  5
FC1
330
1F
100
AcDbEntity
  8
AM_VIS
100
AcDbLine
 10
239.6681618774687
 20
359.4319589187817
 30
0.0
 11
238.9681618774689
 21
359.4319589187817
 31
0.0
  0
LINE
  5
FC2
330
1F
100
AcDbEntity
  8
AM_VIS
100
AcDbLine
 10
238.9681618774689
 20
365.3319589187817
 30
0.0
 11
238.9681618774689
 21
362.5219589187817
 31
0.0
  0
LINE
  5
FC3
330
1F
100
AcDbEntity
  8
AM_VIS
100
AcDbLine
 10
238.9681618774689
 20
362.2419589187817
 30
0.0
 11
238.9681618774689
 21
359.4319589187817
 31
0.0
  0
LINE
  5
FC4
330
1F
100
AcDbEntity
  8
AM_7
100
AcDbLine
 10
234.7904962631947
 20
355.3819589187818
 30
0.0
 11
304.5922395163416
 21
355.3819589187818
 31
0.0
1001
GENIUS_GENOBJ-N-CEN_13
1002
{
1000
OWNER
1000
GEN
1002
}
1001
GENIUS_GENODEF_13
1002
{
1000
HIER
1070
     0
1002
}
1002
{
1000
MANEDIT
1070
     0
1002
}
1002
{
1000
NOSEL
1070
     0
1002
}
1002
{
1000
BEHIND
1070
     0
1002
}
1002
{
1000
OTHER
1070
     0
1002
}
1002
{
1000
REACTOR
1002
}
1001
GENIUS_GENCEN_19
1002
{
1040
1.0
1002
}
  0
LINE
  5
FC5
330
1F
100
AcDbEntity
  8
AM_7
  6
AM_ISO08W050x2
100
AcDbLine
 10
250.1681618774687
 20
294.3188695012473
 30
0.0
 11
253.2681618774686
 21
294.3188695012473
 31
0.0
1001
GENIUS_GENOREF_13
1005
1014
  0
LINE
  5
FC6
330
1F
100
AcDbEntity
  8
AM_7
  6
AM_ISO08W050x2
100
AcDbLine
 10
250.1681618774687
 20
294.3188695012473
 30
0.0
 11
250.1681618774687
 21
297.4188695012472
 31
0.0
1001
GENIUS_GENOREF_13
1005
1014
  0
LINE
  5
FC7
330
1F
100
AcDbEntity
  8
AM_7
  6
AM_ISO08W050x2
100
AcDbLine
 10
250.1681618774687
 20
294.3188695012473
 30
0.0
 11
247.0681618774688
 21
294.3188695012473
 31
0.0
1001
GENIUS_GENOREF_13
1005
1014
  0
LINE
  5
FC8
330
1F
100
AcDbEntity
  8
AM_7
  6
AM_ISO08W050x2
100
AcDbLine
 10
250.1681618774687
 20
294.3188695012473
 30
0.0
 11
250.1681618774687
 21
291.2188695012474
 31
0.0
1001
GENIUS_GENOREF_13
1005
1014
  0
LINE
  5
FC9
330
1F
100
AcDbEntity
  8
AM_7
  6
AM_ISO08W050x2
100
AcDbLine
 10
275.1681618774687
 20
294.3188695012473
 30
0.0
 11
278.2681618774686
 21
294.3188695012473
 31
0.0
1001
GENIUS_GENOREF_13
1005
1013
  0
LINE
  5
FCA
330
1F
100
AcDbEntity
  8
AM_7
  6
AM_ISO08W050x2
100
AcDbLine
 10
275.1681618774687
 20
294.3188695012473
 30
0.0
 11
275.1681618774687
 21
297.4188695012472
 31
0.0
1001
GENIUS_GENOREF_13
1005
1013
  0
LINE
  5
FCB
330
1F
100
AcDbEntity
  8
AM_7
  6
AM_ISO08W050x2
100
AcDbLine
 10
275.1681618774687
 20
294.3188695012473
 30
0.0
 11
272.0681618774688
 21
294.3188695012473
 31
0.0
1001
GENIUS_GENOREF_13
1005
1013
  0
LINE
  5
FCC
330
1F
100
AcDbEntity
  8
AM_7
  6
AM_ISO08W050x2
100
AcDbLine
 10
275.1681618774687
 20
294.3188695012473
 30
0.0
 11
275.1681618774687
 21
291.2188695012474
 31
0.0
1001
GENIUS_GENOREF_13
1005
1013
  0
LINE
  5
FCD
330
1F
100
AcDbEntity
  8
AM_7
100
AcDbLine
 10
234.9788897843459
 20
228.4222560491938
 30
0.0
 11
304.4496580930722
 21
228.4222560491938
 31
0.0
1001
GENIUS_GENODEF_13
1002
{
1000
HIER
1070
     0
1002
}
1002
{
1000
MANEDIT
1070
     0
1002
}
1002
{
1000
NOSEL
1070
     0
1002
}
1002
{
1000
BEHIND
1070
     0
1002
}
1002
{
1000
OTHER
1070
     0
1002
}
1002
{
1000
REACTOR
1002
}
1001
GENIUS_GENOBJ-N-CEN_13
1002
{
1000
OWNER
1000
GEN
1002
}
1001
GENIUS_GENCEN_19
1002
{
1040
1.0
1002
}
  0
LINE
  5
FCE
330
1F
100
AcDbEntity
  8
AM_7
  6
AM_ISO08W050x2
100
AcDbLine
 10
275.1681618774687
 20
236.9222560491937
 30
0.0
 11
277.7681618774686
 21
236.9222560491937
 31
0.0
1001
GENIUS_GENOREF_13
1005
1012
  0
LINE
  5
FCF
330
1F
100
AcDbEntity
  8
AM_7
  6
AM_ISO08W050x2
100
AcDbLine
 10
275.1681618774687
 20
236.9222560491937
 30
0.0
 11
275.1681618774687
 21
239.5222560491936
 31
0.0
1001
GENIUS_GENOREF_13
1005
1012
  0
LINE
  5
FD0
330
1F
100
AcDbEntity
  8
AM_7
  6
AM_ISO08W050x2
100
AcDbLine
 10
275.1681618774687
 20
236.9222560491937
 30
0.0
 11
272.5681618774688
 21
236.9222560491937
 31
0.0
1001
GENIUS_GENOREF_13
1005
1012
  0
LINE
  5
FD1
330
1F
100
AcDbEntity
  8
AM_7
  6
AM_ISO08W050x2
100
AcDbLine
 10
275.1681618774687
 20
236.9222560491937
 30
0.0
 11
275.1681618774687
 21
234.3222560491938
 31
0.0
1001
GENIUS_GENOREF_13
1005
1012
  0
LINE
  5
FD2
330
1F
100
AcDbEntity
  8
AM_7
  6
AM_ISO08W050x2
100
AcDbLine
 10
250.1681618774687
 20
219.9222560491937
 30
0.0
 11
252.7681618774689
 21
219.9222560491937
 31
0.0
1001
GENIUS_GENOREF_13
1005
1011
  0
LINE
  5
FD3
330
1F
100
AcDbEntity
  8
AM_7
  6
AM_ISO08W050x2
100
AcDbLine
 10
250.1681618774687
 20
219.9222560491937
 30
0.0
 11
250.1681618774687
 21
222.5222560491939
 31
0.0
1001
GENIUS_GENOREF_13
1005
1011
  0
LINE
  5
FD4
330
1F
100
AcDbEntity
  8
AM_7
  6
AM_ISO08W050x2
100
AcDbLine
 10
250.1681618774687
 20
219.9222560491937
 30
0.0
 11
247.5681618774686
 21
219.9222560491937
 31
0.0
1001
GENIUS_GENOREF_13
1005
1011
  0
LINE
  5
FD5
330
1F
100
AcDbEntity
  8
AM_7
  6
AM_ISO08W050x2
100
AcDbLine
 10
250.1681618774687
 20
219.9222560491937
 30
0.0
 11
250.1681618774687
 21
217.3222560491936
 31
0.0
1001
GENIUS_GENOREF_13
1005
1011
  0
LINE
  5
FD6
330
1F
100
AcDbEntity
  8
AM_7
  6
AM_ISO08W050x2
100
AcDbLine
 10
275.1681618774687
 20
346.8819589187818
 30
0.0
 11
279.1681618774687
 21
346.8819589187818
 31
0.0
1001
GENIUS_GENOREF_13
1005
1010
  0
LINE
  5
FD7
330
1F
100
AcDbEntity
  8
AM_7
  6
AM_ISO08W050x2
100
AcDbLine
 10
275.1681618774687
 20
346.8819589187818
 30
0.0
 11
275.1681618774687
 21
350.8819589187818
 31
0.0
1001
GENIUS_GENOREF_13
1005
1010
  0
LINE
  5
FD8
330
1F
100
AcDbEntity
  8
AM_7
  6
AM_ISO08W050x2
100
AcDbLine
 10
275.1681618774687
 20
346.8819589187818
 30
0.0
 11
271.1681618774687
 21
346.8819589187818
 31
0.0
1001
GENIUS_GENOREF_13
1005
1010
  0
LINE
  5
FD9
330
1F
100
AcDbEntity
  8
AM_7
  6
AM_ISO08W050x2
100
AcDbLine
 10
275.1681618774687
 20
346.8819589187818
 30
0.0
 11
275.1681618774687
 21
342.8819589187818
 31
0.0
1001
GENIUS_GENOREF_13
1005
1010
  0
LINE
  5
FDA
330
1F
100
AcDbEntity
  8
AM_7
  6
AM_ISO08W050x2
100
AcDbLine
 10
250.1681618774687
 20
363.8819589187818
 30
0.0
 11
254.1681618774687
 21
363.8819589187818
 31
0.0
1001
GENIUS_GENOREF_13
1005
100F
  0
LINE
  5
FDB
330
1F
100
AcDbEntity
  8
AM_7
  6
AM_ISO08W050x2
100
AcDbLine
 10
250.1681618774687
 20
363.8819589187818
 30
0.0
 11
250.1681618774687
 21
367.8819589187818
 31
0.0
1001
GENIUS_GENOREF_13
1005
100F
  0
LINE
  5
FDC
330
1F
100
AcDbEntity
  8
AM_7
  6
AM_ISO08W050x2
100
AcDbLine
 10
250.1681618774687
 20
363.8819589187818
 30
0.0
 11
246.1681618774687
 21
363.8819589187818
 31
0.0
1001
GENIUS_GENOREF_13
1005
100F
  0
LINE
  5
FDD
330
1F
100
AcDbEntity
  8
AM_7
  6
AM_ISO08W050x2
100
AcDbLine
 10
250.1681618774687
 20
363.8819589187818
 30
0.0
 11
250.1681618774687
 21
359.8819589187818
 31
0.0
1001
GENIUS_GENOREF_13
1005
100F
  0
LINE
  5
FDE
330
1F
100
AcDbEntity
  8
AM_7
100
AcDbLine
 10
262.6681618774687
 20
353.3819589187818
 30
0.0
 11
270.3681618774687
 21
353.3819589187818
 31
0.0
1001
GENIUS_GENOREF_13
1005
100E
  0
LINE
  5
FDF
330
1F
100
AcDbEntity
  8
AM_7
100
AcDbLine
 10
262.6681618774687
 20
353.3819589187818
 30
0.0
 11
262.6681618774687
 21
361.0819589187818
 31
0.0
1001
GENIUS_GENOREF_13
1005
100E
  0
LINE
  5
FE0
330
1F
100
AcDbEntity
  8
AM_7
100
AcDbLine
 10
262.6681618774687
 20
353.3819589187818
 30
0.0
 11
254.9681618774687
 21
353.3819589187818
 31
0.0
1001
GENIUS_GENOREF_13
1005
100E
  0
LINE
  5
FE1
330
1F
100
AcDbEntity
  8
AM_7
100
AcDbLine
 10
262.6681618774687
 20
353.3819589187818
 30
0.0
 11
262.6681618774687
 21
345.6819589187817
 31
0.0
1001
GENIUS_GENOREF_13
1005
100E
  0
LINE
  5
FE2
330
1F
100
AcDbEntity
  8
AM_7
100
AcDbLine
 10
253.6681618774687
 20
228.4222560491938
 30
0.0
 11
261.3681618774688
 21
228.4222560491938
 31
0.0
1001
GENIUS_GENOREF_13
1005
100D
  0
LINE
  5
FE3
330
1F
100
AcDbEntity
  8
AM_7
100
AcDbLine
 10
253.6681618774687
 20
228.4222560491938
 30
0.0
 11
253.6681618774687
 21
236.1222560491938
 31
0.0
1001
GENIUS_GENOREF_13
1005
100D
  0
LINE
  5
FE4
330
1F
100
AcDbEntity
  8
AM_7
100
AcDbLine
 10
253.6681618774687
 20
228.4222560491938
 30
0.0
 11
245.9681618774687
 21
228.4222560491938
 31
0.0
1001
GENIUS_GENOREF_13
1005
100D
  0
LINE
  5
FE5
330
1F
100
AcDbEntity
  8
AM_7
100
AcDbLine
 10
253.6681618774687
 20
228.4222560491938
 30
0.0
 11
253.6681618774687
 21
220.7222560491938
 31
0.0
1001
GENIUS_GENOREF_13
1005
100D
  0
LINE
  5
FE6
330
1F
100
AcDbEntity
  8
AM_7
100
AcDbLine
 10
271.6681618774687
 20
228.4222560491938
 30
0.0
 11
279.3681618774688
 21
228.4222560491938
 31
0.0
1001
GENIUS_GENOREF_13
1005
100C
  0
LINE
  5
FE7
330
1F
100
AcDbEntity
  8
AM_7
100
AcDbLine
 10
271.6681618774687
 20
228.4222560491938
 30
0.0
 11
271.6681618774687
 21
236.1222560491938
 31
0.0
1001
GENIUS_GENOREF_13
1005
100C
  0
LINE
  5
FE8
330
1F
100
AcDbEntity
  8
AM_7
100
AcDbLine
 10
271.6681618774687
 20
228.4222560491938
 30
0.0
 11
263.9681618774687
 21
228.4222560491938
 31
0.0
1001
GENIUS_GENOREF_13
1005
100C
  0
LINE
  5
FE9
330
1F
100
AcDbEntity
  8
AM_7
100
AcDbLine
 10
271.6681618774687
 20
228.4222560491938
 30
0.0
 11
271.6681618774687
 21
220.7222560491938
 31
0.0
1001
GENIUS_GENOREF_13
1005
100C
  0
DIMENSION
  5
FEA
330
1F
100
AcDbEntity
  8
AM_5
100
AcDbDimension
  2
*D3
 10
216.395275371382
 20
346.8819589187818
 30
0.0
 11
212.5452753713819
 21
355.3819589187818
 31
0.0
 70
    32
 71
     5
 42
17.0
  3
AM_ISO$0
100
AcDbAlignedDimension
 13
246.1681618774687
 23
363.8819589187818
 33
0.0
 14
271.1681618774687
 24
346.8819589187818
 34
0.0
 50
90.0
100
AcDbRotatedDimension
1001
ACAD
1000
DSTYLE
1002
{
1070
    40
1040
1.399999999999999
1070
   272
1070
     8
1002
}
  0
DIMENSION
  5
FEB
330
1F
100
AcDbEntity
  8
AM_5
100
AcDbDimension
  2
*D4
 10
206.395275371382
 20
344.2319589187817
 30
0.0
 11
202.5447930879174
 21
355.3819589187818
 31
0.0
 70
    32
 71
     5
 42
22.30000000000007
  3
AM_ISO$0
100
AcDbAlignedDimension
 13
237.6681618774687
 23
366.5319589187817
 33
0.0
 14
237.6681618774687
 24
344.2319589187817
 34
0.0
 50
90.0
100
AcDbRotatedDimension
1001
ACAD
1000
DSTYLE
1002
{
1070
    40
1040
1.399999999999999
1070
   272
1070
     8
1002
}
  0
DIMENSION
  5
FEC
330
1F
100
AcDbEntity
  8
AM_5
100
AcDbDimension
  2
*D5
 10
250.1681618774687
 20
375.8819589187818
 30
0.0
 11
243.9181618774687
 21
379.7324412022463
 31
0.0
 70
    32
 71
     5
 42
12.5
  3
AM_ISO$0
100
AcDbAlignedDimension
 13
237.6681618774687
 23
366.5319589187817
 33
0.0
 14
250.1681618774687
 24
367.8819589187818
 34
0.0
100
AcDbRotatedDimension
1001
ACAD
1000
DSTYLE
1002
{
1070
    40
1040
1.399999999999999
1070
   272
1070
     8
1002
}
  0
DIMENSION
  5
FED
330
1F
100
AcDbEntity
  8
AM_5
100
AcDbDimension
  2
*D6
 10
275.6681618774687
 20
375.8819589187818
 30
0.0
 11
262.9181618774687
 21
379.7324412022463
 31
0.0
 70
    32
 71
     5
 42
25.5
  3
AM_ISO$0
100
AcDbAlignedDimension
 13
250.1681618774687
 23
367.8819589187818
 33
0.0
 14
275.6681618774687
 24
351.8819589187812
 34
0.0
100
AcDbRotatedDimension
1001
ACAD
1000
DSTYLE
1002
{
1070
    40
1040
1.399999999999999
1070
   272
1070
     8
1002
}
  0
DIMENSION
  5
FEE
330
1F
100
AcDbEntity
  8
AM_5
100
AcDbDimension
  2
*D7
 10
226.3952753713822
 20
353.3819589187818
 30
0.0
 11
226.3952753713821
 21
354.3819589187819
 31
0.0
 70
   160
 71
     5
 42
2.0
  3
AM_ISO$0
100
AcDbAlignedDimension
 13
234.7904962631947
 23
355.3819589187818
 33
0.0
 14
254.9681618774687
 24
353.3819589187818
 34
0.0
 50
90.0
100
AcDbRotatedDimension
1001
ACAD
1000
DSTYLE
1002
{
1070
    40
1040
1.399999999999999
1070
   272
1070
     8
1002
}
  0
DIMENSION
  5
FEF
330
1F
100
AcDbEntity
  8
AM_5
100
AcDbDimension
  2
*D8
 10
226.395275371382
 20
302.8188695012474
 30
0.0
 11
226.395275371382
 21
298.5688695012474
 31
0.0
 70
   160
 71
     5
 42
8.500000000000056
  3
AM_ISO$0
100
AcDbAlignedDimension
 13
247.0681618774688
 23
294.3188695012473
 33
0.0
 14
237.6681618774687
 24
302.8188695012474
 34
0.0
 50
90.0
100
AcDbRotatedDimension
1001
ACAD
1000
DSTYLE
1002
{
1070
    40
1040
1.399999999999999
1070
   272
1070
     8
1002
}
  0
DIMENSION
  5
FF0
330
1F
100
AcDbEntity
  8
AM_5
100
AcDbDimension
  2
*D9
 10
253.6681618774687
 20
205.2722560491933
 30
0.0
 11
245.1681618774687
 21
209.1222560491933
 31
0.0
 70
    32
 71
     5
 42
17.0
  3
AM_ISO$0
100
AcDbAlignedDimension
 13
236.6681618774687
 23
218.272256049194
 33
0.0
 14
253.6681618774687
 24
220.7222560491938
 34
0.0
100
AcDbRotatedDimension
1001
ACAD
1000
DSTYLE
1002
{
1070
    40
1040
1.399999999999999
1070
   272
1070
     8
1002
}
  0
DIMENSION
  5
FF1
330
1F
100
AcDbEntity
  8
AM_5
100
AcDbDimension
  2
*D10
 10
271.6681618774687
 20
205.2722560491934
 30
0.0
 11
262.6681618774687
 21
209.1222560491934
 31
0.0
 70
    32
 71
     5
 42
18.0
  3
AM_ISO$0
100
AcDbAlignedDimension
 13
253.6681618774687
 23
220.7222560491938
 33
0.0
 14
271.6681618774687
 24
220.7222560491938
 34
0.0
100
AcDbRotatedDimension
1001
ACAD
1000
DSTYLE
1002
{
1070
    40
1040
1.399999999999999
1070
   272
1070
     8
1002
}
  0
DIMENSION
  5
FF2
330
1F
100
AcDbEntity
  8
AM_5
100
AcDbDimension
  2
*D11
 10
262.6681618774687
 20
332.2319589187813
 30
0.0
 11
249.6681618774687
 21
336.0824412022458
 31
0.0
 70
    32
 71
     5
 42
26.0
  3
AM_ISO$0
100
AcDbAlignedDimension
 13
236.6681618774687
 23
345.2319589187817
 33
0.0
 14
262.6681618774687
 24
345.6819589187817
 34
0.0
100
AcDbRotatedDimension
1001
ACAD
1000
DSTYLE
1002
{
1070
    40
1040
1.399999999999999
1070
   272
1070
     8
1002
}
  0
INSERT
  5
FF3
330
1F
100
AcDbEntity
  8
AM_5
100
AcDbBlockReference
  2
*S18
 10
0.0
 20
0.0
 30
0.0
  0
TEXT
  5
FF4
330
1F
100
AcDbEntity
  8
AM_5
100
AcDbText
 10
288.1916555181252
 20
333.5915602938615
 30
0.0
 40
4.9
  1
2-%%c3.2thru
100
AcDbText
  0
INSERT
  5
FF5
330
1F
100
AcDbEntity
  8
AM_5
100
AcDbBlockReference
  2
*S19
 10
0.0
 20
0.0
 30
0.0
  0
TEXT
  5
FF6
330
1F
100
AcDbEntity
  8
AM_5
100
AcDbText
 10
286.6772911781919
 20
377.0461482933777
 30
0.0
 40
4.9
  1
PT1/4
100
AcDbText
  0
INSERT
  5
FF7
330
1F
100
AcDbEntity
  8
AM_5
100
AcDbBlockReference
  2
*S20
 10
0.0
 20
0.0
 30
0.0
  0
TEXT
  5
FF8
330
1F
100
AcDbEntity
  8
AM_5
100
AcDbText
 10
284.6736485796729
 20
315.3993453405931
 30
0.0
 40
4.9
  1
2-%%c4.2thru
100
AcDbText
  0
INSERT
  5
FF9
330
1F
100
AcDbEntity
  8
AM_5
100
AcDbBlockReference
  2
*S21
 10
0.0
 20
0.0
 30
0.0
  0
TEXT
  5
FFA
330
1F
100
AcDbEntity
  8
AM_5
100
AcDbText
 10
290.3933423218738
 20
205.8103485243442
 30
0.0
 40
4.9
  1
2-PT1/4
100
AcDbText
  0
DIMENSION
  5
FFB
330
1F
100
AcDbEntity
  8
AM_5
100
AcDbDimension
  2
*D12
 10
314.1681618774687
 20
299.8188695012471
 30
0.0
 11
314.1681618774686
 21
288.9373871784656
 31
0.0
 70
   160
 71
     5
 42
3.00000000000017
  3
AM_ISO$0
100
AcDbAlignedDimension
 13
302.1681618774687
 23
302.8188695012472
 33
0.0
 14
278.6681618774689
 24
299.8188695012471
 34
0.0
 50
90.0
100
AcDbRotatedDimension
1001
ACAD
1000
DSTYLE
1002
{
1070
    40
1040
1.399999999999999
1070
   272
1070
     8
1002
}
  0
DIMENSION
  5
FFC
330
1F
100
AcDbEntity
  8
AM_5
100
AcDbDimension
  2
*D13
 10
275.1681618774687
 20
311.8188695012471
 30
0.0
 11
262.6681618774687
 21
315.6693517847116
 31
0.0
 70
    32
 71
     5
 42
25.0
  3
AM_ISO$0
100
AcDbAlignedDimension
 13
250.1681618774687
 23
297.4188695012472
 33
0.0
 14
275.1681618774687
 24
297.4188695012472
 34
0.0
100
AcDbRotatedDimension
1001
ACAD
1000
DSTYLE
1002
{
1070
    40
1040
1.399999999999999
1070
   272
1070
     8
1002
}
  0
INSERT
  5
FFD
330
1F
100
AcDbEntity
  8
AM_5
100
AcDbBlockReference
  2
*S22
 10
0.0
 20
0.0
 30
0.0
  0
TEXT
  5
FFE
330
1F
100
AcDbEntity
  8
AM_5
100
AcDbText
 10
343.5208878464398
 20
311.9975720525154
 30
0.0
 40
4.9
  1
PT1/8
100
AcDbText
  0
DIMENSION
  5
FFF
330
1F
100
AcDbEntity
  8
AM_5
100
AcDbDimension
  2
*D14
 10
358.3665492570003
 20
285.3188695012472
 30
0.0
 11
354.5165492570002
 21
276.5688695012473
 31
0.0
 70
    32
 71
     5
 42
17.49999999999994
  3
AM_ISO$0
100
AcDbAlignedDimension
 13
346.3665492570003
 23
267.8188695012472
 33
0.0
 14
342.0665492570008
 24
285.3188695012472
 34
0.0
 50
90.0
100
AcDbRotatedDimension
1001
ACAD
1000
DSTYLE
1002
{
1070
    40
1040
1.399999999999999
1070
   272
1070
     8
1002
}
  0
DIMENSION
  5
1000
330
1F
100
AcDbEntity
  8
AM_5
100
AcDbDimension
  2
*D15
 10
250.1681618774687
 20
311.8188695012471
 30
0.0
 11
243.4181618774687
 21
315.6688695012471
 31
0.0
 70
    32
 71
     5
 42
13.5
  3
AM_ISO$0
100
AcDbAlignedDimension
 13
236.6681618774687
 23
301.8188695012474
 33
0.0
 14
250.1681618774687
 24
297.4188695012472
 34
0.0
100
AcDbRotatedDimension
1001
ACAD
1000
DSTYLE
1002
{
1070
    40
1040
1.399999999999999
1070
   272
1070
     8
1002
}
  0
DIMENSION
  5
1001
330
1F
100
AcDbEntity
  8
AM_5
100
AcDbDimension
  2
*D16
 10
302.1681618774687
 20
255.8188695012469
 30
0.0
 11
269.4181618774687
 21
259.6688695012469
 31
0.0
 70
    32
 71
     5
 42
65.5
  3
AM_ISO$0
100
AcDbAlignedDimension
 13
236.6681618774687
 23
268.8188695012473
 33
0.0
 14
302.1681618774687
 24
267.8188695012472
 34
0.0
100
AcDbRotatedDimension
1001
ACAD
1000
DSTYLE
1002
{
1070
    40
1040
1.399999999999999
1070
   272
1070
     8
1002
}
  0
POINT
  5
100C
330
1F
100
AcDbEntity
  8
0
 60
     1
100
AcDbPoint
 10
-306.1064246012393
 20
146.1229316143024
 30
0.0
1001
GENIUS_GENOBJ-N-CRS_13
1002
{
1000
OWNER
1000
GEN
1002
}
1001
GENIUS_GENODEF_13
1002
{
1000
HIER
1070
    10
1002
}
1002
{
1000
MANEDIT
1070
     0
1002
}
1002
{
1000
NOSEL
1070
     0
1002
}
1002
{
1000
BEHIND
1070
     0
1002
}
1002
{
1000
OTHER
1070
     0
1002
}
1002
{
1000
REACTOR
1002
}
1001
GENIUS_GENOENT_13
1002
{
1000
MYREF
1005
100C
1002
}
1002
{
1000
GRP
1005
0
1002
}
1001
GENIUS_GENOLIS_13
1002
{
1000
ENT
1005
FE9
1005
FE8
1005
FE7
1005
FE6
1002
}
  0
POINT
  5
100D
330
1F
100
AcDbEntity
  8
0
 60
     1
100
AcDbPoint
 10
-306.1064246012393
 20
146.1229316143024
 30
0.0
1001
GENIUS_GENOENT_13
1002
{
1000
MYREF
1005
100D
1002
}
1002
{
1000
GRP
1005
0
1002
}
1001
GENIUS_GENOBJ-N-CRS_13
1002
{
1000
OWNER
1000
GEN
1002
}
1001
GENIUS_GENOLIS_13
1002
{
1000
ENT
1005
FE5
1005
FE4
1005
FE3
1005
FE2
1002
}
1001
GENIUS_GENODEF_13
1002
{
1000
HIER
1070
    10
1002
}
1002
{
1000
MANEDIT
1070
     0
1002
}
1002
{
1000
NOSEL
1070
     0
1002
}
1002
{
1000
BEHIND
1070
     0
1002
}
1002
{
1000
OTHER
1070
     0
1002
}
1002
{
1000
REACTOR
1002
}
  0
POINT
  5
100E
330
1F
100
AcDbEntity
  8
0
 60
     1
100
AcDbPoint
 10
-306.1064246012393
 20
146.1229316143024
 30
0.0
1001
GENIUS_GENOBJ-N-CRS_13
1002
{
1000
OWNER
1000
GEN
1002
}
1001
GENIUS_GENODEF_13
1002
{
1000
HIER
1070
    10
1002
}
1002
{
1000
MANEDIT
1070
     0
1002
}
1002
{
1000
NOSEL
1070
     0
1002
}
1002
{
1000
BEHIND
1070
     0
1002
}
1002
{
1000
OTHER
1070
     0
1002
}
1002
{
1000
REACTOR
1002
}
1001
GENIUS_GENOENT_13
1002
{
1000
MYREF
1005
100E
1002
}
1002
{
1000
GRP
1005
0
1002
}
1001
GENIUS_GENOLIS_13
1002
{
1000
ENT
1005
FE1
1005
FE0
1005
FDF
1005
FDE
1002
}
  0
POINT
  5
100F
330
1F
100
AcDbEntity
  8
0
 60
     1
100
AcDbPoint
 10
-306.1064246012393
 20
146.1229316143024
 30
0.0
1001
GENIUS_GENOLIS_13
1002
{
1000
ENT
1005
FDD
1005
FDC
1005
FDB
1005
FDA
1002
}
1001
GENIUS_GENOENT_13
1002
{
1000
MYREF
1005
100F
1002
}
1002
{
1000
GRP
1005
0
1002
}
1001
GENIUS_GENOBJ-N-CRS_13
1002
{
1000
OWNER
1000
GEN
1002
}
1001
GENIUS_GENODEF_13
1002
{
1000
HIER
1070
    10
1002
}
1002
{
1000
MANEDIT
1070
     0
1002
}
1002
{
1000
NOSEL
1070
     0
1002
}
1002
{
1000
BEHIND
1070
     0
1002
}
1002
{
1000
OTHER
1070
     0
1002
}
1002
{
1000
REACTOR
1002
}
  0
POINT
  5
1010
330
1F
100
AcDbEntity
  8
0
 60
     1
100
AcDbPoint
 10
-306.1064246012393
 20
146.1229316143024
 30
0.0
1001
GENIUS_GENODEF_13
1002
{
1000
HIER
1070
    10
1002
}
1002
{
1000
MANEDIT
1070
     0
1002
}
1002
{
1000
NOSEL
1070
     0
1002
}
1002
{
1000
BEHIND
1070
     0
1002
}
1002
{
1000
OTHER
1070
     0
1002
}
1002
{
1000
REACTOR
1002
}
1001
GENIUS_GENOENT_13
1002
{
1000
MYREF
1005
1010
1002
}
1002
{
1000
GRP
1005
0
1002
}
1001
GENIUS_GENOBJ-N-CRS_13
1002
{
1000
OWNER
1000
GEN
1002
}
1001
GENIUS_GENOLIS_13
1002
{
1000
ENT
1005
FD9
1005
FD8
1005
FD7
1005
FD6
1002
}
  0
POINT
  5
1011
330
1F
100
AcDbEntity
  8
0
 60
     1
100
AcDbPoint
 10
-306.1064246012393
 20
146.1229316143024
 30
0.0
1001
GENIUS_GENODEF_13
1002
{
1000
HIER
1070
    10
1002
}
1002
{
1000
MANEDIT
1070
     0
1002
}
1002
{
1000
NOSEL
1070
     0
1002
}
1002
{
1000
BEHIND
1070
     0
1002
}
1002
{
1000
OTHER
1070
     0
1002
}
1002
{
1000
REACTOR
1002
}
1001
GENIUS_GENOLIS_13
1002
{
1000
ENT
1005
FD5
1005
FD4
1005
FD3
1005
FD2
1002
}
1001
GENIUS_GENOENT_13
1002
{
1000
MYREF
1005
1011
1002
}
1002
{
1000
GRP
1005
0
1002
}
1001
GENIUS_GENOBJ-N-CRS_13
1002
{
1000
OWNER
1000
GEN
1002
}
  0
POINT
  5
1012
330
1F
100
AcDbEntity
  8
0
 60
     1
100
AcDbPoint
 10
-306.1064246012393
 20
146.1229316143024
 30
0.0
1001
GENIUS_GENOENT_13
1002
{
1000
MYREF
1005
1012
1002
}
1002
{
1000
GRP
1005
0
1002
}
1001
GENIUS_GENOBJ-N-CRS_13
1002
{
1000
OWNER
1000
GEN
1002
}
1001
GENIUS_GENOLIS_13
1002
{
1000
ENT
1005
FD1
1005
FD0
1005
FCF
1005
FCE
1002
}
1001
GENIUS_GENODEF_13
1002
{
1000
HIER
1070
    10
1002
}
1002
{
1000
MANEDIT
1070
     0
1002
}
1002
{
1000
NOSEL
1070
     0
1002
}
1002
{
1000
BEHIND
1070
     0
1002
}
1002
{
1000
OTHER
1070
     0
1002
}
1002
{
1000
REACTOR
1002
}
  0
POINT
  5
1013
330
1F
100
AcDbEntity
  8
0
 60
     1
100
AcDbPoint
 10
-306.1064246012393
 20
146.1229316143024
 30
0.0
1001
GENIUS_GENOLIS_13
1002
{
1000
ENT
1005
FCC
1005
FCB
1005
FCA
1005
FC9
1002
}
1001
GENIUS_GENOENT_13
1002
{
1000
MYREF
1005
1013
1002
}
1002
{
1000
GRP
1005
0
1002
}
1001
GENIUS_GENOBJ-N-CRS_13
1002
{
1000
OWNER
1000
GEN
1002
}
1001
GENIUS_GENODEF_13
1002
{
1000
HIER
1070
    10
1002
}
1002
{
1000
MANEDIT
1070
     0
1002
}
1002
{
1000
NOSEL
1070
     0
1002
}
1002
{
1000
BEHIND
1070
     0
1002
}
1002
{
1000
OTHER
1070
     0
1002
}
1002
{
1000
REACTOR
1002
}
  0
POINT
  5
1014
330
1F
100
AcDbEntity
  8
0
 60
     1
100
AcDbPoint
 10
-306.1064246012393
 20
146.1229316143024
 30
0.0
1001
GENIUS_GENODEF_13
1002
{
1000
HIER
1070
    10
1002
}
1002
{
1000
MANEDIT
1070
     0
1002
}
1002
{
1000
NOSEL
1070
     0
1002
}
1002
{
1000
BEHIND
1070
     0
1002
}
1002
{
1000
OTHER
1070
     0
1002
}
1002
{
1000
REACTOR
1002
}
1001
GENIUS_GENOENT_13
1002
{
1000
MYREF
1005
1014
1002
}
1002
{
1000
GRP
1005
0
1002
}
1001
GENIUS_GENOLIS_13
1002
{
1000
ENT
1005
FC8
1005
FC7
1005
FC6
1005
FC5
1002
}
1001
GENIUS_GENOBJ-N-CRS_13
1002
{
1000
OWNER
1000
GEN
1002
}
  0
POINT
  5
1015
330
1F
100
AcDbEntity
  8
0
 60
     1
100
AcDbPoint
 10
495.2472764478036
 20
-245.4713191377901
 30
0.0
1001
GENIUS_GENOLIS_13
1002
{
1000
ENT
1005
F55
1005
F54
1005
F53
1005
F52
1002
}
1001
GENIUS_GENODEF_13
1002
{
1000
HIER
1070
    10
1002
}
1002
{
1000
MANEDIT
1070
     0
1002
}
1002
{
1000
NOSEL
1070
     0
1002
}
1002
{
1000
BEHIND
1070
     0
1002
}
1002
{
1000
OTHER
1070
     0
1002
}
1002
{
1000
REACTOR
1002
}
1001
GENIUS_GENOBJ-N-CRS_13
1002
{
1000
OWNER
1000
GEN
1002
}
1001
GENIUS_GENOENT_13
1002
{
1000
MYREF
1005
1015
1002
}
1002
{
1000
GRP
1005
0
1002
}
  0
ENDSEC
  0
SECTION
  2
OBJECTS
  0
DICTIONARY
  5
C
330
0
100
AcDbDictionary
281
     1
  3
ACAD_COLOR
350
BE
  3
ACAD_GROUP
350
D
  3
ACAD_LAYOUT
350
1A
  3
ACAD_MATERIAL
350
BD
  3
ACAD_MLINESTYLE
350
17
  3
ACAD_PLOTSETTINGS
350
19
  3
ACAD_PLOTSTYLENAME
350
E
  3
ACAD_TABLESTYLE
350
11A
  3
ACDBHEADERROUNDTRIPXREC
350
11CF
  3
AcDbVariableDictionary
350
94
  3
AcmDictionary
350
5B
  3
AMG
350
41
  3
AMGSNAPSETTINGS
350
1B8
  3
DWGPROPS
350
11CE
  0
DICTIONARY
  5
3F9
330
2
100
AcDbDictionary
280
     1
281
     1
  3
ACAD_LAYERFILTERS
360
5B7
  3
ACAD_LAYERSTATES
360
ACE
  3
ACLYDICTIONARY
360
5B6
  0
DICTIONARY
  5
8F
330
1F
100
AcDbDictionary
280
     1
281
     1
  0
DICTIONARY
  5
BE
102
{ACAD_REACTORS
330
C
102
}
330
C
100
AcDbDictionary
281
     1
  0
DICTIONARY
  5
D
102
{ACAD_REACTORS
330
C
102
}
330
C
100
AcDbDictionary
281
     1
  0
DICTIONARY
  5
1A
102
{ACAD_REACTORS
330
C
102
}
330
C
100
AcDbDictionary
281
     1
  3
Model
350
22
  3
配置1
350
1E
  3
配置2
350
26
  0
DICTIONARY
  5
BD
102
{ACAD_REACTORS
330
C
102
}
330
C
100
AcDbDictionary
281
     1
  0
DICTIONARY
  5
17
102
{ACAD_REACTORS
330
C
102
}
330
C
100
AcDbDictionary
281
     1
  3
Standard
350
18
  0
DICTIONARY
  5
19
102
{ACAD_REACTORS
330
C
102
}
330
C
100
AcDbDictionary
281
     1
  0
ACDBDICTIONARYWDFLT
  5
E
102
{ACAD_REACTORS
330
C
102
}
330
C
100
AcDbDictionary
281
     1
  3
Normal
350
F
100
AcDbDictionaryWithDefault
340
F
  0
DICTIONARY
  5
11A
102
{ACAD_REACTORS
330
C
102
}
330
C
100
AcDbDictionary
281
     1
  3
Standard
350
11B
  0
DICTIONARY
  5
11CF
102
{ACAD_REACTORS
330
C
102
}
330
C
100
AcDbDictionary
281
     1
  0
DICTIONARY
  5
94
102
{ACAD_REACTORS
330
C
102
}
330
C
100
AcDbDictionary
281
     1
  3
CTABLESTYLE
350
138
  3
DIMASSOC
350
96
  3
INDEXCTL
350
95
  3
PROJECTNAME
350
11CC
  0
DICTIONARY
  5
5B
102
{ACAD_REACTORS
330
C
102
}
330
C
100
AcDbDictionary
281
     1
  3
AcmBOM
350
1B5
  3
AcmStdDictionary
350
61
  3
AMDTSECTSYM_ARROWCOLOR
350
123
  0
DICTIONARY
  5
41
102
{ACAD_REACTORS
330
C
102
}
330
C
100
AcDbDictionary
281
     1
  0
DICTIONARY
  5
1B8
102
{ACAD_REACTORS
330
C
102
}
330
C
100
AcDbDictionary
281
     1
  0
XRECORD
  5
11CE
102
{ACAD_REACTORS
330
C
102
}
330
C
100
AcDbXrecord
280
     1
  1
DWGPROPS COOKIE
  2

  3

  4

  6

  7

  8

  9

300
AmdtFileType=84
301
=
302
=
303
=
304
=
305
=
306
=
307
=
308
=
309
=
 40
0.0041541782407407
 41
2454377.551800127
 42
2454377.556090127
  1

 90
        1
  0
DICTIONARY
  5
5B7
102
{ACAD_REACTORS
330
3F9
102
}
330
3F9
100
AcDbDictionary
281
     1
  0
DICTIONARY
  5
ACE
102
{ACAD_REACTORS
330
3F9
102
}
330
3F9
100
AcDbDictionary
281
     1
  0
DICTIONARY
  5
5B6
102
{ACAD_REACTORS
330
3F9
102
}
330
3F9
100
AcDbDictionary
281
     1
1001
ACAD
1000
<All
  0
LAYOUT
  5
22
102
{ACAD_XDICTIONARY
360
11D2
102
}
102
{ACAD_REACTORS
330
1A
102
}
330
1A
100
AcDbPlotSettings
  1

  2
\\RD\EPSON Stylus C63 Series單色
  4
A4
  6

 40
3.757083177566528
 41
3.757076978683471
 42
3.757080078125
 43
3.757080078125
 44
209.9733276367187
 45
296.9683227539062
 46
0.0
 47
0.0
 48
0.0
 49
0.0
140
0.0
141
0.0
142
1.0
143
0.3405120737814363
 70
 11952
 72
     1
 73
     0
 74
     0
  7
彩色出圖.ctb
 75
     0
147
2.936753428137963
148
-2047.07469463503
149
-1261.649717473083
100
AcDbLayout
  1
Model
 70
     1
 71
     0
 10
0.0
 20
0.0
 11
12.0
 21
9.0
 12
0.0
 22
0.0
 32
0.0
 14
0.0
 24
0.0
 34
0.0
 15
0.0
 25
0.0
 35
0.0
146
0.0
 13
0.0
 23
0.0
 33
0.0
 16
1.0
 26
0.0
 36
0.0
 17
0.0
 27
1.0
 37
0.0
 76
     0
330
1F
1001
ACAD_PSEXT
1000
\\RD\EPSON Stylus C63 Series單色
1000
EPSON Stylus C63 Series
1000
\\RD
1000

1070
     0
  0
LAYOUT
  5
1E
102
{ACAD_XDICTIONARY
360
11D0
102
}
102
{ACAD_REACTORS
330
1A
102
}
330
1A
100
AcDbPlotSettings
  1

  2

  4

  6

 40
0.0
 41
0.0
 42
0.0
 43
0.0
 44
0.0
 45
0.0
 46
0.0
 47
0.0
 48
0.0
 49
0.0
140
0.0
141
0.0
142
1.0
143
1.0
 70
   688
 72
     0
 73
     0
 74
     5
  7
彩色出圖.ctb
 75
    16
147
1.0
148
0.0
149
0.0
100
AcDbLayout
  1
配置1
 70
     1
 71
     1
 10
0.0
 20
0.0
 11
420.0
 21
297.0
 12
0.0
 22
0.0
 32
0.0
 14
1.000000000000000E+20
 24
1.000000000000000E+20
 34
1.000000000000000E+20
 15
-1.000000000000000E+20
 25
-1.000000000000000E+20
 35
-1.000000000000000E+20
146
0.0
 13
0.0
 23
0.0
 33
0.0
 16
1.0
 26
0.0
 36
0.0
 17
0.0
 27
1.0
 37
0.0
 76
     0
330
1B
  0
LAYOUT
  5
26
102
{ACAD_XDICTIONARY
360
11D4
102
}
102
{ACAD_REACTORS
330
1A
102
}
330
1A
100
AcDbPlotSettings
  1

  2

  4

  6

 40
0.0
 41
0.0
 42
0.0
 43
0.0
 44
0.0
 45
0.0
 46
0.0
 47
0.0
 48
0.0
 49
0.0
140
0.0
141
0.0
142
1.0
143
1.0
 70
   688
 72
     0
 73
     0
 74
     5
  7
彩色出圖.ctb
 75
    16
147
1.0
148
0.0
149
0.0
100
AcDbLayout
  1
配置2
 70
     1
 71
     2
 10
0.0
 20
0.0
 11
12.0
 21
9.0
 12
0.0
 22
0.0
 32
0.0
 14
0.0
 24
0.0
 34
0.0
 15
0.0
 25
0.0
 35
0.0
146
0.0
 13
0.0
 23
0.0
 33
0.0
 16
1.0
 26
0.0
 36
0.0
 17
0.0
 27
1.0
 37
0.0
 76
     0
330
23
  0
MLINESTYLE
  5
18
102
{ACAD_REACTORS
330
17
102
}
330
17
100
AcDbMlineStyle
  2
STANDARD
 70
     0
  3

 62
   256
 51
90.0
 52
90.0
 71
     2
 49
0.5
 62
   256
  6
BYLAYER
 49
-0.5
 62
   256
  6
BYLAYER
  0
ACDBPLACEHOLDER
  5
F
102
{ACAD_REACTORS
330
E
102
}
330
E
  0
TABLESTYLE
  5
11B
102
{ACAD_REACTORS
330
11A
102
}
330
11A
100
AcDbTableStyle
  3
Standard
 70
     0
 71
     0
 40
1.5
 41
1.5
280
     0
281
     0
  7
STANDARD
140
4.5
170
     2
 62
     0
 63
     7
283
     0
274
    -2
284
     1
 64
     0
275
    -2
285
     1
 65
     0
276
    -2
286
     1
 66
     0
277
    -2
287
     1
 67
     0
278
    -2
288
     1
 68
     0
279
    -2
289
     1
 69
     0
  7
STANDARD
140
6.0
170
     5
 62
     0
 63
     7
283
     0
274
    -2
284
     1
 64
     0
275
    -2
285
     1
 65
     0
276
    -2
286
     1
 66
     0
277
    -2
287
     1
 67
     0
278
    -2
288
     1
 68
     0
279
    -2
289
     1
 69
     0
  7
STANDARD
140
4.5
170
     5
 62
     0
 63
     7
283
     0
274
    -2
284
     1
 64
     0
275
    -2
285
     1
 65
     0
276
    -2
286
     1
 66
     0
277
    -2
287
     1
 67
     0
278
    -2
288
     1
 68
     0
279
    -2
289
     1
 69
     0
  0
DICTIONARYVAR
  5
138
102
{ACAD_REACTORS
330
94
102
}
330
94
100
DictionaryVariables
280
     0
  1
STANDARD
  0
DICTIONARYVAR
  5
96
102
{ACAD_REACTORS
330
94
102
}
330
94
100
DictionaryVariables
280
     0
  1
2
  0
DICTIONARYVAR
  5
95
102
{ACAD_REACTORS
330
94
102
}
330
94
100
DictionaryVariables
280
     0
  1
0
  0
DICTIONARYVAR
  5
11CC
102
{ACAD_REACTORS
330
94
102
}
330
94
100
DictionaryVariables
280
     0
  1

  0
DICTIONARY
  5
1B5
102
{ACAD_REACTORS
330
5B
102
}
330
5B
100
AcDbDictionary
281
     1
  0
DICTIONARY
  5
61
102
{ACAD_REACTORS
330
5B
102
}
330
5B
100
AcDbDictionary
281
     1
  0
XRECORD
  5
123
102
{ACAD_REACTORS
330
5B
102
}
330
5B
100
AcDbXrecord
280
     1
 90
-1023410169
  0
DICTIONARY
  5
11D2
330
22
100
AcDbDictionary
280
     1
281
     1
  3
ACAD_XREC_ROUNDTRIP
360
11D3
  0
DICTIONARY
  5
11D0
330
1E
100
AcDbDictionary
280
     1
281
     1
  3
ACAD_XREC_ROUNDTRIP
360
11D1
  0
DICTIONARY
  5
11D4
330
26
100
AcDbDictionary
280
     1
281
     1
  3
ACAD_XREC_ROUNDTRIP
360
11D5
  0
XRECORD
  5
11D3
102
{ACAD_REACTORS
330
11D2
102
}
330
11D2
100
AcDbXrecord
280
     1
102
SHADEPLOT
 70
     0
102
SHADEPLOTRESLEVEL
 70
     2
102
SHADEPLOTCUSTOMDPI
 70
   300
  0
XRECORD
  5
11D1
102
{ACAD_REACTORS
330
11D0
102
}
330
11D0
100
AcDbXrecord
280
     1
102
SHADEPLOT
 70
     0
102
SHADEPLOTRESLEVEL
 70
     2
102
SHADEPLOTCUSTOMDPI
 70
   300
  0
XRECORD
  5
11D5
102
{ACAD_REACTORS
330
11D4
102
}
330
11D4
100
AcDbXrecord
280
     1
102
SHADEPLOT
 70
     0
102
SHADEPLOTRESLEVEL
 70
     2
102
SHADEPLOTCUSTOMDPI
 70
   300
  0
ENDSEC
  0
EOF
