  0
SECTION
  2
HEADER
  9
$ACADVER
  1
AC1009
  9
$INSBASE
 10
0.0
 20
0.0
 30
0.0
  9
$EXTMIN
 10
30.290955547116479
 20
12.592758828998511
 30
-0.0000000349181948
  9
$EXTMAX
 10
162.50042789627381
 20
203.54612787410849
 30
0.0000000814935746
  9
$LIMMIN
 10
0.0
 20
0.0
  9
$LIMMAX
 10
396.0
 20
273.0
  9
$ORTHOMODE
 70
     0
  9
$REGENMODE
 70
     1
  9
$FILLMODE
 70
     1
  9
$QTEXTMODE
 70
     0
  9
$MIRRTEXT
 70
     1
  9
$DRAGMODE
 70
     2
  9
$LTSCALE
 40
6.0
  9
$OSMODE
 70
    39
  9
$ATTMODE
 70
     1
  9
$TEXTSIZE
 40
5.0
  9
$TRACEWID
 40
0.05
  9
$TEXTSTYLE
  7
CHINESET
  9
$CLAYER
  8
0
  9
$CELTYPE
  6
BYLAYER
  9
$CECOLOR
 62
   256
  9
$DIMSCALE
 40
1.0
  9
$DIMASZ
 40
2.5
  9
$DIMEXO
 40
2.0
  9
$DIMDLI
 40
8.0
  9
$DIMRND
 40
0.0
  9
$DIMDLE
 40
0.0
  9
$DIMEXE
 40
2.0
  9
$DIMTP
 40
0.0
  9
$DIMTM
 40
0.0
  9
$DIMTXT
 40
3.0
  9
$DIMCEN
 40
-0.09
  9
$DIMTSZ
 40
0.0
  9
$DIMTOL
 70
     0
  9
$DIMLIM
 70
     0
  9
$DIMTIH
 70
     0
  9
$DIMTOH
 70
     0
  9
$DIMSE1
 70
     0
  9
$DIMSE2
 70
     0
  9
$DIMTAD
 70
     1
  9
$DIMZIN
 70
     8
  9
$DIMBLK
  1

  9
$DIMASO
 70
     1
  9
$DIMSHO
 70
     1
  9
$DIMPOST
  1

  9
$DIMAPOST
  1

  9
$DIMALT
 70
     0
  9
$DIMALTD
 70
     2
  9
$DIMALTF
 40
25.399999999999999
  9
$DIMLFAC
 40
1.0
  9
$DIMTOFL
 70
     0
  9
$DIMTVP
 40
0.0
  9
$DIMTIX
 70
     0
  9
$DIMSOXD
 70
     0
  9
$DIMSAH
 70
     0
  9
$DIMBLK1
  1

  9
$DIMBLK2
  1

  9
$DIMSTYLE
  2
STANDARD
  9
$DIMCLRD
 70
   256
  9
$DIMCLRE
 70
   256
  9
$DIMCLRT
 70
   256
  9
$DIMTFAC
 40
1.0
  9
$DIMGAP
 40
1.0
  9
$LUNITS
 70
     2
  9
$LUPREC
 70
     2
  9
$SKETCHINC
 40
0.1
  9
$FILLETRAD
 40
0.3
  9
$AUNITS
 70
     0
  9
$AUPREC
 70
     0
  9
$MENU
  1
C:\CACAD\SUPPORT\ACAD
  9
$ELEVATION
 40
0.0
  9
$PELEVATION
 40
0.0
  9
$THICKNESS
 40
0.0
  9
$LIMCHECK
 70
     0
  9
$BLIPMODE
 70
     0
  9
$CHAMFERA
 40
0.5
  9
$CHAMFERB
 40
0.5
  9
$SKPOLY
 70
     0
  9
$TDCREATE
 40
2450960.4822158669
  9
$TDUPDATE
 40
2451939.7154585989
  9
$TDINDWG
 40
0.0079775579
  9
$TDUSRTIMER
 40
0.0079775579
  9
$USRTIMER
 70
     1
  9
$ANGBASE
 50
0.0
  9
$ANGDIR
 70
     0
  9
$PDMODE
 70
    65
  9
$PDSIZE
 40
8.3000000000000007
  9
$PLINEWID
 40
0.0
  9
$COORDS
 70
     2
  9
$SPLFRAME
 70
     0
  9
$SPLINETYPE
 70
     6
  9
$SPLINESEGS
 70
     8
  9
$ATTDIA
 70
     0
  9
$ATTREQ
 70
     1
  9
$HANDLING
 70
 12289
  9
$HANDSEED
  5
446
  9
$SURFTAB1
 70
     6
  9
$SURFTAB2
 70
     6
  9
$SURFTYPE
 70
     6
  9
$SURFU
 70
     6
  9
$SURFV
 70
     6
  9
$UCSNAME
  2

  9
$UCSORG
 10
0.0
 20
0.0
 30
0.0
  9
$UCSXDIR
 10
1.0
 20
0.0
 30
0.0
  9
$UCSYDIR
 10
0.0
 20
1.0
 30
0.0
  9
$PUCSNAME
  2

  9
$PUCSORG
 10
0.0
 20
0.0
 30
0.0
  9
$PUCSXDIR
 10
1.0
 20
0.0
 30
0.0
  9
$PUCSYDIR
 10
0.0
 20
1.0
 30
0.0
  9
$USERI1
 70
     0
  9
$USERI2
 70
     0
  9
$USERI3
 70
     0
  9
$USERI4
 70
     0
  9
$USERI5
 70
     0
  9
$USERR1
 40
0.0
  9
$USERR2
 40
0.0
  9
$USERR3
 40
0.0
  9
$USERR4
 40
0.0
  9
$USERR5
 40
0.0
  9
$WORLDVIEW
 70
     1
  9
$SHADEDGE
 70
     3
  9
$SHADEDIF
 70
    70
  9
$TILEMODE
 70
     1
  9
$MAXACTVP
 70
    16
  9
$PLIMCHECK
 70
     0
  9
$PEXTMIN
 10
1.0000000000000000E+020
 20
1.0000000000000000E+020
 30
1.0000000000000000E+020
  9
$PEXTMAX
 10
-1.0000000000000000E+020
 20
-1.0000000000000000E+020
 30
-1.0000000000000000E+020
  9
$PLIMMIN
 10
0.0
 20
0.0
  9
$PLIMMAX
 10
12.0
 20
9.0
  9
$UNITMODE
 70
     0
  9
$VISRETAIN
 70
     0
  9
$PLINEGEN
 70
     0
  9
$PSLTSCALE
 70
     0
  0
ENDSEC
  0
SECTION
  2
TABLES
  0
TABLE
  2
VPORT
 70
     2
  0
VPORT
  2
*ACTIVE
 70
     0
 10
0.0
 20
0.0
 11
1.0
 21
1.0
 12
96.395691721695215
 22
108.0694433515535
 13
0.0
 23
0.0
 14
1.0
 24
1.0
 15
0.0
 25
0.0
 16
0.0
 26
0.0
 36
1.0
 17
0.0
 27
0.0
 37
0.0
 40
193.0594723801664
 41
1.7274401473296499
 42
50.0
 43
0.0
 44
0.0
 50
0.0
 51
0.0
 71
     0
 72
  1000
 73
     1
 74
     1
 75
     0
 76
     0
 77
     0
 78
     0
  0
ENDTAB
  0
TABLE
  2
LTYPE
 70
     3
  0
LTYPE
  2
CONTINUOUS
 70
     0
  3
Solid line
 72
    65
 73
     0
 40
0.0
  0
LTYPE
  2
CENTER
 70
     0
  3
____ _ ____ _ ____ _ ____ _ ____ _ ____ _ ____ 
 72
    65
 73
     4
 40
2.0
 49
1.25
 49
-0.25
 49
0.25
 49
-0.25
  0
LTYPE
  2
DASHED
 70
     0
  3
__ __ __ __ __ __ __ __ __ __ __ __ __ __ __ __
 72
    65
 73
     2
 40
0.75
 49
0.5
 49
-0.25
  0
ENDTAB
  0
TABLE
  2
LAYER
 70
     6
  0
LAYER
  2
0
 70
     0
 62
     7
  6
CONTINUOUS
  0
LAYER
  2
DEFPOINTS
 70
     0
 62
     7
  6
CONTINUOUS
  0
LAYER
  2
DIM
 70
     0
 62
     5
  6
CONTINUOUS
  0
LAYER
  2
CENTER
 70
     0
 62
     1
  6
CENTER
  0
LAYER
  2
HIDDEN
 70
     0
 62
     6
  6
DASHED
  0
LAYER
  2
LOGO
 70
     0
 62
     7
  6
CONTINUOUS
  0
ENDTAB
  0
TABLE
  2
STYLE
 70
     4
  0
STYLE
  2
STANDARD
 70
     0
 40
0.0
 41
1.0
 50
0.0
 71
     0
 42
0.2
  3
txt
  4

  0
STYLE
  2
CHINESET
 70
     0
 40
0.0
 41
1.0
 50
0.0
 71
     0
 42
5.0
  3
SIMPLEX.SHX
  4
C:\r13\com\fonts\chineset.shx
  0
STYLE
  2
LOGO
 70
     0
 40
0.0
 41
1.0
 50
0.0
 71
     0
 42
5.0
  3
txt
  4

  0
ENDTAB
  0
TABLE
  2
VIEW
 70
     0
  0
ENDTAB
  0
TABLE
  2
UCS
 70
     0
  0
ENDTAB
  0
TABLE
  2
APPID
 70
     2
  0
APPID
  2
ACAD
 70
     0
  0
APPID
  2
TCAD
 70
     0
  0
ENDTAB
  0
TABLE
  2
DIMSTYLE
 70
     1
  0
DIMSTYLE
  2
STANDARD
 70
     0
  3

  4

  5

  6

  7

 40
1.0
 41
2.5
 42
2.0
 43
8.0
 44
2.0
 45
0.0
 46
0.0
 47
0.0
 48
0.0
140
3.0
141
-0.09
142
0.0
143
25.399999999999999
144
1.0
145
0.0
146
1.0
147
1.0
 71
     0
 72
     0
 73
     0
 74
     0
 75
     0
 76
     0
 77
     1
 78
     8
170
     0
171
     2
172
     0
173
     0
174
     0
175
     0
176
   256
177
   256
178
   256
  0
ENDTAB
  0
ENDSEC
  0
SECTION
  2
BLOCKS
  0
BLOCK
  8
0
  2
$MODEL_SPACE
 70
     0
 10
0.0
 20
0.0
 30
0.0
  3
$MODEL_SPACE
  1

  0
ENDBLK
  5
2DE
  8
0
  0
BLOCK
 67
     1
  8
0
  2
$PAPER_SPACE
 70
     0
 10
0.0
 20
0.0
 30
0.0
  3
$PAPER_SPACE
  1

  0
ENDBLK
  5
2DC
 67
     1
  8
0
  0
BLOCK
  8
0
  2
*D13
 70
     1
 10
0.0
 20
0.0
 30
0.0
  3
*D13
  1

  0
LINE
  5
2E7
  8
DIM
 10
62.838274025095188
 20
64.135047677762756
 30
0.0
 11
62.838274025095188
 21
70.350856730384294
 31
0.0
  0
LINE
  5
2E8
  8
DIM
 10
95.838274025095174
 20
60.385047677762742
 30
0.0
 11
95.838274025095174
 21
70.350856730384294
 31
0.0
  0
LINE
  5
2E9
  8
DIM
 10
65.338274025095188
 20
68.350856730384294
 30
0.0
 11
93.338274025095174
 21
68.350856730384294
 31
0.0
  0
SOLID
  5
2EA
  8
DIM
 10
65.338274025095188
 20
68.767523397050965
 30
0.0
 11
65.338274025095188
 21
67.934190063717622
 31
0.0
 12
62.838274025095188
 22
68.350856730384294
 32
0.0
 13
62.838274025095188
 23
68.350856730384294
 33
0.0
  0
SOLID
  5
2EB
  8
DIM
 10
93.338274025095174
 20
68.767523397050965
 30
0.0
 11
93.338274025095174
 21
67.934190063717622
 31
0.0
 12
95.838274025095174
 22
68.350856730384294
 32
0.0
 13
95.838274025095174
 23
68.350856730384294
 33
0.0
  0
TEXT
  5
2EC
  8
0
 10
76.909702596523758
 20
69.350856730384294
 30
0.0
 40
3.0
  1
33
  7
CHINESET
  0
POINT
  5
2ED
  8
DEFPOINTS
 62
     0
 10
62.838274025095188
 20
62.135047677762749
 30
0.0
  0
POINT
  5
2EE
  8
DEFPOINTS
 62
     0
 10
95.838274025095174
 20
58.385047677762742
 30
0.0
  0
POINT
  5
2EF
  8
DEFPOINTS
 62
     0
 10
95.838274025095174
 20
68.350856730384294
 30
0.0
  0
ENDBLK
  5
2F1
  8
0
  0
BLOCK
  8
0
  2
*D14
 70
     1
 10
0.0
 20
0.0
 30
0.0
  3
*D14
  1

  0
LINE
  5
393
  8
DIM
 10
63.893327584297651
 20
100.100014127996
 30
0.0
 11
63.893327584297651
 21
81.290207622643933
 31
0.0
  0
LINE
  5
394
  8
DIM
 10
129.89332758429751
 20
99.600014127996019
 30
0.0
 11
129.89332758429751
 21
81.290207622643933
 31
0.0
  0
LINE
  5
395
  8
DIM
 10
66.393327584297651
 20
83.290207622643948
 30
0.0
 11
127.3933275842975
 21
83.290207622643948
 31
0.0
  0
SOLID
  5
396
  8
DIM
 10
66.393327584297651
 20
83.706874289310605
 30
0.0
 11
66.393327584297651
 21
82.873540955977276
 31
0.0
 12
63.893327584297651
 22
83.290207622643948
 32
0.0
 13
63.893327584297651
 23
83.290207622643948
 33
0.0
  0
SOLID
  5
397
  8
DIM
 10
127.3933275842975
 20
83.706874289310605
 30
0.0
 11
127.3933275842975
 21
82.873540955977276
 31
0.0
 12
129.89332758429751
 22
83.290207622643948
 32
0.0
 13
129.89332758429751
 23
83.290207622643948
 33
0.0
  0
TEXT
  5
398
  8
0
 10
94.536184727154762
 20
84.290207622643948
 30
0.0
 40
3.0
  1
66
  7
CHINESET
  0
POINT
  5
399
  8
DEFPOINTS
 62
     0
 10
63.893327584297651
 20
102.100014127996
 30
0.0
  0
POINT
  5
39A
  8
DEFPOINTS
 62
     0
 10
129.89332758429751
 20
101.600014127996
 30
0.0
  0
POINT
  5
39B
  8
DEFPOINTS
 62
     0
 10
129.89332758429751
 20
83.290207622643948
 30
0.0
  0
ENDBLK
  5
2FD
  8
0
  0
BLOCK
  8
0
  2
*D15
 70
     1
 10
0.0
 20
0.0
 30
0.0
  3
*D15
  1

  0
LINE
  5
389
  8
DIM
 10
87.043327584297614
 20
105.600014127996
 30
0.0
 11
56.582335896731593
 21
105.600014127996
 31
0.0
  0
LINE
  5
38A
  8
DIM
 10
62.393327584297637
 20
101.600014127996
 30
0.0
 11
56.582335896731593
 21
101.600014127996
 31
0.0
  0
LINE
  5
38B
  8
DIM
 10
58.582335896731593
 20
108.10001412799591
 30
0.0
 11
58.582335896731593
 21
110.60001412799591
 31
0.0
  0
LINE
  5
38C
  8
DIM
 10
58.582335896731593
 20
99.100014127996076
 30
0.0
 11
58.582335896731593
 21
96.600014127996076
 31
0.0
  0
TEXT
  5
38D
  8
0
 10
58.19036599823675
 20
102.52858555656741
 30
0.0
 40
3.0
  1
4
 50
90.0
  7
CHINESET
  0
SOLID
  5
38E
  8
DIM
 10
58.165669230064928
 20
108.10001412799591
 30
0.0
 11
58.999002563398257
 21
108.10001412799591
 31
0.0
 12
58.582335896731593
 22
105.600014127996
 32
0.0
 13
58.582335896731593
 23
105.600014127996
 33
0.0
  0
SOLID
  5
38F
  8
DIM
 10
58.165669230064928
 20
99.100014127996076
 30
0.0
 11
58.999002563398257
 21
99.100014127996076
 31
0.0
 12
58.582335896731593
 22
101.600014127996
 32
0.0
 13
58.582335896731593
 23
101.600014127996
 33
0.0
  0
POINT
  5
390
  8
DEFPOINTS
 62
     0
 10
89.043327584297629
 20
105.600014127996
 30
0.0
  0
POINT
  5
391
  8
DEFPOINTS
 62
     0
 10
64.393327584297651
 20
101.600014127996
 30
0.0
  0
POINT
  5
392
  8
DEFPOINTS
 62
     0
 10
58.582335896731593
 20
101.600014127996
 30
0.0
  0
ENDBLK
  5
30A
  8
0
  0
BLOCK
  8
0
  2
*D16
 70
     1
 10
0.0
 20
0.0
 30
0.0
  3
*D16
  1

  0
LINE
  5
30C
  8
DIM
 10
62.393327584297637
 20
101.600014127996
 30
0.0
 11
49.340286607008352
 21
101.600014127996
 31
0.0
  0
LINE
  5
30D
  8
DIM
 10
62.393327584297587
 20
125.600014127996
 30
0.0
 11
49.340286607008352
 21
125.600014127996
 31
0.0
  0
LINE
  5
30E
  8
DIM
 10
51.340286607008352
 20
104.100014127996
 30
0.0
 11
51.340286607008352
 21
123.100014127996
 31
0.0
  0
SOLID
  5
30F
  8
DIM
 10
50.92361994034168
 20
104.100014127996
 30
0.0
 11
51.756953273675009
 21
104.100014127996
 31
0.0
 12
51.340286607008352
 22
101.600014127996
 32
0.0
 13
51.340286607008352
 23
101.600014127996
 33
0.0
  0
SOLID
  5
310
  8
DIM
 10
50.923619940341688
 20
123.100014127996
 30
0.0
 11
51.756953273675023
 21
123.100014127996
 31
0.0
 12
51.340286607008352
 22
125.600014127996
 32
0.0
 13
51.340286607008352
 23
125.600014127996
 33
0.0
  0
TEXT
  5
311
  8
0
 10
50.340286607008331
 20
111.100014127996
 30
0.0
 40
3.0
  1
24
 50
90.0
  7
CHINESET
  0
POINT
  5
312
  8
DEFPOINTS
 62
     0
 10
64.393327584297651
 20
101.600014127996
 30
0.0
  0
POINT
  5
313
  8
DEFPOINTS
 62
     0
 10
64.393327584297595
 20
125.600014127996
 30
0.0
  0
POINT
  5
314
  8
DEFPOINTS
 62
     0
 10
51.340286607008352
 20
125.600014127996
 30
0.0
  0
ENDBLK
  5
316
  8
0
  0
BLOCK
  8
0
  2
*D17
 70
     1
 10
0.0
 20
0.0
 30
0.0
  3
*D17
  1

  0
LINE
  5
318
  8
DIM
 10
85.038274025095177
 20
49.885047677762742
 30
0.0
 11
85.038274025095177
 21
38.262976613317633
 31
0.0
  0
LINE
  5
319
  8
DIM
 10
106.6382740250952
 20
49.885047677762742
 30
0.0
 11
106.6382740250952
 21
38.262976613317633
 31
0.0
  0
LINE
  5
31A
  8
DIM
 10
87.538274025095177
 20
40.262976613317633
 30
0.0
 11
104.1382740250952
 21
40.262976613317633
 31
0.0
  0
SOLID
  5
31B
  8
DIM
 10
87.538274025095177
 20
40.679643279984298
 30
0.0
 11
87.538274025095177
 21
39.846309946650969
 31
0.0
 12
85.038274025095177
 22
40.262976613317633
 32
0.0
 13
85.038274025095177
 23
40.262976613317633
 33
0.0
  0
SOLID
  5
31C
  8
DIM
 10
104.1382740250952
 20
40.679643279984298
 30
0.0
 11
104.1382740250952
 21
39.846309946650969
 31
0.0
 12
106.6382740250952
 22
40.262976613317633
 32
0.0
 13
106.6382740250952
 23
40.262976613317633
 33
0.0
  0
TEXT
  5
31D
  8
0
 10
91.623988310809466
 20
41.262976613317633
 30
0.0
 40
3.0
  1
21.6
  7
CHINESET
  0
POINT
  5
31E
  8
DEFPOINTS
 62
     0
 10
85.038274025095177
 20
51.885047677762742
 30
0.0
  0
POINT
  5
31F
  8
DEFPOINTS
 62
     0
 10
106.6382740250952
 20
51.885047677762742
 30
0.0
  0
POINT
  5
320
  8
DEFPOINTS
 62
     0
 10
106.6382740250952
 20
40.262976613317633
 30
0.0
  0
ENDBLK
  5
322
  8
0
  0
BLOCK
  8
0
  2
*D18
 70
     1
 10
0.0
 20
0.0
 30
0.0
  3
*D18
  1

  0
LINE
  5
380
  8
DIM
 10
91.393327584297637
 20
101.2500141279959
 30
0.0
 11
91.393327584297637
 21
90.301244019864825
 31
0.0
  0
LINE
  5
381
  8
DIM
 10
102.39332758429759
 20
101.2500141279959
 30
0.0
 11
102.39332758429759
 21
90.301244019864825
 31
0.0
  0
LINE
  5
382
  8
DIM
 10
93.893327584297637
 20
92.301244019864839
 30
0.0
 11
99.893327584297666
 21
92.301244019864839
 31
0.0
  0
SOLID
  5
383
  8
DIM
 10
93.893327584297637
 20
92.717910686531511
 30
0.0
 11
93.893327584297637
 21
91.884577353198168
 31
0.0
 12
91.393327584297637
 22
92.301244019864839
 32
0.0
 13
91.393327584297637
 23
92.301244019864839
 33
0.0
  0
SOLID
  5
384
  8
DIM
 10
99.893327584297666
 20
92.717910686531511
 30
0.0
 11
99.893327584297666
 21
91.884577353198168
 31
0.0
 12
102.39332758429759
 22
92.301244019864839
 32
0.0
 13
102.39332758429759
 23
92.301244019864839
 33
0.0
  0
TEXT
  5
385
  8
0
 10
95.393327584297651
 20
93.301244019864839
 30
0.0
 40
3.0
  1
11
  7
CHINESET
  0
POINT
  5
386
  8
DEFPOINTS
 62
     0
 10
91.393327584297637
 20
103.2500141279959
 30
0.0
  0
POINT
  5
387
  8
DEFPOINTS
 62
     0
 10
102.39332758429759
 20
103.2500141279959
 30
0.0
  0
POINT
  5
388
  8
DEFPOINTS
 62
     0
 10
102.39332758429759
 20
92.301244019864839
 30
0.0
  0
ENDBLK
  5
32F
  8
0
  0
BLOCK
  8
0
  2
*D19
 70
     1
 10
0.0
 20
0.0
 30
0.0
  3
*D19
  1

  0
LINE
  5
331
  8
DIM
 10
84.613197604951424
 20
157.14927988518869
 30
0.0
 11
51.557434317007392
 21
157.1492798851888
 31
0.0
  0
LINE
  5
332
  8
DIM
 10
95.613197604951424
 20
163.14927988518869
 30
0.0
 11
51.557434317007392
 21
163.1492798851888
 31
0.0
  0
LINE
  5
333
  8
DIM
 10
53.557434317007392
 20
154.6492798851888
 30
0.0
 11
53.557434317007392
 21
152.1492798851888
 31
0.0
  0
LINE
  5
334
  8
DIM
 10
53.557434317007392
 20
165.6492798851888
 30
0.0
 11
53.557434317007392
 21
168.1492798851888
 31
0.0
  0
TEXT
  5
335
  8
0
 10
52.06936304415683
 20
158.89394129709709
 30
0.0
 40
3.0
  1
6
 50
90.0
  7
CHINESET
  0
SOLID
  5
336
  8
DIM
 10
53.140767650340727
 20
154.6492798851888
 30
0.0
 11
53.974100983674049
 21
154.6492798851888
 31
0.0
 12
53.557434317007392
 22
157.1492798851888
 32
0.0
 13
53.557434317007392
 23
157.1492798851888
 33
0.0
  0
SOLID
  5
337
  8
DIM
 10
53.140767650340727
 20
165.6492798851888
 30
0.0
 11
53.974100983674049
 21
165.6492798851888
 31
0.0
 12
53.557434317007392
 22
163.1492798851888
 32
0.0
 13
53.557434317007392
 23
163.1492798851888
 33
0.0
  0
POINT
  5
338
  8
DEFPOINTS
 62
     0
 10
86.613197604951438
 20
157.14927988518869
 30
0.0
  0
POINT
  5
339
  8
DEFPOINTS
 62
     0
 10
97.613197604951438
 20
163.14927988518869
 30
0.0
  0
POINT
  5
33A
  8
DEFPOINTS
 62
     0
 10
53.557434317007392
 20
163.1492798851888
 30
0.0
  0
ENDBLK
  5
33C
  8
0
  0
BLOCK
  8
0
  2
*D20
 70
     1
 10
0.0
 20
0.0
 30
0.0
  3
*D20
  1

  0
LINE
  5
33E
  8
DIM
 10
99.313197604951426
 20
154.64927988518869
 30
0.0
 11
44.834273676081921
 21
154.6492798851888
 31
0.0
  0
LINE
  5
33F
  8
DIM
 10
80.313197604951426
 20
165.64927988518869
 30
0.0
 11
44.834273676081921
 21
165.6492798851888
 31
0.0
  0
LINE
  5
340
  8
DIM
 10
46.834273676081907
 20
157.1492798851888
 30
0.0
 11
46.834273676081907
 21
163.1492798851888
 31
0.0
  0
TEXT
  5
341
  8
0
 10
44.848189970399858
 20
158.57125048568619
 30
0.0
 40
3.0
  1
11
 50
90.0
  7
CHINESET
  0
SOLID
  5
342
  8
DIM
 10
46.417607009415249
 20
157.1492798851888
 30
0.0
 11
47.250940342748578
 21
157.1492798851888
 31
0.0
 12
46.834273676081907
 22
154.6492798851888
 32
0.0
 13
46.834273676081907
 23
154.6492798851888
 33
0.0
  0
SOLID
  5
343
  8
DIM
 10
46.417607009415249
 20
163.1492798851888
 30
0.0
 11
47.250940342748578
 21
163.1492798851888
 31
0.0
 12
46.834273676081907
 22
165.6492798851888
 32
0.0
 13
46.834273676081907
 23
165.6492798851888
 33
0.0
  0
POINT
  5
344
  8
DEFPOINTS
 62
     0
 10
101.3131976049514
 20
154.64927988518869
 30
0.0
  0
POINT
  5
345
  8
DEFPOINTS
 62
     0
 10
82.313197604951426
 20
165.64927988518869
 30
0.0
  0
POINT
  5
346
  8
DEFPOINTS
 62
     0
 10
46.834273676081907
 20
165.6492798851888
 30
0.0
  0
ENDBLK
  5
348
  8
0
  0
BLOCK
  8
0
  2
*D21
 70
     1
 10
0.0
 20
0.0
 30
0.0
  3
*D21
  1

  0
LINE
  5
34A
  8
DIM
 10
60.363197604951502
 20
152.64927988518869
 30
0.0
 11
38.858130022334649
 21
152.64927988518869
 31
0.0
  0
LINE
  5
34B
  8
DIM
 10
60.863197604951431
 20
167.64927988518869
 30
0.0
 11
38.858130022334649
 21
167.64927988518869
 31
0.0
  0
LINE
  5
34C
  8
DIM
 10
40.858130022334642
 20
155.14927988518869
 30
0.0
 11
40.858130022334642
 21
165.14927988518869
 31
0.0
  0
SOLID
  5
34D
  8
DIM
 10
40.441463355667977
 20
155.14927988518869
 30
0.0
 11
41.274796689001313
 21
155.14927988518869
 31
0.0
 12
40.858130022334642
 22
152.64927988518869
 32
0.0
 13
40.858130022334642
 23
152.64927988518869
 33
0.0
  0
SOLID
  5
34E
  8
DIM
 10
40.441463355667977
 20
165.14927988518869
 30
0.0
 11
41.274796689001313
 21
165.14927988518869
 31
0.0
 12
40.858130022334642
 22
167.64927988518869
 32
0.0
 13
40.858130022334642
 23
167.64927988518869
 33
0.0
  0
TEXT
  5
34F
  8
0
 10
39.85813002233462
 20
158.00642274233161
 30
0.0
 40
3.0
  1
15
 50
90.0
  7
CHINESET
  0
POINT
  5
350
  8
DEFPOINTS
 62
     0
 10
62.363197604951488
 20
152.64927988518869
 30
0.0
  0
POINT
  5
351
  8
DEFPOINTS
 62
     0
 10
62.863197604951431
 20
167.64927988518869
 30
0.0
  0
POINT
  5
352
  8
DEFPOINTS
 62
     0
 10
40.858130022334642
 20
167.64927988518869
 30
0.0
  0
ENDBLK
  5
354
  8
0
  0
BLOCK
  8
0
  2
*D22
 70
     1
 10
0.0
 20
0.0
 30
0.0
  3
*D22
  1

  0
LINE
  5
3A5
  8
DIM
 10
85.863197604951424
 20
171.1992798851887
 30
0.0
 11
85.863197604951424
 21
180.4064283772899
 31
0.0
  0
LINE
  5
3A6
  8
DIM
 10
104.8631976049514
 20
160.1992798851887
 30
0.0
 11
104.8631976049514
 21
180.4064283772899
 31
0.0
  0
LINE
  5
3A7
  8
DIM
 10
88.363197604951424
 20
178.4064283772899
 30
0.0
 11
102.3631976049514
 21
178.4064283772899
 31
0.0
  0
SOLID
  5
3A8
  8
DIM
 10
88.363197604951424
 20
178.8230950439565
 30
0.0
 11
88.363197604951424
 21
177.98976171062321
 31
0.0
 12
85.863197604951424
 22
178.4064283772899
 32
0.0
 13
85.863197604951424
 23
178.4064283772899
 33
0.0
  0
SOLID
  5
3A9
  8
DIM
 10
102.3631976049514
 20
178.8230950439565
 30
0.0
 11
102.3631976049514
 21
177.98976171062321
 31
0.0
 12
104.8631976049514
 22
178.4064283772899
 32
0.0
 13
104.8631976049514
 23
178.4064283772899
 33
0.0
  0
TEXT
  5
3AA
  8
0
 10
93.291769033522868
 20
179.4064283772899
 30
0.0
 40
3.0
  1
19
  7
CHINESET
  0
POINT
  5
3AB
  8
DEFPOINTS
 62
     0
 10
85.863197604951424
 20
169.1992798851887
 30
0.0
  0
POINT
  5
3AC
  8
DEFPOINTS
 62
     0
 10
104.8631976049514
 20
158.1992798851887
 30
0.0
  0
POINT
  5
3AD
  8
DEFPOINTS
 62
     0
 10
104.8631976049514
 20
178.4064283772899
 30
0.0
  0
ENDBLK
  5
360
  8
0
  0
BLOCK
  8
0
  2
*D23
 70
     1
 10
0.0
 20
0.0
 30
0.0
  3
*D23
  1

  0
LINE
  5
39C
  8
DIM
 10
89.863197604951438
 20
162.39927988518869
 30
0.0
 11
89.863197604951438
 21
173.02213523572769
 31
0.0
  0
LINE
  5
39D
  8
DIM
 10
100.8631976049514
 20
168.39927988518869
 30
0.0
 11
100.8631976049514
 21
173.02213523572769
 31
0.0
  0
LINE
  5
39E
  8
DIM
 10
92.363197604951438
 20
171.02213523572769
 30
0.0
 11
98.363197604951424
 21
171.02213523572769
 31
0.0
  0
SOLID
  5
39F
  8
DIM
 10
92.363197604951438
 20
171.4388019023944
 30
0.0
 11
92.363197604951438
 21
170.60546856906109
 31
0.0
 12
89.863197604951438
 22
171.02213523572769
 32
0.0
 13
89.863197604951438
 23
171.02213523572769
 33
0.0
  0
SOLID
  5
3A0
  8
DIM
 10
98.363197604951424
 20
171.4388019023944
 30
0.0
 11
98.363197604951424
 21
170.60546856906109
 31
0.0
 12
100.8631976049514
 22
171.02213523572769
 32
0.0
 13
100.8631976049514
 23
171.02213523572769
 33
0.0
  0
TEXT
  5
3A1
  8
0
 10
93.863197604951438
 20
172.02213523572769
 30
0.0
 40
3.0
  1
11
  7
CHINESET
  0
POINT
  5
3A2
  8
DEFPOINTS
 62
     0
 10
89.863197604951438
 20
160.39927988518869
 30
0.0
  0
POINT
  5
3A3
  8
DEFPOINTS
 62
     0
 10
100.8631976049514
 20
166.39927988518869
 30
0.0
  0
POINT
  5
3A4
  8
DEFPOINTS
 62
     0
 10
100.8631976049514
 20
171.02213523572769
 30
0.0
  0
ENDBLK
  5
36D
  8
0
  0
ENDSEC
  0
SECTION
  2
ENTITIES
  0
DIMENSION
  5
21
  8
DIM
  2
*D13
 10
95.838274025095174
 20
68.350856730384294
 30
0.0
 11
79.338274025095188
 21
70.850856730384294
 31
0.0
 70
     0
 13
62.838274025095188
 23
62.135047677762749
 33
0.0
 14
95.838274025095174
 24
58.385047677762742
 34
0.0
1001
ACAD
1000
DSTYLE
1002
{
1002
}
  0
DIMENSION
  5
30
  8
DIM
  2
*D14
 10
129.89332758429751
 20
83.290207622643948
 30
0.0
 11
96.893327584297623
 21
85.790207622643948
 31
0.0
 70
     0
 13
63.893327584297651
 23
102.100014127996
 33
0.0
 14
129.89332758429751
 24
101.600014127996
 34
0.0
1001
ACAD
1000
DSTYLE
1002
{
1002
}
  0
SOLID
  5
3D
  8
DIM
  6
CONTINUOUS
 10
-89.443478167632449
 20
101.9550160356833
 30
0.0
 11
-90.605465340987777
 21
104.2074362718002
 31
0.0
 12
-90.236802956284137
 22
101.6999077760068
 32
0.0
 13
-90.236802956284137
 23
101.6999077760068
 33
0.0
210
0.0
220
0.0
230
-1.0
  0
POLYLINE
  5
247
  8
DIM
  6
CONTINUOUS
 66
     1
 10
0.0
 20
0.0
 30
0.0
 70
     8
1001
ACAD
1000
R13OBJECT
1002
{
1005
3D
1002
}
  0
VERTEX
  5
248
  8
DIM
  6
CONTINUOUS
 10
89.840140561958293
 20
101.8274619058451
 30
0.0
 70
    32
1001
ACAD
1000
R13OBJECT
1002
{
1005
3D
1002
}
  0
VERTEX
  5
249
  8
DIM
  6
CONTINUOUS
 10
86.444062655620201
 20
91.266483634475321
 30
0.0
 70
    32
1001
ACAD
1000
R13OBJECT
1002
{
1005
3D
1002
}
  0
SEQEND
  5
24A
  8
DIM
  6
CONTINUOUS
  0
POLYLINE
  5
24B
  8
DIM
  6
CONTINUOUS
 66
     1
 10
0.0
 20
0.0
 30
0.0
 70
     8
1001
ACAD
1000
R13OBJECT
1002
{
1005
3D
1002
}
  0
VERTEX
  5
24C
  8
DIM
  6
CONTINUOUS
 10
86.444062655620201
 20
91.266483634475321
 30
0.0
 70
    32
1001
ACAD
1000
R13OBJECT
1002
{
1005
3D
1002
}
  0
VERTEX
  5
24D
  8
DIM
  6
CONTINUOUS
 10
67.372634084191631
 20
91.266483634475321
 30
0.0
 70
    32
1001
ACAD
1000
R13OBJECT
1002
{
1005
3D
1002
}
  0
SEQEND
  5
24E
  8
DIM
  6
CONTINUOUS
  0
TEXT
  5
3E
  8
DIM
  6
CONTINUOUS
 10
68.199997537878389
 20
92.266483634475321
 30
0.0
 40
3.0
  1
2-%%c3.2
  7
CHINESET
  0
TEXT
  5
250
  8
DIM
  6
CONTINUOUS
 10
77.485711823592681
 20
92.266483634475321
 30
0.0
 40
3.0
  1

  7
CHINESET
1001
ACAD
1000
R13OBJECT
1002
{
1005
3E
1002
}
  0
DIMENSION
  5
3F
  8
DIM
  2
*D15
 10
58.582335896731593
 20
101.600014127996
 30
0.0
 11
56.690365998236757
 21
103.600014127996
 31
0.0
 70
   128
 13
89.043327584297629
 23
105.600014127996
 33
0.0
 14
64.393327584297651
 24
101.600014127996
 34
0.0
 50
90.0
1001
ACAD
1000
DSTYLE
1002
{
1002
}
  0
LINE
  5
4E
  8
0
 10
62.838274025095238
 20
47.635047677762742
 30
0.0
 11
128.83827402509519
 21
47.635047677762678
 31
0.0
  0
LINE
  5
4F
  8
0
 10
63.338274025095188
 20
62.635047677762749
 30
0.0
 11
128.83827402509519
 21
62.635047677762678
 31
0.0
  0
LINE
  5
50
  8
CENTER
  6
CENTER
 10
59.290296796157911
 20
55.135047677762742
 30
0.0
 11
132.32394447967641
 21
55.135047677762742
 31
0.0
  0
LINE
  5
52
  8
0
 10
64.393327584297651
 20
101.600014127996
 30
0.0
 11
129.89332758429751
 21
101.600014127996
 31
0.0
  0
LINE
  5
53
  8
0
 10
64.393327584297595
 20
125.600014127996
 30
0.0
 11
129.89332758429751
 21
125.600014127996
 31
0.0
  0
LINE
  5
54
  8
CENTER
  6
CENTER
 10
61.330366836901931
 20
113.60001412799591
 30
0.0
 11
135.93331674958199
 21
113.60001412799591
 31
0.0
  0
LINE
  5
56
  8
0
 10
62.838274025095188
 20
62.135047677762749
 30
0.0
 11
62.838274025095238
 21
47.635047677762742
 31
0.0
  0
LINE
  5
57
  8
0
 10
65.838274025095188
 20
62.135047677762742
 30
0.0
 11
65.838274025095188
 21
58.135047677762742
 31
0.0
  0
ARC
  5
58
  8
0
 10
64.901524325335004
 20
60.885047677762742
 30
0.0
 40
1.5
 50
89.999999999999446
 51
141.31781254652401
  0
ARC
  5
59
  8
0
 10
65.838274025095188
 20
60.135047677762742
 30
0.0
 40
2.7000000000000002
 50
141.31781254652401
 51
171.4803757458568
  0
LINE
  5
5A
  8
0
 10
64.838274025095174
 20
62.385047677762742
 30
0.0
 11
64.838274025095174
 21
57.885047677762742
 31
0.0
  0
LINE
  5
5B
  8
CENTER
  6
CENTER
 10
61.608188519476421
 20
60.135047677762742
 30
0.0
 11
67.2258193081949
 21
60.135047677762742
 31
0.0
  0
ARC
  5
5C
  8
0
 10
65.338274025095188
 20
58.135047677762742
 30
0.0
 40
0.5
 50
269.99999999999972
 51
0.0000000000000509
  0
LINE
  5
5D
  8
0
 10
63.168068040531473
 20
60.535047677762741
 30
0.0
 11
64.1382740250952
 21
60.535047677762762
 31
0.0
  0
ARC
  5
5E
  8
0
 10
64.901524325335004
 20
59.385047677762742
 30
0.0
 40
1.5
 50
218.68218745347579
 51
270.0
  0
ARC
  5
5F
  8
0
 10
63.338274025095188
 20
57.135047677762749
 30
0.0
 40
0.5
 50
90.0
 51
180.0
  0
LINE
  5
60
  8
0
 10
63.168068040531473
 20
59.735047677762729
 30
0.0
 11
64.1382740250952
 21
59.735047677762729
 31
0.0
  0
ARC
  5
61
  8
0
 10
65.838274025095188
 20
60.135047677762742
 30
0.0
 40
2.7000000000000002
 50
188.51962425414311
 51
218.68218745347579
  0
LINE
  5
62
  8
0
 10
64.1382740250952
 20
60.535047677762762
 30
0.0
 11
64.1382740250952
 21
59.735047677762729
 31
0.0
  0
LINE
  5
63
  8
0
 10
63.338274025095188
 20
57.635047677762749
 30
0.0
 11
65.338274025095188
 21
57.635047677762742
 31
0.0
  0
LINE
  5
64
  8
0
 10
64.901524325335004
 20
57.885047677762742
 30
0.0
 11
65.771286726987398
 21
57.885047677762742
 31
0.0
  0
ARC
  5
65
  8
0
 10
66.338274025095188
 20
62.135047677762742
 30
0.0
 40
0.5
 50
89.999999999999943
 51
180.0
  0
ARC
  5
66
  8
0
 10
63.338274025095188
 20
62.135047677762749
 30
0.0
 40
0.5
 50
89.999999999999915
 51
180.0
  0
LINE
  5
67
  8
0
 10
64.901524325335004
 20
62.385047677762742
 30
0.0
 11
65.905261323202978
 21
62.385047677762728
 31
0.0
  0
DIMENSION
  5
68
  8
DIM
  2
*D16
 10
51.340286607008352
 20
125.600014127996
 30
0.0
 11
48.840286607008331
 21
113.600014127996
 31
0.0
 70
     0
  1
24
 13
64.393327584297651
 23
101.600014127996
 33
0.0
 14
64.393327584297595
 24
125.600014127996
 34
0.0
 50
90.0
1001
ACAD
1000
DSTYLE
1002
{
1070
   178
1070
   256
1070
   177
1070
   256
1070
   176
1070
   256
1002
}
  0
LINE
  5
75
  8
HIDDEN
  6
DASHED
 10
64.593327584297654
 20
111.55001412799589
 30
0.0
 11
64.593327584297654
 21
115.6500141279959
 31
0.0
  0
LINE
  5
77
  8
HIDDEN
  6
DASHED
 10
71.39332758429768
 20
111.55001412799589
 30
0.0
 11
71.39332758429768
 21
115.6500141279959
 31
0.0
  0
LINE
  5
78
  8
HIDDEN
  6
DASHED
 10
69.893327584297666
 20
111.10001412799591
 30
0.0
 11
69.893327584297666
 21
116.100014127996
 31
0.0
  0
LINE
  5
79
  8
0
 10
63.893327584297587
 20
125.100014127996
 30
0.0
 11
63.893327584297651
 21
102.100014127996
 31
0.0
  0
ARC
  5
7A
  8
0
 10
64.393327584297651
 20
102.100014127996
 30
0.0
 40
0.5
 50
180.0
 51
270.0
  0
LINE
  5
7B
  8
HIDDEN
  6
DASHED
 10
71.39332758429768
 20
111.55001412799589
 30
0.0
 11
64.593327584297654
 21
111.55001412799589
 31
0.0
  0
LINE
  5
7C
  8
HIDDEN
  6
DASHED
 10
69.893327584297666
 20
111.10001412799591
 30
0.0
 11
64.14332758429768
 21
111.10001412799591
 31
0.0
  0
LINE
  5
7D
  8
HIDDEN
  6
DASHED
 10
64.593327584297654
 20
111.55001412799589
 30
0.0
 11
63.89332758429763
 21
110.85001412799591
 31
0.0
  0
LINE
  5
7E
  8
HIDDEN
  6
DASHED
 10
69.893327584297666
 20
111.10001412799591
 30
0.0
 11
70.695572672035127
 21
111.55001412799589
 31
0.0
  0
LINE
  5
7F
  8
HIDDEN
  6
DASHED
 10
73.693327584297691
 20
115.000014127996
 30
0.0
 11
71.39332758429768
 21
115.000014127996
 31
0.0
  0
LINE
  5
80
  8
HIDDEN
  6
DASHED
 10
73.693327584297691
 20
112.200014127996
 30
0.0
 11
71.39332758429768
 21
112.2000141279959
 31
0.0
  0
LINE
  5
81
  8
HIDDEN
  6
DASHED
 10
71.39332758429768
 20
115.6500141279959
 30
0.0
 11
64.593327584297654
 21
115.650014127996
 31
0.0
  0
LINE
  5
82
  8
HIDDEN
  6
DASHED
 10
69.893327584297666
 20
116.100014127996
 30
0.0
 11
64.143327584297623
 21
116.100014127996
 31
0.0
  0
LINE
  5
83
  8
HIDDEN
  6
DASHED
 10
64.593327584297654
 20
115.650014127996
 30
0.0
 11
63.89332758429763
 21
116.35001412799591
 31
0.0
  0
ARC
  5
84
  8
0
 10
64.393327584297595
 20
125.100014127996
 30
0.0
 40
0.5
 50
89.999999999999986
 51
180.0
  0
LINE
  5
85
  8
HIDDEN
  6
DASHED
 10
70.695572672035127
 20
115.6500141279959
 30
0.0
 11
69.893327584297666
 21
116.100014127996
 31
0.0
  0
DIMENSION
  5
86
  8
DIM
  2
*D17
 10
106.6382740250952
 20
40.262976613317633
 30
0.0
 11
95.838274025095174
 21
42.762976613317633
 31
0.0
 70
     0
 13
85.038274025095177
 23
51.885047677762742
 33
0.0
 14
106.6382740250952
 24
51.885047677762742
 34
0.0
1001
ACAD
1000
DSTYLE
1002
{
1002
}
  0
LINE
  5
93
  8
0
 10
126.8382740250951
 20
47.885047677762742
 30
0.0
 11
126.8382740250951
 21
52.385047677762742
 31
0.0
  0
ARC
  5
94
  8
0
 10
125.8382740250951
 20
50.135047677762742
 30
0.0
 40
2.7000000000000002
 50
8.5196242541431815
 51
38.682187453475912
  0
LINE
  5
95
  8
0
 10
128.83827402509519
 20
62.635047677762678
 30
0.0
 11
128.83827402509519
 21
47.635047677762678
 31
0.0
  0
LINE
  5
96
  8
0
 10
125.8382740250951
 20
48.135047677762742
 30
0.0
 11
125.8382740250951
 21
52.135047677762742
 31
0.0
  0
LINE
  5
97
  8
0
 10
113.8382740250951
 20
47.635047677762699
 30
0.0
 11
113.8382740250952
 21
62.635047677762699
 31
0.0
  0
LINE
  5
98
  8
CENTER
  6
CENTER
 10
86.338274025095188
 20
51.135047677762742
 30
0.0
 11
86.338274025095188
 21
53.185047677762739
 31
0.0
  0
LINE
  5
99
  8
0
 10
77.838274025095188
 20
47.635047677762742
 30
0.0
 11
77.838274025095245
 21
62.635047677762721
 31
0.0
  0
LINE
  5
9A
  8
CENTER
  6
CENTER
 10
87.838274025095188
 20
49.635047677762742
 30
0.0
 11
89.888274025095185
 21
49.635047677762742
 31
0.0
  0
LINE
  5
9B
  8
CENTER
  6
CENTER
 10
85.588274025095188
 20
49.635047677762742
 30
0.0
 11
87.088274025095174
 21
49.635047677762742
 31
0.0
  0
CIRCLE
  5
9C
  8
0
 10
86.338274025095188
 20
49.635047677762742
 30
0.0
 40
1.3
  0
LINE
  5
9D
  8
CENTER
  6
CENTER
 10
84.838274025095174
 20
49.635047677762742
 30
0.0
 11
82.788274025095177
 21
49.635047677762742
 31
0.0
  0
LINE
  5
9E
  8
CENTER
  6
CENTER
 10
86.338274025095188
 20
50.385047677762742
 30
0.0
 11
86.338274025095188
 21
48.885047677762742
 31
0.0
  0
LINE
  5
9F
  8
CENTER
  6
CENTER
 10
86.338274025095188
 20
48.135047677762742
 30
0.0
 11
86.338274025095188
 21
46.085047677762738
 31
0.0
  0
ARC
  5
A0
  8
0
 10
125.8382740250951
 20
50.135047677762742
 30
0.0
 40
2.7000000000000002
 50
321.31781254652401
 51
351.48037574585669
  0
LINE
  5
A1
  8
0
 10
128.50848000965891
 20
50.535047677762741
 30
0.0
 11
127.53827402509511
 21
50.535047677762741
 31
0.0
  0
LINE
  5
A2
  8
0
 10
128.50848000965891
 20
49.735047677762729
 30
0.0
 11
127.53827402509511
 21
49.735047677762722
 31
0.0
  0
LINE
  5
A3
  8
CENTER
  6
CENTER
 10
130.06835953071391
 20
50.135047677762742
 30
0.0
 11
124.4507287419955
 21
50.135047677762742
 31
0.0
  0
LINE
  5
A4
  8
0
 10
127.53827402509511
 20
49.735047677762722
 30
0.0
 11
127.53827402509511
 21
50.535047677762741
 31
0.0
  0
ARC
  5
A5
  8
0
 10
126.7750237248554
 20
49.385047677762742
 30
0.0
 40
1.5
 50
269.99999999999937
 51
321.31781254652401
  0
ARC
  5
A6
  8
0
 10
125.3382740250951
 20
48.135047677762742
 30
0.0
 40
0.5
 50
269.99999999999989
 51
0.0000000000000509
  0
LINE
  5
A7
  8
0
 10
126.7750237248553
 20
47.885047677762742
 30
0.0
 11
125.7712867269874
 21
47.885047677762749
 31
0.0
  0
SOLID
  5
A8
  8
DIM
  6
CONTINUOUS
 10
-131.6172574982906
 20
115.4578830046262
 30
0.0
 11
-129.89332758429751
 21
113.60001412799591
 31
0.0
 12
-130.92152002943789
 22
115.9165700644817
 32
0.0
 13
-130.92152002943789
 23
115.9165700644817
 33
0.0
210
0.0
220
0.0
230
-1.0
  0
POLYLINE
  5
251
  8
DIM
  6
CONTINUOUS
 66
     1
 10
0.0
 20
0.0
 30
0.0
 70
     8
1001
ACAD
1000
R13OBJECT
1002
{
1005
A8
1002
}
  0
VERTEX
  5
252
  8
DIM
  6
CONTINUOUS
 10
131.26938876386421
 20
115.6872265345539
 30
0.0
 70
    32
1001
ACAD
1000
R13OBJECT
1002
{
1005
A8
1002
}
  0
VERTEX
  5
253
  8
DIM
  6
CONTINUOUS
 10
134.27079809601051
 20
120.2397703372848
 30
0.0
 70
    32
1001
ACAD
1000
R13OBJECT
1002
{
1005
A8
1002
}
  0
SEQEND
  5
254
  8
DIM
  6
CONTINUOUS
  0
POLYLINE
  5
255
  8
DIM
  6
CONTINUOUS
 66
     1
 10
0.0
 20
0.0
 30
0.0
 70
     8
1001
ACAD
1000
R13OBJECT
1002
{
1005
A8
1002
}
  0
VERTEX
  5
256
  8
DIM
  6
CONTINUOUS
 10
134.27079809601051
 20
120.2397703372848
 30
0.0
 70
    32
1001
ACAD
1000
R13OBJECT
1002
{
1005
A8
1002
}
  0
VERTEX
  5
257
  8
DIM
  6
CONTINUOUS
 10
155.6279409531534
 20
120.2397703372848
 30
0.0
 70
    32
1001
ACAD
1000
R13OBJECT
1002
{
1005
A8
1002
}
  0
SEQEND
  5
258
  8
DIM
  6
CONTINUOUS
  0
TEXT
  5
A9
  8
DIM
  6
CONTINUOUS
 10
135.5265253223024
 20
121.584690465748
 30
0.0
 40
3.0
  1
M5*P0.8
  7
CHINESET
  0
DIMENSION
  5
AA
  8
DIM
  2
*D18
 10
102.39332758429759
 20
92.301244019864839
 30
0.0
 11
96.893327584297651
 21
94.801244019864839
 31
0.0
 70
     0
 13
91.393327584297637
 23
103.2500141279959
 33
0.0
 14
102.39332758429759
 24
103.2500141279959
 34
0.0
1001
ACAD
1000
DSTYLE
1002
{
1070
   147
1040
1.0
1002
}
  0
CIRCLE
  5
B7
  8
0
 10
106.6382740250952
 20
55.135047677762742
 30
0.0
 40
2.5
  0
CIRCLE
  5
B8
  8
0
 10
106.6382740250952
 20
55.135047677762742
 30
0.0
 40
2.0499999999999989
  0
LINE
  5
B9
  8
CENTER
  6
CENTER
 10
104.5882740250951
 20
60.635047677762742
 30
0.0
 11
106.0882740250951
 21
60.635047677762742
 31
0.0
  0
CIRCLE
  5
BA
  8
0
 10
105.3382740250951
 20
60.635047677762742
 30
0.0
 40
1.3
  0
CIRCLE
  5
BB
  8
0
 10
85.038274025095177
 20
55.135047677762742
 30
0.0
 40
2.5
  0
CIRCLE
  5
BC
  8
0
 10
85.038274025095177
 20
55.135047677762742
 30
0.0
 40
2.0499999999999989
  0
LINE
  5
BD
  8
CENTER
  6
CENTER
 10
85.038274025095177
 20
54.385047677762742
 30
0.0
 11
85.038274025095177
 21
55.885047677762742
 31
0.0
  0
LINE
  5
BE
  8
CENTER
  6
CENTER
 10
85.038274025095177
 20
53.635047677762742
 30
0.0
 11
85.038274025095177
 21
51.885047677762742
 31
0.0
  0
LINE
  5
BF
  8
CENTER
  6
CENTER
 10
85.038274025095177
 20
56.635047677762742
 30
0.0
 11
85.038274025095177
 21
58.385047677762742
 31
0.0
  0
CIRCLE
  5
C0
  8
0
 10
95.838274025095174
 20
55.135047677762742
 30
0.0
 40
2.5
  0
CIRCLE
  5
C1
  8
0
 10
95.838274025095174
 20
55.135047677762742
 30
0.0
 40
2.0499999999999989
  0
LINE
  5
C2
  8
CENTER
  6
CENTER
 10
95.838274025095174
 20
54.385047677762742
 30
0.0
 11
95.838274025095174
 21
55.885047677762742
 31
0.0
  0
LINE
  5
C3
  8
CENTER
  6
CENTER
 10
95.838274025095174
 20
53.635047677762742
 30
0.0
 11
95.838274025095174
 21
51.885047677762742
 31
0.0
  0
LINE
  5
C4
  8
CENTER
  6
CENTER
 10
95.838274025095174
 20
56.635047677762742
 30
0.0
 11
95.838274025095174
 21
58.385047677762742
 31
0.0
  0
LINE
  5
C5
  8
CENTER
  6
CENTER
 10
103.8382740250952
 20
60.635047677762742
 30
0.0
 11
101.78827402509511
 21
60.635047677762742
 31
0.0
  0
LINE
  5
C6
  8
CENTER
  6
CENTER
 10
106.6382740250952
 20
54.385047677762742
 30
0.0
 11
106.6382740250952
 21
55.885047677762742
 31
0.0
  0
LINE
  5
C7
  8
CENTER
  6
CENTER
 10
106.6382740250952
 20
53.635047677762742
 30
0.0
 11
106.6382740250952
 21
51.885047677762742
 31
0.0
  0
LINE
  5
C8
  8
CENTER
  6
CENTER
 10
106.6382740250952
 20
56.635047677762742
 30
0.0
 11
106.6382740250952
 21
58.385047677762742
 31
0.0
  0
LINE
  5
C9
  8
CENTER
  6
CENTER
 10
105.3382740250951
 20
59.135047677762742
 30
0.0
 11
105.3382740250951
 21
57.085047677762752
 31
0.0
  0
LINE
  5
CA
  8
CENTER
  6
CENTER
 10
105.3382740250951
 20
61.385047677762742
 30
0.0
 11
105.3382740250951
 21
59.885047677762742
 31
0.0
  0
LINE
  5
CB
  8
CENTER
  6
CENTER
 10
106.8382740250951
 20
60.635047677762742
 30
0.0
 11
108.8882740250951
 21
60.635047677762742
 31
0.0
  0
LINE
  5
CC
  8
CENTER
  6
CENTER
 10
105.3382740250951
 20
62.135047677762742
 30
0.0
 11
105.3382740250951
 21
64.185047677762739
 31
0.0
  0
ARC
  5
CD
  8
0
 10
128.3382740250951
 20
53.135047677762721
 30
0.0
 40
0.5
 50
270.0
 51
0.0000000000000509
  0
ARC
  5
CE
  8
0
 10
126.7750237248554
 20
50.885047677762742
 30
0.0
 40
1.5
 50
38.682187453475912
 51
90.0
  0
ARC
  5
CF
  8
0
 10
126.3382740250951
 20
52.135047677762742
 30
0.0
 40
0.5
 50
89.999999999999687
 51
180.0
  0
LINE
  5
D0
  8
0
 10
126.7750237248554
 20
52.385047677762742
 30
0.0
 11
125.90526132320289
 21
52.385047677762742
 31
0.0
  0
LINE
  5
D1
  8
0
 10
128.3382740250951
 20
52.635047677762721
 30
0.0
 11
126.3382740250951
 21
52.635047677762742
 31
0.0
  0
LINE
  5
D2
  8
HIDDEN
  6
DASHED
 10
105.6433275842975
 20
102.30001412799599
 30
0.0
 11
104.94332758429761
 21
101.60001412799591
 31
0.0
  0
LINE
  5
D3
  8
0
 10
78.893327584297595
 20
125.600014127996
 30
0.0
 11
78.893327584297538
 21
101.600014127996
 31
0.0
  0
LINE
  5
D4
  8
CENTER
  6
CENTER
 10
89.893327584297666
 20
105.600014127996
 30
0.0
 11
89.043327584297629
 21
105.600014127996
 31
0.0
  0
LINE
  5
D5
  8
HIDDEN
  6
DASHED
 10
88.143327584297595
 20
109.10001412799591
 30
0.0
 11
88.143327584297651
 21
102.30001412799599
 31
0.0
  0
LINE
  5
D6
  8
HIDDEN
  6
DASHED
 10
88.593327584297626
 20
107.600014127996
 30
0.0
 11
88.593327584297626
 21
101.85001412799591
 31
0.0
  0
LINE
  5
D7
  8
HIDDEN
  6
DASHED
 10
84.043327584297629
 20
109.10001412799591
 30
0.0
 11
84.043327584297629
 21
102.30001412799599
 31
0.0
  0
LINE
  5
D8
  8
HIDDEN
  6
DASHED
 10
83.593327584297626
 20
107.600014127996
 30
0.0
 11
83.593327584297626
 21
101.850014127996
 31
0.0
  0
LINE
  5
D9
  8
CENTER
  6
CENTER
 10
86.093327584297626
 20
109.6523303326894
 30
0.0
 11
86.093327584297626
 21
100.5556340279764
 31
0.0
  0
TEXT
  5
DA
  8
0
 10
84.886159184467772
 20
98.113791693811535
 30
0.0
 40
1.5
  1
R1
  7
CHINESET
  0
LINE
  5
DB
  8
HIDDEN
  6
DASHED
 10
84.043327584297629
 20
102.30001412799599
 30
0.0
 11
88.143327584297595
 21
102.30001412799599
 31
0.0
  0
LINE
  5
DC
  8
HIDDEN
  6
DASHED
 10
84.043327584297629
 20
102.30001412799599
 30
0.0
 11
83.343327584297654
 21
101.60001412799591
 31
0.0
  0
LINE
  5
DD
  8
HIDDEN
  6
DASHED
 10
88.143327584297651
 20
102.30001412799599
 30
0.0
 11
88.843327584297583
 21
101.60001412799591
 31
0.0
  0
LINE
  5
DE
  8
HIDDEN
  6
DASHED
 10
84.693327584297606
 20
110.1063649606856
 30
0.0
 11
84.693327584297606
 21
109.10001412799591
 31
0.0
  0
LINE
  5
DF
  8
HIDDEN
  6
DASHED
 10
87.493327584297617
 20
110.1063649606856
 30
0.0
 11
87.493327584297617
 21
109.10001412799591
 31
0.0
  0
LINE
  5
E0
  8
HIDDEN
  6
DASHED
 10
84.043327584297629
 20
109.10001412799591
 30
0.0
 11
88.143327584297595
 21
109.10001412799591
 31
0.0
  0
LINE
  5
E1
  8
HIDDEN
  6
DASHED
 10
83.593327584297626
 20
107.600014127996
 30
0.0
 11
88.593327584297626
 21
107.600014127996
 31
0.0
  0
LINE
  5
E2
  8
HIDDEN
  6
DASHED
 10
83.593327584297626
 20
107.600014127996
 30
0.0
 11
84.043327584297629
 21
108.40225921573339
 31
0.0
  0
LINE
  5
E4
  8
HIDDEN
  6
DASHED
 10
88.143327584297595
 20
108.40225921573339
 30
0.0
 11
88.593327584297626
 21
107.600014127996
 31
0.0
  0
LINE
  5
E5
  8
CENTER
  6
CENTER
 10
96.893327584297651
 20
109.5090605904127
 30
0.0
 11
96.893327584297651
 21
100.4123642856997
 31
0.0
  0
LINE
  5
E6
  8
HIDDEN
  6
DASHED
 10
94.843327584297583
 20
109.6523303326894
 30
0.0
 11
94.843327584297583
 21
100.5556340279764
 31
0.0
  0
CIRCLE
  5
E7
  8
0
 10
102.39332758429759
 20
105.600014127996
 30
0.0
 40
1.6000000000000001
  0
CIRCLE
  5
E8
  8
0
 10
91.393327584297637
 20
105.600014127996
 30
0.0
 40
1.6000000000000001
  0
LINE
  5
E9
  8
HIDDEN
  6
DASHED
 10
99.393327584297651
 20
107.600014127996
 30
0.0
 11
99.393327584297651
 21
101.85001412799591
 31
0.0
  0
LINE
  5
EA
  8
HIDDEN
  6
DASHED
 10
94.393327584297651
 20
107.600014127996
 30
0.0
 11
94.393327584297651
 21
101.850014127996
 31
0.0
  0
LINE
  5
EB
  8
HIDDEN
  6
DASHED
 10
98.94332758429762
 20
109.10001412799591
 30
0.0
 11
98.94332758429762
 21
102.30001412799599
 31
0.0
  0
LINE
  5
EC
  8
HIDDEN
  6
DASHED
 10
94.843327584297583
 20
109.10001412799591
 30
0.0
 11
94.843327584297583
 21
102.30001412799599
 31
0.0
  0
LINE
  5
ED
  8
HIDDEN
  6
DASHED
 10
94.843327584297583
 20
102.30001412799599
 30
0.0
 11
98.94332758429762
 21
102.30001412799599
 31
0.0
  0
TEXT
  5
EE
  8
0
 10
96.189616786025624
 20
98.209002408966697
 30
0.0
 40
1.5
  1
P
  7
CHINESET
  0
LINE
  5
EF
  8
CENTER
  6
CENTER
 10
91.393327584297637
 20
104.10001412799591
 30
0.0
 11
91.393327584297637
 21
103.2500141279959
 31
0.0
  0
LINE
  5
F0
  8
HIDDEN
  6
DASHED
 10
94.843327584297583
 20
102.30001412799599
 30
0.0
 11
94.143327584297651
 21
101.60001412799591
 31
0.0
  0
LINE
  5
F1
  8
HIDDEN
  6
DASHED
 10
98.94332758429762
 20
102.30001412799599
 30
0.0
 11
99.643327584297595
 21
101.60001412799591
 31
0.0
  0
LINE
  5
F2
  8
CENTER
  6
CENTER
 10
102.39332758429759
 20
104.10001412799591
 30
0.0
 11
102.39332758429759
 21
103.2500141279959
 31
0.0
  0
LINE
  5
F3
  8
HIDDEN
  6
DASHED
 10
94.843327584297583
 20
109.10001412799591
 30
0.0
 11
98.94332758429762
 21
109.10001412799591
 31
0.0
  0
LINE
  5
F4
  8
HIDDEN
  6
DASHED
 10
94.393327584297651
 20
107.600014127996
 30
0.0
 11
99.393327584297651
 21
107.600014127996
 31
0.0
  0
LINE
  5
F5
  8
HIDDEN
  6
DASHED
 10
95.49332758429756
 20
110.1063649606856
 30
0.0
 11
95.49332758429756
 21
109.10001412799591
 31
0.0
  0
LINE
  5
F6
  8
0
 10
92.893327584297651
 20
105.600014127996
 30
0.0
 11
93.743327584297617
 21
105.600014127996
 31
0.0
  0
LINE
  5
F7
  8
CENTER
  6
CENTER
 10
91.393327584297637
 20
107.10001412799591
 30
0.0
 11
91.393327584297637
 21
107.9500141279959
 31
0.0
  0
LINE
  5
F8
  8
CENTER
  6
CENTER
 10
91.393327584297637
 20
104.85001412799591
 30
0.0
 11
91.393327584297637
 21
106.35001412799591
 31
0.0
  0
LINE
  5
F9
  8
CENTER
  6
CENTER
 10
90.643327584297651
 20
105.600014127996
 30
0.0
 11
92.143327584297651
 21
105.600014127996
 31
0.0
  0
LINE
  5
FA
  8
HIDDEN
  6
DASHED
 10
94.393327584297651
 20
107.600014127996
 30
0.0
 11
94.843327584297583
 21
108.40225921573339
 31
0.0
  0
LINE
  5
FB
  8
HIDDEN
  6
DASHED
 10
98.293327584297643
 20
110.1063649606856
 30
0.0
 11
98.293327584297643
 21
109.10001412799591
 31
0.0
  0
LINE
  5
FC
  8
CENTER
  6
CENTER
 10
100.89332758429759
 20
105.600014127996
 30
0.0
 11
100.0433275842976
 21
105.600014127996
 31
0.0
  0
LINE
  5
FD
  8
HIDDEN
  6
DASHED
 10
98.94332758429762
 20
108.40225921573339
 30
0.0
 11
99.393327584297651
 21
107.600014127996
 31
0.0
  0
LINE
  5
FE
  8
CENTER
  6
CENTER
 10
102.39332758429759
 20
107.10001412799591
 30
0.0
 11
102.39332758429759
 21
107.9500141279959
 31
0.0
  0
LINE
  5
FF
  8
CENTER
  6
CENTER
 10
103.89332758429759
 20
105.600014127996
 30
0.0
 11
104.7433275842976
 21
105.600014127996
 31
0.0
  0
LINE
  5
100
  8
CENTER
  6
CENTER
 10
102.39332758429759
 20
104.85001412799591
 30
0.0
 11
102.39332758429759
 21
106.35001412799591
 31
0.0
  0
LINE
  5
101
  8
CENTER
  6
CENTER
 10
101.64332758429759
 20
105.600014127996
 30
0.0
 11
103.14332758429759
 21
105.600014127996
 31
0.0
  0
LINE
  5
102
  8
HIDDEN
  6
DASHED
 10
88.893327584297595
 20
119.600014127996
 30
0.0
 11
93.893327584297595
 21
119.600014127996
 31
0.0
  0
LINE
  5
103
  8
HIDDEN
  6
DASHED
 10
89.34332758429764
 20
118.100014127996
 30
0.0
 11
93.443327584297606
 21
118.100014127996
 31
0.0
  0
LINE
  5
104
  8
HIDDEN
  6
DASHED
 10
89.34332758429764
 20
124.900014127996
 30
0.0
 11
93.443327584297606
 21
124.900014127996
 31
0.0
  0
LINE
  5
105
  8
HIDDEN
  6
DASHED
 10
88.893327584297595
 20
119.600014127996
 30
0.0
 11
88.893327584297637
 21
125.350014127996
 31
0.0
  0
LINE
  5
106
  8
HIDDEN
  6
DASHED
 10
89.34332758429764
 20
118.100014127996
 30
0.0
 11
89.34332758429764
 21
124.900014127996
 31
0.0
  0
LINE
  5
107
  8
HIDDEN
  6
DASHED
 10
88.893327584297595
 20
119.600014127996
 30
0.0
 11
89.34332758429764
 21
118.7977690402585
 31
0.0
  0
LINE
  5
108
  8
HIDDEN
  6
DASHED
 10
89.34332758429764
 20
124.900014127996
 30
0.0
 11
88.643327584297666
 21
125.600014127996
 31
0.0
  0
LINE
  5
109
  8
CENTER
  6
CENTER
 10
102.3933275842975
 20
117.54769792330249
 30
0.0
 11
102.3933275842975
 21
126.6443942280156
 31
0.0
  0
LINE
  5
10A
  8
CENTER
  6
CENTER
 10
91.393327584297538
 20
117.54769792330249
 30
0.0
 11
91.393327584297595
 21
126.6443942280156
 31
0.0
  0
LINE
  5
10B
  8
HIDDEN
  6
DASHED
 10
93.893327584297595
 20
119.600014127996
 30
0.0
 11
93.893327584297637
 21
125.350014127996
 31
0.0
  0
LINE
  5
10C
  8
HIDDEN
  6
DASHED
 10
93.443327584297606
 20
118.100014127996
 30
0.0
 11
93.443327584297606
 21
124.900014127996
 31
0.0
  0
LINE
  5
10D
  8
HIDDEN
  6
DASHED
 10
93.443327584297549
 20
118.7977690402585
 30
0.0
 11
93.893327584297595
 21
119.600014127996
 31
0.0
  0
LINE
  5
10E
  8
HIDDEN
  6
DASHED
 10
89.993327584297617
 20
117.0936632953063
 30
0.0
 11
89.993327584297617
 21
118.100014127996
 31
0.0
  0
LINE
  5
10F
  8
HIDDEN
  6
DASHED
 10
92.793327584297629
 20
117.0936632953063
 30
0.0
 11
92.793327584297629
 21
118.100014127996
 31
0.0
  0
LINE
  5
110
  8
HIDDEN
  6
DASHED
 10
93.443327584297606
 20
124.900014127996
 30
0.0
 11
94.143327584297538
 21
125.600014127996
 31
0.0
  0
LINE
  5
111
  8
HIDDEN
  6
DASHED
 10
99.893327584297595
 20
119.600014127996
 30
0.0
 11
99.893327584297595
 21
125.350014127996
 31
0.0
  0
LINE
  5
112
  8
HIDDEN
  6
DASHED
 10
100.3433275842975
 20
118.100014127996
 30
0.0
 11
100.3433275842975
 21
124.900014127996
 31
0.0
  0
LINE
  5
113
  8
HIDDEN
  6
DASHED
 10
104.8933275842975
 20
119.600014127996
 30
0.0
 11
104.8933275842975
 21
125.350014127996
 31
0.0
  0
LINE
  5
114
  8
HIDDEN
  6
DASHED
 10
104.44332758429761
 20
118.100014127996
 30
0.0
 11
104.44332758429761
 21
124.900014127996
 31
0.0
  0
LINE
  5
115
  8
HIDDEN
  6
DASHED
 10
99.893327584297595
 20
119.600014127996
 30
0.0
 11
104.8933275842975
 21
119.600014127996
 31
0.0
  0
LINE
  5
116
  8
HIDDEN
  6
DASHED
 10
100.3433275842975
 20
118.100014127996
 30
0.0
 11
104.44332758429761
 21
118.100014127996
 31
0.0
  0
LINE
  5
117
  8
HIDDEN
  6
DASHED
 10
100.9933275842976
 20
117.0936632953063
 30
0.0
 11
100.9933275842975
 21
118.100014127996
 31
0.0
  0
LINE
  5
118
  8
HIDDEN
  6
DASHED
 10
99.893327584297595
 20
119.600014127996
 30
0.0
 11
100.3433275842975
 21
118.7977690402585
 31
0.0
  0
LINE
  5
119
  8
HIDDEN
  6
DASHED
 10
103.7933275842976
 20
117.0936632953063
 30
0.0
 11
103.7933275842976
 21
118.100014127996
 31
0.0
  0
LINE
  5
11A
  8
HIDDEN
  6
DASHED
 10
104.44332758429751
 20
118.7977690402585
 30
0.0
 11
104.8933275842975
 21
119.600014127996
 31
0.0
  0
LINE
  5
11B
  8
HIDDEN
  6
DASHED
 10
100.3433275842975
 20
124.900014127996
 30
0.0
 11
104.44332758429761
 21
124.900014127996
 31
0.0
  0
LINE
  5
11C
  8
HIDDEN
  6
DASHED
 10
100.3433275842975
 20
124.900014127996
 30
0.0
 11
99.643327584297595
 21
125.600014127996
 31
0.0
  0
LINE
  5
11D
  8
HIDDEN
  6
DASHED
 10
104.44332758429761
 20
124.900014127996
 30
0.0
 11
105.1433275842975
 21
125.600014127996
 31
0.0
  0
TEXT
  5
11E
  8
0
 10
90.380895871256868
 20
127.35161021173759
 30
0.0
 40
1.5
  1
A
  7
CHINESET
  0
TEXT
  5
11F
  8
0
 10
101.99833770079429
 20
127.3516105766551
 30
0.0
 40
1.5
  1
B
  7
CHINESET
  0
LINE
  5
120
  8
HIDDEN
  6
DASHED
 10
123.89332758429759
 20
111.10001412799591
 30
0.0
 11
123.89332758429759
 21
116.100014127996
 31
0.0
  0
LINE
  5
121
  8
HIDDEN
  6
DASHED
 10
122.3933275842975
 20
111.55001412799589
 30
0.0
 11
122.3933275842975
 21
115.6500141279959
 31
0.0
  0
LINE
  5
122
  8
HIDDEN
  6
DASHED
 10
129.19332758429761
 20
111.55001412799589
 30
0.0
 11
129.19332758429761
 21
115.6500141279959
 31
0.0
  0
LINE
  5
123
  8
0
 10
129.89332758429751
 20
125.600014127996
 30
0.0
 11
129.89332758429751
 21
101.600014127996
 31
0.0
  0
LINE
  5
124
  8
0
 10
114.8933275842975
 20
125.600014127996
 30
0.0
 11
114.8933275842975
 21
101.600014127996
 31
0.0
  0
LINE
  5
125
  8
HIDDEN
  6
DASHED
 10
120.0933275842975
 20
112.200014127996
 30
0.0
 11
122.3933275842975
 21
112.2000141279959
 31
0.0
  0
LINE
  5
126
  8
HIDDEN
  6
DASHED
 10
120.0933275842975
 20
115.000014127996
 30
0.0
 11
122.3933275842975
 21
115.000014127996
 31
0.0
  0
LINE
  5
127
  8
HIDDEN
  6
DASHED
 10
109.7433275842976
 20
109.10001412799591
 30
0.0
 11
109.7433275842976
 21
102.30001412799599
 31
0.0
  0
LINE
  5
128
  8
HIDDEN
  6
DASHED
 10
110.19332758429761
 20
107.600014127996
 30
0.0
 11
110.19332758429761
 21
101.85001412799591
 31
0.0
  0
LINE
  5
129
  8
HIDDEN
  6
DASHED
 10
105.6433275842975
 20
109.10001412799591
 30
0.0
 11
105.6433275842975
 21
102.30001412799599
 31
0.0
  0
LINE
  5
12A
  8
HIDDEN
  6
DASHED
 10
105.19332758429761
 20
107.600014127996
 30
0.0
 11
105.19332758429761
 21
101.850014127996
 31
0.0
  0
LINE
  5
12B
  8
CENTER
  6
CENTER
 10
107.69332758429761
 20
109.6523303326894
 30
0.0
 11
107.69332758429761
 21
100.5556340279764
 31
0.0
  0
TEXT
  5
12C
  8
0
 10
106.23713423384049
 20
97.990490683386128
 30
0.0
 40
1.5
  1
R2
  7
CHINESET
  0
LINE
  5
12D
  8
HIDDEN
  6
DASHED
 10
105.6433275842975
 20
102.30001412799599
 30
0.0
 11
109.7433275842976
 21
102.30001412799599
 31
0.0
  0
LINE
  5
12E
  8
HIDDEN
  6
DASHED
 10
109.7433275842976
 20
102.30001412799599
 30
0.0
 11
110.44332758429761
 21
101.60001412799591
 31
0.0
  0
LINE
  5
12F
  8
HIDDEN
  6
DASHED
 10
106.2933275842976
 20
110.1063649606856
 30
0.0
 11
106.2933275842975
 21
109.10001412799591
 31
0.0
  0
LINE
  5
130
  8
HIDDEN
  6
DASHED
 10
109.0933275842976
 20
110.1063649606856
 30
0.0
 11
109.0933275842976
 21
109.10001412799591
 31
0.0
  0
LINE
  5
131
  8
HIDDEN
  6
DASHED
 10
105.6433275842975
 20
109.10001412799591
 30
0.0
 11
109.7433275842976
 21
109.10001412799591
 31
0.0
  0
LINE
  5
132
  8
HIDDEN
  6
DASHED
 10
105.19332758429761
 20
107.600014127996
 30
0.0
 11
110.19332758429761
 21
107.600014127996
 31
0.0
  0
LINE
  5
133
  8
HIDDEN
  6
DASHED
 10
105.19332758429761
 20
107.600014127996
 30
0.0
 11
105.6433275842975
 21
108.40225921573339
 31
0.0
  0
LINE
  5
134
  8
HIDDEN
  6
DASHED
 10
109.7433275842975
 20
108.40225921573339
 30
0.0
 11
110.19332758429761
 21
107.600014127996
 31
0.0
  0
LINE
  5
135
  8
HIDDEN
  6
DASHED
 10
123.89332758429759
 20
111.10001412799591
 30
0.0
 11
129.64332758429751
 21
111.10001412799591
 31
0.0
  0
LINE
  5
136
  8
HIDDEN
  6
DASHED
 10
122.3933275842975
 20
111.55001412799589
 30
0.0
 11
129.19332758429761
 21
111.55001412799589
 31
0.0
  0
LINE
  5
137
  8
HIDDEN
  6
DASHED
 10
123.89332758429759
 20
111.10001412799591
 30
0.0
 11
123.09108249656011
 21
111.55001412799589
 31
0.0
  0
LINE
  5
138
  8
HIDDEN
  6
DASHED
 10
129.19332758429761
 20
111.55001412799589
 30
0.0
 11
129.89332758429759
 21
110.85001412799591
 31
0.0
  0
LINE
  5
139
  8
HIDDEN
  6
DASHED
 10
123.89332758429759
 20
116.100014127996
 30
0.0
 11
129.64332758429759
 21
116.100014127996
 31
0.0
  0
LINE
  5
13A
  8
HIDDEN
  6
DASHED
 10
122.3933275842975
 20
115.6500141279959
 30
0.0
 11
129.19332758429761
 21
115.650014127996
 31
0.0
  0
LINE
  5
13B
  8
HIDDEN
  6
DASHED
 10
123.09108249656011
 20
115.6500141279959
 30
0.0
 11
123.89332758429759
 21
116.100014127996
 31
0.0
  0
LINE
  5
13C
  8
HIDDEN
  6
DASHED
 10
129.19332758429761
 20
115.650014127996
 30
0.0
 11
129.89332758429759
 21
116.35001412799591
 31
0.0
  0
DIMENSION
  5
13D
  8
DIM
  2
*D19
 10
53.557434317007392
 20
163.1492798851888
 30
0.0
 11
50.56936304415683
 21
159.82251272566859
 31
0.0
 70
   128
 13
86.613197604951438
 23
157.14927988518869
 33
0.0
 14
97.613197604951438
 24
163.14927988518869
 34
0.0
 50
90.0
1001
ACAD
1000
DSTYLE
1002
{
1070
   178
1070
   256
1070
   177
1070
   256
1070
   176
1070
   256
1002
}
  0
DIMENSION
  5
14C
  8
DIM
  2
*D20
 10
46.834273676081907
 20
165.6492798851888
 30
0.0
 11
43.348189970399851
 21
160.07125048568619
 31
0.0
 70
   128
 13
101.3131976049514
 23
154.64927988518869
 33
0.0
 14
82.313197604951426
 24
165.64927988518869
 34
0.0
 50
90.0
1001
ACAD
1000
DSTYLE
1002
{
1070
   178
1070
   256
1070
   177
1070
   256
1070
   176
1070
   256
1002
}
  0
SOLID
  5
159
  8
DIM
  6
CONTINUOUS
 10
-87.537341151105935
 20
153.2071401806673
 30
0.0
 11
-88.712371594174556
 21
155.45278364501621
 31
0.0
 12
-88.329173109439026
 22
152.94743535936661
 32
0.0
 13
-88.329173109439026
 23
152.94743535936661
 33
0.0
210
0.0
220
0.0
230
-1.0
  0
POLYLINE
  5
259
  8
DIM
  6
CONTINUOUS
 66
     1
 10
0.0
 20
0.0
 30
0.0
 70
     8
1001
ACAD
1000
R13OBJECT
1002
{
1005
159
1002
}
  0
VERTEX
  5
25A
  8
DIM
  6
CONTINUOUS
 10
87.933257130272494
 20
153.07728777001699
 30
0.0
 70
    32
1001
ACAD
1000
R13OBJECT
1002
{
1005
159
1002
}
  0
VERTEX
  5
25B
  8
DIM
  6
CONTINUOUS
 10
84.262566067001217
 20
141.88546438179981
 30
0.0
 70
    32
1001
ACAD
1000
R13OBJECT
1002
{
1005
159
1002
}
  0
SEQEND
  5
25C
  8
DIM
  6
CONTINUOUS
  0
POLYLINE
  5
25D
  8
DIM
  6
CONTINUOUS
 66
     1
 10
0.0
 20
0.0
 30
0.0
 70
     8
1001
ACAD
1000
R13OBJECT
1002
{
1005
159
1002
}
  0
VERTEX
  5
25E
  8
DIM
  6
CONTINUOUS
 10
84.262566067001217
 20
141.88546438179981
 30
0.0
 70
    32
1001
ACAD
1000
R13OBJECT
1002
{
1005
159
1002
}
  0
VERTEX
  5
25F
  8
DIM
  6
CONTINUOUS
 10
55.8339946384298
 20
141.88546438179981
 30
0.0
 70
    32
1001
ACAD
1000
R13OBJECT
1002
{
1005
159
1002
}
  0
SEQEND
  5
260
  8
DIM
  6
CONTINUOUS
  0
TEXT
  5
15A
  8
DIM
  6
CONTINUOUS
 10
58.991548523686703
 20
142.88546438179981
 30
0.0
 40
3.0
  1
5-M5*P0.8
  7
CHINESET
  0
LINE
  5
15B
  8
CENTER
  6
CENTER
 10
58.815220376014167
 20
160.14927988518869
 30
0.0
 11
131.84886805953261
 21
160.14927988518869
 31
0.0
  0
TEXT
  5
15C
  8
0
 10
55.741475862209768
 20
194.95511026641989
 30
0.0
 40
5.0
  1
MVAA-150-4A2  安裝尺寸圖
  7
CHINESET
  0
LINE
  5
15D
  8
0
 10
62.863197604951431
 20
167.64927988518869
 30
0.0
 11
128.36319760495141
 21
167.64927988518869
 31
0.0
  0
LINE
  5
15E
  8
0
 10
62.363197604951488
 20
152.64927988518869
 30
0.0
 11
128.36319760495141
 21
152.64927988518869
 31
0.0
  0
DIMENSION
  5
160
  8
DIM
  2
*D21
 10
40.858130022334642
 20
167.64927988518869
 30
0.0
 11
38.35813002233462
 21
160.14927988518869
 31
0.0
 70
     0
 13
62.363197604951488
 23
152.64927988518869
 33
0.0
 14
62.863197604951431
 24
167.64927988518869
 34
0.0
 50
90.0
1001
ACAD
1000
DSTYLE
1002
{
1070
   178
1070
   256
1070
   177
1070
   256
1070
   176
1070
   256
1002
}
  0
LINE
  5
16D
  8
0
 10
62.363197604951438
 20
167.14927988518869
 30
0.0
 11
62.363197604951488
 21
152.64927988518869
 31
0.0
  0
LINE
  5
16E
  8
CENTER
  6
CENTER
 10
61.133112099332664
 20
165.14927988518869
 30
0.0
 11
66.75074288805115
 21
165.14927988518869
 31
0.0
  0
ARC
  5
16F
  8
0
 10
64.426447905191253
 20
164.39927988518869
 30
0.0
 40
1.5
 50
218.68218745347579
 51
270.0
  0
LINE
  5
170
  8
0
 10
64.363197604951438
 20
167.39927988518869
 30
0.0
 11
64.363197604951438
 21
162.89927988518869
 31
0.0
  0
LINE
  5
171
  8
0
 10
65.363197604951424
 20
167.14927988518869
 30
0.0
 11
65.363197604951424
 21
163.14927988518869
 31
0.0
  0
ARC
  5
172
  8
0
 10
62.863197604951431
 20
162.14927988518869
 30
0.0
 40
0.5
 50
90.0
 51
180.0
  0
LINE
  5
173
  8
0
 10
64.426447905191253
 20
162.89927988518869
 30
0.0
 11
65.296210306843633
 21
162.89927988518869
 31
0.0
  0
ARC
  5
174
  8
0
 10
64.863197604951438
 20
163.14927988518869
 30
0.0
 40
0.5
 50
269.99999999999972
 51
0.0000000000000509
  0
LINE
  5
175
  8
0
 10
62.863197604951431
 20
162.64927988518869
 30
0.0
 11
64.863197604951438
 21
162.64927988518869
 31
0.0
  0
ARC
  5
176
  8
0
 10
65.363197604951424
 20
165.14927988518869
 30
0.0
 40
2.7000000000000002
 50
188.51962425414311
 51
218.68218745347579
  0
ARC
  5
177
  8
0
 10
65.363197604951424
 20
165.14927988518869
 30
0.0
 40
2.7000000000000002
 50
141.31781254652401
 51
171.4803757458568
  0
ARC
  5
178
  8
0
 10
62.863197604951431
 20
167.14927988518869
 30
0.0
 40
0.5
 50
89.999999999999915
 51
180.0
  0
LINE
  5
179
  8
0
 10
63.663197604951442
 20
165.54927988518881
 30
0.0
 11
63.663197604951442
 21
164.74927988518871
 31
0.0
  0
LINE
  5
17A
  8
0
 10
62.692991620387708
 20
164.74927988518871
 30
0.0
 11
63.663197604951442
 21
164.74927988518871
 31
0.0
  0
LINE
  5
17B
  8
0
 10
62.692991620387708
 20
165.5492798851887
 30
0.0
 11
63.663197604951442
 21
165.54927988518881
 31
0.0
  0
ARC
  5
17C
  8
0
 10
64.426447905191253
 20
165.89927988518869
 30
0.0
 40
1.5
 50
89.999999999999446
 51
141.31781254652401
  0
LINE
  5
17D
  8
0
 10
64.426447905191253
 20
167.39927988518869
 30
0.0
 11
65.430184903059214
 21
167.39927988518869
 31
0.0
  0
ARC
  5
17E
  8
0
 10
65.863197604951424
 20
167.14927988518869
 30
0.0
 40
0.5
 50
89.999999999999943
 51
180.0
  0
TEXT
  5
187
  8
0
 10
131.33564152173881
 20
189.25378011496909
 30
0.0
 40
3.0
  1
S=1:1
  7
CHINESET
  0
DIMENSION
  5
188
  8
DIM
  2
*D22
 10
104.8631976049514
 20
178.4064283772899
 30
0.0
 11
95.363197604951438
 21
180.90642837728981
 31
0.0
 70
     0
 13
85.863197604951424
 23
169.1992798851887
 33
0.0
 14
104.8631976049514
 24
158.1992798851887
 34
0.0
1001
ACAD
1000
DSTYLE
1002
{
1002
}
  0
LINE
  5
195
  8
CENTER
  6
CENTER
 10
104.1131976049514
 20
154.64927988518869
 30
0.0
 11
105.6131976049514
 21
154.64927988518869
 31
0.0
  0
ARC
  5
196
  8
0
 10
104.8631976049514
 20
154.64927988518869
 30
0.0
 40
2.7999999999999989
 50
0.0
 51
180.0
  0
CIRCLE
  5
197
  8
0
 10
104.8631976049514
 20
154.64927988518869
 30
0.0
 40
1.3
  0
LINE
  5
198
  8
CENTER
  6
CENTER
 10
89.863197604951438
 20
156.39927988518869
 30
0.0
 11
89.863197604951438
 21
157.89927988518869
 31
0.0
  0
LINE
  5
199
  8
CENTER
  6
CENTER
 10
104.8631976049514
 20
156.14927988518869
 30
0.0
 11
104.8631976049514
 21
158.1992798851887
 31
0.0
  0
CIRCLE
  5
19A
  8
0
 10
89.863197604951438
 20
157.14927988518869
 30
0.0
 40
2.0499999999999989
  0
CIRCLE
  5
19B
  8
0
 10
89.863197604951438
 20
157.14927988518869
 30
0.0
 40
2.5
  0
LINE
  5
19C
  8
0
 10
77.363197604951438
 20
152.64927988518869
 30
0.0
 11
77.363197604951495
 21
167.64927988518869
 31
0.0
  0
LINE
  5
19D
  8
CENTER
  6
CENTER
 10
89.113197604951438
 20
157.14927988518869
 30
0.0
 11
90.613197604951424
 21
157.14927988518869
 31
0.0
  0
LINE
  5
19E
  8
CENTER
  6
CENTER
 10
88.363197604951424
 20
157.14927988518869
 30
0.0
 11
86.613197604951438
 21
157.14927988518869
 31
0.0
  0
LINE
  5
19F
  8
CENTER
  6
CENTER
 10
89.863197604951438
 20
155.64927988518869
 30
0.0
 11
89.863197604951438
 21
153.89927988518869
 31
0.0
  0
LINE
  5
1A0
  8
CENTER
  6
CENTER
 10
91.363197604951438
 20
157.14927988518869
 30
0.0
 11
93.113197604951424
 21
157.14927988518869
 31
0.0
  0
LINE
  5
1A1
  8
CENTER
  6
CENTER
 10
104.8631976049514
 20
153.14927988518869
 30
0.0
 11
104.8631976049514
 21
151.09927988518871
 31
0.0
  0
LINE
  5
1A2
  8
CENTER
  6
CENTER
 10
103.3631976049514
 20
154.64927988518869
 30
0.0
 11
101.3131976049514
 21
154.64927988518869
 31
0.0
  0
LINE
  5
1A3
  8
CENTER
  6
CENTER
 10
104.8631976049514
 20
153.89927988518869
 30
0.0
 11
104.8631976049514
 21
155.39927988518869
 31
0.0
  0
LINE
  5
1A4
  8
0
 10
102.0631976049514
 20
152.64927988518869
 30
0.0
 11
102.0631976049514
 21
154.64927988518869
 31
0.0
  0
LINE
  5
1A5
  8
CENTER
  6
CENTER
 10
85.863197604951424
 20
167.14927988518869
 30
0.0
 11
85.863197604951424
 21
169.1992798851887
 31
0.0
  0
LINE
  5
1A6
  8
CENTER
  6
CENTER
 10
85.863197604951424
 20
164.14927988518869
 30
0.0
 11
85.863197604951424
 21
162.09927988518871
 31
0.0
  0
ARC
  5
1A7
  8
0
 10
85.863197604951424
 20
165.64927988518869
 30
0.0
 40
2.7999999999999989
 50
180.0
 51
0.0
  0
LINE
  5
1A8
  8
CENTER
  6
CENTER
 10
85.113197604951438
 20
165.64927988518869
 30
0.0
 11
86.613197604951438
 21
165.64927988518869
 31
0.0
  0
CIRCLE
  5
1A9
  8
0
 10
85.863197604951424
 20
165.64927988518869
 30
0.0
 40
1.3
  0
LINE
  5
1AA
  8
CENTER
  6
CENTER
 10
84.363197604951424
 20
165.64927988518869
 30
0.0
 11
82.313197604951426
 21
165.64927988518869
 31
0.0
  0
LINE
  5
1AB
  8
0
 10
83.063197604951426
 20
165.64927988518869
 30
0.0
 11
83.063197604951426
 21
167.64927988518869
 31
0.0
  0
LINE
  5
1AC
  8
CENTER
  6
CENTER
 10
87.363197604951438
 20
165.64927988518869
 30
0.0
 11
89.413197604951449
 21
165.64927988518869
 31
0.0
  0
LINE
  5
1AD
  8
CENTER
  6
CENTER
 10
85.863197604951424
 20
164.89927988518869
 30
0.0
 11
85.863197604951424
 21
166.39927988518869
 31
0.0
  0
LINE
  5
1AE
  8
0
 10
88.663197604951435
 20
165.64927988518869
 30
0.0
 11
88.663197604951435
 21
167.64927988518869
 31
0.0
  0
DIMENSION
  5
1AF
  8
DIM
  2
*D23
 10
100.8631976049514
 20
171.02213523572769
 30
0.0
 11
95.363197604951438
 21
173.52213523572769
 31
0.0
 70
     0
 13
89.863197604951438
 23
160.39927988518869
 33
0.0
 14
100.8631976049514
 24
166.39927988518869
 34
0.0
1001
ACAD
1000
DSTYLE
1002
{
1070
   177
1070
   256
1070
   176
1070
   256
1002
}
  0
LINE
  5
1BC
  8
CENTER
  6
CENTER
 10
89.863197604951438
 20
158.64927988518869
 30
0.0
 11
89.863197604951438
 21
160.39927988518869
 31
0.0
  0
LINE
  5
1BD
  8
CENTER
  6
CENTER
 10
100.8631976049514
 20
162.39927988518869
 30
0.0
 11
100.8631976049514
 21
163.89927988518869
 31
0.0
  0
CIRCLE
  5
1BE
  8
0
 10
100.8631976049514
 20
163.14927988518869
 30
0.0
 40
2.0499999999999989
  0
CIRCLE
  5
1BF
  8
0
 10
100.8631976049514
 20
163.14927988518869
 30
0.0
 40
2.5
  0
LINE
  5
1C0
  8
CENTER
  6
CENTER
 10
100.1131976049514
 20
163.14927988518869
 30
0.0
 11
101.6131976049514
 21
163.14927988518869
 31
0.0
  0
LINE
  5
1C1
  8
CENTER
  6
CENTER
 10
100.8631976049514
 20
161.64927988518869
 30
0.0
 11
100.8631976049514
 21
159.89927988518869
 31
0.0
  0
LINE
  5
1C2
  8
CENTER
  6
CENTER
 10
99.363197604951452
 20
163.14927988518869
 30
0.0
 11
97.613197604951438
 21
163.14927988518869
 31
0.0
  0
LINE
  5
1C3
  8
CENTER
  6
CENTER
 10
102.3631976049514
 20
163.14927988518869
 30
0.0
 11
104.1131976049514
 21
163.14927988518869
 31
0.0
  0
LINE
  5
1C4
  8
CENTER
  6
CENTER
 10
100.8631976049514
 20
164.64927988518869
 30
0.0
 11
100.8631976049514
 21
166.39927988518869
 31
0.0
  0
ARC
  5
1C5
  8
0
 10
127.8631976049514
 20
158.14927988518869
 30
0.0
 40
0.5
 50
270.0
 51
0.0000000000000509
  0
LINE
  5
1C6
  8
0
 10
113.3631976049514
 20
152.64927988518869
 30
0.0
 11
113.36319760495149
 21
167.64927988518869
 31
0.0
  0
LINE
  5
1C7
  8
0
 10
128.36319760495141
 20
167.64927988518869
 30
0.0
 11
128.36319760495141
 21
152.64927988518869
 31
0.0
  0
SOLID
  5
1C8
  8
DIM
  6
CONTINUOUS
 10
-106.1406531965572
 20
151.07980838306651
 30
0.0
 11
-105.54735685587571
 21
153.54387221406699
 31
0.0
 12
-106.9077389611692
 22
151.40542145739559
 32
0.0
 13
-106.9077389611692
 23
151.40542145739559
 33
0.0
210
0.0
220
0.0
230
-1.0
  0
POLYLINE
  5
261
  8
DIM
  6
CONTINUOUS
 66
     1
 10
0.0
 20
0.0
 30
0.0
 70
     8
1001
ACAD
1000
R13OBJECT
1002
{
1005
1C8
1002
}
  0
VERTEX
  5
262
  8
DIM
  6
CONTINUOUS
 10
106.5241960788632
 20
151.24261492023101
 30
0.0
 70
    32
1001
ACAD
1000
R13OBJECT
1002
{
1005
1C8
1002
}
  0
VERTEX
  5
263
  8
DIM
  6
CONTINUOUS
 10
109.52240328414599
 20
144.17937868112139
 30
0.0
 70
    32
1001
ACAD
1000
R13OBJECT
1002
{
1005
1C8
1002
}
  0
SEQEND
  5
264
  8
DIM
  6
CONTINUOUS
  0
POLYLINE
  5
265
  8
DIM
  6
CONTINUOUS
 66
     1
 10
0.0
 20
0.0
 30
0.0
 70
     8
1001
ACAD
1000
R13OBJECT
1002
{
1005
1C8
1002
}
  0
VERTEX
  5
266
  8
DIM
  6
CONTINUOUS
 10
109.52240328414599
 20
144.17937868112139
 30
0.0
 70
    32
1001
ACAD
1000
R13OBJECT
1002
{
1005
1C8
1002
}
  0
VERTEX
  5
267
  8
DIM
  6
CONTINUOUS
 10
128.45097471271751
 20
144.17937868112139
 30
0.0
 70
    32
1001
ACAD
1000
R13OBJECT
1002
{
1005
1C8
1002
}
  0
SEQEND
  5
268
  8
DIM
  6
CONTINUOUS
  0
TEXT
  5
1C9
  8
DIM
  6
CONTINUOUS
 10
111.475472916725
 20
145.2721212090743
 30
0.0
 40
3.0
  1
2-%%c2.6
  7
CHINESET
  0
LINE
  5
1CA
  8
CENTER
  6
CENTER
 10
106.3631976049514
 20
154.64927988518869
 30
0.0
 11
108.41319760495141
 21
154.64927988518869
 31
0.0
  0
LINE
  5
1CB
  8
0
 10
107.66319760495141
 20
152.64927988518869
 30
0.0
 11
107.66319760495141
 21
154.64927988518869
 31
0.0
  0
LINE
  5
1CC
  8
CENTER
  6
CENTER
 10
129.59328311057021
 20
155.14927988518869
 30
0.0
 11
123.9756523218517
 21
155.14927988518869
 31
0.0
  0
ARC
  5
1CD
  8
0
 10
124.8631976049514
 20
153.14927988518869
 30
0.0
 40
0.5
 50
269.99999999999989
 51
0.0000000000000509
  0
LINE
  5
1CE
  8
0
 10
125.3631976049514
 20
153.14927988518869
 30
0.0
 11
125.3631976049514
 21
157.14927988518869
 31
0.0
  0
ARC
  5
1CF
  8
0
 10
125.8631976049514
 20
157.14927988518869
 30
0.0
 40
0.5
 50
89.999999999999687
 51
180.0
  0
ARC
  5
1D0
  8
0
 10
126.29994730471159
 20
154.39927988518869
 30
0.0
 40
1.5
 50
269.99999999999937
 51
321.31781254652401
  0
LINE
  5
1D1
  8
0
 10
127.0631976049514
 20
154.74927988518871
 30
0.0
 11
127.0631976049514
 21
155.5492798851887
 31
0.0
  0
LINE
  5
1D2
  8
0
 10
128.0334035895151
 20
154.74927988518871
 30
0.0
 11
127.0631976049514
 21
154.74927988518871
 31
0.0
  0
LINE
  5
1D3
  8
0
 10
128.0334035895151
 20
155.5492798851887
 30
0.0
 11
127.0631976049514
 21
155.5492798851887
 31
0.0
  0
ARC
  5
1D4
  8
0
 10
125.3631976049514
 20
155.14927988518869
 30
0.0
 40
2.7000000000000002
 50
8.5196242541431815
 51
38.682187453475912
  0
ARC
  5
1D5
  8
0
 10
125.3631976049514
 20
155.14927988518869
 30
0.0
 40
2.7000000000000002
 50
321.31781254652401
 51
351.48037574585669
  0
LINE
  5
1D6
  8
0
 10
126.3631976049514
 20
152.89927988518869
 30
0.0
 11
126.3631976049514
 21
157.39927988518869
 31
0.0
  0
ARC
  5
1D7
  8
0
 10
126.29994730471159
 20
155.89927988518869
 30
0.0
 40
1.5
 50
38.682187453475912
 51
90.0
  0
LINE
  5
1D8
  8
0
 10
127.8631976049514
 20
157.64927988518869
 30
0.0
 11
125.8631976049514
 21
157.64927988518869
 31
0.0
  0
LINE
  5
1D9
  8
0
 10
126.29994730471159
 20
157.39927988518869
 30
0.0
 11
125.4301849030592
 21
157.39927988518869
 31
0.0
  0
LINE
  5
1DA
  8
0
 10
126.29994730471159
 20
152.89927988518869
 30
0.0
 11
125.29621030684361
 21
152.89927988518869
 31
0.0
  0
POLYLINE
  5
2E3
  8
0
 62
     4
 66
     1
 10
0.0
 20
0.0
 30
0.0
 70
     1
  0
VERTEX
  5
42C
  8
0
 62
     4
 10
30.31137276489471
 20
203.53445826895671
 30
0.0
  0
VERTEX
  5
42D
  8
0
 62
     4
 10
162.48702621232539
 20
203.53445826895671
 30
0.0
  0
VERTEX
  5
42E
  8
0
 62
     4
 10
162.48702621232539
 20
31.862302258602188
 30
0.0
  0
VERTEX
  5
42F
  8
0
 62
     4
 10
30.31137276489471
 20
31.862302258602188
 30
0.0
  0
SEQEND
  5
430
  8
0
 62
     4
  0
TEXT
  5
3B1
  8
LOGO
 62
     6
 10
62.713974129609078
 20
21.275417395094401
 30
0.0
 40
1.924888157001418
  1
m/m
  7
CHINESET
 72
     1
 11
66.105443739563967
 21
22.23786147359511
 31
0.0
 73
     2
  0
TEXT
  5
3B2
  8
LOGO
 62
     6
 10
62.713974129609078
 20
28.97497002310007
 30
0.0
 40
1.924888157001418
  1
1 : 1
  7
CHINESET
 72
     1
 11
66.105443739563967
 21
29.93741410160078
 31
0.0
 73
     2
  0
TEXT
  5
3B3
  8
LOGO
 62
     6
 10
46.875436374257959
 20
21.275417395094401
 30
0.0
 40
1.924888157001418
  1
單位 Unit:
 41
0.9
  7
CHINESET
 72
     4
 11
52.126771877577447
 21
22.23786147359511
 31
0.0
  0
TEXT
  5
3B4
  8
LOGO
 62
     6
 10
46.014392654027858
 20
28.975917310578911
 30
0.0
 40
1.924888157001418
  1
比例 Scale:
 41
0.9
  7
CHINESET
 72
     4
 11
52.126771877577447
 21
29.93741410160078
 31
0.0
  0
LINE
  5
3B5
  8
LOGO
 62
     1
 10
162.48702621232539
 20
12.613420688588009
 30
0.0
 11
162.48702621232539
 21
31.862302258602188
 31
0.0
  0
LINE
  5
3B6
  8
LOGO
 62
     1
 10
59.826324505583131
 20
20.312973316593691
 30
0.0
 11
59.826324505583131
 21
31.862302258602188
 31
0.0
  0
LINE
  5
3B7
  8
LOGO
 62
     1
 10
72.658912218925892
 20
28.012525944599361
 30
0.0
 11
44.427219249571777
 21
28.012525944599361
 31
0.0
  0
LINE
  5
3B8
  8
LOGO
 62
     1
 10
72.658912218925892
 20
24.162749630596519
 30
0.0
 11
44.427219249571777
 21
24.162749630596519
 31
0.0
  0
LINE
  5
3B9
  8
LOGO
 62
     1
 10
30.31137276489471
 20
12.613420688588009
 30
0.0
 11
30.31137276489471
 21
31.862302258602188
 31
0.0
  0
LINE
  5
3BA
  8
LOGO
 62
     1
 10
72.658912218925892
 20
20.312973316593709
 30
0.0
 11
30.311372764894688
 21
20.312973316593709
 31
0.0
  0
TEXT
  5
3BB
  8
LOGO
 62
     6
 10
46.687244183908263
 20
25.152270342867389
 30
0.0
 40
1.924888157001418
  1
投影 View:
 41
0.9
  7
CHINESET
 72
     4
 11
52.126771877577447
 21
26.087637787597941
 31
0.0
  0
CIRCLE
  5
3BC
  8
LOGO
  6
CONTINUOUS
 62
     6
 10
63.390495689476069
 20
26.091755137451742
 30
0.0
 40
1.1176353707149691
  0
CIRCLE
  5
3BD
  8
LOGO
  6
CONTINUOUS
 62
     6
 10
63.390495689476069
 20
26.091755137451742
 30
0.0
 40
0.6548353885774189
  0
LINE
  5
3BE
  8
LOGO
  6
CONTINUOUS
 62
     6
 10
66.910123312113257
 20
26.746590526029159
 30
0.0
 11
70.413846043973365
 21
27.20939050816671
 31
0.0
  0
LINE
  5
3BF
  8
LOGO
  6
CONTINUOUS
 62
     6
 10
66.910123312113257
 20
25.436919748874331
 30
0.0
 11
70.413846043973365
 21
24.97411976673677
 31
0.0
  0
LINE
  5
3C0
  8
LOGO
 62
     6
 10
66.910123312113299
 20
25.43691974887432
 30
0.0
 11
66.910123312113257
 21
26.74659052602917
 31
0.0
  0
LINE
  5
3C1
  8
LOGO
 62
     6
 10
70.413846043973365
 20
24.97411976673677
 30
0.0
 11
70.413846043973365
 21
27.20939050816671
 31
0.0
  0
LINE
  5
3C2
  8
LOGO
 62
     6
 10
161.68724899829499
 20
21.275417395094468
 30
0.0
 11
142.29916576028879
 21
21.275417395094468
 31
0.0
  0
LINE
  5
3C3
  8
LOGO
 62
     6
 10
149.85466128495219
 20
24.16274963059659
 30
0.0
 11
142.29916576028879
 21
24.162749630596601
 31
0.0
  0
LINE
  5
3C4
  8
LOGO
 62
     6
 10
161.68724899829499
 20
14.21749415275594
 30
0.0
 11
142.29916576028879
 21
14.21749415275592
 31
0.0
  0
LINE
  5
3C5
  8
LOGO
 62
     6
 10
161.68724899829499
 20
21.275417395094468
 30
0.0
 11
161.68724899829499
 21
14.19088110217845
 31
0.0
  0
TEXT
  5
3C6
  8
LOGO
 62
     6
 10
104.2679295950845
 20
17.81213437245799
 30
0.0
 40
2.5665175426685569
  1
型式
  7
CHINESET
 72
     4
 11
106.834447137753
 21
19.029714545259409
 31
0.0
  0
TEXT
  5
3C7
  8
LOGO
 62
     7
 10
73.774072796342523
 20
23.429694790487861
 30
0.0
 40
2.5665175426685569
  1
Order example:
 41
0.8
  7
CHINESET
  0
LINE
  5
3C8
  8
LOGO
 62
     6
 10
142.29916576028879
 20
21.275417395094468
 30
0.0
 11
142.29916576028879
 21
14.21749415275592
 31
0.0
  0
LINE
  5
3C9
  8
LOGO
 62
     6
 10
129.37902684152451
 20
21.275417395094401
 30
0.0
 11
129.37902684152451
 21
14.217494152755879
 31
0.0
  0
LINE
  5
3CA
  8
LOGO
 62
     6
 10
115.22763151137271
 20
21.275417395094401
 30
0.0
 11
115.22763151137271
 21
14.21749415275586
 31
0.0
  0
LINE
  5
3CB
  8
LOGO
 62
     6
 10
129.37902684152451
 20
14.21749415275586
 30
0.0
 11
115.22763151137271
 21
14.21749415275584
 31
0.0
  0
LINE
  5
3CC
  8
LOGO
 62
     6
 10
146.07691352262049
 20
24.162749630596601
 30
0.0
 11
146.07691352262049
 21
22.719083512845529
 31
0.0
  0
TEXT
  5
3CD
  8
LOGO
 62
     6
 10
145.1598544219369
 20
17.823080805546851
 30
0.0
 40
2.5665175426685569
  1
複動氣壓導引
 41
0.9
  7
CHINESET
 72
     4
 11
151.9932073792919
 21
19.029714545259459
 31
0.0
  0
LINE
  5
3CE
  8
LOGO
 62
     6
 10
129.37902684152451
 20
21.275417395094401
 30
0.0
 11
115.22763151137271
 21
21.275417395094401
 31
0.0
  0
LINE
  5
3CF
  8
LOGO
 62
     6
 10
133.22880315552729
 20
24.162749630596519
 30
0.0
 11
119.0774078253755
 21
24.162749630596519
 31
0.0
  0
LINE
  5
3D0
  8
LOGO
 62
     6
 10
126.1531054904514
 20
24.162749630596519
 30
0.0
 11
126.1531054904514
 21
22.719083512845462
 31
0.0
  0
TEXT
  5
3D1
  8
LOGO
 62
     6
 10
117.1702940911115
 20
17.791609810416471
 30
0.0
 40
2.5665175426685569
  1
本體寬幅
  7
CHINESET
 72
     4
 11
122.3033291764486
 21
19.029714545259409
 31
0.0
  0
LINE
  5
3D2
  8
LOGO
 62
     6
 10
106.834447137753
 20
24.162749630596519
 30
0.0
 11
106.834447137753
 21
21.275417395094401
 31
0.0
  0
LINE
  5
3D3
  8
LOGO
 62
     6
 10
100.4181532810816
 20
21.275417395094401
 30
0.0
 11
100.4181532810816
 21
14.21749415275584
 31
0.0
  0
TEXT
  5
3D4
  8
LOGO
 62
     7
 10
74.234527267733796
 20
27.042820086327289
 30
0.0
 40
3.849776314002836
  1
訂購代號:
  7
CHINESET
  0
LINE
  5
3D5
  8
LOGO
 62
     6
 10
149.8546612849523
 20
29.937414101600851
 30
0.0
 11
142.29916576028879
 21
29.937414101600851
 31
0.0
  0
LINE
  5
3D6
  8
LOGO
 62
     6
 10
133.22880315552729
 20
29.937414101600812
 30
0.0
 11
119.0774078253755
 21
29.93741410160078
 31
0.0
  0
LINE
  5
3D7
  8
LOGO
 62
     6
 10
99.134894509747426
 20
29.93741410160078
 30
0.0
 11
99.134894509747426
 21
24.162749630596519
 31
0.0
  0
LINE
  5
3D8
  8
LOGO
 62
     6
 10
119.0774078253755
 20
29.93741410160078
 30
0.0
 11
119.0774078253755
 21
24.162749630596519
 31
0.0
  0
LINE
  5
3D9
  8
LOGO
 62
     6
 10
133.22880315552729
 20
29.937414101600812
 30
0.0
 11
133.22880315552729
 21
24.162749630596519
 31
0.0
  0
LINE
  5
3DA
  8
LOGO
 62
     6
 10
149.8546612849523
 20
29.937414101600851
 30
0.0
 11
149.85466128495219
 21
24.16274963059659
 31
0.0
  0
TEXT
  5
3DB
  8
LOGO
  6
CONTINUOUS
 62
     6
 10
142.9492884194122
 20
15.28687646220115
 30
0.0
 40
1.604073464167848
  1
Double air operate
 41
0.8
  7
CHINESET
 72
     4
 11
151.9932073792919
 21
15.821567616923771
 31
0.0
  0
TEXT
  5
3DC
  8
LOGO
  6
CONTINUOUS
 62
     6
 10
115.8870353197772
 20
15.286876462201089
 30
0.0
 40
1.604073464167848
  1
Body width
  7
CHINESET
 72
     4
 11
122.3033291764486
 21
15.82156761692371
 31
0.0
  0
TEXT
  5
3DD
  8
LOGO
  6
CONTINUOUS
 62
     6
 10
103.7790691107666
 20
15.01953088483979
 30
0.0
 40
1.604073464167848
  1
Model
  7
CHINESET
 72
     4
 11
106.834447137753
 21
15.82156761692371
 31
0.0
  0
TEXT
  5
3DE
  8
LOGO
  6
CONTINUOUS
 62
     7
 10
143.62650042761339
 20
25.409627813609301
 30
0.0
 40
3.208146928335696
  1
A2
  7
CHINESET
 72
     1
 11
146.3763406519011
 21
27.013701277777141
 31
0.0
 73
     2
  0
TEXT
  5
3DF
  8
LOGO
  6
CONTINUOUS
 62
     7
 10
122.3338829567184
 20
25.40962781360923
 30
0.0
 40
3.208146928335696
  1
150
  7
CHINESET
 72
     1
 11
126.1531054904514
 21
27.01370127777707
 31
0.0
 73
     2
  0
TEXT
  5
3E0
  8
LOGO
  6
CONTINUOUS
 62
     7
 10
100.57092218243091
 20
25.446008401930801
 30
0.0
 40
3.208146928335696
  1
MVAA
  7
CHINESET
 72
     1
 11
106.834447137753
 21
27.050081866098651
 31
0.0
 73
     2
  0
LINE
  5
3E1
  8
LOGO
 62
     1
 10
72.658912218925892
 20
12.613420688588009
 30
0.0
 11
72.658912218925892
 21
31.862302258602188
 31
0.0
  0
LINE
  5
3E2
  8
LOGO
 62
     1
 10
162.48702621232539
 20
31.862302258602188
 30
0.0
 11
30.31137276489471
 21
31.862302258602188
 31
0.0
  0
LINE
  5
3E3
  8
LOGO
 62
     1
 10
162.48702621232539
 20
12.613420688588009
 30
0.0
 11
30.31137276489471
 21
12.613420688588009
 31
0.0
  0
LINE
  5
3E4
  8
LOGO
 62
     6
 10
114.53399976575869
 20
29.93741410160078
 30
0.0
 11
114.53399976575869
 21
24.162749630596519
 31
0.0
  0
LINE
  5
3E5
  8
LOGO
 62
     6
 10
113.2507409944244
 20
21.275417395094401
 30
0.0
 11
113.2507409944244
 21
14.21749415275586
 31
0.0
  0
LINE
  5
3E6
  8
LOGO
 62
     6
 10
114.53399976575869
 20
29.93741410160078
 30
0.0
 11
99.134894509747426
 21
29.93741410160078
 31
0.0
  0
LINE
  5
3E7
  8
LOGO
 62
     6
 10
114.53399976575869
 20
24.162749630596519
 30
0.0
 11
99.134894509747426
 21
24.162749630596519
 31
0.0
  0
LINE
  5
3E8
  8
LOGO
 62
     6
 10
113.2507409944244
 20
21.275417395094401
 30
0.0
 11
100.4181532810816
 21
21.275417395094401
 31
0.0
  0
LINE
  5
3E9
  8
LOGO
 62
     6
 10
113.2507409944244
 20
14.21749415275586
 30
0.0
 11
100.4181532810816
 21
14.21749415275584
 31
0.0
  0
TEXT
  5
3EA
  8
LOGO
  6
CONTINUOUS
 62
     7
 10
138.56910703476299
 20
25.44600840193085
 30
0.0
 40
3.208146928335696
  1
4
  7
CHINESET
 72
     1
 11
139.71487379488289
 21
27.050081866098701
 31
0.0
 73
     2
  0
LINE
  5
3EB
  8
LOGO
 62
     6
 10
141.65753637462171
 20
29.937414101600851
 30
0.0
 11
137.7722112151441
 21
29.937414101600812
 31
0.0
  0
LINE
  5
3EC
  8
LOGO
 62
     6
 10
141.65753637462171
 20
21.275417395094429
 30
0.0
 11
131.35591735847271
 21
21.275417395094429
 31
0.0
  0
LINE
  5
3ED
  8
LOGO
 62
     6
 10
141.65753637462171
 20
24.162749630596561
 30
0.0
 11
137.7722112151441
 21
24.162749630596561
 31
0.0
  0
TEXT
  5
3EE
  8
LOGO
 62
     6
 10
132.17229121301369
 20
17.755297123727651
 30
0.0
 40
2.5665175426685569
  1
4 方向
 41
0.9
  7
CHINESET
 72
     4
 11
136.50672686654721
 21
19.029714545259431
 31
0.0
  0
LINE
  5
3EF
  8
LOGO
 62
     6
 10
141.65753637462171
 20
14.217494152755901
 30
0.0
 11
131.35591735847271
 21
14.217494152755879
 31
0.0
  0
TEXT
  5
3F0
  8
LOGO
  6
CONTINUOUS
 62
     6
 10
133.60411774091011
 20
15.286876462201111
 30
0.0
 40
1.604073464167848
  1
4 Way
 41
0.8
  7
CHINESET
 72
     4
 11
136.50672686654721
 21
15.82156761692373
 31
0.0
  0
LINE
  5
3F1
  8
LOGO
 62
     6
 10
137.7722112151441
 20
29.937414101600812
 30
0.0
 11
137.7722112151441
 21
24.162749630596561
 31
0.0
  0
LINE
  5
3F2
  8
LOGO
 62
     6
 10
131.35591735847271
 20
21.275417395094429
 30
0.0
 11
131.35591735847271
 21
14.217494152755901
 31
0.0
  0
LINE
  5
3F3
  8
LOGO
 62
     6
 10
141.65753637462171
 20
29.937414101600851
 30
0.0
 11
141.65753637462171
 21
24.162749630596561
 31
0.0
  0
LINE
  5
3F4
  8
LOGO
 62
     6
 10
141.65753637462171
 20
21.275417395094429
 30
0.0
 11
141.65753637462171
 21
14.21749415275592
 31
0.0
  0
LINE
  5
3F5
  8
LOGO
 62
     6
 10
139.71487364693311
 20
24.162749630596561
 30
0.0
 11
139.71487364693311
 21
22.719083512845501
 31
0.0
  0
LINE
  5
3F6
  8
LOGO
  6
CONTINUOUS
 62
     7
 10
115.52888766960039
 20
27.029627091929651
 30
0.0
 11
118.0787687918521
 21
27.029627091929651
 31
0.0
  0
LINE
  5
3F7
  8
LOGO
  6
CONTINUOUS
 62
     7
 10
134.22369105936889
 20
27.02962709192969
 30
0.0
 11
136.77357218162069
 21
27.02962709192969
 31
0.0
  0
LINE
  5
3F8
  8
LOGO
 62
     1
 10
44.427219249571777
 20
20.312973316593691
 30
0.0
 11
44.427219249571777
 21
31.862302258602188
 31
0.0
  0
POLYLINE
  5
3F9
  8
LOGO
 62
     5
 66
     1
 10
0.0
 20
0.0
 30
0.0
 70
     1
  0
VERTEX
  5
431
  8
LOGO
 62
     5
 10
40.296383833806203
 20
21.360400555090418
 30
0.0
 42
1.0000000573306349
  0
VERTEX
  5
432
  8
LOGO
 62
     5
 10
41.157353968312037
 20
21.360400555090418
 30
0.0
 42
1.0000000573306349
  0
SEQEND
  5
433
  8
LOGO
 62
     5
  0
CIRCLE
  5
3FA
  8
LOGO
 62
     5
 10
40.726868901059092
 20
21.360400555090418
 30
0.0
 40
0.4304850672528485
  0
SOLID
  5
3FB
  8
LOGO
 62
     5
 10
32.308475119889088
 20
23.512825891354609
 30
0.0
 11
33.140746249911231
 21
23.512825891354339
 31
0.0
 12
36.61332579241779
 22
31.40505212432366
 32
0.0
 13
37.445596922439861
 23
31.40505212432311
 33
0.0
  0
SOLID
  5
3FC
  8
LOGO
 62
     5
 10
33.48513430371402
 20
23.512825891354609
 30
0.0
 11
34.317405433736077
 21
23.512825891354609
 31
0.0
 12
37.445596922439861
 22
30.77367402568585
 32
0.0
 13
36.61332579241779
 23
27.722013215604392
 33
0.0
  0
SOLID
  5
3FD
  8
LOGO
 62
     5
 10
36.61332579241779
 20
23.512825891354609
 30
0.0
 11
37.445596922439861
 21
23.512825891354609
 31
0.0
 12
36.61332579241779
 22
27.722013215604392
 32
0.0
 13
37.445596922439861
 23
30.77367402568585
 33
0.0
  0
SOLID
  5
3FE
  8
LOGO
 62
     5
 10
37.789984976242387
 20
31.40505212432311
 30
0.0
 11
38.622256106264409
 21
31.40505212432366
 31
0.0
 12
37.789984976242387
 22
24.14420398999188
 32
0.0
 13
38.622256106264409
 23
27.195864800073341
 33
0.0
  0
SOLID
  5
3FF
  8
LOGO
 62
     5
 10
37.789984976242387
 20
24.14420398999188
 30
0.0
 11
38.622256106264409
 21
27.195864800073341
 31
0.0
 12
41.750447594968229
 22
31.40505212432366
 32
0.0
 13
40.9181764649461
 23
31.40505212432366
 33
0.0
  0
SOLID
  5
400
  8
LOGO
 62
     5
 10
37.789984976242387
 20
23.512825891354609
 30
0.0
 11
38.622256106264409
 21
23.512825891354609
 31
0.0
 12
41.750447594968229
 22
30.77367402568585
 32
0.0
 13
40.9181764649461
 23
27.722013215604392
 33
0.0
  0
SOLID
  5
401
  8
LOGO
 62
     5
 10
41.750447594968229
 20
30.77367402568585
 30
0.0
 11
40.9181764649461
 21
27.722013215604392
 31
0.0
 12
41.750447594968229
 22
23.512825891354339
 32
0.0
 13
40.9181764649461
 23
23.512825891354339
 33
0.0
  0
SOLID
  5
402
  8
LOGO
 62
     5
 10
42.094835648770768
 20
23.512825891354339
 30
0.0
 11
42.927106778792833
 21
23.512825891354339
 31
0.0
 12
42.094835648770768
 22
31.40505212432311
 32
0.0
 13
42.927106778792833
 23
31.40505212432366
 33
0.0
  0
SOLID
  5
403
  8
LOGO
 62
     5
 10
30.97414040058197
 20
20.642925443002451
 30
0.0
 11
31.2611304454175
 21
20.642925443002451
 31
0.0
 12
32.069316749193263
 22
22.0778756671784
 32
0.0
 13
32.356306794028292
 23
22.0778756671784
 33
0.0
  0
SOLID
  5
404
  8
LOGO
 62
     5
 10
32.069316749193263
 20
22.0778756671784
 30
0.0
 11
32.356306794028292
 21
22.0778756671784
 31
0.0
 12
32.069316749193263
 22
20.642925443002451
 32
0.0
 13
32.356306794028292
 23
20.642925443002451
 33
0.0
  0
SOLID
  5
405
  8
LOGO
 62
     5
 10
32.069316749193263
 20
20.642925443002451
 30
0.0
 11
32.356306794028292
 21
20.642925443002451
 31
0.0
 12
33.164493097804922
 22
22.0778756671784
 32
0.0
 13
33.451483142639873
 23
22.0778756671784
 33
0.0
  0
SOLID
  5
406
  8
LOGO
 62
     5
 10
33.164493097804922
 20
22.0778756671784
 30
0.0
 11
33.451483142639873
 21
22.0778756671784
 31
0.0
 12
33.164493097804922
 22
20.642925443002451
 32
0.0
 13
33.451483142639873
 23
20.642925443002451
 33
0.0
  0
SOLID
  5
407
  8
LOGO
 62
     5
 10
33.791209186530452
 20
22.278768698562931
 30
0.0
 11
34.078199231366241
 21
22.278768698562931
 31
0.0
 12
33.791209186530452
 22
22.508360734431399
 32
0.0
 13
34.078199231366241
 23
22.508360734431399
 33
0.0
  0
SOLID
  5
408
  8
LOGO
 62
     5
 10
33.791209186530452
 20
22.0778756671784
 30
0.0
 11
34.078199231366241
 21
22.0778756671784
 31
0.0
 12
33.791209186530452
 22
20.642925443001911
 32
0.0
 13
34.078199231366241
 23
20.642925443002451
 33
0.0
  0
POLYLINE
  5
409
  8
LOGO
 62
     5
 66
     1
 10
0.0
 20
0.0
 30
0.0
 40
0.2874499647788784
 41
0.2874499647788784
  0
VERTEX
  5
434
  8
LOGO
 62
     5
 10
35.418185553513801
 20
21.503895577507912
 30
0.0
 42
1.0
  0
VERTEX
  5
435
  8
LOGO
 62
     5
 10
34.555835659177127
 20
21.503895577507912
 30
0.0
 42
1.0
  0
SEQEND
  5
436
  8
LOGO
 62
     5
  0
SOLID
  5
40A
  8
LOGO
 62
     5
 10
34.413030516675228
 20
22.0778756671784
 30
0.0
 11
34.700020561510179
 21
22.0778756671784
 31
0.0
 12
34.413030516675228
 22
20.642925443002451
 32
0.0
 13
34.700020561510179
 23
20.642925443002451
 33
0.0
  0
SOLID
  5
40B
  8
LOGO
 62
     5
 10
35.274000651180629
 20
21.503895577507912
 30
0.0
 11
35.560990696016127
 21
21.503895577507912
 31
0.0
 12
35.274000651180629
 22
20.642925443002451
 32
0.0
 13
35.560990696016127
 23
20.642925443002451
 33
0.0
  0
POLYLINE
  5
40C
  8
LOGO
 62
     5
 66
     1
 10
0.0
 20
0.0
 30
0.0
 70
     1
 40
0.2874499647788784
 41
0.2874499647788784
  0
VERTEX
  5
437
  8
LOGO
 62
     5
 10
36.038425862859839
 20
21.36040055509029
 30
0.0
 42
1.0
  0
VERTEX
  5
438
  8
LOGO
 62
     5
 10
37.188225721975378
 20
21.36040055509029
 30
0.0
 42
1.0
  0
SEQEND
  5
439
  8
LOGO
 62
     5
  0
SOLID
  5
40D
  8
LOGO
 62
     5
 10
37.043782160666353
 20
22.508360734431399
 30
0.0
 11
37.330772205501297
 21
22.508360734431399
 31
0.0
 12
37.043782160666353
 22
20.642925443002451
 32
0.0
 13
37.330772205501297
 23
20.642925443002451
 33
0.0
  0
SOLID
  5
40E
  8
LOGO
 62
     5
 10
37.665603490811073
 20
22.0778756671784
 30
0.0
 11
37.952593535646059
 21
22.0778756671784
 31
0.0
 12
37.665603490811073
 22
20.642925443002451
 32
0.0
 13
37.952593535646059
 23
20.642925443002451
 33
0.0
  0
POLYLINE
  5
40F
  8
LOGO
 62
     5
 66
     1
 10
0.0
 20
0.0
 30
0.0
 40
0.2874499647788784
 41
0.2874499647788784
  0
VERTEX
  5
43A
  8
LOGO
 62
     5
 10
38.670758527649632
 20
21.503895577507912
 30
0.0
 42
1.0
  0
VERTEX
  5
43B
  8
LOGO
 62
     5
 10
37.808408633312958
 20
21.503895577507912
 30
0.0
 42
1.0
  0
SEQEND
  5
43C
  8
LOGO
 62
     5
  0
POLYLINE
  5
410
  8
LOGO
 62
     5
 66
     1
 10
0.0
 20
0.0
 30
0.0
 40
0.2874499647788784
 41
0.2874499647788784
  0
VERTEX
  5
43D
  8
LOGO
 62
     5
 10
39.531728662155103
 20
21.503895577507912
 30
0.0
 42
1.0
  0
VERTEX
  5
43E
  8
LOGO
 62
     5
 10
38.669378767818429
 20
21.503895577507912
 30
0.0
 42
1.0
  0
SEQEND
  5
43F
  8
LOGO
 62
     5
  0
SOLID
  5
411
  8
LOGO
 62
     5
 10
38.526573625316537
 20
21.503895577507912
 30
0.0
 11
38.813563670151517
 21
21.503895577507912
 31
0.0
 12
38.526573625316537
 22
20.642925443002451
 32
0.0
 13
38.813563670151517
 23
20.642925443002451
 33
0.0
  0
SOLID
  5
412
  8
LOGO
 62
     5
 10
39.387543759822051
 20
21.503895577507912
 30
0.0
 11
39.674533804657003
 21
21.503895577507912
 31
0.0
 12
39.387543759822051
 22
20.642925443001911
 32
0.0
 13
39.674533804657003
 23
20.642925443001911
 33
0.0
  0
POLYLINE
  5
413
  8
LOGO
 62
     5
 66
     1
 10
0.0
 20
0.0
 30
0.0
 70
     1
 40
0.2874499647788784
 41
0.2874499647788784
  0
VERTEX
  5
440
  8
LOGO
 62
     5
 10
40.151968971501191
 20
21.36040055509029
 30
0.0
 42
1.0
  0
VERTEX
  5
441
  8
LOGO
 62
     5
 10
41.30176883061668
 20
21.36040055509029
 30
0.0
 42
1.0
  0
SEQEND
  5
442
  8
LOGO
 62
     5
  0
LINE
  5
414
  8
LOGO
 62
     5
 10
42.927106778792833
 20
20.642925443002451
 30
0.0
 11
42.927106778792833
 21
21.503895577507912
 31
0.0
  0
POLYLINE
  5
415
  8
LOGO
 62
     5
 66
     1
 10
0.0
 20
0.0
 30
0.0
 40
0.2874499647788784
 41
0.2874499647788784
  0
VERTEX
  5
443
  8
LOGO
 62
     5
 10
42.784301636290969
 20
21.503895577507912
 30
0.0
 42
1.0
  0
VERTEX
  5
444
  8
LOGO
 62
     5
 10
41.921951741954302
 20
21.503895577507912
 30
0.0
 42
1.0
  0
SEQEND
  5
445
  8
LOGO
 62
     5
  0
SOLID
  5
416
  8
LOGO
 62
     5
 10
41.15732526930794
 20
22.0778756671784
 30
0.0
 11
41.444315314142933
 21
22.0778756671784
 31
0.0
 12
41.15732526930794
 22
20.642925443002451
 32
0.0
 13
41.444315314142933
 23
20.642925443002451
 33
0.0
  0
SOLID
  5
417
  8
LOGO
 62
     5
 10
41.779146599451863
 20
20.642925443002451
 30
0.0
 11
42.066136644287347
 21
20.642925443002451
 31
0.0
 12
41.779146599451863
 22
22.0778756671784
 32
0.0
 13
42.066136644287347
 23
22.0778756671784
 33
0.0
  0
SOLID
  5
418
  8
LOGO
 62
     5
 10
42.640116733957882
 20
21.503895577507912
 30
0.0
 11
42.927106778792833
 21
21.503895577507858
 31
0.0
 12
42.640116733957882
 22
20.642925443002451
 32
0.0
 13
42.927106778792833
 23
20.642925443002451
 33
0.0
  0
SOLID
  5
419
  8
LOGO
 62
     2
 10
33.140746249911231
 20
23.512825891354339
 30
0.0
 11
33.48513430371402
 21
23.512825891354609
 31
0.0
 12
37.445596922439861
 22
31.40505212432311
 32
0.0
 13
37.789984976242387
 23
31.40505212432311
 33
0.0
  0
SOLID
  5
41A
  8
LOGO
 62
     2
 10
37.445596922439861
 20
31.40505212432311
 30
0.0
 11
37.789984976242387
 21
31.40505212432311
 31
0.0
 12
37.445596922439861
 22
23.512825891354609
 32
0.0
 13
37.789984976242387
 23
23.512825891354609
 33
0.0
  0
SOLID
  5
41B
  8
LOGO
 62
     2
 10
37.445596922439861
 20
23.512825891354609
 30
0.0
 11
37.789984976242387
 21
23.512825891354609
 31
0.0
 12
41.750447594968229
 22
31.40505212432366
 32
0.0
 13
42.094835648770768
 23
31.40505212432311
 33
0.0
  0
SOLID
  5
41C
  8
LOGO
 62
     2
 10
41.750447594968229
 20
31.40505212432366
 30
0.0
 11
42.094835648770768
 21
31.40505212432311
 31
0.0
 12
41.750447594968229
 22
23.512825891354339
 32
0.0
 13
42.094835648770768
 23
23.512825891354339
 33
0.0
  0
TEXT
  5
41D
  8
LOGO
  6
CONTINUOUS
 62
     5
 10
30.94142115869731
 20
16.39483442392217
 30
0.0
 40
2.887332235502126
  1
金器工業股份有限公司
 41
0.8
  7
LOGO
  0
TEXT
  5
41E
  8
LOGO
  6
CONTINUOUS
 62
     5
 10
31.768178963669119
 20
13.50693649767747
 30
0.0
 40
1.924888157001418
  1
MINDMAN INDUSTRIAL CO.,LTD
 41
0.85
  7
CHINESET
  0
LINE
  5
41F
  8
LOGO
 62
     6
 10
142.29916576028879
 20
29.937414101600851
 30
0.0
 11
142.29916576028879
 21
24.162749630596561
 31
0.0
  0
LINE
  5
420
  8
LOGO
 62
     6
 10
139.71487364693311
 20
22.719083512845501
 30
0.0
 11
136.50672686654721
 21
22.719083512845501
 31
0.0
  0
LINE
  5
421
  8
LOGO
 62
     6
 10
136.50672686654721
 20
21.275417395094429
 30
0.0
 11
136.50672686654721
 21
22.719083512845501
 31
0.0
  0
LINE
  5
422
  8
LOGO
 62
     6
 10
126.1531054904514
 20
22.719083512845462
 30
0.0
 11
122.3033291764486
 21
22.719083512845462
 31
0.0
  0
LINE
  5
423
  8
LOGO
 62
     6
 10
122.3033291764486
 20
21.275417395094401
 30
0.0
 11
122.3033291764486
 21
22.719083512845462
 31
0.0
  0
LINE
  5
424
  8
LOGO
 62
     6
 10
146.07691352262049
 20
22.719083512845529
 30
0.0
 11
151.9932073792919
 21
22.71908351284554
 31
0.0
  0
LINE
  5
425
  8
LOGO
 62
     6
 10
151.9932073792919
 20
21.275417395094468
 30
0.0
 11
151.9932073792919
 21
22.71908351284554
 31
0.0
  0
ENDSEC
  0
EOF
