  0
SECTION
  2
HEADER
  9
$ACADVER
  1
AC1009
  9
$INSBASE
 10
12.354342871909351
 20
7.6232876712328732
 30
0.0
  9
$EXTMIN
 10
36.273011218142983
 20
12.342819863863721
 30
-0.0000000349181948
  9
$EXTMAX
 10
162.86297672482101
 20
214.0019079155775
 30
0.0000000814935746
  9
$LIMMIN
 10
0.0
 20
0.0
  9
$LIMMAX
 10
396.0
 20
273.0
  9
$ORTHOMODE
 70
     0
  9
$REGENMODE
 70
     1
  9
$FILLMODE
 70
     1
  9
$QTEXTMODE
 70
     0
  9
$MIRRTEXT
 70
     1
  9
$DRAGMODE
 70
     2
  9
$LTSCALE
 40
6.0
  9
$OSMODE
 70
    39
  9
$ATTMODE
 70
     1
  9
$TEXTSIZE
 40
5.0
  9
$TRACEWID
 40
0.05
  9
$TEXTSTYLE
  7
CHINESET
  9
$CLAYER
  8
0
  9
$CELTYPE
  6
BYLAYER
  9
$CECOLOR
 62
   256
  9
$DIMSCALE
 40
1.0
  9
$DIMASZ
 40
2.5
  9
$DIMEXO
 40
1.5
  9
$DIMDLI
 40
8.0
  9
$DIMRND
 40
0.0
  9
$DIMDLE
 40
0.0
  9
$DIMEXE
 40
1.5
  9
$DIMTP
 40
0.0
  9
$DIMTM
 40
0.0
  9
$DIMTXT
 40
3.0
  9
$DIMCEN
 40
-0.09
  9
$DIMTSZ
 40
0.0
  9
$DIMTOL
 70
     0
  9
$DIMLIM
 70
     0
  9
$DIMTIH
 70
     0
  9
$DIMTOH
 70
     0
  9
$DIMSE1
 70
     0
  9
$DIMSE2
 70
     0
  9
$DIMTAD
 70
     1
  9
$DIMZIN
 70
     8
  9
$DIMBLK
  1

  9
$DIMASO
 70
     1
  9
$DIMSHO
 70
     1
  9
$DIMPOST
  1

  9
$DIMAPOST
  1

  9
$DIMALT
 70
     0
  9
$DIMALTD
 70
     2
  9
$DIMALTF
 40
25.399999999999999
  9
$DIMLFAC
 40
1.0
  9
$DIMTOFL
 70
     0
  9
$DIMTVP
 40
0.0
  9
$DIMTIX
 70
     0
  9
$DIMSOXD
 70
     0
  9
$DIMSAH
 70
     0
  9
$DIMBLK1
  1

  9
$DIMBLK2
  1

  9
$DIMSTYLE
  2
STANDARD
  9
$DIMCLRD
 70
   256
  9
$DIMCLRE
 70
   256
  9
$DIMCLRT
 70
   256
  9
$DIMTFAC
 40
1.0
  9
$DIMGAP
 40
1.0
  9
$LUNITS
 70
     2
  9
$LUPREC
 70
     2
  9
$SKETCHINC
 40
0.1
  9
$FILLETRAD
 40
0.3
  9
$AUNITS
 70
     0
  9
$AUPREC
 70
     0
  9
$MENU
  1
C:\CACAD\SUPPORT\ACAD
  9
$ELEVATION
 40
0.0
  9
$PELEVATION
 40
0.0
  9
$THICKNESS
 40
0.0
  9
$LIMCHECK
 70
     0
  9
$BLIPMODE
 70
     0
  9
$CHAMFERA
 40
0.5
  9
$CHAMFERB
 40
0.5
  9
$SKPOLY
 70
     0
  9
$TDCREATE
 40
2450960.4665943282
  9
$TDUPDATE
 40
2451939.7065540161
  9
$TDINDWG
 40
0.0663485301
  9
$TDUSRTIMER
 40
0.0663485301
  9
$USRTIMER
 70
     1
  9
$ANGBASE
 50
0.0
  9
$ANGDIR
 70
     0
  9
$PDMODE
 70
    65
  9
$PDSIZE
 40
8.3000000000000007
  9
$PLINEWID
 40
0.0
  9
$COORDS
 70
     2
  9
$SPLFRAME
 70
     0
  9
$SPLINETYPE
 70
     6
  9
$SPLINESEGS
 70
     8
  9
$ATTDIA
 70
     0
  9
$ATTREQ
 70
     1
  9
$HANDLING
 70
 12289
  9
$HANDSEED
  5
5B0
  9
$SURFTAB1
 70
     6
  9
$SURFTAB2
 70
     6
  9
$SURFTYPE
 70
     6
  9
$SURFU
 70
     6
  9
$SURFV
 70
     6
  9
$UCSNAME
  2

  9
$UCSORG
 10
0.0
 20
0.0
 30
0.0
  9
$UCSXDIR
 10
1.0
 20
0.0
 30
0.0
  9
$UCSYDIR
 10
0.0
 20
1.0
 30
0.0
  9
$PUCSNAME
  2

  9
$PUCSORG
 10
0.0
 20
0.0
 30
0.0
  9
$PUCSXDIR
 10
1.0
 20
0.0
 30
0.0
  9
$PUCSYDIR
 10
0.0
 20
1.0
 30
0.0
  9
$USERI1
 70
     0
  9
$USERI2
 70
     0
  9
$USERI3
 70
     0
  9
$USERI4
 70
     0
  9
$USERI5
 70
     0
  9
$USERR1
 40
0.0
  9
$USERR2
 40
0.0
  9
$USERR3
 40
0.0
  9
$USERR4
 40
0.0
  9
$USERR5
 40
0.0
  9
$WORLDVIEW
 70
     1
  9
$SHADEDGE
 70
     3
  9
$SHADEDIF
 70
    70
  9
$TILEMODE
 70
     1
  9
$MAXACTVP
 70
    16
  9
$PLIMCHECK
 70
     0
  9
$PEXTMIN
 10
1.0000000000000000E+020
 20
1.0000000000000000E+020
 30
1.0000000000000000E+020
  9
$PEXTMAX
 10
-1.0000000000000000E+020
 20
-1.0000000000000000E+020
 30
-1.0000000000000000E+020
  9
$PLIMMIN
 10
0.0
 20
0.0
  9
$PLIMMAX
 10
12.0
 20
9.0
  9
$UNITMODE
 70
     0
  9
$VISRETAIN
 70
     0
  9
$PLINEGEN
 70
     0
  9
$PSLTSCALE
 70
     0
  0
ENDSEC
  0
SECTION
  2
TABLES
  0
TABLE
  2
VPORT
 70
     3
  0
VPORT
  2
*ACTIVE
 70
     0
 10
0.0
 20
0.0
 11
1.0
 21
1.0
 12
99.567993971481997
 22
113.1723638897206
 13
0.0
 23
0.0
 14
1.0
 24
1.0
 15
0.0
 25
0.0
 16
0.0
 26
0.0
 36
1.0
 17
0.0
 27
0.0
 37
0.0
 40
203.8832691699312
 41
1.7274401473296499
 42
50.0
 43
0.0
 44
0.0
 50
0.0
 51
0.0
 71
     0
 72
  1000
 73
     1
 74
     1
 75
     0
 76
     0
 77
     0
 78
     0
  0
ENDTAB
  0
TABLE
  2
LTYPE
 70
     3
  0
LTYPE
  2
CONTINUOUS
 70
     0
  3
Solid line
 72
    65
 73
     0
 40
0.0
  0
LTYPE
  2
CENTER
 70
     0
  3
____ _ ____ _ ____ _ ____ _ ____ _ ____ _ ____ 
 72
    65
 73
     4
 40
2.0
 49
1.25
 49
-0.25
 49
0.25
 49
-0.25
  0
LTYPE
  2
DASHED
 70
     0
  3
__ __ __ __ __ __ __ __ __ __ __ __ __ __ __ __
 72
    65
 73
     2
 40
0.75
 49
0.5
 49
-0.25
  0
ENDTAB
  0
TABLE
  2
LAYER
 70
     6
  0
LAYER
  2
0
 70
     0
 62
     7
  6
CONTINUOUS
  0
LAYER
  2
DEFPOINTS
 70
     0
 62
     7
  6
CONTINUOUS
  0
LAYER
  2
CENTER
 70
     0
 62
     1
  6
CENTER
  0
LAYER
  2
DIM
 70
     0
 62
     5
  6
CONTINUOUS
  0
LAYER
  2
HIDDEN
 70
     0
 62
     6
  6
DASHED
  0
LAYER
  2
LOGO
 70
     0
 62
     7
  6
CONTINUOUS
  0
ENDTAB
  0
TABLE
  2
STYLE
 70
     4
  0
STYLE
  2
STANDARD
 70
     0
 40
0.0
 41
1.0
 50
0.0
 71
     0
 42
0.2
  3
txt
  4

  0
STYLE
  2
CHINESET
 70
     0
 40
0.0
 41
1.0
 50
0.0
 71
     0
 42
5.0
  3
SIMPLEX.SHX
  4
CHINESET
  0
STYLE
  2
LOGO
 70
     0
 40
0.0
 41
1.0
 50
0.0
 71
     0
 42
5.0
  3
txt
  4

  0
ENDTAB
  0
TABLE
  2
VIEW
 70
     0
  0
ENDTAB
  0
TABLE
  2
UCS
 70
     0
  0
ENDTAB
  0
TABLE
  2
APPID
 70
     2
  0
APPID
  2
ACAD
 70
     0
  0
APPID
  2
TCAD
 70
     0
  0
ENDTAB
  0
TABLE
  2
DIMSTYLE
 70
     1
  0
DIMSTYLE
  2
STANDARD
 70
     0
  3

  4

  5

  6

  7

 40
1.0
 41
2.5
 42
1.5
 43
8.0
 44
1.5
 45
0.0
 46
0.0
 47
0.0
 48
0.0
140
3.0
141
-0.09
142
0.0
143
25.399999999999999
144
1.0
145
0.0
146
1.0
147
1.0
 71
     0
 72
     0
 73
     0
 74
     0
 75
     0
 76
     0
 77
     1
 78
     8
170
     0
171
     2
172
     0
173
     0
174
     0
175
     0
176
   256
177
   256
178
   256
  0
ENDTAB
  0
ENDSEC
  0
SECTION
  2
BLOCKS
  0
BLOCK
  8
0
  2
$MODEL_SPACE
 70
     0
 10
0.0
 20
0.0
 30
0.0
  3
$MODEL_SPACE
  1

  0
ENDBLK
  5
2B6
  8
0
  0
BLOCK
 67
     1
  8
0
  2
$PAPER_SPACE
 70
     0
 10
0.0
 20
0.0
 30
0.0
  3
$PAPER_SPACE
  1

  0
ENDBLK
  5
2B4
 67
     1
  8
0
  0
BLOCK
  8
0
  2
*D12
 70
     1
 10
0.0
 20
0.0
 30
0.0
  3
*D12
  1

  0
LINE
  5
470
  8
DIM
 10
85.613197604951424
 20
157.14927988518869
 30
0.0
 11
59.731220690762598
 21
157.1492798851888
 31
0.0
  0
LINE
  5
471
  8
DIM
 10
96.613197604951438
 20
163.14927988518869
 30
0.0
 11
59.731220690762598
 21
163.1492798851888
 31
0.0
  0
LINE
  5
472
  8
DIM
 10
60.731220690762591
 20
154.6492798851888
 30
0.0
 11
60.731220690762591
 21
152.1492798851888
 31
0.0
  0
LINE
  5
473
  8
DIM
 10
60.731220690762591
 20
165.6492798851888
 30
0.0
 11
60.731220690762591
 21
168.1492798851888
 31
0.0
  0
TEXT
  5
474
  8
0
 10
59.108588298139011
 20
159.2207084566173
 30
0.0
 40
3.0
  1
6
 50
90.0
  7
CHINESET
  0
SOLID
  5
475
  8
DIM
 10
60.314554024095933
 20
154.6492798851888
 30
0.0
 11
61.147887357429262
 21
154.6492798851888
 31
0.0
 12
60.731220690762591
 22
157.1492798851888
 32
0.0
 13
60.731220690762591
 23
157.1492798851888
 33
0.0
  0
SOLID
  5
476
  8
DIM
 10
60.314554024095933
 20
165.6492798851888
 30
0.0
 11
61.147887357429262
 21
165.6492798851888
 31
0.0
 12
60.731220690762591
 22
163.1492798851888
 32
0.0
 13
60.731220690762591
 23
163.1492798851888
 33
0.0
  0
POINT
  5
477
  8
DEFPOINTS
 62
     0
 10
86.613197604951438
 20
157.14927988518869
 30
0.0
  0
POINT
  5
478
  8
DEFPOINTS
 62
     0
 10
97.613197604951438
 20
163.14927988518869
 30
0.0
  0
POINT
  5
479
  8
DEFPOINTS
 62
     0
 10
60.731220690762591
 20
163.1492798851888
 30
0.0
  0
ENDBLK
  5
2CB
  8
0
  0
BLOCK
  8
0
  2
*D13
 70
     1
 10
0.0
 20
0.0
 30
0.0
  3
*D13
  1

  0
LINE
  5
483
  8
DIM
 10
67.863197604951495
 20
152.64927988518869
 30
0.0
 11
46.294599512126631
 21
152.6492798851888
 31
0.0
  0
LINE
  5
484
  8
DIM
 10
68.363197604951424
 20
167.64927988518869
 30
0.0
 11
46.294599512126631
 21
167.6492798851888
 31
0.0
  0
LINE
  5
485
  8
DIM
 10
47.794599512126638
 20
155.1492798851888
 30
0.0
 11
47.794599512126638
 21
165.1492798851888
 31
0.0
  0
SOLID
  5
486
  8
DIM
 10
47.377932845459974
 20
155.1492798851888
 30
0.0
 11
48.211266178793302
 21
155.1492798851888
 31
0.0
 12
47.794599512126638
 22
152.6492798851888
 32
0.0
 13
47.794599512126638
 23
152.6492798851888
 33
0.0
  0
SOLID
  5
487
  8
DIM
 10
47.377932845459974
 20
165.1492798851888
 30
0.0
 11
48.211266178793302
 21
165.1492798851888
 31
0.0
 12
47.794599512126638
 22
167.6492798851888
 32
0.0
 13
47.794599512126638
 23
167.6492798851888
 33
0.0
  0
TEXT
  5
488
  8
0
 10
46.794599512126609
 20
158.00642274233161
 30
0.0
 40
3.0
  1
15
 50
90.0
  7
CHINESET
  0
POINT
  5
489
  8
DEFPOINTS
 62
     0
 10
69.363197604951495
 20
152.64927988518869
 30
0.0
  0
POINT
  5
48A
  8
DEFPOINTS
 62
     0
 10
69.863197604951438
 20
167.64927988518869
 30
0.0
  0
POINT
  5
48B
  8
DEFPOINTS
 62
     0
 10
47.794599512126638
 20
167.6492798851888
 30
0.0
  0
ENDBLK
  5
2D7
  8
0
  0
BLOCK
  8
0
  2
*D14
 70
     1
 10
0.0
 20
0.0
 30
0.0
  3
*D14
  1

  0
LINE
  5
47A
  8
DIM
 10
99.813197604951426
 20
154.64927988518869
 30
0.0
 11
52.539865405419839
 21
154.6492798851888
 31
0.0
  0
LINE
  5
47B
  8
DIM
 10
80.813197604951426
 20
165.64927988518869
 30
0.0
 11
52.539865405419839
 21
165.6492798851888
 31
0.0
  0
LINE
  5
47C
  8
DIM
 10
54.039865405419853
 20
157.1492798851888
 30
0.0
 11
54.039865405419853
 21
163.1492798851888
 31
0.0
  0
TEXT
  5
47D
  8
0
 10
52.640277154798021
 20
158.64927988518869
 30
0.0
 40
3.0
  1
11
 50
90.0
  7
CHINESET
  0
SOLID
  5
47E
  8
DIM
 10
53.623198738753182
 20
157.1492798851888
 30
0.0
 11
54.45653207208651
 21
157.1492798851888
 31
0.0
 12
54.039865405419853
 22
154.6492798851888
 32
0.0
 13
54.039865405419853
 23
154.6492798851888
 33
0.0
  0
SOLID
  5
47F
  8
DIM
 10
53.623198738753182
 20
163.1492798851888
 30
0.0
 11
54.45653207208651
 21
163.1492798851888
 31
0.0
 12
54.039865405419853
 22
165.6492798851888
 32
0.0
 13
54.039865405419853
 23
165.6492798851888
 33
0.0
  0
POINT
  5
480
  8
DEFPOINTS
 62
     0
 10
101.3131976049514
 20
154.64927988518869
 30
0.0
  0
POINT
  5
481
  8
DEFPOINTS
 62
     0
 10
82.313197604951426
 20
165.64927988518869
 30
0.0
  0
POINT
  5
482
  8
DEFPOINTS
 62
     0
 10
54.039865405419853
 20
165.6492798851888
 30
0.0
  0
ENDBLK
  5
2E4
  8
0
  0
BLOCK
  8
0
  2
*D15
 70
     1
 10
0.0
 20
0.0
 30
0.0
  3
*D15
  1

  0
LINE
  5
48C
  8
DIM
 10
85.863197604951424
 20
170.6992798851887
 30
0.0
 11
85.863197604951424
 21
180.93469820869751
 31
0.0
  0
LINE
  5
48D
  8
DIM
 10
104.8631976049514
 20
159.6992798851887
 30
0.0
 11
104.8631976049514
 21
180.93469820869751
 31
0.0
  0
LINE
  5
48E
  8
DIM
 10
88.363197604951424
 20
179.43469820869751
 30
0.0
 11
102.3631976049514
 21
179.43469820869751
 31
0.0
  0
SOLID
  5
48F
  8
DIM
 10
88.363197604951424
 20
179.8513648753642
 30
0.0
 11
88.363197604951424
 21
179.01803154203091
 31
0.0
 12
85.863197604951424
 22
179.43469820869751
 32
0.0
 13
85.863197604951424
 23
179.43469820869751
 33
0.0
  0
SOLID
  5
490
  8
DIM
 10
102.3631976049514
 20
179.8513648753642
 30
0.0
 11
102.3631976049514
 21
179.01803154203091
 31
0.0
 12
104.8631976049514
 22
179.43469820869751
 32
0.0
 13
104.8631976049514
 23
179.43469820869751
 33
0.0
  0
TEXT
  5
491
  8
0
 10
93.291769033522868
 20
180.43469820869751
 30
0.0
 40
3.0
  1
19
  7
CHINESET
  0
POINT
  5
492
  8
DEFPOINTS
 62
     0
 10
85.863197604951424
 20
169.1992798851887
 30
0.0
  0
POINT
  5
493
  8
DEFPOINTS
 62
     0
 10
104.8631976049514
 20
158.1992798851887
 30
0.0
  0
POINT
  5
494
  8
DEFPOINTS
 62
     0
 10
104.8631976049514
 20
179.43469820869751
 30
0.0
  0
ENDBLK
  5
2F0
  8
0
  0
BLOCK
  8
0
  2
*D16
 70
     1
 10
0.0
 20
0.0
 30
0.0
  3
*D16
  1

  0
LINE
  5
495
  8
DIM
 10
89.863197604951438
 20
161.89927988518869
 30
0.0
 11
89.863197604951438
 21
172.52213523572769
 31
0.0
  0
LINE
  5
496
  8
DIM
 10
100.8631976049514
 20
167.89927988518869
 30
0.0
 11
100.8631976049514
 21
172.52213523572769
 31
0.0
  0
LINE
  5
497
  8
DIM
 10
92.363197604951438
 20
171.02213523572769
 30
0.0
 11
98.363197604951424
 21
171.02213523572769
 31
0.0
  0
TEXT
  5
498
  8
0
 10
93.863197604951438
 20
172.81018364566179
 30
0.0
 40
3.0
  1
11
  7
CHINESET
  0
SOLID
  5
499
  8
DIM
 10
92.363197604951438
 20
171.4388019023944
 30
0.0
 11
92.363197604951438
 21
170.60546856906109
 31
0.0
 12
89.863197604951438
 22
171.02213523572769
 32
0.0
 13
89.863197604951438
 23
171.02213523572769
 33
0.0
  0
SOLID
  5
49A
  8
DIM
 10
98.363197604951424
 20
171.4388019023944
 30
0.0
 11
98.363197604951424
 21
170.60546856906109
 31
0.0
 12
100.8631976049514
 22
171.02213523572769
 32
0.0
 13
100.8631976049514
 23
171.02213523572769
 33
0.0
  0
POINT
  5
49B
  8
DEFPOINTS
 62
     0
 10
89.863197604951438
 20
160.39927988518869
 30
0.0
  0
POINT
  5
49C
  8
DEFPOINTS
 62
     0
 10
100.8631976049514
 20
166.39927988518869
 30
0.0
  0
POINT
  5
49D
  8
DEFPOINTS
 62
     0
 10
100.8631976049514
 20
171.02213523572769
 30
0.0
  0
ENDBLK
  5
2FC
  8
0
  0
BLOCK
  8
0
  2
*D17
 70
     1
 10
0.0
 20
0.0
 30
0.0
  3
*D17
  1

  0
LINE
  5
44B
  8
DIM
 10
68.363197604951495
 20
104.1003104346096
 30
0.0
 11
61.238626833147009
 21
104.1003104346096
 31
0.0
  0
LINE
  5
44C
  8
DIM
 10
86.013197604951472
 20
108.1003104346096
 30
0.0
 11
61.238626833147009
 21
108.1003104346096
 31
0.0
  0
LINE
  5
44D
  8
DIM
 10
62.738626833147009
 20
101.6003104346097
 30
0.0
 11
62.738626833147009
 21
99.100310434609696
 31
0.0
  0
LINE
  5
44E
  8
DIM
 10
62.738626833147009
 20
110.6003104346096
 30
0.0
 11
62.738626833147009
 21
113.1003104346096
 31
0.0
  0
TEXT
  5
44F
  8
0
 10
60.58865202712218
 20
100.25261372222459
 30
0.0
 40
3.0
  1
4
 50
90.0
  7
CHINESET
  0
SOLID
  5
450
  8
DIM
 10
62.321960166480352
 20
101.6003104346097
 30
0.0
 11
63.155293499813681
 21
101.6003104346097
 31
0.0
 12
62.738626833147009
 22
104.1003104346096
 32
0.0
 13
62.738626833147009
 23
104.1003104346096
 33
0.0
  0
SOLID
  5
451
  8
DIM
 10
62.321960166480352
 20
110.6003104346096
 30
0.0
 11
63.155293499813681
 21
110.6003104346096
 31
0.0
 12
62.738626833147009
 22
108.1003104346096
 32
0.0
 13
62.738626833147009
 23
108.1003104346096
 33
0.0
  0
POINT
  5
452
  8
DEFPOINTS
 62
     0
 10
69.863197604951495
 20
104.1003104346096
 30
0.0
  0
POINT
  5
453
  8
DEFPOINTS
 62
     0
 10
87.513197604951486
 20
108.1003104346096
 30
0.0
  0
POINT
  5
454
  8
DEFPOINTS
 62
     0
 10
62.738626833147009
 20
108.1003104346096
 30
0.0
  0
ENDBLK
  5
309
  8
0
  0
BLOCK
  8
0
  2
*D18
 70
     1
 10
0.0
 20
0.0
 30
0.0
  3
*D18
  1

  0
LINE
  5
455
  8
DIM
 10
68.363197604951495
 20
104.1003104346096
 30
0.0
 11
52.762910655467628
 21
104.1003104346096
 31
0.0
  0
LINE
  5
456
  8
DIM
 10
68.363197604951424
 20
128.10031043460961
 30
0.0
 11
52.762910655467643
 21
128.1003104346097
 31
0.0
  0
LINE
  5
457
  8
DIM
 10
54.262910655467628
 20
106.6003104346096
 30
0.0
 11
54.262910655467628
 21
125.6003104346097
 31
0.0
  0
SOLID
  5
458
  8
DIM
 10
53.846243988800957
 20
106.6003104346096
 30
0.0
 11
54.679577322134293
 21
106.6003104346096
 31
0.0
 12
54.262910655467628
 22
104.1003104346096
 32
0.0
 13
54.262910655467628
 23
104.1003104346096
 33
0.0
  0
SOLID
  5
459
  8
DIM
 10
53.846243988800971
 20
125.6003104346097
 30
0.0
 11
54.6795773221343
 21
125.6003104346097
 31
0.0
 12
54.262910655467628
 22
128.1003104346097
 32
0.0
 13
54.262910655467628
 23
128.1003104346097
 33
0.0
  0
TEXT
  5
45A
  8
0
 10
53.262910655467621
 20
113.6003104346097
 30
0.0
 40
3.0
  1
24
 50
90.0
  7
CHINESET
  0
POINT
  5
45B
  8
DEFPOINTS
 62
     0
 10
69.863197604951495
 20
104.1003104346096
 30
0.0
  0
POINT
  5
45C
  8
DEFPOINTS
 62
     0
 10
69.863197604951438
 20
128.10031043460961
 30
0.0
  0
POINT
  5
45D
  8
DEFPOINTS
 62
     0
 10
54.262910655467628
 20
128.1003104346097
 30
0.0
  0
ENDBLK
  5
315
  8
0
  0
BLOCK
  8
0
  2
*D19
 70
     1
 10
0.0
 20
0.0
 30
0.0
  3
*D19
  1

  0
LINE
  5
442
  8
DIM
 10
69.363197604951495
 20
103.1003104346096
 30
0.0
 11
69.363197604951495
 21
77.408420551715608
 31
0.0
  0
LINE
  5
443
  8
DIM
 10
128.36319760495141
 20
102.6003104346096
 30
0.0
 11
128.36319760495141
 21
77.408420551715608
 31
0.0
  0
LINE
  5
444
  8
DIM
 10
71.863197604951495
 20
78.908420551715594
 30
0.0
 11
125.8631976049514
 21
78.908420551715594
 31
0.0
  0
SOLID
  5
445
  8
DIM
 10
71.863197604951495
 20
79.325087218382279
 30
0.0
 11
71.863197604951495
 21
78.491753885048936
 31
0.0
 12
69.363197604951495
 22
78.908420551715594
 32
0.0
 13
69.363197604951495
 23
78.908420551715594
 33
0.0
  0
SOLID
  5
446
  8
DIM
 10
125.8631976049514
 20
79.325087218382279
 30
0.0
 11
125.8631976049514
 21
78.491753885048936
 31
0.0
 12
128.36319760495141
 22
78.908420551715594
 32
0.0
 13
128.36319760495141
 23
78.908420551715594
 33
0.0
  0
TEXT
  5
447
  8
0
 10
96.506054747808605
 20
79.908420551715608
 30
0.0
 40
3.0
  1
59
  7
CHINESET
  0
POINT
  5
448
  8
DEFPOINTS
 62
     0
 10
69.363197604951495
 20
104.6003104346096
 30
0.0
  0
POINT
  5
449
  8
DEFPOINTS
 62
     0
 10
128.36319760495141
 20
104.1003104346096
 30
0.0
  0
POINT
  5
44A
  8
DEFPOINTS
 62
     0
 10
128.36319760495141
 20
78.908420551715594
 30
0.0
  0
ENDBLK
  5
321
  8
0
  0
BLOCK
  8
0
  2
*D20
 70
     1
 10
0.0
 20
0.0
 30
0.0
  3
*D20
  1

  0
LINE
  5
439
  8
DIM
 10
69.363197604951495
 20
84.775160773214907
 30
0.0
 11
69.363197604951495
 21
83.163686389488575
 31
0.0
  0
LINE
  5
43A
  8
DIM
 10
95.363197604951495
 20
101.4126605923133
 30
0.0
 11
95.363197604951495
 21
83.163686389488575
 31
0.0
  0
LINE
  5
43B
  8
DIM
 10
71.863197604951495
 20
84.663686389488589
 30
0.0
 11
92.863197604951495
 21
84.663686389488589
 31
0.0
  0
SOLID
  5
43C
  8
DIM
 10
71.863197604951495
 20
85.080353056155275
 30
0.0
 11
71.863197604951495
 21
84.247019722821904
 31
0.0
 12
69.363197604951495
 22
84.663686389488589
 32
0.0
 13
69.363197604951495
 23
84.663686389488589
 33
0.0
  0
SOLID
  5
43D
  8
DIM
 10
92.863197604951495
 20
85.080353056155275
 30
0.0
 11
92.863197604951495
 21
84.247019722821904
 31
0.0
 12
95.363197604951495
 22
84.663686389488589
 32
0.0
 13
95.363197604951495
 23
84.663686389488589
 33
0.0
  0
TEXT
  5
43E
  8
0
 10
80.006054747808633
 20
85.663686389488575
 30
0.0
 40
3.0
  1
26
  7
CHINESET
  0
POINT
  5
43F
  8
DEFPOINTS
 62
     0
 10
69.363197604951495
 20
86.275160773214907
 30
0.0
  0
POINT
  5
440
  8
DEFPOINTS
 62
     0
 10
95.363197604951495
 20
102.9126605923133
 30
0.0
  0
POINT
  5
441
  8
DEFPOINTS
 62
     0
 10
95.363197604951495
 20
84.663686389488589
 30
0.0
  0
ENDBLK
  5
32D
  8
0
  0
BLOCK
  8
0
  2
*D21
 70
     1
 10
0.0
 20
0.0
 30
0.0
  3
*D21
  1

  0
LINE
  5
467
  8
DIM
 10
89.863197604951495
 20
104.2503104346096
 30
0.0
 11
89.863197604951495
 21
92.832533327473683
 31
0.0
  0
LINE
  5
468
  8
DIM
 10
100.86319760495149
 20
104.2503104346096
 30
0.0
 11
100.86319760495149
 21
92.832533327473683
 31
0.0
  0
LINE
  5
469
  8
DIM
 10
92.363197604951495
 20
94.332533327473683
 30
0.0
 11
98.363197604951495
 21
94.332533327473683
 31
0.0
  0
TEXT
  5
46A
  8
0
 10
94.034235469304349
 20
96.265528246905433
 30
0.0
 40
3.0
  1
11
  7
CHINESET
  0
SOLID
  5
46B
  8
DIM
 10
92.363197604951495
 20
94.749199994140369
 30
0.0
 11
92.363197604951495
 21
93.915866660807026
 31
0.0
 12
89.863197604951495
 22
94.332533327473683
 32
0.0
 13
89.863197604951495
 23
94.332533327473683
 33
0.0
  0
SOLID
  5
46C
  8
DIM
 10
98.363197604951495
 20
94.749199994140369
 30
0.0
 11
98.363197604951495
 21
93.915866660807026
 31
0.0
 12
100.86319760495149
 22
94.332533327473683
 32
0.0
 13
100.86319760495149
 23
94.332533327473683
 33
0.0
  0
POINT
  5
46D
  8
DEFPOINTS
 62
     0
 10
89.863197604951495
 20
105.7503104346096
 30
0.0
  0
POINT
  5
46E
  8
DEFPOINTS
 62
     0
 10
100.86319760495149
 20
105.7503104346096
 30
0.0
  0
POINT
  5
46F
  8
DEFPOINTS
 62
     0
 10
100.86319760495149
 20
94.332533327473683
 30
0.0
  0
ENDBLK
  5
339
  8
0
  0
BLOCK
  8
0
  2
*D22
 70
     1
 10
0.0
 20
0.0
 30
0.0
  3
*D22
  1

  0
LINE
  5
430
  8
DIM
 10
69.363197604951438
 20
66.919674270944157
 30
0.0
 11
69.363197604951438
 21
71.199994957027684
 31
0.0
  0
LINE
  5
431
  8
DIM
 10
95.363197604951438
 20
63.169674270944142
 30
0.0
 11
95.363197604951438
 21
71.199994957027684
 31
0.0
  0
LINE
  5
432
  8
DIM
 10
71.863197604951438
 20
69.699994957027684
 30
0.0
 11
92.863197604951438
 21
69.699994957027684
 31
0.0
  0
SOLID
  5
433
  8
DIM
 10
71.863197604951438
 20
70.116661623694355
 30
0.0
 11
71.863197604951438
 21
69.283328290361013
 31
0.0
 12
69.363197604951438
 22
69.699994957027684
 32
0.0
 13
69.363197604951438
 23
69.699994957027684
 33
0.0
  0
SOLID
  5
434
  8
DIM
 10
92.863197604951438
 20
70.116661623694355
 30
0.0
 11
92.863197604951438
 21
69.283328290361013
 31
0.0
 12
95.363197604951438
 22
69.699994957027684
 32
0.0
 13
95.363197604951438
 23
69.699994957027684
 33
0.0
  0
TEXT
  5
435
  8
0
 10
80.006054747808577
 20
70.699994957027684
 30
0.0
 40
3.0
  1
26
  7
CHINESET
  0
POINT
  5
436
  8
DEFPOINTS
 62
     0
 10
69.363197604951438
 20
65.419674270944157
 30
0.0
  0
POINT
  5
437
  8
DEFPOINTS
 62
     0
 10
95.363197604951438
 20
61.669674270944142
 30
0.0
  0
POINT
  5
438
  8
DEFPOINTS
 62
     0
 10
95.363197604951438
 20
69.699994957027684
 30
0.0
  0
ENDBLK
  5
345
  8
0
  0
BLOCK
  8
0
  2
*D23
 70
     1
 10
0.0
 20
0.0
 30
0.0
  3
*D23
  1

  0
LINE
  5
45E
  8
DIM
 10
84.563197604951426
 20
53.669674270944142
 30
0.0
 11
84.563197604951426
 21
42.047603206499033
 31
0.0
  0
LINE
  5
45F
  8
DIM
 10
106.16319760495141
 20
53.669674270944142
 30
0.0
 11
106.16319760495141
 21
42.047603206499033
 31
0.0
  0
LINE
  5
460
  8
DIM
 10
87.063197604951426
 20
43.547603206499033
 30
0.0
 11
103.66319760495141
 21
43.547603206499033
 31
0.0
  0
SOLID
  5
461
  8
DIM
 10
87.063197604951426
 20
43.964269873165691
 30
0.0
 11
87.063197604951426
 21
43.130936539832362
 31
0.0
 12
84.563197604951426
 22
43.547603206499033
 32
0.0
 13
84.563197604951426
 23
43.547603206499033
 33
0.0
  0
SOLID
  5
462
  8
DIM
 10
103.66319760495141
 20
43.964269873165691
 30
0.0
 11
103.66319760495141
 21
43.130936539832362
 31
0.0
 12
106.16319760495141
 22
43.547603206499033
 32
0.0
 13
106.16319760495141
 23
43.547603206499033
 33
0.0
  0
TEXT
  5
463
  8
0
 10
91.148911890665715
 20
44.547603206499033
 30
0.0
 40
3.0
  1
21.6
  7
CHINESET
  0
POINT
  5
464
  8
DEFPOINTS
 62
     0
 10
84.563197604951426
 20
55.169674270944142
 30
0.0
  0
POINT
  5
465
  8
DEFPOINTS
 62
     0
 10
106.16319760495141
 20
55.169674270944142
 30
0.0
  0
POINT
  5
466
  8
DEFPOINTS
 62
     0
 10
106.16319760495141
 20
43.547603206499033
 30
0.0
  0
ENDBLK
  5
351
  8
0
  0
ENDSEC
  0
SECTION
  2
ENTITIES
  0
DIMENSION
  5
21
  8
DIM
  2
*D22
 10
95.363197604951438
 20
69.699994957027684
 30
0.0
 11
82.363197604951438
 21
72.199994957027684
 31
0.0
 70
     0
  1
26
 13
69.363197604951438
 23
65.419674270944157
 33
0.0
 14
95.363197604951438
 24
61.669674270944142
 34
0.0
1001
ACAD
1000
DSTYLE
1002
{
1002
}
  0
DIMENSION
  5
2F
  8
DIM
  2
*D20
 10
95.363197604951495
 20
84.663686389488589
 30
0.0
 11
82.363197604951495
 21
87.163686389488589
 31
0.0
 70
     0
 13
69.363197604951495
 23
86.275160773214907
 33
0.0
 14
95.363197604951495
 24
102.9126605923133
 34
0.0
1001
ACAD
1000
DSTYLE
1002
{
1002
}
  0
DIMENSION
  5
3C
  8
DIM
  2
*D19
 10
128.36319760495141
 20
78.908420551715594
 30
0.0
 11
98.86319760495148
 21
81.408420551715594
 31
0.0
 70
     0
  1
59
 13
69.363197604951495
 23
104.6003104346096
 33
0.0
 14
128.36319760495141
 24
104.1003104346096
 34
0.0
1001
ACAD
1000
DSTYLE
1002
{
1070
   340
1005
1B
1002
}
  0
TEXT
  5
49
  8
DIM
 10
66.696796286520083
 20
94.318046737525506
 30
0.0
 40
3.0
  1
2-
  7
CHINESET
  0
TEXT
  5
223
  8
DIM
 10
73.268224857948667
 20
94.318046737525506
 30
0.0
 40
3.0
  1
%%c
  7
CHINESET
1001
ACAD
1000
R13OBJECT
1002
{
1005
49
1002
}
  0
TEXT
  5
224
  8
DIM
 10
75.982510572234389
 20
94.318046737525506
 30
0.0
 40
3.0
  1
3.2
  7
CHINESET
1001
ACAD
1000
R13OBJECT
1002
{
1005
49
1002
}
  0
DIMENSION
  5
4A
  8
DIM
  2
*D17
 10
62.738626833147009
 20
108.1003104346096
 30
0.0
 11
59.08865202712218
 21
101.32404229365309
 31
0.0
 70
   128
 13
69.863197604951495
 23
104.1003104346096
 33
0.0
 14
87.513197604951486
 24
108.1003104346096
 34
0.0
 50
90.0
  0
LINE
  5
59
  8
0
 10
69.363197604951495
 20
50.919674270944142
 30
0.0
 11
128.36319760495141
 21
50.919674270944093
 31
0.0
  0
LINE
  5
5A
  8
0
 10
69.863197604951438
 20
65.919674270944157
 30
0.0
 11
128.36319760495141
 21
65.919674270944085
 31
0.0
  0
LINE
  5
5B
  8
CENTER
  6
CENTER
 10
65.815220376014153
 20
58.419674270944142
 30
0.0
 11
131.84886805953261
 21
58.419674270944142
 31
0.0
  0
LINE
  5
5D
  8
0
 10
69.863197604951495
 20
104.1003104346096
 30
0.0
 11
128.36319760495141
 21
104.1003104346096
 31
0.0
  0
LINE
  5
5E
  8
0
 10
69.863197604951438
 20
128.10031043460961
 30
0.0
 11
128.36319760495141
 21
128.10031043460961
 31
0.0
  0
LINE
  5
5F
  8
CENTER
  6
CENTER
 10
66.800236857555774
 20
116.1003104346096
 30
0.0
 11
134.40318677023581
 21
116.1003104346096
 31
0.0
  0
LINE
  5
61
  8
0
 10
69.363197604951438
 20
65.419674270944157
 30
0.0
 11
69.363197604951495
 21
50.919674270944142
 31
0.0
  0
LINE
  5
62
  8
0
 10
72.363197604951438
 20
65.419674270944142
 30
0.0
 11
72.363197604951438
 21
61.419674270944142
 31
0.0
  0
ARC
  5
63
  8
0
 10
72.363197604951438
 20
63.419674270944142
 30
0.0
 40
2.7000000000000002
 50
188.51962425414311
 51
218.68218745347579
  0
LINE
  5
64
  8
0
 10
71.363197604951438
 20
65.669674270944142
 30
0.0
 11
71.363197604951438
 21
61.169674270944142
 31
0.0
  0
ARC
  5
65
  8
0
 10
71.426447905191253
 20
62.669674270944142
 30
0.0
 40
1.5
 50
218.68218745347579
 51
270.0
  0
LINE
  5
66
  8
0
 10
69.863197604951438
 20
60.919674270944157
 30
0.0
 11
71.863197604951438
 21
60.919674270944142
 31
0.0
  0
ARC
  5
67
  8
0
 10
69.863197604951438
 20
60.419674270944157
 30
0.0
 40
0.5
 50
90.0
 51
180.0
  0
ARC
  5
68
  8
0
 10
71.863197604951438
 20
61.419674270944142
 30
0.0
 40
0.5
 50
269.99999999999972
 51
0.0000000000000509
  0
LINE
  5
69
  8
0
 10
71.426447905191253
 20
61.169674270944142
 30
0.0
 11
72.296210306843648
 21
61.169674270944142
 31
0.0
  0
ARC
  5
6A
  8
0
 10
71.426447905191253
 20
64.169674270944142
 30
0.0
 40
1.5
 50
89.999999999999446
 51
141.31781254652401
  0
LINE
  5
6B
  8
0
 10
69.692991620387716
 20
63.819674270944148
 30
0.0
 11
70.663197604951449
 21
63.819674270944162
 31
0.0
  0
LINE
  5
6C
  8
0
 10
69.692991620387716
 20
63.019674270944137
 30
0.0
 11
70.663197604951449
 21
63.019674270944137
 31
0.0
  0
LINE
  5
6D
  8
CENTER
  6
CENTER
 10
68.133112099332664
 20
63.419674270944142
 30
0.0
 11
73.75074288805115
 21
63.419674270944142
 31
0.0
  0
ARC
  5
6E
  8
0
 10
69.863197604951438
 20
65.419674270944157
 30
0.0
 40
0.5
 50
89.999999999999915
 51
180.0
  0
ARC
  5
6F
  8
0
 10
72.363197604951438
 20
63.419674270944142
 30
0.0
 40
2.7000000000000002
 50
141.31781254652401
 51
171.4803757458568
  0
ARC
  5
70
  8
0
 10
72.863197604951424
 20
65.419674270944142
 30
0.0
 40
0.5
 50
89.999999999999943
 51
180.0
  0
LINE
  5
71
  8
0
 10
70.663197604951449
 20
63.819674270944162
 30
0.0
 11
70.663197604951449
 21
63.019674270944137
 31
0.0
  0
LINE
  5
72
  8
0
 10
71.426447905191253
 20
65.669674270944142
 30
0.0
 11
72.430184903059228
 21
65.669674270944128
 31
0.0
  0
DIMENSION
  5
73
  8
DIM
  2
*D18
 10
54.262910655467628
 20
128.1003104346097
 30
0.0
 11
51.762910655467607
 21
116.1003104346097
 31
0.0
 70
     0
  1
24
 13
69.863197604951495
 23
104.1003104346096
 33
0.0
 14
69.863197604951438
 24
128.10031043460961
 34
0.0
 50
90.0
1001
ACAD
1000
DSTYLE
1002
{
1002
}
  0
LINE
  5
80
  8
0
 10
69.363197604951438
 20
127.6003104346097
 30
0.0
 11
69.363197604951495
 21
104.6003104346096
 31
0.0
  0
ARC
  5
81
  8
0
 10
69.863197604951495
 20
104.6003104346096
 30
0.0
 40
0.5
 50
180.0
 51
270.0
  0
ARC
  5
82
  8
0
 10
69.863197604951438
 20
127.6003104346097
 30
0.0
 40
0.5
 50
89.999999999999986
 51
180.0
  0
DIMENSION
  5
83
  8
DIM
  2
*D23
 10
106.16319760495141
 20
43.547603206499033
 30
0.0
 11
95.363197604951438
 21
46.047603206499033
 31
0.0
 70
     0
 13
84.563197604951426
 23
55.169674270944142
 33
0.0
 14
106.16319760495141
 24
55.169674270944142
 34
0.0
1001
ACAD
1000
DSTYLE
1002
{
1002
}
  0
ARC
  5
90
  8
0
 10
126.29994730471159
 20
52.669674270944142
 30
0.0
 40
1.5
 50
269.99999999999937
 51
321.31781254652401
  0
LINE
  5
91
  8
0
 10
126.3631976049514
 20
51.169674270944142
 30
0.0
 11
126.3631976049514
 21
55.669674270944142
 31
0.0
  0
LINE
  5
92
  8
0
 10
128.36319760495141
 20
65.919674270944085
 30
0.0
 11
128.36319760495141
 21
50.919674270944093
 31
0.0
  0
ARC
  5
93
  8
0
 10
124.8631976049514
 20
51.419674270944142
 30
0.0
 40
0.5
 50
269.99999999999989
 51
0.0000000000000509
  0
LINE
  5
94
  8
0
 10
113.3631976049514
 20
50.919674270944093
 30
0.0
 11
113.36319760495149
 21
65.919674270944085
 31
0.0
  0
LINE
  5
95
  8
CENTER
  6
CENTER
 10
85.863197604951424
 20
51.419674270944142
 30
0.0
 11
85.863197604951424
 21
49.369674270944152
 31
0.0
  0
LINE
  5
96
  8
0
 10
77.363197604951438
 20
50.919674270944142
 30
0.0
 11
77.363197604951495
 21
65.919674270944128
 31
0.0
  0
LINE
  5
97
  8
0
 10
126.29994730471159
 20
51.169674270944142
 30
0.0
 11
125.29621030684361
 21
51.169674270944149
 31
0.0
  0
SOLID
  5
98
  8
DIM
 10
-129.92961216419209
 20
118.0927854130497
 30
0.0
 11
-128.36319760495141
 21
116.1003104346096
 31
0.0
 12
-129.1987330058202
 22
118.4931104064012
 32
0.0
 13
-129.1987330058202
 23
118.4931104064012
 33
0.0
210
0.0
220
0.0
230
-1.0
  0
POLYLINE
  5
225
  8
DIM
 66
     1
 10
0.0
 20
0.0
 30
0.0
 70
     8
1001
ACAD
1000
R13OBJECT
1002
{
1005
98
1002
}
  0
VERTEX
  5
226
  8
DIM
 10
129.56417258500611
 20
118.2929479097254
 30
0.0
 70
    32
1001
ACAD
1000
R13OBJECT
1002
{
1005
98
1002
}
  0
VERTEX
  5
227
  8
DIM
 10
132.55215635098941
 20
123.7481532962974
 30
0.0
 70
    32
1001
ACAD
1000
R13OBJECT
1002
{
1005
98
1002
}
  0
SEQEND
  5
228
  8
DIM
  0
POLYLINE
  5
229
  8
DIM
 66
     1
 10
0.0
 20
0.0
 30
0.0
 70
     8
1001
ACAD
1000
R13OBJECT
1002
{
1005
98
1002
}
  0
VERTEX
  5
22A
  8
DIM
 10
132.55215635098941
 20
123.7481532962974
 30
0.0
 70
    32
1001
ACAD
1000
R13OBJECT
1002
{
1005
98
1002
}
  0
VERTEX
  5
22B
  8
DIM
 10
154.40929920813221
 20
123.7481532962974
 30
0.0
 70
    32
1001
ACAD
1000
R13OBJECT
1002
{
1005
98
1002
}
  0
SEQEND
  5
22C
  8
DIM
  0
TEXT
  5
99
  8
DIM
 10
133.8140113060731
 20
124.7481532962974
 30
0.0
 40
3.0
  1
M5*P0.8
  7
CHINESET
  0
DIMENSION
  5
9A
  8
DIM
  2
*D21
 10
100.86319760495149
 20
94.332533327473683
 30
0.0
 11
95.534235469304349
 21
97.765528246905433
 31
0.0
 70
   128
  1
11
 13
89.863197604951495
 23
105.7503104346096
 33
0.0
 14
100.86319760495149
 24
105.7503104346096
 34
0.0
1001
ACAD
1000
DSTYLE
1002
{
1002
}
  0
CIRCLE
  5
A7
  8
0
 10
106.16319760495141
 20
58.419674270944142
 30
0.0
 40
2.5
  0
CIRCLE
  5
A8
  8
0
 10
106.16319760495141
 20
58.419674270944142
 30
0.0
 40
2.0499999999999989
  0
LINE
  5
A9
  8
CENTER
  6
CENTER
 10
104.1131976049514
 20
63.919674270944142
 30
0.0
 11
105.6131976049514
 21
63.919674270944142
 31
0.0
  0
CIRCLE
  5
AA
  8
0
 10
104.8631976049514
 20
63.919674270944142
 30
0.0
 40
1.3
  0
LINE
  5
AB
  8
CENTER
  6
CENTER
 10
84.563197604951426
 20
56.919674270944142
 30
0.0
 11
84.563197604951426
 21
55.169674270944142
 31
0.0
  0
CIRCLE
  5
AC
  8
0
 10
84.563197604951426
 20
58.419674270944142
 30
0.0
 40
2.5
  0
CIRCLE
  5
AD
  8
0
 10
84.563197604951426
 20
58.419674270944142
 30
0.0
 40
2.0499999999999989
  0
LINE
  5
AE
  8
CENTER
  6
CENTER
 10
85.113197604951438
 20
52.919674270944142
 30
0.0
 11
86.613197604951438
 21
52.919674270944142
 31
0.0
  0
CIRCLE
  5
AF
  8
0
 10
85.863197604951424
 20
52.919674270944142
 30
0.0
 40
1.3
  0
LINE
  5
B0
  8
CENTER
  6
CENTER
 10
84.363197604951424
 20
52.919674270944142
 30
0.0
 11
82.313197604951426
 21
52.919674270944142
 31
0.0
  0
LINE
  5
B1
  8
CENTER
  6
CENTER
 10
87.363197604951438
 20
52.919674270944142
 30
0.0
 11
89.413197604951449
 21
52.919674270944142
 31
0.0
  0
LINE
  5
B2
  8
CENTER
  6
CENTER
 10
85.863197604951424
 20
53.669674270944142
 30
0.0
 11
85.863197604951424
 21
52.169674270944142
 31
0.0
  0
LINE
  5
B3
  8
CENTER
  6
CENTER
 10
85.863197604951424
 20
54.419674270944142
 30
0.0
 11
85.863197604951424
 21
56.469674270944139
 31
0.0
  0
LINE
  5
B4
  8
CENTER
  6
CENTER
 10
84.563197604951426
 20
57.669674270944142
 30
0.0
 11
84.563197604951426
 21
59.169674270944142
 31
0.0
  0
LINE
  5
B5
  8
CENTER
  6
CENTER
 10
84.563197604951426
 20
59.919674270944142
 30
0.0
 11
84.563197604951426
 21
61.669674270944142
 31
0.0
  0
LINE
  5
B6
  8
CENTER
  6
CENTER
 10
104.8631976049514
 20
62.419674270944142
 30
0.0
 11
104.8631976049514
 21
60.369674270944138
 31
0.0
  0
CIRCLE
  5
B7
  8
0
 10
95.363197604951438
 20
58.419674270944142
 30
0.0
 40
2.5
  0
LINE
  5
B8
  8
CENTER
  6
CENTER
 10
95.363197604951438
 20
56.919674270944142
 30
0.0
 11
95.363197604951438
 21
55.169674270944142
 31
0.0
  0
CIRCLE
  5
B9
  8
0
 10
95.363197604951438
 20
58.419674270944142
 30
0.0
 40
2.0499999999999989
  0
LINE
  5
BA
  8
CENTER
  6
CENTER
 10
95.363197604951438
 20
57.669674270944142
 30
0.0
 11
95.363197604951438
 21
59.169674270944142
 31
0.0
  0
LINE
  5
BB
  8
CENTER
  6
CENTER
 10
95.363197604951438
 20
59.919674270944142
 30
0.0
 11
95.363197604951438
 21
61.669674270944142
 31
0.0
  0
LINE
  5
BC
  8
CENTER
  6
CENTER
 10
104.8631976049514
 20
65.419674270944142
 30
0.0
 11
104.8631976049514
 21
67.469674270944139
 31
0.0
  0
LINE
  5
BD
  8
CENTER
  6
CENTER
 10
103.3631976049514
 20
63.919674270944142
 30
0.0
 11
101.3131976049514
 21
63.919674270944142
 31
0.0
  0
LINE
  5
BE
  8
CENTER
  6
CENTER
 10
104.8631976049514
 20
64.669674270944142
 30
0.0
 11
104.8631976049514
 21
63.169674270944142
 31
0.0
  0
LINE
  5
BF
  8
CENTER
  6
CENTER
 10
106.16319760495141
 20
56.919674270944142
 30
0.0
 11
106.16319760495141
 21
55.169674270944142
 31
0.0
  0
LINE
  5
C0
  8
CENTER
  6
CENTER
 10
106.16319760495141
 20
57.669674270944142
 30
0.0
 11
106.16319760495141
 21
59.169674270944142
 31
0.0
  0
LINE
  5
C1
  8
CENTER
  6
CENTER
 10
106.16319760495141
 20
59.919674270944142
 30
0.0
 11
106.16319760495141
 21
61.669674270944142
 31
0.0
  0
LINE
  5
C2
  8
CENTER
  6
CENTER
 10
106.3631976049514
 20
63.919674270944142
 30
0.0
 11
108.41319760495141
 21
63.919674270944142
 31
0.0
  0
ARC
  5
C3
  8
0
 10
127.8631976049514
 20
56.419674270944128
 30
0.0
 40
0.5
 50
270.0
 51
0.0000000000000509
  0
LINE
  5
C4
  8
CENTER
  6
CENTER
 10
129.59328311057021
 20
53.419674270944142
 30
0.0
 11
123.9756523218517
 21
53.419674270944142
 31
0.0
  0
ARC
  5
C5
  8
0
 10
126.29994730471159
 20
54.169674270944142
 30
0.0
 40
1.5
 50
38.682187453475912
 51
90.0
  0
LINE
  5
C6
  8
0
 10
127.0631976049514
 20
53.019674270944122
 30
0.0
 11
127.0631976049514
 21
53.819674270944148
 31
0.0
  0
ARC
  5
C7
  8
0
 10
125.3631976049514
 20
53.419674270944142
 30
0.0
 40
2.7000000000000002
 50
321.31781254652401
 51
351.48037574585669
  0
LINE
  5
C8
  8
0
 10
128.0334035895151
 20
53.819674270944148
 30
0.0
 11
127.0631976049514
 21
53.819674270944148
 31
0.0
  0
LINE
  5
C9
  8
0
 10
128.0334035895151
 20
53.019674270944137
 30
0.0
 11
127.0631976049514
 21
53.019674270944122
 31
0.0
  0
ARC
  5
CA
  8
0
 10
125.3631976049514
 20
53.419674270944142
 30
0.0
 40
2.7000000000000002
 50
8.5196242541431815
 51
38.682187453475912
  0
ARC
  5
CB
  8
0
 10
125.8631976049514
 20
55.419674270944142
 30
0.0
 40
0.5
 50
89.999999999999687
 51
180.0
  0
LINE
  5
CC
  8
0
 10
125.3631976049514
 20
51.419674270944142
 30
0.0
 11
125.3631976049514
 21
55.419674270944142
 31
0.0
  0
LINE
  5
CD
  8
0
 10
126.29994730471159
 20
55.669674270944142
 30
0.0
 11
125.4301849030592
 21
55.669674270944142
 31
0.0
  0
LINE
  5
CE
  8
0
 10
127.8631976049514
 20
55.919674270944128
 30
0.0
 11
125.8631976049514
 21
55.919674270944142
 31
0.0
  0
TEXT
  5
CF
  8
0
 10
104.70700425449429
 20
100.49078698999971
 30
0.0
 40
1.5
  1
R2
  7
CHINESET
  0
LINE
  5
D0
  8
HIDDEN
  6
DASHED
 10
104.1131976049514
 20
111.6003104346096
 30
0.0
 11
108.2131976049514
 21
111.6003104346096
 31
0.0
  0
LINE
  5
D2
  8
HIDDEN
  6
DASHED
 10
103.66319760495141
 20
110.1003104346096
 30
0.0
 11
108.66319760495141
 21
110.1003104346096
 31
0.0
  0
LINE
  5
D3
  8
HIDDEN
  6
DASHED
 10
104.1131976049514
 20
104.8003104346096
 30
0.0
 11
108.2131976049514
 21
104.8003104346096
 31
0.0
  0
LINE
  5
D4
  8
0
 10
77.363197604951438
 20
128.10031043460961
 30
0.0
 11
77.363197604951381
 21
104.1003104346096
 31
0.0
  0
LINE
  5
D5
  8
CENTER
  6
CENTER
 10
89.113197604951495
 20
108.1003104346096
 30
0.0
 11
90.613197604951495
 21
108.1003104346096
 31
0.0
  0
CIRCLE
  5
D6
  8
0
 10
89.863197604951495
 20
108.1003104346096
 30
0.0
 40
1.6000000000000001
  0
SOLID
  5
D7
  8
0
  6
CONTINUOUS
 62
     5
 10
-88.169284111160451
 20
104.33460977289251
 30
0.0
 11
-89.301458210090871
 21
106.60216195990429
 31
0.0
 12
-88.965905042025398
 22
104.0899885617265
 32
0.0
 13
-88.965905042025398
 23
104.0899885617265
 33
0.0
210
0.0
220
0.0
230
-1.0
  0
POLYLINE
  5
22D
  8
DIM
 66
     1
 10
0.0
 20
0.0
 30
0.0
 70
     8
1001
ACAD
1000
R13OBJECT
1002
{
1005
D7
1002
}
  0
VERTEX
  5
22E
  8
DIM
 10
88.567594576592924
 20
104.2122991673095
 30
0.0
 70
    32
1001
ACAD
1000
R13OBJECT
1002
{
1005
D7
1002
}
  0
VERTEX
  5
22F
  8
DIM
 10
85.914426618592884
 20
95.572128029374426
 30
0.0
 70
    32
1001
ACAD
1000
R13OBJECT
1002
{
1005
D7
1002
}
  0
SEQEND
  5
230
  8
DIM
  0
POLYLINE
  5
231
  8
DIM
 66
     1
 10
0.0
 20
0.0
 30
0.0
 70
     8
1001
ACAD
1000
R13OBJECT
1002
{
1005
D7
1002
}
  0
VERTEX
  5
232
  8
DIM
 10
85.914426618592884
 20
95.572128029374426
 30
0.0
 70
    32
1001
ACAD
1000
R13OBJECT
1002
{
1005
D7
1002
}
  0
VERTEX
  5
233
  8
DIM
 10
82.414426618592856
 20
95.572128029374426
 30
0.0
 70
    32
1001
ACAD
1000
R13OBJECT
1002
{
1005
D7
1002
}
  0
SEQEND
  5
234
  8
DIM
  0
LINE
  5
D8
  8
HIDDEN
  6
DASHED
 10
86.613197604951495
 20
104.8003104346096
 30
0.0
 11
87.313197604951426
 21
104.1003104346095
 31
0.0
  0
LINE
  5
D9
  8
HIDDEN
  6
DASHED
 10
87.063197604951483
 20
110.1003104346096
 30
0.0
 11
87.063197604951483
 21
104.3503104346095
 31
0.0
  0
LINE
  5
DA
  8
HIDDEN
  6
DASHED
 10
82.513197604951486
 20
104.8003104346096
 30
0.0
 11
81.813197604951469
 21
104.1003104346095
 31
0.0
  0
LINE
  5
DB
  8
HIDDEN
  6
DASHED
 10
82.063197604951483
 20
110.1003104346096
 30
0.0
 11
82.063197604951483
 21
104.3503104346096
 31
0.0
  0
LINE
  5
DC
  8
CENTER
  6
CENTER
 10
84.563197604951483
 20
112.15262663930299
 30
0.0
 11
84.563197604951483
 21
103.05593033459
 31
0.0
  0
TEXT
  5
DD
  8
0
 10
83.356029205121615
 20
100.6140880004251
 30
0.0
 40
1.5
  1
R1
  7
CHINESET
  0
LINE
  5
DE
  8
HIDDEN
  6
DASHED
 10
86.613197604951438
 20
111.6003104346096
 30
0.0
 11
86.613197604951495
 21
104.8003104346096
 31
0.0
  0
LINE
  5
DF
  8
HIDDEN
  6
DASHED
 10
82.513197604951486
 20
111.6003104346096
 30
0.0
 11
82.513197604951486
 21
104.8003104346096
 31
0.0
  0
LINE
  5
E0
  8
HIDDEN
  6
DASHED
 10
82.513197604951486
 20
104.8003104346096
 30
0.0
 11
86.613197604951438
 21
104.8003104346096
 31
0.0
  0
LINE
  5
E2
  8
CENTER
  6
CENTER
 10
88.363197604951495
 20
108.1003104346096
 30
0.0
 11
87.513197604951486
 21
108.1003104346096
 31
0.0
  0
LINE
  5
E3
  8
HIDDEN
  6
DASHED
 10
82.513197604951486
 20
111.6003104346096
 30
0.0
 11
86.613197604951438
 21
111.6003104346096
 31
0.0
  0
LINE
  5
E4
  8
HIDDEN
  6
DASHED
 10
82.063197604951483
 20
110.1003104346096
 30
0.0
 11
87.063197604951483
 21
110.1003104346096
 31
0.0
  0
LINE
  5
E5
  8
HIDDEN
  6
DASHED
 10
83.163197604951449
 20
112.6066612672992
 30
0.0
 11
83.163197604951449
 21
111.6003104346096
 31
0.0
  0
LINE
  5
E6
  8
HIDDEN
  6
DASHED
 10
82.063197604951483
 20
110.1003104346096
 30
0.0
 11
82.513197604951486
 21
110.902555522347
 31
0.0
  0
LINE
  5
E7
  8
HIDDEN
  6
DASHED
 10
85.963197604951475
 20
112.6066612672992
 30
0.0
 11
85.963197604951475
 21
111.6003104346096
 31
0.0
  0
LINE
  5
E8
  8
HIDDEN
  6
DASHED
 10
86.613197604951438
 20
110.902555522347
 30
0.0
 11
87.063197604951483
 21
110.1003104346096
 31
0.0
  0
LINE
  5
E9
  8
CENTER
  6
CENTER
 10
95.363197604951495
 20
112.00935689702629
 30
0.0
 11
95.363197604951495
 21
102.9126605923133
 31
0.0
  0
LINE
  5
EA
  8
HIDDEN
  6
DASHED
 10
93.313197604951426
 20
112.15262663930299
 30
0.0
 11
93.313197604951426
 21
103.05593033459
 31
0.0
  0
LINE
  5
EB
  8
HIDDEN
  6
DASHED
 10
104.1131976049514
 20
104.8003104346096
 30
0.0
 11
103.41319760495141
 21
104.1003104346095
 31
0.0
  0
LINE
  5
EC
  8
HIDDEN
  6
DASHED
 10
103.66319760495141
 20
110.1003104346096
 30
0.0
 11
103.66319760495141
 21
104.3503104346096
 31
0.0
  0
LINE
  5
ED
  8
HIDDEN
  6
DASHED
 10
93.313197604951426
 20
104.8003104346096
 30
0.0
 11
92.613197604951495
 21
104.1003104346095
 31
0.0
  0
LINE
  5
EE
  8
HIDDEN
  6
DASHED
 10
97.413197604951435
 20
104.8003104346096
 30
0.0
 11
98.113197604951452
 21
104.1003104346095
 31
0.0
  0
LINE
  5
EF
  8
HIDDEN
  6
DASHED
 10
97.863197604951495
 20
110.1003104346096
 30
0.0
 11
97.863197604951495
 21
104.3503104346095
 31
0.0
  0
LINE
  5
F0
  8
HIDDEN
  6
DASHED
 10
92.863197604951495
 20
110.1003104346096
 30
0.0
 11
92.863197604951495
 21
104.3503104346096
 31
0.0
  0
TEXT
  5
F1
  8
0
 10
97.187715868384885
 20
100.7092987155802
 30
0.0
 40
1.5
  1
P
  7
CHINESET
  0
LINE
  5
F2
  8
HIDDEN
  6
DASHED
 10
97.413197604951435
 20
110.902555522347
 30
0.0
 11
97.863197604951495
 21
110.1003104346096
 31
0.0
  0
LINE
  5
F3
  8
HIDDEN
  6
DASHED
 10
92.863197604951495
 20
110.1003104346096
 30
0.0
 11
97.863197604951495
 21
110.1003104346096
 31
0.0
  0
LINE
  5
F4
  8
CENTER
  6
CENTER
 10
89.863197604951495
 20
109.6003104346096
 30
0.0
 11
89.863197604951495
 21
110.45031043460951
 31
0.0
  0
LINE
  5
F5
  8
HIDDEN
  6
DASHED
 10
97.413197604951435
 20
111.6003104346096
 30
0.0
 11
97.413197604951435
 21
104.8003104346096
 31
0.0
  0
LINE
  5
F6
  8
HIDDEN
  6
DASHED
 10
93.313197604951426
 20
111.6003104346096
 30
0.0
 11
93.313197604951426
 21
104.8003104346096
 31
0.0
  0
LINE
  5
F7
  8
HIDDEN
  6
DASHED
 10
93.313197604951426
 20
104.8003104346096
 30
0.0
 11
97.413197604951435
 21
104.8003104346096
 31
0.0
  0
LINE
  5
F8
  8
CENTER
  6
CENTER
 10
89.863197604951495
 20
106.6003104346096
 30
0.0
 11
89.863197604951495
 21
105.7503104346096
 31
0.0
  0
LINE
  5
F9
  8
CENTER
  6
CENTER
 10
91.363197604951495
 20
108.1003104346096
 30
0.0
 11
92.213197604951475
 21
108.1003104346096
 31
0.0
  0
LINE
  5
FA
  8
CENTER
  6
CENTER
 10
89.863197604951495
 20
107.3503104346096
 30
0.0
 11
89.863197604951495
 21
108.8503104346096
 31
0.0
  0
LINE
  5
FB
  8
HIDDEN
  6
DASHED
 10
93.313197604951426
 20
111.6003104346096
 30
0.0
 11
97.413197604951435
 21
111.6003104346096
 31
0.0
  0
LINE
  5
FC
  8
HIDDEN
  6
DASHED
 10
92.863197604951495
 20
110.1003104346096
 30
0.0
 11
93.313197604951426
 21
110.902555522347
 31
0.0
  0
LINE
  5
FD
  8
HIDDEN
  6
DASHED
 10
96.763197604951472
 20
112.6066612672992
 30
0.0
 11
96.763197604951472
 21
111.6003104346096
 31
0.0
  0
LINE
  5
FE
  8
HIDDEN
  6
DASHED
 10
93.963197604951404
 20
112.6066612672992
 30
0.0
 11
93.963197604951404
 21
111.6003104346096
 31
0.0
  0
LINE
  5
FF
  8
CENTER
  6
CENTER
 10
100.86319760495149
 20
109.6003104346096
 30
0.0
 11
100.86319760495149
 21
110.45031043460951
 31
0.0
  0
LINE
  5
100
  8
HIDDEN
  6
DASHED
 10
104.1131976049514
 20
111.6003104346096
 30
0.0
 11
104.1131976049514
 21
104.8003104346096
 31
0.0
  0
LINE
  5
101
  8
CENTER
  6
CENTER
 10
100.1131976049514
 20
108.1003104346096
 30
0.0
 11
101.6131976049514
 21
108.1003104346096
 31
0.0
  0
CIRCLE
  5
102
  8
0
 10
100.86319760495149
 20
108.1003104346096
 30
0.0
 40
1.6000000000000001
  0
LINE
  5
103
  8
CENTER
  6
CENTER
 10
100.86319760495149
 20
106.6003104346096
 30
0.0
 11
100.86319760495149
 21
105.7503104346096
 31
0.0
  0
LINE
  5
104
  8
CENTER
  6
CENTER
 10
99.363197604951495
 20
108.1003104346096
 30
0.0
 11
98.513197604951472
 21
108.1003104346096
 31
0.0
  0
LINE
  5
105
  8
CENTER
  6
CENTER
 10
100.86319760495149
 20
107.3503104346096
 30
0.0
 11
100.86319760495149
 21
108.8503104346096
 31
0.0
  0
LINE
  5
106
  8
CENTER
  6
CENTER
 10
102.3631976049514
 20
108.1003104346096
 30
0.0
 11
103.2131976049515
 21
108.1003104346096
 31
0.0
  0
LINE
  5
107
  8
HIDDEN
  6
DASHED
 10
104.7631976049514
 20
112.6066612672992
 30
0.0
 11
104.7631976049514
 21
111.6003104346096
 31
0.0
  0
LINE
  5
108
  8
HIDDEN
  6
DASHED
 10
103.66319760495141
 20
110.1003104346096
 30
0.0
 11
104.1131976049514
 21
110.902555522347
 31
0.0
  0
TEXT
  5
109
  8
0
 10
88.850765891910726
 20
129.85190651835131
 30
0.0
 40
1.5
  1
A
  7
CHINESET
  0
LINE
  5
10A
  8
HIDDEN
  6
DASHED
 10
87.363197604951438
 20
122.1003104346096
 30
0.0
 11
92.363197604951438
 21
122.1003104346096
 31
0.0
  0
LINE
  5
10B
  8
HIDDEN
  6
DASHED
 10
87.813197604951483
 20
120.6003104346096
 30
0.0
 11
91.913197604951449
 21
120.6003104346096
 31
0.0
  0
LINE
  5
10C
  8
HIDDEN
  6
DASHED
 10
87.813197604951483
 20
127.40031043460959
 30
0.0
 11
91.913197604951449
 21
127.40031043460959
 31
0.0
  0
LINE
  5
10D
  8
HIDDEN
  6
DASHED
 10
87.363197604951438
 20
122.1003104346096
 30
0.0
 11
87.363197604951495
 21
127.8503104346096
 31
0.0
  0
LINE
  5
10E
  8
HIDDEN
  6
DASHED
 10
87.813197604951483
 20
120.6003104346096
 30
0.0
 11
87.813197604951483
 21
127.40031043460959
 31
0.0
  0
LINE
  5
10F
  8
HIDDEN
  6
DASHED
 10
88.463197604951475
 20
119.59395960192001
 30
0.0
 11
88.463197604951475
 21
120.6003104346096
 31
0.0
  0
LINE
  5
110
  8
HIDDEN
  6
DASHED
 10
87.363197604951438
 20
122.1003104346096
 30
0.0
 11
87.813197604951483
 21
121.29806534687209
 31
0.0
  0
LINE
  5
111
  8
HIDDEN
  6
DASHED
 10
87.813197604951483
 20
127.40031043460959
 30
0.0
 11
87.113197604951495
 21
128.10031043460961
 31
0.0
  0
LINE
  5
112
  8
HIDDEN
  6
DASHED
 10
98.363197604951424
 20
122.1003104346096
 30
0.0
 11
98.363197604951424
 21
127.8503104346096
 31
0.0
  0
LINE
  5
113
  8
HIDDEN
  6
DASHED
 10
98.813197604951426
 20
120.6003104346096
 30
0.0
 11
98.813197604951426
 21
127.40031043460959
 31
0.0
  0
LINE
  5
114
  8
HIDDEN
  6
DASHED
 10
103.3631976049514
 20
122.1003104346096
 30
0.0
 11
103.3631976049514
 21
127.8503104346097
 31
0.0
  0
LINE
  5
115
  8
HIDDEN
  6
DASHED
 10
102.91319760495141
 20
120.6003104346096
 30
0.0
 11
102.91319760495141
 21
127.40031043460959
 31
0.0
  0
LINE
  5
116
  8
CENTER
  6
CENTER
 10
100.8631976049514
 20
120.0479942299161
 30
0.0
 11
100.8631976049514
 21
129.14469053462921
 31
0.0
  0
LINE
  5
117
  8
HIDDEN
  6
DASHED
 10
92.363197604951438
 20
122.1003104346096
 30
0.0
 11
92.363197604951495
 21
127.8503104346097
 31
0.0
  0
LINE
  5
118
  8
HIDDEN
  6
DASHED
 10
91.913197604951449
 20
120.6003104346096
 30
0.0
 11
91.913197604951449
 21
127.40031043460959
 31
0.0
  0
LINE
  5
119
  8
CENTER
  6
CENTER
 10
89.863197604951381
 20
120.0479942299161
 30
0.0
 11
89.863197604951438
 21
129.14469053462921
 31
0.0
  0
LINE
  5
11A
  8
HIDDEN
  6
DASHED
 10
91.263197604951486
 20
119.59395960192001
 30
0.0
 11
91.263197604951486
 21
120.6003104346096
 31
0.0
  0
LINE
  5
11B
  8
HIDDEN
  6
DASHED
 10
91.913197604951378
 20
121.29806534687209
 30
0.0
 11
92.363197604951438
 21
122.1003104346096
 31
0.0
  0
LINE
  5
11C
  8
HIDDEN
  6
DASHED
 10
99.463197604951461
 20
119.59395960192001
 30
0.0
 11
99.463197604951404
 21
120.6003104346096
 31
0.0
  0
LINE
  5
11D
  8
HIDDEN
  6
DASHED
 10
102.2631976049514
 20
119.59395960192001
 30
0.0
 11
102.2631976049514
 21
120.6003104346096
 31
0.0
  0
LINE
  5
11E
  8
HIDDEN
  6
DASHED
 10
98.363197604951424
 20
122.1003104346096
 30
0.0
 11
103.3631976049514
 21
122.1003104346096
 31
0.0
  0
LINE
  5
11F
  8
HIDDEN
  6
DASHED
 10
98.813197604951426
 20
120.6003104346096
 30
0.0
 11
102.91319760495141
 21
120.6003104346096
 31
0.0
  0
LINE
  5
120
  8
HIDDEN
  6
DASHED
 10
98.363197604951424
 20
122.1003104346096
 30
0.0
 11
98.813197604951426
 21
121.29806534687209
 31
0.0
  0
LINE
  5
121
  8
HIDDEN
  6
DASHED
 10
102.91319760495131
 20
121.29806534687209
 30
0.0
 11
103.3631976049514
 21
122.1003104346096
 31
0.0
  0
LINE
  5
122
  8
HIDDEN
  6
DASHED
 10
91.913197604951449
 20
127.40031043460959
 30
0.0
 11
92.613197604951395
 21
128.10031043460961
 31
0.0
  0
TEXT
  5
123
  8
0
 10
100.4682077214482
 20
129.8519068832687
 30
0.0
 40
1.5
  1
B
  7
CHINESET
  0
LINE
  5
124
  8
HIDDEN
  6
DASHED
 10
98.813197604951426
 20
127.40031043460959
 30
0.0
 11
102.91319760495141
 21
127.40031043460959
 31
0.0
  0
LINE
  5
125
  8
HIDDEN
  6
DASHED
 10
98.813197604951426
 20
127.40031043460959
 30
0.0
 11
98.113197604951452
 21
128.10031043460961
 31
0.0
  0
LINE
  5
126
  8
HIDDEN
  6
DASHED
 10
102.91319760495141
 20
127.40031043460959
 30
0.0
 11
103.6131976049514
 21
128.10031043460961
 31
0.0
  0
LINE
  5
127
  8
HIDDEN
  6
DASHED
 10
122.3631976049514
 20
113.6003104346096
 30
0.0
 11
122.3631976049514
 21
118.6003104346096
 31
0.0
  0
LINE
  5
128
  8
HIDDEN
  6
DASHED
 10
120.8631976049514
 20
114.0503104346096
 30
0.0
 11
120.8631976049514
 21
118.15031043460949
 31
0.0
  0
LINE
  5
129
  8
HIDDEN
  6
DASHED
 10
127.66319760495141
 20
114.0503104346096
 30
0.0
 11
127.66319760495141
 21
118.15031043460949
 31
0.0
  0
LINE
  5
12A
  8
0
 10
128.36319760495141
 20
128.10031043460961
 30
0.0
 11
128.36319760495141
 21
104.1003104346096
 31
0.0
  0
LINE
  5
12B
  8
0
 10
113.3631976049513
 20
128.10031043460961
 30
0.0
 11
113.3631976049513
 21
104.1003104346096
 31
0.0
  0
LINE
  5
12C
  8
HIDDEN
  6
DASHED
 10
118.5631976049514
 20
114.70031043460961
 30
0.0
 11
120.8631976049514
 21
114.70031043460951
 31
0.0
  0
LINE
  5
12D
  8
HIDDEN
  6
DASHED
 10
108.2131976049514
 20
104.8003104346096
 30
0.0
 11
108.91319760495141
 21
104.1003104346095
 31
0.0
  0
LINE
  5
12E
  8
HIDDEN
  6
DASHED
 10
108.66319760495141
 20
110.1003104346096
 30
0.0
 11
108.66319760495141
 21
104.3503104346095
 31
0.0
  0
LINE
  5
12F
  8
CENTER
  6
CENTER
 10
106.16319760495141
 20
112.15262663930299
 30
0.0
 11
106.16319760495141
 21
103.05593033459
 31
0.0
  0
LINE
  5
130
  8
HIDDEN
  6
DASHED
 10
108.2131976049514
 20
111.6003104346096
 30
0.0
 11
108.2131976049514
 21
104.8003104346096
 31
0.0
  0
LINE
  5
131
  8
HIDDEN
  6
DASHED
 10
107.5631976049514
 20
112.6066612672992
 30
0.0
 11
107.5631976049514
 21
111.6003104346096
 31
0.0
  0
LINE
  5
132
  8
HIDDEN
  6
DASHED
 10
108.2131976049514
 20
110.902555522347
 30
0.0
 11
108.66319760495141
 21
110.1003104346096
 31
0.0
  0
LINE
  5
133
  8
HIDDEN
  6
DASHED
 10
122.3631976049514
 20
113.6003104346096
 30
0.0
 11
128.11319760495141
 21
113.6003104346096
 31
0.0
  0
LINE
  5
134
  8
HIDDEN
  6
DASHED
 10
120.8631976049514
 20
114.0503104346096
 30
0.0
 11
127.66319760495141
 21
114.0503104346096
 31
0.0
  0
LINE
  5
135
  8
HIDDEN
  6
DASHED
 10
122.3631976049514
 20
113.6003104346096
 30
0.0
 11
121.56095251721391
 21
114.0503104346096
 31
0.0
  0
LINE
  5
136
  8
HIDDEN
  6
DASHED
 10
127.66319760495141
 20
114.0503104346096
 30
0.0
 11
128.36319760495141
 21
113.3503104346096
 31
0.0
  0
LINE
  5
137
  8
HIDDEN
  6
DASHED
 10
118.5631976049514
 20
117.5003104346096
 30
0.0
 11
120.8631976049514
 21
117.5003104346096
 31
0.0
  0
LINE
  5
138
  8
HIDDEN
  6
DASHED
 10
122.3631976049514
 20
118.6003104346096
 30
0.0
 11
128.11319760495149
 21
118.6003104346096
 31
0.0
  0
LINE
  5
139
  8
HIDDEN
  6
DASHED
 10
120.8631976049514
 20
118.15031043460949
 30
0.0
 11
127.66319760495141
 21
118.15031043460959
 31
0.0
  0
LINE
  5
13A
  8
HIDDEN
  6
DASHED
 10
121.56095251721391
 20
118.15031043460949
 30
0.0
 11
122.3631976049514
 21
118.6003104346096
 31
0.0
  0
LINE
  5
13B
  8
HIDDEN
  6
DASHED
 10
127.66319760495141
 20
118.15031043460959
 30
0.0
 11
128.36319760495141
 21
118.8503104346095
 31
0.0
  0
TEXT
  5
13C
  8
0
 10
55.741475862209768
 20
199.56045945838719
 30
0.0
 40
5.0
  1
MVAA-150-4A1  安裝尺寸圖
  7
CHINESET
  0
TEXT
  5
13D
  8
DIM
 10
57.71803867999656
 20
140.3713484095608
 30
0.0
 40
3.0
  1
5-M5*0.8
  7
CHINESET
  0
DIMENSION
  5
13E
  8
DIM
  2
*D12
 10
60.731220690762591
 20
163.1492798851888
 30
0.0
 11
57.608588298139011
 21
160.14927988518869
 31
0.0
 70
   128
 13
86.613197604951438
 23
157.14927988518869
 33
0.0
 14
97.613197604951438
 24
163.14927988518869
 34
0.0
 50
90.0
1001
ACAD
1000
DSTYLE
1002
{
1070
    42
1040
1.0
1070
    44
1040
1.0
1002
}
  0
DIMENSION
  5
14D
  8
DIM
  2
*D14
 10
54.039865405419853
 20
165.6492798851888
 30
0.0
 11
51.140277154798007
 21
160.14927988518869
 31
0.0
 70
   128
 13
101.3131976049514
 23
154.64927988518869
 33
0.0
 14
82.313197604951426
 24
165.64927988518869
 34
0.0
 50
90.0
1001
ACAD
1000
DSTYLE
1002
{
1002
}
  0
LINE
  5
15A
  8
CENTER
  6
CENTER
 10
65.815220376014153
 20
160.14927988518869
 30
0.0
 11
131.84886805953261
 21
160.14927988518869
 31
0.0
  0
LINE
  5
15B
  8
0
 10
69.863197604951438
 20
167.64927988518869
 30
0.0
 11
128.36319760495141
 21
167.64927988518869
 31
0.0
  0
LINE
  5
15C
  8
0
 10
69.363197604951495
 20
152.64927988518869
 30
0.0
 11
128.36319760495141
 21
152.64927988518869
 31
0.0
  0
DIMENSION
  5
15E
  8
DIM
  2
*D13
 10
47.794599512126638
 20
167.6492798851888
 30
0.0
 11
45.294599512126602
 21
160.1492798851888
 31
0.0
 70
     0
 13
69.363197604951495
 23
152.64927988518869
 33
0.0
 14
69.863197604951438
 24
167.64927988518869
 34
0.0
 50
90.0
1001
ACAD
1000
DSTYLE
1002
{
1002
}
  0
LINE
  5
16B
  8
0
 10
69.363197604951438
 20
167.14927988518869
 30
0.0
 11
69.363197604951495
 21
152.64927988518869
 31
0.0
  0
ARC
  5
16C
  8
0
 10
71.426447905191253
 20
164.39927988518869
 30
0.0
 40
1.5
 50
218.68218745347579
 51
270.0
  0
LINE
  5
16D
  8
0
 10
71.363197604951438
 20
167.39927988518869
 30
0.0
 11
71.363197604951438
 21
162.89927988518869
 31
0.0
  0
LINE
  5
16E
  8
0
 10
72.363197604951438
 20
167.14927988518869
 30
0.0
 11
72.363197604951438
 21
163.14927988518869
 31
0.0
  0
LINE
  5
16F
  8
0
 10
69.863197604951438
 20
162.64927988518869
 30
0.0
 11
71.863197604951438
 21
162.64927988518869
 31
0.0
  0
ARC
  5
170
  8
0
 10
69.863197604951438
 20
162.14927988518869
 30
0.0
 40
0.5
 50
90.0
 51
180.0
  0
LINE
  5
171
  8
0
 10
71.426447905191253
 20
162.89927988518869
 30
0.0
 11
72.296210306843648
 21
162.89927988518869
 31
0.0
  0
ARC
  5
172
  8
0
 10
71.863197604951438
 20
163.14927988518869
 30
0.0
 40
0.5
 50
269.99999999999972
 51
0.0000000000000509
  0
LINE
  5
173
  8
0
 10
69.692991620387716
 20
164.74927988518871
 30
0.0
 11
70.663197604951449
 21
164.74927988518871
 31
0.0
  0
LINE
  5
174
  8
0
 10
69.692991620387716
 20
165.5492798851887
 30
0.0
 11
70.663197604951449
 21
165.54927988518881
 31
0.0
  0
ARC
  5
175
  8
0
 10
71.426447905191253
 20
165.89927988518869
 30
0.0
 40
1.5
 50
89.999999999999446
 51
141.31781254652401
  0
LINE
  5
176
  8
CENTER
  6
CENTER
 10
68.133112099332664
 20
165.14927988518869
 30
0.0
 11
73.75074288805115
 21
165.14927988518869
 31
0.0
  0
ARC
  5
177
  8
0
 10
72.363197604951438
 20
165.14927988518869
 30
0.0
 40
2.7000000000000002
 50
188.51962425414311
 51
218.68218745347579
  0
ARC
  5
178
  8
0
 10
72.363197604951438
 20
165.14927988518869
 30
0.0
 40
2.7000000000000002
 50
141.31781254652401
 51
171.4803757458568
  0
ARC
  5
179
  8
0
 10
69.863197604951438
 20
167.14927988518869
 30
0.0
 40
0.5
 50
89.999999999999915
 51
180.0
  0
LINE
  5
17A
  8
0
 10
70.663197604951449
 20
165.54927988518881
 30
0.0
 11
70.663197604951449
 21
164.74927988518871
 31
0.0
  0
LINE
  5
17B
  8
0
 10
71.426447905191253
 20
167.39927988518869
 30
0.0
 11
72.430184903059228
 21
167.39927988518869
 31
0.0
  0
ARC
  5
17C
  8
0
 10
72.863197604951424
 20
167.14927988518869
 30
0.0
 40
0.5
 50
89.999999999999943
 51
180.0
  0
TEXT
  5
185
  8
0
 10
131.33564152173881
 20
193.85912930693641
 30
0.0
 40
3.0
  1
S=1:1
  7
CHINESET
  0
DIMENSION
  5
186
  8
DIM
  2
*D15
 10
104.8631976049514
 20
179.43469820869751
 30
0.0
 11
95.363197604951438
 21
181.93469820869751
 31
0.0
 70
     0
 13
85.863197604951424
 23
169.1992798851887
 33
0.0
 14
104.8631976049514
 24
158.1992798851887
 34
0.0
1001
ACAD
1000
DSTYLE
1002
{
1002
}
  0
LINE
  5
193
  8
CENTER
  6
CENTER
 10
104.1131976049514
 20
154.64927988518869
 30
0.0
 11
105.6131976049514
 21
154.64927988518869
 31
0.0
  0
ARC
  5
194
  8
0
 10
104.8631976049514
 20
154.64927988518869
 30
0.0
 40
2.7999999999999989
 50
0.0
 51
180.0
  0
CIRCLE
  5
195
  8
0
 10
104.8631976049514
 20
154.64927988518869
 30
0.0
 40
1.3
  0
LINE
  5
196
  8
CENTER
  6
CENTER
 10
89.863197604951438
 20
156.39927988518869
 30
0.0
 11
89.863197604951438
 21
157.89927988518869
 31
0.0
  0
LINE
  5
197
  8
CENTER
  6
CENTER
 10
104.8631976049514
 20
156.14927988518869
 30
0.0
 11
104.8631976049514
 21
158.1992798851887
 31
0.0
  0
CIRCLE
  5
198
  8
0
 10
89.863197604951438
 20
157.14927988518869
 30
0.0
 40
2.0499999999999989
  0
CIRCLE
  5
199
  8
0
 10
89.863197604951438
 20
157.14927988518869
 30
0.0
 40
2.5
  0
LINE
  5
19A
  8
0
 10
77.363197604951438
 20
152.64927988518869
 30
0.0
 11
77.363197604951495
 21
167.64927988518869
 31
0.0
  0
LINE
  5
19B
  8
CENTER
  6
CENTER
 10
89.113197604951438
 20
157.14927988518869
 30
0.0
 11
90.613197604951424
 21
157.14927988518869
 31
0.0
  0
SOLID
  5
19C
  8
0
  6
CONTINUOUS
 62
     5
 10
-87.695844645868817
 20
153.10963624042199
 30
0.0
 11
-88.877908297127377
 21
155.35158553411361
 31
0.0
 12
-88.48685866821522
 22
152.84745069372681
 32
0.0
 13
-88.48685866821522
 23
152.84745069372681
 33
0.0
210
0.0
220
0.0
230
-1.0
  0
POLYLINE
  5
235
  8
DIM
 66
     1
 10
0.0
 20
0.0
 30
0.0
 70
     8
1001
ACAD
1000
R13OBJECT
1002
{
1005
19C
1002
}
  0
VERTEX
  5
236
  8
DIM
 10
88.091351657042026
 20
152.97854346707439
 30
0.0
 70
    32
1001
ACAD
1000
R13OBJECT
1002
{
1005
19C
1002
}
  0
VERTEX
  5
237
  8
DIM
 10
84.362226270169117
 20
141.72776893244841
 30
0.0
 70
    32
1001
ACAD
1000
R13OBJECT
1002
{
1005
19C
1002
}
  0
SEQEND
  5
238
  8
DIM
  0
POLYLINE
  5
239
  8
DIM
 66
     1
 10
0.0
 20
0.0
 30
0.0
 70
     8
1001
ACAD
1000
R13OBJECT
1002
{
1005
19C
1002
}
  0
VERTEX
  5
23A
  8
DIM
 10
84.362226270169117
 20
141.72776893244841
 30
0.0
 70
    32
1001
ACAD
1000
R13OBJECT
1002
{
1005
19C
1002
}
  0
VERTEX
  5
23B
  8
DIM
 10
80.862226270169117
 20
141.72776893244841
 30
0.0
 70
    32
1001
ACAD
1000
R13OBJECT
1002
{
1005
19C
1002
}
  0
SEQEND
  5
23C
  8
DIM
  0
LINE
  5
19D
  8
CENTER
  6
CENTER
 10
88.363197604951424
 20
157.14927988518869
 30
0.0
 11
86.613197604951438
 21
157.14927988518869
 31
0.0
  0
LINE
  5
19E
  8
CENTER
  6
CENTER
 10
89.863197604951438
 20
155.64927988518869
 30
0.0
 11
89.863197604951438
 21
153.89927988518869
 31
0.0
  0
LINE
  5
19F
  8
CENTER
  6
CENTER
 10
91.363197604951438
 20
157.14927988518869
 30
0.0
 11
93.113197604951424
 21
157.14927988518869
 31
0.0
  0
LINE
  5
1A0
  8
CENTER
  6
CENTER
 10
104.8631976049514
 20
153.14927988518869
 30
0.0
 11
104.8631976049514
 21
151.09927988518871
 31
0.0
  0
LINE
  5
1A1
  8
CENTER
  6
CENTER
 10
103.3631976049514
 20
154.64927988518869
 30
0.0
 11
101.3131976049514
 21
154.64927988518869
 31
0.0
  0
LINE
  5
1A2
  8
CENTER
  6
CENTER
 10
104.8631976049514
 20
153.89927988518869
 30
0.0
 11
104.8631976049514
 21
155.39927988518869
 31
0.0
  0
LINE
  5
1A3
  8
0
 10
102.0631976049514
 20
152.64927988518869
 30
0.0
 11
102.0631976049514
 21
154.64927988518869
 31
0.0
  0
LINE
  5
1A4
  8
CENTER
  6
CENTER
 10
85.863197604951424
 20
167.14927988518869
 30
0.0
 11
85.863197604951424
 21
169.1992798851887
 31
0.0
  0
LINE
  5
1A5
  8
CENTER
  6
CENTER
 10
85.863197604951424
 20
164.14927988518869
 30
0.0
 11
85.863197604951424
 21
162.09927988518871
 31
0.0
  0
ARC
  5
1A6
  8
0
 10
85.863197604951424
 20
165.64927988518869
 30
0.0
 40
2.7999999999999989
 50
180.0
 51
0.0
  0
LINE
  5
1A7
  8
CENTER
  6
CENTER
 10
85.113197604951438
 20
165.64927988518869
 30
0.0
 11
86.613197604951438
 21
165.64927988518869
 31
0.0
  0
CIRCLE
  5
1A8
  8
0
 10
85.863197604951424
 20
165.64927988518869
 30
0.0
 40
1.3
  0
LINE
  5
1A9
  8
CENTER
  6
CENTER
 10
84.363197604951424
 20
165.64927988518869
 30
0.0
 11
82.313197604951426
 21
165.64927988518869
 31
0.0
  0
LINE
  5
1AA
  8
0
 10
83.063197604951426
 20
165.64927988518869
 30
0.0
 11
83.063197604951426
 21
167.64927988518869
 31
0.0
  0
LINE
  5
1AB
  8
CENTER
  6
CENTER
 10
87.363197604951438
 20
165.64927988518869
 30
0.0
 11
89.413197604951449
 21
165.64927988518869
 31
0.0
  0
LINE
  5
1AC
  8
CENTER
  6
CENTER
 10
85.863197604951424
 20
164.89927988518869
 30
0.0
 11
85.863197604951424
 21
166.39927988518869
 31
0.0
  0
LINE
  5
1AD
  8
0
 10
88.663197604951435
 20
165.64927988518869
 30
0.0
 11
88.663197604951435
 21
167.64927988518869
 31
0.0
  0
DIMENSION
  5
1AE
  8
DIM
  2
*D16
 10
100.8631976049514
 20
171.02213523572769
 30
0.0
 11
95.363197604951438
 21
174.31018364566179
 31
0.0
 70
   128
 13
89.863197604951438
 23
160.39927988518869
 33
0.0
 14
100.8631976049514
 24
166.39927988518869
 34
0.0
1001
ACAD
1000
DSTYLE
1002
{
1002
}
  0
LINE
  5
1BB
  8
CENTER
  6
CENTER
 10
89.863197604951438
 20
158.64927988518869
 30
0.0
 11
89.863197604951438
 21
160.39927988518869
 31
0.0
  0
LINE
  5
1BC
  8
CENTER
  6
CENTER
 10
100.8631976049514
 20
162.39927988518869
 30
0.0
 11
100.8631976049514
 21
163.89927988518869
 31
0.0
  0
CIRCLE
  5
1BD
  8
0
 10
100.8631976049514
 20
163.14927988518869
 30
0.0
 40
2.0499999999999989
  0
CIRCLE
  5
1BE
  8
0
 10
100.8631976049514
 20
163.14927988518869
 30
0.0
 40
2.5
  0
LINE
  5
1BF
  8
CENTER
  6
CENTER
 10
100.1131976049514
 20
163.14927988518869
 30
0.0
 11
101.6131976049514
 21
163.14927988518869
 31
0.0
  0
LINE
  5
1C0
  8
CENTER
  6
CENTER
 10
100.8631976049514
 20
161.64927988518869
 30
0.0
 11
100.8631976049514
 21
159.89927988518869
 31
0.0
  0
LINE
  5
1C1
  8
CENTER
  6
CENTER
 10
99.363197604951452
 20
163.14927988518869
 30
0.0
 11
97.613197604951438
 21
163.14927988518869
 31
0.0
  0
LINE
  5
1C2
  8
CENTER
  6
CENTER
 10
102.3631976049514
 20
163.14927988518869
 30
0.0
 11
104.1131976049514
 21
163.14927988518869
 31
0.0
  0
LINE
  5
1C3
  8
CENTER
  6
CENTER
 10
100.8631976049514
 20
164.64927988518869
 30
0.0
 11
100.8631976049514
 21
166.39927988518869
 31
0.0
  0
ARC
  5
1C4
  8
0
 10
127.8631976049514
 20
158.14927988518869
 30
0.0
 40
0.5
 50
270.0
 51
0.0000000000000509
  0
LINE
  5
1C5
  8
0
 10
113.3631976049514
 20
152.64927988518869
 30
0.0
 11
113.36319760495149
 21
167.64927988518869
 31
0.0
  0
LINE
  5
1C6
  8
0
 10
128.36319760495141
 20
167.64927988518869
 30
0.0
 11
128.36319760495141
 21
152.64927988518869
 31
0.0
  0
TEXT
  5
1C7
  8
DIM
 10
112.5098918972453
 20
142.69664091611901
 30
0.0
 40
3.0
  1
2-
  7
CHINESET
  0
TEXT
  5
23D
  8
DIM
 10
119.08132046867389
 20
142.69664091611901
 30
0.0
 40
3.0
  1
%%c
  7
CHINESET
1001
ACAD
1000
R13OBJECT
1002
{
1005
1C7
1002
}
  0
TEXT
  5
23E
  8
DIM
 10
121.7956061829596
 20
142.69664091611901
 30
0.0
 40
3.0
  1
2.6
  7
CHINESET
1001
ACAD
1000
R13OBJECT
1002
{
1005
1C7
1002
}
  0
SOLID
  5
1C8
  8
0
  6
CONTINUOUS
 62
     5
 10
-105.8920102383438
 20
151.05008495873821
 30
0.0
 11
-105.580996571754
 21
153.5654142831618
 31
0.0
 12
-106.6909811723953
 22
151.2869180032767
 32
0.0
 13
-106.6909811723953
 23
151.2869180032767
 33
0.0
210
0.0
220
0.0
230
-1.0
  0
POLYLINE
  5
23F
  8
DIM
 66
     1
 10
0.0
 20
0.0
 30
0.0
 70
     8
1001
ACAD
1000
R13OBJECT
1002
{
1005
1C8
1002
}
  0
VERTEX
  5
240
  8
DIM
 10
106.2914957053695
 20
151.16850148100741
 30
0.0
 70
    32
1001
ACAD
1000
R13OBJECT
1002
{
1005
1C8
1002
}
  0
VERTEX
  5
241
  8
DIM
 10
108.45811185407879
 20
143.85928780502579
 30
0.0
 70
    32
1001
ACAD
1000
R13OBJECT
1002
{
1005
1C8
1002
}
  0
SEQEND
  5
242
  8
DIM
  0
POLYLINE
  5
243
  8
DIM
 66
     1
 10
0.0
 20
0.0
 30
0.0
 70
     8
1001
ACAD
1000
R13OBJECT
1002
{
1005
1C8
1002
}
  0
VERTEX
  5
244
  8
DIM
 10
108.45811185407879
 20
143.85928780502579
 30
0.0
 70
    32
1001
ACAD
1000
R13OBJECT
1002
{
1005
1C8
1002
}
  0
VERTEX
  5
245
  8
DIM
 10
111.95811185407879
 20
143.85928780502579
 30
0.0
 70
    32
1001
ACAD
1000
R13OBJECT
1002
{
1005
1C8
1002
}
  0
SEQEND
  5
246
  8
DIM
  0
LINE
  5
1C9
  8
CENTER
  6
CENTER
 10
106.3631976049514
 20
154.64927988518869
 30
0.0
 11
108.41319760495141
 21
154.64927988518869
 31
0.0
  0
LINE
  5
1CA
  8
0
 10
107.66319760495141
 20
152.64927988518869
 30
0.0
 11
107.66319760495141
 21
154.64927988518869
 31
0.0
  0
LINE
  5
1CB
  8
CENTER
  6
CENTER
 10
129.59328311057021
 20
155.14927988518869
 30
0.0
 11
123.9756523218517
 21
155.14927988518869
 31
0.0
  0
ARC
  5
1CC
  8
0
 10
124.8631976049514
 20
153.14927988518869
 30
0.0
 40
0.5
 50
269.99999999999989
 51
0.0000000000000509
  0
LINE
  5
1CD
  8
0
 10
125.3631976049514
 20
153.14927988518869
 30
0.0
 11
125.3631976049514
 21
157.14927988518869
 31
0.0
  0
ARC
  5
1CE
  8
0
 10
125.8631976049514
 20
157.14927988518869
 30
0.0
 40
0.5
 50
89.999999999999687
 51
180.0
  0
ARC
  5
1CF
  8
0
 10
126.29994730471159
 20
154.39927988518869
 30
0.0
 40
1.5
 50
269.99999999999937
 51
321.31781254652401
  0
LINE
  5
1D0
  8
0
 10
127.0631976049514
 20
154.74927988518871
 30
0.0
 11
127.0631976049514
 21
155.5492798851887
 31
0.0
  0
LINE
  5
1D1
  8
0
 10
128.0334035895151
 20
154.74927988518871
 30
0.0
 11
127.0631976049514
 21
154.74927988518871
 31
0.0
  0
LINE
  5
1D2
  8
0
 10
128.0334035895151
 20
155.5492798851887
 30
0.0
 11
127.0631976049514
 21
155.5492798851887
 31
0.0
  0
ARC
  5
1D3
  8
0
 10
125.3631976049514
 20
155.14927988518869
 30
0.0
 40
2.7000000000000002
 50
8.5196242541431815
 51
38.682187453475912
  0
ARC
  5
1D4
  8
0
 10
125.3631976049514
 20
155.14927988518869
 30
0.0
 40
2.7000000000000002
 50
321.31781254652401
 51
351.48037574585669
  0
LINE
  5
1D5
  8
0
 10
126.3631976049514
 20
152.89927988518869
 30
0.0
 11
126.3631976049514
 21
157.39927988518869
 31
0.0
  0
ARC
  5
1D6
  8
0
 10
126.29994730471159
 20
155.89927988518869
 30
0.0
 40
1.5
 50
38.682187453475912
 51
90.0
  0
LINE
  5
1D7
  8
0
 10
127.8631976049514
 20
157.64927988518869
 30
0.0
 11
125.8631976049514
 21
157.64927988518869
 31
0.0
  0
LINE
  5
1D8
  8
0
 10
126.29994730471159
 20
157.39927988518869
 30
0.0
 11
125.4301849030592
 21
157.39927988518869
 31
0.0
  0
LINE
  5
1D9
  8
0
 10
126.29994730471159
 20
152.89927988518869
 30
0.0
 11
125.29621030684361
 21
152.89927988518869
 31
0.0
  0
POLYLINE
  5
2BB
  8
0
 62
     4
 66
     1
 10
0.0
 20
0.0
 30
0.0
 70
     1
  0
VERTEX
  5
596
  8
0
 62
     4
 10
36.291619409991647
 20
213.99420554393259
 30
0.0
  0
VERTEX
  5
597
  8
0
 62
     4
 10
162.83843486858311
 20
213.99420554393259
 30
0.0
  0
VERTEX
  5
598
  8
0
 62
     4
 10
162.83843486858311
 20
30.772393206530289
 30
0.0
  0
VERTEX
  5
599
  8
0
 62
     4
 10
36.291619409991647
 20
30.772393206530289
 30
0.0
  0
SEQEND
  5
59A
  8
0
 62
     4
  0
TEXT
  5
51B
  8
LOGO
 62
     6
 10
67.314322217431581
 20
20.63636187125476
 30
0.0
 40
1.8429147882319139
  1
m/m
  7
CHINESET
 72
     1
 11
70.561362558602085
 21
21.557819265370721
 31
0.0
 73
     2
  0
TEXT
  5
51C
  8
LOGO
 62
     6
 10
67.314322217431581
 20
28.008021024182419
 30
0.0
 40
1.8429147882319139
  1
1 : 1
  7
CHINESET
 72
     1
 11
70.561362558602085
 21
28.92947841829838
 31
0.0
 73
     2
  0
TEXT
  5
51D
  8
LOGO
 62
     6
 10
52.150285103308157
 20
20.63636187125476
 30
0.0
 40
1.8429147882319139
  1
單位 Unit:
 41
0.9
  7
CHINESET
 72
     4
 11
57.177987009953348
 21
21.557819265370721
 31
0.0
  0
TEXT
  5
51E
  8
LOGO
 62
     6
 10
51.325909827500851
 20
28.008927970436471
 30
0.0
 40
1.8429147882319139
  1
比例 Scale:
 41
0.9
  7
CHINESET
 72
     4
 11
57.177987009953348
 21
28.92947841829838
 31
0.0
  0
LINE
  5
51F
  8
LOGO
 62
     1
 10
162.83843486858311
 20
12.343245324211139
 30
0.0
 11
162.83843486858311
 21
30.772393206530289
 31
0.0
  0
LINE
  5
520
  8
LOGO
 62
     1
 10
64.549646162881004
 20
19.714904477138809
 30
0.0
 11
64.549646162881004
 21
30.772393206530289
 31
0.0
  0
LINE
  5
521
  8
LOGO
 62
     1
 10
76.835744751093756
 20
27.086563630066461
 30
0.0
 11
49.806327857025693
 21
27.086563630066461
 31
0.0
  0
LINE
  5
522
  8
LOGO
 62
     1
 10
76.835744751093756
 20
23.40073405360263
 30
0.0
 11
49.806327857025693
 21
23.40073405360263
 31
0.0
  0
LINE
  5
523
  8
LOGO
 62
     1
 10
36.291619409991647
 20
12.343245324211139
 30
0.0
 11
36.291619409991647
 21
30.772393206530289
 31
0.0
  0
LINE
  5
524
  8
LOGO
 62
     1
 10
76.835744751093756
 20
19.71490447713883
 30
0.0
 11
36.29161940999164
 21
19.71490447713883
 31
0.0
  0
TEXT
  5
525
  8
LOGO
 62
     6
 10
51.970107273565837
 20
24.34811499481355
 30
0.0
 40
1.8429147882319139
  1
投影 View:
 41
0.9
  7
CHINESET
 72
     4
 11
57.177987009953348
 21
25.243648841834549
 31
0.0
  0
CIRCLE
  5
526
  8
LOGO
  6
CONTINUOUS
 62
     6
 10
67.962033401430332
 20
25.247590850052681
 30
0.0
 40
1.070039703371793
  0
CIRCLE
  5
527
  8
LOGO
  6
CONTINUOUS
 62
     6
 10
67.962033401430332
 20
25.247590850052681
 30
0.0
 40
0.6269485409203588
  0
LINE
  5
528
  8
LOGO
  6
CONTINUOUS
 62
     6
 10
71.331774012714504
 20
25.874539390973041
 30
0.0
 11
74.686287059575406
 21
26.317630553424479
 31
0.0
  0
LINE
  5
529
  8
LOGO
  6
CONTINUOUS
 62
     6
 10
71.331774012714504
 20
24.620642309132329
 30
0.0
 11
74.686287059575406
 21
24.177551146680891
 31
0.0
  0
LINE
  5
52A
  8
LOGO
 62
     6
 10
71.331774012714547
 20
24.620642309132329
 30
0.0
 11
71.331774012714504
 21
25.874539390973052
 31
0.0
  0
LINE
  5
52B
  8
LOGO
 62
     6
 10
74.686287059575406
 20
24.177551146680891
 30
0.0
 11
74.686287059575406
 21
26.317630553424479
 31
0.0
  0
LINE
  5
52C
  8
LOGO
 62
     6
 10
161.11530304339371
 20
20.636361871254831
 30
0.0
 11
143.5102954987729
 21
20.636361871254831
 31
0.0
  0
LINE
  5
52D
  8
LOGO
 62
     6
 10
148.8292044551809
 20
23.400734053602701
 30
0.0
 11
143.5102954987729
 21
23.400734053602701
 31
0.0
  0
LINE
  5
52E
  8
LOGO
 62
     6
 10
161.11530304339371
 20
13.87900764773781
 30
0.0
 11
143.5102954987729
 21
13.87900764773779
 31
0.0
  0
LINE
  5
52F
  8
LOGO
 62
     6
 10
161.11530304339371
 20
20.636361871254831
 30
0.0
 11
161.11530304339371
 21
13.853527941661991
 31
0.0
  0
TEXT
  5
530
  8
LOGO
 62
     6
 10
107.0986591714038
 20
17.320566366443789
 30
0.0
 40
2.4572197176425532
  1
型式
  7
CHINESET
 72
     4
 11
109.5558788890463
 21
18.48629461831753
 31
0.0
  0
TEXT
  5
531
  8
LOGO
 62
     7
 10
77.903415052819682
 20
22.69889711803452
 30
0.0
 40
2.4572197176425532
  1
Order example:
 41
0.8
  7
CHINESET
  0
LINE
  5
532
  8
LOGO
 62
     6
 10
143.5102954987729
 20
20.636361871254831
 30
0.0
 11
143.5102954987729
 21
13.87900764773779
 31
0.0
  0
LINE
  5
533
  8
LOGO
 62
     6
 10
131.1403741644894
 20
20.63636187125476
 30
0.0
 11
131.1403741644894
 21
13.87900764773776
 31
0.0
  0
LINE
  5
534
  8
LOGO
 62
     6
 10
117.5916307566232
 20
20.63636187125476
 30
0.0
 11
117.5916307566232
 21
13.87900764773774
 31
0.0
  0
LINE
  5
535
  8
LOGO
 62
     6
 10
131.1403741644894
 20
13.87900764773774
 30
0.0
 11
117.5916307566232
 21
13.879007647737721
 31
0.0
  0
LINE
  5
536
  8
LOGO
 62
     6
 10
146.1697499769769
 20
23.400734053602701
 30
0.0
 11
146.1697499769769
 21
22.018547962428769
 31
0.0
  0
TEXT
  5
537
  8
LOGO
 62
     6
 10
145.77045177286001
 20
17.28761398587999
 30
0.0
 40
2.4572197176425532
  1
單動氣壓導引
 41
0.9
  7
CHINESET
 72
     4
 11
152.31279927108329
 21
18.486294618317579
 31
0.0
  0
LINE
  5
538
  8
LOGO
 62
     6
 10
131.1403741644894
 20
20.63636187125476
 30
0.0
 11
117.5916307566232
 21
20.63636187125476
 31
0.0
  0
LINE
  5
539
  8
LOGO
 62
     6
 10
134.8262037409533
 20
23.40073405360263
 30
0.0
 11
121.27746033308701
 21
23.40073405360263
 31
0.0
  0
LINE
  5
53A
  8
LOGO
 62
     6
 10
128.05183203702009
 20
23.40073405360263
 30
0.0
 11
128.05183203702009
 21
22.018547962428691
 31
0.0
  0
TEXT
  5
53B
  8
LOGO
 62
     6
 10
119.4515630252712
 20
17.300915864272689
 30
0.0
 40
2.4572197176425532
  1
本體寬幅
  7
CHINESET
 72
     4
 11
124.3660024605563
 21
18.48629461831753
 31
0.0
  0
LINE
  5
53C
  8
LOGO
 62
     6
 10
109.5558788890463
 20
23.40073405360263
 30
0.0
 11
109.5558788890463
 21
20.63636187125476
 31
0.0
  0
LINE
  5
53D
  8
LOGO
 62
     6
 10
103.41282959494001
 20
20.63636187125476
 30
0.0
 11
103.41282959494001
 21
13.879007647737721
 31
0.0
  0
TEXT
  5
53E
  8
LOGO
 62
     7
 10
78.344260590545034
 20
26.158153706640761
 30
0.0
 40
3.6858295764638291
  1
訂購代號:
  7
CHINESET
  0
LINE
  5
53F
  8
LOGO
 62
     6
 10
148.8292044551809
 20
28.929478418298451
 30
0.0
 11
143.5102954987729
 21
28.929478418298451
 31
0.0
  0
LINE
  5
540
  8
LOGO
 62
     6
 10
134.8262037409533
 20
28.929478418298409
 30
0.0
 11
121.27746033308701
 21
28.92947841829838
 31
0.0
  0
LINE
  5
541
  8
LOGO
 62
     6
 10
102.18421973611871
 20
28.92947841829838
 30
0.0
 11
102.18421973611871
 21
23.40073405360263
 31
0.0
  0
LINE
  5
542
  8
LOGO
 62
     6
 10
121.27746033308701
 20
28.92947841829838
 30
0.0
 11
121.27746033308701
 21
23.40073405360263
 31
0.0
  0
LINE
  5
543
  8
LOGO
 62
     6
 10
134.8262037409533
 20
28.929478418298409
 30
0.0
 11
134.8262037409533
 21
23.40073405360263
 31
0.0
  0
LINE
  5
544
  8
LOGO
 62
     6
 10
148.8292044551809
 20
28.929478418298451
 30
0.0
 11
148.8292044551809
 21
23.400734053602701
 31
0.0
  0
TEXT
  5
545
  8
LOGO
  6
CONTINUOUS
 62
     6
 10
144.0050564161966
 20
14.90284919675552
 30
0.0
 40
1.5357623235265949
  1
Single air operate
 41
0.8
  7
CHINESET
 72
     4
 11
152.31279927108329
 21
15.41476997126439
 31
0.0
  0
TEXT
  5
546
  8
LOGO
  6
CONTINUOUS
 62
     6
 10
118.2229531664499
 20
14.90284919675547
 30
0.0
 40
1.5357623235265949
  1
Body width
  7
CHINESET
 72
     4
 11
124.3660024605563
 21
15.414769971264329
 31
0.0
  0
TEXT
  5
547
  8
LOGO
  6
CONTINUOUS
 62
     6
 10
106.63061732042419
 20
14.646888809501039
 30
0.0
 40
1.5357623235265949
  1
Model
  7
CHINESET
 72
     4
 11
109.5558788890463
 21
15.414769971264329
 31
0.0
  0
TEXT
  5
548
  8
LOGO
  6
CONTINUOUS
 62
     7
 10
144.48187413099879
 20
24.5945126293811
 30
0.0
 40
3.0715246470531912
  1
A1
  7
CHINESET
 72
     1
 11
146.4564256898187
 21
26.130274952907691
 31
0.0
 73
     2
  0
TEXT
  5
549
  8
LOGO
  6
CONTINUOUS
 62
     7
 10
124.39525507624251
 20
24.594512629381018
 30
0.0
 40
3.0715246470531912
  1
150
  7
CHINESET
 72
     1
 11
128.05183203702009
 21
26.130274952907619
 31
0.0
 73
     2
  0
TEXT
  5
54A
  8
LOGO
  6
CONTINUOUS
 62
     7
 10
103.5590926733711
 20
24.629343912423909
 30
0.0
 40
3.0715246470531912
  1
MVAA
  7
CHINESET
 72
     1
 11
109.5558788890463
 21
26.16510623595051
 31
0.0
 73
     2
  0
LINE
  5
54B
  8
LOGO
 62
     1
 10
76.835744751093756
 20
12.343245324211139
 30
0.0
 11
76.835744751093756
 21
30.772393206530289
 31
0.0
  0
LINE
  5
54C
  8
LOGO
 62
     1
 10
162.83843486858311
 20
30.772393206530289
 30
0.0
 11
36.291619409991647
 21
30.772393206530289
 31
0.0
  0
LINE
  5
54D
  8
LOGO
 62
     1
 10
162.83843486858311
 20
12.343245324211139
 30
0.0
 11
36.291619409991647
 21
12.343245324211139
 31
0.0
  0
LINE
  5
54E
  8
LOGO
 62
     6
 10
116.927538041974
 20
28.92947841829838
 30
0.0
 11
116.927538041974
 21
23.40073405360263
 31
0.0
  0
LINE
  5
54F
  8
LOGO
 62
     6
 10
115.6989281831527
 20
20.63636187125476
 30
0.0
 11
115.6989281831527
 21
13.87900764773774
 31
0.0
  0
LINE
  5
550
  8
LOGO
 62
     6
 10
116.927538041974
 20
28.92947841829838
 30
0.0
 11
102.18421973611871
 21
28.92947841829838
 31
0.0
  0
LINE
  5
551
  8
LOGO
 62
     6
 10
116.927538041974
 20
23.40073405360263
 30
0.0
 11
102.18421973611871
 21
23.40073405360263
 31
0.0
  0
LINE
  5
552
  8
LOGO
 62
     6
 10
115.6989281831527
 20
20.63636187125476
 30
0.0
 11
103.41282959494001
 21
20.63636187125476
 31
0.0
  0
LINE
  5
553
  8
LOGO
 62
     6
 10
115.6989281831527
 20
13.87900764773773
 30
0.0
 11
103.41282959494001
 21
13.879007647737721
 31
0.0
  0
TEXT
  5
554
  8
LOGO
  6
CONTINUOUS
 62
     7
 10
139.93908521248099
 20
24.629343912423948
 30
0.0
 40
3.0715246470531912
  1
4
  7
CHINESET
 72
     1
 11
141.0360583007143
 21
26.16510623595055
 31
0.0
 73
     2
  0
LINE
  5
555
  8
LOGO
 62
     6
 10
142.89599056936231
 20
28.929478418298451
 30
0.0
 11
139.17612603206629
 21
28.929478418298409
 31
0.0
  0
LINE
  5
556
  8
LOGO
 62
     6
 10
142.89599056936231
 20
20.636361871254788
 30
0.0
 11
133.03307673795979
 21
20.636361871254788
 31
0.0
  0
LINE
  5
557
  8
LOGO
 62
     6
 10
142.89599056936231
 20
23.400734053602669
 30
0.0
 11
139.17612603206629
 21
23.400734053602669
 31
0.0
  0
TEXT
  5
558
  8
LOGO
 62
     6
 10
133.81468446087459
 20
17.26614959120074
 30
0.0
 40
2.4572197176425532
  1
4 方向
 41
0.9
  7
CHINESET
 72
     4
 11
137.96453365366111
 21
18.48629461831754
 31
0.0
  0
LINE
  5
559
  8
LOGO
 62
     6
 10
142.89599056936231
 20
13.879007647737771
 30
0.0
 11
133.03307673795979
 21
13.87900764773776
 31
0.0
  0
TEXT
  5
55A
  8
LOGO
  6
CONTINUOUS
 62
     6
 10
135.18553516347009
 20
14.902849196755479
 30
0.0
 40
1.5357623235265949
  1
4 Way
 41
0.8
  7
CHINESET
 72
     4
 11
137.96453365366111
 21
15.41476997126435
 31
0.0
  0
LINE
  5
55B
  8
LOGO
 62
     6
 10
139.17612603206629
 20
28.929478418298409
 30
0.0
 11
139.17612603206629
 21
23.400734053602669
 31
0.0
  0
LINE
  5
55C
  8
LOGO
 62
     6
 10
133.03307673795979
 20
20.636361871254788
 30
0.0
 11
133.03307673795979
 21
13.879007647737771
 31
0.0
  0
LINE
  5
55D
  8
LOGO
 62
     6
 10
142.89599056936231
 20
28.929478418298451
 30
0.0
 11
142.89599056936231
 21
23.400734053602669
 31
0.0
  0
LINE
  5
55E
  8
LOGO
 62
     6
 10
142.89599056936231
 20
20.636361871254788
 30
0.0
 11
142.89599056936231
 21
13.87900764773779
 31
0.0
  0
LINE
  5
55F
  8
LOGO
 62
     6
 10
141.03605815906511
 20
23.400734053602669
 30
0.0
 11
141.03605815906511
 21
22.01854796242873
 31
0.0
  0
LINE
  5
560
  8
LOGO
  6
CONTINUOUS
 62
     7
 10
117.88005760730761
 20
26.145522549662608
 30
0.0
 11
120.3213493838395
 21
26.145522549662608
 31
0.0
  0
LINE
  5
561
  8
LOGO
  6
CONTINUOUS
 62
     7
 10
135.77872330628691
 20
26.145522549662651
 30
0.0
 11
138.2200150828188
 21
26.145522549662651
 31
0.0
  0
LINE
  5
562
  8
LOGO
 62
     1
 10
49.806327857025693
 20
19.714904477138809
 30
0.0
 11
49.806327857025693
 21
30.772393206530289
 31
0.0
  0
POLYLINE
  5
563
  8
LOGO
 62
     5
 66
     1
 10
0.0
 20
0.0
 30
0.0
 70
     1
  0
VERTEX
  5
59B
  8
LOGO
 62
     5
 10
45.851408373638328
 20
20.717725934791488
 30
0.0
 42
1.0000000573306349
  0
VERTEX
  5
59C
  8
LOGO
 62
     5
 10
46.675713197446157
 20
20.717725934791488
 30
0.0
 42
1.0000000573306349
  0
SEQEND
  5
59D
  8
LOGO
 62
     5
  0
CIRCLE
  5
564
  8
LOGO
 62
     5
 10
46.263560785542232
 20
20.717725934791488
 30
0.0
 40
0.4121524119038468
  0
SOLID
  5
565
  8
LOGO
 62
     5
 10
38.203673079315159
 20
22.77848799431067
 30
0.0
 11
39.000501075662562
 21
22.77848799431041
 31
0.0
 12
42.325197198353841
 22
30.334615545881341
 32
0.0
 13
43.122025194701173
 23
30.334615545880819
 33
0.0
  0
SOLID
  5
566
  8
LOGO
 62
     5
 10
39.33022300518612
 20
22.77848799431067
 30
0.0
 11
40.127051001533459
 21
22.77848799431067
 31
0.0
 12
43.122025194701173
 22
29.730125341755421
 32
0.0
 13
42.325197198353841
 23
26.808422688481329
 33
0.0
  0
SOLID
  5
567
  8
LOGO
 62
     5
 10
42.325197198353841
 20
22.77848799431067
 30
0.0
 11
43.122025194701173
 21
22.77848799431067
 31
0.0
 12
42.325197198353841
 22
26.808422688481329
 32
0.0
 13
43.122025194701173
 23
29.730125341755421
 33
0.0
  0
SOLID
  5
568
  8
LOGO
 62
     5
 10
43.451747124224489
 20
30.334615545880819
 30
0.0
 11
44.248575120571793
 21
30.334615545881341
 31
0.0
 12
43.451747124224489
 22
23.382978198436071
 32
0.0
 13
44.248575120571793
 23
26.30468085171016
 33
0.0
  0
SOLID
  5
569
  8
LOGO
 62
     5
 10
43.451747124224489
 20
23.382978198436071
 30
0.0
 11
44.248575120571793
 21
26.30468085171016
 31
0.0
 12
47.243549313739528
 22
30.334615545881341
 32
0.0
 13
46.446721317392132
 23
30.334615545881341
 33
0.0
  0
SOLID
  5
56A
  8
LOGO
 62
     5
 10
43.451747124224489
 20
22.77848799431067
 30
0.0
 11
44.248575120571793
 21
22.77848799431067
 31
0.0
 12
47.243549313739528
 22
29.730125341755421
 32
0.0
 13
46.446721317392132
 23
26.808422688481329
 33
0.0
  0
SOLID
  5
56B
  8
LOGO
 62
     5
 10
47.243549313739528
 20
29.730125341755421
 30
0.0
 11
46.446721317392132
 21
26.808422688481329
 31
0.0
 12
47.243549313739528
 22
22.77848799431041
 32
0.0
 13
46.446721317392132
 23
22.77848799431041
 33
0.0
  0
SOLID
  5
56C
  8
LOGO
 62
     5
 10
47.573271243262852
 20
22.77848799431041
 30
0.0
 11
48.370099239610177
 21
22.77848799431041
 31
0.0
 12
47.573271243262852
 22
30.334615545880819
 32
0.0
 13
48.370099239610177
 23
30.334615545881341
 33
0.0
  0
SOLID
  5
56D
  8
LOGO
 62
     5
 10
36.92616239500969
 20
20.03080524828518
 30
0.0
 11
37.200930669612539
 21
20.03080524828518
 31
0.0
 12
37.974699517146547
 22
21.4046466212978
 32
0.0
 13
38.249467791748913
 23
21.4046466212978
 33
0.0
  0
SOLID
  5
56E
  8
LOGO
 62
     5
 10
37.974699517146547
 20
21.4046466212978
 30
0.0
 11
38.249467791748913
 21
21.4046466212978
 31
0.0
 12
37.974699517146547
 22
20.03080524828518
 32
0.0
 13
38.249467791748913
 23
20.03080524828518
 33
0.0
  0
SOLID
  5
56F
  8
LOGO
 62
     5
 10
37.974699517146547
 20
20.03080524828518
 30
0.0
 11
38.249467791748913
 21
20.03080524828518
 31
0.0
 12
39.023236639283752
 22
21.4046466212978
 32
0.0
 13
39.298004913886039
 23
21.4046466212978
 33
0.0
  0
SOLID
  5
570
  8
LOGO
 62
     5
 10
39.023236639283752
 20
21.4046466212978
 30
0.0
 11
39.298004913886039
 21
21.4046466212978
 31
0.0
 12
39.023236639283752
 22
20.03080524828518
 32
0.0
 13
39.298004913886039
 23
20.03080524828518
 33
0.0
  0
SOLID
  5
571
  8
LOGO
 62
     5
 10
39.623263370049429
 20
21.596984413519468
 30
0.0
 11
39.898031644652526
 21
21.596984413519468
 31
0.0
 12
39.623263370049429
 22
21.816799033201789
 32
0.0
 13
39.898031644652526
 23
21.816799033201789
 33
0.0
  0
SOLID
  5
572
  8
LOGO
 62
     5
 10
39.623263370049429
 20
21.4046466212978
 30
0.0
 11
39.898031644652526
 21
21.4046466212978
 31
0.0
 12
39.623263370049429
 22
20.030805248284661
 32
0.0
 13
39.898031644652526
 23
20.03080524828518
 33
0.0
  0
POLYLINE
  5
573
  8
LOGO
 62
     5
 66
     1
 10
0.0
 20
0.0
 30
0.0
 40
0.2752086083759659
 41
0.2752086083759659
  0
VERTEX
  5
59E
  8
LOGO
 62
     5
 10
41.180953252399959
 20
20.85511007209265
 30
0.0
 42
1.0
  0
VERTEX
  5
59F
  8
LOGO
 62
     5
 10
40.35532742727203
 20
20.85511007209265
 30
0.0
 42
1.0
  0
SEQEND
  5
5A0
  8
LOGO
 62
     5
  0
SOLID
  5
574
  8
LOGO
 62
     5
 10
40.218603790631093
 20
21.4046466212978
 30
0.0
 11
40.493372065233388
 21
21.4046466212978
 31
0.0
 12
40.218603790631093
 22
20.03080524828518
 32
0.0
 13
40.493372065233388
 23
20.03080524828518
 33
0.0
  0
SOLID
  5
575
  8
LOGO
 62
     5
 10
41.042908614438488
 20
20.855110072092639
 30
0.0
 11
41.317676889041309
 21
20.855110072092639
 31
0.0
 12
41.042908614438488
 22
20.03080524828518
 32
0.0
 13
41.317676889041309
 23
20.03080524828518
 33
0.0
  0
POLYLINE
  5
576
  8
LOGO
 62
     5
 66
     1
 10
0.0
 20
0.0
 30
0.0
 70
     1
 40
0.2752086083759659
 41
0.2752086083759659
  0
VERTEX
  5
5A1
  8
LOGO
 62
     5
 10
41.774779981601718
 20
20.71772593479136
 30
0.0
 42
1.0
  0
VERTEX
  5
5A2
  8
LOGO
 62
     5
 10
42.875614415105602
 20
20.71772593479136
 30
0.0
 42
1.0
  0
SEQEND
  5
5A3
  8
LOGO
 62
     5
  0
SOLID
  5
577
  8
LOGO
 62
     5
 10
42.737322133430403
 20
21.816799033201789
 30
0.0
 11
43.012090408032712
 21
21.816799033201789
 31
0.0
 12
42.737322133430403
 22
20.03080524828518
 32
0.0
 13
43.012090408032712
 23
20.03080524828518
 33
0.0
  0
SOLID
  5
578
  8
LOGO
 62
     5
 10
43.332662554011989
 20
21.4046466212978
 30
0.0
 11
43.607430828614319
 21
21.4046466212978
 31
0.0
 12
43.332662554011989
 22
20.03080524828518
 32
0.0
 13
43.607430828614319
 23
20.03080524828518
 33
0.0
  0
POLYLINE
  5
579
  8
LOGO
 62
     5
 66
     1
 10
0.0
 20
0.0
 30
0.0
 40
0.2752086083759659
 41
0.2752086083759659
  0
VERTEX
  5
5A4
  8
LOGO
 62
     5
 10
44.295012015780863
 20
20.85511007209265
 30
0.0
 42
1.0
  0
VERTEX
  5
5A5
  8
LOGO
 62
     5
 10
43.469386190652934
 20
20.85511007209265
 30
0.0
 42
1.0
  0
SEQEND
  5
5A6
  8
LOGO
 62
     5
  0
POLYLINE
  5
57A
  8
LOGO
 62
     5
 66
     1
 10
0.0
 20
0.0
 30
0.0
 40
0.2752086083759659
 41
0.2752086083759659
  0
VERTEX
  5
5A7
  8
LOGO
 62
     5
 10
45.119316839588343
 20
20.85511007209265
 30
0.0
 42
1.0
  0
VERTEX
  5
5A8
  8
LOGO
 62
     5
 10
44.293691014460407
 20
20.85511007209265
 30
0.0
 42
1.0
  0
SEQEND
  5
5A9
  8
LOGO
 62
     5
  0
SOLID
  5
57B
  8
LOGO
 62
     5
 10
44.15696737781947
 20
20.855110072092639
 30
0.0
 11
44.431735652421793
 21
20.855110072092639
 31
0.0
 12
44.15696737781947
 22
20.03080524828518
 32
0.0
 13
44.431735652421793
 23
20.03080524828518
 33
0.0
  0
SOLID
  5
57C
  8
LOGO
 62
     5
 10
44.981272201626979
 20
20.855110072092639
 30
0.0
 11
45.256040476229281
 21
20.855110072092639
 31
0.0
 12
44.981272201626979
 22
20.030805248284661
 32
0.0
 13
45.256040476229281
 23
20.030805248284661
 33
0.0
  0
POLYLINE
  5
57D
  8
LOGO
 62
     5
 66
     1
 10
0.0
 20
0.0
 30
0.0
 70
     1
 40
0.2752086083759659
 41
0.2752086083759659
  0
VERTEX
  5
5AA
  8
LOGO
 62
     5
 10
45.713143568790137
 20
20.71772593479136
 30
0.0
 42
1.0
  0
VERTEX
  5
5AB
  8
LOGO
 62
     5
 10
46.813978002293993
 20
20.71772593479136
 30
0.0
 42
1.0
  0
SEQEND
  5
5AC
  8
LOGO
 62
     5
  0
LINE
  5
57E
  8
LOGO
 62
     5
 10
48.370099239610177
 20
20.03080524828518
 30
0.0
 11
48.370099239610177
 21
20.855110072092639
 31
0.0
  0
POLYLINE
  5
57F
  8
LOGO
 62
     5
 66
     1
 10
0.0
 20
0.0
 30
0.0
 40
0.2752086083759659
 41
0.2752086083759659
  0
VERTEX
  5
5AD
  8
LOGO
 62
     5
 10
48.233375602969268
 20
20.85511007209265
 30
0.0
 42
1.0
  0
VERTEX
  5
5AE
  8
LOGO
 62
     5
 10
47.407749777841339
 20
20.85511007209265
 30
0.0
 42
1.0
  0
SEQEND
  5
5AF
  8
LOGO
 62
     5
  0
SOLID
  5
580
  8
LOGO
 62
     5
 10
46.675685720619072
 20
21.4046466212978
 30
0.0
 11
46.950453995221402
 21
21.4046466212978
 31
0.0
 12
46.675685720619072
 22
20.03080524828518
 32
0.0
 13
46.950453995221402
 23
20.03080524828518
 33
0.0
  0
SOLID
  5
581
  8
LOGO
 62
     5
 10
47.271026141199883
 20
20.03080524828518
 30
0.0
 11
47.545794415802703
 21
20.03080524828518
 31
0.0
 12
47.271026141199883
 22
21.4046466212978
 32
0.0
 13
47.545794415802703
 23
21.4046466212978
 33
0.0
  0
SOLID
  5
582
  8
LOGO
 62
     5
 10
48.095330965007889
 20
20.855110072092639
 30
0.0
 11
48.370099239610177
 21
20.8551100720926
 31
0.0
 12
48.095330965007889
 22
20.03080524828518
 32
0.0
 13
48.370099239610177
 23
20.03080524828518
 33
0.0
  0
SOLID
  5
583
  8
LOGO
 62
     2
 10
39.000501075662562
 20
22.77848799431041
 30
0.0
 11
39.33022300518612
 21
22.77848799431067
 31
0.0
 12
43.122025194701173
 22
30.334615545880819
 32
0.0
 13
43.451747124224489
 23
30.334615545880819
 33
0.0
  0
SOLID
  5
584
  8
LOGO
 62
     2
 10
43.122025194701173
 20
30.334615545880819
 30
0.0
 11
43.451747124224489
 21
30.334615545880819
 31
0.0
 12
43.122025194701173
 22
22.77848799431067
 32
0.0
 13
43.451747124224489
 23
22.77848799431067
 33
0.0
  0
SOLID
  5
585
  8
LOGO
 62
     2
 10
43.122025194701173
 20
22.77848799431067
 30
0.0
 11
43.451747124224489
 21
22.77848799431067
 31
0.0
 12
47.243549313739528
 22
30.334615545881341
 32
0.0
 13
47.573271243262852
 23
30.334615545880819
 33
0.0
  0
SOLID
  5
586
  8
LOGO
 62
     2
 10
47.243549313739528
 20
30.334615545881341
 30
0.0
 11
47.573271243262852
 21
30.334615545880819
 31
0.0
 12
47.243549313739528
 22
22.77848799431041
 32
0.0
 13
47.573271243262852
 23
22.77848799431041
 33
0.0
  0
TEXT
  5
587
  8
LOGO
  6
CONTINUOUS
 62
     5
 10
36.894836536148922
 20
15.963623613683611
 30
0.0
 40
2.7643721823478722
  1
金器工業股份有限公司
 41
0.8
  7
LOGO
  0
TEXT
  5
588
  8
LOGO
  6
CONTINUOUS
 62
     5
 10
37.686385998140651
 20
13.198709831123139
 30
0.0
 40
1.8429147882319139
  1
MINDMAN INDUSTRIAL CO.,LTD
 41
0.85
  7
CHINESET
  0
LINE
  5
589
  8
LOGO
 62
     6
 10
143.5102954987729
 20
28.929478418298451
 30
0.0
 11
143.5102954987729
 21
23.400734053602669
 31
0.0
  0
LINE
  5
58A
  8
LOGO
 62
     6
 10
141.03605815906511
 20
22.01854796242873
 30
0.0
 11
137.96453365366111
 21
22.01854796242873
 31
0.0
  0
LINE
  5
58B
  8
LOGO
 62
     6
 10
137.96453365366111
 20
20.636361871254788
 30
0.0
 11
137.96453365366111
 21
22.01854796242873
 31
0.0
  0
LINE
  5
58C
  8
LOGO
 62
     6
 10
128.05183203702009
 20
22.018547962428691
 30
0.0
 11
124.3660024605563
 21
22.018547962428691
 31
0.0
  0
LINE
  5
58D
  8
LOGO
 62
     6
 10
124.3660024605563
 20
20.63636187125476
 30
0.0
 11
124.3660024605563
 21
22.018547962428691
 31
0.0
  0
LINE
  5
58E
  8
LOGO
 62
     6
 10
146.1697499769769
 20
22.018547962428769
 30
0.0
 11
150.7770369475567
 21
22.018547962428769
 31
0.0
  0
LINE
  5
58F
  8
LOGO
 62
     6
 10
150.7770369475567
 20
20.636361871254831
 30
0.0
 11
150.7770369475567
 21
22.018547962428769
 31
0.0
  0
ENDSEC
  0
EOF
