  0
SECTION
  2
HEADER
  9
$ACADVER
  1
AC1015
  9
$ACADMAINTVER
 70
    20
  9
$DWGCODEPAGE
  3
ANSI_950
  9
$INSBASE
 10
0.0
 20
0.0
 30
0.0
  9
$EXTMIN
 10
145.0158702873344
 20
39.82807028100729
 30
-0.0015258207003583
  9
$EXTMAX
 10
338.2699593788361
 20
307.1607467929258
 30
0.0000000349246037
  9
$LIMMIN
 10
0.0
 20
0.0
  9
$LIMMAX
 10
420.0
 20
297.0
  9
$ORTHOMODE
 70
     0
  9
$REGENMODE
 70
     1
  9
$FILLMODE
 70
     1
  9
$QTEXTMODE
 70
     0
  9
$MIRRTEXT
 70
     1
  9
$LTSCALE
 40
1.0
  9
$ATTMODE
 70
     1
  9
$TEXTSIZE
 40
3.0
  9
$TRACEWID
 40
1.0
  9
$TEXTSTYLE
  7
STANDARD
  9
$CLAYER
  8
0
  9
$CELTYPE
  6
ByLayer
  9
$CECOLOR
 62
   256
  9
$CELTSCALE
 40
1.0
  9
$DISPSILH
 70
     0
  9
$DIMSCALE
 40
1.0
  9
$DIMASZ
 40
3.0
  9
$DIMEXO
 40
1.0
  9
$DIMDLI
 40
8.0
  9
$DIMRND
 40
0.0
  9
$DIMDLE
 40
0.0
  9
$DIMEXE
 40
1.5
  9
$DIMTP
 40
0.1
  9
$DIMTM
 40
0.1
  9
$DIMTXT
 40
3.5
  9
$DIMCEN
 40
0.0
  9
$DIMTSZ
 40
0.0
  9
$DIMTOL
 70
     0
  9
$DIMLIM
 70
     0
  9
$DIMTIH
 70
     0
  9
$DIMTOH
 70
     0
  9
$DIMSE1
 70
     0
  9
$DIMSE2
 70
     0
  9
$DIMTAD
 70
     1
  9
$DIMZIN
 70
     8
  9
$DIMBLK
  1

  9
$DIMASO
 70
     1
  9
$DIMSHO
 70
     1
  9
$DIMPOST
  1

  9
$DIMAPOST
  1
"
  9
$DIMALT
 70
     0
  9
$DIMALTD
 70
     2
  9
$DIMALTF
 40
0.0393701
  9
$DIMLFAC
 40
1.0
  9
$DIMTOFL
 70
     1
  9
$DIMTVP
 40
0.0
  9
$DIMTIX
 70
     0
  9
$DIMSOXD
 70
     0
  9
$DIMSAH
 70
     0
  9
$DIMBLK1
  1

  9
$DIMBLK2
  1

  9
$DIMSTYLE
  2
AM_ISO
  9
$DIMCLRD
 70
   256
  9
$DIMCLRE
 70
   256
  9
$DIMCLRT
 70
   256
  9
$DIMTFAC
 40
0.6
  9
$DIMGAP
 40
0.7
  9
$DIMJUST
 70
     0
  9
$DIMSD1
 70
     0
  9
$DIMSD2
 70
     0
  9
$DIMTOLJ
 70
     0
  9
$DIMTZIN
 70
     8
  9
$DIMALTZ
 70
     0
  9
$DIMALTTZ
 70
     0
  9
$DIMUPT
 70
     0
  9
$DIMDEC
 70
     2
  9
$DIMTDEC
 70
     8
  9
$DIMALTU
 70
     2
  9
$DIMALTTD
 70
     2
  9
$DIMTXSTY
  7
STANDARD
  9
$DIMAUNIT
 70
     0
  9
$DIMADEC
 70
     0
  9
$DIMALTRND
 40
0.0
  9
$DIMAZIN
 70
     2
  9
$DIMDSEP
 70
    46
  9
$DIMATFIT
 70
     3
  9
$DIMFRAC
 70
     0
  9
$DIMLDRBLK
  1

  9
$DIMLUNIT
 70
     2
  9
$DIMLWD
 70
    -1
  9
$DIMLWE
 70
    -1
  9
$DIMTMOVE
 70
     0
  9
$LUNITS
 70
     2
  9
$LUPREC
 70
     2
  9
$SKETCHINC
 40
1.0
  9
$FILLETRAD
 40
2.5
  9
$AUNITS
 70
     0
  9
$AUPREC
 70
     0
  9
$MENU
  1
.
  9
$ELEVATION
 40
0.0
  9
$PELEVATION
 40
0.0
  9
$THICKNESS
 40
0.0
  9
$LIMCHECK
 70
     0
  9
$CHAMFERA
 40
2.5
  9
$CHAMFERB
 40
2.5
  9
$CHAMFERC
 40
20.0
  9
$CHAMFERD
 40
0.0
  9
$SKPOLY
 70
     0
  9
$TDCREATE
 40
2453980.371058658
  9
$TDUCREATE
 40
2453980.037725324
  9
$TDUPDATE
 40
2453980.389421296
  9
$TDUUPDATE
 40
2453980.056087963
  9
$TDINDWG
 40
0.0183631713
  9
$TDUSRTIMER
 40
0.0183631713
  9
$USRTIMER
 70
     1
  9
$ANGBASE
 50
0.0
  9
$ANGDIR
 70
     0
  9
$PDMODE
 70
     0
  9
$PDSIZE
 40
0.0
  9
$PLINEWID
 40
0.0
  9
$SPLFRAME
 70
     0
  9
$SPLINETYPE
 70
     6
  9
$SPLINESEGS
 70
     8
  9
$HANDSEED
  5
111F
  9
$SURFTAB1
 70
     6
  9
$SURFTAB2
 70
     6
  9
$SURFTYPE
 70
     6
  9
$SURFU
 70
     6
  9
$SURFV
 70
     6
  9
$UCSBASE
  2

  9
$UCSNAME
  2

  9
$UCSORG
 10
0.0
 20
0.0
 30
0.0
  9
$UCSXDIR
 10
1.0
 20
0.0
 30
0.0
  9
$UCSYDIR
 10
0.0
 20
1.0
 30
0.0
  9
$UCSORTHOREF
  2

  9
$UCSORTHOVIEW
 70
     0
  9
$UCSORGTOP
 10
0.0
 20
0.0
 30
0.0
  9
$UCSORGBOTTOM
 10
0.0
 20
0.0
 30
0.0
  9
$UCSORGLEFT
 10
0.0
 20
0.0
 30
0.0
  9
$UCSORGRIGHT
 10
0.0
 20
0.0
 30
0.0
  9
$UCSORGFRONT
 10
0.0
 20
0.0
 30
0.0
  9
$UCSORGBACK
 10
0.0
 20
0.0
 30
0.0
  9
$PUCSBASE
  2

  9
$PUCSNAME
  2

  9
$PUCSORG
 10
0.0
 20
0.0
 30
0.0
  9
$PUCSXDIR
 10
1.0
 20
0.0
 30
0.0
  9
$PUCSYDIR
 10
0.0
 20
1.0
 30
0.0
  9
$PUCSORTHOREF
  2

  9
$PUCSORTHOVIEW
 70
     0
  9
$PUCSORGTOP
 10
0.0
 20
0.0
 30
0.0
  9
$PUCSORGBOTTOM
 10
0.0
 20
0.0
 30
0.0
  9
$PUCSORGLEFT
 10
0.0
 20
0.0
 30
0.0
  9
$PUCSORGRIGHT
 10
0.0
 20
0.0
 30
0.0
  9
$PUCSORGFRONT
 10
0.0
 20
0.0
 30
0.0
  9
$PUCSORGBACK
 10
0.0
 20
0.0
 30
0.0
  9
$USERI1
 70
     0
  9
$USERI2
 70
     0
  9
$USERI3
 70
     0
  9
$USERI4
 70
     0
  9
$USERI5
 70
     0
  9
$USERR1
 40
0.0
  9
$USERR2
 40
0.0
  9
$USERR3
 40
0.0
  9
$USERR4
 40
0.0
  9
$USERR5
 40
0.0
  9
$WORLDVIEW
 70
     1
  9
$SHADEDGE
 70
     3
  9
$SHADEDIF
 70
    70
  9
$TILEMODE
 70
     1
  9
$MAXACTVP
 70
    64
  9
$PINSBASE
 10
0.0
 20
0.0
 30
0.0
  9
$PLIMCHECK
 70
     0
  9
$PEXTMIN
 10
1.000000000000000E+20
 20
1.000000000000000E+20
 30
1.000000000000000E+20
  9
$PEXTMAX
 10
-1.000000000000000E+20
 20
-1.000000000000000E+20
 30
-1.000000000000000E+20
  9
$PLIMMIN
 10
0.0
 20
0.0
  9
$PLIMMAX
 10
420.0
 20
297.0
  9
$UNITMODE
 70
     0
  9
$VISRETAIN
 70
     1
  9
$PLINEGEN
 70
     0
  9
$PSLTSCALE
 70
     1
  9
$TREEDEPTH
 70
  3020
  9
$CMLSTYLE
  2
Standard
  9
$CMLJUST
 70
     0
  9
$CMLSCALE
 40
20.0
  9
$PROXYGRAPHICS
 70
     1
  9
$MEASUREMENT
 70
     1
  9
$CELWEIGHT
370
    -1
  9
$ENDCAPS
280
     0
  9
$JOINSTYLE
280
     0
  9
$LWDISPLAY
290
     0
  9
$INSUNITS
 70
     4
  9
$HYPERLINKBASE
  1

  9
$STYLESHEET
  1
彩色出圖.ctb
  9
$XEDIT
290
     1
  9
$CEPSNTYPE
380
     0
  9
$PSTYLEMODE
290
     1
  9
$FINGERPRINTGUID
  2
{70572D5D-8DA9-4016-92DF-789C26F153D6}
  9
$VERSIONGUID
  2
{02F9E5B8-BD51-4F7B-8CE7-4CE6A1D56DE1}
  9
$EXTNAMES
290
     1
  9
$PSVPSCALE
 40
0.0
  9
$OLESTARTUP
290
     0
  0
ENDSEC
  0
SECTION
  2
CLASSES
  0
CLASS
  1
ACDBDICTIONARYWDFLT
  2
AcDbDictionaryWithDefault
  3
ObjectDBX Classes
 90
        0
280
     0
281
     0
  0
CLASS
  1
ACDBPLACEHOLDER
  2
AcDbPlaceHolder
  3
ObjectDBX Classes
 90
        0
280
     0
281
     0
  0
CLASS
  1
LAYOUT
  2
AcDbLayout
  3
ObjectDBX Classes
 90
        0
280
     0
281
     0
  0
CLASS
  1
ACME_DOCUMENT
  2
AcMeDbDoc
  3
AcMeServices
 90
        0
280
     0
281
     0
  0
CLASS
  1
AMGSETTINGSOBJ
  2
AmgSettingsObj
  3
"AcadM|Product Description: AutoCAD Mechanical 2000|Company: Autodesk"
 90
        0
280
     0
281
     0
  0
CLASS
  1
ACMESCOPE
  2
AcMeScope
  3
AcMeServices
 90
        0
280
     0
281
     0
  0
CLASS
  1
ACMECOMMANDHISTORY
  2
AcMeCommandHistory
  3
AcMeServices
 90
        0
280
     0
281
     0
  0
CLASS
  1
ACIMSYSVARMAN
  2
AcImSysVarManager
  3
AcMeServices
 90
        0
280
     0
281
     0
  0
CLASS
  1
ACIMREALSYSVAR
  2
AcImRealSysVar
  3
AcMeServices
 90
        0
280
     0
281
     0
  0
CLASS
  1
ACIMINTSYSVAR
  2
AcImIntSysVar
  3
AcMeServices
 90
        0
280
     0
281
     0
  0
CLASS
  1
ACMEDRAWINGMAN
  2
AcMeDrawingMan
  3
AcMeServices
 90
        0
280
     0
281
     0
  0
CLASS
  1
ACMEVIEW
  2
AcMeView
  3
AcMeServices
 90
        0
280
     0
281
     0
  0
CLASS
  1
ACDBENTITYCACHE
  2
AcMeEntityCache
  3
AcMeServices
 90
        0
280
     0
281
     0
  0
CLASS
  1
GSMANAGER
  2
AcMeGSManager
  3
AcMeServices
 90
        0
280
     0
281
     0
  0
CLASS
  1
AMDTINTERNALREACTOR
  2
AmdtInternalReactor
  3
AcMeServices
 90
        0
280
     0
281
     0
  0
CLASS
  1
ACMESTATEMGR
  2
AcMeStateMgr
  3
AcMeServices
 90
        0
280
     0
281
     0
  0
CLASS
  1
ACGREFMASTER
  2
AcGrefMaster
  3
AcAttribServices
 90
        0
280
     0
281
     0
  0
CLASS
  1
ACME_DATABASE
  2
AcMeDbDatabase
  3
AcMeServices
 90
        0
280
     0
281
     0
  0
CLASS
  1
ACRFINSADJUSTERMGR
  2
AcRfInsAdjusterMgr
  3
AcMeServices
 90
        0
280
     0
281
     0
  0
CLASS
  1
ACGREFACADMASTER
  2
AcGrefacadMaster
  3
AcGrefServices
 90
        0
280
     0
281
     0
  0
CLASS
  1
AMIMASTER
  2
AmiMaster
  3
AmiServices
 90
        0
280
     0
281
     0
  0
CLASS
  1
ACMDATADICTIONARY
  2
AcmDataDictionary
  3
"AcmSymBB|Product Description: AutoCAD Mechanical 2004 DX|Company: Autodesk"
 90
        0
280
     0
281
     0
  0
CLASS
  1
ACMDATAENTRYBLOCK
  2
AcmDataEntryBlock
  3
"AcmSymBB|Product Description: AutoCAD Mechanical 2004 DX|Company: Autodesk"
 90
        0
280
     0
281
     0
  0
CLASS
  1
ACIMSTRSYSVAR
  2
AcImStrSysVar
  3
AcMeServices
 90
        0
280
     0
281
     0
  0
CLASS
  1
ACMSTANDARDISO
  2
AcmStandardISO
  3
"Amdt_StdImp|Product Description: AutoCAD Mechanical 2004 DX|Company: Autodesk"
 90
        0
280
     0
281
     0
  0
CLASS
  1
AMGOBJPROPCFG
  2
AmgObjPropCfg
  3
"AmgLay|Product Description: AutoCAD Mechanical 2000|Company: Autodesk"
 90
        1
280
     0
281
     0
  0
CLASS
  1
AMDTEDGESTANDARDISO
  2
AmdtEdgeStdISO
  3
"Amdt_StdImp|Product Description: AutoCAD Mechanical 2004 DX|Company: Autodesk"
 90
        0
280
     0
281
     0
  0
CLASS
  1
ACMSURFSTANDARDISO
  2
AcmSurfTextStdISO
  3
"Amdt_StdImp|Product Description: AutoCAD Mechanical 2004 DX|Company: Autodesk"
 90
        0
280
     0
281
     0
  0
CLASS
  1
ACMFCFSTANDARDISO
  2
AcmFCFStdISO
  3
"Amdt_StdImp|Product Description: AutoCAD Mechanical 2004 DX|Company: Autodesk"
 90
        0
280
     0
281
     0
  0
CLASS
  1
ACMWELDSTANDARDISO
  2
AcmWeldingStdISO
  3
"Amdt_StdImp|Product Description: AutoCAD Mechanical 2004 DX|Company: Autodesk"
 90
        0
280
     0
281
     0
  0
CLASS
  1
ACMIDSTANDARDISO
  2
AcmIdStdISO
  3
"Amdt_StdImp|Product Description: AutoCAD Mechanical 2004 DX|Company: Autodesk"
 90
        0
280
     0
281
     0
  0
CLASS
  1
ACMDATUMSTANDARDISO
  2
AcmDatumStdISO
  3
"Amdt_StdImp|Product Description: AutoCAD Mechanical 2004 DX|Company: Autodesk"
 90
        0
280
     0
281
     0
  0
CLASS
  1
ACMBOMSTANDARDISO
  2
AcmBOMStdISO
  3
"Amdt_StdImp|Product Description: AutoCAD Mechanical 2004 DX|Company: Autodesk"
 90
        0
280
     0
281
     0
  0
CLASS
  1
ACMDETAILSTANDARDISO
  2
AmdtDetailSymStdISO
  3
"Amdt_StdImp|Product Description: AutoCAD Mechanical 2004 DX|Company: Autodesk"
 90
        0
280
     0
281
     0
  0
CLASS
  1
ACMSECTIONSTANDARDISO
  2
AmdtSectionSymStdISO
  3
"Amdt_StdImp|Product Description: AutoCAD Mechanical 2004 DX|Company: Autodesk"
 90
        0
280
     0
281
     0
  0
CLASS
  1
ACMCENTERLINESTANDARDISO
  2
AmdtCenterLineStdISO
  3
"Amdt_StdImp|Product Description: AutoCAD Mechanical 2004 DX|Company: Autodesk"
 90
        0
280
     0
281
     0
  0
CLASS
  1
ACMNOTESTANDARDISO
  2
AmdtNoteStdISO
  3
"Amdt_StdImp|Product Description: AutoCAD Mechanical 2004 DX|Company: Autodesk"
 90
        0
280
     0
281
     0
  0
CLASS
  1
ACAMGLAYSTD
  2
AcAmgLayStd
  3
"AcAmgLayStd|Product Description: AutoCAD Mechanical 2000|Company: Autodesk"
 90
        0
280
     0
281
     0
  0
CLASS
  1
ACAMGDIMSTD
  2
AcAmgDimStd
  3
"AcAmgDimStd|Product Description: AutoCAD Mechanical 2000|Company: Autodesk"
 90
        0
280
     0
281
     0
  0
CLASS
  1
ACAMGHOLECHARTSTDISO
  2
AcAmgHoleChartStdISO
  3
ACMSYMBB_MODULE_NAME
 90
        0
280
     0
281
     0
  0
CLASS
  1
ACAMGTITLESTD
  2
AcAmgTitleStd
  3
"TITLEAPP"
 90
        0
280
     0
281
     0
  0
CLASS
  1
LAYER_INDEX
  2
AcDbLayerIndex
  3
ObjectDBX Classes
 90
    32768
280
     0
281
     0
  0
CLASS
  1
IDBUFFER
  2
AcDbIdBuffer
  3
ObjectDBX Classes
 90
    32768
280
     0
281
     0
  0
CLASS
  1
DICTIONARYVAR
  2
AcDbDictionaryVar
  3
ObjectDBX Classes
 90
        0
280
     0
281
     0
  0
CLASS
  1
AM_DRAWING_MGR
  2
AcDmDwgMgr
  3
AcMechDwgViewMgmt
 90
        0
280
     0
281
     0
  0
CLASS
  1
AM_DWG_DOCUMENT
  2
AcDmDwgDocument
  3
AcMechDwgViewMgmt
 90
        0
280
     0
281
     0
  0
CLASS
  1
AM_DWG_SHEET
  2
AcDmSheet
  3
AcMechDwgViewMgmt
 90
        0
280
     0
281
     0
  0
CLASS
  1
AM_VIEWDIMPARMAP
  2
AcDmViewDimParMap
  3
AcMechDwgViewMgmt
 90
        0
280
     0
281
     0
  0
CLASS
  1
AM_DWGMGR_NAME
  2
AcDmDwgMgrName
  3
AcMechDwgViewMgmt
 90
        0
280
     0
281
     0
  0
CLASS
  1
AMDTMENUSTATEMGR
  2
AmdtMenuStateMgr
  3
McadcomServices
 90
        0
280
     0
281
     0
  0
CLASS
  1
AMDTMCOMMENUSTATE
  2
AmdtMcomMenuState
  3
McadcomServices
 90
        0
280
     0
281
     0
  0
CLASS
  1
MAPIAMMOUDLE
  2
MApiAmModule
  3
MApiAmServices
 90
        0
280
     0
281
     0
  0
CLASS
  1
AMDTADMENUSTATE
  2
AmdtAdMenuState
  3
DesignerServices
 90
        0
280
     0
281
     0
  0
CLASS
  1
ADAPPL
  2
AcAdAppl
  3
DesignerServices
 90
        0
280
     0
281
     0
  0
CLASS
  1
DEPMGR
  2
AcAdDepMgr
  3
DesignerServices
 90
        0
280
     0
281
     0
  0
CLASS
  1
PARAMMGR
  2
AcAdParamMgr
  3
DesignerServices
 90
        0
280
     0
281
     0
  0
CLASS
  1
PARAMSCOPE
  2
AcAdParamScope
  3
DesignerServices
 90
        0
280
     0
281
     0
  0
CLASS
  1
NAMEDAPPL
  2
AcAdNamedAppl
  3
DesignerServices
 90
        0
280
     0
281
     0
  0
CLASS
  1
AMDTDMMENUSTATE
  2
AmdtDmMenuState
  3
AcMechDwgViewMgmt
 90
        0
280
     0
281
     0
  0
CLASS
  1
AMDTAMMENUSTATE
  2
AmdtAmMenuState
  3
DesignerAssemblies
 90
        0
280
     0
281
     0
  0
CLASS
  1
ACAMPROJECT
  2
AcAmProject
  3
DesignerAssemblies
 90
        0
280
     0
281
     0
  0
CLASS
  1
ACAMGRCOMPDEF
  2
AcAmGrCompDef
  3
DesignerAssemblies
 90
        0
280
     0
281
     0
  0
CLASS
  1
ACCMCONTEXT
  2
AcCmContext
  3
DesignerAssemblies
 90
        0
280
     0
281
     0
  0
CLASS
  1
ACAMCOMPDEF
  2
AcAmCompDef
  3
DesignerAssemblies
 90
        0
280
     0
281
     0
  0
CLASS
  1
ACAMCOMPDEFMGR
  2
AcAmCompDefMgr
  3
DesignerAssemblies
 90
        0
280
     0
281
     0
  0
CLASS
  1
AMCONTEXTMGR
  2
AcAmContextMgr
  3
DesignerAssemblies
 90
        0
280
     0
281
     0
  0
CLASS
  1
ACAMCONTEXTMODELER
  2
AcAmContextModeler
  3
DesignerAssemblies
 90
        0
280
     0
281
     0
  0
CLASS
  1
ACMTHREADLINESTANDARDISO
  2
AmdtThreadLineStdISO
  3
"Amdt_StdImp|Product Description: AutoCAD Mechanical 2004 DX|Company: Autodesk"
 90
        0
280
     0
281
     0
  0
CLASS
  1
CATALOGSTATE
  2
AcAmCatalogState
  3
DesignerAssemblies
 90
        0
280
     0
281
     0
  0
CLASS
  1
ACAMGRCOMPDEFSET
  2
AcAmGrCompDefSet
  3
DesignerAssemblies
 90
        0
280
     0
281
     0
  0
CLASS
  1
AMDTBROWSERDBTAB
  2
AmdtBrowserDbTab
  3
McadcomServices
 90
        0
280
     0
281
     0
  0
CLASS
  1
CBROWSERAPPOBJECT
  2
CBrowserAppObject
  3
McadcomServices
 90
        0
280
     0
281
     0
  0
CLASS
  1
DM_PLACEHOLDER
  2
AcDmSelsetPlaceholder
  3
AcMechDwgViewMgmt
 90
        0
280
     0
281
     0
  0
CLASS
  1
TABLESTYLE
  2
AcDbTableStyle
  3
ObjectDBX Classes
 90
     2047
280
     0
281
     0
  0
CLASS
  1
VAACXREFPANELOBJECT
  2
VaAcXREFPanelObject
  3
VAAC_ADDIN
 90
    32768
280
     0
281
     0
  0
CLASS
  1
VAACIMAGEINVENTORY
  2
VaAcImageInventory
  3
VAAC_ADDIN
 90
    32768
280
     0
281
     0
  0
CLASS
  1
AMDTNOTETEMPLATEDB
  2
AmdtNoteTemplateDB
  3
AMDT_STDIMP_MODULE_NAME
 90
        0
280
     0
281
     0
  0
CLASS
  1
ACMBOM
  2
AcmBom
  3
"AcmSymBB|Product Description: AutoCAD Mechanical 2004 DX|Company: Autodesk"
 90
    32768
280
     0
281
     0
  0
CLASS
  1
AMDTFORMULAUPDATEDISPATCHER
  2
AmdtFormulaUpdateDispatcher
  3
AcMeServices
 90
        0
280
     0
281
     0
  0
CLASS
  1
ACMPARTLIST
  2
AcmPartList
  3
"AcmSymBB|Product Description: AutoCAD Mechanical 2004 DX|Company: Autodesk"
 90
    33791
280
     0
281
     1
  0
CLASS
  1
ACAMGFILTERDAT
  2
AcAmgFilterDat
  3
"AcadM|Product Description: AutoCAD Mechanical 2000|Company: Autodesk"
 90
        0
280
     0
281
     0
  0
CLASS
  1
DIMASSOC
  2
AcDbDimAssoc
  3
"AcDbDimAssoc|Product Desc:     AcDim ARX App For Dimension|Company:          Autodesk, Inc.|WEB Address:      www.autodesk.com"
 90
        0
280
     0
281
     0
  0
CLASS
  1
SORTENTSTABLE
  2
AcDbSortentsTable
  3
ObjectDBX Classes
 90
        0
280
     0
281
     0
  0
CLASS
  1
AMDTNOTE
  2
AmdtNote
  3
"AcmSymBB|Product Description: AutoCAD Mechanical 2004 DX|Company: Autodesk"
 90
     1023
280
     0
281
     1
  0
CLASS
  1
ACRFATTGENMGR
  2
AcRfAttGeneralMgr
  3
AcAttribServices
 90
        0
280
     0
281
     0
  0
ENDSEC
  0
SECTION
  2
TABLES
  0
TABLE
  2
VPORT
  5
8
330
0
100
AcDbSymbolTable
 70
   212
  0
VPORT
  5
1116
330
8
100
AcDbSymbolTableRecord
100
AcDbViewportTableRecord
  2
*Active
 70
     0
 10
0.0
 20
0.0
 11
1.0
 21
1.0
 12
241.6429148330853
 22
173.4944085369665
 13
0.0
 23
0.0
 14
2.5
 24
2.5
 15
10.0
 25
10.0
 16
0.0
 26
0.0
 36
1.0
 17
0.0
 27
0.0
 37
0.0
 40
269.4404242899362
 41
1.609210526315789
 42
50.0
 43
0.0
 44
0.0
 50
0.0
 51
0.0
 71
     0
 72
   100
 73
     1
 74
     3
 75
     0
 76
     0
 77
     0
 78
     0
281
     0
 65
     1
110
0.0
120
0.0
130
0.0
111
1.0
121
0.0
131
0.0
112
0.0
122
1.0
132
0.0
 79
     0
146
0.0
  0
ENDTAB
  0
TABLE
  2
LTYPE
  5
5
330
0
100
AcDbSymbolTable
 70
    14
  0
LTYPE
  5
14
330
5
100
AcDbSymbolTableRecord
100
AcDbLinetypeTableRecord
  2
ByBlock
 70
     0
  3

 72
    65
 73
     0
 40
0.0
  0
LTYPE
  5
15
330
5
100
AcDbSymbolTableRecord
100
AcDbLinetypeTableRecord
  2
ByLayer
 70
     0
  3

 72
    65
 73
     0
 40
0.0
  0
LTYPE
  5
16
330
5
100
AcDbSymbolTableRecord
100
AcDbLinetypeTableRecord
  2
Continuous
 70
     0
  3
Solid line
 72
    65
 73
     0
 40
0.0
  0
LTYPE
  5
64
330
5
100
AcDbSymbolTableRecord
100
AcDbLinetypeTableRecord
  2
AM_ISO02W050
 70
     0
  3
__ __ __ __ __ __ __ __ __ __ __ __ __ __ __
 72
    65
 73
     2
 40
7.5
 49
6.0
 74
     0
 49
-1.5
 74
     0
  0
LTYPE
  5
65
330
5
100
AcDbSymbolTableRecord
100
AcDbLinetypeTableRecord
  2
AM_ISO08W050
 70
     0
  3
____ . ____ . ____ . ____ . ____ . ____ . ____
 72
    65
 73
     4
 40
18.0
 49
12.0
 74
     0
 49
-1.5
 74
     0
 49
3.0
 74
     0
 49
-1.5
 74
     0
  0
LTYPE
  5
66
330
5
100
AcDbSymbolTableRecord
100
AcDbLinetypeTableRecord
  2
AM_ISO09W050
 70
     0
  3
_____ . . _____ . . _____ . . ____ .. ____
 72
    65
 73
     6
 40
22.5
 49
12.0
 74
     0
 49
-1.5
 74
     0
 49
3.0
 74
     0
 49
-1.5
 74
     0
 49
3.0
 74
     0
 49
-1.5
 74
     0
  0
LTYPE
  5
67
330
5
100
AcDbSymbolTableRecord
100
AcDbLinetypeTableRecord
  2
Amconstr
 70
     0
  3
_______________________
 72
    65
 73
     2
 40
9999.0
 49
9999.0
 74
     0
 49
0.0
 74
     0
  0
LTYPE
  5
68
330
5
100
AcDbSymbolTableRecord
100
AcDbLinetypeTableRecord
  2
AM_ISO08W050x2
 70
     0
  3
__ . __ . __ . __ . __ . __
 72
    65
 73
     4
 40
9.0
 49
6.0
 74
     0
 49
-0.75
 74
     0
 49
1.5
 74
     0
 49
-0.75
 74
     0
  0
LTYPE
  5
69
330
5
100
AcDbSymbolTableRecord
100
AcDbLinetypeTableRecord
  2
AM_ISO02W050x2
 70
     0
  3
 _ _ _ _ _ _ _ _ _ _ _ _
 72
    65
 73
     2
 40
3.75
 49
3.0
 74
     0
 49
-0.75
 74
     0
  0
LTYPE
  5
6C
330
5
100
AcDbSymbolTableRecord
100
AcDbLinetypeTableRecord
  2
Amzigzag
 70
     0
  3
/\/-/\/-/\/-/\/-/\/-/\/
 72
    65
 73
     2
 40
11.0001
 49
0.0001
 74
     4
 75
   135
340
6B
 46
0.04
 50
0.0
 44
0.0
 45
0.0
 49
-11.0
 74
     0
  0
LTYPE
  5
7A
330
5
100
AcDbSymbolTableRecord
100
AcDbLinetypeTableRecord
  2
ACISOWELD
 70
     0
  3
_ _ _ _ _
 72
    65
 73
     2
 40
2.0
 49
2.0
 74
     0
 49
-1.0
 74
     0
  0
LTYPE
  5
7B
330
5
100
AcDbSymbolTableRecord
100
AcDbLinetypeTableRecord
  2
ACISOTGB
 70
     0
  3
__ . . __ . .
 72
    65
 73
     6
 40
9.0
 49
4.0
 74
     0
 49
-1.0
 74
     0
 49
1.0
 74
     0
 49
-1.0
 74
     0
 49
1.0
 74
     0
 49
-1.0
 74
     0
  0
LTYPE
  5
7C
330
5
100
AcDbSymbolTableRecord
100
AcDbLinetypeTableRecord
  2
ACISOTGL
 70
     0
  3
_ _ _ _ _
 72
    65
 73
     2
 40
3.0
 49
2.0
 74
     0
 49
-1.0
 74
     0
  0
LTYPE
  5
7E
330
5
100
AcDbSymbolTableRecord
100
AcDbLinetypeTableRecord
  2
CENTER
 70
     0
  3
__ . __
 72
    65
 73
     4
 40
7.0
 49
4.0
 74
     0
 49
-1.0
 74
     0
 49
1.0
 74
     0
 49
-1.0
 74
     0
  0
LTYPE
  5
D8
330
5
100
AcDbSymbolTableRecord
100
AcDbLinetypeTableRecord
  2
HIDDEN
 70
     0
  3
Hidden __ __ __ __ __ __ __ __ __ __ __ __ __ _
 72
    65
 73
     2
 40
9.524999999999998
 49
6.349999999999999
 74
     0
 49
-3.174999999999999
 74
     0
  0
LTYPE
  5
D9
330
5
100
AcDbSymbolTableRecord
100
AcDbLinetypeTableRecord
  2
PHANTOM2
 70
     0
  3
Phantom (.5x) ___ _ _ ___ _ _ ___ _ _ ___ _ _
 72
    65
 73
     6
 40
31.75
 49
15.875
 74
     0
 49
-3.174999999999999
 74
     0
 49
3.174999999999999
 74
     0
 49
-3.174999999999999
 74
     0
 49
3.174999999999999
 74
     0
 49
-3.174999999999999
 74
     0
  0
ENDTAB
  0
TABLE
  2
LAYER
  5
2
102
{ACAD_XDICTIONARY
360
3F9
102
}
330
0
100
AcDbSymbolTable
 70
     7
  0
LAYER
  5
10
330
2
100
AcDbSymbolTableRecord
100
AcDbLayerTableRecord
  2
0
 70
     0
 62
     7
  6
Continuous
370
    -3
390
F
  0
LAYER
  5
A4C
330
2
100
AcDbSymbolTableRecord
100
AcDbLayerTableRecord
  2
AM_4
 70
     0
 62
     3
  6
Continuous
370
    25
390
F
  0
LAYER
  5
A4D
330
2
100
AcDbSymbolTableRecord
100
AcDbLayerTableRecord
  2
AM_VIS
 70
     0
 62
     7
  6
Continuous
370
    50
390
F
  0
LAYER
  5
A4E
330
2
100
AcDbSymbolTableRecord
100
AcDbLayerTableRecord
  2
AM_7
 70
     0
 62
     1
  6
CENTER
370
    25
390
F
  0
LAYER
  5
A4F
330
2
100
AcDbSymbolTableRecord
100
AcDbLayerTableRecord
  2
LOGO
 70
     0
 62
     7
  6
Continuous
370
    -3
390
F
  0
LAYER
  5
C8D
330
2
100
AcDbSymbolTableRecord
100
AcDbLayerTableRecord
  2
AM_5
 70
     0
 62
     5
  6
Continuous
370
    50
390
F
  0
LAYER
  5
C9D
330
2
100
AcDbSymbolTableRecord
100
AcDbLayerTableRecord
  2
Defpoints
 70
     0
 62
     7
  6
Continuous
290
     0
370
    -3
390
F
  0
ENDTAB
  0
TABLE
  2
STYLE
  5
3
330
0
100
AcDbSymbolTable
 70
     6
  0
STYLE
  5
11
330
3
100
AcDbSymbolTableRecord
100
AcDbTextStyleTableRecord
  2
STANDARD
 70
     0
 40
0.0
 41
1.0
 50
0.0
 71
     0
 42
3.0
  3
ISOCP.SHX
  4
CHINESET.SHX
  0
STYLE
  5
6B
330
3
100
AcDbSymbolTableRecord
100
AcDbTextStyleTableRecord
  2

 70
     1
 40
0.0
 41
1.0
 50
0.0
 71
     0
 42
2.5
  3
ltypeshp.shx
  4

  0
STYLE
  5
6D
330
3
100
AcDbSymbolTableRecord
100
AcDbTextStyleTableRecord
  2
ACISOTS
 70
     0
 40
1.0
 41
1.0
 50
0.0
 71
     0
 42
1.0
  3
isocp.shx
  4
chineset.shx
  0
STYLE
  5
79
330
3
100
AcDbSymbolTableRecord
100
AcDbTextStyleTableRecord
  2
ACISOGDT
 70
     0
 40
0.0
 41
1.0
 50
0.0
 71
     0
 42
2.5
  3
amgdt.shx
  4
chineset.shx
  0
STYLE
  5
A50
330
3
100
AcDbSymbolTableRecord
100
AcDbTextStyleTableRecord
  2
CHINESET
 70
     0
 40
0.0
 41
1.0
 50
0.0
 71
     0
 42
2.5
  3
simplex.shx
  4
CHINESET.shx
  0
ENDTAB
  0
TABLE
  2
VIEW
  5
6
330
0
100
AcDbSymbolTable
 70
     0
  0
ENDTAB
  0
TABLE
  2
UCS
  5
7
330
0
100
AcDbSymbolTable
 70
     0
  0
ENDTAB
  0
TABLE
  2
APPID
  5
9
330
0
100
AcDbSymbolTable
 70
    20
  0
APPID
  5
12
330
9
100
AcDbSymbolTableRecord
100
AcDbRegAppTableRecord
  2
ACAD
 70
     0
  0
APPID
  5
46
330
9
100
AcDbSymbolTableRecord
100
AcDbRegAppTableRecord
  2
MCAD_NO_VIS
 70
     0
  0
APPID
  5
47
330
9
100
AcDbSymbolTableRecord
100
AcDbRegAppTableRecord
  2
ACAD_TEMP_GRAPHIC
 70
     0
  0
APPID
  5
58
330
9
100
AcDbSymbolTableRecord
100
AcDbRegAppTableRecord
  2
ACATTRIBSERVICES
 70
     0
  0
APPID
  5
EE
330
9
100
AcDbSymbolTableRecord
100
AcDbRegAppTableRecord
  2
AD_DRAW
 70
     0
  0
APPID
  5
10C
330
9
100
AcDbSymbolTableRecord
100
AcDbRegAppTableRecord
  2
DESIGNERASSEMBLIES
 70
     0
  0
APPID
  5
111
330
9
100
AcDbSymbolTableRecord
100
AcDbRegAppTableRecord
  2
ACADM_DIM_EDIT
 70
     0
  0
APPID
  5
112
330
9
100
AcDbSymbolTableRecord
100
AcDbRegAppTableRecord
  2
AMDT_DM_ADJ
 70
     0
  0
APPID
  5
22C
330
9
100
AcDbSymbolTableRecord
100
AcDbRegAppTableRecord
  2
ACAD_DSTYLE_DIMTEXT_FILL
 70
     0
  0
APPID
  5
452
330
9
100
AcDbSymbolTableRecord
100
AcDbRegAppTableRecord
  2
GENIUS_GENOENT_13
 70
     0
  0
APPID
  5
453
330
9
100
AcDbSymbolTableRecord
100
AcDbRegAppTableRecord
  2
GENIUS_GENOBJ-N-CRS_13
 70
     0
  0
APPID
  5
454
330
9
100
AcDbSymbolTableRecord
100
AcDbRegAppTableRecord
  2
GENIUS_GENOLIS_13
 70
     0
  0
APPID
  5
455
330
9
100
AcDbSymbolTableRecord
100
AcDbRegAppTableRecord
  2
GENIUS_GENODEF_13
 70
     0
  0
APPID
  5
456
330
9
100
AcDbSymbolTableRecord
100
AcDbRegAppTableRecord
  2
GENIUS_GENOREF_13
 70
     0
  0
APPID
  5
6F3
330
9
100
AcDbSymbolTableRecord
100
AcDbRegAppTableRecord
  2
ACAD_PSEXT
 70
     0
  0
APPID
  5
808
330
9
100
AcDbSymbolTableRecord
100
AcDbRegAppTableRecord
  2
GENIUS_GENDTOL_13
 70
     0
  0
APPID
  5
A55
330
9
100
AcDbSymbolTableRecord
100
AcDbRegAppTableRecord
  2
GENIUS_GENREC_14
 70
     0
  0
APPID
  5
A56
330
9
100
AcDbSymbolTableRecord
100
AcDbRegAppTableRecord
  2
GENIUS_GENOBJ-N-REC_13
 70
     0
  0
APPID
  5
10D8
330
9
100
AcDbSymbolTableRecord
100
AcDbRegAppTableRecord
  2
GENIUS_GENOBJ-N-CEN_13
 70
     0
  0
APPID
  5
10D9
330
9
100
AcDbSymbolTableRecord
100
AcDbRegAppTableRecord
  2
GENIUS_GENCEN_19
 70
     0
  0
ENDTAB
  0
TABLE
  2
DIMSTYLE
  5
A
330
0
100
AcDbSymbolTable
 70
    13
100
AcDbDimStyleTable
 71
     3
340
81
340
8B
340
86
  0
DIMSTYLE
105
81
330
A
100
AcDbSymbolTableRecord
100
AcDbDimStyleTableRecord
  2
AM_ISO
 70
     0
  4
"
 41
3.0
 42
1.0
 43
8.0
 44
1.5
 47
0.1
 48
0.1
 73
     0
 74
     0
 77
     1
 78
     8
 79
     2
140
3.5
141
0.0
143
0.0393701
146
0.6
147
0.7
172
     1
176
   256
177
   256
178
   256
271
     2
272
     2
283
     0
284
     8
340
11
371
    -1
372
    -1
  0
DIMSTYLE
105
82
330
A
100
AcDbSymbolTableRecord
100
AcDbDimStyleTableRecord
  2
AM_ISO$3
 70
     0
  4
"
 41
3.0
 42
1.0
 43
8.0
 44
1.5
 47
0.1
 48
0.1
 73
     0
 77
     1
 78
     8
 79
     2
140
3.5
141
0.0
143
0.0393701
146
0.6
147
0.7
176
   256
177
   256
178
   256
271
     2
272
     2
283
     0
284
     8
288
     1
289
     0
340
11
371
    -1
372
    -1
  0
DIMSTYLE
105
83
330
A
100
AcDbSymbolTableRecord
100
AcDbDimStyleTableRecord
  2
AM_ISO$4
 70
     0
  4
"
 41
3.0
 42
1.0
 43
8.0
 44
1.5
 47
0.1
 48
0.1
 73
     0
 77
     1
 78
     8
 79
     2
140
3.5
141
0.0
143
0.0393701
146
0.6
147
0.7
176
   256
177
   256
178
   256
271
     2
272
     2
283
     0
284
     8
288
     1
289
     0
340
11
371
    -1
372
    -1
  0
DIMSTYLE
105
84
330
A
100
AcDbSymbolTableRecord
100
AcDbDimStyleTableRecord
  2
AM_ISO$6
 70
     0
  4
"
 41
3.0
 42
1.0
 43
8.0
 44
1.5
 47
0.1
 48
0.1
 73
     0
 74
     0
 78
     8
 79
     2
140
3.5
141
0.0
143
0.0393701
146
0.6
147
0.7
172
     1
176
   256
177
   256
178
   256
271
     2
272
     2
283
     0
284
     8
340
11
371
    -1
372
    -1
  0
DIMSTYLE
105
85
330
A
100
AcDbSymbolTableRecord
100
AcDbDimStyleTableRecord
  2
AM_ISO$7
 70
     0
  4
"
 41
3.0
 42
1.0
 43
8.0
 44
1.5
 47
0.1
 48
0.1
 73
     0
 74
     0
 77
     1
 78
     8
 79
     2
140
5.0
141
0.0
143
0.0393701
146
0.6
147
0.7
172
     1
176
   256
177
   256
178
   256
271
     2
272
     2
283
     0
284
     8
340
11
371
    -1
372
    -1
  0
DIMSTYLE
105
86
330
A
100
AcDbSymbolTableRecord
100
AcDbDimStyleTableRecord
  2
AM_ISO$SF
 70
     0
  4
"
 41
2.5
 42
1.0
 43
10.0
 44
1.0
 47
0.1
 48
0.1
 73
     0
 74
     0
 75
     1
 76
     1
 77
     1
 78
     8
 79
     2
140
3.5
141
0.0
143
0.0393701
146
0.71
147
1.5
172
     1
176
   256
177
   256
178
     2
271
     2
272
     3
274
     4
283
     0
284
     8
340
11
371
    -1
372
    -1
  0
DIMSTYLE
105
8B
330
A
100
AcDbSymbolTableRecord
100
AcDbDimStyleTableRecord
  2
AM_ISO$SH
 70
     0
  4
"
 41
2.5
 42
1.0
 43
10.0
 44
1.0
 47
0.1
 48
0.1
 73
     0
 74
     0
 75
     1
 76
     1
 77
     1
 78
     8
 79
     2
140
3.5
141
0.0
143
0.0393701
144
2.0
146
0.71
147
1.5
172
     1
173
     1
176
   256
177
   256
178
     2
271
     2
272
     3
274
     4
283
     0
284
     8
340
11
343
87
371
    -1
372
    -1
  0
DIMSTYLE
105
40B
102
{ACAD_REACTORS
330
F55
330
F7B
330
FB2
330
FE2
330
1032
102
}
330
A
100
AcDbSymbolTableRecord
100
AcDbDimStyleTableRecord
  2
AM_ISO$0
 70
     0
  4
"
 41
3.0
 42
1.0
 43
8.0
 44
1.5
 47
0.1
 48
0.1
 73
     0
 74
     0
 77
     1
 78
     8
 79
     2
140
3.5
141
0.0
143
0.0393701
146
0.6
147
0.7
172
     1
176
   256
177
   256
178
   256
271
     2
272
     2
283
     0
284
     8
340
11
371
    -1
372
    -1
  0
ENDTAB
  0
TABLE
  2
BLOCK_RECORD
  5
1
330
0
100
AcDbSymbolTable
 70
    16
  0
BLOCK_RECORD
  5
1F
102
{ACAD_XDICTIONARY
360
8F
102
}
330
1
100
AcDbSymbolTableRecord
100
AcDbBlockTableRecord
  2
*Model_Space
340
22
  0
BLOCK_RECORD
  5
1B
330
1
100
AcDbSymbolTableRecord
100
AcDbBlockTableRecord
  2
*Paper_Space
340
1E
  0
BLOCK_RECORD
  5
23
330
1
100
AcDbSymbolTableRecord
100
AcDbBlockTableRecord
  2
*Paper_Space0
340
26
  0
BLOCK_RECORD
  5
87
330
1
100
AcDbSymbolTableRecord
100
AcDbBlockTableRecord
  2
GENAXEH
340
0
  0
BLOCK_RECORD
  5
F56
330
1
100
AcDbSymbolTableRecord
100
AcDbBlockTableRecord
  2
*D8
340
0
  0
BLOCK_RECORD
  5
F7C
330
1
100
AcDbSymbolTableRecord
100
AcDbBlockTableRecord
  2
*D9
340
0
  0
BLOCK_RECORD
  5
FB3
330
1
100
AcDbSymbolTableRecord
100
AcDbBlockTableRecord
  2
*D10
340
0
  0
BLOCK_RECORD
  5
FE3
330
1
100
AcDbSymbolTableRecord
100
AcDbBlockTableRecord
  2
*D11
340
0
  0
BLOCK_RECORD
  5
1033
330
1
100
AcDbSymbolTableRecord
100
AcDbBlockTableRecord
  2
*D13
340
0
  0
BLOCK_RECORD
  5
110C
330
1
100
AcDbSymbolTableRecord
100
AcDbBlockTableRecord
  2
*S15
340
0
  0
ENDTAB
  0
ENDSEC
  0
SECTION
  2
BLOCKS
  0
BLOCK
  5
20
330
1F
100
AcDbEntity
  8
0
100
AcDbBlockBegin
  2
*Model_Space
 70
     0
 10
0.0
 20
0.0
 30
0.0
  3
*Model_Space
  1

  0
ENDBLK
  5
21
330
1F
100
AcDbEntity
  8
0
100
AcDbBlockEnd
  0
BLOCK
  5
1C
330
1B
100
AcDbEntity
 67
     1
  8
0
100
AcDbBlockBegin
  2
*Paper_Space
 70
     0
 10
0.0
 20
0.0
 30
0.0
  3
*Paper_Space
  1

  0
ENDBLK
  5
1D
330
1B
100
AcDbEntity
 67
     1
  8
0
100
AcDbBlockEnd
  0
BLOCK
  5
24
330
23
100
AcDbEntity
  8
0
100
AcDbBlockBegin
  2
*Paper_Space0
 70
     0
 10
0.0
 20
0.0
 30
0.0
  3
*Paper_Space0
  1

  0
ENDBLK
  5
25
330
23
100
AcDbEntity
  8
0
100
AcDbBlockEnd
  0
BLOCK
  5
89
330
87
100
AcDbEntity
  8
0
100
AcDbBlockBegin
  2
GENAXEH
 70
     0
 10
0.0
 20
0.0
 30
0.0
  3
GENAXEH
  1

  0
LINE
  5
88
330
87
100
AcDbEntity
  8
0
100
AcDbLine
 10
-1.0
 20
0.0
 30
0.0
 11
1.0
 21
0.0
 31
0.0
  0
ENDBLK
  5
8A
330
87
100
AcDbEntity
  8
0
100
AcDbBlockEnd
  0
BLOCK
  5
F60
330
F56
100
AcDbEntity
  8
0
100
AcDbBlockBegin
  2
*D8
 70
     1
 10
0.0
 20
0.0
 30
0.0
  3
*D8
  1

  0
LINE
  5
109E
330
F56
100
AcDbEntity
  8
AM_5
100
AcDbLine
 10
196.9774363916559
 20
116.3356379043628
 30
0.0
 11
196.9774363916559
 21
79.64026323003356
 31
0.0
  0
LINE
  5
109F
330
F56
100
AcDbEntity
  8
AM_5
100
AcDbLine
 10
220.477436391656
 20
97.33563790436278
 30
0.0
 11
220.477436391656
 21
79.64026323003356
 31
0.0
  0
LINE
  5
10A0
330
F56
100
AcDbEntity
  8
AM_5
100
AcDbLine
 10
199.9774363916559
 20
81.14026323003356
 30
0.0
 11
217.4774363916559
 21
81.14026323003356
 31
0.0
  0
SOLID
  5
10A1
330
F56
100
AcDbEntity
  8
AM_5
100
AcDbTrace
 10
199.9774363916559
 20
81.64026323003355
 30
0.0
 11
199.9774363916559
 21
80.64026323003355
 31
0.0
 12
196.9774363916559
 22
81.14026323003356
 32
0.0
 13
196.9774363916559
 23
81.14026323003356
 33
0.0
  0
SOLID
  5
10A2
330
F56
100
AcDbEntity
  8
AM_5
100
AcDbTrace
 10
217.4774363916559
 20
81.64026323003355
 30
0.0
 11
217.4774363916559
 21
80.64026323003355
 31
0.0
 12
220.477436391656
 22
81.14026323003356
 32
0.0
 13
220.477436391656
 23
81.14026323003356
 33
0.0
  0
MTEXT
  5
10A3
330
F56
100
AcDbEntity
  8
AM_5
100
AcDbMText
 10
208.7274363916559
 20
83.59060771822253
 30
0.0
 40
3.5
 41
0.0
 71
     5
 72
     1
  1
23.5
 73
     1
 44
1.0
1001
ACAD
1000
MTEXTBEGIN
1070
    73
1070
     1
1070
    44
1040
1.0
1070
    74
1070
     0
1000
MTEXTEND
  0
POINT
  5
10A4
330
F56
100
AcDbEntity
  8
Defpoints
 62
     0
100
AcDbPoint
 10
196.9774363916559
 20
117.3356379043628
 30
0.0
  0
POINT
  5
10A5
330
F56
100
AcDbEntity
  8
Defpoints
 62
     0
100
AcDbPoint
 10
220.477436391656
 20
98.33563790436279
 30
0.0
  0
POINT
  5
10A6
330
F56
100
AcDbEntity
  8
Defpoints
 62
     0
100
AcDbPoint
 10
220.477436391656
 20
81.14026323003356
 30
0.0
  0
ENDBLK
  5
F61
330
F56
100
AcDbEntity
  8
0
100
AcDbBlockEnd
  0
BLOCK
  5
F86
330
F7C
100
AcDbEntity
  8
0
100
AcDbBlockBegin
  2
*D9
 70
     1
 10
0.0
 20
0.0
 30
0.0
  3
*D9
  1

  0
LINE
  5
10A7
330
F7C
100
AcDbEntity
  8
AM_5
100
AcDbLine
 10
189.4774363916559
 20
123.8356379043628
 30
0.0
 11
176.9774363916559
 21
123.8356379043628
 31
0.0
  0
LINE
  5
10A8
330
F7C
100
AcDbEntity
  8
AM_5
100
AcDbLine
 10
212.9774363916559
 20
104.8356379043628
 30
0.0
 11
176.9774363916559
 21
104.8356379043628
 31
0.0
  0
LINE
  5
10A9
330
F7C
100
AcDbEntity
  8
AM_5
100
AcDbLine
 10
178.4774363916559
 20
120.8356379043628
 30
0.0
 11
178.4774363916559
 21
107.8356379043628
 31
0.0
  0
SOLID
  5
10AA
330
F7C
100
AcDbEntity
  8
AM_5
100
AcDbTrace
 10
177.9774363916559
 20
120.8356379043628
 30
0.0
 11
178.9774363916559
 21
120.8356379043628
 31
0.0
 12
178.4774363916559
 22
123.8356379043628
 32
0.0
 13
178.4774363916559
 23
123.8356379043628
 33
0.0
  0
SOLID
  5
10AB
330
F7C
100
AcDbEntity
  8
AM_5
100
AcDbTrace
 10
177.9774363916559
 20
107.8356379043628
 30
0.0
 11
178.9774363916559
 21
107.8356379043628
 31
0.0
 12
178.4774363916559
 22
104.8356379043628
 32
0.0
 13
178.4774363916559
 23
104.8356379043628
 33
0.0
  0
MTEXT
  5
10AC
330
F7C
100
AcDbEntity
  8
AM_5
100
AcDbMText
 10
176.0274363916559
 20
114.3356379043628
 30
0.0
 40
3.5
 41
0.0
 71
     5
 72
     1
  1
19
 11
0.0000000000000001
 21
1.0
 31
0.0
 73
     1
 44
1.0
1001
ACAD
1000
MTEXTBEGIN
1070
    73
1070
     1
1070
    44
1040
1.0
1070
    74
1070
     0
1000
MTEXTEND
  0
POINT
  5
10AD
330
F7C
100
AcDbEntity
  8
Defpoints
 62
     0
100
AcDbPoint
 10
190.4774363916559
 20
123.8356379043628
 30
0.0
  0
POINT
  5
10AE
330
F7C
100
AcDbEntity
  8
Defpoints
 62
     0
100
AcDbPoint
 10
213.977436391656
 20
104.8356379043628
 30
0.0
  0
POINT
  5
10AF
330
F7C
100
AcDbEntity
  8
Defpoints
 62
     0
100
AcDbPoint
 10
178.4774363916559
 20
104.8356379043628
 30
0.0
  0
ENDBLK
  5
F87
330
F7C
100
AcDbEntity
  8
0
100
AcDbBlockEnd
  0
BLOCK
  5
FBD
330
FB3
100
AcDbEntity
  8
0
100
AcDbBlockBegin
  2
*D10
 70
     1
 10
0.0
 20
0.0
 30
0.0
  3
*D10
  1

  0
LINE
  5
10B0
330
FB3
100
AcDbEntity
  8
AM_5
100
AcDbLine
 10
188.4774363916559
 20
153.9190041679955
 30
0.0
 11
188.4774363916559
 21
142.5646295075249
 31
0.0
  0
LINE
  5
10B1
330
FB3
100
AcDbEntity
  8
AM_5
100
AcDbLine
 10
228.9774363916559
 20
153.9190041679955
 30
0.0
 11
228.9774363916559
 21
142.5646295075249
 31
0.0
  0
LINE
  5
10B2
330
FB3
100
AcDbEntity
  8
AM_5
100
AcDbLine
 10
191.4774363916559
 20
144.0646295075249
 30
0.0
 11
225.9774363916559
 21
144.0646295075249
 31
0.0
  0
SOLID
  5
10B3
330
FB3
100
AcDbEntity
  8
AM_5
100
AcDbTrace
 10
191.4774363916559
 20
144.5646295075249
 30
0.0
 11
191.4774363916559
 21
143.5646295075249
 31
0.0
 12
188.4774363916559
 22
144.0646295075249
 32
0.0
 13
188.4774363916559
 23
144.0646295075249
 33
0.0
  0
SOLID
  5
10B4
330
FB3
100
AcDbEntity
  8
AM_5
100
AcDbTrace
 10
225.9774363916559
 20
144.5646295075249
 30
0.0
 11
225.9774363916559
 21
143.5646295075249
 31
0.0
 12
228.9774363916559
 22
144.0646295075249
 32
0.0
 13
228.9774363916559
 23
144.0646295075249
 33
0.0
  0
MTEXT
  5
10B5
330
FB3
100
AcDbEntity
  8
AM_5
100
AcDbMText
 10
208.7274363916559
 20
146.5146295075249
 30
0.0
 40
3.5
 41
0.0
 71
     5
 72
     1
  1
40.5
 73
     1
 44
1.0
1001
ACAD
1000
MTEXTBEGIN
1070
    73
1070
     1
1070
    44
1040
1.0
1070
    74
1070
     0
1000
MTEXTEND
  0
POINT
  5
10B6
330
FB3
100
AcDbEntity
  8
Defpoints
 62
     0
100
AcDbPoint
 10
188.4774363916559
 20
154.9190041679955
 30
0.0
  0
POINT
  5
10B7
330
FB3
100
AcDbEntity
  8
Defpoints
 62
     0
100
AcDbPoint
 10
228.9774363916559
 20
154.9190041679955
 30
0.0
  0
POINT
  5
10B8
330
FB3
100
AcDbEntity
  8
Defpoints
 62
     0
100
AcDbPoint
 10
228.9774363916559
 20
144.0646295075249
 30
0.0
  0
ENDBLK
  5
FBE
330
FB3
100
AcDbEntity
  8
0
100
AcDbBlockEnd
  0
BLOCK
  5
FED
330
FE3
100
AcDbEntity
  8
0
100
AcDbBlockBegin
  2
*D11
 70
     1
 10
0.0
 20
0.0
 30
0.0
  3
*D11
  1

  0
LINE
  5
10DE
330
FE3
100
AcDbEntity
  8
AM_5
100
AcDbLine
 10
274.6243171629527
 20
154.9641598779955
 30
0.0
 11
257.9454653272632
 21
154.9641598779955
 31
0.0
  0
LINE
  5
10DF
330
FE3
100
AcDbEntity
  8
AM_5
100
AcDbLine
 10
288.6243171629527
 20
229.9641598798175
 30
0.0
 11
257.9454653272632
 21
229.9641598798175
 31
0.0
  0
LINE
  5
10E0
330
FE3
100
AcDbEntity
  8
AM_5
100
AcDbLine
 10
259.4454653272631
 20
157.9641598779955
 30
0.0
 11
259.4454653272631
 21
226.9641598798175
 31
0.0
  0
SOLID
  5
10E1
330
FE3
100
AcDbEntity
  8
AM_5
100
AcDbTrace
 10
258.9454653272631
 20
157.9641598779955
 30
0.0
 11
259.9454653272632
 21
157.9641598779955
 31
0.0
 12
259.4454653272631
 22
154.9641598779955
 32
0.0
 13
259.4454653272631
 23
154.9641598779955
 33
0.0
  0
SOLID
  5
10E2
330
FE3
100
AcDbEntity
  8
AM_5
100
AcDbTrace
 10
258.9454653272631
 20
226.9641598798175
 30
0.0
 11
259.9454653272632
 21
226.9641598798175
 31
0.0
 12
259.4454653272631
 22
229.9641598798175
 32
0.0
 13
259.4454653272631
 23
229.9641598798175
 33
0.0
  0
MTEXT
  5
10E3
330
FE3
100
AcDbEntity
  8
AM_5
100
AcDbMText
 10
256.9954653272631
 20
192.4641598789066
 30
0.0
 40
3.5
 41
0.0
 71
     5
 72
     1
  1
75
 11
0.0000000000000001
 21
1.0
 31
0.0
 73
     1
 44
1.0
1001
ACAD
1000
MTEXTBEGIN
1070
    73
1070
     1
1070
    44
1040
1.0
1070
    74
1070
     0
1000
MTEXTEND
  0
POINT
  5
10E4
330
FE3
100
AcDbEntity
  8
Defpoints
 62
     0
100
AcDbPoint
 10
275.6243171629527
 20
154.9641598779955
 30
0.0
  0
POINT
  5
10E5
330
FE3
100
AcDbEntity
  8
Defpoints
 62
     0
100
AcDbPoint
 10
289.6243171629527
 20
229.9641598798175
 30
0.0
  0
POINT
  5
10E6
330
FE3
100
AcDbEntity
  8
Defpoints
 62
     0
100
AcDbPoint
 10
259.4454653272631
 20
229.9641598798175
 30
0.0
  0
ENDBLK
  5
FEE
330
FE3
100
AcDbEntity
  8
0
100
AcDbBlockEnd
  0
BLOCK
  5
103D
330
1033
100
AcDbEntity
  8
0
100
AcDbBlockBegin
  2
*D13
 70
     1
 10
0.0
 20
0.0
 30
0.0
  3
*D13
  1

  0
LINE
  5
10C2
330
1033
100
AcDbEntity
  8
AM_5
100
AcDbLine
 10
187.4774363916559
 20
213.9641598798176
 30
0.0
 11
187.4774363916559
 21
238.855651243124
 31
0.0
  0
LINE
  5
10C3
330
1033
100
AcDbEntity
  8
AM_5
100
AcDbLine
 10
229.9774363916559
 20
213.9641598798176
 30
0.0
 11
229.9774363916559
 21
238.855651243124
 31
0.0
  0
LINE
  5
10C4
330
1033
100
AcDbEntity
  8
AM_5
100
AcDbLine
 10
190.4774363916559
 20
237.355651243124
 30
0.0
 11
226.9774363916559
 21
237.355651243124
 31
0.0
  0
SOLID
  5
10C5
330
1033
100
AcDbEntity
  8
AM_5
100
AcDbTrace
 10
190.4774363916559
 20
237.855651243124
 30
0.0
 11
190.4774363916559
 21
236.855651243124
 31
0.0
 12
187.4774363916559
 22
237.355651243124
 32
0.0
 13
187.4774363916559
 23
237.355651243124
 33
0.0
  0
SOLID
  5
10C6
330
1033
100
AcDbEntity
  8
AM_5
100
AcDbTrace
 10
226.9774363916559
 20
237.855651243124
 30
0.0
 11
226.9774363916559
 21
236.855651243124
 31
0.0
 12
229.9774363916559
 22
237.355651243124
 32
0.0
 13
229.9774363916559
 23
237.355651243124
 33
0.0
  0
MTEXT
  5
10C7
330
1033
100
AcDbEntity
  8
AM_5
100
AcDbMText
 10
208.7274363916559
 20
239.805995731313
 30
0.0
 40
3.5
 41
0.0
 71
     5
 72
     1
  1
%%c42.5
 73
     1
 44
1.0
1001
ACAD
1000
MTEXTBEGIN
1070
    73
1070
     1
1070
    44
1040
1.0
1070
    74
1070
     0
1000
MTEXTEND
  0
POINT
  5
10C8
330
1033
100
AcDbEntity
  8
Defpoints
 62
     0
100
AcDbPoint
 10
187.4774363916559
 20
212.9641598798175
 30
0.0
  0
POINT
  5
10C9
330
1033
100
AcDbEntity
  8
Defpoints
 62
     0
100
AcDbPoint
 10
229.9774363916559
 20
212.9641598798175
 30
0.0
  0
POINT
  5
10CA
330
1033
100
AcDbEntity
  8
Defpoints
 62
     0
100
AcDbPoint
 10
229.9774363916559
 20
237.355651243124
 30
0.0
  0
ENDBLK
  5
103E
330
1033
100
AcDbEntity
  8
0
100
AcDbBlockEnd
  0
BLOCK
  5
1111
330
110C
100
AcDbEntity
  8
0
100
AcDbBlockBegin
  2
*S15
 70
     1
 10
0.0
 20
0.0
 30
0.0
  3
*S15
  1

  0
LINE
  5
110D
330
110C
100
AcDbEntity
  8
AM_5
 62
     5
100
AcDbLine
 10
318.8827948849176
 20
147.2763074502036
 30
0.0
 11
306.2914721395299
 21
147.2763074502036
 31
0.0
  0
LINE
  5
110E
330
110C
100
AcDbEntity
  8
AM_5
 62
     5
100
AcDbLine
 10
306.2914721395299
 20
147.2763074502036
 30
0.0
 11
296.8048598236137
 21
157.6313188016482
 31
0.0
  0
TRACE
  5
110F
330
110C
100
AcDbEntity
  8
AM_5
 62
     5
370
    35
100
AcDbTrace
 10
297.1446180369889
 20
157.9425839796423
 30
0.0
 11
296.4651016102386
 21
157.3200536236541
 31
0.0
 12
294.440566057168
 22
160.2120386597392
 32
0.0
 13
294.440566057168
 23
160.2120386597392
 33
0.0
  0
MTEXT
  5
1110
330
110C
100
AcDbEntity
  8
AM_5
 62
     5
100
AcDbMText
 10
318.8827948849176
 20
152.0453822464845
 30
0.0
 40
3.5
 41
0.0
 71
     7
 72
     5
  1

  7
ACISOTS
 73
     1
 44
1.0
1001
ACAD
1000
MTEXTBEGIN
1070
    73
1070
     1
1070
    44
1040
1.0
1070
    74
1070
     0
1000
MTEXTEND
  0
ENDBLK
  5
1112
330
110C
100
AcDbEntity
  8
0
100
AcDbBlockEnd
  0
ENDSEC
  0
SECTION
  2
ENTITIES
  0
SOLID
  5
E0F
330
1F
100
AcDbEntity
  8
LOGO
 62
     2
100
AcDbTrace
 10
159.2910719115911
 20
63.26366225677351
 30
0.0
 11
159.720273668953
 21
63.26366225677299
 31
0.0
 12
159.2910719115911
 22
53.42778865057415
 32
0.0
 13
159.720273668953
 23
53.42778865057415
 33
0.0
  0
POLYLINE
  5
E10
330
1F
100
AcDbEntity
  8
LOGO
 62
     5
100
AcDb2dPolyline
 66
     1
 10
0.0
 20
0.0
 30
0.0
 40
0.3582413172420924
 41
0.3582413172420924
  0
VERTEX
  5
E11
330
E10
100
AcDbEntity
  8
LOGO
 62
     5
100
AcDbVertex
100
AcDb2dVertex
 10
155.4529365720342
 20
50.92411173263264
 30
0.0
 42
1.0
  0
VERTEX
  5
E12
330
E10
100
AcDbEntity
  8
LOGO
 62
     5
100
AcDbVertex
100
AcDb2dVertex
 10
154.3782126203076
 20
50.92411173263264
 30
0.0
 42
1.0
  0
SEQEND
  5
E13
330
E10
100
AcDbEntity
  8
LOGO
 62
     5
  0
POLYLINE
  5
E14
330
1F
100
AcDbEntity
  8
LOGO
 62
     5
100
AcDb2dPolyline
 66
     1
 10
0.0
 20
0.0
 30
0.0
 40
0.3582413172420924
 41
0.3582413172420924
  0
VERTEX
  5
E15
330
E14
100
AcDbEntity
  8
LOGO
 62
     5
100
AcDbVertex
100
AcDb2dVertex
 10
156.5259409654366
 20
50.92411173263264
 30
0.0
 42
1.0
  0
VERTEX
  5
E16
330
E14
100
AcDbEntity
  8
LOGO
 62
     5
100
AcDbVertex
100
AcDb2dVertex
 10
155.4512170137107
 20
50.92411173263264
 30
0.0
 42
1.0
  0
SEQEND
  5
E17
330
E14
100
AcDbEntity
  8
LOGO
 62
     5
  0
POLYLINE
  5
E18
330
1F
100
AcDbEntity
  8
LOGO
 62
     5
100
AcDb2dPolyline
 66
     1
 10
0.0
 20
0.0
 30
0.0
 40
0.3582413172420924
 41
0.3582413172420924
  0
VERTEX
  5
E19
330
E18
100
AcDbEntity
  8
LOGO
 62
     5
100
AcDbVertex
100
AcDb2dVertex
 10
151.3993405746334
 20
50.92411173263264
 30
0.0
 42
1.0
  0
VERTEX
  5
E1A
330
E18
100
AcDbEntity
  8
LOGO
 62
     5
100
AcDbVertex
100
AcDb2dVertex
 10
150.3246166229074
 20
50.92411173263264
 30
0.0
 42
1.0
  0
SEQEND
  5
E1B
330
E18
100
AcDbEntity
  8
LOGO
 62
     5
  0
SOLID
  5
E1C
330
1F
100
AcDbEntity
  8
LOGO
 62
     5
100
AcDbTrace
 10
150.1466423365017
 20
51.63944799490185
 30
0.0
 11
150.5043104676355
 21
51.63944799490185
 31
0.0
 12
150.1466423365017
 22
49.85110733922962
 32
0.0
 13
150.5043104676355
 23
49.85110733922962
 33
0.0
  0
SOLID
  5
E1D
330
1F
100
AcDbEntity
  8
LOGO
 62
     5
100
AcDbTrace
 10
151.2196467299053
 20
50.92411173263264
 30
0.0
 11
151.5773148610402
 21
50.92411173263264
 31
0.0
 12
151.2196467299053
 22
49.85110733922962
 32
0.0
 13
151.5773148610402
 23
49.85110733922962
 33
0.0
  0
POLYLINE
  5
E1E
330
1F
100
AcDbEntity
  8
LOGO
 62
     5
100
AcDb2dPolyline
 66
     1
 10
0.0
 20
0.0
 30
0.0
 70
     1
 40
0.3582413172420924
 41
0.3582413172420924
  0
VERTEX
  5
E1F
330
E1E
100
AcDbEntity
  8
LOGO
 62
     5
100
AcDbVertex
100
AcDb2dVertex
 10
152.172329729799
 20
50.74527766706548
 30
0.0
 42
1.0
  0
VERTEX
  5
E20
330
E1E
100
AcDbEntity
  8
LOGO
 62
     5
100
AcDbVertex
100
AcDb2dVertex
 10
153.6052949987678
 20
50.74527766706548
 30
0.0
 42
1.0
  0
SEQEND
  5
E21
330
E1E
100
AcDbEntity
  8
LOGO
 62
     5
  0
SOLID
  5
E22
330
1F
100
AcDbEntity
  8
LOGO
 62
     5
100
AcDbTrace
 10
153.4252787941726
 20
52.17595019160393
 30
0.0
 11
153.7829469253069
 21
52.17595019160393
 31
0.0
 12
153.4252787941726
 22
49.85110733922962
 32
0.0
 13
153.7829469253069
 23
49.85110733922962
 33
0.0
  0
SOLID
  5
E23
330
1F
100
AcDbEntity
  8
LOGO
 62
     5
100
AcDbTrace
 10
154.2002383339025
 20
51.63944799490185
 30
0.0
 11
154.5579064650363
 21
51.63944799490185
 31
0.0
 12
154.2002383339025
 22
49.85110733922962
 32
0.0
 13
154.5579064650363
 23
49.85110733922962
 33
0.0
  0
SOLID
  5
E24
330
1F
100
AcDbEntity
  8
LOGO
 62
     5
100
AcDbTrace
 10
155.2732427273049
 20
50.92411173263264
 30
0.0
 11
155.6309108584399
 21
50.92411173263264
 31
0.0
 12
155.2732427273049
 22
49.85110733922962
 32
0.0
 13
155.6309108584399
 23
49.85110733922962
 33
0.0
  0
SOLID
  5
E25
330
1F
100
AcDbEntity
  8
LOGO
 62
     5
100
AcDbTrace
 10
156.3462471207085
 20
50.92411173263264
 30
0.0
 11
156.7039152518429
 21
50.92411173263264
 31
0.0
 12
156.3462471207085
 22
49.85110733922906
 32
0.0
 13
156.7039152518429
 23
49.85110733922906
 33
0.0
  0
SOLID
  5
E26
330
1F
100
AcDbEntity
  8
LOGO
 62
     5
100
AcDbTrace
 10
149.3716827967724
 20
51.88981568669614
 30
0.0
 11
149.7293509279078
 21
51.88981568669614
 31
0.0
 12
149.3716827967724
 22
52.17595019160393
 32
0.0
 13
149.7293509279078
 23
52.17595019160393
 33
0.0
  0
SOLID
  5
E27
330
1F
100
AcDbEntity
  8
LOGO
 62
     5
100
AcDbTrace
 10
149.3716827967724
 20
51.63944799490185
 30
0.0
 11
149.7293509279078
 21
51.63944799490185
 31
0.0
 12
149.3716827967724
 22
49.85110733922906
 32
0.0
 13
149.7293509279078
 23
49.85110733922962
 33
0.0
  0
SOLID
  5
E28
330
1F
100
AcDbEntity
  8
LOGO
 62
     5
100
AcDbTrace
 10
152.8888123642831
 20
53.42778865057415
 30
0.0
 11
153.9260499445737
 21
53.42778865057415
 31
0.0
 12
152.8888123642831
 22
58.67358790721358
 32
0.0
 13
153.9260499445737
 23
62.4767923682772
 33
0.0
  0
SOLID
  5
E29
330
1F
100
AcDbEntity
  8
LOGO
 62
     5
100
AcDbTrace
 10
154.3552517019357
 20
63.26366225677299
 30
0.0
 11
155.3924892822252
 21
63.26366225677351
 31
0.0
 12
154.3552517019357
 22
54.21465853906991
 32
0.0
 13
155.3924892822252
 23
58.01786300013358
 33
0.0
  0
SOLID
  5
E2A
330
1F
100
AcDbEntity
  8
LOGO
 62
     2
100
AcDbTrace
 10
153.9260499445737
 20
63.26366225677299
 30
0.0
 11
154.3552517019357
 21
63.26366225677299
 31
0.0
 12
153.9260499445737
 22
53.42778865057415
 32
0.0
 13
154.3552517019357
 23
53.42778865057415
 33
0.0
  0
SOLID
  5
E2B
330
1F
100
AcDbEntity
  8
LOGO
 62
     5
100
AcDbTrace
 10
154.3552517019357
 20
54.21465853906991
 30
0.0
 11
155.3924892822252
 21
58.01786300013358
 31
0.0
 12
159.2910719115911
 22
63.26366225677351
 32
0.0
 13
158.2538343313015
 23
63.26366225677351
 33
0.0
  0
SOLID
  5
E2C
330
1F
100
AcDbEntity
  8
LOGO
 62
     5
100
AcDbTrace
 10
154.3552517019357
 20
53.42778865057415
 30
0.0
 11
155.3924892822252
 21
53.42778865057415
 31
0.0
 12
159.2910719115911
 22
62.4767923682772
 32
0.0
 13
158.2538343313015
 23
58.67358790721358
 33
0.0
  0
SOLID
  5
E2D
330
1F
100
AcDbEntity
  8
LOGO
 62
     2
100
AcDbTrace
 10
153.9260499445737
 20
53.42778865057415
 30
0.0
 11
154.3552517019357
 21
53.42778865057415
 31
0.0
 12
159.2910719115911
 22
63.26366225677351
 32
0.0
 13
159.720273668953
 23
63.26366225677299
 33
0.0
  0
LWPOLYLINE
  5
E2E
330
1F
100
AcDbEntity
  8
LOGO
 62
     4
100
AcDbPolyline
 90
        4
 70
     1
 43
0.0
 10
145.0348543527937
 20
63.83352105129133
 10
338.2676715591137
 20
63.83352105129133
 10
338.2676715591137
 20
39.84414712882935
 10
145.0348543527937
 20
39.84414712882935
1001
GENIUS_GENREC_14
1002
{
1000
PYDIR
1011
145.0348543527937
1021
39.84414712882935
1031
0.0
1002
}
1002
{
1000
PXDIR
1011
338.2676715591137
1021
63.83352105129133
1031
0.0
1002
}
1002
{
1000
PORI
1011
145.0348543527937
1021
63.83352105129133
1031
0.0
1002
}
1002
{
1000
PINS
1011
145.0348543527937
1021
63.83352105129133
1031
0.0
1002
}
1002
{
1000
PINS2
1011
338.2676715591137
1021
39.84414712882935
1031
0.0
1002
}
1002
{
1000
C
1070
     1
1002
}
1001
GENIUS_GENOBJ-N-REC_13
1002
{
1000
OWNER
1000
GEN
1002
}
1001
GENIUS_GENODEF_13
1002
{
1000
HIER
1070
     0
1002
}
1002
{
1000
MANEDIT
1070
     0
1002
}
1002
{
1000
NOSEL
1070
     0
1002
}
1002
{
1000
BEHIND
1070
     0
1002
}
1002
{
1000
OTHER
1070
     0
1002
}
1002
{
1000
REACTOR
1002
}
  0
TEXT
  5
E2F
330
1F
100
AcDbEntity
  8
LOGO
100
AcDbText
 10
199.122928762567
 20
41.12037235305045
 30
0.0
 40
2.3992848
  1
10603201
 41
0.7
  7
CHINESET
 72
     1
 11
204.761248042567
 21
41.12037235305045
 31
0.0
100
AcDbText
  0
LINE
  5
E30
330
1F
100
AcDbEntity
  8
LOGO
 62
     4
100
AcDbLine
 10
212.2071857822081
 20
44.6420219133225
 30
0.0
 11
212.2071857822092
 21
39.84414712882989
 31
0.0
  0
LINE
  5
E31
330
1F
100
AcDbEntity
  8
LOGO
 62
     4
100
AcDbLine
 10
212.2071857822081
 20
44.6420219133225
 30
0.0
 11
197.8114769822092
 21
44.6420219133225
 31
0.0
  0
CIRCLE
  5
E32
330
1F
100
AcDbEntity
  8
LOGO
  6
Continuous
100
AcDbCircle
 10
186.2604936699908
 20
56.6418402191899
 30
0.0
 40
1.392879514559275
  0
CIRCLE
  5
E33
330
1F
100
AcDbEntity
  8
LOGO
  6
Continuous
100
AcDbCircle
 10
186.2604936699908
 20
56.6418402191899
 30
0.0
 40
0.8161040908847219
  0
LINE
  5
E34
330
1F
100
AcDbEntity
  8
LOGO
100
AcDbLine
 10
195.0135101623853
 20
55.24896070463036
 30
0.0
 11
195.0135101623853
 21
58.03471973374943
 31
0.0
  0
LINE
  5
E35
330
1F
100
AcDbEntity
  8
LOGO
100
AcDbLine
 10
190.6469128393414
 20
55.82573612830504
 30
0.0
 11
190.6469128393414
 21
57.45794431007475
 31
0.0
  0
LINE
  5
E36
330
1F
100
AcDbEntity
  8
LOGO
  6
Continuous
100
AcDbLine
 10
190.6469128393414
 20
57.45794431007475
 30
0.0
 11
195.0135101623853
 21
58.03471973374943
 31
0.0
  0
LINE
  5
E37
330
1F
100
AcDbEntity
  8
LOGO
  6
Continuous
100
AcDbLine
 10
190.6469128393414
 20
55.82573612830504
 30
0.0
 11
195.0135101623853
 21
55.24896070463036
 31
0.0
  0
LINE
  5
E38
330
1F
100
AcDbEntity
  8
LOGO
  6
AM_ISO08W050x2
 48
0.3
100
AcDbLine
 10
184.3403884024425
 20
56.6418402191899
 30
0.0
 11
188.1805989375392
 21
56.6418402191899
 31
0.0
1001
GENIUS_GENOREF_13
1005
F20
  0
LINE
  5
E39
330
1F
100
AcDbEntity
  8
LOGO
  6
AM_ISO08W050x2
 48
0.3
100
AcDbLine
 10
186.2604936699908
 20
54.72173495164156
 30
0.0
 11
186.2604936699908
 21
58.56194548673819
 31
0.0
1001
GENIUS_GENOREF_13
1005
F1F
  0
LINE
  5
E3A
330
1F
100
AcDbEntity
  8
LOGO
  6
CENTER
 48
0.5
100
AcDbLine
 10
190.2977064225026
 20
56.6418402191899
 30
0.0
 11
195.4532123774115
 21
56.6418402191899
 31
0.0
1001
GENIUS_GENOREF_13
1005
F1E
  0
LINE
  5
E3B
330
1F
100
AcDbEntity
  8
LOGO
 62
     4
100
AcDbLine
 10
248.4144742266491
 20
50.639365393938
 30
0.0
 11
248.4144742266491
 21
41.84326162236828
 31
0.0
  0
LINE
  5
E3C
330
1F
100
AcDbEntity
  8
LOGO
 62
     4
100
AcDbLine
 10
232.4215582783413
 20
50.639365393938
 30
0.0
 11
232.4215582783413
 21
41.84326162236828
 31
0.0
  0
LINE
  5
E3D
330
1F
100
AcDbEntity
  8
LOGO
 62
     4
100
AcDbLine
 10
248.4144742266491
 20
41.84326162236828
 30
0.0
 11
232.4215582783413
 21
41.84326162236828
 31
0.0
  0
LINE
  5
E3E
330
1F
100
AcDbEntity
  8
LOGO
 62
     4
100
AcDbLine
 10
249.8646652630735
 20
61.434583659045
 30
0.0
 11
230.8077961100906
 21
61.434583659045
 31
0.0
  0
LINE
  5
E3F
330
1F
100
AcDbEntity
  8
LOGO
 62
     4
100
AcDbLine
 10
249.8646652630735
 20
54.2377714823069
 30
0.0
 11
230.8077961100906
 21
54.2377714823069
 31
0.0
  0
LINE
  5
E40
330
1F
100
AcDbEntity
  8
LOGO
 62
     4
100
AcDbLine
 10
230.8077961100906
 20
61.434583659045
 30
0.0
 11
230.8077961100906
 21
54.2377714823069
 31
0.0
  0
LINE
  5
E41
330
1F
100
AcDbEntity
  8
LOGO
 62
     4
100
AcDbLine
 10
249.8646652630735
 20
61.434583659045
 30
0.0
 11
249.8646652630735
 21
54.2377714823069
 31
0.0
  0
LINE
  5
E42
330
1F
100
AcDbEntity
  8
LOGO
 62
     4
100
AcDbLine
 10
239.6386826043066
 20
54.2377714823069
 30
0.0
 11
239.6386826043066
 21
50.639365393938
 31
0.0
  0
LINE
  5
E43
330
1F
100
AcDbEntity
  8
LOGO
 62
     4
100
AcDbLine
 10
248.4144742266491
 20
50.639365393938
 30
0.0
 11
232.4215582783413
 21
50.639365393938
 31
0.0
  0
TEXT
  5
E44
330
1F
100
AcDbEntity
  8
LOGO
  6
Continuous
100
AcDbText
 10
237.5536343733519
 20
43.08481301715398
 30
0.0
 40
1.799463599999999
  1
Model
 41
0.8
  7
CHINESET
100
AcDbText
  0
TEXT
  5
E45
330
1F
100
AcDbEntity
  8
LOGO
100
AcDbText
 10
237.0746756599956
 20
46.4206307194693
 30
0.0
 40
2.999105999999999
  1
型號
  7
CHINESET
100
AcDbText
  0
LINE
  5
E46
330
1F
100
AcDbEntity
  8
LOGO
  6
Continuous
 62
     7
100
AcDbLine
 10
250.6297458782945
 20
57.81068532458107
 30
0.0
 11
253.8075955355342
 21
57.81068532458107
 31
0.0
  0
LINE
  5
E47
330
1F
100
AcDbEntity
  8
LOGO
 62
     4
100
AcDbLine
 10
252.5663118805633
 20
50.639365393938
 30
0.0
 11
252.5663118805633
 21
41.84326162236828
 31
0.0
  0
LINE
  5
E48
330
1F
100
AcDbEntity
  8
LOGO
 62
     4
100
AcDbLine
 10
266.1494466383207
 20
41.84326162236828
 30
0.0
 11
252.5663118805633
 21
41.84326162236828
 31
0.0
  0
LINE
  5
E49
330
1F
100
AcDbEntity
  8
LOGO
 62
     4
100
AcDbLine
 10
264.0778216252115
 20
61.434583659045
 30
0.0
 11
254.8100395879411
 21
61.434583659045
 31
0.0
  0
LINE
  5
E4A
330
1F
100
AcDbEntity
  8
LOGO
 62
     4
100
AcDbLine
 10
264.0778216252115
 20
54.2377714823069
 30
0.0
 11
254.8100395879411
 21
54.2377714823069
 31
0.0
  0
LINE
  5
E4B
330
1F
100
AcDbEntity
  8
LOGO
 62
     4
100
AcDbLine
 10
254.8100395879411
 20
61.434583659045
 30
0.0
 11
254.8100395879411
 21
54.2377714823069
 31
0.0
  0
LINE
  5
E4C
330
1F
100
AcDbEntity
  8
LOGO
 62
     4
100
AcDbLine
 10
264.0778216252115
 20
61.434583659045
 30
0.0
 11
264.0778216252115
 21
54.2377714823069
 31
0.0
  0
LINE
  5
E4D
330
1F
100
AcDbEntity
  8
LOGO
 62
     4
100
AcDbLine
 10
259.443930606576
 20
54.2377714823069
 30
0.0
 11
259.443930606576
 21
50.639365393938
 31
0.0
  0
LINE
  5
E4E
330
1F
100
AcDbEntity
  8
LOGO
 62
     4
100
AcDbLine
 10
266.1494466383207
 20
50.63936539393799
 30
0.0
 11
252.5663118805633
 21
50.639365393938
 31
0.0
  0
TEXT
  5
E4F
330
1F
100
AcDbEntity
  8
LOGO
  6
Continuous
100
AcDbText
 10
256.8311869227374
 20
43.08481301715398
 30
0.0
 40
1.799463599999999
  1
CODE
 41
0.8
  7
CHINESET
100
AcDbText
  0
TEXT
  5
E50
330
1F
100
AcDbEntity
  8
LOGO
100
AcDbText
 10
256.6672939635994
 20
46.4206307194693
 30
0.0
 40
2.999105999999999
  1
記號
  7
CHINESET
100
AcDbText
  0
TEXT
  5
E51
330
1F
100
AcDbEntity
  8
LOGO
100
AcDbText
 10
235.460913491745
 20
56.70487946072096
 30
0.0
 40
2.999105999999999
  1
MUD
  7
CHINESET
100
AcDbText
  0
TEXT
  5
E52
330
1F
100
AcDbEntity
  8
LOGO
100
AcDbText
 10
258.1595198448448
 20
56.70487946072096
 30
0.0
 40
2.999105999999999
  1
8
  7
CHINESET
100
AcDbText
  0
LINE
  5
E53
330
1F
100
AcDbEntity
  8
LOGO
 62
     4
100
AcDbLine
 10
266.1494466383207
 20
50.639365393938
 30
0.0
 11
266.1494466383207
 21
41.84326162236828
 31
0.0
  0
LINE
  5
E54
330
1F
100
AcDbEntity
  8
AM_VIS
100
AcDbLine
 10
200.6445326230013
 20
215.9641598798176
 30
0.0
 11
200.6445326230013
 21
223.9641598798176
 31
0.0
  0
LINE
  5
E55
330
1F
100
AcDbEntity
  8
AM_VIS
100
AcDbLine
 10
204.6859845073285
 20
223.9641598798176
 30
0.0
 11
200.6445326230013
 21
223.9641598798176
 31
0.0
  0
LINE
  5
E56
330
1F
100
AcDbEntity
  8
AM_VIS
100
AcDbLine
 10
204.6859845073285
 20
215.9641598798176
 30
0.0
 11
204.6859845073285
 21
223.9641598798176
 31
0.0
  0
LINE
  5
E57
330
1F
100
AcDbEntity
  8
AM_VIS
100
AcDbLine
 10
212.7688882759834
 20
223.9641598798176
 30
0.0
 11
204.6859845073285
 21
223.9641598798176
 31
0.0
  0
LINE
  5
E58
330
1F
100
AcDbEntity
  8
AM_VIS
100
AcDbLine
 10
212.7688882759834
 20
215.9641598798176
 30
0.0
 11
212.7688882759834
 21
223.9641598798176
 31
0.0
  0
LINE
  5
E59
330
1F
100
AcDbEntity
  8
AM_VIS
100
AcDbLine
 10
216.8103401603106
 20
223.9641598798176
 30
0.0
 11
212.7688882759834
 21
223.9641598798176
 31
0.0
  0
LINE
  5
E5A
330
1F
100
AcDbEntity
  8
AM_VIS
100
AcDbLine
 10
216.8103401603106
 20
215.9641598798176
 30
0.0
 11
216.8103401603106
 21
223.9641598798176
 31
0.0
  0
LINE
  5
E5B
330
1F
100
AcDbEntity
  8
AM_VIS
100
AcDbLine
 10
228.9774363916559
 20
164.2141598798176
 30
0.0
 11
228.9774363916559
 21
174.9641598779956
 31
0.0
  0
LINE
  5
E5C
330
1F
100
AcDbEntity
  8
AM_VIS
100
AcDbLine
 10
188.4774363916559
 20
174.9641598779956
 30
0.0
 11
188.4774363916559
 21
164.2141598798176
 31
0.0
  0
LINE
  5
E5D
330
1F
100
AcDbEntity
  8
AM_VIS
100
AcDbLine
 10
192.4774363916559
 20
174.9641598779956
 30
0.0
 11
188.4774363916559
 21
174.9641598779956
 31
0.0
  0
LINE
  5
E5E
330
1F
100
AcDbEntity
  8
AM_VIS
100
AcDbLine
 10
228.9774363916559
 20
164.2141598798176
 30
0.0
 11
201.477436391656
 21
164.2141598798176
 31
0.0
  0
LINE
  5
E5F
330
1F
100
AcDbEntity
  8
AM_VIS
100
AcDbLine
 10
228.9774363916559
 20
163.3352755003814
 30
0.0
 11
228.9774363916559
 21
164.2141598798176
 31
0.0
  0
LINE
  5
E60
330
1F
100
AcDbEntity
  8
AM_VIS
100
AcDbLine
 10
188.4774363916559
 20
164.2141598798176
 30
0.0
 11
188.4774363916559
 21
163.3352755003814
 31
0.0
  0
LINE
  5
E61
330
1F
100
AcDbEntity
  8
AM_VIS
100
AcDbLine
 10
192.4774363916559
 20
164.2141598798176
 30
0.0
 11
188.4774363916559
 21
164.2141598798176
 31
0.0
  0
ARC
  5
E62
330
1F
100
AcDbEntity
  8
AM_VIS
100
AcDbCircle
 10
170.1796151845802
 20
165.0496804879923
 30
0.0
 40
31.61400740537387
100
AcDbArc
 50
8.110207012879303
 51
18.27694123739887
  0
LINE
  5
E63
330
1F
100
AcDbEntity
  8
AM_VIS
100
AcDbLine
 10
228.9774363916559
 20
174.9641598779956
 30
0.0
 11
220.7811929546661
 21
174.9641598779956
 31
0.0
  0
LINE
  5
E64
330
1F
100
AcDbEntity
  8
AM_VIS
100
AcDbLine
 10
187.4774363916559
 20
212.9641598798175
 30
0.0
 11
187.4774363916559
 21
179.4641598798175
 31
0.0
  0
LINE
  5
E65
330
1F
100
AcDbEntity
  8
AM_VIS
100
AcDbLine
 10
229.9774363916559
 20
212.9641598798175
 30
0.0
 11
229.9774363916559
 21
179.4641598798175
 31
0.0
  0
LINE
  5
E66
330
1F
100
AcDbEntity
  8
AM_VIS
100
AcDbLine
 10
225.2274363916559
 20
212.9641598798175
 30
0.0
 11
225.2274363916559
 21
213.9641598798176
 31
0.0
  0
LINE
  5
E67
330
1F
100
AcDbEntity
  8
AM_VIS
100
AcDbLine
 10
192.2274363916559
 20
212.9641598798175
 30
0.0
 11
192.2274363916559
 21
213.9641598798176
 31
0.0
  0
LINE
  5
E68
330
1F
100
AcDbEntity
  8
AM_VIS
100
AcDbLine
 10
216.9774363916559
 20
213.9641598798176
 30
0.0
 11
216.9774363916559
 21
215.9641598798176
 31
0.0
  0
LINE
  5
E69
330
1F
100
AcDbEntity
  8
AM_VIS
100
AcDbLine
 10
200.4774363916559
 20
213.9641598798176
 30
0.0
 11
200.4774363916559
 21
215.9641598798176
 31
0.0
  0
LINE
  5
E6A
330
1F
100
AcDbEntity
  8
AM_VIS
100
AcDbLine
 10
193.4774363916559
 20
179.4641598798175
 30
0.0
 11
193.4774363916559
 21
174.9641598798175
 31
0.0
  0
LINE
  5
E6B
330
1F
100
AcDbEntity
  8
AM_VIS
100
AcDbLine
 10
223.9774363916559
 20
179.4641598798175
 30
0.0
 11
223.9774363916559
 21
174.9641598798175
 31
0.0
  0
LINE
  5
E6C
330
1F
100
AcDbEntity
  8
AM_VIS
100
AcDbLine
 10
188.4774363916559
 20
154.9190041679955
 30
0.0
 11
228.9774363916559
 21
154.9190041679955
 31
0.0
  0
LINE
  5
E6D
330
1F
100
AcDbEntity
  8
AM_VIS
100
AcDbLine
 10
192.4774363916559
 20
174.9641598779956
 30
0.0
 11
192.4774363916559
 21
154.9641598779955
 31
0.0
  0
LINE
  5
E6E
330
1F
100
AcDbEntity
  8
AM_VIS
100
AcDbLine
 10
201.477436391656
 20
169.5097087297142
 30
0.0
 11
201.477436391656
 21
154.9641598779955
 31
0.0
  0
LINE
  5
E6F
330
1F
100
AcDbEntity
  8
AM_VIS
100
AcDbLine
 10
202.9828634811143
 20
223.9643958402288
 30
0.0
 11
214.4720093021975
 21
223.9643958402288
 31
0.0
  0
LINE
  5
E70
102
{ACAD_REACTORS
330
1040
102
}
330
1F
100
AcDbEntity
  8
AM_VIS
100
AcDbLine
 10
187.4774363916559
 20
212.9641598798175
 30
0.0
 11
229.9774363916559
 21
212.9641598798175
 31
0.0
  0
LINE
  5
E71
330
1F
100
AcDbEntity
  8
AM_VIS
100
AcDbLine
 10
229.9774363916559
 20
179.4641598798175
 30
0.0
 11
187.4774363916559
 21
179.4641598798175
 31
0.0
  0
LINE
  5
E72
330
1F
100
AcDbEntity
  8
AM_VIS
100
AcDbLine
 10
192.2274363916559
 20
213.9641598798176
 30
0.0
 11
225.2274363916559
 21
213.9641598798176
 31
0.0
  0
LINE
  5
E73
330
1F
100
AcDbEntity
  8
AM_VIS
100
AcDbLine
 10
200.4774363916559
 20
215.9641598798176
 30
0.0
 11
216.9774363916559
 21
215.9641598798176
 31
0.0
  0
LINE
  5
E74
330
1F
100
AcDbEntity
  8
AM_VIS
100
AcDbLine
 10
220.7811929551855
 20
174.9641598798175
 30
0.0
 11
200.1987517915876
 21
174.9641598798175
 31
0.0
  0
ARC
  5
E75
330
1F
100
AcDbEntity
  8
AM_VIS
100
AcDbCircle
 10
208.7274363916559
 20
180.4641598798175
 30
0.0
 40
13.24926591552728
100
AcDbArc
 50
236.8248587420329
 51
335.473293946103
  0
LINE
  5
E76
102
{ACAD_REACTORS
330
FC0
102
}
330
1F
100
AcDbEntity
  8
AM_VIS
100
AcDbLine
 10
188.4774363916559
 20
154.9190041679955
 30
0.0
 11
188.4774363916559
 21
163.3352755003814
 31
0.0
  0
LINE
  5
E77
102
{ACAD_REACTORS
330
FC0
102
}
330
1F
100
AcDbEntity
  8
AM_VIS
100
AcDbLine
 10
228.9774363916559
 20
163.3352755003814
 30
0.0
 11
228.9774363916559
 21
154.9190041679955
 31
0.0
  0
LINE
  5
E78
330
1F
100
AcDbEntity
  8
AM_VIS
100
AcDbLine
 10
201.477436391656
 20
154.9641598779955
 30
0.0
 11
192.4774363916559
 21
154.9641598779955
 31
0.0
  0
LINE
  5
E79
330
1F
100
AcDbEntity
  8
AM_VIS
100
AcDbLine
 10
200.1987517919551
 20
174.9641598779956
 30
0.0
 11
192.4774363916559
 21
174.9641598779956
 31
0.0
  0
ARC
  5
E7A
330
1F
100
AcDbEntity
  8
AM_VIS
100
AcDbCircle
 10
208.7274363916559
 20
224.2141598798176
 30
0.0
 40
5.75
100
AcDbArc
 50
357.5104470780002
 51
182.489552921999
  0
LINE
  5
E7B
330
1F
100
AcDbEntity
  8
AM_VIS
100
AcDbLine
 10
204.6859845073285
 20
278.5831412466492
 30
0.0
 11
212.7688882759834
 21
278.5831412466492
 31
0.0
  0
LINE
  5
E7C
330
1F
100
AcDbEntity
  8
AM_VIS
100
AcDbLine
 10
200.6445326230013
 20
271.5831412466492
 30
0.0
 11
204.6859845073285
 21
278.5831412466492
 31
0.0
  0
LINE
  5
E7D
330
1F
100
AcDbEntity
  8
AM_VIS
100
AcDbLine
 10
204.6859845073285
 20
264.5831412466492
 30
0.0
 11
200.6445326230013
 21
271.5831412466492
 31
0.0
  0
LINE
  5
E7E
330
1F
100
AcDbEntity
  8
AM_VIS
100
AcDbLine
 10
212.7688882759834
 20
264.5831412466492
 30
0.0
 11
204.6859845073285
 21
264.5831412466492
 31
0.0
  0
LINE
  5
E7F
330
1F
100
AcDbEntity
  8
AM_VIS
100
AcDbLine
 10
216.8103401603106
 20
271.5831412466492
 30
0.0
 11
212.7688882759834
 21
264.5831412466492
 31
0.0
  0
LINE
  5
E80
330
1F
100
AcDbEntity
  8
AM_VIS
100
AcDbLine
 10
212.7688882759834
 20
278.5831412466492
 30
0.0
 11
216.8103401603106
 21
271.5831412466492
 31
0.0
  0
LINE
  5
E81
330
1F
100
AcDbEntity
  8
AM_VIS
100
AcDbLine
 10
188.4774363916559
 20
280.8831412466492
 30
0.0
 11
188.4774363916559
 21
278.0251906100118
 31
0.0
  0
LINE
  5
E82
330
1F
100
AcDbEntity
  8
AM_VIS
100
AcDbLine
 10
188.4774363916559
 20
265.1410918832866
 30
0.0
 11
188.4774363916559
 21
262.2413291794083
 31
0.0
  0
LINE
  5
E83
330
1F
100
AcDbEntity
  8
AM_VIS
100
AcDbLine
 10
189.6409739823892
 20
262.2413291794083
 30
0.0
 11
188.4774363916559
 21
262.2413291794083
 31
0.0
  0
LINE
  5
E84
330
1F
100
AcDbEntity
  8
AM_VIS
100
AcDbLine
 10
189.6205658996052
 20
280.8831412466492
 30
0.0
 11
188.4774363916559
 21
280.8831412466492
 31
0.0
  0
LINE
  5
E85
330
1F
100
AcDbEntity
  8
AM_VIS
100
AcDbLine
 10
228.9774363916559
 20
280.8831412466492
 30
0.0
 11
227.8343068837067
 21
280.8831412466492
 31
0.0
  0
LINE
  5
E86
330
1F
100
AcDbEntity
  8
AM_VIS
100
AcDbLine
 10
228.9774363916559
 20
262.2413291794083
 30
0.0
 11
228.9774363916559
 21
265.1410918832866
 31
0.0
  0
LINE
  5
E87
330
1F
100
AcDbEntity
  8
AM_VIS
100
AcDbLine
 10
228.9774363916559
 20
278.0251906100118
 30
0.0
 11
228.9774363916559
 21
280.8831412466492
 31
0.0
  0
LINE
  5
E88
330
1F
100
AcDbEntity
  8
AM_VIS
100
AcDbLine
 10
228.9774363916559
 20
262.2413291794083
 30
0.0
 11
227.8138988009227
 21
262.2413291794083
 31
0.0
  0
CIRCLE
  5
E89
330
1F
100
AcDbEntity
  8
AM_VIS
100
AcDbCircle
 10
208.7274363916559
 20
271.5831412466492
 30
0.0
 40
21.25
  0
CIRCLE
  5
E8A
330
1F
100
AcDbEntity
  8
AM_VIS
100
AcDbCircle
 10
208.7274363916559
 20
271.5831412466492
 30
0.0
 40
16.5
  0
CIRCLE
  5
E8B
330
1F
100
AcDbEntity
  8
AM_VIS
100
AcDbCircle
 10
208.7274363916559
 20
271.5831412466492
 30
0.0
 40
8.25
  0
CIRCLE
  5
E8C
330
1F
100
AcDbEntity
  8
AM_VIS
100
AcDbCircle
 10
208.7274363916559
 20
271.5831412466492
 30
0.0
 40
5.75
  0
LINE
  5
E8D
330
1F
100
AcDbEntity
  8
AM_VIS
100
AcDbLine
 10
282.6243171629527
 20
215.9641598798176
 30
0.0
 11
282.6243171629527
 21
223.9641598798176
 31
0.0
  0
LINE
  5
E8E
330
1F
100
AcDbEntity
  8
AM_VIS
100
AcDbLine
 10
289.6243171629527
 20
223.9641598798176
 30
0.0
 11
282.6243171629527
 21
223.9641598798176
 31
0.0
  0
LINE
  5
E8F
330
1F
100
AcDbEntity
  8
AM_VIS
100
AcDbLine
 10
296.6243171629527
 20
215.9641598798176
 30
0.0
 11
296.6243171629527
 21
223.9641598798176
 31
0.0
  0
LINE
  5
E90
330
1F
100
AcDbEntity
  8
AM_VIS
100
AcDbLine
 10
289.6243171629527
 20
215.9641598798176
 30
0.0
 11
289.6243171629527
 21
223.9641598798176
 31
0.0
  0
LINE
  5
E91
330
1F
100
AcDbEntity
  8
AM_VIS
100
AcDbLine
 10
296.6243171629527
 20
223.9641598798176
 30
0.0
 11
289.6243171629527
 21
223.9641598798176
 31
0.0
  0
LINE
  5
E92
330
1F
100
AcDbEntity
  8
AM_VIS
100
AcDbLine
 10
298.9243171629527
 20
163.7761378326517
 30
0.0
 11
298.882233971935
 21
163.3352755003814
 31
0.0
  0
LINE
  5
E93
330
1F
100
AcDbEntity
  8
AM_VIS
100
AcDbLine
 10
280.2825050957118
 20
164.2141598798176
 30
0.0
 11
280.2825050957118
 21
174.9641598779956
 31
0.0
  0
LINE
  5
E94
330
1F
100
AcDbEntity
  8
AM_VIS
100
AcDbLine
 10
280.3664003539704
 20
163.3352755003814
 30
0.0
 11
280.2825050957118
 21
164.2141598798176
 31
0.0
  0
LINE
  5
E95
330
1F
100
AcDbEntity
  8
AM_VIS
100
AcDbLine
 10
298.9243171629527
 20
174.9641598779956
 30
0.0
 11
298.9243171629527
 21
163.7761378326516
 31
0.0
  0
LINE
  5
E96
330
1F
100
AcDbEntity
  8
AM_VIS
100
AcDbLine
 10
280.2825050957118
 20
174.9641598779956
 30
0.0
 11
298.9243171629527
 21
174.9641598779956
 31
0.0
  0
LINE
  5
E97
330
1F
100
AcDbEntity
  8
AM_VIS
100
AcDbLine
 10
268.3743171629527
 20
212.9641598798175
 30
0.0
 11
268.3743171629527
 21
179.4641598798175
 31
0.0
  0
LINE
  5
E98
330
1F
100
AcDbEntity
  8
AM_VIS
100
AcDbLine
 10
310.8743171629527
 20
212.9641598798175
 30
0.0
 11
310.8743171629527
 21
179.4641598798175
 31
0.0
  0
LINE
  5
E99
330
1F
100
AcDbEntity
  8
AM_VIS
100
AcDbLine
 10
306.1243171629527
 20
212.9641598798175
 30
0.0
 11
306.1243171629527
 21
213.9641598798176
 31
0.0
  0
LINE
  5
E9A
330
1F
100
AcDbEntity
  8
AM_VIS
100
AcDbLine
 10
273.1243171629527
 20
212.9641598798175
 30
0.0
 11
273.1243171629527
 21
213.9641598798176
 31
0.0
  0
LINE
  5
E9B
330
1F
100
AcDbEntity
  8
AM_VIS
100
AcDbLine
 10
297.8743171629527
 20
213.9641598798176
 30
0.0
 11
297.8743171629527
 21
215.9641598798176
 31
0.0
  0
LINE
  5
E9C
330
1F
100
AcDbEntity
  8
AM_VIS
100
AcDbLine
 10
281.3743171629527
 20
213.9641598798176
 30
0.0
 11
281.3743171629527
 21
215.9641598798176
 31
0.0
  0
LINE
  5
E9D
330
1F
100
AcDbEntity
  8
AM_VIS
100
AcDbLine
 10
274.3743171629527
 20
179.4641598798175
 30
0.0
 11
274.3743171629527
 21
174.9641598798175
 31
0.0
  0
LINE
  5
E9E
330
1F
100
AcDbEntity
  8
AM_VIS
100
AcDbLine
 10
304.8743171629527
 20
179.4641598798175
 30
0.0
 11
304.8743171629527
 21
174.9641598798175
 31
0.0
  0
LINE
  5
E9F
330
1F
100
AcDbEntity
  8
AM_VIS
100
AcDbLine
 10
275.6243171629527
 20
172.2902685176816
 30
0.0
 11
275.6243171629527
 21
154.9641598779955
 31
0.0
  0
LINE
  5
EA0
330
1F
100
AcDbEntity
  8
AM_VIS
100
AcDbLine
 10
284.6243171629527
 20
156.3774481999494
 30
0.0
 11
284.6243171629527
 21
154.9641598779955
 31
0.0
  0
LINE
  5
EA1
330
1F
100
AcDbEntity
  8
AM_VIS
100
AcDbLine
 10
294.6243171629527
 20
156.3774481999494
 30
0.0
 11
294.6243171629527
 21
154.9641598779955
 31
0.0
  0
LINE
  5
EA2
330
1F
100
AcDbEntity
  8
AM_VIS
100
AcDbLine
 10
303.6243171629527
 20
174.9641598779956
 30
0.0
 11
303.6243171629527
 21
154.9641598779955
 31
0.0
  0
LINE
  5
EA4
330
1F
100
AcDbEntity
  8
AM_VIS
100
AcDbLine
 10
283.8797442524111
 20
223.9643958402288
 30
0.0
 11
295.3688900734943
 21
223.9643958402288
 31
0.0
  0
LINE
  5
EA5
330
1F
100
AcDbEntity
  8
AM_VIS
100
AcDbLine
 10
268.3743171629527
 20
212.9641598798175
 30
0.0
 11
310.8743171629527
 21
212.9641598798175
 31
0.0
  0
LINE
  5
EA6
330
1F
100
AcDbEntity
  8
AM_VIS
100
AcDbLine
 10
310.8743171629527
 20
179.4641598798175
 30
0.0
 11
268.3743171629527
 21
179.4641598798175
 31
0.0
  0
LINE
  5
EA7
330
1F
100
AcDbEntity
  8
AM_VIS
100
AcDbLine
 10
273.1243171629527
 20
213.9641598798176
 30
0.0
 11
306.1243171629527
 21
213.9641598798176
 31
0.0
  0
LINE
  5
EA8
330
1F
100
AcDbEntity
  8
AM_VIS
100
AcDbLine
 10
281.3743171629527
 20
215.9641598798176
 30
0.0
 11
297.8743171629527
 21
215.9641598798176
 31
0.0
  0
LINE
  5
EA9
330
1F
100
AcDbEntity
  8
AM_VIS
100
AcDbLine
 10
280.2825050953093
 20
174.9641598798175
 30
0.0
 11
274.3743171629527
 21
174.9641598798175
 31
0.0
  0
CIRCLE
  5
EAA
330
1F
100
AcDbEntity
  8
AM_VIS
100
AcDbCircle
 10
289.6243171629527
 20
164.2190041679956
 30
0.0
 40
5.7225
  0
ARC
  5
EAB
330
1F
100
AcDbEntity
  8
AM_VIS
100
AcDbCircle
 10
289.6243171629527
 20
164.2190041679956
 30
0.0
 40
9.3
100
AcDbArc
 50
185.4527349983633
 51
354.5472650016367
  0
LINE
  5
EAC
102
{ACAD_REACTORS
330
FF0
102
}
330
1F
100
AcDbEntity
  8
AM_VIS
100
AcDbLine
 10
284.6243171629527
 20
154.9641598779955
 30
0.0
 11
275.6243171629527
 21
154.9641598779955
 31
0.0
  0
LINE
  5
EAD
330
1F
100
AcDbEntity
  8
AM_VIS
100
AcDbLine
 10
304.8743171629527
 20
174.9641598798175
 30
0.0
 11
303.6243171629527
 21
174.9641598798175
 31
0.0
  0
LINE
  5
EAE
330
1F
100
AcDbEntity
  8
AM_VIS
100
AcDbLine
 10
303.6243171629527
 20
154.9641598779955
 30
0.0
 11
294.6243171629527
 21
154.9641598779955
 31
0.0
  0
LINE
  5
EAF
330
1F
100
AcDbEntity
  8
AM_VIS
100
AcDbLine
 10
303.6243171629527
 20
174.9641598779956
 30
0.0
 11
298.9243171629527
 21
174.9641598779956
 31
0.0
  0
ARC
  5
EB0
102
{ACAD_REACTORS
330
FF0
102
}
330
1F
100
AcDbEntity
  8
AM_VIS
100
AcDbCircle
 10
289.6243171629527
 20
224.2141598798176
 30
0.0
 40
5.75
100
AcDbArc
 50
357.5104470780002
 51
182.489552921999
  0
ARC
  5
EB1
330
1F
100
AcDbEntity
  8
AM_VIS
100
AcDbCircle
 10
289.6243171629527
 20
180.4641598798175
 30
0.0
 40
16.21149283687347
100
AcDbArc
 50
199.8321298502179
 51
234.8130448720381
  0
ARC
  5
EB2
330
1F
100
AcDbEntity
  8
AM_VIS
100
AcDbCircle
 10
289.6243171629527
 20
180.4641598798175
 30
0.0
 40
16.21149283687347
100
AcDbArc
 50
329.7215070894564
 51
340.167870149782
  0
LINE
  5
EB3
330
1F
100
AcDbEntity
  8
AM_VIS
100
AcDbLine
 10
228.9774363916559
 20
105.0356379043627
 30
0.0
 11
228.9774363916559
 21
105.0777210953805
 31
0.0
  0
LINE
  5
EB4
330
1F
100
AcDbEntity
  8
AM_VIS
100
AcDbLine
 10
228.9774363916559
 20
123.6774499716036
 30
0.0
 11
201.4746551519487
 21
123.6774499716036
 31
0.0
  0
LINE
  5
EB5
330
1F
100
AcDbEntity
  8
AM_VIS
100
AcDbLine
 10
228.9774363916559
 20
123.593554713345
 30
0.0
 11
228.9774363916559
 21
123.6774499716036
 31
0.0
  0
LINE
  5
EB6
330
1F
100
AcDbEntity
  8
AM_VIS
100
AcDbLine
 10
188.4774363916559
 20
123.6774499716036
 30
0.0
 11
188.4774363916559
 21
123.5935547133451
 31
0.0
  0
LINE
  5
EB7
330
1F
100
AcDbEntity
  8
AM_VIS
100
AcDbLine
 10
192.4802176313632
 20
123.6774499716036
 30
0.0
 11
188.4774363916559
 21
123.6774499716036
 31
0.0
  0
LINE
  5
EB8
330
1F
100
AcDbEntity
  8
AM_VIS
100
AcDbLine
 10
228.9774363916559
 20
105.0356379043627
 30
0.0
 11
224.9729897502537
 21
105.0356379043627
 31
0.0
  0
LINE
  5
EB9
330
1F
100
AcDbEntity
  8
AM_VIS
100
AcDbLine
 10
215.9818830330581
 20
105.0356379043627
 30
0.0
 11
188.4774363916559
 21
105.0356379043627
 31
0.0
  0
LINE
  5
EBA
330
1F
100
AcDbEntity
  8
AM_VIS
100
AcDbLine
 10
188.4774363916559
 20
105.0777210953805
 30
0.0
 11
188.4774363916559
 21
105.0356379043627
 31
0.0
  0
ARC
  5
EBB
330
1F
100
AcDbEntity
  8
AM_VIS
100
AcDbCircle
 10
208.7274363916559
 20
114.3356379043628
 30
0.0
 40
21.25
100
AcDbArc
 50
26.07929914532692
 51
153.9207008546731
  0
ARC
  5
EBC
330
1F
100
AcDbEntity
  8
AM_VIS
100
AcDbCircle
 10
208.7274363916559
 20
114.3356379043628
 30
0.0
 40
21.25
100
AcDbArc
 50
342.3527854495511
 51
17.64721455044938
  0
ARC
  5
EBD
330
1F
100
AcDbEntity
  8
AM_VIS
100
AcDbCircle
 10
208.7274363916559
 20
114.3356379043628
 30
0.0
 40
21.25
100
AcDbArc
 50
205.9538503380828
 51
334.0461496619172
  0
ARC
  5
EBE
330
1F
100
AcDbEntity
  8
AM_VIS
100
AcDbCircle
 10
208.7274363916559
 20
114.3356379043628
 30
0.0
 40
21.25
100
AcDbArc
 50
162.3527854495511
 51
197.6472145504488
  0
ARC
  5
EBF
330
1F
100
AcDbEntity
  8
AM_VIS
100
AcDbCircle
 10
208.7274363916559
 20
114.3356379043628
 30
0.0
 40
19.5
100
AcDbArc
 50
144.345551972297
 51
151.3754973343313
  0
ARC
  5
EC0
330
1F
100
AcDbEntity
  8
AM_VIS
100
AcDbCircle
 10
208.7274363916559
 20
114.3356379043628
 30
0.0
 40
19.5
100
AcDbArc
 50
28.6245026656687
 51
137.7426323521841
  0
ARC
  5
EC1
330
1F
100
AcDbEntity
  8
AM_VIS
100
AcDbCircle
 10
208.7274363916559
 20
114.3356379043628
 30
0.0
 40
19.5
100
AcDbArc
 50
324.345551972297
 51
331.5153646048228
  0
ARC
  5
EC2
330
1F
100
AcDbEntity
  8
AM_VIS
100
AcDbCircle
 10
208.7274363916559
 20
114.3356379043628
 30
0.0
 40
19.5
100
AcDbArc
 50
208.4846353951772
 51
317.7426323521842
  0
ARC
  5
EC3
330
1F
100
AcDbEntity
  8
AM_VIS
100
AcDbCircle
 10
208.7274363916559
 20
114.3356379043628
 30
0.0
 40
15.25
100
AcDbArc
 50
37.77613192680372
 51
124.0044994717678
  0
LINE
  5
EC4
330
1F
100
AcDbEntity
  8
AM_VIS
100
AcDbLine
 10
188.4774363916559
 20
105.0777210953805
 30
0.0
 11
188.4774363916559
 21
123.593554713345
 31
0.0
  0
LINE
  5
EC5
330
1F
100
AcDbEntity
  8
AM_VIS
100
AcDbLine
 10
228.9774363916559
 20
123.593554713345
 30
0.0
 11
228.9774363916559
 21
105.0777210953805
 31
0.0
  0
CIRCLE
  5
EC6
330
1F
100
AcDbEntity
  8
AM_VIS
100
AcDbCircle
 10
196.9774363916559
 20
123.8356379043628
 30
0.0
 40
4.5
  0
CIRCLE
  5
EC7
330
1F
100
AcDbEntity
  8
AM_VIS
100
AcDbCircle
 10
196.9774363916559
 20
123.8356379043628
 30
0.0
 40
1.711
  0
ARC
  5
EC8
330
1F
100
AcDbEntity
  8
AM_VIS
100
AcDbCircle
 10
208.7274363916559
 20
114.3356379043628
 30
0.0
 40
15.25
100
AcDbArc
 50
217.5776503844454
 51
304.0044994717677
  0
CIRCLE
  5
EC9
330
1F
100
AcDbEntity
  8
AM_VIS
100
AcDbCircle
 10
220.477436391656
 20
104.8356379043628
 30
0.0
 40
4.5
  0
CIRCLE
  5
ECA
330
1F
100
AcDbEntity
  8
AM_VIS
100
AcDbCircle
 10
220.477436391656
 20
104.8356379043628
 30
0.0
 40
1.711
  0
LINE
  5
ECB
330
1F
100
AcDbEntity
  8
AM_7
100
AcDbLine
 10
196.9774363916559
 20
159.9497409857977
 30
0.0
 11
196.9774363916559
 21
151.9641598779955
 31
0.0
  0
LINE
  5
ECC
330
1F
100
AcDbEntity
  8
AM_7
100
AcDbLine
 10
208.7274363916559
 20
234.0158399594394
 30
0.0
 11
208.7274363916559
 21
171.9641598779956
 31
0.0
  0
LINE
  5
ECE
330
1F
100
AcDbEntity
  8
AM_7
100
AcDbLine
 10
208.7274363916559
 20
271.5831412466492
 30
0.0
 11
208.7274363916559
 21
271.5831412466492
 31
0.0
  0
LINE
  5
ECF
330
1F
100
AcDbEntity
  8
AM_7
100
AcDbLine
 10
208.7274363916559
 20
271.5831412466492
 30
0.0
 11
208.7274363916559
 21
271.5831412466492
 31
0.0
  0
LINE
  5
ED0
330
1F
100
AcDbEntity
  8
AM_7
100
AcDbLine
 10
184.4774363916559
 20
271.5831412466492
 30
0.0
 11
208.7274363916559
 21
271.5831412466492
 31
0.0
  0
LINE
  5
ED1
330
1F
100
AcDbEntity
  8
AM_7
100
AcDbLine
 10
208.7274363916559
 20
271.5831412466492
 30
0.0
 11
232.977436391656
 21
271.5831412466492
 31
0.0
  0
LINE
  5
ED2
330
1F
100
AcDbEntity
  8
AM_7
100
AcDbLine
 10
208.7274363916559
 20
247.3331412466492
 30
0.0
 11
208.7274363916559
 21
271.5831412466492
 31
0.0
  0
LINE
  5
ED3
330
1F
100
AcDbEntity
  8
AM_7
100
AcDbLine
 10
208.7274363916559
 20
271.5831412466492
 30
0.0
 11
208.7274363916559
 21
295.8331412466492
 31
0.0
  0
LINE
  5
ED4
330
1F
100
AcDbEntity
  8
AM_7
100
AcDbLine
 10
289.6243171629527
 20
234.0158399594394
 30
0.0
 11
289.6243171629527
 21
171.9641598779956
 31
0.0
  0
LINE
  5
ED5
330
1F
100
AcDbEntity
  8
AM_7
100
AcDbLine
 10
280.1243171629527
 20
159.1762415578806
 30
0.0
 11
280.1243171629527
 21
151.9641598779955
 31
0.0
  0
LINE
  5
ED7
330
1F
100
AcDbEntity
  8
AM_7
100
AcDbLine
 10
289.6243171629527
 20
164.2190041679956
 30
0.0
 11
289.6243171629527
 21
164.2190041679956
 31
0.0
  0
LINE
  5
ED8
330
1F
100
AcDbEntity
  8
AM_7
100
AcDbLine
 10
289.6243171629527
 20
164.2190041679956
 30
0.0
 11
289.6243171629527
 21
164.2190041679956
 31
0.0
  0
LINE
  5
ED9
330
1F
100
AcDbEntity
  8
AM_7
100
AcDbLine
 10
277.3243171629527
 20
164.2190041679956
 30
0.0
 11
289.6243171629527
 21
164.2190041679956
 31
0.0
  0
LINE
  5
EDA
330
1F
100
AcDbEntity
  8
AM_7
100
AcDbLine
 10
289.6243171629527
 20
164.2190041679956
 30
0.0
 11
301.9243171629527
 21
164.2190041679956
 31
0.0
  0
LINE
  5
EDB
330
1F
100
AcDbEntity
  8
AM_7
100
AcDbLine
 10
289.6243171629527
 20
151.9190041679955
 30
0.0
 11
289.6243171629527
 21
164.2190041679956
 31
0.0
  0
LINE
  5
EDC
330
1F
100
AcDbEntity
  8
AM_7
100
AcDbLine
 10
289.6243171629527
 20
164.2190041679956
 30
0.0
 11
289.6243171629527
 21
176.5190041679955
 31
0.0
  0
ARC
  5
EDD
330
1F
100
AcDbEntity
  8
AM_4
100
AcDbCircle
 10
289.6243171629527
 20
164.2190041679956
 30
0.0
 40
6.5785
100
AcDbArc
 50
259.9999999999998
 51
190.0000000000002
  0
LINE
  5
EDE
330
1F
100
AcDbEntity
  8
AM_7
100
AcDbLine
 10
208.7274363916559
 20
114.3356379043628
 30
0.0
 11
208.7274363916559
 21
114.3356379043628
 31
0.0
  0
LINE
  5
EDF
330
1F
100
AcDbEntity
  8
AM_7
100
AcDbLine
 10
208.7274363916559
 20
114.3356379043628
 30
0.0
 11
208.7274363916559
 21
114.3356379043628
 31
0.0
  0
LINE
  5
EE0
330
1F
100
AcDbEntity
  8
AM_7
100
AcDbLine
 10
184.4774363916559
 20
114.3356379043628
 30
0.0
 11
208.7274363916559
 21
114.3356379043628
 31
0.0
  0
LINE
  5
EE1
330
1F
100
AcDbEntity
  8
AM_7
100
AcDbLine
 10
208.7274363916559
 20
114.3356379043628
 30
0.0
 11
232.977436391656
 21
114.3356379043628
 31
0.0
  0
LINE
  5
EE2
330
1F
100
AcDbEntity
  8
AM_7
100
AcDbLine
 10
208.7274363916559
 20
90.08563790436278
 30
0.0
 11
208.7274363916559
 21
114.3356379043628
 31
0.0
  0
LINE
  5
EE3
330
1F
100
AcDbEntity
  8
AM_7
100
AcDbLine
 10
208.7274363916559
 20
114.3356379043628
 30
0.0
 11
208.7274363916559
 21
138.5856379043628
 31
0.0
  0
LINE
  5
EE4
330
1F
100
AcDbEntity
  8
AM_7
100
AcDbLine
 10
185.4774363916559
 20
114.3356379043628
 30
0.0
 11
231.9774363916559
 21
114.3356379043628
 31
0.0
  0
ARC
  5
EF1
330
1F
100
AcDbEntity
  8
AM_4
100
AcDbCircle
 10
196.9774363916559
 20
123.8356379043628
 30
0.0
 40
2.1095
100
AcDbArc
 50
259.9999999999998
 51
190.0000000000002
  0
ARC
  5
EF2
330
1F
100
AcDbEntity
  8
AM_4
100
AcDbCircle
 10
220.477436391656
 20
104.8356379043628
 30
0.0
 40
2.1095
100
AcDbArc
 50
259.9999999999998
 51
190.0000000000002
  0
TEXT
  5
EF3
330
1F
100
AcDbEntity
  8
LOGO
 62
     7
100
AcDbText
 10
199.2012722270875
 20
53.32418454993974
 30
0.0
 40
3.198583189661538
  1
Order example:
 41
0.8
  7
CHINESET
100
AcDbText
  0
TEXT
  5
EF4
330
1F
100
AcDbEntity
  8
LOGO
 62
     7
100
AcDbText
 10
199.7751245025198
 20
57.82712740588348
 30
0.0
 40
4.797874784492307
  1
訂購代號：
  7
CHINESET
100
AcDbText
  0
LINE
  5
EF5
330
1F
100
AcDbEntity
  8
LOGO
 62
     4
100
AcDbLine
 10
338.2676715591137
 20
63.83352105129133
 30
0.0
 11
145.0348543527938
 21
63.83352105129133
 31
0.0
  0
LINE
  5
EF6
330
1F
100
AcDbEntity
  8
LOGO
 62
     4
100
AcDbLine
 10
197.8114769822092
 20
39.84414712882935
 30
0.0
 11
197.8114769822092
 21
63.83352105129133
 31
0.0
  0
TEXT
  5
EF7
330
1F
100
AcDbEntity
  8
LOGO
  6
Continuous
100
AcDbText
 10
153.6519453000641
 20
44.55682343277513
 30
0.0
 40
3.598406088369231
  1
金器工業股份有限公司
  7
CHINESET
100
AcDbText
  0
TEXT
  5
EF8
330
1F
100
AcDbEntity
  8
LOGO
  6
Continuous
100
AcDbText
 10
147.0423852252668
 20
40.95771233893855
 30
0.0
 40
2.398937392246153
  1
MINDMAN INDUSTRIAL CO., LTD.
 41
0.85
  7
CHINESET
100
AcDbText
  0
LINE
  5
EF9
330
1F
100
AcDbEntity
  8
LOGO
 62
     4
100
AcDbLine
 10
197.8114769822092
 20
59.03564626679872
 30
0.0
 11
162.627061895932
 21
59.03564626679872
 31
0.0
  0
LINE
  5
EFA
330
1F
100
AcDbEntity
  8
LOGO
 62
     4
100
AcDbLine
 10
197.8114769822092
 20
54.23777148230661
 30
0.0
 11
162.627061895932
 21
54.23777148230661
 31
0.0
  0
LINE
  5
EFB
330
1F
100
AcDbEntity
  8
LOGO
 62
     4
100
AcDbLine
 10
197.8114769822092
 20
49.43989669781456
 30
0.0
 11
145.0348543527938
 21
49.43989669781456
 31
0.0
  0
LINE
  5
EFC
330
1F
100
AcDbEntity
  8
LOGO
 62
     4
100
AcDbLine
 10
162.627061895932
 20
49.43989669781456
 30
0.0
 11
162.627061895932
 21
63.83352105129133
 31
0.0
  0
TEXT
  5
EFD
330
1F
100
AcDbEntity
  8
LOGO
100
AcDbText
 10
186.6739489283057
 20
50.63936539393724
 30
0.0
 40
2.398937392246153
  1
mm
  7
CHINESET
 72
     1
 11
189.6440618901342
 21
51.83883409006032
 31
0.0
100
AcDbText
 73
     2
  0
TEXT
  5
EFE
330
1F
100
AcDbEntity
  8
LOGO
100
AcDbText
 10
185.4173626752243
 20
60.23511496292193
 30
0.0
 40
2.398937392246153
  1
1 : 1
  7
CHINESET
 72
     1
 11
189.6440618901342
 21
61.434583659045
 31
0.0
100
AcDbText
 73
     2
  0
LINE
  5
EFF
330
1F
100
AcDbEntity
  8
LOGO
 62
     4
100
AcDbLine
 10
181.8185610339014
 20
49.43989669781456
 30
0.0
 11
181.8185610339014
 21
63.83352105129133
 31
0.0
  0
TEXT
  5
F00
330
1F
100
AcDbEntity
  8
LOGO
100
AcDbText
 10
164.6051142903423
 20
60.23629554234724
 30
0.0
 40
2.398937392246153
  1
比例 Scale:
 41
0.9
  7
CHINESET
 72
     4
 11
172.2228114649167
 21
61.434583659045
 31
0.0
100
AcDbText
  0
TEXT
  5
F01
330
1F
100
AcDbEntity
  8
LOGO
100
AcDbText
 10
164.4669611994495
 20
55.47098507366968
 30
0.0
 40
2.398937392246153
  1
投影  View:
 41
0.9
  7
CHINESET
 72
     4
 11
172.2228114649167
 21
56.63670887455241
 31
0.0
100
AcDbText
  0
TEXT
  5
F02
330
1F
100
AcDbEntity
  8
LOGO
100
AcDbText
 10
164.7015001677093
 20
50.63936539393724
 30
0.0
 40
2.398937392246153
  1
單位  Unit:
 41
0.9
  7
CHINESET
 72
     4
 11
172.2228114649167
 21
51.83883409006032
 31
0.0
100
AcDbText
  0
LWPOLYLINE
  5
F03
330
1F
100
AcDbEntity
  8
LOGO
 62
     4
100
AcDbPolyline
 90
        4
 70
     1
 43
0.0
 10
145.0348543527937
 20
63.83352105129133
 10
338.2676715591137
 20
63.83352105129133
 10
338.2676715591137
 20
307.151372561764
 10
145.0348543527937
 20
307.151372561764
1001
GENIUS_GENREC_14
1002
{
1000
PYDIR
1011
145.0348543527937
1021
307.151372561764
1031
0.0
1002
}
1002
{
1000
PXDIR
1011
338.2676715591137
1021
63.83352105129133
1031
0.0
1002
}
1002
{
1000
PORI
1011
145.0348543527937
1021
63.83352105129133
1031
0.0
1002
}
1002
{
1000
PINS
1011
145.0348543527937
1021
63.83352105129133
1031
0.0
1002
}
1002
{
1000
PINS2
1011
338.2676715591137
1021
307.151372561764
1031
0.0
1002
}
1002
{
1000
C
1070
     1
1002
}
1001
GENIUS_GENODEF_13
1002
{
1000
HIER
1070
     0
1002
}
1002
{
1000
MANEDIT
1070
     0
1002
}
1002
{
1000
NOSEL
1070
     0
1002
}
1002
{
1000
BEHIND
1070
     0
1002
}
1002
{
1000
OTHER
1070
     0
1002
}
1002
{
1000
REACTOR
1002
}
1001
GENIUS_GENOBJ-N-REC_13
1002
{
1000
OWNER
1000
GEN
1002
}
  0
SOLID
  5
F04
330
1F
100
AcDbEntity
  8
LOGO
 62
     5
100
AcDbTrace
 10
147.5237903972657
 20
53.42778865057415
 30
0.0
 11
148.5610279775558
 21
53.42778865057415
 31
0.0
 12
152.8888123642831
 22
63.26366225677351
 32
0.0
 13
153.9260499445737
 23
63.26366225677299
 33
0.0
  0
SOLID
  5
F05
330
1F
100
AcDbEntity
  8
LOGO
 62
     5
100
AcDbTrace
 10
148.9902297349183
 20
53.42778865057415
 30
0.0
 11
150.0274673152084
 21
53.42778865057415
 31
0.0
 12
153.9260499445737
 22
62.4767923682772
 32
0.0
 13
152.8888123642831
 23
58.67358790721358
 33
0.0
  0
SOLID
  5
F06
330
1F
100
AcDbEntity
  8
LOGO
 62
     2
100
AcDbTrace
 10
148.5610279775558
 20
53.42778865057415
 30
0.0
 11
148.9902297349183
 21
53.42778865057415
 31
0.0
 12
153.9260499445737
 22
63.26366225677299
 32
0.0
 13
154.3552517019357
 23
63.26366225677299
 33
0.0
  0
SOLID
  5
F07
330
1F
100
AcDbEntity
  8
LOGO
 62
     5
100
AcDbTrace
 10
145.8608441942485
 20
49.85110733922962
 30
0.0
 11
146.2185123253834
 21
49.85110733922962
 31
0.0
 12
147.2257336213207
 22
51.63944799490185
 32
0.0
 13
147.5834017524545
 23
51.63944799490185
 33
0.0
  0
SOLID
  5
F08
330
1F
100
AcDbEntity
  8
LOGO
 62
     5
100
AcDbTrace
 10
147.2257336213207
 20
51.63944799490185
 30
0.0
 11
147.5834017524545
 21
51.63944799490185
 31
0.0
 12
147.2257336213207
 22
49.85110733922962
 32
0.0
 13
147.5834017524545
 23
49.85110733922962
 33
0.0
  0
SOLID
  5
F09
330
1F
100
AcDbEntity
  8
LOGO
 62
     5
100
AcDbTrace
 10
147.2257336213207
 20
49.85110733922962
 30
0.0
 11
147.5834017524545
 21
49.85110733922962
 31
0.0
 12
148.5906230483933
 22
51.63944799490185
 32
0.0
 13
148.9482911795277
 23
51.63944799490185
 33
0.0
  0
SOLID
  5
F0A
330
1F
100
AcDbEntity
  8
LOGO
 62
     5
100
AcDbTrace
 10
148.5906230483933
 20
51.63944799490185
 30
0.0
 11
148.9482911795277
 21
51.63944799490185
 31
0.0
 12
148.5906230483933
 22
49.85110733922962
 32
0.0
 13
148.9482911795277
 23
49.85110733922962
 33
0.0
  0
POLYLINE
  5
F0B
330
1F
100
AcDbEntity
  8
LOGO
 62
     5
100
AcDb2dPolyline
 66
     1
 10
0.0
 20
0.0
 30
0.0
 40
0.3582413172420924
 41
0.3582413172420924
  0
VERTEX
  5
F0C
330
F0B
100
AcDbEntity
  8
LOGO
 62
     5
100
AcDbVertex
100
AcDb2dVertex
 10
160.5795369628373
 20
50.92411173263264
 30
0.0
 42
1.0
  0
VERTEX
  5
F0D
330
F0B
100
AcDbEntity
  8
LOGO
 62
     5
100
AcDbVertex
100
AcDb2dVertex
 10
159.5048130111108
 20
50.92411173263264
 30
0.0
 42
1.0
  0
SEQEND
  5
F0E
330
F0B
100
AcDbEntity
  8
LOGO
 62
     5
  0
POLYLINE
  5
F0F
330
1F
100
AcDbEntity
  8
LOGO
 62
     5
100
AcDb2dPolyline
 66
     1
 10
0.0
 20
0.0
 30
0.0
 70
     1
  0
VERTEX
  5
F10
330
F0F
100
AcDbEntity
  8
LOGO
 62
     5
100
AcDbVertex
100
AcDb2dVertex
 10
157.4789105583848
 20
50.74527766706548
 30
0.0
 42
1.000000057330635
  0
VERTEX
  5
F11
330
F0F
100
AcDbEntity
  8
LOGO
 62
     5
100
AcDbVertex
100
AcDb2dVertex
 10
158.5519149517883
 20
50.74527766706548
 30
0.0
 42
1.000000057330635
  0
SEQEND
  5
F12
330
F0F
100
AcDbEntity
  8
LOGO
 62
     5
  0
CIRCLE
  5
F13
330
1F
100
AcDbEntity
  8
LOGO
 62
     5
100
AcDbCircle
 10
158.0154127550875
 20
50.74527766706548
 30
0.0
 40
0.5365021967017576
  0
POLYLINE
  5
F14
330
1F
100
AcDbEntity
  8
LOGO
 62
     5
100
AcDb2dPolyline
 66
     1
 10
0.0
 20
0.0
 30
0.0
 70
     1
 40
0.3582413172420924
 41
0.3582413172420924
  0
VERTEX
  5
F15
330
F14
100
AcDbEntity
  8
LOGO
 62
     5
100
AcDbVertex
100
AcDb2dVertex
 10
157.2989301206027
 20
50.74527766706548
 30
0.0
 42
1.0
  0
VERTEX
  5
F16
330
F14
100
AcDbEntity
  8
LOGO
 62
     5
100
AcDbVertex
100
AcDb2dVertex
 10
158.7318953895711
 20
50.74527766706548
 30
0.0
 42
1.0
  0
SEQEND
  5
F17
330
F14
100
AcDbEntity
  8
LOGO
 62
     5
  0
LINE
  5
F18
330
1F
100
AcDbEntity
  8
LOGO
100
AcDbLine
 10
160.7575112492425
 20
49.85110733922962
 30
0.0
 11
160.7575112492425
 21
50.92411173263264
 31
0.0
  0
SOLID
  5
F19
330
1F
100
AcDbEntity
  8
LOGO
 62
     5
100
AcDbTrace
 10
158.5518791849769
 20
51.63944799490185
 30
0.0
 11
158.9095473161107
 21
51.63944799490185
 31
0.0
 12
158.5518791849769
 22
49.85110733922962
 32
0.0
 13
158.9095473161107
 23
49.85110733922962
 33
0.0
  0
SOLID
  5
F1A
330
1F
100
AcDbEntity
  8
LOGO
 62
     5
100
AcDbTrace
 10
159.3268387247046
 20
49.85110733922962
 30
0.0
 11
159.6845068558395
 21
49.85110733922962
 31
0.0
 12
159.3268387247046
 22
51.63944799490185
 32
0.0
 13
159.6845068558395
 23
51.63944799490185
 33
0.0
  0
SOLID
  5
F1B
330
1F
100
AcDbEntity
  8
LOGO
 62
     5
100
AcDbTrace
 10
160.3998431181087
 20
50.92411173263264
 30
0.0
 11
160.7575112492425
 21
50.92411173263264
 31
0.0
 12
160.3998431181087
 22
49.85110733922962
 32
0.0
 13
160.7575112492425
 23
49.85110733922962
 33
0.0
  0
SOLID
  5
F1C
330
1F
100
AcDbEntity
  8
LOGO
 62
     5
100
AcDbTrace
 10
159.2910719115911
 20
62.4767923682772
 30
0.0
 11
158.2538343313015
 21
58.67358790721358
 31
0.0
 12
159.2910719115911
 22
53.42778865057415
 32
0.0
 13
158.2538343313015
 23
53.42778865057415
 33
0.0
  0
SOLID
  5
F1D
330
1F
100
AcDbEntity
  8
LOGO
 62
     5
100
AcDbTrace
 10
159.720273668953
 20
53.42778865057415
 30
0.0
 11
160.7575112492425
 21
53.42778865057415
 31
0.0
 12
159.720273668953
 22
63.26366225677299
 32
0.0
 13
160.7575112492425
 23
63.26366225677351
 33
0.0
  0
POINT
  5
F1E
330
1F
100
AcDbEntity
  8
0
 60
     1
100
AcDbPoint
 10
-1817.858630538385
 20
-806.8679956115923
 30
0.0
1001
GENIUS_GENOBJ-N-CRS_13
1002
{
1000
OWNER
1000
GEN
1002
}
1001
GENIUS_GENOENT_13
1002
{
1000
MYREF
1005
F1E
1002
}
1002
{
1000
GRP
1005
0
1002
}
1001
GENIUS_GENODEF_13
1002
{
1000
HIER
1070
    10
1002
}
1002
{
1000
MANEDIT
1070
     1
1002
}
1002
{
1000
NOSEL
1070
     0
1002
}
1002
{
1000
BEHIND
1070
     0
1002
}
1002
{
1000
OTHER
1070
     0
1002
}
1002
{
1000
REACTOR
1002
}
1001
GENIUS_GENOLIS_13
1002
{
1000
ENT
1005
E3A
1002
}
  0
POINT
  5
F1F
330
1F
100
AcDbEntity
  8
0
 60
     1
100
AcDbPoint
 10
-1829.18321576124
 20
-797.992409132956
 30
0.0
1001
GENIUS_GENOBJ-N-CRS_13
1002
{
1000
OWNER
1000
GEN
1002
}
1001
GENIUS_GENOENT_13
1002
{
1000
MYREF
1005
F1F
1002
}
1002
{
1000
GRP
1005
0
1002
}
1001
GENIUS_GENODEF_13
1002
{
1000
HIER
1070
    10
1002
}
1002
{
1000
MANEDIT
1070
     1
1002
}
1002
{
1000
NOSEL
1070
     0
1002
}
1002
{
1000
BEHIND
1070
     0
1002
}
1002
{
1000
OTHER
1070
     0
1002
}
1002
{
1000
REACTOR
1002
}
1001
GENIUS_GENOLIS_13
1002
{
1000
ENT
1005
E39
1002
}
  0
POINT
  5
F20
330
1F
100
AcDbEntity
  8
0
 60
     1
100
AcDbPoint
 10
-1822.824542063403
 20
-806.8679956115923
 30
0.0
1001
GENIUS_GENOBJ-N-CRS_13
1002
{
1000
OWNER
1000
GEN
1002
}
1001
GENIUS_GENOENT_13
1002
{
1000
MYREF
1005
F20
1002
}
1002
{
1000
GRP
1005
0
1002
}
1001
GENIUS_GENODEF_13
1002
{
1000
HIER
1070
    10
1002
}
1002
{
1000
MANEDIT
1070
     1
1002
}
1002
{
1000
NOSEL
1070
     0
1002
}
1002
{
1000
BEHIND
1070
     0
1002
}
1002
{
1000
OTHER
1070
     0
1002
}
1002
{
1000
REACTOR
1002
}
1001
GENIUS_GENOLIS_13
1002
{
1000
ENT
1005
E38
1002
}
  0
LINE
  5
F2E
330
1F
100
AcDbEntity
  8
AM_7
  6
AM_ISO08W050x2
100
AcDbLine
 10
196.9774363916559
 20
123.8356379043628
 30
0.0
 11
203.477436391656
 21
123.8356379043628
 31
0.0
1001
GENIUS_GENOREF_13
1005
F32
  0
LINE
  5
F2F
330
1F
100
AcDbEntity
  8
AM_7
  6
AM_ISO08W050x2
100
AcDbLine
 10
196.9774363916559
 20
123.8356379043628
 30
0.0
 11
196.9774363916559
 21
130.3356379043627
 31
0.0
1001
GENIUS_GENOREF_13
1005
F32
  0
LINE
  5
F30
102
{ACAD_REACTORS
330
F89
102
}
330
1F
100
AcDbEntity
  8
AM_7
  6
AM_ISO08W050x2
100
AcDbLine
 10
196.9774363916559
 20
123.8356379043628
 30
0.0
 11
190.4774363916559
 21
123.8356379043628
 31
0.0
1001
GENIUS_GENOREF_13
1005
F32
  0
LINE
  5
F31
102
{ACAD_REACTORS
330
F63
102
}
330
1F
100
AcDbEntity
  8
AM_7
  6
AM_ISO08W050x2
100
AcDbLine
 10
196.9774363916559
 20
123.8356379043628
 30
0.0
 11
196.9774363916559
 21
117.3356379043628
 31
0.0
1001
GENIUS_GENOREF_13
1005
F32
  0
POINT
  5
F32
330
1F
100
AcDbEntity
  8
0
 60
     1
100
AcDbPoint
 10
0.0
 20
0.0
 30
0.0
1001
GENIUS_GENOLIS_13
1002
{
1000
ENT
1005
F31
1005
F30
1005
F2F
1005
F2E
1002
}
1001
GENIUS_GENODEF_13
1002
{
1000
HIER
1070
    10
1002
}
1002
{
1000
MANEDIT
1070
     0
1002
}
1002
{
1000
NOSEL
1070
     0
1002
}
1002
{
1000
BEHIND
1070
     0
1002
}
1002
{
1000
OTHER
1070
     0
1002
}
1002
{
1000
REACTOR
1002
}
1001
GENIUS_GENOENT_13
1002
{
1000
MYREF
1005
F32
1002
}
1002
{
1000
GRP
1005
0
1002
}
1001
GENIUS_GENOBJ-N-CRS_13
1002
{
1000
OWNER
1000
GEN
1002
}
  0
LINE
  5
F40
330
1F
100
AcDbEntity
  8
AM_7
  6
AM_ISO08W050x2
100
AcDbLine
 10
220.477436391656
 20
104.8356379043628
 30
0.0
 11
226.9774363916559
 21
104.8356379043628
 31
0.0
1001
GENIUS_GENOREF_13
1005
F44
  0
LINE
  5
F41
330
1F
100
AcDbEntity
  8
AM_7
  6
AM_ISO08W050x2
100
AcDbLine
 10
220.477436391656
 20
104.8356379043628
 30
0.0
 11
220.477436391656
 21
111.3356379043628
 31
0.0
1001
GENIUS_GENOREF_13
1005
F44
  0
LINE
  5
F42
102
{ACAD_REACTORS
330
F89
102
}
330
1F
100
AcDbEntity
  8
AM_7
  6
AM_ISO08W050x2
100
AcDbLine
 10
220.477436391656
 20
104.8356379043628
 30
0.0
 11
213.977436391656
 21
104.8356379043628
 31
0.0
1001
GENIUS_GENOREF_13
1005
F44
  0
LINE
  5
F43
102
{ACAD_REACTORS
330
F63
102
}
330
1F
100
AcDbEntity
  8
AM_7
  6
AM_ISO08W050x2
100
AcDbLine
 10
220.477436391656
 20
104.8356379043628
 30
0.0
 11
220.477436391656
 21
98.33563790436279
 31
0.0
1001
GENIUS_GENOREF_13
1005
F44
  0
POINT
  5
F44
330
1F
100
AcDbEntity
  8
0
 60
     1
100
AcDbPoint
 10
0.0
 20
0.0
 30
0.0
1001
GENIUS_GENOLIS_13
1002
{
1000
ENT
1005
F43
1005
F42
1005
F41
1005
F40
1002
}
1001
GENIUS_GENOENT_13
1002
{
1000
MYREF
1005
F44
1002
}
1002
{
1000
GRP
1005
0
1002
}
1001
GENIUS_GENODEF_13
1002
{
1000
HIER
1070
    10
1002
}
1002
{
1000
MANEDIT
1070
     0
1002
}
1002
{
1000
NOSEL
1070
     0
1002
}
1002
{
1000
BEHIND
1070
     0
1002
}
1002
{
1000
OTHER
1070
     0
1002
}
1002
{
1000
REACTOR
1002
}
1001
GENIUS_GENOBJ-N-CRS_13
1002
{
1000
OWNER
1000
GEN
1002
}
  0
LINE
  5
F45
330
1F
100
AcDbEntity
  8
AM_7
100
AcDbLine
 10
299.1243171629528
 20
159.1762415578806
 30
0.0
 11
299.1243171629528
 21
151.9641598779955
 31
0.0
  0
DIMENSION
  5
F55
102
{ACAD_XDICTIONARY
360
F62
102
}
102
{ACAD_REACTORS
330
F63
102
}
330
1F
100
AcDbEntity
  8
AM_5
100
AcDbDimension
  2
*D8
 10
220.477436391656
 20
81.14026323003356
 30
0.0
 11
208.7274363916559
 21
83.59060771822253
 31
0.0
 70
    32
 71
     5
 42
23.5
  3
AM_ISO$0
100
AcDbAlignedDimension
 13
196.9774363916559
 23
117.3356379043628
 33
0.0
 14
220.477436391656
 24
98.33563790436279
 34
0.0
 50
0.0000000000001018
100
AcDbRotatedDimension
1001
ACAD
1000
DSTYLE
1002
{
1070
    40
1040
1.0
1070
   144
1040
1.0
1070
   272
1070
     8
1002
}
  0
DIMENSION
  5
F7B
102
{ACAD_XDICTIONARY
360
F88
102
}
102
{ACAD_REACTORS
330
F89
102
}
330
1F
100
AcDbEntity
  8
AM_5
100
AcDbDimension
  2
*D9
 10
178.4774363916559
 20
104.8356379043628
 30
0.0
 11
176.0274363916559
 21
114.3356379043628
 31
0.0
 70
    32
 71
     5
 42
19.0
  3
AM_ISO$0
100
AcDbAlignedDimension
 13
190.4774363916559
 23
123.8356379043628
 33
0.0
 14
213.977436391656
 24
104.8356379043628
 34
0.0
 50
90.0
100
AcDbRotatedDimension
1001
ACAD
1000
DSTYLE
1002
{
1070
    40
1040
1.0
1070
   144
1040
1.0
1070
   272
1070
     8
1002
}
  0
DIMENSION
  5
FB2
102
{ACAD_XDICTIONARY
360
FBF
102
}
102
{ACAD_REACTORS
330
FC0
102
}
330
1F
100
AcDbEntity
  8
AM_5
100
AcDbDimension
  2
*D10
 10
228.9774363916559
 20
144.0646295075249
 30
0.0
 11
208.7274363916559
 21
146.5146295075249
 31
0.0
 70
    32
 71
     5
 42
40.49999999999999
  3
AM_ISO$0
100
AcDbAlignedDimension
 13
188.4774363916559
 23
154.9190041679955
 33
0.0
 14
228.9774363916559
 24
154.9190041679955
 34
0.0
 50
0.0000000000001018
100
AcDbRotatedDimension
1001
ACAD
1000
DSTYLE
1002
{
1070
    40
1040
1.0
1070
   144
1040
1.0
1070
   272
1070
     8
1002
}
  0
DIMENSION
  5
FE2
102
{ACAD_XDICTIONARY
360
FEF
102
}
102
{ACAD_REACTORS
330
FF0
102
}
330
1F
100
AcDbEntity
  8
AM_5
100
AcDbDimension
  2
*D11
 10
259.4454653272631
 20
229.9641598798175
 30
0.0
 11
256.9954653272631
 21
192.4641598789066
 31
0.0
 70
    32
 71
     5
 42
75.00000000182197
  3
AM_ISO$0
100
AcDbAlignedDimension
 13
275.6243171629527
 23
154.9641598779955
 33
0.0
 14
289.6243171629527
 24
229.9641598798175
 34
0.0
 50
90.0
100
AcDbRotatedDimension
1001
ACAD
1000
DSTYLE
1002
{
1070
    40
1040
1.0
1070
   144
1040
1.0
1070
   272
1070
     8
1002
}
  0
DIMENSION
  5
1032
102
{ACAD_XDICTIONARY
360
103F
102
}
102
{ACAD_REACTORS
330
1040
102
}
330
1F
100
AcDbEntity
  8
AM_5
100
AcDbDimension
  2
*D13
 10
229.9774363916559
 20
237.355651243124
 30
0.0
 11
208.7274363916559
 21
239.805995731313
 31
0.0
 70
    32
  1
%%c<>
 71
     5
 42
42.5
  3
AM_ISO$0
100
AcDbAlignedDimension
 13
187.4774363916559
 23
212.9641598798175
 33
0.0
 14
229.9774363916559
 24
212.9641598798175
 34
0.0
100
AcDbRotatedDimension
1001
ACAD
1000
DSTYLE
1002
{
1070
    40
1040
1.0
1070
   144
1040
1.0
1070
   272
1070
     8
1002
}
  0
INSERT
  5
10E9
330
1F
100
AcDbEntity
  8
AM_5
100
AcDbBlockReference
  2
*S15
 10
0.0
 20
0.0
 30
0.0
  0
TEXT
  5
10EB
330
1F
100
AcDbEntity
  8
AM_5
100
AcDbText
 10
306.6890923306845
 20
148.5348131436289
 30
0.0
 40
3.0
  1
PT1/4
100
AcDbText
  0
ENDSEC
  0
SECTION
  2
OBJECTS
  0
DICTIONARY
  5
C
330
0
100
AcDbDictionary
281
     1
  3
ACAD_COLOR
350
BE
  3
ACAD_GROUP
350
D
  3
ACAD_LAYOUT
350
1A
  3
ACAD_MATERIAL
350
BD
  3
ACAD_MLINESTYLE
350
17
  3
ACAD_PLOTSETTINGS
350
19
  3
ACAD_PLOTSTYLENAME
350
E
  3
ACAD_TABLESTYLE
350
11A
  3
ACDBHEADERROUNDTRIPXREC
350
1118
  3
AcDbVariableDictionary
350
94
  3
AcmDictionary
350
5B
  3
AMG
350
41
  3
AMGSNAPSETTINGS
350
1B8
  3
DWGPROPS
350
1117
  0
DICTIONARY
  5
3F9
330
2
100
AcDbDictionary
280
     1
281
     1
  3
ACAD_LAYERFILTERS
360
5B7
  3
ACAD_LAYERSTATES
360
A57
  3
ACLYDICTIONARY
360
5B6
  0
DICTIONARY
  5
8F
330
1F
100
AcDbDictionary
280
     1
281
     1
  0
DICTIONARY
  5
F62
330
F55
100
AcDbDictionary
280
     1
281
     1
  3
ACAD_DIMASSOC
360
F63
  0
DICTIONARY
  5
F88
330
F7B
100
AcDbDictionary
280
     1
281
     1
  3
ACAD_DIMASSOC
360
F89
  0
DICTIONARY
  5
FBF
330
FB2
100
AcDbDictionary
280
     1
281
     1
  3
ACAD_DIMASSOC
360
FC0
  0
DICTIONARY
  5
FEF
330
FE2
100
AcDbDictionary
280
     1
281
     1
  3
ACAD_DIMASSOC
360
FF0
  0
DICTIONARY
  5
103F
330
1032
100
AcDbDictionary
280
     1
281
     1
  3
ACAD_DIMASSOC
360
1040
  0
DICTIONARY
  5
BE
102
{ACAD_REACTORS
330
C
102
}
330
C
100
AcDbDictionary
281
     1
  0
DICTIONARY
  5
D
102
{ACAD_REACTORS
330
C
102
}
330
C
100
AcDbDictionary
281
     1
  0
DICTIONARY
  5
1A
102
{ACAD_REACTORS
330
C
102
}
330
C
100
AcDbDictionary
281
     1
  3
Model
350
22
  3
配置1
350
1E
  3
配置2
350
26
  0
DICTIONARY
  5
BD
102
{ACAD_REACTORS
330
C
102
}
330
C
100
AcDbDictionary
281
     1
  0
DICTIONARY
  5
17
102
{ACAD_REACTORS
330
C
102
}
330
C
100
AcDbDictionary
281
     1
  3
Standard
350
18
  0
DICTIONARY
  5
19
102
{ACAD_REACTORS
330
C
102
}
330
C
100
AcDbDictionary
281
     1
  0
ACDBDICTIONARYWDFLT
  5
E
102
{ACAD_REACTORS
330
C
102
}
330
C
100
AcDbDictionary
281
     1
  3
Normal
350
F
100
AcDbDictionaryWithDefault
340
F
  0
DICTIONARY
  5
11A
102
{ACAD_REACTORS
330
C
102
}
330
C
100
AcDbDictionary
281
     1
  3
Standard
350
11B
  0
DICTIONARY
  5
1118
102
{ACAD_REACTORS
330
C
102
}
330
C
100
AcDbDictionary
281
     1
  0
DICTIONARY
  5
94
102
{ACAD_REACTORS
330
C
102
}
330
C
100
AcDbDictionary
281
     1
  3
CTABLESTYLE
350
138
  3
DIMASSOC
350
96
  3
INDEXCTL
350
95
  3
PROJECTNAME
350
1115
  0
DICTIONARY
  5
5B
102
{ACAD_REACTORS
330
C
102
}
330
C
100
AcDbDictionary
281
     1
  3
AcmBOM
350
1B5
  3
AcmStdDictionary
350
61
  3
AMDTSECTSYM_ARROWCOLOR
350
123
  0
DICTIONARY
  5
41
102
{ACAD_REACTORS
330
C
102
}
330
C
100
AcDbDictionary
281
     1
  0
DICTIONARY
  5
1B8
102
{ACAD_REACTORS
330
C
102
}
330
C
100
AcDbDictionary
281
     1
  0
XRECORD
  5
1117
102
{ACAD_REACTORS
330
C
102
}
330
C
100
AcDbXrecord
280
     1
  1
DWGPROPS COOKIE
  2

  3

  4

  6

  7

  8

  9

300
AmdtFileType=84
301
=
302
=
303
=
304
=
305
=
306
=
307
=
308
=
309
=
 40
0.0183629976851852
 41
2453980.371058658
 42
2453980.389421296
  1

 90
        1
  0
DICTIONARY
  5
5B7
102
{ACAD_REACTORS
330
3F9
102
}
330
3F9
100
AcDbDictionary
281
     1
  0
DICTIONARY
  5
A57
102
{ACAD_REACTORS
330
3F9
102
}
330
3F9
100
AcDbDictionary
281
     1
  0
DICTIONARY
  5
5B6
102
{ACAD_REACTORS
330
3F9
102
}
330
3F9
100
AcDbDictionary
281
     1
1001
ACAD
1000
<All
  0
DIMASSOC
  5
F63
102
{ACAD_REACTORS
330
F62
102
}
330
F62
100
AcDbDimAssoc
330
F55
 90
        3
 70
     0
 71
     0
  1
AcDbOsnapPointRef
 72
     1
331
F31
 73
     0
 91
        0
 40
0.0
 10
0.0
 20
0.0
 30
2.000000000000000E+50
 75
     0
  1
AcDbOsnapPointRef
 72
     1
331
F43
 73
     0
 91
        0
 40
0.0
 10
0.0
 20
0.0
 30
2.000000000000000E+50
 75
     0
  0
DIMASSOC
  5
F89
102
{ACAD_REACTORS
330
F88
102
}
330
F88
100
AcDbDimAssoc
330
F7B
 90
        3
 70
     0
 71
     0
  1
AcDbOsnapPointRef
 72
     1
331
F30
 73
     0
 91
        0
 40
0.0
 10
0.0
 20
0.0
 30
2.000000000000000E+50
 75
     0
  1
AcDbOsnapPointRef
 72
     1
331
F42
 73
     0
 91
        0
 40
0.0
 10
0.0
 20
0.0
 30
2.000000000000000E+50
 75
     0
  0
DIMASSOC
  5
FC0
102
{ACAD_REACTORS
330
FBF
102
}
330
FBF
100
AcDbDimAssoc
330
FB2
 90
        3
 70
     0
 71
     0
  1
AcDbOsnapPointRef
 72
    13
331
E76
 73
     0
 91
        0
 40
0.0
 10
0.0
 20
0.0
 30
2.000000000000000E+50
 75
     0
  1
AcDbOsnapPointRef
 72
     1
331
E77
 73
     0
 91
        0
 40
0.0
 10
0.0
 20
0.0
 30
2.000000000000000E+50
 75
     0
  0
DIMASSOC
  5
FF0
102
{ACAD_REACTORS
330
FEF
102
}
330
FEF
100
AcDbDimAssoc
330
FE2
 90
        3
 70
     0
 71
     0
  1
AcDbOsnapPointRef
 72
     1
331
EAC
 73
     0
 91
        0
 40
0.0
 10
0.0
 20
0.0
 30
2.000000000000000E+50
 75
     0
  1
AcDbOsnapPointRef
 72
     5
331
EB0
 73
     0
 91
        0
 40
7.853981633974482
 10
0.0
 20
0.0
 30
0.0
 75
     0
  0
DIMASSOC
  5
1040
102
{ACAD_REACTORS
330
103F
102
}
330
103F
100
AcDbDimAssoc
330
1032
 90
        3
 70
     0
 71
     0
  1
AcDbOsnapPointRef
 72
    13
331
E70
 73
     0
 91
        0
 40
0.0
 10
0.0
 20
0.0
 30
2.000000000000000E+50
 75
     0
  1
AcDbOsnapPointRef
 72
     1
331
E70
 73
     0
 91
        0
 40
0.0
 10
0.0
 20
0.0
 30
2.000000000000000E+50
 75
     0
  0
LAYOUT
  5
22
102
{ACAD_XDICTIONARY
360
111B
102
}
102
{ACAD_REACTORS
330
1A
102
}
330
1A
100
AcDbPlotSettings
  1

  2
\\RD\EPSON Stylus C63 Series單色
  4
A4
  6

 40
3.757083177566528
 41
3.757076978683471
 42
3.757080078125
 43
3.757080078125
 44
209.9733276367187
 45
296.9683227539062
 46
0.0
 47
0.0
 48
0.0
 49
0.0
140
0.0
141
0.0
142
1.0
143
0.3405120737814363
 70
 11952
 72
     1
 73
     0
 74
     0
  7
單色出圖.ctb
 75
     0
147
2.936753428137963
148
-2047.07469463503
149
-1261.649717473083
100
AcDbLayout
  1
Model
 70
     1
 71
     0
 10
0.0
 20
0.0
 11
12.0
 21
9.0
 12
0.0
 22
0.0
 32
0.0
 14
0.0
 24
0.0
 34
0.0
 15
0.0
 25
0.0
 35
0.0
146
0.0
 13
0.0
 23
0.0
 33
0.0
 16
1.0
 26
0.0
 36
0.0
 17
0.0
 27
1.0
 37
0.0
 76
     0
330
1F
1001
ACAD_PSEXT
1000
\\RD\EPSON Stylus C63 Series單色
1000
EPSON Stylus C63 Series
1000
\\RD
1000

1070
     0
  0
LAYOUT
  5
1E
102
{ACAD_XDICTIONARY
360
1119
102
}
102
{ACAD_REACTORS
330
1A
102
}
330
1A
100
AcDbPlotSettings
  1

  2

  4

  6

 40
0.0
 41
0.0
 42
0.0
 43
0.0
 44
0.0
 45
0.0
 46
0.0
 47
0.0
 48
0.0
 49
0.0
140
0.0
141
0.0
142
1.0
143
1.0
 70
   688
 72
     0
 73
     0
 74
     5
  7
單色出圖.ctb
 75
    16
147
1.0
148
0.0
149
0.0
100
AcDbLayout
  1
配置1
 70
     1
 71
     1
 10
0.0
 20
0.0
 11
420.0
 21
297.0
 12
0.0
 22
0.0
 32
0.0
 14
1.000000000000000E+20
 24
1.000000000000000E+20
 34
1.000000000000000E+20
 15
-1.000000000000000E+20
 25
-1.000000000000000E+20
 35
-1.000000000000000E+20
146
0.0
 13
0.0
 23
0.0
 33
0.0
 16
1.0
 26
0.0
 36
0.0
 17
0.0
 27
1.0
 37
0.0
 76
     0
330
1B
  0
LAYOUT
  5
26
102
{ACAD_XDICTIONARY
360
111D
102
}
102
{ACAD_REACTORS
330
1A
102
}
330
1A
100
AcDbPlotSettings
  1

  2

  4

  6

 40
0.0
 41
0.0
 42
0.0
 43
0.0
 44
0.0
 45
0.0
 46
0.0
 47
0.0
 48
0.0
 49
0.0
140
0.0
141
0.0
142
1.0
143
1.0
 70
   688
 72
     0
 73
     0
 74
     5
  7
單色出圖.ctb
 75
    16
147
1.0
148
0.0
149
0.0
100
AcDbLayout
  1
配置2
 70
     1
 71
     2
 10
0.0
 20
0.0
 11
12.0
 21
9.0
 12
0.0
 22
0.0
 32
0.0
 14
0.0
 24
0.0
 34
0.0
 15
0.0
 25
0.0
 35
0.0
146
0.0
 13
0.0
 23
0.0
 33
0.0
 16
1.0
 26
0.0
 36
0.0
 17
0.0
 27
1.0
 37
0.0
 76
     0
330
23
  0
MLINESTYLE
  5
18
102
{ACAD_REACTORS
330
17
102
}
330
17
100
AcDbMlineStyle
  2
STANDARD
 70
     0
  3

 62
   256
 51
90.0
 52
90.0
 71
     2
 49
0.5
 62
   256
  6
BYLAYER
 49
-0.5
 62
   256
  6
BYLAYER
  0
ACDBPLACEHOLDER
  5
F
102
{ACAD_REACTORS
330
E
102
}
330
E
  0
TABLESTYLE
  5
11B
102
{ACAD_REACTORS
330
11A
102
}
330
11A
100
AcDbTableStyle
  3
Standard
 70
     0
 71
     0
 40
1.5
 41
1.5
280
     0
281
     0
  7
STANDARD
140
4.5
170
     2
 62
     0
 63
     7
283
     0
274
    -2
284
     1
 64
     0
275
    -2
285
     1
 65
     0
276
    -2
286
     1
 66
     0
277
    -2
287
     1
 67
     0
278
    -2
288
     1
 68
     0
279
    -2
289
     1
 69
     0
  7
STANDARD
140
6.0
170
     5
 62
     0
 63
     7
283
     0
274
    -2
284
     1
 64
     0
275
    -2
285
     1
 65
     0
276
    -2
286
     1
 66
     0
277
    -2
287
     1
 67
     0
278
    -2
288
     1
 68
     0
279
    -2
289
     1
 69
     0
  7
STANDARD
140
4.5
170
     5
 62
     0
 63
     7
283
     0
274
    -2
284
     1
 64
     0
275
    -2
285
     1
 65
     0
276
    -2
286
     1
 66
     0
277
    -2
287
     1
 67
     0
278
    -2
288
     1
 68
     0
279
    -2
289
     1
 69
     0
  0
DICTIONARYVAR
  5
138
102
{ACAD_REACTORS
330
94
102
}
330
94
100
DictionaryVariables
280
     0
  1
STANDARD
  0
DICTIONARYVAR
  5
96
102
{ACAD_REACTORS
330
94
102
}
330
94
100
DictionaryVariables
280
     0
  1
2
  0
DICTIONARYVAR
  5
95
102
{ACAD_REACTORS
330
94
102
}
330
94
100
DictionaryVariables
280
     0
  1
0
  0
DICTIONARYVAR
  5
1115
102
{ACAD_REACTORS
330
94
102
}
330
94
100
DictionaryVariables
280
     0
  1

  0
DICTIONARY
  5
1B5
102
{ACAD_REACTORS
330
5B
102
}
330
5B
100
AcDbDictionary
281
     1
  0
DICTIONARY
  5
61
102
{ACAD_REACTORS
330
5B
102
}
330
5B
100
AcDbDictionary
281
     1
  0
XRECORD
  5
123
102
{ACAD_REACTORS
330
5B
102
}
330
5B
100
AcDbXrecord
280
     1
 90
-1023410169
  0
DICTIONARY
  5
111B
330
22
100
AcDbDictionary
280
     1
281
     1
  3
ACAD_XREC_ROUNDTRIP
360
111C
  0
DICTIONARY
  5
1119
330
1E
100
AcDbDictionary
280
     1
281
     1
  3
ACAD_XREC_ROUNDTRIP
360
111A
  0
DICTIONARY
  5
111D
330
26
100
AcDbDictionary
280
     1
281
     1
  3
ACAD_XREC_ROUNDTRIP
360
111E
  0
XRECORD
  5
111C
102
{ACAD_REACTORS
330
111B
102
}
330
111B
100
AcDbXrecord
280
     1
102
SHADEPLOT
 70
     0
102
SHADEPLOTRESLEVEL
 70
     2
102
SHADEPLOTCUSTOMDPI
 70
   300
  0
XRECORD
  5
111A
102
{ACAD_REACTORS
330
1119
102
}
330
1119
100
AcDbXrecord
280
     1
102
SHADEPLOT
 70
     0
102
SHADEPLOTRESLEVEL
 70
     2
102
SHADEPLOTCUSTOMDPI
 70
   300
  0
XRECORD
  5
111E
102
{ACAD_REACTORS
330
111D
102
}
330
111D
100
AcDbXrecord
280
     1
102
SHADEPLOT
 70
     0
102
SHADEPLOTRESLEVEL
 70
     2
102
SHADEPLOTCUSTOMDPI
 70
   300
  0
ENDSEC
  0
EOF
