  0
SECTION
  2
HEADER
  9
$ACADVER
  1
AC1015
  9
$ACADMAINTVER
 70
    20
  9
$DWGCODEPAGE
  3
ANSI_950
  9
$INSBASE
 10
0.0
 20
0.0
 30
0.0
  9
$EXTMIN
 10
2497.554775211456
 20
1018.761933143355
 30
-0.0039967569216515
  9
$EXTMAX
 10
3047.730234985642
 20
1418.879255858394
 30
262.1194519389552
  9
$LIMMIN
 10
0.0
 20
0.0
  9
$LIMMAX
 10
420.0
 20
297.0
  9
$ORTHOMODE
 70
     0
  9
$REGENMODE
 70
     1
  9
$FILLMODE
 70
     1
  9
$QTEXTMODE
 70
     0
  9
$MIRRTEXT
 70
     1
  9
$LTSCALE
 40
1.0
  9
$ATTMODE
 70
     1
  9
$TEXTSIZE
 40
3.0
  9
$TRACEWID
 40
1.0
  9
$TEXTSTYLE
  7
CHINESET
  9
$CLAYER
  8
0
  9
$CELTYPE
  6
ByLayer
  9
$CECOLOR
 62
   256
  9
$CELTSCALE
 40
1.0
  9
$DISPSILH
 70
     0
  9
$DIMSCALE
 40
1.0
  9
$DIMASZ
 40
3.0
  9
$DIMEXO
 40
1.0
  9
$DIMDLI
 40
8.0
  9
$DIMRND
 40
0.0
  9
$DIMDLE
 40
0.0
  9
$DIMEXE
 40
1.5
  9
$DIMTP
 40
0.1
  9
$DIMTM
 40
0.1
  9
$DIMTXT
 40
3.0
  9
$DIMCEN
 40
0.0
  9
$DIMTSZ
 40
0.0
  9
$DIMTOL
 70
     0
  9
$DIMLIM
 70
     0
  9
$DIMTIH
 70
     0
  9
$DIMTOH
 70
     0
  9
$DIMSE1
 70
     0
  9
$DIMSE2
 70
     0
  9
$DIMTAD
 70
     1
  9
$DIMZIN
 70
     8
  9
$DIMBLK
  1

  9
$DIMASO
 70
     1
  9
$DIMSHO
 70
     1
  9
$DIMPOST
  1

  9
$DIMAPOST
  1
"
  9
$DIMALT
 70
     0
  9
$DIMALTD
 70
     2
  9
$DIMALTF
 40
0.0393701
  9
$DIMLFAC
 40
1.0
  9
$DIMTOFL
 70
     1
  9
$DIMTVP
 40
0.0
  9
$DIMTIX
 70
     0
  9
$DIMSOXD
 70
     0
  9
$DIMSAH
 70
     0
  9
$DIMBLK1
  1

  9
$DIMBLK2
  1

  9
$DIMSTYLE
  2
AM_ISO
  9
$DIMCLRD
 70
   256
  9
$DIMCLRE
 70
   256
  9
$DIMCLRT
 70
   256
  9
$DIMTFAC
 40
0.71
  9
$DIMGAP
 40
1.0
  9
$DIMJUST
 70
     0
  9
$DIMSD1
 70
     0
  9
$DIMSD2
 70
     0
  9
$DIMTOLJ
 70
     0
  9
$DIMTZIN
 70
     8
  9
$DIMALTZ
 70
     0
  9
$DIMALTTZ
 70
     0
  9
$DIMUPT
 70
     0
  9
$DIMDEC
 70
     2
  9
$DIMTDEC
 70
     8
  9
$DIMALTU
 70
     2
  9
$DIMALTTD
 70
     2
  9
$DIMTXSTY
  7
CHINESET
  9
$DIMAUNIT
 70
     0
  9
$DIMADEC
 70
     0
  9
$DIMALTRND
 40
0.0
  9
$DIMAZIN
 70
     2
  9
$DIMDSEP
 70
    46
  9
$DIMATFIT
 70
     3
  9
$DIMFRAC
 70
     0
  9
$DIMLDRBLK
  1

  9
$DIMLUNIT
 70
     2
  9
$DIMLWD
 70
    -1
  9
$DIMLWE
 70
    -1
  9
$DIMTMOVE
 70
     0
  9
$LUNITS
 70
     2
  9
$LUPREC
 70
     2
  9
$SKETCHINC
 40
1.0
  9
$FILLETRAD
 40
2.5
  9
$AUNITS
 70
     0
  9
$AUPREC
 70
     0
  9
$MENU
  1
.
  9
$ELEVATION
 40
0.0
  9
$PELEVATION
 40
0.0
  9
$THICKNESS
 40
0.0
  9
$LIMCHECK
 70
     0
  9
$CHAMFERA
 40
2.5
  9
$CHAMFERB
 40
2.5
  9
$CHAMFERC
 40
20.0
  9
$CHAMFERD
 40
0.0
  9
$SKPOLY
 70
     0
  9
$TDCREATE
 40
2453727.710216099
  9
$TDUCREATE
 40
2453727.376882766
  9
$TDUPDATE
 40
2454370.432198345
  9
$TDUUPDATE
 40
2454370.098865012
  9
$TDINDWG
 40
0.1489489236
  9
$TDUSRTIMER
 40
0.1489489236
  9
$USRTIMER
 70
     1
  9
$ANGBASE
 50
0.0
  9
$ANGDIR
 70
     0
  9
$PDMODE
 70
     0
  9
$PDSIZE
 40
0.0
  9
$PLINEWID
 40
0.0
  9
$SPLFRAME
 70
     0
  9
$SPLINETYPE
 70
     6
  9
$SPLINESEGS
 70
     8
  9
$HANDSEED
  5
1E13
  9
$SURFTAB1
 70
     6
  9
$SURFTAB2
 70
     6
  9
$SURFTYPE
 70
     6
  9
$SURFU
 70
     6
  9
$SURFV
 70
     6
  9
$UCSBASE
  2

  9
$UCSNAME
  2

  9
$UCSORG
 10
0.0
 20
0.0
 30
0.0
  9
$UCSXDIR
 10
1.0
 20
0.0
 30
0.0
  9
$UCSYDIR
 10
0.0
 20
1.0
 30
0.0
  9
$UCSORTHOREF
  2

  9
$UCSORTHOVIEW
 70
     0
  9
$UCSORGTOP
 10
0.0
 20
0.0
 30
0.0
  9
$UCSORGBOTTOM
 10
0.0
 20
0.0
 30
0.0
  9
$UCSORGLEFT
 10
0.0
 20
0.0
 30
0.0
  9
$UCSORGRIGHT
 10
0.0
 20
0.0
 30
0.0
  9
$UCSORGFRONT
 10
0.0
 20
0.0
 30
0.0
  9
$UCSORGBACK
 10
0.0
 20
0.0
 30
0.0
  9
$PUCSBASE
  2

  9
$PUCSNAME
  2

  9
$PUCSORG
 10
0.0
 20
0.0
 30
0.0
  9
$PUCSXDIR
 10
1.0
 20
0.0
 30
0.0
  9
$PUCSYDIR
 10
0.0
 20
1.0
 30
0.0
  9
$PUCSORTHOREF
  2

  9
$PUCSORTHOVIEW
 70
     0
  9
$PUCSORGTOP
 10
0.0
 20
0.0
 30
0.0
  9
$PUCSORGBOTTOM
 10
0.0
 20
0.0
 30
0.0
  9
$PUCSORGLEFT
 10
0.0
 20
0.0
 30
0.0
  9
$PUCSORGRIGHT
 10
0.0
 20
0.0
 30
0.0
  9
$PUCSORGFRONT
 10
0.0
 20
0.0
 30
0.0
  9
$PUCSORGBACK
 10
0.0
 20
0.0
 30
0.0
  9
$USERI1
 70
     0
  9
$USERI2
 70
     0
  9
$USERI3
 70
     0
  9
$USERI4
 70
     0
  9
$USERI5
 70
     0
  9
$USERR1
 40
0.0
  9
$USERR2
 40
0.0
  9
$USERR3
 40
0.0
  9
$USERR4
 40
0.0
  9
$USERR5
 40
0.0
  9
$WORLDVIEW
 70
     1
  9
$SHADEDGE
 70
     3
  9
$SHADEDIF
 70
    70
  9
$TILEMODE
 70
     1
  9
$MAXACTVP
 70
    64
  9
$PINSBASE
 10
0.0
 20
0.0
 30
0.0
  9
$PLIMCHECK
 70
     0
  9
$PEXTMIN
 10
1.000000000000000E+20
 20
1.000000000000000E+20
 30
1.000000000000000E+20
  9
$PEXTMAX
 10
-1.000000000000000E+20
 20
-1.000000000000000E+20
 30
-1.000000000000000E+20
  9
$PLIMMIN
 10
0.0
 20
0.0
  9
$PLIMMAX
 10
420.0
 20
297.0
  9
$UNITMODE
 70
     0
  9
$VISRETAIN
 70
     1
  9
$PLINEGEN
 70
     0
  9
$PSLTSCALE
 70
     1
  9
$TREEDEPTH
 70
  3020
  9
$CMLSTYLE
  2
Standard
  9
$CMLJUST
 70
     0
  9
$CMLSCALE
 40
20.0
  9
$PROXYGRAPHICS
 70
     1
  9
$MEASUREMENT
 70
     1
  9
$CELWEIGHT
370
    -1
  9
$ENDCAPS
280
     0
  9
$JOINSTYLE
280
     0
  9
$LWDISPLAY
290
     0
  9
$INSUNITS
 70
     4
  9
$HYPERLINKBASE
  1

  9
$STYLESHEET
  1
彩色出圖.ctb
  9
$XEDIT
290
     1
  9
$CEPSNTYPE
380
     0
  9
$PSTYLEMODE
290
     1
  9
$FINGERPRINTGUID
  2
{F71A31A6-E1E4-49B6-91D9-577F95F49260}
  9
$VERSIONGUID
  2
{4DB0CC46-ECF8-45AD-AAA2-AA0704ABC374}
  9
$EXTNAMES
290
     1
  9
$PSVPSCALE
 40
0.0
  9
$OLESTARTUP
290
     0
  0
ENDSEC
  0
SECTION
  2
CLASSES
  0
CLASS
  1
ACDBDICTIONARYWDFLT
  2
AcDbDictionaryWithDefault
  3
ObjectDBX Classes
 90
        0
280
     0
281
     0
  0
CLASS
  1
ACDBPLACEHOLDER
  2
AcDbPlaceHolder
  3
ObjectDBX Classes
 90
        0
280
     0
281
     0
  0
CLASS
  1
LAYOUT
  2
AcDbLayout
  3
ObjectDBX Classes
 90
        0
280
     0
281
     0
  0
CLASS
  1
ACME_DOCUMENT
  2
AcMeDbDoc
  3
AcMeServices
 90
        0
280
     0
281
     0
  0
CLASS
  1
AMGSETTINGSOBJ
  2
AmgSettingsObj
  3
"AcadM|Product Description: AutoCAD Mechanical 2000|Company: Autodesk"
 90
        0
280
     0
281
     0
  0
CLASS
  1
ACMESCOPE
  2
AcMeScope
  3
AcMeServices
 90
        0
280
     0
281
     0
  0
CLASS
  1
ACMECOMMANDHISTORY
  2
AcMeCommandHistory
  3
AcMeServices
 90
        0
280
     0
281
     0
  0
CLASS
  1
ACIMSYSVARMAN
  2
AcImSysVarManager
  3
AcMeServices
 90
        0
280
     0
281
     0
  0
CLASS
  1
ACIMREALSYSVAR
  2
AcImRealSysVar
  3
AcMeServices
 90
        0
280
     0
281
     0
  0
CLASS
  1
ACIMINTSYSVAR
  2
AcImIntSysVar
  3
AcMeServices
 90
        0
280
     0
281
     0
  0
CLASS
  1
ACMEDRAWINGMAN
  2
AcMeDrawingMan
  3
AcMeServices
 90
        0
280
     0
281
     0
  0
CLASS
  1
ACMEVIEW
  2
AcMeView
  3
AcMeServices
 90
        0
280
     0
281
     0
  0
CLASS
  1
ACDBENTITYCACHE
  2
AcMeEntityCache
  3
AcMeServices
 90
        0
280
     0
281
     0
  0
CLASS
  1
GSMANAGER
  2
AcMeGSManager
  3
AcMeServices
 90
        0
280
     0
281
     0
  0
CLASS
  1
AMDTINTERNALREACTOR
  2
AmdtInternalReactor
  3
AcMeServices
 90
        0
280
     0
281
     0
  0
CLASS
  1
ACMESTATEMGR
  2
AcMeStateMgr
  3
AcMeServices
 90
        0
280
     0
281
     0
  0
CLASS
  1
ACGREFMASTER
  2
AcGrefMaster
  3
AcAttribServices
 90
        0
280
     0
281
     0
  0
CLASS
  1
ACME_DATABASE
  2
AcMeDbDatabase
  3
AcMeServices
 90
        0
280
     0
281
     0
  0
CLASS
  1
ACRFINSADJUSTERMGR
  2
AcRfInsAdjusterMgr
  3
AcMeServices
 90
        0
280
     0
281
     0
  0
CLASS
  1
ACGREFACADMASTER
  2
AcGrefacadMaster
  3
AcGrefServices
 90
        0
280
     0
281
     0
  0
CLASS
  1
AMIMASTER
  2
AmiMaster
  3
AmiServices
 90
        0
280
     0
281
     0
  0
CLASS
  1
ACMDATADICTIONARY
  2
AcmDataDictionary
  3
"AcmSymBB|Product Description: AutoCAD Mechanical 2004 DX|Company: Autodesk"
 90
        0
280
     0
281
     0
  0
CLASS
  1
ACMDATAENTRYBLOCK
  2
AcmDataEntryBlock
  3
"AcmSymBB|Product Description: AutoCAD Mechanical 2004 DX|Company: Autodesk"
 90
    32768
280
     0
281
     0
  0
CLASS
  1
ACIMSTRSYSVAR
  2
AcImStrSysVar
  3
AcMeServices
 90
        0
280
     0
281
     0
  0
CLASS
  1
ACMSTANDARDISO
  2
AcmStandardISO
  3
"Amdt_StdImp|Product Description: AutoCAD Mechanical 2004 DX|Company: Autodesk"
 90
        0
280
     0
281
     0
  0
CLASS
  1
AMGOBJPROPCFG
  2
AmgObjPropCfg
  3
"AmgLay|Product Description: AutoCAD Mechanical 2000|Company: Autodesk"
 90
        1
280
     0
281
     0
  0
CLASS
  1
AMDTEDGESTANDARDISO
  2
AmdtEdgeStdISO
  3
"Amdt_StdImp|Product Description: AutoCAD Mechanical 2004 DX|Company: Autodesk"
 90
    32768
280
     0
281
     0
  0
CLASS
  1
ACMSURFSTANDARDISO
  2
AcmSurfTextStdISO
  3
"Amdt_StdImp|Product Description: AutoCAD Mechanical 2004 DX|Company: Autodesk"
 90
        0
280
     0
281
     0
  0
CLASS
  1
ACMFCFSTANDARDISO
  2
AcmFCFStdISO
  3
"Amdt_StdImp|Product Description: AutoCAD Mechanical 2004 DX|Company: Autodesk"
 90
        0
280
     0
281
     0
  0
CLASS
  1
ACMWELDSTANDARDISO
  2
AcmWeldingStdISO
  3
"Amdt_StdImp|Product Description: AutoCAD Mechanical 2004 DX|Company: Autodesk"
 90
        0
280
     0
281
     0
  0
CLASS
  1
ACMIDSTANDARDISO
  2
AcmIdStdISO
  3
"Amdt_StdImp|Product Description: AutoCAD Mechanical 2004 DX|Company: Autodesk"
 90
        0
280
     0
281
     0
  0
CLASS
  1
ACMDATUMSTANDARDISO
  2
AcmDatumStdISO
  3
"Amdt_StdImp|Product Description: AutoCAD Mechanical 2004 DX|Company: Autodesk"
 90
        0
280
     0
281
     0
  0
CLASS
  1
ACMBOMSTANDARDISO
  2
AcmBOMStdISO
  3
"Amdt_StdImp|Product Description: AutoCAD Mechanical 2004 DX|Company: Autodesk"
 90
        0
280
     0
281
     0
  0
CLASS
  1
ACMDETAILSTANDARDISO
  2
AmdtDetailSymStdISO
  3
"Amdt_StdImp|Product Description: AutoCAD Mechanical 2004 DX|Company: Autodesk"
 90
        0
280
     0
281
     0
  0
CLASS
  1
ACMSECTIONSTANDARDISO
  2
AmdtSectionSymStdISO
  3
"Amdt_StdImp|Product Description: AutoCAD Mechanical 2004 DX|Company: Autodesk"
 90
        0
280
     0
281
     0
  0
CLASS
  1
ACMCENTERLINESTANDARDISO
  2
AmdtCenterLineStdISO
  3
"Amdt_StdImp|Product Description: AutoCAD Mechanical 2004 DX|Company: Autodesk"
 90
        0
280
     0
281
     0
  0
CLASS
  1
ACMNOTESTANDARDISO
  2
AmdtNoteStdISO
  3
"Amdt_StdImp|Product Description: AutoCAD Mechanical 2004 DX|Company: Autodesk"
 90
        0
280
     0
281
     0
  0
CLASS
  1
ACAMGLAYSTD
  2
AcAmgLayStd
  3
"AcAmgLayStd|Product Description: AutoCAD Mechanical 2000|Company: Autodesk"
 90
        0
280
     0
281
     0
  0
CLASS
  1
ACAMGDIMSTD
  2
AcAmgDimStd
  3
"AcAmgDimStd|Product Description: AutoCAD Mechanical 2000|Company: Autodesk"
 90
        0
280
     0
281
     0
  0
CLASS
  1
ACAMGHOLECHARTSTDISO
  2
AcAmgHoleChartStdISO
  3
ACMSYMBB_MODULE_NAME
 90
        0
280
     0
281
     0
  0
CLASS
  1
ACAMGTITLESTD
  2
AcAmgTitleStd
  3
"TITLEAPP"
 90
        0
280
     0
281
     0
  0
CLASS
  1
LAYER_INDEX
  2
AcDbLayerIndex
  3
ObjectDBX Classes
 90
    32768
280
     0
281
     0
  0
CLASS
  1
IDBUFFER
  2
AcDbIdBuffer
  3
ObjectDBX Classes
 90
    32768
280
     0
281
     0
  0
CLASS
  1
DICTIONARYVAR
  2
AcDbDictionaryVar
  3
ObjectDBX Classes
 90
        0
280
     0
281
     0
  0
CLASS
  1
AM_DRAWING_MGR
  2
AcDmDwgMgr
  3
AcMechDwgViewMgmt
 90
        0
280
     0
281
     0
  0
CLASS
  1
AM_DWG_DOCUMENT
  2
AcDmDwgDocument
  3
AcMechDwgViewMgmt
 90
        0
280
     0
281
     0
  0
CLASS
  1
AM_DWG_SHEET
  2
AcDmSheet
  3
AcMechDwgViewMgmt
 90
        0
280
     0
281
     0
  0
CLASS
  1
AM_VIEWDIMPARMAP
  2
AcDmViewDimParMap
  3
AcMechDwgViewMgmt
 90
        0
280
     0
281
     0
  0
CLASS
  1
AM_DWGMGR_NAME
  2
AcDmDwgMgrName
  3
AcMechDwgViewMgmt
 90
        0
280
     0
281
     0
  0
CLASS
  1
AMDTMENUSTATEMGR
  2
AmdtMenuStateMgr
  3
McadcomServices
 90
        0
280
     0
281
     0
  0
CLASS
  1
AMDTMCOMMENUSTATE
  2
AmdtMcomMenuState
  3
McadcomServices
 90
        0
280
     0
281
     0
  0
CLASS
  1
MAPIAMMOUDLE
  2
MApiAmModule
  3
MApiAmServices
 90
        0
280
     0
281
     0
  0
CLASS
  1
AMDTADMENUSTATE
  2
AmdtAdMenuState
  3
DesignerServices
 90
        0
280
     0
281
     0
  0
CLASS
  1
ADAPPL
  2
AcAdAppl
  3
DesignerServices
 90
        0
280
     0
281
     0
  0
CLASS
  1
DEPMGR
  2
AcAdDepMgr
  3
DesignerServices
 90
        0
280
     0
281
     0
  0
CLASS
  1
PARAMMGR
  2
AcAdParamMgr
  3
DesignerServices
 90
        0
280
     0
281
     0
  0
CLASS
  1
PARAMSCOPE
  2
AcAdParamScope
  3
DesignerServices
 90
        0
280
     0
281
     0
  0
CLASS
  1
NAMEDAPPL
  2
AcAdNamedAppl
  3
DesignerServices
 90
        0
280
     0
281
     0
  0
CLASS
  1
AMDTDMMENUSTATE
  2
AmdtDmMenuState
  3
AcMechDwgViewMgmt
 90
        0
280
     0
281
     0
  0
CLASS
  1
AMDTAMMENUSTATE
  2
AmdtAmMenuState
  3
DesignerAssemblies
 90
        0
280
     0
281
     0
  0
CLASS
  1
ACAMPROJECT
  2
AcAmProject
  3
DesignerAssemblies
 90
        0
280
     0
281
     0
  0
CLASS
  1
ACAMGRCOMPDEF
  2
AcAmGrCompDef
  3
DesignerAssemblies
 90
        0
280
     0
281
     0
  0
CLASS
  1
ACCMCONTEXT
  2
AcCmContext
  3
DesignerAssemblies
 90
        0
280
     0
281
     0
  0
CLASS
  1
ACAMCOMPDEF
  2
AcAmCompDef
  3
DesignerAssemblies
 90
        0
280
     0
281
     0
  0
CLASS
  1
ACAMCOMPDEFMGR
  2
AcAmCompDefMgr
  3
DesignerAssemblies
 90
        0
280
     0
281
     0
  0
CLASS
  1
AMCONTEXTMGR
  2
AcAmContextMgr
  3
DesignerAssemblies
 90
        0
280
     0
281
     0
  0
CLASS
  1
ACAMCONTEXTMODELER
  2
AcAmContextModeler
  3
DesignerAssemblies
 90
        0
280
     0
281
     0
  0
CLASS
  1
ACMTHREADLINESTANDARDISO
  2
AmdtThreadLineStdISO
  3
"Amdt_StdImp|Product Description: AutoCAD Mechanical 2004 DX|Company: Autodesk"
 90
        0
280
     0
281
     0
  0
CLASS
  1
CATALOGSTATE
  2
AcAmCatalogState
  3
DesignerAssemblies
 90
        0
280
     0
281
     0
  0
CLASS
  1
ACAMGRCOMPDEFSET
  2
AcAmGrCompDefSet
  3
DesignerAssemblies
 90
        0
280
     0
281
     0
  0
CLASS
  1
AMDTBROWSERDBTAB
  2
AmdtBrowserDbTab
  3
McadcomServices
 90
        0
280
     0
281
     0
  0
CLASS
  1
CBROWSERAPPOBJECT
  2
CBrowserAppObject
  3
McadcomServices
 90
        0
280
     0
281
     0
  0
CLASS
  1
DM_PLACEHOLDER
  2
AcDmSelsetPlaceholder
  3
AcMechDwgViewMgmt
 90
        0
280
     0
281
     0
  0
CLASS
  1
TABLESTYLE
  2
AcDbTableStyle
  3
ObjectDBX Classes
 90
     2047
280
     0
281
     0
  0
CLASS
  1
VAACXREFPANELOBJECT
  2
VaAcXREFPanelObject
  3
VAAC_ADDIN
 90
    32768
280
     0
281
     0
  0
CLASS
  1
VAACIMAGEINVENTORY
  2
VaAcImageInventory
  3
VAAC_ADDIN
 90
    32768
280
     0
281
     0
  0
CLASS
  1
AMDTNOTETEMPLATEDB
  2
AmdtNoteTemplateDB
  3
AMDT_STDIMP_MODULE_NAME
 90
        0
280
     0
281
     0
  0
CLASS
  1
ACMBOM
  2
AcmBom
  3
"AcmSymBB|Product Description: AutoCAD Mechanical 2004 DX|Company: Autodesk"
 90
    32768
280
     0
281
     0
  0
CLASS
  1
AMDTFORMULAUPDATEDISPATCHER
  2
AmdtFormulaUpdateDispatcher
  3
AcMeServices
 90
    32768
280
     0
281
     0
  0
CLASS
  1
ACMPARTLIST
  2
AcmPartList
  3
"AcmSymBB|Product Description: AutoCAD Mechanical 2004 DX|Company: Autodesk"
 90
    33791
280
     0
281
     1
  0
CLASS
  1
ACAMGFILTERDAT
  2
AcAmgFilterDat
  3
"AcadM|Product Description: AutoCAD Mechanical 2000|Company: Autodesk"
 90
    32768
280
     0
281
     0
  0
CLASS
  1
DIMASSOC
  2
AcDbDimAssoc
  3
"AcDbDimAssoc|Product Desc:     AcDim ARX App For Dimension|Company:          Autodesk, Inc.|WEB Address:      www.autodesk.com"
 90
        0
280
     0
281
     0
  0
CLASS
  1
ACMSTANDARDANSI
  2
AcmStandardANSI
  3
"Amdt_StdImp|Product Description: AutoCAD Mechanical 2004 DX|Company: Autodesk"
 90
    32768
280
     0
281
     0
  0
CLASS
  1
ACMSURFSTANDARDANSI
  2
AcmSurfTextStdANSI
  3
"Amdt_StdImp|Product Description: AutoCAD Mechanical 2004 DX|Company: Autodesk"
 90
    32768
280
     0
281
     0
  0
CLASS
  1
ACMFCFSTANDARDANSI
  2
AcmFCFStdANSI
  3
"Amdt_StdImp|Product Description: AutoCAD Mechanical 2004 DX|Company: Autodesk"
 90
    32768
280
     0
281
     0
  0
CLASS
  1
ACMWELDSTANDARDANSI
  2
AcmWeldingStdANSI
  3
"Amdt_StdImp|Product Description: AutoCAD Mechanical 2004 DX|Company: Autodesk"
 90
    32768
280
     0
281
     0
  0
CLASS
  1
ACMIDSTANDARDANSI
  2
AcmIdStdANSI
  3
"Amdt_StdImp|Product Description: AutoCAD Mechanical 2004 DX|Company: Autodesk"
 90
    32768
280
     0
281
     0
  0
CLASS
  1
ACMDATUMSTANDARDANSI
  2
AcmDatumStdANSI
  3
"Amdt_StdImp|Product Description: AutoCAD Mechanical 2004 DX|Company: Autodesk"
 90
    32768
280
     0
281
     0
  0
CLASS
  1
ACMBOMSTANDARDANSI
  2
AcmBOMStdANSI
  3
"Amdt_StdImp|Product Description: AutoCAD Mechanical 2004 DX|Company: Autodesk"
 90
    32768
280
     0
281
     0
  0
CLASS
  1
ACMDETAILSTANDARDANSI
  2
AmdtDetailSymStdANSI
  3
"Amdt_StdImp|Product Description: AutoCAD Mechanical 2004 DX|Company: Autodesk"
 90
    32768
280
     0
281
     0
  0
CLASS
  1
ACMSECTIONSTANDARDANSI
  2
AmdtSectionSymStdANSI
  3
"Amdt_StdImp|Product Description: AutoCAD Mechanical 2004 DX|Company: Autodesk"
 90
    32768
280
     0
281
     0
  0
CLASS
  1
ACMCENTERLINESTANDARDANSI
  2
AmdtCenterLineStdANSI
  3
"Amdt_StdImp|Product Description: AutoCAD Mechanical 2004 DX|Company: Autodesk"
 90
    32768
280
     0
281
     0
  0
CLASS
  1
ACMTHREADLINESTANDARDANSI
  2
AmdtThreadLineStdANSI
  3
"Amdt_StdImp|Product Description: AutoCAD Mechanical 2004 DX|Company: Autodesk"
 90
    32768
280
     0
281
     0
  0
CLASS
  1
ACMNOTESTANDARDANSI
  2
AmdtNoteStdANSI
  3
"Amdt_StdImp|Product Description: AutoCAD Mechanical 2004 DX|Company: Autodesk"
 90
    32768
280
     0
281
     0
  0
CLASS
  1
ACAMGHOLECHARTSTDANSI
  2
AcAmgHoleChartStdANSI
  3
ACMSYMBB_MODULE_NAME
 90
    32768
280
     0
281
     0
  0
CLASS
  1
AMDTNOTE
  2
AmdtNote
  3
"AcmSymBB|Product Description: AutoCAD Mechanical 2004 DX|Company: Autodesk"
 90
    33791
280
     0
281
     1
  0
CLASS
  1
AMDTEDGESTANDARDISO13715
  2
AmdtEdgeStdISO13715
  3
"Amdt_StdImp|Product Description: AutoCAD Mechanical 2004 DX|Company: Autodesk"
 90
        0
280
     0
281
     0
  0
CLASS
  1
SORTENTSTABLE
  2
AcDbSortentsTable
  3
ObjectDBX Classes
 90
        0
280
     0
281
     0
  0
CLASS
  1
ACRFATTGENMGR
  2
AcRfAttGeneralMgr
  3
AcAttribServices
 90
        0
280
     0
281
     0
  0
ENDSEC
  0
SECTION
  2
TABLES
  0
TABLE
  2
VPORT
  5
8
330
0
100
AcDbSymbolTable
 70
     3
  0
VPORT
  5
1E0A
330
8
100
AcDbSymbolTableRecord
100
AcDbViewportTableRecord
  2
*Active
 70
     0
 10
0.0
 20
0.0
 11
1.0
 21
1.0
 12
2772.642505098549
 22
1218.820594500874
 13
0.0
 23
0.0
 14
2.5
 24
2.5
 15
10.0
 25
10.0
 16
0.0
 26
0.0
 36
1.0
 17
0.0
 27
0.0
 37
0.0
 40
403.3747228999654
 41
1.45516304347826
 42
50.0
 43
0.0
 44
0.0
 50
0.0
 51
0.0
 71
     0
 72
   100
 73
     1
 74
     3
 75
     0
 76
     0
 77
     0
 78
     0
281
     0
 65
     1
110
0.0
120
0.0
130
0.0
111
1.0
121
0.0
131
0.0
112
0.0
122
1.0
132
0.0
 79
     0
146
0.0
  0
ENDTAB
  0
TABLE
  2
LTYPE
  5
5
330
0
100
AcDbSymbolTable
 70
    17
  0
LTYPE
  5
14
330
5
100
AcDbSymbolTableRecord
100
AcDbLinetypeTableRecord
  2
ByBlock
 70
     0
  3

 72
    65
 73
     0
 40
0.0
  0
LTYPE
  5
15
330
5
100
AcDbSymbolTableRecord
100
AcDbLinetypeTableRecord
  2
ByLayer
 70
     0
  3

 72
    65
 73
     0
 40
0.0
  0
LTYPE
  5
16
330
5
100
AcDbSymbolTableRecord
100
AcDbLinetypeTableRecord
  2
Continuous
 70
     0
  3
Solid line
 72
    65
 73
     0
 40
0.0
  0
LTYPE
  5
64
330
5
100
AcDbSymbolTableRecord
100
AcDbLinetypeTableRecord
  2
AM_ISO02W050
 70
     0
  3
__ __ __ __ __ __ __ __ __ __ __ __ __ __ __
 72
    65
 73
     2
 40
7.5
 49
6.0
 74
     0
 49
-1.5
 74
     0
  0
LTYPE
  5
65
330
5
100
AcDbSymbolTableRecord
100
AcDbLinetypeTableRecord
  2
AM_ISO08W050
 70
     0
  3
____ . ____ . ____ . ____ . ____ . ____ . ____
 72
    65
 73
     4
 40
18.0
 49
12.0
 74
     0
 49
-1.5
 74
     0
 49
3.0
 74
     0
 49
-1.5
 74
     0
  0
LTYPE
  5
66
330
5
100
AcDbSymbolTableRecord
100
AcDbLinetypeTableRecord
  2
AM_ISO09W050
 70
     0
  3
_____ . . _____ . . _____ . . ____ .. ____
 72
    65
 73
     6
 40
22.5
 49
12.0
 74
     0
 49
-1.5
 74
     0
 49
3.0
 74
     0
 49
-1.5
 74
     0
 49
3.0
 74
     0
 49
-1.5
 74
     0
  0
LTYPE
  5
67
330
5
100
AcDbSymbolTableRecord
100
AcDbLinetypeTableRecord
  2
Amconstr
 70
     0
  3
_______________________
 72
    65
 73
     2
 40
9999.0
 49
9999.0
 74
     0
 49
0.0
 74
     0
  0
LTYPE
  5
68
330
5
100
AcDbSymbolTableRecord
100
AcDbLinetypeTableRecord
  2
AM_ISO08W050x2
 70
     0
  3
__ . __ . __ . __ . __ . __
 72
    65
 73
     4
 40
9.0
 49
6.0
 74
     0
 49
-0.75
 74
     0
 49
1.5
 74
     0
 49
-0.75
 74
     0
  0
LTYPE
  5
69
330
5
100
AcDbSymbolTableRecord
100
AcDbLinetypeTableRecord
  2
AM_ISO02W050x2
 70
     0
  3
 _ _ _ _ _ _ _ _ _ _ _ _
 72
    65
 73
     2
 40
3.75
 49
3.0
 74
     0
 49
-0.75
 74
     0
  0
LTYPE
  5
6C
330
5
100
AcDbSymbolTableRecord
100
AcDbLinetypeTableRecord
  2
Amzigzag
 70
     0
  3
/\/-/\/-/\/-/\/-/\/-/\/
 72
    65
 73
     2
 40
11.0001
 49
0.0001
 74
     4
 75
   135
340
6B
 46
0.04
 50
0.0
 44
0.0
 45
0.0
 49
-11.0
 74
     0
  0
LTYPE
  5
7A
330
5
100
AcDbSymbolTableRecord
100
AcDbLinetypeTableRecord
  2
ACISOWELD
 70
     0
  3
_ _ _ _ _
 72
    65
 73
     2
 40
2.0
 49
2.0
 74
     0
 49
-1.0
 74
     0
  0
LTYPE
  5
7B
330
5
100
AcDbSymbolTableRecord
100
AcDbLinetypeTableRecord
  2
ACISOTGB
 70
     0
  3
__ . . __ . .
 72
    65
 73
     6
 40
9.0
 49
4.0
 74
     0
 49
-1.0
 74
     0
 49
1.0
 74
     0
 49
-1.0
 74
     0
 49
1.0
 74
     0
 49
-1.0
 74
     0
  0
LTYPE
  5
7C
330
5
100
AcDbSymbolTableRecord
100
AcDbLinetypeTableRecord
  2
ACISOTGL
 70
     0
  3
_ _ _ _ _
 72
    65
 73
     2
 40
3.0
 49
2.0
 74
     0
 49
-1.0
 74
     0
  0
LTYPE
  5
7E
330
5
100
AcDbSymbolTableRecord
100
AcDbLinetypeTableRecord
  2
CENTER
 70
     0
  3
__ . __
 72
    65
 73
     4
 40
7.0
 49
4.0
 74
     0
 49
-1.0
 74
     0
 49
1.0
 74
     0
 49
-1.0
 74
     0
  0
LTYPE
  5
D8
330
5
100
AcDbSymbolTableRecord
100
AcDbLinetypeTableRecord
  2
HIDDEN
 70
     0
  3
Hidden __ __ __ __ __ __ __ __ __ __ __ __ __ _
 72
    65
 73
     2
 40
9.524999999999998
 49
6.349999999999999
 74
     0
 49
-3.174999999999999
 74
     0
  0
LTYPE
  5
D9
330
5
100
AcDbSymbolTableRecord
100
AcDbLinetypeTableRecord
  2
PHANTOM2
 70
     0
  3
Phantom (.5x) ___ _ _ ___ _ _ ___ _ _ ___ _ _
 72
    65
 73
     6
 40
31.75
 49
15.875
 74
     0
 49
-3.174999999999999
 74
     0
 49
3.174999999999999
 74
     0
 49
-3.174999999999999
 74
     0
 49
3.174999999999999
 74
     0
 49
-3.174999999999999
 74
     0
  0
LTYPE
  5
7E2
330
5
100
AcDbSymbolTableRecord
100
AcDbLinetypeTableRecord
  2
ACANSTGB
 70
     0
  3
__ . . __ . .
 72
    65
 73
     6
 40
0.35433070866
 49
0.15748031496
 74
     0
 49
-0.03937007874
 74
     0
 49
0.03937007874
 74
     0
 49
-0.03937007874
 74
     0
 49
0.03937007874
 74
     0
 49
-0.03937007874
 74
     0
  0
LTYPE
  5
7E3
330
5
100
AcDbSymbolTableRecord
100
AcDbLinetypeTableRecord
  2
ACANSTGL
 70
     0
  3
_ _ _ _ _
 72
    65
 73
     2
 40
0.11811023622
 49
0.07874015748
 74
     0
 49
-0.03937007874
 74
     0
  0
LTYPE
  5
9B3
330
5
100
AcDbSymbolTableRecord
100
AcDbLinetypeTableRecord
  2
DASHED
 70
     0
  3
__ __ __ __ __ __ __ __ __ __ __ __ __ __ 
 72
    65
 73
     2
 40
0.75
 49
0.5
 74
     0
 49
-0.25
 74
     0
  0
ENDTAB
  0
TABLE
  2
LAYER
  5
2
102
{ACAD_XDICTIONARY
360
3F9
102
}
330
0
100
AcDbSymbolTable
 70
     6
  0
LAYER
  5
10
330
2
100
AcDbSymbolTableRecord
100
AcDbLayerTableRecord
  2
0
 70
     0
 62
     7
  6
Continuous
370
    -3
390
F
  0
LAYER
  5
870
330
2
100
AcDbSymbolTableRecord
100
AcDbLayerTableRecord
  2
AM_7
 70
     0
 62
     1
  6
CENTER
370
    25
390
F
  0
LAYER
  5
875
330
2
100
AcDbSymbolTableRecord
100
AcDbLayerTableRecord
  2
AM_5
 70
     0
 62
     5
  6
Continuous
370
    50
390
F
  0
LAYER
  5
885
330
2
100
AcDbSymbolTableRecord
100
AcDbLayerTableRecord
  2
Defpoints
 70
     0
 62
     7
  6
Continuous
290
     0
370
    -3
390
F
  0
LAYER
  5
CFA
330
2
100
AcDbSymbolTableRecord
100
AcDbLayerTableRecord
  2
DASHED
 70
     0
 62
     3
  6
DASHED
370
    -3
390
F
  0
LAYER
  5
1364
330
2
100
AcDbSymbolTableRecord
100
AcDbLayerTableRecord
  2
LOGO
 70
     0
 62
     7
  6
Continuous
370
    -3
390
F
  0
ENDTAB
  0
TABLE
  2
STYLE
  5
3
330
0
100
AcDbSymbolTable
 70
     8
  0
STYLE
  5
11
330
3
100
AcDbSymbolTableRecord
100
AcDbTextStyleTableRecord
  2
STANDARD
 70
     0
 40
0.0
 41
1.0
 50
0.0
 71
     0
 42
3.0
  3
ISOCP.SHX
  4
CHINESET.SHX
  0
STYLE
  5
6B
330
3
100
AcDbSymbolTableRecord
100
AcDbTextStyleTableRecord
  2

 70
     1
 40
0.0
 41
1.0
 50
0.0
 71
     0
 42
2.5
  3
ltypeshp.shx
  4

  0
STYLE
  5
6D
330
3
100
AcDbSymbolTableRecord
100
AcDbTextStyleTableRecord
  2
ACISOTS
 70
     0
 40
1.0
 41
1.0
 50
0.0
 71
     0
 42
1.0
  3
isocp.shx
  4
chineset.shx
  0
STYLE
  5
79
330
3
100
AcDbSymbolTableRecord
100
AcDbTextStyleTableRecord
  2
ACISOGDT
 70
     0
 40
0.0
 41
1.0
 50
0.0
 71
     0
 42
2.5
  3
amgdt.shx
  4
chineset.shx
  0
STYLE
  5
60C
330
3
100
AcDbSymbolTableRecord
100
AcDbTextStyleTableRecord
  2
CHINESET
 70
     0
 40
0.0
 41
0.75
 50
0.0
 71
     0
 42
3.0
  3
simplex.shx
  4
CHINESET.SHX
  0
STYLE
  5
7E7
330
3
100
AcDbSymbolTableRecord
100
AcDbTextStyleTableRecord
  2
ACANSTS
 70
     0
 40
1.0
 41
1.0
 50
0.0
 71
     0
 42
3.0
  3
romans.shx
  4
chineset.shx
  0
STYLE
  5
7E8
330
3
100
AcDbSymbolTableRecord
100
AcDbTextStyleTableRecord
  2
ACANSGDT
 70
     0
 40
0.0
 41
1.0
 50
0.0
 71
     0
 42
3.0
  3
amgdtans.shx
  4

  0
ENDTAB
  0
TABLE
  2
VIEW
  5
6
330
0
100
AcDbSymbolTable
 70
     0
  0
ENDTAB
  0
TABLE
  2
UCS
  5
7
330
0
100
AcDbSymbolTable
 70
     0
  0
ENDTAB
  0
TABLE
  2
APPID
  5
9
330
0
100
AcDbSymbolTable
 70
    19
  0
APPID
  5
12
330
9
100
AcDbSymbolTableRecord
100
AcDbRegAppTableRecord
  2
ACAD
 70
     0
  0
APPID
  5
46
330
9
100
AcDbSymbolTableRecord
100
AcDbRegAppTableRecord
  2
MCAD_NO_VIS
 70
     0
  0
APPID
  5
47
330
9
100
AcDbSymbolTableRecord
100
AcDbRegAppTableRecord
  2
ACAD_TEMP_GRAPHIC
 70
     0
  0
APPID
  5
58
330
9
100
AcDbSymbolTableRecord
100
AcDbRegAppTableRecord
  2
ACATTRIBSERVICES
 70
     0
  0
APPID
  5
EE
330
9
100
AcDbSymbolTableRecord
100
AcDbRegAppTableRecord
  2
AD_DRAW
 70
     0
  0
APPID
  5
10C
330
9
100
AcDbSymbolTableRecord
100
AcDbRegAppTableRecord
  2
DESIGNERASSEMBLIES
 70
     0
  0
APPID
  5
111
330
9
100
AcDbSymbolTableRecord
100
AcDbRegAppTableRecord
  2
ACADM_DIM_EDIT
 70
     0
  0
APPID
  5
112
330
9
100
AcDbSymbolTableRecord
100
AcDbRegAppTableRecord
  2
AMDT_DM_ADJ
 70
     0
  0
APPID
  5
22C
330
9
100
AcDbSymbolTableRecord
100
AcDbRegAppTableRecord
  2
ACAD_DSTYLE_DIMTEXT_FILL
 70
     0
  0
APPID
  5
452
330
9
100
AcDbSymbolTableRecord
100
AcDbRegAppTableRecord
  2
GENIUS_GENOENT_13
 70
     0
  0
APPID
  5
453
330
9
100
AcDbSymbolTableRecord
100
AcDbRegAppTableRecord
  2
GENIUS_GENOBJ-N-CRS_13
 70
     0
  0
APPID
  5
454
330
9
100
AcDbSymbolTableRecord
100
AcDbRegAppTableRecord
  2
GENIUS_GENOLIS_13
 70
     0
  0
APPID
  5
455
330
9
100
AcDbSymbolTableRecord
100
AcDbRegAppTableRecord
  2
GENIUS_GENODEF_13
 70
     0
  0
APPID
  5
456
330
9
100
AcDbSymbolTableRecord
100
AcDbRegAppTableRecord
  2
GENIUS_GENOREF_13
 70
     0
  0
APPID
  5
6F3
330
9
100
AcDbSymbolTableRecord
100
AcDbRegAppTableRecord
  2
ACAD_PSEXT
 70
     0
  0
APPID
  5
872
330
9
100
AcDbSymbolTableRecord
100
AcDbRegAppTableRecord
  2
GENIUS_GENOBJ-N-CEN_13
 70
     0
  0
APPID
  5
873
330
9
100
AcDbSymbolTableRecord
100
AcDbRegAppTableRecord
  2
GENIUS_GENCEN_19
 70
     0
  0
APPID
  5
1365
330
9
100
AcDbSymbolTableRecord
100
AcDbRegAppTableRecord
  2
GENIUS_GENREC_14
 70
     0
  0
APPID
  5
1366
330
9
100
AcDbSymbolTableRecord
100
AcDbRegAppTableRecord
  2
GENIUS_GENOBJ-N-REC_13
 70
     0
  0
ENDTAB
  0
TABLE
  2
DIMSTYLE
  5
A
330
0
100
AcDbSymbolTable
 70
    15
100
AcDbDimStyleTable
 71
     4
340
81
340
7EA
340
8B
340
86
  0
DIMSTYLE
105
81
330
A
100
AcDbSymbolTableRecord
100
AcDbDimStyleTableRecord
  2
AM_ISO
 70
     0
  4
"
 41
3.0
 42
1.0
 43
8.0
 44
1.5
 47
0.1
 48
0.1
 73
     0
 74
     0
 77
     1
 78
     8
 79
     2
140
3.0
141
0.0
143
0.0393701
146
0.71
147
1.0
172
     1
176
   256
177
   256
178
   256
271
     2
272
     2
283
     0
284
     8
340
60C
371
    -1
372
    -1
  0
DIMSTYLE
105
82
330
A
100
AcDbSymbolTableRecord
100
AcDbDimStyleTableRecord
  2
AM_ISO$3
 70
     0
  4
"
 41
3.0
 42
1.0
 43
8.0
 44
1.5
 47
0.1
 48
0.1
 73
     0
 77
     1
 78
     8
 79
     2
140
3.0
141
0.0
143
0.0393701
146
0.71
147
1.0
176
   256
177
   256
178
   256
271
     2
272
     2
283
     0
284
     8
288
     1
289
     0
340
60C
371
    -1
372
    -1
  0
DIMSTYLE
105
83
330
A
100
AcDbSymbolTableRecord
100
AcDbDimStyleTableRecord
  2
AM_ISO$4
 70
     0
  4
"
 41
3.0
 42
1.0
 43
8.0
 44
1.5
 47
0.1
 48
0.1
 73
     0
 77
     1
 78
     8
 79
     2
140
3.0
141
0.0
143
0.0393701
146
0.71
147
1.0
176
   256
177
   256
178
   256
271
     2
272
     2
283
     0
284
     8
288
     1
289
     0
340
60C
371
    -1
372
    -1
  0
DIMSTYLE
105
84
330
A
100
AcDbSymbolTableRecord
100
AcDbDimStyleTableRecord
  2
AM_ISO$6
 70
     0
  4
"
 41
3.0
 42
1.0
 43
8.0
 44
1.5
 47
0.1
 48
0.1
 73
     0
 74
     0
 78
     8
 79
     2
140
3.0
141
0.0
143
0.0393701
146
0.71
147
1.0
172
     1
176
   256
177
   256
178
   256
271
     2
272
     2
283
     0
284
     8
340
60C
371
    -1
372
    -1
  0
DIMSTYLE
105
85
330
A
100
AcDbSymbolTableRecord
100
AcDbDimStyleTableRecord
  2
AM_ISO$7
 70
     0
  4
"
 41
3.0
 42
1.0
 43
8.0
 44
1.5
 47
0.1
 48
0.1
 73
     0
 74
     0
 77
     1
 78
     8
 79
     2
140
5.0
141
0.0
143
0.0393701
146
0.71
147
1.0
172
     1
176
   256
177
   256
178
   256
271
     2
272
     2
283
     0
284
     8
340
60C
371
    -1
372
    -1
  0
DIMSTYLE
105
86
330
A
100
AcDbSymbolTableRecord
100
AcDbDimStyleTableRecord
  2
AM_ISO$SF
 70
     0
  4
"
 41
2.5
 42
1.0
 43
10.0
 44
1.0
 47
0.1
 48
0.1
 73
     0
 74
     0
 75
     1
 76
     1
 77
     1
 78
     8
 79
     2
140
3.5
141
0.0
143
0.0393701
146
0.71
147
1.5
172
     1
176
   256
177
   256
178
     2
271
     2
272
     3
274
     4
283
     0
284
     8
340
11
371
    -1
372
    -1
  0
DIMSTYLE
105
8B
330
A
100
AcDbSymbolTableRecord
100
AcDbDimStyleTableRecord
  2
AM_ISO$SH
 70
     0
  4
"
 41
2.5
 42
1.0
 43
10.0
 44
1.0
 47
0.1
 48
0.1
 73
     0
 74
     0
 75
     1
 76
     1
 77
     1
 78
     8
 79
     2
140
3.5
141
0.0
143
0.0393701
144
2.0
146
0.71
147
1.5
172
     1
173
     1
176
   256
177
   256
178
     2
271
     2
272
     3
274
     4
283
     0
284
     8
340
11
343
87
371
    -1
372
    -1
  0
DIMSTYLE
105
40B
102
{ACAD_REACTORS
330
8BE
330
8E8
330
924
330
972
330
A3D
330
A40
330
A43
330
A46
330
C41
330
C44
330
C47
330
C4A
330
DB5
330
DB6
330
DB7
330
DB8
330
F28
330
F29
330
F2A
330
F2B
330
1065
330
1066
330
1067
330
1068
330
1182
330
1183
330
1184
330
1185
330
12FF
330
1300
330
1301
330
1302
102
}
330
A
100
AcDbSymbolTableRecord
100
AcDbDimStyleTableRecord
  2
AM_ISO$0
 70
     0
  4
"
 41
3.0
 42
1.0
 43
8.0
 44
1.5
 47
0.1
 48
0.1
 73
     0
 74
     0
 77
     1
 78
     8
 79
     2
140
3.0
141
0.0
143
0.0393701
146
0.71
147
1.0
172
     1
176
   256
177
   256
178
   256
271
     2
272
     2
283
     0
284
     8
340
60C
371
    -1
372
    -1
  0
DIMSTYLE
105
7EA
330
A
100
AcDbSymbolTableRecord
100
AcDbDimStyleTableRecord
  2
AM_ANSI
 70
     0
  4
mm
 41
0.1
 42
0.05
 43
0.5
 44
0.1
 47
0.1
 48
0.1
 78
     7
 79
     2
140
0.12
141
0.0
146
0.71
147
0.06
176
   256
177
   256
178
     2
274
     4
284
     7
340
11
371
    -1
372
    -1
  0
DIMSTYLE
105
7EB
330
A
100
AcDbSymbolTableRecord
100
AcDbDimStyleTableRecord
  2
AM_ANSI$3
 70
     0
  4
mm
 41
0.1
 42
0.05
 43
0.5
 44
0.1
 47
0.1
 48
0.1
 78
     7
 79
     2
140
0.12
141
0.0
146
0.71
147
0.06
176
   256
177
   256
178
     2
274
     4
284
     7
288
     1
289
     0
340
11
371
    -1
372
    -1
  0
DIMSTYLE
105
7EC
330
A
100
AcDbSymbolTableRecord
100
AcDbDimStyleTableRecord
  2
AM_ANSI$4
 70
     0
  4
mm
 41
0.1
 42
0.05
 43
0.5
 44
0.1
 47
0.1
 48
0.1
 78
     7
 79
     2
140
0.12
141
0.0
146
0.71
147
0.06
176
   256
177
   256
178
     2
274
     4
284
     7
288
     1
289
     0
340
11
371
    -1
372
    -1
  0
DIMSTYLE
105
7ED
330
A
100
AcDbSymbolTableRecord
100
AcDbDimStyleTableRecord
  2
AM_ANSI$7
 70
     0
  4
mm
 41
0.1
 42
0.05
 43
0.5
 44
0.1
 47
0.1
 48
0.1
 78
     7
 79
     2
140
0.24
141
0.0
146
0.71
147
0.06
176
   256
177
   256
178
     2
274
     4
284
     7
340
11
371
    -1
372
    -1
  0
DIMSTYLE
105
7EE
330
A
100
AcDbSymbolTableRecord
100
AcDbDimStyleTableRecord
  2
AM_ANSI$SF
 70
     0
  4
mm
 41
0.1
 42
0.05
 43
0.5
 44
0.1
 47
0.1
 48
0.1
 75
     1
 76
     1
 78
     7
 79
     2
140
0.12
141
0.0
146
0.71
147
0.06
176
   256
177
   256
178
     2
274
     4
284
     7
340
11
371
    -1
372
    -1
  0
DIMSTYLE
105
7EF
330
A
100
AcDbSymbolTableRecord
100
AcDbDimStyleTableRecord
  2
AM_ANSI$SH
 70
     0
  4
mm
 41
0.1
 42
0.05
 43
0.5
 44
0.1
 47
0.1
 48
0.1
 75
     1
 76
     1
 78
     7
 79
     2
140
0.12
141
0.0
146
0.71
147
0.06
173
     1
176
   256
177
   256
178
     2
274
     4
284
     7
340
11
343
87
371
    -1
372
    -1
  0
ENDTAB
  0
TABLE
  2
BLOCK_RECORD
  5
1
330
0
100
AcDbSymbolTable
 70
    49
  0
BLOCK_RECORD
  5
1F
102
{ACAD_XDICTIONARY
360
8F
102
}
330
1
100
AcDbSymbolTableRecord
100
AcDbBlockTableRecord
  2
*Model_Space
340
22
  0
BLOCK_RECORD
  5
1B
330
1
100
AcDbSymbolTableRecord
100
AcDbBlockTableRecord
  2
*Paper_Space
340
1E
  0
BLOCK_RECORD
  5
23
330
1
100
AcDbSymbolTableRecord
100
AcDbBlockTableRecord
  2
*Paper_Space0
340
26
  0
BLOCK_RECORD
  5
87
330
1
100
AcDbSymbolTableRecord
100
AcDbBlockTableRecord
  2
GENAXEH
340
0
  0
BLOCK_RECORD
  5
8BF
330
1
100
AcDbSymbolTableRecord
100
AcDbBlockTableRecord
  2
*D2
340
0
  0
BLOCK_RECORD
  5
8E9
330
1
100
AcDbSymbolTableRecord
100
AcDbBlockTableRecord
  2
*D3
340
0
  0
BLOCK_RECORD
  5
925
330
1
100
AcDbSymbolTableRecord
100
AcDbBlockTableRecord
  2
*D4
340
0
  0
BLOCK_RECORD
  5
973
330
1
100
AcDbSymbolTableRecord
100
AcDbBlockTableRecord
  2
*D5
340
0
  0
BLOCK_RECORD
  5
A49
330
1
100
AcDbSymbolTableRecord
100
AcDbBlockTableRecord
  2
*D6
340
0
  0
BLOCK_RECORD
  5
A57
330
1
100
AcDbSymbolTableRecord
100
AcDbBlockTableRecord
  2
*D7
340
0
  0
BLOCK_RECORD
  5
A63
330
1
100
AcDbSymbolTableRecord
100
AcDbBlockTableRecord
  2
*D8
340
0
  0
BLOCK_RECORD
  5
A6F
330
1
100
AcDbSymbolTableRecord
100
AcDbBlockTableRecord
  2
*D9
340
0
  0
BLOCK_RECORD
  5
C4D
330
1
100
AcDbSymbolTableRecord
100
AcDbBlockTableRecord
  2
*D10
340
0
  0
BLOCK_RECORD
  5
C5B
330
1
100
AcDbSymbolTableRecord
100
AcDbBlockTableRecord
  2
*D11
340
0
  0
BLOCK_RECORD
  5
C67
330
1
100
AcDbSymbolTableRecord
100
AcDbBlockTableRecord
  2
*D12
340
0
  0
BLOCK_RECORD
  5
C73
330
1
100
AcDbSymbolTableRecord
100
AcDbBlockTableRecord
  2
*D13
340
0
  0
BLOCK_RECORD
  5
DB9
330
1
100
AcDbSymbolTableRecord
100
AcDbBlockTableRecord
  2
*D14
340
0
  0
BLOCK_RECORD
  5
DC7
330
1
100
AcDbSymbolTableRecord
100
AcDbBlockTableRecord
  2
*D15
340
0
  0
BLOCK_RECORD
  5
DD3
330
1
100
AcDbSymbolTableRecord
100
AcDbBlockTableRecord
  2
*D16
340
0
  0
BLOCK_RECORD
  5
DDF
330
1
100
AcDbSymbolTableRecord
100
AcDbBlockTableRecord
  2
*D17
340
0
  0
BLOCK_RECORD
  5
F2C
330
1
100
AcDbSymbolTableRecord
100
AcDbBlockTableRecord
  2
*D18
340
0
  0
BLOCK_RECORD
  5
F3A
330
1
100
AcDbSymbolTableRecord
100
AcDbBlockTableRecord
  2
*D19
340
0
  0
BLOCK_RECORD
  5
F46
330
1
100
AcDbSymbolTableRecord
100
AcDbBlockTableRecord
  2
*D20
340
0
  0
BLOCK_RECORD
  5
F52
330
1
100
AcDbSymbolTableRecord
100
AcDbBlockTableRecord
  2
*D21
340
0
  0
BLOCK_RECORD
  5
1069
330
1
100
AcDbSymbolTableRecord
100
AcDbBlockTableRecord
  2
*D22
340
0
  0
BLOCK_RECORD
  5
1077
330
1
100
AcDbSymbolTableRecord
100
AcDbBlockTableRecord
  2
*D23
340
0
  0
BLOCK_RECORD
  5
1083
330
1
100
AcDbSymbolTableRecord
100
AcDbBlockTableRecord
  2
*D24
340
0
  0
BLOCK_RECORD
  5
108F
330
1
100
AcDbSymbolTableRecord
100
AcDbBlockTableRecord
  2
*D25
340
0
  0
BLOCK_RECORD
  5
1186
330
1
100
AcDbSymbolTableRecord
100
AcDbBlockTableRecord
  2
*D26
340
0
  0
BLOCK_RECORD
  5
1194
330
1
100
AcDbSymbolTableRecord
100
AcDbBlockTableRecord
  2
*D27
340
0
  0
BLOCK_RECORD
  5
11A0
330
1
100
AcDbSymbolTableRecord
100
AcDbBlockTableRecord
  2
*D28
340
0
  0
BLOCK_RECORD
  5
11AC
330
1
100
AcDbSymbolTableRecord
100
AcDbBlockTableRecord
  2
*D29
340
0
  0
BLOCK_RECORD
  5
1303
330
1
100
AcDbSymbolTableRecord
100
AcDbBlockTableRecord
  2
*D30
340
0
  0
BLOCK_RECORD
  5
130F
330
1
100
AcDbSymbolTableRecord
100
AcDbBlockTableRecord
  2
*D31
340
0
  0
BLOCK_RECORD
  5
131B
330
1
100
AcDbSymbolTableRecord
100
AcDbBlockTableRecord
  2
*D32
340
0
  0
BLOCK_RECORD
  5
1327
330
1
100
AcDbSymbolTableRecord
100
AcDbBlockTableRecord
  2
*D33
340
0
  0
BLOCK_RECORD
  5
1C9B
330
1
100
AcDbSymbolTableRecord
100
AcDbBlockTableRecord
  2
*S34
340
0
102
{BLKREFS
331
B9B
102
}
  0
BLOCK_RECORD
  5
1CA3
330
1
100
AcDbSymbolTableRecord
100
AcDbBlockTableRecord
  2
*S35
340
0
102
{BLKREFS
331
E1A
102
}
  0
BLOCK_RECORD
  5
1CAB
330
1
100
AcDbSymbolTableRecord
100
AcDbBlockTableRecord
  2
*S36
340
0
102
{BLKREFS
331
10CB
102
}
  0
BLOCK_RECORD
  5
1CB3
330
1
100
AcDbSymbolTableRecord
100
AcDbBlockTableRecord
  2
*S37
340
0
102
{BLKREFS
331
1360
102
}
  0
ENDTAB
  0
ENDSEC
  0
SECTION
  2
BLOCKS
  0
BLOCK
  5
20
330
1F
100
AcDbEntity
  8
0
100
AcDbBlockBegin
  2
*Model_Space
 70
     0
 10
0.0
 20
0.0
 30
0.0
  3
*Model_Space
  1

  0
ENDBLK
  5
21
330
1F
100
AcDbEntity
  8
0
100
AcDbBlockEnd
  0
BLOCK
  5
1C
330
1B
100
AcDbEntity
 67
     1
  8
0
100
AcDbBlockBegin
  2
*Paper_Space
 70
     0
 10
0.0
 20
0.0
 30
0.0
  3
*Paper_Space
  1

  0
ENDBLK
  5
1D
330
1B
100
AcDbEntity
 67
     1
  8
0
100
AcDbBlockEnd
  0
BLOCK
  5
24
330
23
100
AcDbEntity
  8
0
100
AcDbBlockBegin
  2
*Paper_Space0
 70
     0
 10
0.0
 20
0.0
 30
0.0
  3
*Paper_Space0
  1

  0
ENDBLK
  5
25
330
23
100
AcDbEntity
  8
0
100
AcDbBlockEnd
  0
BLOCK
  5
89
330
87
100
AcDbEntity
  8
0
100
AcDbBlockBegin
  2
GENAXEH
 70
     0
 10
0.0
 20
0.0
 30
0.0
  3
GENAXEH
  1

  0
LINE
  5
88
330
87
100
AcDbEntity
  8
0
100
AcDbLine
 10
-1.0
 20
0.0
 30
0.0
 11
1.0
 21
0.0
 31
0.0
  0
ENDBLK
  5
8A
330
87
100
AcDbEntity
  8
0
100
AcDbBlockEnd
  0
BLOCK
  5
8CB
330
8BF
100
AcDbEntity
  8
0
100
AcDbBlockBegin
  2
*D2
 70
     1
 10
0.0
 20
0.0
 30
0.0
  3
*D2
  1

  0
LINE
  5
1B7E
330
8BF
100
AcDbEntity
  8
AM_5
100
AcDbLine
 10
2590.628376664839
 20
1276.346973375992
 30
0.0
 11
2604.128376664839
 21
1276.346973375992
 31
0.0
  0
LINE
  5
1B7F
330
8BF
100
AcDbEntity
  8
AM_5
100
AcDbLine
 10
2591.128376664839
 20
1283.346973375992
 30
0.0
 11
2604.128376664839
 21
1283.346973375992
 31
0.0
  0
LINE
  5
1B80
330
8BF
100
AcDbEntity
  8
AM_5
100
AcDbLine
 10
2602.628376664839
 20
1273.346973375992
 30
0.0
 11
2602.628376664839
 21
1270.346973375992
 31
0.0
  0
LINE
  5
1B81
330
8BF
100
AcDbEntity
  8
AM_5
100
AcDbLine
 10
2602.628376664839
 20
1286.346973375992
 30
0.0
 11
2602.628376664839
 21
1289.346973375992
 31
0.0
  0
LINE
  5
1B82
330
8BF
100
AcDbEntity
  8
AM_5
100
AcDbLine
 10
2602.628376664839
 20
1276.346973375992
 30
0.0
 11
2602.628376664839
 21
1283.346973375992
 31
0.0
  0
SOLID
  5
1B83
330
8BF
100
AcDbEntity
  8
AM_5
100
AcDbTrace
 10
2602.128376664839
 20
1273.346973375992
 30
0.0
 11
2603.128376664839
 21
1273.346973375992
 31
0.0
 12
2602.628376664839
 22
1276.346973375992
 32
0.0
 13
2602.628376664839
 23
1276.346973375992
 33
0.0
  0
SOLID
  5
1B84
330
8BF
100
AcDbEntity
  8
AM_5
100
AcDbTrace
 10
2602.128376664839
 20
1286.346973375992
 30
0.0
 11
2603.128376664839
 21
1286.346973375992
 31
0.0
 12
2602.628376664839
 22
1283.346973375992
 32
0.0
 13
2602.628376664839
 23
1283.346973375992
 33
0.0
  0
MTEXT
  5
1B85
330
8BF
100
AcDbEntity
  8
AM_5
100
AcDbMText
 10
2600.128376664839
 20
1279.846973375992
 30
0.0
 40
3.0
 41
0.0
 71
     5
 72
     1
  1
7
  7
CHINESET
 11
0.0000000000000001
 21
1.0
 31
0.0
 73
     1
 44
1.0
1001
ACAD
1000
MTEXTBEGIN
1070
    73
1070
     1
1070
    44
1040
1.0
1070
    74
1070
     0
1000
MTEXTEND
  0
POINT
  5
1B86
330
8BF
100
AcDbEntity
  8
Defpoints
 62
     0
100
AcDbPoint
 10
2589.628376664839
 20
1276.346973375992
 30
0.0
  0
POINT
  5
1B87
330
8BF
100
AcDbEntity
  8
Defpoints
 62
     0
100
AcDbPoint
 10
2590.128376664839
 20
1283.346973375992
 30
0.0
  0
POINT
  5
1B88
330
8BF
100
AcDbEntity
  8
Defpoints
 62
     0
100
AcDbPoint
 10
2602.628376664839
 20
1283.346973375992
 30
0.0
  0
ENDBLK
  5
8CC
330
8BF
100
AcDbEntity
  8
0
100
AcDbBlockEnd
  0
BLOCK
  5
8F3
330
8E9
100
AcDbEntity
  8
0
100
AcDbBlockBegin
  2
*D3
 70
     1
 10
0.0
 20
0.0
 30
0.0
  3
*D3
  1

  0
LINE
  5
1B89
330
8E9
100
AcDbEntity
  8
AM_5
100
AcDbLine
 10
2590.628376664839
 20
1276.346973375992
 30
0.0
 11
2612.128376664839
 21
1276.346973375992
 31
0.0
  0
LINE
  5
1B8A
330
8E9
100
AcDbEntity
  8
AM_5
100
AcDbLine
 10
2588.628376664839
 20
1312.346973375992
 30
0.0
 11
2612.128376664839
 21
1312.346973375992
 31
0.0
  0
LINE
  5
1B8B
330
8E9
100
AcDbEntity
  8
AM_5
100
AcDbLine
 10
2610.628376664839
 20
1279.346973375992
 30
0.0
 11
2610.628376664839
 21
1309.346973375992
 31
0.0
  0
SOLID
  5
1B8C
330
8E9
100
AcDbEntity
  8
AM_5
100
AcDbTrace
 10
2610.128376664839
 20
1279.346973375992
 30
0.0
 11
2611.128376664839
 21
1279.346973375992
 31
0.0
 12
2610.628376664839
 22
1276.346973375992
 32
0.0
 13
2610.628376664839
 23
1276.346973375992
 33
0.0
  0
SOLID
  5
1B8D
330
8E9
100
AcDbEntity
  8
AM_5
100
AcDbTrace
 10
2610.128376664839
 20
1309.346973375992
 30
0.0
 11
2611.128376664839
 21
1309.346973375992
 31
0.0
 12
2610.628376664839
 22
1312.346973375992
 32
0.0
 13
2610.628376664839
 23
1312.346973375992
 33
0.0
  0
MTEXT
  5
1B8E
330
8E9
100
AcDbEntity
  8
AM_5
100
AcDbMText
 10
2608.128376664839
 20
1294.346973375992
 30
0.0
 40
3.0
 41
0.0
 71
     5
 72
     1
  1
36
  7
CHINESET
 11
0.0000000000000001
 21
1.0
 31
0.0
 73
     1
 44
1.0
1001
ACAD
1000
MTEXTBEGIN
1070
    73
1070
     1
1070
    44
1040
1.0
1070
    74
1070
     0
1000
MTEXTEND
  0
POINT
  5
1B8F
330
8E9
100
AcDbEntity
  8
Defpoints
 62
     0
100
AcDbPoint
 10
2589.628376664839
 20
1276.346973375992
 30
0.0
  0
POINT
  5
1B90
330
8E9
100
AcDbEntity
  8
Defpoints
 62
     0
100
AcDbPoint
 10
2587.628376664839
 20
1312.346973375992
 30
0.0
  0
POINT
  5
1B91
330
8E9
100
AcDbEntity
  8
Defpoints
 62
     0
100
AcDbPoint
 10
2610.628376664839
 20
1312.346973375992
 30
0.0
  0
ENDBLK
  5
8F4
330
8E9
100
AcDbEntity
  8
0
100
AcDbBlockEnd
  0
BLOCK
  5
92F
330
925
100
AcDbEntity
  8
0
100
AcDbBlockBegin
  2
*D4
 70
     1
 10
0.0
 20
0.0
 30
0.0
  3
*D4
  1

  0
LINE
  5
1B92
330
925
100
AcDbEntity
  8
AM_5
100
AcDbLine
 10
2590.628376664839
 20
1276.346973375992
 30
0.0
 11
2620.128376664839
 21
1276.346973375992
 31
0.0
  0
LINE
  5
1B93
330
925
100
AcDbEntity
  8
AM_5
100
AcDbLine
 10
2580.628376664839
 20
1314.346973375992
 30
0.0
 11
2620.128376664839
 21
1314.346973375992
 31
0.0
  0
LINE
  5
1B94
330
925
100
AcDbEntity
  8
AM_5
100
AcDbLine
 10
2618.628376664839
 20
1279.346973375992
 30
0.0
 11
2618.628376664839
 21
1311.346973375992
 31
0.0
  0
SOLID
  5
1B95
330
925
100
AcDbEntity
  8
AM_5
100
AcDbTrace
 10
2618.128376664839
 20
1279.346973375992
 30
0.0
 11
2619.128376664839
 21
1279.346973375992
 31
0.0
 12
2618.628376664839
 22
1276.346973375992
 32
0.0
 13
2618.628376664839
 23
1276.346973375992
 33
0.0
  0
SOLID
  5
1B96
330
925
100
AcDbEntity
  8
AM_5
100
AcDbTrace
 10
2618.128376664839
 20
1311.346973375992
 30
0.0
 11
2619.128376664839
 21
1311.346973375992
 31
0.0
 12
2618.628376664839
 22
1314.346973375992
 32
0.0
 13
2618.628376664839
 23
1314.346973375992
 33
0.0
  0
MTEXT
  5
1B97
330
925
100
AcDbEntity
  8
AM_5
100
AcDbMText
 10
2616.128376664839
 20
1295.346973375992
 30
0.0
 40
3.0
 41
0.0
 71
     5
 72
     1
  1
38
  7
CHINESET
 11
0.0000000000000001
 21
1.0
 31
0.0
 73
     1
 44
1.0
1001
ACAD
1000
MTEXTBEGIN
1070
    73
1070
     1
1070
    44
1040
1.0
1070
    74
1070
     0
1000
MTEXTEND
  0
POINT
  5
1B98
330
925
100
AcDbEntity
  8
Defpoints
 62
     0
100
AcDbPoint
 10
2589.628376664839
 20
1276.346973375992
 30
0.0
  0
POINT
  5
1B99
330
925
100
AcDbEntity
  8
Defpoints
 62
     0
100
AcDbPoint
 10
2579.628376664839
 20
1314.346973375992
 30
0.0
  0
POINT
  5
1B9A
330
925
100
AcDbEntity
  8
Defpoints
 62
     0
100
AcDbPoint
 10
2618.628376664839
 20
1314.346973375992
 30
0.0
  0
ENDBLK
  5
930
330
925
100
AcDbEntity
  8
0
100
AcDbBlockEnd
  0
BLOCK
  5
97D
330
973
100
AcDbEntity
  8
0
100
AcDbBlockBegin
  2
*D5
 70
     1
 10
0.0
 20
0.0
 30
0.0
  3
*D5
  1

  0
LINE
  5
1B9B
330
973
100
AcDbEntity
  8
AM_5
100
AcDbLine
 10
2568.628376664839
 20
1282.846973375992
 30
0.0
 11
2568.628376664839
 21
1262.846973375992
 31
0.0
  0
LINE
  5
1B9C
330
973
100
AcDbEntity
  8
AM_5
100
AcDbLine
 10
2590.628376664839
 20
1282.846973375992
 30
0.0
 11
2590.628376664839
 21
1262.846973375992
 31
0.0
  0
LINE
  5
1B9D
330
973
100
AcDbEntity
  8
AM_5
100
AcDbLine
 10
2571.628376664839
 20
1264.346973375992
 30
0.0
 11
2587.628376664839
 21
1264.346973375992
 31
0.0
  0
SOLID
  5
1B9E
330
973
100
AcDbEntity
  8
AM_5
100
AcDbTrace
 10
2571.628376664839
 20
1264.846973375992
 30
0.0
 11
2571.628376664839
 21
1263.846973375992
 31
0.0
 12
2568.628376664839
 22
1264.346973375992
 32
0.0
 13
2568.628376664839
 23
1264.346973375992
 33
0.0
  0
SOLID
  5
1B9F
330
973
100
AcDbEntity
  8
AM_5
100
AcDbTrace
 10
2587.628376664839
 20
1264.846973375992
 30
0.0
 11
2587.628376664839
 21
1263.846973375992
 31
0.0
 12
2590.628376664839
 22
1264.346973375992
 32
0.0
 13
2590.628376664839
 23
1264.346973375992
 33
0.0
  0
MTEXT
  5
1BA0
330
973
100
AcDbEntity
  8
AM_5
100
AcDbMText
 10
2579.628376664839
 20
1266.846973375992
 30
0.0
 40
3.0
 41
0.0
 71
     5
 72
     1
  1
M22x1.5
  7
CHINESET
 73
     1
 44
1.0
1001
ACAD
1000
MTEXTBEGIN
1070
    73
1070
     1
1070
    44
1040
1.0
1070
    74
1070
     0
1000
MTEXTEND
  0
POINT
  5
1BA1
330
973
100
AcDbEntity
  8
Defpoints
 62
     0
100
AcDbPoint
 10
2568.628376664839
 20
1283.846973375992
 30
0.0
  0
POINT
  5
1BA2
330
973
100
AcDbEntity
  8
Defpoints
 62
     0
100
AcDbPoint
 10
2590.628376664839
 20
1283.846973375992
 30
0.0
  0
POINT
  5
1BA3
330
973
100
AcDbEntity
  8
Defpoints
 62
     0
100
AcDbPoint
 10
2590.628376664839
 20
1264.346973375992
 30
0.0
  0
ENDBLK
  5
97E
330
973
100
AcDbEntity
  8
0
100
AcDbBlockEnd
  0
BLOCK
  5
A55
330
A49
100
AcDbEntity
  8
0
100
AcDbBlockBegin
  2
*D6
 70
     1
 10
0.0
 20
0.0
 30
0.0
  3
*D6
  1

  0
LINE
  5
1BA4
330
A49
100
AcDbEntity
  8
AM_5
100
AcDbLine
 10
2671.475069266624
 20
1276.346973375992
 30
0.0
 11
2684.975069266624
 21
1276.346973375992
 31
0.0
  0
LINE
  5
1BA5
330
A49
100
AcDbEntity
  8
AM_5
100
AcDbLine
 10
2671.975069266624
 20
1283.346973375992
 30
0.0
 11
2684.975069266624
 21
1283.346973375992
 31
0.0
  0
LINE
  5
1BA6
330
A49
100
AcDbEntity
  8
AM_5
100
AcDbLine
 10
2683.475069266624
 20
1273.346973375992
 30
0.0
 11
2683.475069266624
 21
1270.346973375992
 31
0.0
  0
LINE
  5
1BA7
330
A49
100
AcDbEntity
  8
AM_5
100
AcDbLine
 10
2683.475069266624
 20
1286.346973375992
 30
0.0
 11
2683.475069266624
 21
1289.346973375992
 31
0.0
  0
LINE
  5
1BA8
330
A49
100
AcDbEntity
  8
AM_5
100
AcDbLine
 10
2683.475069266624
 20
1276.346973375992
 30
0.0
 11
2683.475069266624
 21
1283.346973375992
 31
0.0
  0
SOLID
  5
1BA9
330
A49
100
AcDbEntity
  8
AM_5
100
AcDbTrace
 10
2682.975069266624
 20
1273.346973375992
 30
0.0
 11
2683.975069266624
 21
1273.346973375992
 31
0.0
 12
2683.475069266624
 22
1276.346973375992
 32
0.0
 13
2683.475069266624
 23
1276.346973375992
 33
0.0
  0
SOLID
  5
1BAA
330
A49
100
AcDbEntity
  8
AM_5
100
AcDbTrace
 10
2682.975069266624
 20
1286.346973375992
 30
0.0
 11
2683.975069266624
 21
1286.346973375992
 31
0.0
 12
2683.475069266624
 22
1283.346973375992
 32
0.0
 13
2683.475069266624
 23
1283.346973375992
 33
0.0
  0
MTEXT
  5
1BAB
330
A49
100
AcDbEntity
  8
AM_5
100
AcDbMText
 10
2680.975069266624
 20
1279.846973375992
 30
0.0
 40
3.0
 41
0.0
 71
     5
 72
     1
  1
7
  7
CHINESET
 11
0.0000000000000001
 21
1.0
 31
0.0
 73
     1
 44
1.0
1001
ACAD
1000
MTEXTBEGIN
1070
    73
1070
     1
1070
    44
1040
1.0
1070
    74
1070
     0
1000
MTEXTEND
  0
POINT
  5
1BAC
330
A49
100
AcDbEntity
  8
Defpoints
 62
     0
100
AcDbPoint
 10
2670.475069266624
 20
1276.346973375992
 30
0.0
  0
POINT
  5
1BAD
330
A49
100
AcDbEntity
  8
Defpoints
 62
     0
100
AcDbPoint
 10
2670.975069266624
 20
1283.346973375992
 30
0.0
  0
POINT
  5
1BAE
330
A49
100
AcDbEntity
  8
Defpoints
 62
     0
100
AcDbPoint
 10
2683.475069266624
 20
1283.346973375992
 30
0.0
  0
ENDBLK
  5
A56
330
A49
100
AcDbEntity
  8
0
100
AcDbBlockEnd
  0
BLOCK
  5
A61
330
A57
100
AcDbEntity
  8
0
100
AcDbBlockBegin
  2
*D7
 70
     1
 10
0.0
 20
0.0
 30
0.0
  3
*D7
  1

  0
LINE
  5
1BAF
330
A57
100
AcDbEntity
  8
AM_5
100
AcDbLine
 10
2671.475069266624
 20
1276.346973375992
 30
0.0
 11
2692.975069266624
 21
1276.346973375992
 31
0.0
  0
LINE
  5
1BB0
330
A57
100
AcDbEntity
  8
AM_5
100
AcDbLine
 10
2669.475069266624
 20
1312.346973375992
 30
0.0
 11
2692.975069266624
 21
1312.346973375992
 31
0.0
  0
LINE
  5
1BB1
330
A57
100
AcDbEntity
  8
AM_5
100
AcDbLine
 10
2691.475069266624
 20
1279.346973375992
 30
0.0
 11
2691.475069266624
 21
1309.346973375992
 31
0.0
  0
SOLID
  5
1BB2
330
A57
100
AcDbEntity
  8
AM_5
100
AcDbTrace
 10
2690.975069266624
 20
1279.346973375992
 30
0.0
 11
2691.975069266624
 21
1279.346973375992
 31
0.0
 12
2691.475069266624
 22
1276.346973375992
 32
0.0
 13
2691.475069266624
 23
1276.346973375992
 33
0.0
  0
SOLID
  5
1BB3
330
A57
100
AcDbEntity
  8
AM_5
100
AcDbTrace
 10
2690.975069266624
 20
1309.346973375992
 30
0.0
 11
2691.975069266624
 21
1309.346973375992
 31
0.0
 12
2691.475069266624
 22
1312.346973375992
 32
0.0
 13
2691.475069266624
 23
1312.346973375992
 33
0.0
  0
MTEXT
  5
1BB4
330
A57
100
AcDbEntity
  8
AM_5
100
AcDbMText
 10
2688.975069266624
 20
1294.346973375992
 30
0.0
 40
3.0
 41
0.0
 71
     5
 72
     1
  1
36
  7
CHINESET
 11
0.0000000000000001
 21
1.0
 31
0.0
 73
     1
 44
1.0
1001
ACAD
1000
MTEXTBEGIN
1070
    73
1070
     1
1070
    44
1040
1.0
1070
    74
1070
     0
1000
MTEXTEND
  0
POINT
  5
1BB5
330
A57
100
AcDbEntity
  8
Defpoints
 62
     0
100
AcDbPoint
 10
2670.475069266624
 20
1276.346973375992
 30
0.0
  0
POINT
  5
1BB6
330
A57
100
AcDbEntity
  8
Defpoints
 62
     0
100
AcDbPoint
 10
2668.475069266624
 20
1312.346973375992
 30
0.0
  0
POINT
  5
1BB7
330
A57
100
AcDbEntity
  8
Defpoints
 62
     0
100
AcDbPoint
 10
2691.475069266624
 20
1312.346973375992
 30
0.0
  0
ENDBLK
  5
A62
330
A57
100
AcDbEntity
  8
0
100
AcDbBlockEnd
  0
BLOCK
  5
A6D
330
A63
100
AcDbEntity
  8
0
100
AcDbBlockBegin
  2
*D8
 70
     1
 10
0.0
 20
0.0
 30
0.0
  3
*D8
  1

  0
LINE
  5
1BB8
330
A63
100
AcDbEntity
  8
AM_5
100
AcDbLine
 10
2671.475069266624
 20
1276.346973375992
 30
0.0
 11
2700.975069266624
 21
1276.346973375992
 31
0.0
  0
LINE
  5
1BB9
330
A63
100
AcDbEntity
  8
AM_5
100
AcDbLine
 10
2668.475069266624
 20
1321.346973375992
 30
0.0
 11
2700.975069266624
 21
1321.346973375992
 31
0.0
  0
LINE
  5
1BBA
330
A63
100
AcDbEntity
  8
AM_5
100
AcDbLine
 10
2699.475069266624
 20
1279.346973375992
 30
0.0
 11
2699.475069266624
 21
1318.346973375992
 31
0.0
  0
SOLID
  5
1BBB
330
A63
100
AcDbEntity
  8
AM_5
100
AcDbTrace
 10
2698.975069266624
 20
1279.346973375992
 30
0.0
 11
2699.975069266624
 21
1279.346973375992
 31
0.0
 12
2699.475069266624
 22
1276.346973375992
 32
0.0
 13
2699.475069266624
 23
1276.346973375992
 33
0.0
  0
SOLID
  5
1BBC
330
A63
100
AcDbEntity
  8
AM_5
100
AcDbTrace
 10
2698.975069266624
 20
1318.346973375992
 30
0.0
 11
2699.975069266624
 21
1318.346973375992
 31
0.0
 12
2699.475069266624
 22
1321.346973375992
 32
0.0
 13
2699.475069266624
 23
1321.346973375992
 33
0.0
  0
MTEXT
  5
1BBD
330
A63
100
AcDbEntity
  8
AM_5
100
AcDbMText
 10
2696.975069266624
 20
1298.846973375992
 30
0.0
 40
3.0
 41
0.0
 71
     5
 72
     1
  1
45
  7
CHINESET
 11
0.0000000000000001
 21
1.0
 31
0.0
 73
     1
 44
1.0
1001
ACAD
1000
MTEXTBEGIN
1070
    73
1070
     1
1070
    44
1040
1.0
1070
    74
1070
     0
1000
MTEXTEND
  0
POINT
  5
1BBE
330
A63
100
AcDbEntity
  8
Defpoints
 62
     0
100
AcDbPoint
 10
2670.475069266624
 20
1276.346973375992
 30
0.0
  0
POINT
  5
1BBF
330
A63
100
AcDbEntity
  8
Defpoints
 62
     0
100
AcDbPoint
 10
2667.475069266624
 20
1321.346973375992
 30
0.0
  0
POINT
  5
1BC0
330
A63
100
AcDbEntity
  8
Defpoints
 62
     0
100
AcDbPoint
 10
2699.475069266624
 20
1321.346973375992
 30
0.0
  0
ENDBLK
  5
A6E
330
A63
100
AcDbEntity
  8
0
100
AcDbBlockEnd
  0
BLOCK
  5
A79
330
A6F
100
AcDbEntity
  8
0
100
AcDbBlockBegin
  2
*D9
 70
     1
 10
0.0
 20
0.0
 30
0.0
  3
*D9
  1

  0
LINE
  5
1BC1
330
A6F
100
AcDbEntity
  8
AM_5
100
AcDbLine
 10
2649.475069266624
 20
1282.846973375992
 30
0.0
 11
2649.475069266624
 21
1262.846973375992
 31
0.0
  0
LINE
  5
1BC2
330
A6F
100
AcDbEntity
  8
AM_5
100
AcDbLine
 10
2671.475069266624
 20
1282.846973375992
 30
0.0
 11
2671.475069266624
 21
1262.846973375992
 31
0.0
  0
LINE
  5
1BC3
330
A6F
100
AcDbEntity
  8
AM_5
100
AcDbLine
 10
2652.475069266624
 20
1264.346973375992
 30
0.0
 11
2668.475069266624
 21
1264.346973375992
 31
0.0
  0
SOLID
  5
1BC4
330
A6F
100
AcDbEntity
  8
AM_5
100
AcDbTrace
 10
2652.475069266624
 20
1264.846973375992
 30
0.0
 11
2652.475069266624
 21
1263.846973375992
 31
0.0
 12
2649.475069266624
 22
1264.346973375992
 32
0.0
 13
2649.475069266624
 23
1264.346973375992
 33
0.0
  0
SOLID
  5
1BC5
330
A6F
100
AcDbEntity
  8
AM_5
100
AcDbTrace
 10
2668.475069266624
 20
1264.846973375992
 30
0.0
 11
2668.475069266624
 21
1263.846973375992
 31
0.0
 12
2671.475069266624
 22
1264.346973375992
 32
0.0
 13
2671.475069266624
 23
1264.346973375992
 33
0.0
  0
MTEXT
  5
1BC6
330
A6F
100
AcDbEntity
  8
AM_5
100
AcDbMText
 10
2660.475069266624
 20
1266.846973375992
 30
0.0
 40
3.0
 41
0.0
 71
     5
 72
     1
  1
M22x1.5
  7
CHINESET
 73
     1
 44
1.0
1001
ACAD
1000
MTEXTBEGIN
1070
    73
1070
     1
1070
    44
1040
1.0
1070
    74
1070
     0
1000
MTEXTEND
  0
POINT
  5
1BC7
330
A6F
100
AcDbEntity
  8
Defpoints
 62
     0
100
AcDbPoint
 10
2649.475069266624
 20
1283.846973375992
 30
0.0
  0
POINT
  5
1BC8
330
A6F
100
AcDbEntity
  8
Defpoints
 62
     0
100
AcDbPoint
 10
2671.475069266624
 20
1283.846973375992
 30
0.0
  0
POINT
  5
1BC9
330
A6F
100
AcDbEntity
  8
Defpoints
 62
     0
100
AcDbPoint
 10
2671.475069266624
 20
1264.346973375992
 30
0.0
  0
ENDBLK
  5
A7A
330
A6F
100
AcDbEntity
  8
0
100
AcDbBlockEnd
  0
BLOCK
  5
C59
330
C4D
100
AcDbEntity
  8
0
100
AcDbBlockBegin
  2
*D10
 70
     1
 10
0.0
 20
0.0
 30
0.0
  3
*D10
  1

  0
LINE
  5
1A06
330
C4D
100
AcDbEntity
  8
AM_5
100
AcDbLine
 10
2858.211171359333
 20
1276.346973375992
 30
0.0
 11
2871.711171359333
 21
1276.346973375992
 31
0.0
  0
LINE
  5
1A07
330
C4D
100
AcDbEntity
  8
AM_5
100
AcDbLine
 10
2859.211171359333
 20
1284.346973375992
 30
0.0
 11
2871.711171359333
 21
1284.346973375992
 31
0.0
  0
LINE
  5
1A08
330
C4D
100
AcDbEntity
  8
AM_5
100
AcDbLine
 10
2870.211171359333
 20
1273.346973375992
 30
0.0
 11
2870.211171359333
 21
1270.346973375992
 31
0.0
  0
LINE
  5
1A09
330
C4D
100
AcDbEntity
  8
AM_5
100
AcDbLine
 10
2870.211171359333
 20
1287.346973375992
 30
0.0
 11
2870.211171359333
 21
1290.346973375992
 31
0.0
  0
LINE
  5
1A0A
330
C4D
100
AcDbEntity
  8
AM_5
100
AcDbLine
 10
2870.211171359333
 20
1276.346973375992
 30
0.0
 11
2870.211171359333
 21
1284.346973375992
 31
0.0
  0
SOLID
  5
1A0B
330
C4D
100
AcDbEntity
  8
AM_5
100
AcDbTrace
 10
2869.711171359332
 20
1273.346973375992
 30
0.0
 11
2870.711171359333
 21
1273.346973375992
 31
0.0
 12
2870.211171359333
 22
1276.346973375992
 32
0.0
 13
2870.211171359333
 23
1276.346973375992
 33
0.0
  0
SOLID
  5
1A0C
330
C4D
100
AcDbEntity
  8
AM_5
100
AcDbTrace
 10
2869.711171359332
 20
1287.346973375992
 30
0.0
 11
2870.711171359333
 21
1287.346973375992
 31
0.0
 12
2870.211171359333
 22
1284.346973375992
 32
0.0
 13
2870.211171359333
 23
1284.346973375992
 33
0.0
  0
MTEXT
  5
1A0D
330
C4D
100
AcDbEntity
  8
AM_5
100
AcDbMText
 10
2867.711171359332
 20
1280.346973375992
 30
0.0
 40
3.0
 41
0.0
 71
     5
 72
     1
  1
8
  7
CHINESET
 11
0.0000000000000001
 21
1.0
 31
0.0
 73
     1
 44
1.0
1001
ACAD
1000
MTEXTBEGIN
1070
    73
1070
     1
1070
    44
1040
1.0
1070
    74
1070
     0
1000
MTEXTEND
  0
POINT
  5
1A0E
330
C4D
100
AcDbEntity
  8
Defpoints
 62
     0
100
AcDbPoint
 10
2857.211171359333
 20
1276.346973375992
 30
0.0
  0
POINT
  5
1A0F
330
C4D
100
AcDbEntity
  8
Defpoints
 62
     0
100
AcDbPoint
 10
2858.211171359333
 20
1284.346973375992
 30
0.0
  0
POINT
  5
1A10
330
C4D
100
AcDbEntity
  8
Defpoints
 62
     0
100
AcDbPoint
 10
2870.211171359333
 20
1284.346973375992
 30
0.0
  0
ENDBLK
  5
C5A
330
C4D
100
AcDbEntity
  8
0
100
AcDbBlockEnd
  0
BLOCK
  5
C65
330
C5B
100
AcDbEntity
  8
0
100
AcDbBlockBegin
  2
*D11
 70
     1
 10
0.0
 20
0.0
 30
0.0
  3
*D11
  1

  0
LINE
  5
1A11
330
C5B
100
AcDbEntity
  8
AM_5
100
AcDbLine
 10
2858.211171359333
 20
1276.346973375992
 30
0.0
 11
2879.711171359333
 21
1276.346973375992
 31
0.0
  0
LINE
  5
1A12
330
C5B
100
AcDbEntity
  8
AM_5
100
AcDbLine
 10
2856.045282845349
 20
1320.846973375992
 30
0.0
 11
2879.711171359333
 21
1320.846973375992
 31
0.0
  0
LINE
  5
1A13
330
C5B
100
AcDbEntity
  8
AM_5
100
AcDbLine
 10
2878.211171359333
 20
1279.346973375992
 30
0.0
 11
2878.211171359333
 21
1317.846973375992
 31
0.0
  0
SOLID
  5
1A14
330
C5B
100
AcDbEntity
  8
AM_5
100
AcDbTrace
 10
2877.711171359333
 20
1279.346973375992
 30
0.0
 11
2878.711171359333
 21
1279.346973375992
 31
0.0
 12
2878.211171359333
 22
1276.346973375992
 32
0.0
 13
2878.211171359333
 23
1276.346973375992
 33
0.0
  0
SOLID
  5
1A15
330
C5B
100
AcDbEntity
  8
AM_5
100
AcDbTrace
 10
2877.711171359333
 20
1317.846973375992
 30
0.0
 11
2878.711171359333
 21
1317.846973375992
 31
0.0
 12
2878.211171359333
 22
1320.846973375992
 32
0.0
 13
2878.211171359333
 23
1320.846973375992
 33
0.0
  0
MTEXT
  5
1A16
330
C5B
100
AcDbEntity
  8
AM_5
100
AcDbMText
 10
2875.711171359332
 20
1298.596973375992
 30
0.0
 40
3.0
 41
0.0
 71
     5
 72
     1
  1
44.5
  7
CHINESET
 11
0.0000000000000001
 21
1.0
 31
0.0
 73
     1
 44
1.0
1001
ACAD
1000
MTEXTBEGIN
1070
    73
1070
     1
1070
    44
1040
1.0
1070
    74
1070
     0
1000
MTEXTEND
  0
POINT
  5
1A17
330
C5B
100
AcDbEntity
  8
Defpoints
 62
     0
100
AcDbPoint
 10
2857.211171359333
 20
1276.346973375992
 30
0.0
  0
POINT
  5
1A18
330
C5B
100
AcDbEntity
  8
Defpoints
 62
     0
100
AcDbPoint
 10
2855.045282845349
 20
1320.846973375992
 30
0.0
  0
POINT
  5
1A19
330
C5B
100
AcDbEntity
  8
Defpoints
 62
     0
100
AcDbPoint
 10
2878.211171359333
 20
1320.846973375992
 30
0.0
  0
ENDBLK
  5
C66
330
C5B
100
AcDbEntity
  8
0
100
AcDbBlockEnd
  0
BLOCK
  5
C71
330
C67
100
AcDbEntity
  8
0
100
AcDbBlockBegin
  2
*D12
 70
     1
 10
0.0
 20
0.0
 30
0.0
  3
*D12
  1

  0
LINE
  5
1A1A
330
C67
100
AcDbEntity
  8
AM_5
100
AcDbLine
 10
2858.211171359333
 20
1276.346973375992
 30
0.0
 11
2887.711171359333
 21
1276.346973375992
 31
0.0
  0
LINE
  5
1A1B
330
C67
100
AcDbEntity
  8
AM_5
100
AcDbLine
 10
2846.711171359333
 20
1322.846973375992
 30
0.0
 11
2887.711171359333
 21
1322.846973375992
 31
0.0
  0
LINE
  5
1A1C
330
C67
100
AcDbEntity
  8
AM_5
100
AcDbLine
 10
2886.211171359333
 20
1279.346973375992
 30
0.0
 11
2886.211171359333
 21
1319.846973375992
 31
0.0
  0
SOLID
  5
1A1D
330
C67
100
AcDbEntity
  8
AM_5
100
AcDbTrace
 10
2885.711171359332
 20
1279.346973375992
 30
0.0
 11
2886.711171359333
 21
1279.346973375992
 31
0.0
 12
2886.211171359333
 22
1276.346973375992
 32
0.0
 13
2886.211171359333
 23
1276.346973375992
 33
0.0
  0
SOLID
  5
1A1E
330
C67
100
AcDbEntity
  8
AM_5
100
AcDbTrace
 10
2885.711171359332
 20
1319.846973375992
 30
0.0
 11
2886.711171359333
 21
1319.846973375992
 31
0.0
 12
2886.211171359333
 22
1322.846973375992
 32
0.0
 13
2886.211171359333
 23
1322.846973375992
 33
0.0
  0
MTEXT
  5
1A1F
330
C67
100
AcDbEntity
  8
AM_5
100
AcDbMText
 10
2883.711171359332
 20
1299.596973375992
 30
0.0
 40
3.0
 41
0.0
 71
     5
 72
     1
  1
46.5
  7
CHINESET
 11
0.0000000000000001
 21
1.0
 31
0.0
 73
     1
 44
1.0
1001
ACAD
1000
MTEXTBEGIN
1070
    73
1070
     1
1070
    44
1040
1.0
1070
    74
1070
     0
1000
MTEXTEND
  0
POINT
  5
1A20
330
C67
100
AcDbEntity
  8
Defpoints
 62
     0
100
AcDbPoint
 10
2857.211171359333
 20
1276.346973375992
 30
0.0
  0
POINT
  5
1A21
330
C67
100
AcDbEntity
  8
Defpoints
 62
     0
100
AcDbPoint
 10
2845.711171359333
 20
1322.846973375992
 30
0.0
  0
POINT
  5
1A22
330
C67
100
AcDbEntity
  8
Defpoints
 62
     0
100
AcDbPoint
 10
2886.211171359333
 20
1322.846973375992
 30
0.0
  0
ENDBLK
  5
C72
330
C67
100
AcDbEntity
  8
0
100
AcDbBlockEnd
  0
BLOCK
  5
C7D
330
C73
100
AcDbEntity
  8
0
100
AcDbBlockBegin
  2
*D13
 70
     1
 10
0.0
 20
0.0
 30
0.0
  3
*D13
  1

  0
LINE
  5
1A23
330
C73
100
AcDbEntity
  8
AM_5
100
AcDbLine
 10
2832.711171359333
 20
1283.846973375992
 30
0.0
 11
2832.711171359333
 21
1262.846973375992
 31
0.0
  0
LINE
  5
1A24
330
C73
100
AcDbEntity
  8
AM_5
100
AcDbLine
 10
2858.211171359333
 20
1282.846973375992
 30
0.0
 11
2858.211171359333
 21
1262.846973375992
 31
0.0
  0
LINE
  5
1A25
330
C73
100
AcDbEntity
  8
AM_5
100
AcDbLine
 10
2835.711171359333
 20
1264.346973375992
 30
0.0
 11
2855.211171359333
 21
1264.346973375992
 31
0.0
  0
SOLID
  5
1A26
330
C73
100
AcDbEntity
  8
AM_5
100
AcDbTrace
 10
2835.711171359333
 20
1264.846973375992
 30
0.0
 11
2835.711171359333
 21
1263.846973375992
 31
0.0
 12
2832.711171359333
 22
1264.346973375992
 32
0.0
 13
2832.711171359333
 23
1264.346973375992
 33
0.0
  0
SOLID
  5
1A27
330
C73
100
AcDbEntity
  8
AM_5
100
AcDbTrace
 10
2855.211171359333
 20
1264.846973375992
 30
0.0
 11
2855.211171359333
 21
1263.846973375992
 31
0.0
 12
2858.211171359333
 22
1264.346973375992
 32
0.0
 13
2858.211171359333
 23
1264.346973375992
 33
0.0
  0
MTEXT
  5
1A28
330
C73
100
AcDbEntity
  8
AM_5
100
AcDbMText
 10
2845.461171359333
 20
1266.846973375992
 30
0.0
 40
3.0
 41
0.0
 71
     5
 72
     1
  1
M25.5X1.5
  7
CHINESET
 73
     1
 44
1.0
1001
ACAD
1000
MTEXTBEGIN
1070
    73
1070
     1
1070
    44
1040
1.0
1070
    74
1070
     0
1000
MTEXTEND
  0
POINT
  5
1A29
330
C73
100
AcDbEntity
  8
Defpoints
 62
     0
100
AcDbPoint
 10
2832.711171359333
 20
1284.846973375992
 30
0.0
  0
POINT
  5
1A2A
330
C73
100
AcDbEntity
  8
Defpoints
 62
     0
100
AcDbPoint
 10
2858.211171359333
 20
1283.846973375992
 30
0.0
  0
POINT
  5
1A2B
330
C73
100
AcDbEntity
  8
Defpoints
 62
     0
100
AcDbPoint
 10
2858.211171359333
 20
1264.346973375992
 30
0.0
  0
ENDBLK
  5
C7E
330
C73
100
AcDbEntity
  8
0
100
AcDbBlockEnd
  0
BLOCK
  5
DC5
330
DB9
100
AcDbEntity
  8
0
100
AcDbBlockBegin
  2
*D14
 70
     1
 10
0.0
 20
0.0
 30
0.0
  3
*D14
  1

  0
LINE
  5
1A2C
330
DB9
100
AcDbEntity
  8
AM_5
100
AcDbLine
 10
2942.626026914862
 20
1276.346973375992
 30
0.0
 11
2956.126026914862
 21
1276.346973375992
 31
0.0
  0
LINE
  5
1A2D
330
DB9
100
AcDbEntity
  8
AM_5
100
AcDbLine
 10
2943.626026914863
 20
1284.346973375992
 30
0.0
 11
2956.126026914862
 21
1284.346973375992
 31
0.0
  0
LINE
  5
1A2E
330
DB9
100
AcDbEntity
  8
AM_5
100
AcDbLine
 10
2954.626026914862
 20
1273.346973375992
 30
0.0
 11
2954.626026914862
 21
1270.346973375992
 31
0.0
  0
LINE
  5
1A2F
330
DB9
100
AcDbEntity
  8
AM_5
100
AcDbLine
 10
2954.626026914862
 20
1287.346973375992
 30
0.0
 11
2954.626026914862
 21
1290.346973375992
 31
0.0
  0
LINE
  5
1A30
330
DB9
100
AcDbEntity
  8
AM_5
100
AcDbLine
 10
2954.626026914862
 20
1276.346973375992
 30
0.0
 11
2954.626026914862
 21
1284.346973375992
 31
0.0
  0
SOLID
  5
1A31
330
DB9
100
AcDbEntity
  8
AM_5
100
AcDbTrace
 10
2954.126026914863
 20
1273.346973375992
 30
0.0
 11
2955.126026914863
 21
1273.346973375992
 31
0.0
 12
2954.626026914862
 22
1276.346973375992
 32
0.0
 13
2954.626026914862
 23
1276.346973375992
 33
0.0
  0
SOLID
  5
1A32
330
DB9
100
AcDbEntity
  8
AM_5
100
AcDbTrace
 10
2954.126026914863
 20
1287.346973375992
 30
0.0
 11
2955.126026914863
 21
1287.346973375992
 31
0.0
 12
2954.626026914862
 22
1284.346973375992
 32
0.0
 13
2954.626026914862
 23
1284.346973375992
 33
0.0
  0
MTEXT
  5
1A33
330
DB9
100
AcDbEntity
  8
AM_5
100
AcDbMText
 10
2952.126026914862
 20
1280.346973375992
 30
0.0
 40
3.0
 41
0.0
 71
     5
 72
     1
  1
8
  7
CHINESET
 11
0.0000000000000001
 21
1.0
 31
0.0
 73
     1
 44
1.0
1001
ACAD
1000
MTEXTBEGIN
1070
    73
1070
     1
1070
    44
1040
1.0
1070
    74
1070
     0
1000
MTEXTEND
  0
POINT
  5
1A34
330
DB9
100
AcDbEntity
  8
Defpoints
 62
     0
100
AcDbPoint
 10
2941.626026914862
 20
1276.346973375992
 30
0.0
  0
POINT
  5
1A35
330
DB9
100
AcDbEntity
  8
Defpoints
 62
     0
100
AcDbPoint
 10
2942.626026914862
 20
1284.346973375992
 30
0.0
  0
POINT
  5
1A36
330
DB9
100
AcDbEntity
  8
Defpoints
 62
     0
100
AcDbPoint
 10
2954.626026914862
 20
1284.346973375992
 30
0.0
  0
ENDBLK
  5
DC6
330
DB9
100
AcDbEntity
  8
0
100
AcDbBlockEnd
  0
BLOCK
  5
DD1
330
DC7
100
AcDbEntity
  8
0
100
AcDbBlockBegin
  2
*D15
 70
     1
 10
0.0
 20
0.0
 30
0.0
  3
*D15
  1

  0
LINE
  5
1A37
330
DC7
100
AcDbEntity
  8
AM_5
100
AcDbLine
 10
2942.626026914862
 20
1276.346973375992
 30
0.0
 11
2964.126026914863
 21
1276.346973375992
 31
0.0
  0
LINE
  5
1A38
330
DC7
100
AcDbEntity
  8
AM_5
100
AcDbLine
 10
2940.460138400879
 20
1320.846973375992
 30
0.0
 11
2964.126026914863
 21
1320.846973375992
 31
0.0
  0
LINE
  5
1A39
330
DC7
100
AcDbEntity
  8
AM_5
100
AcDbLine
 10
2962.626026914863
 20
1279.346973375992
 30
0.0
 11
2962.626026914863
 21
1317.846973375992
 31
0.0
  0
SOLID
  5
1A3A
330
DC7
100
AcDbEntity
  8
AM_5
100
AcDbTrace
 10
2962.126026914863
 20
1279.346973375992
 30
0.0
 11
2963.126026914863
 21
1279.346973375992
 31
0.0
 12
2962.626026914863
 22
1276.346973375992
 32
0.0
 13
2962.626026914863
 23
1276.346973375992
 33
0.0
  0
SOLID
  5
1A3B
330
DC7
100
AcDbEntity
  8
AM_5
100
AcDbTrace
 10
2962.126026914863
 20
1317.846973375992
 30
0.0
 11
2963.126026914863
 21
1317.846973375992
 31
0.0
 12
2962.626026914863
 22
1320.846973375992
 32
0.0
 13
2962.626026914863
 23
1320.846973375992
 33
0.0
  0
MTEXT
  5
1A3C
330
DC7
100
AcDbEntity
  8
AM_5
100
AcDbMText
 10
2960.126026914862
 20
1298.596973375992
 30
0.0
 40
3.0
 41
0.0
 71
     5
 72
     1
  1
44.5
  7
CHINESET
 11
0.0000000000000001
 21
1.0
 31
0.0
 73
     1
 44
1.0
1001
ACAD
1000
MTEXTBEGIN
1070
    73
1070
     1
1070
    44
1040
1.0
1070
    74
1070
     0
1000
MTEXTEND
  0
POINT
  5
1A3D
330
DC7
100
AcDbEntity
  8
Defpoints
 62
     0
100
AcDbPoint
 10
2941.626026914862
 20
1276.346973375992
 30
0.0
  0
POINT
  5
1A3E
330
DC7
100
AcDbEntity
  8
Defpoints
 62
     0
100
AcDbPoint
 10
2939.460138400879
 20
1320.846973375992
 30
0.0
  0
POINT
  5
1A3F
330
DC7
100
AcDbEntity
  8
Defpoints
 62
     0
100
AcDbPoint
 10
2962.626026914863
 20
1320.846973375992
 30
0.0
  0
ENDBLK
  5
DD2
330
DC7
100
AcDbEntity
  8
0
100
AcDbBlockEnd
  0
BLOCK
  5
DDD
330
DD3
100
AcDbEntity
  8
0
100
AcDbBlockBegin
  2
*D16
 70
     1
 10
0.0
 20
0.0
 30
0.0
  3
*D16
  1

  0
LINE
  5
1A40
330
DD3
100
AcDbEntity
  8
AM_5
100
AcDbLine
 10
2942.626026914862
 20
1276.346973375992
 30
0.0
 11
2972.126026914862
 21
1276.346973375992
 31
0.0
  0
LINE
  5
1A41
330
DD3
100
AcDbEntity
  8
AM_5
100
AcDbLine
 10
2938.126026914863
 20
1328.346973375992
 30
0.0
 11
2972.126026914862
 21
1328.346973375992
 31
0.0
  0
LINE
  5
1A42
330
DD3
100
AcDbEntity
  8
AM_5
100
AcDbLine
 10
2970.626026914862
 20
1279.346973375992
 30
0.0
 11
2970.626026914862
 21
1325.346973375992
 31
0.0
  0
SOLID
  5
1A43
330
DD3
100
AcDbEntity
  8
AM_5
100
AcDbTrace
 10
2970.126026914863
 20
1279.346973375992
 30
0.0
 11
2971.126026914863
 21
1279.346973375992
 31
0.0
 12
2970.626026914862
 22
1276.346973375992
 32
0.0
 13
2970.626026914862
 23
1276.346973375992
 33
0.0
  0
SOLID
  5
1A44
330
DD3
100
AcDbEntity
  8
AM_5
100
AcDbTrace
 10
2970.126026914863
 20
1325.346973375992
 30
0.0
 11
2971.126026914863
 21
1325.346973375992
 31
0.0
 12
2970.626026914862
 22
1328.346973375992
 32
0.0
 13
2970.626026914862
 23
1328.346973375992
 33
0.0
  0
MTEXT
  5
1A45
330
DD3
100
AcDbEntity
  8
AM_5
100
AcDbMText
 10
2968.126026914862
 20
1302.346973375992
 30
0.0
 40
3.0
 41
0.0
 71
     5
 72
     1
  1
52
  7
CHINESET
 11
0.0000000000000001
 21
1.0
 31
0.0
 73
     1
 44
1.0
1001
ACAD
1000
MTEXTBEGIN
1070
    73
1070
     1
1070
    44
1040
1.0
1070
    74
1070
     0
1000
MTEXTEND
  0
POINT
  5
1A46
330
DD3
100
AcDbEntity
  8
Defpoints
 62
     0
100
AcDbPoint
 10
2941.626026914862
 20
1276.346973375992
 30
0.0
  0
POINT
  5
1A47
330
DD3
100
AcDbEntity
  8
Defpoints
 62
     0
100
AcDbPoint
 10
2937.126026914862
 20
1328.346973375992
 30
0.0
  0
POINT
  5
1A48
330
DD3
100
AcDbEntity
  8
Defpoints
 62
     0
100
AcDbPoint
 10
2970.626026914862
 20
1328.346973375992
 30
0.0
  0
ENDBLK
  5
DDE
330
DD3
100
AcDbEntity
  8
0
100
AcDbBlockEnd
  0
BLOCK
  5
DE9
330
DDF
100
AcDbEntity
  8
0
100
AcDbBlockBegin
  2
*D17
 70
     1
 10
0.0
 20
0.0
 30
0.0
  3
*D17
  1

  0
LINE
  5
1A49
330
DDF
100
AcDbEntity
  8
AM_5
100
AcDbLine
 10
2917.126026914863
 20
1283.846973375992
 30
0.0
 11
2917.126026914863
 21
1262.846973375992
 31
0.0
  0
LINE
  5
1A4A
330
DDF
100
AcDbEntity
  8
AM_5
100
AcDbLine
 10
2942.626026914862
 20
1282.846973375992
 30
0.0
 11
2942.626026914862
 21
1262.846973375992
 31
0.0
  0
LINE
  5
1A4B
330
DDF
100
AcDbEntity
  8
AM_5
100
AcDbLine
 10
2920.126026914863
 20
1264.346973375992
 30
0.0
 11
2939.626026914863
 21
1264.346973375992
 31
0.0
  0
SOLID
  5
1A4C
330
DDF
100
AcDbEntity
  8
AM_5
100
AcDbTrace
 10
2920.126026914863
 20
1264.846973375992
 30
0.0
 11
2920.126026914863
 21
1263.846973375992
 31
0.0
 12
2917.126026914863
 22
1264.346973375992
 32
0.0
 13
2917.126026914863
 23
1264.346973375992
 33
0.0
  0
SOLID
  5
1A4D
330
DDF
100
AcDbEntity
  8
AM_5
100
AcDbTrace
 10
2939.626026914863
 20
1264.846973375992
 30
0.0
 11
2939.626026914863
 21
1263.846973375992
 31
0.0
 12
2942.626026914862
 22
1264.346973375992
 32
0.0
 13
2942.626026914862
 23
1264.346973375992
 33
0.0
  0
MTEXT
  5
1A4E
330
DDF
100
AcDbEntity
  8
AM_5
100
AcDbMText
 10
2929.876026914863
 20
1266.846973375992
 30
0.0
 40
3.0
 41
0.0
 71
     5
 72
     1
  1
M25.5X1.5
  7
CHINESET
 73
     1
 44
1.0
1001
ACAD
1000
MTEXTBEGIN
1070
    73
1070
     1
1070
    44
1040
1.0
1070
    74
1070
     0
1000
MTEXTEND
  0
POINT
  5
1A4F
330
DDF
100
AcDbEntity
  8
Defpoints
 62
     0
100
AcDbPoint
 10
2917.126026914863
 20
1284.846973375992
 30
0.0
  0
POINT
  5
1A50
330
DDF
100
AcDbEntity
  8
Defpoints
 62
     0
100
AcDbPoint
 10
2942.626026914862
 20
1283.846973375992
 30
0.0
  0
POINT
  5
1A51
330
DDF
100
AcDbEntity
  8
Defpoints
 62
     0
100
AcDbPoint
 10
2942.626026914862
 20
1264.346973375992
 30
0.0
  0
ENDBLK
  5
DEA
330
DDF
100
AcDbEntity
  8
0
100
AcDbBlockEnd
  0
BLOCK
  5
F38
330
F2C
100
AcDbEntity
  8
0
100
AcDbBlockBegin
  2
*D18
 70
     1
 10
0.0
 20
0.0
 30
0.0
  3
*D18
  1

  0
LINE
  5
1BCA
330
F2C
100
AcDbEntity
  8
AM_5
100
AcDbLine
 10
2594.128376664839
 20
1085.491839212158
 30
0.0
 11
2607.628376664839
 21
1085.491839212158
 31
0.0
  0
LINE
  5
1BCB
330
F2C
100
AcDbEntity
  8
AM_5
100
AcDbLine
 10
2595.128376664839
 20
1093.491839212158
 30
0.0
 11
2607.628376664839
 21
1093.491839212158
 31
0.0
  0
LINE
  5
1BCC
330
F2C
100
AcDbEntity
  8
AM_5
100
AcDbLine
 10
2606.128376664839
 20
1082.491839212158
 30
0.0
 11
2606.128376664839
 21
1079.491839212158
 31
0.0
  0
LINE
  5
1BCD
330
F2C
100
AcDbEntity
  8
AM_5
100
AcDbLine
 10
2606.128376664839
 20
1096.491839212158
 30
0.0
 11
2606.128376664839
 21
1099.491839212158
 31
0.0
  0
LINE
  5
1BCE
330
F2C
100
AcDbEntity
  8
AM_5
100
AcDbLine
 10
2606.128376664839
 20
1085.491839212158
 30
0.0
 11
2606.128376664839
 21
1093.491839212158
 31
0.0
  0
SOLID
  5
1BCF
330
F2C
100
AcDbEntity
  8
AM_5
100
AcDbTrace
 10
2605.628376664839
 20
1082.491839212158
 30
0.0
 11
2606.628376664839
 21
1082.491839212158
 31
0.0
 12
2606.128376664839
 22
1085.491839212158
 32
0.0
 13
2606.128376664839
 23
1085.491839212158
 33
0.0
  0
SOLID
  5
1BD0
330
F2C
100
AcDbEntity
  8
AM_5
100
AcDbTrace
 10
2605.628376664839
 20
1096.491839212158
 30
0.0
 11
2606.628376664839
 21
1096.491839212158
 31
0.0
 12
2606.128376664839
 22
1093.491839212158
 32
0.0
 13
2606.128376664839
 23
1093.491839212158
 33
0.0
  0
MTEXT
  5
1BD1
330
F2C
100
AcDbEntity
  8
AM_5
100
AcDbMText
 10
2603.628376664838
 20
1089.491839212158
 30
0.0
 40
3.0
 41
0.0
 71
     5
 72
     1
  1
8
  7
CHINESET
 11
0.0000000000000001
 21
1.0
 31
0.0
 73
     1
 44
1.0
1001
ACAD
1000
MTEXTBEGIN
1070
    73
1070
     1
1070
    44
1040
1.0
1070
    74
1070
     0
1000
MTEXTEND
  0
POINT
  5
1BD2
330
F2C
100
AcDbEntity
  8
Defpoints
 62
     0
100
AcDbPoint
 10
2593.128376664839
 20
1085.491839212158
 30
0.0
  0
POINT
  5
1BD3
330
F2C
100
AcDbEntity
  8
Defpoints
 62
     0
100
AcDbPoint
 10
2594.128376664839
 20
1093.491839212158
 30
0.0
  0
POINT
  5
1BD4
330
F2C
100
AcDbEntity
  8
Defpoints
 62
     0
100
AcDbPoint
 10
2606.128376664839
 20
1093.491839212158
 30
0.0
  0
ENDBLK
  5
F39
330
F2C
100
AcDbEntity
  8
0
100
AcDbBlockEnd
  0
BLOCK
  5
F44
330
F3A
100
AcDbEntity
  8
0
100
AcDbBlockBegin
  2
*D19
 70
     1
 10
0.0
 20
0.0
 30
0.0
  3
*D19
  1

  0
LINE
  5
1BD5
330
F3A
100
AcDbEntity
  8
AM_5
100
AcDbLine
 10
2594.128376664839
 20
1085.491839212158
 30
0.0
 11
2615.628376664839
 21
1085.491839212158
 31
0.0
  0
LINE
  5
1BD6
330
F3A
100
AcDbEntity
  8
AM_5
100
AcDbLine
 10
2592.067931356301
 20
1139.491839212158
 30
0.0
 11
2615.628376664839
 21
1139.491839212158
 31
0.0
  0
LINE
  5
1BD7
330
F3A
100
AcDbEntity
  8
AM_5
100
AcDbLine
 10
2614.128376664839
 20
1088.491839212158
 30
0.0
 11
2614.128376664839
 21
1136.491839212158
 31
0.0
  0
SOLID
  5
1BD8
330
F3A
100
AcDbEntity
  8
AM_5
100
AcDbTrace
 10
2613.628376664839
 20
1088.491839212158
 30
0.0
 11
2614.628376664839
 21
1088.491839212158
 31
0.0
 12
2614.128376664839
 22
1085.491839212158
 32
0.0
 13
2614.128376664839
 23
1085.491839212158
 33
0.0
  0
SOLID
  5
1BD9
330
F3A
100
AcDbEntity
  8
AM_5
100
AcDbTrace
 10
2613.628376664839
 20
1136.491839212158
 30
0.0
 11
2614.628376664839
 21
1136.491839212158
 31
0.0
 12
2614.128376664839
 22
1139.491839212158
 32
0.0
 13
2614.128376664839
 23
1139.491839212158
 33
0.0
  0
MTEXT
  5
1BDA
330
F3A
100
AcDbEntity
  8
AM_5
100
AcDbMText
 10
2611.628376664839
 20
1112.491839212158
 30
0.0
 40
3.0
 41
0.0
 71
     5
 72
     1
  1
54
  7
CHINESET
 11
0.0000000000000001
 21
1.0
 31
0.0
 73
     1
 44
1.0
1001
ACAD
1000
MTEXTBEGIN
1070
    73
1070
     1
1070
    44
1040
1.0
1070
    74
1070
     0
1000
MTEXTEND
  0
POINT
  5
1BDB
330
F3A
100
AcDbEntity
  8
Defpoints
 62
     0
100
AcDbPoint
 10
2593.128376664839
 20
1085.491839212158
 30
0.0
  0
POINT
  5
1BDC
330
F3A
100
AcDbEntity
  8
Defpoints
 62
     0
100
AcDbPoint
 10
2591.067931356301
 20
1139.491839212158
 30
0.0
  0
POINT
  5
1BDD
330
F3A
100
AcDbEntity
  8
Defpoints
 62
     0
100
AcDbPoint
 10
2614.128376664839
 20
1139.491839212158
 30
0.0
  0
ENDBLK
  5
F45
330
F3A
100
AcDbEntity
  8
0
100
AcDbBlockEnd
  0
BLOCK
  5
F50
330
F46
100
AcDbEntity
  8
0
100
AcDbBlockBegin
  2
*D20
 70
     1
 10
0.0
 20
0.0
 30
0.0
  3
*D20
  1

  0
LINE
  5
1BDE
330
F46
100
AcDbEntity
  8
AM_5
100
AcDbLine
 10
2594.128376664839
 20
1085.491839212158
 30
0.0
 11
2623.628376664839
 21
1085.491839212158
 31
0.0
  0
LINE
  5
1BDF
330
F46
100
AcDbEntity
  8
AM_5
100
AcDbLine
 10
2580.628376664839
 20
1141.491839212158
 30
0.0
 11
2623.628376664839
 21
1141.491839212158
 31
0.0
  0
LINE
  5
1BE0
330
F46
100
AcDbEntity
  8
AM_5
100
AcDbLine
 10
2622.128376664839
 20
1088.491839212158
 30
0.0
 11
2622.128376664839
 21
1138.491839212158
 31
0.0
  0
SOLID
  5
1BE1
330
F46
100
AcDbEntity
  8
AM_5
100
AcDbTrace
 10
2621.628376664839
 20
1088.491839212158
 30
0.0
 11
2622.628376664839
 21
1088.491839212158
 31
0.0
 12
2622.128376664839
 22
1085.491839212158
 32
0.0
 13
2622.128376664839
 23
1085.491839212158
 33
0.0
  0
SOLID
  5
1BE2
330
F46
100
AcDbEntity
  8
AM_5
100
AcDbTrace
 10
2621.628376664839
 20
1138.491839212158
 30
0.0
 11
2622.628376664839
 21
1138.491839212158
 31
0.0
 12
2622.128376664839
 22
1141.491839212158
 32
0.0
 13
2622.128376664839
 23
1141.491839212158
 33
0.0
  0
MTEXT
  5
1BE3
330
F46
100
AcDbEntity
  8
AM_5
100
AcDbMText
 10
2619.628376664838
 20
1113.491839212158
 30
0.0
 40
3.0
 41
0.0
 71
     5
 72
     1
  1
56
  7
CHINESET
 11
0.0000000000000001
 21
1.0
 31
0.0
 73
     1
 44
1.0
1001
ACAD
1000
MTEXTBEGIN
1070
    73
1070
     1
1070
    44
1040
1.0
1070
    74
1070
     0
1000
MTEXTEND
  0
POINT
  5
1BE4
330
F46
100
AcDbEntity
  8
Defpoints
 62
     0
100
AcDbPoint
 10
2593.128376664839
 20
1085.491839212158
 30
0.0
  0
POINT
  5
1BE5
330
F46
100
AcDbEntity
  8
Defpoints
 62
     0
100
AcDbPoint
 10
2579.628376664839
 20
1141.491839212158
 30
0.0
  0
POINT
  5
1BE6
330
F46
100
AcDbEntity
  8
Defpoints
 62
     0
100
AcDbPoint
 10
2622.128376664839
 20
1141.491839212158
 30
0.0
  0
ENDBLK
  5
F51
330
F46
100
AcDbEntity
  8
0
100
AcDbBlockEnd
  0
BLOCK
  5
F5C
330
F52
100
AcDbEntity
  8
0
100
AcDbBlockBegin
  2
*D21
 70
     1
 10
0.0
 20
0.0
 30
0.0
  3
*D21
  1

  0
LINE
  5
1BE7
330
F52
100
AcDbEntity
  8
AM_5
100
AcDbLine
 10
2564.628376664839
 20
1092.991839212158
 30
0.0
 11
2564.628376664839
 21
1071.991839212158
 31
0.0
  0
LINE
  5
1BE8
330
F52
100
AcDbEntity
  8
AM_5
100
AcDbLine
 10
2594.628376664839
 20
1092.991839212158
 30
0.0
 11
2594.628376664839
 21
1071.991839212158
 31
0.0
  0
LINE
  5
1BE9
330
F52
100
AcDbEntity
  8
AM_5
100
AcDbLine
 10
2567.628376664839
 20
1073.491839212158
 30
0.0
 11
2591.628376664839
 21
1073.491839212158
 31
0.0
  0
SOLID
  5
1BEA
330
F52
100
AcDbEntity
  8
AM_5
100
AcDbTrace
 10
2567.628376664839
 20
1073.991839212158
 30
0.0
 11
2567.628376664839
 21
1072.991839212158
 31
0.0
 12
2564.628376664839
 22
1073.491839212158
 32
0.0
 13
2564.628376664839
 23
1073.491839212158
 33
0.0
  0
SOLID
  5
1BEB
330
F52
100
AcDbEntity
  8
AM_5
100
AcDbTrace
 10
2591.628376664839
 20
1073.991839212158
 30
0.0
 11
2591.628376664839
 21
1072.991839212158
 31
0.0
 12
2594.628376664839
 22
1073.491839212158
 32
0.0
 13
2594.628376664839
 23
1073.491839212158
 33
0.0
  0
MTEXT
  5
1BEC
330
F52
100
AcDbEntity
  8
AM_5
100
AcDbMText
 10
2579.628376664839
 20
1075.991839212158
 30
0.0
 40
3.0
 41
0.0
 71
     5
 72
     1
  1
M30X1.5
  7
CHINESET
 73
     1
 44
1.0
1001
ACAD
1000
MTEXTBEGIN
1070
    73
1070
     1
1070
    44
1040
1.0
1070
    74
1070
     0
1000
MTEXTEND
  0
POINT
  5
1BED
330
F52
100
AcDbEntity
  8
Defpoints
 62
     0
100
AcDbPoint
 10
2564.628376664839
 20
1093.991839212158
 30
0.0
  0
POINT
  5
1BEE
330
F52
100
AcDbEntity
  8
Defpoints
 62
     0
100
AcDbPoint
 10
2594.628376664839
 20
1093.991839212158
 30
0.0
  0
POINT
  5
1BEF
330
F52
100
AcDbEntity
  8
Defpoints
 62
     0
100
AcDbPoint
 10
2594.628376664839
 20
1073.491839212158
 30
0.0
  0
ENDBLK
  5
F5D
330
F52
100
AcDbEntity
  8
0
100
AcDbBlockEnd
  0
BLOCK
  5
1075
330
1069
100
AcDbEntity
  8
0
100
AcDbBlockBegin
  2
*D22
 70
     1
 10
0.0
 20
0.0
 30
0.0
  3
*D22
  1

  0
LINE
  5
1BF0
330
1069
100
AcDbEntity
  8
AM_5
100
AcDbLine
 10
2674.975069266624
 20
1085.491839212158
 30
0.0
 11
2688.475069266624
 21
1085.491839212158
 31
0.0
  0
LINE
  5
1BF1
330
1069
100
AcDbEntity
  8
AM_5
100
AcDbLine
 10
2675.975069266624
 20
1093.491839212158
 30
0.0
 11
2688.475069266624
 21
1093.491839212158
 31
0.0
  0
LINE
  5
1BF2
330
1069
100
AcDbEntity
  8
AM_5
100
AcDbLine
 10
2686.975069266624
 20
1082.491839212158
 30
0.0
 11
2686.975069266624
 21
1079.491839212158
 31
0.0
  0
LINE
  5
1BF3
330
1069
100
AcDbEntity
  8
AM_5
100
AcDbLine
 10
2686.975069266624
 20
1096.491839212158
 30
0.0
 11
2686.975069266624
 21
1099.491839212158
 31
0.0
  0
LINE
  5
1BF4
330
1069
100
AcDbEntity
  8
AM_5
100
AcDbLine
 10
2686.975069266624
 20
1085.491839212158
 30
0.0
 11
2686.975069266624
 21
1093.491839212158
 31
0.0
  0
SOLID
  5
1BF5
330
1069
100
AcDbEntity
  8
AM_5
100
AcDbTrace
 10
2686.475069266624
 20
1082.491839212158
 30
0.0
 11
2687.475069266624
 21
1082.491839212158
 31
0.0
 12
2686.975069266624
 22
1085.491839212158
 32
0.0
 13
2686.975069266624
 23
1085.491839212158
 33
0.0
  0
SOLID
  5
1BF6
330
1069
100
AcDbEntity
  8
AM_5
100
AcDbTrace
 10
2686.475069266624
 20
1096.491839212158
 30
0.0
 11
2687.475069266624
 21
1096.491839212158
 31
0.0
 12
2686.975069266624
 22
1093.491839212158
 32
0.0
 13
2686.975069266624
 23
1093.491839212158
 33
0.0
  0
MTEXT
  5
1BF7
330
1069
100
AcDbEntity
  8
AM_5
100
AcDbMText
 10
2684.475069266623
 20
1089.491839212158
 30
0.0
 40
3.0
 41
0.0
 71
     5
 72
     1
  1
8
  7
CHINESET
 11
0.0000000000000001
 21
1.0
 31
0.0
 73
     1
 44
1.0
1001
ACAD
1000
MTEXTBEGIN
1070
    73
1070
     1
1070
    44
1040
1.0
1070
    74
1070
     0
1000
MTEXTEND
  0
POINT
  5
1BF8
330
1069
100
AcDbEntity
  8
Defpoints
 62
     0
100
AcDbPoint
 10
2673.975069266624
 20
1085.491839212158
 30
0.0
  0
POINT
  5
1BF9
330
1069
100
AcDbEntity
  8
Defpoints
 62
     0
100
AcDbPoint
 10
2674.975069266624
 20
1093.491839212158
 30
0.0
  0
POINT
  5
1BFA
330
1069
100
AcDbEntity
  8
Defpoints
 62
     0
100
AcDbPoint
 10
2686.975069266624
 20
1093.491839212158
 30
0.0
  0
ENDBLK
  5
1076
330
1069
100
AcDbEntity
  8
0
100
AcDbBlockEnd
  0
BLOCK
  5
1081
330
1077
100
AcDbEntity
  8
0
100
AcDbBlockBegin
  2
*D23
 70
     1
 10
0.0
 20
0.0
 30
0.0
  3
*D23
  1

  0
LINE
  5
1BFB
330
1077
100
AcDbEntity
  8
AM_5
100
AcDbLine
 10
2674.975069266624
 20
1085.491839212158
 30
0.0
 11
2696.475069266624
 21
1085.491839212158
 31
0.0
  0
LINE
  5
1BFC
330
1077
100
AcDbEntity
  8
AM_5
100
AcDbLine
 10
2672.914623958086
 20
1139.491839212158
 30
0.0
 11
2696.475069266624
 21
1139.491839212158
 31
0.0
  0
LINE
  5
1BFD
330
1077
100
AcDbEntity
  8
AM_5
100
AcDbLine
 10
2694.975069266624
 20
1088.491839212158
 30
0.0
 11
2694.975069266624
 21
1136.491839212158
 31
0.0
  0
SOLID
  5
1BFE
330
1077
100
AcDbEntity
  8
AM_5
100
AcDbTrace
 10
2694.475069266624
 20
1088.491839212158
 30
0.0
 11
2695.475069266624
 21
1088.491839212158
 31
0.0
 12
2694.975069266624
 22
1085.491839212158
 32
0.0
 13
2694.975069266624
 23
1085.491839212158
 33
0.0
  0
SOLID
  5
1BFF
330
1077
100
AcDbEntity
  8
AM_5
100
AcDbTrace
 10
2694.475069266624
 20
1136.491839212158
 30
0.0
 11
2695.475069266624
 21
1136.491839212158
 31
0.0
 12
2694.975069266624
 22
1139.491839212158
 32
0.0
 13
2694.975069266624
 23
1139.491839212158
 33
0.0
  0
MTEXT
  5
1C00
330
1077
100
AcDbEntity
  8
AM_5
100
AcDbMText
 10
2692.475069266624
 20
1112.491839212158
 30
0.0
 40
3.0
 41
0.0
 71
     5
 72
     1
  1
54
  7
CHINESET
 11
0.0000000000000001
 21
1.0
 31
0.0
 73
     1
 44
1.0
1001
ACAD
1000
MTEXTBEGIN
1070
    73
1070
     1
1070
    44
1040
1.0
1070
    74
1070
     0
1000
MTEXTEND
  0
POINT
  5
1C01
330
1077
100
AcDbEntity
  8
Defpoints
 62
     0
100
AcDbPoint
 10
2673.975069266624
 20
1085.491839212158
 30
0.0
  0
POINT
  5
1C02
330
1077
100
AcDbEntity
  8
Defpoints
 62
     0
100
AcDbPoint
 10
2671.914623958086
 20
1139.491839212158
 30
0.0
  0
POINT
  5
1C03
330
1077
100
AcDbEntity
  8
Defpoints
 62
     0
100
AcDbPoint
 10
2694.975069266624
 20
1139.491839212158
 30
0.0
  0
ENDBLK
  5
1082
330
1077
100
AcDbEntity
  8
0
100
AcDbBlockEnd
  0
BLOCK
  5
108D
330
1083
100
AcDbEntity
  8
0
100
AcDbBlockBegin
  2
*D24
 70
     1
 10
0.0
 20
0.0
 30
0.0
  3
*D24
  1

  0
LINE
  5
1C04
330
1083
100
AcDbEntity
  8
AM_5
100
AcDbLine
 10
2674.975069266624
 20
1085.491839212158
 30
0.0
 11
2704.475069266624
 21
1085.491839212158
 31
0.0
  0
LINE
  5
1C05
330
1083
100
AcDbEntity
  8
AM_5
100
AcDbLine
 10
2670.475069266624
 20
1149.991839212158
 30
0.0
 11
2704.475069266624
 21
1149.991839212158
 31
0.0
  0
LINE
  5
1C06
330
1083
100
AcDbEntity
  8
AM_5
100
AcDbLine
 10
2702.975069266624
 20
1088.491839212158
 30
0.0
 11
2702.975069266624
 21
1146.991839212158
 31
0.0
  0
SOLID
  5
1C07
330
1083
100
AcDbEntity
  8
AM_5
100
AcDbTrace
 10
2702.475069266624
 20
1088.491839212158
 30
0.0
 11
2703.475069266624
 21
1088.491839212158
 31
0.0
 12
2702.975069266624
 22
1085.491839212158
 32
0.0
 13
2702.975069266624
 23
1085.491839212158
 33
0.0
  0
SOLID
  5
1C08
330
1083
100
AcDbEntity
  8
AM_5
100
AcDbTrace
 10
2702.475069266624
 20
1146.991839212158
 30
0.0
 11
2703.475069266624
 21
1146.991839212158
 31
0.0
 12
2702.975069266624
 22
1149.991839212158
 32
0.0
 13
2702.975069266624
 23
1149.991839212158
 33
0.0
  0
MTEXT
  5
1C09
330
1083
100
AcDbEntity
  8
AM_5
100
AcDbMText
 10
2700.475069266623
 20
1117.741839212158
 30
0.0
 40
3.0
 41
0.0
 71
     5
 72
     1
  1
64.5
  7
CHINESET
 11
0.0000000000000001
 21
1.0
 31
0.0
 73
     1
 44
1.0
1001
ACAD
1000
MTEXTBEGIN
1070
    73
1070
     1
1070
    44
1040
1.0
1070
    74
1070
     0
1000
MTEXTEND
  0
POINT
  5
1C0A
330
1083
100
AcDbEntity
  8
Defpoints
 62
     0
100
AcDbPoint
 10
2673.975069266624
 20
1085.491839212158
 30
0.0
  0
POINT
  5
1C0B
330
1083
100
AcDbEntity
  8
Defpoints
 62
     0
100
AcDbPoint
 10
2669.475069266624
 20
1149.991839212158
 30
0.0
  0
POINT
  5
1C0C
330
1083
100
AcDbEntity
  8
Defpoints
 62
     0
100
AcDbPoint
 10
2702.975069266624
 20
1149.991839212158
 30
0.0
  0
ENDBLK
  5
108E
330
1083
100
AcDbEntity
  8
0
100
AcDbBlockEnd
  0
BLOCK
  5
1099
330
108F
100
AcDbEntity
  8
0
100
AcDbBlockBegin
  2
*D25
 70
     1
 10
0.0
 20
0.0
 30
0.0
  3
*D25
  1

  0
LINE
  5
1C0D
330
108F
100
AcDbEntity
  8
AM_5
100
AcDbLine
 10
2645.475069266624
 20
1092.991839212158
 30
0.0
 11
2645.475069266624
 21
1071.991839212158
 31
0.0
  0
LINE
  5
1C0E
330
108F
100
AcDbEntity
  8
AM_5
100
AcDbLine
 10
2675.475069266624
 20
1092.991839212158
 30
0.0
 11
2675.475069266624
 21
1071.991839212158
 31
0.0
  0
LINE
  5
1C0F
330
108F
100
AcDbEntity
  8
AM_5
100
AcDbLine
 10
2648.475069266624
 20
1073.491839212158
 30
0.0
 11
2672.475069266624
 21
1073.491839212158
 31
0.0
  0
SOLID
  5
1C10
330
108F
100
AcDbEntity
  8
AM_5
100
AcDbTrace
 10
2648.475069266624
 20
1073.991839212158
 30
0.0
 11
2648.475069266624
 21
1072.991839212158
 31
0.0
 12
2645.475069266624
 22
1073.491839212158
 32
0.0
 13
2645.475069266624
 23
1073.491839212158
 33
0.0
  0
SOLID
  5
1C11
330
108F
100
AcDbEntity
  8
AM_5
100
AcDbTrace
 10
2672.475069266624
 20
1073.991839212158
 30
0.0
 11
2672.475069266624
 21
1072.991839212158
 31
0.0
 12
2675.475069266624
 22
1073.491839212158
 32
0.0
 13
2675.475069266624
 23
1073.491839212158
 33
0.0
  0
MTEXT
  5
1C12
330
108F
100
AcDbEntity
  8
AM_5
100
AcDbMText
 10
2660.475069266624
 20
1075.991839212158
 30
0.0
 40
3.0
 41
0.0
 71
     5
 72
     1
  1
M30X1.5
  7
CHINESET
 73
     1
 44
1.0
1001
ACAD
1000
MTEXTBEGIN
1070
    73
1070
     1
1070
    44
1040
1.0
1070
    74
1070
     0
1000
MTEXTEND
  0
POINT
  5
1C13
330
108F
100
AcDbEntity
  8
Defpoints
 62
     0
100
AcDbPoint
 10
2645.475069266624
 20
1093.991839212158
 30
0.0
  0
POINT
  5
1C14
330
108F
100
AcDbEntity
  8
Defpoints
 62
     0
100
AcDbPoint
 10
2675.475069266624
 20
1093.991839212158
 30
0.0
  0
POINT
  5
1C15
330
108F
100
AcDbEntity
  8
Defpoints
 62
     0
100
AcDbPoint
 10
2675.475069266624
 20
1073.491839212158
 30
0.0
  0
ENDBLK
  5
109A
330
108F
100
AcDbEntity
  8
0
100
AcDbBlockEnd
  0
BLOCK
  5
1192
330
1186
100
AcDbEntity
  8
0
100
AcDbBlockBegin
  2
*D26
 70
     1
 10
0.0
 20
0.0
 30
0.0
  3
*D26
  1

  0
LINE
  5
1A9E
330
1186
100
AcDbEntity
  8
AM_5
100
AcDbLine
 10
2863.711171359333
 20
1085.491839212158
 30
0.0
 11
2877.211171359333
 21
1085.491839212158
 31
0.0
  0
LINE
  5
1A9F
330
1186
100
AcDbEntity
  8
AM_5
100
AcDbLine
 10
2865.211171359333
 20
1096.491839212158
 30
0.0
 11
2877.211171359333
 21
1096.491839212158
 31
0.0
  0
LINE
  5
1AA0
330
1186
100
AcDbEntity
  8
AM_5
100
AcDbLine
 10
2875.711171359333
 20
1088.491839212158
 30
0.0
 11
2875.711171359333
 21
1093.491839212158
 31
0.0
  0
SOLID
  5
1AA1
330
1186
100
AcDbEntity
  8
AM_5
100
AcDbTrace
 10
2875.211171359333
 20
1088.491839212158
 30
0.0
 11
2876.211171359333
 21
1088.491839212158
 31
0.0
 12
2875.711171359333
 22
1085.491839212158
 32
0.0
 13
2875.711171359333
 23
1085.491839212158
 33
0.0
  0
SOLID
  5
1AA2
330
1186
100
AcDbEntity
  8
AM_5
100
AcDbTrace
 10
2875.211171359333
 20
1093.491839212158
 30
0.0
 11
2876.211171359333
 21
1093.491839212158
 31
0.0
 12
2875.711171359333
 22
1096.491839212158
 32
0.0
 13
2875.711171359333
 23
1096.491839212158
 33
0.0
  0
MTEXT
  5
1AA3
330
1186
100
AcDbEntity
  8
AM_5
100
AcDbMText
 10
2873.211171359332
 20
1090.991839212158
 30
0.0
 40
3.0
 41
0.0
 71
     5
 72
     1
  1
11
  7
CHINESET
 11
0.0000000000000001
 21
1.0
 31
0.0
 73
     1
 44
1.0
1001
ACAD
1000
MTEXTBEGIN
1070
    73
1070
     1
1070
    44
1040
1.0
1070
    74
1070
     0
1000
MTEXTEND
  0
POINT
  5
1AA4
330
1186
100
AcDbEntity
  8
Defpoints
 62
     0
100
AcDbPoint
 10
2862.711171359333
 20
1085.491839212158
 30
0.0
  0
POINT
  5
1AA5
330
1186
100
AcDbEntity
  8
Defpoints
 62
     0
100
AcDbPoint
 10
2864.211171359333
 20
1096.491839212158
 30
0.0
  0
POINT
  5
1AA6
330
1186
100
AcDbEntity
  8
Defpoints
 62
     0
100
AcDbPoint
 10
2875.711171359333
 20
1096.491839212158
 30
0.0
  0
ENDBLK
  5
1193
330
1186
100
AcDbEntity
  8
0
100
AcDbBlockEnd
  0
BLOCK
  5
119E
330
1194
100
AcDbEntity
  8
0
100
AcDbBlockBegin
  2
*D27
 70
     1
 10
0.0
 20
0.0
 30
0.0
  3
*D27
  1

  0
LINE
  5
1AA7
330
1194
100
AcDbEntity
  8
AM_5
100
AcDbLine
 10
2863.711171359333
 20
1085.491839212158
 30
0.0
 11
2885.211171359333
 21
1085.491839212158
 31
0.0
  0
LINE
  5
1AA8
330
1194
100
AcDbEntity
  8
AM_5
100
AcDbLine
 10
2860.241966006473
 20
1140.491839212158
 30
0.0
 11
2885.211171359333
 21
1140.491839212158
 31
0.0
  0
LINE
  5
1AA9
330
1194
100
AcDbEntity
  8
AM_5
100
AcDbLine
 10
2883.711171359333
 20
1088.491839212158
 30
0.0
 11
2883.711171359333
 21
1137.491839212158
 31
0.0
  0
SOLID
  5
1AAA
330
1194
100
AcDbEntity
  8
AM_5
100
AcDbTrace
 10
2883.211171359333
 20
1088.491839212158
 30
0.0
 11
2884.211171359332
 21
1088.491839212158
 31
0.0
 12
2883.711171359333
 22
1085.491839212158
 32
0.0
 13
2883.711171359333
 23
1085.491839212158
 33
0.0
  0
SOLID
  5
1AAB
330
1194
100
AcDbEntity
  8
AM_5
100
AcDbTrace
 10
2883.211171359333
 20
1137.491839212158
 30
0.0
 11
2884.211171359332
 21
1137.491839212158
 31
0.0
 12
2883.711171359333
 22
1140.491839212158
 32
0.0
 13
2883.711171359333
 23
1140.491839212158
 33
0.0
  0
MTEXT
  5
1AAC
330
1194
100
AcDbEntity
  8
AM_5
100
AcDbMText
 10
2881.211171359332
 20
1112.991839212158
 30
0.0
 40
3.0
 41
0.0
 71
     5
 72
     1
  1
55
  7
CHINESET
 11
0.0000000000000001
 21
1.0
 31
0.0
 73
     1
 44
1.0
1001
ACAD
1000
MTEXTBEGIN
1070
    73
1070
     1
1070
    44
1040
1.0
1070
    74
1070
     0
1000
MTEXTEND
  0
POINT
  5
1AAD
330
1194
100
AcDbEntity
  8
Defpoints
 62
     0
100
AcDbPoint
 10
2862.711171359333
 20
1085.491839212158
 30
0.0
  0
POINT
  5
1AAE
330
1194
100
AcDbEntity
  8
Defpoints
 62
     0
100
AcDbPoint
 10
2859.241966006473
 20
1140.491839212158
 30
0.0
  0
POINT
  5
1AAF
330
1194
100
AcDbEntity
  8
Defpoints
 62
     0
100
AcDbPoint
 10
2883.711171359333
 20
1140.491839212158
 30
0.0
  0
ENDBLK
  5
119F
330
1194
100
AcDbEntity
  8
0
100
AcDbBlockEnd
  0
BLOCK
  5
11AA
330
11A0
100
AcDbEntity
  8
0
100
AcDbBlockBegin
  2
*D28
 70
     1
 10
0.0
 20
0.0
 30
0.0
  3
*D28
  1

  0
LINE
  5
1AB0
330
11A0
100
AcDbEntity
  8
AM_5
100
AcDbLine
 10
2863.711171359333
 20
1085.491839212158
 30
0.0
 11
2893.211171359333
 21
1085.491839212158
 31
0.0
  0
LINE
  5
1AB1
330
11A0
100
AcDbEntity
  8
AM_5
100
AcDbLine
 10
2846.711171359333
 20
1142.491839212158
 30
0.0
 11
2893.211171359333
 21
1142.491839212158
 31
0.0
  0
LINE
  5
1AB2
330
11A0
100
AcDbEntity
  8
AM_5
100
AcDbLine
 10
2891.711171359333
 20
1088.491839212158
 30
0.0
 11
2891.711171359333
 21
1139.491839212158
 31
0.0
  0
SOLID
  5
1AB3
330
11A0
100
AcDbEntity
  8
AM_5
100
AcDbTrace
 10
2891.211171359333
 20
1088.491839212158
 30
0.0
 11
2892.211171359333
 21
1088.491839212158
 31
0.0
 12
2891.711171359333
 22
1085.491839212158
 32
0.0
 13
2891.711171359333
 23
1085.491839212158
 33
0.0
  0
SOLID
  5
1AB4
330
11A0
100
AcDbEntity
  8
AM_5
100
AcDbTrace
 10
2891.211171359333
 20
1139.491839212158
 30
0.0
 11
2892.211171359333
 21
1139.491839212158
 31
0.0
 12
2891.711171359333
 22
1142.491839212158
 32
0.0
 13
2891.711171359333
 23
1142.491839212158
 33
0.0
  0
MTEXT
  5
1AB5
330
11A0
100
AcDbEntity
  8
AM_5
100
AcDbMText
 10
2889.211171359333
 20
1113.991839212158
 30
0.0
 40
3.0
 41
0.0
 71
     5
 72
     1
  1
57
  7
CHINESET
 11
0.0000000000000001
 21
1.0
 31
0.0
 73
     1
 44
1.0
1001
ACAD
1000
MTEXTBEGIN
1070
    73
1070
     1
1070
    44
1040
1.0
1070
    74
1070
     0
1000
MTEXTEND
  0
POINT
  5
1AB6
330
11A0
100
AcDbEntity
  8
Defpoints
 62
     0
100
AcDbPoint
 10
2862.711171359333
 20
1085.491839212158
 30
0.0
  0
POINT
  5
1AB7
330
11A0
100
AcDbEntity
  8
Defpoints
 62
     0
100
AcDbPoint
 10
2845.711171359333
 20
1142.491839212158
 30
0.0
  0
POINT
  5
1AB8
330
11A0
100
AcDbEntity
  8
Defpoints
 62
     0
100
AcDbPoint
 10
2891.711171359333
 20
1142.491839212158
 30
0.0
  0
ENDBLK
  5
11AB
330
11A0
100
AcDbEntity
  8
0
100
AcDbBlockEnd
  0
BLOCK
  5
11B6
330
11AC
100
AcDbEntity
  8
0
100
AcDbBlockBegin
  2
*D29
 70
     1
 10
0.0
 20
0.0
 30
0.0
  3
*D29
  1

  0
LINE
  5
1AB9
330
11AC
100
AcDbEntity
  8
AM_5
100
AcDbLine
 10
2826.711171359333
 20
1095.991839212158
 30
0.0
 11
2826.711171359333
 21
1071.991839212158
 31
0.0
  0
LINE
  5
1ABA
330
11AC
100
AcDbEntity
  8
AM_5
100
AcDbLine
 10
2864.711171359333
 20
1095.991839212158
 30
0.0
 11
2864.711171359333
 21
1071.991839212158
 31
0.0
  0
LINE
  5
1ABB
330
11AC
100
AcDbEntity
  8
AM_5
100
AcDbLine
 10
2829.711171359333
 20
1073.491839212158
 30
0.0
 11
2861.711171359333
 21
1073.491839212158
 31
0.0
  0
SOLID
  5
1ABC
330
11AC
100
AcDbEntity
  8
AM_5
100
AcDbTrace
 10
2829.711171359333
 20
1073.991839212158
 30
0.0
 11
2829.711171359333
 21
1072.991839212158
 31
0.0
 12
2826.711171359333
 22
1073.491839212158
 32
0.0
 13
2826.711171359333
 23
1073.491839212158
 33
0.0
  0
SOLID
  5
1ABD
330
11AC
100
AcDbEntity
  8
AM_5
100
AcDbTrace
 10
2861.711171359333
 20
1073.991839212158
 30
0.0
 11
2861.711171359333
 21
1072.991839212158
 31
0.0
 12
2864.711171359333
 22
1073.491839212158
 32
0.0
 13
2864.711171359333
 23
1073.491839212158
 33
0.0
  0
MTEXT
  5
1ABE
330
11AC
100
AcDbEntity
  8
AM_5
100
AcDbMText
 10
2845.711171359333
 20
1075.991839212158
 30
0.0
 40
3.0
 41
0.0
 71
     5
 72
     1
  1
M38X1.5
  7
CHINESET
 73
     1
 44
1.0
1001
ACAD
1000
MTEXTBEGIN
1070
    73
1070
     1
1070
    44
1040
1.0
1070
    74
1070
     0
1000
MTEXTEND
  0
POINT
  5
1ABF
330
11AC
100
AcDbEntity
  8
Defpoints
 62
     0
100
AcDbPoint
 10
2826.711171359333
 20
1096.991839212158
 30
0.0
  0
POINT
  5
1AC0
330
11AC
100
AcDbEntity
  8
Defpoints
 62
     0
100
AcDbPoint
 10
2864.711171359333
 20
1096.991839212158
 30
0.0
  0
POINT
  5
1AC1
330
11AC
100
AcDbEntity
  8
Defpoints
 62
     0
100
AcDbPoint
 10
2864.711171359333
 20
1073.491839212158
 30
0.0
  0
ENDBLK
  5
11B7
330
11AC
100
AcDbEntity
  8
0
100
AcDbBlockEnd
  0
BLOCK
  5
130D
330
1303
100
AcDbEntity
  8
0
100
AcDbBlockBegin
  2
*D30
 70
     1
 10
0.0
 20
0.0
 30
0.0
  3
*D30
  1

  0
LINE
  5
1C24
330
1303
100
AcDbEntity
  8
AM_5
100
AcDbLine
 10
2954.885622020042
 20
1085.491839212158
 30
0.0
 11
2968.385622020042
 21
1085.491839212158
 31
0.0
  0
LINE
  5
1C25
330
1303
100
AcDbEntity
  8
AM_5
100
AcDbLine
 10
2956.385622020042
 20
1096.491839212158
 30
0.0
 11
2968.385622020042
 21
1096.491839212158
 31
0.0
  0
LINE
  5
1C26
330
1303
100
AcDbEntity
  8
AM_5
100
AcDbLine
 10
2966.885622020042
 20
1088.491839212158
 30
0.0
 11
2966.885622020042
 21
1093.491839212158
 31
0.0
  0
SOLID
  5
1C27
330
1303
100
AcDbEntity
  8
AM_5
100
AcDbTrace
 10
2966.385622020041
 20
1088.491839212158
 30
0.0
 11
2967.385622020041
 21
1088.491839212158
 31
0.0
 12
2966.885622020042
 22
1085.491839212158
 32
0.0
 13
2966.885622020042
 23
1085.491839212158
 33
0.0
  0
SOLID
  5
1C28
330
1303
100
AcDbEntity
  8
AM_5
100
AcDbTrace
 10
2966.385622020041
 20
1093.491839212158
 30
0.0
 11
2967.385622020041
 21
1093.491839212158
 31
0.0
 12
2966.885622020042
 22
1096.491839212158
 32
0.0
 13
2966.885622020042
 23
1096.491839212158
 33
0.0
  0
MTEXT
  5
1C29
330
1303
100
AcDbEntity
  8
AM_5
100
AcDbMText
 10
2964.385622020041
 20
1090.991839212158
 30
0.0
 40
3.0
 41
0.0
 71
     5
 72
     1
  1
11
  7
CHINESET
 11
0.0000000000000001
 21
1.0
 31
0.0
 73
     1
 44
1.0
1001
ACAD
1000
MTEXTBEGIN
1070
    73
1070
     1
1070
    44
1040
1.0
1070
    74
1070
     0
1000
MTEXTEND
  0
POINT
  5
1C2A
330
1303
100
AcDbEntity
  8
Defpoints
 62
     0
100
AcDbPoint
 10
2953.885622020042
 20
1085.491839212158
 30
0.0
  0
POINT
  5
1C2B
330
1303
100
AcDbEntity
  8
Defpoints
 62
     0
100
AcDbPoint
 10
2955.385622020042
 20
1096.491839212158
 30
0.0
  0
POINT
  5
1C2C
330
1303
100
AcDbEntity
  8
Defpoints
 62
     0
100
AcDbPoint
 10
2966.885622020042
 20
1096.491839212158
 30
0.0
  0
ENDBLK
  5
130E
330
1303
100
AcDbEntity
  8
0
100
AcDbBlockEnd
  0
BLOCK
  5
1319
330
130F
100
AcDbEntity
  8
0
100
AcDbBlockBegin
  2
*D31
 70
     1
 10
0.0
 20
0.0
 30
0.0
  3
*D31
  1

  0
LINE
  5
1C2D
330
130F
100
AcDbEntity
  8
AM_5
100
AcDbLine
 10
2954.885622020042
 20
1085.491839212158
 30
0.0
 11
2976.385622020041
 21
1085.491839212158
 31
0.0
  0
LINE
  5
1C2E
330
130F
100
AcDbEntity
  8
AM_5
100
AcDbLine
 10
2951.416416667182
 20
1140.491839212158
 30
0.0
 11
2976.385622020041
 21
1140.491839212158
 31
0.0
  0
LINE
  5
1C2F
330
130F
100
AcDbEntity
  8
AM_5
100
AcDbLine
 10
2974.885622020042
 20
1088.491839212158
 30
0.0
 11
2974.885622020042
 21
1137.491839212158
 31
0.0
  0
SOLID
  5
1C30
330
130F
100
AcDbEntity
  8
AM_5
100
AcDbTrace
 10
2974.385622020042
 20
1088.491839212158
 30
0.0
 11
2975.385622020042
 21
1088.491839212158
 31
0.0
 12
2974.885622020042
 22
1085.491839212158
 32
0.0
 13
2974.885622020042
 23
1085.491839212158
 33
0.0
  0
SOLID
  5
1C31
330
130F
100
AcDbEntity
  8
AM_5
100
AcDbTrace
 10
2974.385622020042
 20
1137.491839212158
 30
0.0
 11
2975.385622020042
 21
1137.491839212158
 31
0.0
 12
2974.885622020042
 22
1140.491839212158
 32
0.0
 13
2974.885622020042
 23
1140.491839212158
 33
0.0
  0
MTEXT
  5
1C32
330
130F
100
AcDbEntity
  8
AM_5
100
AcDbMText
 10
2972.385622020041
 20
1112.991839212159
 30
0.0
 40
3.0
 41
0.0
 71
     5
 72
     1
  1
55
  7
CHINESET
 11
0.0000000000000001
 21
1.0
 31
0.0
 73
     1
 44
1.0
1001
ACAD
1000
MTEXTBEGIN
1070
    73
1070
     1
1070
    44
1040
1.0
1070
    74
1070
     0
1000
MTEXTEND
  0
POINT
  5
1C33
330
130F
100
AcDbEntity
  8
Defpoints
 62
     0
100
AcDbPoint
 10
2953.885622020042
 20
1085.491839212158
 30
0.0
  0
POINT
  5
1C34
330
130F
100
AcDbEntity
  8
Defpoints
 62
     0
100
AcDbPoint
 10
2950.416416667182
 20
1140.491839212158
 30
0.0
  0
POINT
  5
1C35
330
130F
100
AcDbEntity
  8
Defpoints
 62
     0
100
AcDbPoint
 10
2974.885622020042
 20
1140.491839212158
 30
0.0
  0
ENDBLK
  5
131A
330
130F
100
AcDbEntity
  8
0
100
AcDbBlockEnd
  0
BLOCK
  5
1325
330
131B
100
AcDbEntity
  8
0
100
AcDbBlockBegin
  2
*D32
 70
     1
 10
0.0
 20
0.0
 30
0.0
  3
*D32
  1

  0
LINE
  5
1C36
330
131B
100
AcDbEntity
  8
AM_5
100
AcDbLine
 10
2954.885622020042
 20
1085.491839212158
 30
0.0
 11
2984.385622020042
 21
1085.491839212158
 31
0.0
  0
LINE
  5
1C37
330
131B
100
AcDbEntity
  8
AM_5
100
AcDbLine
 10
2948.885622020041
 20
1152.491839212158
 30
0.0
 11
2984.385622020042
 21
1152.491839212158
 31
0.0
  0
LINE
  5
1C38
330
131B
100
AcDbEntity
  8
AM_5
100
AcDbLine
 10
2982.885622020042
 20
1088.491839212158
 30
0.0
 11
2982.885622020042
 21
1149.491839212158
 31
0.0
  0
SOLID
  5
1C39
330
131B
100
AcDbEntity
  8
AM_5
100
AcDbTrace
 10
2982.385622020041
 20
1088.491839212158
 30
0.0
 11
2983.385622020041
 21
1088.491839212158
 31
0.0
 12
2982.885622020042
 22
1085.491839212158
 32
0.0
 13
2982.885622020042
 23
1085.491839212158
 33
0.0
  0
SOLID
  5
1C3A
330
131B
100
AcDbEntity
  8
AM_5
100
AcDbTrace
 10
2982.385622020041
 20
1149.491839212158
 30
0.0
 11
2983.385622020041
 21
1149.491839212158
 31
0.0
 12
2982.885622020042
 22
1152.491839212158
 32
0.0
 13
2982.885622020042
 23
1152.491839212158
 33
0.0
  0
MTEXT
  5
1C3B
330
131B
100
AcDbEntity
  8
AM_5
100
AcDbMText
 10
2980.385622020041
 20
1118.991839212158
 30
0.0
 40
3.0
 41
0.0
 71
     5
 72
     1
  1
67
  7
CHINESET
 11
0.0000000000000001
 21
1.0
 31
0.0
 73
     1
 44
1.0
1001
ACAD
1000
MTEXTBEGIN
1070
    73
1070
     1
1070
    44
1040
1.0
1070
    74
1070
     0
1000
MTEXTEND
  0
POINT
  5
1C3C
330
131B
100
AcDbEntity
  8
Defpoints
 62
     0
100
AcDbPoint
 10
2953.885622020042
 20
1085.491839212158
 30
0.0
  0
POINT
  5
1C3D
330
131B
100
AcDbEntity
  8
Defpoints
 62
     0
100
AcDbPoint
 10
2947.885622020042
 20
1152.491839212158
 30
0.0
  0
POINT
  5
1C3E
330
131B
100
AcDbEntity
  8
Defpoints
 62
     0
100
AcDbPoint
 10
2982.885622020042
 20
1152.491839212158
 30
0.0
  0
ENDBLK
  5
1326
330
131B
100
AcDbEntity
  8
0
100
AcDbBlockEnd
  0
BLOCK
  5
1331
330
1327
100
AcDbEntity
  8
0
100
AcDbBlockBegin
  2
*D33
 70
     1
 10
0.0
 20
0.0
 30
0.0
  3
*D33
  1

  0
LINE
  5
1C3F
330
1327
100
AcDbEntity
  8
AM_5
100
AcDbLine
 10
2917.885622020042
 20
1095.991839212158
 30
0.0
 11
2917.885622020042
 21
1071.991839212158
 31
0.0
  0
LINE
  5
1C40
330
1327
100
AcDbEntity
  8
AM_5
100
AcDbLine
 10
2955.885622020042
 20
1095.991839212158
 30
0.0
 11
2955.885622020042
 21
1071.991839212158
 31
0.0
  0
LINE
  5
1C41
330
1327
100
AcDbEntity
  8
AM_5
100
AcDbLine
 10
2920.885622020041
 20
1073.491839212158
 30
0.0
 11
2952.885622020041
 21
1073.491839212158
 31
0.0
  0
SOLID
  5
1C42
330
1327
100
AcDbEntity
  8
AM_5
100
AcDbTrace
 10
2920.885622020041
 20
1073.991839212158
 30
0.0
 11
2920.885622020041
 21
1072.991839212158
 31
0.0
 12
2917.885622020042
 22
1073.491839212158
 32
0.0
 13
2917.885622020042
 23
1073.491839212158
 33
0.0
  0
SOLID
  5
1C43
330
1327
100
AcDbEntity
  8
AM_5
100
AcDbTrace
 10
2952.885622020041
 20
1073.991839212158
 30
0.0
 11
2952.885622020041
 21
1072.991839212158
 31
0.0
 12
2955.885622020042
 22
1073.491839212158
 32
0.0
 13
2955.885622020042
 23
1073.491839212158
 33
0.0
  0
MTEXT
  5
1C44
330
1327
100
AcDbEntity
  8
AM_5
100
AcDbMText
 10
2936.885622020041
 20
1075.991839212158
 30
0.0
 40
3.0
 41
0.0
 71
     5
 72
     1
  1
M38X1.5
  7
CHINESET
 73
     1
 44
1.0
1001
ACAD
1000
MTEXTBEGIN
1070
    73
1070
     1
1070
    44
1040
1.0
1070
    74
1070
     0
1000
MTEXTEND
  0
POINT
  5
1C45
330
1327
100
AcDbEntity
  8
Defpoints
 62
     0
100
AcDbPoint
 10
2917.885622020042
 20
1096.991839212158
 30
0.0
  0
POINT
  5
1C46
330
1327
100
AcDbEntity
  8
Defpoints
 62
     0
100
AcDbPoint
 10
2955.885622020042
 20
1096.991839212158
 30
0.0
  0
POINT
  5
1C47
330
1327
100
AcDbEntity
  8
Defpoints
 62
     0
100
AcDbPoint
 10
2955.885622020042
 20
1073.491839212158
 30
0.0
  0
ENDBLK
  5
1332
330
1327
100
AcDbEntity
  8
0
100
AcDbBlockEnd
  0
BLOCK
  5
1CA0
330
1C9B
100
AcDbEntity
  8
0
100
AcDbBlockBegin
  2
*S34
 70
     1
 10
0.0
 20
0.0
 30
0.0
  3
*S34
  1

  0
LINE
  5
1C9C
330
1C9B
100
AcDbEntity
  8
AM_5
 62
     5
100
AcDbLine
 10
2686.756648346344
 20
1331.896498995726
 30
0.0
 11
2672.888021456847
 21
1331.896498995726
 31
0.0
  0
LINE
  5
1C9D
330
1C9B
100
AcDbEntity
  8
AM_5
 62
     5
100
AcDbLine
 10
2672.888021456847
 20
1331.896498995726
 30
0.0
 11
2665.168815253142
 21
1341.438303673138
 31
0.0
  0
TRACE
  5
1C9E
330
1C9B
100
AcDbEntity
  8
AM_5
 62
     5
370
    35
100
AcDbTrace
 10
2665.527050888677
 20
1341.72811203054
 30
0.0
 11
2664.810579617606
 21
1341.148495315735
 31
0.0
 12
2662.967502220681
 22
1344.159373487221
 32
0.0
 13
2662.967502220681
 23
1344.159373487221
 33
0.0
  0
MTEXT
  5
1C9F
330
1C9B
100
AcDbEntity
  8
AM_5
 62
     5
100
AcDbMText
 10
2686.756648346344
 20
1328.686503500864
 30
0.0
 40
3.5
 41
0.0
 71
     7
 72
     5
  1

  7
ACISOTS
 73
     1
 44
1.0
1001
ACAD
1000
MTEXTBEGIN
1070
    73
1070
     1
1070
    44
1040
1.0
1070
    74
1070
     0
1000
MTEXTEND
  0
ENDBLK
  5
1CA1
330
1C9B
100
AcDbEntity
  8
0
100
AcDbBlockEnd
  0
BLOCK
  5
1CA8
330
1CA3
100
AcDbEntity
  8
0
100
AcDbBlockBegin
  2
*S35
 70
     1
 10
0.0
 20
0.0
 30
0.0
  3
*S35
  1

  0
LINE
  5
1CA4
330
1CA3
100
AcDbEntity
  8
AM_5
 62
     5
100
AcDbLine
 10
2956.668529678669
 20
1335.173415026051
 30
0.0
 11
2942.799902789173
 21
1335.173415026051
 31
0.0
  0
LINE
  5
1CA5
330
1CA3
100
AcDbEntity
  8
AM_5
 62
     5
100
AcDbLine
 10
2942.799902789173
 20
1335.173415026051
 30
0.0
 11
2934.538876905532
 21
1345.982965311267
 31
0.0
  0
TRACE
  5
1CA6
330
1CA3
100
AcDbEntity
  8
AM_5
 62
     5
370
    35
100
AcDbTrace
 10
2934.904987424458
 20
1346.262759418637
 30
0.0
 11
2934.172766386605
 21
1345.703171203897
 31
0.0
 12
2932.413629654277
 22
1348.763850803522
 32
0.0
 13
2932.413629654277
 23
1348.763850803522
 33
0.0
  0
MTEXT
  5
1CA7
330
1CA3
100
AcDbEntity
  8
AM_5
 62
     5
100
AcDbMText
 10
2956.668529678669
 20
1331.963419531189
 30
0.0
 40
3.5
 41
0.0
 71
     7
 72
     5
  1

  7
ACISOTS
 73
     1
 44
1.0
1001
ACAD
1000
MTEXTBEGIN
1070
    73
1070
     1
1070
    44
1040
1.0
1070
    74
1070
     0
1000
MTEXTEND
  0
ENDBLK
  5
1CA9
330
1CA3
100
AcDbEntity
  8
0
100
AcDbBlockEnd
  0
BLOCK
  5
1CB0
330
1CAB
100
AcDbEntity
  8
0
100
AcDbBlockBegin
  2
*S36
 70
     1
 10
0.0
 20
0.0
 30
0.0
  3
*S36
  1

  0
LINE
  5
1CAC
330
1CAB
100
AcDbEntity
  8
AM_5
 62
     5
100
AcDbLine
 10
2689.512158258675
 20
1169.626664890216
 30
0.0
 11
2675.643531369179
 21
1169.626664890216
 31
0.0
  0
LINE
  5
1CAD
330
1CAB
100
AcDbEntity
  8
AM_5
 62
     5
100
AcDbLine
 10
2675.643531369179
 20
1169.626664890216
 30
0.0
 11
2665.617987851993
 21
1181.539499526033
 31
0.0
  0
TRACE
  5
1CAE
330
1CAB
100
AcDbEntity
  8
AM_5
 62
     5
370
    35
100
AcDbTrace
 10
2665.970538590404
 20
1181.836197405085
 30
0.0
 11
2665.265437113583
 21
1181.24280164698
 31
0.0
 12
2663.36434370689
 22
1184.217388259204
 32
0.0
 13
2663.36434370689
 23
1184.217388259204
 33
0.0
  0
MTEXT
  5
1CAF
330
1CAB
100
AcDbEntity
  8
AM_5
 62
     5
100
AcDbMText
 10
2689.512158258675
 20
1166.416669395354
 30
0.0
 40
3.5
 41
0.0
 71
     7
 72
     5
  1

  7
ACISOTS
 73
     1
 44
1.0
1001
ACAD
1000
MTEXTBEGIN
1070
    73
1070
     1
1070
    44
1040
1.0
1070
    74
1070
     0
1000
MTEXTEND
  0
ENDBLK
  5
1CB1
330
1CAB
100
AcDbEntity
  8
0
100
AcDbBlockEnd
  0
BLOCK
  5
1CB8
330
1CB3
100
AcDbEntity
  8
0
100
AcDbBlockBegin
  2
*S37
 70
     1
 10
0.0
 20
0.0
 30
0.0
  3
*S37
  1

  0
LINE
  5
1CB4
330
1CB3
100
AcDbEntity
  8
AM_5
 62
     5
100
AcDbLine
 10
2974.749543497634
 20
1165.775544231462
 30
0.0
 11
2960.880916608138
 21
1165.775544231462
 31
0.0
  0
LINE
  5
1CB5
330
1CB3
100
AcDbEntity
  8
AM_5
 62
     5
100
AcDbLine
 10
2960.880916608138
 20
1165.775544231462
 30
0.0
 11
2942.735393950426
 21
1182.686667835928
 31
0.0
  0
TRACE
  5
1CB6
330
1CB3
100
AcDbEntity
  8
AM_5
 62
     5
370
    35
100
AcDbTrace
 10
2943.049549818441
 20
1183.023754983681
 30
0.0
 11
2942.421238082411
 21
1182.349580688176
 31
0.0
 12
2940.174962850118
 22
1185.072918573084
 32
0.0
 13
2940.174962850118
 23
1185.072918573084
 33
0.0
  0
MTEXT
  5
1CB7
330
1CB3
100
AcDbEntity
  8
AM_5
 62
     5
100
AcDbMText
 10
2974.749543497634
 20
1162.5655487366
 30
0.0
 40
3.5
 41
0.0
 71
     7
 72
     5
  1

  7
ACISOTS
 73
     1
 44
1.0
1001
ACAD
1000
MTEXTBEGIN
1070
    73
1070
     1
1070
    44
1040
1.0
1070
    74
1070
     0
1000
MTEXTEND
  0
ENDBLK
  5
1CB9
330
1CB3
100
AcDbEntity
  8
0
100
AcDbBlockEnd
  0
ENDSEC
  0
SECTION
  2
ENTITIES
  0
LINE
  5
838
330
1F
100
AcDbEntity
  8
AM_7
100
AcDbLine
 10
2579.628376664839
 20
1274.533706734303
 30
0.0
 11
2579.628376664839
 21
1315.875310489945
 31
0.0
  0
LINE
  5
839
330
1F
100
AcDbEntity
  8
0
100
AcDbLine
 10
2590.628376664839
 20
1283.846973375992
 30
0.0
 11
2590.628376664839
 21
1306.346973375992
 31
0.0
  0
LINE
  5
83A
330
1F
100
AcDbEntity
  8
0
100
AcDbLine
 10
2589.628376664839
 20
1276.346973375992
 30
0.0
 11
2569.628376664839
 21
1276.346973375992
 31
0.0
  0
LINE
  5
83B
330
1F
100
AcDbEntity
  8
0
100
AcDbLine
 10
2590.128376664839
 20
1306.846973375992
 30
0.0
 11
2577.628376664839
 21
1306.846973375992
 31
0.0
  0
LINE
  5
83C
102
{ACAD_REACTORS
330
8CE
330
8F6
330
932
102
}
330
1F
100
AcDbEntity
  8
0
100
AcDbLine
 10
2589.628376664839
 20
1276.346973375992
 30
0.0
 11
2589.628376664839
 21
1283.346973375992
 31
0.0
  0
LINE
  5
83D
330
1F
100
AcDbEntity
  8
0
100
AcDbLine
 10
2590.628376664839
 20
1283.846973375992
 30
0.0
 11
2590.128376664839
 21
1283.346973375992
 31
0.0
  0
LINE
  5
83E
330
1F
100
AcDbEntity
  8
0
100
AcDbLine
 10
2590.128376664839
 20
1306.846973375992
 30
0.0
 11
2590.628376664839
 21
1306.346973375992
 31
0.0
  0
LINE
  5
83F
330
1F
100
AcDbEntity
  8
0
100
AcDbLine
 10
2589.628376664839
 20
1303.346973375992
 30
0.0
 11
2589.628376664839
 21
1309.817972290411
 31
0.0
  0
LINE
  5
840
330
1F
100
AcDbEntity
  8
0
100
AcDbLine
 10
2590.628376664839
 20
1306.346973375992
 30
0.0
 11
2577.628376664839
 21
1306.346973375992
 31
0.0
  0
LINE
  5
843
330
1F
100
AcDbEntity
  8
0
100
AcDbLine
 10
2584.260426343347
 20
1309.86997699378
 30
0.0
 11
2584.260426343347
 21
1306.846973375992
 31
0.0
  0
ARC
  5
844
330
1F
100
AcDbEntity
  8
0
100
AcDbCircle
 10
2586.94258427111
 20
1309.656398985524
 30
0.0
 40
2.690648010251363
100
AcDbArc
 50
356.5573195752905
 51
184.5528087321657
  0
ARC
  5
845
330
1F
100
AcDbEntity
  8
0
100
AcDbCircle
 10
2578.944401504093
 20
1300.398649807447
 30
0.0
 40
11.96788444626508
100
AcDbArc
 50
61.87859731678377
 51
93.27628954587233
  0
LINE
  5
846
330
1F
100
AcDbEntity
  8
0
100
AcDbLine
 10
2571.628376664839
 20
1312.346973375992
 30
0.0
 11
2587.628376664839
 21
1312.346973375992
 31
0.0
  0
ARC
  5
847
330
1F
100
AcDbEntity
  8
0
100
AcDbCircle
 10
2572.314169058569
 20
1309.656398985524
 30
0.0
 40
2.690648010251363
100
AcDbArc
 50
355.4471912678342
 51
183.4426804247095
  0
LINE
  5
848
330
1F
100
AcDbEntity
  8
0
100
AcDbLine
 10
2569.128376664839
 20
1306.846973375992
 30
0.0
 11
2581.628376664839
 21
1306.846973375992
 31
0.0
  0
LINE
  5
849
330
1F
100
AcDbEntity
  8
0
100
AcDbLine
 10
2568.628376664839
 20
1306.346973375992
 30
0.0
 11
2581.628376664839
 21
1306.346973375992
 31
0.0
  0
LINE
  5
84A
102
{ACAD_REACTORS
330
8CE
102
}
330
1F
100
AcDbEntity
  8
0
100
AcDbLine
 10
2569.128376664839
 20
1283.346973375992
 30
0.0
 11
2590.128376664839
 21
1283.346973375992
 31
0.0
  0
LINE
  5
84B
102
{ACAD_REACTORS
330
980
102
}
330
1F
100
AcDbEntity
  8
0
100
AcDbLine
 10
2568.628376664839
 20
1283.846973375992
 30
0.0
 11
2590.628376664839
 21
1283.846973375992
 31
0.0
  0
ARC
  5
84C
330
1F
100
AcDbEntity
  8
0
100
AcDbCircle
 10
2580.312351825585
 20
1300.398649807447
 30
0.0
 40
11.96788444626508
100
AcDbArc
 50
86.72371045412766
 51
118.1214026832162
  0
LINE
  5
84D
330
1F
100
AcDbEntity
  8
0
100
AcDbLine
 10
2569.628376664839
 20
1276.346973375992
 30
0.0
 11
2569.628376664839
 21
1283.346973375992
 31
0.0
  0
LINE
  5
84E
330
1F
100
AcDbEntity
  8
0
100
AcDbLine
 10
2568.628376664839
 20
1283.846973375992
 30
0.0
 11
2568.628376664839
 21
1306.346973375992
 31
0.0
  0
LINE
  5
84F
102
{ACAD_REACTORS
330
980
102
}
330
1F
100
AcDbEntity
  8
0
100
AcDbLine
 10
2568.628376664839
 20
1283.846973375992
 30
0.0
 11
2569.128376664839
 21
1283.346973375992
 31
0.0
  0
LINE
  5
850
330
1F
100
AcDbEntity
  8
0
100
AcDbLine
 10
2569.628376664839
 20
1303.346973375992
 30
0.0
 11
2569.628376664839
 21
1309.817972290411
 31
0.0
  0
LINE
  5
851
330
1F
100
AcDbEntity
  8
0
100
AcDbLine
 10
2569.128376664839
 20
1306.846973375992
 30
0.0
 11
2568.628376664839
 21
1306.346973375992
 31
0.0
  0
LINE
  5
852
330
1F
100
AcDbEntity
  8
0
100
AcDbLine
 10
2589.628376664839
 20
1279.846973375992
 30
0.0
 11
2589.628376664839
 21
1306.346973375992
 31
0.0
  0
LINE
  5
853
330
1F
100
AcDbEntity
  8
0
100
AcDbLine
 10
2569.628376664839
 20
1279.846973375992
 30
0.0
 11
2569.628376664839
 21
1306.346973375992
 31
0.0
  0
LINE
  5
854
330
1F
100
AcDbEntity
  8
0
100
AcDbLine
 10
2587.628376664839
 20
1312.346973375992
 30
0.0
 11
2587.628376664839
 21
1312.846973375992
 31
0.0
  0
LINE
  5
855
330
1F
100
AcDbEntity
  8
0
100
AcDbLine
 10
2571.628376664839
 20
1312.346973375992
 30
0.0
 11
2571.628376664839
 21
1312.846973375992
 31
0.0
  0
LINE
  5
856
330
1F
100
AcDbEntity
  8
0
100
AcDbLine
 10
2587.628376664839
 20
1312.846973375992
 30
0.0
 11
2571.628376664839
 21
1312.846973375992
 31
0.0
  0
ARC
  5
857
330
1F
100
AcDbEntity
  8
0
100
AcDbCircle
 10
2579.628376664839
 20
1292.263640042659
 30
0.0
 40
22.08333333333333
100
AcDbArc
 50
68.76068944770006
 51
111.2393105522999
  0
LINE
  5
85A
330
1F
100
AcDbEntity
  8
0
100
AcDbLine
 10
2574.996326986332
 20
1309.442820977268
 30
0.0
 11
2574.996326986332
 21
1306.846973375992
 31
0.0
  0
CIRCLE
  5
85B
330
1F
100
AcDbEntity
  8
0
100
AcDbCircle
 10
2579.628376664839
 20
1336.083272512673
 30
0.0
 40
6.0
  0
LINE
  5
85C
330
1F
100
AcDbEntity
  8
0
100
AcDbLine
 10
2584.424208188152
 20
1345.083272512672
 30
0.0
 11
2574.832545141526
 21
1345.083272512672
 31
0.0
  0
LINE
  5
85D
330
1F
100
AcDbEntity
  8
0
100
AcDbLine
 10
2574.232063792436
 20
1344.736584444132
 30
0.0
 11
2569.436232269123
 21
1336.429960581213
 31
0.0
  0
LINE
  5
85E
330
1F
100
AcDbEntity
  8
0
100
AcDbLine
 10
2569.436232269123
 20
1335.736584444132
 30
0.0
 11
2574.232063792436
 21
1327.429960581214
 31
0.0
  0
LINE
  5
85F
330
1F
100
AcDbEntity
  8
0
100
AcDbLine
 10
2584.424208188152
 20
1327.083272512673
 30
0.0
 11
2574.832545141526
 21
1327.083272512673
 31
0.0
  0
LINE
  5
860
330
1F
100
AcDbEntity
  8
0
100
AcDbLine
 10
2589.820521060556
 20
1335.736584444132
 30
0.0
 11
2585.024689537243
 21
1327.429960581214
 31
0.0
  0
LINE
  5
861
330
1F
100
AcDbEntity
  8
0
100
AcDbLine
 10
2585.024689537243
 20
1344.736584444132
 30
0.0
 11
2589.820521060556
 21
1336.429960581213
 31
0.0
  0
CIRCLE
  5
862
330
1F
100
AcDbEntity
  8
0
100
AcDbCircle
 10
2579.628376664839
 20
1336.083272512673
 30
0.0
 40
11.0
  0
CIRCLE
  5
863
330
1F
100
AcDbEntity
  8
0
100
AcDbCircle
 10
2579.628376664839
 20
1336.083272512673
 30
0.0
 40
10.25
  0
DIMENSION
  5
8BE
102
{ACAD_XDICTIONARY
360
8CD
102
}
102
{ACAD_REACTORS
330
8CE
102
}
330
1F
100
AcDbEntity
  8
AM_5
100
AcDbDimension
  2
*D2
 10
2602.628376664839
 20
1283.346973375992
 30
0.0
 11
2600.128376664839
 21
1279.846973375992
 31
0.0
 70
    32
 71
     5
 42
7.0
  3
AM_ISO$0
100
AcDbAlignedDimension
 13
2589.628376664839
 23
1276.346973375992
 33
0.0
 14
2590.128376664839
 24
1283.346973375992
 34
0.0
 50
90.0
100
AcDbRotatedDimension
1001
ACAD
1000
DSTYLE
1002
{
1070
    40
1040
1.0
1070
   144
1040
1.0
1070
   272
1070
     8
1002
}
  0
DIMENSION
  5
8E8
102
{ACAD_XDICTIONARY
360
8F5
102
}
102
{ACAD_REACTORS
330
8F6
102
}
330
1F
100
AcDbEntity
  8
AM_5
100
AcDbDimension
  2
*D3
 10
2610.628376664839
 20
1312.346973375992
 30
0.0
 11
2608.128376664839
 21
1294.346973375992
 31
0.0
 70
    32
 71
     5
 42
36.0
  3
AM_ISO$0
100
AcDbAlignedDimension
 13
2589.628376664839
 23
1276.346973375992
 33
0.0
 14
2587.628376664839
 24
1312.346973375992
 34
0.0
 50
90.0
100
AcDbRotatedDimension
1001
ACAD
1000
DSTYLE
1002
{
1070
    40
1040
1.0
1070
   144
1040
1.0
1070
   272
1070
     8
1002
}
  0
DIMENSION
  5
924
102
{ACAD_XDICTIONARY
360
931
102
}
102
{ACAD_REACTORS
330
932
102
}
330
1F
100
AcDbEntity
  8
AM_5
100
AcDbDimension
  2
*D4
 10
2618.628376664839
 20
1314.346973375992
 30
0.0
 11
2616.128376664839
 21
1295.346973375992
 31
0.0
 70
    32
 71
     5
 42
38.0
  3
AM_ISO$0
100
AcDbAlignedDimension
 13
2589.628376664839
 23
1276.346973375992
 33
0.0
 14
2579.628376664839
 24
1314.346973375992
 34
0.0
 50
90.0
100
AcDbRotatedDimension
1001
ACAD
1000
DSTYLE
1002
{
1070
    40
1040
1.0
1070
   144
1040
1.0
1070
   272
1070
     8
1002
}
  0
DIMENSION
  5
972
102
{ACAD_XDICTIONARY
360
97F
102
}
102
{ACAD_REACTORS
330
980
102
}
330
1F
100
AcDbEntity
  8
AM_5
100
AcDbDimension
  2
*D5
 10
2590.628376664839
 20
1264.346973375992
 30
0.0
 11
2579.628376664839
 21
1266.846973375992
 31
0.0
 70
    32
  1
M<>x1.5
 71
     5
 42
22.0
  3
AM_ISO$0
100
AcDbAlignedDimension
 13
2568.628376664839
 23
1283.846973375992
 33
0.0
 14
2590.628376664839
 24
1283.846973375992
 34
0.0
 50
0.0000000000001018
100
AcDbRotatedDimension
1001
ACAD
1000
DSTYLE
1002
{
1070
    40
1040
1.0
1070
   144
1040
1.0
1070
   272
1070
     8
1002
}
  0
LINE
  5
9AC
330
1F
100
AcDbEntity
  8
AM_7
100
AcDbLine
 10
2579.628376664839
 20
1336.083272512673
 30
0.0
 11
2592.628376664839
 21
1336.083272512673
 31
0.0
1001
GENIUS_GENOREF_13
1005
9B0
  0
LINE
  5
9AD
330
1F
100
AcDbEntity
  8
AM_7
100
AcDbLine
 10
2579.628376664839
 20
1336.083272512673
 30
0.0
 11
2579.628376664839
 21
1349.083272512673
 31
0.0
1001
GENIUS_GENOREF_13
1005
9B0
  0
LINE
  5
9AE
330
1F
100
AcDbEntity
  8
AM_7
100
AcDbLine
 10
2579.628376664839
 20
1336.083272512673
 30
0.0
 11
2566.628376664839
 21
1336.083272512673
 31
0.0
1001
GENIUS_GENOREF_13
1005
9B0
  0
LINE
  5
9AF
330
1F
100
AcDbEntity
  8
AM_7
100
AcDbLine
 10
2579.628376664839
 20
1336.083272512673
 30
0.0
 11
2579.628376664839
 21
1323.083272512673
 31
0.0
1001
GENIUS_GENOREF_13
1005
9B0
  0
POINT
  5
9B0
330
1F
100
AcDbEntity
  8
0
 60
     1
100
AcDbPoint
 10
0.0
 20
0.0
 30
0.0
1001
GENIUS_GENOBJ-N-CRS_13
1002
{
1000
OWNER
1000
GEN
1002
}
1001
GENIUS_GENODEF_13
1002
{
1000
HIER
1070
    10
1002
}
1002
{
1000
MANEDIT
1070
     0
1002
}
1002
{
1000
NOSEL
1070
     0
1002
}
1002
{
1000
BEHIND
1070
     0
1002
}
1002
{
1000
OTHER
1070
     0
1002
}
1002
{
1000
REACTOR
1002
}
1001
GENIUS_GENOENT_13
1002
{
1000
MYREF
1005
9B0
1002
}
1002
{
1000
GRP
1005
0
1002
}
1001
GENIUS_GENOLIS_13
1002
{
1000
ENT
1005
9AF
1005
9AE
1005
9AD
1005
9AC
1002
}
  0
LINE
  5
9EC
330
1F
100
AcDbEntity
  8
0
100
AcDbLine
 10
2671.475069266624
 20
1283.846973375992
 30
0.0
 11
2671.475069266624
 21
1306.346973375992
 31
0.0
  0
LINE
  5
9ED
330
1F
100
AcDbEntity
  8
0
100
AcDbLine
 10
2670.475069266624
 20
1276.346973375992
 30
0.0
 11
2650.475069266624
 21
1276.346973375992
 31
0.0
  0
LINE
  5
9EE
330
1F
100
AcDbEntity
  8
0
100
AcDbLine
 10
2670.975069266624
 20
1306.846973375992
 30
0.0
 11
2658.475069266624
 21
1306.846973375992
 31
0.0
  0
LINE
  5
9EF
330
1F
100
AcDbEntity
  8
0
100
AcDbLine
 10
2670.475069266624
 20
1276.346973375992
 30
0.0
 11
2670.475069266624
 21
1283.346973375992
 31
0.0
  0
LINE
  5
9F0
330
1F
100
AcDbEntity
  8
0
100
AcDbLine
 10
2671.475069266624
 20
1283.846973375992
 30
0.0
 11
2670.975069266624
 21
1283.346973375992
 31
0.0
  0
LINE
  5
9F1
330
1F
100
AcDbEntity
  8
0
100
AcDbLine
 10
2670.975069266624
 20
1306.846973375992
 30
0.0
 11
2671.475069266624
 21
1306.346973375992
 31
0.0
  0
LINE
  5
9F2
330
1F
100
AcDbEntity
  8
0
100
AcDbLine
 10
2670.475069266624
 20
1303.346973375992
 30
0.0
 11
2670.475069266624
 21
1309.817972290411
 31
0.0
  0
LINE
  5
9F3
330
1F
100
AcDbEntity
  8
0
100
AcDbLine
 10
2671.475069266624
 20
1306.346973375992
 30
0.0
 11
2658.475069266624
 21
1306.346973375992
 31
0.0
  0
LINE
  5
9F6
330
1F
100
AcDbEntity
  8
0
100
AcDbLine
 10
2665.107118945132
 20
1309.86997699378
 30
0.0
 11
2665.107118945132
 21
1306.846973375992
 31
0.0
  0
ARC
  5
9F7
330
1F
100
AcDbEntity
  8
0
100
AcDbCircle
 10
2667.789276872894
 20
1309.656398985524
 30
0.0
 40
2.690648010251363
100
AcDbArc
 50
356.5573195752905
 51
184.5528087321657
  0
ARC
  5
9F8
330
1F
100
AcDbEntity
  8
0
100
AcDbCircle
 10
2659.791094105878
 20
1300.398649807447
 30
0.0
 40
11.96788444626508
100
AcDbArc
 50
61.87859731678377
 51
93.27628954587233
  0
LINE
  5
9F9
330
1F
100
AcDbEntity
  8
0
100
AcDbLine
 10
2652.475069266624
 20
1312.346973375992
 30
0.0
 11
2668.475069266624
 21
1312.346973375992
 31
0.0
  0
ARC
  5
9FA
330
1F
100
AcDbEntity
  8
0
100
AcDbCircle
 10
2653.160861660354
 20
1309.656398985524
 30
0.0
 40
2.690648010251363
100
AcDbArc
 50
355.4471912678342
 51
183.4426804247095
  0
LINE
  5
9FB
330
1F
100
AcDbEntity
  8
0
100
AcDbLine
 10
2649.975069266624
 20
1306.846973375992
 30
0.0
 11
2662.475069266624
 21
1306.846973375992
 31
0.0
  0
LINE
  5
9FC
330
1F
100
AcDbEntity
  8
0
100
AcDbLine
 10
2649.475069266624
 20
1306.346973375992
 30
0.0
 11
2662.475069266624
 21
1306.346973375992
 31
0.0
  0
LINE
  5
9FD
330
1F
100
AcDbEntity
  8
0
100
AcDbLine
 10
2649.975069266624
 20
1283.346973375992
 30
0.0
 11
2670.975069266624
 21
1283.346973375992
 31
0.0
  0
LINE
  5
9FE
330
1F
100
AcDbEntity
  8
0
100
AcDbLine
 10
2649.475069266624
 20
1283.846973375992
 30
0.0
 11
2671.475069266624
 21
1283.846973375992
 31
0.0
  0
ARC
  5
9FF
330
1F
100
AcDbEntity
  8
0
100
AcDbCircle
 10
2661.15904442737
 20
1300.398649807447
 30
0.0
 40
11.96788444626508
100
AcDbArc
 50
86.72371045412766
 51
118.1214026832162
  0
LINE
  5
A00
330
1F
100
AcDbEntity
  8
0
100
AcDbLine
 10
2650.475069266624
 20
1276.346973375992
 30
0.0
 11
2650.475069266624
 21
1283.346973375992
 31
0.0
  0
LINE
  5
A01
330
1F
100
AcDbEntity
  8
0
100
AcDbLine
 10
2649.475069266624
 20
1283.846973375992
 30
0.0
 11
2649.475069266624
 21
1306.346973375992
 31
0.0
  0
LINE
  5
A02
330
1F
100
AcDbEntity
  8
0
100
AcDbLine
 10
2649.475069266624
 20
1283.846973375992
 30
0.0
 11
2649.975069266624
 21
1283.346973375992
 31
0.0
  0
LINE
  5
A03
330
1F
100
AcDbEntity
  8
0
100
AcDbLine
 10
2650.475069266624
 20
1303.346973375992
 30
0.0
 11
2650.475069266624
 21
1309.817972290411
 31
0.0
  0
LINE
  5
A04
330
1F
100
AcDbEntity
  8
0
100
AcDbLine
 10
2649.975069266624
 20
1306.846973375992
 30
0.0
 11
2649.475069266624
 21
1306.346973375992
 31
0.0
  0
LINE
  5
A05
330
1F
100
AcDbEntity
  8
0
100
AcDbLine
 10
2670.475069266624
 20
1279.846973375992
 30
0.0
 11
2670.475069266624
 21
1306.346973375992
 31
0.0
  0
LINE
  5
A06
330
1F
100
AcDbEntity
  8
0
100
AcDbLine
 10
2650.475069266624
 20
1279.846973375992
 30
0.0
 11
2650.475069266624
 21
1306.346973375992
 31
0.0
  0
LINE
  5
A09
330
1F
100
AcDbEntity
  8
0
100
AcDbLine
 10
2655.843019588117
 20
1309.442820977268
 30
0.0
 11
2655.843019588117
 21
1306.846973375992
 31
0.0
  0
CIRCLE
  5
A0A
330
1F
100
AcDbEntity
  8
0
100
AcDbCircle
 10
2660.475069266624
 20
1346.00144056609
 30
0.0
 40
6.0
  0
LINE
  5
A0B
330
1F
100
AcDbEntity
  8
0
100
AcDbLine
 10
2665.270900789937
 20
1355.00144056609
 30
0.0
 11
2655.679237743311
 21
1355.00144056609
 31
0.0
  0
LINE
  5
A0C
330
1F
100
AcDbEntity
  8
0
100
AcDbLine
 10
2655.078756394221
 20
1354.654752497549
 30
0.0
 11
2650.282924870908
 21
1346.348128634631
 31
0.0
  0
LINE
  5
A0D
330
1F
100
AcDbEntity
  8
0
100
AcDbLine
 10
2650.282924870908
 20
1345.654752497549
 30
0.0
 11
2655.078756394221
 21
1337.348128634631
 31
0.0
  0
LINE
  5
A0E
330
1F
100
AcDbEntity
  8
0
100
AcDbLine
 10
2665.270900789937
 20
1337.00144056609
 30
0.0
 11
2655.679237743311
 21
1337.00144056609
 31
0.0
  0
LINE
  5
A0F
330
1F
100
AcDbEntity
  8
0
100
AcDbLine
 10
2670.667213662341
 20
1345.654752497549
 30
0.0
 11
2665.871382139028
 21
1337.348128634631
 31
0.0
  0
LINE
  5
A10
330
1F
100
AcDbEntity
  8
0
100
AcDbLine
 10
2665.871382139028
 20
1354.654752497549
 30
0.0
 11
2670.667213662341
 21
1346.348128634631
 31
0.0
  0
CIRCLE
  5
A11
330
1F
100
AcDbEntity
  8
0
100
AcDbCircle
 10
2660.475069266624
 20
1346.00144056609
 30
0.0
 40
11.0
  0
CIRCLE
  5
A12
330
1F
100
AcDbEntity
  8
0
100
AcDbCircle
 10
2660.475069266624
 20
1346.00144056609
 30
0.0
 40
10.25
  0
LINE
  5
A13
330
1F
100
AcDbEntity
  8
0
100
AcDbLine
 10
2667.475069266624
 20
1321.346973375992
 30
0.0
 11
2653.475069266624
 21
1321.346973375992
 31
0.0
  0
LINE
  5
A14
330
1F
100
AcDbEntity
  8
0
  6
Continuous
100
AcDbLine
 10
2660.475069266624
 20
1321.346973375992
 30
0.0
 11
2663.475069266624
 21
1321.346973375992
 31
0.0
  0
LINE
  5
A15
330
1F
100
AcDbEntity
  8
0
  6
DASHED
100
AcDbLine
 10
2663.475069266624
 20
1321.346973375992
 30
0.0
 11
2663.475069266624
 21
1315.346973375992
 31
0.0
  0
LINE
  5
A16
330
1F
100
AcDbEntity
  8
0
  6
DASHED
100
AcDbLine
 10
2663.475069266624
 20
1315.346973375992
 30
0.0
 11
2657.475069266624
 21
1315.346973375992
 31
0.0
  0
LINE
  5
A17
330
1F
100
AcDbEntity
  8
0
  6
DASHED
100
AcDbLine
 10
2657.475069266624
 20
1315.346973375992
 30
0.0
 11
2657.475069266624
 21
1321.346973375992
 31
0.0
  0
CIRCLE
  5
A18
330
1F
100
AcDbEntity
  8
0
  6
Continuous
100
AcDbCircle
 10
2660.475069266624
 20
1346.00144056609
 30
0.0
 40
3.0
  0
LINE
  5
A19
330
1F
100
AcDbEntity
  8
0
100
AcDbLine
 10
2653.475069266624
 20
1312.346973375992
 30
0.0
 11
2653.475069266624
 21
1321.346973375992
 31
0.0
  0
LINE
  5
A1A
330
1F
100
AcDbEntity
  8
0
100
AcDbLine
 10
2667.475069266624
 20
1312.346973375992
 30
0.0
 11
2667.475069266624
 21
1321.346973375992
 31
0.0
  0
LINE
  5
A1B
330
1F
100
AcDbEntity
  8
0
  6
Continuous
100
AcDbLine
 10
2652.475069266624
 20
1312.346973375992
 30
0.0
 11
2652.475069266624
 21
1313.346973375992
 31
0.0
  0
LINE
  5
A1C
330
1F
100
AcDbEntity
  8
0
  6
Continuous
100
AcDbLine
 10
2668.475069266624
 20
1312.346973375992
 30
0.0
 11
2668.475069266624
 21
1313.346973375992
 31
0.0
  0
LINE
  5
A1D
330
1F
100
AcDbEntity
  8
0
  6
Continuous
100
AcDbLine
 10
2652.475069266624
 20
1313.346973375992
 30
0.0
 11
2668.475069266624
 21
1313.346973375992
 31
0.0
  0
LINE
  5
A2B
330
1F
100
AcDbEntity
  8
AM_7
100
AcDbLine
 10
2660.475069266624
 20
1346.00144056609
 30
0.0
 11
2673.475069266624
 21
1346.00144056609
 31
0.0
1001
GENIUS_GENOREF_13
1005
A2F
  0
LINE
  5
A2C
330
1F
100
AcDbEntity
  8
AM_7
100
AcDbLine
 10
2660.475069266624
 20
1346.00144056609
 30
0.0
 11
2660.475069266624
 21
1359.00144056609
 31
0.0
1001
GENIUS_GENOREF_13
1005
A2F
  0
LINE
  5
A2D
330
1F
100
AcDbEntity
  8
AM_7
100
AcDbLine
 10
2660.475069266624
 20
1346.00144056609
 30
0.0
 11
2647.475069266624
 21
1346.00144056609
 31
0.0
1001
GENIUS_GENOREF_13
1005
A2F
  0
LINE
  5
A2E
330
1F
100
AcDbEntity
  8
AM_7
100
AcDbLine
 10
2660.475069266624
 20
1346.00144056609
 30
0.0
 11
2660.475069266624
 21
1333.00144056609
 31
0.0
1001
GENIUS_GENOREF_13
1005
A2F
  0
POINT
  5
A2F
330
1F
100
AcDbEntity
  8
0
 60
     1
100
AcDbPoint
 10
0.0
 20
0.0
 30
0.0
1001
GENIUS_GENODEF_13
1002
{
1000
HIER
1070
    10
1002
}
1002
{
1000
MANEDIT
1070
     0
1002
}
1002
{
1000
NOSEL
1070
     0
1002
}
1002
{
1000
BEHIND
1070
     0
1002
}
1002
{
1000
OTHER
1070
     0
1002
}
1002
{
1000
REACTOR
1002
}
1001
GENIUS_GENOLIS_13
1002
{
1000
ENT
1005
A2E
1005
A2D
1005
A2C
1005
A2B
1002
}
1001
GENIUS_GENOENT_13
1002
{
1000
MYREF
1005
A2F
1002
}
1002
{
1000
GRP
1005
0
1002
}
1001
GENIUS_GENOBJ-N-CRS_13
1002
{
1000
OWNER
1000
GEN
1002
}
  0
LINE
  5
A3C
330
1F
100
AcDbEntity
  8
AM_7
100
AcDbLine
 10
2660.475069266624
 20
1323.346973375992
 30
0.0
 11
2660.475069266624
 21
1274.346973375992
 31
0.0
1001
GENIUS_GENODEF_13
1002
{
1000
HIER
1070
     0
1002
}
1002
{
1000
MANEDIT
1070
     0
1002
}
1002
{
1000
NOSEL
1070
     0
1002
}
1002
{
1000
BEHIND
1070
     0
1002
}
1002
{
1000
OTHER
1070
     0
1002
}
1002
{
1000
REACTOR
1002
}
1001
GENIUS_GENOBJ-N-CEN_13
1002
{
1000
OWNER
1000
GEN
1002
}
1001
GENIUS_GENCEN_19
1002
{
1040
2.0
1002
}
  0
DIMENSION
  5
A3D
330
1F
100
AcDbEntity
  8
AM_5
100
AcDbDimension
  2
*D6
 10
2683.475069266624
 20
1283.346973375992
 30
0.0
 11
2680.975069266624
 21
1279.846973375992
 31
0.0
 70
    32
 71
     5
 42
7.0
  3
AM_ISO$0
100
AcDbAlignedDimension
 13
2670.475069266624
 23
1276.346973375992
 33
0.0
 14
2670.975069266624
 24
1283.346973375992
 34
0.0
 50
90.0
100
AcDbRotatedDimension
1001
ACAD
1000
DSTYLE
1002
{
1070
    40
1040
1.0
1070
   144
1040
1.0
1070
   272
1070
     8
1002
}
  0
DIMENSION
  5
A40
330
1F
100
AcDbEntity
  8
AM_5
100
AcDbDimension
  2
*D7
 10
2691.475069266624
 20
1312.346973375992
 30
0.0
 11
2688.975069266624
 21
1294.346973375992
 31
0.0
 70
    32
 71
     5
 42
36.0
  3
AM_ISO$0
100
AcDbAlignedDimension
 13
2670.475069266624
 23
1276.346973375992
 33
0.0
 14
2668.475069266624
 24
1312.346973375992
 34
0.0
 50
90.0
100
AcDbRotatedDimension
1001
ACAD
1000
DSTYLE
1002
{
1070
    40
1040
1.0
1070
   144
1040
1.0
1070
   272
1070
     8
1002
}
  0
DIMENSION
  5
A43
330
1F
100
AcDbEntity
  8
AM_5
100
AcDbDimension
  2
*D8
 10
2699.475069266624
 20
1321.346973375992
 30
0.0
 11
2696.975069266624
 21
1298.846973375992
 31
0.0
 70
    32
 71
     5
 42
45.0
  3
AM_ISO$0
100
AcDbAlignedDimension
 13
2670.475069266624
 23
1276.346973375992
 33
0.0
 14
2667.475069266624
 24
1321.346973375992
 34
0.0
 50
90.0
100
AcDbRotatedDimension
1001
ACAD
1000
DSTYLE
1002
{
1070
    40
1040
1.0
1070
   144
1040
1.0
1070
   272
1070
     8
1002
}
  0
DIMENSION
  5
A46
330
1F
100
AcDbEntity
  8
AM_5
100
AcDbDimension
  2
*D9
 10
2671.475069266624
 20
1264.346973375992
 30
0.0
 11
2660.475069266624
 21
1266.846973375992
 31
0.0
 70
    32
  1
M<>x1.5
 71
     5
 42
22.0
  3
AM_ISO$0
100
AcDbAlignedDimension
 13
2649.475069266624
 23
1283.846973375992
 33
0.0
 14
2671.475069266624
 24
1283.846973375992
 34
0.0
 50
0.0000000000001018
100
AcDbRotatedDimension
1001
ACAD
1000
DSTYLE
1002
{
1070
    40
1040
1.0
1070
   144
1040
1.0
1070
   272
1070
     8
1002
}
  0
INSERT
  5
B9B
330
1F
100
AcDbEntity
  8
AM_5
100
AcDbBlockReference
  2
*S34
 10
0.0
 20
0.0
 30
0.0
  0
TEXT
  5
B9D
330
1F
100
AcDbEntity
  8
AM_5
100
AcDbText
 10
2674.047461524715
 20
1332.898073749234
 30
0.0
 40
3.0
  1
M6x1.0
 41
0.75
  7
CHINESET
100
AcDbText
  0
LINE
  5
BEB
330
1F
100
AcDbEntity
  8
0
100
AcDbLine
 10
2858.711171359333
 20
1284.846973375992
 30
0.0
 11
2858.711171359333
 21
1311.346973375992
 31
0.0
  0
LINE
  5
BEC
330
1F
100
AcDbEntity
  8
0
100
AcDbLine
 10
2857.211171359333
 20
1276.346973375992
 30
0.0
 11
2834.211171359333
 21
1276.346973375992
 31
0.0
  0
LINE
  5
BED
330
1F
100
AcDbEntity
  8
0
100
AcDbLine
 10
2858.211171359333
 20
1284.346973375992
 30
0.0
 11
2845.711171359333
 21
1284.346973375992
 31
0.0
  0
LINE
  5
BEE
330
1F
100
AcDbEntity
  8
0
100
AcDbLine
 10
2858.211171359333
 20
1311.846973375992
 30
0.0
 11
2845.711171359333
 21
1311.846973375992
 31
0.0
  0
LINE
  5
BEF
330
1F
100
AcDbEntity
  8
0
100
AcDbLine
 10
2857.711171359333
 20
1276.846973375992
 30
0.0
 11
2857.711171359333
 21
1284.346973375992
 31
0.0
  0
LINE
  5
BF0
330
1F
100
AcDbEntity
  8
0
100
AcDbLine
 10
2857.711171359333
 20
1276.846973375992
 30
0.0
 11
2857.211171359333
 21
1276.346973375992
 31
0.0
  0
LINE
  5
BF1
330
1F
100
AcDbEntity
  8
0
100
AcDbLine
 10
2858.711171359333
 20
1284.846973375992
 30
0.0
 11
2858.211171359333
 21
1284.346973375992
 31
0.0
  0
LINE
  5
BF2
330
1F
100
AcDbEntity
  8
0
100
AcDbLine
 10
2858.211171359333
 20
1311.846973375992
 30
0.0
 11
2858.711171359333
 21
1311.346973375992
 31
0.0
  0
LINE
  5
BF3
330
1F
100
AcDbEntity
  8
0
100
AcDbLine
 10
2857.711171359333
 20
1311.846973375992
 30
0.0
 11
2857.711171359333
 21
1318.317972290412
 31
0.0
  0
LINE
  5
BF4
330
1F
100
AcDbEntity
  8
0
100
AcDbLine
 10
2858.711171359333
 20
1284.846973375992
 30
0.0
 11
2845.711171359333
 21
1284.846973375992
 31
0.0
  0
LINE
  5
BF5
330
1F
100
AcDbEntity
  8
0
100
AcDbLine
 10
2857.711171359333
 20
1276.846973375992
 30
0.0
 11
2845.711171359333
 21
1276.846973375992
 31
0.0
  0
LINE
  5
BF6
330
1F
100
AcDbEntity
  8
0
100
AcDbLine
 10
2858.711171359333
 20
1311.346973375992
 30
0.0
 11
2845.711171359333
 21
1311.346973375992
 31
0.0
  0
CIRCLE
  5
BF9
330
1F
100
AcDbEntity
  8
0
100
AcDbCircle
 10
2845.711171359333
 20
1344.375128073662
 30
0.0
 40
13.0
  0
CIRCLE
  5
BFA
330
1F
100
AcDbEntity
  8
0
100
AcDbCircle
 10
2845.711171359333
 20
1344.375128073662
 30
0.0
 40
12.25
  0
ARC
  5
BFB
330
1F
100
AcDbEntity
  8
0
100
AcDbCircle
 10
2845.711171359333
 20
1344.375128073662
 30
0.0
 40
12.0
100
AcDbArc
 50
53.55646430909366
 51
66.44353569091254
  0
LINE
  5
BFC
330
1F
100
AcDbEntity
  8
0
100
AcDbLine
 10
2850.507002882645
 20
1355.375128073662
 30
0.0
 11
2840.91533983602
 21
1355.375128073662
 31
0.0
  0
LINE
  5
BFD
330
1F
100
AcDbEntity
  8
0
100
AcDbLine
 10
2850.507002882645
 20
1333.375128073662
 30
0.0
 11
2840.91533983602
 21
1333.375128073662
 31
0.0
  0
LINE
  5
BFE
330
1F
100
AcDbEntity
  8
0
100
AcDbLine
 10
2838.58280767936
 20
1354.028440005121
 30
0.0
 11
2833.786976156047
 21
1345.721816142203
 31
0.0
  0
LINE
  5
BFF
330
1F
100
AcDbEntity
  8
0
100
AcDbLine
 10
2857.635366562618
 20
1343.028440005121
 30
0.0
 11
2852.839535039306
 21
1334.721816142203
 31
0.0
  0
LINE
  5
C00
330
1F
100
AcDbEntity
  8
0
100
AcDbLine
 10
2833.786976156047
 20
1343.028440005121
 30
0.0
 11
2838.58280767936
 21
1334.721816142203
 31
0.0
  0
LINE
  5
C01
330
1F
100
AcDbEntity
  8
0
100
AcDbLine
 10
2852.839535039306
 20
1354.028440005121
 30
0.0
 11
2857.635366562618
 21
1345.721816142203
 31
0.0
  0
ARC
  5
C02
330
1F
100
AcDbEntity
  8
0
100
AcDbCircle
 10
2845.711171359333
 20
1344.375128073662
 30
0.0
 40
12.0
100
AcDbArc
 50
113.5564643090874
 51
126.4435356909063
  0
ARC
  5
C03
330
1F
100
AcDbEntity
  8
0
100
AcDbCircle
 10
2845.711171359333
 20
1344.375128073662
 30
0.0
 40
12.0
100
AcDbArc
 50
173.5564643090965
 51
186.4435356909035
  0
ARC
  5
C04
330
1F
100
AcDbEntity
  8
0
100
AcDbCircle
 10
2845.711171359333
 20
1344.375128073662
 30
0.0
 40
12.0
100
AcDbArc
 50
233.5564643090937
 51
246.4435356909125
  0
ARC
  5
C05
330
1F
100
AcDbEntity
  8
0
100
AcDbCircle
 10
2845.711171359333
 20
1344.375128073662
 30
0.0
 40
12.0
100
AcDbArc
 50
293.5564643090875
 51
306.4435356909064
  0
ARC
  5
C06
330
1F
100
AcDbEntity
  8
0
100
AcDbCircle
 10
2845.711171359333
 20
1344.375128073662
 30
0.0
 40
12.0
100
AcDbArc
 50
353.5564643090964
 51
6.443535690903544
  0
LINE
  5
C07
330
1F
100
AcDbEntity
  8
0
100
AcDbLine
 10
2852.343221037841
 20
1318.36997699378
 30
0.0
 11
2852.343221037841
 21
1311.846973375992
 31
0.0
  0
ARC
  5
C08
330
1F
100
AcDbEntity
  8
0
100
AcDbCircle
 10
2855.025378965603
 20
1318.156398985524
 30
0.0
 40
2.690648010251363
100
AcDbArc
 50
356.5573195752905
 51
184.5528087321657
  0
ARC
  5
C09
330
1F
100
AcDbEntity
  8
0
100
AcDbCircle
 10
2845.027196198586
 20
1308.898649807447
 30
0.0
 40
11.96788444626508
100
AcDbArc
 50
52.31609381762766
 51
93.27628954587233
  0
LINE
  5
C0A
330
1F
100
AcDbEntity
  8
0
100
AcDbLine
 10
2836.416867632808
 20
1320.846973375992
 30
0.0
 11
2855.045282845349
 21
1320.846973375992
 31
0.0
  0
CIRCLE
  5
C0B
330
1F
100
AcDbEntity
  8
0
100
AcDbCircle
 10
2845.711171359333
 20
1344.375128073662
 30
0.0
 40
8.0
  0
ARC
  5
C0C
330
1F
100
AcDbEntity
  8
0
100
AcDbCircle
 10
2836.396963753063
 20
1318.156398985524
 30
0.0
 40
2.690648010251363
100
AcDbArc
 50
355.4471912678342
 51
183.4426804247095
  0
LINE
  5
C0D
330
1F
100
AcDbEntity
  8
0
100
AcDbLine
 10
2833.211171359333
 20
1311.846973375992
 30
0.0
 11
2845.711171359333
 21
1311.846973375992
 31
0.0
  0
LINE
  5
C0E
330
1F
100
AcDbEntity
  8
0
100
AcDbLine
 10
2832.711171359333
 20
1311.346973375992
 30
0.0
 11
2845.711171359333
 21
1311.346973375992
 31
0.0
  0
LINE
  5
C0F
330
1F
100
AcDbEntity
  8
0
100
AcDbLine
 10
2833.211171359333
 20
1284.346973375992
 30
0.0
 11
2845.711171359333
 21
1284.346973375992
 31
0.0
  0
LINE
  5
C10
330
1F
100
AcDbEntity
  8
0
100
AcDbLine
 10
2832.711171359333
 20
1284.846973375992
 30
0.0
 11
2845.711171359333
 21
1284.846973375992
 31
0.0
  0
LINE
  5
C11
330
1F
100
AcDbEntity
  8
0
100
AcDbLine
 10
2833.711171359333
 20
1276.846973375992
 30
0.0
 11
2845.711171359333
 21
1276.846973375992
 31
0.0
  0
LINE
  5
C12
330
1F
100
AcDbEntity
  8
0
100
AcDbLine
 10
2839.079121680825
 20
1318.36997699378
 30
0.0
 11
2839.079121680825
 21
1311.846973375992
 31
0.0
  0
ARC
  5
C13
330
1F
100
AcDbEntity
  8
0
100
AcDbCircle
 10
2846.395146520079
 20
1308.898649807447
 30
0.0
 40
11.96788444626508
100
AcDbArc
 50
86.72371045412766
 51
127.6839061823723
  0
LINE
  5
C14
330
1F
100
AcDbEntity
  8
0
100
AcDbLine
 10
2833.711171359333
 20
1276.846973375992
 30
0.0
 11
2833.711171359333
 21
1284.346973375992
 31
0.0
  0
LINE
  5
C15
330
1F
100
AcDbEntity
  8
0
100
AcDbLine
 10
2833.711171359333
 20
1276.846973375992
 30
0.0
 11
2834.211171359333
 21
1276.346973375992
 31
0.0
  0
LINE
  5
C16
330
1F
100
AcDbEntity
  8
0
100
AcDbLine
 10
2832.711171359333
 20
1284.846973375992
 30
0.0
 11
2832.711171359333
 21
1311.346973375992
 31
0.0
  0
LINE
  5
C17
330
1F
100
AcDbEntity
  8
0
100
AcDbLine
 10
2832.711171359333
 20
1284.846973375992
 30
0.0
 11
2833.211171359333
 21
1284.346973375992
 31
0.0
  0
LINE
  5
C18
330
1F
100
AcDbEntity
  8
0
100
AcDbLine
 10
2833.711171359333
 20
1311.846973375992
 30
0.0
 11
2833.711171359333
 21
1318.317972290412
 31
0.0
  0
LINE
  5
C19
330
1F
100
AcDbEntity
  8
0
100
AcDbLine
 10
2833.211171359333
 20
1311.846973375992
 30
0.0
 11
2832.711171359333
 21
1311.346973375992
 31
0.0
  0
LINE
  5
C1A
330
1F
100
AcDbEntity
  8
0
100
AcDbLine
 10
2857.711171359333
 20
1284.846973375992
 30
0.0
 11
2857.711171359333
 21
1311.346973375992
 31
0.0
  0
LINE
  5
C1B
330
1F
100
AcDbEntity
  8
0
100
AcDbLine
 10
2833.711171359333
 20
1284.846973375992
 30
0.0
 11
2833.711171359333
 21
1311.346973375992
 31
0.0
  0
LINE
  5
C1C
330
1F
100
AcDbEntity
  8
0
100
AcDbLine
 10
2853.711171359332
 20
1320.846973375992
 30
0.0
 11
2853.711171359332
 21
1321.346973375992
 31
0.0
  0
LINE
  5
C1D
330
1F
100
AcDbEntity
  8
0
100
AcDbLine
 10
2837.711171359332
 20
1320.846973375992
 30
0.0
 11
2837.711171359332
 21
1321.346973375992
 31
0.0
  0
LINE
  5
C1E
330
1F
100
AcDbEntity
  8
0
100
AcDbLine
 10
2853.711171359332
 20
1321.346973375992
 30
0.0
 11
2837.711171359332
 21
1321.346973375992
 31
0.0
  0
ARC
  5
C1F
330
1F
100
AcDbEntity
  8
0
100
AcDbCircle
 10
2845.711171359333
 20
1300.763640042658
 30
0.0
 40
22.08333333333333
100
AcDbArc
 50
68.76068944770006
 51
111.2393105522999
  0
LINE
  5
C2F
330
1F
100
AcDbEntity
  8
AM_7
100
AcDbLine
 10
2845.711171359333
 20
1344.375128073662
 30
0.0
 11
2860.711171359333
 21
1344.375128073662
 31
0.0
1001
GENIUS_GENOREF_13
1005
C33
  0
LINE
  5
C30
330
1F
100
AcDbEntity
  8
AM_7
100
AcDbLine
 10
2845.711171359333
 20
1344.375128073662
 30
0.0
 11
2845.711171359333
 21
1359.375128073662
 31
0.0
1001
GENIUS_GENOREF_13
1005
C33
  0
LINE
  5
C31
330
1F
100
AcDbEntity
  8
AM_7
100
AcDbLine
 10
2845.711171359333
 20
1344.375128073662
 30
0.0
 11
2830.711171359333
 21
1344.375128073662
 31
0.0
1001
GENIUS_GENOREF_13
1005
C33
  0
LINE
  5
C32
330
1F
100
AcDbEntity
  8
AM_7
100
AcDbLine
 10
2845.711171359333
 20
1344.375128073662
 30
0.0
 11
2845.711171359333
 21
1329.375128073662
 31
0.0
1001
GENIUS_GENOREF_13
1005
C33
  0
POINT
  5
C33
330
1F
100
AcDbEntity
  8
0
 60
     1
100
AcDbPoint
 10
0.0
 20
0.0
 30
0.0
1001
GENIUS_GENOLIS_13
1002
{
1000
ENT
1005
C32
1005
C31
1005
C30
1005
C2F
1002
}
1001
GENIUS_GENOENT_13
1002
{
1000
MYREF
1005
C33
1002
}
1002
{
1000
GRP
1005
0
1002
}
1001
GENIUS_GENOBJ-N-CRS_13
1002
{
1000
OWNER
1000
GEN
1002
}
1001
GENIUS_GENODEF_13
1002
{
1000
HIER
1070
    10
1002
}
1002
{
1000
MANEDIT
1070
     0
1002
}
1002
{
1000
NOSEL
1070
     0
1002
}
1002
{
1000
BEHIND
1070
     0
1002
}
1002
{
1000
OTHER
1070
     0
1002
}
1002
{
1000
REACTOR
1002
}
  0
LINE
  5
C40
330
1F
100
AcDbEntity
  8
AM_7
100
AcDbLine
 10
2845.711171359333
 20
1274.346973375992
 30
0.0
 11
2845.711171359333
 21
1324.846973375992
 31
0.0
1001
GENIUS_GENODEF_13
1002
{
1000
HIER
1070
     0
1002
}
1002
{
1000
MANEDIT
1070
     0
1002
}
1002
{
1000
NOSEL
1070
     0
1002
}
1002
{
1000
BEHIND
1070
     0
1002
}
1002
{
1000
OTHER
1070
     0
1002
}
1002
{
1000
REACTOR
1002
}
1001
GENIUS_GENOBJ-N-CEN_13
1002
{
1000
OWNER
1000
GEN
1002
}
1001
GENIUS_GENCEN_19
1002
{
1040
2.0
1002
}
  0
DIMENSION
  5
C41
330
1F
100
AcDbEntity
  8
AM_5
100
AcDbDimension
  2
*D10
 10
2870.211171359333
 20
1284.346973375992
 30
0.0
 11
2867.711171359332
 21
1280.346973375992
 31
0.0
 70
    32
 71
     5
 42
8.0
  3
AM_ISO$0
100
AcDbAlignedDimension
 13
2857.211171359333
 23
1276.346973375992
 33
0.0
 14
2858.211171359333
 24
1284.346973375992
 34
0.0
 50
90.0
100
AcDbRotatedDimension
1001
ACAD
1000
DSTYLE
1002
{
1070
    40
1040
1.0
1070
   144
1040
1.0
1070
   272
1070
     8
1002
}
  0
DIMENSION
  5
C44
330
1F
100
AcDbEntity
  8
AM_5
100
AcDbDimension
  2
*D11
 10
2878.211171359333
 20
1320.846973375992
 30
0.0
 11
2875.711171359332
 21
1298.596973375992
 31
0.0
 70
    32
 71
     5
 42
44.5
  3
AM_ISO$0
100
AcDbAlignedDimension
 13
2857.211171359333
 23
1276.346973375992
 33
0.0
 14
2855.045282845349
 24
1320.846973375992
 34
0.0
 50
90.0
100
AcDbRotatedDimension
1001
ACAD
1000
DSTYLE
1002
{
1070
    40
1040
1.0
1070
   144
1040
1.0
1070
   272
1070
     8
1002
}
  0
DIMENSION
  5
C47
330
1F
100
AcDbEntity
  8
AM_5
100
AcDbDimension
  2
*D12
 10
2886.211171359333
 20
1322.846973375992
 30
0.0
 11
2883.711171359332
 21
1299.596973375992
 31
0.0
 70
    32
 71
     5
 42
46.5
  3
AM_ISO$0
100
AcDbAlignedDimension
 13
2857.211171359333
 23
1276.346973375992
 33
0.0
 14
2845.711171359333
 24
1322.846973375992
 34
0.0
 50
90.0
100
AcDbRotatedDimension
1001
ACAD
1000
DSTYLE
1002
{
1070
    40
1040
1.0
1070
   144
1040
1.0
1070
   272
1070
     8
1002
}
  0
DIMENSION
  5
C4A
330
1F
100
AcDbEntity
  8
AM_5
100
AcDbDimension
  2
*D13
 10
2858.211171359333
 20
1264.346973375992
 30
0.0
 11
2845.461171359333
 21
1266.846973375992
 31
0.0
 70
    32
  1
M<>X1.5
 71
     5
 42
25.5
  3
AM_ISO$0
100
AcDbAlignedDimension
 13
2832.711171359333
 23
1284.846973375992
 33
0.0
 14
2858.211171359333
 24
1283.846973375992
 34
0.0
100
AcDbRotatedDimension
1001
ACAD
1000
DSTYLE
1002
{
1070
    40
1040
1.0
1070
   144
1040
1.0
1070
   272
1070
     8
1002
}
  0
LINE
  5
D4A
330
1F
100
AcDbEntity
  8
0
100
AcDbLine
 10
2943.126026914863
 20
1284.846973375992
 30
0.0
 11
2943.126026914863
 21
1311.346973375992
 31
0.0
  0
LINE
  5
D4B
330
1F
100
AcDbEntity
  8
0
100
AcDbLine
 10
2941.626026914862
 20
1276.346973375992
 30
0.0
 11
2918.626026914863
 21
1276.346973375992
 31
0.0
  0
LINE
  5
D4C
330
1F
100
AcDbEntity
  8
0
100
AcDbLine
 10
2942.626026914862
 20
1284.346973375992
 30
0.0
 11
2930.126026914863
 21
1284.346973375992
 31
0.0
  0
LINE
  5
D4D
330
1F
100
AcDbEntity
  8
0
100
AcDbLine
 10
2942.626026914862
 20
1311.846973375992
 30
0.0
 11
2930.126026914863
 21
1311.846973375992
 31
0.0
  0
LINE
  5
D4E
330
1F
100
AcDbEntity
  8
0
100
AcDbLine
 10
2942.126026914863
 20
1276.846973375992
 30
0.0
 11
2942.126026914863
 21
1284.346973375992
 31
0.0
  0
LINE
  5
D4F
330
1F
100
AcDbEntity
  8
0
100
AcDbLine
 10
2942.126026914863
 20
1276.846973375992
 30
0.0
 11
2941.626026914862
 21
1276.346973375992
 31
0.0
  0
LINE
  5
D50
330
1F
100
AcDbEntity
  8
0
100
AcDbLine
 10
2943.126026914863
 20
1284.846973375992
 30
0.0
 11
2942.626026914862
 21
1284.346973375992
 31
0.0
  0
LINE
  5
D51
330
1F
100
AcDbEntity
  8
0
100
AcDbLine
 10
2942.626026914862
 20
1311.846973375992
 30
0.0
 11
2943.126026914863
 21
1311.346973375992
 31
0.0
  0
LINE
  5
D52
330
1F
100
AcDbEntity
  8
0
100
AcDbLine
 10
2942.126026914863
 20
1311.846973375992
 30
0.0
 11
2942.126026914863
 21
1318.317972290412
 31
0.0
  0
LINE
  5
D53
330
1F
100
AcDbEntity
  8
0
100
AcDbLine
 10
2943.126026914863
 20
1284.846973375992
 30
0.0
 11
2930.126026914863
 21
1284.846973375992
 31
0.0
  0
LINE
  5
D54
330
1F
100
AcDbEntity
  8
0
100
AcDbLine
 10
2942.126026914863
 20
1276.846973375992
 30
0.0
 11
2930.126026914863
 21
1276.846973375992
 31
0.0
  0
LINE
  5
D55
330
1F
100
AcDbEntity
  8
0
100
AcDbLine
 10
2943.126026914863
 20
1311.346973375992
 30
0.0
 11
2930.126026914863
 21
1311.346973375992
 31
0.0
  0
CIRCLE
  5
D58
330
1F
100
AcDbEntity
  8
0
100
AcDbCircle
 10
2930.126026914863
 20
1350.83539956129
 30
0.0
 40
13.0
  0
CIRCLE
  5
D59
330
1F
100
AcDbEntity
  8
0
100
AcDbCircle
 10
2930.126026914863
 20
1350.83539956129
 30
0.0
 40
12.25
  0
ARC
  5
D5A
330
1F
100
AcDbEntity
  8
0
100
AcDbCircle
 10
2930.126026914863
 20
1350.83539956129
 30
0.0
 40
12.0
100
AcDbArc
 50
53.55646430909366
 51
66.44353569091254
  0
LINE
  5
D5B
330
1F
100
AcDbEntity
  8
0
100
AcDbLine
 10
2934.921858438175
 20
1361.83539956129
 30
0.0
 11
2925.33019539155
 21
1361.83539956129
 31
0.0
  0
LINE
  5
D5C
330
1F
100
AcDbEntity
  8
0
100
AcDbLine
 10
2934.921858438175
 20
1339.835399561289
 30
0.0
 11
2925.33019539155
 21
1339.835399561289
 31
0.0
  0
LINE
  5
D5D
330
1F
100
AcDbEntity
  8
0
100
AcDbLine
 10
2922.99766323489
 20
1360.488711492749
 30
0.0
 11
2918.201831711578
 21
1352.18208762983
 31
0.0
  0
LINE
  5
D5E
330
1F
100
AcDbEntity
  8
0
100
AcDbLine
 10
2942.050222118148
 20
1349.488711492749
 30
0.0
 11
2937.254390594835
 21
1341.182087629831
 31
0.0
  0
LINE
  5
D5F
330
1F
100
AcDbEntity
  8
0
100
AcDbLine
 10
2918.201831711578
 20
1349.488711492749
 30
0.0
 11
2922.99766323489
 21
1341.182087629831
 31
0.0
  0
LINE
  5
D60
330
1F
100
AcDbEntity
  8
0
100
AcDbLine
 10
2937.254390594835
 20
1360.488711492749
 30
0.0
 11
2942.050222118148
 21
1352.18208762983
 31
0.0
  0
ARC
  5
D61
330
1F
100
AcDbEntity
  8
0
100
AcDbCircle
 10
2930.126026914863
 20
1350.83539956129
 30
0.0
 40
12.0
100
AcDbArc
 50
113.5564643090874
 51
126.4435356909063
  0
ARC
  5
D62
330
1F
100
AcDbEntity
  8
0
100
AcDbCircle
 10
2930.126026914863
 20
1350.83539956129
 30
0.0
 40
12.0
100
AcDbArc
 50
173.5564643090965
 51
186.4435356909035
  0
ARC
  5
D63
330
1F
100
AcDbEntity
  8
0
100
AcDbCircle
 10
2930.126026914863
 20
1350.83539956129
 30
0.0
 40
12.0
100
AcDbArc
 50
233.5564643090937
 51
246.4435356909125
  0
ARC
  5
D64
330
1F
100
AcDbEntity
  8
0
100
AcDbCircle
 10
2930.126026914863
 20
1350.83539956129
 30
0.0
 40
12.0
100
AcDbArc
 50
293.5564643090875
 51
306.4435356909064
  0
ARC
  5
D65
330
1F
100
AcDbEntity
  8
0
100
AcDbCircle
 10
2930.126026914863
 20
1350.83539956129
 30
0.0
 40
12.0
100
AcDbArc
 50
353.5564643090964
 51
6.443535690903544
  0
LINE
  5
D66
330
1F
100
AcDbEntity
  8
0
100
AcDbLine
 10
2936.75807659337
 20
1318.36997699378
 30
0.0
 11
2936.75807659337
 21
1311.846973375992
 31
0.0
  0
ARC
  5
D67
330
1F
100
AcDbEntity
  8
0
100
AcDbCircle
 10
2939.440234521132
 20
1318.156398985524
 30
0.0
 40
2.690648010251363
100
AcDbArc
 50
356.5573195752905
 51
184.5528087321657
  0
ARC
  5
D68
330
1F
100
AcDbEntity
  8
0
100
AcDbCircle
 10
2929.442051754116
 20
1308.898649807447
 30
0.0
 40
11.96788444626508
100
AcDbArc
 50
52.31609381762766
 51
93.27628954587233
  0
LINE
  5
D69
330
1F
100
AcDbEntity
  8
0
100
AcDbLine
 10
2920.831723188338
 20
1320.846973375992
 30
0.0
 11
2939.460138400879
 21
1320.846973375992
 31
0.0
  0
CIRCLE
  5
D6A
330
1F
100
AcDbEntity
  8
0
100
AcDbCircle
 10
2930.126026914863
 20
1350.83539956129
 30
0.0
 40
8.0
  0
ARC
  5
D6B
330
1F
100
AcDbEntity
  8
0
100
AcDbCircle
 10
2920.811819308593
 20
1318.156398985524
 30
0.0
 40
2.690648010251363
100
AcDbArc
 50
355.4471912678342
 51
183.4426804247095
  0
LINE
  5
D6C
330
1F
100
AcDbEntity
  8
0
100
AcDbLine
 10
2917.626026914863
 20
1311.846973375992
 30
0.0
 11
2930.126026914863
 21
1311.846973375992
 31
0.0
  0
LINE
  5
D6D
330
1F
100
AcDbEntity
  8
0
100
AcDbLine
 10
2917.126026914863
 20
1311.346973375992
 30
0.0
 11
2930.126026914863
 21
1311.346973375992
 31
0.0
  0
LINE
  5
D6E
330
1F
100
AcDbEntity
  8
0
100
AcDbLine
 10
2917.626026914863
 20
1284.346973375992
 30
0.0
 11
2930.126026914863
 21
1284.346973375992
 31
0.0
  0
LINE
  5
D6F
330
1F
100
AcDbEntity
  8
0
100
AcDbLine
 10
2917.126026914863
 20
1284.846973375992
 30
0.0
 11
2930.126026914863
 21
1284.846973375992
 31
0.0
  0
LINE
  5
D70
330
1F
100
AcDbEntity
  8
0
100
AcDbLine
 10
2918.126026914862
 20
1276.846973375992
 30
0.0
 11
2930.126026914863
 21
1276.846973375992
 31
0.0
  0
LINE
  5
D71
330
1F
100
AcDbEntity
  8
0
100
AcDbLine
 10
2923.493977236354
 20
1318.36997699378
 30
0.0
 11
2923.493977236354
 21
1311.846973375992
 31
0.0
  0
ARC
  5
D72
330
1F
100
AcDbEntity
  8
0
100
AcDbCircle
 10
2930.810002075609
 20
1308.898649807447
 30
0.0
 40
11.96788444626508
100
AcDbArc
 50
86.72371045412766
 51
127.6839061823723
  0
LINE
  5
D73
330
1F
100
AcDbEntity
  8
0
100
AcDbLine
 10
2918.126026914862
 20
1276.846973375992
 30
0.0
 11
2918.126026914862
 21
1284.346973375992
 31
0.0
  0
LINE
  5
D74
330
1F
100
AcDbEntity
  8
0
100
AcDbLine
 10
2918.126026914862
 20
1276.846973375992
 30
0.0
 11
2918.626026914863
 21
1276.346973375992
 31
0.0
  0
LINE
  5
D75
330
1F
100
AcDbEntity
  8
0
100
AcDbLine
 10
2917.126026914863
 20
1284.846973375992
 30
0.0
 11
2917.126026914863
 21
1311.346973375992
 31
0.0
  0
LINE
  5
D76
330
1F
100
AcDbEntity
  8
0
100
AcDbLine
 10
2917.126026914863
 20
1284.846973375992
 30
0.0
 11
2917.626026914863
 21
1284.346973375992
 31
0.0
  0
LINE
  5
D77
330
1F
100
AcDbEntity
  8
0
100
AcDbLine
 10
2918.126026914862
 20
1311.846973375992
 30
0.0
 11
2918.126026914862
 21
1318.317972290412
 31
0.0
  0
LINE
  5
D78
330
1F
100
AcDbEntity
  8
0
100
AcDbLine
 10
2917.626026914863
 20
1311.846973375992
 30
0.0
 11
2917.126026914863
 21
1311.346973375992
 31
0.0
  0
LINE
  5
D79
330
1F
100
AcDbEntity
  8
0
100
AcDbLine
 10
2942.126026914863
 20
1284.846973375992
 30
0.0
 11
2942.126026914863
 21
1311.346973375992
 31
0.0
  0
LINE
  5
D7A
330
1F
100
AcDbEntity
  8
0
100
AcDbLine
 10
2918.126026914862
 20
1284.846973375992
 30
0.0
 11
2918.126026914862
 21
1311.346973375992
 31
0.0
  0
LINE
  5
D7B
330
1F
100
AcDbEntity
  8
0
100
AcDbLine
 10
2937.126026914862
 20
1328.346973375992
 30
0.0
 11
2923.126026914863
 21
1328.346973375992
 31
0.0
  0
LINE
  5
D7C
330
1F
100
AcDbEntity
  8
0
100
AcDbLine
 10
2937.626026914863
 20
1322.846973375992
 30
0.0
 11
2922.626026914862
 21
1322.846973375992
 31
0.0
  0
LINE
  5
D7D
330
1F
100
AcDbEntity
  8
0
100
AcDbLine
 10
2937.626026914863
 20
1322.846973375992
 30
0.0
 11
2937.626026914863
 21
1327.846973375992
 31
0.0
  0
LINE
  5
D7E
330
1F
100
AcDbEntity
  8
0
100
AcDbLine
 10
2922.626026914862
 20
1322.846973375992
 30
0.0
 11
2922.626026914862
 21
1327.846973375992
 31
0.0
  0
LINE
  5
D7F
330
1F
100
AcDbEntity
  8
0
100
AcDbLine
 10
2922.626026914862
 20
1327.846973375992
 30
0.0
 11
2923.126026914863
 21
1328.346973375992
 31
0.0
  0
LINE
  5
D80
330
1F
100
AcDbEntity
  8
0
100
AcDbLine
 10
2937.126026914862
 20
1328.346973375992
 30
0.0
 11
2937.626026914863
 21
1327.846973375992
 31
0.0
  0
LINE
  5
D81
330
1F
100
AcDbEntity
  8
0
100
AcDbLine
 10
2937.626026914863
 20
1322.846973375992
 30
0.0
 11
2938.126026914863
 21
1320.846973375992
 31
0.0
  0
LINE
  5
D82
330
1F
100
AcDbEntity
  8
0
100
AcDbLine
 10
2922.626026914862
 20
1322.846973375992
 30
0.0
 11
2922.126026914863
 21
1320.846973375992
 31
0.0
  0
LINE
  5
D83
330
1F
100
AcDbEntity
  8
0
  6
HIDDEN
 62
     3
 48
0.3
100
AcDbLine
 10
2933.126026914863
 20
1322.846973375992
 30
0.0
 11
2933.126026914863
 21
1328.346973375992
 31
0.0
  0
LINE
  5
D84
330
1F
100
AcDbEntity
  8
0
  6
HIDDEN
 62
     3
 48
0.3
100
AcDbLine
 10
2927.126026914863
 20
1322.846973375992
 30
0.0
 11
2927.126026914863
 21
1328.346973375992
 31
0.0
  0
LINE
  5
D85
330
1F
100
AcDbEntity
  8
0
  6
HIDDEN
 62
     3
 48
0.3
100
AcDbLine
 10
2932.626026914863
 20
1321.846973375992
 30
0.0
 11
2932.626026914863
 21
1328.346973375992
 31
0.0
  0
LINE
  5
D86
330
1F
100
AcDbEntity
  8
0
  6
HIDDEN
 62
     3
 48
0.3
100
AcDbLine
 10
2927.626026914863
 20
1321.846973375992
 30
0.0
 11
2927.626026914863
 21
1328.346973375992
 31
0.0
  0
LINE
  5
D87
330
1F
100
AcDbEntity
  8
0
  6
HIDDEN
 62
     3
 48
0.3
100
AcDbLine
 10
2932.626026914863
 20
1321.846973375992
 30
0.0
 11
2927.626026914863
 21
1321.846973375992
 31
0.0
  0
LINE
  5
D88
330
1F
100
AcDbEntity
  8
0
  6
HIDDEN
 62
     3
 48
0.3
100
AcDbLine
 10
2927.626026914863
 20
1321.846973375992
 30
0.0
 11
2930.126026914863
 21
1320.846973375992
 31
0.0
  0
LINE
  5
D89
330
1F
100
AcDbEntity
  8
0
  6
HIDDEN
 62
     3
 48
0.3
100
AcDbLine
 10
2930.126026914863
 20
1320.846973375992
 30
0.0
 11
2932.626026914863
 21
1321.846973375992
 31
0.0
  0
ARC
  5
D8A
330
1F
100
AcDbEntity
  8
0
100
AcDbCircle
 10
2930.126026914863
 20
1350.83539956129
 30
0.0
 40
7.5
100
AcDbArc
 50
119.9264348666208
 51
240.0735651333792
  0
CIRCLE
  5
D8B
330
1F
100
AcDbEntity
  8
0
100
AcDbCircle
 10
2930.126026914863
 20
1350.83539956129
 30
0.0
 40
3.0
  0
CIRCLE
  5
D8C
330
1F
100
AcDbEntity
  8
0
100
AcDbCircle
 10
2930.126026914863
 20
1350.83539956129
 30
0.0
 40
2.5
  0
LINE
  5
D8D
330
1F
100
AcDbEntity
  8
0
100
AcDbLine
 10
2933.867684301637
 20
1357.33539956129
 30
0.0
 11
2926.384369528089
 21
1357.33539956129
 31
0.0
  0
LINE
  5
D8E
330
1F
100
AcDbEntity
  8
0
100
AcDbLine
 10
2933.867684301637
 20
1344.33539956129
 30
0.0
 11
2926.384369528089
 21
1344.33539956129
 31
0.0
  0
ARC
  5
D8F
330
1F
100
AcDbEntity
  8
0
100
AcDbCircle
 10
2930.126026914863
 20
1350.83539956129
 30
0.0
 40
7.5
100
AcDbArc
 50
299.9264348666208
 51
60.07356513337917
  0
LINE
  5
D9E
330
1F
100
AcDbEntity
  8
AM_7
100
AcDbLine
 10
2930.126026914863
 20
1330.346973375992
 30
0.0
 11
2930.126026914863
 21
1274.346973375992
 31
0.0
1001
GENIUS_GENOBJ-N-CEN_13
1002
{
1000
OWNER
1000
GEN
1002
}
1001
GENIUS_GENODEF_13
1002
{
1000
HIER
1070
     0
1002
}
1002
{
1000
MANEDIT
1070
     0
1002
}
1002
{
1000
NOSEL
1070
     0
1002
}
1002
{
1000
BEHIND
1070
     0
1002
}
1002
{
1000
OTHER
1070
     0
1002
}
1002
{
1000
REACTOR
1002
}
1001
GENIUS_GENCEN_19
1002
{
1040
2.0
1002
}
  0
LINE
  5
DAC
330
1F
100
AcDbEntity
  8
AM_7
100
AcDbLine
 10
2930.126026914863
 20
1350.83539956129
 30
0.0
 11
2945.126026914863
 21
1350.83539956129
 31
0.0
1001
GENIUS_GENOREF_13
1005
DB0
  0
LINE
  5
DAD
330
1F
100
AcDbEntity
  8
AM_7
100
AcDbLine
 10
2930.126026914863
 20
1350.83539956129
 30
0.0
 11
2930.126026914863
 21
1365.835399561289
 31
0.0
1001
GENIUS_GENOREF_13
1005
DB0
  0
LINE
  5
DAE
330
1F
100
AcDbEntity
  8
AM_7
100
AcDbLine
 10
2930.126026914863
 20
1350.83539956129
 30
0.0
 11
2915.126026914863
 21
1350.83539956129
 31
0.0
1001
GENIUS_GENOREF_13
1005
DB0
  0
LINE
  5
DAF
330
1F
100
AcDbEntity
  8
AM_7
100
AcDbLine
 10
2930.126026914863
 20
1350.83539956129
 30
0.0
 11
2930.126026914863
 21
1335.83539956129
 31
0.0
1001
GENIUS_GENOREF_13
1005
DB0
  0
POINT
  5
DB0
330
1F
100
AcDbEntity
  8
0
 60
     1
100
AcDbPoint
 10
0.0
 20
0.0
 30
0.0
1001
GENIUS_GENOENT_13
1002
{
1000
MYREF
1005
DB0
1002
}
1002
{
1000
GRP
1005
0
1002
}
1001
GENIUS_GENODEF_13
1002
{
1000
HIER
1070
    10
1002
}
1002
{
1000
MANEDIT
1070
     0
1002
}
1002
{
1000
NOSEL
1070
     0
1002
}
1002
{
1000
BEHIND
1070
     0
1002
}
1002
{
1000
OTHER
1070
     0
1002
}
1002
{
1000
REACTOR
1002
}
1001
GENIUS_GENOBJ-N-CRS_13
1002
{
1000
OWNER
1000
GEN
1002
}
1001
GENIUS_GENOLIS_13
1002
{
1000
ENT
1005
DAF
1005
DAE
1005
DAD
1005
DAC
1002
}
  0
DIMENSION
  5
DB5
330
1F
100
AcDbEntity
  8
AM_5
100
AcDbDimension
  2
*D14
 10
2954.626026914862
 20
1284.346973375992
 30
0.0
 11
2952.126026914862
 21
1280.346973375992
 31
0.0
 70
    32
 71
     5
 42
8.0
  3
AM_ISO$0
100
AcDbAlignedDimension
 13
2941.626026914862
 23
1276.346973375992
 33
0.0
 14
2942.626026914862
 24
1284.346973375992
 34
0.0
 50
90.0
100
AcDbRotatedDimension
1001
ACAD
1000
DSTYLE
1002
{
1070
    40
1040
1.0
1070
   144
1040
1.0
1070
   272
1070
     8
1002
}
  0
DIMENSION
  5
DB6
330
1F
100
AcDbEntity
  8
AM_5
100
AcDbDimension
  2
*D15
 10
2962.626026914863
 20
1320.846973375992
 30
0.0
 11
2960.126026914862
 21
1298.596973375992
 31
0.0
 70
    32
 71
     5
 42
44.5
  3
AM_ISO$0
100
AcDbAlignedDimension
 13
2941.626026914862
 23
1276.346973375992
 33
0.0
 14
2939.460138400879
 24
1320.846973375992
 34
0.0
 50
90.0
100
AcDbRotatedDimension
1001
ACAD
1000
DSTYLE
1002
{
1070
    40
1040
1.0
1070
   144
1040
1.0
1070
   272
1070
     8
1002
}
  0
DIMENSION
  5
DB7
330
1F
100
AcDbEntity
  8
AM_5
100
AcDbDimension
  2
*D16
 10
2970.626026914862
 20
1328.346973375992
 30
0.0
 11
2968.126026914862
 21
1302.346973375992
 31
0.0
 70
    32
 71
     5
 42
52.0
  3
AM_ISO$0
100
AcDbAlignedDimension
 13
2941.626026914862
 23
1276.346973375992
 33
0.0
 14
2937.126026914862
 24
1328.346973375992
 34
0.0
 50
90.0
100
AcDbRotatedDimension
1001
ACAD
1000
DSTYLE
1002
{
1070
    40
1040
1.0
1070
   144
1040
1.0
1070
   272
1070
     8
1002
}
  0
DIMENSION
  5
DB8
330
1F
100
AcDbEntity
  8
AM_5
100
AcDbDimension
  2
*D17
 10
2942.626026914862
 20
1264.346973375992
 30
0.0
 11
2929.876026914863
 21
1266.846973375992
 31
0.0
 70
    32
  1
M<>X1.5
 71
     5
 42
25.5
  3
AM_ISO$0
100
AcDbAlignedDimension
 13
2917.126026914863
 23
1284.846973375992
 33
0.0
 14
2942.626026914862
 24
1283.846973375992
 34
0.0
100
AcDbRotatedDimension
1001
ACAD
1000
DSTYLE
1002
{
1070
    40
1040
1.0
1070
   144
1040
1.0
1070
   272
1070
     8
1002
}
  0
INSERT
  5
E1A
330
1F
100
AcDbEntity
  8
AM_5
100
AcDbBlockReference
  2
*S35
 10
0.0
 20
0.0
 30
0.0
  0
TEXT
  5
E1B
330
1F
100
AcDbEntity
  8
AM_5
100
AcDbText
 10
2943.95934285704
 20
1336.174989779559
 30
0.0
 40
3.0
  1
M6x1.0
 41
0.75
  7
CHINESET
100
AcDbText
  0
LINE
  5
E8A
330
1F
100
AcDbEntity
  8
0
100
AcDbLine
 10
2594.628376664839
 20
1093.991839212158
 30
0.0
 11
2594.628376664839
 21
1128.991839212158
 31
0.0
  0
LINE
  5
E8B
330
1F
100
AcDbEntity
  8
0
100
AcDbLine
 10
2593.128376664839
 20
1085.491839212158
 30
0.0
 11
2566.128376664839
 21
1085.491839212158
 31
0.0
  0
LINE
  5
E8C
330
1F
100
AcDbEntity
  8
0
100
AcDbLine
 10
2591.067931356301
 20
1139.491839212158
 30
0.0
 11
2568.314902076916
 21
1139.491839212158
 31
0.0
  0
LINE
  5
E8D
330
1F
100
AcDbEntity
  8
0
100
AcDbLine
 10
2594.128376664839
 20
1093.491839212158
 30
0.0
 11
2579.628376664839
 21
1093.491839212158
 31
0.0
  0
LINE
  5
E8E
330
1F
100
AcDbEntity
  8
0
100
AcDbLine
 10
2593.628376664839
 20
1085.991839212158
 30
0.0
 11
2579.628376664839
 21
1085.991839212158
 31
0.0
  0
LINE
  5
E8F
330
1F
100
AcDbEntity
  8
0
100
AcDbLine
 10
2594.628376664839
 20
1093.991839212158
 30
0.0
 11
2579.628376664839
 21
1093.991839212158
 31
0.0
  0
LINE
  5
E90
330
1F
100
AcDbEntity
  8
0
100
AcDbLine
 10
2593.628376664839
 20
1085.991839212158
 30
0.0
 11
2593.628376664839
 21
1093.491839212158
 31
0.0
  0
LINE
  5
E91
330
1F
100
AcDbEntity
  8
0
100
AcDbLine
 10
2594.128376664839
 20
1093.491839212158
 30
0.0
 11
2594.628376664839
 21
1093.991839212158
 31
0.0
  0
LINE
  5
E92
330
1F
100
AcDbEntity
  8
0
100
AcDbLine
 10
2593.128376664839
 20
1085.491839212158
 30
0.0
 11
2593.628376664839
 21
1085.991839212158
 31
0.0
  0
CIRCLE
  5
E95
330
1F
100
AcDbEntity
  8
0
100
AcDbCircle
 10
2579.628376664839
 20
1176.571069195462
 30
0.0
 40
15.0
  0
CIRCLE
  5
E96
330
1F
100
AcDbEntity
  8
0
100
AcDbCircle
 10
2579.628376664839
 20
1176.571069195462
 30
0.0
 40
14.25
  0
LINE
  5
E97
330
1F
100
AcDbEntity
  8
0
100
AcDbLine
 10
2570.968122626995
 20
1187.571069195463
 30
0.0
 11
2565.771970204288
 21
1178.571069195463
 31
0.0
  0
LINE
  5
E98
330
1F
100
AcDbEntity
  8
0
100
AcDbLine
 10
2593.48478312539
 20
1174.571069195462
 30
0.0
 11
2588.288630702683
 21
1165.571069195463
 31
0.0
  0
LINE
  5
E99
330
1F
100
AcDbEntity
  8
0
100
AcDbLine
 10
2565.771970204288
 20
1174.571069195462
 30
0.0
 11
2570.968122626995
 21
1165.571069195463
 31
0.0
  0
LINE
  5
E9A
330
1F
100
AcDbEntity
  8
0
100
AcDbLine
 10
2588.288630702683
 20
1187.571069195463
 30
0.0
 11
2593.48478312539
 21
1178.571069195463
 31
0.0
  0
LINE
  5
E9B
330
1F
100
AcDbEntity
  8
0
100
AcDbLine
 10
2584.824529087546
 20
1189.571069195463
 30
0.0
 11
2574.432224242132
 21
1189.571069195463
 31
0.0
  0
LINE
  5
E9C
330
1F
100
AcDbEntity
  8
0
100
AcDbLine
 10
2584.824529087546
 20
1163.571069195463
 30
0.0
 11
2574.432224242132
 21
1163.571069195463
 31
0.0
  0
ARC
  5
E9D
330
1F
100
AcDbEntity
  8
0
100
AcDbCircle
 10
2579.628376664839
 20
1176.571069195462
 30
0.0
 40
14.0
100
AcDbArc
 50
231.7867892982536
 51
308.2132107017465
  0
ARC
  5
E9E
330
1F
100
AcDbEntity
  8
0
100
AcDbCircle
 10
2579.628376664839
 20
1176.571069195462
 30
0.0
 40
14.0
100
AcDbArc
 50
171.7867892982624
 51
188.2132107017375
  0
ARC
  5
E9F
330
1F
100
AcDbEntity
  8
0
100
AcDbCircle
 10
2579.628376664839
 20
1176.571069195462
 30
0.0
 40
14.0
100
AcDbArc
 50
111.7867892982729
 51
128.2132107017464
  0
ARC
  5
EA0
330
1F
100
AcDbEntity
  8
0
100
AcDbCircle
 10
2579.628376664839
 20
1176.571069195462
 30
0.0
 40
14.0
100
AcDbArc
 50
51.78678929825354
 51
68.21321070172704
  0
ARC
  5
EA1
330
1F
100
AcDbEntity
  8
0
100
AcDbCircle
 10
2579.628376664839
 20
1176.571069195462
 30
0.0
 40
14.0
100
AcDbArc
 50
351.7867892982624
 51
8.213210701737587
  0
CIRCLE
  5
EA2
330
1F
100
AcDbEntity
  8
0
100
AcDbCircle
 10
2579.628376664839
 20
1176.571069195462
 30
0.0
 40
10.0
  0
LINE
  5
EA3
330
1F
100
AcDbEntity
  8
0
100
AcDbLine
 10
2588.288630702683
 20
1138.047668038948
 30
0.0
 11
2588.288630702683
 21
1129.491839212158
 31
0.0
  0
LINE
  5
EA4
330
1F
100
AcDbEntity
  8
0
100
AcDbLine
 10
2594.128376664839
 20
1129.491839212158
 30
0.0
 11
2594.628376664839
 21
1128.991839212158
 31
0.0
  0
LINE
  5
EA5
330
1F
100
AcDbEntity
  8
0
100
AcDbLine
 10
2593.628376664839
 20
1137.949983107381
 30
0.0
 11
2593.628376664839
 21
1129.491839212158
 31
0.0
  0
ARC
  5
EA6
330
1F
100
AcDbEntity
  8
0
100
AcDbCircle
 10
2590.92837666484
 20
1136.351994019306
 30
0.0
 40
3.137446274536813
100
AcDbArc
 50
30.61907537985989
 51
147.2848286280873
  0
ARC
  5
EA7
330
1F
100
AcDbEntity
  8
0
100
AcDbCircle
 10
2579.628376664839
 20
1122.018171039855
 30
0.0
 40
17.47126925398817
100
AcDbArc
 50
72.69781568966152
 51
90.0
  0
ARC
  5
EA8
330
1F
100
AcDbEntity
  8
0
100
AcDbCircle
 10
2584.528304472387
 20
1127.583516120294
 30
0.0
 40
11.11928634107948
100
AcDbArc
 50
70.23393871234413
 51
88.47342464481279
  0
LINE
  5
EA9
330
1F
100
AcDbEntity
  8
0
100
AcDbLine
 10
2594.128376664839
 20
1129.491839212158
 30
0.0
 11
2579.628376664839
 21
1129.491839212158
 31
0.0
  0
LINE
  5
EAA
330
1F
100
AcDbEntity
  8
0
100
AcDbLine
 10
2594.628376664839
 20
1128.991839212158
 30
0.0
 11
2579.613240326841
 21
1128.991839212158
 31
0.0
  0
ARC
  5
EAB
330
1F
100
AcDbEntity
  8
0
100
AcDbCircle
 10
2579.628376664839
 20
1122.018171039855
 30
0.0
 40
17.47126925398817
100
AcDbArc
 50
90.0
 51
107.3021843103384
  0
LINE
  5
EAC
330
1F
100
AcDbEntity
  8
0
100
AcDbLine
 10
2564.628376664839
 20
1128.991839212158
 30
0.0
 11
2579.643513002837
 21
1128.991839212158
 31
0.0
  0
LINE
  5
EAD
330
1F
100
AcDbEntity
  8
0
100
AcDbLine
 10
2565.128376664839
 20
1129.491839212158
 30
0.0
 11
2579.628376664839
 21
1129.491839212158
 31
0.0
  0
LINE
  5
EAE
330
1F
100
AcDbEntity
  8
0
100
AcDbLine
 10
2564.628376664839
 20
1093.991839212158
 30
0.0
 11
2579.628376664839
 21
1093.991839212158
 31
0.0
  0
LINE
  5
EAF
330
1F
100
AcDbEntity
  8
0
100
AcDbLine
 10
2565.628376664839
 20
1085.991839212158
 30
0.0
 11
2579.628376664839
 21
1085.991839212158
 31
0.0
  0
LINE
  5
EB0
330
1F
100
AcDbEntity
  8
0
100
AcDbLine
 10
2565.128376664839
 20
1093.491839212158
 30
0.0
 11
2579.628376664839
 21
1093.491839212158
 31
0.0
  0
LINE
  5
EB1
330
1F
100
AcDbEntity
  8
0
100
AcDbLine
 10
2570.968122626995
 20
1138.047668038948
 30
0.0
 11
2570.968122626995
 21
1129.491839212158
 31
0.0
  0
LINE
  5
EB2
330
1F
100
AcDbEntity
  8
0
100
AcDbLine
 10
2565.628376664839
 20
1137.949983107381
 30
0.0
 11
2565.628376664839
 21
1129.491839212158
 31
0.0
  0
LINE
  5
EB3
330
1F
100
AcDbEntity
  8
0
100
AcDbLine
 10
2564.628376664839
 20
1093.991839212158
 30
0.0
 11
2564.628376664839
 21
1128.991839212158
 31
0.0
  0
LINE
  5
EB4
330
1F
100
AcDbEntity
  8
0
100
AcDbLine
 10
2565.628376664839
 20
1085.991839212158
 30
0.0
 11
2565.628376664839
 21
1093.491839212158
 31
0.0
  0
LINE
  5
EB5
330
1F
100
AcDbEntity
  8
0
100
AcDbLine
 10
2566.128376664839
 20
1085.491839212158
 30
0.0
 11
2565.628376664839
 21
1085.991839212158
 31
0.0
  0
LINE
  5
EB6
330
1F
100
AcDbEntity
  8
0
100
AcDbLine
 10
2565.128376664839
 20
1093.491839212158
 30
0.0
 11
2564.628376664839
 21
1093.991839212158
 31
0.0
  0
LINE
  5
EB7
330
1F
100
AcDbEntity
  8
0
100
AcDbLine
 10
2565.128376664839
 20
1129.491839212158
 30
0.0
 11
2564.628376664839
 21
1128.991839212158
 31
0.0
  0
ARC
  5
EB8
330
1F
100
AcDbEntity
  8
0
100
AcDbCircle
 10
2568.328376664839
 20
1136.351994019306
 30
0.0
 40
3.137446274536813
100
AcDbArc
 50
32.71517137191271
 51
149.3809246201401
  0
ARC
  5
EB9
330
1F
100
AcDbEntity
  8
0
100
AcDbCircle
 10
2574.728448857292
 20
1127.583516120294
 30
0.0
 40
11.11928634107948
100
AcDbArc
 50
91.52657535518722
 51
109.7660612876558
  0
LINE
  5
EBA
330
1F
100
AcDbEntity
  8
0
100
AcDbLine
 10
2593.878376664839
 20
1093.991839212158
 30
0.0
 11
2593.878376664839
 21
1128.991839212158
 31
0.0
  0
LINE
  5
EBB
330
1F
100
AcDbEntity
  8
0
100
AcDbLine
 10
2565.378376664839
 20
1093.991839212158
 30
0.0
 11
2565.378376664839
 21
1128.991839212158
 31
0.0
  0
LINE
  5
EBC
330
1F
100
AcDbEntity
  8
0
100
AcDbLine
 10
2589.628376664839
 20
1139.491839212158
 30
0.0
 11
2589.628376664839
 21
1139.991839212158
 31
0.0
  0
LINE
  5
EBD
330
1F
100
AcDbEntity
  8
0
100
AcDbLine
 10
2569.628376664839
 20
1139.491839212158
 30
0.0
 11
2569.628376664839
 21
1139.991839212158
 31
0.0
  0
LINE
  5
EBE
330
1F
100
AcDbEntity
  8
0
100
AcDbLine
 10
2589.628376664839
 20
1139.991839212158
 30
0.0
 11
2569.628376664839
 21
1139.991839212158
 31
0.0
  0
ARC
  5
EBF
330
1F
100
AcDbEntity
  8
0
100
AcDbCircle
 10
2579.628376664839
 20
1107.408505878825
 30
0.0
 40
34.08333333333333
100
AcDbArc
 50
72.9384687801045
 51
107.0615312198955
  0
LINE
  5
ED2
330
1F
100
AcDbEntity
  8
AM_7
100
AcDbLine
 10
2579.628376664839
 20
1143.491839212158
 30
0.0
 11
2579.628376664839
 21
1083.491839212158
 31
0.0
1001
GENIUS_GENODEF_13
1002
{
1000
HIER
1070
     0
1002
}
1002
{
1000
MANEDIT
1070
     0
1002
}
1002
{
1000
NOSEL
1070
     0
1002
}
1002
{
1000
BEHIND
1070
     0
1002
}
1002
{
1000
OTHER
1070
     0
1002
}
1002
{
1000
REACTOR
1002
}
1001
GENIUS_GENOBJ-N-CEN_13
1002
{
1000
OWNER
1000
GEN
1002
}
1001
GENIUS_GENCEN_19
1002
{
1040
2.0
1002
}
  0
LINE
  5
EE0
330
1F
100
AcDbEntity
  8
AM_7
100
AcDbLine
 10
2579.628376664839
 20
1176.571069195462
 30
0.0
 11
2596.628376664839
 21
1176.571069195462
 31
0.0
1001
GENIUS_GENOREF_13
1005
EE4
  0
LINE
  5
EE1
330
1F
100
AcDbEntity
  8
AM_7
100
AcDbLine
 10
2579.628376664839
 20
1176.571069195462
 30
0.0
 11
2579.628376664839
 21
1193.571069195463
 31
0.0
1001
GENIUS_GENOREF_13
1005
EE4
  0
LINE
  5
EE2
330
1F
100
AcDbEntity
  8
AM_7
100
AcDbLine
 10
2579.628376664839
 20
1176.571069195462
 30
0.0
 11
2562.628376664839
 21
1176.571069195462
 31
0.0
1001
GENIUS_GENOREF_13
1005
EE4
  0
LINE
  5
EE3
330
1F
100
AcDbEntity
  8
AM_7
100
AcDbLine
 10
2579.628376664839
 20
1176.571069195462
 30
0.0
 11
2579.628376664839
 21
1159.571069195463
 31
0.0
1001
GENIUS_GENOREF_13
1005
EE4
  0
POINT
  5
EE4
330
1F
100
AcDbEntity
  8
0
 60
     1
100
AcDbPoint
 10
0.0
 20
0.0
 30
0.0
1001
GENIUS_GENODEF_13
1002
{
1000
HIER
1070
    10
1002
}
1002
{
1000
MANEDIT
1070
     0
1002
}
1002
{
1000
NOSEL
1070
     0
1002
}
1002
{
1000
BEHIND
1070
     0
1002
}
1002
{
1000
OTHER
1070
     0
1002
}
1002
{
1000
REACTOR
1002
}
1001
GENIUS_GENOLIS_13
1002
{
1000
ENT
1005
EE3
1005
EE2
1005
EE1
1005
EE0
1002
}
1001
GENIUS_GENOENT_13
1002
{
1000
MYREF
1005
EE4
1002
}
1002
{
1000
GRP
1005
0
1002
}
1001
GENIUS_GENOBJ-N-CRS_13
1002
{
1000
OWNER
1000
GEN
1002
}
  0
DIMENSION
  5
F28
330
1F
100
AcDbEntity
  8
AM_5
100
AcDbDimension
  2
*D18
 10
2606.128376664839
 20
1093.491839212158
 30
0.0
 11
2603.628376664838
 21
1089.491839212158
 31
0.0
 70
    32
 71
     5
 42
8.0
  3
AM_ISO$0
100
AcDbAlignedDimension
 13
2593.128376664839
 23
1085.491839212158
 33
0.0
 14
2594.128376664839
 24
1093.491839212158
 34
0.0
 50
90.0
100
AcDbRotatedDimension
1001
ACAD
1000
DSTYLE
1002
{
1070
    40
1040
1.0
1070
   144
1040
1.0
1070
   272
1070
     8
1002
}
  0
DIMENSION
  5
F29
330
1F
100
AcDbEntity
  8
AM_5
100
AcDbDimension
  2
*D19
 10
2614.128376664839
 20
1139.491839212158
 30
0.0
 11
2611.628376664839
 21
1112.491839212158
 31
0.0
 70
    32
 71
     5
 42
54.0
  3
AM_ISO$0
100
AcDbAlignedDimension
 13
2593.128376664839
 23
1085.491839212158
 33
0.0
 14
2591.067931356301
 24
1139.491839212158
 34
0.0
 50
90.0
100
AcDbRotatedDimension
1001
ACAD
1000
DSTYLE
1002
{
1070
    40
1040
1.0
1070
   144
1040
1.0
1070
   272
1070
     8
1002
}
  0
DIMENSION
  5
F2A
330
1F
100
AcDbEntity
  8
AM_5
100
AcDbDimension
  2
*D20
 10
2622.128376664839
 20
1141.491839212158
 30
0.0
 11
2619.628376664838
 21
1113.491839212158
 31
0.0
 70
    32
 71
     5
 42
56.0
  3
AM_ISO$0
100
AcDbAlignedDimension
 13
2593.128376664839
 23
1085.491839212158
 33
0.0
 14
2579.628376664839
 24
1141.491839212158
 34
0.0
 50
90.0
100
AcDbRotatedDimension
1001
ACAD
1000
DSTYLE
1002
{
1070
    40
1040
1.0
1070
   144
1040
1.0
1070
   272
1070
     8
1002
}
  0
DIMENSION
  5
F2B
330
1F
100
AcDbEntity
  8
AM_5
100
AcDbDimension
  2
*D21
 10
2594.628376664839
 20
1073.491839212158
 30
0.0
 11
2579.628376664839
 21
1075.991839212158
 31
0.0
 70
    32
  1
M<>X1.5
 71
     5
 42
30.0
  3
AM_ISO$0
100
AcDbAlignedDimension
 13
2564.628376664839
 23
1093.991839212158
 33
0.0
 14
2594.628376664839
 24
1093.991839212158
 34
0.0
100
AcDbRotatedDimension
1001
ACAD
1000
DSTYLE
1002
{
1070
    40
1040
1.0
1070
   144
1040
1.0
1070
   272
1070
     8
1002
}
  0
LINE
  5
FFD
330
1F
100
AcDbEntity
  8
0
100
AcDbLine
 10
2675.475069266624
 20
1093.991839212158
 30
0.0
 11
2675.475069266624
 21
1128.991839212158
 31
0.0
  0
LINE
  5
FFE
330
1F
100
AcDbEntity
  8
0
100
AcDbLine
 10
2673.975069266624
 20
1085.491839212158
 30
0.0
 11
2646.975069266624
 21
1085.491839212158
 31
0.0
  0
LINE
  5
FFF
330
1F
100
AcDbEntity
  8
0
100
AcDbLine
 10
2671.914623958086
 20
1139.491839212158
 30
0.0
 11
2649.161594678701
 21
1139.491839212158
 31
0.0
  0
LINE
  5
1000
330
1F
100
AcDbEntity
  8
0
100
AcDbLine
 10
2674.975069266624
 20
1093.491839212158
 30
0.0
 11
2660.475069266624
 21
1093.491839212158
 31
0.0
  0
LINE
  5
1001
330
1F
100
AcDbEntity
  8
0
100
AcDbLine
 10
2674.475069266624
 20
1085.991839212158
 30
0.0
 11
2660.475069266624
 21
1085.991839212158
 31
0.0
  0
LINE
  5
1002
330
1F
100
AcDbEntity
  8
0
100
AcDbLine
 10
2675.475069266624
 20
1093.991839212158
 30
0.0
 11
2660.475069266624
 21
1093.991839212158
 31
0.0
  0
LINE
  5
1003
330
1F
100
AcDbEntity
  8
0
100
AcDbLine
 10
2674.475069266624
 20
1085.991839212158
 30
0.0
 11
2674.475069266624
 21
1093.491839212158
 31
0.0
  0
LINE
  5
1004
330
1F
100
AcDbEntity
  8
0
100
AcDbLine
 10
2674.975069266624
 20
1093.491839212158
 30
0.0
 11
2675.475069266624
 21
1093.991839212158
 31
0.0
  0
LINE
  5
1005
330
1F
100
AcDbEntity
  8
0
100
AcDbLine
 10
2673.975069266624
 20
1085.491839212158
 30
0.0
 11
2674.475069266624
 21
1085.991839212158
 31
0.0
  0
CIRCLE
  5
1008
330
1F
100
AcDbEntity
  8
0
100
AcDbCircle
 10
2660.475069266624
 20
1187.017734578924
 30
0.0
 40
15.0
  0
CIRCLE
  5
1009
330
1F
100
AcDbEntity
  8
0
100
AcDbCircle
 10
2660.475069266624
 20
1187.017734578924
 30
0.0
 40
14.25
  0
LINE
  5
100A
330
1F
100
AcDbEntity
  8
0
100
AcDbLine
 10
2651.81481522878
 20
1198.017734578924
 30
0.0
 11
2646.618662806073
 21
1189.017734578924
 31
0.0
  0
LINE
  5
100B
330
1F
100
AcDbEntity
  8
0
100
AcDbLine
 10
2674.331475727175
 20
1185.017734578924
 30
0.0
 11
2669.135323304468
 21
1176.017734578924
 31
0.0
  0
LINE
  5
100C
330
1F
100
AcDbEntity
  8
0
100
AcDbLine
 10
2646.618662806073
 20
1185.017734578924
 30
0.0
 11
2651.81481522878
 21
1176.017734578924
 31
0.0
  0
LINE
  5
100D
330
1F
100
AcDbEntity
  8
0
100
AcDbLine
 10
2669.135323304468
 20
1198.017734578924
 30
0.0
 11
2674.331475727175
 21
1189.017734578924
 31
0.0
  0
LINE
  5
100E
330
1F
100
AcDbEntity
  8
0
100
AcDbLine
 10
2665.671221689331
 20
1200.017734578924
 30
0.0
 11
2655.278916843917
 21
1200.017734578924
 31
0.0
  0
LINE
  5
100F
330
1F
100
AcDbEntity
  8
0
100
AcDbLine
 10
2665.671221689331
 20
1174.017734578924
 30
0.0
 11
2655.278916843917
 21
1174.017734578924
 31
0.0
  0
ARC
  5
1010
330
1F
100
AcDbEntity
  8
0
100
AcDbCircle
 10
2660.475069266624
 20
1187.017734578924
 30
0.0
 40
14.0
100
AcDbArc
 50
231.7867892982576
 51
308.2132107017425
  0
ARC
  5
1011
330
1F
100
AcDbEntity
  8
0
100
AcDbCircle
 10
2660.475069266624
 20
1187.017734578924
 30
0.0
 40
14.0
100
AcDbArc
 50
171.7867892982624
 51
188.2132107017375
  0
ARC
  5
1012
330
1F
100
AcDbEntity
  8
0
100
AcDbCircle
 10
2660.475069266624
 20
1187.017734578924
 30
0.0
 40
14.0
100
AcDbArc
 50
111.7867892982705
 51
128.2132107017424
  0
ARC
  5
1013
330
1F
100
AcDbEntity
  8
0
100
AcDbCircle
 10
2660.475069266624
 20
1187.017734578924
 30
0.0
 40
14.0
100
AcDbArc
 50
51.78678929825756
 51
68.21321070172946
  0
ARC
  5
1014
330
1F
100
AcDbEntity
  8
0
100
AcDbCircle
 10
2660.475069266624
 20
1187.017734578924
 30
0.0
 40
14.0
100
AcDbArc
 50
351.7867892982624
 51
8.213210701737587
  0
CIRCLE
  5
1015
330
1F
100
AcDbEntity
  8
0
100
AcDbCircle
 10
2660.475069266624
 20
1187.017734578924
 30
0.0
 40
10.0
  0
LINE
  5
1016
330
1F
100
AcDbEntity
  8
0
100
AcDbLine
 10
2669.135323304468
 20
1138.047668038948
 30
0.0
 11
2669.135323304468
 21
1129.491839212158
 31
0.0
  0
LINE
  5
1017
330
1F
100
AcDbEntity
  8
0
100
AcDbLine
 10
2674.975069266624
 20
1129.491839212158
 30
0.0
 11
2675.475069266624
 21
1128.991839212158
 31
0.0
  0
LINE
  5
1018
330
1F
100
AcDbEntity
  8
0
100
AcDbLine
 10
2674.475069266624
 20
1137.94998310738
 30
0.0
 11
2674.475069266624
 21
1129.491839212158
 31
0.0
  0
ARC
  5
1019
330
1F
100
AcDbEntity
  8
0
100
AcDbCircle
 10
2671.775069266624
 20
1136.351994019306
 30
0.0
 40
3.137446274536813
100
AcDbArc
 50
30.6190753798655
 51
147.2848286280873
  0
ARC
  5
101A
330
1F
100
AcDbEntity
  8
0
100
AcDbCircle
 10
2660.475069266624
 20
1122.018171039855
 30
0.0
 40
17.47126925398817
100
AcDbArc
 50
72.69781568966152
 51
90.0
  0
ARC
  5
101B
330
1F
100
AcDbEntity
  8
0
100
AcDbCircle
 10
2665.374997074171
 20
1127.583516120294
 30
0.0
 40
11.11928634107948
100
AcDbArc
 50
70.23393871234633
 51
88.47342464481261
  0
LINE
  5
101C
330
1F
100
AcDbEntity
  8
0
100
AcDbLine
 10
2674.975069266624
 20
1129.491839212158
 30
0.0
 11
2660.475069266624
 21
1129.491839212158
 31
0.0
  0
LINE
  5
101D
330
1F
100
AcDbEntity
  8
0
100
AcDbLine
 10
2675.475069266624
 20
1128.991839212158
 30
0.0
 11
2660.459932928626
 21
1128.991839212158
 31
0.0
  0
ARC
  5
101E
330
1F
100
AcDbEntity
  8
0
100
AcDbCircle
 10
2660.475069266624
 20
1122.018171039855
 30
0.0
 40
17.47126925398817
100
AcDbArc
 50
90.0
 51
107.3021843103384
  0
LINE
  5
101F
330
1F
100
AcDbEntity
  8
0
100
AcDbLine
 10
2645.475069266624
 20
1128.991839212158
 30
0.0
 11
2660.490205604622
 21
1128.991839212158
 31
0.0
  0
LINE
  5
1020
330
1F
100
AcDbEntity
  8
0
100
AcDbLine
 10
2645.975069266624
 20
1129.491839212158
 30
0.0
 11
2660.475069266624
 21
1129.491839212158
 31
0.0
  0
LINE
  5
1021
330
1F
100
AcDbEntity
  8
0
100
AcDbLine
 10
2645.475069266624
 20
1093.991839212158
 30
0.0
 11
2660.475069266624
 21
1093.991839212158
 31
0.0
  0
LINE
  5
1022
330
1F
100
AcDbEntity
  8
0
100
AcDbLine
 10
2646.475069266624
 20
1085.991839212158
 30
0.0
 11
2660.475069266624
 21
1085.991839212158
 31
0.0
  0
LINE
  5
1023
330
1F
100
AcDbEntity
  8
0
100
AcDbLine
 10
2645.975069266624
 20
1093.491839212158
 30
0.0
 11
2660.475069266624
 21
1093.491839212158
 31
0.0
  0
LINE
  5
1024
330
1F
100
AcDbEntity
  8
0
100
AcDbLine
 10
2651.81481522878
 20
1138.047668038948
 30
0.0
 11
2651.81481522878
 21
1129.491839212158
 31
0.0
  0
LINE
  5
1025
330
1F
100
AcDbEntity
  8
0
100
AcDbLine
 10
2646.475069266624
 20
1137.94998310738
 30
0.0
 11
2646.475069266624
 21
1129.491839212158
 31
0.0
  0
LINE
  5
1026
330
1F
100
AcDbEntity
  8
0
100
AcDbLine
 10
2645.475069266624
 20
1093.991839212158
 30
0.0
 11
2645.475069266624
 21
1128.991839212158
 31
0.0
  0
LINE
  5
1027
330
1F
100
AcDbEntity
  8
0
100
AcDbLine
 10
2646.475069266624
 20
1085.991839212158
 30
0.0
 11
2646.475069266624
 21
1093.491839212158
 31
0.0
  0
LINE
  5
1028
330
1F
100
AcDbEntity
  8
0
100
AcDbLine
 10
2646.975069266624
 20
1085.491839212158
 30
0.0
 11
2646.475069266624
 21
1085.991839212158
 31
0.0
  0
LINE
  5
1029
330
1F
100
AcDbEntity
  8
0
100
AcDbLine
 10
2645.975069266624
 20
1093.491839212158
 30
0.0
 11
2645.475069266624
 21
1093.991839212158
 31
0.0
  0
LINE
  5
102A
330
1F
100
AcDbEntity
  8
0
100
AcDbLine
 10
2645.975069266624
 20
1129.491839212158
 30
0.0
 11
2645.475069266624
 21
1128.991839212158
 31
0.0
  0
ARC
  5
102B
330
1F
100
AcDbEntity
  8
0
100
AcDbCircle
 10
2649.175069266624
 20
1136.351994019306
 30
0.0
 40
3.137446274536813
100
AcDbArc
 50
32.71517137191271
 51
149.3809246201345
  0
ARC
  5
102C
330
1F
100
AcDbEntity
  8
0
100
AcDbCircle
 10
2655.575141459076
 20
1127.583516120294
 30
0.0
 40
11.11928634107948
100
AcDbArc
 50
91.5265753551874
 51
109.7660612876536
  0
LINE
  5
102D
330
1F
100
AcDbEntity
  8
0
100
AcDbLine
 10
2674.725069266624
 20
1093.991839212158
 30
0.0
 11
2674.725069266624
 21
1128.991839212158
 31
0.0
  0
LINE
  5
102E
330
1F
100
AcDbEntity
  8
0
100
AcDbLine
 10
2646.225069266624
 20
1093.991839212158
 30
0.0
 11
2646.225069266624
 21
1128.991839212158
 31
0.0
  0
LINE
  5
102F
330
1F
100
AcDbEntity
  8
0
100
AcDbLine
 10
2669.475069266624
 20
1149.991839212158
 30
0.0
 11
2651.475069266624
 21
1149.991839212158
 31
0.0
  0
LINE
  5
1030
330
1F
100
AcDbEntity
  8
0
100
AcDbLine
 10
2669.975069266624
 20
1141.491839212158
 30
0.0
 11
2650.975069266624
 21
1141.491839212158
 31
0.0
  0
LINE
  5
1031
330
1F
100
AcDbEntity
  8
0
100
AcDbLine
 10
2669.975069266624
 20
1141.491839212158
 30
0.0
 11
2669.975069266624
 21
1149.491839212158
 31
0.0
  0
LINE
  5
1032
330
1F
100
AcDbEntity
  8
0
100
AcDbLine
 10
2650.975069266624
 20
1141.491839212158
 30
0.0
 11
2650.975069266624
 21
1149.491839212158
 31
0.0
  0
LINE
  5
1033
330
1F
100
AcDbEntity
  8
0
100
AcDbLine
 10
2669.975069266624
 20
1149.491839212158
 30
0.0
 11
2669.475069266624
 21
1149.991839212158
 31
0.0
  0
LINE
  5
1034
330
1F
100
AcDbEntity
  8
0
100
AcDbLine
 10
2651.475069266624
 20
1149.991839212158
 30
0.0
 11
2650.975069266624
 21
1149.491839212158
 31
0.0
  0
LINE
  5
1035
330
1F
100
AcDbEntity
  8
0
100
AcDbLine
 10
2670.475069266624
 20
1139.491839212158
 30
0.0
 11
2669.975069266624
 21
1141.491839212158
 31
0.0
  0
LINE
  5
1036
330
1F
100
AcDbEntity
  8
0
100
AcDbLine
 10
2650.975069266624
 20
1141.491839212158
 30
0.0
 11
2650.475069266624
 21
1139.491839212158
 31
0.0
  0
LINE
  5
1037
330
1F
100
AcDbEntity
  8
0
  6
HIDDEN
 62
     3
 48
0.3
100
AcDbLine
 10
2664.475069266624
 20
1142.491839212158
 30
0.0
 11
2664.475069266624
 21
1149.991839212158
 31
0.0
  0
LINE
  5
1038
330
1F
100
AcDbEntity
  8
0
  6
HIDDEN
 62
     3
 48
0.3
100
AcDbLine
 10
2656.475069266624
 20
1142.491839212158
 30
0.0
 11
2656.475069266624
 21
1149.991839212158
 31
0.0
  0
LINE
  5
1039
330
1F
100
AcDbEntity
  8
0
  6
HIDDEN
 62
     3
 48
0.3
100
AcDbLine
 10
2663.475069266624
 20
1141.491839212158
 30
0.0
 11
2663.475069266624
 21
1149.991839212158
 31
0.0
  0
LINE
  5
103A
330
1F
100
AcDbEntity
  8
0
  6
HIDDEN
 62
     3
 48
0.3
100
AcDbLine
 10
2657.475069266624
 20
1141.491839212158
 30
0.0
 11
2657.475069266624
 21
1149.991839212158
 31
0.0
  0
LINE
  5
103B
330
1F
100
AcDbEntity
  8
0
  6
HIDDEN
 62
     3
 48
0.3
100
AcDbLine
 10
2657.475069266624
 20
1141.491839212158
 30
0.0
 11
2660.475069266624
 21
1139.489440293843
 31
0.0
  0
LINE
  5
103C
330
1F
100
AcDbEntity
  8
0
  6
HIDDEN
 62
     3
 48
0.3
100
AcDbLine
 10
2660.475069266624
 20
1139.489440293843
 30
0.0
 11
2663.475069266624
 21
1141.491839212158
 31
0.0
  0
LINE
  5
103D
330
1F
100
AcDbEntity
  8
0
  6
HIDDEN
 62
     3
 48
0.3
100
AcDbLine
 10
2664.475069266624
 20
1142.491839212158
 30
0.0
 11
2656.475069266624
 21
1142.491839212158
 31
0.0
  0
ARC
  5
103E
330
1F
100
AcDbEntity
  8
0
100
AcDbCircle
 10
2660.475069266624
 20
1187.017734578924
 30
0.0
 40
9.5
100
AcDbArc
 50
312.5368983629848
 51
47.46310163701523
  0
CIRCLE
  5
103F
330
1F
100
AcDbEntity
  8
0
100
AcDbCircle
 10
2660.475069266624
 20
1187.017734578924
 30
0.0
 40
4.0
  0
CIRCLE
  5
1040
330
1F
100
AcDbEntity
  8
0
100
AcDbCircle
 10
2660.475069266624
 20
1187.017734578924
 30
0.0
 40
3.0
  0
LINE
  5
1041
330
1F
100
AcDbEntity
  8
0
100
AcDbLine
 10
2666.897685555956
 20
1180.017734578924
 30
0.0
 11
2654.052452977291
 21
1180.017734578924
 31
0.0
  0
LINE
  5
1042
330
1F
100
AcDbEntity
  8
0
100
AcDbLine
 10
2666.897685555956
 20
1194.017734578924
 30
0.0
 11
2654.052452977291
 21
1194.017734578924
 31
0.0
  0
ARC
  5
1043
330
1F
100
AcDbEntity
  8
0
100
AcDbCircle
 10
2660.475069266624
 20
1187.017734578924
 30
0.0
 40
9.5
100
AcDbArc
 50
132.5368983629847
 51
227.4631016370152
  0
LINE
  5
1053
330
1F
100
AcDbEntity
  8
AM_7
100
AcDbLine
 10
2660.475069266624
 20
1187.017734578924
 30
0.0
 11
2677.475069266624
 21
1187.017734578924
 31
0.0
1001
GENIUS_GENOREF_13
1005
1057
  0
LINE
  5
1054
330
1F
100
AcDbEntity
  8
AM_7
100
AcDbLine
 10
2660.475069266624
 20
1187.017734578924
 30
0.0
 11
2660.475069266624
 21
1204.017734578924
 31
0.0
1001
GENIUS_GENOREF_13
1005
1057
  0
LINE
  5
1055
330
1F
100
AcDbEntity
  8
AM_7
100
AcDbLine
 10
2660.475069266624
 20
1187.017734578924
 30
0.0
 11
2643.475069266624
 21
1187.017734578924
 31
0.0
1001
GENIUS_GENOREF_13
1005
1057
  0
LINE
  5
1056
330
1F
100
AcDbEntity
  8
AM_7
100
AcDbLine
 10
2660.475069266624
 20
1187.017734578924
 30
0.0
 11
2660.475069266624
 21
1170.017734578924
 31
0.0
1001
GENIUS_GENOREF_13
1005
1057
  0
POINT
  5
1057
330
1F
100
AcDbEntity
  8
0
 60
     1
100
AcDbPoint
 10
0.0
 20
0.0
 30
0.0
1001
GENIUS_GENOBJ-N-CRS_13
1002
{
1000
OWNER
1000
GEN
1002
}
1001
GENIUS_GENOLIS_13
1002
{
1000
ENT
1005
1056
1005
1055
1005
1054
1005
1053
1002
}
1001
GENIUS_GENOENT_13
1002
{
1000
MYREF
1005
1057
1002
}
1002
{
1000
GRP
1005
0
1002
}
1001
GENIUS_GENODEF_13
1002
{
1000
HIER
1070
    10
1002
}
1002
{
1000
MANEDIT
1070
     0
1002
}
1002
{
1000
NOSEL
1070
     0
1002
}
1002
{
1000
BEHIND
1070
     0
1002
}
1002
{
1000
OTHER
1070
     0
1002
}
1002
{
1000
REACTOR
1002
}
  0
LINE
  5
1064
330
1F
100
AcDbEntity
  8
AM_7
100
AcDbLine
 10
2660.475069266624
 20
1151.991839212158
 30
0.0
 11
2660.475069266624
 21
1083.491839212158
 31
0.0
1001
GENIUS_GENODEF_13
1002
{
1000
HIER
1070
     0
1002
}
1002
{
1000
MANEDIT
1070
     0
1002
}
1002
{
1000
NOSEL
1070
     0
1002
}
1002
{
1000
BEHIND
1070
     0
1002
}
1002
{
1000
OTHER
1070
     0
1002
}
1002
{
1000
REACTOR
1002
}
1001
GENIUS_GENOBJ-N-CEN_13
1002
{
1000
OWNER
1000
GEN
1002
}
1001
GENIUS_GENCEN_19
1002
{
1040
2.0
1002
}
  0
DIMENSION
  5
1065
330
1F
100
AcDbEntity
  8
AM_5
100
AcDbDimension
  2
*D22
 10
2686.975069266624
 20
1093.491839212158
 30
0.0
 11
2684.475069266623
 21
1089.491839212158
 31
0.0
 70
    32
 71
     5
 42
8.0
  3
AM_ISO$0
100
AcDbAlignedDimension
 13
2673.975069266624
 23
1085.491839212158
 33
0.0
 14
2674.975069266624
 24
1093.491839212158
 34
0.0
 50
90.0
100
AcDbRotatedDimension
1001
ACAD
1000
DSTYLE
1002
{
1070
    40
1040
1.0
1070
   144
1040
1.0
1070
   272
1070
     8
1002
}
  0
DIMENSION
  5
1066
330
1F
100
AcDbEntity
  8
AM_5
100
AcDbDimension
  2
*D23
 10
2694.975069266624
 20
1139.491839212158
 30
0.0
 11
2692.475069266624
 21
1112.491839212158
 31
0.0
 70
    32
 71
     5
 42
54.0
  3
AM_ISO$0
100
AcDbAlignedDimension
 13
2673.975069266624
 23
1085.491839212158
 33
0.0
 14
2671.914623958086
 24
1139.491839212158
 34
0.0
 50
90.0
100
AcDbRotatedDimension
1001
ACAD
1000
DSTYLE
1002
{
1070
    40
1040
1.0
1070
   144
1040
1.0
1070
   272
1070
     8
1002
}
  0
DIMENSION
  5
1067
330
1F
100
AcDbEntity
  8
AM_5
100
AcDbDimension
  2
*D24
 10
2702.975069266624
 20
1149.991839212158
 30
0.0
 11
2700.475069266623
 21
1117.741839212158
 31
0.0
 70
    32
 71
     5
 42
64.5
  3
AM_ISO$0
100
AcDbAlignedDimension
 13
2673.975069266624
 23
1085.491839212158
 33
0.0
 14
2669.475069266624
 24
1149.991839212158
 34
0.0
 50
90.0
100
AcDbRotatedDimension
1001
ACAD
1000
DSTYLE
1002
{
1070
    40
1040
1.0
1070
   144
1040
1.0
1070
   272
1070
     8
1002
}
  0
DIMENSION
  5
1068
330
1F
100
AcDbEntity
  8
AM_5
100
AcDbDimension
  2
*D25
 10
2675.475069266624
 20
1073.491839212158
 30
0.0
 11
2660.475069266624
 21
1075.991839212158
 31
0.0
 70
    32
  1
M<>X1.5
 71
     5
 42
30.0
  3
AM_ISO$0
100
AcDbAlignedDimension
 13
2645.475069266624
 23
1093.991839212158
 33
0.0
 14
2675.475069266624
 24
1093.991839212158
 34
0.0
100
AcDbRotatedDimension
1001
ACAD
1000
DSTYLE
1002
{
1070
    40
1040
1.0
1070
   144
1040
1.0
1070
   272
1070
     8
1002
}
  0
INSERT
  5
10CB
330
1F
100
AcDbEntity
  8
AM_5
100
AcDbBlockReference
  2
*S36
 10
0.0
 20
0.0
 30
0.0
  0
TEXT
  5
10CC
330
1F
100
AcDbEntity
  8
AM_5
100
AcDbText
 10
2676.802971437047
 20
1170.628239643724
 30
0.0
 40
3.0
  1
M8x1.25
 41
0.75
  7
CHINESET
100
AcDbText
  0
LINE
  5
112A
330
1F
100
AcDbEntity
  8
0
100
AcDbLine
 10
2864.711171359333
 20
1096.991839212158
 30
0.0
 11
2864.711171359333
 21
1129.991839212158
 31
0.0
  0
LINE
  5
112B
330
1F
100
AcDbEntity
  8
0
100
AcDbLine
 10
2863.711171359333
 20
1130.491839212158
 30
0.0
 11
2863.711171359333
 21
1137.875372435775
 31
0.0
  0
LINE
  5
112C
330
1F
100
AcDbEntity
  8
0
100
AcDbLine
 10
2862.711171359333
 20
1085.491839212158
 30
0.0
 11
2828.711171359333
 21
1085.491839212158
 31
0.0
  0
LINE
  5
112D
330
1F
100
AcDbEntity
  8
0
100
AcDbLine
 10
2864.211171359333
 20
1096.491839212158
 30
0.0
 11
2845.711171359333
 21
1096.491839212158
 31
0.0
  0
LINE
  5
112E
330
1F
100
AcDbEntity
  8
0
100
AcDbLine
 10
2864.211171359333
 20
1130.491839212158
 30
0.0
 11
2845.711171359333
 21
1130.491839212158
 31
0.0
  0
LINE
  5
112F
330
1F
100
AcDbEntity
  8
0
100
AcDbLine
 10
2859.418057197708
 20
1140.491839212158
 30
0.0
 11
2832.004285520957
 21
1140.491839212158
 31
0.0
  0
LINE
  5
1130
330
1F
100
AcDbEntity
  8
0
100
AcDbLine
 10
2863.211171359333
 20
1085.991839212158
 30
0.0
 11
2863.211171359333
 21
1096.491839212158
 31
0.0
  0
LINE
  5
1131
330
1F
100
AcDbEntity
  8
0
100
AcDbLine
 10
2863.211171359333
 20
1085.991839212158
 30
0.0
 11
2862.711171359333
 21
1085.491839212158
 31
0.0
  0
LINE
  5
1132
330
1F
100
AcDbEntity
  8
0
100
AcDbLine
 10
2864.711171359333
 20
1096.991839212158
 30
0.0
 11
2864.211171359333
 21
1096.491839212158
 31
0.0
  0
LINE
  5
1133
330
1F
100
AcDbEntity
  8
0
100
AcDbLine
 10
2864.711171359333
 20
1129.991839212158
 30
0.0
 11
2864.211171359333
 21
1130.491839212158
 31
0.0
  0
LINE
  5
1134
330
1F
100
AcDbEntity
  8
0
100
AcDbLine
 10
2863.211171359333
 20
1085.991839212158
 30
0.0
 11
2845.711171359333
 21
1085.991839212158
 31
0.0
  0
LINE
  5
1135
330
1F
100
AcDbEntity
  8
0
100
AcDbLine
 10
2864.711171359333
 20
1096.991839212158
 30
0.0
 11
2845.711171359333
 21
1096.991839212158
 31
0.0
  0
LINE
  5
1136
330
1F
100
AcDbEntity
  8
0
100
AcDbLine
 10
2864.711171359333
 20
1129.991839212158
 30
0.0
 11
2845.711171359333
 21
1129.991839212158
 31
0.0
  0
CIRCLE
  5
1139
330
1F
100
AcDbEntity
  8
0
100
AcDbCircle
 10
2845.711171359333
 20
1174.780366592489
 30
0.0
 40
19.0
  0
ARC
  5
113A
330
1F
100
AcDbEntity
  8
0
100
AcDbCircle
 10
2845.711171359333
 20
1174.780366592489
 30
0.0
 40
18.0
100
AcDbArc
 50
237.2660444507367
 51
242.7339555492743
  0
CIRCLE
  5
113B
330
1F
100
AcDbEntity
  8
0
100
AcDbCircle
 10
2845.711171359333
 20
1174.780366592489
 30
0.0
 40
18.25
  0
LINE
  5
113C
330
1F
100
AcDbEntity
  8
0
100
AcDbLine
 10
2853.957382610568
 20
1190.780366592489
 30
0.0
 11
2837.464960108098
 21
1190.780366592489
 31
0.0
  0
LINE
  5
113D
330
1F
100
AcDbEntity
  8
0
100
AcDbLine
 10
2853.957382610568
 20
1158.780366592489
 30
0.0
 11
2837.464960108098
 21
1158.780366592489
 31
0.0
  0
LINE
  5
113E
330
1F
100
AcDbEntity
  8
0
100
AcDbLine
 10
2835.977870524399
 20
1189.921795021032
 30
0.0
 11
2827.731659273164
 21
1175.638938163946
 31
0.0
  0
LINE
  5
113F
330
1F
100
AcDbEntity
  8
0
100
AcDbLine
 10
2863.690683445501
 20
1173.921795021032
 30
0.0
 11
2855.444472194266
 21
1159.638938163946
 31
0.0
  0
LINE
  5
1140
330
1F
100
AcDbEntity
  8
0
100
AcDbLine
 10
2827.731659273164
 20
1173.921795021032
 30
0.0
 11
2835.977870524399
 21
1159.638938163946
 31
0.0
  0
LINE
  5
1141
330
1F
100
AcDbEntity
  8
0
100
AcDbLine
 10
2855.444472194266
 20
1189.921795021032
 30
0.0
 11
2863.690683445501
 21
1175.638938163946
 31
0.0
  0
ARC
  5
1142
330
1F
100
AcDbEntity
  8
0
100
AcDbCircle
 10
2845.711171359333
 20
1174.780366592489
 30
0.0
 40
18.0
100
AcDbArc
 50
177.2660444507332
 51
182.7339555492667
  0
ARC
  5
1143
330
1F
100
AcDbEntity
  8
0
100
AcDbCircle
 10
2845.711171359333
 20
1174.780366592489
 30
0.0
 40
18.0
100
AcDbArc
 50
117.2660444507257
 51
122.7339555492633
  0
ARC
  5
1144
330
1F
100
AcDbEntity
  8
0
100
AcDbCircle
 10
2845.711171359333
 20
1174.780366592489
 30
0.0
 40
18.0
100
AcDbArc
 50
57.26604445073669
 51
62.73395554927432
  0
ARC
  5
1145
330
1F
100
AcDbEntity
  8
0
100
AcDbCircle
 10
2845.711171359333
 20
1174.780366592489
 30
0.0
 40
18.0
100
AcDbArc
 50
357.2660444507332
 51
2.73395554926681
  0
ARC
  5
1146
330
1F
100
AcDbEntity
  8
0
100
AcDbCircle
 10
2845.711171359333
 20
1174.780366592489
 30
0.0
 40
18.0
100
AcDbArc
 50
297.2660444507257
 51
302.7339555492633
  0
LINE
  5
1147
330
1F
100
AcDbEntity
  8
0
100
AcDbLine
 10
2854.948851844845
 20
1137.875372435775
 30
0.0
 11
2854.948851844845
 21
1130.491839212158
 31
0.0
  0
ARC
  5
1148
330
1F
100
AcDbEntity
  8
0
100
AcDbCircle
 10
2859.330011602089
 20
1135.517056536055
 30
0.0
 40
4.975561747316533
100
AcDbArc
 50
28.29294747581341
 51
151.7070525241866
  0
ARC
  5
1149
330
1F
100
AcDbEntity
  8
0
100
AcDbCircle
 10
2845.712070573256
 20
1122.879533435066
 30
0.0
 40
17.61230580004651
100
AcDbArc
 50
58.36874646365071
 51
90.00292529344163
  0
CIRCLE
  5
114A
330
1F
100
AcDbEntity
  8
0
100
AcDbCircle
 10
2845.711171359333
 20
1174.780366592489
 30
0.0
 40
12.5
  0
POINT
  5
114B
330
1F
100
AcDbEntity
  8
Defpoints
  6
ByBlock
 62
     0
100
AcDbPoint
 10
2858.211171359333
 20
1139.991839212158
 30
0.0
  0
LINE
  5
114C
330
1F
100
AcDbEntity
  8
0
100
AcDbLine
 10
2836.473490873819
 20
1137.875372435775
 30
0.0
 11
2836.473490873819
 21
1130.491839212158
 31
0.0
  0
LINE
  5
114D
330
1F
100
AcDbEntity
  8
0
100
AcDbLine
 10
2827.711171359333
 20
1130.491839212158
 30
0.0
 11
2827.711171359333
 21
1137.875372435775
 31
0.0
  0
LINE
  5
114E
330
1F
100
AcDbEntity
  8
0
100
AcDbLine
 10
2826.711171359333
 20
1129.991839212158
 30
0.0
 11
2845.711171359333
 21
1129.991839212158
 31
0.0
  0
LINE
  5
114F
330
1F
100
AcDbEntity
  8
0
100
AcDbLine
 10
2826.711171359333
 20
1096.991839212158
 30
0.0
 11
2845.711171359333
 21
1096.991839212158
 31
0.0
  0
LINE
  5
1150
330
1F
100
AcDbEntity
  8
0
100
AcDbLine
 10
2828.211171359333
 20
1085.991839212158
 30
0.0
 11
2845.711171359333
 21
1085.991839212158
 31
0.0
  0
LINE
  5
1151
330
1F
100
AcDbEntity
  8
0
100
AcDbLine
 10
2827.211171359333
 20
1130.491839212158
 30
0.0
 11
2845.711171359333
 21
1130.491839212158
 31
0.0
  0
LINE
  5
1152
330
1F
100
AcDbEntity
  8
0
100
AcDbLine
 10
2827.211171359333
 20
1096.491839212158
 30
0.0
 11
2845.711171359333
 21
1096.491839212158
 31
0.0
  0
LINE
  5
1153
330
1F
100
AcDbEntity
  8
0
100
AcDbLine
 10
2826.711171359333
 20
1096.991839212158
 30
0.0
 11
2826.711171359333
 21
1129.991839212158
 31
0.0
  0
LINE
  5
1154
330
1F
100
AcDbEntity
  8
0
100
AcDbLine
 10
2828.211171359333
 20
1085.991839212158
 30
0.0
 11
2828.211171359333
 21
1096.491839212158
 31
0.0
  0
LINE
  5
1155
330
1F
100
AcDbEntity
  8
0
100
AcDbLine
 10
2828.211171359333
 20
1085.991839212158
 30
0.0
 11
2828.711171359333
 21
1085.491839212158
 31
0.0
  0
LINE
  5
1156
330
1F
100
AcDbEntity
  8
0
100
AcDbLine
 10
2826.711171359333
 20
1096.991839212158
 30
0.0
 11
2827.211171359333
 21
1096.491839212158
 31
0.0
  0
LINE
  5
1157
330
1F
100
AcDbEntity
  8
0
100
AcDbLine
 10
2826.711171359333
 20
1129.991839212158
 30
0.0
 11
2827.211171359333
 21
1130.491839212158
 31
0.0
  0
ARC
  5
1158
330
1F
100
AcDbEntity
  8
0
100
AcDbCircle
 10
2832.092331116576
 20
1135.517056536055
 30
0.0
 40
4.975561747316533
100
AcDbArc
 50
28.29294747581341
 51
151.7070525241866
  0
ARC
  5
1159
330
1F
100
AcDbEntity
  8
0
100
AcDbCircle
 10
2845.71027214541
 20
1122.879533435066
 30
0.0
 40
17.61230580004651
100
AcDbArc
 50
89.99707470655838
 51
121.6312535363493
  0
POINT
  5
115A
330
1F
100
AcDbEntity
  8
Defpoints
  6
ByBlock
 62
     0
100
AcDbPoint
 10
2833.211171359333
 20
1139.991839212158
 30
0.0
  0
LINE
  5
115B
330
1F
100
AcDbEntity
  8
0
100
AcDbLine
 10
2827.461171359333
 20
1096.991839212158
 30
0.0
 11
2827.461171359333
 21
1129.991839212158
 31
0.0
  0
LINE
  5
115C
330
1F
100
AcDbEntity
  8
0
100
AcDbLine
 10
2863.961171359333
 20
1096.991839212158
 30
0.0
 11
2863.961171359333
 21
1129.991839212158
 31
0.0
  0
LINE
  5
115D
330
1F
100
AcDbEntity
  8
0
100
AcDbLine
 10
2858.211171359333
 20
1140.491839212158
 30
0.0
 11
2858.211171359333
 21
1140.991839212158
 31
0.0
  0
LINE
  5
115E
330
1F
100
AcDbEntity
  8
0
100
AcDbLine
 10
2833.211171359333
 20
1140.491839212158
 30
0.0
 11
2833.211171359333
 21
1140.991839212158
 31
0.0
  0
LINE
  5
115F
330
1F
100
AcDbEntity
  8
0
100
AcDbLine
 10
2858.211171359333
 20
1140.991839212158
 30
0.0
 11
2833.211171359333
 21
1140.991839212158
 31
0.0
  0
ARC
  5
1160
330
1F
100
AcDbEntity
  8
0
100
AcDbCircle
 10
2845.711171359333
 20
1089.658505878824
 30
0.0
 40
52.83333333333334
100
AcDbArc
 50
76.3144531747495
 51
103.6855468252505
  0
LINE
  5
116F
330
1F
100
AcDbEntity
  8
AM_7
100
AcDbLine
 10
2845.711171359333
 20
1144.491839212158
 30
0.0
 11
2845.711171359333
 21
1083.491839212158
 31
0.0
1001
GENIUS_GENOBJ-N-CEN_13
1002
{
1000
OWNER
1000
GEN
1002
}
1001
GENIUS_GENODEF_13
1002
{
1000
HIER
1070
     0
1002
}
1002
{
1000
MANEDIT
1070
     0
1002
}
1002
{
1000
NOSEL
1070
     0
1002
}
1002
{
1000
BEHIND
1070
     0
1002
}
1002
{
1000
OTHER
1070
     0
1002
}
1002
{
1000
REACTOR
1002
}
1001
GENIUS_GENCEN_19
1002
{
1040
2.0
1002
}
  0
LINE
  5
117D
330
1F
100
AcDbEntity
  8
AM_7
100
AcDbLine
 10
2845.711171359333
 20
1174.780366592489
 30
0.0
 11
2866.711171359333
 21
1174.780366592489
 31
0.0
1001
GENIUS_GENOREF_13
1005
1181
  0
LINE
  5
117E
330
1F
100
AcDbEntity
  8
AM_7
100
AcDbLine
 10
2845.711171359333
 20
1174.780366592489
 30
0.0
 11
2845.711171359333
 21
1195.780366592489
 31
0.0
1001
GENIUS_GENOREF_13
1005
1181
  0
LINE
  5
117F
330
1F
100
AcDbEntity
  8
AM_7
100
AcDbLine
 10
2845.711171359333
 20
1174.780366592489
 30
0.0
 11
2824.711171359333
 21
1174.780366592489
 31
0.0
1001
GENIUS_GENOREF_13
1005
1181
  0
LINE
  5
1180
330
1F
100
AcDbEntity
  8
AM_7
100
AcDbLine
 10
2845.711171359333
 20
1174.780366592489
 30
0.0
 11
2845.711171359333
 21
1153.780366592489
 31
0.0
1001
GENIUS_GENOREF_13
1005
1181
  0
POINT
  5
1181
330
1F
100
AcDbEntity
  8
0
 60
     1
100
AcDbPoint
 10
0.0
 20
0.0
 30
0.0
1001
GENIUS_GENODEF_13
1002
{
1000
HIER
1070
    10
1002
}
1002
{
1000
MANEDIT
1070
     0
1002
}
1002
{
1000
NOSEL
1070
     0
1002
}
1002
{
1000
BEHIND
1070
     0
1002
}
1002
{
1000
OTHER
1070
     0
1002
}
1002
{
1000
REACTOR
1002
}
1001
GENIUS_GENOBJ-N-CRS_13
1002
{
1000
OWNER
1000
GEN
1002
}
1001
GENIUS_GENOLIS_13
1002
{
1000
ENT
1005
1180
1005
117F
1005
117E
1005
117D
1002
}
1001
GENIUS_GENOENT_13
1002
{
1000
MYREF
1005
1181
1002
}
1002
{
1000
GRP
1005
0
1002
}
  0
DIMENSION
  5
1182
330
1F
100
AcDbEntity
  8
AM_5
100
AcDbDimension
  2
*D26
 10
2875.711171359333
 20
1096.491839212158
 30
0.0
 11
2873.211171359332
 21
1090.991839212158
 31
0.0
 70
    32
 71
     5
 42
11.0
  3
AM_ISO$0
100
AcDbAlignedDimension
 13
2862.711171359333
 23
1085.491839212158
 33
0.0
 14
2864.211171359333
 24
1096.491839212158
 34
0.0
 50
90.0
100
AcDbRotatedDimension
1001
ACAD
1000
DSTYLE
1002
{
1070
    40
1040
1.0
1070
   144
1040
1.0
1070
   272
1070
     8
1002
}
  0
DIMENSION
  5
1183
330
1F
100
AcDbEntity
  8
AM_5
100
AcDbDimension
  2
*D27
 10
2883.711171359333
 20
1140.491839212158
 30
0.0
 11
2881.211171359332
 21
1112.991839212158
 31
0.0
 70
    32
 71
     5
 42
55.0
  3
AM_ISO$0
100
AcDbAlignedDimension
 13
2862.711171359333
 23
1085.491839212158
 33
0.0
 14
2859.241966006473
 24
1140.491839212158
 34
0.0
 50
90.0
100
AcDbRotatedDimension
1001
ACAD
1000
DSTYLE
1002
{
1070
    40
1040
1.0
1070
   144
1040
1.0
1070
   272
1070
     8
1002
}
  0
DIMENSION
  5
1184
330
1F
100
AcDbEntity
  8
AM_5
100
AcDbDimension
  2
*D28
 10
2891.711171359333
 20
1142.491839212158
 30
0.0
 11
2889.211171359333
 21
1113.991839212158
 31
0.0
 70
    32
 71
     5
 42
57.0
  3
AM_ISO$0
100
AcDbAlignedDimension
 13
2862.711171359333
 23
1085.491839212158
 33
0.0
 14
2845.711171359333
 24
1142.491839212158
 34
0.0
 50
90.0
100
AcDbRotatedDimension
1001
ACAD
1000
DSTYLE
1002
{
1070
    40
1040
1.0
1070
   144
1040
1.0
1070
   272
1070
     8
1002
}
  0
DIMENSION
  5
1185
330
1F
100
AcDbEntity
  8
AM_5
100
AcDbDimension
  2
*D29
 10
2864.711171359333
 20
1073.491839212158
 30
0.0
 11
2845.711171359333
 21
1075.991839212158
 31
0.0
 70
    32
  1
M<>X1.5
 71
     5
 42
38.0
  3
AM_ISO$0
100
AcDbAlignedDimension
 13
2826.711171359333
 23
1096.991839212158
 33
0.0
 14
2864.711171359333
 24
1096.991839212158
 34
0.0
100
AcDbRotatedDimension
1001
ACAD
1000
DSTYLE
1002
{
1070
    40
1040
1.0
1070
   144
1040
1.0
1070
   272
1070
     8
1002
}
  0
LINE
  5
1294
330
1F
100
AcDbEntity
  8
0
100
AcDbLine
 10
2955.885622020042
 20
1096.991839212158
 30
0.0
 11
2955.885622020042
 21
1129.991839212158
 31
0.0
  0
LINE
  5
1295
330
1F
100
AcDbEntity
  8
0
100
AcDbLine
 10
2954.885622020042
 20
1130.491839212158
 30
0.0
 11
2954.885622020042
 21
1137.875372435775
 31
0.0
  0
LINE
  5
1296
330
1F
100
AcDbEntity
  8
0
100
AcDbLine
 10
2953.885622020042
 20
1085.491839212158
 30
0.0
 11
2919.885622020041
 21
1085.491839212158
 31
0.0
  0
LINE
  5
1297
330
1F
100
AcDbEntity
  8
0
100
AcDbLine
 10
2955.385622020042
 20
1096.491839212158
 30
0.0
 11
2936.885622020041
 21
1096.491839212158
 31
0.0
  0
LINE
  5
1298
330
1F
100
AcDbEntity
  8
0
100
AcDbLine
 10
2955.385622020042
 20
1130.491839212158
 30
0.0
 11
2936.885622020041
 21
1130.491839212158
 31
0.0
  0
LINE
  5
1299
330
1F
100
AcDbEntity
  8
0
100
AcDbLine
 10
2950.592507858417
 20
1140.491839212158
 30
0.0
 11
2923.178736181666
 21
1140.491839212158
 31
0.0
  0
LINE
  5
129A
330
1F
100
AcDbEntity
  8
0
100
AcDbLine
 10
2954.385622020041
 20
1085.991839212158
 30
0.0
 11
2954.385622020041
 21
1096.491839212158
 31
0.0
  0
LINE
  5
129B
330
1F
100
AcDbEntity
  8
0
100
AcDbLine
 10
2954.385622020041
 20
1085.991839212158
 30
0.0
 11
2953.885622020042
 21
1085.491839212158
 31
0.0
  0
LINE
  5
129C
330
1F
100
AcDbEntity
  8
0
100
AcDbLine
 10
2955.885622020042
 20
1096.991839212158
 30
0.0
 11
2955.385622020042
 21
1096.491839212158
 31
0.0
  0
LINE
  5
129D
330
1F
100
AcDbEntity
  8
0
100
AcDbLine
 10
2955.885622020042
 20
1129.991839212158
 30
0.0
 11
2955.385622020042
 21
1130.491839212158
 31
0.0
  0
LINE
  5
129E
330
1F
100
AcDbEntity
  8
0
100
AcDbLine
 10
2954.385622020041
 20
1085.991839212158
 30
0.0
 11
2936.885622020041
 21
1085.991839212158
 31
0.0
  0
LINE
  5
129F
330
1F
100
AcDbEntity
  8
0
100
AcDbLine
 10
2955.885622020042
 20
1096.991839212158
 30
0.0
 11
2936.885622020041
 21
1096.991839212158
 31
0.0
  0
LINE
  5
12A0
330
1F
100
AcDbEntity
  8
0
100
AcDbLine
 10
2955.885622020042
 20
1129.991839212158
 30
0.0
 11
2936.885622020041
 21
1129.991839212158
 31
0.0
  0
CIRCLE
  5
12A3
330
1F
100
AcDbEntity
  8
0
100
AcDbCircle
 10
2936.885622020041
 20
1187.501048251855
 30
0.0
 40
19.0
  0
ARC
  5
12A4
330
1F
100
AcDbEntity
  8
0
100
AcDbCircle
 10
2936.885622020041
 20
1187.501048251855
 30
0.0
 40
18.0
100
AcDbArc
 50
237.2660444507367
 51
242.7339555492743
  0
CIRCLE
  5
12A5
330
1F
100
AcDbEntity
  8
0
100
AcDbCircle
 10
2936.885622020041
 20
1187.501048251855
 30
0.0
 40
18.25
  0
LINE
  5
12A6
330
1F
100
AcDbEntity
  8
0
100
AcDbLine
 10
2945.131833271277
 20
1203.501048251855
 30
0.0
 11
2928.639410768806
 21
1203.501048251855
 31
0.0
  0
LINE
  5
12A7
330
1F
100
AcDbEntity
  8
0
100
AcDbLine
 10
2945.131833271277
 20
1171.501048251855
 30
0.0
 11
2928.639410768806
 21
1171.501048251855
 31
0.0
  0
LINE
  5
12A8
330
1F
100
AcDbEntity
  8
0
100
AcDbLine
 10
2927.152321185108
 20
1202.642476680398
 30
0.0
 11
2918.906109933872
 21
1188.359619823312
 31
0.0
  0
LINE
  5
12A9
330
1F
100
AcDbEntity
  8
0
100
AcDbLine
 10
2954.86513410621
 20
1186.642476680398
 30
0.0
 11
2946.618922854975
 21
1172.359619823312
 31
0.0
  0
LINE
  5
12AA
330
1F
100
AcDbEntity
  8
0
100
AcDbLine
 10
2918.906109933872
 20
1186.642476680398
 30
0.0
 11
2927.152321185108
 21
1172.359619823312
 31
0.0
  0
LINE
  5
12AB
330
1F
100
AcDbEntity
  8
0
100
AcDbLine
 10
2946.618922854975
 20
1202.642476680398
 30
0.0
 11
2954.86513410621
 21
1188.359619823312
 31
0.0
  0
ARC
  5
12AC
330
1F
100
AcDbEntity
  8
0
100
AcDbCircle
 10
2936.885622020041
 20
1187.501048251855
 30
0.0
 40
18.0
100
AcDbArc
 50
177.2660444507332
 51
182.7339555492667
  0
ARC
  5
12AD
330
1F
100
AcDbEntity
  8
0
100
AcDbCircle
 10
2936.885622020041
 20
1187.501048251855
 30
0.0
 40
18.0
100
AcDbArc
 50
117.2660444507257
 51
122.7339555492633
  0
ARC
  5
12AE
330
1F
100
AcDbEntity
  8
0
100
AcDbCircle
 10
2936.885622020041
 20
1187.501048251855
 30
0.0
 40
18.0
100
AcDbArc
 50
57.26604445073669
 51
62.73395554927432
  0
ARC
  5
12AF
330
1F
100
AcDbEntity
  8
0
100
AcDbCircle
 10
2936.885622020041
 20
1187.501048251855
 30
0.0
 40
18.0
100
AcDbArc
 50
357.2660444507332
 51
2.73395554926681
  0
ARC
  5
12B0
330
1F
100
AcDbEntity
  8
0
100
AcDbCircle
 10
2936.885622020041
 20
1187.501048251855
 30
0.0
 40
18.0
100
AcDbArc
 50
297.2660444507257
 51
302.7339555492633
  0
LINE
  5
12B1
330
1F
100
AcDbEntity
  8
0
100
AcDbLine
 10
2946.123302505555
 20
1137.875372435775
 30
0.0
 11
2946.123302505555
 21
1130.491839212158
 31
0.0
  0
ARC
  5
12B2
330
1F
100
AcDbEntity
  8
0
100
AcDbCircle
 10
2950.504462262798
 20
1135.517056536055
 30
0.0
 40
4.975561747316533
100
AcDbArc
 50
28.29294747581341
 51
151.7070525241866
  0
ARC
  5
12B3
330
1F
100
AcDbEntity
  8
0
100
AcDbCircle
 10
2936.886521233964
 20
1122.879533435066
 30
0.0
 40
17.61230580004651
100
AcDbArc
 50
58.36874646365071
 51
90.00292529344163
  0
CIRCLE
  5
12B4
330
1F
100
AcDbEntity
  8
0
100
AcDbCircle
 10
2936.885622020041
 20
1187.501048251855
 30
0.0
 40
12.5
  0
POINT
  5
12B5
330
1F
100
AcDbEntity
  8
Defpoints
  6
ByBlock
 62
     0
100
AcDbPoint
 10
2949.385622020042
 20
1139.991839212158
 30
0.0
  0
LINE
  5
12B6
330
1F
100
AcDbEntity
  8
0
100
AcDbLine
 10
2927.647941534529
 20
1137.875372435775
 30
0.0
 11
2927.647941534529
 21
1130.491839212158
 31
0.0
  0
LINE
  5
12B7
330
1F
100
AcDbEntity
  8
0
100
AcDbLine
 10
2918.885622020042
 20
1130.491839212158
 30
0.0
 11
2918.885622020042
 21
1137.875372435775
 31
0.0
  0
LINE
  5
12B8
330
1F
100
AcDbEntity
  8
0
100
AcDbLine
 10
2917.885622020042
 20
1129.991839212158
 30
0.0
 11
2936.885622020041
 21
1129.991839212158
 31
0.0
  0
LINE
  5
12B9
330
1F
100
AcDbEntity
  8
0
100
AcDbLine
 10
2917.885622020042
 20
1096.991839212158
 30
0.0
 11
2936.885622020041
 21
1096.991839212158
 31
0.0
  0
LINE
  5
12BA
330
1F
100
AcDbEntity
  8
0
100
AcDbLine
 10
2919.385622020042
 20
1085.991839212158
 30
0.0
 11
2936.885622020041
 21
1085.991839212158
 31
0.0
  0
LINE
  5
12BB
330
1F
100
AcDbEntity
  8
0
100
AcDbLine
 10
2918.385622020041
 20
1130.491839212158
 30
0.0
 11
2936.885622020041
 21
1130.491839212158
 31
0.0
  0
LINE
  5
12BC
330
1F
100
AcDbEntity
  8
0
100
AcDbLine
 10
2918.385622020041
 20
1096.491839212158
 30
0.0
 11
2936.885622020041
 21
1096.491839212158
 31
0.0
  0
LINE
  5
12BD
330
1F
100
AcDbEntity
  8
0
100
AcDbLine
 10
2917.885622020042
 20
1096.991839212158
 30
0.0
 11
2917.885622020042
 21
1129.991839212158
 31
0.0
  0
LINE
  5
12BE
330
1F
100
AcDbEntity
  8
0
100
AcDbLine
 10
2919.385622020042
 20
1085.991839212158
 30
0.0
 11
2919.385622020042
 21
1096.491839212158
 31
0.0
  0
LINE
  5
12BF
330
1F
100
AcDbEntity
  8
0
100
AcDbLine
 10
2919.385622020042
 20
1085.991839212158
 30
0.0
 11
2919.885622020041
 21
1085.491839212158
 31
0.0
  0
LINE
  5
12C0
330
1F
100
AcDbEntity
  8
0
100
AcDbLine
 10
2917.885622020042
 20
1096.991839212158
 30
0.0
 11
2918.385622020041
 21
1096.491839212158
 31
0.0
  0
LINE
  5
12C1
330
1F
100
AcDbEntity
  8
0
100
AcDbLine
 10
2917.885622020042
 20
1129.991839212158
 30
0.0
 11
2918.385622020041
 21
1130.491839212158
 31
0.0
  0
ARC
  5
12C2
330
1F
100
AcDbEntity
  8
0
100
AcDbCircle
 10
2923.266781777285
 20
1135.517056536055
 30
0.0
 40
4.975561747316533
100
AcDbArc
 50
28.29294747581341
 51
151.7070525241866
  0
ARC
  5
12C3
330
1F
100
AcDbEntity
  8
0
100
AcDbCircle
 10
2936.884722806118
 20
1122.879533435066
 30
0.0
 40
17.61230580004651
100
AcDbArc
 50
89.99707470655838
 51
121.6312535363493
  0
POINT
  5
12C4
330
1F
100
AcDbEntity
  8
Defpoints
  6
ByBlock
 62
     0
100
AcDbPoint
 10
2924.385622020042
 20
1139.991839212158
 30
0.0
  0
LINE
  5
12C5
330
1F
100
AcDbEntity
  8
0
100
AcDbLine
 10
2918.635622020042
 20
1096.991839212158
 30
0.0
 11
2918.635622020042
 21
1129.991839212158
 31
0.0
  0
LINE
  5
12C6
330
1F
100
AcDbEntity
  8
0
100
AcDbLine
 10
2955.135622020041
 20
1096.991839212158
 30
0.0
 11
2955.135622020041
 21
1129.991839212158
 31
0.0
  0
LINE
  5
12C7
330
1F
100
AcDbEntity
  8
0
100
AcDbLine
 10
2947.885622020042
 20
1152.491839212158
 30
0.0
 11
2925.885622020042
 21
1152.491839212158
 31
0.0
  0
LINE
  5
12C8
330
1F
100
AcDbEntity
  8
0
100
AcDbLine
 10
2948.385622020042
 20
1142.491839212158
 30
0.0
 11
2948.385622020042
 21
1151.991839212158
 31
0.0
  0
LINE
  5
12C9
330
1F
100
AcDbEntity
  8
0
100
AcDbLine
 10
2925.385622020042
 20
1142.491839212158
 30
0.0
 11
2925.385622020042
 21
1151.991839212158
 31
0.0
  0
LINE
  5
12CA
330
1F
100
AcDbEntity
  8
0
100
AcDbLine
 10
2949.385622020042
 20
1140.491839212158
 30
0.0
 11
2948.385622020042
 21
1142.491839212158
 31
0.0
  0
LINE
  5
12CB
330
1F
100
AcDbEntity
  8
0
100
AcDbLine
 10
2948.385622020042
 20
1142.491839212158
 30
0.0
 11
2925.385622020042
 21
1142.491839212158
 31
0.0
  0
LINE
  5
12CC
330
1F
100
AcDbEntity
  8
0
100
AcDbLine
 10
2925.385622020042
 20
1142.491839212158
 30
0.0
 11
2924.385622020042
 21
1140.491839212158
 31
0.0
  0
LINE
  5
12CD
330
1F
100
AcDbEntity
  8
0
100
AcDbLine
 10
2948.385622020042
 20
1151.991839212158
 30
0.0
 11
2947.885622020042
 21
1152.491839212158
 31
0.0
  0
LINE
  5
12CE
330
1F
100
AcDbEntity
  8
0
100
AcDbLine
 10
2925.885622020042
 20
1152.491839212158
 30
0.0
 11
2925.385622020042
 21
1151.991839212158
 31
0.0
  0
LINE
  5
12CF
330
1F
100
AcDbEntity
  8
0
  6
HIDDEN
 62
     3
 48
0.3
100
AcDbLine
 10
2940.885622020042
 20
1144.491839212158
 30
0.0
 11
2940.885622020042
 21
1152.491839212158
 31
0.0
  0
LINE
  5
12D0
330
1F
100
AcDbEntity
  8
0
  6
HIDDEN
 62
     3
 48
0.3
100
AcDbLine
 10
2932.885622020041
 20
1144.491839212158
 30
0.0
 11
2932.885622020041
 21
1152.491839212158
 31
0.0
  0
LINE
  5
12D1
330
1F
100
AcDbEntity
  8
0
  6
HIDDEN
 62
     3
 48
0.3
100
AcDbLine
 10
2939.885622020041
 20
1142.491839212158
 30
0.0
 11
2939.885622020041
 21
1152.491839212158
 31
0.0
  0
LINE
  5
12D2
330
1F
100
AcDbEntity
  8
0
  6
HIDDEN
 62
     3
 48
0.3
100
AcDbLine
 10
2933.885622020042
 20
1142.491839212158
 30
0.0
 11
2933.885622020042
 21
1152.491839212158
 31
0.0
  0
LINE
  5
12D3
330
1F
100
AcDbEntity
  8
0
  6
HIDDEN
 62
     3
 48
0.3
100
AcDbLine
 10
2940.885622020042
 20
1144.491839212158
 30
0.0
 11
2932.885622020041
 21
1144.491839212158
 31
0.0
  0
LINE
  5
12D4
330
1F
100
AcDbEntity
  8
0
  6
HIDDEN
 62
     3
 48
0.3
100
AcDbLine
 10
2933.885622020042
 20
1142.491839212158
 30
0.0
 11
2936.887420447877
 21
1140.491839212158
 31
0.0
  0
LINE
  5
12D5
330
1F
100
AcDbEntity
  8
0
  6
HIDDEN
 62
     3
 48
0.3
100
AcDbLine
 10
2936.887420447877
 20
1140.491839212158
 30
0.0
 11
2939.885622020041
 21
1142.491839212158
 31
0.0
  0
ARC
  5
12D6
330
1F
100
AcDbEntity
  8
0
100
AcDbCircle
 10
2936.885622020041
 20
1187.501048251855
 30
0.0
 40
11.5
100
AcDbArc
 50
304.3011527567843
 51
55.69884724321568
  0
CIRCLE
  5
12D7
330
1F
100
AcDbEntity
  8
0
100
AcDbCircle
 10
2936.885622020041
 20
1187.501048251855
 30
0.0
 40
4.0
  0
CIRCLE
  5
12D8
330
1F
100
AcDbEntity
  8
0
100
AcDbCircle
 10
2936.885622020041
 20
1187.501048251855
 30
0.0
 40
3.0
  0
LINE
  5
12D9
330
1F
100
AcDbEntity
  8
0
100
AcDbLine
 10
2943.36636271845
 20
1197.001048251855
 30
0.0
 11
2930.404881321634
 21
1197.001048251855
 31
0.0
  0
LINE
  5
12DA
330
1F
100
AcDbEntity
  8
0
100
AcDbLine
 10
2943.36636271845
 20
1178.001048251855
 30
0.0
 11
2930.404881321634
 21
1178.001048251855
 31
0.0
  0
ARC
  5
12DB
330
1F
100
AcDbEntity
  8
0
100
AcDbCircle
 10
2936.885622020041
 20
1187.501048251855
 30
0.0
 40
11.5
100
AcDbArc
 50
124.3011527567843
 51
235.6988472432157
  0
LINE
  5
12DC
330
1F
100
AcDbEntity
  8
0
100
AcDbLine
 10
2943.36636271845
 20
1152.491839212158
 30
0.0
 11
2943.36636271845
 21
1142.491839212158
 31
0.0
  0
LINE
  5
12DD
330
1F
100
AcDbEntity
  8
0
100
AcDbLine
 10
2930.404881321634
 20
1152.491839212158
 30
0.0
 11
2930.404881321634
 21
1142.491839212158
 31
0.0
  0
LINE
  5
12EC
330
1F
100
AcDbEntity
  8
AM_7
100
AcDbLine
 10
2936.885622020041
 20
1154.491839212158
 30
0.0
 11
2936.885622020041
 21
1083.491839212158
 31
0.0
1001
GENIUS_GENOBJ-N-CEN_13
1002
{
1000
OWNER
1000
GEN
1002
}
1001
GENIUS_GENODEF_13
1002
{
1000
HIER
1070
     0
1002
}
1002
{
1000
MANEDIT
1070
     0
1002
}
1002
{
1000
NOSEL
1070
     0
1002
}
1002
{
1000
BEHIND
1070
     0
1002
}
1002
{
1000
OTHER
1070
     0
1002
}
1002
{
1000
REACTOR
1002
}
1001
GENIUS_GENCEN_19
1002
{
1040
2.0
1002
}
  0
LINE
  5
12FA
330
1F
100
AcDbEntity
  8
AM_7
100
AcDbLine
 10
2936.885622020041
 20
1187.501048251855
 30
0.0
 11
2957.885622020042
 21
1187.501048251855
 31
0.0
1001
GENIUS_GENOREF_13
1005
12FE
  0
LINE
  5
12FB
330
1F
100
AcDbEntity
  8
AM_7
100
AcDbLine
 10
2936.885622020041
 20
1187.501048251855
 30
0.0
 11
2936.885622020041
 21
1208.501048251855
 31
0.0
1001
GENIUS_GENOREF_13
1005
12FE
  0
LINE
  5
12FC
330
1F
100
AcDbEntity
  8
AM_7
100
AcDbLine
 10
2936.885622020041
 20
1187.501048251855
 30
0.0
 11
2915.885622020042
 21
1187.501048251855
 31
0.0
1001
GENIUS_GENOREF_13
1005
12FE
  0
LINE
  5
12FD
330
1F
100
AcDbEntity
  8
AM_7
100
AcDbLine
 10
2936.885622020041
 20
1187.501048251855
 30
0.0
 11
2936.885622020041
 21
1166.501048251855
 31
0.0
1001
GENIUS_GENOREF_13
1005
12FE
  0
POINT
  5
12FE
330
1F
100
AcDbEntity
  8
0
 60
     1
100
AcDbPoint
 10
0.0
 20
0.0
 30
0.0
1001
GENIUS_GENOBJ-N-CRS_13
1002
{
1000
OWNER
1000
GEN
1002
}
1001
GENIUS_GENOLIS_13
1002
{
1000
ENT
1005
12FD
1005
12FC
1005
12FB
1005
12FA
1002
}
1001
GENIUS_GENODEF_13
1002
{
1000
HIER
1070
    10
1002
}
1002
{
1000
MANEDIT
1070
     0
1002
}
1002
{
1000
NOSEL
1070
     0
1002
}
1002
{
1000
BEHIND
1070
     0
1002
}
1002
{
1000
OTHER
1070
     0
1002
}
1002
{
1000
REACTOR
1002
}
1001
GENIUS_GENOENT_13
1002
{
1000
MYREF
1005
12FE
1002
}
1002
{
1000
GRP
1005
0
1002
}
  0
DIMENSION
  5
12FF
330
1F
100
AcDbEntity
  8
AM_5
100
AcDbDimension
  2
*D30
 10
2966.885622020042
 20
1096.491839212158
 30
0.0
 11
2964.385622020041
 21
1090.991839212158
 31
0.0
 70
    32
 71
     5
 42
11.0
  3
AM_ISO$0
100
AcDbAlignedDimension
 13
2953.885622020042
 23
1085.491839212158
 33
0.0
 14
2955.385622020042
 24
1096.491839212158
 34
0.0
 50
90.0
100
AcDbRotatedDimension
1001
ACAD
1000
DSTYLE
1002
{
1070
    40
1040
1.0
1070
   144
1040
1.0
1070
   272
1070
     8
1002
}
  0
DIMENSION
  5
1300
330
1F
100
AcDbEntity
  8
AM_5
100
AcDbDimension
  2
*D31
 10
2974.885622020042
 20
1140.491839212158
 30
0.0
 11
2972.385622020041
 21
1112.991839212159
 31
0.0
 70
    32
 71
     5
 42
55.00000000000023
  3
AM_ISO$0
100
AcDbAlignedDimension
 13
2953.885622020042
 23
1085.491839212158
 33
0.0
 14
2950.416416667182
 24
1140.491839212158
 34
0.0
 50
90.0
100
AcDbRotatedDimension
1001
ACAD
1000
DSTYLE
1002
{
1070
    40
1040
1.0
1070
   144
1040
1.0
1070
   272
1070
     8
1002
}
  0
DIMENSION
  5
1301
330
1F
100
AcDbEntity
  8
AM_5
100
AcDbDimension
  2
*D32
 10
2982.885622020042
 20
1152.491839212158
 30
0.0
 11
2980.385622020041
 21
1118.991839212158
 31
0.0
 70
    32
 71
     5
 42
67.0
  3
AM_ISO$0
100
AcDbAlignedDimension
 13
2953.885622020042
 23
1085.491839212158
 33
0.0
 14
2947.885622020042
 24
1152.491839212158
 34
0.0
 50
90.0
100
AcDbRotatedDimension
1001
ACAD
1000
DSTYLE
1002
{
1070
    40
1040
1.0
1070
   144
1040
1.0
1070
   272
1070
     8
1002
}
  0
DIMENSION
  5
1302
330
1F
100
AcDbEntity
  8
AM_5
100
AcDbDimension
  2
*D33
 10
2955.885622020042
 20
1073.491839212158
 30
0.0
 11
2936.885622020041
 21
1075.991839212158
 31
0.0
 70
    32
  1
M<>X1.5
 71
     5
 42
38.0
  3
AM_ISO$0
100
AcDbAlignedDimension
 13
2917.885622020042
 23
1096.991839212158
 33
0.0
 14
2955.885622020042
 24
1096.991839212158
 34
0.0
100
AcDbRotatedDimension
1001
ACAD
1000
DSTYLE
1002
{
1070
    40
1040
1.0
1070
   144
1040
1.0
1070
   272
1070
     8
1002
}
  0
INSERT
  5
1360
330
1F
100
AcDbEntity
  8
AM_5
100
AcDbBlockReference
  2
*S37
 10
0.0
 20
0.0
 30
0.0
  0
TEXT
  5
1361
330
1F
100
AcDbEntity
  8
AM_5
100
AcDbText
 10
2962.040356676005
 20
1166.77711898497
 30
0.0
 40
3.0
  1
M8x1.25
 41
0.75
  7
CHINESET
100
AcDbText
  0
TEXT
  5
1400
330
1F
100
AcDbEntity
  8
LOGO
 62
     7
100
AcDbText
 10
2587.987989208901
 20
1041.331024657914
 30
0.0
 40
5.33256108597285
  1
Order example:
 41
0.8
  7
CHINESET
100
AcDbText
  0
TEXT
  5
1401
330
1F
100
AcDbEntity
  8
LOGO
 62
     7
100
AcDbText
 10
2588.94469476621
 20
1048.838166546103
 30
0.0
 40
7.998841628959275
  1
訂購代號:
  7
CHINESET
100
AcDbText
  0
LINE
  5
1402
330
1F
100
AcDbEntity
  8
LOGO
 62
     1
100
AcDbLine
 10
3047.683715411486
 20
1058.851806686544
 30
0.0
 11
2497.683715411486
 21
1058.851806686544
 31
0.0
  0
LINE
  5
1403
330
1F
100
AcDbEntity
  8
LOGO
 62
     1
100
AcDbLine
 10
2585.670973330038
 20
1018.857598541747
 30
0.0
 11
2585.670973330038
 21
1058.851806686544
 31
0.0
  0
TEXT
  5
1404
330
1F
100
AcDbEntity
  8
LOGO
  6
Continuous
 62
     5
100
AcDbText
 10
2512.049814754541
 20
1026.71440037527
 30
0.0
 40
5.999131221719457
  1
金器工業股份有限公司
  7
CHINESET
100
AcDbText
  0
TEXT
  5
1405
330
1F
100
AcDbEntity
  8
LOGO
  6
Continuous
 62
     5
100
AcDbText
 10
2501.030597569825
 20
1020.714093794181
 30
0.0
 40
3.999420814479637
  1
MINDMAN INDUSTRIAL CO., LTD.
 41
0.85
  7
CHINESET
100
AcDbText
  0
LINE
  5
1406
330
1F
100
AcDbEntity
  8
LOGO
 62
     1
100
AcDbLine
 10
2585.670973330038
 20
1050.852965057584
 30
0.0
 11
2527.012801384337
 21
1050.852965057584
 31
0.0
  0
LINE
  5
1407
330
1F
100
AcDbEntity
  8
LOGO
 62
     1
100
AcDbLine
 10
2585.670973330038
 20
1042.854123428625
 30
0.0
 11
2527.012801384337
 21
1042.854123428625
 31
0.0
  0
LINE
  5
1408
330
1F
100
AcDbEntity
  8
LOGO
 62
     1
100
AcDbLine
 10
2585.670973330038
 20
1034.855281799667
 30
0.0
 11
2497.683715411486
 21
1034.855281799667
 31
0.0
  0
LINE
  5
1409
330
1F
100
AcDbEntity
  8
LOGO
 62
     1
100
AcDbLine
 10
2527.012801384337
 20
1034.855281799667
 30
0.0
 11
2527.012801384337
 21
1058.851806686544
 31
0.0
  0
TEXT
  5
140A
330
1F
100
AcDbEntity
  8
LOGO
 62
     6
100
AcDbText
 10
2565.007958573332
 20
1036.854992206906
 30
0.0
 40
3.999420814479637
  1
m/m
  7
CHINESET
 72
     1
 11
2572.054557151226
 21
1038.854702614146
 31
0.0
100
AcDbText
 73
     2
  0
TEXT
  5
140B
330
1F
100
AcDbEntity
  8
LOGO
 62
     6
100
AcDbText
 10
2565.007958573332
 20
1052.852675464825
 30
0.0
 40
3.999420814479637
  1
1 : 1
  7
CHINESET
 72
     1
 11
2572.054557151226
 21
1054.852385872064
 31
0.0
100
AcDbText
 73
     2
  0
LINE
  5
140C
330
1F
100
AcDbEntity
  8
LOGO
 62
     1
100
AcDbLine
 10
2559.008167900174
 20
1034.855281799667
 30
0.0
 11
2559.008167900174
 21
1058.851806686544
 31
0.0
  0
CIRCLE
  5
140D
330
1F
100
AcDbEntity
  8
LOGO
  6
Continuous
 62
     6
100
AcDbCircle
 10
2566.41359577783
 20
1046.862099033494
 30
0.0
 40
2.322157860641262
  0
CIRCLE
  5
140E
330
1F
100
AcDbEntity
  8
LOGO
  6
Continuous
 62
     6
100
AcDbCircle
 10
2566.41359577783
 20
1046.862099033494
 30
0.0
 40
1.360578937331194
  0
LINE
  5
140F
330
1F
100
AcDbEntity
  8
LOGO
 62
     6
100
AcDbLine
 10
2581.006305225904
 20
1044.539941172853
 30
0.0
 11
2581.006305225904
 21
1049.184256894136
 31
0.0
  0
LINE
  5
1410
330
1F
100
AcDbEntity
  8
LOGO
 62
     6
100
AcDbLine
 10
2573.726473631015
 20
1045.501520096163
 30
0.0
 11
2573.726473631015
 21
1048.222677970826
 31
0.0
  0
LINE
  5
1411
330
1F
100
AcDbEntity
  8
LOGO
  6
Continuous
 62
     6
100
AcDbLine
 10
2573.726473631015
 20
1048.222677970826
 30
0.0
 11
2581.006305225904
 21
1049.184256894136
 31
0.0
  0
LINE
  5
1412
330
1F
100
AcDbEntity
  8
LOGO
  6
Continuous
 62
     6
100
AcDbLine
 10
2573.726473631015
 20
1045.501520096163
 30
0.0
 11
2581.006305225904
 21
1044.539941172853
 31
0.0
  0
TEXT
  5
1413
330
1F
100
AcDbEntity
  8
LOGO
 62
     6
100
AcDbText
 10
2530.310538100562
 20
1052.854643683729
 30
262.1154515200996
 40
3.999420814479637
  1
比例 Scale:
 41
0.9
  7
CHINESET
 72
     4
 11
2543.010484642255
 21
1054.852385872064
 31
262.1154515200996
100
AcDbText
  0
TEXT
  5
1414
330
1F
100
AcDbEntity
  8
LOGO
 62
     6
100
AcDbText
 10
2530.080214312585
 20
1044.910092092893
 30
262.1154515200996
 40
3.999420814479637
  1
投影  View:
 41
0.9
  7
CHINESET
 72
     4
 11
2543.010484642255
 21
1046.853544243104
 31
262.1154515200996
100
AcDbText
  0
TEXT
  5
1415
330
1F
100
AcDbEntity
  8
LOGO
 62
     6
100
AcDbText
 10
2530.471229115429
 20
1036.854992206906
 30
262.1154515200996
 40
3.999420814479637
  1
單位  Unit:
 41
0.9
  7
CHINESET
 72
     4
 11
2543.010484642255
 21
1038.854702614146
 31
262.1154515200996
100
AcDbText
  0
LWPOLYLINE
  5
1416
330
1F
100
AcDbEntity
  8
0
 62
     4
100
AcDbPolyline
 90
        4
 70
     1
 43
0.0
 10
2497.683715411486
 20
1058.851806686544
 10
3047.683715411486
 20
1058.851806686544
 10
3047.683715411486
 20
1418.857598541747
 10
2497.683715411486
 20
1418.857598541747
1001
GENIUS_GENREC_14
1002
{
1000
PYDIR
1011
2497.683715411486
1021
1418.857598541747
1031
0.0
1002
}
1002
{
1000
PXDIR
1011
3047.683715411486
1021
1058.851806686544
1031
0.0
1002
}
1002
{
1000
PORI
1011
2497.683715411486
1021
1058.851806686544
1031
0.0
1002
}
1002
{
1000
PINS
1011
2497.683715411486
1021
1058.851806686544
1031
0.0
1002
}
1002
{
1000
PINS2
1011
3047.683715411486
1021
1418.857598541747
1031
0.0
1002
}
1002
{
1000
C
1070
     1
1002
}
1001
GENIUS_GENODEF_13
1002
{
1000
HIER
1070
     0
1002
}
1002
{
1000
MANEDIT
1070
     0
1002
}
1002
{
1000
NOSEL
1070
     0
1002
}
1002
{
1000
BEHIND
1070
     0
1002
}
1002
{
1000
OTHER
1070
     0
1002
}
1002
{
1000
REACTOR
1002
}
1001
GENIUS_GENOBJ-N-REC_13
1002
{
1000
OWNER
1000
GEN
1002
}
  0
SOLID
  5
1417
330
1F
100
AcDbEntity
  8
LOGO
 62
     5
100
AcDbTrace
 10
2501.833178692331
 20
1041.503749631013
 30
0.0
 11
2503.562423307709
 21
1041.503749631013
 31
0.0
 12
2510.777547392565
 22
1057.901758914779
 32
0.0
 13
2512.506792007946
 23
1057.901758914778
 33
0.0
  0
SOLID
  5
1418
330
1F
100
AcDbEntity
  8
LOGO
 62
     5
100
AcDbTrace
 10
2504.27797280373
 20
1041.503749631013
 30
0.0
 11
2506.007217419109
 21
1041.503749631013
 31
0.0
 12
2512.506792007946
 22
1056.589918172077
 32
0.0
 13
2510.777547392565
 23
1050.249354582354
 33
0.0
  0
SOLID
  5
1419
330
1F
100
AcDbEntity
  8
LOGO
 62
     2
100
AcDbTrace
 10
2503.562423307709
 20
1041.503749631013
 30
0.0
 11
2504.27797280373
 21
1041.503749631013
 31
0.0
 12
2512.506792007946
 22
1057.901758914778
 32
0.0
 13
2513.222341503965
 23
1057.901758914778
 33
0.0
  0
SOLID
  5
141A
330
1F
100
AcDbEntity
  8
LOGO
 62
     5
100
AcDbTrace
 10
2499.060775511154
 20
1035.54083716419
 30
0.0
 11
2499.657066757837
 21
1035.54083716419
 31
0.0
 12
2501.336269320096
 22
1038.522293397601
 32
0.0
 13
2501.932560566777
 23
1038.522293397601
 33
0.0
  0
SOLID
  5
141B
330
1F
100
AcDbEntity
  8
LOGO
 62
     5
100
AcDbTrace
 10
2501.336269320096
 20
1038.522293397601
 30
0.0
 11
2501.932560566777
 21
1038.522293397601
 31
0.0
 12
2501.336269320096
 22
1035.54083716419
 32
0.0
 13
2501.932560566777
 23
1035.54083716419
 33
0.0
  0
SOLID
  5
141C
330
1F
100
AcDbEntity
  8
LOGO
 62
     5
100
AcDbTrace
 10
2501.336269320096
 20
1035.54083716419
 30
0.0
 11
2501.932560566777
 21
1035.54083716419
 31
0.0
 12
2503.611763129038
 22
1038.522293397601
 32
0.0
 13
2504.208054375721
 23
1038.522293397601
 33
0.0
  0
SOLID
  5
141D
330
1F
100
AcDbEntity
  8
LOGO
 62
     5
100
AcDbTrace
 10
2503.611763129038
 20
1038.522293397601
 30
0.0
 11
2504.208054375721
 21
1038.522293397601
 31
0.0
 12
2503.611763129038
 22
1035.54083716419
 32
0.0
 13
2504.208054375721
 23
1035.54083716419
 33
0.0
  0
POLYLINE
  5
141E
330
1F
100
AcDbEntity
  8
LOGO
 62
     5
100
AcDb2dPolyline
 66
     1
 10
0.0
 20
0.0
 30
0.0
 40
0.5972468416289592
 41
0.5972468416289592
  0
VERTEX
  5
141F
330
141E
100
AcDbEntity
  8
LOGO
 62
     5
100
AcDbVertex
100
AcDb2dVertex
 10
2523.599242588657
 20
1037.329710904236
 30
0.0
 42
1.0
  0
VERTEX
  5
1420
330
141E
100
AcDbEntity
  8
LOGO
 62
     5
100
AcDbVertex
100
AcDb2dVertex
 10
2521.80750206377
 20
1037.329710904236
 30
0.0
 42
1.0
  0
SEQEND
  5
1421
330
141E
100
AcDbEntity
  8
LOGO
 62
     5
  0
POLYLINE
  5
1422
330
1F
100
AcDbEntity
  8
LOGO
 62
     5
100
AcDb2dPolyline
 66
     1
 10
0.0
 20
0.0
 30
0.0
 70
     1
  0
VERTEX
  5
1423
330
1422
100
AcDbEntity
  8
LOGO
 62
     5
100
AcDbVertex
100
AcDb2dVertex
 10
2518.429991477739
 20
1037.031565280895
 30
0.0
 42
1.000000057330635
  0
VERTEX
  5
1424
330
1422
100
AcDbEntity
  8
LOGO
 62
     5
100
AcDbVertex
100
AcDb2dVertex
 10
2520.218865217786
 20
1037.031565280895
 30
0.0
 42
1.000000057330635
  0
SEQEND
  5
1425
330
1422
100
AcDbEntity
  8
LOGO
 62
     5
  0
CIRCLE
  5
1426
330
1F
100
AcDbEntity
  8
LOGO
 62
     5
100
AcDbCircle
 10
2519.324428347764
 20
1037.031565280895
 30
0.0
 40
0.8944368700235294
  0
POLYLINE
  5
1427
330
1F
100
AcDbEntity
  8
LOGO
 62
     5
100
AcDb2dPolyline
 66
     1
 10
0.0
 20
0.0
 30
0.0
 70
     1
 40
0.5972468416289592
 41
0.5972468416289592
  0
VERTEX
  5
1428
330
1427
100
AcDbEntity
  8
LOGO
 62
     5
100
AcDbVertex
100
AcDb2dVertex
 10
2518.129934664505
 20
1037.031565280895
 30
0.0
 42
1.0
  0
VERTEX
  5
1429
330
1427
100
AcDbEntity
  8
LOGO
 62
     5
100
AcDbVertex
100
AcDb2dVertex
 10
2520.518922031021
 20
1037.031565280895
 30
0.0
 42
1.0
  0
SEQEND
  5
142A
330
1427
100
AcDbEntity
  8
LOGO
 62
     5
  0
LINE
  5
142B
330
1F
100
AcDbEntity
  8
LOGO
 62
     5
100
AcDbLine
 10
2523.895954819578
 20
1035.54083716419
 30
0.0
 11
2523.895954819578
 21
1037.329710904236
 31
0.0
  0
SOLID
  5
142C
330
1F
100
AcDbEntity
  8
LOGO
 62
     5
100
AcDbTrace
 10
2520.218805588664
 20
1038.522293397601
 30
0.0
 11
2520.815096835346
 21
1038.522293397601
 31
0.0
 12
2520.218805588664
 22
1035.54083716419
 32
0.0
 13
2520.815096835346
 23
1035.54083716419
 33
0.0
  0
SOLID
  5
142D
330
1F
100
AcDbEntity
  8
LOGO
 62
     5
100
AcDbTrace
 10
2521.510789832849
 20
1035.54083716419
 30
0.0
 11
2522.107081079532
 21
1035.54083716419
 31
0.0
 12
2521.510789832849
 22
1038.522293397601
 32
0.0
 13
2522.107081079532
 23
1038.522293397601
 33
0.0
  0
SOLID
  5
142E
330
1F
100
AcDbEntity
  8
LOGO
 62
     5
100
AcDbTrace
 10
2523.299663572897
 20
1037.329710904236
 30
0.0
 11
2523.895954819578
 21
1037.329710904236
 31
0.0
 12
2523.299663572897
 22
1035.54083716419
 32
0.0
 13
2523.895954819578
 23
1035.54083716419
 33
0.0
  0
SOLID
  5
142F
330
1F
100
AcDbEntity
  8
LOGO
 62
     5
100
AcDbTrace
 10
2521.45116070818
 20
1056.589918172077
 30
0.0
 11
2519.721916092802
 21
1050.249354582354
 31
0.0
 12
2521.45116070818
 22
1041.503749631013
 32
0.0
 13
2519.721916092802
 23
1041.503749631013
 33
0.0
  0
SOLID
  5
1430
330
1F
100
AcDbEntity
  8
LOGO
 62
     5
100
AcDbTrace
 10
2522.1667102042
 20
1041.503749631013
 30
0.0
 11
2523.895954819578
 21
1041.503749631013
 31
0.0
 12
2522.1667102042
 22
1057.901758914778
 32
0.0
 13
2523.895954819578
 23
1057.901758914779
 33
0.0
  0
SOLID
  5
1431
330
1F
100
AcDbEntity
  8
LOGO
 62
     2
100
AcDbTrace
 10
2521.45116070818
 20
1057.901758914779
 30
0.0
 11
2522.1667102042
 21
1057.901758914778
 31
0.0
 12
2521.45116070818
 22
1041.503749631013
 32
0.0
 13
2522.1667102042
 23
1041.503749631013
 33
0.0
  0
POLYLINE
  5
1432
330
1F
100
AcDbEntity
  8
LOGO
 62
     5
100
AcDb2dPolyline
 66
     1
 10
0.0
 20
0.0
 30
0.0
 40
0.5972468416289592
 41
0.5972468416289592
  0
VERTEX
  5
1433
330
1432
100
AcDbEntity
  8
LOGO
 62
     5
100
AcDbVertex
100
AcDb2dVertex
 10
2515.052361633461
 20
1037.329710904236
 30
0.0
 42
1.0
  0
VERTEX
  5
1434
330
1432
100
AcDbEntity
  8
LOGO
 62
     5
100
AcDbVertex
100
AcDb2dVertex
 10
2513.260621108574
 20
1037.329710904236
 30
0.0
 42
1.0
  0
SEQEND
  5
1435
330
1432
100
AcDbEntity
  8
LOGO
 62
     5
  0
POLYLINE
  5
1436
330
1F
100
AcDbEntity
  8
LOGO
 62
     5
100
AcDb2dPolyline
 66
     1
 10
0.0
 20
0.0
 30
0.0
 40
0.5972468416289592
 41
0.5972468416289592
  0
VERTEX
  5
1437
330
1436
100
AcDbEntity
  8
LOGO
 62
     5
100
AcDbVertex
100
AcDb2dVertex
 10
2516.841235373506
 20
1037.329710904236
 30
0.0
 42
1.0
  0
VERTEX
  5
1438
330
1436
100
AcDbEntity
  8
LOGO
 62
     5
100
AcDbVertex
100
AcDb2dVertex
 10
2515.04949484862
 20
1037.329710904236
 30
0.0
 42
1.0
  0
SEQEND
  5
1439
330
1436
100
AcDbEntity
  8
LOGO
 62
     5
  0
POLYLINE
  5
143A
330
1F
100
AcDbEntity
  8
LOGO
 62
     5
100
AcDb2dPolyline
 66
     1
 10
0.0
 20
0.0
 30
0.0
 40
0.5972468416289592
 41
0.5972468416289592
  0
VERTEX
  5
143B
330
143A
100
AcDbEntity
  8
LOGO
 62
     5
100
AcDbVertex
100
AcDb2dVertex
 10
2508.29435441831
 20
1037.329710904236
 30
0.0
 42
1.0
  0
VERTEX
  5
143C
330
143A
100
AcDbEntity
  8
LOGO
 62
     5
100
AcDbVertex
100
AcDb2dVertex
 10
2506.502613893423
 20
1037.329710904236
 30
0.0
 42
1.0
  0
SEQEND
  5
143D
330
143A
100
AcDbEntity
  8
LOGO
 62
     5
  0
SOLID
  5
143E
330
1F
100
AcDbEntity
  8
LOGO
 62
     5
100
AcDbTrace
 10
2506.205901662502
 20
1038.522293397601
 30
0.0
 11
2506.802192909184
 21
1038.522293397601
 31
0.0
 12
2506.205901662502
 22
1035.54083716419
 32
0.0
 13
2506.802192909184
 23
1035.54083716419
 33
0.0
  0
SOLID
  5
143F
330
1F
100
AcDbEntity
  8
LOGO
 62
     5
100
AcDbTrace
 10
2507.994775402549
 20
1037.329710904236
 30
0.0
 11
2508.591066649233
 21
1037.329710904236
 31
0.0
 12
2507.994775402549
 22
1035.54083716419
 32
0.0
 13
2508.591066649233
 23
1035.54083716419
 33
0.0
  0
POLYLINE
  5
1440
330
1F
100
AcDbEntity
  8
LOGO
 62
     5
100
AcDb2dPolyline
 66
     1
 10
0.0
 20
0.0
 30
0.0
 70
     1
 40
0.5972468416289592
 41
0.5972468416289592
  0
VERTEX
  5
1441
330
1440
100
AcDbEntity
  8
LOGO
 62
     5
100
AcDbVertex
100
AcDb2dVertex
 10
2509.583053709308
 20
1037.031565280895
 30
0.0
 42
1.0
  0
VERTEX
  5
1442
330
1440
100
AcDbEntity
  8
LOGO
 62
     5
100
AcDbVertex
100
AcDb2dVertex
 10
2511.972041075824
 20
1037.031565280895
 30
0.0
 42
1.0
  0
SEQEND
  5
1443
330
1440
100
AcDbEntity
  8
LOGO
 62
     5
  0
SOLID
  5
1444
330
1F
100
AcDbEntity
  8
LOGO
 62
     5
100
AcDbTrace
 10
2511.671924633466
 20
1039.416730267626
 30
0.0
 11
2512.268215880148
 21
1039.416730267626
 31
0.0
 12
2511.671924633466
 22
1035.54083716419
 32
0.0
 13
2512.268215880148
 23
1035.54083716419
 33
0.0
  0
SOLID
  5
1445
330
1F
100
AcDbEntity
  8
LOGO
 62
     5
100
AcDbTrace
 10
2512.963908877654
 20
1038.522293397601
 30
0.0
 11
2513.560200124335
 21
1038.522293397601
 31
0.0
 12
2512.963908877654
 22
1035.54083716419
 32
0.0
 13
2513.560200124335
 23
1035.54083716419
 33
0.0
  0
SOLID
  5
1446
330
1F
100
AcDbEntity
  8
LOGO
 62
     5
100
AcDbTrace
 10
2514.752782617699
 20
1037.329710904236
 30
0.0
 11
2515.349073864382
 21
1037.329710904236
 31
0.0
 12
2514.752782617699
 22
1035.54083716419
 32
0.0
 13
2515.349073864382
 23
1035.54083716419
 33
0.0
  0
SOLID
  5
1447
330
1F
100
AcDbEntity
  8
LOGO
 62
     5
100
AcDbTrace
 10
2516.541656357746
 20
1037.329710904236
 30
0.0
 11
2517.137947604428
 21
1037.329710904236
 31
0.0
 12
2516.541656357746
 22
1035.540837164189
 32
0.0
 13
2517.137947604428
 23
1035.540837164189
 33
0.0
  0
SOLID
  5
1448
330
1F
100
AcDbEntity
  8
LOGO
 62
     5
100
AcDbTrace
 10
2504.913917418316
 20
1038.939697270279
 30
0.0
 11
2505.510208664999
 21
1038.939697270279
 31
0.0
 12
2504.913917418316
 22
1039.416730267626
 32
0.0
 13
2505.510208664999
 23
1039.416730267626
 33
0.0
  0
SOLID
  5
1449
330
1F
100
AcDbEntity
  8
LOGO
 62
     5
100
AcDbTrace
 10
2504.913917418316
 20
1038.522293397601
 30
0.0
 11
2505.510208664999
 21
1038.522293397601
 31
0.0
 12
2504.913917418316
 22
1035.540837164189
 32
0.0
 13
2505.510208664999
 23
1035.54083716419
 33
0.0
  0
SOLID
  5
144A
330
1F
100
AcDbEntity
  8
LOGO
 62
     5
100
AcDbTrace
 10
2510.777547392565
 20
1041.503749631013
 30
0.0
 11
2512.506792007946
 21
1041.503749631013
 31
0.0
 12
2510.777547392565
 22
1050.249354582354
 32
0.0
 13
2512.506792007946
 23
1056.589918172077
 33
0.0
  0
SOLID
  5
144B
330
1F
100
AcDbEntity
  8
LOGO
 62
     5
100
AcDbTrace
 10
2513.222341503965
 20
1057.901758914778
 30
0.0
 11
2514.951586119343
 21
1057.901758914779
 31
0.0
 12
2513.222341503965
 22
1042.815590373714
 32
0.0
 13
2514.951586119343
 23
1049.156153963436
 33
0.0
  0
SOLID
  5
144C
330
1F
100
AcDbEntity
  8
LOGO
 62
     2
100
AcDbTrace
 10
2512.506792007946
 20
1057.901758914778
 30
0.0
 11
2513.222341503965
 21
1057.901758914778
 31
0.0
 12
2512.506792007946
 22
1041.503749631013
 32
0.0
 13
2513.222341503965
 23
1041.503749631013
 33
0.0
  0
SOLID
  5
144D
330
1F
100
AcDbEntity
  8
LOGO
 62
     5
100
AcDbTrace
 10
2513.222341503965
 20
1042.815590373714
 30
0.0
 11
2514.951586119343
 21
1049.156153963436
 31
0.0
 12
2521.45116070818
 22
1057.901758914779
 32
0.0
 13
2519.721916092802
 23
1057.901758914779
 33
0.0
  0
SOLID
  5
144E
330
1F
100
AcDbEntity
  8
LOGO
 62
     5
100
AcDbTrace
 10
2513.222341503965
 20
1041.503749631013
 30
0.0
 11
2514.951586119343
 21
1041.503749631013
 31
0.0
 12
2521.45116070818
 22
1056.589918172077
 32
0.0
 13
2519.721916092802
 23
1050.249354582354
 33
0.0
  0
SOLID
  5
144F
330
1F
100
AcDbEntity
  8
LOGO
 62
     2
100
AcDbTrace
 10
2512.506792007946
 20
1041.503749631013
 30
0.0
 11
2513.222341503965
 21
1041.503749631013
 31
0.0
 12
2521.45116070818
 22
1057.901758914779
 32
0.0
 13
2522.1667102042
 23
1057.901758914778
 33
0.0
  0
LWPOLYLINE
  5
1450
330
1F
100
AcDbEntity
  8
0
 62
     1
100
AcDbPolyline
 90
        4
 70
     1
 43
0.0
 10
2497.683715411486
 20
1058.851806686544
 10
3047.683715411486
 20
1058.851806686544
 10
3047.683715411486
 20
1018.857598541747
 10
2497.683715411486
 20
1018.857598541747
1001
GENIUS_GENREC_14
1002
{
1000
PYDIR
1011
2497.683715411486
1021
1018.857598541747
1031
0.0
1002
}
1002
{
1000
PXDIR
1011
3047.683715411486
1021
1058.851806686544
1031
0.0
1002
}
1002
{
1000
PORI
1011
2497.683715411486
1021
1058.851806686544
1031
0.0
1002
}
1002
{
1000
PINS
1011
2497.683715411486
1021
1058.851806686544
1031
0.0
1002
}
1002
{
1000
PINS2
1011
3047.683715411486
1021
1018.857598541747
1031
0.0
1002
}
1002
{
1000
C
1070
     1
1002
}
1001
GENIUS_GENOBJ-N-REC_13
1002
{
1000
OWNER
1000
GEN
1002
}
1001
GENIUS_GENODEF_13
1002
{
1000
HIER
1070
     0
1002
}
1002
{
1000
MANEDIT
1070
     0
1002
}
1002
{
1000
NOSEL
1070
     0
1002
}
1002
{
1000
BEHIND
1070
     0
1002
}
1002
{
1000
OTHER
1070
     0
1002
}
1002
{
1000
REACTOR
1002
}
  0
LINE
  5
1451
330
1F
100
AcDbEntity
  8
LOGO
 62
     6
100
AcDbLine
 10
2660.527486051952
 20
1036.854992206906
 30
0.0
 11
2660.527486051952
 21
1022.19044922048
 31
0.0
  0
LINE
  5
1452
330
1F
100
AcDbEntity
  8
LOGO
 62
     6
100
AcDbLine
 10
2640.681231600138
 20
1036.854992206906
 30
0.0
 11
2640.681231600138
 21
1022.19044922048
 31
0.0
  0
LINE
  5
1453
330
1F
100
AcDbEntity
  8
LOGO
 62
     6
100
AcDbLine
 10
2660.527486051952
 20
1022.19044922048
 30
0.0
 11
2640.681231600138
 21
1022.19044922048
 31
0.0
  0
LINE
  5
1454
330
1F
100
AcDbEntity
  8
LOGO
 62
     6
100
AcDbLine
 10
2665.563705796346
 20
1054.852385872064
 30
0.0
 11
2640.681231600138
 21
1054.852385872064
 31
0.0
  0
LINE
  5
1455
330
1F
100
AcDbEntity
  8
LOGO
 62
     6
100
AcDbLine
 10
2665.563705796346
 20
1042.854123428625
 30
0.0
 11
2640.681231600138
 21
1042.854123428625
 31
0.0
  0
LINE
  5
1456
330
1F
100
AcDbEntity
  8
LOGO
 62
     6
100
AcDbLine
 10
2640.681231600138
 20
1054.852385872064
 30
0.0
 11
2640.681231600138
 21
1042.854123428625
 31
0.0
  0
LINE
  5
1457
330
1F
100
AcDbEntity
  8
LOGO
 62
     6
100
AcDbLine
 10
2665.563705796346
 20
1054.852385872064
 30
0.0
 11
2665.563705796346
 21
1042.854123428625
 31
0.0
  0
LINE
  5
1458
330
1F
100
AcDbEntity
  8
LOGO
 62
     6
100
AcDbLine
 10
2655.403763071543
 20
1042.854123428625
 30
0.0
 11
2655.403763071543
 21
1036.854992206906
 31
0.0
  0
TEXT
  5
1459
330
1F
100
AcDbEntity
  8
LOGO
  6
Continuous
 62
     7
100
AcDbText
 10
2642.91067703376
 20
1045.358743172235
 30
0.0
 40
7.0
  1
MTC
  7
CHINESET
100
AcDbText
  0
LINE
  5
145A
330
1F
100
AcDbEntity
  8
LOGO
 62
     6
100
AcDbLine
 10
2660.527486051952
 20
1036.854992206906
 30
0.0
 11
2640.681231600138
 21
1036.854992206906
 31
0.0
  0
TEXT
  5
145B
330
1F
100
AcDbEntity
  8
LOGO
  6
Continuous
 62
     6
100
AcDbText
 10
2645.03128594046
 20
1024.260318366128
 30
262.1154515200996
 40
3.0
  1
Model
 41
0.8
  7
CHINESET
100
AcDbText
  0
TEXT
  5
145C
330
1F
100
AcDbEntity
  8
LOGO
 62
     6
100
AcDbText
 10
2644.232783464462
 20
1029.821671819983
 30
262.1154515200996
 40
5.0
  1
型號
  7
CHINESET
100
AcDbText
  0
LINE
  5
1469
330
1F
100
AcDbEntity
  8
LOGO
 62
     6
100
AcDbLine
 10
2687.603040379429
 20
1036.854992206906
 30
0.0
 11
2687.603040379429
 21
1022.19044922048
 31
0.0
  0
LINE
  5
146A
330
1F
100
AcDbEntity
  8
LOGO
 62
     6
100
AcDbLine
 10
2669.787248773475
 20
1036.854992206906
 30
0.0
 11
2669.787248773475
 21
1022.19044922048
 31
0.0
  0
LINE
  5
146B
330
1F
100
AcDbEntity
  8
LOGO
 62
     6
100
AcDbLine
 10
2687.603040379429
 20
1022.19044922048
 30
0.0
 11
2669.787248773475
 21
1022.19044922048
 31
0.0
  0
LINE
  5
146C
330
1F
100
AcDbEntity
  8
LOGO
 62
     6
100
AcDbLine
 10
2688.635862766892
 20
1054.852385872064
 30
0.0
 11
2673.729058300109
 21
1054.852385872064
 31
0.0
  0
LINE
  5
146D
330
1F
100
AcDbEntity
  8
LOGO
 62
     6
100
AcDbLine
 10
2688.635862766892
 20
1042.854123428625
 30
0.0
 11
2673.729058300109
 21
1042.854123428625
 31
0.0
  0
LINE
  5
146E
330
1F
100
AcDbEntity
  8
LOGO
 62
     6
100
AcDbLine
 10
2673.729058300109
 20
1054.852385872064
 30
0.0
 11
2673.729058300109
 21
1042.854123428625
 31
0.0
  0
LINE
  5
146F
330
1F
100
AcDbEntity
  8
LOGO
 62
     6
100
AcDbLine
 10
2688.635862766892
 20
1054.852385872064
 30
0.0
 11
2688.635862766892
 21
1042.854123428625
 31
0.0
  0
LINE
  5
1472
330
1F
100
AcDbEntity
  8
LOGO
 62
     6
100
AcDbLine
 10
2687.603040379429
 20
1036.854992206906
 30
0.0
 11
2669.787248773475
 21
1036.854992206906
 31
0.0
  0
TEXT
  5
1480
330
1F
100
AcDbEntity
  8
LOGO
  6
Continuous
 62
     6
100
AcDbText
 10
2671.238574837425
 20
1024.260318366128
 30
262.1154515200996
 40
3.0
  1
Tube I.D.
 41
0.8
  7
CHINESET
100
AcDbText
  0
TEXT
  5
1481
330
1F
100
AcDbEntity
  8
LOGO
 62
     6
100
AcDbText
 10
2672.448207159376
 20
1029.821671819983
 30
262.1154515200996
 40
5.0
  1
內徑
  7
CHINESET
100
AcDbText
  0
TEXT
  5
1490
330
1F
100
AcDbEntity
  8
0
100
AcDbText
 10
2588.124044512514
 20
1020.98527462959
 30
0.0
 40
4.0
  1
10512261
 41
0.7
  7
CHINESET
 72
     1
 11
2597.257377845847
 21
1020.98527462959
 31
0.0
100
AcDbText
  0
LINE
  5
1491
330
1F
100
AcDbEntity
  8
LOGO
 62
     1
100
AcDbLine
 10
2609.670973330036
 20
1026.856440170708
 30
0.0
 11
2609.670973330038
 21
1018.857598541748
 31
0.0
  0
LINE
  5
1492
330
1F
100
AcDbEntity
  8
LOGO
 62
     1
100
AcDbLine
 10
2609.670973330036
 20
1026.856440170708
 30
0.0
 11
2585.670973330038
 21
1026.856440170708
 31
0.0
  0
LINE
  5
17F4
330
1F
100
AcDbEntity
  8
0
 62
     4
100
AcDbLine
 10
2497.683715411486
 20
1238.854702614145
 30
0.0
 11
3047.683715411486
 21
1238.854702614145
 31
0.0
  0
LINE
  5
17F5
330
1F
100
AcDbEntity
  8
0
 62
     4
100
AcDbLine
 10
2772.683715411486
 20
1418.857598541747
 30
0.0
 11
2772.683715411486
 21
1058.851806686544
 31
0.0
  0
TEXT
  5
1B7A
330
1F
100
AcDbEntity
  8
0
100
AcDbText
 10
2565.773751344663
 20
1388.063743559927
 30
0.0
 40
6.0
  1
MTC-12A
 41
0.75
  7
CHINESET
100
AcDbText
  0
TEXT
  5
1B7C
330
1F
100
AcDbEntity
  8
0
100
AcDbText
 10
2644.303347038398
 20
1388.063743559927
 30
0.0
 40
6.0
  1
MTC-12B
 41
0.75
  7
CHINESET
100
AcDbText
  0
TEXT
  5
1C16
330
1F
100
AcDbEntity
  8
0
100
AcDbText
 10
2831.271180098005
 20
1388.063743559927
 30
0.0
 40
6.0
  1
MTC-16A
 41
0.75
  7
CHINESET
100
AcDbText
  0
TEXT
  5
1C17
330
1F
100
AcDbEntity
  8
0
100
AcDbText
 10
2919.303347038398
 20
1388.063743559927
 30
0.0
 40
6.0
  1
MTC-16B
 41
0.75
  7
CHINESET
100
AcDbText
  0
TEXT
  5
1C1A
330
1F
100
AcDbEntity
  8
0
100
AcDbText
 10
2565.773751344663
 20
1215.017569226489
 30
0.0
 40
6.0
  1
MTC-20A
 41
0.75
  7
CHINESET
100
AcDbText
  0
TEXT
  5
1C1B
330
1F
100
AcDbEntity
  8
0
100
AcDbText
 10
2644.303347038398
 20
1215.017569226489
 30
0.0
 40
6.0
  1
MTC-20B
 41
0.75
  7
CHINESET
100
AcDbText
  0
TEXT
  5
1C20
330
1F
100
AcDbEntity
  8
0
100
AcDbText
 10
2840.773751344663
 20
1215.017569226489
 30
0.0
 40
6.0
  1
MTC-25A
 41
0.75
  7
CHINESET
100
AcDbText
  0
TEXT
  5
1C21
330
1F
100
AcDbEntity
  8
0
100
AcDbText
 10
2919.303347038398
 20
1215.017569226489
 30
0.0
 40
6.0
  1
MTC-25B
 41
0.75
  7
CHINESET
100
AcDbText
  0
TEXT
  5
1C4D
330
1F
100
AcDbEntity
  8
LOGO
  6
Continuous
 62
     7
100
AcDbText
 10
2679.190235297998
 20
1045.358743172235
 30
0.0
 40
7.0
  1
*
  7
CHINESET
100
AcDbText
  0
LINE
  5
1C4F
330
1F
100
AcDbEntity
  8
LOGO
 62
     6
100
AcDbLine
 10
2681.182460533501
 20
1042.854123428625
 30
0.0
 11
2681.182460533501
 21
1036.854992206907
 31
0.0
  0
LINE
  5
1C50
330
1F
100
AcDbEntity
  8
LOGO
 62
     6
100
AcDbLine
 10
2707.001190414376
 20
1036.854992206906
 30
0.0
 11
2707.001190414376
 21
1022.19044922048
 31
0.0
  0
LINE
  5
1C51
330
1F
100
AcDbEntity
  8
LOGO
 62
     6
100
AcDbLine
 10
2689.185398808421
 20
1036.854992206906
 30
0.0
 11
2689.185398808421
 21
1022.19044922048
 31
0.0
  0
LINE
  5
1C52
330
1F
100
AcDbEntity
  8
LOGO
 62
     6
100
AcDbLine
 10
2707.001190414376
 20
1022.19044922048
 30
0.0
 11
2689.185398808421
 21
1022.19044922048
 31
0.0
  0
LINE
  5
1C53
330
1F
100
AcDbEntity
  8
LOGO
 62
     6
100
AcDbLine
 10
2713.812185436806
 20
1054.852385872064
 30
0.0
 11
2690.341303624073
 21
1054.852385872064
 31
0.0
  0
LINE
  5
1C54
330
1F
100
AcDbEntity
  8
LOGO
 62
     6
100
AcDbLine
 10
2713.812185436806
 20
1042.854123428625
 30
0.0
 11
2690.341303624073
 21
1042.854123428625
 31
0.0
  0
LINE
  5
1C55
330
1F
100
AcDbEntity
  8
LOGO
 62
     6
100
AcDbLine
 10
2690.341303624073
 20
1054.852385872064
 30
0.0
 11
2690.341303624073
 21
1042.854123428625
 31
0.0
  0
LINE
  5
1C56
330
1F
100
AcDbEntity
  8
LOGO
 62
     6
100
AcDbLine
 10
2713.812185436806
 20
1054.852385872064
 30
0.0
 11
2713.812185436806
 21
1042.854123428625
 31
0.0
  0
LINE
  5
1C57
330
1F
100
AcDbEntity
  8
LOGO
 62
     6
100
AcDbLine
 10
2707.001190414376
 20
1036.854992206906
 30
0.0
 11
2689.185398808421
 21
1036.854992206906
 31
0.0
  0
TEXT
  5
1C58
330
1F
100
AcDbEntity
  8
LOGO
  6
Continuous
 62
     6
100
AcDbText
 10
2694.970130664923
 20
1024.260318366128
 30
262.1154515200996
 40
3.0
  1
Type
 41
0.8
  7
CHINESET
100
AcDbText
  0
TEXT
  5
1C59
330
1F
100
AcDbEntity
  8
LOGO
 62
     6
100
AcDbText
 10
2693.393524419662
 20
1029.821671819983
 30
262.1154515200996
 40
5.0
  1
型式
  7
CHINESET
100
AcDbText
  0
TEXT
  5
1C5A
330
1F
100
AcDbEntity
  8
LOGO
  6
Continuous
 62
     7
100
AcDbText
 10
2691.856951668493
 20
1045.358743172235
 30
0.0
 40
7.0
  1
A/B
  7
CHINESET
100
AcDbText
  0
LINE
  5
1C5B
330
1F
100
AcDbEntity
  8
LOGO
 62
     6
100
AcDbLine
 10
2697.794705857465
 20
1042.854123428625
 30
0.0
 11
2697.794705857465
 21
1036.854992206907
 31
0.0
  0
LINE
  5
1C6D
330
1F
100
AcDbEntity
  8
LOGO
  6
Continuous
 62
     7
100
AcDbLine
 10
2666.759825285927
 20
1048.810754908597
 30
0.0
 11
2672.057820183806
 21
1048.810754908597
 31
0.0
  0
LINE
  5
1D4D
330
1F
100
AcDbEntity
  8
0
  6
HIDDEN
 62
     3
 48
0.3
100
AcDbLine
 10
2582.628376664839
 20
1281.346973375992
 30
0.0
 11
2582.628376664839
 21
1276.346973375992
 31
0.0
1001
GENIUS_GENOBJ-N-CEN_13
1002
{
1000
OWNER
1000
GEN
1002
}
1001
GENIUS_GENODEF_13
1002
{
1000
HIER
1070
     0
1002
}
1002
{
1000
MANEDIT
1070
     0
1002
}
1002
{
1000
NOSEL
1070
     0
1002
}
1002
{
1000
BEHIND
1070
     0
1002
}
1002
{
1000
OTHER
1070
     0
1002
}
1002
{
1000
REACTOR
1002
}
1001
GENIUS_GENCEN_19
1002
{
1040
2.0
1002
}
  0
LINE
  5
1D4E
330
1F
100
AcDbEntity
  8
0
  6
HIDDEN
 62
     3
 48
0.3
100
AcDbLine
 10
2576.628376664839
 20
1281.346973375992
 30
0.0
 11
2576.628376664839
 21
1276.346973375992
 31
0.0
1001
GENIUS_GENOBJ-N-CEN_13
1002
{
1000
OWNER
1000
GEN
1002
}
1001
GENIUS_GENODEF_13
1002
{
1000
HIER
1070
     0
1002
}
1002
{
1000
MANEDIT
1070
     0
1002
}
1002
{
1000
NOSEL
1070
     0
1002
}
1002
{
1000
BEHIND
1070
     0
1002
}
1002
{
1000
OTHER
1070
     0
1002
}
1002
{
1000
REACTOR
1002
}
1001
GENIUS_GENCEN_19
1002
{
1040
2.0
1002
}
  0
LINE
  5
1D4F
330
1F
100
AcDbEntity
  8
0
  6
HIDDEN
 62
     3
 48
0.3
100
AcDbLine
 10
2582.628376664839
 20
1281.346973375992
 30
0.0
 11
2576.628376664839
 21
1281.346973375992
 31
0.0
  0
LINE
  5
1D50
330
1F
100
AcDbEntity
  8
0
  6
HIDDEN
 62
     3
 48
0.3
100
AcDbLine
 10
2577.128376664839
 20
1281.346973375992
 30
0.0
 11
2577.128376664839
 21
1276.346973375992
 31
0.0
1001
GENIUS_GENOBJ-N-CEN_13
1002
{
1000
OWNER
1000
GEN
1002
}
1001
GENIUS_GENODEF_13
1002
{
1000
HIER
1070
     0
1002
}
1002
{
1000
MANEDIT
1070
     0
1002
}
1002
{
1000
NOSEL
1070
     0
1002
}
1002
{
1000
BEHIND
1070
     0
1002
}
1002
{
1000
OTHER
1070
     0
1002
}
1002
{
1000
REACTOR
1002
}
1001
GENIUS_GENCEN_19
1002
{
1040
2.0
1002
}
  0
LINE
  5
1D51
330
1F
100
AcDbEntity
  8
0
  6
HIDDEN
 62
     3
 48
0.3
100
AcDbLine
 10
2582.128376664839
 20
1281.346973375992
 30
0.0
 11
2582.128376664839
 21
1276.346973375992
 31
0.0
1001
GENIUS_GENOBJ-N-CEN_13
1002
{
1000
OWNER
1000
GEN
1002
}
1001
GENIUS_GENODEF_13
1002
{
1000
HIER
1070
     0
1002
}
1002
{
1000
MANEDIT
1070
     0
1002
}
1002
{
1000
NOSEL
1070
     0
1002
}
1002
{
1000
BEHIND
1070
     0
1002
}
1002
{
1000
OTHER
1070
     0
1002
}
1002
{
1000
REACTOR
1002
}
1001
GENIUS_GENCEN_19
1002
{
1040
2.0
1002
}
  0
LINE
  5
1D5E
330
1F
100
AcDbEntity
  8
0
  6
HIDDEN
 62
     3
 48
0.3
100
AcDbLine
 10
2663.475069266624
 20
1281.346973375992
 30
0.0
 11
2663.475069266624
 21
1276.346973375992
 31
0.0
1001
GENIUS_GENOBJ-N-CEN_13
1002
{
1000
OWNER
1000
GEN
1002
}
1001
GENIUS_GENODEF_13
1002
{
1000
HIER
1070
     0
1002
}
1002
{
1000
MANEDIT
1070
     0
1002
}
1002
{
1000
NOSEL
1070
     0
1002
}
1002
{
1000
BEHIND
1070
     0
1002
}
1002
{
1000
OTHER
1070
     0
1002
}
1002
{
1000
REACTOR
1002
}
1001
GENIUS_GENCEN_19
1002
{
1040
2.0
1002
}
  0
LINE
  5
1D5F
330
1F
100
AcDbEntity
  8
0
  6
HIDDEN
 62
     3
 48
0.3
100
AcDbLine
 10
2657.475069266624
 20
1281.346973375992
 30
0.0
 11
2657.475069266624
 21
1276.346973375992
 31
0.0
1001
GENIUS_GENOBJ-N-CEN_13
1002
{
1000
OWNER
1000
GEN
1002
}
1001
GENIUS_GENODEF_13
1002
{
1000
HIER
1070
     0
1002
}
1002
{
1000
MANEDIT
1070
     0
1002
}
1002
{
1000
NOSEL
1070
     0
1002
}
1002
{
1000
BEHIND
1070
     0
1002
}
1002
{
1000
OTHER
1070
     0
1002
}
1002
{
1000
REACTOR
1002
}
1001
GENIUS_GENCEN_19
1002
{
1040
2.0
1002
}
  0
LINE
  5
1D60
330
1F
100
AcDbEntity
  8
0
  6
HIDDEN
 62
     3
 48
0.3
100
AcDbLine
 10
2663.475069266624
 20
1281.346973375992
 30
0.0
 11
2657.475069266624
 21
1281.346973375992
 31
0.0
  0
LINE
  5
1D61
330
1F
100
AcDbEntity
  8
0
  6
HIDDEN
 62
     3
 48
0.3
100
AcDbLine
 10
2657.975069266624
 20
1281.346973375992
 30
0.0
 11
2657.975069266624
 21
1276.346973375992
 31
0.0
1001
GENIUS_GENOBJ-N-CEN_13
1002
{
1000
OWNER
1000
GEN
1002
}
1001
GENIUS_GENODEF_13
1002
{
1000
HIER
1070
     0
1002
}
1002
{
1000
MANEDIT
1070
     0
1002
}
1002
{
1000
NOSEL
1070
     0
1002
}
1002
{
1000
BEHIND
1070
     0
1002
}
1002
{
1000
OTHER
1070
     0
1002
}
1002
{
1000
REACTOR
1002
}
1001
GENIUS_GENCEN_19
1002
{
1040
2.0
1002
}
  0
LINE
  5
1D62
330
1F
100
AcDbEntity
  8
0
  6
HIDDEN
 62
     3
 48
0.3
100
AcDbLine
 10
2662.975069266624
 20
1281.346973375992
 30
0.0
 11
2662.975069266624
 21
1276.346973375992
 31
0.0
1001
GENIUS_GENOBJ-N-CEN_13
1002
{
1000
OWNER
1000
GEN
1002
}
1001
GENIUS_GENODEF_13
1002
{
1000
HIER
1070
     0
1002
}
1002
{
1000
MANEDIT
1070
     0
1002
}
1002
{
1000
NOSEL
1070
     0
1002
}
1002
{
1000
BEHIND
1070
     0
1002
}
1002
{
1000
OTHER
1070
     0
1002
}
1002
{
1000
REACTOR
1002
}
1001
GENIUS_GENCEN_19
1002
{
1040
2.0
1002
}
  0
LINE
  5
1D6F
330
1F
100
AcDbEntity
  8
0
  6
HIDDEN
 62
     3
 48
0.3
100
AcDbLine
 10
2848.711171359333
 20
1281.346973375992
 30
0.0
 11
2848.711171359333
 21
1276.346973375992
 31
0.0
1001
GENIUS_GENOBJ-N-CEN_13
1002
{
1000
OWNER
1000
GEN
1002
}
1001
GENIUS_GENODEF_13
1002
{
1000
HIER
1070
     0
1002
}
1002
{
1000
MANEDIT
1070
     0
1002
}
1002
{
1000
NOSEL
1070
     0
1002
}
1002
{
1000
BEHIND
1070
     0
1002
}
1002
{
1000
OTHER
1070
     0
1002
}
1002
{
1000
REACTOR
1002
}
1001
GENIUS_GENCEN_19
1002
{
1040
2.0
1002
}
  0
LINE
  5
1D70
330
1F
100
AcDbEntity
  8
0
  6
HIDDEN
 62
     3
 48
0.3
100
AcDbLine
 10
2842.711171359333
 20
1281.346973375992
 30
0.0
 11
2842.711171359333
 21
1276.346973375992
 31
0.0
1001
GENIUS_GENOBJ-N-CEN_13
1002
{
1000
OWNER
1000
GEN
1002
}
1001
GENIUS_GENODEF_13
1002
{
1000
HIER
1070
     0
1002
}
1002
{
1000
MANEDIT
1070
     0
1002
}
1002
{
1000
NOSEL
1070
     0
1002
}
1002
{
1000
BEHIND
1070
     0
1002
}
1002
{
1000
OTHER
1070
     0
1002
}
1002
{
1000
REACTOR
1002
}
1001
GENIUS_GENCEN_19
1002
{
1040
2.0
1002
}
  0
LINE
  5
1D71
330
1F
100
AcDbEntity
  8
0
  6
HIDDEN
 62
     3
 48
0.3
100
AcDbLine
 10
2848.711171359333
 20
1281.346973375992
 30
0.0
 11
2842.711171359333
 21
1281.346973375992
 31
0.0
  0
LINE
  5
1D72
330
1F
100
AcDbEntity
  8
0
  6
HIDDEN
 62
     3
 48
0.3
100
AcDbLine
 10
2843.211171359333
 20
1281.346973375992
 30
0.0
 11
2843.211171359333
 21
1276.346973375992
 31
0.0
1001
GENIUS_GENOBJ-N-CEN_13
1002
{
1000
OWNER
1000
GEN
1002
}
1001
GENIUS_GENODEF_13
1002
{
1000
HIER
1070
     0
1002
}
1002
{
1000
MANEDIT
1070
     0
1002
}
1002
{
1000
NOSEL
1070
     0
1002
}
1002
{
1000
BEHIND
1070
     0
1002
}
1002
{
1000
OTHER
1070
     0
1002
}
1002
{
1000
REACTOR
1002
}
1001
GENIUS_GENCEN_19
1002
{
1040
2.0
1002
}
  0
LINE
  5
1D73
330
1F
100
AcDbEntity
  8
0
  6
HIDDEN
 62
     3
 48
0.3
100
AcDbLine
 10
2848.211171359333
 20
1281.346973375992
 30
0.0
 11
2848.211171359333
 21
1276.346973375992
 31
0.0
1001
GENIUS_GENOBJ-N-CEN_13
1002
{
1000
OWNER
1000
GEN
1002
}
1001
GENIUS_GENODEF_13
1002
{
1000
HIER
1070
     0
1002
}
1002
{
1000
MANEDIT
1070
     0
1002
}
1002
{
1000
NOSEL
1070
     0
1002
}
1002
{
1000
BEHIND
1070
     0
1002
}
1002
{
1000
OTHER
1070
     0
1002
}
1002
{
1000
REACTOR
1002
}
1001
GENIUS_GENCEN_19
1002
{
1040
2.0
1002
}
  0
LINE
  5
1D80
330
1F
100
AcDbEntity
  8
0
  6
HIDDEN
 62
     3
 48
0.3
100
AcDbLine
 10
2933.126026914863
 20
1281.346973375992
 30
0.0
 11
2933.126026914863
 21
1276.346973375992
 31
0.0
1001
GENIUS_GENOBJ-N-CEN_13
1002
{
1000
OWNER
1000
GEN
1002
}
1001
GENIUS_GENODEF_13
1002
{
1000
HIER
1070
     0
1002
}
1002
{
1000
MANEDIT
1070
     0
1002
}
1002
{
1000
NOSEL
1070
     0
1002
}
1002
{
1000
BEHIND
1070
     0
1002
}
1002
{
1000
OTHER
1070
     0
1002
}
1002
{
1000
REACTOR
1002
}
1001
GENIUS_GENCEN_19
1002
{
1040
2.0
1002
}
  0
LINE
  5
1D81
330
1F
100
AcDbEntity
  8
0
  6
HIDDEN
 62
     3
 48
0.3
100
AcDbLine
 10
2927.126026914863
 20
1281.346973375992
 30
0.0
 11
2927.126026914863
 21
1276.346973375992
 31
0.0
1001
GENIUS_GENOBJ-N-CEN_13
1002
{
1000
OWNER
1000
GEN
1002
}
1001
GENIUS_GENODEF_13
1002
{
1000
HIER
1070
     0
1002
}
1002
{
1000
MANEDIT
1070
     0
1002
}
1002
{
1000
NOSEL
1070
     0
1002
}
1002
{
1000
BEHIND
1070
     0
1002
}
1002
{
1000
OTHER
1070
     0
1002
}
1002
{
1000
REACTOR
1002
}
1001
GENIUS_GENCEN_19
1002
{
1040
2.0
1002
}
  0
LINE
  5
1D82
330
1F
100
AcDbEntity
  8
0
  6
HIDDEN
 62
     3
 48
0.3
100
AcDbLine
 10
2933.126026914863
 20
1281.346973375992
 30
0.0
 11
2927.126026914863
 21
1281.346973375992
 31
0.0
  0
LINE
  5
1D83
330
1F
100
AcDbEntity
  8
0
  6
HIDDEN
 62
     3
 48
0.3
100
AcDbLine
 10
2927.626026914863
 20
1281.346973375992
 30
0.0
 11
2927.626026914863
 21
1276.346973375992
 31
0.0
1001
GENIUS_GENOBJ-N-CEN_13
1002
{
1000
OWNER
1000
GEN
1002
}
1001
GENIUS_GENODEF_13
1002
{
1000
HIER
1070
     0
1002
}
1002
{
1000
MANEDIT
1070
     0
1002
}
1002
{
1000
NOSEL
1070
     0
1002
}
1002
{
1000
BEHIND
1070
     0
1002
}
1002
{
1000
OTHER
1070
     0
1002
}
1002
{
1000
REACTOR
1002
}
1001
GENIUS_GENCEN_19
1002
{
1040
2.0
1002
}
  0
LINE
  5
1D84
330
1F
100
AcDbEntity
  8
0
  6
HIDDEN
 62
     3
 48
0.3
100
AcDbLine
 10
2932.626026914863
 20
1281.346973375992
 30
0.0
 11
2932.626026914863
 21
1276.346973375992
 31
0.0
1001
GENIUS_GENOBJ-N-CEN_13
1002
{
1000
OWNER
1000
GEN
1002
}
1001
GENIUS_GENODEF_13
1002
{
1000
HIER
1070
     0
1002
}
1002
{
1000
MANEDIT
1070
     0
1002
}
1002
{
1000
NOSEL
1070
     0
1002
}
1002
{
1000
BEHIND
1070
     0
1002
}
1002
{
1000
OTHER
1070
     0
1002
}
1002
{
1000
REACTOR
1002
}
1001
GENIUS_GENCEN_19
1002
{
1040
2.0
1002
}
  0
LINE
  5
1D91
330
1F
100
AcDbEntity
  8
0
  6
HIDDEN
 62
     3
 48
0.3
100
AcDbLine
 10
2582.628376664839
 20
1090.491839212158
 30
0.0
 11
2582.628376664839
 21
1085.491839212158
 31
0.0
1001
GENIUS_GENOBJ-N-CEN_13
1002
{
1000
OWNER
1000
GEN
1002
}
1001
GENIUS_GENODEF_13
1002
{
1000
HIER
1070
     0
1002
}
1002
{
1000
MANEDIT
1070
     0
1002
}
1002
{
1000
NOSEL
1070
     0
1002
}
1002
{
1000
BEHIND
1070
     0
1002
}
1002
{
1000
OTHER
1070
     0
1002
}
1002
{
1000
REACTOR
1002
}
1001
GENIUS_GENCEN_19
1002
{
1040
2.0
1002
}
  0
LINE
  5
1D92
330
1F
100
AcDbEntity
  8
0
  6
HIDDEN
 62
     3
 48
0.3
100
AcDbLine
 10
2576.628376664839
 20
1090.491839212158
 30
0.0
 11
2576.628376664839
 21
1085.491839212158
 31
0.0
1001
GENIUS_GENOBJ-N-CEN_13
1002
{
1000
OWNER
1000
GEN
1002
}
1001
GENIUS_GENODEF_13
1002
{
1000
HIER
1070
     0
1002
}
1002
{
1000
MANEDIT
1070
     0
1002
}
1002
{
1000
NOSEL
1070
     0
1002
}
1002
{
1000
BEHIND
1070
     0
1002
}
1002
{
1000
OTHER
1070
     0
1002
}
1002
{
1000
REACTOR
1002
}
1001
GENIUS_GENCEN_19
1002
{
1040
2.0
1002
}
  0
LINE
  5
1D93
330
1F
100
AcDbEntity
  8
0
  6
HIDDEN
 62
     3
 48
0.3
100
AcDbLine
 10
2582.628376664839
 20
1090.491839212158
 30
0.0
 11
2576.628376664839
 21
1090.491839212158
 31
0.0
  0
LINE
  5
1D94
330
1F
100
AcDbEntity
  8
0
  6
HIDDEN
 62
     3
 48
0.3
100
AcDbLine
 10
2577.128376664839
 20
1090.491839212158
 30
0.0
 11
2577.128376664839
 21
1085.491839212158
 31
0.0
1001
GENIUS_GENOBJ-N-CEN_13
1002
{
1000
OWNER
1000
GEN
1002
}
1001
GENIUS_GENODEF_13
1002
{
1000
HIER
1070
     0
1002
}
1002
{
1000
MANEDIT
1070
     0
1002
}
1002
{
1000
NOSEL
1070
     0
1002
}
1002
{
1000
BEHIND
1070
     0
1002
}
1002
{
1000
OTHER
1070
     0
1002
}
1002
{
1000
REACTOR
1002
}
1001
GENIUS_GENCEN_19
1002
{
1040
2.0
1002
}
  0
LINE
  5
1D95
330
1F
100
AcDbEntity
  8
0
  6
HIDDEN
 62
     3
 48
0.3
100
AcDbLine
 10
2582.128376664839
 20
1090.491839212158
 30
0.0
 11
2582.128376664839
 21
1085.491839212158
 31
0.0
1001
GENIUS_GENOBJ-N-CEN_13
1002
{
1000
OWNER
1000
GEN
1002
}
1001
GENIUS_GENODEF_13
1002
{
1000
HIER
1070
     0
1002
}
1002
{
1000
MANEDIT
1070
     0
1002
}
1002
{
1000
NOSEL
1070
     0
1002
}
1002
{
1000
BEHIND
1070
     0
1002
}
1002
{
1000
OTHER
1070
     0
1002
}
1002
{
1000
REACTOR
1002
}
1001
GENIUS_GENCEN_19
1002
{
1040
2.0
1002
}
  0
LINE
  5
1DA2
330
1F
100
AcDbEntity
  8
0
  6
HIDDEN
 62
     3
 48
0.3
100
AcDbLine
 10
2663.475069266624
 20
1090.491839212158
 30
0.0
 11
2663.475069266624
 21
1085.491839212158
 31
0.0
1001
GENIUS_GENOBJ-N-CEN_13
1002
{
1000
OWNER
1000
GEN
1002
}
1001
GENIUS_GENODEF_13
1002
{
1000
HIER
1070
     0
1002
}
1002
{
1000
MANEDIT
1070
     0
1002
}
1002
{
1000
NOSEL
1070
     0
1002
}
1002
{
1000
BEHIND
1070
     0
1002
}
1002
{
1000
OTHER
1070
     0
1002
}
1002
{
1000
REACTOR
1002
}
1001
GENIUS_GENCEN_19
1002
{
1040
2.0
1002
}
  0
LINE
  5
1DA3
330
1F
100
AcDbEntity
  8
0
  6
HIDDEN
 62
     3
 48
0.3
100
AcDbLine
 10
2657.475069266624
 20
1090.491839212158
 30
0.0
 11
2657.475069266624
 21
1085.491839212158
 31
0.0
1001
GENIUS_GENOBJ-N-CEN_13
1002
{
1000
OWNER
1000
GEN
1002
}
1001
GENIUS_GENODEF_13
1002
{
1000
HIER
1070
     0
1002
}
1002
{
1000
MANEDIT
1070
     0
1002
}
1002
{
1000
NOSEL
1070
     0
1002
}
1002
{
1000
BEHIND
1070
     0
1002
}
1002
{
1000
OTHER
1070
     0
1002
}
1002
{
1000
REACTOR
1002
}
1001
GENIUS_GENCEN_19
1002
{
1040
2.0
1002
}
  0
LINE
  5
1DA4
330
1F
100
AcDbEntity
  8
0
  6
HIDDEN
 62
     3
 48
0.3
100
AcDbLine
 10
2663.475069266624
 20
1090.491839212158
 30
0.0
 11
2657.475069266624
 21
1090.491839212158
 31
0.0
  0
LINE
  5
1DA5
330
1F
100
AcDbEntity
  8
0
  6
HIDDEN
 62
     3
 48
0.3
100
AcDbLine
 10
2657.975069266624
 20
1090.491839212158
 30
0.0
 11
2657.975069266624
 21
1085.491839212158
 31
0.0
1001
GENIUS_GENOBJ-N-CEN_13
1002
{
1000
OWNER
1000
GEN
1002
}
1001
GENIUS_GENODEF_13
1002
{
1000
HIER
1070
     0
1002
}
1002
{
1000
MANEDIT
1070
     0
1002
}
1002
{
1000
NOSEL
1070
     0
1002
}
1002
{
1000
BEHIND
1070
     0
1002
}
1002
{
1000
OTHER
1070
     0
1002
}
1002
{
1000
REACTOR
1002
}
1001
GENIUS_GENCEN_19
1002
{
1040
2.0
1002
}
  0
LINE
  5
1DA6
330
1F
100
AcDbEntity
  8
0
  6
HIDDEN
 62
     3
 48
0.3
100
AcDbLine
 10
2662.975069266624
 20
1090.491839212158
 30
0.0
 11
2662.975069266624
 21
1085.491839212158
 31
0.0
1001
GENIUS_GENOBJ-N-CEN_13
1002
{
1000
OWNER
1000
GEN
1002
}
1001
GENIUS_GENODEF_13
1002
{
1000
HIER
1070
     0
1002
}
1002
{
1000
MANEDIT
1070
     0
1002
}
1002
{
1000
NOSEL
1070
     0
1002
}
1002
{
1000
BEHIND
1070
     0
1002
}
1002
{
1000
OTHER
1070
     0
1002
}
1002
{
1000
REACTOR
1002
}
1001
GENIUS_GENCEN_19
1002
{
1040
2.0
1002
}
  0
LINE
  5
1DB3
330
1F
100
AcDbEntity
  8
0
  6
HIDDEN
 62
     3
 48
0.3
100
AcDbLine
 10
2848.711171359333
 20
1090.491839212158
 30
0.0
 11
2848.711171359333
 21
1085.491839212158
 31
0.0
1001
GENIUS_GENOBJ-N-CEN_13
1002
{
1000
OWNER
1000
GEN
1002
}
1001
GENIUS_GENODEF_13
1002
{
1000
HIER
1070
     0
1002
}
1002
{
1000
MANEDIT
1070
     0
1002
}
1002
{
1000
NOSEL
1070
     0
1002
}
1002
{
1000
BEHIND
1070
     0
1002
}
1002
{
1000
OTHER
1070
     0
1002
}
1002
{
1000
REACTOR
1002
}
1001
GENIUS_GENCEN_19
1002
{
1040
2.0
1002
}
  0
LINE
  5
1DB4
330
1F
100
AcDbEntity
  8
0
  6
HIDDEN
 62
     3
 48
0.3
100
AcDbLine
 10
2842.711171359333
 20
1090.491839212158
 30
0.0
 11
2842.711171359333
 21
1085.491839212158
 31
0.0
1001
GENIUS_GENOBJ-N-CEN_13
1002
{
1000
OWNER
1000
GEN
1002
}
1001
GENIUS_GENODEF_13
1002
{
1000
HIER
1070
     0
1002
}
1002
{
1000
MANEDIT
1070
     0
1002
}
1002
{
1000
NOSEL
1070
     0
1002
}
1002
{
1000
BEHIND
1070
     0
1002
}
1002
{
1000
OTHER
1070
     0
1002
}
1002
{
1000
REACTOR
1002
}
1001
GENIUS_GENCEN_19
1002
{
1040
2.0
1002
}
  0
LINE
  5
1DB5
330
1F
100
AcDbEntity
  8
0
  6
HIDDEN
 62
     3
 48
0.3
100
AcDbLine
 10
2848.711171359333
 20
1090.491839212158
 30
0.0
 11
2842.711171359333
 21
1090.491839212158
 31
0.0
  0
LINE
  5
1DB6
330
1F
100
AcDbEntity
  8
0
  6
HIDDEN
 62
     3
 48
0.3
100
AcDbLine
 10
2843.211171359333
 20
1090.491839212158
 30
0.0
 11
2843.211171359333
 21
1085.491839212158
 31
0.0
1001
GENIUS_GENOBJ-N-CEN_13
1002
{
1000
OWNER
1000
GEN
1002
}
1001
GENIUS_GENODEF_13
1002
{
1000
HIER
1070
     0
1002
}
1002
{
1000
MANEDIT
1070
     0
1002
}
1002
{
1000
NOSEL
1070
     0
1002
}
1002
{
1000
BEHIND
1070
     0
1002
}
1002
{
1000
OTHER
1070
     0
1002
}
1002
{
1000
REACTOR
1002
}
1001
GENIUS_GENCEN_19
1002
{
1040
2.0
1002
}
  0
LINE
  5
1DB7
330
1F
100
AcDbEntity
  8
0
  6
HIDDEN
 62
     3
 48
0.3
100
AcDbLine
 10
2848.211171359333
 20
1090.491839212158
 30
0.0
 11
2848.211171359333
 21
1085.491839212158
 31
0.0
1001
GENIUS_GENOBJ-N-CEN_13
1002
{
1000
OWNER
1000
GEN
1002
}
1001
GENIUS_GENODEF_13
1002
{
1000
HIER
1070
     0
1002
}
1002
{
1000
MANEDIT
1070
     0
1002
}
1002
{
1000
NOSEL
1070
     0
1002
}
1002
{
1000
BEHIND
1070
     0
1002
}
1002
{
1000
OTHER
1070
     0
1002
}
1002
{
1000
REACTOR
1002
}
1001
GENIUS_GENCEN_19
1002
{
1040
2.0
1002
}
  0
LINE
  5
1DC4
330
1F
100
AcDbEntity
  8
0
  6
HIDDEN
 62
     3
 48
0.3
100
AcDbLine
 10
2939.885622020041
 20
1090.491839212158
 30
0.0
 11
2939.885622020041
 21
1085.491839212158
 31
0.0
1001
GENIUS_GENOBJ-N-CEN_13
1002
{
1000
OWNER
1000
GEN
1002
}
1001
GENIUS_GENODEF_13
1002
{
1000
HIER
1070
     0
1002
}
1002
{
1000
MANEDIT
1070
     0
1002
}
1002
{
1000
NOSEL
1070
     0
1002
}
1002
{
1000
BEHIND
1070
     0
1002
}
1002
{
1000
OTHER
1070
     0
1002
}
1002
{
1000
REACTOR
1002
}
1001
GENIUS_GENCEN_19
1002
{
1040
2.0
1002
}
  0
LINE
  5
1DC5
330
1F
100
AcDbEntity
  8
0
  6
HIDDEN
 62
     3
 48
0.3
100
AcDbLine
 10
2933.885622020042
 20
1090.491839212158
 30
0.0
 11
2933.885622020042
 21
1085.491839212158
 31
0.0
1001
GENIUS_GENOBJ-N-CEN_13
1002
{
1000
OWNER
1000
GEN
1002
}
1001
GENIUS_GENODEF_13
1002
{
1000
HIER
1070
     0
1002
}
1002
{
1000
MANEDIT
1070
     0
1002
}
1002
{
1000
NOSEL
1070
     0
1002
}
1002
{
1000
BEHIND
1070
     0
1002
}
1002
{
1000
OTHER
1070
     0
1002
}
1002
{
1000
REACTOR
1002
}
1001
GENIUS_GENCEN_19
1002
{
1040
2.0
1002
}
  0
LINE
  5
1DC6
330
1F
100
AcDbEntity
  8
0
  6
HIDDEN
 62
     3
 48
0.3
100
AcDbLine
 10
2939.885622020041
 20
1090.491839212158
 30
0.0
 11
2933.885622020042
 21
1090.491839212158
 31
0.0
  0
LINE
  5
1DC7
330
1F
100
AcDbEntity
  8
0
  6
HIDDEN
 62
     3
 48
0.3
100
AcDbLine
 10
2934.385622020041
 20
1090.491839212158
 30
0.0
 11
2934.385622020041
 21
1085.491839212158
 31
0.0
1001
GENIUS_GENOBJ-N-CEN_13
1002
{
1000
OWNER
1000
GEN
1002
}
1001
GENIUS_GENODEF_13
1002
{
1000
HIER
1070
     0
1002
}
1002
{
1000
MANEDIT
1070
     0
1002
}
1002
{
1000
NOSEL
1070
     0
1002
}
1002
{
1000
BEHIND
1070
     0
1002
}
1002
{
1000
OTHER
1070
     0
1002
}
1002
{
1000
REACTOR
1002
}
1001
GENIUS_GENCEN_19
1002
{
1040
2.0
1002
}
  0
LINE
  5
1DC8
330
1F
100
AcDbEntity
  8
0
  6
HIDDEN
 62
     3
 48
0.3
100
AcDbLine
 10
2939.385622020042
 20
1090.491839212158
 30
0.0
 11
2939.385622020042
 21
1085.491839212158
 31
0.0
1001
GENIUS_GENOBJ-N-CEN_13
1002
{
1000
OWNER
1000
GEN
1002
}
1001
GENIUS_GENODEF_13
1002
{
1000
HIER
1070
     0
1002
}
1002
{
1000
MANEDIT
1070
     0
1002
}
1002
{
1000
NOSEL
1070
     0
1002
}
1002
{
1000
BEHIND
1070
     0
1002
}
1002
{
1000
OTHER
1070
     0
1002
}
1002
{
1000
REACTOR
1002
}
1001
GENIUS_GENCEN_19
1002
{
1040
2.0
1002
}
  0
LINE
  5
1DD4
330
1F
100
AcDbEntity
  8
AM_5
100
AcDbLine
 10
2559.500289094371
 20
1263.799603451917
 30
0.0
 11
2550.244083879253
 21
1263.799603451917
 31
0.0
  0
TEXT
  5
1DD7
330
1F
100
AcDbEntity
  8
AM_5
100
AcDbText
 10
2551.709470820944
 20
1264.793271234686
 30
0.0
 40
3.0
  1
Port
 41
0.75
  7
CHINESET
100
AcDbText
  0
LINE
  5
1DD8
330
1F
100
AcDbEntity
  8
AM_5
100
AcDbLine
 10
2559.500289094371
 20
1263.799603451917
 30
0.0
 11
2576.658216957072
 21
1274.495446624806
 31
0.0
  0
TRACE
  5
1DD9
330
1F
100
AcDbEntity
  8
AM_5
100
AcDbTrace
 10
2576.414458837016
 20
1274.886475566822
 30
0.0
 11
2576.901975077128
 21
1274.104417682789
 31
0.0
 12
2579.628376664839
 22
1276.346973375992
 32
0.0
 13
2579.628376664839
 23
1276.346973375992
 33
0.0
  0
LINE
  5
1DDA
330
1F
100
AcDbEntity
  8
AM_5
100
AcDbLine
 10
2825.583083788865
 20
1263.799603451917
 30
0.0
 11
2816.326878573747
 21
1263.799603451917
 31
0.0
  0
TEXT
  5
1DDB
330
1F
100
AcDbEntity
  8
AM_5
100
AcDbText
 10
2817.792265515438
 20
1264.793271234686
 30
0.0
 40
3.0
  1
Port
 41
0.75
  7
CHINESET
100
AcDbText
  0
LINE
  5
1DDC
330
1F
100
AcDbEntity
  8
AM_5
100
AcDbLine
 10
2825.583083788865
 20
1263.799603451917
 30
0.0
 11
2842.741011651566
 21
1274.495446624806
 31
0.0
  0
TRACE
  5
1DDD
330
1F
100
AcDbEntity
  8
AM_5
100
AcDbTrace
 10
2842.49725353151
 20
1274.886475566822
 30
0.0
 11
2842.984769771621
 21
1274.104417682789
 31
0.0
 12
2845.711171359333
 22
1276.346973375992
 32
0.0
 13
2845.711171359333
 23
1276.346973375992
 33
0.0
  0
LINE
  5
1DDE
330
1F
100
AcDbEntity
  8
AM_5
100
AcDbLine
 10
2640.346981696156
 20
1263.799603451917
 30
0.0
 11
2631.090776481038
 21
1263.799603451917
 31
0.0
  0
TEXT
  5
1DDF
330
1F
100
AcDbEntity
  8
AM_5
100
AcDbText
 10
2632.556163422729
 20
1264.793271234686
 30
0.0
 40
3.0
  1
Port
 41
0.75
  7
CHINESET
100
AcDbText
  0
LINE
  5
1DE0
330
1F
100
AcDbEntity
  8
AM_5
100
AcDbLine
 10
2640.346981696156
 20
1263.799603451917
 30
0.0
 11
2657.504909558857
 21
1274.495446624806
 31
0.0
  0
TRACE
  5
1DE1
330
1F
100
AcDbEntity
  8
AM_5
100
AcDbTrace
 10
2657.261151438801
 20
1274.886475566822
 30
0.0
 11
2657.748667678913
 21
1274.104417682789
 31
0.0
 12
2660.475069266624
 22
1276.346973375992
 32
0.0
 13
2660.475069266624
 23
1276.346973375992
 33
0.0
  0
LINE
  5
1DE2
330
1F
100
AcDbEntity
  8
AM_5
100
AcDbLine
 10
2909.997939344395
 20
1263.799603451917
 30
0.0
 11
2900.741734129276
 21
1263.799603451917
 31
0.0
  0
TEXT
  5
1DE3
330
1F
100
AcDbEntity
  8
AM_5
100
AcDbText
 10
2902.207121070968
 20
1264.793271234686
 30
0.0
 40
3.0
  1
Port
 41
0.75
  7
CHINESET
100
AcDbText
  0
LINE
  5
1DE4
330
1F
100
AcDbEntity
  8
AM_5
100
AcDbLine
 10
2909.997939344394
 20
1263.799603451917
 30
0.0
 11
2927.155867207096
 21
1274.495446624806
 31
0.0
  0
TRACE
  5
1DE5
330
1F
100
AcDbEntity
  8
AM_5
100
AcDbTrace
 10
2926.912109087039
 20
1274.886475566822
 30
0.0
 11
2927.399625327151
 21
1274.104417682789
 31
0.0
 12
2930.126026914863
 22
1276.346973375992
 32
0.0
 13
2930.126026914863
 23
1276.346973375992
 33
0.0
  0
LINE
  5
1DE6
330
1F
100
AcDbEntity
  8
AM_5
100
AcDbLine
 10
2559.500289094371
 20
1072.944469288083
 30
0.0
 11
2550.244083879253
 21
1072.944469288083
 31
0.0
  0
TEXT
  5
1DE7
330
1F
100
AcDbEntity
  8
AM_5
100
AcDbText
 10
2551.709470820944
 20
1073.938137070852
 30
0.0
 40
3.0
  1
Port
 41
0.75
  7
CHINESET
100
AcDbText
  0
LINE
  5
1DE8
330
1F
100
AcDbEntity
  8
AM_5
100
AcDbLine
 10
2559.500289094371
 20
1072.944469288083
 30
0.0
 11
2576.658216957072
 21
1083.640312460972
 31
0.0
  0
TRACE
  5
1DE9
330
1F
100
AcDbEntity
  8
AM_5
100
AcDbTrace
 10
2576.414458837016
 20
1084.031341402988
 30
0.0
 11
2576.901975077128
 21
1083.249283518956
 31
0.0
 12
2579.628376664839
 22
1085.491839212158
 32
0.0
 13
2579.628376664839
 23
1085.491839212158
 33
0.0
  0
LINE
  5
1DEA
330
1F
100
AcDbEntity
  8
AM_5
100
AcDbLine
 10
2640.346981696156
 20
1072.944469288083
 30
0.0
 11
2631.090776481038
 21
1072.944469288083
 31
0.0
  0
TEXT
  5
1DEB
330
1F
100
AcDbEntity
  8
AM_5
100
AcDbText
 10
2632.556163422729
 20
1073.938137070852
 30
0.0
 40
3.0
  1
Port
 41
0.75
  7
CHINESET
100
AcDbText
  0
LINE
  5
1DEC
330
1F
100
AcDbEntity
  8
AM_5
100
AcDbLine
 10
2640.346981696156
 20
1072.944469288083
 30
0.0
 11
2657.504909558857
 21
1083.640312460972
 31
0.0
  0
TRACE
  5
1DED
330
1F
100
AcDbEntity
  8
AM_5
100
AcDbTrace
 10
2657.261151438801
 20
1084.031341402988
 30
0.0
 11
2657.748667678913
 21
1083.249283518956
 31
0.0
 12
2660.475069266624
 22
1085.491839212158
 32
0.0
 13
2660.475069266624
 23
1085.491839212158
 33
0.0
  0
LINE
  5
1DEE
330
1F
100
AcDbEntity
  8
AM_5
100
AcDbLine
 10
2824.566101893643
 20
1074.746494241093
 30
0.0
 11
2815.309896678525
 21
1074.746494241093
 31
0.0
  0
TEXT
  5
1DEF
330
1F
100
AcDbEntity
  8
AM_5
100
AcDbText
 10
2816.775283620216
 20
1075.740162023862
 30
0.0
 40
3.0
  1
Port
 41
0.75
  7
CHINESET
100
AcDbText
  0
LINE
  5
1DF0
330
1F
100
AcDbEntity
  8
AM_5
100
AcDbLine
 10
2824.566101893643
 20
1074.746494241093
 30
0.0
 11
2842.590942816753
 21
1083.906224554661
 31
0.0
  0
TRACE
  5
1DF1
330
1F
100
AcDbEntity
  8
AM_5
100
AcDbTrace
 10
2842.382192687814
 20
1084.317010433502
 30
0.0
 11
2842.799692945692
 21
1083.49543867582
 31
0.0
 12
2845.711171359332
 22
1085.491839212158
 32
0.0
 13
2845.711171359332
 23
1085.491839212158
 33
0.0
  0
LINE
  5
1DF2
330
1F
100
AcDbEntity
  8
AM_5
100
AcDbLine
 10
2915.740552554352
 20
1074.746494241093
 30
0.0
 11
2906.484347339234
 21
1074.746494241093
 31
0.0
  0
TEXT
  5
1DF3
330
1F
100
AcDbEntity
  8
AM_5
100
AcDbText
 10
2907.949734280926
 20
1075.740162023862
 30
0.0
 40
3.0
  1
Port
 41
0.75
  7
CHINESET
100
AcDbText
  0
LINE
  5
1DF4
330
1F
100
AcDbEntity
  8
AM_5
100
AcDbLine
 10
2915.740552554352
 20
1074.746494241093
 30
0.0
 11
2933.765393477462
 21
1083.906224554661
 31
0.0
  0
TRACE
  5
1DF5
330
1F
100
AcDbEntity
  8
AM_5
100
AcDbTrace
 10
2933.556643348523
 20
1084.317010433502
 30
0.0
 11
2933.974143606401
 21
1083.49543867582
 31
0.0
 12
2936.885622020041
 22
1085.491839212158
 32
0.0
 13
2936.885622020041
 23
1085.491839212158
 33
0.0
  0
ENDSEC
  0
SECTION
  2
OBJECTS
  0
DICTIONARY
  5
C
330
0
100
AcDbDictionary
281
     1
  3
ACAD_COLOR
350
BE
  3
ACAD_GROUP
350
D
  3
ACAD_LAYOUT
350
1A
  3
ACAD_MATERIAL
350
BD
  3
ACAD_MLINESTYLE
350
17
  3
ACAD_PLOTSETTINGS
350
19
  3
ACAD_PLOTSTYLENAME
350
E
  3
ACAD_TABLESTYLE
350
11A
  3
ACDBHEADERROUNDTRIPXREC
350
1E0C
  3
AcDbVariableDictionary
350
94
  3
AcmDictionary
350
5B
  3
AMG
350
41
  3
AMGSNAPSETTINGS
350
1B8
  3
DWGPROPS
350
1E0B
  0
DICTIONARY
  5
3F9
330
2
100
AcDbDictionary
280
     1
281
     1
  3
ACAD_LAYERFILTERS
360
DB4
  3
ACAD_LAYERSTATES
360
1367
  3
ACLYDICTIONARY
360
DB3
  0
DICTIONARY
  5
8F
330
1F
100
AcDbDictionary
280
     1
281
     1
  0
DICTIONARY
  5
8CD
330
8BE
100
AcDbDictionary
280
     1
281
     1
  3
ACAD_DIMASSOC
360
8CE
  0
DICTIONARY
  5
8F5
330
8E8
100
AcDbDictionary
280
     1
281
     1
  3
ACAD_DIMASSOC
360
8F6
  0
DICTIONARY
  5
931
330
924
100
AcDbDictionary
280
     1
281
     1
  3
ACAD_DIMASSOC
360
932
  0
DICTIONARY
  5
97F
330
972
100
AcDbDictionary
280
     1
281
     1
  3
ACAD_DIMASSOC
360
980
  0
DICTIONARY
  5
BE
102
{ACAD_REACTORS
330
C
102
}
330
C
100
AcDbDictionary
281
     1
  0
DICTIONARY
  5
D
102
{ACAD_REACTORS
330
C
102
}
330
C
100
AcDbDictionary
281
     1
  0
DICTIONARY
  5
1A
102
{ACAD_REACTORS
330
C
102
}
330
C
100
AcDbDictionary
281
     1
  3
Model
350
22
  3
配置1
350
1E
  3
配置2
350
26
  0
DICTIONARY
  5
BD
102
{ACAD_REACTORS
330
C
102
}
330
C
100
AcDbDictionary
281
     1
  0
DICTIONARY
  5
17
102
{ACAD_REACTORS
330
C
102
}
330
C
100
AcDbDictionary
281
     1
  3
Standard
350
18
  0
DICTIONARY
  5
19
102
{ACAD_REACTORS
330
C
102
}
330
C
100
AcDbDictionary
281
     1
  0
ACDBDICTIONARYWDFLT
  5
E
102
{ACAD_REACTORS
330
C
102
}
330
C
100
AcDbDictionary
281
     1
  3
Normal
350
F
100
AcDbDictionaryWithDefault
340
F
  0
DICTIONARY
  5
11A
102
{ACAD_REACTORS
330
C
102
}
330
C
100
AcDbDictionary
281
     1
  3
Standard
350
11B
  0
DICTIONARY
  5
1E0C
102
{ACAD_REACTORS
330
C
102
}
330
C
100
AcDbDictionary
281
     1
  0
DICTIONARY
  5
94
102
{ACAD_REACTORS
330
C
102
}
330
C
100
AcDbDictionary
281
     1
  3
CTABLESTYLE
350
138
  3
DIMASSOC
350
96
  3
INDEXCTL
350
95
  3
PROJECTNAME
350
1CC4
  0
DICTIONARY
  5
5B
102
{ACAD_REACTORS
330
C
102
}
330
C
100
AcDbDictionary
281
     1
  3
AcmBOM
350
1B5
  3
AcmStdDictionary
350
61
  3
AMDTSECTSYM_ARROWCOLOR
350
123
  0
DICTIONARY
  5
41
102
{ACAD_REACTORS
330
C
102
}
330
C
100
AcDbDictionary
281
     1
  0
DICTIONARY
  5
1B8
102
{ACAD_REACTORS
330
C
102
}
330
C
100
AcDbDictionary
281
     1
  0
XRECORD
  5
1E0B
102
{ACAD_REACTORS
330
C
102
}
330
C
100
AcDbXrecord
280
     1
  1
DWGPROPS COOKIE
  2

  3

  4

  6

  7

  8

  9

300
AmdtFileType=84
301
=
302
=
303
=
304
=
305
=
306
=
307
=
308
=
309
=
 40
0.1489485532407407
 41
2453727.710216099
 42
2454370.432198345
  1

 90
        1
  0
DICTIONARY
  5
DB4
102
{ACAD_REACTORS
330
3F9
102
}
330
3F9
100
AcDbDictionary
281
     1
  0
DICTIONARY
  5
1367
102
{ACAD_REACTORS
330
3F9
102
}
330
3F9
100
AcDbDictionary
281
     1
  0
DICTIONARY
  5
DB3
102
{ACAD_REACTORS
330
3F9
102
}
330
3F9
100
AcDbDictionary
281
     1
1001
ACAD
1000
<All
  0
DIMASSOC
  5
8CE
102
{ACAD_REACTORS
330
8CD
102
}
330
8CD
100
AcDbDimAssoc
330
8BE
 90
        3
 70
     0
 71
     0
  1
AcDbOsnapPointRef
 72
    13
331
83C
 73
     0
 91
        0
 40
0.0
 10
0.0
 20
0.0
 30
2.000000000000000E+50
 75
     0
  1
AcDbOsnapPointRef
 72
     1
331
84A
 73
     0
 91
        0
 40
0.0
 10
0.0
 20
0.0
 30
2.000000000000000E+50
 75
     0
  0
DIMASSOC
  5
8F6
102
{ACAD_REACTORS
330
8F5
102
}
330
8F5
100
AcDbDimAssoc
330
8E8
 90
        1
 70
     0
 71
     0
  1
AcDbOsnapPointRef
 72
    13
331
83C
 73
     0
 91
        0
 40
0.0
 10
0.0
 20
0.0
 30
2.000000000000000E+50
 75
     0
  0
DIMASSOC
  5
932
102
{ACAD_REACTORS
330
931
102
}
330
931
100
AcDbDimAssoc
330
924
 90
        1
 70
     0
 71
     0
  1
AcDbOsnapPointRef
 72
    13
331
83C
 73
     0
 91
        0
 40
0.0
 10
0.0
 20
0.0
 30
2.000000000000000E+50
 75
     0
  0
DIMASSOC
  5
980
102
{ACAD_REACTORS
330
97F
102
}
330
97F
100
AcDbDimAssoc
330
972
 90
        3
 70
     0
 71
     0
  1
AcDbOsnapPointRef
 72
    13
331
84F
 73
     0
 91
        0
 40
0.0
 10
0.0
 20
0.0
 30
2.000000000000000E+50
 75
     0
  1
AcDbOsnapPointRef
 72
     1
331
84B
 73
     0
 91
        0
 40
0.0
 10
0.0
 20
0.0
 30
2.000000000000000E+50
 75
     0
  0
LAYOUT
  5
22
102
{ACAD_XDICTIONARY
360
1E0F
102
}
102
{ACAD_REACTORS
330
1A
102
}
330
1A
100
AcDbPlotSettings
  1

  2
\\RD\EPSON Stylus C63 Series單色
  4
A4
  6

 40
3.757083177566528
 41
3.757076978683471
 42
3.757080078125
 43
3.757080078125
 44
209.9733276367187
 45
296.9683227539062
 46
0.0
 47
0.0
 48
0.0
 49
0.0
140
0.0
141
0.0
142
1.0
143
0.3405120737814363
 70
 11952
 72
     1
 73
     0
 74
     0
  7
單色出圖.ctb
 75
     0
147
2.936753428137963
148
-2047.07469463503
149
-1261.649717473083
100
AcDbLayout
  1
Model
 70
     1
 71
     0
 10
0.0
 20
0.0
 11
12.0
 21
9.0
 12
0.0
 22
0.0
 32
0.0
 14
0.0
 24
0.0
 34
0.0
 15
0.0
 25
0.0
 35
0.0
146
0.0
 13
0.0
 23
0.0
 33
0.0
 16
1.0
 26
0.0
 36
0.0
 17
0.0
 27
1.0
 37
0.0
 76
     0
330
1F
1001
ACAD_PSEXT
1000
\\RD\EPSON Stylus C63 Series單色
1000
EPSON Stylus C63 Series
1000
\\RD
1000

1070
     0
  0
LAYOUT
  5
1E
102
{ACAD_XDICTIONARY
360
1E0D
102
}
102
{ACAD_REACTORS
330
1A
102
}
330
1A
100
AcDbPlotSettings
  1

  2

  4

  6

 40
0.0
 41
0.0
 42
0.0
 43
0.0
 44
0.0
 45
0.0
 46
0.0
 47
0.0
 48
0.0
 49
0.0
140
0.0
141
0.0
142
1.0
143
1.0
 70
   688
 72
     0
 73
     0
 74
     5
  7
單色出圖.ctb
 75
    16
147
1.0
148
0.0
149
0.0
100
AcDbLayout
  1
配置1
 70
     1
 71
     1
 10
0.0
 20
0.0
 11
420.0
 21
297.0
 12
0.0
 22
0.0
 32
0.0
 14
1.000000000000000E+20
 24
1.000000000000000E+20
 34
1.000000000000000E+20
 15
-1.000000000000000E+20
 25
-1.000000000000000E+20
 35
-1.000000000000000E+20
146
0.0
 13
0.0
 23
0.0
 33
0.0
 16
1.0
 26
0.0
 36
0.0
 17
0.0
 27
1.0
 37
0.0
 76
     0
330
1B
  0
LAYOUT
  5
26
102
{ACAD_XDICTIONARY
360
1E11
102
}
102
{ACAD_REACTORS
330
1A
102
}
330
1A
100
AcDbPlotSettings
  1

  2

  4

  6

 40
0.0
 41
0.0
 42
0.0
 43
0.0
 44
0.0
 45
0.0
 46
0.0
 47
0.0
 48
0.0
 49
0.0
140
0.0
141
0.0
142
1.0
143
1.0
 70
   688
 72
     0
 73
     0
 74
     5
  7
單色出圖.ctb
 75
    16
147
1.0
148
0.0
149
0.0
100
AcDbLayout
  1
配置2
 70
     1
 71
     2
 10
0.0
 20
0.0
 11
12.0
 21
9.0
 12
0.0
 22
0.0
 32
0.0
 14
0.0
 24
0.0
 34
0.0
 15
0.0
 25
0.0
 35
0.0
146
0.0
 13
0.0
 23
0.0
 33
0.0
 16
1.0
 26
0.0
 36
0.0
 17
0.0
 27
1.0
 37
0.0
 76
     0
330
23
  0
MLINESTYLE
  5
18
102
{ACAD_REACTORS
330
17
102
}
330
17
100
AcDbMlineStyle
  2
STANDARD
 70
     0
  3

 62
   256
 51
90.0
 52
90.0
 71
     2
 49
0.5
 62
   256
  6
BYLAYER
 49
-0.5
 62
   256
  6
BYLAYER
  0
ACDBPLACEHOLDER
  5
F
102
{ACAD_REACTORS
330
E
102
}
330
E
  0
TABLESTYLE
  5
11B
102
{ACAD_REACTORS
330
11A
102
}
330
11A
100
AcDbTableStyle
  3
Standard
 70
     0
 71
     0
 40
1.5
 41
1.5
280
     0
281
     0
  7
STANDARD
140
4.5
170
     2
 62
     0
 63
     7
283
     0
274
    -2
284
     1
 64
     0
275
    -2
285
     1
 65
     0
276
    -2
286
     1
 66
     0
277
    -2
287
     1
 67
     0
278
    -2
288
     1
 68
     0
279
    -2
289
     1
 69
     0
  7
STANDARD
140
6.0
170
     5
 62
     0
 63
     7
283
     0
274
    -2
284
     1
 64
     0
275
    -2
285
     1
 65
     0
276
    -2
286
     1
 66
     0
277
    -2
287
     1
 67
     0
278
    -2
288
     1
 68
     0
279
    -2
289
     1
 69
     0
  7
STANDARD
140
4.5
170
     5
 62
     0
 63
     7
283
     0
274
    -2
284
     1
 64
     0
275
    -2
285
     1
 65
     0
276
    -2
286
     1
 66
     0
277
    -2
287
     1
 67
     0
278
    -2
288
     1
 68
     0
279
    -2
289
     1
 69
     0
  0
DICTIONARYVAR
  5
138
102
{ACAD_REACTORS
330
94
102
}
330
94
100
DictionaryVariables
280
     0
  1
STANDARD
  0
DICTIONARYVAR
  5
96
102
{ACAD_REACTORS
330
94
102
}
330
94
100
DictionaryVariables
280
     0
  1
2
  0
DICTIONARYVAR
  5
95
102
{ACAD_REACTORS
330
94
102
}
330
94
100
DictionaryVariables
280
     0
  1
0
  0
DICTIONARYVAR
  5
1CC4
102
{ACAD_REACTORS
330
94
102
}
330
94
100
DictionaryVariables
280
     0
  1

  0
DICTIONARY
  5
1B5
102
{ACAD_REACTORS
330
5B
102
}
330
5B
100
AcDbDictionary
281
     1
  0
DICTIONARY
  5
61
102
{ACAD_REACTORS
330
5B
102
}
330
5B
100
AcDbDictionary
281
     1
  0
XRECORD
  5
123
102
{ACAD_REACTORS
330
5B
102
}
330
5B
100
AcDbXrecord
280
     1
 90
-1023410169
  0
DICTIONARY
  5
1E0F
330
22
100
AcDbDictionary
280
     1
281
     1
  3
ACAD_XREC_ROUNDTRIP
360
1E10
  0
DICTIONARY
  5
1E0D
330
1E
100
AcDbDictionary
280
     1
281
     1
  3
ACAD_XREC_ROUNDTRIP
360
1E0E
  0
DICTIONARY
  5
1E11
330
26
100
AcDbDictionary
280
     1
281
     1
  3
ACAD_XREC_ROUNDTRIP
360
1E12
  0
XRECORD
  5
1E10
102
{ACAD_REACTORS
330
1E0F
102
}
330
1E0F
100
AcDbXrecord
280
     1
102
SHADEPLOT
 70
     0
102
SHADEPLOTRESLEVEL
 70
     2
102
SHADEPLOTCUSTOMDPI
 70
   300
  0
XRECORD
  5
1E0E
102
{ACAD_REACTORS
330
1E0D
102
}
330
1E0D
100
AcDbXrecord
280
     1
102
SHADEPLOT
 70
     0
102
SHADEPLOTRESLEVEL
 70
     2
102
SHADEPLOTCUSTOMDPI
 70
   300
  0
XRECORD
  5
1E12
102
{ACAD_REACTORS
330
1E11
102
}
330
1E11
100
AcDbXrecord
280
     1
102
SHADEPLOT
 70
     0
102
SHADEPLOTRESLEVEL
 70
     2
102
SHADEPLOTCUSTOMDPI
 70
   300
  0
ENDSEC
  0
EOF
