  0
SECTION
  2
HEADER
  9
$ACADVER
  1
AC1015
  9
$ACADMAINTVER
 70
    20
  9
$DWGCODEPAGE
  3
ANSI_950
  9
$INSBASE
 10
0.0
 20
0.0
 30
0.0
  9
$EXTMIN
 10
1133.876955236919
 20
924.7148425460455
 30
0.0
  9
$EXTMAX
 10
1426.55153621779
 20
1156.151853307916
 30
184.6336296564843
  9
$LIMMIN
 10
0.0
 20
0.0
  9
$LIMMAX
 10
420.0
 20
297.0
  9
$ORTHOMODE
 70
     0
  9
$REGENMODE
 70
     1
  9
$FILLMODE
 70
     1
  9
$QTEXTMODE
 70
     0
  9
$MIRRTEXT
 70
     1
  9
$LTSCALE
 40
1.0
  9
$ATTMODE
 70
     1
  9
$TEXTSIZE
 40
1.0
  9
$TRACEWID
 40
1.0
  9
$TEXTSTYLE
  7
STANDARD
  9
$CLAYER
  8
0
  9
$CELTYPE
  6
ByLayer
  9
$CECOLOR
 62
   256
  9
$CELTSCALE
 40
1.0
  9
$DISPSILH
 70
     0
  9
$DIMSCALE
 40
1.0
  9
$DIMASZ
 40
2.5
  9
$DIMEXO
 40
1.0
  9
$DIMDLI
 40
10.0
  9
$DIMRND
 40
0.0
  9
$DIMDLE
 40
0.0
  9
$DIMEXE
 40
1.0
  9
$DIMTP
 40
0.1
  9
$DIMTM
 40
0.1
  9
$DIMTXT
 40
3.5
  9
$DIMCEN
 40
0.0
  9
$DIMTSZ
 40
0.0
  9
$DIMTOL
 70
     0
  9
$DIMLIM
 70
     0
  9
$DIMTIH
 70
     0
  9
$DIMTOH
 70
     0
  9
$DIMSE1
 70
     0
  9
$DIMSE2
 70
     0
  9
$DIMTAD
 70
     1
  9
$DIMZIN
 70
     8
  9
$DIMBLK
  1

  9
$DIMASO
 70
     1
  9
$DIMSHO
 70
     1
  9
$DIMPOST
  1

  9
$DIMAPOST
  1
"
  9
$DIMALT
 70
     0
  9
$DIMALTD
 70
     2
  9
$DIMALTF
 40
0.0393701
  9
$DIMLFAC
 40
1.0
  9
$DIMTOFL
 70
     1
  9
$DIMTVP
 40
0.0
  9
$DIMTIX
 70
     0
  9
$DIMSOXD
 70
     0
  9
$DIMSAH
 70
     0
  9
$DIMBLK1
  1

  9
$DIMBLK2
  1

  9
$DIMSTYLE
  2
AM_ISO
  9
$DIMCLRD
 70
   256
  9
$DIMCLRE
 70
   256
  9
$DIMCLRT
 70
     2
  9
$DIMTFAC
 40
0.71
  9
$DIMGAP
 40
1.5
  9
$DIMJUST
 70
     0
  9
$DIMSD1
 70
     0
  9
$DIMSD2
 70
     0
  9
$DIMTOLJ
 70
     0
  9
$DIMTZIN
 70
     8
  9
$DIMALTZ
 70
     0
  9
$DIMALTTZ
 70
     0
  9
$DIMUPT
 70
     0
  9
$DIMDEC
 70
     2
  9
$DIMTDEC
 70
     3
  9
$DIMALTU
 70
     2
  9
$DIMALTTD
 70
     4
  9
$DIMTXSTY
  7
STANDARD
  9
$DIMAUNIT
 70
     0
  9
$DIMADEC
 70
     0
  9
$DIMALTRND
 40
0.0
  9
$DIMAZIN
 70
     2
  9
$DIMDSEP
 70
    46
  9
$DIMATFIT
 70
     3
  9
$DIMFRAC
 70
     0
  9
$DIMLDRBLK
  1

  9
$DIMLUNIT
 70
     2
  9
$DIMLWD
 70
    -1
  9
$DIMLWE
 70
    -1
  9
$DIMTMOVE
 70
     0
  9
$LUNITS
 70
     2
  9
$LUPREC
 70
     2
  9
$SKETCHINC
 40
1.0
  9
$FILLETRAD
 40
2.5
  9
$AUNITS
 70
     0
  9
$AUPREC
 70
     0
  9
$MENU
  1
.
  9
$ELEVATION
 40
0.0
  9
$PELEVATION
 40
0.0
  9
$THICKNESS
 40
0.0
  9
$LIMCHECK
 70
     0
  9
$CHAMFERA
 40
2.5
  9
$CHAMFERB
 40
2.5
  9
$CHAMFERC
 40
20.0
  9
$CHAMFERD
 40
0.0
  9
$SKPOLY
 70
     0
  9
$TDCREATE
 40
2455812.589317130
  9
$TDUCREATE
 40
2455812.255983797
  9
$TDUPDATE
 40
2455812.607048611
  9
$TDUUPDATE
 40
2455812.273715278
  9
$TDINDWG
 40
0.0014326505
  9
$TDUSRTIMER
 40
0.0014326505
  9
$USRTIMER
 70
     1
  9
$ANGBASE
 50
0.0
  9
$ANGDIR
 70
     0
  9
$PDMODE
 70
     0
  9
$PDSIZE
 40
0.0
  9
$PLINEWID
 40
0.0
  9
$SPLFRAME
 70
     0
  9
$SPLINETYPE
 70
     6
  9
$SPLINESEGS
 70
     8
  9
$HANDSEED
  5
8AC
  9
$SURFTAB1
 70
     6
  9
$SURFTAB2
 70
     6
  9
$SURFTYPE
 70
     6
  9
$SURFU
 70
     6
  9
$SURFV
 70
     6
  9
$UCSBASE
  2

  9
$UCSNAME
  2

  9
$UCSORG
 10
0.0
 20
0.0
 30
0.0
  9
$UCSXDIR
 10
1.0
 20
0.0
 30
0.0
  9
$UCSYDIR
 10
0.0
 20
1.0
 30
0.0
  9
$UCSORTHOREF
  2

  9
$UCSORTHOVIEW
 70
     0
  9
$UCSORGTOP
 10
0.0
 20
0.0
 30
0.0
  9
$UCSORGBOTTOM
 10
0.0
 20
0.0
 30
0.0
  9
$UCSORGLEFT
 10
0.0
 20
0.0
 30
0.0
  9
$UCSORGRIGHT
 10
0.0
 20
0.0
 30
0.0
  9
$UCSORGFRONT
 10
0.0
 20
0.0
 30
0.0
  9
$UCSORGBACK
 10
0.0
 20
0.0
 30
0.0
  9
$PUCSBASE
  2

  9
$PUCSNAME
  2

  9
$PUCSORG
 10
0.0
 20
0.0
 30
0.0
  9
$PUCSXDIR
 10
1.0
 20
0.0
 30
0.0
  9
$PUCSYDIR
 10
0.0
 20
1.0
 30
0.0
  9
$PUCSORTHOREF
  2

  9
$PUCSORTHOVIEW
 70
     0
  9
$PUCSORGTOP
 10
0.0
 20
0.0
 30
0.0
  9
$PUCSORGBOTTOM
 10
0.0
 20
0.0
 30
0.0
  9
$PUCSORGLEFT
 10
0.0
 20
0.0
 30
0.0
  9
$PUCSORGRIGHT
 10
0.0
 20
0.0
 30
0.0
  9
$PUCSORGFRONT
 10
0.0
 20
0.0
 30
0.0
  9
$PUCSORGBACK
 10
0.0
 20
0.0
 30
0.0
  9
$USERI1
 70
     0
  9
$USERI2
 70
     0
  9
$USERI3
 70
     0
  9
$USERI4
 70
     0
  9
$USERI5
 70
     0
  9
$USERR1
 40
0.0
  9
$USERR2
 40
0.0
  9
$USERR3
 40
0.0
  9
$USERR4
 40
0.0
  9
$USERR5
 40
0.0
  9
$WORLDVIEW
 70
     1
  9
$SHADEDGE
 70
     3
  9
$SHADEDIF
 70
    70
  9
$TILEMODE
 70
     1
  9
$MAXACTVP
 70
    64
  9
$PINSBASE
 10
0.0
 20
0.0
 30
0.0
  9
$PLIMCHECK
 70
     0
  9
$PEXTMIN
 10
1.000000000000000E+20
 20
1.000000000000000E+20
 30
1.000000000000000E+20
  9
$PEXTMAX
 10
-1.000000000000000E+20
 20
-1.000000000000000E+20
 30
-1.000000000000000E+20
  9
$PLIMMIN
 10
0.0
 20
0.0
  9
$PLIMMAX
 10
420.0
 20
297.0
  9
$UNITMODE
 70
     0
  9
$VISRETAIN
 70
     1
  9
$PLINEGEN
 70
     0
  9
$PSLTSCALE
 70
     1
  9
$TREEDEPTH
 70
  3020
  9
$CMLSTYLE
  2
Standard
  9
$CMLJUST
 70
     0
  9
$CMLSCALE
 40
20.0
  9
$PROXYGRAPHICS
 70
     1
  9
$MEASUREMENT
 70
     1
  9
$CELWEIGHT
370
    -1
  9
$ENDCAPS
280
     0
  9
$JOINSTYLE
280
     0
  9
$LWDISPLAY
290
     0
  9
$INSUNITS
 70
     4
  9
$HYPERLINKBASE
  1

  9
$STYLESHEET
  1

  9
$XEDIT
290
     1
  9
$CEPSNTYPE
380
     0
  9
$PSTYLEMODE
290
     1
  9
$FINGERPRINTGUID
  2
{BC2ECBB3-6393-4C59-AE41-74CD9B5A63AB}
  9
$VERSIONGUID
  2
{2D2C5AA1-73AA-44F0-A980-F431AE0E95E3}
  9
$EXTNAMES
290
     1
  9
$PSVPSCALE
 40
0.0
  9
$OLESTARTUP
290
     0
  0
ENDSEC
  0
SECTION
  2
CLASSES
  0
CLASS
  1
ACDBDICTIONARYWDFLT
  2
AcDbDictionaryWithDefault
  3
ObjectDBX Classes
 90
        0
280
     0
281
     0
  0
CLASS
  1
ACDBPLACEHOLDER
  2
AcDbPlaceHolder
  3
ObjectDBX Classes
 90
        0
280
     0
281
     0
  0
CLASS
  1
LAYOUT
  2
AcDbLayout
  3
ObjectDBX Classes
 90
        0
280
     0
281
     0
  0
CLASS
  1
ACME_DOCUMENT
  2
AcMeDbDoc
  3
AcMeServices
 90
        0
280
     0
281
     0
  0
CLASS
  1
AMGSETTINGSOBJ
  2
AmgSettingsObj
  3
"AcadM|Product Description: AutoCAD Mechanical 2000|Company: Autodesk"
 90
        0
280
     0
281
     0
  0
CLASS
  1
ACMESCOPE
  2
AcMeScope
  3
AcMeServices
 90
        0
280
     0
281
     0
  0
CLASS
  1
ACMECOMMANDHISTORY
  2
AcMeCommandHistory
  3
AcMeServices
 90
        0
280
     0
281
     0
  0
CLASS
  1
ACIMSYSVARMAN
  2
AcImSysVarManager
  3
AcMeServices
 90
        0
280
     0
281
     0
  0
CLASS
  1
ACIMREALSYSVAR
  2
AcImRealSysVar
  3
AcMeServices
 90
        0
280
     0
281
     0
  0
CLASS
  1
ACIMINTSYSVAR
  2
AcImIntSysVar
  3
AcMeServices
 90
        0
280
     0
281
     0
  0
CLASS
  1
ACMEDRAWINGMAN
  2
AcMeDrawingMan
  3
AcMeServices
 90
        0
280
     0
281
     0
  0
CLASS
  1
ACMEVIEW
  2
AcMeView
  3
AcMeServices
 90
        0
280
     0
281
     0
  0
CLASS
  1
ACDBENTITYCACHE
  2
AcMeEntityCache
  3
AcMeServices
 90
        0
280
     0
281
     0
  0
CLASS
  1
GSMANAGER
  2
AcMeGSManager
  3
AcMeServices
 90
        0
280
     0
281
     0
  0
CLASS
  1
AMDTINTERNALREACTOR
  2
AmdtInternalReactor
  3
AcMeServices
 90
        0
280
     0
281
     0
  0
CLASS
  1
ACMESTATEMGR
  2
AcMeStateMgr
  3
AcMeServices
 90
        0
280
     0
281
     0
  0
CLASS
  1
ACGREFMASTER
  2
AcGrefMaster
  3
AcAttribServices
 90
        0
280
     0
281
     0
  0
CLASS
  1
ACME_DATABASE
  2
AcMeDbDatabase
  3
AcMeServices
 90
        0
280
     0
281
     0
  0
CLASS
  1
ACRFINSADJUSTERMGR
  2
AcRfInsAdjusterMgr
  3
AcMeServices
 90
        0
280
     0
281
     0
  0
CLASS
  1
ACGREFACADMASTER
  2
AcGrefacadMaster
  3
AcGrefServices
 90
        0
280
     0
281
     0
  0
CLASS
  1
AMIMASTER
  2
AmiMaster
  3
AmiServices
 90
        0
280
     0
281
     0
  0
CLASS
  1
ACMDATADICTIONARY
  2
AcmDataDictionary
  3
"AcmSymBB|Product Description: AutoCAD Mechanical 2004 DX|Company: Autodesk"
 90
        0
280
     0
281
     0
  0
CLASS
  1
ACMDATAENTRYBLOCK
  2
AcmDataEntryBlock
  3
"AcmSymBB|Product Description: AutoCAD Mechanical 2004 DX|Company: Autodesk"
 90
    32768
280
     0
281
     0
  0
CLASS
  1
ACIMSTRSYSVAR
  2
AcImStrSysVar
  3
AcMeServices
 90
        0
280
     0
281
     0
  0
CLASS
  1
ACMSTANDARDISO
  2
AcmStandardISO
  3
"Amdt_StdImp|Product Description: AutoCAD Mechanical 2004 DX|Company: Autodesk"
 90
        0
280
     0
281
     0
  0
CLASS
  1
AMGOBJPROPCFG
  2
AmgObjPropCfg
  3
"AmgLay|Product Description: AutoCAD Mechanical 2000|Company: Autodesk"
 90
        1
280
     0
281
     0
  0
CLASS
  1
AMDTEDGESTANDARDISO
  2
AmdtEdgeStdISO
  3
"Amdt_StdImp|Product Description: AutoCAD Mechanical 2004 DX|Company: Autodesk"
 90
    32768
280
     0
281
     0
  0
CLASS
  1
ACMSURFSTANDARDISO
  2
AcmSurfTextStdISO
  3
"Amdt_StdImp|Product Description: AutoCAD Mechanical 2004 DX|Company: Autodesk"
 90
        0
280
     0
281
     0
  0
CLASS
  1
ACMFCFSTANDARDISO
  2
AcmFCFStdISO
  3
"Amdt_StdImp|Product Description: AutoCAD Mechanical 2004 DX|Company: Autodesk"
 90
        0
280
     0
281
     0
  0
CLASS
  1
ACMWELDSTANDARDISO
  2
AcmWeldingStdISO
  3
"Amdt_StdImp|Product Description: AutoCAD Mechanical 2004 DX|Company: Autodesk"
 90
        0
280
     0
281
     0
  0
CLASS
  1
ACMIDSTANDARDISO
  2
AcmIdStdISO
  3
"Amdt_StdImp|Product Description: AutoCAD Mechanical 2004 DX|Company: Autodesk"
 90
        0
280
     0
281
     0
  0
CLASS
  1
ACMDATUMSTANDARDISO
  2
AcmDatumStdISO
  3
"Amdt_StdImp|Product Description: AutoCAD Mechanical 2004 DX|Company: Autodesk"
 90
        0
280
     0
281
     0
  0
CLASS
  1
ACMBOMSTANDARDISO
  2
AcmBOMStdISO
  3
"Amdt_StdImp|Product Description: AutoCAD Mechanical 2004 DX|Company: Autodesk"
 90
        0
280
     0
281
     0
  0
CLASS
  1
ACMDETAILSTANDARDISO
  2
AmdtDetailSymStdISO
  3
"Amdt_StdImp|Product Description: AutoCAD Mechanical 2004 DX|Company: Autodesk"
 90
        0
280
     0
281
     0
  0
CLASS
  1
ACMSECTIONSTANDARDISO
  2
AmdtSectionSymStdISO
  3
"Amdt_StdImp|Product Description: AutoCAD Mechanical 2004 DX|Company: Autodesk"
 90
        0
280
     0
281
     0
  0
CLASS
  1
ACMCENTERLINESTANDARDISO
  2
AmdtCenterLineStdISO
  3
"Amdt_StdImp|Product Description: AutoCAD Mechanical 2004 DX|Company: Autodesk"
 90
        0
280
     0
281
     0
  0
CLASS
  1
ACMNOTESTANDARDISO
  2
AmdtNoteStdISO
  3
"Amdt_StdImp|Product Description: AutoCAD Mechanical 2004 DX|Company: Autodesk"
 90
        0
280
     0
281
     0
  0
CLASS
  1
ACAMGLAYSTD
  2
AcAmgLayStd
  3
"AcAmgLayStd|Product Description: AutoCAD Mechanical 2000|Company: Autodesk"
 90
        0
280
     0
281
     0
  0
CLASS
  1
ACAMGDIMSTD
  2
AcAmgDimStd
  3
"AcAmgDimStd|Product Description: AutoCAD Mechanical 2000|Company: Autodesk"
 90
        0
280
     0
281
     0
  0
CLASS
  1
ACAMGHOLECHARTSTDISO
  2
AcAmgHoleChartStdISO
  3
ACMSYMBB_MODULE_NAME
 90
        0
280
     0
281
     0
  0
CLASS
  1
ACAMGTITLESTD
  2
AcAmgTitleStd
  3
"TITLEAPP"
 90
        0
280
     0
281
     0
  0
CLASS
  1
LAYER_INDEX
  2
AcDbLayerIndex
  3
ObjectDBX Classes
 90
    32768
280
     0
281
     0
  0
CLASS
  1
IDBUFFER
  2
AcDbIdBuffer
  3
ObjectDBX Classes
 90
    32768
280
     0
281
     0
  0
CLASS
  1
DICTIONARYVAR
  2
AcDbDictionaryVar
  3
ObjectDBX Classes
 90
        0
280
     0
281
     0
  0
CLASS
  1
AM_DRAWING_MGR
  2
AcDmDwgMgr
  3
AcMechDwgViewMgmt
 90
        0
280
     0
281
     0
  0
CLASS
  1
AM_DWG_DOCUMENT
  2
AcDmDwgDocument
  3
AcMechDwgViewMgmt
 90
        0
280
     0
281
     0
  0
CLASS
  1
AM_DWG_SHEET
  2
AcDmSheet
  3
AcMechDwgViewMgmt
 90
        0
280
     0
281
     0
  0
CLASS
  1
AM_VIEWDIMPARMAP
  2
AcDmViewDimParMap
  3
AcMechDwgViewMgmt
 90
        0
280
     0
281
     0
  0
CLASS
  1
AM_DWGMGR_NAME
  2
AcDmDwgMgrName
  3
AcMechDwgViewMgmt
 90
        0
280
     0
281
     0
  0
CLASS
  1
AMDTMENUSTATEMGR
  2
AmdtMenuStateMgr
  3
McadcomServices
 90
        0
280
     0
281
     0
  0
CLASS
  1
AMDTMCOMMENUSTATE
  2
AmdtMcomMenuState
  3
McadcomServices
 90
        0
280
     0
281
     0
  0
CLASS
  1
MAPIAMMOUDLE
  2
MApiAmModule
  3
MApiAmServices
 90
        0
280
     0
281
     0
  0
CLASS
  1
AMDTADMENUSTATE
  2
AmdtAdMenuState
  3
DesignerServices
 90
        0
280
     0
281
     0
  0
CLASS
  1
ADAPPL
  2
AcAdAppl
  3
DesignerServices
 90
        0
280
     0
281
     0
  0
CLASS
  1
DEPMGR
  2
AcAdDepMgr
  3
DesignerServices
 90
        0
280
     0
281
     0
  0
CLASS
  1
PARAMMGR
  2
AcAdParamMgr
  3
DesignerServices
 90
        0
280
     0
281
     0
  0
CLASS
  1
PARAMSCOPE
  2
AcAdParamScope
  3
DesignerServices
 90
        0
280
     0
281
     0
  0
CLASS
  1
NAMEDAPPL
  2
AcAdNamedAppl
  3
DesignerServices
 90
        0
280
     0
281
     0
  0
CLASS
  1
AMDTDMMENUSTATE
  2
AmdtDmMenuState
  3
AcMechDwgViewMgmt
 90
        0
280
     0
281
     0
  0
CLASS
  1
AMDTAMMENUSTATE
  2
AmdtAmMenuState
  3
DesignerAssemblies
 90
        0
280
     0
281
     0
  0
CLASS
  1
ACAMPROJECT
  2
AcAmProject
  3
DesignerAssemblies
 90
        0
280
     0
281
     0
  0
CLASS
  1
ACAMGRCOMPDEF
  2
AcAmGrCompDef
  3
DesignerAssemblies
 90
        0
280
     0
281
     0
  0
CLASS
  1
ACCMCONTEXT
  2
AcCmContext
  3
DesignerAssemblies
 90
        0
280
     0
281
     0
  0
CLASS
  1
ACAMCOMPDEF
  2
AcAmCompDef
  3
DesignerAssemblies
 90
        0
280
     0
281
     0
  0
CLASS
  1
ACAMCOMPDEFMGR
  2
AcAmCompDefMgr
  3
DesignerAssemblies
 90
        0
280
     0
281
     0
  0
CLASS
  1
AMCONTEXTMGR
  2
AcAmContextMgr
  3
DesignerAssemblies
 90
        0
280
     0
281
     0
  0
CLASS
  1
ACAMCONTEXTMODELER
  2
AcAmContextModeler
  3
DesignerAssemblies
 90
        0
280
     0
281
     0
  0
CLASS
  1
ACMTHREADLINESTANDARDISO
  2
AmdtThreadLineStdISO
  3
"Amdt_StdImp|Product Description: AutoCAD Mechanical 2004 DX|Company: Autodesk"
 90
        0
280
     0
281
     0
  0
CLASS
  1
CATALOGSTATE
  2
AcAmCatalogState
  3
DesignerAssemblies
 90
        0
280
     0
281
     0
  0
CLASS
  1
ACAMGRCOMPDEFSET
  2
AcAmGrCompDefSet
  3
DesignerAssemblies
 90
        0
280
     0
281
     0
  0
CLASS
  1
AMDTBROWSERDBTAB
  2
AmdtBrowserDbTab
  3
McadcomServices
 90
        0
280
     0
281
     0
  0
CLASS
  1
CBROWSERAPPOBJECT
  2
CBrowserAppObject
  3
McadcomServices
 90
        0
280
     0
281
     0
  0
CLASS
  1
DM_PLACEHOLDER
  2
AcDmSelsetPlaceholder
  3
AcMechDwgViewMgmt
 90
        0
280
     0
281
     0
  0
CLASS
  1
TABLESTYLE
  2
AcDbTableStyle
  3
ObjectDBX Classes
 90
     2047
280
     0
281
     0
  0
CLASS
  1
VAACXREFPANELOBJECT
  2
VaAcXREFPanelObject
  3
VAAC_ADDIN
 90
    32768
280
     0
281
     0
  0
CLASS
  1
VAACIMAGEINVENTORY
  2
VaAcImageInventory
  3
VAAC_ADDIN
 90
    32768
280
     0
281
     0
  0
CLASS
  1
AMDTNOTETEMPLATEDB
  2
AmdtNoteTemplateDB
  3
AMDT_STDIMP_MODULE_NAME
 90
        0
280
     0
281
     0
  0
CLASS
  1
ACMBOM
  2
AcmBom
  3
"AcmSymBB|Product Description: AutoCAD Mechanical 2004 DX|Company: Autodesk"
 90
    32768
280
     0
281
     0
  0
CLASS
  1
AMDTFORMULAUPDATEDISPATCHER
  2
AmdtFormulaUpdateDispatcher
  3
AcMeServices
 90
    32768
280
     0
281
     0
  0
CLASS
  1
ACMPARTLIST
  2
AcmPartList
  3
"AcmSymBB|Product Description: AutoCAD Mechanical 2004 DX|Company: Autodesk"
 90
    33791
280
     0
281
     1
  0
CLASS
  1
ACAMGFILTERDAT
  2
AcAmgFilterDat
  3
"AcadM|Product Description: AutoCAD Mechanical 2000|Company: Autodesk"
 90
    32768
280
     0
281
     0
  0
CLASS
  1
DIMASSOC
  2
AcDbDimAssoc
  3
"AcDbDimAssoc|Product Desc:     AcDim ARX App For Dimension|Company:          Autodesk, Inc.|WEB Address:      www.autodesk.com"
 90
        0
280
     0
281
     0
  0
CLASS
  1
SORTENTSTABLE
  2
AcDbSortentsTable
  3
ObjectDBX Classes
 90
    32768
280
     0
281
     0
  0
CLASS
  1
ACRFATTGENMGR
  2
AcRfAttGeneralMgr
  3
AcAttribServices
 90
        0
280
     0
281
     0
  0
CLASS
  1
AMDTEDGESTANDARDISO13715
  2
AmdtEdgeStdISO13715
  3
"Amdt_StdImp|Product Description: AutoCAD Mechanical 2004 DX|Company: Autodesk"
 90
        0
280
     0
281
     0
  0
ENDSEC
  0
SECTION
  2
TABLES
  0
TABLE
  2
VPORT
  5
8
330
0
100
AcDbSymbolTable
 70
     3
  0
VPORT
  5
8A3
330
8
100
AcDbSymbolTableRecord
100
AcDbViewportTableRecord
  2
*Active
 70
     0
 10
0.0
 20
0.0
 11
1.0
 21
1.0
 12
1280.979862398
 22
1038.274452821515
 13
0.0
 23
0.0
 14
2.5
 24
2.5
 15
10.0
 25
10.0
 16
0.0
 26
0.0
 36
1.0
 17
0.0
 27
0.0
 37
0.0
 40
270.5820960066662
 41
1.221364221364221
 42
50.0
 43
0.0
 44
0.0
 50
0.0
 51
0.0
 71
     0
 72
   100
 73
     1
 74
     3
 75
     0
 76
     0
 77
     0
 78
     0
281
     0
 65
     1
110
0.0
120
0.0
130
0.0
111
1.0
121
0.0
131
0.0
112
0.0
122
1.0
132
0.0
 79
     0
146
0.0
  0
ENDTAB
  0
TABLE
  2
LTYPE
  5
5
330
0
100
AcDbSymbolTable
 70
    16
  0
LTYPE
  5
14
330
5
100
AcDbSymbolTableRecord
100
AcDbLinetypeTableRecord
  2
ByBlock
 70
     0
  3

 72
    65
 73
     0
 40
0.0
  0
LTYPE
  5
15
330
5
100
AcDbSymbolTableRecord
100
AcDbLinetypeTableRecord
  2
ByLayer
 70
     0
  3

 72
    65
 73
     0
 40
0.0
  0
LTYPE
  5
16
330
5
100
AcDbSymbolTableRecord
100
AcDbLinetypeTableRecord
  2
Continuous
 70
     0
  3
Solid line
 72
    65
 73
     0
 40
0.0
  0
LTYPE
  5
64
330
5
100
AcDbSymbolTableRecord
100
AcDbLinetypeTableRecord
  2
AM_ISO02W050
 70
     0
  3
__ __ __ __ __ __ __ __ __ __ __ __ __ __ __
 72
    65
 73
     2
 40
7.5
 49
6.0
 74
     0
 49
-1.5
 74
     0
  0
LTYPE
  5
65
330
5
100
AcDbSymbolTableRecord
100
AcDbLinetypeTableRecord
  2
AM_ISO08W050
 70
     0
  3
____ . ____ . ____ . ____ . ____ . ____ . ____
 72
    65
 73
     4
 40
18.0
 49
12.0
 74
     0
 49
-1.5
 74
     0
 49
3.0
 74
     0
 49
-1.5
 74
     0
  0
LTYPE
  5
66
330
5
100
AcDbSymbolTableRecord
100
AcDbLinetypeTableRecord
  2
AM_ISO09W050
 70
     0
  3
_____ . . _____ . . _____ . . ____ .. ____
 72
    65
 73
     6
 40
22.5
 49
12.0
 74
     0
 49
-1.5
 74
     0
 49
3.0
 74
     0
 49
-1.5
 74
     0
 49
3.0
 74
     0
 49
-1.5
 74
     0
  0
LTYPE
  5
67
330
5
100
AcDbSymbolTableRecord
100
AcDbLinetypeTableRecord
  2
Amconstr
 70
     0
  3
_______________________
 72
    65
 73
     2
 40
9999.0
 49
9999.0
 74
     0
 49
0.0
 74
     0
  0
LTYPE
  5
68
330
5
100
AcDbSymbolTableRecord
100
AcDbLinetypeTableRecord
  2
AM_ISO08W050x2
 70
     0
  3
__ . __ . __ . __ . __ . __
 72
    65
 73
     4
 40
9.0
 49
6.0
 74
     0
 49
-0.75
 74
     0
 49
1.5
 74
     0
 49
-0.75
 74
     0
  0
LTYPE
  5
69
330
5
100
AcDbSymbolTableRecord
100
AcDbLinetypeTableRecord
  2
AM_ISO02W050x2
 70
     0
  3
 _ _ _ _ _ _ _ _ _ _ _ _
 72
    65
 73
     2
 40
3.75
 49
3.0
 74
     0
 49
-0.75
 74
     0
  0
LTYPE
  5
6C
330
5
100
AcDbSymbolTableRecord
100
AcDbLinetypeTableRecord
  2
Amzigzag
 70
     0
  3
/\/-/\/-/\/-/\/-/\/-/\/
 72
    65
 73
     2
 40
11.0001
 49
0.0001
 74
     4
 75
   135
340
6B
 46
0.04
 50
0.0
 44
0.0
 45
0.0
 49
-11.0
 74
     0
  0
LTYPE
  5
7A
330
5
100
AcDbSymbolTableRecord
100
AcDbLinetypeTableRecord
  2
ACISOWELD
 70
     0
  3
_ _ _ _ _
 72
    65
 73
     2
 40
2.0
 49
2.0
 74
     0
 49
-1.0
 74
     0
  0
LTYPE
  5
7B
330
5
100
AcDbSymbolTableRecord
100
AcDbLinetypeTableRecord
  2
ACISOTGB
 70
     0
  3
__ . . __ . .
 72
    65
 73
     6
 40
9.0
 49
4.0
 74
     0
 49
-1.0
 74
     0
 49
1.0
 74
     0
 49
-1.0
 74
     0
 49
1.0
 74
     0
 49
-1.0
 74
     0
  0
LTYPE
  5
7C
330
5
100
AcDbSymbolTableRecord
100
AcDbLinetypeTableRecord
  2
ACISOTGL
 70
     0
  3
_ _ _ _ _
 72
    65
 73
     2
 40
3.0
 49
2.0
 74
     0
 49
-1.0
 74
     0
  0
LTYPE
  5
7E
330
5
100
AcDbSymbolTableRecord
100
AcDbLinetypeTableRecord
  2
CENTER
 70
     0
  3
__ . __
 72
    65
 73
     4
 40
7.0
 49
4.0
 74
     0
 49
-1.0
 74
     0
 49
1.0
 74
     0
 49
-1.0
 74
     0
  0
LTYPE
  5
D8
330
5
100
AcDbSymbolTableRecord
100
AcDbLinetypeTableRecord
  2
HIDDEN
 70
     0
  3
Hidden __ __ __ __ __ __ __ __ __ __ __ __ __ _
 72
    65
 73
     2
 40
9.524999999999998
 49
6.349999999999999
 74
     0
 49
-3.174999999999999
 74
     0
  0
LTYPE
  5
D9
330
5
100
AcDbSymbolTableRecord
100
AcDbLinetypeTableRecord
  2
PHANTOM2
 70
     0
  3
Phantom (.5x) ___ _ _ ___ _ _ ___ _ _ ___ _ _
 72
    65
 73
     6
 40
31.75
 49
15.875
 74
     0
 49
-3.174999999999999
 74
     0
 49
3.174999999999999
 74
     0
 49
-3.174999999999999
 74
     0
 49
3.174999999999999
 74
     0
 49
-3.174999999999999
 74
     0
  0
LTYPE
  5
2BF
330
5
100
AcDbSymbolTableRecord
100
AcDbLinetypeTableRecord
  2
CENTER2
 70
     0
  3
Center (.5x) ___ _ ___ _ ___ _ ___ _ ___ _ ___
 72
    65
 73
     4
 40
28.575
 49
19.05
 74
     0
 49
-3.174999999999998
 74
     0
 49
3.174999999999998
 74
     0
 49
-3.174999999999998
 74
     0
  0
LTYPE
  5
2C0
330
5
100
AcDbSymbolTableRecord
100
AcDbLinetypeTableRecord
  2
HIDDEN2
 70
     0
  3
Hidden (.5x) _ _ _ _ _ _ _ _ _ _ _ _ _ _ _ _ _
 72
    65
 73
     2
 40
4.762499999999998
 49
3.174999999999998
 74
     0
 49
-1.587499999999999
 74
     0
  0
ENDTAB
  0
TABLE
  2
LAYER
  5
2
102
{ACAD_XDICTIONARY
360
2DA
102
}
330
0
100
AcDbSymbolTable
 70
     9
  0
LAYER
  5
10
330
2
100
AcDbSymbolTableRecord
100
AcDbLayerTableRecord
  2
0
 70
     0
 62
     7
  6
Continuous
370
    -3
390
F
  0
LAYER
  5
2C1
102
{ACAD_XDICTIONARY
360
2C2
102
}
330
2
100
AcDbSymbolTableRecord
100
AcDbLayerTableRecord
  2
DIM
 70
     0
 62
     5
  6
Continuous
370
    -3
390
F
  0
LAYER
  5
2C3
102
{ACAD_XDICTIONARY
360
2C4
102
}
330
2
100
AcDbSymbolTableRecord
100
AcDbLayerTableRecord
  2
CEN
 70
     0
 62
     1
  6
CENTER
370
    -3
390
F
  0
LAYER
  5
2C5
330
2
100
AcDbSymbolTableRecord
100
AcDbLayerTableRecord
  2
Defpoints
 70
     0
 62
     7
  6
Continuous
290
     0
370
    -3
390
F
  0
LAYER
  5
2C6
102
{ACAD_XDICTIONARY
360
2C7
102
}
330
2
100
AcDbSymbolTableRecord
100
AcDbLayerTableRecord
  2
TEXT
 70
     0
 62
     3
  6
Continuous
370
    -3
390
F
  0
LAYER
  5
2C8
330
2
100
AcDbSymbolTableRecord
100
AcDbLayerTableRecord
  2
圖層1
 70
     0
 62
     1
  6
CENTER2
370
    -3
390
F
  0
LAYER
  5
2C9
330
2
100
AcDbSymbolTableRecord
100
AcDbLayerTableRecord
  2
圖層3
 70
     0
 62
     3
  6
HIDDEN2
370
    -3
390
F
  0
LAYER
  5
2CA
330
2
100
AcDbSymbolTableRecord
100
AcDbLayerTableRecord
  2
圖層4
 70
     0
 62
     2
  6
Continuous
370
    -3
390
F
  0
LAYER
  5
2CB
330
2
100
AcDbSymbolTableRecord
100
AcDbLayerTableRecord
  2
LOGO
 70
     0
 62
     7
  6
Continuous
370
    -3
390
F
  0
ENDTAB
  0
TABLE
  2
STYLE
  5
3
330
0
100
AcDbSymbolTable
 70
     6
  0
STYLE
  5
11
330
3
100
AcDbSymbolTableRecord
100
AcDbTextStyleTableRecord
  2
STANDARD
 70
     0
 40
0.0
 41
1.0
 50
0.0
 71
     0
 42
1.0
  3
ISOCP.SHX
  4
CHINESET.SHX
  0
STYLE
  5
6B
330
3
100
AcDbSymbolTableRecord
100
AcDbTextStyleTableRecord
  2

 70
     1
 40
0.0
 41
1.0
 50
0.0
 71
     0
 42
2.5
  3
ltypeshp.shx
  4

  0
STYLE
  5
6D
330
3
100
AcDbSymbolTableRecord
100
AcDbTextStyleTableRecord
  2
ACISOTS
 70
     0
 40
1.0
 41
1.0
 50
0.0
 71
     0
 42
1.0
  3
isocp.shx
  4
chineset.shx
  0
STYLE
  5
79
330
3
100
AcDbSymbolTableRecord
100
AcDbTextStyleTableRecord
  2
ACISOGDT
 70
     0
 40
0.0
 41
1.0
 50
0.0
 71
     0
 42
2.5
  3
amgdt.shx
  4
chineset.shx
  0
STYLE
  5
2CC
330
3
100
AcDbSymbolTableRecord
100
AcDbTextStyleTableRecord
  2
TNR
 70
     0
 40
5.0
 41
1.0
 50
0.0
 71
     0
 42
2.5
  3
TIMES.TTF
  4

1001
ACAD
1000
Times New Roman
1071
       18
  0
STYLE
  5
2CD
330
3
100
AcDbSymbolTableRecord
100
AcDbTextStyleTableRecord
  2
CHINESET
 70
     0
 40
0.0
 41
1.0
 50
0.0
 71
     0
 42
1.0
  3
simplex
  4
CHINESET.SHX
  0
ENDTAB
  0
TABLE
  2
VIEW
  5
6
330
0
100
AcDbSymbolTable
 70
     0
  0
ENDTAB
  0
TABLE
  2
UCS
  5
7
330
0
100
AcDbSymbolTable
 70
     0
  0
ENDTAB
  0
TABLE
  2
APPID
  5
9
330
0
100
AcDbSymbolTable
 70
    19
  0
APPID
  5
12
330
9
100
AcDbSymbolTableRecord
100
AcDbRegAppTableRecord
  2
ACAD
 70
     0
  0
APPID
  5
46
330
9
100
AcDbSymbolTableRecord
100
AcDbRegAppTableRecord
  2
MCAD_NO_VIS
 70
     0
  0
APPID
  5
47
330
9
100
AcDbSymbolTableRecord
100
AcDbRegAppTableRecord
  2
ACAD_TEMP_GRAPHIC
 70
     0
  0
APPID
  5
58
330
9
100
AcDbSymbolTableRecord
100
AcDbRegAppTableRecord
  2
ACATTRIBSERVICES
 70
     0
  0
APPID
  5
EE
330
9
100
AcDbSymbolTableRecord
100
AcDbRegAppTableRecord
  2
AD_DRAW
 70
     0
  0
APPID
  5
10C
330
9
100
AcDbSymbolTableRecord
100
AcDbRegAppTableRecord
  2
DESIGNERASSEMBLIES
 70
     0
  0
APPID
  5
111
330
9
100
AcDbSymbolTableRecord
100
AcDbRegAppTableRecord
  2
ACADM_DIM_EDIT
 70
     0
  0
APPID
  5
112
330
9
100
AcDbSymbolTableRecord
100
AcDbRegAppTableRecord
  2
AMDT_DM_ADJ
 70
     0
  0
APPID
  5
2CF
330
9
100
AcDbSymbolTableRecord
100
AcDbRegAppTableRecord
  2
ACAD_PSEXT
 70
     0
  0
APPID
  5
2D0
330
9
100
AcDbSymbolTableRecord
100
AcDbRegAppTableRecord
  2
ACAD_DSTYLE_DIMJAG
 70
     0
  0
APPID
  5
2D1
330
9
100
AcDbSymbolTableRecord
100
AcDbRegAppTableRecord
  2
ACAD_DSTYLE_DIMTALN
 70
     0
  0
APPID
  5
2D2
330
9
100
AcDbSymbolTableRecord
100
AcDbRegAppTableRecord
  2
ACAD_DSTYLE_DIMJOGGED_JOGANGLE_SYMBOL
 70
     0
  0
APPID
  5
2D3
330
9
100
AcDbSymbolTableRecord
100
AcDbRegAppTableRecord
  2
GENIUS_GENOBJ-N-CRS_13
 70
     0
  0
APPID
  5
2D4
330
9
100
AcDbSymbolTableRecord
100
AcDbRegAppTableRecord
  2
GENIUS_GENOLIS_13
 70
     0
  0
APPID
  5
2D5
330
9
100
AcDbSymbolTableRecord
100
AcDbRegAppTableRecord
  2
GENIUS_GENOENT_13
 70
     0
  0
APPID
  5
2D6
330
9
100
AcDbSymbolTableRecord
100
AcDbRegAppTableRecord
  2
GENIUS_GENODEF_13
 70
     0
  0
APPID
  5
2D7
330
9
100
AcDbSymbolTableRecord
100
AcDbRegAppTableRecord
  2
GENIUS_GENOREF_13
 70
     0
  0
APPID
  5
2D8
330
9
100
AcDbSymbolTableRecord
100
AcDbRegAppTableRecord
  2
GENIUS_GENREC_14
 70
     0
  0
APPID
  5
2D9
330
9
100
AcDbSymbolTableRecord
100
AcDbRegAppTableRecord
  2
GENIUS_GENOBJ-N-REC_13
 70
     0
  0
ENDTAB
  0
TABLE
  2
DIMSTYLE
  5
A
330
0
100
AcDbSymbolTable
 70
     9
100
AcDbDimStyleTable
 71
     1
340
81
  0
DIMSTYLE
105
27
102
{ACAD_REACTORS
330
500
330
518
330
570
330
573
330
574
330
577
330
582
330
585
330
588
330
58F
330
595
330
598
330
59B
330
59E
330
5E2
102
}
330
A
100
AcDbSymbolTableRecord
100
AcDbDimStyleTableRecord
  2
ISO-25
 70
     0
 41
2.5
 42
0.625
 43
3.75
 44
1.25
 73
     0
 74
     0
 77
     1
 78
     8
140
2.5
141
2.5
143
0.03937007874016
147
0.625
171
     3
172
     1
271
     2
272
     2
274
     3
278
    44
283
     0
284
     8
340
11
  0
DIMSTYLE
105
81
330
A
100
AcDbSymbolTableRecord
100
AcDbDimStyleTableRecord
  2
AM_ISO
 70
     0
  4
"
 41
2.5
 42
1.0
 43
10.0
 44
1.0
 47
0.1
 48
0.1
 73
     0
 74
     0
 77
     1
 78
     8
 79
     2
140
3.5
141
0.0
143
0.0393701
146
0.71
147
1.5
172
     1
176
   256
177
   256
178
     2
271
     2
272
     3
274
     4
283
     0
284
     8
340
11
371
    -1
372
    -1
  0
DIMSTYLE
105
82
330
A
100
AcDbSymbolTableRecord
100
AcDbDimStyleTableRecord
  2
AM_ISO$3
 70
     0
  4
"
 41
2.5
 42
1.0
 43
10.0
 44
1.0
 47
0.1
 48
0.1
 73
     0
 77
     1
 78
     8
 79
     2
140
3.5
141
0.0
143
0.0393701
146
0.71
147
1.5
176
   256
177
   256
178
     2
271
     2
272
     3
274
     4
283
     0
284
     8
288
     1
289
     0
340
11
371
    -1
372
    -1
  0
DIMSTYLE
105
83
330
A
100
AcDbSymbolTableRecord
100
AcDbDimStyleTableRecord
  2
AM_ISO$4
 70
     0
  4
"
 41
2.5
 42
1.0
 43
10.0
 44
1.0
 47
0.1
 48
0.1
 73
     0
 77
     1
 78
     8
 79
     2
140
3.5
141
0.0
143
0.0393701
146
0.71
147
1.5
176
   256
177
   256
178
     2
271
     2
272
     3
274
     4
283
     0
284
     8
288
     1
289
     0
340
11
371
    -1
372
    -1
  0
DIMSTYLE
105
84
330
A
100
AcDbSymbolTableRecord
100
AcDbDimStyleTableRecord
  2
AM_ISO$6
 70
     0
  4
"
 41
2.5
 42
1.0
 43
10.0
 44
1.0
 47
0.1
 48
0.1
 73
     0
 74
     0
 78
     8
 79
     2
140
3.5
141
0.0
143
0.0393701
146
0.71
147
1.5
172
     1
176
   256
177
   256
178
     2
271
     2
272
     3
274
     4
283
     0
284
     8
340
11
371
    -1
372
    -1
  0
DIMSTYLE
105
85
330
A
100
AcDbSymbolTableRecord
100
AcDbDimStyleTableRecord
  2
AM_ISO$7
 70
     0
  4
"
 41
2.5
 42
1.0
 43
10.0
 44
1.0
 47
0.1
 48
0.1
 73
     0
 74
     0
 77
     1
 78
     8
 79
     2
140
5.0
141
0.0
143
0.0393701
146
0.71
147
1.5
172
     1
176
   256
177
   256
178
     2
271
     2
272
     3
274
     4
283
     0
284
     8
340
11
371
    -1
372
    -1
  0
DIMSTYLE
105
86
330
A
100
AcDbSymbolTableRecord
100
AcDbDimStyleTableRecord
  2
AM_ISO$SF
 70
     0
  4
"
 41
2.5
 42
1.0
 43
10.0
 44
1.0
 47
0.1
 48
0.1
 73
     0
 74
     0
 75
     1
 76
     1
 77
     1
 78
     8
 79
     2
140
3.5
141
0.0
143
0.0393701
146
0.71
147
1.5
172
     1
176
   256
177
   256
178
     2
271
     2
272
     3
274
     4
283
     0
284
     8
340
11
371
    -1
372
    -1
  0
DIMSTYLE
105
8B
330
A
100
AcDbSymbolTableRecord
100
AcDbDimStyleTableRecord
  2
AM_ISO$SH
 70
     0
  4
"
 41
2.5
 42
1.0
 43
10.0
 44
1.0
 47
0.1
 48
0.1
 73
     0
 74
     0
 75
     1
 76
     1
 77
     1
 78
     8
 79
     2
140
3.5
141
0.0
143
0.0393701
144
2.0
146
0.71
147
1.5
172
     1
173
     1
176
   256
177
   256
178
     2
271
     2
272
     3
274
     4
283
     0
284
     8
340
11
343
87
371
    -1
372
    -1
  0
DIMSTYLE
105
2CE
102
{ACAD_REACTORS
330
56D
102
}
330
A
100
AcDbSymbolTableRecord
100
AcDbDimStyleTableRecord
  2
ISO-25C
 70
     0
  3
%%c<>
 41
2.5
 42
0.625
 43
3.75
 44
1.25
 73
     0
 74
     0
 77
     1
 78
     8
140
2.5
141
2.5
143
0.03937007874016
147
0.625
171
     3
172
     1
271
     2
272
     2
274
     3
283
     0
284
     8
340
11
  0
ENDTAB
  0
TABLE
  2
BLOCK_RECORD
  5
1
330
0
100
AcDbSymbolTable
 70
    19
  0
BLOCK_RECORD
  5
1F
102
{ACAD_XDICTIONARY
360
8F
102
}
330
1
100
AcDbSymbolTableRecord
100
AcDbBlockTableRecord
  2
*Model_Space
340
22
  0
BLOCK_RECORD
  5
1B
330
1
100
AcDbSymbolTableRecord
100
AcDbBlockTableRecord
  2
*Paper_Space
340
1E
  0
BLOCK_RECORD
  5
23
330
1
100
AcDbSymbolTableRecord
100
AcDbBlockTableRecord
  2
*Paper_Space0
340
26
  0
BLOCK_RECORD
  5
87
330
1
100
AcDbSymbolTableRecord
100
AcDbBlockTableRecord
  2
GENAXEH
340
0
  0
BLOCK_RECORD
  5
5FD
330
1
100
AcDbSymbolTableRecord
100
AcDbBlockTableRecord
  2
*D2
340
0
  0
BLOCK_RECORD
  5
609
330
1
100
AcDbSymbolTableRecord
100
AcDbBlockTableRecord
  2
*D3
340
0
  0
BLOCK_RECORD
  5
615
330
1
100
AcDbSymbolTableRecord
100
AcDbBlockTableRecord
  2
*D4
340
0
  0
BLOCK_RECORD
  5
621
330
1
100
AcDbSymbolTableRecord
100
AcDbBlockTableRecord
  2
*D5
340
0
  0
BLOCK_RECORD
  5
648
330
1
100
AcDbSymbolTableRecord
100
AcDbBlockTableRecord
  2
*D6
340
0
  0
BLOCK_RECORD
  5
65D
330
1
100
AcDbSymbolTableRecord
100
AcDbBlockTableRecord
  2
*D7
340
0
  0
BLOCK_RECORD
  5
669
330
1
100
AcDbSymbolTableRecord
100
AcDbBlockTableRecord
  2
*D8
340
0
  0
BLOCK_RECORD
  5
675
330
1
100
AcDbSymbolTableRecord
100
AcDbBlockTableRecord
  2
*D9
340
0
  0
BLOCK_RECORD
  5
681
330
1
100
AcDbSymbolTableRecord
100
AcDbBlockTableRecord
  2
*D10
340
0
  0
BLOCK_RECORD
  5
68D
330
1
100
AcDbSymbolTableRecord
100
AcDbBlockTableRecord
  2
*D11
340
0
  0
BLOCK_RECORD
  5
699
330
1
100
AcDbSymbolTableRecord
100
AcDbBlockTableRecord
  2
*D12
340
0
  0
BLOCK_RECORD
  5
6A5
330
1
100
AcDbSymbolTableRecord
100
AcDbBlockTableRecord
  2
*D13
340
0
  0
BLOCK_RECORD
  5
6B1
330
1
100
AcDbSymbolTableRecord
100
AcDbBlockTableRecord
  2
*D14
340
0
  0
BLOCK_RECORD
  5
6BD
330
1
100
AcDbSymbolTableRecord
100
AcDbBlockTableRecord
  2
*D15
340
0
  0
BLOCK_RECORD
  5
6C9
330
1
100
AcDbSymbolTableRecord
100
AcDbBlockTableRecord
  2
*D16
340
0
  0
BLOCK_RECORD
  5
6D5
330
1
100
AcDbSymbolTableRecord
100
AcDbBlockTableRecord
  2
*D17
340
0
  0
ENDTAB
  0
ENDSEC
  0
SECTION
  2
BLOCKS
  0
BLOCK
  5
20
330
1F
100
AcDbEntity
  8
0
100
AcDbBlockBegin
  2
*Model_Space
 70
     0
 10
0.0
 20
0.0
 30
0.0
  3
*Model_Space
  1

  0
ENDBLK
  5
21
330
1F
100
AcDbEntity
  8
0
100
AcDbBlockEnd
  0
BLOCK
  5
1C
330
1B
100
AcDbEntity
 67
     1
  8
0
100
AcDbBlockBegin
  2
*Paper_Space
 70
     0
 10
0.0
 20
0.0
 30
0.0
  3
*Paper_Space
  1

  0
ENDBLK
  5
1D
330
1B
100
AcDbEntity
 67
     1
  8
0
100
AcDbBlockEnd
  0
BLOCK
  5
24
330
23
100
AcDbEntity
  8
0
100
AcDbBlockBegin
  2
*Paper_Space0
 70
     0
 10
0.0
 20
0.0
 30
0.0
  3
*Paper_Space0
  1

  0
ENDBLK
  5
25
330
23
100
AcDbEntity
  8
0
100
AcDbBlockEnd
  0
BLOCK
  5
89
330
87
100
AcDbEntity
  8
0
100
AcDbBlockBegin
  2
GENAXEH
 70
     0
 10
0.0
 20
0.0
 30
0.0
  3
GENAXEH
  1

  0
LINE
  5
88
330
87
100
AcDbEntity
  8
0
100
AcDbLine
 10
-1.0
 20
0.0
 30
0.0
 11
1.0
 21
0.0
 31
0.0
  0
ENDBLK
  5
8A
330
87
100
AcDbEntity
  8
0
100
AcDbBlockEnd
  0
BLOCK
  5
607
330
5FD
100
AcDbEntity
  8
0
100
AcDbBlockBegin
  2
*D2
 70
     1
 10
0.0
 20
0.0
 30
0.0
  3
*D2
  1

  0
LINE
  5
62D
330
5FD
100
AcDbEntity
  8
DIM
 62
     0
370
    -2
100
AcDbLine
 10
1292.434171382083
 20
1026.337865335178
 30
0.0
 11
1319.057654024268
 21
1026.337865335178
 31
0.0
  0
LINE
  5
62E
330
5FD
100
AcDbEntity
  8
DIM
 62
     0
370
    -2
100
AcDbLine
 10
1292.434171382083
 20
998.3378653351785
 30
0.0
 11
1319.057654024268
 21
998.3378653351785
 31
0.0
  0
LINE
  5
62F
330
5FD
100
AcDbEntity
  8
DIM
 62
     0
370
    -2
100
AcDbLine
 10
1317.807654024268
 20
1023.837865335178
 30
0.0
 11
1317.807654024268
 21
1000.837865335178
 31
0.0
  0
SOLID
  5
630
330
5FD
100
AcDbEntity
  8
DIM
 62
     0
100
AcDbTrace
 10
1317.390987357601
 20
1023.837865335178
 30
0.0
 11
1318.224320690935
 21
1023.837865335178
 31
0.0
 12
1317.807654024268
 22
1026.337865335178
 32
0.0
 13
1317.807654024268
 23
1026.337865335178
 33
0.0
  0
SOLID
  5
631
330
5FD
100
AcDbEntity
  8
DIM
 62
     0
100
AcDbTrace
 10
1317.390987357601
 20
1000.837865335178
 30
0.0
 11
1318.224320690935
 21
1000.837865335178
 31
0.0
 12
1317.807654024268
 22
998.3378653351785
 32
0.0
 13
1317.807654024268
 23
998.3378653351785
 33
0.0
  0
MTEXT
  5
632
330
5FD
100
AcDbEntity
  8
DIM
 62
     0
100
AcDbMText
 10
1315.932407961276
 20
1012.337865335179
 30
0.0
 40
2.5
 41
0.0
 71
     5
 72
     1
  1
28HEX.
 11
0.0000000000000001
 21
1.0
 31
0.0
 73
     1
 44
1.0
1001
ACAD
1000
MTEXTBEGIN
1070
    73
1070
     1
1070
    44
1040
1.0
1070
    74
1070
     0
1000
MTEXTEND
  0
POINT
  5
633
330
5FD
100
AcDbEntity
  8
Defpoints
 62
     0
100
AcDbPoint
 10
1291.809171382083
 20
1026.337865335178
 30
0.0
  0
POINT
  5
634
330
5FD
100
AcDbEntity
  8
Defpoints
 62
     0
100
AcDbPoint
 10
1291.809171382083
 20
998.3378653351785
 30
0.0
  0
POINT
  5
635
330
5FD
100
AcDbEntity
  8
Defpoints
 62
     0
100
AcDbPoint
 10
1317.807654024268
 20
998.3378653351785
 30
0.0
  0
ENDBLK
  5
608
330
5FD
100
AcDbEntity
  8
0
100
AcDbBlockEnd
  0
BLOCK
  5
613
330
609
100
AcDbEntity
  8
0
100
AcDbBlockBegin
  2
*D3
 70
     1
 10
0.0
 20
0.0
 30
0.0
  3
*D3
  1

  0
LINE
  5
7C9
330
609
100
AcDbEntity
  8
DIM
 62
     0
370
    -2
100
AcDbLine
 10
1251.601267613428
 20
1028.337865335178
 30
0.0
 11
1246.751343070836
 21
1028.337865335178
 31
0.0
  0
LINE
  5
7CA
330
609
100
AcDbEntity
  8
DIM
 62
     0
370
    -2
100
AcDbLine
 10
1251.601267613428
 20
1020.737865335179
 30
0.0
 11
1246.751343070836
 21
1020.737865335179
 31
0.0
  0
LINE
  5
7CB
330
609
100
AcDbEntity
  8
DIM
 62
     0
370
    -2
100
AcDbLine
 10
1248.001343070836
 20
1025.837865335178
 30
0.0
 11
1248.001343070836
 21
1023.237865335178
 31
0.0
  0
SOLID
  5
7CC
330
609
100
AcDbEntity
  8
DIM
 62
     0
100
AcDbTrace
 10
1247.584676404169
 20
1025.837865335178
 30
0.0
 11
1248.418009737503
 21
1025.837865335178
 31
0.0
 12
1248.001343070836
 22
1028.337865335178
 32
0.0
 13
1248.001343070836
 23
1028.337865335178
 33
0.0
  0
SOLID
  5
7CD
330
609
100
AcDbEntity
  8
DIM
 62
     0
100
AcDbTrace
 10
1247.584676404169
 20
1023.237865335178
 30
0.0
 11
1248.418009737503
 21
1023.237865335178
 31
0.0
 12
1248.001343070836
 22
1020.737865335179
 32
0.0
 13
1248.001343070836
 23
1020.737865335179
 33
0.0
  0
MTEXT
  5
7CE
330
609
100
AcDbEntity
  8
DIM
 62
     0
100
AcDbMText
 10
1245.938843070836
 20
1024.537865335179
 30
0.0
 40
2.5
 41
0.0
 71
     5
 72
     1
  1
7,6
 11
0.0000000000000001
 21
1.0
 31
0.0
 73
     1
 44
1.0
1001
ACAD
1000
MTEXTBEGIN
1070
    73
1070
     1
1070
    44
1040
1.0
1070
    74
1070
     0
1000
MTEXTEND
  0
POINT
  5
7CF
330
609
100
AcDbEntity
  8
Defpoints
 62
     0
100
AcDbPoint
 10
1252.226267613428
 20
1028.337865335178
 30
0.0
  0
POINT
  5
7D0
330
609
100
AcDbEntity
  8
Defpoints
 62
     0
100
AcDbPoint
 10
1252.226267613428
 20
1020.737865335179
 30
0.0
  0
POINT
  5
7D1
330
609
100
AcDbEntity
  8
Defpoints
 62
     0
100
AcDbPoint
 10
1248.001343070836
 20
1020.737865335179
 30
0.0
  0
ENDBLK
  5
614
330
609
100
AcDbEntity
  8
0
100
AcDbBlockEnd
  0
BLOCK
  5
61F
330
615
100
AcDbEntity
  8
0
100
AcDbBlockBegin
  2
*D4
 70
     1
 10
0.0
 20
0.0
 30
0.0
  3
*D4
  1

  0
LINE
  5
63F
330
615
100
AcDbEntity
  8
DIM
 62
     0
370
    -2
100
AcDbLine
 10
1261.726267613427
 20
1021.362865335178
 30
0.0
 11
1261.726267613427
 21
1034.484063146686
 31
0.0
  0
LINE
  5
640
330
615
100
AcDbEntity
  8
DIM
 62
     0
370
    -2
100
AcDbLine
 10
1305.726267613428
 20
1021.462865335182
 30
0.0
 11
1305.726267613428
 21
1034.484063146686
 31
0.0
  0
LINE
  5
641
330
615
100
AcDbEntity
  8
DIM
 62
     0
370
    -2
100
AcDbLine
 10
1264.226267613428
 20
1033.234063146686
 30
0.0
 11
1303.226267613428
 21
1033.234063146686
 31
0.0
  0
SOLID
  5
642
330
615
100
AcDbEntity
  8
DIM
 62
     0
100
AcDbTrace
 10
1264.226267613428
 20
1033.650729813353
 30
0.0
 11
1264.226267613428
 21
1032.81739648002
 31
0.0
 12
1261.726267613427
 22
1033.234063146686
 32
0.0
 13
1261.726267613427
 23
1033.234063146686
 33
0.0
  0
SOLID
  5
643
330
615
100
AcDbEntity
  8
DIM
 62
     0
100
AcDbTrace
 10
1303.226267613428
 20
1033.650729813353
 30
0.0
 11
1303.226267613428
 21
1032.81739648002
 31
0.0
 12
1305.726267613428
 22
1033.234063146686
 32
0.0
 13
1305.726267613428
 23
1033.234063146686
 33
0.0
  0
MTEXT
  5
644
330
615
100
AcDbEntity
  8
DIM
 62
     0
100
AcDbMText
 10
1283.726267613428
 20
1035.109063146686
 30
0.0
 40
2.5
 41
0.0
 71
     5
 72
     1
  1
%%c44
 73
     1
 44
1.0
1001
ACAD
1000
MTEXTBEGIN
1070
    73
1070
     1
1070
    44
1040
1.0
1070
    74
1070
     0
1000
MTEXTEND
  0
POINT
  5
645
330
615
100
AcDbEntity
  8
Defpoints
 62
     0
100
AcDbPoint
 10
1261.726267613427
 20
1020.737865335179
 30
0.0
  0
POINT
  5
646
330
615
100
AcDbEntity
  8
Defpoints
 62
     0
100
AcDbPoint
 10
1305.726267613428
 20
1020.837865335182
 30
0.0
  0
POINT
  5
647
330
615
100
AcDbEntity
  8
Defpoints
 62
     0
100
AcDbPoint
 10
1305.726267613428
 20
1033.234063146686
 30
0.0
  0
ENDBLK
  5
620
330
615
100
AcDbEntity
  8
0
100
AcDbBlockEnd
  0
BLOCK
  5
62B
330
621
100
AcDbEntity
  8
0
100
AcDbBlockBegin
  2
*D5
 70
     1
 10
0.0
 20
0.0
 30
0.0
  3
*D5
  1

  0
LINE
  5
7C0
330
621
100
AcDbEntity
  8
DIM
 62
     0
370
    -2
100
AcDbLine
 10
1201.933809876217
 20
1110.72025355725
 30
0.0
 11
1201.933809876217
 21
1117.479261453829
 31
0.0
  0
LINE
  5
7C1
330
621
100
AcDbEntity
  8
DIM
 62
     0
370
    -2
100
AcDbLine
 10
1218.933809876217
 20
1107.572459211951
 30
0.0
 11
1218.933809876217
 21
1117.479261453829
 31
0.0
  0
LINE
  5
7C2
330
621
100
AcDbEntity
  8
DIM
 62
     0
370
    -2
100
AcDbLine
 10
1204.433809876217
 20
1116.229261453829
 30
0.0
 11
1216.433809876217
 21
1116.229261453829
 31
0.0
  0
SOLID
  5
7C3
330
621
100
AcDbEntity
  8
DIM
 62
     0
100
AcDbTrace
 10
1204.433809876217
 20
1116.645928120496
 30
0.0
 11
1204.433809876217
 21
1115.812594787162
 31
0.0
 12
1201.933809876217
 22
1116.229261453829
 32
0.0
 13
1201.933809876217
 23
1116.229261453829
 33
0.0
  0
SOLID
  5
7C4
330
621
100
AcDbEntity
  8
DIM
 62
     0
100
AcDbTrace
 10
1216.433809876217
 20
1116.645928120496
 30
0.0
 11
1216.433809876217
 21
1115.812594787162
 31
0.0
 12
1218.933809876217
 22
1116.229261453829
 32
0.0
 13
1218.933809876217
 23
1116.229261453829
 33
0.0
  0
MTEXT
  5
7C5
330
621
100
AcDbEntity
  8
DIM
 62
     0
100
AcDbMText
 10
1210.433809876217
 20
1118.104261453829
 30
0.0
 40
2.5
 41
0.0
 71
     5
 72
     1
  1
17
 73
     1
 44
1.0
1001
ACAD
1000
MTEXTBEGIN
1070
    73
1070
     1
1070
    44
1040
1.0
1070
    74
1070
     0
1000
MTEXTEND
  0
POINT
  5
7C6
330
621
100
AcDbEntity
  8
Defpoints
 62
     0
100
AcDbPoint
 10
1201.933809876217
 20
1110.09525355725
 30
0.0
  0
POINT
  5
7C7
330
621
100
AcDbEntity
  8
Defpoints
 62
     0
100
AcDbPoint
 10
1218.933809876217
 20
1106.947459211951
 30
0.0
  0
POINT
  5
7C8
330
621
100
AcDbEntity
  8
Defpoints
 62
     0
100
AcDbPoint
 10
1218.933809876217
 20
1116.229261453829
 30
0.0
  0
ENDBLK
  5
62C
330
621
100
AcDbEntity
  8
0
100
AcDbBlockEnd
  0
BLOCK
  5
652
330
648
100
AcDbEntity
  8
0
100
AcDbBlockBegin
  2
*D6
 70
     1
 10
0.0
 20
0.0
 30
0.0
  3
*D6
  1

  0
LINE
  5
79A
330
648
100
AcDbEntity
  8
DIM
 62
     0
370
    -2
100
AcDbLine
 10
1173.933809876217
 20
1112.698530461862
 30
0.0
 11
1173.933809876217
 21
1117.479261453829
 31
0.0
  0
LINE
  5
79B
330
648
100
AcDbEntity
  8
DIM
 62
     0
370
    -2
100
AcDbLine
 10
1201.933809876217
 20
1112.698530461862
 30
0.0
 11
1201.933809876217
 21
1117.479261453829
 31
0.0
  0
LINE
  5
79C
330
648
100
AcDbEntity
  8
DIM
 62
     0
370
    -2
100
AcDbLine
 10
1176.433809876217
 20
1116.229261453829
 30
0.0
 11
1199.433809876217
 21
1116.229261453829
 31
0.0
  0
SOLID
  5
79D
330
648
100
AcDbEntity
  8
DIM
 62
     0
100
AcDbTrace
 10
1176.433809876217
 20
1116.645928120496
 30
0.0
 11
1176.433809876217
 21
1115.812594787162
 31
0.0
 12
1173.933809876217
 22
1116.229261453829
 32
0.0
 13
1173.933809876217
 23
1116.229261453829
 33
0.0
  0
SOLID
  5
79E
330
648
100
AcDbEntity
  8
DIM
 62
     0
100
AcDbTrace
 10
1199.433809876217
 20
1116.645928120496
 30
0.0
 11
1199.433809876217
 21
1115.812594787162
 31
0.0
 12
1201.933809876217
 22
1116.229261453829
 32
0.0
 13
1201.933809876217
 23
1116.229261453829
 33
0.0
  0
MTEXT
  5
79F
330
648
100
AcDbEntity
  8
DIM
 62
     0
100
AcDbMText
 10
1187.892675563456
 20
1118.104507516821
 30
0.0
 40
2.5
 41
0.0
 71
     5
 72
     1
  1
28
 73
     1
 44
1.0
1001
ACAD
1000
MTEXTBEGIN
1070
    73
1070
     1
1070
    44
1040
1.0
1070
    74
1070
     0
1000
MTEXTEND
  0
POINT
  5
7A0
330
648
100
AcDbEntity
  8
Defpoints
 62
     0
100
AcDbPoint
 10
1173.933809876217
 20
1112.073530461862
 30
0.0
  0
POINT
  5
7A1
330
648
100
AcDbEntity
  8
Defpoints
 62
     0
100
AcDbPoint
 10
1201.933809876217
 20
1112.073530461862
 30
0.0
  0
POINT
  5
7A2
330
648
100
AcDbEntity
  8
Defpoints
 62
     0
100
AcDbPoint
 10
1201.933809876217
 20
1116.229261453829
 30
0.0
  0
ENDBLK
  5
653
330
648
100
AcDbEntity
  8
0
100
AcDbBlockEnd
  0
BLOCK
  5
667
330
65D
100
AcDbEntity
  8
0
100
AcDbBlockBegin
  2
*D7
 70
     1
 10
0.0
 20
0.0
 30
0.0
  3
*D7
  1

  0
LINE
  5
77D
330
65D
100
AcDbEntity
  8
DIM
 62
     0
370
    -2
100
AcDbLine
 10
1166.433809876216
 20
1103.276461765297
 30
0.0
 11
1166.433809876216
 21
1123.52467428936
 31
0.0
  0
LINE
  5
77E
330
65D
100
AcDbEntity
  8
DIM
 62
     0
370
    -2
100
AcDbLine
 10
1201.933809876217
 20
1112.598460209913
 30
0.0
 11
1201.933809876217
 21
1123.52467428936
 31
0.0
  0
LINE
  5
77F
330
65D
100
AcDbEntity
  8
DIM
 62
     0
370
    -2
100
AcDbLine
 10
1168.933809876216
 20
1122.274674289361
 30
0.0
 11
1199.433809876217
 21
1122.274674289361
 31
0.0
  0
SOLID
  5
780
330
65D
100
AcDbEntity
  8
DIM
 62
     0
100
AcDbTrace
 10
1168.933809876216
 20
1122.691340956027
 30
0.0
 11
1168.933809876216
 21
1121.858007622694
 31
0.0
 12
1166.433809876216
 22
1122.274674289361
 32
0.0
 13
1166.433809876216
 23
1122.274674289361
 33
0.0
  0
SOLID
  5
781
330
65D
100
AcDbEntity
  8
DIM
 62
     0
100
AcDbTrace
 10
1199.433809876217
 20
1122.691340956027
 30
0.0
 11
1199.433809876217
 21
1121.858007622694
 31
0.0
 12
1201.933809876217
 22
1122.274674289361
 32
0.0
 13
1201.933809876217
 23
1122.274674289361
 33
0.0
  0
MTEXT
  5
782
330
65D
100
AcDbEntity
  8
DIM
 62
     0
100
AcDbMText
 10
1184.435373493379
 20
1124.337174289361
 30
0.0
 40
2.5
 41
0.0
 71
     5
 72
     1
  1
35,5
 73
     1
 44
1.0
1001
ACAD
1000
MTEXTBEGIN
1070
    73
1070
     1
1070
    44
1040
1.0
1070
    74
1070
     0
1000
MTEXTEND
  0
POINT
  5
783
330
65D
100
AcDbEntity
  8
Defpoints
 62
     0
100
AcDbPoint
 10
1166.433809876216
 20
1102.651461765297
 30
0.0
  0
POINT
  5
784
330
65D
100
AcDbEntity
  8
Defpoints
 62
     0
100
AcDbPoint
 10
1201.933809876217
 20
1111.973460209914
 30
0.0
  0
POINT
  5
785
330
65D
100
AcDbEntity
  8
Defpoints
 62
     0
100
AcDbPoint
 10
1201.933809876217
 20
1122.274674289361
 30
0.0
  0
ENDBLK
  5
668
330
65D
100
AcDbEntity
  8
0
100
AcDbBlockEnd
  0
BLOCK
  5
673
330
669
100
AcDbEntity
  8
0
100
AcDbBlockBegin
  2
*D8
 70
     1
 10
0.0
 20
0.0
 30
0.0
  3
*D8
  1

  0
LINE
  5
7AD
330
669
100
AcDbEntity
  8
DIM
 62
     0
370
    -2
100
AcDbLine
 10
1201.933809876217
 20
1114.57331471554
 30
0.0
 11
1201.933809876217
 21
1123.52467428936
 31
0.0
  0
LINE
  5
7AE
330
669
100
AcDbEntity
  8
DIM
 62
     0
370
    -2
100
AcDbLine
 10
1226.433809876217
 20
1103.276461765297
 30
0.0
 11
1226.433809876217
 21
1123.52467428936
 31
0.0
  0
LINE
  5
7AF
330
669
100
AcDbEntity
  8
DIM
 62
     0
370
    -2
100
AcDbLine
 10
1204.433809876217
 20
1122.274674289361
 30
0.0
 11
1223.933809876217
 21
1122.274674289361
 31
0.0
  0
SOLID
  5
7B0
330
669
100
AcDbEntity
  8
DIM
 62
     0
100
AcDbTrace
 10
1204.433809876217
 20
1122.691340956027
 30
0.0
 11
1204.433809876217
 21
1121.858007622694
 31
0.0
 12
1201.933809876217
 22
1122.274674289361
 32
0.0
 13
1201.933809876217
 23
1122.274674289361
 33
0.0
  0
SOLID
  5
7B1
330
669
100
AcDbEntity
  8
DIM
 62
     0
100
AcDbTrace
 10
1223.933809876217
 20
1122.691340956027
 30
0.0
 11
1223.933809876217
 21
1121.858007622694
 31
0.0
 12
1226.433809876217
 22
1122.274674289361
 32
0.0
 13
1226.433809876217
 23
1122.274674289361
 33
0.0
  0
MTEXT
  5
7B2
330
669
100
AcDbEntity
  8
DIM
 62
     0
100
AcDbMText
 10
1214.183809876217
 20
1124.337420352353
 30
0.0
 40
2.5
 41
0.0
 71
     5
 72
     1
  1
24,5
 73
     1
 44
1.0
1001
ACAD
1000
MTEXTBEGIN
1070
    73
1070
     1
1070
    44
1040
1.0
1070
    74
1070
     0
1000
MTEXTEND
  0
POINT
  5
7B3
330
669
100
AcDbEntity
  8
Defpoints
 62
     0
100
AcDbPoint
 10
1201.933809876217
 20
1113.94831471554
 30
0.0
  0
POINT
  5
7B4
330
669
100
AcDbEntity
  8
Defpoints
 62
     0
100
AcDbPoint
 10
1226.433809876217
 20
1102.651461765297
 30
0.0
  0
POINT
  5
7B5
330
669
100
AcDbEntity
  8
Defpoints
 62
     0
100
AcDbPoint
 10
1226.433809876217
 20
1122.274674289361
 30
0.0
  0
ENDBLK
  5
674
330
669
100
AcDbEntity
  8
0
100
AcDbBlockEnd
  0
BLOCK
  5
67F
330
675
100
AcDbEntity
  8
0
100
AcDbBlockBegin
  2
*D9
 70
     1
 10
0.0
 20
0.0
 30
0.0
  3
*D9
  1

  0
LINE
  5
676
330
675
100
AcDbEntity
  8
DIM
 62
     0
370
    -2
100
AcDbLine
 10
1244.653510136895
 20
1078.654866290567
 30
0.0
 11
1248.286442096982
 21
1078.654866290567
 31
0.0
  0
LINE
  5
677
330
675
100
AcDbEntity
  8
DIM
 62
     0
370
    -2
100
AcDbLine
 10
1223.856465947652
 20
1054.651461765298
 30
0.0
 11
1248.286442096982
 21
1054.651461765298
 31
0.0
  0
LINE
  5
678
330
675
100
AcDbEntity
  8
DIM
 62
     0
370
    -2
100
AcDbLine
 10
1247.036442096981
 20
1076.154866290567
 30
0.0
 11
1247.036442096981
 21
1057.151461765298
 31
0.0
  0
SOLID
  5
679
330
675
100
AcDbEntity
  8
DIM
 62
     0
100
AcDbTrace
 10
1246.619775430315
 20
1076.154866290567
 30
0.0
 11
1247.453108763648
 21
1076.154866290567
 31
0.0
 12
1247.036442096981
 22
1078.654866290567
 32
0.0
 13
1247.036442096981
 23
1078.654866290567
 33
0.0
  0
SOLID
  5
67A
330
675
100
AcDbEntity
  8
DIM
 62
     0
100
AcDbTrace
 10
1246.619775430315
 20
1057.151461765298
 30
0.0
 11
1247.453108763648
 21
1057.151461765298
 31
0.0
 12
1247.036442096981
 22
1054.651461765298
 32
0.0
 13
1247.036442096981
 23
1054.651461765298
 33
0.0
  0
MTEXT
  5
67B
330
675
100
AcDbEntity
  8
DIM
 62
     0
100
AcDbMText
 10
1245.161196033989
 20
1066.653164027933
 30
0.0
 40
2.5
 41
0.0
 71
     5
 72
     1
  1
24
 11
0.0000000000000001
 21
1.0
 31
0.0
 73
     1
 44
1.0
1001
ACAD
1000
MTEXTBEGIN
1070
    73
1070
     1
1070
    44
1040
1.0
1070
    74
1070
     0
1000
MTEXTEND
  0
POINT
  5
67C
330
675
100
AcDbEntity
  8
Defpoints
 62
     0
100
AcDbPoint
 10
1244.028510136895
 20
1078.654866290567
 30
0.0
  0
POINT
  5
67D
330
675
100
AcDbEntity
  8
Defpoints
 62
     0
100
AcDbPoint
 10
1223.231465947652
 20
1054.651461765298
 30
0.0
  0
POINT
  5
67E
330
675
100
AcDbEntity
  8
Defpoints
 62
     0
100
AcDbPoint
 10
1247.036442096981
 20
1054.651461765298
 30
0.0
  0
ENDBLK
  5
680
330
675
100
AcDbEntity
  8
0
100
AcDbBlockEnd
  0
BLOCK
  5
68B
330
681
100
AcDbEntity
  8
0
100
AcDbBlockBegin
  2
*D10
 70
     1
 10
0.0
 20
0.0
 30
0.0
  3
*D10
  1

  0
LINE
  5
682
330
681
100
AcDbEntity
  8
DIM
 62
     0
370
    -2
100
AcDbLine
 10
1223.856465947652
 20
1102.651461765298
 30
0.0
 11
1253.509355618614
 21
1102.651461765298
 31
0.0
  0
LINE
  5
683
330
681
100
AcDbEntity
  8
DIM
 62
     0
370
    -2
100
AcDbLine
 10
1223.856465947652
 20
1054.651461765298
 30
0.0
 11
1253.509355618614
 21
1054.651461765298
 31
0.0
  0
LINE
  5
684
330
681
100
AcDbEntity
  8
DIM
 62
     0
370
    -2
100
AcDbLine
 10
1252.259355618614
 20
1100.151461765298
 30
0.0
 11
1252.259355618614
 21
1057.151461765298
 31
0.0
  0
SOLID
  5
685
330
681
100
AcDbEntity
  8
DIM
 62
     0
100
AcDbTrace
 10
1251.842688951948
 20
1100.151461765298
 30
0.0
 11
1252.676022285281
 21
1100.151461765298
 31
0.0
 12
1252.259355618614
 22
1102.651461765298
 32
0.0
 13
1252.259355618614
 23
1102.651461765298
 33
0.0
  0
SOLID
  5
686
330
681
100
AcDbEntity
  8
DIM
 62
     0
100
AcDbTrace
 10
1251.842688951948
 20
1057.151461765298
 30
0.0
 11
1252.676022285281
 21
1057.151461765298
 31
0.0
 12
1252.259355618614
 22
1054.651461765298
 32
0.0
 13
1252.259355618614
 23
1054.651461765298
 33
0.0
  0
MTEXT
  5
687
330
681
100
AcDbEntity
  8
DIM
 62
     0
100
AcDbMText
 10
1250.384355618614
 20
1078.651461765298
 30
0.0
 40
2.5
 41
0.0
 71
     5
 72
     1
  1
48
 11
0.0000000000000001
 21
1.0
 31
0.0
 73
     1
 44
1.0
1001
ACAD
1000
MTEXTBEGIN
1070
    73
1070
     1
1070
    44
1040
1.0
1070
    74
1070
     0
1000
MTEXTEND
  0
POINT
  5
688
330
681
100
AcDbEntity
  8
Defpoints
 62
     0
100
AcDbPoint
 10
1223.231465947652
 20
1102.651461765298
 30
0.0
  0
POINT
  5
689
330
681
100
AcDbEntity
  8
Defpoints
 62
     0
100
AcDbPoint
 10
1223.231465947652
 20
1054.651461765298
 30
0.0
  0
POINT
  5
68A
330
681
100
AcDbEntity
  8
Defpoints
 62
     0
100
AcDbPoint
 10
1252.259355618614
 20
1054.651461765298
 30
0.0
  0
ENDBLK
  5
68C
330
681
100
AcDbEntity
  8
0
100
AcDbBlockEnd
  0
BLOCK
  5
697
330
68D
100
AcDbEntity
  8
0
100
AcDbBlockBegin
  2
*D11
 70
     1
 10
0.0
 20
0.0
 30
0.0
  3
*D11
  1

  0
LINE
  5
705
330
68D
100
AcDbEntity
  8
DIM
 62
     0
370
    -2
100
AcDbLine
 10
1219.558809876217
 20
1110.151461765298
 30
0.0
 11
1258.044581261205
 21
1110.151461765298
 31
0.0
  0
LINE
  5
706
330
68D
100
AcDbEntity
  8
DIM
 62
     0
370
    -2
100
AcDbLine
 10
1219.558809876216
 20
1047.151461765298
 30
0.0
 11
1258.044581261205
 21
1047.151461765298
 31
0.0
  0
LINE
  5
707
330
68D
100
AcDbEntity
  8
DIM
 62
     0
370
    -2
100
AcDbLine
 10
1256.794581261205
 20
1107.651461765298
 30
0.0
 11
1256.794581261205
 21
1049.651461765298
 31
0.0
  0
SOLID
  5
708
330
68D
100
AcDbEntity
  8
DIM
 62
     0
100
AcDbTrace
 10
1256.377914594538
 20
1107.651461765298
 30
0.0
 11
1257.211247927872
 21
1107.651461765298
 31
0.0
 12
1256.794581261205
 22
1110.151461765298
 32
0.0
 13
1256.794581261205
 23
1110.151461765298
 33
0.0
  0
SOLID
  5
709
330
68D
100
AcDbEntity
  8
DIM
 62
     0
100
AcDbTrace
 10
1256.377914594538
 20
1049.651461765298
 30
0.0
 11
1257.211247927872
 21
1049.651461765298
 31
0.0
 12
1256.794581261205
 22
1047.151461765298
 32
0.0
 13
1256.794581261205
 23
1047.151461765298
 33
0.0
  0
MTEXT
  5
70A
330
68D
100
AcDbEntity
  8
DIM
 62
     0
100
AcDbMText
 10
1254.919581261205
 20
1078.651461765298
 30
0.0
 40
2.5
 41
0.0
 71
     5
 72
     1
  1
63
 11
0.0000000000000001
 21
1.0
 31
0.0
 73
     1
 44
1.0
1001
ACAD
1000
MTEXTBEGIN
1070
    73
1070
     1
1070
    44
1040
1.0
1070
    74
1070
     0
1000
MTEXTEND
  0
POINT
  5
70B
330
68D
100
AcDbEntity
  8
Defpoints
 62
     0
100
AcDbPoint
 10
1218.933809876217
 20
1110.151461765298
 30
0.0
  0
POINT
  5
70C
330
68D
100
AcDbEntity
  8
Defpoints
 62
     0
100
AcDbPoint
 10
1218.933809876216
 20
1047.151461765298
 30
0.0
  0
POINT
  5
70D
330
68D
100
AcDbEntity
  8
Defpoints
 62
     0
100
AcDbPoint
 10
1256.794581261205
 20
1047.151461765298
 30
0.0
  0
ENDBLK
  5
698
330
68D
100
AcDbEntity
  8
0
100
AcDbBlockEnd
  0
BLOCK
  5
6A3
330
699
100
AcDbEntity
  8
0
100
AcDbBlockBegin
  2
*D12
 70
     1
 10
0.0
 20
0.0
 30
0.0
  3
*D12
  1

  0
LINE
  5
69A
330
699
100
AcDbEntity
  8
DIM
 62
     0
370
    -2
100
AcDbLine
 10
1264.826267613428
 20
1000.712865335178
 30
0.0
 11
1264.826267613428
 21
990.7477186514535
 31
0.0
  0
LINE
  5
69B
330
699
100
AcDbEntity
  8
DIM
 62
     0
370
    -2
100
AcDbLine
 10
1283.726267613428
 20
995.5151315429498
 30
0.0
 11
1283.726267613428
 21
990.7477186514535
 31
0.0
  0
LINE
  5
69C
330
699
100
AcDbEntity
  8
DIM
 62
     0
370
    -2
100
AcDbLine
 10
1267.326267613428
 20
991.9977186514534
 30
0.0
 11
1281.226267613428
 21
991.9977186514534
 31
0.0
  0
SOLID
  5
69D
330
699
100
AcDbEntity
  8
DIM
 62
     0
100
AcDbTrace
 10
1267.326267613428
 20
992.4143853181201
 30
0.0
 11
1267.326267613428
 21
991.5810519847868
 31
0.0
 12
1264.826267613428
 22
991.9977186514534
 32
0.0
 13
1264.826267613428
 23
991.9977186514534
 33
0.0
  0
SOLID
  5
69E
330
699
100
AcDbEntity
  8
DIM
 62
     0
100
AcDbTrace
 10
1281.226267613428
 20
992.4143853181201
 30
0.0
 11
1281.226267613428
 21
991.5810519847868
 31
0.0
 12
1283.726267613428
 22
991.9977186514534
 32
0.0
 13
1283.726267613428
 23
991.9977186514534
 33
0.0
  0
MTEXT
  5
69F
330
699
100
AcDbEntity
  8
DIM
 62
     0
100
AcDbMText
 10
1274.276267613428
 20
994.0602186514535
 30
0.0
 40
2.5
 41
0.0
 71
     5
 72
     1
  1
18,9
 73
     1
 44
1.0
1001
ACAD
1000
MTEXTBEGIN
1070
    73
1070
     1
1070
    44
1040
1.0
1070
    74
1070
     0
1000
MTEXTEND
  0
POINT
  5
6A0
330
699
100
AcDbEntity
  8
Defpoints
 62
     0
100
AcDbPoint
 10
1264.826267613428
 20
1001.337865335178
 30
0.0
  0
POINT
  5
6A1
330
699
100
AcDbEntity
  8
Defpoints
 62
     0
100
AcDbPoint
 10
1283.726267613428
 20
996.1401315429498
 30
0.0
  0
POINT
  5
6A2
330
699
100
AcDbEntity
  8
Defpoints
 62
     0
100
AcDbPoint
 10
1283.726267613428
 20
991.9977186514534
 30
0.0
  0
ENDBLK
  5
6A4
330
699
100
AcDbEntity
  8
0
100
AcDbBlockEnd
  0
BLOCK
  5
6AF
330
6A5
100
AcDbEntity
  8
0
100
AcDbBlockBegin
  2
*D13
 70
     1
 10
0.0
 20
0.0
 30
0.0
  3
*D13
  1

  0
LINE
  5
809
330
6A5
100
AcDbEntity
  8
DIM
 62
     0
370
    -2
100
AcDbLine
 10
1154.933809876217
 20
998.712865335179
 30
0.0
 11
1154.933809876217
 21
990.7477186514535
 31
0.0
  0
LINE
  5
80A
330
6A5
100
AcDbEntity
  8
DIM
 62
     0
370
    -2
100
AcDbLine
 10
1177.433809876217
 20
998.712865335179
 30
0.0
 11
1177.433809876217
 21
990.7477186514535
 31
0.0
  0
LINE
  5
80B
330
6A5
100
AcDbEntity
  8
DIM
 62
     0
370
    -2
100
AcDbLine
 10
1157.433809876217
 20
991.9977186514534
 30
0.0
 11
1174.933809876216
 21
991.9977186514534
 31
0.0
  0
SOLID
  5
80C
330
6A5
100
AcDbEntity
  8
DIM
 62
     0
100
AcDbTrace
 10
1157.433809876217
 20
992.4143853181201
 30
0.0
 11
1157.433809876217
 21
991.5810519847868
 31
0.0
 12
1154.933809876217
 22
991.9977186514534
 32
0.0
 13
1154.933809876217
 23
991.9977186514534
 33
0.0
  0
SOLID
  5
80D
330
6A5
100
AcDbEntity
  8
DIM
 62
     0
100
AcDbTrace
 10
1174.933809876216
 20
992.4143853181201
 30
0.0
 11
1174.933809876216
 21
991.5810519847868
 31
0.0
 12
1177.433809876217
 22
991.9977186514534
 32
0.0
 13
1177.433809876217
 23
991.9977186514534
 33
0.0
  0
MTEXT
  5
80E
330
6A5
100
AcDbEntity
  8
DIM
 62
     0
100
AcDbMText
 10
1166.183809876217
 20
994.0604647144455
 30
0.0
 40
2.5
 41
0.0
 71
     5
 72
     1
  1
22,5
 73
     1
 44
1.0
1001
ACAD
1000
MTEXTBEGIN
1070
    73
1070
     1
1070
    44
1040
1.0
1070
    74
1070
     0
1000
MTEXTEND
  0
POINT
  5
80F
330
6A5
100
AcDbEntity
  8
Defpoints
 62
     0
100
AcDbPoint
 10
1154.933809876217
 20
999.3378653351792
 30
0.0
  0
POINT
  5
810
330
6A5
100
AcDbEntity
  8
Defpoints
 62
     0
100
AcDbPoint
 10
1177.433809876217
 20
999.3378653351792
 30
0.0
  0
POINT
  5
811
330
6A5
100
AcDbEntity
  8
Defpoints
 62
     0
100
AcDbPoint
 10
1177.433809876217
 20
991.9977186514534
 30
0.0
  0
ENDBLK
  5
6B0
330
6A5
100
AcDbEntity
  8
0
100
AcDbBlockEnd
  0
BLOCK
  5
6BB
330
6B1
100
AcDbEntity
  8
0
100
AcDbBlockBegin
  2
*D14
 70
     1
 10
0.0
 20
0.0
 30
0.0
  3
*D14
  1

  0
LINE
  5
800
330
6B1
100
AcDbEntity
  8
DIM
 62
     0
370
    -2
100
AcDbLine
 10
1177.433809876217
 20
998.7128653351785
 30
0.0
 11
1177.433809876217
 21
990.7477186514535
 31
0.0
  0
LINE
  5
801
330
6B1
100
AcDbEntity
  8
DIM
 62
     0
370
    -2
100
AcDbLine
 10
1220.933809876213
 20
998.712865335179
 30
0.0
 11
1220.933809876213
 21
990.7477186514535
 31
0.0
  0
LINE
  5
802
330
6B1
100
AcDbEntity
  8
DIM
 62
     0
370
    -2
100
AcDbLine
 10
1179.933809876217
 20
991.9977186514534
 30
0.0
 11
1218.433809876213
 21
991.9977186514534
 31
0.0
  0
SOLID
  5
803
330
6B1
100
AcDbEntity
  8
DIM
 62
     0
100
AcDbTrace
 10
1179.933809876217
 20
992.4143853181201
 30
0.0
 11
1179.933809876217
 21
991.5810519847868
 31
0.0
 12
1177.433809876217
 22
991.9977186514534
 32
0.0
 13
1177.433809876217
 23
991.9977186514534
 33
0.0
  0
SOLID
  5
804
330
6B1
100
AcDbEntity
  8
DIM
 62
     0
100
AcDbTrace
 10
1218.433809876213
 20
992.4143853181201
 30
0.0
 11
1218.433809876213
 21
991.5810519847868
 31
0.0
 12
1220.933809876213
 22
991.9977186514534
 32
0.0
 13
1220.933809876213
 23
991.9977186514534
 33
0.0
  0
MTEXT
  5
805
330
6B1
100
AcDbEntity
  8
DIM
 62
     0
100
AcDbMText
 10
1199.183809876215
 20
994.0602186514535
 30
0.0
 40
2.5
 41
0.0
 71
     5
 72
     1
  1
43,5
 73
     1
 44
1.0
1001
ACAD
1000
MTEXTBEGIN
1070
    73
1070
     1
1070
    44
1040
1.0
1070
    74
1070
     0
1000
MTEXTEND
  0
POINT
  5
806
330
6B1
100
AcDbEntity
  8
Defpoints
 62
     0
100
AcDbPoint
 10
1177.433809876217
 20
999.3378653351784
 30
0.0
  0
POINT
  5
807
330
6B1
100
AcDbEntity
  8
Defpoints
 62
     0
100
AcDbPoint
 10
1220.933809876213
 20
999.3378653351792
 30
0.0
  0
POINT
  5
808
330
6B1
100
AcDbEntity
  8
Defpoints
 62
     0
100
AcDbPoint
 10
1220.933809876213
 20
991.9977186514534
 30
0.0
  0
ENDBLK
  5
6BC
330
6B1
100
AcDbEntity
  8
0
100
AcDbBlockEnd
  0
BLOCK
  5
6C7
330
6BD
100
AcDbEntity
  8
0
100
AcDbBlockBegin
  2
*D15
 70
     1
 10
0.0
 20
0.0
 30
0.0
  3
*D15
  1

  0
LINE
  5
7F7
330
6BD
100
AcDbEntity
  8
DIM
 62
     0
370
    -2
100
AcDbLine
 10
1220.933809876217
 20
998.712865335173
 30
0.0
 11
1220.933809876217
 21
990.7477186514535
 31
0.0
  0
LINE
  5
7F8
330
6BD
100
AcDbEntity
  8
DIM
 62
     0
370
    -2
100
AcDbLine
 10
1238.933809876217
 20
998.712865335179
 30
0.0
 11
1238.933809876217
 21
990.7477186514535
 31
0.0
  0
LINE
  5
7F9
330
6BD
100
AcDbEntity
  8
DIM
 62
     0
370
    -2
100
AcDbLine
 10
1223.433809876217
 20
991.9977186514534
 30
0.0
 11
1236.433809876217
 21
991.9977186514534
 31
0.0
  0
SOLID
  5
7FA
330
6BD
100
AcDbEntity
  8
DIM
 62
     0
100
AcDbTrace
 10
1223.433809876217
 20
992.4143853181201
 30
0.0
 11
1223.433809876217
 21
991.5810519847868
 31
0.0
 12
1220.933809876217
 22
991.9977186514534
 32
0.0
 13
1220.933809876217
 23
991.9977186514534
 33
0.0
  0
SOLID
  5
7FB
330
6BD
100
AcDbEntity
  8
DIM
 62
     0
100
AcDbTrace
 10
1236.433809876217
 20
992.4143853181201
 30
0.0
 11
1236.433809876217
 21
991.5810519847868
 31
0.0
 12
1238.933809876217
 22
991.9977186514534
 32
0.0
 13
1238.933809876217
 23
991.9977186514534
 33
0.0
  0
MTEXT
  5
7FC
330
6BD
100
AcDbEntity
  8
DIM
 62
     0
100
AcDbMText
 10
1229.933809876217
 20
993.8727186514535
 30
0.0
 40
2.5
 41
0.0
 71
     5
 72
     1
  1
18
 73
     1
 44
1.0
1001
ACAD
1000
MTEXTBEGIN
1070
    73
1070
     1
1070
    44
1040
1.0
1070
    74
1070
     0
1000
MTEXTEND
  0
POINT
  5
7FD
330
6BD
100
AcDbEntity
  8
Defpoints
 62
     0
100
AcDbPoint
 10
1220.933809876217
 20
999.3378653351729
 30
0.0
  0
POINT
  5
7FE
330
6BD
100
AcDbEntity
  8
Defpoints
 62
     0
100
AcDbPoint
 10
1238.933809876217
 20
999.337865335179
 30
0.0
  0
POINT
  5
7FF
330
6BD
100
AcDbEntity
  8
Defpoints
 62
     0
100
AcDbPoint
 10
1238.933809876217
 20
991.9977186514534
 30
0.0
  0
ENDBLK
  5
6C8
330
6BD
100
AcDbEntity
  8
0
100
AcDbBlockEnd
  0
BLOCK
  5
6D3
330
6C9
100
AcDbEntity
  8
0
100
AcDbBlockBegin
  2
*D16
 70
     1
 10
0.0
 20
0.0
 30
0.0
  3
*D16
  1

  0
LINE
  5
7D2
330
6C9
100
AcDbEntity
  8
DIM
 62
     0
370
    -2
100
AcDbLine
 10
1154.933809876217
 20
998.7128653351785
 30
0.0
 11
1154.933809876217
 21
983.4540653370325
 31
0.0
  0
LINE
  5
7D3
330
6C9
100
AcDbEntity
  8
DIM
 62
     0
370
    -2
100
AcDbLine
 10
1238.933809876217
 20
998.712865335179
 30
0.0
 11
1238.933809876217
 21
983.4540653370325
 31
0.0
  0
LINE
  5
7D4
330
6C9
100
AcDbEntity
  8
DIM
 62
     0
370
    -2
100
AcDbLine
 10
1157.433809876217
 20
984.7040653370324
 30
0.0
 11
1236.433809876217
 21
984.7040653370324
 31
0.0
  0
SOLID
  5
7D5
330
6C9
100
AcDbEntity
  8
DIM
 62
     0
100
AcDbTrace
 10
1157.433809876217
 20
985.1207320036991
 30
0.0
 11
1157.433809876217
 21
984.2873986703658
 31
0.0
 12
1154.933809876217
 22
984.7040653370324
 32
0.0
 13
1154.933809876217
 23
984.7040653370324
 33
0.0
  0
SOLID
  5
7D6
330
6C9
100
AcDbEntity
  8
DIM
 62
     0
100
AcDbTrace
 10
1236.433809876217
 20
985.1207320036991
 30
0.0
 11
1236.433809876217
 21
984.2873986703658
 31
0.0
 12
1238.933809876217
 22
984.7040653370324
 32
0.0
 13
1238.933809876217
 23
984.7040653370324
 33
0.0
  0
MTEXT
  5
7D7
330
6C9
100
AcDbEntity
  8
DIM
 62
     0
100
AcDbMText
 10
1196.801252369366
 20
986.5790653370325
 30
0.0
 40
2.5
 41
0.0
 71
     5
 72
     1
  1
84
 73
     1
 44
1.0
1001
ACAD
1000
MTEXTBEGIN
1070
    73
1070
     1
1070
    44
1040
1.0
1070
    74
1070
     0
1000
MTEXTEND
  0
POINT
  5
7D8
330
6C9
100
AcDbEntity
  8
Defpoints
 62
     0
100
AcDbPoint
 10
1154.933809876217
 20
999.3378653351784
 30
0.0
  0
POINT
  5
7D9
330
6C9
100
AcDbEntity
  8
Defpoints
 62
     0
100
AcDbPoint
 10
1238.933809876217
 20
999.3378653351792
 30
0.0
  0
POINT
  5
7DA
330
6C9
100
AcDbEntity
  8
Defpoints
 62
     0
100
AcDbPoint
 10
1238.933809876217
 20
984.7040653370324
 30
0.0
  0
ENDBLK
  5
6D4
330
6C9
100
AcDbEntity
  8
0
100
AcDbBlockEnd
  0
BLOCK
  5
6DF
330
6D5
100
AcDbEntity
  8
0
100
AcDbBlockBegin
  2
*D17
 70
     1
 10
0.0
 20
0.0
 30
0.0
  3
*D17
  1

  0
LINE
  5
774
330
6D5
100
AcDbEntity
  8
DIM
 62
     0
370
    -2
100
AcDbLine
 10
1166.433809876216
 20
1103.276461765297
 30
0.0
 11
1166.433809876216
 21
1130.565681238968
 31
0.0
  0
LINE
  5
775
330
6D5
100
AcDbEntity
  8
DIM
 62
     0
370
    -2
100
AcDbLine
 10
1226.433809876217
 20
1103.276461765296
 30
0.0
 11
1226.433809876217
 21
1130.565681238968
 31
0.0
  0
LINE
  5
776
330
6D5
100
AcDbEntity
  8
DIM
 62
     0
370
    -2
100
AcDbLine
 10
1168.933809876216
 20
1129.315681238967
 30
0.0
 11
1223.933809876217
 21
1129.315681238967
 31
0.0
  0
SOLID
  5
777
330
6D5
100
AcDbEntity
  8
DIM
 62
     0
100
AcDbTrace
 10
1168.933809876216
 20
1129.732347905634
 30
0.0
 11
1168.933809876216
 21
1128.899014572301
 31
0.0
 12
1166.433809876216
 22
1129.315681238967
 32
0.0
 13
1166.433809876216
 23
1129.315681238967
 33
0.0
  0
SOLID
  5
778
330
6D5
100
AcDbEntity
  8
DIM
 62
     0
100
AcDbTrace
 10
1223.933809876217
 20
1129.732347905634
 30
0.0
 11
1223.933809876217
 21
1128.899014572301
 31
0.0
 12
1226.433809876217
 22
1129.315681238967
 32
0.0
 13
1226.433809876217
 23
1129.315681238967
 33
0.0
  0
MTEXT
  5
779
330
6D5
100
AcDbEntity
  8
DIM
 62
     0
100
AcDbMText
 10
1197.624332989149
 20
1131.190681238968
 30
0.0
 40
2.5
 41
0.0
 71
     5
 72
     1
  1
60
 73
     1
 44
1.0
1001
ACAD
1000
MTEXTBEGIN
1070
    73
1070
     1
1070
    44
1040
1.0
1070
    74
1070
     0
1000
MTEXTEND
  0
POINT
  5
77A
330
6D5
100
AcDbEntity
  8
Defpoints
 62
     0
100
AcDbPoint
 10
1166.433809876216
 20
1102.651461765297
 30
0.0
  0
POINT
  5
77B
330
6D5
100
AcDbEntity
  8
Defpoints
 62
     0
100
AcDbPoint
 10
1226.433809876217
 20
1102.651461765296
 30
0.0
  0
POINT
  5
77C
330
6D5
100
AcDbEntity
  8
Defpoints
 62
     0
100
AcDbPoint
 10
1226.433809876217
 20
1129.315681238967
 30
0.0
  0
ENDBLK
  5
6E0
330
6D5
100
AcDbEntity
  8
0
100
AcDbBlockEnd
  0
ENDSEC
  0
SECTION
  2
ENTITIES
  0
TEXT
  5
472
330
1F
100
AcDbEntity
  8
LOGO
 62
     7
100
AcDbText
 10
1198.161016960676
 20
945.8330980998685
 30
0.0
 40
5.634368956264587
  1
訂購代號:
  7
CHINESET
100
AcDbText
  0
TEXT
  5
473
330
1F
100
AcDbEntity
  8
LOGO
 62
     7
100
AcDbText
 10
1197.487115370616
 20
940.5450815135734
 30
0.0
 40
3.756245970843058
  1
Order example:
 41
0.8
  7
CHINESET
100
AcDbText
  0
LINE
  5
474
330
1F
100
AcDbEntity
  8
LOGO
 62
     4
100
AcDbLine
 10
1255.263488762233
 20
927.0624962778228
 30
0.0
 11
1236.482258908017
 21
927.0624962778228
 31
0.0
  0
LINE
  5
475
330
1F
100
AcDbEntity
  8
LOGO
 62
     4
100
AcDbLine
 10
1255.263488762233
 20
937.392172697641
 30
0.0
 11
1236.482258908017
 21
937.392172697641
 31
0.0
  0
LINE
  5
476
330
1F
100
AcDbEntity
  8
LOGO
 62
     4
100
AcDbLine
 10
1259.695551363685
 20
941.6179494148394
 30
0.0
 11
1232.295264621976
 21
941.6179494148394
 31
0.0
  0
LINE
  5
477
330
1F
100
AcDbEntity
  8
LOGO
 62
     4
100
AcDbLine
 10
1259.695551363685
 20
950.0695028492364
 30
0.0
 11
1232.295264621976
 21
950.0695028492364
 31
0.0
  0
TEXT
  5
478
330
1F
100
AcDbEntity
  8
LOGO
  6
Continuous
 62
     7
100
AcDbText
 10
1236.929431047403
 20
943.4960724002614
 30
0.0
 40
4.695307463553823
  1
MSUS
  7
CHINESET
 72
     1
 11
1245.872873835125
 21
945.8437261320382
 31
0.0
100
AcDbText
 73
     2
  0
LINE
  5
479
330
1F
100
AcDbEntity
  8
LOGO
 62
     4
100
AcDbLine
 10
1232.295264621976
 20
950.0695028492364
 30
0.0
 11
1232.295264621976
 21
941.6179494148394
 31
0.0
  0
LINE
  5
47A
330
1F
100
AcDbEntity
  8
LOGO
 62
     4
100
AcDbLine
 10
1236.482258908017
 20
937.392172697641
 30
0.0
 11
1236.482258908017
 21
927.0624962778228
 31
0.0
  0
TEXT
  5
47B
330
1F
100
AcDbEntity
  8
LOGO
100
AcDbText
 10
1242.695397458857
 20
928.5094697396099
 30
0.0
 40
1.869103750745776
  1
Model
 72
     4
 11
1245.872873835125
 21
929.4101500095997
 31
0.0
100
AcDbText
  0
TEXT
  5
47C
330
1F
100
AcDbEntity
  8
LOGO
100
AcDbText
 10
1242.116627864282
 20
932.3234588924975
 30
0.0
 40
3.756245970843058
  1
型式
  7
CHINESET
 72
     4
 11
1245.872873835125
 21
934.1054574731534
 31
0.0
100
AcDbText
  0
LINE
  5
47D
330
1F
100
AcDbEntity
  8
LOGO
 62
     4
100
AcDbLine
 10
1245.872873835125
 20
941.6179494148394
 30
0.0
 11
1245.872873835125
 21
937.392172697641
 31
0.0
  0
LINE
  5
47E
330
1F
100
AcDbEntity
  8
LOGO
 62
     4
100
AcDbLine
 10
1259.695551363685
 20
950.0695028492364
 30
0.0
 11
1259.695551363685
 21
941.6179494148394
 31
0.0
  0
LINE
  5
47F
330
1F
100
AcDbEntity
  8
LOGO
 62
     4
100
AcDbLine
 10
1255.263488762233
 20
937.392172697641
 30
0.0
 11
1255.263488762233
 21
927.0624962778228
 31
0.0
  0
LINE
  5
480
330
1F
100
AcDbEntity
  8
LOGO
 62
     4
100
AcDbLine
 10
1195.855013755831
 20
924.7148425460457
 30
0.0
 11
1195.855013755831
 21
952.8866873273694
 31
0.0
  0
TEXT
  5
481
330
1F
100
AcDbEntity
  8
LOGO
  6
Continuous
100
AcDbText
 10
1143.996408517264
 20
930.2491589383157
 30
0.0
 40
4.225776717198477
  1
金器工業股份有限公司
  7
CHINESET
100
AcDbText
  0
TEXT
  5
482
330
1F
100
AcDbEntity
  8
LOGO
  6
Continuous
100
AcDbText
 10
1136.234492716465
 20
926.0225543001945
 30
0.0
 40
2.817184478132318
  1
MINDMAN INDUSTRIAL CO., LTD.
 41
0.85
  7
CHINESET
100
AcDbText
  0
LINE
  5
483
330
1F
100
AcDbEntity
  8
LOGO
 62
     4
100
AcDbLine
 10
1195.855013755831
 20
947.2523183711043
 30
0.0
 11
1154.536308076556
 21
947.2523183711043
 31
0.0
  0
LINE
  5
484
330
1F
100
AcDbEntity
  8
LOGO
 62
     4
100
AcDbLine
 10
1195.855013755831
 20
941.6179494148396
 30
0.0
 11
1154.536308076556
 21
941.6179494148396
 31
0.0
  0
LINE
  5
485
330
1F
100
AcDbEntity
  8
LOGO
 62
     4
100
AcDbLine
 10
1195.855013755831
 20
935.9835804585751
 30
0.0
 11
1133.876955236919
 21
935.9835804585751
 31
0.0
  0
LINE
  5
486
330
1F
100
AcDbEntity
  8
LOGO
 62
     4
100
AcDbLine
 10
1154.536308076556
 20
935.9835804585751
 30
0.0
 11
1154.536308076556
 21
952.8866873273694
 31
0.0
  0
TEXT
  5
487
330
1F
100
AcDbEntity
  8
LOGO
100
AcDbText
 10
1182.775693195137
 20
937.3921726976412
 30
0.0
 40
2.817184478132318
  1
mm
  7
CHINESET
 72
     1
 11
1186.263635882349
 21
938.8007649367073
 31
0.0
100
AcDbText
 73
     2
  0
TEXT
  5
488
330
1F
100
AcDbEntity
  8
LOGO
100
AcDbText
 10
1181.300025135163
 20
948.6609106101704
 30
0.0
 40
2.817184478132318
  1
1 : 1
  7
CHINESET
 72
     1
 11
1186.263635882349
 21
950.0695028492366
 31
0.0
100
AcDbText
 73
     2
  0
LINE
  5
489
330
1F
100
AcDbEntity
  8
LOGO
 62
     4
100
AcDbLine
 10
1177.073783901615
 20
935.9835804585751
 30
0.0
 11
1177.073783901615
 21
952.8866873273694
 31
0.0
  0
TEXT
  5
48A
330
1F
100
AcDbEntity
  8
LOGO
100
AcDbText
 10
1156.859227599373
 20
948.6622970198546
 30
184.6336296564843
 40
2.817184478132318
  1
比例 Scale:
 41
0.9
  7
CHINESET
 72
     4
 11
1165.805045989086
 21
950.0695028492366
 31
184.6336296564843
100
AcDbText
  0
TEXT
  5
48B
330
1F
100
AcDbEntity
  8
LOGO
100
AcDbText
 10
1156.696987957553
 20
943.0661698640435
 30
184.6336296564843
 40
2.817184478132318
  1
投影  View:
 41
0.9
  7
CHINESET
 72
     4
 11
1165.805045989086
 21
944.4351338929719
 31
184.6336296564843
100
AcDbText
  0
TEXT
  5
48C
330
1F
100
AcDbEntity
  8
LOGO
100
AcDbText
 10
1156.972418047156
 20
937.3921726976412
 30
184.6336296564843
 40
2.817184478132318
  1
單位  Unit:
 41
0.9
  7
CHINESET
 72
     4
 11
1165.805045989086
 21
938.8007649367073
 31
184.6336296564843
100
AcDbText
  0
SOLID
  5
48D
330
1F
100
AcDbEntity
  8
LOGO
 62
     5
100
AcDbTrace
 10
1136.799829345354
 20
940.6667486588364
 30
0.0
 11
1138.017905990777
 21
940.6667486588357
 31
0.0
 12
1143.1002257872
 22
952.217475468889
 32
0.0
 13
1144.318302432624
 23
952.2174754688881
 33
0.0
  0
SOLID
  5
48E
330
1F
100
AcDbEntity
  8
LOGO
 62
     5
100
AcDbTrace
 10
1138.521937706126
 20
940.6667486588364
 30
0.0
 11
1139.740014351549
 21
940.6667486588364
 31
0.0
 12
1144.318302432624
 22
951.2934173240845
 32
0.0
 13
1143.1002257872
 23
946.8271362908639
 33
0.0
  0
SOLID
  5
48F
330
1F
100
AcDbEntity
  8
LOGO
 62
     2
100
AcDbTrace
 10
1138.017905990777
 20
940.6667486588357
 30
0.0
 11
1138.521937706126
 21
940.6667486588364
 31
0.0
 12
1144.318302432624
 22
952.2174754688881
 32
0.0
 13
1144.822334147972
 23
952.2174754688881
 33
0.0
  0
SOLID
  5
490
330
1F
100
AcDbEntity
  8
LOGO
 62
     5
100
AcDbTrace
 10
1134.846953773755
 20
936.4664843642717
 30
0.0
 11
1135.266980203213
 21
936.4664843642717
 31
0.0
 12
1136.449807320806
 22
938.5666165115543
 32
0.0
 13
1136.869833750263
 23
938.5666165115543
 33
0.0
  0
SOLID
  5
491
330
1F
100
AcDbEntity
  8
LOGO
 62
     5
100
AcDbTrace
 10
1136.449807320806
 20
938.5666165115543
 30
0.0
 11
1136.869833750263
 21
938.5666165115543
 31
0.0
 12
1136.449807320806
 22
936.4664843642717
 32
0.0
 13
1136.869833750263
 23
936.4664843642717
 33
0.0
  0
SOLID
  5
492
330
1F
100
AcDbEntity
  8
LOGO
 62
     5
100
AcDbTrace
 10
1136.449807320806
 20
936.4664843642717
 30
0.0
 11
1136.869833750263
 21
936.4664843642717
 31
0.0
 12
1138.052660867858
 22
938.5666165115543
 32
0.0
 13
1138.472687297314
 23
938.5666165115543
 33
0.0
  0
SOLID
  5
493
330
1F
100
AcDbEntity
  8
LOGO
 62
     5
100
AcDbTrace
 10
1138.052660867858
 20
938.5666165115543
 30
0.0
 11
1138.472687297314
 21
938.5666165115543
 31
0.0
 12
1138.052660867858
 22
936.4664843642717
 32
0.0
 13
1138.472687297314
 23
936.4664843642717
 33
0.0
  0
POLYLINE
  5
494
330
1F
100
AcDbEntity
  8
LOGO
 62
     5
100
AcDb2dPolyline
 66
     1
 10
0.0
 20
0.0
 30
0.0
 40
0.420699548734426
 41
0.420699548734426
  0
VERTEX
  5
495
330
494
100
AcDbEntity
  8
LOGO
 62
     5
100
AcDbVertex
100
AcDb2dVertex
 10
1152.131803699431
 20
937.7265636526407
 30
0.0
 42
1.0
  0
VERTEX
  5
496
330
494
100
AcDbEntity
  8
LOGO
 62
     5
100
AcDbVertex
100
AcDb2dVertex
 10
1150.869705053229
 20
937.7265636526407
 30
0.0
 42
1.0
  0
SEQEND
  5
497
330
494
100
AcDbEntity
  8
LOGO
 62
     5
  0
POLYLINE
  5
498
330
1F
100
AcDbEntity
  8
LOGO
 62
     5
100
AcDb2dPolyline
 66
     1
 10
0.0
 20
0.0
 30
0.0
 70
     1
  0
VERTEX
  5
499
330
498
100
AcDbEntity
  8
LOGO
 62
     5
100
AcDbVertex
100
AcDb2dVertex
 10
1148.490592966987
 20
937.5165504379129
 30
0.0
 42
1.000000057330635
  0
VERTEX
  5
49A
330
498
100
AcDbEntity
  8
LOGO
 62
     5
100
AcDbVertex
100
AcDb2dVertex
 10
1149.750672255356
 20
937.5165504379129
 30
0.0
 42
1.000000057330635
  0
SEQEND
  5
49B
330
498
100
AcDbEntity
  8
LOGO
 62
     5
  0
CIRCLE
  5
49C
330
1F
100
AcDbEntity
  8
LOGO
 62
     5
100
AcDbCircle
 10
1149.120632611172
 20
937.5165504379129
 30
0.0
 40
0.6300396441846764
  0
POLYLINE
  5
49D
330
1F
100
AcDbEntity
  8
LOGO
 62
     5
100
AcDb2dPolyline
 66
     1
 10
0.0
 20
0.0
 30
0.0
 70
     1
 40
0.420699548734426
 41
0.420699548734426
  0
VERTEX
  5
49E
330
49D
100
AcDbEntity
  8
LOGO
 62
     5
100
AcDbVertex
100
AcDb2dVertex
 10
1148.279233513703
 20
937.5165504379129
 30
0.0
 42
1.0
  0
VERTEX
  5
49F
330
49D
100
AcDbEntity
  8
LOGO
 62
     5
100
AcDbVertex
100
AcDb2dVertex
 10
1149.962031708641
 20
937.5165504379129
 30
0.0
 42
1.0
  0
SEQEND
  5
4A0
330
49D
100
AcDbEntity
  8
LOGO
 62
     5
  0
LINE
  5
4A1
330
1F
100
AcDbEntity
  8
LOGO
100
AcDbLine
 10
1152.340807235242
 20
936.4664843642717
 30
0.0
 11
1152.340807235242
 21
937.7265636526407
 31
0.0
  0
SOLID
  5
4A2
330
1F
100
AcDbEntity
  8
LOGO
 62
     5
100
AcDbTrace
 10
1149.750630252714
 20
938.5666165115543
 30
0.0
 11
1150.17065668217
 21
938.5666165115543
 31
0.0
 12
1149.750630252714
 22
936.4664843642717
 32
0.0
 13
1150.17065668217
 23
936.4664843642717
 33
0.0
  0
SOLID
  5
4A3
330
1F
100
AcDbEntity
  8
LOGO
 62
     5
100
AcDbTrace
 10
1150.660701517416
 20
936.4664843642717
 30
0.0
 11
1151.080727946873
 21
936.4664843642717
 31
0.0
 12
1150.660701517416
 22
938.5666165115543
 32
0.0
 13
1151.080727946873
 23
938.5666165115543
 33
0.0
  0
SOLID
  5
4A4
330
1F
100
AcDbEntity
  8
LOGO
 62
     5
100
AcDbTrace
 10
1151.920780805786
 20
937.7265636526407
 30
0.0
 11
1152.340807235242
 21
937.7265636526407
 31
0.0
 12
1151.920780805786
 22
936.4664843642717
 32
0.0
 13
1152.340807235242
 23
936.4664843642717
 33
0.0
  0
SOLID
  5
4A5
330
1F
100
AcDbEntity
  8
LOGO
 62
     5
100
AcDbTrace
 10
1150.61869887447
 20
951.2934173240845
 30
0.0
 11
1149.400622229047
 21
946.8271362908639
 31
0.0
 12
1150.61869887447
 22
940.6667486588357
 32
0.0
 13
1149.400622229047
 23
940.6667486588357
 33
0.0
  0
SOLID
  5
4A6
330
1F
100
AcDbEntity
  8
LOGO
 62
     5
100
AcDbTrace
 10
1151.122730589819
 20
940.6667486588357
 30
0.0
 11
1152.340807235242
 21
940.6667486588357
 31
0.0
 12
1151.122730589819
 22
952.2174754688881
 32
0.0
 13
1152.340807235242
 23
952.217475468889
 33
0.0
  0
SOLID
  5
4A7
330
1F
100
AcDbEntity
  8
LOGO
 62
     2
100
AcDbTrace
 10
1150.61869887447
 20
952.217475468889
 30
0.0
 11
1151.122730589819
 21
952.2174754688881
 31
0.0
 12
1150.61869887447
 22
940.6667486588357
 32
0.0
 13
1151.122730589819
 23
940.6667486588357
 33
0.0
  0
POLYLINE
  5
4A8
330
1F
100
AcDbEntity
  8
LOGO
 62
     5
100
AcDb2dPolyline
 66
     1
 10
0.0
 20
0.0
 30
0.0
 40
0.420699548734426
 41
0.420699548734426
  0
VERTEX
  5
4A9
330
4A8
100
AcDbEntity
  8
LOGO
 62
     5
100
AcDbVertex
100
AcDb2dVertex
 10
1146.111396875461
 20
937.7265636526407
 30
0.0
 42
1.0
  0
VERTEX
  5
4AA
330
4A8
100
AcDbEntity
  8
LOGO
 62
     5
100
AcDbVertex
100
AcDb2dVertex
 10
1144.849298229257
 20
937.7265636526407
 30
0.0
 42
1.0
  0
SEQEND
  5
4AB
330
4A8
100
AcDbEntity
  8
LOGO
 62
     5
  0
POLYLINE
  5
4AC
330
1F
100
AcDbEntity
  8
LOGO
 62
     5
100
AcDb2dPolyline
 66
     1
 10
0.0
 20
0.0
 30
0.0
 40
0.420699548734426
 41
0.420699548734426
  0
VERTEX
  5
4AD
330
4AC
100
AcDbEntity
  8
LOGO
 62
     5
100
AcDbVertex
100
AcDb2dVertex
 10
1147.37147616383
 20
937.7265636526407
 30
0.0
 42
1.0
  0
VERTEX
  5
4AE
330
4AC
100
AcDbEntity
  8
LOGO
 62
     5
100
AcDbVertex
100
AcDb2dVertex
 10
1146.109377517626
 20
937.7265636526407
 30
0.0
 42
1.0
  0
SEQEND
  5
4AF
330
4AC
100
AcDbEntity
  8
LOGO
 62
     5
  0
POLYLINE
  5
4B0
330
1F
100
AcDbEntity
  8
LOGO
 62
     5
100
AcDb2dPolyline
 66
     1
 10
0.0
 20
0.0
 30
0.0
 40
0.420699548734426
 41
0.420699548734426
  0
VERTEX
  5
4B1
330
4B0
100
AcDbEntity
  8
LOGO
 62
     5
100
AcDbVertex
100
AcDb2dVertex
 10
1141.351069339858
 20
937.7265636526407
 30
0.0
 42
1.0
  0
VERTEX
  5
4B2
330
4B0
100
AcDbEntity
  8
LOGO
 62
     5
100
AcDbVertex
100
AcDb2dVertex
 10
1140.088970693655
 20
937.7265636526407
 30
0.0
 42
1.0
  0
SEQEND
  5
4B3
330
4B0
100
AcDbEntity
  8
LOGO
 62
     5
  0
SOLID
  5
4B4
330
1F
100
AcDbEntity
  8
LOGO
 62
     5
100
AcDbTrace
 10
1139.879967157844
 20
938.5666165115543
 30
0.0
 11
1140.299993587299
 21
938.5666165115543
 31
0.0
 12
1139.879967157844
 22
936.4664843642717
 32
0.0
 13
1140.299993587299
 23
936.4664843642717
 33
0.0
  0
SOLID
  5
4B5
330
1F
100
AcDbEntity
  8
LOGO
 62
     5
100
AcDbTrace
 10
1141.140046446213
 20
937.7265636526407
 30
0.0
 11
1141.560072875671
 21
937.7265636526407
 31
0.0
 12
1141.140046446213
 22
936.4664843642717
 32
0.0
 13
1141.560072875671
 23
936.4664843642717
 33
0.0
  0
POLYLINE
  5
4B6
330
1F
100
AcDbEntity
  8
LOGO
 62
     5
100
AcDb2dPolyline
 66
     1
 10
0.0
 20
0.0
 30
0.0
 70
     1
 40
0.420699548734426
 41
0.420699548734426
  0
VERTEX
  5
4B7
330
4B6
100
AcDbEntity
  8
LOGO
 62
     5
100
AcDbVertex
100
AcDb2dVertex
 10
1142.258826689731
 20
937.5165504379129
 30
0.0
 42
1.0
  0
VERTEX
  5
4B8
330
4B6
100
AcDbEntity
  8
LOGO
 62
     5
100
AcDbVertex
100
AcDb2dVertex
 10
1143.941624884669
 20
937.5165504379129
 30
0.0
 42
1.0
  0
SEQEND
  5
4B9
330
4B6
100
AcDbEntity
  8
LOGO
 62
     5
  0
SOLID
  5
4BA
330
1F
100
AcDbEntity
  8
LOGO
 62
     5
100
AcDbTrace
 10
1143.730223428743
 20
939.196656155739
 30
0.0
 11
1144.150249858199
 21
939.196656155739
 31
0.0
 12
1143.730223428743
 22
936.4664843642717
 32
0.0
 13
1144.150249858199
 23
936.4664843642717
 33
0.0
  0
SOLID
  5
4BB
330
1F
100
AcDbEntity
  8
LOGO
 62
     5
100
AcDbTrace
 10
1144.640294693447
 20
938.5666165115543
 30
0.0
 11
1145.060321122903
 21
938.5666165115543
 31
0.0
 12
1144.640294693447
 22
936.4664843642717
 32
0.0
 13
1145.060321122903
 23
936.4664843642717
 33
0.0
  0
SOLID
  5
4BC
330
1F
100
AcDbEntity
  8
LOGO
 62
     5
100
AcDbTrace
 10
1145.900373981815
 20
937.7265636526407
 30
0.0
 11
1146.320400411272
 21
937.7265636526407
 31
0.0
 12
1145.900373981815
 22
936.4664843642717
 32
0.0
 13
1146.320400411272
 23
936.4664843642717
 33
0.0
  0
SOLID
  5
4BD
330
1F
100
AcDbEntity
  8
LOGO
 62
     5
100
AcDbTrace
 10
1147.160453270184
 20
937.7265636526407
 30
0.0
 11
1147.580479699641
 21
937.7265636526407
 31
0.0
 12
1147.160453270184
 22
936.4664843642714
 32
0.0
 13
1147.580479699641
 23
936.4664843642714
 33
0.0
  0
SOLID
  5
4BE
330
1F
100
AcDbEntity
  8
LOGO
 62
     5
100
AcDbTrace
 10
1138.96989589314
 20
938.8606350121735
 30
0.0
 11
1139.389922322598
 21
938.8606350121735
 31
0.0
 12
1138.96989589314
 22
939.196656155739
 32
0.0
 13
1139.389922322598
 23
939.196656155739
 33
0.0
  0
SOLID
  5
4BF
330
1F
100
AcDbEntity
  8
LOGO
 62
     5
100
AcDbTrace
 10
1138.96989589314
 20
938.5666165115543
 30
0.0
 11
1139.389922322598
 21
938.5666165115543
 31
0.0
 12
1138.96989589314
 22
936.4664843642714
 32
0.0
 13
1139.389922322598
 23
936.4664843642717
 33
0.0
  0
SOLID
  5
4C0
330
1F
100
AcDbEntity
  8
LOGO
 62
     5
100
AcDbTrace
 10
1143.1002257872
 20
940.6667486588364
 30
0.0
 11
1144.318302432624
 21
940.6667486588364
 31
0.0
 12
1143.1002257872
 22
946.8271362908639
 32
0.0
 13
1144.318302432624
 23
951.2934173240845
 33
0.0
  0
SOLID
  5
4C1
330
1F
100
AcDbEntity
  8
LOGO
 62
     5
100
AcDbTrace
 10
1144.822334147972
 20
952.2174754688881
 30
0.0
 11
1146.040410793396
 21
952.217475468889
 31
0.0
 12
1144.822334147972
 22
941.5908068036399
 32
0.0
 13
1146.040410793396
 23
946.0570878368605
 33
0.0
  0
SOLID
  5
4C2
330
1F
100
AcDbEntity
  8
LOGO
 62
     2
100
AcDbTrace
 10
1144.318302432624
 20
952.2174754688881
 30
0.0
 11
1144.822334147972
 21
952.2174754688881
 31
0.0
 12
1144.318302432624
 22
940.6667486588364
 32
0.0
 13
1144.822334147972
 23
940.6667486588364
 33
0.0
  0
SOLID
  5
4C3
330
1F
100
AcDbEntity
  8
LOGO
 62
     5
100
AcDbTrace
 10
1144.822334147972
 20
941.5908068036399
 30
0.0
 11
1146.040410793396
 21
946.0570878368605
 31
0.0
 12
1150.61869887447
 22
952.217475468889
 32
0.0
 13
1149.400622229047
 23
952.217475468889
 33
0.0
  0
SOLID
  5
4C4
330
1F
100
AcDbEntity
  8
LOGO
 62
     5
100
AcDbTrace
 10
1144.822334147972
 20
940.6667486588364
 30
0.0
 11
1146.040410793396
 21
940.6667486588364
 31
0.0
 12
1150.61869887447
 22
951.2934173240845
 32
0.0
 13
1149.400622229047
 23
946.8271362908639
 33
0.0
  0
SOLID
  5
4C5
330
1F
100
AcDbEntity
  8
LOGO
 62
     2
100
AcDbTrace
 10
1144.318302432624
 20
940.6667486588364
 30
0.0
 11
1144.822334147972
 21
940.6667486588364
 31
0.0
 12
1150.61869887447
 22
952.217475468889
 32
0.0
 13
1151.122730589819
 23
952.2174754688881
 33
0.0
  0
LWPOLYLINE
  5
4C6
330
1F
100
AcDbEntity
  8
LOGO
 62
     4
100
AcDbPolyline
 90
        4
 70
     1
 43
0.0
 10
1133.87695523692
 20
952.8866873273688
 10
1426.55153621779
 20
952.8866873273688
 10
1426.55153621779
 20
924.7148425460455
 10
1133.87695523692
 20
924.7148425460455
1001
GENIUS_GENREC_14
1002
{
1000
PYDIR
1011
1133.87695523692
1021
924.7148425460455
1031
0.0
1002
}
1002
{
1000
PXDIR
1011
1426.55153621779
1021
952.8866873273688
1031
0.0
1002
}
1002
{
1000
PORI
1011
1133.87695523692
1021
952.8866873273688
1031
0.0
1002
}
1002
{
1000
PINS
1011
1133.87695523692
1021
952.8866873273688
1031
0.0
1002
}
1002
{
1000
PINS2
1011
1426.55153621779
1021
924.7148425460455
1031
0.0
1002
}
1002
{
1000
C
1070
     1
1002
}
1001
GENIUS_GENOBJ-N-REC_13
1002
{
1000
OWNER
1000
GEN
1002
}
1001
GENIUS_GENODEF_13
1002
{
1000
HIER
1070
     0
1002
}
1002
{
1000
MANEDIT
1070
     0
1002
}
1002
{
1000
NOSEL
1070
     0
1002
}
1002
{
1000
BEHIND
1070
     0
1002
}
1002
{
1000
OTHER
1070
     0
1002
}
1002
{
1000
REACTOR
1002
}
  0
TEXT
  5
4C7
330
1F
100
AcDbEntity
  8
LOGO
100
AcDbText
 10
1197.16031360156
 20
926.213573569163
 30
0.0
 40
2.817592455320418
  1
01109060
 41
0.7
  7
CHINESET
 72
     1
 11
1204.016455242839
 21
926.213573569163
 31
0.0
100
AcDbText
  0
LINE
  5
4C8
330
1F
100
AcDbEntity
  8
LOGO
 62
     4
100
AcDbLine
 10
1212.760568487751
 20
930.3492115023109
 30
0.0
 11
1212.760568487753
 21
924.7148425460459
 31
0.0
  0
LINE
  5
4C9
330
1F
100
AcDbEntity
  8
LOGO
 62
     4
100
AcDbLine
 10
1212.760568487751
 20
930.3492115023109
 30
0.0
 11
1195.855013755831
 21
930.3492115023109
 31
0.0
  0
CIRCLE
  5
4CA
330
1F
100
AcDbEntity
  8
LOGO
  6
Continuous
100
AcDbCircle
 10
1182.290153330742
 20
944.4411598711862
 30
0.0
 40
1.635723617051456
  0
CIRCLE
  5
4CB
330
1F
100
AcDbEntity
  8
LOGO
  6
Continuous
100
AcDbCircle
 10
1182.290153330742
 20
944.4411598711862
 30
0.0
 40
0.9583892371730611
  0
LINE
  5
4CC
330
1F
100
AcDbEntity
  8
LOGO
100
AcDbLine
 10
1192.569230341635
 20
942.8054362541347
 30
0.0
 11
1192.569230341635
 21
946.0768834882381
 31
0.0
  0
LINE
  5
4CD
330
1F
100
AcDbEntity
  8
LOGO
100
AcDbLine
 10
1187.441330697194
 20
943.4827706340133
 30
0.0
 11
1187.441330697194
 21
945.3995491083597
 31
0.0
  0
LINE
  5
4CE
330
1F
100
AcDbEntity
  8
LOGO
  6
Continuous
100
AcDbLine
 10
1187.441330697194
 20
945.3995491083597
 30
0.0
 11
1192.569230341635
 21
946.0768834882381
 31
0.0
  0
LINE
  5
4CF
330
1F
100
AcDbEntity
  8
LOGO
  6
Continuous
100
AcDbLine
 10
1187.441330697194
 20
943.4827706340133
 30
0.0
 11
1192.569230341635
 21
942.8054362541347
 31
0.0
  0
LINE
  5
4D0
330
1F
100
AcDbEntity
  8
LOGO
  6
AM_ISO08W050x2
 48
0.3
100
AcDbLine
 10
1180.035283831603
 20
944.4411598711862
 30
0.0
 11
1184.545022829879
 21
944.4411598711862
 31
0.0
1001
GENIUS_GENOREF_13
1005
5FC
  0
LINE
  5
4D1
330
1F
100
AcDbEntity
  8
LOGO
  6
AM_ISO08W050x2
 48
0.3
100
AcDbLine
 10
1182.290153330742
 20
942.1862903720489
 30
0.0
 11
1182.290153330742
 21
946.6960293703243
 31
0.0
1001
GENIUS_GENOREF_13
1005
5FB
  0
LINE
  5
4D2
330
1F
100
AcDbEntity
  8
LOGO
  6
CENTER
 48
0.5
100
AcDbLine
 10
1187.031241254942
 20
944.4411598711862
 30
0.0
 11
1193.085593235962
 21
944.4411598711862
 31
0.0
1001
GENIUS_GENOREF_13
1005
5FA
  0
LINE
  5
4D3
330
1F
100
AcDbEntity
  8
LOGO
 62
     4
100
AcDbLine
 10
1289.071315520178
 20
927.0624962778228
 30
0.0
 11
1270.290085665962
 21
927.0624962778228
 31
0.0
  0
LINE
  5
4D4
330
1F
100
AcDbEntity
  8
LOGO
 62
     4
100
AcDbLine
 10
1289.071315520178
 20
937.392172697641
 30
0.0
 11
1270.290085665962
 21
937.392172697641
 31
0.0
  0
LINE
  5
4D5
330
1F
100
AcDbEntity
  8
LOGO
 62
     4
100
AcDbLine
 10
1285.025620626047
 20
941.6179494148394
 30
0.0
 11
1273.529884934957
 21
941.6179494148394
 31
0.0
  0
LINE
  5
4D6
330
1F
100
AcDbEntity
  8
LOGO
 62
     4
100
AcDbLine
 10
1285.025620626047
 20
950.0695028492364
 30
0.0
 11
1273.529884934957
 21
950.0695028492364
 31
0.0
  0
TEXT
  5
4D7
330
1F
100
AcDbEntity
  8
LOGO
  6
Continuous
 62
     7
100
AcDbText
 10
1275.349935832495
 20
943.4960724002614
 30
0.0
 40
4.695307463553823
  1
15
  7
CHINESET
 72
     1
 11
1278.70372687789
 21
945.8437261320382
 31
0.0
100
AcDbText
 73
     2
  0
LINE
  5
4D8
330
1F
100
AcDbEntity
  8
LOGO
 62
     4
100
AcDbLine
 10
1273.529884934957
 20
950.0695028492364
 30
0.0
 11
1273.529884934957
 21
941.6179494148394
 31
0.0
  0
LINE
  5
4D9
330
1F
100
AcDbEntity
  8
LOGO
 62
     4
100
AcDbLine
 10
1270.290085665962
 20
937.392172697641
 30
0.0
 11
1270.290085665962
 21
927.0624962778228
 31
0.0
  0
TEXT
  5
4DA
330
1F
100
AcDbEntity
  8
LOGO
100
AcDbText
 10
1274.447210090981
 20
928.4755981342268
 30
0.0
 40
1.869103750745776
  1
PIPE SIZE
 72
     4
 11
1279.68070059307
 21
929.4101500095997
 31
0.0
100
AcDbText
  0
TEXT
  5
4DB
330
1F
100
AcDbEntity
  8
LOGO
100
AcDbText
 10
1272.129081089187
 20
932.2273344877318
 30
0.0
 40
3.756245970843058
  1
配管口徑
  7
CHINESET
 72
     4
 11
1279.68070059307
 21
934.1054574731534
 31
0.0
100
AcDbText
  0
LINE
  5
4DC
330
1F
100
AcDbEntity
  8
LOGO
 62
     4
100
AcDbLine
 10
1279.68070059307
 20
941.6179494148394
 30
0.0
 11
1279.68070059307
 21
937.392172697641
 31
0.0
  0
LINE
  5
4DD
330
1F
100
AcDbEntity
  8
LOGO
 62
     4
100
AcDbLine
 10
1285.025620626047
 20
950.0695028492364
 30
0.0
 11
1285.025620626047
 21
941.6179494148394
 31
0.0
  0
LINE
  5
4DE
330
1F
100
AcDbEntity
  8
LOGO
 62
     4
100
AcDbLine
 10
1289.071315520178
 20
937.392172697641
 30
0.0
 11
1289.071315520178
 21
927.0624962778228
 31
0.0
  0
LINE
  5
4DF
330
1F
100
AcDbEntity
  8
0
100
AcDbLine
 10
1260.521378109358
 20
945.6630432295007
 30
0.0
 11
1264.935416207372
 21
945.6630432295007
 31
0.0
  0
LWPOLYLINE
  5
4E0
330
1F
100
AcDbEntity
  8
0
 62
     4
100
AcDbPolyline
 90
        4
 70
     1
 43
0.0
 10
1133.87695523692
 20
1156.151853307916
 10
1426.55153621779
 20
1156.151853307916
 10
1426.55153621779
 20
952.8866873273688
 10
1133.87695523692
 20
952.8866873273688
  0
ARC
  5
4E1
330
1F
100
AcDbEntity
  8
0
100
AcDbCircle
 10
1173.933809876217
 20
1054.651461765298
 30
0.0
 40
7.5
100
AcDbArc
 50
180.0
 51
270.0
  0
ARC
  5
4E2
102
{ACAD_REACTORS
330
576
330
5E4
102
}
330
1F
100
AcDbEntity
  8
0
100
AcDbCircle
 10
1173.933809876216
 20
1102.651461765298
 30
0.0
 40
7.5
100
AcDbArc
 50
90.0
 51
180.0
  0
CIRCLE
  5
4E3
330
1F
100
AcDbEntity
  8
0
100
AcDbCircle
 10
1173.933809876217
 20
1078.651461765298
 30
0.0
 40
2.5
  0
CIRCLE
  5
4E4
330
1F
100
AcDbEntity
  8
DIM
100
AcDbCircle
 10
1173.933809876217
 20
1054.651461765298
 30
0.0
 40
3.0
  0
CIRCLE
  5
4E5
330
1F
100
AcDbEntity
  8
0
100
AcDbCircle
 10
1173.933809876217
 20
1054.651461765298
 30
0.0
 40
2.5
  0
CIRCLE
  5
4E6
330
1F
100
AcDbEntity
  8
DIM
100
AcDbCircle
 10
1173.933809876217
 20
1102.651461765298
 30
0.0
 40
3.0
  0
CIRCLE
  5
4E7
330
1F
100
AcDbEntity
  8
0
100
AcDbCircle
 10
1173.933809876217
 20
1102.651461765298
 30
0.0
 40
2.5
  0
LINE
  5
4E8
102
{ACAD_REACTORS
330
584
102
}
330
1F
100
AcDbEntity
  8
CEN
100
AcDbLine
 10
1149.464842579281
 20
1078.654866290567
 30
0.0
 11
1244.028510136895
 21
1078.654866290567
 31
0.0
  0
LINE
  5
4E9
330
1F
100
AcDbEntity
  8
0
100
AcDbLine
 10
1166.433809876217
 20
1054.651461765298
 30
0.0
 11
1166.433809876217
 21
1072.037083487636
 31
0.0
  0
ARC
  5
4EA
330
1F
100
AcDbEntity
  8
0
100
AcDbCircle
 10
1163.584949088142
 20
1090.777690313672
 30
0.0
 40
8.651139211925054
100
AcDbArc
 50
152.1787926423447
 51
207.8212073576553
  0
LINE
  5
4EB
330
1F
100
AcDbEntity
  8
0
100
AcDbLine
 10
1154.933809876217
 20
1093.083247513805
 30
0.0
 11
1154.933809876216
 21
1064.23648506733
 31
0.0
  0
LINE
  5
4EC
102
{ACAD_REACTORS
330
576
330
5E4
102
}
330
1F
100
AcDbEntity
  8
0
100
AcDbLine
 10
1166.433809876217
 20
1085.265840042959
 30
0.0
 11
1166.433809876216
 21
1102.651461765298
 31
0.0
  0
LINE
  5
4ED
330
1F
100
AcDbEntity
  8
0
100
AcDbLine
 10
1155.933809876217
 20
1070.569650275164
 30
0.0
 11
1166.433809876217
 21
1070.569650275164
 31
0.0
  0
LINE
  5
4EE
330
1F
100
AcDbEntity
  8
0
100
AcDbLine
 10
1155.933809876217
 20
1062.494434259761
 30
0.0
 11
1166.433809876217
 21
1062.494434259761
 31
0.0
  0
LINE
  5
4EF
330
1F
100
AcDbEntity
  8
0
100
AcDbLine
 10
1155.933809876217
 20
1086.74008230597
 30
0.0
 11
1166.433809876216
 21
1086.74008230597
 31
0.0
  0
ARC
  5
4F0
330
1F
100
AcDbEntity
  8
0
100
AcDbCircle
 10
1188.119168884076
 20
1078.654866290567
 30
0.0
 40
33.18535900785932
100
AcDbArc
 50
165.8986392518924
 51
194.1013607481075
  0
LINE
  5
4F1
330
1F
100
AcDbEntity
  8
0
100
AcDbLine
 10
1155.933809876217
 20
1062.494434259761
 30
0.0
 11
1154.933809876217
 21
1064.226485067329
 31
0.0
  0
ARC
  5
4F2
330
1F
100
AcDbEntity
  8
0
100
AcDbCircle
 10
1163.584949088142
 20
1066.532042267462
 30
0.0
 40
8.651139211925054
100
AcDbArc
 50
152.1787926423447
 51
207.8212073576553
  0
ARC
  5
4F3
330
1F
100
AcDbEntity
  8
0
100
AcDbCircle
 10
1173.933809876217
 20
1078.651461765298
 30
0.0
 40
10.0
100
AcDbArc
 50
138.5903778907302
 51
221.4096221092697
  0
POINT
  5
4F4
330
1F
100
AcDbEntity
  8
圖層4
100
AcDbPoint
 10
1166.433809876217
 20
1117.65476218809
 30
0.0
  0
LINE
  5
4F5
330
1F
100
AcDbEntity
  8
0
100
AcDbLine
 10
1155.933809876217
 20
1094.815298321373
 30
0.0
 11
1166.433809876216
 21
1094.815298321373
 31
0.0
  0
LINE
  5
4F6
330
1F
100
AcDbEntity
  8
0
100
AcDbLine
 10
1155.933809876217
 20
1094.815298321373
 30
0.0
 11
1154.933809876217
 21
1093.083247513805
 31
0.0
  0
CIRCLE
  5
4F7
330
1F
100
AcDbEntity
  8
0
100
AcDbCircle
 10
1201.933809876217
 20
1078.654866290567
 30
0.0
 40
19.0
  0
LINE
  5
4F8
102
{ACAD_REACTORS
330
572
330
576
102
}
330
1F
100
AcDbEntity
  8
CEN
100
AcDbLine
 10
1201.933809876217
 20
1044.153384201697
 30
0.0
 11
1201.933809876217
 21
1113.156348379437
 31
0.0
  0
LINE
  5
4F9
102
{ACAD_REACTORS
330
572
102
}
330
1F
100
AcDbEntity
  8
圖層1
100
AcDbLine
 10
1173.933809876217
 20
1046.803002805816
 30
0.0
 11
1173.933809876217
 21
1115.131202885063
 31
0.0
  0
LINE
  5
4FA
102
{ACAD_REACTORS
330
579
330
5E4
102
}
330
1F
100
AcDbEntity
  8
0
100
AcDbLine
 10
1226.433809876217
 20
1102.651461765298
 30
0.0
 11
1226.433809876216
 21
1054.651461765298
 31
0.0
  0
ARC
  5
4FB
330
1F
100
AcDbEntity
  8
0
100
AcDbCircle
 10
1218.933809876216
 20
1054.651461765298
 30
0.0
 40
7.5
100
AcDbArc
 50
270.0
 51
0.0
  0
LINE
  5
4FC
330
1F
100
AcDbEntity
  8
0
100
AcDbLine
 10
1173.933809876217
 20
1047.151461765298
 30
0.0
 11
1218.933809876216
 21
1047.151461765298
 31
0.0
  0
CIRCLE
  5
4FD
330
1F
100
AcDbEntity
  8
DIM
100
AcDbCircle
 10
1218.933809876217
 20
1054.651461765298
 30
0.0
 40
3.0
  0
CIRCLE
  5
4FE
330
1F
100
AcDbEntity
  8
0
100
AcDbCircle
 10
1218.933809876217
 20
1054.651461765298
 30
0.0
 40
2.5
  0
LINE
  5
4FF
330
1F
100
AcDbEntity
  8
圖層4
100
AcDbLine
 10
1223.231465947652
 20
1054.651461765298
 30
0.0
 11
1250.598777198327
 21
1054.651461765298
 31
0.0
  0
DIMENSION
  5
500
330
1F
100
AcDbEntity
  8
DIM
100
AcDbDimension
  2
*D2
 10
1317.807654024268
 20
998.3378653351785
 30
0.0
 11
1315.932407961276
 21
1012.337865335179
 31
0.0
 70
    32
  1
28HEX.
 71
     5
 42
27.99999999999989
  3
ISO-25
100
AcDbAlignedDimension
 13
1291.809171382083
 23
1026.337865335178
 33
0.0
 14
1291.809171382083
 24
998.3378653351785
 34
0.0
 50
90.0
100
AcDbRotatedDimension
  0
LINE
  5
501
330
1F
100
AcDbEntity
  8
圖層3
100
AcDbLine
 10
1295.726267613428
 20
1012.337865335178
 30
0.0
 11
1295.726267613428
 21
1019.553255644352
 31
0.0
  0
LINE
  5
502
330
1F
100
AcDbEntity
  8
圖層3
100
AcDbLine
 10
1271.726267613428
 20
1012.337865335178
 30
0.0
 11
1271.726267613428
 21
1019.553255644351
 31
0.0
  0
LINE
  5
503
330
1F
100
AcDbEntity
  8
0
100
AcDbLine
 10
1299.892075150737
 20
1012.337865335178
 30
0.0
 11
1291.809171382083
 21
1026.337865335178
 31
0.0
  0
LINE
  5
504
330
1F
100
AcDbEntity
  8
0
100
AcDbLine
 10
1275.643363844773
 20
1026.337865335178
 30
0.0
 11
1267.560460076118
 21
1012.337865335178
 31
0.0
  0
LINE
  5
505
102
{ACAD_REACTORS
330
591
102
}
330
1F
100
AcDbEntity
  8
CEN
100
AcDbLine
 10
1283.726267613428
 20
995.1056271621339
 30
0.0
 11
1283.726267613428
 21
1031.147869886014
 31
0.0
  0
LINE
  5
506
330
1F
100
AcDbEntity
  8
0
100
AcDbLine
 10
1261.726267613427
 20
1009.837865335178
 30
0.0
 11
1261.726267613427
 21
1020.737865335179
 31
0.0
  0
CIRCLE
  5
507
330
1F
100
AcDbEntity
  8
0
100
AcDbCircle
 10
1283.726267613428
 20
1012.337865335178
 30
0.0
 40
9.65
  0
CIRCLE
  5
508
330
1F
100
AcDbEntity
  8
圖層4
100
AcDbCircle
 10
1283.726267613428
 20
1012.337865335178
 30
0.0
 40
9.15
  0
CIRCLE
  5
509
330
1F
100
AcDbEntity
  8
0
100
AcDbCircle
 10
1283.726267613428
 20
1012.337865335178
 30
0.0
 40
7.5
  0
LINE
  5
50A
330
1F
100
AcDbEntity
  8
0
100
AcDbLine
 10
1267.560460076118
 20
1012.337865335178
 30
0.0
 11
1275.643363844773
 21
998.3378653351785
 31
0.0
  0
LINE
  5
50B
330
1F
100
AcDbEntity
  8
0
100
AcDbLine
 10
1274.199988171799
 20
1000.837865335178
 30
0.0
 11
1265.326267613428
 21
1000.837865335178
 31
0.0
  0
LINE
  5
50C
330
1F
100
AcDbEntity
  8
CEN
100
AcDbLine
 10
1259.682004215337
 20
1012.337865335178
 30
0.0
 11
1307.770531011519
 21
1012.337865335178
 31
0.0
  0
POINT
  5
50D
330
1F
100
AcDbEntity
  8
Defpoints
  6
ByBlock
 62
     0
100
AcDbPoint
 10
1264.826267613428
 20
991.3694314930999
 30
0.0
  0
ARC
  5
50E
330
1F
100
AcDbEntity
  8
0
100
AcDbCircle
 10
1262.226267613428
 20
1009.837865335178
 30
0.0
 40
0.5
100
AcDbArc
 50
180.0
 51
270.0
  0
LINE
  5
50F
330
1F
100
AcDbEntity
  8
0
100
AcDbLine
 10
1262.226267613428
 20
1009.337865335178
 30
0.0
 11
1269.292510883688
 21
1009.337865335178
 31
0.0
  0
ARC
  5
510
330
1F
100
AcDbEntity
  8
0
100
AcDbCircle
 10
1265.326267613428
 20
1001.337865335178
 30
0.0
 40
0.5
100
AcDbArc
 50
180.0
 51
270.0
  0
LINE
  5
511
102
{ACAD_REACTORS
330
591
102
}
330
1F
100
AcDbEntity
  8
0
100
AcDbLine
 10
1264.826267613428
 20
1001.337865335178
 30
0.0
 11
1264.826267613428
 21
1009.337865335178
 31
0.0
  0
ARC
  5
512
330
1F
100
AcDbEntity
  8
圖層3
100
AcDbCircle
 10
1283.726267613428
 20
1012.337865335178
 30
0.0
 40
12.0
100
AcDbArc
 50
180.0
 51
0.0
  0
LINE
  5
513
330
1F
100
AcDbEntity
  8
0
100
AcDbLine
 10
1291.809171382083
 20
998.3378653351785
 30
0.0
 11
1299.892075150737
 21
1012.337865335178
 31
0.0
  0
LINE
  5
514
330
1F
100
AcDbEntity
  8
0
100
AcDbLine
 10
1275.643363844773
 20
998.3378653351785
 30
0.0
 11
1291.809171382083
 21
998.3378653351785
 31
0.0
  0
LINE
  5
515
330
1F
100
AcDbEntity
  8
0
100
AcDbLine
 10
1252.226267613428
 20
1020.737865335179
 30
0.0
 11
1272.410202337311
 21
1020.737865335179
 31
0.0
  0
LINE
  5
516
330
1F
100
AcDbEntity
  8
0
100
AcDbLine
 10
1252.226267613428
 20
1028.337865335178
 30
0.0
 11
1315.226267613428
 21
1028.337865335178
 31
0.0
  0
LINE
  5
517
330
1F
100
AcDbEntity
  8
0
100
AcDbLine
 10
1252.226267613428
 20
1020.737865335179
 30
0.0
 11
1252.226267613428
 21
1028.337865335178
 31
0.0
  0
DIMENSION
  5
518
330
1F
100
AcDbEntity
  8
DIM
100
AcDbDimension
  2
*D3
 10
1248.001343070836
 20
1020.737865335179
 30
0.0
 11
1248.001343070836
 21
1024.537865335179
 31
0.0
 70
   160
 71
     5
 42
7.599999999999909
  3
ISO-25
100
AcDbAlignedDimension
 13
1252.226267613428
 23
1028.337865335178
 33
0.0
 14
1252.226267613428
 24
1020.737865335179
 34
0.0
 50
90.0
100
AcDbRotatedDimension
  0
LINE
  5
519
330
1F
100
AcDbEntity
  8
0
100
AcDbLine
 10
1295.042332889545
 20
1020.737865335179
 30
0.0
 11
1315.226267613428
 21
1020.737865335179
 31
0.0
  0
LINE
  5
51A
330
1F
100
AcDbEntity
  8
0
100
AcDbLine
 10
1291.809171382083
 20
1026.337865335178
 30
0.0
 11
1275.643363844773
 21
1026.337865335178
 31
0.0
  0
LINE
  5
51B
330
1F
100
AcDbEntity
  8
0
100
AcDbLine
 10
1315.226267613428
 20
1020.737865335179
 30
0.0
 11
1315.226267613428
 21
1028.337865335178
 31
0.0
  0
ARC
  5
51C
102
{ACAD_REACTORS
330
579
330
57C
102
}
330
1F
100
AcDbEntity
  8
0
100
AcDbCircle
 10
1218.933809876217
 20
1102.651461765298
 30
0.0
 40
7.5
100
AcDbArc
 50
0.0
 51
90.0
  0
LINE
  5
51D
102
{ACAD_REACTORS
330
587
102
}
330
1F
100
AcDbEntity
  8
CEN
100
AcDbLine
 10
1214.63947041422
 20
1102.651461765298
 30
0.0
 11
1223.231465947652
 21
1102.651461765298
 31
0.0
  0
CIRCLE
  5
51E
330
1F
100
AcDbEntity
  8
0
100
AcDbCircle
 10
1201.933809876217
 20
1078.654866290567
 30
0.0
 40
8.5
  0
CIRCLE
  5
51F
330
1F
100
AcDbEntity
  8
0
100
AcDbCircle
 10
1201.933809876217
 20
1078.654866290567
 30
0.0
 40
11.0
  0
CIRCLE
  5
520
330
1F
100
AcDbEntity
  8
0
100
AcDbCircle
 10
1201.933809876217
 20
1078.654866290567
 30
0.0
 40
10.0
  0
LINE
  5
521
330
1F
100
AcDbEntity
  8
0
100
AcDbLine
 10
1173.933809876216
 20
1110.151461765298
 30
0.0
 11
1218.933809876217
 21
1110.151461765298
 31
0.0
  0
LINE
  5
522
330
1F
100
AcDbEntity
  8
CEN
100
AcDbLine
 10
1218.933809876217
 20
1106.947459211951
 30
0.0
 11
1218.933809876217
 21
1098.355464318644
 31
0.0
  0
CIRCLE
  5
523
330
1F
100
AcDbEntity
  8
DIM
100
AcDbCircle
 10
1218.933809876217
 20
1102.651461765298
 30
0.0
 40
3.0
  0
CIRCLE
  5
524
330
1F
100
AcDbEntity
  8
0
100
AcDbCircle
 10
1218.933809876217
 20
1102.651461765298
 30
0.0
 40
2.5
  0
ARC
  5
525
330
1F
100
AcDbEntity
  8
0
100
AcDbCircle
 10
1230.282670664291
 20
1090.777690313672
 30
0.0
 40
8.651139211925054
100
AcDbArc
 50
332.1787926423448
 51
27.82120735765524
  0
LINE
  5
526
330
1F
100
AcDbEntity
  8
0
100
AcDbLine
 10
1238.933809876216
 20
1093.083247513805
 30
0.0
 11
1238.933809876217
 21
1064.23648506733
 31
0.0
  0
ARC
  5
527
330
1F
100
AcDbEntity
  8
0
100
AcDbCircle
 10
1205.748450868357
 20
1078.654866290567
 30
0.0
 40
33.18535900785932
100
AcDbArc
 50
345.8986392518925
 51
14.10136074810754
  0
ARC
  5
528
330
1F
100
AcDbEntity
  8
0
100
AcDbCircle
 10
1230.282670664291
 20
1066.532042267462
 30
0.0
 40
8.651139211925054
100
AcDbArc
 50
332.1787926423448
 51
27.82120735765524
  0
LINE
  5
529
330
1F
100
AcDbEntity
  8
0
100
AcDbLine
 10
1237.933809876216
 20
1062.494434259761
 30
0.0
 11
1238.933809876216
 21
1064.226485067329
 31
0.0
  0
LINE
  5
52A
330
1F
100
AcDbEntity
  8
0
100
AcDbLine
 10
1237.933809876216
 20
1062.494434259761
 30
0.0
 11
1226.433809876217
 21
1062.494434259761
 31
0.0
  0
LINE
  5
52B
330
1F
100
AcDbEntity
  8
0
100
AcDbLine
 10
1237.933809876216
 20
1070.569650275164
 30
0.0
 11
1226.433809876216
 21
1070.569650275164
 31
0.0
  0
LINE
  5
52C
330
1F
100
AcDbEntity
  8
0
100
AcDbLine
 10
1237.933809876216
 20
1086.74008230597
 30
0.0
 11
1226.433809876216
 21
1086.74008230597
 31
0.0
  0
LINE
  5
52D
330
1F
100
AcDbEntity
  8
0
100
AcDbLine
 10
1237.933809876216
 20
1094.815298321373
 30
0.0
 11
1238.933809876216
 21
1093.083247513805
 31
0.0
  0
LINE
  5
52E
330
1F
100
AcDbEntity
  8
0
100
AcDbLine
 10
1237.933809876216
 20
1094.815298321373
 30
0.0
 11
1226.433809876217
 21
1094.815298321373
 31
0.0
  0
LINE
  5
52F
330
1F
100
AcDbEntity
  8
0
100
AcDbLine
 10
1177.433809876217
 20
1000.337865335178
 30
0.0
 11
1220.933809876217
 21
1000.337865335178
 31
0.0
  0
LINE
  5
530
330
1F
100
AcDbEntity
  8
0
100
AcDbLine
 10
1181.133809876216
 20
1028.337865335178
 30
0.0
 11
1222.733809876216
 21
1028.337865335178
 31
0.0
  0
LINE
  5
531
330
1F
100
AcDbEntity
  8
CEN
100
AcDbLine
 10
1150.108781270521
 20
1012.337865335178
 30
0.0
 11
1241.368030249462
 21
1012.337865335178
 31
0.0
  0
LINE
  5
532
330
1F
100
AcDbEntity
  8
0
100
AcDbLine
 10
1181.133809876216
 20
1028.337865335178
 30
0.0
 11
1222.733809876216
 21
1028.337865335178
 31
0.0
  0
LINE
  5
533
330
1F
100
AcDbEntity
  8
0
100
AcDbLine
 10
1163.933809876217
 20
1028.337865335178
 30
0.0
 11
1226.433809876217
 21
1028.337865335178
 31
0.0
  0
LINE
  5
534
330
1F
100
AcDbEntity
  8
0
100
AcDbLine
 10
1163.933809876217
 20
1020.737865335178
 30
0.0
 11
1226.433809876217
 21
1020.737865335179
 31
0.0
  0
POINT
  5
535
330
1F
100
AcDbEntity
  8
Defpoints
  6
ByBlock
 62
     0
100
AcDbPoint
 10
1154.933809876217
 20
999.3378653351792
 30
0.0
  0
LINE
  5
536
330
1F
100
AcDbEntity
  8
0
100
AcDbLine
 10
1177.433809876217
 20
999.3378653351784
 30
0.0
 11
1176.774550684899
 21
998.3378653351785
 31
0.0
  0
ARC
  5
537
330
1F
100
AcDbEntity
  8
0
100
AcDbCircle
 10
1139.941255102265
 20
1005.337865335178
 30
0.0
 40
37.49255477395121
100
AcDbArc
 50
349.2395199229906
 51
10.76048007700943
  0
ARC
  5
538
330
1F
100
AcDbEntity
  8
0
100
AcDbCircle
 10
1139.941255102265
 20
1019.337865335178
 30
0.0
 40
37.49255477395121
100
AcDbArc
 50
349.2395199229906
 51
2.139964703535914
  0
ARC
  5
539
330
1F
100
AcDbEntity
  8
0
100
AcDbCircle
 10
1192.426364650168
 20
1019.337865335178
 30
0.0
 40
37.49255477395121
100
AcDbArc
 50
169.2395199229905
 51
190.7604800770094
  0
ARC
  5
53A
330
1F
100
AcDbEntity
  8
0
100
AcDbCircle
 10
1192.426364650168
 20
1005.337865335178
 30
0.0
 40
37.49255477395121
100
AcDbArc
 50
169.2395199229905
 51
190.7604800770094
  0
LINE
  5
53B
102
{ACAD_REACTORS
330
597
330
59A
102
}
330
1F
100
AcDbEntity
  8
0
100
AcDbLine
 10
1177.433809876217
 20
1000.337865335178
 30
0.0
 11
1177.433809876217
 21
999.3378653351784
 31
0.0
  0
LINE
  5
53C
102
{ACAD_REACTORS
330
5A0
102
}
330
1F
100
AcDbEntity
  8
0
100
AcDbLine
 10
1154.933809876217
 20
999.3378653351784
 30
0.0
 11
1155.593069067532
 21
998.3378653351785
 31
0.0
  0
LINE
  5
53D
330
1F
100
AcDbEntity
  8
0
100
AcDbLine
 10
1155.593069067532
 20
998.3378653351785
 30
0.0
 11
1176.774550684899
 21
998.3378653351785
 31
0.0
  0
LINE
  5
53E
330
1F
100
AcDbEntity
  8
0
100
AcDbLine
 10
1154.933809876217
 20
1025.337865335179
 30
0.0
 11
1155.593069067532
 21
1026.337865335178
 31
0.0
  0
LINE
  5
53F
330
1F
100
AcDbEntity
  8
0
100
AcDbLine
 10
1163.933809876217
 20
1026.337865335178
 30
0.0
 11
1155.593069067531
 21
1026.337865335178
 31
0.0
  0
LINE
  5
540
102
{ACAD_REACTORS
330
597
102
}
330
1F
100
AcDbEntity
  8
0
100
AcDbLine
 10
1154.933809876217
 20
1025.337865335179
 30
0.0
 11
1154.933809876217
 21
999.3378653351792
 31
0.0
  0
LINE
  5
541
330
1F
100
AcDbEntity
  8
0
100
AcDbLine
 10
1163.933809876217
 20
1028.337865335178
 30
0.0
 11
1163.933809876217
 21
1026.337865335178
 31
0.0
  0
LINE
  5
542
330
1F
100
AcDbEntity
  8
0
100
AcDbLine
 10
1163.933809876217
 20
1028.337865335178
 30
0.0
 11
1180.733809876216
 21
1028.337865335178
 31
0.0
  0
LINE
  5
543
330
1F
100
AcDbEntity
  8
0
100
AcDbLine
 10
1155.593069067532
 20
1012.337865335178
 30
0.0
 11
1176.774550684899
 21
1012.337865335178
 31
0.0
  0
LINE
  5
544
330
1F
100
AcDbEntity
  8
0
100
AcDbLine
 10
1163.933809876217
 20
1028.337865335178
 30
0.0
 11
1163.933809876217
 21
1025.337865335179
 31
0.0
  0
LINE
  5
545
330
1F
100
AcDbEntity
  8
0
100
AcDbLine
 10
1163.933809876217
 20
1028.337865335178
 30
0.0
 11
1180.733809876216
 21
1028.337865335178
 31
0.0
  0
LINE
  5
546
330
1F
100
AcDbEntity
  8
0
100
AcDbLine
 10
1177.433809876215
 20
1020.737865335178
 30
0.0
 11
1177.433809876217
 21
999.8378653351785
 31
0.0
  0
LINE
  5
547
330
1F
100
AcDbEntity
  8
0
100
AcDbLine
 10
1166.433809876217
 20
1028.337865335178
 30
0.0
 11
1166.433809876217
 21
1020.737865335178
 31
0.0
  0
LINE
  5
548
330
1F
100
AcDbEntity
  8
0
100
AcDbLine
 10
1163.933809876217
 20
1028.337865335178
 30
0.0
 11
1163.933809876217
 21
1020.737865335178
 31
0.0
  0
LINE
  5
549
330
1F
100
AcDbEntity
  8
0
100
AcDbLine
 10
1163.933809876217
 20
1028.337865335178
 30
0.0
 11
1163.933809876217
 21
1025.337865335179
 31
0.0
  0
LINE
  5
54A
330
1F
100
AcDbEntity
  8
0
100
AcDbLine
 10
1163.933809876217
 20
1028.337865335178
 30
0.0
 11
1180.733809876216
 21
1028.337865335178
 31
0.0
  0
LINE
  5
54B
330
1F
100
AcDbEntity
  8
0
100
AcDbLine
 10
1164.51264509058
 20
1018.842263253185
 30
0.0
 11
1164.51264509058
 21
1015.242263253185
 31
0.0
  0
LINE
  5
54C
330
1F
100
AcDbEntity
  8
0
100
AcDbLine
 10
1160.154168817747
 20
1018.842263253185
 30
0.0
 11
1164.51264509058
 21
1018.842263253185
 31
0.0
  0
LINE
  5
54D
330
1F
100
AcDbEntity
  8
0
100
AcDbLine
 10
1160.154168817747
 20
1015.242263253185
 30
0.0
 11
1164.51264509058
 21
1015.242263253185
 31
0.0
  0
LINE
  5
54E
330
1F
100
AcDbEntity
  8
0
100
AcDbLine
 10
1160.154168817747
 20
1020.642263253185
 30
0.0
 11
1160.154168817747
 21
1018.842263253185
 31
0.0
  0
LINE
  5
54F
330
1F
100
AcDbEntity
  8
0
100
AcDbLine
 10
1157.454168817747
 20
1017.042263253186
 30
0.0
 11
1160.154168817747
 21
1020.642263253185
 31
0.0
  0
LINE
  5
550
330
1F
100
AcDbEntity
  8
0
100
AcDbLine
 10
1157.454168817747
 20
1017.042263253186
 30
0.0
 11
1160.154168817747
 21
1013.442263253185
 31
0.0
  0
LINE
  5
551
330
1F
100
AcDbEntity
  8
0
100
AcDbLine
 10
1160.154168817747
 20
1015.242263253185
 30
0.0
 11
1160.154168817747
 21
1013.442263253185
 31
0.0
  0
LINE
  5
552
102
{ACAD_REACTORS
330
59D
102
}
330
1F
100
AcDbEntity
  8
0
100
AcDbLine
 10
1220.933809876213
 20
999.3378653351784
 30
0.0
 11
1221.593069067531
 21
998.3378653351785
 31
0.0
  0
POINT
  5
553
102
{ACAD_REACTORS
330
59A
102
}
330
1F
100
AcDbEntity
  8
Defpoints
  6
ByBlock
 62
     0
100
AcDbPoint
 10
1220.933809876213
 20
999.3378653351792
 30
0.0
  0
ARC
  5
554
330
1F
100
AcDbEntity
  8
0
100
AcDbCircle
 10
1258.426364650164
 20
1019.337865335178
 30
0.0
 40
37.49255477395121
100
AcDbArc
 50
177.8600352964641
 51
190.7604800770094
  0
ARC
  5
555
330
1F
100
AcDbEntity
  8
0
100
AcDbCircle
 10
1258.426364650164
 20
1005.337865335178
 30
0.0
 40
37.49255477395121
100
AcDbArc
 50
169.2395199229905
 51
190.7604800770094
  0
POINT
  5
556
330
1F
100
AcDbEntity
  8
Defpoints
  6
ByBlock
 62
     0
100
AcDbPoint
 10
1238.933809876217
 20
999.3378653351792
 30
0.0
  0
ARC
  5
557
330
1F
100
AcDbEntity
  8
0
100
AcDbCircle
 10
1201.441255102265
 20
1005.337865335178
 30
0.0
 40
37.49255477395121
100
AcDbArc
 50
349.2395199229906
 51
10.76048007700943
  0
ARC
  5
558
330
1F
100
AcDbEntity
  8
0
100
AcDbCircle
 10
1201.441255102265
 20
1019.337865335178
 30
0.0
 40
37.49255477395121
100
AcDbArc
 50
349.2395199229906
 51
10.76048007700943
  0
LINE
  5
559
102
{ACAD_REACTORS
330
59D
102
}
330
1F
100
AcDbEntity
  8
0
100
AcDbLine
 10
1238.933809876217
 20
1025.337865335179
 30
0.0
 11
1238.933809876217
 21
999.3378653351792
 31
0.0
  0
LINE
  5
55A
330
1F
100
AcDbEntity
  8
0
100
AcDbLine
 10
1238.933809876217
 20
999.3378653351784
 30
0.0
 11
1238.274550684899
 21
998.3378653351785
 31
0.0
  0
LINE
  5
55B
102
{ACAD_REACTORS
330
59D
102
}
330
1F
100
AcDbEntity
  8
0
100
AcDbLine
 10
1220.933809876217
 20
1000.337865335178
 30
0.0
 11
1220.933809876217
 21
999.3378653351749
 31
0.0
  0
LINE
  5
55C
330
1F
100
AcDbEntity
  8
0
100
AcDbLine
 10
1221.593069067531
 20
998.3378653351785
 30
0.0
 11
1238.274550684899
 21
998.3378653351785
 31
0.0
  0
LINE
  5
55D
330
1F
100
AcDbEntity
  8
0
100
AcDbLine
 10
1223.133809876216
 20
1028.337865335178
 30
0.0
 11
1226.433809876217
 21
1028.337865335178
 31
0.0
  0
LINE
  5
55E
330
1F
100
AcDbEntity
  8
0
100
AcDbLine
 10
1238.933809876217
 20
1025.337865335179
 30
0.0
 11
1238.274550684899
 21
1026.337865335178
 31
0.0
  0
LINE
  5
55F
330
1F
100
AcDbEntity
  8
0
100
AcDbLine
 10
1238.274550684899
 20
1026.337865335178
 30
0.0
 11
1226.433809876217
 21
1026.337865335178
 31
0.0
  0
LINE
  5
560
330
1F
100
AcDbEntity
  8
0
100
AcDbLine
 10
1221.593069067531
 20
1012.337865335178
 30
0.0
 11
1238.274550684899
 21
1012.337865335178
 31
0.0
  0
LINE
  5
561
330
1F
100
AcDbEntity
  8
0
100
AcDbLine
 10
1220.933809876213
 20
1020.737865335178
 30
0.0
 11
1220.933809876217
 21
999.8378653351785
 31
0.0
  0
LINE
  5
562
330
1F
100
AcDbEntity
  8
0
100
AcDbLine
 10
1223.133809876216
 20
1028.337865335178
 30
0.0
 11
1226.433809876217
 21
1028.337865335178
 31
0.0
  0
LINE
  5
563
330
1F
100
AcDbEntity
  8
0
100
AcDbLine
 10
1226.433809876217
 20
1028.337865335178
 30
0.0
 11
1226.433809876217
 21
1020.737865335179
 31
0.0
  0
LINE
  5
564
330
1F
100
AcDbEntity
  8
0
100
AcDbLine
 10
1207.933809876217
 20
1006.837865335178
 30
0.0
 11
1207.933809876217
 21
1009.137865335178
 31
0.0
  0
LINE
  5
565
330
1F
100
AcDbEntity
  8
0
100
AcDbLine
 10
1195.933809876217
 20
1006.837865335178
 30
0.0
 11
1195.933809876217
 21
1009.137865335178
 31
0.0
  0
LINE
  5
566
330
1F
100
AcDbEntity
  8
CEN
100
AcDbLine
 10
1201.933809876217
 20
998.276041497588
 30
0.0
 11
1201.933809876217
 21
1031.052870861218
 31
0.0
  0
LINE
  5
567
330
1F
100
AcDbEntity
  8
CEN
100
AcDbLine
 10
1190.309385775323
 20
1006.837865335178
 30
0.0
 11
1213.55823397711
 21
1006.837865335178
 31
0.0
  0
ARC
  5
568
330
1F
100
AcDbEntity
  8
0
100
AcDbCircle
 10
1201.933809876217
 20
1006.837865335178
 30
0.0
 40
6.0
100
AcDbArc
 50
180.0
 51
0.0
  0
CIRCLE
  5
569
330
1F
100
AcDbEntity
  8
0
100
AcDbCircle
 10
1173.933809876217
 20
1078.651461765298
 30
0.0
 40
3.500001655827166
  0
CIRCLE
  5
56A
330
1F
100
AcDbEntity
  8
0
100
AcDbCircle
 10
1201.933809876217
 20
1078.654866290567
 30
0.0
 40
20.49999999999998
  0
CIRCLE
  5
56B
330
1F
100
AcDbEntity
  8
0
100
AcDbCircle
 10
1201.933809876217
 20
1078.654866290567
 30
0.0
 40
22.27999999999997
  0
CIRCLE
  5
56C
330
1F
100
AcDbEntity
  8
0
100
AcDbCircle
 10
1173.933809876217
 20
1078.651461765298
 30
0.0
 40
5.000001159079173
  0
DIMENSION
  5
56D
330
1F
100
AcDbEntity
  8
DIM
100
AcDbDimension
  2
*D4
 10
1305.726267613428
 20
1033.234063146686
 30
0.0
 11
1283.726267613428
 21
1035.109063146686
 31
0.0
 70
    32
 71
     5
 42
44.0
  3
ISO-25C
100
AcDbAlignedDimension
 13
1261.726267613427
 23
1020.737865335179
 33
0.0
 14
1305.726267613428
 24
1020.837865335182
 34
0.0
100
AcDbRotatedDimension
  0
LINE
  5
56E
330
1F
100
AcDbEntity
  8
0
100
AcDbLine
 10
1271.726267613428
 20
1020.737865335179
 30
0.0
 11
1271.726267613428
 21
1019.553255644351
 31
0.0
  0
LINE
  5
56F
330
1F
100
AcDbEntity
  8
0
100
AcDbLine
 10
1295.726267613428
 20
1019.553255644352
 30
0.0
 11
1295.726267613428
 21
1020.737865335179
 31
0.0
  0
DIMENSION
  5
570
102
{ACAD_XDICTIONARY
360
571
102
}
102
{ACAD_REACTORS
330
572
102
}
330
1F
100
AcDbEntity
  8
DIM
100
AcDbDimension
  2
*D6
 10
1201.933809876217
 20
1116.229261453829
 30
0.0
 11
1187.892675563456
 21
1116.229261453829
 31
0.0
 70
   160
 71
     5
 42
27.99999999999978
  3
ISO-25
100
AcDbAlignedDimension
 13
1173.933809876217
 23
1112.073530461862
 33
0.0
 14
1201.933809876217
 24
1112.073530461862
 34
0.0
100
AcDbRotatedDimension
  0
DIMENSION
  5
573
330
1F
100
AcDbEntity
  8
DIM
100
AcDbDimension
  2
*D5
 10
1218.933809876217
 20
1116.229261453829
 30
0.0
 11
1210.433809876217
 21
1118.104261453829
 31
0.0
 70
    32
 71
     5
 42
17.00000000000023
  3
ISO-25
100
AcDbAlignedDimension
 13
1201.933809876217
 23
1110.09525355725
 33
0.0
 14
1218.933809876217
 24
1106.947459211951
 34
0.0
100
AcDbRotatedDimension
  0
DIMENSION
  5
574
102
{ACAD_XDICTIONARY
360
575
102
}
102
{ACAD_REACTORS
330
576
102
}
330
1F
100
AcDbEntity
  8
DIM
100
AcDbDimension
  2
*D7
 10
1201.933809876217
 20
1122.274674289361
 30
0.0
 11
1184.435373493379
 21
1122.274674289361
 31
0.0
 70
   160
 71
     5
 42
35.50000000000068
  3
ISO-25
100
AcDbAlignedDimension
 13
1166.433809876216
 23
1102.651461765297
 33
0.0
 14
1201.933809876217
 24
1111.973460209914
 34
0.0
100
AcDbRotatedDimension
  0
DIMENSION
  5
577
102
{ACAD_XDICTIONARY
360
578
102
}
102
{ACAD_REACTORS
330
579
102
}
330
1F
100
AcDbEntity
  8
DIM
100
AcDbDimension
  2
*D8
 10
1226.433809876217
 20
1122.274674289361
 30
0.0
 11
1214.183809876217
 21
1124.337420352353
 31
0.0
 70
    32
 71
     5
 42
24.50000000000023
  3
ISO-25
100
AcDbAlignedDimension
 13
1201.933809876217
 23
1113.94831471554
 33
0.0
 14
1226.433809876217
 24
1102.651461765297
 34
0.0
100
AcDbRotatedDimension
  0
LEADER
  5
57A
102
{ACAD_XDICTIONARY
360
57B
102
}
102
{ACAD_REACTORS
330
57C
102
}
330
1F
100
AcDbEntity
  8
DIM
100
AcDbLeader
  3
ISO-25
 73
     0
 74
     0
 75
     1
 40
2.5
 41
15.0990157480315
 76
     3
 10
1224.810779743407
 20
1107.310992340382
 30
0.0
 10
1228.857181227113
 20
1113.972888908464
 30
0.0
 10
1231.357181227113
 20
1113.972888908464
 30
0.0
340
57D
213
0.0
223
-1.25
233
0.0
1001
ACAD
1000
DSTYLE
1002
{
1070
   147
1040
0.625
1070
    77
1070
     0
1002
}
  0
MTEXT
  5
57D
102
{ACAD_REACTORS
330
57A
102
}
330
1F
100
AcDbEntity
  8
DIM
100
AcDbMText
 10
1231.982181227113
 20
1115.222888908464
 30
0.0
 40
2.5
 41
0.0
 71
     1
 72
     1
  1
R7.5x4PLS
 73
     1
 44
1.0
1001
ACAD
1000
MTEXTBEGIN
1070
    73
1070
     1
1070
    44
1040
1.0
1070
    74
1070
     0
1000
MTEXTEND
  0
LEADER
  5
57E
330
1F
100
AcDbEntity
  8
DIM
100
AcDbLeader
  3
ISO-25
 73
     0
 75
     1
 40
3.313953488372092
 41
24.29505813953489
 76
     3
 10
1175.347255761308
 20
1052.005300256636
 30
0.0
 10
1179.978717315162
 20
1040.112620251317
 30
0.0
 10
1177.478717315162
 20
1040.112620251317
 30
0.0
340
57F
213
0.0
223
1.25
233
0.0
1001
ACAD
1000
DSTYLE
1002
{
1070
   147
1040
0.625
1070
    77
1070
     0
1002
}
  0
MTEXT
  5
57F
102
{ACAD_REACTORS
330
57E
102
}
330
1F
100
AcDbEntity
  8
DIM
100
AcDbMText
 10
1176.853717315162
 20
1038.862620251317
 30
0.0
 40
2.5
 41
0.0
 71
     9
 72
     1
  1
M6xP1.0x4PLS{\fPMingLiU|b0|i0|c136|p18;通}
 73
     1
 44
1.0
1001
ACAD
1000
MTEXTBEGIN
1070
    73
1070
     1
1070
    44
1040
1.0
1070
    74
1070
     0
1000
MTEXTEND
  0
LEADER
  5
580
330
1F
100
AcDbEntity
  8
DIM
100
AcDbLeader
  3
ISO-25
 73
     0
 75
     1
 40
2.5
 41
4.251968503937009
 76
     3
 10
1164.121905282582
 20
1080.581883544447
 30
0.0
 10
1154.882698279911
 20
1087.253941530955
 30
0.0
 10
1152.382698279911
 20
1087.253941530955
 30
0.0
340
581
213
0.0
223
1.25
233
0.0
1001
ACAD
1000
DSTYLE
1002
{
1070
   147
1040
0.625
1070
    77
1070
     0
1002
}
  0
MTEXT
  5
581
102
{ACAD_REACTORS
330
580
102
}
330
1F
100
AcDbEntity
  8
DIM
100
AcDbMText
 10
1151.757698279911
 20
1086.003941530955
 30
0.0
 40
2.5
 41
0.0
 71
     9
 72
     1
  1
R10
 73
     1
 44
1.0
1001
ACAD
1000
MTEXTBEGIN
1070
    73
1070
     1
1070
    44
1040
1.0
1070
    74
1070
     0
1000
MTEXTEND
  0
DIMENSION
  5
582
102
{ACAD_XDICTIONARY
360
583
102
}
102
{ACAD_REACTORS
330
584
102
}
330
1F
100
AcDbEntity
  8
DIM
100
AcDbDimension
  2
*D9
 10
1247.036442096981
 20
1054.651461765298
 30
0.0
 11
1245.161196033989
 21
1066.653164027933
 31
0.0
 70
    32
 71
     5
 42
24.00340452526939
  3
ISO-25
100
AcDbAlignedDimension
 13
1244.028510136895
 23
1078.654866290567
 33
0.0
 14
1223.231465947652
 24
1054.651461765298
 34
0.0
 50
90.0
100
AcDbRotatedDimension
  0
DIMENSION
  5
585
102
{ACAD_XDICTIONARY
360
586
102
}
102
{ACAD_REACTORS
330
587
102
}
330
1F
100
AcDbEntity
  8
DIM
100
AcDbDimension
  2
*D10
 10
1252.259355618614
 20
1054.651461765298
 30
0.0
 11
1250.384355618614
 21
1078.651461765298
 31
0.0
 70
    32
 71
     5
 42
48.0
  3
ISO-25
100
AcDbAlignedDimension
 13
1223.231465947652
 23
1102.651461765298
 33
0.0
 14
1223.231465947652
 24
1054.651461765298
 34
0.0
 50
90.0
100
AcDbRotatedDimension
  0
DIMENSION
  5
588
330
1F
100
AcDbEntity
  8
DIM
100
AcDbDimension
  2
*D11
 10
1256.794581261205
 20
1047.151461765298
 30
0.0
 11
1254.919581261205
 21
1078.651461765298
 31
0.0
 70
    32
 71
     5
 42
63.0
  3
ISO-25
100
AcDbAlignedDimension
 13
1218.933809876217
 23
1110.151461765298
 33
0.0
 14
1218.933809876216
 24
1047.151461765298
 34
0.0
 50
90.0
100
AcDbRotatedDimension
  0
LINE
  5
58B
330
1F
100
AcDbEntity
  8
CEN
100
AcDbLine
 10
1214.63947041422
 20
1054.651461765298
 30
0.0
 11
1223.231465947652
 21
1054.651461765298
 31
0.0
  0
LINE
  5
58C
330
1F
100
AcDbEntity
  8
CEN
100
AcDbLine
 10
1218.933809876217
 20
1058.947459211951
 30
0.0
 11
1218.933809876217
 21
1050.355464318644
 31
0.0
  0
LINE
  5
58D
330
1F
100
AcDbEntity
  8
CEN
100
AcDbLine
 10
1169.63947041422
 20
1054.651461765298
 30
0.0
 11
1178.231465947652
 21
1054.651461765298
 31
0.0
  0
LINE
  5
58E
330
1F
100
AcDbEntity
  8
CEN
100
AcDbLine
 10
1169.63947041422
 20
1102.651461765298
 30
0.0
 11
1178.231465947652
 21
1102.651461765298
 31
0.0
  0
DIMENSION
  5
58F
102
{ACAD_XDICTIONARY
360
590
102
}
102
{ACAD_REACTORS
330
591
102
}
330
1F
100
AcDbEntity
  8
DIM
100
AcDbDimension
  2
*D12
 10
1283.726267613428
 20
991.9977186514534
 30
0.0
 11
1274.276267613428
 21
994.0602186514535
 31
0.0
 70
    32
 71
     5
 42
18.89999999999963
  3
ISO-25
100
AcDbAlignedDimension
 13
1264.826267613428
 23
1001.337865335178
 33
0.0
 14
1283.726267613428
 24
996.1401315429498
 34
0.0
100
AcDbRotatedDimension
  0
LINE
  5
592
330
1F
100
AcDbEntity
  8
0
100
AcDbLine
 10
1193.433809876217
 20
1020.737865335178
 30
0.0
 11
1193.433809876217
 21
1009.137865335178
 31
0.0
  0
LINE
  5
593
330
1F
100
AcDbEntity
  8
0
100
AcDbLine
 10
1210.433809876217
 20
1020.737865335178
 30
0.0
 11
1210.433809876217
 21
1009.137865335178
 31
0.0
  0
LINE
  5
594
330
1F
100
AcDbEntity
  8
0
100
AcDbLine
 10
1193.433809876217
 20
1009.137865335178
 30
0.0
 11
1210.433809876217
 21
1009.137865335178
 31
0.0
  0
DIMENSION
  5
595
102
{ACAD_XDICTIONARY
360
596
102
}
102
{ACAD_REACTORS
330
597
102
}
330
1F
100
AcDbEntity
  8
DIM
100
AcDbDimension
  2
*D13
 10
1177.433809876217
 20
991.9977186514534
 30
0.0
 11
1166.183809876217
 21
994.0604647144455
 31
0.0
 70
    32
 71
     5
 42
22.5
  3
ISO-25
100
AcDbAlignedDimension
 13
1154.933809876217
 23
999.3378653351792
 33
0.0
 14
1177.433809876217
 24
999.3378653351792
 34
0.0
100
AcDbRotatedDimension
  0
DIMENSION
  5
598
102
{ACAD_XDICTIONARY
360
599
102
}
102
{ACAD_REACTORS
330
59A
102
}
330
1F
100
AcDbEntity
  8
DIM
100
AcDbDimension
  2
*D14
 10
1220.933809876213
 20
991.9977186514534
 30
0.0
 11
1199.183809876215
 21
994.0602186514535
 31
0.0
 70
    32
 71
     5
 42
43.49999999999636
  3
ISO-25
100
AcDbAlignedDimension
 13
1177.433809876217
 23
999.3378653351784
 33
0.0
 14
1220.933809876213
 24
999.3378653351792
 34
0.0
100
AcDbRotatedDimension
  0
DIMENSION
  5
59B
102
{ACAD_XDICTIONARY
360
59C
102
}
102
{ACAD_REACTORS
330
59D
102
}
330
1F
100
AcDbEntity
  8
DIM
100
AcDbDimension
  2
*D15
 10
1238.933809876217
 20
991.9977186514534
 30
0.0
 11
1229.933809876217
 21
993.8727186514535
 31
0.0
 70
    32
 71
     5
 42
18.0
  3
ISO-25
100
AcDbAlignedDimension
 13
1220.933809876217
 23
999.3378653351729
 33
0.0
 14
1238.933809876217
 24
999.337865335179
 34
0.0
100
AcDbRotatedDimension
  0
DIMENSION
  5
59E
102
{ACAD_XDICTIONARY
360
59F
102
}
102
{ACAD_REACTORS
330
5A0
102
}
330
1F
100
AcDbEntity
  8
DIM
100
AcDbDimension
  2
*D16
 10
1238.933809876217
 20
984.7040653370324
 30
0.0
 11
1196.801252369366
 21
984.7040653370324
 31
0.0
 70
   160
 71
     5
 42
84.0
  3
ISO-25
100
AcDbAlignedDimension
 13
1154.933809876217
 23
999.3378653351784
 33
0.0
 14
1238.933809876217
 24
999.3378653351792
 34
0.0
100
AcDbRotatedDimension
  0
LINE
  5
5A1
330
1F
100
AcDbEntity
  8
0
100
AcDbLine
 10
1390.253876825589
 20
1000.337865335178
 30
0.0
 11
1346.753876825589
 21
1000.337865335178
 31
0.0
  0
LINE
  5
5A2
330
1F
100
AcDbEntity
  8
0
100
AcDbLine
 10
1386.55387682559
 20
1028.337865335178
 30
0.0
 11
1344.95387682559
 21
1028.337865335178
 31
0.0
  0
LINE
  5
5A3
330
1F
100
AcDbEntity
  8
CEN
100
AcDbLine
 10
1415.424764338425
 20
1012.337865335178
 30
0.0
 11
1327.016303838657
 21
1012.337865335178
 31
0.0
  0
LINE
  5
5A4
330
1F
100
AcDbEntity
  8
0
100
AcDbLine
 10
1386.55387682559
 20
1028.337865335178
 30
0.0
 11
1344.95387682559
 21
1028.337865335178
 31
0.0
  0
LINE
  5
5A5
330
1F
100
AcDbEntity
  8
0
100
AcDbLine
 10
1403.753876825589
 20
1028.337865335178
 30
0.0
 11
1341.253876825589
 21
1028.337865335178
 31
0.0
  0
LINE
  5
5A6
330
1F
100
AcDbEntity
  8
0
100
AcDbLine
 10
1403.753876825589
 20
1020.737865335178
 30
0.0
 11
1341.253876825589
 21
1020.737865335179
 31
0.0
  0
POINT
  5
5A7
330
1F
100
AcDbEntity
  8
Defpoints
  6
ByBlock
 62
     0
100
AcDbPoint
 10
1412.753876825589
 20
999.3378653351792
 30
0.0
 50
180.0
  0
LINE
  5
5A8
330
1F
100
AcDbEntity
  8
0
100
AcDbLine
 10
1390.253876825589
 20
999.3378653351784
 30
0.0
 11
1390.913136016907
 21
998.3378653351785
 31
0.0
  0
ARC
  5
5A9
330
1F
100
AcDbEntity
  8
0
100
AcDbCircle
 10
1427.746431599541
 20
1005.337865335178
 30
0.0
 40
37.49255477395121
100
AcDbArc
 50
169.2395199229905
 51
190.7604800770094
  0
ARC
  5
5AA
330
1F
100
AcDbEntity
  8
0
100
AcDbCircle
 10
1427.746431599541
 20
1019.337865335178
 30
0.0
 40
37.49255477395121
100
AcDbArc
 50
177.8600352964641
 51
190.7604800770094
  0
ARC
  5
5AB
330
1F
100
AcDbEntity
  8
0
100
AcDbCircle
 10
1375.261322051638
 20
1019.337865335178
 30
0.0
 40
37.49255477395121
100
AcDbArc
 50
349.2395199229906
 51
10.76048007700943
  0
ARC
  5
5AC
330
1F
100
AcDbEntity
  8
0
100
AcDbCircle
 10
1375.261322051638
 20
1005.337865335178
 30
0.0
 40
37.49255477395121
100
AcDbArc
 50
349.2395199229906
 51
10.76048007700943
  0
LINE
  5
5AD
330
1F
100
AcDbEntity
  8
0
100
AcDbLine
 10
1390.253876825589
 20
1000.337865335178
 30
0.0
 11
1390.253876825589
 21
999.3378653351784
 31
0.0
  0
LINE
  5
5AE
330
1F
100
AcDbEntity
  8
0
100
AcDbLine
 10
1412.753876825589
 20
999.3378653351784
 30
0.0
 11
1412.094617634273
 21
998.3378653351785
 31
0.0
  0
LINE
  5
5AF
330
1F
100
AcDbEntity
  8
0
100
AcDbLine
 10
1412.094617634273
 20
998.3378653351785
 30
0.0
 11
1390.913136016907
 21
998.3378653351785
 31
0.0
  0
LINE
  5
5B0
330
1F
100
AcDbEntity
  8
0
100
AcDbLine
 10
1412.753876825589
 20
1025.337865335179
 30
0.0
 11
1412.094617634273
 21
1026.337865335178
 31
0.0
  0
LINE
  5
5B1
330
1F
100
AcDbEntity
  8
0
100
AcDbLine
 10
1403.753876825589
 20
1026.337865335178
 30
0.0
 11
1412.094617634275
 21
1026.337865335178
 31
0.0
  0
LINE
  5
5B2
330
1F
100
AcDbEntity
  8
0
100
AcDbLine
 10
1412.753876825589
 20
1025.337865335179
 30
0.0
 11
1412.753876825589
 21
999.3378653351792
 31
0.0
  0
LINE
  5
5B3
330
1F
100
AcDbEntity
  8
0
100
AcDbLine
 10
1403.753876825589
 20
1028.337865335178
 30
0.0
 11
1403.753876825589
 21
1026.337865335178
 31
0.0
  0
LINE
  5
5B4
330
1F
100
AcDbEntity
  8
0
100
AcDbLine
 10
1403.753876825589
 20
1028.337865335178
 30
0.0
 11
1386.95387682559
 21
1028.337865335178
 31
0.0
  0
LINE
  5
5B5
330
1F
100
AcDbEntity
  8
0
100
AcDbLine
 10
1412.094617634273
 20
1012.337865335178
 30
0.0
 11
1390.913136016907
 21
1012.337865335178
 31
0.0
  0
LINE
  5
5B6
330
1F
100
AcDbEntity
  8
0
100
AcDbLine
 10
1403.753876825589
 20
1028.337865335178
 30
0.0
 11
1403.753876825589
 21
1025.337865335179
 31
0.0
  0
LINE
  5
5B7
330
1F
100
AcDbEntity
  8
0
100
AcDbLine
 10
1403.753876825589
 20
1028.337865335178
 30
0.0
 11
1386.95387682559
 21
1028.337865335178
 31
0.0
  0
LINE
  5
5B8
330
1F
100
AcDbEntity
  8
0
100
AcDbLine
 10
1390.253876825591
 20
1020.737865335178
 30
0.0
 11
1390.253876825589
 21
999.8378653351785
 31
0.0
  0
LINE
  5
5B9
330
1F
100
AcDbEntity
  8
0
100
AcDbLine
 10
1401.253876825589
 20
1028.337865335178
 30
0.0
 11
1401.253876825589
 21
1020.737865335178
 31
0.0
  0
LINE
  5
5BA
330
1F
100
AcDbEntity
  8
0
100
AcDbLine
 10
1403.753876825589
 20
1028.337865335178
 30
0.0
 11
1403.753876825589
 21
1020.737865335178
 31
0.0
  0
LINE
  5
5BB
330
1F
100
AcDbEntity
  8
0
100
AcDbLine
 10
1403.753876825589
 20
1028.337865335178
 30
0.0
 11
1403.753876825589
 21
1025.337865335179
 31
0.0
  0
LINE
  5
5BC
330
1F
100
AcDbEntity
  8
0
100
AcDbLine
 10
1403.753876825589
 20
1028.337865335178
 30
0.0
 11
1386.95387682559
 21
1028.337865335178
 31
0.0
  0
LINE
  5
5BD
330
1F
100
AcDbEntity
  8
0
100
AcDbLine
 10
1402.047298104228
 20
1018.242263253185
 30
0.0
 11
1402.047298104228
 21
1015.842263253185
 31
0.0
  0
LINE
  5
5BE
330
1F
100
AcDbEntity
  8
0
100
AcDbLine
 10
1404.952948952783
 20
1018.242263253185
 30
0.0
 11
1402.047298104228
 21
1018.242263253185
 31
0.0
  0
LINE
  5
5BF
330
1F
100
AcDbEntity
  8
0
100
AcDbLine
 10
1404.952948952783
 20
1015.842263253185
 30
0.0
 11
1402.047298104228
 21
1015.842263253185
 31
0.0
  0
LINE
  5
5C0
330
1F
100
AcDbEntity
  8
0
100
AcDbLine
 10
1404.952948952783
 20
1019.442263253185
 30
0.0
 11
1404.952948952783
 21
1018.242263253185
 31
0.0
  0
LINE
  5
5C1
330
1F
100
AcDbEntity
  8
0
100
AcDbLine
 10
1406.752948952783
 20
1017.042263253185
 30
0.0
 11
1404.952948952783
 21
1019.442263253185
 31
0.0
  0
LINE
  5
5C2
330
1F
100
AcDbEntity
  8
0
100
AcDbLine
 10
1406.752948952783
 20
1017.042263253185
 30
0.0
 11
1404.952948952783
 21
1014.642263253185
 31
0.0
  0
LINE
  5
5C3
330
1F
100
AcDbEntity
  8
0
100
AcDbLine
 10
1404.952948952783
 20
1015.842263253185
 30
0.0
 11
1404.952948952783
 21
1014.642263253185
 31
0.0
  0
LINE
  5
5C4
330
1F
100
AcDbEntity
  8
0
100
AcDbLine
 10
1346.753876825593
 20
999.3378653351784
 30
0.0
 11
1346.094617634275
 21
998.3378653351785
 31
0.0
  0
POINT
  5
5C5
330
1F
100
AcDbEntity
  8
Defpoints
  6
ByBlock
 62
     0
100
AcDbPoint
 10
1346.753876825593
 20
999.3378653351792
 30
0.0
 50
180.0
  0
ARC
  5
5C6
330
1F
100
AcDbEntity
  8
0
100
AcDbCircle
 10
1309.261322051641
 20
1019.337865335178
 30
0.0
 40
37.49255477395121
100
AcDbArc
 50
349.2395199229906
 51
2.139964703535914
  0
ARC
  5
5C7
330
1F
100
AcDbEntity
  8
0
100
AcDbCircle
 10
1309.261322051641
 20
1005.337865335178
 30
0.0
 40
37.49255477395121
100
AcDbArc
 50
349.2395199229906
 51
10.76048007700943
  0
POINT
  5
5C8
330
1F
100
AcDbEntity
  8
Defpoints
  6
ByBlock
 62
     0
100
AcDbPoint
 10
1328.753876825589
 20
999.3378653351792
 30
0.0
 50
180.0
  0
ARC
  5
5C9
330
1F
100
AcDbEntity
  8
0
100
AcDbCircle
 10
1366.24643159954
 20
1005.337865335178
 30
0.0
 40
37.49255477395121
100
AcDbArc
 50
169.2395199229905
 51
190.7604800770094
  0
ARC
  5
5CA
330
1F
100
AcDbEntity
  8
0
100
AcDbCircle
 10
1366.24643159954
 20
1019.337865335178
 30
0.0
 40
37.49255477395121
100
AcDbArc
 50
169.2395199229905
 51
190.7604800770094
  0
LINE
  5
5CB
330
1F
100
AcDbEntity
  8
0
100
AcDbLine
 10
1328.753876825589
 20
1025.337865335179
 30
0.0
 11
1328.753876825589
 21
999.3378653351792
 31
0.0
  0
LINE
  5
5CC
330
1F
100
AcDbEntity
  8
0
100
AcDbLine
 10
1328.753876825589
 20
999.3378653351784
 30
0.0
 11
1329.413136016907
 21
998.3378653351785
 31
0.0
  0
LINE
  5
5CD
330
1F
100
AcDbEntity
  8
0
100
AcDbLine
 10
1346.753876825589
 20
1000.337865335178
 30
0.0
 11
1346.753876825589
 21
999.3378653351749
 31
0.0
  0
LINE
  5
5CE
330
1F
100
AcDbEntity
  8
0
100
AcDbLine
 10
1346.094617634275
 20
998.3378653351785
 30
0.0
 11
1329.413136016907
 21
998.3378653351785
 31
0.0
  0
LINE
  5
5CF
330
1F
100
AcDbEntity
  8
0
100
AcDbLine
 10
1344.55387682559
 20
1028.337865335178
 30
0.0
 11
1341.253876825589
 21
1028.337865335178
 31
0.0
  0
LINE
  5
5D0
330
1F
100
AcDbEntity
  8
0
100
AcDbLine
 10
1328.753876825589
 20
1025.337865335179
 30
0.0
 11
1329.413136016907
 21
1026.337865335178
 31
0.0
  0
LINE
  5
5D1
330
1F
100
AcDbEntity
  8
0
100
AcDbLine
 10
1329.413136016907
 20
1026.337865335178
 30
0.0
 11
1341.253876825589
 21
1026.337865335178
 31
0.0
  0
LINE
  5
5D2
330
1F
100
AcDbEntity
  8
0
100
AcDbLine
 10
1346.094617634275
 20
1012.337865335178
 30
0.0
 11
1329.413136016907
 21
1012.337865335178
 31
0.0
  0
LINE
  5
5D3
330
1F
100
AcDbEntity
  8
0
100
AcDbLine
 10
1346.753876825593
 20
1020.737865335178
 30
0.0
 11
1346.753876825589
 21
999.8378653351785
 31
0.0
  0
LINE
  5
5D4
330
1F
100
AcDbEntity
  8
0
100
AcDbLine
 10
1344.55387682559
 20
1028.337865335178
 30
0.0
 11
1341.253876825589
 21
1028.337865335178
 31
0.0
  0
LINE
  5
5D5
330
1F
100
AcDbEntity
  8
0
100
AcDbLine
 10
1341.253876825589
 20
1028.337865335178
 30
0.0
 11
1341.253876825589
 21
1020.737865335179
 31
0.0
  0
LINE
  5
5D6
330
1F
100
AcDbEntity
  8
0
100
AcDbLine
 10
1359.753876825589
 20
1006.837865335178
 30
0.0
 11
1359.753876825589
 21
1009.137865335178
 31
0.0
  0
LINE
  5
5D7
330
1F
100
AcDbEntity
  8
0
100
AcDbLine
 10
1371.753876825589
 20
1006.837865335178
 30
0.0
 11
1371.753876825589
 21
1009.137865335178
 31
0.0
  0
LINE
  5
5D8
330
1F
100
AcDbEntity
  8
CEN
100
AcDbLine
 10
1365.753876825589
 20
997.7391503040184
 30
0.0
 11
1365.753876825589
 21
1029.221264687455
 31
0.0
  0
LINE
  5
5D9
330
1F
100
AcDbEntity
  8
CEN
100
AcDbLine
 10
1373.833191575229
 20
1006.837865335178
 30
0.0
 11
1357.674562075949
 21
1006.837865335178
 31
0.0
  0
ARC
  5
5DA
330
1F
100
AcDbEntity
  8
0
100
AcDbCircle
 10
1365.753876825589
 20
1006.837865335178
 30
0.0
 40
6.0
100
AcDbArc
 50
180.0
 51
0.0
  0
LINE
  5
5DB
330
1F
100
AcDbEntity
  8
0
100
AcDbLine
 10
1374.253876825589
 20
1020.737865335178
 30
0.0
 11
1374.253876825589
 21
1009.137865335178
 31
0.0
  0
LINE
  5
5DC
330
1F
100
AcDbEntity
  8
0
100
AcDbLine
 10
1357.253876825589
 20
1020.737865335178
 30
0.0
 11
1357.253876825589
 21
1009.137865335178
 31
0.0
  0
LINE
  5
5DD
330
1F
100
AcDbEntity
  8
0
100
AcDbLine
 10
1374.253876825589
 20
1009.137865335178
 30
0.0
 11
1357.253876825589
 21
1009.137865335178
 31
0.0
  0
LINE
  5
5DE
330
1F
100
AcDbEntity
  8
0
100
AcDbLine
 10
1383.253876825589
 20
1020.737865335178
 30
0.0
 11
1383.253876825589
 21
1020.241214548843
 31
0.0
  0
ARC
  5
5DF
330
1F
100
AcDbEntity
  8
0
100
AcDbCircle
 10
1381.253876825589
 20
1020.241214548843
 30
0.0
 40
2.0
100
AcDbArc
 50
282.5634693985244
 51
0.0
  0
LINE
  5
5E0
330
1F
100
AcDbEntity
  8
0
100
AcDbLine
 10
1348.253876825589
 20
1020.737865335178
 30
0.0
 11
1348.253876825589
 21
1012.836877257501
 31
0.0
  0
ARC
  5
5E1
330
1F
100
AcDbEntity
  8
0
100
AcDbCircle
 10
1350.253876825589
 20
1012.836877257501
 30
0.0
 40
2.0
100
AcDbArc
 50
180.0
 51
282.5634693985244
  0
DIMENSION
  5
5E2
102
{ACAD_XDICTIONARY
360
5E3
102
}
102
{ACAD_REACTORS
330
5E4
102
}
330
1F
100
AcDbEntity
  8
DIM
100
AcDbDimension
  2
*D17
 10
1226.433809876217
 20
1129.315681238967
 30
0.0
 11
1197.624332989149
 21
1129.315681238967
 31
0.0
 70
   160
 71
     5
 42
60.00000000000091
  3
ISO-25
100
AcDbAlignedDimension
 13
1166.433809876216
 23
1102.651461765297
 33
0.0
 14
1226.433809876217
 24
1102.651461765296
 34
0.0
100
AcDbRotatedDimension
  0
TEXT
  5
5E5
330
1F
100
AcDbEntity
  8
TEXT
100
AcDbText
 10
1361.448072380635
 20
1012.204579528477
 30
0.0
 40
6.0
  1
\U+00BD"
  7
TNR
 11
1361.448072380635
 21
1015.204579528477
 31
0.0
100
AcDbText
 73
     2
  0
LINE
  5
5E6
330
1F
100
AcDbEntity
  8
CEN
100
AcDbLine
 10
1383.026531759816
 20
1018.637865335178
 30
0.0
 11
1381.970346157638
 21
1018.637865335178
 31
0.0
  0
LINE
  5
5E7
330
1F
100
AcDbEntity
  8
CEN
100
AcDbLine
 10
1348.748290394458
 20
1010.837865335178
 30
0.0
 11
1351.362091638185
 21
1010.837865335178
 31
0.0
  0
LINE
  5
5E8
330
1F
100
AcDbEntity
  8
0
100
AcDbLine
 10
1350.688918771189
 20
1010.884765963141
 30
0.0
 11
1357.253876825589
 21
1012.452803503086
 31
0.0
  0
LINE
  5
5E9
330
1F
100
AcDbEntity
  8
0
100
AcDbLine
 10
1374.253876825589
 20
1016.513246533822
 30
0.0
 11
1381.68891877119
 21
1018.289103254484
 31
0.0
  0
LINE
  5
5EA
330
1F
100
AcDbEntity
  8
0
100
AcDbLine
 10
1184.433809876217
 20
1020.737865335178
 30
0.0
 11
1184.433809876217
 21
1020.241214548843
 31
0.0
  0
ARC
  5
5EB
330
1F
100
AcDbEntity
  8
0
100
AcDbCircle
 10
1186.433809876217
 20
1020.241214548843
 30
0.0
 40
2.0
100
AcDbArc
 50
180.0
 51
257.4365306014755
  0
LINE
  5
5EC
330
1F
100
AcDbEntity
  8
0
100
AcDbLine
 10
1219.433809876217
 20
1020.737865335178
 30
0.0
 11
1219.433809876217
 21
1012.836877257501
 31
0.0
  0
ARC
  5
5ED
330
1F
100
AcDbEntity
  8
0
100
AcDbCircle
 10
1217.433809876217
 20
1012.836877257501
 30
0.0
 40
2.0
100
AcDbArc
 50
257.4365306014755
 51
0.0
  0
LINE
  5
5EE
330
1F
100
AcDbEntity
  8
CEN
100
AcDbLine
 10
1184.661154941989
 20
1018.637865335178
 30
0.0
 11
1185.717340544168
 21
1018.637865335178
 31
0.0
  0
LINE
  5
5EF
330
1F
100
AcDbEntity
  8
CEN
100
AcDbLine
 10
1218.939396307348
 20
1010.837865335178
 30
0.0
 11
1216.325595063621
 21
1010.837865335178
 31
0.0
  0
LINE
  5
5F0
330
1F
100
AcDbEntity
  8
0
100
AcDbLine
 10
1216.998767930616
 20
1010.884765963141
 30
0.0
 11
1210.433809876217
 21
1012.452803503086
 31
0.0
  0
LINE
  5
5F1
330
1F
100
AcDbEntity
  8
0
100
AcDbLine
 10
1193.433809876217
 20
1016.513246533822
 30
0.0
 11
1185.998767930616
 21
1018.289103254484
 31
0.0
  0
LINE
  5
5F2
330
1F
100
AcDbEntity
  8
0
100
AcDbLine
 10
1262.31823497537
 20
1020.737865335179
 30
0.0
 11
1262.31823497537
 21
1015.568078392003
 31
0.0
  0
ARC
  5
5F3
330
1F
100
AcDbEntity
  8
0
100
AcDbCircle
 10
1268.932846626866
 20
1015.953953974843
 30
0.0
 40
6.625857473983146
100
AcDbArc
 50
183.3386711357873
 51
266.8883457807017
  0
LINE
  5
5F4
330
1F
100
AcDbEntity
  8
0
100
AcDbLine
 10
1305.726267613428
 20
1009.837865335178
 30
0.0
 11
1305.726267613428
 21
1020.737865335179
 31
0.0
  0
ARC
  5
5F5
330
1F
100
AcDbEntity
  8
0
100
AcDbCircle
 10
1305.226267613428
 20
1009.837865335178
 30
0.0
 40
0.5
100
AcDbArc
 50
270.0
 51
0.0
  0
LINE
  5
5F6
330
1F
100
AcDbEntity
  8
0
100
AcDbLine
 10
1305.226267613428
 20
1009.337865335178
 30
0.0
 11
1298.160024343167
 21
1009.337865335178
 31
0.0
  0
LINE
  5
5F7
330
1F
100
AcDbEntity
  8
0
100
AcDbLine
 10
1305.134300251486
 20
1020.737865335179
 30
0.0
 11
1305.134300251486
 21
1015.568078392003
 31
0.0
  0
ARC
  5
5F8
330
1F
100
AcDbEntity
  8
0
100
AcDbCircle
 10
1298.51968859999
 20
1015.953953974843
 30
0.0
 40
6.625857473983146
100
AcDbArc
 50
273.1116542192983
 51
356.6613288642126
  0
LINE
  5
5F9
330
1F
100
AcDbEntity
  8
0
100
AcDbLine
 10
1276.415535294068
 20
1014.0121391941
 30
0.0
 11
1291.036999932787
 21
1014.012139194101
 31
0.0
  0
POINT
  5
5FA
330
1F
100
AcDbEntity
  8
0
 60
     1
100
AcDbPoint
 10
3141.909148055451
 20
331.6753697344737
 30
0.0
1001
GENIUS_GENOBJ-N-CRS_13
1002
{
1000
OWNER
1000
GEN
1002
}
1001
GENIUS_GENOLIS_13
1002
{
1000
ENT
1005
0
1005
0
1005
0
1005
4D2
1002
}
1001
GENIUS_GENOENT_13
1002
{
1000
MYREF
1005
5FA
1002
}
1002
{
1000
GRP
1005
0
1002
}
1001
GENIUS_GENODEF_13
1002
{
1000
HIER
1070
    10
1002
}
1002
{
1000
MANEDIT
1070
     1
1002
}
1002
{
1000
NOSEL
1070
     0
1002
}
1002
{
1000
BEHIND
1070
     0
1002
}
1002
{
1000
OTHER
1070
     0
1002
}
1002
{
1000
REACTOR
1002
}
  0
POINT
  5
5FB
330
1F
100
AcDbEntity
  8
0
 60
     1
100
AcDbPoint
 10
3130.584562832596
 20
340.55095621311
 30
0.0
1001
GENIUS_GENOBJ-N-CRS_13
1002
{
1000
OWNER
1000
GEN
1002
}
1001
GENIUS_GENOLIS_13
1002
{
1000
ENT
1005
0
1005
0
1005
0
1005
4D1
1002
}
1001
GENIUS_GENOENT_13
1002
{
1000
MYREF
1005
5FB
1002
}
1002
{
1000
GRP
1005
0
1002
}
1001
GENIUS_GENODEF_13
1002
{
1000
HIER
1070
    10
1002
}
1002
{
1000
MANEDIT
1070
     1
1002
}
1002
{
1000
NOSEL
1070
     0
1002
}
1002
{
1000
BEHIND
1070
     0
1002
}
1002
{
1000
OTHER
1070
     0
1002
}
1002
{
1000
REACTOR
1002
}
  0
POINT
  5
5FC
330
1F
100
AcDbEntity
  8
0
 60
     1
100
AcDbPoint
 10
3136.943236530433
 20
331.6753697344737
 30
0.0
1001
GENIUS_GENOBJ-N-CRS_13
1002
{
1000
OWNER
1000
GEN
1002
}
1001
GENIUS_GENOLIS_13
1002
{
1000
ENT
1005
0
1005
0
1005
0
1005
4D0
1002
}
1001
GENIUS_GENOENT_13
1002
{
1000
MYREF
1005
5FC
1002
}
1002
{
1000
GRP
1005
0
1002
}
1001
GENIUS_GENODEF_13
1002
{
1000
HIER
1070
    10
1002
}
1002
{
1000
MANEDIT
1070
     1
1002
}
1002
{
1000
NOSEL
1070
     0
1002
}
1002
{
1000
BEHIND
1070
     0
1002
}
1002
{
1000
OTHER
1070
     0
1002
}
1002
{
1000
REACTOR
1002
}
  0
ENDSEC
  0
SECTION
  2
OBJECTS
  0
DICTIONARY
  5
C
330
0
100
AcDbDictionary
281
     1
  3
ACAD_COLOR
350
BE
  3
ACAD_GROUP
350
D
  3
ACAD_LAYOUT
350
1A
  3
ACAD_MATERIAL
350
BD
  3
ACAD_MLINESTYLE
350
17
  3
ACAD_PLOTSETTINGS
350
19
  3
ACAD_PLOTSTYLENAME
350
E
  3
ACAD_TABLESTYLE
350
11A
  3
ACDBHEADERROUNDTRIPXREC
350
8A5
  3
AcDbVariableDictionary
350
94
  3
AcmDictionary
350
5B
  3
AMG
350
41
  3
AMGSNAPSETTINGS
350
1B8
  3
DWGPROPS
350
8A4
  0
DICTIONARY
  5
2DA
330
2
100
AcDbDictionary
280
     1
281
     1
  3
ACAD_LAYERSTATES
360
2DB
  0
DICTIONARY
  5
2C2
330
2C1
100
AcDbDictionary
280
     1
281
     1
  0
DICTIONARY
  5
2C4
330
2C3
100
AcDbDictionary
280
     1
281
     1
  0
DICTIONARY
  5
2C7
330
2C6
100
AcDbDictionary
280
     1
281
     1
  0
DICTIONARY
  5
8F
330
1F
100
AcDbDictionary
280
     1
281
     1
  0
DICTIONARY
  5
571
330
570
100
AcDbDictionary
280
     1
281
     1
  3
ACAD_DIMASSOC
360
572
  0
DICTIONARY
  5
575
330
574
100
AcDbDictionary
280
     1
281
     1
  3
ACAD_DIMASSOC
360
576
  0
DICTIONARY
  5
578
330
577
100
AcDbDictionary
280
     1
281
     1
  3
ACAD_DIMASSOC
360
579
  0
DICTIONARY
  5
57B
330
57A
100
AcDbDictionary
280
     1
281
     1
  3
ACAD_DIMASSOC
360
57C
  0
DICTIONARY
  5
583
330
582
100
AcDbDictionary
280
     1
281
     1
  3
ACAD_DIMASSOC
360
584
  0
DICTIONARY
  5
586
330
585
100
AcDbDictionary
280
     1
281
     1
  3
ACAD_DIMASSOC
360
587
  0
DICTIONARY
  5
590
330
58F
100
AcDbDictionary
280
     1
281
     1
  3
ACAD_DIMASSOC
360
591
  0
DICTIONARY
  5
596
330
595
100
AcDbDictionary
280
     1
281
     1
  3
ACAD_DIMASSOC
360
597
  0
DICTIONARY
  5
599
330
598
100
AcDbDictionary
280
     1
281
     1
  3
ACAD_DIMASSOC
360
59A
  0
DICTIONARY
  5
59C
330
59B
100
AcDbDictionary
280
     1
281
     1
  3
ACAD_DIMASSOC
360
59D
  0
DICTIONARY
  5
59F
330
59E
100
AcDbDictionary
280
     1
281
     1
  3
ACAD_DIMASSOC
360
5A0
  0
DICTIONARY
  5
5E3
330
5E2
100
AcDbDictionary
280
     1
281
     1
  3
ACAD_DIMASSOC
360
5E4
  0
DICTIONARY
  5
BE
102
{ACAD_REACTORS
330
C
102
}
330
C
100
AcDbDictionary
281
     1
  0
DICTIONARY
  5
D
102
{ACAD_REACTORS
330
C
102
}
330
C
100
AcDbDictionary
281
     1
  0
DICTIONARY
  5
1A
102
{ACAD_REACTORS
330
C
102
}
330
C
100
AcDbDictionary
281
     1
  3
Model
350
22
  3
配置1
350
1E
  3
配置2
350
26
  0
DICTIONARY
  5
BD
102
{ACAD_REACTORS
330
C
102
}
330
C
100
AcDbDictionary
281
     1
  0
DICTIONARY
  5
17
102
{ACAD_REACTORS
330
C
102
}
330
C
100
AcDbDictionary
281
     1
  3
Standard
350
18
  0
DICTIONARY
  5
19
102
{ACAD_REACTORS
330
C
102
}
330
C
100
AcDbDictionary
281
     1
  0
ACDBDICTIONARYWDFLT
  5
E
102
{ACAD_REACTORS
330
C
102
}
330
C
100
AcDbDictionary
281
     1
  3
Normal
350
F
100
AcDbDictionaryWithDefault
340
F
  0
DICTIONARY
  5
11A
102
{ACAD_REACTORS
330
C
102
}
330
C
100
AcDbDictionary
281
     1
  3
Standard
350
11B
  0
DICTIONARY
  5
8A5
102
{ACAD_REACTORS
330
C
102
}
330
C
100
AcDbDictionary
281
     1
  0
DICTIONARY
  5
94
102
{ACAD_REACTORS
330
C
102
}
330
C
100
AcDbDictionary
281
     1
  3
CTABLESTYLE
350
138
  3
DIMASSOC
350
96
  3
INDEXCTL
350
95
  3
PROJECTNAME
350
81C
  0
DICTIONARY
  5
5B
102
{ACAD_REACTORS
330
C
102
}
330
C
100
AcDbDictionary
281
     1
  3
AcmBOM
350
1B5
  3
AcmStdDictionary
350
61
  3
AMDTSECTSYM_ARROWCOLOR
350
123
  0
DICTIONARY
  5
41
102
{ACAD_REACTORS
330
C
102
}
330
C
100
AcDbDictionary
281
     1
  0
DICTIONARY
  5
1B8
102
{ACAD_REACTORS
330
C
102
}
330
C
100
AcDbDictionary
281
     1
  0
XRECORD
  5
8A4
102
{ACAD_REACTORS
330
C
102
}
330
C
100
AcDbXrecord
280
     1
  1
DWGPROPS COOKIE
  2

  3

  4

  6

  7

  8

  9

300
AmdtFileType=84
301
=
302
=
303
=
304
=
305
=
306
=
307
=
308
=
309
=
 40
0.0014322916666667
 41
2455812.58931713
 42
2455812.607048611
  1

 90
        1
  0
DICTIONARY
  5
2DB
102
{ACAD_REACTORS
330
2DA
102
}
330
2DA
100
AcDbDictionary
281
     1
  0
DIMASSOC
  5
572
102
{ACAD_REACTORS
330
571
102
}
330
571
100
AcDbDimAssoc
330
570
 90
        3
 70
     0
 71
     0
  1
AcDbOsnapPointRef
 72
    10
331
4F9
 73
     2
 91
        0
 40
0.9552502126551772
 10
0.0
 20
0.0
 30
0.0
 75
     0
  1
AcDbOsnapPointRef
 72
     8
331
4F8
 73
     2
 91
        0
 40
0.9556878105218087
 10
0.0
 20
0.0
 30
0.0
 75
     1
  1
AcDbOsnapPointRef
 72
    10
331
4F9
 73
     2
 91
        0
 40
0.9552502126551772
 10
0.0
 20
0.0
 30
0.0
 75
     0
  0
DIMASSOC
  5
576
102
{ACAD_REACTORS
330
575
102
}
330
575
100
AcDbDimAssoc
330
574
 90
        3
 70
     0
 71
     0
  1
AcDbOsnapPointRef
 72
    11
331
4EC
 73
     2
 91
        0
 40
0.9999999999999776
 10
0.0
 20
0.0
 30
0.0
332
4E2
 74
     2
 92
        0
 75
     0
  1
AcDbOsnapPointRef
 72
    10
331
4F8
 73
     2
 91
        0
 40
0.9828574296246742
 10
0.0
 20
0.0
 30
0.0
 75
     0
  0
DIMASSOC
  5
579
102
{ACAD_REACTORS
330
578
102
}
330
578
100
AcDbDimAssoc
330
577
 90
        2
 70
     0
 71
     0
  1
AcDbOsnapPointRef
 72
    11
331
4FA
 73
     2
 91
        0
 40
0.0
 10
0.0
 20
0.0
 30
0.0
332
51C
 74
     2
 92
        0
 75
     0
  0
DIMASSOC
  5
57C
102
{ACAD_REACTORS
330
57B
102
}
330
57B
100
AcDbDimAssoc
330
57A
 90
        1
 70
     0
 71
     0
  1
AcDbOsnapPointRef
 72
    10
331
51C
 73
     2
 91
        0
 40
0.6703633445178758
 10
0.0
 20
0.0
 30
0.0
 75
     0
  0
DIMASSOC
  5
584
102
{ACAD_REACTORS
330
583
102
}
330
583
100
AcDbDimAssoc
330
582
 90
        1
 70
     0
 71
     0
  1
AcDbOsnapPointRef
 72
     1
331
4E8
 73
     2
 91
        0
 40
1.0
 10
0.0
 20
0.0
 30
2.000000000000000E+50
 75
     0
  0
DIMASSOC
  5
587
102
{ACAD_REACTORS
330
586
102
}
330
586
100
AcDbDimAssoc
330
585
 90
        1
 70
     0
 71
     0
  1
AcDbOsnapPointRef
 72
     1
331
51D
 73
     2
 91
        0
 40
1.0
 10
0.0
 20
0.0
 30
2.000000000000000E+50
 75
     0
  0
DIMASSOC
  5
591
102
{ACAD_REACTORS
330
590
102
}
330
590
100
AcDbDimAssoc
330
58F
 90
        3
 70
     0
 71
     0
  1
AcDbOsnapPointRef
 72
    13
331
511
 73
     2
 91
        0
 40
0.0
 10
0.0
 20
0.0
 30
2.000000000000000E+50
 75
     0
  1
AcDbOsnapPointRef
 72
    10
331
505
 73
     2
 91
        0
 40
0.0287025529665639
 10
0.0
 20
0.0
 30
0.0
 75
     0
  0
DIMASSOC
  5
597
102
{ACAD_REACTORS
330
596
102
}
330
596
100
AcDbDimAssoc
330
595
 90
        3
 70
     0
 71
     0
  1
AcDbOsnapPointRef
 72
     1
331
540
 73
     2
 91
        0
 40
1.0
 10
0.0
 20
0.0
 30
2.000000000000000E+50
 75
     0
  1
AcDbOsnapPointRef
 72
     8
331
53B
 73
     2
 91
        0
 40
0.9999999999995452
 10
0.0
 20
0.0
 30
0.0
 75
     1
  1
AcDbOsnapPointRef
 72
     1
331
540
 73
     2
 91
        0
 40
1.0
 10
0.0
 20
0.0
 30
2.000000000000000E+50
 75
     0
  0
DIMASSOC
  5
59A
102
{ACAD_REACTORS
330
599
102
}
330
599
100
AcDbDimAssoc
330
598
 90
        3
 70
     0
 71
     0
  1
AcDbOsnapPointRef
 72
     1
331
53B
 73
     2
 91
        0
 40
1.0
 10
0.0
 20
0.0
 30
2.000000000000000E+50
 75
     0
  1
AcDbOsnapPointRef
 72
     4
331
553
 73
     2
 91
        0
 40
0.0
 10
0.0
 20
0.0
 30
0.0
 75
     0
  0
DIMASSOC
  5
59D
102
{ACAD_REACTORS
330
59C
102
}
330
59C
100
AcDbDimAssoc
330
59B
 90
        3
 70
     0
 71
     0
  1
AcDbOsnapPointRef
 72
    11
331
55B
 73
     2
 91
        0
 40
1.0
 10
0.0
 20
0.0
 30
0.0
332
552
 74
     2
 92
        0
 75
     0
  1
AcDbOsnapPointRef
 72
     1
331
559
 73
     2
 91
        0
 40
1.0
 10
0.0
 20
0.0
 30
2.000000000000000E+50
 75
     0
  0
DIMASSOC
  5
5A0
102
{ACAD_REACTORS
330
59F
102
}
330
59F
100
AcDbDimAssoc
330
59E
 90
        1
 70
     0
 71
     0
  1
AcDbOsnapPointRef
 72
    13
331
53C
 73
     2
 91
        0
 40
0.0
 10
0.0
 20
0.0
 30
2.000000000000000E+50
 75
     0
  0
DIMASSOC
  5
5E4
102
{ACAD_REACTORS
330
5E3
102
}
330
5E3
100
AcDbDimAssoc
330
5E2
 90
        3
 70
     0
 71
     0
  1
AcDbOsnapPointRef
 72
    11
331
4EC
 73
     2
 91
        0
 40
0.999999999999977
 10
0.0
 20
0.0
 30
0.0
332
4E2
 74
     2
 92
        0
 75
     0
  1
AcDbOsnapPointRef
 72
     8
331
4FA
 73
     2
 91
        0
 40
0.0
 10
0.0
 20
0.0
 30
0.0
 75
     1
  1
AcDbOsnapPointRef
 72
    11
331
4EC
 73
     2
 91
        0
 40
0.999999999999977
 10
0.0
 20
0.0
 30
0.0
332
4E2
 74
     2
 92
        0
 75
     0
  0
LAYOUT
  5
22
102
{ACAD_XDICTIONARY
360
8A8
102
}
102
{ACAD_REACTORS
330
1A
102
}
330
1A
100
AcDbPlotSettings
  1

  2

  4

  6

 40
0.0
 41
0.0
 42
0.0
 43
0.0
 44
0.0
 45
0.0
 46
0.0
 47
0.0
 48
0.0
 49
0.0
140
0.0
141
0.0
142
1.0
143
1.0
 70
  1712
 72
     0
 73
     0
 74
     0
  7

 75
     0
147
1.0
148
0.0
149
0.0
100
AcDbLayout
  1
Model
 70
     1
 71
     0
 10
0.0
 20
0.0
 11
12.0
 21
9.0
 12
0.0
 22
0.0
 32
0.0
 14
0.0
 24
0.0
 34
0.0
 15
0.0
 25
0.0
 35
0.0
146
0.0
 13
0.0
 23
0.0
 33
0.0
 16
1.0
 26
0.0
 36
0.0
 17
0.0
 27
1.0
 37
0.0
 76
     0
330
1F
  0
LAYOUT
  5
1E
102
{ACAD_XDICTIONARY
360
8A6
102
}
102
{ACAD_REACTORS
330
1A
102
}
330
1A
100
AcDbPlotSettings
  1

  2

  4

  6

 40
0.0
 41
0.0
 42
0.0
 43
0.0
 44
0.0
 45
0.0
 46
0.0
 47
0.0
 48
0.0
 49
0.0
140
0.0
141
0.0
142
1.0
143
1.0
 70
   688
 72
     0
 73
     0
 74
     5
  7

 75
    16
147
1.0
148
0.0
149
0.0
100
AcDbLayout
  1
配置1
 70
     1
 71
     1
 10
0.0
 20
0.0
 11
420.0
 21
297.0
 12
0.0
 22
0.0
 32
0.0
 14
1.000000000000000E+20
 24
1.000000000000000E+20
 34
1.000000000000000E+20
 15
-1.000000000000000E+20
 25
-1.000000000000000E+20
 35
-1.000000000000000E+20
146
0.0
 13
0.0
 23
0.0
 33
0.0
 16
1.0
 26
0.0
 36
0.0
 17
0.0
 27
1.0
 37
0.0
 76
     0
330
1B
  0
LAYOUT
  5
26
102
{ACAD_XDICTIONARY
360
8AA
102
}
102
{ACAD_REACTORS
330
1A
102
}
330
1A
100
AcDbPlotSettings
  1

  2

  4

  6

 40
0.0
 41
0.0
 42
0.0
 43
0.0
 44
0.0
 45
0.0
 46
0.0
 47
0.0
 48
0.0
 49
0.0
140
0.0
141
0.0
142
1.0
143
1.0
 70
   688
 72
     0
 73
     0
 74
     5
  7

 75
    16
147
1.0
148
0.0
149
0.0
100
AcDbLayout
  1
配置2
 70
     1
 71
     2
 10
0.0
 20
0.0
 11
12.0
 21
9.0
 12
0.0
 22
0.0
 32
0.0
 14
0.0
 24
0.0
 34
0.0
 15
0.0
 25
0.0
 35
0.0
146
0.0
 13
0.0
 23
0.0
 33
0.0
 16
1.0
 26
0.0
 36
0.0
 17
0.0
 27
1.0
 37
0.0
 76
     0
330
23
  0
MLINESTYLE
  5
18
102
{ACAD_REACTORS
330
17
102
}
330
17
100
AcDbMlineStyle
  2
STANDARD
 70
     0
  3

 62
   256
 51
90.0
 52
90.0
 71
     2
 49
0.5
 62
   256
  6
BYLAYER
 49
-0.5
 62
   256
  6
BYLAYER
  0
ACDBPLACEHOLDER
  5
F
102
{ACAD_REACTORS
330
E
102
}
330
E
  0
TABLESTYLE
  5
11B
102
{ACAD_REACTORS
330
11A
102
}
330
11A
100
AcDbTableStyle
  3
Standard
 70
     0
 71
     0
 40
1.5
 41
1.5
280
     0
281
     0
  7
STANDARD
140
4.5
170
     2
 62
     0
 63
     7
283
     0
274
    -2
284
     1
 64
     0
275
    -2
285
     1
 65
     0
276
    -2
286
     1
 66
     0
277
    -2
287
     1
 67
     0
278
    -2
288
     1
 68
     0
279
    -2
289
     1
 69
     0
  7
STANDARD
140
6.0
170
     5
 62
     0
 63
     7
283
     0
274
    -2
284
     1
 64
     0
275
    -2
285
     1
 65
     0
276
    -2
286
     1
 66
     0
277
    -2
287
     1
 67
     0
278
    -2
288
     1
 68
     0
279
    -2
289
     1
 69
     0
  7
STANDARD
140
4.5
170
     5
 62
     0
 63
     7
283
     0
274
    -2
284
     1
 64
     0
275
    -2
285
     1
 65
     0
276
    -2
286
     1
 66
     0
277
    -2
287
     1
 67
     0
278
    -2
288
     1
 68
     0
279
    -2
289
     1
 69
     0
  0
DICTIONARYVAR
  5
138
102
{ACAD_REACTORS
330
94
102
}
330
94
100
DictionaryVariables
280
     0
  1
STANDARD
  0
DICTIONARYVAR
  5
96
102
{ACAD_REACTORS
330
94
102
}
330
94
100
DictionaryVariables
280
     0
  1
2
  0
DICTIONARYVAR
  5
95
102
{ACAD_REACTORS
330
94
102
}
330
94
100
DictionaryVariables
280
     0
  1
0
  0
DICTIONARYVAR
  5
81C
102
{ACAD_REACTORS
330
94
102
}
330
94
100
DictionaryVariables
280
     0
  1

  0
DICTIONARY
  5
1B5
102
{ACAD_REACTORS
330
5B
102
}
330
5B
100
AcDbDictionary
281
     1
  0
DICTIONARY
  5
61
102
{ACAD_REACTORS
330
5B
102
}
330
5B
100
AcDbDictionary
281
     1
  0
XRECORD
  5
123
102
{ACAD_REACTORS
330
5B
102
}
330
5B
100
AcDbXrecord
280
     1
 90
-1023410169
  0
DICTIONARY
  5
8A8
330
22
100
AcDbDictionary
280
     1
281
     1
  3
ACAD_XREC_ROUNDTRIP
360
8A9
  0
DICTIONARY
  5
8A6
330
1E
100
AcDbDictionary
280
     1
281
     1
  3
ACAD_XREC_ROUNDTRIP
360
8A7
  0
DICTIONARY
  5
8AA
330
26
100
AcDbDictionary
280
     1
281
     1
  3
ACAD_XREC_ROUNDTRIP
360
8AB
  0
XRECORD
  5
8A9
102
{ACAD_REACTORS
330
8A8
102
}
330
8A8
100
AcDbXrecord
280
     1
102
SHADEPLOT
 70
     0
102
SHADEPLOTRESLEVEL
 70
     2
102
SHADEPLOTCUSTOMDPI
 70
   300
  0
XRECORD
  5
8A7
102
{ACAD_REACTORS
330
8A6
102
}
330
8A6
100
AcDbXrecord
280
     1
102
SHADEPLOT
 70
     0
102
SHADEPLOTRESLEVEL
 70
     2
102
SHADEPLOTCUSTOMDPI
 70
   300
  0
XRECORD
  5
8AB
102
{ACAD_REACTORS
330
8AA
102
}
330
8AA
100
AcDbXrecord
280
     1
102
SHADEPLOT
 70
     0
102
SHADEPLOTRESLEVEL
 70
     2
102
SHADEPLOTCUSTOMDPI
 70
   300
  0
ENDSEC
  0
EOF
